  0
SECTION
  2
HEADER
  9
$ACADVER
  1
AC1015
  9
$ACADMAINTVER
 70
    20
  9
$DWGCODEPAGE
  3
ANSI_932
  9
$INSBASE
 10
0.0
 20
0.0
 30
0.0
  9
$EXTMIN
 10
139.9999999999995
 20
-0.0000000000000909
 30
0.0
  9
$EXTMAX
 10
16307.2
 20
11409.6
 30
0.0
  9
$LIMMIN
 10
0.0
 20
0.0
  9
$LIMMAX
 10
16800.0
 20
11880.0
  9
$ORTHOMODE
 70
     0
  9
$REGENMODE
 70
     1
  9
$FILLMODE
 70
     1
  9
$QTEXTMODE
 70
     0
  9
$MIRRTEXT
 70
     1
  9
$LTSCALE
 40
20.0
  9
$ATTMODE
 70
     1
  9
$TEXTSIZE
 40
4.0
  9
$TRACEWID
 40
1.0
  9
$TEXTSTYLE
  7
STYLE1
  9
$CLAYER
  8
寸法
  9
$CELTYPE
  6
BYLAYER
  9
$CECOLOR
 62
   256
  9
$CELTSCALE
 40
50.0
  9
$DISPSILH
 70
     0
  9
$DIMSCALE
 40
40.0
  9
$DIMASZ
 40
2.5
  9
$DIMEXO
 40
0.5
  9
$DIMDLI
 40
7.0
  9
$DIMRND
 40
0.0
  9
$DIMDLE
 40
0.0
  9
$DIMEXE
 40
1.5
  9
$DIMTP
 40
0.0
  9
$DIMTM
 40
0.0
  9
$DIMTXT
 40
3.0
  9
$DIMCEN
 40
0.0
  9
$DIMTSZ
 40
0.0
  9
$DIMTOL
 70
     0
  9
$DIMLIM
 70
     0
  9
$DIMTIH
 70
     0
  9
$DIMTOH
 70
     0
  9
$DIMSE1
 70
     0
  9
$DIMSE2
 70
     0
  9
$DIMTAD
 70
     3
  9
$DIMZIN
 70
     8
  9
$DIMBLK
  1

  9
$DIMASO
 70
     1
  9
$DIMSHO
 70
     1
  9
$DIMPOST
  1

  9
$DIMAPOST
  1

  9
$DIMALT
 70
     0
  9
$DIMALTD
 70
     2
  9
$DIMALTF
 40
0.0394
  9
$DIMLFAC
 40
1.0
  9
$DIMTOFL
 70
     1
  9
$DIMTVP
 40
0.0
  9
$DIMTIX
 70
     1
  9
$DIMSOXD
 70
     0
  9
$DIMSAH
 70
     1
  9
$DIMBLK1
  1
DOTSMALL
  9
$DIMBLK2
  1
DOTSMALL
  9
$DIMSTYLE
  2
INABA_S40G
  9
$DIMCLRD
 70
     0
  9
$DIMCLRE
 70
     0
  9
$DIMCLRT
 70
     7
  9
$DIMTFAC
 40
1.0
  9
$DIMGAP
 40
1.0
  9
$DIMJUST
 70
     0
  9
$DIMSD1
 70
     0
  9
$DIMSD2
 70
     0
  9
$DIMTOLJ
 70
     1
  9
$DIMTZIN
 70
     0
  9
$DIMALTZ
 70
     0
  9
$DIMALTTZ
 70
     0
  9
$DIMUPT
 70
     1
  9
$DIMDEC
 70
     1
  9
$DIMTDEC
 70
     4
  9
$DIMALTU
 70
     2
  9
$DIMALTTD
 70
     2
  9
$DIMTXSTY
  7
STYLE1
  9
$DIMAUNIT
 70
     0
  9
$DIMADEC
 70
     0
  9
$DIMALTRND
 40
0.0
  9
$DIMAZIN
 70
     0
  9
$DIMDSEP
 70
    46
  9
$DIMATFIT
 70
     3
  9
$DIMFRAC
 70
     0
  9
$DIMLDRBLK
  1

  9
$DIMLUNIT
 70
     2
  9
$DIMLWD
 70
    -2
  9
$DIMLWE
 70
    -2
  9
$DIMTMOVE
 70
     0
  9
$LUNITS
 70
     2
  9
$LUPREC
 70
     1
  9
$SKETCHINC
 40
1.0
  9
$FILLETRAD
 40
3.0
  9
$AUNITS
 70
     0
  9
$AUPREC
 70
     0
  9
$MENU
  1
acad
  9
$ELEVATION
 40
0.0
  9
$PELEVATION
 40
0.0
  9
$THICKNESS
 40
0.0
  9
$LIMCHECK
 70
     0
  9
$CHAMFERA
 40
0.0
  9
$CHAMFERB
 40
0.0
  9
$CHAMFERC
 40
0.0
  9
$CHAMFERD
 40
0.0
  9
$SKPOLY
 70
     0
  9
$TDCREATE
 40
2451368.612993866
  9
$TDUCREATE
 40
2451368.237993866
  9
$TDUPDATE
 40
2455575.686053958
  9
$TDUUPDATE
 40
2455575.311053959
  9
$TDINDWG
 40
0.6712408681
  9
$TDUSRTIMER
 40
0.6712408681
  9
$USRTIMER
 70
     1
  9
$ANGBASE
 50
0.0
  9
$ANGDIR
 70
     0
  9
$PDMODE
 70
     3
  9
$PDSIZE
 40
2.0
  9
$PLINEWID
 40
0.0
  9
$SPLFRAME
 70
     0
  9
$SPLINETYPE
 70
     6
  9
$SPLINESEGS
 70
     8
  9
$HANDSEED
  5
19AFF
  9
$SURFTAB1
 70
     6
  9
$SURFTAB2
 70
     6
  9
$SURFTYPE
 70
     6
  9
$SURFU
 70
     6
  9
$SURFV
 70
     6
  9
$UCSBASE
  2

  9
$UCSNAME
  2

  9
$UCSORG
 10
0.0
 20
0.0
 30
0.0
  9
$UCSXDIR
 10
1.0
 20
0.0
 30
0.0
  9
$UCSYDIR
 10
0.0
 20
1.0
 30
0.0
  9
$UCSORTHOREF
  2

  9
$UCSORTHOVIEW
 70
     0
  9
$UCSORGTOP
 10
0.0
 20
0.0
 30
0.0
  9
$UCSORGBOTTOM
 10
0.0
 20
0.0
 30
0.0
  9
$UCSORGLEFT
 10
0.0
 20
0.0
 30
0.0
  9
$UCSORGRIGHT
 10
0.0
 20
0.0
 30
0.0
  9
$UCSORGFRONT
 10
0.0
 20
0.0
 30
0.0
  9
$UCSORGBACK
 10
0.0
 20
0.0
 30
0.0
  9
$PUCSBASE
  2

  9
$PUCSNAME
  2

  9
$PUCSORG
 10
0.0
 20
0.0
 30
0.0
  9
$PUCSXDIR
 10
1.0
 20
0.0
 30
0.0
  9
$PUCSYDIR
 10
0.0
 20
1.0
 30
0.0
  9
$PUCSORTHOREF
  2

  9
$PUCSORTHOVIEW
 70
     0
  9
$PUCSORGTOP
 10
0.0
 20
0.0
 30
0.0
  9
$PUCSORGBOTTOM
 10
0.0
 20
0.0
 30
0.0
  9
$PUCSORGLEFT
 10
0.0
 20
0.0
 30
0.0
  9
$PUCSORGRIGHT
 10
0.0
 20
0.0
 30
0.0
  9
$PUCSORGFRONT
 10
0.0
 20
0.0
 30
0.0
  9
$PUCSORGBACK
 10
0.0
 20
0.0
 30
0.0
  9
$USERI1
 70
     0
  9
$USERI2
 70
     0
  9
$USERI3
 70
     0
  9
$USERI4
 70
     0
  9
$USERI5
 70
     0
  9
$USERR1
 40
0.0
  9
$USERR2
 40
0.0
  9
$USERR3
 40
0.0
  9
$USERR4
 40
0.0
  9
$USERR5
 40
0.0
  9
$WORLDVIEW
 70
     1
  9
$SHADEDGE
 70
     3
  9
$SHADEDIF
 70
    70
  9
$TILEMODE
 70
     1
  9
$MAXACTVP
 70
    16
  9
$PINSBASE
 10
0.0
 20
0.0
 30
0.0
  9
$PLIMCHECK
 70
     0
  9
$PEXTMIN
 10
1.000000000000000E+20
 20
1.000000000000000E+20
 30
1.000000000000000E+20
  9
$PEXTMAX
 10
-1.000000000000000E+20
 20
-1.000000000000000E+20
 30
-1.000000000000000E+20
  9
$PLIMMIN
 10
0.0
 20
0.0
  9
$PLIMMAX
 10
420.0
 20
297.0
  9
$UNITMODE
 70
     0
  9
$VISRETAIN
 70
     0
  9
$PLINEGEN
 70
     0
  9
$PSLTSCALE
 70
     0
  9
$TREEDEPTH
 70
  3020
  9
$CMLSTYLE
  2
STANDARD
  9
$CMLJUST
 70
     0
  9
$CMLSCALE
 40
1.0
  9
$PROXYGRAPHICS
 70
     1
  9
$MEASUREMENT
 70
     1
  9
$CELWEIGHT
370
    -1
  9
$ENDCAPS
280
     0
  9
$JOINSTYLE
280
     0
  9
$LWDISPLAY
290
     0
  9
$INSUNITS
 70
     0
  9
$HYPERLINKBASE
  1

  9
$STYLESHEET
  1

  9
$XEDIT
290
     1
  9
$CEPSNTYPE
380
     0
  9
$PSTYLEMODE
290
     1
  9
$FINGERPRINTGUID
  2
{043DEFA1-5F7B-4906-BFE8-89E842530260}
  9
$VERSIONGUID
  2
{AE3D5656-BE0D-4C5A-84F3-798D0275DCF5}
  9
$EXTNAMES
290
     1
  9
$PSVPSCALE
 40
0.0
  9
$OLESTARTUP
290
     0
  0
ENDSEC
  0
SECTION
  2
CLASSES
  0
CLASS
  1
ACDBDICTIONARYWDFLT
  2
AcDbDictionaryWithDefault
  3
ObjectDBX Classes
 90
        0
280
     0
281
     0
  0
CLASS
  1
DICTIONARYVAR
  2
AcDbDictionaryVar
  3
ObjectDBX Classes
 90
        0
280
     0
281
     0
  0
CLASS
  1
ACDBPLACEHOLDER
  2
AcDbPlaceHolder
  3
ObjectDBX Classes
 90
        0
280
     0
281
     0
  0
CLASS
  1
LAYOUT
  2
AcDbLayout
  3
ObjectDBX Classes
 90
        0
280
     0
281
     0
  0
ENDSEC
  0
SECTION
  2
TABLES
  0
TABLE
  2
VPORT
  5
746D
330
0
100
AcDbSymbolTable
 70
     2
  0
VPORT
  5
19AF7
330
746D
100
AcDbSymbolTableRecord
100
AcDbViewportTableRecord
  2
*Active
 70
     0
 10
0.0
 20
0.0
 11
1.0
 21
1.0
 12
8314.30965681063
 22
6240.044743282107
 13
0.0
 23
0.0
 14
10.0
 24
10.0
 15
10.0
 25
10.0
 16
0.0
 26
0.0
 36
1.0
 17
0.0
 27
0.0
 37
0.0
 40
12805.60689724805
 41
1.525925925925925
 42
50.0
 43
0.0
 44
0.0
 50
0.0
 51
0.0
 71
     0
 72
     0
 73
     1
 74
     0
 75
     0
 76
     0
 77
     0
 78
     0
281
     0
 65
     1
110
0.0
120
0.0
130
0.0
111
1.0
121
0.0
131
0.0
112
0.0
122
1.0
132
0.0
 79
     0
146
0.0
  0
ENDTAB
  0
TABLE
  2
LTYPE
  5
746A
330
0
100
AcDbSymbolTable
 70
     4
  0
LTYPE
  5
7477
330
746A
100
AcDbSymbolTableRecord
100
AcDbLinetypeTableRecord
  2
BYBLOCK
 70
     0
  3

 72
    65
 73
     0
 40
0.0
  0
LTYPE
  5
7478
330
746A
100
AcDbSymbolTableRecord
100
AcDbLinetypeTableRecord
  2
BYLAYER
 70
     0
  3

 72
    65
 73
     0
 40
0.0
  0
LTYPE
  5
7479
330
746A
100
AcDbSymbolTableRecord
100
AcDbLinetypeTableRecord
  2
CONTINUOUS
 70
     0
  3
Solid line
 72
    65
 73
     0
 40
0.0
  0
LTYPE
  5
7816
330
746A
100
AcDbSymbolTableRecord
100
AcDbLinetypeTableRecord
  2
CENTER
 70
     0
  3
____ _ ____ _ ____ _ ____ _ ____ _ ____ _ ____ 
 72
    65
 73
     4
 40
2.0
 49
1.25
 74
     0
 49
-0.25
 74
     0
 49
0.25
 74
     0
 49
-0.25
 74
     0
  0
LTYPE
  5
781A
330
746A
100
AcDbSymbolTableRecord
100
AcDbLinetypeTableRecord
  2
HIDDEN
 70
     0
  3
__ __ __ __ __ __ __ __ __ __ __ __ __ __ __ __
 72
    65
 73
     2
 40
0.375
 49
0.25
 74
     0
 49
-0.125
 74
     0
  0
LTYPE
  5
781B
330
746A
100
AcDbSymbolTableRecord
100
AcDbLinetypeTableRecord
  2
PHANTOM
 70
     0
  3
______  __  __  ______  __  __  ______  __  __ 
 72
    65
 73
     6
 40
2.5
 49
1.25
 74
     0
 49
-0.25
 74
     0
 49
0.25
 74
     0
 49
-0.25
 74
     0
 49
0.25
 74
     0
 49
-0.25
 74
     0
  0
ENDTAB
  0
TABLE
  2
LAYER
  5
7467
102
{ACAD_XDICTIONARY
360
1830D
102
}
330
0
100
AcDbSymbolTable
 70
    12
  0
LAYER
  5
7474
330
7467
100
AcDbSymbolTableRecord
100
AcDbLayerTableRecord
  2
0
 70
     0
 62
     7
  6
CONTINUOUS
370
    -3
390
18171
  0
LAYER
  5
DEB2
330
7467
100
AcDbSymbolTableRecord
100
AcDbLayerTableRecord
  2
センター
 70
     0
 62
     3
  6
CENTER
370
    -3
390
18171
  0
LAYER
  5
DEB3
330
7467
100
AcDbSymbolTableRecord
100
AcDbLayerTableRecord
  2
寸法
 70
     0
 62
     4
  6
CONTINUOUS
370
    -3
390
18171
  0
LAYER
  5
DEB4
330
7467
100
AcDbSymbolTableRecord
100
AcDbLayerTableRecord
  2
部品1
 70
     0
 62
     7
  6
CONTINUOUS
370
    -3
390
18171
  0
LAYER
  5
DEB5
330
7467
100
AcDbSymbolTableRecord
100
AcDbLayerTableRecord
  2
補助
 70
     0
 62
    -1
  6
CONTINUOUS
370
    -3
390
18171
  0
LAYER
  5
DEB6
330
7467
100
AcDbSymbolTableRecord
100
AcDbLayerTableRecord
  2
文字
 70
     0
 62
     7
  6
CONTINUOUS
370
    -3
390
18171
  0
LAYER
  5
F255
330
7467
100
AcDbSymbolTableRecord
100
AcDbLayerTableRecord
  2
DEFPOINTS
 70
     0
 62
     7
  6
CONTINUOUS
290
     0
370
    -3
390
18171
  0
LAYER
  5
10B54
330
7467
100
AcDbSymbolTableRecord
100
AcDbLayerTableRecord
  2
仕様書枠
 70
     0
 62
   230
  6
CONTINUOUS
370
    -3
390
18171
  0
LAYER
  5
11729
330
7467
100
AcDbSymbolTableRecord
100
AcDbLayerTableRecord
  2
Ｇ．Ｌ
 70
     0
 62
    30
  6
CONTINUOUS
370
    -3
390
18171
  0
LAYER
  5
1173F
330
7467
100
AcDbSymbolTableRecord
100
AcDbLayerTableRecord
  2
細線
 70
     0
 62
     5
  6
CONTINUOUS
370
    -3
390
18171
  0
LAYER
  5
12CC4
330
7467
100
AcDbSymbolTableRecord
100
AcDbLayerTableRecord
  2
想像線
 70
     0
 62
     6
  6
PHANTOM
370
    -3
390
18171
  0
LAYER
  5
142E2
330
7467
100
AcDbSymbolTableRecord
100
AcDbLayerTableRecord
  2
破線
 70
     0
 62
     2
  6
HIDDEN
370
    -3
390
18171
  0
ENDTAB
  0
TABLE
  2
STYLE
  5
7468
330
0
100
AcDbSymbolTable
 70
     4
  0
STYLE
  5
7475
330
7468
100
AcDbSymbolTableRecord
100
AcDbTextStyleTableRecord
  2
STANDARD
 70
     0
 40
0.0
 41
1.0
 50
0.0
 71
     0
 42
4.0
  3
txt
  4
C:\AutoCAD LT\bigfont.shx
  0
STYLE
  5
F706
330
7468
100
AcDbSymbolTableRecord
100
AcDbTextStyleTableRecord
  2
STYLE1
 70
     0
 40
0.0
 41
1.0
 50
0.0
 71
     0
 42
4.0
  3
isocp.shx
  4
bigfont.shx
  0
STYLE
  5
103BF
330
7468
100
AcDbSymbolTableRecord
100
AcDbTextStyleTableRecord
  2
STYLE2
 70
     0
 40
0.0
 41
1.0
 50
0.0
 71
     0
 42
100.0
  3
MS PGothic.ttf
  4

1001
ACAD
1000
MS PGothic
1071
    32818
  0
STYLE
  5
193ED
330
7468
100
AcDbSymbolTableRecord
100
AcDbTextStyleTableRecord
  2
STYLE3
 70
     0
 40
0.0
 41
1.0
 50
0.0
 71
     0
 42
100.0
  3

  4

1001
ACAD
1000
DFPGothic-EB
1071
    32818
  0
ENDTAB
  0
TABLE
  2
VIEW
  5
746B
330
0
100
AcDbSymbolTable
 70
     0
  0
ENDTAB
  0
TABLE
  2
UCS
  5
746C
330
0
100
AcDbSymbolTable
 70
     0
  0
ENDTAB
  0
TABLE
  2
APPID
  5
746E
330
0
100
AcDbSymbolTable
 70
     6
  0
APPID
  5
7476
330
746E
100
AcDbSymbolTableRecord
100
AcDbRegAppTableRecord
  2
ACAD
 70
     0
  0
APPID
  5
DEA9
330
746E
100
AcDbSymbolTableRecord
100
AcDbRegAppTableRecord
  2
CONTENTBLOCKICON
 70
     0
  0
APPID
  5
DEAA
330
746E
100
AcDbSymbolTableRecord
100
AcDbRegAppTableRecord
  2
CONTENTBLOCKDESCRIPTION
 70
     0
  0
APPID
  5
E71D
330
746E
100
AcDbSymbolTableRecord
100
AcDbRegAppTableRecord
  2
CONTENTTABDATA
 70
     0
  0
APPID
  5
E71E
330
746E
100
AcDbSymbolTableRecord
100
AcDbRegAppTableRecord
  2
CONTENTCURRENTTAB
 70
     0
  0
APPID
  5
F3BA
330
746E
100
AcDbSymbolTableRecord
100
AcDbRegAppTableRecord
  2
DRAWINGVARIABLESXDATA
 70
     0
  0
ENDTAB
  0
TABLE
  2
DIMSTYLE
  5
746F
330
0
100
AcDbSymbolTable
 70
     5
100
AcDbDimStyleTable
 71
     0
  0
DIMSTYLE
105
7484
330
746F
100
AcDbSymbolTableRecord
100
AcDbDimStyleTableRecord
  2
JIS
 70
     0
 41
2.5
 42
1.0
 43
7.0
 44
1.0
 73
     0
 74
     0
 77
     1
 78
     8
140
2.5
141
0.0
143
0.0394
147
0.0
172
     1
174
     1
175
     1
340
7475
  0
DIMSTYLE
105
F71F
102
{ACAD_REACTORS
330
185A4
330
185A5
330
185A6
330
185A7
330
185A8
330
185BD
330
185C6
330
185C7
330
185C8
330
185C9
330
186BC
330
186BF
330
186C0
330
186C1
330
186C2
330
186C3
330
186C6
330
186D8
330
186DB
330
186F2
330
186F4
330
1870B
330
18CF2
330
18D2D
330
18D2E
330
18D2F
330
18D3A
330
18D3E
330
1978A
330
1984A
102
}
330
746F
100
AcDbSymbolTableRecord
100
AcDbDimStyleTableRecord
  2
INABA_S40G
 70
     0
 40
40.0
 41
2.5
 42
0.5
 43
7.0
 44
1.5
 73
     0
 74
     0
 77
     3
 78
     8
140
3.0
141
0.0
143
0.0394
147
1.0
172
     1
173
     1
174
     1
178
     7
271
     1
288
     1
340
F706
341
F770
343
F770
344
F770
  0
DIMSTYLE
105
1830C
102
{ACAD_REACTORS
330
194F9
330
1978B
102
}
330
746F
100
AcDbSymbolTableRecord
100
AcDbDimStyleTableRecord
  2
INABA_S40
 70
     0
 40
40.0
 41
2.5
 42
0.5
 43
7.0
 44
1.5
 73
     0
 74
     0
 77
     3
 78
     8
140
3.0
141
0.0
143
0.0394
147
1.0
172
     1
173
     1
174
     1
175
     1
178
     7
340
7475
  0
DIMSTYLE
105
193EE
330
746F
100
AcDbSymbolTableRecord
100
AcDbDimStyleTableRecord
  2
INABA_S50G
 70
     0
 41
125.0
 42
25.0
 43
7.0
 44
75.0
 73
     0
 74
     0
 77
     3
 78
     8
140
150.0
141
0.0
143
0.0394
147
25.0
172
     1
173
     1
174
     1
175
     1
178
     7
271
     1
340
F706
341
F770
343
F770
344
F770
  0
DIMSTYLE
105
19A8D
330
746F
100
AcDbSymbolTableRecord
100
AcDbDimStyleTableRecord
  2
INABA_S20G
 70
     0
 40
20.0
 41
2.5
 42
0.5
 43
7.0
 44
1.5
 73
     0
 74
     0
 77
     3
 78
     8
140
3.0
141
0.0
143
0.0394
147
1.0
172
     1
173
     1
174
     1
178
     7
271
     1
340
F706
341
F770
343
F770
344
F770
  0
ENDTAB
  0
TABLE
  2
BLOCK_RECORD
  5
7466
330
0
100
AcDbSymbolTable
 70
    34
  0
BLOCK_RECORD
  5
747D
330
7466
100
AcDbSymbolTableRecord
100
AcDbBlockTableRecord
  2
*MODEL_SPACE
340
18176
  0
BLOCK_RECORD
  5
747A
330
7466
100
AcDbSymbolTableRecord
100
AcDbBlockTableRecord
  2
*PAPER_SPACE
340
18177
  0
BLOCK_RECORD
  5
F770
330
7466
100
AcDbSymbolTableRecord
100
AcDbBlockTableRecord
  2
_DOTSMALL
340
0
102
{BLKREFS
331
19295
331
19296
331
1929E
331
1929F
331
192A7
331
192A8
331
192B0
331
192B1
331
192BB
331
192BC
331
192C6
331
192C7
331
192E3
331
192E4
331
19357
331
19358
331
19360
331
19361
331
19369
331
1936A
331
19373
331
19374
331
1937E
331
1937F
331
19388
331
19389
331
19391
331
19392
331
1939A
331
1939B
331
193A3
331
193A4
331
193AE
331
193AF
331
193B8
331
193B9
331
199ED
331
199EE
331
19A01
331
19A02
331
19A13
331
19A14
331
19A1C
331
19A1D
331
19A25
331
19A26
331
19A30
331
19A31
331
19A39
331
19A3A
331
19A44
331
19A45
331
19A4F
331
19A50
331
19A5A
331
19A5B
331
19A63
331
19A64
331
19A7E
331
19A7F
102
}
  0
BLOCK_RECORD
  5
1817E
330
7466
100
AcDbSymbolTableRecord
100
AcDbBlockTableRecord
  2
_DOT
340
0
102
{BLKREFS
331
199F8
331
199F9
331
19A0A
331
19A0B
102
}
  0
BLOCK_RECORD
  5
18833
330
7466
100
AcDbSymbolTableRecord
100
AcDbBlockTableRecord
  2
*D2
340
0
  0
BLOCK_RECORD
  5
18840
330
7466
100
AcDbSymbolTableRecord
100
AcDbBlockTableRecord
  2
*D3
340
0
  0
BLOCK_RECORD
  5
1884E
330
7466
100
AcDbSymbolTableRecord
100
AcDbBlockTableRecord
  2
*D4
340
0
  0
BLOCK_RECORD
  5
1885A
330
7466
100
AcDbSymbolTableRecord
100
AcDbBlockTableRecord
  2
*D5
340
0
  0
BLOCK_RECORD
  5
18866
330
7466
100
AcDbSymbolTableRecord
100
AcDbBlockTableRecord
  2
*D6
340
0
  0
BLOCK_RECORD
  5
18872
330
7466
100
AcDbSymbolTableRecord
100
AcDbBlockTableRecord
  2
*D7
340
0
  0
BLOCK_RECORD
  5
1887F
330
7466
100
AcDbSymbolTableRecord
100
AcDbBlockTableRecord
  2
*D8
340
0
  0
BLOCK_RECORD
  5
1888D
330
7466
100
AcDbSymbolTableRecord
100
AcDbBlockTableRecord
  2
*D9
340
0
  0
BLOCK_RECORD
  5
1889A
330
7466
100
AcDbSymbolTableRecord
100
AcDbBlockTableRecord
  2
*D10
340
0
  0
BLOCK_RECORD
  5
188A6
330
7466
100
AcDbSymbolTableRecord
100
AcDbBlockTableRecord
  2
*D11
340
0
  0
BLOCK_RECORD
  5
188FE
330
7466
100
AcDbSymbolTableRecord
100
AcDbBlockTableRecord
  2
*D12
340
0
  0
BLOCK_RECORD
  5
1890A
330
7466
100
AcDbSymbolTableRecord
100
AcDbBlockTableRecord
  2
*D13
340
0
  0
BLOCK_RECORD
  5
18916
330
7466
100
AcDbSymbolTableRecord
100
AcDbBlockTableRecord
  2
*D14
340
0
  0
BLOCK_RECORD
  5
18922
330
7466
100
AcDbSymbolTableRecord
100
AcDbBlockTableRecord
  2
*D15
340
0
  0
BLOCK_RECORD
  5
18930
330
7466
100
AcDbSymbolTableRecord
100
AcDbBlockTableRecord
  2
*D16
340
0
  0
BLOCK_RECORD
  5
1893E
330
7466
100
AcDbSymbolTableRecord
100
AcDbBlockTableRecord
  2
*D17
340
0
  0
BLOCK_RECORD
  5
1894C
330
7466
100
AcDbSymbolTableRecord
100
AcDbBlockTableRecord
  2
*D18
340
0
  0
BLOCK_RECORD
  5
18964
330
7466
100
AcDbSymbolTableRecord
100
AcDbBlockTableRecord
  2
*D19
340
0
  0
BLOCK_RECORD
  5
18972
330
7466
100
AcDbSymbolTableRecord
100
AcDbBlockTableRecord
  2
*D20
340
0
  0
BLOCK_RECORD
  5
1897E
330
7466
100
AcDbSymbolTableRecord
100
AcDbBlockTableRecord
  2
*D21
340
0
  0
BLOCK_RECORD
  5
1898A
330
7466
100
AcDbSymbolTableRecord
100
AcDbBlockTableRecord
  2
*D22
340
0
  0
BLOCK_RECORD
  5
18996
330
7466
100
AcDbSymbolTableRecord
100
AcDbBlockTableRecord
  2
*D23
340
0
  0
BLOCK_RECORD
  5
18E0E
330
7466
100
AcDbSymbolTableRecord
100
AcDbBlockTableRecord
  2
*D24
340
0
  0
BLOCK_RECORD
  5
18E1C
330
7466
100
AcDbSymbolTableRecord
100
AcDbBlockTableRecord
  2
*D25
340
0
  0
BLOCK_RECORD
  5
18E2A
330
7466
100
AcDbSymbolTableRecord
100
AcDbBlockTableRecord
  2
*D26
340
0
  0
BLOCK_RECORD
  5
18E36
330
7466
100
AcDbSymbolTableRecord
100
AcDbBlockTableRecord
  2
*D27
340
0
  0
BLOCK_RECORD
  5
18E42
330
7466
100
AcDbSymbolTableRecord
100
AcDbBlockTableRecord
  2
*D28
340
0
  0
BLOCK_RECORD
  5
18E4E
330
7466
100
AcDbSymbolTableRecord
100
AcDbBlockTableRecord
  2
*D29
340
0
  0
BLOCK_RECORD
  5
19564
330
7466
100
AcDbSymbolTableRecord
100
AcDbBlockTableRecord
  2
*D30
340
0
  0
BLOCK_RECORD
  5
19893
330
7466
100
AcDbSymbolTableRecord
100
AcDbBlockTableRecord
  2
*D31
340
0
  0
BLOCK_RECORD
  5
1989F
330
7466
100
AcDbSymbolTableRecord
100
AcDbBlockTableRecord
  2
*D32
340
0
  0
BLOCK_RECORD
  5
19907
330
7466
100
AcDbSymbolTableRecord
100
AcDbBlockTableRecord
  2
*D33
340
0
  0
ENDTAB
  0
ENDSEC
  0
SECTION
  2
BLOCKS
  0
BLOCK
  5
7489
330
747D
100
AcDbEntity
  8
0
100
AcDbBlockBegin
  2
*MODEL_SPACE
 70
     0
 10
0.0
 20
0.0
 30
0.0
  3
*MODEL_SPACE
  1

  0
ENDBLK
  5
748A
330
747D
100
AcDbEntity
  8
0
100
AcDbBlockEnd
  0
BLOCK
  5
7487
330
747A
100
AcDbEntity
 67
     1
  8
0
100
AcDbBlockBegin
  2
*PAPER_SPACE
 70
     0
 10
0.0
 20
0.0
 30
0.0
  3
*PAPER_SPACE
  1

  0
ENDBLK
  5
7488
330
747A
100
AcDbEntity
 67
     1
  8
0
100
AcDbBlockEnd
  0
BLOCK
  5
F771
330
F770
100
AcDbEntity
  8
0
 48
50.0
100
AcDbBlockBegin
  2
_DOTSMALL
 70
     0
 10
0.0
 20
0.0
 30
0.0
  3
_DOTSMALL
  1

  0
LWPOLYLINE
  5
F772
330
F770
100
AcDbEntity
  8
0
  6
ByBlock
 62
     0
 48
50.0
100
AcDbPolyline
 90
        2
 70
     1
 43
0.5
 10
-0.0625
 20
0.0
 42
1.0
 10
0.0625
 20
0.0
 42
1.0
  0
ENDBLK
  5
F776
330
F770
100
AcDbEntity
  8
0
 48
50.0
100
AcDbBlockEnd
  0
BLOCK
  5
1817F
330
1817E
100
AcDbEntity
  8
0
 48
50.0
100
AcDbBlockBegin
  2
_DOT
 70
     0
 10
0.0
 20
0.0
 30
0.0
  3
_DOT
  1

  0
LWPOLYLINE
  5
18180
330
1817E
100
AcDbEntity
  8
0
  6
ByBlock
 62
     0
 48
50.0
100
AcDbPolyline
 90
        2
 70
     1
 43
0.5
 10
-0.25
 20
0.0
 42
1.0
 10
0.25
 20
0.0
 42
1.0
  0
LINE
  5
18181
330
1817E
100
AcDbEntity
  8
0
  6
ByBlock
 62
     0
 48
50.0
100
AcDbLine
 10
-0.5
 20
0.0
 30
0.0
 11
-1.0
 21
0.0
 31
0.0
  0
ENDBLK
  5
18182
330
1817E
100
AcDbEntity
  8
0
 48
50.0
100
AcDbBlockEnd
  0
BLOCK
  5
1883E
330
18833
100
AcDbEntity
  8
0
 48
50.0
100
AcDbBlockBegin
  2
*D2
 70
     1
 10
0.0
 20
0.0
 30
0.0
  3
*D2
  1

  0
LINE
  5
193B4
330
18833
100
AcDbEntity
  8
寸法
 62
     0
 48
50.0
370
    -2
100
AcDbLine
 10
8242.779539141571
 20
2726.219157816541
 30
0.0
 11
7349.140157212213
 21
2726.219157816541
 31
0.0
  0
LINE
  5
193B5
330
18833
100
AcDbEntity
  8
寸法
 62
     0
 48
50.0
370
    -2
100
AcDbLine
 10
7674.126829983274
 20
2626.219157816541
 30
0.0
 11
7349.140157212213
 21
2626.219157816541
 31
0.0
  0
LINE
  5
193B6
330
18833
100
AcDbEntity
  8
寸法
 62
     0
 48
50.0
370
    -2
100
AcDbLine
 10
7409.140157212213
 20
2726.219157816541
 30
0.0
 11
7409.140157212213
 21
2626.219157816541
 31
0.0
  0
LINE
  5
193B7
330
18833
100
AcDbEntity
  8
寸法
 62
     0
 48
50.0
370
    -2
100
AcDbLine
 10
7409.140157212213
 20
2626.219157816541
 30
0.0
 11
7409.140157212213
 21
2254.12466962756
 31
0.0
  0
INSERT
  5
193B8
330
18833
100
AcDbEntity
  8
寸法
 62
     0
 48
50.0
370
    -2
100
AcDbBlockReference
  2
_DOTSMALL
 10
7409.140157212213
 20
2726.219157816541
 30
0.0
 41
100.0
 42
100.0
 43
100.0
 50
90.0
  0
INSERT
  5
193B9
330
18833
100
AcDbEntity
  8
寸法
 62
     0
 48
50.0
370
    -2
100
AcDbBlockReference
  2
_DOTSMALL
 10
7409.140157212213
 20
2626.219157816541
 30
0.0
 41
100.0
 42
100.0
 43
100.0
 50
270.0
  0
MTEXT
  5
193BA
330
18833
100
AcDbEntity
  8
寸法
 62
     7
 48
50.0
100
AcDbMText
 10
7309.140157212212
 20
2390.17191372205
 30
0.0
 40
120.0
 41
0.0
 71
     5
 72
     1
  1
\A1;100
  7
STYLE1
 11
0.0000000000000001
 21
1.0
 31
0.0
 73
     1
 44
1.0
1001
ACAD
1000
MTEXTBEGIN
1070
    73
1070
     1
1070
    44
1040
1.0
1070
    74
1070
     0
1000
MTEXTEND
  0
POINT
  5
193BB
330
18833
100
AcDbEntity
  8
DEFPOINTS
 62
     0
 48
50.0
100
AcDbPoint
 10
8262.779539141572
 20
2726.219157816541
 30
0.0
  0
POINT
  5
193BC
330
18833
100
AcDbEntity
  8
DEFPOINTS
 62
     0
 48
50.0
100
AcDbPoint
 10
7694.126829983274
 20
2626.219157816541
 30
0.0
  0
POINT
  5
193BD
330
18833
100
AcDbEntity
  8
DEFPOINTS
 62
     0
 48
50.0
100
AcDbPoint
 10
7409.140157212213
 20
2626.219157816541
 30
0.0
  0
ENDBLK
  5
1883F
330
18833
100
AcDbEntity
  8
0
 48
50.0
100
AcDbBlockEnd
  0
BLOCK
  5
1884C
330
18840
100
AcDbEntity
  8
0
 48
50.0
100
AcDbBlockBegin
  2
*D3
 70
     1
 10
0.0
 20
0.0
 30
0.0
  3
*D3
  1

  0
LINE
  5
193A9
330
18840
100
AcDbEntity
  8
寸法
 62
     0
 48
50.0
370
    -2
100
AcDbLine
 10
8297.77953914157
 20
2776.21915781654
 30
0.0
 11
7634.126829983275
 21
2776.21915781654
 31
0.0
  0
LINE
  5
193AA
330
18840
100
AcDbEntity
  8
寸法
 62
     0
 48
50.0
370
    -2
100
AcDbLine
 10
8242.779539141571
 20
2726.219157816541
 30
0.0
 11
7634.126829983275
 21
2726.219157816541
 31
0.0
  0
LINE
  5
193AB
330
18840
100
AcDbEntity
  8
寸法
 62
     0
 48
50.0
370
    -2
100
AcDbLine
 10
7694.126829983274
 20
2776.21915781654
 30
0.0
 11
7694.126829983274
 21
2876.219157816541
 31
0.0
  0
LINE
  5
193AC
330
18840
100
AcDbEntity
  8
寸法
 62
     0
 48
50.0
370
    -2
100
AcDbLine
 10
7694.126829983274
 20
2726.219157816541
 30
0.0
 11
7694.126829983274
 21
2314.12466962756
 31
0.0
  0
LINE
  5
193AD
330
18840
100
AcDbEntity
  8
寸法
 62
     0
 48
50.0
370
    -2
100
AcDbLine
 10
7694.126829983274
 20
2776.21915781654
 30
0.0
 11
7694.126829983274
 21
2726.219157816541
 31
0.0
  0
INSERT
  5
193AE
330
18840
100
AcDbEntity
  8
寸法
 62
     0
 48
50.0
370
    -2
100
AcDbBlockReference
  2
_DOTSMALL
 10
7694.126829983274
 20
2776.21915781654
 30
0.0
 41
100.0
 42
100.0
 43
100.0
 50
270.0
  0
INSERT
  5
193AF
330
18840
100
AcDbEntity
  8
寸法
 62
     0
 48
50.0
370
    -2
100
AcDbBlockReference
  2
_DOTSMALL
 10
7694.126829983274
 20
2726.219157816541
 30
0.0
 41
100.0
 42
100.0
 43
100.0
 50
90.0
  0
MTEXT
  5
193B0
330
18840
100
AcDbEntity
  8
寸法
 62
     7
 48
50.0
100
AcDbMText
 10
7594.126829983274
 20
2420.17191372205
 30
0.0
 40
120.0
 41
0.0
 71
     5
 72
     1
  1
\A1;50
  7
STYLE1
 11
0.0000000000000001
 21
1.0
 31
0.0
 73
     1
 44
1.0
1001
ACAD
1000
MTEXTBEGIN
1070
    73
1070
     1
1070
    44
1040
1.0
1070
    74
1070
     0
1000
MTEXTEND
  0
POINT
  5
193B1
330
18840
100
AcDbEntity
  8
DEFPOINTS
 62
     0
 48
50.0
100
AcDbPoint
 10
8317.779539141572
 20
2776.21915781654
 30
0.0
  0
POINT
  5
193B2
330
18840
100
AcDbEntity
  8
DEFPOINTS
 62
     0
 48
50.0
100
AcDbPoint
 10
8262.779539141572
 20
2726.219157816541
 30
0.0
  0
POINT
  5
193B3
330
18840
100
AcDbEntity
  8
DEFPOINTS
 62
     0
 48
50.0
100
AcDbPoint
 10
7694.126829983274
 20
2726.219157816541
 30
0.0
  0
ENDBLK
  5
1884D
330
18840
100
AcDbEntity
  8
0
 48
50.0
100
AcDbBlockEnd
  0
BLOCK
  5
18858
330
1884E
100
AcDbEntity
  8
0
 48
50.0
100
AcDbBlockBegin
  2
*D4
 70
     1
 10
0.0
 20
0.0
 30
0.0
  3
*D4
  1

  0
LINE
  5
193A0
330
1884E
100
AcDbEntity
  8
寸法
 62
     0
 48
50.0
370
    -2
100
AcDbLine
 10
8297.77953914157
 20
4566.21915781654
 30
0.0
 11
7634.126829983275
 21
4566.21915781654
 31
0.0
  0
LINE
  5
193A1
330
1884E
100
AcDbEntity
  8
寸法
 62
     0
 48
50.0
370
    -2
100
AcDbLine
 10
8297.77953914157
 20
2776.21915781654
 30
0.0
 11
7634.126829983275
 21
2776.21915781654
 31
0.0
  0
LINE
  5
193A2
330
1884E
100
AcDbEntity
  8
寸法
 62
     0
 48
50.0
370
    -2
100
AcDbLine
 10
7694.126829983274
 20
4566.21915781654
 30
0.0
 11
7694.126829983274
 21
2776.21915781654
 31
0.0
  0
INSERT
  5
193A3
330
1884E
100
AcDbEntity
  8
寸法
 62
     0
 48
50.0
370
    -2
100
AcDbBlockReference
  2
_DOTSMALL
 10
7694.126829983274
 20
4566.21915781654
 30
0.0
 41
100.0
 42
100.0
 43
100.0
 50
90.0
  0
INSERT
  5
193A4
330
1884E
100
AcDbEntity
  8
寸法
 62
     0
 48
50.0
370
    -2
100
AcDbBlockReference
  2
_DOTSMALL
 10
7694.126829983274
 20
2776.21915781654
 30
0.0
 41
100.0
 42
100.0
 43
100.0
 50
270.0
  0
MTEXT
  5
193A5
330
1884E
100
AcDbEntity
  8
寸法
 62
     7
 48
50.0
100
AcDbMText
 10
7594.126829983274
 20
3666.673456358498
 30
0.0
 40
120.0
 41
0.0
 71
     5
 72
     1
  1
\A1;1790
  7
STYLE1
 11
0.0000000000000001
 21
1.0
 31
0.0
 73
     1
 44
1.0
1001
ACAD
1000
MTEXTBEGIN
1070
    73
1070
     1
1070
    44
1040
1.0
1070
    74
1070
     0
1000
MTEXTEND
  0
POINT
  5
193A6
330
1884E
100
AcDbEntity
  8
DEFPOINTS
 62
     0
 48
50.0
100
AcDbPoint
 10
8317.779539141572
 20
4566.21915781654
 30
0.0
  0
POINT
  5
193A7
330
1884E
100
AcDbEntity
  8
DEFPOINTS
 62
     0
 48
50.0
100
AcDbPoint
 10
8317.779539141572
 20
2776.21915781654
 30
0.0
  0
POINT
  5
193A8
330
1884E
100
AcDbEntity
  8
DEFPOINTS
 62
     0
 48
50.0
100
AcDbPoint
 10
7694.126829983274
 20
2776.21915781654
 30
0.0
  0
ENDBLK
  5
18859
330
1884E
100
AcDbEntity
  8
0
 48
50.0
100
AcDbBlockEnd
  0
BLOCK
  5
18864
330
1885A
100
AcDbEntity
  8
0
 48
50.0
100
AcDbBlockBegin
  2
*D5
 70
     1
 10
0.0
 20
0.0
 30
0.0
  3
*D5
  1

  0
LINE
  5
19397
330
1885A
100
AcDbEntity
  8
寸法
 62
     0
 48
50.0
370
    -2
100
AcDbLine
 10
8297.77953914157
 20
2726.219157816541
 30
0.0
 11
7349.140157212213
 21
2726.219157816541
 31
0.0
  0
LINE
  5
19398
330
1885A
100
AcDbEntity
  8
寸法
 62
     0
 48
50.0
370
    -2
100
AcDbLine
 10
8237.779539141572
 20
4801.219157816546
 30
0.0
 11
7349.140157212213
 21
4801.219157816546
 31
0.0
  0
LINE
  5
19399
330
1885A
100
AcDbEntity
  8
寸法
 62
     0
 48
50.0
370
    -2
100
AcDbLine
 10
7409.140157212213
 20
2726.219157816541
 30
0.0
 11
7409.140157212213
 21
4801.219157816546
 31
0.0
  0
INSERT
  5
1939A
330
1885A
100
AcDbEntity
  8
寸法
 62
     0
 48
50.0
370
    -2
100
AcDbBlockReference
  2
_DOTSMALL
 10
7409.140157212213
 20
2726.219157816541
 30
0.0
 41
100.0
 42
100.0
 43
100.0
 50
270.0
  0
INSERT
  5
1939B
330
1885A
100
AcDbEntity
  8
寸法
 62
     0
 48
50.0
370
    -2
100
AcDbBlockReference
  2
_DOTSMALL
 10
7409.140157212213
 20
4801.219157816546
 30
0.0
 41
100.0
 42
100.0
 43
100.0
 50
90.0
  0
MTEXT
  5
1939C
330
1885A
100
AcDbEntity
  8
寸法
 62
     7
 48
50.0
100
AcDbMText
 10
7309.12834618859
 20
3720.425035309651
 30
0.0
 40
120.0
 41
0.0
 71
     5
 72
     1
  1
\A1;2075
  7
STYLE1
 11
0.0000000000000001
 21
1.0
 31
0.0
 73
     1
 44
1.0
1001
ACAD
1000
MTEXTBEGIN
1070
    73
1070
     1
1070
    44
1040
1.0
1070
    74
1070
     0
1000
MTEXTEND
  0
POINT
  5
1939D
330
1885A
100
AcDbEntity
  8
DEFPOINTS
 62
     0
 48
50.0
100
AcDbPoint
 10
8317.779539141572
 20
2726.219157816541
 30
0.0
  0
POINT
  5
1939E
330
1885A
100
AcDbEntity
  8
DEFPOINTS
 62
     0
 48
50.0
100
AcDbPoint
 10
8257.779539141571
 20
4801.219157816546
 30
0.0
  0
POINT
  5
1939F
330
1885A
100
AcDbEntity
  8
DEFPOINTS
 62
     0
 48
50.0
100
AcDbPoint
 10
7409.140157212213
 20
4801.219157816546
 30
0.0
  0
ENDBLK
  5
18865
330
1885A
100
AcDbEntity
  8
0
 48
50.0
100
AcDbBlockEnd
  0
BLOCK
  5
18870
330
18866
100
AcDbEntity
  8
0
 48
50.0
100
AcDbBlockBegin
  2
*D6
 70
     1
 10
0.0
 20
0.0
 30
0.0
  3
*D6
  1

  0
LINE
  5
1938E
330
18866
100
AcDbEntity
  8
寸法
 62
     0
 48
50.0
370
    -2
100
AcDbLine
 10
10547.77953914157
 20
2726.219157816541
 30
0.0
 11
11122.94963490399
 21
2726.219157816541
 31
0.0
  0
LINE
  5
1938F
330
18866
100
AcDbEntity
  8
寸法
 62
     0
 48
50.0
370
    -2
100
AcDbLine
 10
10627.77953914155
 20
4746.219157816542
 30
0.0
 11
11122.949634904
 21
4746.219157816542
 31
0.0
  0
LINE
  5
19390
330
18866
100
AcDbEntity
  8
寸法
 62
     0
 48
50.0
370
    -2
100
AcDbLine
 10
11062.94963490399
 20
2726.219157816541
 30
0.0
 11
11062.949634904
 21
4746.219157816542
 31
0.0
  0
INSERT
  5
19391
330
18866
100
AcDbEntity
  8
寸法
 62
     0
 48
50.0
370
    -2
100
AcDbBlockReference
  2
_DOTSMALL
 10
11062.94963490399
 20
2726.219157816541
 30
0.0
 41
100.0
 42
100.0
 43
100.0
 50
270.0
  0
INSERT
  5
19392
330
18866
100
AcDbEntity
  8
寸法
 62
     0
 48
50.0
370
    -2
100
AcDbBlockReference
  2
_DOTSMALL
 10
11062.949634904
 20
4746.219157816542
 30
0.0
 41
100.0
 42
100.0
 43
100.0
 50
90.0
  0
MTEXT
  5
19393
330
18866
100
AcDbEntity
  8
寸法
 62
     7
 48
50.0
100
AcDbMText
 10
10962.93782388037
 20
3708.475485246228
 30
0.0
 40
120.0
 41
0.0
 71
     5
 72
     1
  1
\A1;2020
  7
STYLE1
 11
0.0000000000000001
 21
1.0
 31
0.0
 73
     1
 44
1.0
1001
ACAD
1000
MTEXTBEGIN
1070
    73
1070
     1
1070
    44
1040
1.0
1070
    74
1070
     0
1000
MTEXTEND
  0
POINT
  5
19394
330
18866
100
AcDbEntity
  8
DEFPOINTS
 62
     0
 48
50.0
100
AcDbPoint
 10
10527.77953914157
 20
2726.219157816541
 30
0.0
  0
POINT
  5
19395
330
18866
100
AcDbEntity
  8
DEFPOINTS
 62
     0
 48
50.0
100
AcDbPoint
 10
10607.77953914155
 20
4746.219157816542
 30
0.0
  0
POINT
  5
19396
330
18866
100
AcDbEntity
  8
DEFPOINTS
 62
     0
 48
50.0
100
AcDbPoint
 10
11062.949634904
 20
4746.219157816542
 30
0.0
  0
ENDBLK
  5
18871
330
18866
100
AcDbEntity
  8
0
 48
50.0
100
AcDbBlockEnd
  0
BLOCK
  5
1887D
330
18872
100
AcDbEntity
  8
0
 48
50.0
100
AcDbBlockBegin
  2
*D7
 70
     1
 10
0.0
 20
0.0
 30
0.0
  3
*D7
  1

  0
LINE
  5
19384
330
18872
100
AcDbEntity
  8
寸法
 62
     0
 48
50.0
370
    -2
100
AcDbLine
 10
8257.183825432672
 20
4800.516864886201
 30
0.0
 11
7641.249386327399
 21
4818.231015160531
 31
0.0
  0
LINE
  5
19385
330
18872
100
AcDbEntity
  8
寸法
 62
     0
 48
50.0
370
    -2
100
AcDbLine
 10
8253.130369876044
 20
4659.575141120487
 30
0.0
 11
7637.195930770772
 21
4677.289291394816
 31
0.0
  0
LINE
  5
19386
330
18872
100
AcDbEntity
  8
寸法
 62
     0
 48
50.0
370
    -2
100
AcDbLine
 10
7697.171132373203
 20
4675.564416689868
 30
0.0
 11
7701.22458792983
 21
4816.506140455583
 31
0.0
  0
LINE
  5
19387
330
18872
100
AcDbEntity
  8
寸法
 62
     0
 48
50.0
370
    -2
100
AcDbLine
 10
7701.22458792983
 20
4816.506140455583
 30
0.0
 11
7711.573836159515
 21
5176.357350070174
 31
0.0
  0
INSERT
  5
19388
330
18872
100
AcDbEntity
  8
寸法
 62
     0
 48
50.0
370
    -2
100
AcDbBlockReference
  2
_DOTSMALL
 10
7697.171132373203
 20
4675.564416689868
 30
0.0
 41
100.0
 42
100.0
 43
100.0
 50
268.3526390256379
  0
INSERT
  5
19389
330
18872
100
AcDbEntity
  8
寸法
 62
     0
 48
50.0
370
    -2
100
AcDbBlockReference
  2
_DOTSMALL
 10
7701.22458792983
 20
4816.506140455583
 30
0.0
 41
100.0
 42
100.0
 43
100.0
 50
88.35263902563784
  0
MTEXT
  5
1938A
330
18872
100
AcDbEntity
  8
寸法
 62
     7
 48
50.0
100
AcDbMText
 10
7607.877938294745
 20
5049.285871106487
 30
0.0
 40
120.0
 41
0.0
 71
     5
 72
     1
  1
\A1;141
  7
STYLE1
 11
0.0287479117491228
 21
0.9995866933738486
 31
0.0
 73
     1
 44
1.0
1001
ACAD
1000
MTEXTBEGIN
1070
    73
1070
     1
1070
    44
1040
1.0
1070
    74
1070
     0
1000
MTEXTEND
  0
POINT
  5
1938B
330
18872
100
AcDbEntity
  8
DEFPOINTS
 62
     0
 48
50.0
100
AcDbPoint
 10
8277.175559300149
 20
4799.941906651219
 30
0.0
  0
POINT
  5
1938C
330
18872
100
AcDbEntity
  8
DEFPOINTS
 62
     0
 48
50.0
100
AcDbPoint
 10
8273.122103743522
 20
4659.000182885505
 30
0.0
  0
POINT
  5
1938D
330
18872
100
AcDbEntity
  8
DEFPOINTS
 62
     0
 48
50.0
100
AcDbPoint
 10
7697.171132373203
 20
4675.564416689868
 30
0.0
  0
ENDBLK
  5
1887E
330
18872
100
AcDbEntity
  8
0
 48
50.0
100
AcDbBlockEnd
  0
BLOCK
  5
1888B
330
1887F
100
AcDbEntity
  8
0
 48
50.0
100
AcDbBlockBegin
  2
*D8
 70
     1
 10
0.0
 20
0.0
 30
0.0
  3
*D8
  1

  0
LINE
  5
19379
330
1887F
100
AcDbEntity
  8
寸法
 62
     0
 48
50.0
370
    -2
100
AcDbLine
 10
8317.779539141572
 20
4817.220775939517
 30
0.0
 11
8317.779539141572
 21
5259.876611395844
 31
0.0
  0
LINE
  5
1937A
330
1887F
100
AcDbEntity
  8
寸法
 62
     0
 48
50.0
370
    -2
100
AcDbLine
 10
8257.779539141571
 20
4821.219157816543
 30
0.0
 11
8257.779539141571
 21
5259.876611395844
 31
0.0
  0
LINE
  5
1937B
330
1887F
100
AcDbEntity
  8
寸法
 62
     0
 48
50.0
370
    -2
100
AcDbLine
 10
8317.779539141572
 20
5199.876611395843
 30
0.0
 11
8417.779539141571
 21
5199.876611395843
 31
0.0
  0
LINE
  5
1937C
330
1887F
100
AcDbEntity
  8
寸法
 62
     0
 48
50.0
370
    -2
100
AcDbLine
 10
8257.779539141571
 20
5199.876611395843
 30
0.0
 11
7838.50394859039
 21
5199.876611395843
 31
0.0
  0
LINE
  5
1937D
330
1887F
100
AcDbEntity
  8
寸法
 62
     0
 48
50.0
370
    -2
100
AcDbLine
 10
8317.779539141572
 20
5199.876611395843
 30
0.0
 11
8257.779539141571
 21
5199.876611395843
 31
0.0
  0
INSERT
  5
1937E
330
1887F
100
AcDbEntity
  8
寸法
 62
     0
 48
50.0
370
    -2
100
AcDbBlockReference
  2
_DOTSMALL
 10
8317.779539141572
 20
5199.876611395843
 30
0.0
 41
100.0
 42
100.0
 43
100.0
 50
180.0
  0
INSERT
  5
1937F
330
1887F
100
AcDbEntity
  8
寸法
 62
     0
 48
50.0
370
    -2
100
AcDbBlockReference
  2
_DOTSMALL
 10
8257.779539141571
 20
5199.876611395843
 30
0.0
 41
100.0
 42
100.0
 43
100.0
  0
MTEXT
  5
19380
330
1887F
100
AcDbEntity
  8
寸法
 62
     7
 48
50.0
100
AcDbMText
 10
7948.141743865981
 20
5299.876611395844
 30
0.0
 40
120.0
 41
0.0
 71
     5
 72
     1
  1
\A1;60
  7
STYLE1
 73
     1
 44
1.0
1001
ACAD
1000
MTEXTBEGIN
1070
    73
1070
     1
1070
    44
1040
1.0
1070
    74
1070
     0
1000
MTEXTEND
  0
POINT
  5
19381
330
1887F
100
AcDbEntity
  8
DEFPOINTS
 62
     0
 48
50.0
100
AcDbPoint
 10
8317.779539141572
 20
4797.220775939517
 30
0.0
  0
POINT
  5
19382
330
1887F
100
AcDbEntity
  8
DEFPOINTS
 62
     0
 48
50.0
100
AcDbPoint
 10
8257.779539141571
 20
4801.219157816544
 30
0.0
  0
POINT
  5
19383
330
1887F
100
AcDbEntity
  8
DEFPOINTS
 62
     0
 48
50.0
100
AcDbPoint
 10
8257.779539141571
 20
5199.876611395843
 30
0.0
  0
ENDBLK
  5
1888C
330
1887F
100
AcDbEntity
  8
0
 48
50.0
100
AcDbBlockEnd
  0
BLOCK
  5
18898
330
1888D
100
AcDbEntity
  8
0
 48
50.0
100
AcDbBlockBegin
  2
*D9
 70
     1
 10
0.0
 20
0.0
 30
0.0
  3
*D9
  1

  0
LINE
  5
1936F
330
1888D
100
AcDbEntity
  8
寸法
 62
     0
 48
50.0
370
    -2
100
AcDbLine
 10
10527.77953914157
 20
4768.029837428191
 30
0.0
 11
10527.77953914157
 21
5259.876611395844
 31
0.0
  0
LINE
  5
19370
330
1888D
100
AcDbEntity
  8
寸法
 62
     0
 48
50.0
370
    -2
100
AcDbLine
 10
10607.77953914157
 20
4766.21915781654
 30
0.0
 11
10607.77953914157
 21
5259.876611395844
 31
0.0
  0
LINE
  5
19371
330
1888D
100
AcDbEntity
  8
寸法
 62
     0
 48
50.0
370
    -2
100
AcDbLine
 10
10527.77953914157
 20
5199.876611395843
 30
0.0
 11
10607.77953914157
 21
5199.876611395843
 31
0.0
  0
LINE
  5
19372
330
1888D
100
AcDbEntity
  8
寸法
 62
     0
 48
50.0
370
    -2
100
AcDbLine
 10
10607.77953914157
 20
5199.876611395843
 30
0.0
 11
10919.87402733055
 21
5199.876611395843
 31
0.0
  0
INSERT
  5
19373
330
1888D
100
AcDbEntity
  8
寸法
 62
     0
 48
50.0
370
    -2
100
AcDbBlockReference
  2
_DOTSMALL
 10
10527.77953914157
 20
5199.876611395843
 30
0.0
 41
100.0
 42
100.0
 43
100.0
 50
180.0
  0
INSERT
  5
19374
330
1888D
100
AcDbEntity
  8
寸法
 62
     0
 48
50.0
370
    -2
100
AcDbBlockReference
  2
_DOTSMALL
 10
10607.77953914157
 20
5199.876611395843
 30
0.0
 41
100.0
 42
100.0
 43
100.0
  0
MTEXT
  5
19375
330
1888D
100
AcDbEntity
  8
寸法
 62
     7
 48
50.0
100
AcDbMText
 10
10813.82678323606
 20
5299.876611395844
 30
0.0
 40
120.0
 41
0.0
 71
     5
 72
     1
  1
\A1;80
  7
STYLE1
 73
     1
 44
1.0
1001
ACAD
1000
MTEXTBEGIN
1070
    73
1070
     1
1070
    44
1040
1.0
1070
    74
1070
     0
1000
MTEXTEND
  0
POINT
  5
19376
330
1888D
100
AcDbEntity
  8
DEFPOINTS
 62
     0
 48
50.0
100
AcDbPoint
 10
10527.77953914157
 20
4748.029837428192
 30
0.0
  0
POINT
  5
19377
330
1888D
100
AcDbEntity
  8
DEFPOINTS
 62
     0
 48
50.0
100
AcDbPoint
 10
10607.77953914157
 20
4746.21915781654
 30
0.0
  0
POINT
  5
19378
330
1888D
100
AcDbEntity
  8
DEFPOINTS
 62
     0
 48
50.0
100
AcDbPoint
 10
10607.77953914157
 20
5199.876611395843
 30
0.0
  0
ENDBLK
  5
18899
330
1888D
100
AcDbEntity
  8
0
 48
50.0
100
AcDbBlockEnd
  0
BLOCK
  5
188A4
330
1889A
100
AcDbEntity
  8
0
 48
50.0
100
AcDbBlockBegin
  2
*D10
 70
     1
 10
0.0
 20
0.0
 30
0.0
  3
*D10
  1

  0
LINE
  5
19366
330
1889A
100
AcDbEntity
  8
寸法
 62
     0
 48
50.0
370
    -2
100
AcDbLine
 10
10607.77953914157
 20
4766.21915781654
 30
0.0
 11
10607.77953914157
 21
5479.078445070136
 31
0.0
  0
LINE
  5
19367
330
1889A
100
AcDbEntity
  8
寸法
 62
     0
 48
50.0
370
    -2
100
AcDbLine
 10
8257.779539141571
 20
4821.219157816543
 30
0.0
 11
8257.779539141571
 21
5479.078445070136
 31
0.0
  0
LINE
  5
19368
330
1889A
100
AcDbEntity
  8
寸法
 62
     0
 48
50.0
370
    -2
100
AcDbLine
 10
10607.77953914157
 20
5419.078445070136
 30
0.0
 11
8257.779539141571
 21
5419.078445070136
 31
0.0
  0
INSERT
  5
19369
330
1889A
100
AcDbEntity
  8
寸法
 62
     0
 48
50.0
370
    -2
100
AcDbBlockReference
  2
_DOTSMALL
 10
10607.77953914157
 20
5419.078445070136
 30
0.0
 41
100.0
 42
100.0
 43
100.0
  0
INSERT
  5
1936A
330
1889A
100
AcDbEntity
  8
寸法
 62
     0
 48
50.0
370
    -2
100
AcDbBlockReference
  2
_DOTSMALL
 10
8257.779539141571
 20
5419.078445070136
 30
0.0
 41
100.0
 42
100.0
 43
100.0
 50
180.0
  0
MTEXT
  5
1936B
330
1889A
100
AcDbEntity
  8
寸法
 62
     7
 48
50.0
100
AcDbMText
 10
9492.12339323404
 20
5519.090256093758
 30
0.0
 40
120.0
 41
0.0
 71
     5
 72
     1
  1
\A1;2350
  7
STYLE1
 73
     1
 44
1.0
1001
ACAD
1000
MTEXTBEGIN
1070
    73
1070
     1
1070
    44
1040
1.0
1070
    74
1070
     0
1000
MTEXTEND
  0
POINT
  5
1936C
330
1889A
100
AcDbEntity
  8
DEFPOINTS
 62
     0
 48
50.0
100
AcDbPoint
 10
10607.77953914157
 20
4746.21915781654
 30
0.0
  0
POINT
  5
1936D
330
1889A
100
AcDbEntity
  8
DEFPOINTS
 62
     0
 48
50.0
100
AcDbPoint
 10
8257.779539141571
 20
4801.219157816544
 30
0.0
  0
POINT
  5
1936E
330
1889A
100
AcDbEntity
  8
DEFPOINTS
 62
     0
 48
50.0
100
AcDbPoint
 10
8257.779539141571
 20
5419.078445070136
 30
0.0
  0
ENDBLK
  5
188A5
330
1889A
100
AcDbEntity
  8
0
 48
50.0
100
AcDbBlockEnd
  0
BLOCK
  5
188B0
330
188A6
100
AcDbEntity
  8
0
 48
50.0
100
AcDbBlockBegin
  2
*D11
 70
     1
 10
0.0
 20
0.0
 30
0.0
  3
*D11
  1

  0
LINE
  5
1935D
330
188A6
100
AcDbEntity
  8
寸法
 62
     0
 48
50.0
370
    -2
100
AcDbLine
 10
10527.77953914157
 20
4768.029837428191
 30
0.0
 11
10527.77953914157
 21
5259.876611395844
 31
0.0
  0
LINE
  5
1935E
330
188A6
100
AcDbEntity
  8
寸法
 62
     0
 48
50.0
370
    -2
100
AcDbLine
 10
8317.779539141572
 20
4817.220775939517
 30
0.0
 11
8317.779539141572
 21
5259.876611395844
 31
0.0
  0
LINE
  5
1935F
330
188A6
100
AcDbEntity
  8
寸法
 62
     0
 48
50.0
370
    -2
100
AcDbLine
 10
10527.77953914157
 20
5199.876611395843
 30
0.0
 11
8317.779539141572
 21
5199.876611395843
 31
0.0
  0
INSERT
  5
19360
330
188A6
100
AcDbEntity
  8
寸法
 62
     0
 48
50.0
370
    -2
100
AcDbBlockReference
  2
_DOTSMALL
 10
10527.77953914157
 20
5199.876611395843
 30
0.0
 41
100.0
 42
100.0
 43
100.0
  0
INSERT
  5
19361
330
188A6
100
AcDbEntity
  8
寸法
 62
     0
 48
50.0
370
    -2
100
AcDbBlockReference
  2
_DOTSMALL
 10
8317.779539141572
 20
5199.876611395843
 30
0.0
 41
100.0
 42
100.0
 43
100.0
 50
180.0
  0
MTEXT
  5
19362
330
188A6
100
AcDbEntity
  8
寸法
 62
     7
 48
50.0
100
AcDbMText
 10
9412.424276212083
 20
5299.888422419465
 30
0.0
 40
120.0
 41
0.0
 71
     5
 72
     1
  1
\A1;柱外寸法2210
  7
STYLE1
 73
     1
 44
1.0
1001
ACAD
1000
MTEXTBEGIN
1070
    73
1070
     1
1070
    44
1040
1.0
1070
    74
1070
     0
1000
MTEXTEND
  0
POINT
  5
19363
330
188A6
100
AcDbEntity
  8
DEFPOINTS
 62
     0
 48
50.0
100
AcDbPoint
 10
10527.77953914157
 20
4748.029837428192
 30
0.0
  0
POINT
  5
19364
330
188A6
100
AcDbEntity
  8
DEFPOINTS
 62
     0
 48
50.0
100
AcDbPoint
 10
8317.779539141572
 20
4797.220775939517
 30
0.0
  0
POINT
  5
19365
330
188A6
100
AcDbEntity
  8
DEFPOINTS
 62
     0
 48
50.0
100
AcDbPoint
 10
8317.779539141572
 20
5199.876611395843
 30
0.0
  0
ENDBLK
  5
188B1
330
188A6
100
AcDbEntity
  8
0
 48
50.0
100
AcDbBlockEnd
  0
BLOCK
  5
18908
330
188FE
100
AcDbEntity
  8
0
 48
50.0
100
AcDbBlockBegin
  2
*D12
 70
     1
 10
0.0
 20
0.0
 30
0.0
  3
*D12
  1

  0
LINE
  5
19354
330
188FE
100
AcDbEntity
  8
寸法
 62
     0
 48
50.0
370
    -2
100
AcDbLine
 10
8417.779539141573
 20
2406.21915781654
 30
0.0
 11
8417.779539141573
 21
2080.171828516164
 31
0.0
  0
LINE
  5
19355
330
188FE
100
AcDbEntity
  8
寸法
 62
     0
 48
50.0
370
    -2
100
AcDbLine
 10
8217.779539141572
 20
2406.21915781654
 30
0.0
 11
8217.779539141572
 21
2080.171828516164
 31
0.0
  0
LINE
  5
19356
330
188FE
100
AcDbEntity
  8
寸法
 62
     0
 48
50.0
370
    -2
100
AcDbLine
 10
8417.779539141573
 20
2140.171828516163
 30
0.0
 11
8217.779539141572
 21
2140.171828516163
 31
0.0
  0
INSERT
  5
19357
330
188FE
100
AcDbEntity
  8
寸法
 62
     0
 48
50.0
370
    -2
100
AcDbBlockReference
  2
_DOTSMALL
 10
8417.779539141573
 20
2140.171828516163
 30
0.0
 41
100.0
 42
100.0
 43
100.0
  0
INSERT
  5
19358
330
188FE
100
AcDbEntity
  8
寸法
 62
     0
 48
50.0
370
    -2
100
AcDbBlockReference
  2
_DOTSMALL
 10
8217.779539141572
 20
2140.171828516163
 30
0.0
 41
100.0
 42
100.0
 43
100.0
 50
180.0
  0
MTEXT
  5
19359
330
188FE
100
AcDbEntity
  8
寸法
 62
     7
 48
50.0
100
AcDbMText
 10
8317.779539141572
 20
2240.183639539786
 30
0.0
 40
120.0
 41
0.0
 71
     5
 72
     1
  1
\A1;200
  7
STYLE1
 73
     1
 44
1.0
1001
ACAD
1000
MTEXTBEGIN
1070
    73
1070
     1
1070
    44
1040
1.0
1070
    74
1070
     0
1000
MTEXTEND
  0
POINT
  5
1935A
330
188FE
100
AcDbEntity
  8
DEFPOINTS
 62
     0
 48
50.0
100
AcDbPoint
 10
8417.779539141573
 20
2426.21915781654
 30
0.0
  0
POINT
  5
1935B
330
188FE
100
AcDbEntity
  8
DEFPOINTS
 62
     0
 48
50.0
100
AcDbPoint
 10
8217.779539141572
 20
2426.21915781654
 30
0.0
  0
POINT
  5
1935C
330
188FE
100
AcDbEntity
  8
DEFPOINTS
 62
     0
 48
50.0
100
AcDbPoint
 10
8217.779539141572
 20
2140.171828516163
 30
0.0
  0
ENDBLK
  5
18909
330
188FE
100
AcDbEntity
  8
0
 48
50.0
100
AcDbBlockEnd
  0
BLOCK
  5
18914
330
1890A
100
AcDbEntity
  8
0
 48
50.0
100
AcDbBlockBegin
  2
*D13
 70
     1
 10
0.0
 20
0.0
 30
0.0
  3
*D13
  1

  0
LINE
  5
19A7B
330
1890A
100
AcDbEntity
  8
寸法
 62
     0
 48
50.0
370
    -2
100
AcDbLine
 10
10547.77953914158
 20
9632.024691904758
 30
0.0
 11
11509.18722661647
 21
9632.024691904758
 31
0.0
  0
LINE
  5
19A7C
330
1890A
100
AcDbEntity
  8
寸法
 62
     0
 48
50.0
370
    -2
100
AcDbLine
 10
10547.77953914155
 20
7842.02469190475
 30
0.0
 11
11509.18722661647
 21
7842.02469190475
 31
0.0
  0
LINE
  5
19A7D
330
1890A
100
AcDbEntity
  8
寸法
 62
     0
 48
50.0
370
    -2
100
AcDbLine
 10
11449.18722661647
 20
9632.024691904758
 30
0.0
 11
11449.18722661647
 21
7842.02469190475
 31
0.0
  0
INSERT
  5
19A7E
330
1890A
100
AcDbEntity
  8
寸法
 62
     0
 48
50.0
370
    -2
100
AcDbBlockReference
  2
_DOTSMALL
 10
11449.18722661647
 20
9632.024691904758
 30
0.0
 41
100.0
 42
100.0
 43
100.0
 50
90.0
  0
INSERT
  5
19A7F
330
1890A
100
AcDbEntity
  8
寸法
 62
     0
 48
50.0
370
    -2
100
AcDbBlockReference
  2
_DOTSMALL
 10
11449.18722661647
 20
7842.02469190475
 30
0.0
 41
100.0
 42
100.0
 43
100.0
 50
270.0
  0
MTEXT
  5
19A80
330
1890A
100
AcDbEntity
  8
寸法
 62
     7
 48
50.0
100
AcDbMText
 10
11349.18722661647
 20
8708.886027628432
 30
0.0
 40
120.0
 41
0.0
 71
     5
 72
     1
  1
\A1;1790
  7
STYLE1
 11
0.0000000000000001
 21
1.0
 31
0.0
 73
     1
 44
1.0
1001
ACAD
1000
MTEXTBEGIN
1070
    73
1070
     1
1070
    44
1040
1.0
1070
    74
1070
     0
1000
MTEXTEND
  0
POINT
  5
19A81
330
1890A
100
AcDbEntity
  8
DEFPOINTS
 62
     0
 48
50.0
100
AcDbPoint
 10
10527.77953914158
 20
9632.024691904758
 30
0.0
  0
POINT
  5
19A82
330
1890A
100
AcDbEntity
  8
DEFPOINTS
 62
     0
 48
50.0
100
AcDbPoint
 10
10527.77953914155
 20
7842.02469190475
 30
0.0
  0
POINT
  5
19A83
330
1890A
100
AcDbEntity
  8
DEFPOINTS
 62
     0
 48
50.0
100
AcDbPoint
 10
11449.18722661647
 20
7842.02469190475
 30
0.0
  0
ENDBLK
  5
18915
330
1890A
100
AcDbEntity
  8
0
 48
50.0
100
AcDbBlockEnd
  0
BLOCK
  5
18920
330
18916
100
AcDbEntity
  8
0
 48
50.0
100
AcDbBlockBegin
  2
*D14
 70
     1
 10
0.0
 20
0.0
 30
0.0
  3
*D14
  1

  0
LINE
  5
19A60
330
18916
100
AcDbEntity
  8
寸法
 62
     0
 48
50.0
370
    -2
100
AcDbLine
 10
8372.779539141578
 20
9652.024691904664
 30
0.0
 11
8372.779539141578
 21
9995.070286480357
 31
0.0
  0
LINE
  5
19A61
330
18916
100
AcDbEntity
  8
寸法
 62
     0
 48
50.0
370
    -2
100
AcDbLine
 10
10472.77953914158
 20
9652.024691904756
 30
0.0
 11
10472.77953914158
 21
9995.070286480357
 31
0.0
  0
LINE
  5
19A62
330
18916
100
AcDbEntity
  8
寸法
 62
     0
 48
50.0
370
    -2
100
AcDbLine
 10
8372.779539141578
 20
9935.070286480357
 30
0.0
 11
10472.77953914158
 21
9935.070286480357
 31
0.0
  0
INSERT
  5
19A63
330
18916
100
AcDbEntity
  8
寸法
 62
     0
 48
50.0
370
    -2
100
AcDbBlockReference
  2
_DOTSMALL
 10
8372.779539141578
 20
9935.070286480357
 30
0.0
 41
100.0
 42
100.0
 43
100.0
 50
180.0
  0
INSERT
  5
19A64
330
18916
100
AcDbEntity
  8
寸法
 62
     0
 48
50.0
370
    -2
100
AcDbBlockReference
  2
_DOTSMALL
 10
10472.77953914158
 20
9935.070286480357
 30
0.0
 41
100.0
 42
100.0
 43
100.0
  0
MTEXT
  5
19A65
330
18916
100
AcDbEntity
  8
寸法
 62
     7
 48
50.0
100
AcDbMText
 10
9422.779539141577
 20
10035.08209750398
 30
0.0
 40
120.0
 41
0.0
 71
     5
 72
     1
  1
\A1;5X420=2100
  7
STYLE1
 73
     1
 44
1.0
1001
ACAD
1000
MTEXTBEGIN
1070
    73
1070
     1
1070
    44
1040
1.0
1070
    74
1070
     0
1000
MTEXTEND
  0
POINT
  5
19A66
330
18916
100
AcDbEntity
  8
DEFPOINTS
 62
     0
 48
50.0
100
AcDbPoint
 10
8372.779539141578
 20
9632.024691904662
 30
0.0
  0
POINT
  5
19A67
330
18916
100
AcDbEntity
  8
DEFPOINTS
 62
     0
 48
50.0
100
AcDbPoint
 10
10472.77953914158
 20
9632.024691904758
 30
0.0
  0
POINT
  5
19A68
330
18916
100
AcDbEntity
  8
DEFPOINTS
 62
     0
 48
50.0
100
AcDbPoint
 10
10472.77953914158
 20
9935.070286480357
 30
0.0
  0
ENDBLK
  5
18921
330
18916
100
AcDbEntity
  8
0
 48
50.0
100
AcDbBlockEnd
  0
BLOCK
  5
1892E
330
18922
100
AcDbEntity
  8
0
 48
50.0
100
AcDbBlockBegin
  2
*D15
 70
     1
 10
0.0
 20
0.0
 30
0.0
  3
*D15
  1

  0
LINE
  5
19A55
330
18922
100
AcDbEntity
  8
寸法
 62
     0
 48
50.0
370
    -2
100
AcDbLine
 10
10472.77953914158
 20
9652.024691904756
 30
0.0
 11
10472.77953914158
 21
9995.07028648034
 31
0.0
  0
LINE
  5
19A56
330
18922
100
AcDbEntity
  8
寸法
 62
     0
 48
50.0
370
    -2
100
AcDbLine
 10
10527.77953914158
 20
9652.024691904756
 30
0.0
 11
10527.77953914158
 21
9995.07028648034
 31
0.0
  0
LINE
  5
19A57
330
18922
100
AcDbEntity
  8
寸法
 62
     0
 48
50.0
370
    -2
100
AcDbLine
 10
10472.77953914158
 20
9935.070286480339
 30
0.0
 11
10372.77953914158
 21
9935.070286480339
 31
0.0
  0
LINE
  5
19A58
330
18922
100
AcDbEntity
  8
寸法
 62
     0
 48
50.0
370
    -2
100
AcDbLine
 10
10527.77953914158
 20
9935.070286480339
 30
0.0
 11
10944.75010189005
 21
9935.070286480339
 31
0.0
  0
LINE
  5
19A59
330
18922
100
AcDbEntity
  8
寸法
 62
     0
 48
50.0
370
    -2
100
AcDbLine
 10
10472.77953914158
 20
9935.070286480339
 30
0.0
 11
10527.77953914158
 21
9935.070286480339
 31
0.0
  0
INSERT
  5
19A5A
330
18922
100
AcDbEntity
  8
寸法
 62
     0
 48
50.0
370
    -2
100
AcDbBlockReference
  2
_DOTSMALL
 10
10472.77953914158
 20
9935.070286480339
 30
0.0
 41
100.0
 42
100.0
 43
100.0
  0
INSERT
  5
19A5B
330
18922
100
AcDbEntity
  8
寸法
 62
     0
 48
50.0
370
    -2
100
AcDbBlockReference
  2
_DOTSMALL
 10
10527.77953914158
 20
9935.070286480339
 30
0.0
 41
100.0
 42
100.0
 43
100.0
 50
180.0
  0
MTEXT
  5
19A5C
330
18922
100
AcDbEntity
  8
寸法
 62
     7
 48
50.0
100
AcDbMText
 10
10836.26482051581
 20
10035.07028648034
 30
0.0
 40
120.0
 41
0.0
 71
     5
 72
     1
  1
\A1;55
  7
STYLE1
 73
     1
 44
1.0
1001
ACAD
1000
MTEXTBEGIN
1070
    73
1070
     1
1070
    44
1040
1.0
1070
    74
1070
     0
1000
MTEXTEND
  0
POINT
  5
19A5D
330
18922
100
AcDbEntity
  8
DEFPOINTS
 62
     0
 48
50.0
100
AcDbPoint
 10
10472.77953914158
 20
9632.024691904758
 30
0.0
  0
POINT
  5
19A5E
330
18922
100
AcDbEntity
  8
DEFPOINTS
 62
     0
 48
50.0
100
AcDbPoint
 10
10527.77953914158
 20
9632.024691904758
 30
0.0
  0
POINT
  5
19A5F
330
18922
100
AcDbEntity
  8
DEFPOINTS
 62
     0
 48
50.0
100
AcDbPoint
 10
10527.77953914158
 20
9935.070286480339
 30
0.0
  0
ENDBLK
  5
1892F
330
18922
100
AcDbEntity
  8
0
 48
50.0
100
AcDbBlockEnd
  0
BLOCK
  5
1893C
330
18930
100
AcDbEntity
  8
0
 48
50.0
100
AcDbBlockBegin
  2
*D16
 70
     1
 10
0.0
 20
0.0
 30
0.0
  3
*D16
  1

  0
LINE
  5
19A4A
330
18930
100
AcDbEntity
  8
寸法
 62
     0
 48
50.0
370
    -2
100
AcDbLine
 10
10547.77953914158
 20
9632.024691904758
 30
0.0
 11
11235.20588487599
 21
9632.024691904758
 31
0.0
  0
LINE
  5
19A4B
330
18930
100
AcDbEntity
  8
寸法
 62
     0
 48
50.0
370
    -2
100
AcDbLine
 10
10547.77953914158
 20
9577.02469190476
 30
0.0
 11
11235.20588487599
 21
9577.02469190476
 31
0.0
  0
LINE
  5
19A4C
330
18930
100
AcDbEntity
  8
寸法
 62
     0
 48
50.0
370
    -2
100
AcDbLine
 10
11175.20588487599
 20
9577.02469190476
 30
0.0
 11
11175.20588487599
 21
9477.024691904761
 31
0.0
  0
LINE
  5
19A4D
330
18930
100
AcDbEntity
  8
寸法
 62
     0
 48
50.0
370
    -2
100
AcDbLine
 10
11175.20588487599
 20
9632.024691904758
 30
0.0
 11
11175.20588487599
 21
10048.99525465323
 31
0.0
  0
LINE
  5
19A4E
330
18930
100
AcDbEntity
  8
寸法
 62
     0
 48
50.0
370
    -2
100
AcDbLine
 10
11175.20588487599
 20
9577.02469190476
 30
0.0
 11
11175.20588487599
 21
9632.024691904758
 31
0.0
  0
INSERT
  5
19A4F
330
18930
100
AcDbEntity
  8
寸法
 62
     0
 48
50.0
370
    -2
100
AcDbBlockReference
  2
_DOTSMALL
 10
11175.20588487599
 20
9577.02469190476
 30
0.0
 41
100.0
 42
100.0
 43
100.0
 50
90.0
  0
INSERT
  5
19A50
330
18930
100
AcDbEntity
  8
寸法
 62
     0
 48
50.0
370
    -2
100
AcDbBlockReference
  2
_DOTSMALL
 10
11175.20588487599
 20
9632.024691904758
 30
0.0
 41
100.0
 42
100.0
 43
100.0
 50
270.0
  0
MTEXT
  5
19A51
330
18930
100
AcDbEntity
  8
寸法
 62
     7
 48
50.0
100
AcDbMText
 10
11075.20588487599
 20
9940.509973278997
 30
0.0
 40
120.0
 41
0.0
 71
     5
 72
     1
  1
\A1;55
  7
STYLE1
 11
0.0000000000000001
 21
1.0
 31
0.0
 73
     1
 44
1.0
1001
ACAD
1000
MTEXTBEGIN
1070
    73
1070
     1
1070
    44
1040
1.0
1070
    74
1070
     0
1000
MTEXTEND
  0
POINT
  5
19A52
330
18930
100
AcDbEntity
  8
DEFPOINTS
 62
     0
 48
50.0
100
AcDbPoint
 10
10527.77953914158
 20
9632.024691904758
 30
0.0
  0
POINT
  5
19A53
330
18930
100
AcDbEntity
  8
DEFPOINTS
 62
     0
 48
50.0
100
AcDbPoint
 10
10527.77953914158
 20
9577.02469190476
 30
0.0
  0
POINT
  5
19A54
330
18930
100
AcDbEntity
  8
DEFPOINTS
 62
     0
 48
50.0
100
AcDbPoint
 10
11175.20588487599
 20
9577.02469190476
 30
0.0
  0
ENDBLK
  5
1893D
330
18930
100
AcDbEntity
  8
0
 48
50.0
100
AcDbBlockEnd
  0
BLOCK
  5
1894A
330
1893E
100
AcDbEntity
  8
0
 48
50.0
100
AcDbBlockBegin
  2
*D17
 70
     1
 10
0.0
 20
0.0
 30
0.0
  3
*D17
  1

  0
LINE
  5
19A3F
330
1893E
100
AcDbEntity
  8
寸法
 62
     0
 48
50.0
370
    -2
100
AcDbLine
 10
8317.779539141541
 20
9652.024691904664
 30
0.0
 11
8317.779539141541
 21
9995.070286480242
 31
0.0
  0
LINE
  5
19A40
330
1893E
100
AcDbEntity
  8
寸法
 62
     0
 48
50.0
370
    -2
100
AcDbLine
 10
8372.779539141578
 20
9652.024691904664
 30
0.0
 11
8372.779539141578
 21
9995.070286480242
 31
0.0
  0
LINE
  5
19A41
330
1893E
100
AcDbEntity
  8
寸法
 62
     0
 48
50.0
370
    -2
100
AcDbLine
 10
8372.779539141578
 20
9935.070286480241
 30
0.0
 11
8472.779539141578
 21
9935.070286480241
 31
0.0
  0
LINE
  5
19A42
330
1893E
100
AcDbEntity
  8
寸法
 62
     0
 48
50.0
370
    -2
100
AcDbLine
 10
8317.779539141541
 20
9935.070286480241
 30
0.0
 11
7900.808976393065
 21
9935.070286480241
 31
0.0
  0
LINE
  5
19A43
330
1893E
100
AcDbEntity
  8
寸法
 62
     0
 48
50.0
370
    -2
100
AcDbLine
 10
8372.779539141578
 20
9935.070286480241
 30
0.0
 11
8317.779539141541
 21
9935.070286480241
 31
0.0
  0
INSERT
  5
19A44
330
1893E
100
AcDbEntity
  8
寸法
 62
     0
 48
50.0
370
    -2
100
AcDbBlockReference
  2
_DOTSMALL
 10
8372.779539141578
 20
9935.070286480241
 30
0.0
 41
100.0
 42
100.0
 43
100.0
 50
180.0
  0
INSERT
  5
19A45
330
1893E
100
AcDbEntity
  8
寸法
 62
     0
 48
50.0
370
    -2
100
AcDbBlockReference
  2
_DOTSMALL
 10
8317.779539141541
 20
9935.070286480241
 30
0.0
 41
100.0
 42
100.0
 43
100.0
  0
MTEXT
  5
19A46
330
1893E
100
AcDbEntity
  8
寸法
 62
     7
 48
50.0
100
AcDbMText
 10
8009.294257767304
 20
10035.07028648024
 30
0.0
 40
120.0
 41
0.0
 71
     5
 72
     1
  1
\A1;55
  7
STYLE1
 73
     1
 44
1.0
1001
ACAD
1000
MTEXTBEGIN
1070
    73
1070
     1
1070
    44
1040
1.0
1070
    74
1070
     0
1000
MTEXTEND
  0
POINT
  5
19A47
330
1893E
100
AcDbEntity
  8
DEFPOINTS
 62
     0
 48
50.0
100
AcDbPoint
 10
8317.779539141541
 20
9632.024691904662
 30
0.0
  0
POINT
  5
19A48
330
1893E
100
AcDbEntity
  8
DEFPOINTS
 62
     0
 48
50.0
100
AcDbPoint
 10
8372.779539141578
 20
9632.024691904662
 30
0.0
  0
POINT
  5
19A49
330
1893E
100
AcDbEntity
  8
DEFPOINTS
 62
     0
 48
50.0
100
AcDbPoint
 10
8372.779539141578
 20
9935.070286480241
 30
0.0
  0
ENDBLK
  5
1894B
330
1893E
100
AcDbEntity
  8
0
 48
50.0
100
AcDbBlockEnd
  0
BLOCK
  5
18956
330
1894C
100
AcDbEntity
  8
0
 48
50.0
100
AcDbBlockBegin
  2
*D18
 70
     1
 10
0.0
 20
0.0
 30
0.0
  3
*D18
  1

  0
LINE
  5
19A36
330
1894C
100
AcDbEntity
  8
寸法
 62
     0
 48
50.0
370
    -2
100
AcDbLine
 10
8340.920555292957
 20
9132.024691904662
 30
0.0
 11
8251.633814039307
 21
8798.802037103794
 31
0.0
  0
LINE
  5
19A37
330
1894C
100
AcDbEntity
  8
寸法
 62
     0
 48
50.0
370
    -2
100
AcDbLine
 10
9613.920555292967
 20
9132.024691904655
 30
0.0
 11
9524.63381403932
 21
8798.802037103794
 31
0.0
  0
LINE
  5
19A38
330
1894C
100
AcDbEntity
  8
寸法
 62
     0
 48
50.0
370
    -2
100
AcDbLine
 10
8267.710765585176
 20
8858.802037103792
 30
0.0
 11
9540.710765585188
 21
8858.802037103792
 31
0.0
  0
INSERT
  5
19A39
330
1894C
100
AcDbEntity
  8
寸法
 62
     0
 48
50.0
370
    -2
100
AcDbBlockReference
  2
_DOTSMALL
 10
8267.710765585176
 20
8858.802037103792
 30
0.0
 41
100.0
 42
100.0
 43
100.0
 50
180.0
  0
INSERT
  5
19A3A
330
1894C
100
AcDbEntity
  8
寸法
 62
     0
 48
50.0
370
    -2
100
AcDbBlockReference
  2
_DOTSMALL
 10
9540.710765585188
 20
8858.802037103792
 30
0.0
 41
100.0
 42
100.0
 43
100.0
  0
MTEXT
  5
19A3B
330
1894C
100
AcDbEntity
  8
寸法
 62
     7
 48
50.0
100
AcDbMText
 10
8881.856315717959
 20
8958.813848127414
 30
0.0
 40
120.0
 41
0.0
 71
     5
 72
     1
  1
\A1;1273
  7
STYLE1
 73
     1
 44
1.0
1001
ACAD
1000
MTEXTBEGIN
1070
    73
1070
     1
1070
    44
1040
1.0
1070
    74
1070
     0
1000
MTEXTEND
  0
POINT
  5
19A3C
330
1894C
100
AcDbEntity
  8
DEFPOINTS
 62
     0
 48
50.0
100
AcDbPoint
 10
8346.279539141578
 20
9152.024691904662
 30
0.0
  0
POINT
  5
19A3D
330
1894C
100
AcDbEntity
  8
DEFPOINTS
 62
     0
 48
50.0
100
AcDbPoint
 10
9619.27953914159
 20
9152.024691904655
 30
0.0
  0
POINT
  5
19A3E
330
1894C
100
AcDbEntity
  8
DEFPOINTS
 62
     0
 48
50.0
100
AcDbPoint
 10
9540.710765585188
 20
8858.802037103792
 30
0.0
  0
ENDBLK
  5
18957
330
1894C
100
AcDbEntity
  8
0
 48
50.0
100
AcDbBlockEnd
  0
BLOCK
  5
18970
330
18964
100
AcDbEntity
  8
0
 48
50.0
100
AcDbBlockBegin
  2
*D19
 70
     1
 10
0.0
 20
0.0
 30
0.0
  3
*D19
  1

  0
LINE
  5
19A2B
330
18964
100
AcDbEntity
  8
寸法
 62
     0
 48
50.0
370
    -2
100
AcDbLine
 10
10547.77953914155
 20
7897.024691904745
 30
0.0
 11
11235.20588487596
 21
7897.024691904745
 31
0.0
  0
LINE
  5
19A2C
330
18964
100
AcDbEntity
  8
寸法
 62
     0
 48
50.0
370
    -2
100
AcDbLine
 10
10547.77953914155
 20
7842.02469190475
 30
0.0
 11
11235.20588487596
 21
7842.02469190475
 31
0.0
  0
LINE
  5
19A2D
330
18964
100
AcDbEntity
  8
寸法
 62
     0
 48
50.0
370
    -2
100
AcDbLine
 10
11175.20588487596
 20
7897.024691904745
 30
0.0
 11
11175.20588487596
 21
7997.024691904745
 31
0.0
  0
LINE
  5
19A2E
330
18964
100
AcDbEntity
  8
寸法
 62
     0
 48
50.0
370
    -2
100
AcDbLine
 10
11175.20588487596
 20
7842.02469190475
 30
0.0
 11
11175.20588487596
 21
7355.677943625646
 31
0.0
  0
LINE
  5
19A2F
330
18964
100
AcDbEntity
  8
寸法
 62
     0
 48
50.0
370
    -2
100
AcDbLine
 10
11175.20588487596
 20
7897.024691904745
 30
0.0
 11
11175.20588487596
 21
7842.02469190475
 31
0.0
  0
INSERT
  5
19A30
330
18964
100
AcDbEntity
  8
寸法
 62
     0
 48
50.0
370
    -2
100
AcDbBlockReference
  2
_DOTSMALL
 10
11175.20588487596
 20
7897.024691904745
 30
0.0
 41
100.0
 42
100.0
 43
100.0
 50
270.0
  0
INSERT
  5
19A31
330
18964
100
AcDbEntity
  8
寸法
 62
     0
 48
50.0
370
    -2
100
AcDbBlockReference
  2
_DOTSMALL
 10
11175.20588487596
 20
7842.02469190475
 30
0.0
 41
100.0
 42
100.0
 43
100.0
 50
90.0
  0
MTEXT
  5
19A32
330
18964
100
AcDbEntity
  8
寸法
 62
     7
 48
50.0
100
AcDbMText
 10
11075.20588487596
 20
7464.163224999888
 30
0.0
 40
120.0
 41
0.0
 71
     5
 72
     1
  1
\A1;55
  7
STYLE1
 11
0.0000000000000001
 21
1.0
 31
0.0
 73
     1
 44
1.0
1001
ACAD
1000
MTEXTBEGIN
1070
    73
1070
     1
1070
    44
1040
1.0
1070
    74
1070
     0
1000
MTEXTEND
  0
POINT
  5
19A33
330
18964
100
AcDbEntity
  8
DEFPOINTS
 62
     0
 48
50.0
100
AcDbPoint
 10
10527.77953914155
 20
7897.024691904745
 30
0.0
  0
POINT
  5
19A34
330
18964
100
AcDbEntity
  8
DEFPOINTS
 62
     0
 48
50.0
100
AcDbPoint
 10
10527.77953914155
 20
7842.02469190475
 30
0.0
  0
POINT
  5
19A35
330
18964
100
AcDbEntity
  8
DEFPOINTS
 62
     0
 48
50.0
100
AcDbPoint
 10
11175.20588487596
 20
7842.02469190475
 30
0.0
  0
ENDBLK
  5
18971
330
18964
100
AcDbEntity
  8
0
 48
50.0
100
AcDbBlockEnd
  0
BLOCK
  5
1897C
330
18972
100
AcDbEntity
  8
0
 48
50.0
100
AcDbBlockBegin
  2
*D20
 70
     1
 10
0.0
 20
0.0
 30
0.0
  3
*D20
  1

  0
LINE
  5
19A22
330
18972
100
AcDbEntity
  8
寸法
 62
     0
 48
50.0
370
    -2
100
AcDbLine
 10
9640.920555292957
 20
9132.024691904767
 30
0.0
 11
9551.633814039281
 21
8798.802037103794
 31
0.0
  0
LINE
  5
19A23
330
18972
100
AcDbEntity
  8
寸法
 62
     0
 48
50.0
370
    -2
100
AcDbLine
 10
10493.92055529297
 20
9132.02469190476
 30
0.0
 11
10404.63381403929
 21
8798.802037103794
 31
0.0
  0
LINE
  5
19A24
330
18972
100
AcDbEntity
  8
寸法
 62
     0
 48
50.0
370
    -2
100
AcDbLine
 10
9567.710765585147
 20
8858.802037103792
 30
0.0
 11
10420.71076558516
 21
8858.802037103792
 31
0.0
  0
INSERT
  5
19A25
330
18972
100
AcDbEntity
  8
寸法
 62
     0
 48
50.0
370
    -2
100
AcDbBlockReference
  2
_DOTSMALL
 10
9567.710765585147
 20
8858.802037103792
 30
0.0
 41
100.0
 42
100.0
 43
100.0
 50
180.0
  0
INSERT
  5
19A26
330
18972
100
AcDbEntity
  8
寸法
 62
     0
 48
50.0
370
    -2
100
AcDbBlockReference
  2
_DOTSMALL
 10
10420.71076558516
 20
8858.802037103792
 30
0.0
 41
100.0
 42
100.0
 43
100.0
  0
MTEXT
  5
19A27
330
18972
100
AcDbEntity
  8
寸法
 62
     7
 48
50.0
100
AcDbMText
 10
10025.62660125984
 20
8958.802037103792
 30
0.0
 40
120.0
 41
0.0
 71
     5
 72
     1
  1
\A1;853
  7
STYLE1
 73
     1
 44
1.0
1001
ACAD
1000
MTEXTBEGIN
1070
    73
1070
     1
1070
    44
1040
1.0
1070
    74
1070
     0
1000
MTEXTEND
  0
POINT
  5
19A28
330
18972
100
AcDbEntity
  8
DEFPOINTS
 62
     0
 48
50.0
100
AcDbPoint
 10
9646.279539141579
 20
9152.024691904768
 30
0.0
  0
POINT
  5
19A29
330
18972
100
AcDbEntity
  8
DEFPOINTS
 62
     0
 48
50.0
100
AcDbPoint
 10
10499.27953914159
 20
9152.024691904761
 30
0.0
  0
POINT
  5
19A2A
330
18972
100
AcDbEntity
  8
DEFPOINTS
 62
     0
 48
50.0
100
AcDbPoint
 10
10420.71076558516
 20
8858.802037103792
 30
0.0
  0
ENDBLK
  5
1897D
330
18972
100
AcDbEntity
  8
0
 48
50.0
100
AcDbBlockEnd
  0
BLOCK
  5
18988
330
1897E
100
AcDbEntity
  8
0
 48
50.0
100
AcDbBlockBegin
  2
*D21
 70
     1
 10
0.0
 20
0.0
 30
0.0
  3
*D21
  1

  0
LINE
  5
19A19
330
1897E
100
AcDbEntity
  8
寸法
 62
     0
 48
50.0
370
    -2
100
AcDbLine
 10
10519.27953914158
 20
9596.665708056134
 30
0.0
 11
10914.6372650036
 21
9490.72992469
 31
0.0
  0
LINE
  5
19A1A
330
1897E
100
AcDbEntity
  8
寸法
 62
     0
 48
50.0
370
    -2
100
AcDbLine
 10
10519.27953914158
 20
9146.665708056138
 30
0.0
 11
10914.6372650036
 21
9040.729924690003
 31
0.0
  0
LINE
  5
19A1B
330
1897E
100
AcDbEntity
  8
寸法
 62
     0
 48
50.0
370
    -2
100
AcDbLine
 10
10854.6372650036
 20
9506.806876235868
 30
0.0
 11
10854.6372650036
 21
9056.806876235871
 31
0.0
  0
INSERT
  5
19A1C
330
1897E
100
AcDbEntity
  8
寸法
 62
     0
 48
50.0
370
    -2
100
AcDbBlockReference
  2
_DOTSMALL
 10
10854.6372650036
 20
9506.806876235868
 30
0.0
 41
100.0
 42
100.0
 43
100.0
 50
90.0
  0
INSERT
  5
19A1D
330
1897E
100
AcDbEntity
  8
寸法
 62
     0
 48
50.0
370
    -2
100
AcDbBlockReference
  2
_DOTSMALL
 10
10854.6372650036
 20
9056.806876235871
 30
0.0
 41
100.0
 42
100.0
 43
100.0
 50
270.0
  0
MTEXT
  5
19A1E
330
1897E
100
AcDbEntity
  8
寸法
 62
     7
 48
50.0
100
AcDbMText
 10
10754.6372650036
 20
9281.80687623587
 30
0.0
 40
120.0
 41
0.0
 71
     5
 72
     1
  1
\A1;450
  7
STYLE1
 11
0.0000000000000001
 21
1.0
 31
0.0
 73
     1
 44
1.0
1001
ACAD
1000
MTEXTBEGIN
1070
    73
1070
     1
1070
    44
1040
1.0
1070
    74
1070
     0
1000
MTEXTEND
  0
POINT
  5
19A1F
330
1897E
100
AcDbEntity
  8
DEFPOINTS
 62
     0
 48
50.0
100
AcDbPoint
 10
10499.27953914158
 20
9602.024691904757
 30
0.0
  0
POINT
  5
19A20
330
1897E
100
AcDbEntity
  8
DEFPOINTS
 62
     0
 48
50.0
100
AcDbPoint
 10
10499.27953914158
 20
9152.024691904761
 30
0.0
  0
POINT
  5
19A21
330
1897E
100
AcDbEntity
  8
DEFPOINTS
 62
     0
 48
50.0
100
AcDbPoint
 10
10854.6372650036
 20
9056.806876235871
 30
0.0
  0
ENDBLK
  5
18989
330
1897E
100
AcDbEntity
  8
0
 48
50.0
100
AcDbBlockEnd
  0
BLOCK
  5
18994
330
1898A
100
AcDbEntity
  8
0
 48
50.0
100
AcDbBlockBegin
  2
*D22
 70
     1
 10
0.0
 20
0.0
 30
0.0
  3
*D22
  1

  0
LINE
  5
19A10
330
1898A
100
AcDbEntity
  8
寸法
 62
     0
 48
50.0
370
    -2
100
AcDbLine
 10
10547.77953914158
 20
9577.02469190476
 30
0.0
 11
11235.20588487599
 21
9577.02469190476
 31
0.0
  0
LINE
  5
19A11
330
1898A
100
AcDbEntity
  8
寸法
 62
     0
 48
50.0
370
    -2
100
AcDbLine
 10
10547.77953914155
 20
7897.024691904745
 30
0.0
 11
11235.20588487599
 21
7897.024691904745
 31
0.0
  0
LINE
  5
19A12
330
1898A
100
AcDbEntity
  8
寸法
 62
     0
 48
50.0
370
    -2
100
AcDbLine
 10
11175.20588487599
 20
9577.02469190476
 30
0.0
 11
11175.20588487599
 21
7897.024691904745
 31
0.0
  0
INSERT
  5
19A13
330
1898A
100
AcDbEntity
  8
寸法
 62
     0
 48
50.0
370
    -2
100
AcDbBlockReference
  2
_DOTSMALL
 10
11175.20588487599
 20
9577.02469190476
 30
0.0
 41
100.0
 42
100.0
 43
100.0
 50
90.0
  0
INSERT
  5
19A14
330
1898A
100
AcDbEntity
  8
寸法
 62
     0
 48
50.0
370
    -2
100
AcDbBlockReference
  2
_DOTSMALL
 10
11175.20588487599
 20
7897.024691904745
 30
0.0
 41
100.0
 42
100.0
 43
100.0
 50
270.0
  0
MTEXT
  5
19A15
330
1898A
100
AcDbEntity
  8
寸法
 62
     7
 48
50.0
100
AcDbMText
 10
11075.19407385237
 20
8737.024691904753
 30
0.0
 40
120.0
 41
0.0
 71
     5
 72
     1
  1
\A1;4X420=1680
  7
STYLE1
 11
0.0000000000000001
 21
1.0
 31
0.0
 73
     1
 44
1.0
1001
ACAD
1000
MTEXTBEGIN
1070
    73
1070
     1
1070
    44
1040
1.0
1070
    74
1070
     0
1000
MTEXTEND
  0
POINT
  5
19A16
330
1898A
100
AcDbEntity
  8
DEFPOINTS
 62
     0
 48
50.0
100
AcDbPoint
 10
10527.77953914158
 20
9577.02469190476
 30
0.0
  0
POINT
  5
19A17
330
1898A
100
AcDbEntity
  8
DEFPOINTS
 62
     0
 48
50.0
100
AcDbPoint
 10
10527.77953914155
 20
7897.024691904745
 30
0.0
  0
POINT
  5
19A18
330
1898A
100
AcDbEntity
  8
DEFPOINTS
 62
     0
 48
50.0
100
AcDbPoint
 10
11175.20588487599
 20
7897.024691904745
 30
0.0
  0
ENDBLK
  5
18995
330
1898A
100
AcDbEntity
  8
0
 48
50.0
100
AcDbBlockEnd
  0
BLOCK
  5
189A0
330
18996
100
AcDbEntity
  8
0
 48
50.0
100
AcDbBlockBegin
  2
*D23
 70
     1
 10
0.0
 20
0.0
 30
0.0
  3
*D23
  1

  0
LINE
  5
192E0
330
18996
100
AcDbEntity
  8
寸法
 62
     0
 48
50.0
370
    -2
100
AcDbLine
 10
8325.779539141571
 20
4509.219157816541
 30
0.0
 11
7964.554732670556
 21
4509.219157816541
 31
0.0
  0
LINE
  5
192E1
330
18996
100
AcDbEntity
  8
寸法
 62
     0
 48
50.0
370
    -2
100
AcDbLine
 10
8325.779539141571
 20
2784.21915781654
 30
0.0
 11
7964.554732670556
 21
2784.21915781654
 31
0.0
  0
LINE
  5
192E2
330
18996
100
AcDbEntity
  8
寸法
 62
     0
 48
50.0
370
    -2
100
AcDbLine
 10
8024.554732670557
 20
4509.219157816541
 30
0.0
 11
8024.554732670557
 21
2784.21915781654
 31
0.0
  0
INSERT
  5
192E3
330
18996
100
AcDbEntity
  8
寸法
 62
     0
 48
50.0
370
    -2
100
AcDbBlockReference
  2
_DOTSMALL
 10
8024.554732670557
 20
4509.219157816541
 30
0.0
 41
100.0
 42
100.0
 43
100.0
 50
90.0
  0
INSERT
  5
192E4
330
18996
100
AcDbEntity
  8
寸法
 62
     0
 48
50.0
370
    -2
100
AcDbBlockReference
  2
_DOTSMALL
 10
8024.554732670557
 20
2784.21915781654
 30
0.0
 41
100.0
 42
100.0
 43
100.0
 50
270.0
  0
MTEXT
  5
192E5
330
18996
100
AcDbEntity
  8
寸法
 62
     7
 48
50.0
100
AcDbMText
 10
7924.542921646935
 20
3686.147778025501
 30
0.0
 40
120.0
 41
0.0
 71
     5
 72
     1
  1
\A1;有効開口部高サ1725
  7
STYLE1
 11
0.0000000000000001
 21
1.0
 31
0.0
 73
     1
 44
1.0
1001
ACAD
1000
MTEXTBEGIN
1070
    73
1070
     1
1070
    44
1040
1.0
1070
    74
1070
     0
1000
MTEXTEND
  0
POINT
  5
192E6
330
18996
100
AcDbEntity
  8
DEFPOINTS
 62
     0
 48
50.0
100
AcDbPoint
 10
8345.779539141572
 20
4509.219157816541
 30
0.0
  0
POINT
  5
192E7
330
18996
100
AcDbEntity
  8
DEFPOINTS
 62
     0
 48
50.0
100
AcDbPoint
 10
8345.779539141572
 20
2784.21915781654
 30
0.0
  0
POINT
  5
192E8
330
18996
100
AcDbEntity
  8
DEFPOINTS
 62
     0
 48
50.0
100
AcDbPoint
 10
8024.554732670557
 20
2784.21915781654
 30
0.0
  0
ENDBLK
  5
189A1
330
18996
100
AcDbEntity
  8
0
 48
50.0
100
AcDbBlockEnd
  0
BLOCK
  5
18E1A
330
18E0E
100
AcDbEntity
  8
0
 48
50.0
100
AcDbBlockBegin
  2
*D24
 70
     1
 10
0.0
 20
0.0
 30
0.0
  3
*D24
  1

  0
LINE
  5
192C1
330
18E0E
100
AcDbEntity
  8
寸法
 62
     0
 48
50.0
370
    -2
100
AcDbLine
 10
6241.31919304403
 20
4821.219157816543
 30
0.0
 11
6241.31919304403
 21
5265.839417243813
 31
0.0
  0
LINE
  5
192C2
330
18E0E
100
AcDbEntity
  8
寸法
 62
     0
 48
50.0
370
    -2
100
AcDbLine
 10
6191.31919304403
 20
4821.219157816546
 30
0.0
 11
6191.31919304403
 21
5265.839417243813
 31
0.0
  0
LINE
  5
192C3
330
18E0E
100
AcDbEntity
  8
寸法
 62
     0
 48
50.0
370
    -2
100
AcDbLine
 10
6191.31919304403
 20
5205.839417243812
 30
0.0
 11
6091.31919304403
 21
5205.839417243812
 31
0.0
  0
LINE
  5
192C4
330
18E0E
100
AcDbEntity
  8
寸法
 62
     0
 48
50.0
370
    -2
100
AcDbLine
 10
6241.31919304403
 20
5205.839417243812
 30
0.0
 11
6660.851718512754
 21
5205.839417243812
 31
0.0
  0
LINE
  5
192C5
330
18E0E
100
AcDbEntity
  8
寸法
 62
     0
 48
50.0
370
    -2
100
AcDbLine
 10
6191.31919304403
 20
5205.839417243812
 30
0.0
 11
6241.31919304403
 21
5205.839417243812
 31
0.0
  0
INSERT
  5
192C6
330
18E0E
100
AcDbEntity
  8
寸法
 62
     0
 48
50.0
370
    -2
100
AcDbBlockReference
  2
_DOTSMALL
 10
6191.31919304403
 20
5205.839417243812
 30
0.0
 41
100.0
 42
100.0
 43
100.0
  0
INSERT
  5
192C7
330
18E0E
100
AcDbEntity
  8
寸法
 62
     0
 48
50.0
370
    -2
100
AcDbBlockReference
  2
_DOTSMALL
 10
6241.31919304403
 20
5205.839417243812
 30
0.0
 41
100.0
 42
100.0
 43
100.0
 50
180.0
  0
MTEXT
  5
192C8
330
18E0E
100
AcDbEntity
  8
寸法
 62
     7
 48
50.0
100
AcDbMText
 10
6554.804474418266
 20
5305.839417243813
 30
0.0
 40
120.0
 41
0.0
 71
     5
 72
     1
  1
\A1;50
  7
STYLE1
 73
     1
 44
1.0
1001
ACAD
1000
MTEXTBEGIN
1070
    73
1070
     1
1070
    44
1040
1.0
1070
    74
1070
     0
1000
MTEXTEND
  0
POINT
  5
192C9
330
18E0E
100
AcDbEntity
  8
DEFPOINTS
 62
     0
 48
50.0
100
AcDbPoint
 10
6241.31919304403
 20
4801.219157816543
 30
0.0
  0
POINT
  5
192CA
330
18E0E
100
AcDbEntity
  8
DEFPOINTS
 62
     0
 48
50.0
100
AcDbPoint
 10
6191.31919304403
 20
4801.219157816546
 30
0.0
  0
POINT
  5
192CB
330
18E0E
100
AcDbEntity
  8
DEFPOINTS
 62
     0
 48
50.0
100
AcDbPoint
 10
6191.31919304403
 20
5205.839417243812
 30
0.0
  0
ENDBLK
  5
18E1B
330
18E0E
100
AcDbEntity
  8
0
 48
50.0
100
AcDbBlockEnd
  0
BLOCK
  5
18E28
330
18E1C
100
AcDbEntity
  8
0
 48
50.0
100
AcDbBlockBegin
  2
*D25
 70
     1
 10
0.0
 20
0.0
 30
0.0
  3
*D25
  1

  0
LINE
  5
192B6
330
18E1C
100
AcDbEntity
  8
寸法
 62
     0
 48
50.0
370
    -2
100
AcDbLine
 10
4401.319193044041
 20
4821.219157816546
 30
0.0
 11
4401.319193044041
 21
5265.839417243813
 31
0.0
  0
LINE
  5
192B7
330
18E1C
100
AcDbEntity
  8
寸法
 62
     0
 48
50.0
370
    -2
100
AcDbLine
 10
4351.31919304404
 20
4821.219157816546
 30
0.0
 11
4351.31919304404
 21
5265.839417243813
 31
0.0
  0
LINE
  5
192B8
330
18E1C
100
AcDbEntity
  8
寸法
 62
     0
 48
50.0
370
    -2
100
AcDbLine
 10
4401.319193044041
 20
5205.839417243812
 30
0.0
 11
4501.31919304404
 21
5205.839417243812
 31
0.0
  0
LINE
  5
192B9
330
18E1C
100
AcDbEntity
  8
寸法
 62
     0
 48
50.0
370
    -2
100
AcDbLine
 10
4351.31919304404
 20
5205.839417243812
 30
0.0
 11
3931.786667575306
 21
5205.839417243812
 31
0.0
  0
LINE
  5
192BA
330
18E1C
100
AcDbEntity
  8
寸法
 62
     0
 48
50.0
370
    -2
100
AcDbLine
 10
4401.319193044041
 20
5205.839417243812
 30
0.0
 11
4351.31919304404
 21
5205.839417243812
 31
0.0
  0
INSERT
  5
192BB
330
18E1C
100
AcDbEntity
  8
寸法
 62
     0
 48
50.0
370
    -2
100
AcDbBlockReference
  2
_DOTSMALL
 10
4401.319193044041
 20
5205.839417243812
 30
0.0
 41
100.0
 42
100.0
 43
100.0
 50
180.0
  0
INSERT
  5
192BC
330
18E1C
100
AcDbEntity
  8
寸法
 62
     0
 48
50.0
370
    -2
100
AcDbBlockReference
  2
_DOTSMALL
 10
4351.31919304404
 20
5205.839417243812
 30
0.0
 41
100.0
 42
100.0
 43
100.0
  0
MTEXT
  5
192BD
330
18E1C
100
AcDbEntity
  8
寸法
 62
     7
 48
50.0
100
AcDbMText
 10
4037.833911669793
 20
5305.839417243813
 30
0.0
 40
120.0
 41
0.0
 71
     5
 72
     1
  1
\A1;50
  7
STYLE1
 73
     1
 44
1.0
1001
ACAD
1000
MTEXTBEGIN
1070
    73
1070
     1
1070
    44
1040
1.0
1070
    74
1070
     0
1000
MTEXTEND
  0
POINT
  5
192BE
330
18E1C
100
AcDbEntity
  8
DEFPOINTS
 62
     0
 48
50.0
100
AcDbPoint
 10
4401.319193044041
 20
4801.219157816547
 30
0.0
  0
POINT
  5
192BF
330
18E1C
100
AcDbEntity
  8
DEFPOINTS
 62
     0
 48
50.0
100
AcDbPoint
 10
4351.31919304404
 20
4801.219157816546
 30
0.0
  0
POINT
  5
192C0
330
18E1C
100
AcDbEntity
  8
DEFPOINTS
 62
     0
 48
50.0
100
AcDbPoint
 10
4351.31919304404
 20
5205.839417243812
 30
0.0
  0
ENDBLK
  5
18E29
330
18E1C
100
AcDbEntity
  8
0
 48
50.0
100
AcDbBlockEnd
  0
BLOCK
  5
18E34
330
18E2A
100
AcDbEntity
  8
0
 48
50.0
100
AcDbBlockBegin
  2
*D26
 70
     1
 10
0.0
 20
0.0
 30
0.0
  3
*D26
  1

  0
LINE
  5
192AD
330
18E2A
100
AcDbEntity
  8
寸法
 62
     0
 48
50.0
370
    -2
100
AcDbLine
 10
4351.31919304404
 20
4821.219157816546
 30
0.0
 11
4351.31919304404
 21
5475.433291665264
 31
0.0
  0
LINE
  5
192AE
330
18E2A
100
AcDbEntity
  8
寸法
 62
     0
 48
50.0
370
    -2
100
AcDbLine
 10
6241.31919304403
 20
4821.219157816543
 30
0.0
 11
6241.31919304403
 21
5475.433291665264
 31
0.0
  0
LINE
  5
192AF
330
18E2A
100
AcDbEntity
  8
寸法
 62
     0
 48
50.0
370
    -2
100
AcDbLine
 10
4351.31919304404
 20
5415.433291665264
 30
0.0
 11
6241.31919304403
 21
5415.433291665264
 31
0.0
  0
INSERT
  5
192B0
330
18E2A
100
AcDbEntity
  8
寸法
 62
     0
 48
50.0
370
    -2
100
AcDbBlockReference
  2
_DOTSMALL
 10
4351.31919304404
 20
5415.433291665264
 30
0.0
 41
100.0
 42
100.0
 43
100.0
 50
180.0
  0
INSERT
  5
192B1
330
18E2A
100
AcDbEntity
  8
寸法
 62
     0
 48
50.0
370
    -2
100
AcDbBlockReference
  2
_DOTSMALL
 10
6241.31919304403
 20
5415.433291665264
 30
0.0
 41
100.0
 42
100.0
 43
100.0
  0
MTEXT
  5
192B2
330
18E2A
100
AcDbEntity
  8
寸法
 62
     7
 48
50.0
100
AcDbMText
 10
5296.319193044034
 20
5515.433291665264
 30
0.0
 40
120.0
 41
0.0
 71
     5
 72
     1
  1
\A1;1890
  7
STYLE1
 73
     1
 44
1.0
1001
ACAD
1000
MTEXTBEGIN
1070
    73
1070
     1
1070
    44
1040
1.0
1070
    74
1070
     0
1000
MTEXTEND
  0
POINT
  5
192B3
330
18E2A
100
AcDbEntity
  8
DEFPOINTS
 62
     0
 48
50.0
100
AcDbPoint
 10
4351.31919304404
 20
4801.219157816546
 30
0.0
  0
POINT
  5
192B4
330
18E2A
100
AcDbEntity
  8
DEFPOINTS
 62
     0
 48
50.0
100
AcDbPoint
 10
6241.31919304403
 20
4801.219157816543
 30
0.0
  0
POINT
  5
192B5
330
18E2A
100
AcDbEntity
  8
DEFPOINTS
 62
     0
 48
50.0
100
AcDbPoint
 10
6241.31919304403
 20
5415.433291665264
 30
0.0
  0
ENDBLK
  5
18E35
330
18E2A
100
AcDbEntity
  8
0
 48
50.0
100
AcDbBlockEnd
  0
BLOCK
  5
18E40
330
18E36
100
AcDbEntity
  8
0
 48
50.0
100
AcDbBlockBegin
  2
*D27
 70
     1
 10
0.0
 20
0.0
 30
0.0
  3
*D27
  1

  0
LINE
  5
192A4
330
18E36
100
AcDbEntity
  8
寸法
 62
     0
 48
50.0
370
    -2
100
AcDbLine
 10
6191.31919304403
 20
4821.219157816546
 30
0.0
 11
6191.31919304403
 21
5265.839417243813
 31
0.0
  0
LINE
  5
192A5
330
18E36
100
AcDbEntity
  8
寸法
 62
     0
 48
50.0
370
    -2
100
AcDbLine
 10
4401.319193044041
 20
4821.219157816546
 30
0.0
 11
4401.319193044041
 21
5265.839417243813
 31
0.0
  0
LINE
  5
192A6
330
18E36
100
AcDbEntity
  8
寸法
 62
     0
 48
50.0
370
    -2
100
AcDbLine
 10
6191.31919304403
 20
5205.839417243812
 30
0.0
 11
4401.319193044041
 21
5205.839417243812
 31
0.0
  0
INSERT
  5
192A7
330
18E36
100
AcDbEntity
  8
寸法
 62
     0
 48
50.0
370
    -2
100
AcDbBlockReference
  2
_DOTSMALL
 10
6191.31919304403
 20
5205.839417243812
 30
0.0
 41
100.0
 42
100.0
 43
100.0
  0
INSERT
  5
192A8
330
18E36
100
AcDbEntity
  8
寸法
 62
     0
 48
50.0
370
    -2
100
AcDbBlockReference
  2
_DOTSMALL
 10
4401.319193044041
 20
5205.839417243812
 30
0.0
 41
100.0
 42
100.0
 43
100.0
 50
180.0
  0
MTEXT
  5
192A9
330
18E36
100
AcDbEntity
  8
寸法
 62
     7
 48
50.0
100
AcDbMText
 10
5296.319193044034
 20
5305.839417243813
 30
0.0
 40
120.0
 41
0.0
 71
     5
 72
     1
  1
\A1;柱外寸法1790
  7
STYLE1
 73
     1
 44
1.0
1001
ACAD
1000
MTEXTBEGIN
1070
    73
1070
     1
1070
    44
1040
1.0
1070
    74
1070
     0
1000
MTEXTEND
  0
POINT
  5
192AA
330
18E36
100
AcDbEntity
  8
DEFPOINTS
 62
     0
 48
50.0
100
AcDbPoint
 10
6191.31919304403
 20
4801.219157816546
 30
0.0
  0
POINT
  5
192AB
330
18E36
100
AcDbEntity
  8
DEFPOINTS
 62
     0
 48
50.0
100
AcDbPoint
 10
4401.319193044041
 20
4801.219157816547
 30
0.0
  0
POINT
  5
192AC
330
18E36
100
AcDbEntity
  8
DEFPOINTS
 62
     0
 48
50.0
100
AcDbPoint
 10
4401.319193044041
 20
5205.839417243812
 30
0.0
  0
ENDBLK
  5
18E41
330
18E36
100
AcDbEntity
  8
0
 48
50.0
100
AcDbBlockEnd
  0
BLOCK
  5
18E4C
330
18E42
100
AcDbEntity
  8
0
 48
50.0
100
AcDbBlockBegin
  2
*D28
 70
     1
 10
0.0
 20
0.0
 30
0.0
  3
*D28
  1

  0
LINE
  5
1929B
330
18E42
100
AcDbEntity
  8
寸法
 62
     0
 48
50.0
370
    -2
100
AcDbLine
 10
4528.819193044033
 20
2406.219157816539
 30
0.0
 11
4528.819193044033
 21
2080.171828516162
 31
0.0
  0
LINE
  5
1929C
330
18E42
100
AcDbEntity
  8
寸法
 62
     0
 48
50.0
370
    -2
100
AcDbLine
 10
4328.819193044036
 20
2406.21915781654
 30
0.0
 11
4328.819193044036
 21
2080.171828516162
 31
0.0
  0
LINE
  5
1929D
330
18E42
100
AcDbEntity
  8
寸法
 62
     0
 48
50.0
370
    -2
100
AcDbLine
 10
4528.819193044033
 20
2140.171828516162
 30
0.0
 11
4328.819193044036
 21
2140.171828516162
 31
0.0
  0
INSERT
  5
1929E
330
18E42
100
AcDbEntity
  8
寸法
 62
     0
 48
50.0
370
    -2
100
AcDbBlockReference
  2
_DOTSMALL
 10
4528.819193044033
 20
2140.171828516162
 30
0.0
 41
100.0
 42
100.0
 43
100.0
  0
INSERT
  5
1929F
330
18E42
100
AcDbEntity
  8
寸法
 62
     0
 48
50.0
370
    -2
100
AcDbBlockReference
  2
_DOTSMALL
 10
4328.819193044036
 20
2140.171828516162
 30
0.0
 41
100.0
 42
100.0
 43
100.0
 50
180.0
  0
MTEXT
  5
192A0
330
18E42
100
AcDbEntity
  8
寸法
 62
     7
 48
50.0
100
AcDbMText
 10
4428.819193044035
 20
2240.183639539785
 30
0.0
 40
120.0
 41
0.0
 71
     5
 72
     1
  1
\A1;200
  7
STYLE1
 73
     1
 44
1.0
1001
ACAD
1000
MTEXTBEGIN
1070
    73
1070
     1
1070
    44
1040
1.0
1070
    74
1070
     0
1000
MTEXTEND
  0
POINT
  5
192A1
330
18E42
100
AcDbEntity
  8
DEFPOINTS
 62
     0
 48
50.0
100
AcDbPoint
 10
4528.819193044033
 20
2426.219157816539
 30
0.0
  0
POINT
  5
192A2
330
18E42
100
AcDbEntity
  8
DEFPOINTS
 62
     0
 48
50.0
100
AcDbPoint
 10
4328.819193044036
 20
2426.21915781654
 30
0.0
  0
POINT
  5
192A3
330
18E42
100
AcDbEntity
  8
DEFPOINTS
 62
     0
 48
50.0
100
AcDbPoint
 10
4328.819193044036
 20
2140.171828516162
 30
0.0
  0
ENDBLK
  5
18E4D
330
18E42
100
AcDbEntity
  8
0
 48
50.0
100
AcDbBlockEnd
  0
BLOCK
  5
18E58
330
18E4E
100
AcDbEntity
  8
0
 48
50.0
100
AcDbBlockBegin
  2
*D29
 70
     1
 10
0.0
 20
0.0
 30
0.0
  3
*D29
  1

  0
LINE
  5
19292
330
18E4E
100
AcDbEntity
  8
寸法
 62
     0
 48
50.0
370
    -2
100
AcDbLine
 10
4308.819193044037
 20
2426.21915781654
 30
0.0
 11
4119.3191897974
 21
2426.21915781654
 31
0.0
  0
LINE
  5
19293
330
18E4E
100
AcDbEntity
  8
寸法
 62
     0
 48
50.0
370
    -2
100
AcDbLine
 10
4283.819193044034
 20
2626.219157816541
 30
0.0
 11
4119.3191897974
 21
2626.219157816541
 31
0.0
  0
LINE
  5
19294
330
18E4E
100
AcDbEntity
  8
寸法
 62
     0
 48
50.0
370
    -2
100
AcDbLine
 10
4179.3191897974
 20
2426.21915781654
 30
0.0
 11
4179.3191897974
 21
2626.219157816541
 31
0.0
  0
INSERT
  5
19295
330
18E4E
100
AcDbEntity
  8
寸法
 62
     0
 48
50.0
370
    -2
100
AcDbBlockReference
  2
_DOTSMALL
 10
4179.3191897974
 20
2426.21915781654
 30
0.0
 41
100.0
 42
100.0
 43
100.0
 50
270.0
  0
INSERT
  5
19296
330
18E4E
100
AcDbEntity
  8
寸法
 62
     0
 48
50.0
370
    -2
100
AcDbBlockReference
  2
_DOTSMALL
 10
4179.3191897974
 20
2626.219157816541
 30
0.0
 41
100.0
 42
100.0
 43
100.0
 50
90.0
  0
MTEXT
  5
19297
330
18E4E
100
AcDbEntity
  8
寸法
 62
     7
 48
50.0
100
AcDbMText
 10
4079.307378773777
 20
2526.219157816541
 30
0.0
 40
120.0
 41
0.0
 71
     5
 72
     1
  1
\A1;200
  7
STYLE1
 11
0.0000000000000001
 21
1.0
 31
0.0
 73
     1
 44
1.0
1001
ACAD
1000
MTEXTBEGIN
1070
    73
1070
     1
1070
    44
1040
1.0
1070
    74
1070
     0
1000
MTEXTEND
  0
POINT
  5
19298
330
18E4E
100
AcDbEntity
  8
DEFPOINTS
 62
     0
 48
50.0
100
AcDbPoint
 10
4328.819193044036
 20
2426.21915781654
 30
0.0
  0
POINT
  5
19299
330
18E4E
100
AcDbEntity
  8
DEFPOINTS
 62
     0
 48
50.0
100
AcDbPoint
 10
4303.819193044033
 20
2626.219157816541
 30
0.0
  0
POINT
  5
1929A
330
18E4E
100
AcDbEntity
  8
DEFPOINTS
 62
     0
 48
50.0
100
AcDbPoint
 10
4179.3191897974
 20
2626.219157816541
 30
0.0
  0
ENDBLK
  5
18E59
330
18E4E
100
AcDbEntity
  8
0
 48
50.0
100
AcDbBlockEnd
  0
BLOCK
  5
1956E
330
19564
100
AcDbEntity
  8
0
 48
50.0
100
AcDbBlockBegin
  2
*D30
 70
     1
 10
0.0
 20
0.0
 30
0.0
  3
*D30
  1

  0
LINE
  5
19A07
330
19564
100
AcDbEntity
  8
寸法
 62
     0
 48
50.0
370
    -2
100
AcDbLine
 10
8384.779539141552
 20
7745.024691904589
 30
0.0
 11
8384.779539141552
 21
7081.540709082438
 31
0.0
  0
LINE
  5
19A08
330
19564
100
AcDbEntity
  8
寸法
 62
     0
 48
50.0
370
    -2
100
AcDbLine
 10
9650.779539141552
 20
7745.024691904589
 30
0.0
 11
9650.779539141552
 21
7081.540709082438
 31
0.0
  0
LINE
  5
19A09
330
19564
100
AcDbEntity
  8
寸法
 62
     0
 48
50.0
370
    -2
100
AcDbLine
 10
8404.779539141554
 20
7121.540709082437
 30
0.0
 11
9630.779539141554
 21
7121.540709082437
 31
0.0
  0
INSERT
  5
19A0A
330
19564
100
AcDbEntity
  8
寸法
 62
     0
 48
50.0
370
    -2
100
AcDbBlockReference
  2
_DOT
 10
8384.779539141552
 20
7121.540709082437
 30
0.0
 41
20.0
 42
20.0
 43
20.0
 50
180.0
  0
INSERT
  5
19A0B
330
19564
100
AcDbEntity
  8
寸法
 62
     0
 48
50.0
370
    -2
100
AcDbBlockReference
  2
_DOT
 10
9650.779539141552
 20
7121.540709082437
 30
0.0
 41
20.0
 42
20.0
 43
20.0
  0
MTEXT
  5
19A0C
330
19564
100
AcDbEntity
  8
寸法
 62
     7
 48
50.0
100
AcDbMText
 10
8998.585108534475
 20
7313.552520106059
 30
0.0
 40
120.0
 41
0.0
 71
     5
 72
     1
  1
\A1;有効開口部間口\P1266
  7
STYLE1
 73
     1
 44
1.0
1001
ACAD
1000
MTEXTBEGIN
1070
    73
1070
     1
1070
    44
1040
1.0
1070
    74
1070
     0
1000
MTEXTEND
  0
POINT
  5
19A0D
330
19564
100
AcDbEntity
  8
DEFPOINTS
 62
     0
 48
50.0
100
AcDbPoint
 10
8384.779539141552
 20
7765.024691904589
 30
0.0
  0
POINT
  5
19A0E
330
19564
100
AcDbEntity
  8
DEFPOINTS
 62
     0
 48
50.0
100
AcDbPoint
 10
9650.779539141552
 20
7765.024691904589
 30
0.0
  0
POINT
  5
19A0F
330
19564
100
AcDbEntity
  8
DEFPOINTS
 62
     0
 48
50.0
100
AcDbPoint
 10
9650.779539141552
 20
7121.540709082437
 30
0.0
  0
ENDBLK
  5
1956F
330
19564
100
AcDbEntity
  8
0
 48
50.0
100
AcDbBlockEnd
  0
BLOCK
  5
1989D
330
19893
100
AcDbEntity
  8
0
 48
50.0
100
AcDbBlockBegin
  2
*D31
 70
     1
 10
0.0
 20
0.0
 30
0.0
  3
*D31
  1

  0
LINE
  5
199FE
330
19893
100
AcDbEntity
  8
寸法
 62
     0
 48
50.0
370
    -2
100
AcDbLine
 10
8345.779539141553
 20
7745.024691904633
 30
0.0
 11
8345.779539141553
 21
6784.894976476866
 31
0.0
  0
LINE
  5
199FF
330
19893
100
AcDbEntity
  8
寸法
 62
     0
 48
50.0
370
    -2
100
AcDbLine
 10
10499.77953914155
 20
7745.024691904633
 30
0.0
 11
10499.77953914155
 21
6784.894976476866
 31
0.0
  0
LINE
  5
19A00
330
19893
100
AcDbEntity
  8
寸法
 62
     0
 48
50.0
370
    -2
100
AcDbLine
 10
8345.779539141553
 20
6844.894976476865
 30
0.0
 11
10499.77953914155
 21
6844.894976476865
 31
0.0
  0
INSERT
  5
19A01
330
19893
100
AcDbEntity
  8
寸法
 62
     0
 48
50.0
370
    -2
100
AcDbBlockReference
  2
_DOTSMALL
 10
8345.779539141553
 20
6844.894976476865
 30
0.0
 41
100.0
 42
100.0
 43
100.0
 50
180.0
  0
INSERT
  5
19A02
330
19893
100
AcDbEntity
  8
寸法
 62
     0
 48
50.0
370
    -2
100
AcDbBlockReference
  2
_DOTSMALL
 10
10499.77953914155
 20
6844.894976476865
 30
0.0
 41
100.0
 42
100.0
 43
100.0
  0
MTEXT
  5
19A03
330
19893
100
AcDbEntity
  8
寸法
 62
     7
 48
50.0
100
AcDbMText
 10
9444.912295888865
 20
6944.906787500487
 30
0.0
 40
120.0
 41
0.0
 71
     5
 72
     1
  1
\A1;2154
  7
STYLE1
 73
     1
 44
1.0
1001
ACAD
1000
MTEXTBEGIN
1070
    73
1070
     1
1070
    44
1040
1.0
1070
    74
1070
     0
1000
MTEXTEND
  0
POINT
  5
19A04
330
19893
100
AcDbEntity
  8
DEFPOINTS
 62
     0
 48
50.0
100
AcDbPoint
 10
8345.779539141553
 20
7765.024691904634
 30
0.0
  0
POINT
  5
19A05
330
19893
100
AcDbEntity
  8
DEFPOINTS
 62
     0
 48
50.0
100
AcDbPoint
 10
10499.77953914155
 20
7765.024691904634
 30
0.0
  0
POINT
  5
19A06
330
19893
100
AcDbEntity
  8
DEFPOINTS
 62
     0
 48
50.0
100
AcDbPoint
 10
10499.77953914155
 20
6844.894976476865
 30
0.0
  0
ENDBLK
  5
1989E
330
19893
100
AcDbEntity
  8
0
 48
50.0
100
AcDbBlockEnd
  0
BLOCK
  5
198AB
330
1989F
100
AcDbEntity
  8
0
 48
50.0
100
AcDbBlockBegin
  2
*D32
 70
     1
 10
0.0
 20
0.0
 30
0.0
  3
*D32
  1

  0
LINE
  5
199F3
330
1989F
100
AcDbEntity
  8
寸法
 62
     0
 48
50.0
370
    -2
100
AcDbLine
 10
8297.77953914157
 20
7842.024691904687
 30
0.0
 11
7983.168293514854
 21
7842.024691904687
 31
0.0
  0
LINE
  5
199F4
330
1989F
100
AcDbEntity
  8
寸法
 62
     0
 48
50.0
370
    -2
100
AcDbLine
 10
8325.779539141553
 20
7767.024691904687
 30
0.0
 11
7983.168293514854
 21
7767.024691904687
 31
0.0
  0
LINE
  5
199F5
330
1989F
100
AcDbEntity
  8
寸法
 62
     0
 48
50.0
370
    -2
100
AcDbLine
 10
8023.168293514855
 20
7862.024691904688
 30
0.0
 11
8023.168293514855
 21
7882.024691904688
 31
0.0
  0
LINE
  5
199F6
330
1989F
100
AcDbEntity
  8
寸法
 62
     0
 48
50.0
370
    -2
100
AcDbLine
 10
8023.168293514855
 20
7747.024691904687
 30
0.0
 11
8023.168293514855
 21
7526.054129156209
 31
0.0
  0
LINE
  5
199F7
330
1989F
100
AcDbEntity
  8
寸法
 62
     0
 48
50.0
370
    -2
100
AcDbLine
 10
8023.168293514855
 20
7842.024691904687
 30
0.0
 11
8023.168293514855
 21
7767.024691904687
 31
0.0
  0
INSERT
  5
199F8
330
1989F
100
AcDbEntity
  8
寸法
 62
     0
 48
50.0
370
    -2
100
AcDbBlockReference
  2
_DOT
 10
8023.168293514855
 20
7842.024691904687
 30
0.0
 41
20.0
 42
20.0
 43
20.0
 50
270.0
  0
INSERT
  5
199F9
330
1989F
100
AcDbEntity
  8
寸法
 62
     0
 48
50.0
370
    -2
100
AcDbBlockReference
  2
_DOT
 10
8023.168293514855
 20
7767.024691904687
 30
0.0
 41
20.0
 42
20.0
 43
20.0
 50
90.0
  0
MTEXT
  5
199FA
330
1989F
100
AcDbEntity
  8
寸法
 62
     7
 48
50.0
100
AcDbMText
 10
7931.168293514852
 20
7626.539410530449
 30
0.0
 40
120.0
 41
0.0
 71
     5
 72
     1
  1
\A1;75
  7
STYLE1
 11
0.0000000000000001
 21
1.0
 31
0.0
 73
     1
 44
1.0
1001
ACAD
1000
MTEXTBEGIN
1070
    73
1070
     1
1070
    44
1040
1.0
1070
    74
1070
     0
1000
MTEXTEND
  0
POINT
  5
199FB
330
1989F
100
AcDbEntity
  8
DEFPOINTS
 62
     0
 48
50.0
100
AcDbPoint
 10
8317.779539141572
 20
7842.024691904687
 30
0.0
  0
POINT
  5
199FC
330
1989F
100
AcDbEntity
  8
DEFPOINTS
 62
     0
 48
50.0
100
AcDbPoint
 10
8345.779539141553
 20
7767.024691904687
 30
0.0
  0
POINT
  5
199FD
330
1989F
100
AcDbEntity
  8
DEFPOINTS
 62
     0
 48
50.0
100
AcDbPoint
 10
8023.168293514855
 20
7767.024691904687
 30
0.0
  0
ENDBLK
  5
198AC
330
1989F
100
AcDbEntity
  8
0
 48
50.0
100
AcDbBlockEnd
  0
BLOCK
  5
19911
330
19907
100
AcDbEntity
  8
0
 48
50.0
100
AcDbBlockBegin
  2
*D33
 70
     1
 10
0.0
 20
0.0
 30
0.0
  3
*D33
  1

  0
LINE
  5
199EA
330
19907
100
AcDbEntity
  8
寸法
 62
     0
 48
50.0
370
    -2
100
AcDbLine
 10
8317.779539141572
 20
7822.024691904622
 30
0.0
 11
8317.779539141572
 21
6518.513462131541
 31
0.0
  0
LINE
  5
199EB
330
19907
100
AcDbEntity
  8
寸法
 62
     0
 48
50.0
370
    -2
100
AcDbLine
 10
10527.77953914155
 20
7822.02469190475
 30
0.0
 11
10527.77953914155
 21
6518.513462131541
 31
0.0
  0
LINE
  5
199EC
330
19907
100
AcDbEntity
  8
寸法
 62
     0
 48
50.0
370
    -2
100
AcDbLine
 10
8317.779539141572
 20
6578.513462131541
 30
0.0
 11
10527.77953914155
 21
6578.513462131541
 31
0.0
  0
INSERT
  5
199ED
330
19907
100
AcDbEntity
  8
寸法
 62
     0
 48
50.0
370
    -2
100
AcDbBlockReference
  2
_DOTSMALL
 10
8317.779539141572
 20
6578.513462131541
 30
0.0
 41
100.0
 42
100.0
 43
100.0
 50
180.0
  0
INSERT
  5
199EE
330
19907
100
AcDbEntity
  8
寸法
 62
     0
 48
50.0
370
    -2
100
AcDbBlockReference
  2
_DOTSMALL
 10
10527.77953914155
 20
6578.513462131541
 30
0.0
 41
100.0
 42
100.0
 43
100.0
  0
MTEXT
  5
199EF
330
19907
100
AcDbEntity
  8
寸法
 62
     7
 48
50.0
100
AcDbMText
 10
9444.912295888865
 20
6678.525273155162
 30
0.0
 40
120.0
 41
0.0
 71
     5
 72
     1
  1
\A1;2210
  7
STYLE1
 73
     1
 44
1.0
1001
ACAD
1000
MTEXTBEGIN
1070
    73
1070
     1
1070
    44
1040
1.0
1070
    74
1070
     0
1000
MTEXTEND
  0
POINT
  5
199F0
330
19907
100
AcDbEntity
  8
DEFPOINTS
 62
     0
 48
50.0
100
AcDbPoint
 10
8317.779539141572
 20
7842.024691904622
 30
0.0
  0
POINT
  5
199F1
330
19907
100
AcDbEntity
  8
DEFPOINTS
 62
     0
 48
50.0
100
AcDbPoint
 10
10527.77953914155
 20
7842.02469190475
 30
0.0
  0
POINT
  5
199F2
330
19907
100
AcDbEntity
  8
DEFPOINTS
 62
     0
 48
50.0
100
AcDbPoint
 10
10527.77953914155
 20
6578.513462131541
 30
0.0
  0
ENDBLK
  5
19912
330
19907
100
AcDbEntity
  8
0
 48
50.0
100
AcDbBlockEnd
  0
ENDSEC
  0
SECTION
  2
ENTITIES
  0
LINE
  5
10B57
330
747D
100
AcDbEntity
  8
補助
  6
PHANTOM
 62
   230
 48
50.0
100
AcDbLine
 10
139.9999999999995
 20
11409.6
 30
0.0
 11
16307.2
 21
11409.6
 31
0.0
  0
LINE
  5
10B59
330
747D
100
AcDbEntity
  8
仕様書枠
  6
Continuous
 48
50.0
100
AcDbLine
 10
13107.2
 20
1200.0
 30
0.0
 11
13107.2
 21
-0.0000000000000729
 31
0.0
  0
LINE
  5
10B5C
330
747D
100
AcDbEntity
  8
仕様書枠
 48
50.0
100
AcDbLine
 10
16307.2
 20
1200.0
 30
0.0
 11
16307.2
 21
-0.0000000000000909
 31
0.0
  0
LINE
  5
10B5D
330
747D
100
AcDbEntity
  8
仕様書枠
 48
50.0
100
AcDbLine
 10
140.0
 20
0.0
 30
0.0
 11
16307.2
 21
-0.0000000000000909
 31
0.0
  0
LINE
  5
10B5E
330
747D
100
AcDbEntity
  8
補助
  6
PHANTOM
 62
   230
 48
50.0
100
AcDbLine
 10
16307.2
 20
11409.6
 30
0.0
 11
16307.2
 21
1200.0
 31
0.0
  0
LINE
  5
10B6C
330
747D
100
AcDbEntity
  8
仕様書枠
 48
50.0
100
AcDbLine
 10
13107.2
 20
1200.0
 30
0.0
 11
16307.2
 21
1200.0
 31
0.0
  0
LINE
  5
10B6D
330
747D
100
AcDbEntity
  8
補助
  6
PHANTOM
 62
   230
 48
50.0
100
AcDbLine
 10
13107.2
 20
11409.6
 30
0.0
 11
13107.2
 21
4800.0
 31
0.0
  0
LINE
  5
10B6F
330
747D
100
AcDbEntity
  8
補助
  6
PHANTOM
 62
   230
 48
50.0
100
AcDbLine
 10
13107.2
 20
4800.0
 30
0.0
 11
16307.2
 21
4800.0
 31
0.0
  0
LINE
  5
10B72
330
747D
100
AcDbEntity
  8
文字
 62
     7
 48
50.0
100
AcDbLine
 10
13187.2
 20
400.0
 30
0.0
 11
16227.2
 21
400.0
 31
0.0
  0
TEXT
  5
10B73
330
747D
100
AcDbEntity
  8
文字
 62
     7
 48
50.0
100
AcDbText
 10
13162.9790565769
 20
895.0906074299405
 30
0.0
 40
200.0
  1
外 形 図
  7
STYLE2
100
AcDbText
  0
TEXT
  5
10B74
330
747D
100
AcDbEntity
  8
文字
 62
     7
 48
50.0
100
AcDbText
 10
13201.43669998441
 20
477.2740661031255
 30
0.0
 40
160.0
  1
機種名
  7
STYLE2
100
AcDbText
  0
TEXT
  5
10B76
330
747D
100
AcDbEntity
  8
文字
 62
     7
 48
50.0
100
AcDbText
 10
13209.4053442172
 20
76.09434707649343
 30
0.0
 40
100.0
  1
○床面積 ： 4.12㎡(1.25坪) 　
  7
STYLE2
100
AcDbText
  0
TEXT
  5
10B79
330
747D
100
AcDbEntity
  8
文字
 62
     7
 48
50.0
100
AcDbText
 10
14524.131837222
 20
1031.557706291228
 30
0.0
 40
100.0
  1
NO.14      <縮尺> S=1/40
  7
STYLE2
100
AcDbText
  0
LINE
  5
10B7B
330
747D
100
AcDbEntity
  8
仕様書枠
 48
50.0
100
AcDbLine
 10
13107.2
 20
800.0
 30
0.0
 11
14251.2
 21
800.0
 31
0.0
  0
LINE
  5
10B88
330
747D
100
AcDbEntity
  8
仕様書枠
  6
Continuous
 48
50.0
100
AcDbLine
 10
14251.2
 20
1200.0
 30
0.0
 11
14251.2
 21
800.0
 31
0.0
  0
TEXT
  5
14D2F
330
747D
100
AcDbEntity
  8
文字
 62
     7
 48
50.0
100
AcDbText
 10
14644.07818602837
 20
876.4448062548634
 30
0.0
 40
100.0
  1
～一般型・多雪地型～
  7
STYLE2
100
AcDbText
  0
TEXT
  5
185A3
330
747D
100
AcDbEntity
  8
部品1
 48
50.0
100
AcDbText
 10
9738.680397030389
 20
4830.0343450918
 30
0.0
 40
120.0
  1
44
 50
90.0
  7
STYLE1
100
AcDbText
  0
DIMENSION
  5
185A4
330
747D
100
AcDbEntity
  8
寸法
100
AcDbDimension
  2
*D2
 10
7409.140157212213
 20
2626.219157816541
 30
0.0
 11
7409.140157212212
 21
2390.17191372205
 31
0.0
 70
   160
 71
     5
 42
100.0
  3
INABA_S40G
100
AcDbAlignedDimension
 13
8262.779539141572
 23
2726.219157816541
 33
0.0
 14
7694.126829983274
 24
2626.219157816541
 34
0.0
 50
90.0
100
AcDbRotatedDimension
1001
ACAD
1000
DSTYLE
1002
{
1070
   174
1070
     0
1070
   272
1070
     1
1070
   288
1070
     0
1070
   341
1005
0
1002
}
  0
DIMENSION
  5
185A5
330
747D
100
AcDbEntity
  8
寸法
100
AcDbDimension
  2
*D3
 10
7694.126829983274
 20
2726.219157816541
 30
0.0
 11
7694.126829983274
 21
2420.17191372205
 31
0.0
 70
   160
 71
     5
 42
50.0
  3
INABA_S40G
100
AcDbAlignedDimension
 13
8317.779539141572
 23
2776.21915781654
 33
0.0
 14
8262.779539141572
 24
2726.219157816541
 34
0.0
 50
90.0
100
AcDbRotatedDimension
1001
ACAD
1000
DSTYLE
1002
{
1070
   174
1070
     0
1070
   272
1070
     1
1070
   288
1070
     0
1070
   341
1005
0
1002
}
  0
DIMENSION
  5
185A6
330
747D
100
AcDbEntity
  8
寸法
100
AcDbDimension
  2
*D4
 10
7694.126829983274
 20
2776.21915781654
 30
0.0
 11
7694.126829983274
 21
3666.673456358498
 31
0.0
 70
   160
 71
     5
 42
1790.0
  3
INABA_S40G
100
AcDbAlignedDimension
 13
8317.779539141572
 23
4566.21915781654
 33
0.0
 14
8317.779539141572
 24
2776.21915781654
 34
0.0
 50
90.0
100
AcDbRotatedDimension
1001
ACAD
1000
DSTYLE
1002
{
1070
   174
1070
     0
1070
   272
1070
     1
1070
   288
1070
     0
1070
   341
1005
0
1002
}
  0
DIMENSION
  5
185A7
330
747D
100
AcDbEntity
  8
寸法
100
AcDbDimension
  2
*D5
 10
7409.140157212213
 20
4801.219157816546
 30
0.0
 11
7409.140157212212
 21
3720.425035309651
 31
0.0
 70
   160
 71
     5
 42
2075.000000000005
  3
INABA_S40G
100
AcDbAlignedDimension
 13
8317.779539141572
 23
2726.219157816541
 33
0.0
 14
8257.779539141571
 24
4801.219157816546
 34
0.0
 50
90.0
100
AcDbRotatedDimension
1001
ACAD
1000
DSTYLE
1002
{
1070
   174
1070
     0
1070
   272
1070
     1
1070
   288
1070
     0
1070
   341
1005
0
1002
}
  0
DIMENSION
  5
185A8
330
747D
100
AcDbEntity
  8
寸法
100
AcDbDimension
  2
*D6
 10
11062.949634904
 20
4746.219157816542
 30
0.0
 11
11062.94963490399
 21
3708.475485246228
 31
0.0
 70
   160
 71
     5
 42
2020.000000000003
  3
INABA_S40G
100
AcDbAlignedDimension
 13
10527.77953914157
 23
2726.219157816541
 33
0.0
 14
10607.77953914155
 24
4746.219157816542
 34
0.0
 50
90.0
100
AcDbRotatedDimension
1001
ACAD
1000
DSTYLE
1002
{
1070
   174
1070
     0
1070
   272
1070
     1
1070
   288
1070
     0
1070
   341
1005
0
1002
}
  0
LINE
  5
185A9
330
747D
100
AcDbEntity
  8
細線
 48
50.0
100
AcDbLine
 10
10574.77953914157
 20
4746.186136851837
 30
0.0
 11
10570.03185625357
 21
4620.440364361091
 31
0.0
  0
LINE
  5
185AA
330
747D
100
AcDbEntity
  8
部品1
 48
50.0
100
AcDbLine
 10
10606.99344195227
 20
4737.160310090757
 30
0.0
 11
10604.9628207613
 21
4717.215268832977
 31
0.0
  0
LINE
  5
185AB
330
747D
100
AcDbEntity
  8
部品1
 48
50.0
100
AcDbLine
 10
10601.61025427682
 20
4713.904634760068
 30
0.0
 11
10594.10347501198
 21
4640.172014015057
 31
0.0
  0
LINE
  5
185AC
330
747D
100
AcDbEntity
  8
部品1
 48
50.0
100
AcDbLine
 10
10590.7509085275
 20
4636.861379942144
 30
0.0
 11
10589.67134548776
 21
4626.257762948585
 31
0.0
  0
ARC
  5
185AD
330
747D
100
AcDbEntity
  8
部品1
 48
50.0
100
AcDbCircle
 10
10600.02944138752
 20
4737.869320763533
 30
0.0
 40
7.0
100
AcDbArc
 50
354.1866997665532
 51
87.03587545303909
  0
ARC
  5
185AE
330
747D
100
AcDbEntity
  8
部品1
 48
50.0
100
AcDbCircle
 10
10582.707344923
 20
4626.96677362136
 30
0.0
 40
7.0
100
AcDbArc
 50
267.8377559869492
 51
354.1866997665532
  0
ARC
  5
185AF
330
747D
100
AcDbEntity
  8
部品1
100
AcDbCircle
 10
10593.73548019811
 20
4636.557518225241
 30
0.0
 40
3.0
100
AcDbArc
 50
95.0921697642102
 51
174.1866997665532
  0
ARC
  5
185B0
330
747D
100
AcDbEntity
  8
部品1
100
AcDbCircle
 10
10604.59482594743
 20
4713.600773043166
 30
0.0
 40
3.0
100
AcDbArc
 50
95.09216976441781
 51
174.1866997665532
  0
ARC
  5
185B1
330
747D
100
AcDbEntity
  8
部品1
100
AcDbCircle
 10
10604.26642070483
 20
4717.286169900255
 30
0.0
 40
0.7
100
AcDbArc
 50
275.0921697642102
 51
354.1866997665532
  0
ARC
  5
185B2
330
747D
100
AcDbEntity
  8
部品1
100
AcDbCircle
 10
10593.40707495551
 20
4640.242915082331
 30
0.0
 40
0.7
100
AcDbArc
 50
275.0921697642102
 51
354.1866997666569
  0
LINE
  5
185B3
330
747D
100
AcDbEntity
  8
細線
 48
50.0
100
AcDbLine
 10
8290.779539141572
 20
4798.618834191944
 30
0.0
 11
8285.490437586064
 21
4658.533201564591
 31
0.0
  0
LINE
  5
185B4
330
747D
100
AcDbEntity
  8
部品1
 48
50.0
100
AcDbLine
 10
8257.963825054678
 20
4792.812703981232
 30
0.0
 11
8258.34408483249
 21
4772.88573953482
 31
0.0
  0
LINE
  5
185B5
330
747D
100
AcDbEntity
  8
部品1
 48
50.0
100
AcDbLine
 10
8261.412856938736
 20
4769.310458041348
 30
0.0
 11
8263.116758430099
 21
4680.019961334701
 31
0.0
  0
LINE
  5
185B6
330
747D
100
AcDbEntity
  8
部品1
 48
50.0
100
AcDbLine
 10
8266.185530536343
 20
4676.444679841227
 30
0.0
 11
8266.387483156774
 21
4665.861644448138
 31
0.0
  0
ARC
  5
185B7
330
747D
100
AcDbEntity
  8
部品1
 48
50.0
100
AcDbCircle
 10
8264.962550883018
 20
4792.946258388659
 30
0.0
 40
7.0
100
AcDbArc
 50
87.03587545303909
 51
181.0932240293156
  0
ARC
  5
185B8
330
747D
100
AcDbEntity
  8
部品1
 48
50.0
100
AcDbCircle
 10
8273.386208985114
 20
4665.995198855566
 30
0.0
 40
7.0
100
AcDbArc
 50
181.0932240293156
 51
267.8377559869492
  0
ARC
  5
185B9
330
747D
100
AcDbEntity
  8
部品1
100
AcDbCircle
 10
8263.186076609912
 20
4676.387442238047
 30
0.0
 40
3.0
100
AcDbArc
 50
1.093224029315636
 51
80.18775403148891
  0
ARC
  5
185BA
330
747D
100
AcDbEntity
  8
部品1
100
AcDbCircle
 10
8258.413403012307
 20
4769.253220438164
 30
0.0
 40
3.0
100
AcDbArc
 50
1.093224029315636
 51
80.18775403148891
  0
ARC
  5
185BB
330
747D
100
AcDbEntity
  8
部品1
100
AcDbCircle
 10
8259.043957415327
 20
4772.899094975563
 30
0.0
 40
0.7
100
AcDbArc
 50
181.0932240292114
 51
260.187754031489
  0
ARC
  5
185BC
330
747D
100
AcDbEntity
  8
部品1
100
AcDbCircle
 10
8263.816631012938
 20
4680.033316775443
 30
0.0
 40
0.7
100
AcDbArc
 50
181.0932240293156
 51
260.187754031489
  0
DIMENSION
  5
185BD
330
747D
100
AcDbEntity
  8
寸法
 48
50.0
100
AcDbDimension
  2
*D7
 10
7697.171132373203
 20
4675.564416689868
 30
0.0
 11
7707.836607632128
 21
5046.411079931575
 31
0.0
 70
   161
 71
     5
 42
141.0000000000018
  3
INABA_S40G
100
AcDbAlignedDimension
 13
8277.175559300152
 23
4799.94190665122
 33
0.0
 14
8273.122103743524
 24
4659.000182885505
 34
0.0
1001
ACAD
1000
DSTYLE
1002
{
1070
   174
1070
     0
1070
   272
1070
     1
1070
   288
1070
     0
1070
   341
1005
0
1002
}
  0
LINE
  5
185BE
330
747D
100
AcDbEntity
  8
部品1
100
AcDbLine
 10
8265.324525498533
 20
4799.936893150807
 30
0.0
 11
10600.39141600303
 21
4744.859955525678
 31
0.0
  0
LINE
  5
185BF
330
747D
100
AcDbEntity
  8
部品1
100
AcDbLine
 10
8273.122103743524
 20
4659.000182885505
 30
0.0
 11
10582.44323968142
 21
4619.971757651302
 31
0.0
  0
LINE
  5
185C0
330
747D
100
AcDbEntity
  8
細線
 48
50.0
100
AcDbLine
 10
8258.818962242385
 20
4772.236239657901
 30
0.0
 11
10604.45494698755
 21
4716.612035017073
 31
0.0
  0
LINE
  5
185C1
330
747D
100
AcDbEntity
  8
細線
 48
50.0
100
AcDbLine
 10
8263.579437479672
 20
4679.374727960037
 30
0.0
 11
10593.58310191031
 21
4639.565408985546
 31
0.0
  0
TEXT
  5
185C2
330
747D
100
AcDbEntity
  8
部品1
 48
50.0
100
AcDbText
 10
9261.047374365299
 20
4967.535603310083
 30
0.0
 40
120.0
  1
1000
  7
STYLE1
100
AcDbText
  0
LINE
  5
185C3
330
747D
100
AcDbEntity
  8
部品1
 48
50.0
100
AcDbLine
 10
9572.779539141571
 20
4931.65158115765
 30
0.0
 11
9572.779539141571
 21
4915.451581157651
 31
0.0
  0
LINE
  5
185C4
330
747D
100
AcDbEntity
  8
部品1
 48
50.0
100
AcDbLine
 10
9272.779539141572
 20
4931.65158115765
 30
0.0
 11
9572.779539141571
 21
4931.65158115765
 31
0.0
  0
LINE
  5
185C5
330
747D
100
AcDbEntity
  8
部品1
100
AcDbLine
 10
9247.324525498534
 20
4932.969640116513
 30
0.0
 11
9572.779539141571
 21
4915.451581157651
 31
0.0
  0
DIMENSION
  5
185C6
330
747D
100
AcDbEntity
  8
寸法
 48
50.0
100
AcDbDimension
  2
*D8
 10
8257.779539141571
 20
5199.876611395843
 30
0.0
 11
7948.141743865981
 21
5199.876611395843
 31
0.0
 70
   160
 71
     5
 42
60.0
  3
INABA_S40G
100
AcDbAlignedDimension
 13
8317.779539141572
 23
4797.220775939517
 33
0.0
 14
8257.779539141571
 24
4801.219157816544
 34
0.0
100
AcDbRotatedDimension
1001
ACAD
1000
DSTYLE
1002
{
1070
   174
1070
     0
1070
   272
1070
     1
1070
   288
1070
     0
1070
   341
1005
0
1002
}
  0
DIMENSION
  5
185C7
330
747D
100
AcDbEntity
  8
寸法
 48
50.0
100
AcDbDimension
  2
*D9
 10
10607.77953914157
 20
5199.876611395843
 30
0.0
 11
10813.82678323606
 21
5199.876611395843
 31
0.0
 70
   160
 71
     5
 42
80.0
  3
INABA_S40G
100
AcDbAlignedDimension
 13
10527.77953914157
 23
4748.029837428192
 33
0.0
 14
10607.77953914157
 24
4746.21915781654
 34
0.0
100
AcDbRotatedDimension
1001
ACAD
1000
DSTYLE
1002
{
1070
   174
1070
     0
1070
   272
1070
     1
1070
   288
1070
     0
1070
   341
1005
0
1002
}
  0
DIMENSION
  5
185C8
330
747D
100
AcDbEntity
  8
寸法
 48
50.0
100
AcDbDimension
  2
*D10
 10
8257.779539141571
 20
5419.078445070136
 30
0.0
 11
9492.12339323404
 21
5419.078445070136
 31
0.0
 70
   160
 71
     5
 42
2350.0
  3
INABA_S40G
100
AcDbAlignedDimension
 13
10607.77953914157
 23
4746.21915781654
 33
0.0
 14
8257.779539141571
 24
4801.219157816544
 34
0.0
100
AcDbRotatedDimension
1001
ACAD
1000
DSTYLE
1002
{
1070
   174
1070
     0
1070
   272
1070
     1
1070
   288
1070
     0
1070
   341
1005
0
1002
}
  0
DIMENSION
  5
185C9
330
747D
100
AcDbEntity
  8
寸法
 48
50.0
100
AcDbDimension
  2
*D11
 10
8317.779539141572
 20
5199.876611395843
 30
0.0
 11
9412.424276212083
 21
5199.876611395843
 31
0.0
 70
   160
  1
柱外寸法<>
 71
     5
 42
2210.0
  3
INABA_S40G
100
AcDbAlignedDimension
 13
10527.77953914157
 23
4748.029837428192
 33
0.0
 14
8317.779539141572
 24
4797.220775939517
 34
0.0
100
AcDbRotatedDimension
1001
ACAD
1000
DSTYLE
1002
{
1070
   174
1070
     0
1070
   272
1070
     1
1070
   288
1070
     0
1070
   341
1005
0
1002
}
  0
TEXT
  5
1860E
330
747D
100
AcDbEntity
  8
文字
 62
     7
 48
50.0
100
AcDbText
 10
13583.11819016569
 20
8550.013745883733
 30
0.0
 40
100.0
  1
棚板
  7
STYLE1
100
AcDbText
  0
TEXT
  5
1860F
330
747D
100
AcDbEntity
  8
文字
 62
     7
 48
50.0
100
AcDbText
 10
15022.63965474516
 20
8550.013745883729
 30
0.0
 40
100.0
  1
F12            0.6
  7
STYLE1
100
AcDbText
  0
TEXT
  5
18610
330
747D
100
AcDbEntity
  8
文字
 62
     7
 48
50.0
100
AcDbText
 10
15022.63965474515
 20
9740.013745883725
 30
0.0
 40
100.0
  1
F12            1.0
  7
STYLE1
100
AcDbText
  0
TEXT
  5
18611
330
747D
100
AcDbEntity
  8
文字
 62
     7
 48
50.0
100
AcDbText
 10
13583.11819016569
 20
9740.013745883729
 30
0.0
 40
100.0
  1
母屋中
  7
STYLE1
100
AcDbText
  0
TEXT
  5
18612
330
747D
100
AcDbEntity
  8
文字
 62
     7
 48
50.0
100
AcDbText
 10
13248.77747366447
 20
8720.013745883729
 30
0.0
 40
100.0
  1
15
  7
STYLE1
100
AcDbText
  0
LINE
  5
18613
330
747D
100
AcDbEntity
  8
仕様書枠
 48
50.0
100
AcDbLine
 10
16307.19999999999
 20
8009.600000000007
 30
0.0
 11
13127.19999999999
 21
8009.600000000007
 31
0.0
  0
TEXT
  5
18614
330
747D
100
AcDbEntity
  8
文字
 62
     7
 48
50.0
100
AcDbText
 10
13583.11819016569
 20
8720.013745883733
 30
0.0
 40
100.0
  1
扉
  7
STYLE1
100
AcDbText
  0
TEXT
  5
18615
330
747D
100
AcDbEntity
  8
文字
 62
     7
 48
50.0
100
AcDbText
 10
15022.63965474516
 20
8720.013745883729
 30
0.0
 40
100.0
  1
F12            0.8
  7
STYLE1
100
AcDbText
  0
TEXT
  5
18616
330
747D
100
AcDbEntity
  8
文字
 62
     7
 48
50.0
100
AcDbText
 10
13583.11819016568
 20
8890.013745883733
 30
0.0
 40
100.0
  1
正面パネル
  7
STYLE1
100
AcDbText
  0
TEXT
  5
18617
330
747D
100
AcDbEntity
  8
文字
 62
     7
 48
50.0
100
AcDbText
 10
15022.63965474515
 20
8890.013745883729
 30
0.0
 40
100.0
  1
F12            0.7
  7
STYLE1
100
AcDbText
  0
TEXT
  5
18618
330
747D
100
AcDbEntity
  8
文字
 62
     7
 48
50.0
100
AcDbText
 10
15022.63965474517
 20
10590.01374588373
 30
0.0
 40
100.0
  1
F12            1.0
  7
STYLE1
100
AcDbText
  0
TEXT
  5
18619
330
747D
100
AcDbEntity
  8
文字
 62
     7
 48
50.0
100
AcDbText
 10
15022.63965474516
 20
10930.01374588373
 30
0.0
 40
100.0
  1
F12            1.2
  7
STYLE1
100
AcDbText
  0
TEXT
  5
1861A
330
747D
100
AcDbEntity
  8
文字
 62
     7
 48
50.0
100
AcDbText
 10
13248.77747366448
 20
8890.013745883729
 30
0.0
 40
100.0
  1
14
  7
STYLE1
100
AcDbText
  0
TEXT
  5
1861B
330
747D
100
AcDbEntity
  8
文字
 62
     7
 48
50.0
100
AcDbText
 10
13583.11819016569
 20
10930.01374588373
 30
0.0
 40
100.0
  1
根太
  7
STYLE1
100
AcDbText
  0
TEXT
  5
1861C
330
747D
100
AcDbEntity
  8
文字
 62
     7
 48
50.0
100
AcDbText
 10
13583.1181901657
 20
10590.01374588373
 30
0.0
 40
100.0
  1
床パネル
 41
0.9
  7
STYLE1
100
AcDbText
  0
LINE
  5
1861D
330
747D
100
AcDbEntity
  8
仕様書枠
 48
50.0
100
AcDbLine
 10
16307.19999999999
 20
9029.6
 30
0.0
 11
13127.2
 21
9029.600000000003
 31
0.0
  0
LINE
  5
1861E
330
747D
100
AcDbEntity
  8
仕様書枠
 48
50.0
100
AcDbLine
 10
13127.2
 20
11409.6
 30
0.0
 11
13127.19999999999
 21
8009.600000000007
 31
0.0
  0
TEXT
  5
1861F
330
747D
100
AcDbEntity
  8
文字
 62
     7
 48
50.0
100
AcDbText
 10
13229.83081656554
 20
8040.013745883737
 30
0.0
 40
100.0
  1
Y10→溶融亜鉛-5％アルミニウム合金めっき鋼板(JIS G 3317)
 41
0.9
  7
STYLE1
100
AcDbText
  0
TEXT
  5
18620
330
747D
100
AcDbEntity
  8
文字
 62
     7
 48
50.0
100
AcDbText
 10
13229.83081656554
 20
8210.013745883737
 30
0.0
 40
100.0
  1
F12→溶融亜鉛めっき鋼板(JIS G 3302)
  7
STYLE1
100
AcDbText
  0
LINE
  5
18621
330
747D
100
AcDbEntity
  8
仕様書枠
 48
50.0
100
AcDbLine
 10
16307.19999999999
 20
8179.600000000007
 30
0.0
 11
13127.19999999999
 21
8179.600000000007
 31
0.0
  0
LINE
  5
18622
330
747D
100
AcDbEntity
  8
仕様書枠
 48
50.0
100
AcDbLine
 10
16307.19999999999
 20
8349.600000000007
 30
0.0
 11
13127.19999999999
 21
8349.600000000007
 31
0.0
  0
TEXT
  5
18623
330
747D
100
AcDbEntity
  8
文字
 62
     7
 48
50.0
100
AcDbText
 10
15022.63965474515
 20
9570.013745883729
 30
0.0
 40
100.0
  1
F12            0.6
  7
STYLE1
100
AcDbText
  0
TEXT
  5
18624
330
747D
100
AcDbEntity
  8
文字
 62
     7
 48
50.0
100
AcDbText
 10
15022.63965474517
 20
9910.01374588373
 30
0.0
 40
100.0
  1
Y10            0.5
  7
STYLE1
100
AcDbText
  0
TEXT
  5
18625
330
747D
100
AcDbEntity
  8
文字
 62
     7
 48
50.0
100
AcDbText
 10
15022.63965474516
 20
10080.01374588373
 30
0.0
 40
100.0
  1
Y10            0.7
  7
STYLE1
100
AcDbText
  0
TEXT
  5
18626
330
747D
100
AcDbEntity
  8
文字
 62
     7
 48
50.0
100
AcDbText
 10
15022.63965474516
 20
10250.01374588373
 30
0.0
 40
100.0
  1
Y10            0.7
  7
STYLE1
100
AcDbText
  0
TEXT
  5
18627
330
747D
100
AcDbEntity
  8
文字
 62
     7
 48
50.0
100
AcDbText
 10
15022.63965474516
 20
10420.01374588373
 30
0.0
 40
100.0
  1
Y10            1.0
  7
STYLE1
100
AcDbText
  0
TEXT
  5
18628
330
747D
100
AcDbEntity
  8
文字
 62
     7
 48
50.0
100
AcDbText
 10
15022.63965474518
 20
10760.01374588373
 30
0.0
 40
100.0
  1
F12            1.0
  7
STYLE1
100
AcDbText
  0
TEXT
  5
18629
330
747D
100
AcDbEntity
  8
文字
 62
     7
 48
50.0
100
AcDbText
 10
15022.63965474517
 20
11100.01374588373
 30
0.0
 40
100.0
  1
F12            1.2
  7
STYLE1
100
AcDbText
  0
TEXT
  5
1862A
330
747D
100
AcDbEntity
  8
文字
 62
     7
 48
50.0
100
AcDbText
 10
13248.77747366448
 20
9230.013745883729
 30
0.0
 40
100.0
  1
12
  7
STYLE1
100
AcDbText
  0
TEXT
  5
1862B
330
747D
100
AcDbEntity
  8
文字
 62
     7
 48
50.0
100
AcDbText
 10
13248.77747366448
 20
9060.013745883729
 30
0.0
 40
100.0
  1
13
  7
STYLE1
100
AcDbText
  0
LINE
  5
1862C
330
747D
100
AcDbEntity
  8
仕様書枠
 48
50.0
100
AcDbLine
 10
16307.19999999999
 20
8859.6
 30
0.0
 11
13127.2
 21
8859.600000000005
 31
0.0
  0
LINE
  5
1862D
330
747D
100
AcDbEntity
  8
仕様書枠
 48
50.0
100
AcDbLine
 10
16307.19999999999
 20
9199.600000000001
 30
0.0
 11
13127.2
 21
9199.600000000001
 31
0.0
  0
TEXT
  5
1862E
330
747D
100
AcDbEntity
  8
文字
 62
     7
 48
50.0
100
AcDbText
 10
13248.77747366447
 20
9400.013745883729
 30
0.0
 40
100.0
  1
11
  7
STYLE1
100
AcDbText
  0
LINE
  5
1862F
330
747D
100
AcDbEntity
  8
仕様書枠
 48
50.0
100
AcDbLine
 10
16307.2
 20
9879.600000000001
 30
0.0
 11
13127.2
 21
9879.600000000001
 31
0.0
  0
LINE
  5
18630
330
747D
100
AcDbEntity
  8
仕様書枠
 48
50.0
100
AcDbLine
 10
16307.2
 20
10219.6
 30
0.0
 11
13127.2
 21
10219.6
 31
0.0
  0
LINE
  5
18631
330
747D
100
AcDbEntity
  8
仕様書枠
 48
50.0
100
AcDbLine
 10
16307.19999999999
 20
9539.6
 30
0.0
 11
13127.2
 21
9539.6
 31
0.0
  0
LINE
  5
18632
330
747D
100
AcDbEntity
  8
仕様書枠
 48
50.0
100
AcDbLine
 10
16307.19999999999
 20
9369.600000000001
 30
0.0
 11
13127.2
 21
9369.600000000001
 31
0.0
  0
LINE
  5
18633
330
747D
100
AcDbEntity
  8
仕様書枠
 48
50.0
100
AcDbLine
 10
16307.19999999999
 20
9709.600000000001
 30
0.0
 11
13127.2
 21
9709.600000000001
 31
0.0
  0
TEXT
  5
18634
330
747D
100
AcDbEntity
  8
文字
 62
     7
 48
50.0
100
AcDbText
 10
13271.19032244792
 20
10250.01374588373
 30
0.0
 40
100.0
  1
6
  7
STYLE1
100
AcDbText
  0
TEXT
  5
18635
330
747D
100
AcDbEntity
  8
文字
 62
     7
 48
50.0
100
AcDbText
 10
13271.19032244792
 20
10080.01374588373
 30
0.0
 40
100.0
  1
7
  7
STYLE1
100
AcDbText
  0
TEXT
  5
18636
330
747D
100
AcDbEntity
  8
文字
 62
     7
 48
50.0
100
AcDbText
 10
13271.19032244792
 20
9740.013745883729
 30
0.0
 40
100.0
  1
9
  7
STYLE1
100
AcDbText
  0
TEXT
  5
18637
330
747D
100
AcDbEntity
  8
文字
 62
     7
 48
50.0
100
AcDbText
 10
13271.19032244792
 20
9910.01374588373
 30
0.0
 40
100.0
  1
8
  7
STYLE1
100
AcDbText
  0
TEXT
  5
18638
330
747D
100
AcDbEntity
  8
文字
 62
     7
 48
50.0
100
AcDbText
 10
13583.11819016569
 20
10080.01374588373
 30
0.0
 40
100.0
  1
鼻隠シ前後
  7
STYLE1
100
AcDbText
  0
TEXT
  5
18639
330
747D
100
AcDbEntity
  8
文字
 62
     7
 48
50.0
100
AcDbText
 10
13583.11819016569
 20
9910.01374588373
 30
0.0
 40
100.0
  1
屋根パネル
  7
STYLE1
100
AcDbText
  0
TEXT
  5
1863A
330
747D
100
AcDbEntity
  8
文字
 62
     7
 48
50.0
100
AcDbText
 10
13583.11819016568
 20
9570.013745883729
 30
0.0
 40
100.0
  1
壁パネル
  7
STYLE1
100
AcDbText
  0
TEXT
  5
1863B
330
747D
100
AcDbEntity
  8
文字
 62
     7
 48
50.0
100
AcDbText
 10
13248.77747366447
 20
9570.013745883729
 30
0.0
 40
100.0
  1
10
  7
STYLE1
100
AcDbText
  0
TEXT
  5
1863C
330
747D
100
AcDbEntity
  8
文字
 62
     7
 48
50.0
100
AcDbText
 10
13583.11819016569
 20
10250.01374588373
 30
0.0
 40
100.0
  1
妻板左右
  7
STYLE1
100
AcDbText
  0
TEXT
  5
1863D
330
747D
100
AcDbEntity
  8
文字
 62
     7
 48
50.0
100
AcDbText
 10
13271.19032244792
 20
10420.01374588373
 30
0.0
 40
100.0
  1
5
  7
STYLE1
100
AcDbText
  0
TEXT
  5
1863E
330
747D
100
AcDbEntity
  8
文字
 62
     7
 48
50.0
100
AcDbText
 10
13583.11819016569
 20
10420.01374588373
 30
0.0
 40
100.0
  1
桁前後
  7
STYLE1
100
AcDbText
  0
TEXT
  5
1863F
330
747D
100
AcDbEntity
  8
文字
 62
     7
 48
50.0
100
AcDbText
 10
13583.1181901657
 20
10760.01374588373
 30
0.0
 40
100.0
  1
柱
  7
STYLE1
100
AcDbText
  0
TEXT
  5
18640
330
747D
100
AcDbEntity
  8
文字
 62
     7
 48
50.0
100
AcDbText
 10
13583.11819016569
 20
11100.01374588373
 30
0.0
 40
100.0
  1
土台枠
  7
STYLE1
100
AcDbText
  0
TEXT
  5
18641
330
747D
100
AcDbEntity
  8
文字
 62
     7
 48
50.0
100
AcDbText
 10
14859.79774614482
 20
11270.01374588373
 30
0.0
 40
100.0
  1
材料（材質）　　単位mm
  7
STYLE1
100
AcDbText
  0
TEXT
  5
18642
330
747D
100
AcDbEntity
  8
文字
 62
     7
 48
50.0
100
AcDbText
 10
13732.03840939434
 20
11270.01374588373
 30
0.0
 40
100.0
  1
部　　品　　名
  7
STYLE1
100
AcDbText
  0
TEXT
  5
18643
330
747D
100
AcDbEntity
  8
文字
 62
     7
 48
50.0
100
AcDbText
 10
13271.19032244792
 20
10760.01374588373
 30
0.0
 40
100.0
  1
3
  7
STYLE1
100
AcDbText
  0
TEXT
  5
18644
330
747D
100
AcDbEntity
  8
文字
 62
     7
 48
50.0
100
AcDbText
 10
13271.19032244792
 20
10590.01374588373
 30
0.0
 40
100.0
  1
4
  7
STYLE1
100
AcDbText
  0
TEXT
  5
18645
330
747D
100
AcDbEntity
  8
文字
 62
     7
 48
50.0
100
AcDbText
 10
13271.19032244792
 20
10930.01374588373
 30
0.0
 40
100.0
  1
2
  7
STYLE1
100
AcDbText
  0
TEXT
  5
18646
330
747D
100
AcDbEntity
  8
文字
 62
     7
 48
50.0
100
AcDbText
 10
13271.19032244792
 20
11100.01374588373
 30
0.0
 40
100.0
  1
1
  7
STYLE1
100
AcDbText
  0
TEXT
  5
18647
330
747D
100
AcDbEntity
  8
文字
 62
     7
 48
50.0
100
AcDbText
 10
13197.42518560407
 20
11270.01374588373
 30
0.0
 40
100.0
  1
品番
  7
STYLE1
100
AcDbText
  0
LINE
  5
18648
330
747D
100
AcDbEntity
  8
仕様書枠
 48
50.0
100
AcDbLine
 10
16307.19999999999
 20
10729.6
 30
0.0
 11
13127.2
 21
10729.6
 31
0.0
  0
LINE
  5
18649
330
747D
100
AcDbEntity
  8
仕様書枠
 48
50.0
100
AcDbLine
 10
16307.19999999999
 20
10389.6
 30
0.0
 11
13127.2
 21
10389.6
 31
0.0
  0
LINE
  5
1864A
330
747D
100
AcDbEntity
  8
仕様書枠
 48
50.0
100
AcDbLine
 10
16307.19999999999
 20
10559.6
 30
0.0
 11
13127.2
 21
10559.6
 31
0.0
  0
LINE
  5
1864B
330
747D
100
AcDbEntity
  8
仕様書枠
 48
50.0
100
AcDbLine
 10
16307.2
 20
11069.6
 30
0.0
 11
13127.2
 21
11069.6
 31
0.0
  0
LINE
  5
1864C
330
747D
100
AcDbEntity
  8
仕様書枠
 48
50.0
100
AcDbLine
 10
16307.2
 20
10899.6
 30
0.0
 11
13127.2
 21
10899.6
 31
0.0
  0
LINE
  5
1864D
330
747D
100
AcDbEntity
  8
仕様書枠
 48
50.0
100
AcDbLine
 10
16307.2
 20
11239.6
 30
0.0
 11
13127.2
 21
11239.6
 31
0.0
  0
LINE
  5
1864E
330
747D
100
AcDbEntity
  8
仕様書枠
 48
50.0
100
AcDbLine
 10
13490.2
 20
11409.6
 30
0.0
 11
13490.20000000001
 21
8349.600000000007
 31
0.0
  0
LINE
  5
1864F
330
747D
100
AcDbEntity
  8
仕様書枠
 48
50.0
100
AcDbLine
 10
14785.2
 20
11409.6
 30
0.0
 11
14785.2
 21
8349.600000000007
 31
0.0
  0
LINE
  5
18650
330
747D
100
AcDbEntity
  8
仕様書枠
 48
50.0
100
AcDbLine
 10
16307.19999999999
 20
8009.600000000007
 30
0.0
 11
16307.2
 21
11409.6
 31
0.0
  0
LINE
  5
18651
330
747D
100
AcDbEntity
  8
仕様書枠
 48
50.0
100
AcDbLine
 10
16307.2
 20
11409.6
 30
0.0
 11
13127.2
 21
11409.6
 31
0.0
  0
LINE
  5
18652
330
747D
100
AcDbEntity
  8
仕様書枠
 48
50.0
100
AcDbLine
 10
16307.2
 20
10049.6
 30
0.0
 11
13127.2
 21
10049.6
 31
0.0
  0
TEXT
  5
18653
330
747D
100
AcDbEntity
  8
文字
 62
     7
 48
50.0
100
AcDbText
 10
15022.63965474515
 20
8380.013745883726
 30
0.0
 40
100.0
  1
F12            2.3
  7
STYLE1
100
AcDbText
  0
TEXT
  5
18654
330
747D
100
AcDbEntity
  8
文字
 62
     7
 48
50.0
100
AcDbText
 10
13583.11819016569
 20
8380.013745883728
 30
0.0
 40
100.0
  1
アンカープレート
  7
STYLE1
100
AcDbText
  0
LINE
  5
18655
330
747D
100
AcDbEntity
  8
仕様書枠
 48
50.0
100
AcDbLine
 10
16307.19999999999
 20
8519.600000000009
 30
0.0
 11
13127.2
 21
8519.600000000009
 31
0.0
  0
LINE
  5
18656
330
747D
100
AcDbEntity
  8
仕様書枠
 48
50.0
100
AcDbLine
 10
16307.19999999999
 20
8689.600000000007
 30
0.0
 11
13127.2
 21
8689.600000000007
 31
0.0
  0
TEXT
  5
18657
330
747D
100
AcDbEntity
  8
文字
 62
     7
 48
50.0
100
AcDbText
 10
13583.11819016569
 20
9400.013745883729
 30
0.0
 40
100.0
  1
壁面扉鴨居
  7
STYLE1
100
AcDbText
  0
TEXT
  5
18658
330
747D
100
AcDbEntity
  8
文字
 62
     7
 48
50.0
100
AcDbText
 10
13583.11819016569
 20
9230.013745883736
 30
0.0
 40
100.0
  1
壁面扉敷居
  7
STYLE1
100
AcDbText
  0
TEXT
  5
18659
330
747D
100
AcDbEntity
  8
文字
 62
     7
 48
50.0
100
AcDbText
 10
15022.63965474515
 20
9400.013745883729
 30
0.0
 40
100.0
  1
F12            0.7
  7
STYLE1
100
AcDbText
  0
TEXT
  5
1865A
330
747D
100
AcDbEntity
  8
文字
 62
     7
 48
50.0
100
AcDbText
 10
15022.63965474517
 20
9230.013745883729
 30
0.0
 40
100.0
  1
F12            1.0
  7
STYLE1
100
AcDbText
  0
TEXT
  5
1865B
330
747D
100
AcDbEntity
  8
文字
 62
     7
 48
50.0
100
AcDbText
 10
13583.11819016569
 20
9060.013745883736
 30
0.0
 40
100.0
  1
壁面扉枠左右
  7
STYLE1
100
AcDbText
  0
TEXT
  5
1865C
330
747D
100
AcDbEntity
  8
文字
 62
     7
 48
50.0
100
AcDbText
 10
15022.63965474517
 20
9060.013745883729
 30
0.0
 40
100.0
  1
F12            1.0
  7
STYLE1
100
AcDbText
  0
TEXT
  5
1865D
330
747D
100
AcDbEntity
  8
文字
 62
     7
 48
50.0
100
AcDbText
 10
13248.77747366447
 20
8550.013745883729
 30
0.0
 40
100.0
  1
16
  7
STYLE1
100
AcDbText
  0
TEXT
  5
1865E
330
747D
100
AcDbEntity
  8
文字
 62
     7
 48
50.0
100
AcDbText
 10
13248.77747366447
 20
8380.013745883728
 30
0.0
 40
100.0
  1
17
  7
STYLE1
100
AcDbText
  0
TEXT
  5
186A8
330
747D
100
AcDbEntity
  8
文字
 62
     7
 48
50.0
100
AcDbText
 10
13209.4053442172
 20
228.5435242569015
 30
0.0
 40
100.0
  1
○有効開口寸法 ： 1266×1725(mm)
  7
STYLE2
100
AcDbText
  0
LINE
  5
186A9
330
747D
100
AcDbEntity
  8
Ｇ．Ｌ
100
AcDbLine
 10
3301.060965894343
 20
2626.219157816541
 30
0.0
 11
11177.29209217041
 21
2626.219157816541
 31
0.0
  0
LINE
  5
186AA
330
747D
100
AcDbEntity
  8
部品1
100
AcDbLine
 10
8317.779539141572
 20
2726.219157816541
 30
0.0
 11
10527.77953914157
 21
2726.219157816541
 31
0.0
  0
LINE
  5
186AB
330
747D
100
AcDbEntity
  8
部品1
100
AcDbLine
 10
8317.779539141572
 20
4566.21915781654
 30
0.0
 11
10527.77953914157
 21
4566.21915781654
 31
0.0
  0
LINE
  5
186AC
330
747D
100
AcDbEntity
  8
部品1
100
AcDbLine
 10
8317.779539141572
 20
4658.245454861126
 30
0.0
 11
8317.779539141572
 21
2626.219157816541
 31
0.0
  0
LINE
  5
186AD
330
747D
100
AcDbEntity
  8
部品1
100
AcDbLine
 10
10527.77953914157
 20
4620.895595447761
 30
0.0
 11
10527.77953914157
 21
2626.219157816541
 31
0.0
  0
LINE
  5
186AE
330
747D
100
AcDbEntity
  8
部品1
100
AcDbLine
 10
10127.77953914157
 20
2726.219157816541
 30
0.0
 11
10127.77953914157
 21
2626.219157816541
 31
0.0
  0
LINE
  5
186AF
330
747D
100
AcDbEntity
  8
部品1
100
AcDbLine
 10
8717.779539141572
 20
2726.219157816541
 30
0.0
 11
8717.779539141572
 21
2626.219157816541
 31
0.0
  0
LINE
  5
186B0
330
747D
100
AcDbEntity
  8
部品1
100
AcDbLine
 10
10532.77953914157
 20
2771.219157816541
 30
0.0
 11
10532.77953914157
 21
2626.219157816541
 31
0.0
  0
LINE
  5
186B1
330
747D
100
AcDbEntity
  8
破線
 48
5.0
100
AcDbLine
 10
10627.77953914157
 20
2426.219157816539
 30
0.0
 11
10427.77953914157
 21
2426.219157816539
 31
0.0
  0
LINE
  5
186B2
330
747D
100
AcDbEntity
  8
破線
 48
5.0
100
AcDbLine
 10
10427.77953914157
 20
2626.219157816541
 30
0.0
 11
10427.77953914157
 21
2426.219157816539
 31
0.0
  0
LINE
  5
186B3
330
747D
100
AcDbEntity
  8
破線
 48
5.0
100
AcDbLine
 10
10627.77953914157
 20
2626.219157816541
 30
0.0
 11
10627.77953914157
 21
2426.219157816539
 31
0.0
  0
LINE
  5
186B4
330
747D
100
AcDbEntity
  8
破線
 48
5.0
100
AcDbLine
 10
10552.77953914157
 20
2471.21915781654
 30
0.0
 11
10532.77953914157
 21
2471.21915781654
 31
0.0
  0
LINE
  5
186B5
330
747D
100
AcDbEntity
  8
部品1
100
AcDbLine
 10
8312.779539141571
 20
2771.219157816542
 30
0.0
 11
8312.779539141571
 21
2626.219157816541
 31
0.0
  0
LINE
  5
186B6
330
747D
100
AcDbEntity
  8
破線
 48
5.0
100
AcDbLine
 10
8217.779539141572
 20
2426.21915781654
 30
0.0
 11
8417.779539141573
 21
2426.21915781654
 31
0.0
  0
LINE
  5
186B7
330
747D
100
AcDbEntity
  8
破線
 48
5.0
100
AcDbLine
 10
8217.779539141572
 20
2626.219157816541
 30
0.0
 11
8217.779539141572
 21
2426.21915781654
 31
0.0
  0
LINE
  5
186B8
330
747D
100
AcDbEntity
  8
破線
 48
5.0
100
AcDbLine
 10
8292.779539141571
 20
2471.219157816542
 30
0.0
 11
8312.779539141573
 21
2471.219157816542
 31
0.0
  0
LINE
  5
186B9
330
747D
100
AcDbEntity
  8
破線
 48
5.0
100
AcDbLine
 10
8417.779539141571
 20
2626.219157816541
 30
0.0
 11
8417.779539141571
 21
2426.21915781654
 31
0.0
  0
LINE
  5
186BA
330
747D
100
AcDbEntity
  8
破線
 48
5.0
100
AcDbLine
 10
10532.77953914157
 20
2626.219157816541
 30
0.0
 11
10532.77953914157
 21
2471.21915781654
 31
0.0
  0
LINE
  5
186BB
330
747D
100
AcDbEntity
  8
破線
 48
5.0
100
AcDbLine
 10
8312.779539141571
 20
2626.219157816541
 30
0.0
 11
8312.779539141571
 21
2471.219157816542
 31
0.0
  0
DIMENSION
  5
186BC
330
747D
100
AcDbEntity
  8
寸法
 48
50.0
100
AcDbDimension
  2
*D12
 10
8217.779539141572
 20
2140.171828516163
 30
0.0
 11
8317.779539141572
 21
2140.171828516163
 31
0.0
 70
   160
 71
     5
 42
200.0000000000018
  3
INABA_S40G
100
AcDbAlignedDimension
 13
8417.779539141573
 23
2426.21915781654
 33
0.0
 14
8217.779539141572
 24
2426.21915781654
 34
0.0
100
AcDbRotatedDimension
  0
TEXT
  5
186BD
330
747D
100
AcDbEntity
  8
部品1
100
AcDbText
 10
9131.569609765303
 20
1554.010085623057
 30
0.0
 40
135.0
  1
正面図
  7
STYLE2
100
AcDbText
  0
LINE
  5
186BE
330
747D
100
AcDbEntity
  8
部品1
100
AcDbLine
 10
8317.779539141572
 20
2776.219157816544
 30
0.0
 11
8345.779539141572
 21
2776.219157816544
 31
0.0
  0
DIMENSION
  5
186BF
330
747D
100
AcDbEntity
  8
寸法
100
AcDbDimension
  2
*D13
 10
11449.18722661647
 20
7842.02469190475
 30
0.0
 11
11449.18722661647
 21
8708.886027628432
 31
0.0
 70
   160
 71
     5
 42
1790.000000000006
  3
INABA_S40G
100
AcDbAlignedDimension
 13
10527.77953914158
 23
9632.024691904758
 33
0.0
 14
10527.77953914155
 24
7842.02469190475
 34
0.0
 50
90.0
100
AcDbRotatedDimension
1001
ACAD
1000
DSTYLE
1002
{
1002
}
  0
DIMENSION
  5
186C0
330
747D
100
AcDbEntity
  8
寸法
100
AcDbDimension
  2
*D14
 10
10472.77953914158
 20
9935.070286480357
 30
0.0
 11
9422.779539141577
 21
9935.070286480357
 31
0.0
 70
   160
  1
5X420=<>
 71
     5
 42
2100.0
  3
INABA_S40G
100
AcDbAlignedDimension
 13
8372.779539141578
 23
9632.024691904662
 33
0.0
 14
10472.77953914158
 24
9632.024691904758
 34
0.0
100
AcDbRotatedDimension
1001
ACAD
1000
DSTYLE
1002
{
1002
}
  0
DIMENSION
  5
186C1
330
747D
100
AcDbEntity
  8
寸法
100
AcDbDimension
  2
*D15
 10
10527.77953914158
 20
9935.070286480339
 30
0.0
 11
10836.26482051581
 21
9935.070286480339
 31
0.0
 70
   160
 71
     5
 42
55.0
  3
INABA_S40G
100
AcDbAlignedDimension
 13
10472.77953914158
 23
9632.024691904758
 33
0.0
 14
10527.77953914158
 24
9632.024691904758
 34
0.0
100
AcDbRotatedDimension
1001
ACAD
1000
DSTYLE
1002
{
1002
}
  0
DIMENSION
  5
186C2
330
747D
100
AcDbEntity
  8
寸法
100
AcDbDimension
  2
*D16
 10
11175.20588487599
 20
9577.02469190476
 30
0.0
 11
11175.20588487599
 21
9940.509973278997
 31
0.0
 70
   160
 71
     5
 42
54.99999999999636
  3
INABA_S40G
100
AcDbAlignedDimension
 13
10527.77953914158
 23
9632.024691904758
 33
0.0
 14
10527.77953914158
 24
9577.02469190476
 34
0.0
 50
90.0
100
AcDbRotatedDimension
1001
ACAD
1000
DSTYLE
1002
{
1002
}
  0
DIMENSION
  5
186C3
330
747D
100
AcDbEntity
  8
寸法
100
AcDbDimension
  2
*D17
 10
8372.779539141578
 20
9935.070286480241
 30
0.0
 11
8009.294257767304
 21
9935.070286480241
 31
0.0
 70
   160
 71
     5
 42
55.00000000003637
  3
INABA_S40G
100
AcDbAlignedDimension
 13
8317.779539141541
 23
9632.024691904662
 33
0.0
 14
8372.779539141578
 24
9632.024691904662
 34
0.0
100
AcDbRotatedDimension
1001
ACAD
1000
DSTYLE
1002
{
1002
}
  0
LINE
  5
186C4
330
747D
100
AcDbEntity
  8
部品1
100
AcDbLine
 10
10471.27953914154
 20
7898.524691904679
 30
0.0
 11
8374.279539141454
 21
7898.524691904582
 31
0.0
  0
LINE
  5
186C5
330
747D
100
AcDbEntity
  8
破線
 48
10.0
100
AcDbLine
 10
9743.279539141596
 20
7922.024691904645
 30
0.0
 11
9102.279539141592
 21
7922.024691904614
 31
0.0
  0
DIMENSION
  5
186C6
330
747D
100
AcDbEntity
  8
寸法
100
AcDbDimension
  2
*D18
 10
9540.710765585188
 20
8858.802037103792
 30
0.0
 11
8881.856315717959
 21
8858.802037103792
 31
0.0
 70
   160
 71
     5
 42
1273.000000000011
  3
INABA_S40G
100
AcDbAlignedDimension
 13
8346.279539141578
 23
9152.024691904662
 33
0.0
 14
9619.27953914159
 24
9152.024691904655
 34
0.0
100
AcDbRotatedDimension
1001
ACAD
1000
DSTYLE
1002
{
1002
}
  0
LINE
  5
186C7
330
747D
100
AcDbEntity
  8
細線
 48
50.0
100
AcDbLine
 10
9619.279539141578
 20
9152.024691904768
 30
0.0
 11
8346.279539141576
 21
9602.024691904663
 31
0.0
  0
LINE
  5
186C8
330
747D
100
AcDbEntity
  8
部品1
100
AcDbLine
 10
8346.279539141576
 20
9602.024691904663
 30
0.0
 11
9619.279539141579
 21
9602.024691904768
 31
0.0
  0
LINE
  5
186C9
330
747D
100
AcDbEntity
  8
細線
 48
50.0
100
AcDbLine
 10
9619.279539141579
 20
9602.024691904764
 30
0.0
 11
8346.279539141578
 21
9152.024691904662
 31
0.0
  0
LINE
  5
186CA
330
747D
100
AcDbEntity
  8
部品1
100
AcDbLine
 10
8346.279539141578
 20
9152.024691904662
 30
0.0
 11
9619.279539141578
 21
9152.024691904768
 31
0.0
  0
LINE
  5
186CB
330
747D
100
AcDbEntity
  8
部品1
100
AcDbLine
 10
8317.779539141579
 20
9632.024691904662
 30
0.0
 11
10527.77953914158
 21
9632.024691904758
 31
0.0
  0
LINE
  5
186CC
330
747D
100
AcDbEntity
  8
部品1
100
AcDbLine
 10
8345.779539141579
 20
9604.024691904662
 30
0.0
 11
9620.279539141575
 21
9604.024691904779
 31
0.0
  0
LINE
  5
186CE
330
747D
100
AcDbEntity
  8
破線
 48
10.0
100
AcDbLine
 10
8397.779539141552
 20
9152.024691904761
 30
0.0
 11
8397.779539141568
 21
7922.024691904582
 31
0.0
  0
LINE
  5
186CF
330
747D
100
AcDbEntity
  8
部品1
100
AcDbLine
 10
8374.279539141555
 20
9152.024691904761
 30
0.0
 11
8374.279539141571
 21
7898.524691904698
 31
0.0
  0
LINE
  5
186D0
330
747D
100
AcDbEntity
  8
部品1
100
AcDbLine
 10
8345.779539141553
 20
7870.024691904681
 30
0.0
 11
8345.779539141579
 21
9604.024691904662
 31
0.0
  0
LINE
  5
186D1
330
747D
100
AcDbEntity
  8
部品1
100
AcDbLine
 10
8317.779539141541
 20
9632.02469190463
 30
0.0
 11
8317.779539141572
 21
7842.024691904619
 31
0.0
  0
LINE
  5
186D2
330
747D
100
AcDbEntity
  8
部品1
 48
50.0
100
AcDbLine
 10
8374.279539141552
 20
7898.524691904679
 30
0.0
 11
8345.779539141553
 21
7870.024691904681
 31
0.0
  0
LINE
  5
186D3
330
747D
100
AcDbEntity
  8
部品1
 48
50.0
100
AcDbLine
 10
8346.279539141576
 20
9602.024691904659
 30
0.0
 11
8346.279539141578
 21
9152.024691904658
 31
0.0
  0
LINE
  5
186D4
330
747D
100
AcDbEntity
  8
部品1
100
AcDbLine
 10
8345.779539141553
 20
9157.024691904632
 30
0.0
 11
8317.779539141552
 21
9157.024691904632
 31
0.0
  0
LINE
  5
186D5
330
747D
100
AcDbEntity
  8
部品1
100
AcDbLine
 10
8345.779539141545
 20
9577.024691904632
 30
0.0
 11
8317.779539141545
 21
9577.024691904632
 31
0.0
  0
LINE
  5
186D6
330
747D
100
AcDbEntity
  8
部品1
100
AcDbLine
 10
8372.779539141578
 20
9632.024691904662
 30
0.0
 11
8372.779539141578
 21
9604.024691904662
 31
0.0
  0
LINE
  5
186D7
330
747D
100
AcDbEntity
  8
部品1
100
AcDbLine
 10
8372.779539141543
 20
9632.02469190463
 30
0.0
 11
8372.779539141545
 21
9604.02469190463
 31
0.0
  0
DIMENSION
  5
186D8
330
747D
100
AcDbEntity
  8
寸法
100
AcDbDimension
  2
*D19
 10
11175.20588487596
 20
7842.02469190475
 30
0.0
 11
11175.20588487596
 21
7464.163224999888
 31
0.0
 70
   160
 71
     5
 42
54.99999999999636
  3
INABA_S40G
100
AcDbAlignedDimension
 13
10527.77953914155
 23
7897.024691904745
 33
0.0
 14
10527.77953914155
 24
7842.02469190475
 34
0.0
 50
90.0
100
AcDbRotatedDimension
1001
ACAD
1000
DSTYLE
1002
{
1002
}
  0
LINE
  5
186DA
330
747D
100
AcDbEntity
  8
破線
 48
10.0
100
AcDbLine
 10
10447.77953914154
 20
7922.024691904677
 30
0.0
 11
9793.279539141597
 21
7922.02469190465
 31
0.0
  0
DIMENSION
  5
186DB
330
747D
100
AcDbEntity
  8
寸法
100
AcDbDimension
  2
*D20
 10
10420.71076558516
 20
8858.802037103792
 30
0.0
 11
10025.62660125984
 21
8858.802037103792
 31
0.0
 70
   160
 71
     5
 42
853.0000000000109
  3
INABA_S40G
100
AcDbAlignedDimension
 13
9646.279539141579
 23
9152.024691904768
 33
0.0
 14
10499.27953914159
 24
9152.024691904761
 34
0.0
100
AcDbRotatedDimension
1001
ACAD
1000
DSTYLE
1002
{
1002
}
  0
LINE
  5
186DC
330
747D
100
AcDbEntity
  8
細線
 48
50.0
100
AcDbLine
 10
10499.27953914158
 20
9602.024691904757
 30
0.0
 11
9646.279539141577
 21
9152.024691904768
 31
0.0
  0
LINE
  5
186DD
330
747D
100
AcDbEntity
  8
部品1
100
AcDbLine
 10
9646.279539141579
 20
9602.024691904764
 30
0.0
 11
10499.27953914158
 21
9602.024691904757
 31
0.0
  0
LINE
  5
186DE
330
747D
100
AcDbEntity
  8
部品1
100
AcDbLine
 10
9646.279539141577
 20
9152.024691904768
 30
0.0
 11
10499.27953914158
 21
9152.024691904761
 31
0.0
  0
LINE
  5
186DF
330
747D
100
AcDbEntity
  8
細線
 48
50.0
100
AcDbLine
 10
10499.27953914158
 20
9152.024691904761
 30
0.0
 11
9646.279539141579
 21
9602.024691904761
 31
0.0
  0
LINE
  5
186E0
330
747D
100
AcDbEntity
  8
部品1
100
AcDbLine
 10
9645.279539141579
 20
9604.024691904776
 30
0.0
 11
10499.77953914158
 21
9604.024691904758
 31
0.0
  0
LINE
  5
186E1
330
747D
100
AcDbEntity
  8
部品1
100
AcDbLine
 10
8792.779539141578
 20
9632.024691904662
 30
0.0
 11
8792.779539141578
 21
9604.024691904662
 31
0.0
  0
LINE
  5
186E2
330
747D
100
AcDbEntity
  8
部品1
100
AcDbLine
 10
8792.779539141578
 20
9632.024691904662
 30
0.0
 11
8792.779539141578
 21
9604.024691904662
 31
0.0
  0
LINE
  5
186E3
330
747D
100
AcDbEntity
  8
部品1
100
AcDbLine
 10
8792.779539141578
 20
9632.02469190478
 30
0.0
 11
8792.779539141578
 21
9604.024691904779
 31
0.0
  0
LINE
  5
186E4
330
747D
100
AcDbEntity
  8
部品1
 48
50.0
100
AcDbLine
 10
9619.279539141579
 20
9602.024691904764
 30
0.0
 11
9619.279539141579
 21
9152.024691904768
 31
0.0
  0
LINE
  5
186E5
330
747D
100
AcDbEntity
  8
部品1
 48
50.0
100
AcDbLine
 10
9646.279539141579
 20
9602.024691904761
 30
0.0
 11
9646.279539141579
 21
9152.024691904768
 31
0.0
  0
LINE
  5
186E6
330
747D
100
AcDbEntity
  8
部品1
 48
50.0
100
AcDbLine
 10
9620.279539141577
 20
9604.024691904772
 30
0.0
 11
9620.279539141579
 21
9152.024691904768
 31
0.0
  0
LINE
  5
186E7
330
747D
100
AcDbEntity
  8
部品1
 48
50.0
100
AcDbLine
 10
9645.279539141579
 20
9604.024691904768
 30
0.0
 11
9645.279539141579
 21
9152.024691904768
 31
0.0
  0
LINE
  5
186E8
330
747D
100
AcDbEntity
  8
部品1
100
AcDbLine
 10
9620.279539141579
 20
9152.024691904768
 30
0.0
 11
9645.279539141579
 21
9152.024691904768
 31
0.0
  0
LINE
  5
186E9
330
747D
100
AcDbEntity
  8
部品1
100
AcDbLine
 10
9597.779539141578
 20
9622.024691904764
 30
0.0
 11
9597.779539141578
 21
9604.024691904765
 31
0.0
  0
LINE
  5
186EA
330
747D
100
AcDbEntity
  8
部品1
100
AcDbLine
 10
9597.779539141578
 20
9622.024691904764
 30
0.0
 11
9603.779539141578
 21
9622.024691904764
 31
0.0
  0
LINE
  5
186EB
330
747D
100
AcDbEntity
  8
部品1
100
AcDbLine
 10
9667.779539141578
 20
9622.024691904764
 30
0.0
 11
9667.779539141578
 21
9604.024691904765
 31
0.0
  0
LINE
  5
186EC
330
747D
100
AcDbEntity
  8
部品1
100
AcDbLine
 10
9661.779539141578
 20
9622.024691904764
 30
0.0
 11
9667.779539141578
 21
9622.024691904764
 31
0.0
  0
LINE
  5
186ED
330
747D
100
AcDbEntity
  8
部品1
100
AcDbLine
 10
9620.279539141579
 20
9596.02469190476
 30
0.0
 11
9645.279539141579
 21
9596.024691904764
 31
0.0
  0
LINE
  5
186EE
330
747D
100
AcDbEntity
  8
部品1
100
AcDbLine
 10
9632.77953914158
 20
9632.02469190478
 30
0.0
 11
9632.77953914158
 21
9604.024691904779
 31
0.0
  0
LINE
  5
186EF
330
747D
100
AcDbEntity
  8
部品1
100
AcDbLine
 10
10052.77953914158
 20
9632.02469190478
 30
0.0
 11
10052.77953914158
 21
9604.024691904779
 31
0.0
  0
LINE
  5
186F0
330
747D
100
AcDbEntity
  8
破線
 48
10.0
100
AcDbLine
 10
10447.77953914157
 20
9152.024691904761
 30
0.0
 11
10447.77953914155
 21
7922.024691904677
 31
0.0
  0
LINE
  5
186F1
330
747D
100
AcDbEntity
  8
部品1
100
AcDbLine
 10
10471.27953914157
 20
9152.024691904761
 30
0.0
 11
10471.27953914155
 21
7898.524691904667
 31
0.0
  0
DIMENSION
  5
186F2
330
747D
100
AcDbEntity
  8
寸法
100
AcDbDimension
  2
*D21
 10
10854.6372650036
 20
9056.806876235871
 30
0.0
 11
10754.6372650036
 21
9281.80687623587
 31
0.0
 70
    32
 71
     5
 42
449.9999999999963
  3
INABA_S40G
100
AcDbAlignedDimension
 13
10499.27953914158
 23
9602.024691904757
 33
0.0
 14
10499.27953914158
 24
9152.024691904761
 34
0.0
 50
90.0
100
AcDbRotatedDimension
1001
ACAD
1000
DSTYLE
1002
{
1002
}
  0
LINE
  5
186F3
330
747D
100
AcDbEntity
  8
部品1
100
AcDbLine
 10
10499.77953914158
 20
9604.024691904758
 30
0.0
 11
10499.77953914155
 21
7870.024691904713
 31
0.0
  0
DIMENSION
  5
186F4
330
747D
100
AcDbEntity
  8
寸法
100
AcDbDimension
  2
*D22
 10
11175.20588487599
 20
7897.024691904745
 30
0.0
 11
11175.20588487599
 21
8737.024691904753
 31
0.0
 70
   160
  1
4X420=<>
 71
     5
 42
1680.000000000013
  3
INABA_S40G
100
AcDbAlignedDimension
 13
10527.77953914158
 23
9577.02469190476
 33
0.0
 14
10527.77953914155
 24
7897.024691904745
 34
0.0
 50
90.0
100
AcDbRotatedDimension
1001
ACAD
1000
DSTYLE
1002
{
1002
}
  0
LINE
  5
186F5
330
747D
100
AcDbEntity
  8
部品1
100
AcDbLine
 10
10527.77953914158
 20
9632.024691904758
 30
0.0
 11
10527.77953914155
 21
7842.02469190475
 31
0.0
  0
LINE
  5
186F6
330
747D
100
AcDbEntity
  8
部品1
 48
50.0
100
AcDbLine
 10
10471.27953914154
 20
7898.524691904679
 30
0.0
 11
10499.77953914154
 21
7870.024691904681
 31
0.0
  0
LINE
  5
186F7
330
747D
100
AcDbEntity
  8
部品1
100
AcDbLine
 10
10499.27953914158
 20
9602.024691904757
 30
0.0
 11
10499.27953914158
 21
9152.024691904761
 31
0.0
  0
LINE
  5
186F8
330
747D
100
AcDbEntity
  8
部品1
100
AcDbLine
 10
10499.77953914158
 20
9157.02469190476
 30
0.0
 11
10527.77953914158
 21
9157.02469190476
 31
0.0
  0
LINE
  5
186F9
330
747D
100
AcDbEntity
  8
部品1
100
AcDbLine
 10
10499.77953914158
 20
9577.02469190476
 30
0.0
 11
10527.77953914158
 21
9577.02469190476
 31
0.0
  0
LINE
  5
186FA
330
747D
100
AcDbEntity
  8
部品1
100
AcDbLine
 10
10472.77953914158
 20
9632.02469190478
 30
0.0
 11
10472.77953914158
 21
9604.024691904779
 31
0.0
  0
LINE
  5
186FB
330
747D
100
AcDbEntity
  8
部品1
100
AcDbLine
 10
10472.77953914158
 20
9632.024691904758
 30
0.0
 11
10472.77953914158
 21
9604.024691904758
 31
0.0
  0
LINE
  5
186FC
330
747D
100
AcDbEntity
  8
部品1
100
AcDbLine
 10
9212.779539141578
 20
9632.024691904662
 30
0.0
 11
9212.779539141578
 21
9604.024691904662
 31
0.0
  0
LINE
  5
186FD
330
747D
100
AcDbEntity
  8
部品1
100
AcDbLine
 10
9212.779539141578
 20
9632.024691904662
 30
0.0
 11
9212.779539141578
 21
9604.024691904662
 31
0.0
  0
LINE
  5
186FE
330
747D
100
AcDbEntity
  8
部品1
100
AcDbLine
 10
9212.779539141578
 20
9632.02469190478
 30
0.0
 11
9212.779539141578
 21
9604.024691904779
 31
0.0
  0
LINE
  5
186FF
330
747D
100
AcDbEntity
  8
部品1
 48
50.0
100
AcDbLine
 10
10471.27953914156
 20
8737.02469190476
 30
0.0
 11
8374.279539141562
 21
8737.024691904847
 31
0.0
  0
LINE
  5
18700
330
747D
100
AcDbEntity
  8
部品1
100
AcDbLine
 10
8345.779539141558
 20
8737.024691904634
 30
0.0
 11
8317.779539141557
 21
8737.024691904634
 31
0.0
  0
LINE
  5
18701
330
747D
100
AcDbEntity
  8
部品1
100
AcDbLine
 10
10499.77953914158
 20
8737.02469190476
 30
0.0
 11
10527.77953914158
 21
8737.02469190476
 31
0.0
  0
LINE
  5
18702
330
747D
100
AcDbEntity
  8
部品1
100
AcDbLine
 10
10499.77953914158
 20
7897.024691904761
 30
0.0
 11
10527.77953914158
 21
7897.024691904761
 31
0.0
  0
LINE
  5
18703
330
747D
100
AcDbEntity
  8
部品1
100
AcDbLine
 10
8345.779539141558
 20
7897.024691904633
 30
0.0
 11
8317.779539141557
 21
7897.024691904633
 31
0.0
  0
LINE
  5
18704
330
747D
100
AcDbEntity
  8
部品1
100
AcDbLine
 10
8372.779539141516
 20
7870.024691904564
 30
0.0
 11
8372.77953914152
 21
7842.024691904564
 31
0.0
  0
LINE
  5
18705
330
747D
100
AcDbEntity
  8
部品1
100
AcDbLine
 10
8372.779539141552
 20
7870.024691904596
 30
0.0
 11
8372.779539141552
 21
7842.024691904597
 31
0.0
  0
LINE
  5
18706
330
747D
100
AcDbEntity
  8
部品1
100
AcDbLine
 10
10472.77953914155
 20
7870.024691904692
 30
0.0
 11
10472.77953914155
 21
7842.024691904692
 31
0.0
  0
LINE
  5
18707
330
747D
100
AcDbEntity
  8
部品1
100
AcDbLine
 10
10472.77953914155
 20
7870.024691904713
 30
0.0
 11
10472.77953914155
 21
7842.024691904713
 31
0.0
  0
LINE
  5
18708
330
747D
100
AcDbEntity
  8
部品1
 48
50.0
100
AcDbLine
 10
8317.779539141572
 20
7842.024691904587
 30
0.0
 11
8372.779539141552
 21
7842.024691904589
 31
0.0
  0
LINE
  5
18709
330
747D
100
AcDbEntity
  8
部品1
 48
50.0
100
AcDbLine
 10
10499.77953914155
 20
7870.024691904713
 30
0.0
 11
8345.779539141553
 21
7870.024691904681
 31
0.0
  0
LINE
  5
1870A
330
747D
100
AcDbEntity
  8
部品1
 48
50.0
100
AcDbLine
 10
10472.77953914155
 20
7842.024691904744
 30
0.0
 11
10527.77953914155
 21
7842.02469190475
 31
0.0
  0
DIMENSION
  5
1870B
330
747D
100
AcDbEntity
  8
寸法
 48
50.0
100
AcDbDimension
  2
*D23
 10
8024.554732670557
 20
2784.21915781654
 30
0.0
 11
8024.554732670557
 21
3686.147778025501
 31
0.0
 70
   160
  1
有効開口部高サ<>
 71
     5
 42
1725.000000000001
  3
INABA_S40G
100
AcDbAlignedDimension
 13
8345.779539141572
 23
4509.219157816541
 33
0.0
 14
8345.779539141572
 24
2784.21915781654
 34
0.0
 50
90.0
100
AcDbRotatedDimension
  0
LINE
  5
1870C
330
747D
100
AcDbEntity
  8
部品1
 48
50.0
100
AcDbLine
 10
8372.779539141571
 20
4561.21915781654
 30
0.0
 11
8372.779539141571
 21
4566.21915781654
 31
0.0
  0
LINE
  5
1870D
330
747D
100
AcDbEntity
  8
部品1
 48
50.0
100
AcDbLine
 10
10472.77953914157
 20
4561.21915781654
 30
0.0
 11
10472.77953914157
 21
4566.21915781654
 31
0.0
  0
LINE
  5
1870E
330
747D
100
AcDbEntity
  8
部品1
100
AcDbLine
 10
10499.77953914157
 20
2776.21915781656
 30
0.0
 11
10527.77953914157
 21
2776.21915781656
 31
0.0
  0
LINE
  5
18713
330
747D
100
AcDbEntity
  8
部品1
100
AcDbLine
 10
9041.044206027349
 20
1746.903614841581
 30
0.0
 11
9041.044206027349
 21
1507.011293296048
 31
0.0
  0
LINE
  5
18714
330
747D
100
AcDbEntity
  8
部品1
100
AcDbLine
 10
9041.044206027349
 20
1507.011293296048
 30
0.0
 11
9804.514872255786
 21
1507.011293296048
 31
0.0
  0
LINE
  5
18715
330
747D
100
AcDbEntity
  8
部品1
100
AcDbLine
 10
9804.514872255786
 20
1507.011293296048
 30
0.0
 11
9804.514872255786
 21
1746.903614841581
 31
0.0
  0
LINE
  5
18716
330
747D
100
AcDbEntity
  8
部品1
100
AcDbLine
 10
9804.514872255786
 20
1746.903614841581
 30
0.0
 11
9041.044206027349
 21
1746.903614841581
 31
0.0
  0
TEXT
  5
18717
330
747D
100
AcDbEntity
  8
文字
 62
     7
 48
50.0
100
AcDbText
 10
14491.96323844892
 20
483.8967129911416
 30
0.0
 40
160.0
  1
ＮＸＮ－４０ＳＢ
  7
STYLE2
100
AcDbText
  0
LINE
  5
187CB
330
747D
100
AcDbEntity
  8
部品1
 48
50.0
100
AcDbLine
 10
8419.77953914157
 20
3707.719157816541
 30
0.0
 11
8472.779539141571
 21
3707.719157816541
 31
0.0
  0
LINE
  5
187E5
330
747D
100
AcDbEntity
  8
部品1
 48
50.0
100
AcDbLine
 10
10499.77953914157
 20
4561.21915781654
 30
0.0
 11
8345.779539141572
 21
4561.21915781654
 31
0.0
  0
LINE
  5
187E6
330
747D
100
AcDbEntity
  8
細線
 48
50.0
100
AcDbLine
 10
10499.77953914157
 20
4551.21915781654
 30
0.0
 11
8345.779539141572
 21
4551.21915781654
 31
0.0
  0
LINE
  5
187E7
330
747D
100
AcDbEntity
  8
細線
 48
50.0
100
AcDbLine
 10
10469.77953914157
 20
4509.219157816541
 30
0.0
 11
8375.779539141571
 21
4509.219157816541
 31
0.0
  0
LINE
  5
187E8
330
747D
100
AcDbEntity
  8
細線
 48
50.0
100
AcDbLine
 10
10469.77953914157
 20
4518.71915781654
 30
0.0
 11
8375.779539141571
 21
4518.71915781654
 31
0.0
  0
LINE
  5
187E9
330
747D
100
AcDbEntity
  8
部品1
 48
50.0
100
AcDbLine
 10
8345.779539141572
 20
2726.219157816541
 30
0.0
 11
10499.77953914157
 21
2726.219157816541
 31
0.0
  0
LINE
  5
187EA
330
747D
100
AcDbEntity
  8
細線
 48
50.0
100
AcDbLine
 10
8375.779539141571
 20
2769.21915781654
 30
0.0
 11
10469.77953914157
 21
2769.21915781654
 31
0.0
  0
LINE
  5
187EB
330
747D
100
AcDbEntity
  8
細線
 48
50.0
100
AcDbLine
 10
8375.779539141571
 20
2773.21915781654
 30
0.0
 11
10469.77953914157
 21
2773.21915781654
 31
0.0
  0
LINE
  5
187EC
330
747D
100
AcDbEntity
  8
細線
 48
50.0
100
AcDbLine
 10
9179.779539141568
 20
2783.71915781654
 30
0.0
 11
10443.77953914157
 21
2783.71915781654
 31
0.0
  0
LINE
  5
187ED
330
747D
100
AcDbEntity
  8
部品1
 48
50.0
100
AcDbLine
 10
8375.779539141571
 20
2776.21915781654
 30
0.0
 11
8375.779539141571
 21
4509.219157816541
 31
0.0
  0
LINE
  5
187EE
330
747D
100
AcDbEntity
  8
細線
 48
50.0
100
AcDbLine
 10
8375.779539141571
 20
4518.71915781654
 30
0.0
 11
8375.779539141571
 21
2726.219157816541
 31
0.0
  0
LINE
  5
187EF
330
747D
100
AcDbEntity
  8
部品1
 48
50.0
100
AcDbLine
 10
8345.779539141572
 20
4561.21915781654
 30
0.0
 11
8345.779539141572
 21
2726.219157816541
 31
0.0
  0
LINE
  5
187F0
330
747D
100
AcDbEntity
  8
部品1
 48
50.0
100
AcDbLine
 10
9179.779539141568
 20
4509.219157841307
 30
0.0
 11
9179.779539141568
 21
2776.219157841308
 31
0.0
  0
LINE
  5
187F1
330
747D
100
AcDbEntity
  8
部品1
 48
50.0
100
AcDbLine
 10
8375.779539141571
 20
2776.21915781654
 30
0.0
 11
9179.779539141568
 21
2776.219157816537
 31
0.0
  0
LINE
  5
187F2
330
747D
100
AcDbEntity
  8
部品1
 48
50.0
100
AcDbLine
 10
8384.779539141572
 20
2776.21915781654
 30
0.0
 11
8384.779539141572
 21
2773.21915781654
 31
0.0
  0
LINE
  5
187F3
330
747D
100
AcDbEntity
  8
部品1
 48
50.0
100
AcDbLine
 10
8375.779539141571
 20
4517.21915781654
 30
0.0
 11
8345.779539141572
 21
4517.21915781654
 31
0.0
  0
LINE
  5
187F4
330
747D
100
AcDbEntity
  8
部品1
 48
50.0
100
AcDbLine
 10
10460.77953914157
 20
2773.21915781654
 30
0.0
 11
10460.77953914157
 21
4509.219157816541
 31
0.0
  0
LINE
  5
187F5
330
747D
100
AcDbEntity
  8
細線
 48
50.0
100
AcDbLine
 10
10469.77953914157
 20
2726.219157816541
 30
0.0
 11
10469.77953914157
 21
4518.71915781654
 31
0.0
  0
LINE
  5
187F6
330
747D
100
AcDbEntity
  8
部品1
 48
50.0
100
AcDbLine
 10
10499.77953914157
 20
2726.219157816541
 30
0.0
 11
10499.77953914157
 21
4561.21915781654
 31
0.0
  0
LINE
  5
187F7
330
747D
100
AcDbEntity
  8
部品1
 48
50.0
100
AcDbLine
 10
9833.779529446433
 20
4509.219157853688
 30
0.0
 11
9833.779529446433
 21
2783.719157853688
 31
0.0
  0
LINE
  5
187F8
330
747D
100
AcDbEntity
  8
細線
 48
50.0
100
AcDbLine
 10
10447.77953914157
 20
2773.21915781654
 30
0.0
 11
10443.77953914157
 21
2783.71915781654
 31
0.0
  0
LINE
  5
187F9
330
747D
100
AcDbEntity
  8
部品1
 48
50.0
100
AcDbLine
 10
10499.77953914157
 20
4517.21915781654
 30
0.0
 11
10469.77953914157
 21
4517.21915781654
 31
0.0
  0
LINE
  5
187FA
330
747D
100
AcDbEntity
  8
細線
100
AcDbLine
 10
9956.529539141575
 20
4509.219157816541
 30
0.0
 11
9956.529539141575
 21
2783.719157816558
 31
0.0
  0
LINE
  5
187FB
330
747D
100
AcDbEntity
  8
細線
100
AcDbLine
 10
9241.279548891814
 20
4509.219157816541
 30
0.0
 11
9241.279548891814
 21
2783.719157816551
 31
0.0
  0
LINE
  5
187FC
330
747D
100
AcDbEntity
  8
細線
100
AcDbLine
 10
9311.279548891812
 20
4509.219157816541
 30
0.0
 11
9311.279548891812
 21
2783.719157816551
 31
0.0
  0
LINE
  5
187FD
330
747D
100
AcDbEntity
  8
細線
100
AcDbLine
 10
8589.779539141572
 20
4509.219157816541
 30
0.0
 11
8589.779539141566
 21
2776.219157816544
 31
0.0
  0
LINE
  5
187FE
330
747D
100
AcDbEntity
  8
細線
100
AcDbLine
 10
8659.779539141572
 20
4509.219157816541
 30
0.0
 11
8659.779539141567
 21
2776.219157816544
 31
0.0
  0
LINE
  5
187FF
330
747D
100
AcDbEntity
  8
細線
100
AcDbLine
 10
10026.52953914157
 20
4509.219157816541
 30
0.0
 11
10026.52953914157
 21
2783.719157816558
 31
0.0
  0
LINE
  5
18800
330
747D
100
AcDbEntity
  8
細線
100
AcDbLine
 10
10096.52953914157
 20
4509.219157816541
 30
0.0
 11
10096.52953914157
 21
2783.719157816558
 31
0.0
  0
LINE
  5
18801
330
747D
100
AcDbEntity
  8
細線
100
AcDbLine
 10
10166.52953914157
 20
4509.219157816541
 30
0.0
 11
10166.52953914157
 21
2783.719157816558
 31
0.0
  0
LINE
  5
18802
330
747D
100
AcDbEntity
  8
細線
100
AcDbLine
 10
10236.52953914157
 20
4509.219157816541
 30
0.0
 11
10236.52953914157
 21
2783.719157816558
 31
0.0
  0
LINE
  5
18803
330
747D
100
AcDbEntity
  8
細線
100
AcDbLine
 10
10306.52953914157
 20
4509.219157816541
 30
0.0
 11
10306.52953914157
 21
2783.719157816558
 31
0.0
  0
LINE
  5
18804
330
747D
100
AcDbEntity
  8
細線
100
AcDbLine
 10
9381.279548891813
 20
4509.219157816541
 30
0.0
 11
9381.279548891813
 21
2783.719157816551
 31
0.0
  0
LINE
  5
18805
330
747D
100
AcDbEntity
  8
細線
100
AcDbLine
 10
9451.279548891813
 20
4509.219157816541
 30
0.0
 11
9451.279548891813
 21
2783.719157816551
 31
0.0
  0
LINE
  5
18806
330
747D
100
AcDbEntity
  8
細線
100
AcDbLine
 10
9521.279548891813
 20
4509.219157816541
 30
0.0
 11
9521.279548891813
 21
2783.719157816551
 31
0.0
  0
LINE
  5
18807
330
747D
100
AcDbEntity
  8
細線
100
AcDbLine
 10
9591.279548891813
 20
4509.219157816541
 30
0.0
 11
9591.279548891813
 21
2783.719157816551
 31
0.0
  0
LINE
  5
18808
330
747D
100
AcDbEntity
  8
細線
100
AcDbLine
 10
9661.279548891812
 20
4509.219157816541
 30
0.0
 11
9661.279548891812
 21
2783.719157816551
 31
0.0
  0
LINE
  5
18809
330
747D
100
AcDbEntity
  8
細線
100
AcDbLine
 10
9731.279548891812
 20
4509.219157816541
 30
0.0
 11
9731.279548891812
 21
2783.719157816551
 31
0.0
  0
LINE
  5
1880A
330
747D
100
AcDbEntity
  8
細線
100
AcDbLine
 10
8503.779539141566
 20
4509.219157816541
 30
0.0
 11
8503.779539141572
 21
2776.219157816544
 31
0.0
  0
LINE
  5
1880B
330
747D
100
AcDbEntity
  8
細線
100
AcDbLine
 10
8537.779539141567
 20
4509.219157816541
 30
0.0
 11
8537.779539141572
 21
2776.219157816544
 31
0.0
  0
LINE
  5
1880C
330
747D
100
AcDbEntity
  8
部品1
100
AcDbLine
 10
8495.779539141567
 20
4509.219157816541
 30
0.0
 11
8495.779539141571
 21
2776.219157816544
 31
0.0
  0
LINE
  5
1880D
330
747D
100
AcDbEntity
  8
部品1
100
AcDbLine
 10
8545.779539141568
 20
4509.219157816541
 30
0.0
 11
8545.779539141571
 21
2776.219157816544
 31
0.0
  0
LINE
  5
1880E
330
747D
100
AcDbEntity
  8
細線
100
AcDbLine
 10
8729.779539141572
 20
4509.219157816541
 30
0.0
 11
8729.779539141567
 21
2776.219157816544
 31
0.0
  0
LINE
  5
1880F
330
747D
100
AcDbEntity
  8
細線
100
AcDbLine
 10
8799.779539141571
 20
4509.219157816541
 30
0.0
 11
8799.779539141567
 21
2776.219157816544
 31
0.0
  0
LINE
  5
18810
330
747D
100
AcDbEntity
  8
細線
100
AcDbLine
 10
8869.779539141571
 20
4509.219157816541
 30
0.0
 11
8869.779539141568
 21
2776.219157816544
 31
0.0
  0
LINE
  5
18811
330
747D
100
AcDbEntity
  8
細線
100
AcDbLine
 10
8939.779539141571
 20
4509.219157816541
 30
0.0
 11
8939.779539141566
 21
2776.219157816544
 31
0.0
  0
LINE
  5
18812
330
747D
100
AcDbEntity
  8
細線
100
AcDbLine
 10
9009.779539141572
 20
4509.219157816541
 30
0.0
 11
9009.779539141566
 21
2776.219157816548
 31
0.0
  0
LINE
  5
18813
330
747D
100
AcDbEntity
  8
細線
100
AcDbLine
 10
9079.779539141572
 20
4509.219157816541
 30
0.0
 11
9079.779539141567
 21
2776.219157816548
 31
0.0
  0
LINE
  5
18814
330
747D
100
AcDbEntity
  8
部品1
100
AcDbLine
 10
9833.779529446426
 20
4509.219157853691
 30
0.0
 11
9833.779529446429
 21
2783.719157853706
 31
0.0
  0
LINE
  5
18815
330
747D
100
AcDbEntity
  8
部品1
 48
50.0
100
AcDbLine
 10
9179.779539141568
 20
4509.219157841307
 30
0.0
 11
9179.779539141568
 21
2776.219157816537
 31
0.0
  0
MTEXT
  5
18816
330
747D
100
AcDbEntity
  8
寸法
 62
     7
 48
50.0
100
AcDbMText
 10
10087.88207623471
 20
9218.259510102067
 30
0.0
 40
96.0
 41
0.0
 71
     5
 72
     1
  1
棚 2段
  7
STYLE1
 73
     1
 44
1.0
1001
ACAD
1000
MTEXTBEGIN
1070
    73
1070
     1
1070
    44
1040
1.0
1070
    74
1070
     0
1000
MTEXTEND
  0
MTEXT
  5
18817
330
747D
100
AcDbEntity
  8
寸法
 62
     7
 48
50.0
100
AcDbMText
 10
8997.882076234718
 20
9218.25951010202
 30
0.0
 40
96.0
 41
0.0
 71
     5
 72
     1
  1
棚 2段
  7
STYLE1
 73
     1
 44
1.0
1001
ACAD
1000
MTEXTBEGIN
1070
    73
1070
     1
1070
    44
1040
1.0
1070
    74
1070
     0
1000
MTEXTEND
  0
LINE
  5
1881E
330
747D
100
AcDbEntity
  8
破線
 48
10.0
100
AcDbLine
 10
9102.279539141592
 20
7898.524691904615
 30
0.0
 11
9102.279539141596
 21
9152.024691904713
 31
0.0
  0
LINE
  5
1881F
330
747D
100
AcDbEntity
  8
破線
 48
10.0
100
AcDbLine
 10
9052.279539141597
 20
7898.524691904613
 30
0.0
 11
9052.279539141592
 21
9152.02469190471
 31
0.0
  0
LINE
  5
18820
330
747D
100
AcDbEntity
  8
破線
 48
10.0
100
AcDbLine
 10
9743.279539141596
 20
7898.524691904646
 30
0.0
 11
9743.279539141596
 21
9152.024691904779
 31
0.0
  0
LINE
  5
18821
330
747D
100
AcDbEntity
  8
破線
 48
10.0
100
AcDbLine
 10
9793.279539141595
 20
7898.524691904647
 30
0.0
 11
9793.2795391416
 21
9152.024691904776
 31
0.0
  0
LINE
  5
18822
330
747D
100
AcDbEntity
  8
破線
 48
10.0
100
AcDbLine
 10
9052.279539141597
 20
7922.024691904614
 30
0.0
 11
8397.77953914155
 21
7922.024691904582
 31
0.0
  0
LINE
  5
18823
330
747D
100
AcDbEntity
  8
部品1
 48
50.0
100
AcDbLine
 10
9176.779539141561
 20
2726.219157816541
 30
0.0
 11
9176.779539141561
 21
2626.219157816541
 31
0.0
  0
LINE
  5
18824
330
747D
100
AcDbEntity
  8
部品1
 48
50.0
100
AcDbLine
 10
8976.779539141562
 20
2726.219157816541
 30
0.0
 11
8976.779539141562
 21
2626.219157816541
 31
0.0
  0
LINE
  5
18825
330
747D
100
AcDbEntity
  8
部品1
 48
50.0
100
AcDbLine
 10
9868.779539141563
 20
2726.219157816541
 30
0.0
 11
9868.779539141563
 21
2626.219157816541
 31
0.0
  0
LINE
  5
18826
330
747D
100
AcDbEntity
  8
部品1
 48
50.0
100
AcDbLine
 10
9668.779539141562
 20
2726.219157816541
 30
0.0
 11
9668.779539141562
 21
2626.219157816541
 31
0.0
  0
ARC
  5
18CE8
330
747D
100
AcDbEntity
  8
部品1
100
AcDbCircle
 10
6233.910771937598
 20
4794.219157816544
 30
0.0
 40
7.0
100
AcDbArc
 50
356.7526572096623
 51
90.0
  0
ARC
  5
18CE9
330
747D
100
AcDbEntity
  8
部品1
100
AcDbCircle
 10
6220.695448476563
 20
4667.219157816547
 30
0.0
 40
7.0
100
AcDbArc
 50
270.0
 51
356.7526572096623
  0
ARC
  5
18CEA
330
747D
100
AcDbEntity
  8
部品1
 48
50.0
100
AcDbCircle
 10
6239.067258687242
 20
4773.886156978231
 30
0.0
 40
0.7
100
AcDbArc
 50
277.6581272073652
 51
356.7526572096103
  0
ARC
  5
18CEB
330
747D
100
AcDbEntity
  8
部品1
 48
50.0
100
AcDbCircle
 10
6230.831228162398
 20
4681.686156978226
 30
0.0
 40
0.7
100
AcDbArc
 50
277.6581272073652
 51
356.7526572096883
  0
ARC
  5
18CEC
330
747D
100
AcDbEntity
  8
部品1
 48
50.0
100
AcDbCircle
 10
6231.324297270959
 20
4678.019157816543
 30
0.0
 40
3.0
100
AcDbArc
 50
97.65812720736519
 51
176.7526572096623
  0
ARC
  5
18CED
330
747D
100
AcDbEntity
  8
部品1
 48
50.0
100
AcDbCircle
 10
6239.560327795803
 20
4770.219157816547
 30
0.0
 40
3.0
100
AcDbArc
 50
97.65812720736519
 51
176.7526572096623
  0
LINE
  5
18CEE
330
747D
100
AcDbEntity
  8
部品1
100
AcDbLine
 10
6236.565144899618
 20
4770.389097271647
 30
0.0
 11
6231.530104171507
 21
4681.646504438704
 31
0.0
  0
LINE
  5
18CEF
330
747D
100
AcDbEntity
  8
部品1
100
AcDbLine
 10
6228.329114374774
 20
4678.189097271647
 30
0.0
 11
6227.684208567662
 21
4666.822632421307
 31
0.0
  0
LINE
  5
18CF0
330
747D
100
AcDbEntity
  8
細線
 48
50.0
100
AcDbLine
 10
6208.31919304403
 20
4801.219157816544
 30
0.0
 11
6208.31919304403
 21
4660.219157816544
 31
0.0
  0
LINE
  5
18CF1
330
747D
100
AcDbEntity
  8
部品1
100
AcDbLine
 10
6240.899532028696
 20
4793.822632421306
 30
0.0
 11
6239.766134696351
 21
4773.846504438704
 31
0.0
  0
DIMENSION
  5
18CF2
330
747D
100
AcDbEntity
  8
寸法
 48
50.0
100
AcDbDimension
  2
*D24
 10
6191.31919304403
 20
5205.839417243812
 30
0.0
 11
6554.804474418266
 21
5205.839417243812
 31
0.0
 70
   160
 71
     5
 42
50.0
  3
INABA_S40G
100
AcDbAlignedDimension
 13
6241.31919304403
 23
4801.219157816543
 33
0.0
 14
6191.31919304403
 24
4801.219157816546
 34
0.0
100
AcDbRotatedDimension
  0
LINE
  5
18CF3
330
747D
100
AcDbEntity
  8
部品1
 48
0.01
100
AcDbLine
 10
5791.319193044033
 20
4630.21915781654
 30
0.0
 11
5791.319193044033
 21
4598.71915781654
 31
0.0
  0
LINE
  5
18CF4
330
747D
100
AcDbEntity
  8
部品1
 48
0.01
100
AcDbLine
 10
5789.319193044033
 20
4596.71915781654
 30
0.0
 11
5613.319193044033
 21
4596.71915781654
 31
0.0
  0
LINE
  5
18CF5
330
747D
100
AcDbEntity
  8
部品1
 48
0.01
100
AcDbLine
 10
5611.319193044034
 20
4598.71915781654
 30
0.0
 11
5611.319193044034
 21
4630.21915781654
 31
0.0
  0
ARC
  5
18CF6
330
747D
100
AcDbEntity
  8
部品1
 48
0.01
100
AcDbCircle
 10
5789.319193044033
 20
4598.71915781654
 30
0.0
 40
2.0
100
AcDbArc
 50
270.0
 51
0.0
  0
ARC
  5
18CF7
330
747D
100
AcDbEntity
  8
部品1
 48
0.01
100
AcDbCircle
 10
5613.319193044033
 20
4598.71915781654
 30
0.0
 40
2.0
100
AcDbArc
 50
180.0
 51
270.0
  0
LINE
  5
18CF8
330
747D
100
AcDbEntity
  8
細線
100
AcDbLine
 10
5701.319193044033
 20
4625.71915781654
 30
0.0
 11
5701.319193044033
 21
4602.719157816539
 31
0.0
  0
LINE
  5
18CF9
330
747D
100
AcDbEntity
  8
細線
100
AcDbLine
 10
5627.319193044034
 20
4613.71915781654
 30
0.0
 11
5701.319193044033
 21
4613.71915781654
 31
0.0
  0
LINE
  5
18CFA
330
747D
100
AcDbEntity
  8
細線
100
AcDbLine
 10
5627.319193044034
 20
4607.71915781654
 30
0.0
 11
5701.319193044033
 21
4607.71915781654
 31
0.0
  0
LINE
  5
18CFB
330
747D
100
AcDbEntity
  8
細線
100
AcDbLine
 10
5627.319193044034
 20
4619.71915781654
 30
0.0
 11
5701.319193044033
 21
4619.71915781654
 31
0.0
  0
LINE
  5
18CFC
330
747D
100
AcDbEntity
  8
細線
100
AcDbLine
 10
5775.319193044033
 20
4619.71915781654
 30
0.0
 11
5706.319193044033
 21
4619.71915781654
 31
0.0
  0
LINE
  5
18CFD
330
747D
100
AcDbEntity
  8
細線
100
AcDbLine
 10
5775.319193044033
 20
4607.71915781654
 30
0.0
 11
5701.319193044033
 21
4607.71915781654
 31
0.0
  0
LINE
  5
18CFE
330
747D
100
AcDbEntity
  8
細線
100
AcDbLine
 10
5775.319193044033
 20
4613.71915781654
 30
0.0
 11
5701.319193044033
 21
4613.71915781654
 31
0.0
  0
LINE
  5
18CFF
330
747D
100
AcDbEntity
  8
細線
100
AcDbLine
 10
5775.319193044033
 20
4619.71915781654
 30
0.0
 11
5701.319193044033
 21
4619.71915781654
 31
0.0
  0
LINE
  5
18D00
330
747D
100
AcDbEntity
  8
部品1
 48
0.01
100
AcDbLine
 10
5613.319193044033
 20
4632.21915781654
 30
0.0
 11
5789.319193044033
 21
4632.21915781654
 31
0.0
  0
LINE
  5
18D01
330
747D
100
AcDbEntity
  8
細線
100
AcDbLine
 10
5775.319193044033
 20
4625.71915781654
 30
0.0
 11
5775.319193044033
 21
4602.719157816539
 31
0.0
  0
LINE
  5
18D02
330
747D
100
AcDbEntity
  8
細線
100
AcDbLine
 10
5627.319193044034
 20
4602.719157816539
 30
0.0
 11
5627.319193044034
 21
4625.71915781654
 31
0.0
  0
LINE
  5
18D03
330
747D
100
AcDbEntity
  8
細線
100
AcDbLine
 10
5627.319193044034
 20
4625.71915781654
 30
0.0
 11
5701.319193044033
 21
4625.71915781654
 31
0.0
  0
LINE
  5
18D04
330
747D
100
AcDbEntity
  8
細線
100
AcDbLine
 10
5775.319193044033
 20
4602.719157816539
 30
0.0
 11
5701.319193044033
 21
4602.719157816539
 31
0.0
  0
LINE
  5
18D05
330
747D
100
AcDbEntity
  8
細線
100
AcDbLine
 10
5701.319193044033
 20
4625.71915781654
 30
0.0
 11
5775.319193044033
 21
4625.71915781654
 31
0.0
  0
LINE
  5
18D06
330
747D
100
AcDbEntity
  8
細線
100
AcDbLine
 10
5701.319193044033
 20
4602.719157816539
 30
0.0
 11
5627.319193044034
 21
4602.719157816539
 31
0.0
  0
ARC
  5
18D07
330
747D
100
AcDbEntity
  8
部品1
 48
0.01
100
AcDbCircle
 10
5789.319193044033
 20
4630.21915781654
 30
0.0
 40
2.0
100
AcDbArc
 50
0.0
 51
90.0
  0
ARC
  5
18D08
330
747D
100
AcDbEntity
  8
部品1
 48
0.01
100
AcDbCircle
 10
5613.319193044033
 20
4630.21915781654
 30
0.0
 40
2.0
100
AcDbArc
 50
90.0
 51
180.0
  0
ARC
  5
18D09
330
747D
100
AcDbEntity
  8
部品1
 48
0.01
100
AcDbCircle
 10
4979.31919304403
 20
4598.71915781654
 30
0.0
 40
2.0
100
AcDbArc
 50
270.0
 51
0.0
  0
ARC
  5
18D0A
330
747D
100
AcDbEntity
  8
部品1
 48
0.01
100
AcDbCircle
 10
4979.319193044034
 20
4630.21915781654
 30
0.0
 40
2.0
100
AcDbArc
 50
0.0
 51
90.0
  0
ARC
  5
18D0B
330
747D
100
AcDbEntity
  8
部品1
 48
0.01
100
AcDbCircle
 10
4803.319193044034
 20
4598.71915781654
 30
0.0
 40
2.0
100
AcDbArc
 50
180.0
 51
270.0
  0
ARC
  5
18D0C
330
747D
100
AcDbEntity
  8
部品1
 48
0.01
100
AcDbCircle
 10
4803.319193044034
 20
4630.21915781654
 30
0.0
 40
2.0
100
AcDbArc
 50
90.0
 51
180.0
  0
LINE
  5
18D0D
330
747D
100
AcDbEntity
  8
細線
100
AcDbLine
 10
4891.319193044029
 20
4602.719157816539
 30
0.0
 11
4965.319193044034
 21
4602.719157816539
 31
0.0
  0
LINE
  5
18D0E
330
747D
100
AcDbEntity
  8
細線
100
AcDbLine
 10
4891.319193044033
 20
4625.71915781654
 30
0.0
 11
4817.319193044034
 21
4625.71915781654
 31
0.0
  0
LINE
  5
18D0F
330
747D
100
AcDbEntity
  8
細線
100
AcDbLine
 10
4817.319193044034
 20
4602.719157816539
 30
0.0
 11
4891.319193044033
 21
4602.719157816539
 31
0.0
  0
LINE
  5
18D10
330
747D
100
AcDbEntity
  8
細線
100
AcDbLine
 10
4965.319193044034
 20
4625.71915781654
 30
0.0
 11
4891.319193044033
 21
4625.71915781654
 31
0.0
  0
LINE
  5
18D11
330
747D
100
AcDbEntity
  8
細線
100
AcDbLine
 10
4965.319193044034
 20
4602.719157816539
 30
0.0
 11
4965.319193044034
 21
4625.71915781654
 31
0.0
  0
LINE
  5
18D12
330
747D
100
AcDbEntity
  8
細線
100
AcDbLine
 10
4817.319193044034
 20
4625.71915781654
 30
0.0
 11
4817.319193044034
 21
4602.719157816539
 31
0.0
  0
LINE
  5
18D13
330
747D
100
AcDbEntity
  8
部品1
 48
0.01
100
AcDbLine
 10
4981.319193044029
 20
4598.71915781654
 30
0.0
 11
4981.319193044033
 21
4630.21915781654
 31
0.0
  0
LINE
  5
18D14
330
747D
100
AcDbEntity
  8
部品1
 48
0.01
100
AcDbLine
 10
4803.319193044034
 20
4596.71915781654
 30
0.0
 11
4979.31919304403
 21
4596.71915781654
 31
0.0
  0
LINE
  5
18D15
330
747D
100
AcDbEntity
  8
部品1
 48
0.01
100
AcDbLine
 10
4801.319193044033
 20
4630.21915781654
 30
0.0
 11
4801.319193044033
 21
4598.71915781654
 31
0.0
  0
LINE
  5
18D16
330
747D
100
AcDbEntity
  8
部品1
 48
0.01
100
AcDbLine
 10
4979.319193044034
 20
4632.21915781654
 30
0.0
 11
4803.319193044034
 21
4632.21915781654
 31
0.0
  0
LINE
  5
18D17
330
747D
100
AcDbEntity
  8
細線
100
AcDbLine
 10
4817.319193044034
 20
4619.71915781654
 30
0.0
 11
4891.319193044033
 21
4619.71915781654
 31
0.0
  0
LINE
  5
18D18
330
747D
100
AcDbEntity
  8
細線
100
AcDbLine
 10
4817.319193044034
 20
4613.71915781654
 30
0.0
 11
4891.319193044033
 21
4613.71915781654
 31
0.0
  0
LINE
  5
18D19
330
747D
100
AcDbEntity
  8
細線
100
AcDbLine
 10
4817.31919304403
 20
4607.71915781654
 30
0.0
 11
4891.319193044033
 21
4607.71915781654
 31
0.0
  0
LINE
  5
18D1A
330
747D
100
AcDbEntity
  8
細線
100
AcDbLine
 10
4817.319193044034
 20
4619.71915781654
 30
0.0
 11
4886.319193044034
 21
4619.71915781654
 31
0.0
  0
LINE
  5
18D1B
330
747D
100
AcDbEntity
  8
細線
100
AcDbLine
 10
4965.31919304403
 20
4619.71915781654
 30
0.0
 11
4891.319193044033
 21
4619.71915781654
 31
0.0
  0
LINE
  5
18D1C
330
747D
100
AcDbEntity
  8
細線
100
AcDbLine
 10
4965.31919304403
 20
4607.71915781654
 30
0.0
 11
4891.319193044033
 21
4607.71915781654
 31
0.0
  0
LINE
  5
18D1D
330
747D
100
AcDbEntity
  8
細線
100
AcDbLine
 10
4965.31919304403
 20
4613.71915781654
 30
0.0
 11
4891.319193044033
 21
4613.71915781654
 31
0.0
  0
LINE
  5
18D1E
330
747D
100
AcDbEntity
  8
細線
100
AcDbLine
 10
4891.319193044033
 20
4625.71915781654
 30
0.0
 11
4891.319193044029
 21
4602.719157816539
 31
0.0
  0
LINE
  5
18D1F
330
747D
100
AcDbEntity
  8
細線
 48
50.0
100
AcDbLine
 10
6231.043624297749
 20
4681.019157816542
 30
0.0
 11
4361.594761790303
 21
4681.019157816546
 31
0.0
  0
LINE
  5
18D20
330
747D
100
AcDbEntity
  8
細線
 48
50.0
100
AcDbLine
 10
6239.279654822595
 20
4773.219157816545
 30
0.0
 11
4353.358731265474
 21
4773.219157816543
 31
0.0
  0
LINE
  5
18D21
330
747D
100
AcDbEntity
  8
部品1
 48
50.0
100
AcDbLine
 10
6220.695448476563
 20
4660.219157816547
 30
0.0
 11
4371.942937611503
 21
4660.219157816544
 31
0.0
  0
LINE
  5
18D22
330
747D
100
AcDbEntity
  8
部品1
 48
50.0
100
AcDbLine
 10
6233.910771937598
 20
4801.219157816544
 30
0.0
 11
4358.727614150466
 21
4801.219157816547
 31
0.0
  0
LINE
  5
18D23
330
747D
100
AcDbEntity
  8
部品1
100
AcDbLine
 10
4351.738854059371
 20
4793.822632421306
 30
0.0
 11
4352.87225139172
 21
4773.846504438704
 31
0.0
  0
LINE
  5
18D24
330
747D
100
AcDbEntity
  8
部品1
100
AcDbLine
 10
4364.309271713293
 20
4678.189097271647
 30
0.0
 11
4364.954177520401
 21
4666.822632421307
 31
0.0
  0
LINE
  5
18D25
330
747D
100
AcDbEntity
  8
部品1
100
AcDbLine
 10
4356.073241188449
 20
4770.389097271647
 30
0.0
 11
4361.108281916556
 21
4681.646504438704
 31
0.0
  0
ARC
  5
18D26
330
747D
100
AcDbEntity
  8
部品1
 48
50.0
100
AcDbCircle
 10
4353.078058292264
 20
4770.219157816547
 30
0.0
 40
3.0
100
AcDbArc
 50
3.247342790337682
 51
82.3418727926348
  0
ARC
  5
18D27
330
747D
100
AcDbEntity
  8
部品1
 48
50.0
100
AcDbCircle
 10
4361.314088817107
 20
4678.019157816543
 30
0.0
 40
3.0
100
AcDbArc
 50
3.247342790337682
 51
82.3418727926348
  0
ARC
  5
18D28
330
747D
100
AcDbEntity
  8
部品1
 48
50.0
100
AcDbCircle
 10
4361.807157925668
 20
4681.686156978226
 30
0.0
 40
0.7
100
AcDbArc
 50
183.2473427903116
 51
262.3418727926349
  0
ARC
  5
18D29
330
747D
100
AcDbEntity
  8
部品1
 48
50.0
100
AcDbCircle
 10
4353.571127400824
 20
4773.886156978231
 30
0.0
 40
0.7
100
AcDbArc
 50
183.2473427903897
 51
262.3418727926349
  0
ARC
  5
18D2A
330
747D
100
AcDbEntity
  8
部品1
100
AcDbCircle
 10
4371.942937611503
 20
4667.219157816547
 30
0.0
 40
7.0
100
AcDbArc
 50
183.2473427903377
 51
270.0
  0
ARC
  5
18D2B
330
747D
100
AcDbEntity
  8
部品1
100
AcDbCircle
 10
4358.727614150466
 20
4794.219157816544
 30
0.0
 40
7.0
100
AcDbArc
 50
90.0
 51
183.2473427903377
  0
LINE
  5
18D2C
330
747D
100
AcDbEntity
  8
細線
 48
50.0
100
AcDbLine
 10
4384.31919304404
 20
4801.219157816544
 30
0.0
 11
4384.31919304404
 21
4660.219157816544
 31
0.0
  0
DIMENSION
  5
18D2D
330
747D
100
AcDbEntity
  8
寸法
 48
50.0
100
AcDbDimension
  2
*D25
 10
4351.31919304404
 20
5205.839417243812
 30
0.0
 11
4037.833911669793
 21
5205.839417243812
 31
0.0
 70
   160
 71
     5
 42
50.0
  3
INABA_S40G
100
AcDbAlignedDimension
 13
4401.319193044041
 23
4801.219157816547
 33
0.0
 14
4351.31919304404
 24
4801.219157816546
 34
0.0
100
AcDbRotatedDimension
1001
ACAD
1000
DSTYLE
1002
{
1002
}
  0
DIMENSION
  5
18D2E
330
747D
100
AcDbEntity
  8
寸法
 48
50.0
100
AcDbDimension
  2
*D26
 10
6241.31919304403
 20
5415.433291665264
 30
0.0
 11
5296.319193044034
 21
5415.433291665264
 31
0.0
 70
   160
 71
     5
 42
1889.999999999989
  3
INABA_S40G
100
AcDbAlignedDimension
 13
4351.31919304404
 23
4801.219157816546
 33
0.0
 14
6241.31919304403
 24
4801.219157816543
 34
0.0
100
AcDbRotatedDimension
  0
DIMENSION
  5
18D2F
330
747D
100
AcDbEntity
  8
寸法
 48
50.0
100
AcDbDimension
  2
*D27
 10
4401.319193044041
 20
5205.839417243812
 30
0.0
 11
5296.319193044034
 21
5205.839417243812
 31
0.0
 70
   160
  1
柱外寸法<>
 71
     5
 42
1789.999999999989
  3
INABA_S40G
100
AcDbAlignedDimension
 13
6191.31919304403
 23
4801.219157816546
 33
0.0
 14
4401.319193044041
 24
4801.219157816547
 34
0.0
100
AcDbRotatedDimension
  0
LINE
  5
18D30
330
747D
100
AcDbEntity
  8
部品1
100
AcDbLine
 10
4601.319193044033
 20
2726.219157816542
 30
0.0
 11
4601.319193044033
 21
2626.219157816541
 31
0.0
  0
LINE
  5
18D31
330
747D
100
AcDbEntity
  8
部品1
 48
50.0
100
AcDbLine
 10
5196.319193044034
 20
2726.219157816542
 30
0.0
 11
5196.319193044034
 21
2626.219157816541
 31
0.0
  0
LINE
  5
18D32
330
747D
100
AcDbEntity
  8
部品1
 48
50.0
100
AcDbLine
 10
5396.319193044034
 20
2726.219157816542
 30
0.0
 11
5396.319193044034
 21
2626.219157816541
 31
0.0
  0
LINE
  5
18D33
330
747D
100
AcDbEntity
  8
部品1
100
AcDbLine
 10
5991.319193044033
 20
2726.219157816542
 30
0.0
 11
5991.319193044033
 21
2626.219157816541
 31
0.0
  0
LINE
  5
18D34
330
747D
100
AcDbEntity
  8
部品1
 48
50.0
100
AcDbLine
 10
6268.319193044037
 20
2726.219157816542
 30
0.0
 11
6183.819193044037
 21
2726.219157816542
 31
0.0
  0
LINE
  5
18D35
330
747D
100
AcDbEntity
  8
部品1
 48
50.0
100
AcDbLine
 10
6268.319193044037
 20
4551.219157816542
 30
0.0
 11
6268.319193044037
 21
2626.219157816541
 31
0.0
  0
LINE
  5
18D36
330
747D
100
AcDbEntity
  8
部品1
 48
50.0
100
AcDbLine
 10
6191.319193044037
 20
4561.219157816542
 30
0.0
 11
6268.319193044037
 21
4551.219157816542
 31
0.0
  0
LINE
  5
18D37
330
747D
100
AcDbEntity
  8
破線
 48
5.0
100
AcDbLine
 10
6063.81919304404
 20
2626.219157816541
 30
0.0
 11
6063.81919304404
 21
2426.219157816542
 31
0.0
  0
LINE
  5
18D38
330
747D
100
AcDbEntity
  8
破線
 48
5.0
100
AcDbLine
 10
6263.819193044037
 20
2426.219157816539
 30
0.0
 11
6063.81919304404
 21
2426.219157816542
 31
0.0
  0
LINE
  5
18D39
330
747D
100
AcDbEntity
  8
破線
 48
5.0
100
AcDbLine
 10
6263.819193044041
 20
2626.219157816541
 30
0.0
 11
6263.819193044037
 21
2426.219157816539
 31
0.0
  0
DIMENSION
  5
18D3A
330
747D
100
AcDbEntity
  8
寸法
 48
50.0
100
AcDbDimension
  2
*D28
 10
4328.819193044036
 20
2140.171828516162
 30
0.0
 11
4428.819193044035
 21
2140.171828516162
 31
0.0
 70
   160
 71
     5
 42
199.9999999999963
  3
INABA_S40G
100
AcDbAlignedDimension
 13
4528.819193044033
 23
2426.219157816539
 33
0.0
 14
4328.819193044036
 24
2426.21915781654
 34
0.0
100
AcDbRotatedDimension
  0
LINE
  5
18D3B
330
747D
100
AcDbEntity
  8
破線
 48
5.0
100
AcDbLine
 10
4328.819193044033
 20
2626.219157816541
 30
0.0
 11
4328.819193044036
 21
2426.219157816539
 31
0.0
  0
LINE
  5
18D3C
330
747D
100
AcDbEntity
  8
破線
 48
5.0
100
AcDbLine
 10
4528.819193044033
 20
2626.219157816541
 30
0.0
 11
4528.819193044033
 21
2426.219157816539
 31
0.0
  0
LINE
  5
18D3D
330
747D
100
AcDbEntity
  8
破線
 48
5.0
100
AcDbLine
 10
4528.819193044033
 20
2426.219157816539
 30
0.0
 11
4328.819193044036
 21
2426.219157816539
 31
0.0
  0
DIMENSION
  5
18D3E
330
747D
100
AcDbEntity
  8
寸法
 48
50.0
100
AcDbDimension
  2
*D29
 10
4179.3191897974
 20
2626.219157816541
 30
0.0
 11
4179.319189797399
 21
2526.219157816541
 31
0.0
 70
   160
 71
     5
 42
200.0
  3
INABA_S40G
100
AcDbAlignedDimension
 13
4328.819193044036
 23
2426.21915781654
 33
0.0
 14
4303.819193044033
 24
2626.219157816541
 34
0.0
 50
90.0
100
AcDbRotatedDimension
1001
ACAD
1000
DSTYLE
1002
{
1070
   174
1070
     0
1070
   272
1070
     1
1070
   288
1070
     0
1070
   341
1005
0
1002
}
  0
LINE
  5
18D3F
330
747D
100
AcDbEntity
  8
細線
 48
50.0
100
AcDbLine
 10
6058.81919304404
 20
4566.21915781654
 30
0.0
 11
6058.81919304404
 21
2776.219157816541
 31
0.0
  0
LINE
  5
18D40
330
747D
100
AcDbEntity
  8
細線
 48
50.0
100
AcDbLine
 10
6073.819193044041
 20
4566.21915781654
 30
0.0
 11
6073.819193044041
 21
2776.219157816541
 31
0.0
  0
LINE
  5
18D41
330
747D
100
AcDbEntity
  8
細線
 48
50.0
100
AcDbLine
 10
5933.81919304404
 20
4566.21915781654
 30
0.0
 11
5933.81919304404
 21
2776.219157816541
 31
0.0
  0
LINE
  5
18D42
330
747D
100
AcDbEntity
  8
細線
 48
50.0
100
AcDbLine
 10
5918.819193044041
 20
4566.21915781654
 30
0.0
 11
5918.819193044041
 21
2776.219157816541
 31
0.0
  0
LINE
  5
18D43
330
747D
100
AcDbEntity
  8
細線
 48
50.0
100
AcDbLine
 10
5778.81919304404
 20
4566.21915781654
 30
0.0
 11
5778.81919304404
 21
2776.219157816541
 31
0.0
  0
LINE
  5
18D44
330
747D
100
AcDbEntity
  8
細線
 48
50.0
100
AcDbLine
 10
5793.819193044041
 20
4566.21915781654
 30
0.0
 11
5793.819193044041
 21
2776.219157816541
 31
0.0
  0
LINE
  5
18D45
330
747D
100
AcDbEntity
  8
部品1
100
AcDbLine
 10
5716.319193044033
 20
4566.21915781654
 30
0.0
 11
5716.319193044033
 21
2776.219157816541
 31
0.0
  0
LINE
  5
18D46
330
747D
100
AcDbEntity
  8
細線
 48
50.0
100
AcDbLine
 10
5373.819193044037
 20
4566.21915781654
 30
0.0
 11
5373.819193044037
 21
2776.219157816541
 31
0.0
  0
LINE
  5
18D47
330
747D
100
AcDbEntity
  8
細線
 48
50.0
100
AcDbLine
 10
5358.819193044038
 20
4566.21915781654
 30
0.0
 11
5358.819193044038
 21
2776.219157816541
 31
0.0
  0
LINE
  5
18D48
330
747D
100
AcDbEntity
  8
細線
 48
50.0
100
AcDbLine
 10
5498.819193044037
 20
4566.21915781654
 30
0.0
 11
5498.819193044037
 21
2776.219157816541
 31
0.0
  0
LINE
  5
18D49
330
747D
100
AcDbEntity
  8
細線
 48
50.0
100
AcDbLine
 10
5513.819193044037
 20
4566.21915781654
 30
0.0
 11
5513.819193044037
 21
2776.219157816541
 31
0.0
  0
LINE
  5
18D4A
330
747D
100
AcDbEntity
  8
細線
 48
50.0
100
AcDbLine
 10
5653.819193044037
 20
4566.21915781654
 30
0.0
 11
5653.819193044037
 21
2776.219157816541
 31
0.0
  0
LINE
  5
18D4B
330
747D
100
AcDbEntity
  8
細線
 48
50.0
100
AcDbLine
 10
5638.819193044037
 20
4566.21915781654
 30
0.0
 11
5638.819193044037
 21
2776.219157816541
 31
0.0
  0
LINE
  5
18D4C
330
747D
100
AcDbEntity
  8
部品1
100
AcDbLine
 10
5296.319193044034
 20
4566.21915781654
 30
0.0
 11
5296.319193044034
 21
2776.219157816541
 31
0.0
  0
LINE
  5
18D4D
330
747D
100
AcDbEntity
  8
細線
 48
50.0
100
AcDbLine
 10
4533.819193044034
 20
4566.21915781654
 30
0.0
 11
4533.819193044034
 21
2776.219157816541
 31
0.0
  0
LINE
  5
18D4E
330
747D
100
AcDbEntity
  8
細線
 48
50.0
100
AcDbLine
 10
4518.819193044033
 20
4566.21915781654
 30
0.0
 11
4518.819193044033
 21
2776.219157816541
 31
0.0
  0
LINE
  5
18D4F
330
747D
100
AcDbEntity
  8
細線
 48
50.0
100
AcDbLine
 10
4658.819193044034
 20
4566.21915781654
 30
0.0
 11
4658.819193044034
 21
2776.219157816541
 31
0.0
  0
LINE
  5
18D50
330
747D
100
AcDbEntity
  8
細線
 48
50.0
100
AcDbLine
 10
4673.819193044034
 20
4566.21915781654
 30
0.0
 11
4673.819193044034
 21
2776.219157816541
 31
0.0
  0
LINE
  5
18D51
330
747D
100
AcDbEntity
  8
細線
 48
50.0
100
AcDbLine
 10
4813.819193044033
 20
4566.21915781654
 30
0.0
 11
4813.819193044033
 21
2776.219157816541
 31
0.0
  0
LINE
  5
18D52
330
747D
100
AcDbEntity
  8
細線
 48
50.0
100
AcDbLine
 10
4798.819193044034
 20
4566.21915781654
 30
0.0
 11
4798.819193044034
 21
2776.219157816541
 31
0.0
  0
LINE
  5
18D53
330
747D
100
AcDbEntity
  8
細線
 48
50.0
100
AcDbLine
 10
5218.819193044033
 20
4566.21915781654
 30
0.0
 11
5218.819193044033
 21
2776.219157816541
 31
0.0
  0
LINE
  5
18D54
330
747D
100
AcDbEntity
  8
細線
 48
50.0
100
AcDbLine
 10
5233.819193044034
 20
4566.21915781654
 30
0.0
 11
5233.819193044034
 21
2776.219157816541
 31
0.0
  0
LINE
  5
18D55
330
747D
100
AcDbEntity
  8
細線
 48
50.0
100
AcDbLine
 10
5093.819193044033
 20
4566.21915781654
 30
0.0
 11
5093.819193044033
 21
2776.219157816541
 31
0.0
  0
LINE
  5
18D56
330
747D
100
AcDbEntity
  8
細線
 48
50.0
100
AcDbLine
 10
5078.819193044033
 20
4566.21915781654
 30
0.0
 11
5078.819193044033
 21
2776.219157816541
 31
0.0
  0
LINE
  5
18D57
330
747D
100
AcDbEntity
  8
細線
 48
50.0
100
AcDbLine
 10
4938.819193044033
 20
4566.21915781654
 30
0.0
 11
4938.819193044033
 21
2776.219157816541
 31
0.0
  0
LINE
  5
18D58
330
747D
100
AcDbEntity
  8
細線
 48
50.0
100
AcDbLine
 10
4953.819193044033
 20
4566.21915781654
 30
0.0
 11
4953.819193044033
 21
2776.219157816541
 31
0.0
  0
LINE
  5
18D59
330
747D
100
AcDbEntity
  8
部品1
100
AcDbLine
 10
4448.819193044033
 20
2726.219157816542
 30
0.0
 11
6143.819193044033
 21
2726.219157816542
 31
0.0
  0
LINE
  5
18D5A
330
747D
100
AcDbEntity
  8
部品1
100
AcDbLine
 10
6183.819193044033
 20
2726.219157816542
 30
0.0
 11
6191.319193044037
 21
2726.219157816542
 31
0.0
  0
LINE
  5
18D5B
330
747D
100
AcDbEntity
  8
破線
  6
HIDDEN
 48
5.0
100
AcDbLine
 10
4448.819193044033
 20
2626.219157816541
 30
0.0
 11
4448.819193044033
 21
2621.219157816542
 31
0.0
  0
LINE
  5
18D5C
330
747D
100
AcDbEntity
  8
破線
  6
HIDDEN
 48
5.0
100
AcDbLine
 10
4408.819193044041
 20
2626.219157816541
 30
0.0
 11
4408.819193044041
 21
2621.219157816542
 31
0.0
  0
LINE
  5
18D5D
330
747D
100
AcDbEntity
  8
破線
  6
HIDDEN
 48
5.0
100
AcDbLine
 10
6183.819193044033
 20
2626.219157816541
 30
0.0
 11
6183.819193044033
 21
2621.219157816542
 31
0.0
  0
LINE
  5
18D5E
330
747D
100
AcDbEntity
  8
破線
  6
HIDDEN
 48
5.0
100
AcDbLine
 10
6143.819193044033
 20
2626.219157816541
 30
0.0
 11
6143.819193044033
 21
2621.219157816542
 31
0.0
  0
ARC
  5
18D5F
330
747D
100
AcDbEntity
  8
部品1
 48
50.0
100
AcDbCircle
 10
6178.819193044033
 20
2766.219157816542
 30
0.0
 40
5.0
100
AcDbArc
 50
0.0
 51
90.0
  0
ARC
  5
18D60
330
747D
100
AcDbEntity
  8
部品1
 48
50.0
100
AcDbCircle
 10
6148.819193044033
 20
2766.219157816542
 30
0.0
 40
5.0
100
AcDbArc
 50
90.0
 51
180.0
  0
LINE
  5
18D61
330
747D
100
AcDbEntity
  8
部品1
100
AcDbLine
 10
6178.819193044033
 20
2771.219157816541
 30
0.0
 11
6148.819193044033
 21
2771.219157816541
 31
0.0
  0
LINE
  5
18D62
330
747D
100
AcDbEntity
  8
部品1
 48
50.0
100
AcDbLine
 10
6183.819193044033
 20
2766.219157816542
 30
0.0
 11
6183.819193044033
 21
2626.219157816541
 31
0.0
  0
LINE
  5
18D63
330
747D
100
AcDbEntity
  8
部品1
 48
50.0
100
AcDbLine
 10
6143.819193044033
 20
2766.219157816542
 30
0.0
 11
6143.819193044033
 21
2626.219157816541
 31
0.0
  0
ARC
  5
18D64
330
747D
100
AcDbEntity
  8
部品1
 48
50.0
100
AcDbCircle
 10
4443.819193044033
 20
2766.219157816542
 30
0.0
 40
5.0
100
AcDbArc
 50
0.0
 51
90.0
  0
ARC
  5
18D65
330
747D
100
AcDbEntity
  8
部品1
 48
50.0
100
AcDbCircle
 10
4413.819193044033
 20
2766.219157816542
 30
0.0
 40
5.0
100
AcDbArc
 50
90.0
 51
180.0
  0
LINE
  5
18D66
330
747D
100
AcDbEntity
  8
部品1
100
AcDbLine
 10
4413.819193044033
 20
2771.219157816541
 30
0.0
 11
4443.819193044033
 21
2771.219157816541
 31
0.0
  0
LINE
  5
18D67
330
747D
100
AcDbEntity
  8
部品1
 48
50.0
100
AcDbLine
 10
4448.819193044033
 20
2766.219157816542
 30
0.0
 11
4448.819193044033
 21
2626.219157816541
 31
0.0
  0
LINE
  5
18D68
330
747D
100
AcDbEntity
  8
部品1
 48
50.0
100
AcDbLine
 10
4408.819193044034
 20
2766.219157816542
 30
0.0
 11
4408.819193044034
 21
2626.219157816541
 31
0.0
  0
LINE
  5
18D69
330
747D
100
AcDbEntity
  8
破線
  6
HIDDEN
 48
5.0
100
AcDbLine
 10
4448.819193044033
 20
2621.219157816542
 30
0.0
 11
4463.819193044034
 21
2473.519157816541
 31
0.0
  0
LINE
  5
18D6A
330
747D
100
AcDbEntity
  8
破線
  6
HIDDEN
 48
5.0
100
AcDbLine
 10
4408.819193044034
 20
2621.219157816542
 30
0.0
 11
4393.819193044033
 21
2473.519157816541
 31
0.0
  0
LINE
  5
18D6B
330
747D
100
AcDbEntity
  8
破線
  6
HIDDEN
 48
5.0
100
AcDbLine
 10
4463.819193044034
 20
2473.519157816541
 30
0.0
 11
4463.819193044034
 21
2471.219157816542
 31
0.0
  0
LINE
  5
18D6C
330
747D
100
AcDbEntity
  8
破線
  6
HIDDEN
 48
5.0
100
AcDbLine
 10
4393.819193044033
 20
2473.519157816541
 30
0.0
 11
4393.819193044033
 21
2471.219157816542
 31
0.0
  0
LINE
  5
18D6D
330
747D
100
AcDbEntity
  8
破線
  6
HIDDEN
 48
5.0
100
AcDbLine
 10
4393.819193044033
 20
2471.219157816542
 30
0.0
 11
4463.819193044034
 21
2471.219157816542
 31
0.0
  0
LINE
  5
18D6E
330
747D
100
AcDbEntity
  8
破線
  6
HIDDEN
 48
5.0
100
AcDbLine
 10
6198.819193044034
 20
2473.519157816541
 30
0.0
 11
6198.819193044034
 21
2471.219157816542
 31
0.0
  0
LINE
  5
18D6F
330
747D
100
AcDbEntity
  8
破線
  6
HIDDEN
 48
5.0
100
AcDbLine
 10
6183.819193044033
 20
2621.219157816542
 30
0.0
 11
6198.819193044034
 21
2473.519157816541
 31
0.0
  0
LINE
  5
18D70
330
747D
100
AcDbEntity
  8
破線
  6
HIDDEN
 48
5.0
100
AcDbLine
 10
6128.819193044034
 20
2473.519157816541
 30
0.0
 11
6128.819193044034
 21
2471.219157816542
 31
0.0
  0
LINE
  5
18D71
330
747D
100
AcDbEntity
  8
破線
  6
HIDDEN
 48
5.0
100
AcDbLine
 10
6143.819193044033
 20
2621.219157816542
 30
0.0
 11
6128.819193044034
 21
2473.519157816541
 31
0.0
  0
LINE
  5
18D72
330
747D
100
AcDbEntity
  8
破線
  6
HIDDEN
 48
5.0
100
AcDbLine
 10
6198.819193044034
 20
2471.219157816542
 30
0.0
 11
6128.819193044034
 21
2471.219157816542
 31
0.0
  0
LINE
  5
18D73
330
747D
100
AcDbEntity
  8
部品1
100
AcDbLine
 10
6136.319193044037
 20
4566.21915781654
 30
0.0
 11
6136.319193044037
 21
2776.219157816541
 31
0.0
  0
LINE
  5
18D74
330
747D
100
AcDbEntity
  8
部品1
100
AcDbLine
 10
6191.319193044034
 20
4660.219157816547
 30
0.0
 11
6191.319193044037
 21
2626.219157816541
 31
0.0
  0
LINE
  5
18D75
330
747D
100
AcDbEntity
  8
部品1
100
AcDbLine
 10
4876.319193044033
 20
4566.21915781654
 30
0.0
 11
4876.319193044033
 21
2776.219157816541
 31
0.0
  0
LINE
  5
18D76
330
747D
100
AcDbEntity
  8
部品1
100
AcDbLine
 10
4401.319193044034
 20
4660.219157816544
 30
0.0
 11
4401.319193044034
 21
2626.219157816541
 31
0.0
  0
LINE
  5
18D77
330
747D
100
AcDbEntity
  8
部品1
100
AcDbLine
 10
4456.319193044033
 20
4566.21915781654
 30
0.0
 11
4456.319193044033
 21
2776.219157816541
 31
0.0
  0
LINE
  5
18D78
330
747D
100
AcDbEntity
  8
部品1
100
AcDbLine
 10
4401.319193044034
 20
2726.219157816542
 30
0.0
 11
4408.819193044034
 21
2726.219157816542
 31
0.0
  0
LINE
  5
18D79
330
747D
100
AcDbEntity
  8
部品1
100
AcDbLine
 10
4401.319193044034
 20
2776.219157816541
 30
0.0
 11
6191.319193044037
 21
2776.219157816541
 31
0.0
  0
LINE
  5
18D7A
330
747D
100
AcDbEntity
  8
部品1
100
AcDbLine
 10
4401.319193044034
 20
4566.21915781654
 30
0.0
 11
6191.319193044034
 21
4566.21915781654
 31
0.0
  0
LINE
  5
18D7B
330
747D
100
AcDbEntity
  8
部品1
100
AcDbLine
 10
5678.054526158252
 20
1937.180894839132
 30
0.0
 11
4914.583859929815
 21
1937.180894839132
 31
0.0
  0
LINE
  5
18D7C
330
747D
100
AcDbEntity
  8
部品1
100
AcDbLine
 10
5678.054526158252
 20
1697.288573293599
 30
0.0
 11
5678.054526158252
 21
1937.180894839132
 31
0.0
  0
LINE
  5
18D7D
330
747D
100
AcDbEntity
  8
部品1
100
AcDbLine
 10
4914.583859929815
 20
1697.288573293599
 30
0.0
 11
5678.054526158252
 21
1697.288573293599
 31
0.0
  0
LINE
  5
18D7E
330
747D
100
AcDbEntity
  8
部品1
100
AcDbLine
 10
4914.583859929815
 20
1937.180894839132
 30
0.0
 11
4914.583859929815
 21
1697.288573293599
 31
0.0
  0
TEXT
  5
18D7F
330
747D
100
AcDbEntity
  8
部品1
100
AcDbText
 10
5004.029961353422
 20
1744.287365620607
 30
0.0
 40
135.0
  1
側面図
  7
STYLE2
100
AcDbText
  0
TEXT
  5
18D80
330
747D
100
AcDbEntity
  8
部品1
100
AcDbText
 10
3386.819913002837
 20
2662.326061422443
 30
0.0
 40
125.0
  1
▽G.L
  7
STYLE2
100
AcDbText
  0
LINE
  5
19018
330
747D
100
AcDbEntity
  8
部品1
100
AcDbLine
 10
10499.77953914158
 20
8317.024691904761
 30
0.0
 11
10527.77953914158
 21
8317.024691904761
 31
0.0
  0
LINE
  5
19019
330
747D
100
AcDbEntity
  8
部品1
100
AcDbLine
 10
8345.779539141558
 20
8317.024691904633
 30
0.0
 11
8317.779539141557
 21
8317.024691904633
 31
0.0
  0
LINE
  5
1901A
330
747D
100
AcDbEntity
  8
部品1
 48
50.0
100
AcDbLine
 10
10471.27953914156
 20
8317.024691904761
 30
0.0
 11
8374.279539141562
 21
8317.024691904848
 31
0.0
  0
LINE
  5
19163
330
747D
100
AcDbEntity
  8
補助
  6
PHANTOM
 62
   230
 48
50.0
100
AcDbLine
 10
140.0
 20
0.0
 30
0.0
 11
139.9999999999995
 21
11409.6
 31
0.0
  0
LINE
  5
194A7
330
747D
100
AcDbEntity
  8
寸法
 48
50.0
100
AcDbLine
 10
8807.982545423397
 20
7620.061443473453
 30
0.0
 11
8756.576537513295
 21
7620.061443473453
 31
0.0
  0
LINE
  5
194A8
330
747D
100
AcDbEntity
  8
寸法
 48
50.0
100
AcDbLine
 10
8756.576537513295
 20
7620.061443473453
 30
0.0
 11
8756.576537513295
 21
7651.371602125618
 31
0.0
  0
LINE
  5
194A9
330
747D
100
AcDbEntity
  8
寸法
 48
50.0
100
AcDbLine
 10
8756.576537513295
 20
7651.371602125618
 30
0.0
 11
8726.815205521871
 21
7651.371602125618
 31
0.0
  0
LINE
  5
194AA
330
747D
100
AcDbEntity
  8
寸法
 48
50.0
100
AcDbLine
 10
8726.815205521871
 20
7651.371602125618
 30
0.0
 11
8782.279541468346
 21
7688.951053054228
 31
0.0
  0
LINE
  5
194AB
330
747D
100
AcDbEntity
  8
寸法
 48
50.0
100
AcDbLine
 10
8837.743877414821
 20
7651.371602125618
 30
0.0
 11
8782.279541468346
 21
7688.951053054228
 31
0.0
  0
LINE
  5
194AC
330
747D
100
AcDbEntity
  8
寸法
 48
50.0
100
AcDbLine
 10
8807.982545423397
 20
7651.371602125618
 30
0.0
 11
8837.743877414821
 21
7651.371602125618
 31
0.0
  0
LINE
  5
194AD
330
747D
100
AcDbEntity
  8
寸法
 48
50.0
100
AcDbLine
 10
8807.982545423397
 20
7620.061443473453
 30
0.0
 11
8807.982545423397
 21
7651.371602125618
 31
0.0
  0
LINE
  5
194AE
330
747D
100
AcDbEntity
  8
寸法
 48
50.0
100
AcDbLine
 10
8756.576537513295
 20
7620.061443473453
 30
0.0
 11
8807.982545423397
 21
7620.061443473453
 31
0.0
  0
LINE
  5
194AF
330
747D
100
AcDbEntity
  8
寸法
 48
50.0
100
AcDbLine
 10
9087.148079700254
 20
7677.207034228274
 30
0.0
 11
9087.148079700254
 21
7623.543399646485
 31
0.0
  0
LINE
  5
194B0
330
747D
100
AcDbEntity
  8
寸法
 48
50.0
100
AcDbLine
 10
9176.432298295678
 20
7653.283399958789
 30
0.0
 11
9087.148079700254
 21
7677.207034228274
 31
0.0
  0
LINE
  5
194B1
330
747D
100
AcDbEntity
  8
寸法
 48
50.0
100
AcDbLine
 10
8957.280358119952
 20
7653.283399958789
 30
0.0
 11
9176.432298295678
 21
7653.283399958789
 31
0.0
  0
LINE
  5
194B2
330
747D
100
AcDbEntity
  8
細線
 48
50.0
100
AcDbLine
 10
9833.779539141557
 20
7818.524806853314
 30
0.0
 11
10460.77953914155
 21
7818.524806853314
 31
0.0
  0
LINE
  5
194B3
330
747D
100
AcDbEntity
  8
細線
 48
50.0
100
AcDbLine
 10
9179.779543795142
 20
7784.816038299239
 30
0.0
 11
10460.77953914155
 21
7784.816038299239
 31
0.0
  0
LINE
  5
194B4
330
747D
100
AcDbEntity
  8
細線
 48
50.0
100
AcDbLine
 10
9138.779543795147
 20
7814.220946295492
 30
0.0
 11
8384.779539141552
 21
7814.220946295489
 31
0.0
  0
LINE
  5
194B5
330
747D
100
AcDbEntity
  8
細線
100
AcDbLine
 10
10236.52952972509
 20
7838.024706818323
 30
0.0
 11
10238.8610692469
 21
7843.024709458285
 31
0.0
  0
LINE
  5
194B6
330
747D
100
AcDbEntity
  8
細線
100
AcDbLine
 10
10306.52953914155
 20
7838.02469190459
 30
0.0
 11
10304.19799266536
 21
7843.024709458269
 31
0.0
  0
LINE
  5
194B7
330
747D
100
AcDbEntity
  8
細線
100
AcDbLine
 10
10304.19799266536
 20
7843.024709458269
 30
0.0
 11
10238.86106924689
 21
7843.024709458255
 31
0.0
  0
LINE
  5
194B8
330
747D
100
AcDbEntity
  8
細線
100
AcDbLine
 10
10164.19799266536
 20
7843.024709458269
 30
0.0
 11
10098.86106924689
 21
7843.024709458255
 31
0.0
  0
LINE
  5
194B9
330
747D
100
AcDbEntity
  8
細線
100
AcDbLine
 10
10166.52953914155
 20
7838.02469190459
 30
0.0
 11
10164.19799266536
 21
7843.024709458269
 31
0.0
  0
LINE
  5
194BA
330
747D
100
AcDbEntity
  8
細線
100
AcDbLine
 10
10096.52952972509
 20
7838.024706818323
 30
0.0
 11
10098.8610692469
 21
7843.024709458285
 31
0.0
  0
LINE
  5
194BB
330
747D
100
AcDbEntity
  8
細線
100
AcDbLine
 10
9956.529539141554
 20
7838.02469190459
 30
0.0
 11
9958.861078663366
 21
7843.02469454455
 31
0.0
  0
LINE
  5
194BC
330
747D
100
AcDbEntity
  8
細線
100
AcDbLine
 10
10026.52954855801
 20
7838.024676990855
 30
0.0
 11
10024.19800208182
 21
7843.024694544536
 31
0.0
  0
LINE
  5
194BD
330
747D
100
AcDbEntity
  8
細線
100
AcDbLine
 10
10024.19800208182
 20
7843.024694544536
 30
0.0
 11
9958.861078663352
 21
7843.024694544522
 31
0.0
  0
LINE
  5
194BE
330
747D
100
AcDbEntity
  8
細線
100
AcDbLine
 10
9728.94802333066
 20
7809.024731241918
 30
0.0
 11
9663.611099912186
 21
7809.024731241904
 31
0.0
  0
LINE
  5
194BF
330
747D
100
AcDbEntity
  8
細線
100
AcDbLine
 10
9731.279569806849
 20
7804.024713688237
 30
0.0
 11
9728.94802333066
 21
7809.024731241918
 31
0.0
  0
LINE
  5
194C0
330
747D
100
AcDbEntity
  8
細線
100
AcDbLine
 10
9661.27956039039
 20
7804.024728601972
 30
0.0
 11
9663.6110999122
 21
7809.024731241932
 31
0.0
  0
LINE
  5
194C1
330
747D
100
AcDbEntity
  8
細線
 48
50.0
100
AcDbLine
 10
9502.662918389567
 20
7822.29555505767
 30
0.0
 11
9508.418435972236
 21
7804.024703767183
 31
0.0
  0
LINE
  5
194C2
330
747D
100
AcDbEntity
  8
細線
 48
50.0
100
AcDbLine
 10
9491.734469909138
 20
7822.29555505767
 30
0.0
 11
9502.662918389567
 21
7822.29555505767
 31
0.0
  0
ARC
  5
194C3
330
747D
100
AcDbEntity
  8
細線
 48
50.0
100
AcDbCircle
 10
9486.280113851815
 20
7823.79555505767
 30
0.0
 40
5.0
100
AcDbArc
 50
204.6243183521304
 51
335.3756816478695
  0
ARC
  5
194C4
330
747D
100
AcDbEntity
  8
細線
 48
50.0
100
AcDbCircle
 10
9491.734469909138
 20
7821.29555505767
 30
0.0
 40
1.0
100
AcDbArc
 50
90.0
 51
155.3756816478695
  0
ARC
  5
194C5
330
747D
100
AcDbEntity
  8
細線
 48
50.0
100
AcDbCircle
 10
9480.825757794502
 20
7821.29555505767
 30
0.0
 40
1.0
100
AcDbArc
 50
24.62431835213048
 51
90.0
  0
LINE
  5
194C6
330
747D
100
AcDbEntity
  8
細線
 48
50.0
100
AcDbLine
 10
9469.897309314067
 20
7822.29555505767
 30
0.0
 11
9480.825757794502
 21
7822.29555505767
 31
0.0
  0
LINE
  5
194C7
330
747D
100
AcDbEntity
  8
細線
 48
50.0
100
AcDbLine
 10
9464.1417917314
 20
7804.024703767176
 30
0.0
 11
9469.897309314067
 21
7822.29555505767
 31
0.0
  0
LINE
  5
194C8
330
747D
100
AcDbEntity
  8
細線
100
AcDbLine
 10
9521.279561621431
 20
7804.024701132981
 30
0.0
 11
9523.611101143243
 21
7809.024703772941
 31
0.0
  0
LINE
  5
194C9
330
747D
100
AcDbEntity
  8
細線
100
AcDbLine
 10
9591.279571037892
 20
7804.024686219246
 30
0.0
 11
9588.948024561702
 21
7809.024703772927
 31
0.0
  0
LINE
  5
194CA
330
747D
100
AcDbEntity
  8
細線
100
AcDbLine
 10
9588.948024561702
 20
7809.024703772927
 30
0.0
 11
9523.611101143229
 21
7809.024703772912
 31
0.0
  0
LINE
  5
194CB
330
747D
100
AcDbEntity
  8
細線
100
AcDbLine
 10
9448.947996197185
 20
7809.024703767147
 30
0.0
 11
9383.611072778709
 21
7809.024703767133
 31
0.0
  0
LINE
  5
194CC
330
747D
100
AcDbEntity
  8
細線
100
AcDbLine
 10
9451.279542673372
 20
7804.024686213466
 30
0.0
 11
9448.947996197185
 21
7809.024703767147
 31
0.0
  0
LINE
  5
194CD
330
747D
100
AcDbEntity
  8
細線
100
AcDbLine
 10
9381.279534487957
 20
7804.024703767176
 30
0.0
 11
9383.611072778725
 21
7809.024703767161
 31
0.0
  0
LINE
  5
194CE
330
747D
100
AcDbEntity
  8
細線
100
AcDbLine
 10
9241.279569806847
 20
7804.024711954546
 30
0.0
 11
9243.611108097615
 21
7809.024711954531
 31
0.0
  0
LINE
  5
194CF
330
747D
100
AcDbEntity
  8
細線
100
AcDbLine
 10
9311.279577992264
 20
7804.024694400836
 30
0.0
 11
9308.948031516077
 21
7809.024711954513
 31
0.0
  0
LINE
  5
194D0
330
747D
100
AcDbEntity
  8
細線
100
AcDbLine
 10
9308.948031516077
 20
7809.024711954513
 30
0.0
 11
9243.611108097601
 21
7809.024711954503
 31
0.0
  0
LINE
  5
194D1
330
747D
100
AcDbEntity
  8
細線
100
AcDbLine
 10
8869.779535609728
 20
7770.024883635258
 30
0.0
 11
8872.111073900494
 21
7775.024883635244
 31
0.0
  0
LINE
  5
194D2
330
747D
100
AcDbEntity
  8
細線
100
AcDbLine
 10
8939.779543795143
 20
7770.024866081545
 30
0.0
 11
8937.447997318955
 21
7775.024883635222
 31
0.0
  0
LINE
  5
194D3
330
747D
100
AcDbEntity
  8
細線
100
AcDbLine
 10
8937.447997318955
 20
7775.024883635222
 30
0.0
 11
8872.111073900484
 21
7775.024883635215
 31
0.0
  0
LINE
  5
194D4
330
747D
100
AcDbEntity
  8
細線
100
AcDbLine
 10
9077.447997318955
 20
7775.024883635222
 30
0.0
 11
9012.111073900483
 21
7775.024883635215
 31
0.0
  0
LINE
  5
194D5
330
747D
100
AcDbEntity
  8
細線
100
AcDbLine
 10
9079.779543795142
 20
7770.024866081545
 30
0.0
 11
9077.447997318955
 21
7775.024883635222
 31
0.0
  0
LINE
  5
194D6
330
747D
100
AcDbEntity
  8
細線
100
AcDbLine
 10
9009.779535609727
 20
7770.024883635258
 30
0.0
 11
9012.111073900495
 21
7775.024883635244
 31
0.0
  0
LINE
  5
194D7
330
747D
100
AcDbEntity
  8
細線
100
AcDbLine
 10
8797.447997318956
 20
7775.024883635222
 30
0.0
 11
8732.111073900483
 21
7775.024883635211
 31
0.0
  0
LINE
  5
194D8
330
747D
100
AcDbEntity
  8
細線
100
AcDbLine
 10
8799.779543795143
 20
7770.024866081545
 30
0.0
 11
8797.447997318956
 21
7775.024883635222
 31
0.0
  0
LINE
  5
194D9
330
747D
100
AcDbEntity
  8
細線
100
AcDbLine
 10
8729.779535609727
 20
7770.024883635255
 30
0.0
 11
8732.111073900496
 21
7775.024883635239
 31
0.0
  0
LINE
  5
194DA
330
747D
100
AcDbEntity
  8
細線
100
AcDbLine
 10
8589.779543795144
 20
7770.024883635258
 30
0.0
 11
8592.11108208591
 21
7775.024883635244
 31
0.0
  0
LINE
  5
194DB
330
747D
100
AcDbEntity
  8
細線
100
AcDbLine
 10
8659.779551980559
 20
7770.024866081545
 30
0.0
 11
8657.448005504372
 21
7775.024883635222
 31
0.0
  0
LINE
  5
194DC
330
747D
100
AcDbEntity
  8
細線
100
AcDbLine
 10
8657.448005504372
 20
7775.024883635222
 30
0.0
 11
8592.111082085899
 21
7775.024883635215
 31
0.0
  0
ARC
  5
194DD
330
747D
100
AcDbEntity
  8
部品1
 48
0.01
100
AcDbCircle
 10
8545.279432542807
 20
7769.023761450185
 30
0.0
 40
0.5
100
AcDbArc
 50
270.0
 51
0.0
  0
LINE
  5
194DE
330
747D
100
AcDbEntity
  8
部品1
 48
0.01
100
AcDbLine
 10
8545.779432542808
 20
7770.023761450186
 30
0.0
 11
8545.779432542808
 21
7769.023761450185
 31
0.0
  0
LINE
  5
194DF
330
747D
100
AcDbEntity
  8
部品1
 48
0.01
100
AcDbLine
 10
8545.779432542808
 20
7770.023761450186
 30
0.0
 11
8545.779432542808
 21
7769.023761450185
 31
0.0
  0
LINE
  5
194E0
330
747D
100
AcDbEntity
  8
部品1
 48
0.01
100
AcDbLine
 10
8545.279432542807
 20
7768.523761450186
 30
0.0
 11
8538.666927112743
 21
7768.523761450186
 31
0.0
  0
ARC
  5
194E1
330
747D
100
AcDbEntity
  8
部品1
100
AcDbCircle
 10
8538.735276665525
 20
7769.523761450186
 30
0.0
 40
1.0
100
AcDbArc
 50
160.5287793655778
 51
270.0
  0
ARC
  5
194E2
330
747D
100
AcDbEntity
  8
部品1
100
AcDbCircle
 10
8513.279432542807
 20
7778.523761450185
 30
0.0
 40
26.0
100
AcDbArc
 50
340.5287793655779
 51
0.0
  0
LINE
  5
194E3
330
747D
100
AcDbEntity
  8
部品1
100
AcDbLine
 10
8539.279432542809
 20
7778.523761450185
 30
0.0
 11
8539.279432542809
 21
7783.523761450187
 31
0.0
  0
ARC
  5
194E4
330
747D
100
AcDbEntity
  8
部品1
 48
0.01
100
AcDbCircle
 10
8537.279432542808
 20
7783.523761450187
 30
0.0
 40
2.0
100
AcDbArc
 50
0.0
 51
90.0
  0
ARC
  5
194E5
330
747D
100
AcDbEntity
  8
部品1
100
AcDbCircle
 10
8535.671040917998
 20
7782.523761450185
 30
0.0
 40
3.0
100
AcDbArc
 50
90.0
 51
141.6069559807873
  0
LINE
  5
194E6
330
747D
100
AcDbEntity
  8
部品1
 48
0.01
100
AcDbLine
 10
8537.279432542808
 20
7785.523761450185
 30
0.0
 11
8535.671040917998
 21
7785.523761450185
 31
0.0
  0
ARC
  5
194E7
330
747D
100
AcDbEntity
  8
部品1
100
AcDbCircle
 10
8517.208718328538
 20
7781.823761450188
 30
0.0
 40
3.0
100
AcDbArc
 50
254.0576313943215
 51
270.0
  0
ARC
  5
194E8
330
747D
100
AcDbEntity
  8
部品1
100
AcDbCircle
 10
8524.350146757079
 20
7781.823761450188
 30
0.0
 40
3.0
100
AcDbArc
 50
270.0
 51
285.9423686056786
  0
LINE
  5
194E9
330
747D
100
AcDbEntity
  8
部品1
100
AcDbLine
 10
8524.350146757079
 20
7778.823761450188
 30
0.0
 11
8517.208718328538
 21
7778.823761450188
 31
0.0
  0
ARC
  5
194EA
330
747D
100
AcDbEntity
  8
部品1
100
AcDbCircle
 10
8520.779432542807
 20
7794.323761450188
 30
0.0
 40
16.0
100
AcDbArc
 50
285.9423686056786
 51
321.6069559807873
  0
LINE
  5
194EB
330
747D
100
AcDbEntity
  8
部品1
 48
0.01
100
AcDbLine
 10
8504.279432542807
 20
7785.523761450185
 30
0.0
 11
8505.887824167619
 21
7785.523761450185
 31
0.0
  0
ARC
  5
194EC
330
747D
100
AcDbEntity
  8
部品1
100
AcDbCircle
 10
8505.887824167619
 20
7782.523761450185
 30
0.0
 40
3.0
100
AcDbArc
 50
38.39304401921267
 51
90.0
  0
ARC
  5
194ED
330
747D
100
AcDbEntity
  8
部品1
100
AcDbCircle
 10
8520.779432542807
 20
7794.323761450188
 30
0.0
 40
16.0
100
AcDbArc
 50
218.3930440192126
 51
254.0576313943215
  0
LINE
  5
194EE
330
747D
100
AcDbEntity
  8
部品1
100
AcDbLine
 10
8502.279432542808
 20
7778.523761450185
 30
0.0
 11
8502.279432542808
 21
7783.523761450187
 31
0.0
  0
ARC
  5
194EF
330
747D
100
AcDbEntity
  8
部品1
 48
0.01
100
AcDbCircle
 10
8504.279432542807
 20
7783.523761450187
 30
0.0
 40
2.0
100
AcDbArc
 50
90.0
 51
180.0
  0
ARC
  5
194F0
330
747D
100
AcDbEntity
  8
部品1
100
AcDbCircle
 10
8528.279432542808
 20
7778.523761450185
 30
0.0
 40
26.0
100
AcDbArc
 50
180.0
 51
199.4712206344221
  0
ARC
  5
194F1
330
747D
100
AcDbEntity
  8
部品1
 48
0.01
100
AcDbCircle
 10
8496.279432542808
 20
7769.023761450185
 30
0.0
 40
0.5
100
AcDbArc
 50
180.0
 51
270.0
  0
LINE
  5
194F2
330
747D
100
AcDbEntity
  8
部品1
 48
0.01
100
AcDbLine
 10
8496.279432542808
 20
7768.523761450186
 30
0.0
 11
8502.82358842009
 21
7768.523761450186
 31
0.0
  0
LINE
  5
194F3
330
747D
100
AcDbEntity
  8
部品1
 48
0.01
100
AcDbLine
 10
8495.779432542809
 20
7770.023761450186
 30
0.0
 11
8495.779432542809
 21
7769.023761450185
 31
0.0
  0
ARC
  5
194F4
330
747D
100
AcDbEntity
  8
部品1
100
AcDbCircle
 10
8502.82358842009
 20
7769.523761450186
 30
0.0
 40
1.0
100
AcDbArc
 50
270.0
 51
19.47122063442214
  0
LINE
  5
194F5
330
747D
100
AcDbEntity
  8
細線
100
AcDbLine
 10
8541.279432542815
 20
7788.023761450189
 30
0.0
 11
8500.279432542816
 21
7788.023761450182
 31
0.0
  0
LINE
  5
194F6
330
747D
100
AcDbEntity
  8
細線
100
AcDbLine
 10
8500.279432542816
 20
7788.023761450182
 30
0.0
 11
8500.279432542816
 21
7770.023761450165
 31
0.0
  0
LINE
  5
194F7
330
747D
100
AcDbEntity
  8
細線
100
AcDbLine
 10
8541.279432542815
 20
7788.023761450189
 30
0.0
 11
8541.279432542815
 21
7770.023761450165
 31
0.0
  0
LINE
  5
194F8
330
747D
100
AcDbEntity
  8
細線
100
AcDbLine
 10
8384.779539141552
 20
7774.02469190459
 30
0.0
 11
8384.779539141552
 21
7770.024691904636
 31
0.0
  0
DIMENSION
  5
194F9
330
747D
100
AcDbEntity
  8
寸法
 48
50.0
100
AcDbDimension
  2
*D30
 10
9650.779539141552
 20
7121.540709082437
 30
0.0
 11
8998.585108534475
 21
7121.540709082437
 31
0.0
 70
   160
  1
有効開口部間口\P<>
 71
     5
 42
1266.0
  3
INABA_S40
100
AcDbAlignedDimension
 13
8384.779539141552
 23
7765.024691904589
 33
0.0
 14
9650.779539141552
 24
7765.024691904589
 34
0.0
100
AcDbRotatedDimension
1001
ACAD
1000
DSTYLE
1002
{
1070
    41
1040
0.5
1070
    44
1040
1.0
1070
   147
1040
0.8
1070
   271
1070
     2
1070
   272
1070
     2
1070
   289
1070
     3
1070
   340
1005
F706
1070
   343
1005
1817E
1070
   344
1005
1817E
1002
}
  0
LINE
  5
194FA
330
747D
100
AcDbEntity
  8
部品1
100
AcDbLine
 10
10472.77953914155
 20
7842.024691904589
 30
0.0
 11
10499.77953914155
 21
7842.024691904589
 31
0.0
  0
LINE
  5
194FC
330
747D
100
AcDbEntity
  8
部品1
100
AcDbLine
 10
10499.77953914155
 20
7765.024691904589
 30
0.0
 11
10499.77953914155
 21
7842.024691904589
 31
0.0
  0
LINE
  5
194FD
330
747D
100
AcDbEntity
  8
部品1
100
AcDbLine
 10
10460.77953914155
 20
7838.02469190459
 30
0.0
 11
10472.77953914155
 21
7838.02469190459
 31
0.0
  0
LINE
  5
194FE
330
747D
100
AcDbEntity
  8
部品1
100
AcDbLine
 10
10469.77953914155
 20
7774.02469190459
 30
0.0
 11
10469.77953914155
 21
7765.024691904589
 31
0.0
  0
LINE
  5
194FF
330
747D
100
AcDbEntity
  8
部品1
100
AcDbLine
 10
10460.77953914155
 20
7774.02469190459
 30
0.0
 11
10469.77953914155
 21
7774.02469190459
 31
0.0
  0
LINE
  5
19500
330
747D
100
AcDbEntity
  8
部品1
100
AcDbLine
 10
10460.77953914155
 20
7838.02469190459
 30
0.0
 11
10460.77953914155
 21
7774.02469190459
 31
0.0
  0
LINE
  5
19501
330
747D
100
AcDbEntity
  8
部品1
100
AcDbLine
 10
10472.77953914155
 20
7869.024691904589
 30
0.0
 11
10472.77953914155
 21
7838.02469190459
 31
0.0
  0
LINE
  5
19502
330
747D
100
AcDbEntity
  8
部品1
100
AcDbLine
 10
8384.779539141552
 20
7838.02469190459
 30
0.0
 11
8372.779539141552
 21
7838.02469190459
 31
0.0
  0
LINE
  5
19503
330
747D
100
AcDbEntity
  8
部品1
100
AcDbLine
 10
8345.779539141553
 20
7842.024691904589
 30
0.0
 11
8372.779539141552
 21
7842.024691904589
 31
0.0
  0
LINE
  5
19504
330
747D
100
AcDbEntity
  8
部品1
100
AcDbLine
 10
8375.779539141552
 20
7774.02469190459
 30
0.0
 11
8375.779539141552
 21
7765.024691904589
 31
0.0
  0
LINE
  5
19505
330
747D
100
AcDbEntity
  8
部品1
100
AcDbLine
 10
8384.779539141552
 20
7774.02469190459
 30
0.0
 11
8375.779539141552
 21
7774.02469190459
 31
0.0
  0
LINE
  5
19506
330
747D
100
AcDbEntity
  8
部品1
100
AcDbLine
 10
8375.779539141552
 20
7765.024691904589
 30
0.0
 11
8345.779539141553
 21
7765.024691904589
 31
0.0
  0
LINE
  5
19507
330
747D
100
AcDbEntity
  8
部品1
100
AcDbLine
 10
8345.779539141553
 20
7765.024691904589
 30
0.0
 11
8345.779539141553
 21
7842.024691904589
 31
0.0
  0
LINE
  5
19508
330
747D
100
AcDbEntity
  8
部品1
100
AcDbLine
 10
8384.779539141552
 20
7838.02469190459
 30
0.0
 11
8384.779539141552
 21
7774.02469190459
 31
0.0
  0
LINE
  5
19509
330
747D
100
AcDbEntity
  8
部品1
100
AcDbLine
 10
8372.779539141552
 20
7869.024691904586
 30
0.0
 11
8372.779539141552
 21
7838.02469190459
 31
0.0
  0
LINE
  5
1950A
330
747D
100
AcDbEntity
  8
部品1
100
AcDbLine
 10
8372.779539141552
 20
7869.024691904586
 30
0.0
 11
10472.77953914155
 21
7869.024691904589
 31
0.0
  0
LINE
  5
1950B
330
747D
100
AcDbEntity
  8
部品1
100
AcDbLine
 10
10469.77953914155
 20
7765.024691904589
 30
0.0
 11
10499.77953914155
 21
7765.024691904589
 31
0.0
  0
LINE
  5
1950C
330
747D
100
AcDbEntity
  8
部品1
100
AcDbLine
 10
8375.779539141552
 20
7765.024691904589
 30
0.0
 11
10472.77953914155
 21
7765.024691904589
 31
0.0
  0
LINE
  5
1950D
330
747D
100
AcDbEntity
  8
細線
  6
Continuous
 62
     5
100
AcDbLine
 10
9751.779539141558
 20
7804.024691904586
 30
0.0
 11
9751.779539141558
 21
7804.024691904586
 31
0.0
  0
LINE
  5
1950E
330
747D
100
AcDbEntity
  8
細線
  6
Continuous
 62
     5
100
AcDbLine
 10
9744.279574460449
 20
7804.024701825643
 30
0.0
 11
9744.279574460449
 21
7804.024701825643
 31
0.0
  0
LINE
  5
1950F
330
747D
100
AcDbEntity
  8
細線
  6
Continuous
 62
     5
100
AcDbLine
 10
9738.279574460449
 20
7804.024701825643
 30
0.0
 11
9738.279574460449
 21
7804.024701825643
 31
0.0
  0
LINE
  5
19510
330
747D
100
AcDbEntity
  8
細線
  6
Continuous
 62
     5
100
AcDbLine
 10
9805.779539141557
 20
7823.024691904585
 30
0.0
 11
9805.779539141557
 21
7823.024691904585
 31
0.0
  0
LINE
  5
19511
330
747D
100
AcDbEntity
  8
細線
 48
50.0
100
AcDbLine
 10
8398.779543795146
 20
7790.624866081543
 30
0.0
 11
8398.779543795146
 21
7799.021016489183
 31
0.0
  0
LINE
  5
19512
330
747D
100
AcDbEntity
  8
細線
 48
50.0
100
AcDbLine
 10
8398.779543795146
 20
7799.021016489183
 30
0.0
 11
8384.779539141552
 21
7799.021016489179
 31
0.0
  0
LINE
  5
19513
330
747D
100
AcDbEntity
  8
細線
 48
50.0
100
AcDbLine
 10
9149.779543795142
 20
7787.174866081542
 30
0.0
 11
9149.779543795142
 21
7792.024866081544
 31
0.0
  0
LINE
  5
19514
330
747D
100
AcDbEntity
  8
細線
 48
50.0
100
AcDbLine
 10
9149.779543795142
 20
7792.024866081544
 30
0.0
 11
9164.779543795143
 21
7792.024866081544
 31
0.0
  0
LINE
  5
19515
330
747D
100
AcDbEntity
  8
細線
 48
50.0
100
AcDbLine
 10
9164.779543795143
 20
7792.024866081544
 30
0.0
 11
9164.779543795146
 21
7799.024866081545
 31
0.0
  0
LINE
  5
19516
330
747D
100
AcDbEntity
  8
細線
 48
50.0
100
AcDbLine
 10
9164.779543795146
 20
7799.024866081545
 30
0.0
 11
9179.779543795142
 21
7799.024866081545
 31
0.0
  0
LINE
  5
19517
330
747D
100
AcDbEntity
  8
細線
 48
50.0
100
AcDbLine
 10
9179.779543795142
 20
7799.024866081545
 30
0.0
 11
9179.779543795142
 21
7770.024866081545
 31
0.0
  0
LINE
  5
19518
330
747D
100
AcDbEntity
  8
細線
 48
50.0
100
AcDbLine
 10
8375.779539141552
 20
7770.022200425014
 30
0.0
 11
8589.779543795144
 21
7770.024883635258
 31
0.0
  0
LINE
  5
19519
330
747D
100
AcDbEntity
  8
細線
 48
50.0
100
AcDbLine
 10
9079.779543795142
 20
7770.024866081545
 30
0.0
 11
9179.779543795142
 21
7770.024866081545
 31
0.0
  0
LINE
  5
1951A
330
747D
100
AcDbEntity
  8
細線
 48
50.0
100
AcDbLine
 10
8799.779543795143
 20
7770.024866081545
 30
0.0
 11
8869.779543795143
 21
7770.024866081545
 31
0.0
  0
LINE
  5
1951B
330
747D
100
AcDbEntity
  8
細線
 48
50.0
100
AcDbLine
 10
8812.641508807672
 20
7770.024866081545
 30
0.0
 11
8818.397026390339
 21
7788.295717372038
 31
0.0
  0
LINE
  5
1951C
330
747D
100
AcDbEntity
  8
細線
 48
50.0
100
AcDbLine
 10
8818.397026390339
 20
7788.295717372038
 30
0.0
 11
8829.325474870774
 21
7788.295717372036
 31
0.0
  0
ARC
  5
1951D
330
747D
100
AcDbEntity
  8
細線
 48
50.0
100
AcDbCircle
 10
8829.325474870774
 20
7787.295717372035
 30
0.0
 40
1.0
100
AcDbArc
 50
24.62431835213048
 51
90.0
  0
ARC
  5
1951E
330
747D
100
AcDbEntity
  8
細線
 48
50.0
100
AcDbCircle
 10
8840.234186985407
 20
7787.295717372035
 30
0.0
 40
1.0
100
AcDbArc
 50
90.0
 51
155.3756816478695
  0
ARC
  5
1951F
330
747D
100
AcDbEntity
  8
細線
 48
50.0
100
AcDbCircle
 10
8834.779830928088
 20
7789.795717372036
 30
0.0
 40
5.0
100
AcDbArc
 50
204.6243183521304
 51
335.3756816478695
  0
LINE
  5
19520
330
747D
100
AcDbEntity
  8
細線
 48
50.0
100
AcDbLine
 10
8840.234186985407
 20
7788.295717372036
 30
0.0
 11
8851.16263546584
 21
7788.295717372038
 31
0.0
  0
LINE
  5
19521
330
747D
100
AcDbEntity
  8
細線
 48
50.0
100
AcDbLine
 10
8851.16263546584
 20
7788.295717372038
 30
0.0
 11
8856.918153048509
 21
7770.024866081545
 31
0.0
  0
LINE
  5
19522
330
747D
100
AcDbEntity
  8
細線
 48
50.0
100
AcDbLine
 10
9149.779543795142
 20
7790.624866081543
 30
0.0
 11
8398.779543795146
 21
7790.624866081543
 31
0.0
  0
LINE
  5
19523
330
747D
100
AcDbEntity
  8
細線
 48
50.0
100
AcDbLine
 10
9009.779543795144
 20
7770.024866081545
 30
0.0
 11
8939.779543795143
 21
7770.024866081545
 31
0.0
  0
LINE
  5
19524
330
747D
100
AcDbEntity
  8
細線
100
AcDbLine
 10
8729.779543795142
 20
7770.024866081545
 30
0.0
 11
8659.779551980559
 21
7770.024866081545
 31
0.0
  0
LINE
  5
19525
330
747D
100
AcDbEntity
  8
細線
 48
50.0
100
AcDbLine
 10
9803.779534487967
 20
7824.624909939412
 30
0.0
 11
9168.779543795142
 21
7824.624909939408
 31
0.0
  0
LINE
  5
19526
330
747D
100
AcDbEntity
  8
細線
 48
50.0
100
AcDbLine
 10
9168.779543795142
 20
7821.521060347051
 30
0.0
 11
9168.779543795142
 21
7826.021060347051
 31
0.0
  0
LINE
  5
19527
330
747D
100
AcDbEntity
  8
細線
 48
50.0
100
AcDbLine
 10
9168.779543795142
 20
7826.021060347051
 30
0.0
 11
9153.779543795144
 21
7826.021060347051
 31
0.0
  0
LINE
  5
19528
330
747D
100
AcDbEntity
  8
細線
 48
50.0
100
AcDbLine
 10
9153.779543795144
 20
7826.021060347051
 30
0.0
 11
9153.779543795144
 21
7833.021060347052
 31
0.0
  0
LINE
  5
19529
330
747D
100
AcDbEntity
  8
細線
 48
50.0
100
AcDbLine
 10
9153.779543795144
 20
7833.021060347052
 30
0.0
 11
9138.779543795147
 21
7833.021060347047
 31
0.0
  0
LINE
  5
1952A
330
747D
100
AcDbEntity
  8
細線
 48
50.0
100
AcDbLine
 10
9138.779543795147
 20
7833.021060347047
 30
0.0
 11
9138.779543795147
 21
7795.420832243937
 31
0.0
  0
LINE
  5
1952B
330
747D
100
AcDbEntity
  8
細線
 48
50.0
100
AcDbLine
 10
9138.779543795147
 20
7795.420832243937
 30
0.0
 11
9158.779551096319
 21
7795.420873793479
 31
0.0
  0
LINE
  5
1952C
330
747D
100
AcDbEntity
  8
細線
 48
50.0
100
AcDbLine
 10
9158.779506227377
 20
7804.024335429287
 30
0.0
 11
9158.779551096319
 21
7795.420873793479
 31
0.0
  0
LINE
  5
1952D
330
747D
100
AcDbEntity
  8
細線
 48
50.0
100
AcDbLine
 10
9803.779534487967
 20
7821.174909939411
 30
0.0
 11
9803.779534487967
 21
7826.02490993941
 31
0.0
  0
LINE
  5
1952E
330
747D
100
AcDbEntity
  8
細線
 48
50.0
100
AcDbLine
 10
9803.779534487967
 20
7826.02490993941
 30
0.0
 11
9818.779534487964
 21
7826.02490993941
 31
0.0
  0
LINE
  5
1952F
330
747D
100
AcDbEntity
  8
細線
 48
50.0
100
AcDbLine
 10
9818.779534487964
 20
7826.02490993941
 30
0.0
 11
9818.779546121939
 21
7833.024909939453
 31
0.0
  0
LINE
  5
19530
330
747D
100
AcDbEntity
  8
細線
 48
50.0
100
AcDbLine
 10
9818.779546121939
 20
7833.024909939453
 30
0.0
 11
9833.779544292468
 21
7833.024909939453
 31
0.0
  0
LINE
  5
19531
330
747D
100
AcDbEntity
  8
細線
 48
50.0
100
AcDbLine
 10
9833.779544292468
 20
7833.024909939453
 30
0.0
 11
9833.779533990648
 21
7804.02470376718
 31
0.0
  0
LINE
  5
19532
330
747D
100
AcDbEntity
  8
細線
 48
50.0
100
AcDbLine
 10
9521.279561621431
 20
7804.024711954546
 30
0.0
 11
9451.279813703848
 21
7804.024706517208
 31
0.0
  0
LINE
  5
19533
330
747D
100
AcDbEntity
  8
細線
 48
50.0
100
AcDbLine
 10
9158.779506227377
 20
7804.024335429287
 30
0.0
 11
9170.012195582087
 21
7804.024518382433
 31
0.0
  0
ARC
  5
19534
330
747D
100
AcDbEntity
  8
細線
 48
50.0
100
AcDbCircle
 10
9176.594487889422
 20
7802.824682296047
 30
0.0
 40
1.8
100
AcDbArc
 50
270.0006665777295
 51
345.0005554812987
  0
LINE
  5
19535
330
747D
100
AcDbEntity
  8
細線
 48
50.0
100
AcDbLine
 10
9178.580921335502
 20
7803.283522753325
 30
0.0
 11
9178.333158893304
 21
7802.358824871219
 31
0.0
  0
LINE
  5
19536
330
747D
100
AcDbEntity
  8
細線
 48
50.0
100
AcDbLine
 10
9176.594508830579
 20
7801.024682296167
 30
0.0
 11
9172.964581411809
 21
7801.024640065687
 31
0.0
  0
ARC
  5
19537
330
747D
100
AcDbEntity
  8
細線
 48
50.0
100
AcDbCircle
 10
9172.964560470656
 20
7802.824640065566
 30
0.0
 40
1.8
100
AcDbArc
 50
195.0010443049394
 51
270.0006665777295
  0
LINE
  5
19538
330
747D
100
AcDbEntity
  8
細線
 48
50.0
100
AcDbLine
 10
9170.978132978397
 20
7803.28335503313
 30
0.0
 11
9171.225902474912
 21
7802.358734094548
 31
0.0
  0
ARC
  5
19539
330
747D
100
AcDbEntity
  8
細線
 48
50.0
100
AcDbCircle
 10
9170.01221186965
 20
7803.024518382568
 30
0.0
 40
1.0
100
AcDbArc
 50
15.00104430493943
 51
90.00093320877969
  0
LINE
  5
1953A
330
747D
100
AcDbEntity
  8
細線
 48
50.0
100
AcDbLine
 10
9179.546842690603
 20
7804.024713072839
 30
0.0
 11
9180.48860284151
 21
7804.024719646688
 31
0.0
  0
ARC
  5
1953B
330
747D
100
AcDbEntity
  8
細線
 48
50.0
100
AcDbCircle
 10
9179.546849670991
 20
7803.024713072864
 30
0.0
 40
1.0
100
AcDbArc
 50
90.0003999466794
 51
165.0005554812987
  0
LINE
  5
1953C
330
747D
100
AcDbEntity
  8
細線
 48
50.0
100
AcDbLine
 10
9731.279534487956
 20
7804.02470376718
 30
0.0
 11
9833.779533990648
 21
7804.02470376718
 31
0.0
  0
LINE
  5
1953D
330
747D
100
AcDbEntity
  8
細線
 48
50.0
100
AcDbLine
 10
9241.279569806847
 20
7804.024711954546
 30
0.0
 11
9180.179508579929
 21
7804.024719646688
 31
0.0
  0
LINE
  5
1953E
330
747D
100
AcDbEntity
  8
細線
 48
50.0
100
AcDbLine
 10
9661.279569806849
 20
7804.02474879563
 30
0.0
 11
9591.279562852461
 21
7804.024703772959
 31
0.0
  0
LINE
  5
1953F
330
747D
100
AcDbEntity
  8
細線
 48
50.0
100
AcDbLine
 10
9381.279534487957
 20
7804.024703767176
 30
0.0
 11
9311.27951720008
 21
7804.024703767183
 31
0.0
  0
ARC
  5
19540
330
747D
100
AcDbEntity
  8
細線
 48
50.0
100
AcDbCircle
 10
9817.979539141566
 20
7837.224691904591
 30
0.0
 40
0.8
100
AcDbArc
 50
359.9997333689499
 51
89.99986668437072
  0
ARC
  5
19541
330
747D
100
AcDbEntity
  8
細線
 48
50.0
100
AcDbCircle
 10
9825.579545966659
 20
7837.224703073207
 30
0.0
 40
0.8
100
AcDbArc
 50
90.00014387753465
 51
179.9997333689498
  0
LINE
  5
19542
330
747D
100
AcDbEntity
  8
細線
 48
50.0
100
AcDbLine
 10
9817.979541002998
 20
7838.02469190459
 30
0.0
 11
9812.779539141553
 21
7838.02469190459
 31
0.0
  0
ARC
  5
19543
330
747D
100
AcDbEntity
  8
細線
 48
50.0
100
AcDbCircle
 10
9819.479539141553
 20
7835.724691904591
 30
0.0
 40
0.7
100
AcDbArc
 50
180.0
 51
270.0
  0
ARC
  5
19544
330
747D
100
AcDbEntity
  8
細線
 48
50.0
100
AcDbCircle
 10
9824.079539141557
 20
7835.724691904591
 30
0.0
 40
0.7
100
AcDbArc
 50
270.0
 51
0.0
  0
LINE
  5
19545
330
747D
100
AcDbEntity
  8
細線
 48
50.0
100
AcDbLine
 10
9824.779539141553
 20
7835.724691904591
 30
0.0
 11
9824.77954596667
 21
7837.224706796078
 31
0.0
  0
LINE
  5
19546
330
747D
100
AcDbEntity
  8
細線
 48
50.0
100
AcDbLine
 10
9819.479539141553
 20
7835.02469190459
 30
0.0
 11
9824.079539141557
 21
7835.02469190459
 31
0.0
  0
LINE
  5
19547
330
747D
100
AcDbEntity
  8
細線
 48
50.0
100
AcDbLine
 10
9818.779539141553
 20
7837.224691904591
 30
0.0
 11
9818.779539141553
 21
7835.724691904591
 31
0.0
  0
LINE
  5
19548
330
747D
100
AcDbEntity
  8
細線
 48
50.0
100
AcDbLine
 10
10444.37953914156
 20
7868.02469190459
 30
0.0
 11
9807.779539141554
 21
7868.024691904586
 31
0.0
  0
LINE
  5
19549
330
747D
100
AcDbEntity
  8
細線
 48
50.0
100
AcDbLine
 10
10470.27953914155
 20
7863.024691904593
 30
0.0
 11
10454.37953914156
 21
7863.02469190459
 31
0.0
  0
LINE
  5
1954A
330
747D
100
AcDbEntity
  8
細線
 48
50.0
100
AcDbLine
 10
10454.37953914155
 20
7863.02469190459
 30
0.0
 11
10444.37953914156
 21
7868.02469190459
 31
0.0
  0
LINE
  5
1954B
330
747D
100
AcDbEntity
  8
細線
100
AcDbLine
 10
10055.27953914155
 20
7838.02469190459
 30
0.0
 11
10055.27953914155
 21
7867.324691904589
 31
0.0
  0
LINE
  5
1954C
330
747D
100
AcDbEntity
  8
細線
100
AcDbLine
 10
10055.27953914155
 20
7867.324691904589
 30
0.0
 11
10075.27953914155
 21
7867.324691904589
 31
0.0
  0
LINE
  5
1954D
330
747D
100
AcDbEntity
  8
細線
100
AcDbLine
 10
10075.27953914155
 20
7838.02469190459
 30
0.0
 11
10075.27953914155
 21
7867.324691904589
 31
0.0
  0
LINE
  5
1954E
330
747D
100
AcDbEntity
  8
細線
100
AcDbLine
 10
10236.52953914155
 20
7838.02469190459
 30
0.0
 11
10166.52953914155
 21
7838.02469190459
 31
0.0
  0
LINE
  5
1954F
330
747D
100
AcDbEntity
  8
細線
 48
50.0
100
AcDbLine
 10
9956.529539141554
 20
7838.02469190459
 30
0.0
 11
9825.575318714397
 21
7838.02469190459
 31
0.0
  0
LINE
  5
19550
330
747D
100
AcDbEntity
  8
細線
100
AcDbLine
 10
10096.52953914155
 20
7838.02469190459
 30
0.0
 11
10026.52953914155
 21
7838.02469190459
 31
0.0
  0
LINE
  5
19551
330
747D
100
AcDbEntity
  8
細線
 48
50.0
100
AcDbLine
 10
9812.779539141553
 20
7830.024691904589
 30
0.0
 11
9812.779539141553
 21
7838.02469190459
 31
0.0
  0
LINE
  5
19552
330
747D
100
AcDbEntity
  8
細線
 48
50.0
100
AcDbLine
 10
9792.779539141553
 20
7830.024691904593
 30
0.0
 11
9812.779539141553
 21
7830.024691904589
 31
0.0
  0
LINE
  5
19553
330
747D
100
AcDbEntity
  8
細線
 48
50.0
100
AcDbLine
 10
9807.779539141554
 20
7868.02469190459
 30
0.0
 11
9807.779539141554
 21
7863.02469190459
 31
0.0
  0
LINE
  5
19554
330
747D
100
AcDbEntity
  8
細線
 48
50.0
100
AcDbLine
 10
9792.779539141553
 20
7868.024691904586
 30
0.0
 11
9807.779539141554
 21
7868.02469190459
 31
0.0
  0
LINE
  5
19555
330
747D
100
AcDbEntity
  8
細線
 48
50.0
100
AcDbLine
 10
9792.779539141553
 20
7830.024691904593
 30
0.0
 11
9792.779539141553
 21
7868.024691904586
 31
0.0
  0
LINE
  5
19556
330
747D
100
AcDbEntity
  8
細線
100
AcDbLine
 10
10460.77953914155
 20
7838.02469190459
 30
0.0
 11
10306.52953914155
 21
7838.02469190459
 31
0.0
  0
LINE
  5
19557
330
747D
100
AcDbEntity
  8
細線
 48
50.0
100
AcDbLine
 10
10470.27953914155
 20
7863.024691904593
 30
0.0
 11
10470.27953914155
 21
7838.02469190459
 31
0.0
  0
DIMENSION
  5
1978A
330
747D
100
AcDbEntity
  8
寸法
 48
50.0
100
AcDbDimension
  2
*D31
 10
10499.77953914155
 20
6844.894976476865
 30
0.0
 11
9444.912295888865
 21
6844.894976476865
 31
0.0
 70
   160
 71
     5
 42
2154.0
  3
INABA_S40G
100
AcDbAlignedDimension
 13
8345.779539141553
 23
7765.024691904634
 33
0.0
 14
10499.77953914155
 24
7765.024691904634
 34
0.0
100
AcDbRotatedDimension
1001
ACAD
1000
DSTYLE
1002
{
1070
   341
1005
0
1002
}
  0
DIMENSION
  5
1978B
330
747D
100
AcDbEntity
  8
寸法
100
AcDbDimension
  2
*D32
 10
8023.168293514855
 20
7767.024691904687
 30
0.0
 11
8023.168293514853
 21
7626.539410530449
 31
0.0
 70
   160
 71
     5
 42
75.0
  3
INABA_S40
100
AcDbAlignedDimension
 13
8317.779539141572
 23
7842.024691904687
 33
0.0
 14
8345.779539141553
 24
7767.024691904687
 34
0.0
 50
90.0
100
AcDbRotatedDimension
1001
ACAD
1000
DSTYLE
1002
{
1070
    41
1040
0.5
1070
    44
1040
1.0
1070
   147
1040
0.8
1070
   271
1070
     2
1070
   272
1070
     2
1070
   289
1070
     3
1070
   340
1005
F706
1070
   343
1005
1817E
1070
   344
1005
1817E
1002
}
  0
DIMENSION
  5
1984A
330
747D
100
AcDbEntity
  8
寸法
100
AcDbDimension
  2
*D33
 10
10527.77953914155
 20
6578.513462131541
 30
0.0
 11
9444.912295888865
 21
6578.513462131541
 31
0.0
 70
   160
 71
     5
 42
2209.999999999982
  3
INABA_S40G
100
AcDbAlignedDimension
 13
8317.779539141572
 23
7842.024691904622
 33
0.0
 14
10527.77953914155
 24
7842.02469190475
 34
0.0
100
AcDbRotatedDimension
1001
ACAD
1000
DSTYLE
1002
{
1002
}
  0
TEXT
  5
19856
330
747D
100
AcDbEntity
  8
部品1
100
AcDbText
 10
9130.963815856388
 20
6107.263017720574
 30
0.0
 40
135.0
  1
平面図
  7
STYLE2
100
AcDbText
  0
LINE
  5
19888
330
747D
100
AcDbEntity
  8
部品1
100
AcDbLine
 10
9041.044206027349
 20
6300.156546939097
 30
0.0
 11
9041.044206027349
 21
6060.264225393565
 31
0.0
  0
LINE
  5
19889
330
747D
100
AcDbEntity
  8
部品1
100
AcDbLine
 10
9041.044206027349
 20
6060.264225393565
 30
0.0
 11
9804.514872255786
 21
6060.264225393565
 31
0.0
  0
LINE
  5
1988A
330
747D
100
AcDbEntity
  8
部品1
100
AcDbLine
 10
9804.514872255786
 20
6060.264225393565
 30
0.0
 11
9804.514872255786
 21
6300.156546939097
 31
0.0
  0
LINE
  5
1988B
330
747D
100
AcDbEntity
  8
部品1
100
AcDbLine
 10
9804.514872255786
 20
6300.156546939097
 30
0.0
 11
9041.044206027349
 21
6300.156546939097
 31
0.0
  0
LWPOLYLINE
  5
19ABE
330
747D
100
AcDbEntity
  8
部品1
 48
50.0
100
AcDbPolyline
 90
        4
 70
     1
 43
0.0
 10
8444.82953914157
 20
3622.469157816541
 10
8447.729539141572
 20
3622.469157816541
 10
8447.729539141572
 20
3631.96915781654
 10
8444.82953914157
 20
3631.96915781654
  0
CIRCLE
  5
19ABF
330
747D
100
AcDbEntity
  8
部品1
 48
50.0
100
AcDbCircle
 10
8446.279539141571
 20
3627.21915781654
 30
0.0
 40
9.0
  0
ARC
  5
19AC0
330
747D
100
AcDbEntity
  8
細線
 48
50.0
100
AcDbCircle
 10
8446.279539141571
 20
3627.21915781654
 30
0.0
 40
4.0
100
AcDbArc
 50
111.2538091853132
 51
248.7461908146868
  0
ARC
  5
19AC1
330
747D
100
AcDbEntity
  8
細線
 48
50.0
100
AcDbCircle
 10
8446.279539141571
 20
3627.21915781654
 30
0.0
 40
17.5
100
AcDbArc
 50
306.4837370612677
 51
233.5162629387323
  0
LINE
  5
19AC2
330
747D
100
AcDbEntity
  8
細線
 48
50.0
100
AcDbLine
 10
8456.279539141567
 20
3603.360197235657
 30
0.0
 11
8456.279539141572
 21
3612.3446830359
 31
0.0
  0
LINE
  5
19AC3
330
747D
100
AcDbEntity
  8
細線
 48
50.0
100
AcDbLine
 10
8436.279539141571
 20
3603.360197235659
 30
0.0
 11
8436.279539141571
 21
3612.344683035895
 31
0.0
  0
ARC
  5
19AC4
330
747D
100
AcDbEntity
  8
細線
 48
50.0
100
AcDbCircle
 10
8446.279539141571
 20
3627.21915781654
 30
0.0
 40
26.5
100
AcDbArc
 50
249.3326835063939
 51
290.6673164933835
  0
ARC
  5
19AC5
330
747D
100
AcDbEntity
  8
細線
 48
50.0
100
AcDbCircle
 10
8455.279539141564
 20
3603.360197235657
 30
0.0
 40
1.0
100
AcDbArc
 50
290.6673164936062
 51
359.9999999998958
  0
ARC
  5
19AC6
330
747D
100
AcDbEntity
  8
細線
 48
50.0
100
AcDbCircle
 10
8437.27953914157
 20
3603.360197235659
 30
0.0
 40
1.0
100
AcDbArc
 50
180.0
 51
249.3326835066164
  0
ARC
  5
19AC7
330
747D
100
AcDbEntity
  8
細線
 48
50.0
100
AcDbCircle
 10
8435.279539141571
 20
3612.344683035895
 30
0.0
 40
1.0
100
AcDbArc
 50
0.0
 51
53.51626293873231
  0
ARC
  5
19AC8
330
747D
100
AcDbEntity
  8
細線
 48
50.0
100
AcDbCircle
 10
8457.279539141575
 20
3612.3446830359
 30
0.0
 40
1.0
100
AcDbArc
 50
126.4837370615127
 51
180.0
  0
ARC
  5
19AC9
330
747D
100
AcDbEntity
  8
細線
 48
50.0
100
AcDbCircle
 10
8446.279539141571
 20
3627.21915781654
 30
0.0
 40
21.5
100
AcDbArc
 50
255.8014401250294
 51
284.1985598749706
  0
ARC
  5
19ACA
330
747D
100
AcDbEntity
  8
細線
 48
50.0
100
AcDbCircle
 10
8446.279539141571
 20
3627.21915781654
 30
0.0
 40
16.5
100
AcDbArc
 50
251.9694646069326
 51
288.0305353930674
  0
LINE
  5
19ACB
330
747D
100
AcDbEntity
  8
細線
 48
50.0
100
AcDbLine
 10
8451.779539141572
 20
3606.666785690734
 30
0.0
 11
8451.779539141572
 21
3611.244177378071
 31
0.0
  0
LINE
  5
19ACC
330
747D
100
AcDbEntity
  8
細線
 48
50.0
100
AcDbLine
 10
8440.779539141571
 20
3606.666785690734
 30
0.0
 11
8440.779539141571
 21
3611.244177378068
 31
0.0
  0
ARC
  5
19ACD
330
747D
100
AcDbEntity
  8
細線
 48
50.0
100
AcDbCircle
 10
8441.079539141574
 20
3611.244177378068
 30
0.0
 40
0.3
100
AcDbArc
 50
71.96946460693259
 51
180.0
  0
ARC
  5
19ACE
330
747D
100
AcDbEntity
  8
細線
 48
50.0
100
AcDbCircle
 10
8451.479539141571
 20
3611.244177378071
 30
0.0
 40
0.3
100
AcDbArc
 50
0.0
 51
108.0305353930674
  0
ARC
  5
19ACF
330
747D
100
AcDbEntity
  8
細線
 48
50.0
100
AcDbCircle
 10
8451.479539141569
 20
3606.666785690734
 30
0.0
 40
0.3
100
AcDbArc
 50
284.1985598747622
 51
0.0000000001042204
  0
ARC
  5
19AD0
330
747D
100
AcDbEntity
  8
細線
 48
50.0
100
AcDbCircle
 10
8441.079539141574
 20
3606.666785690734
 30
0.0
 40
0.3
100
AcDbArc
 50
180.0
 51
255.8014401248081
  0
CIRCLE
  5
19AD1
330
747D
100
AcDbEntity
  8
細線
 48
50.0
100
AcDbCircle
 10
8446.279539141571
 20
3627.21915781654
 30
0.0
 40
12.0
  0
ARC
  5
19AD2
330
747D
100
AcDbEntity
  8
部品1
 48
50.0
100
AcDbCircle
 10
8446.279539141571
 20
3677.219157816541
 30
0.0
 40
8.5
100
AcDbArc
 50
114.315739171091
 51
245.684260828909
  0
CIRCLE
  5
19AD3
330
747D
100
AcDbEntity
  8
細線
 48
50.0
100
AcDbCircle
 10
8446.279539141571
 20
3677.219157816541
 30
0.0
 40
4.5
  0
LWPOLYLINE
  5
19AD4
330
747D
100
AcDbEntity
  8
部品1
 48
50.0
100
AcDbPolyline
 90
        2
 70
     0
 43
0.0
 10
8442.779539141572
 20
3695.894007213523
 10
8442.779539141572
 20
3684.965124508956
  0
CIRCLE
  5
19AD5
330
747D
100
AcDbEntity
  8
部品1
 48
50.0
100
AcDbCircle
 10
8446.279539141571
 20
3677.219157816541
 30
0.0
 40
19.0
  0
LWPOLYLINE
  5
19AD6
330
747D
100
AcDbEntity
  8
部品1
 48
50.0
100
AcDbPolyline
 90
        2
 70
     0
 43
0.0
 10
8442.779539141572
 20
3669.473191124126
 10
8442.779539141572
 20
3658.544308419557
  0
LWPOLYLINE
  5
19AD7
330
747D
100
AcDbEntity
  8
部品1
 48
50.0
100
AcDbPolyline
 90
        2
 70
     0
 43
0.0
 10
8449.779539141571
 20
3684.965124508956
 10
8449.779539141571
 20
3695.894007213523
  0
ARC
  5
19AD8
330
747D
100
AcDbEntity
  8
部品1
 48
50.0
100
AcDbCircle
 10
8446.279539141571
 20
3677.219157816541
 30
0.0
 40
8.5
100
AcDbArc
 50
294.315739171091
 51
65.68426082890896
  0
LWPOLYLINE
  5
19AD9
330
747D
100
AcDbEntity
  8
部品1
 48
50.0
100
AcDbPolyline
 90
        2
 70
     0
 43
0.0
 10
8449.779539141571
 20
3658.544308419557
 10
8449.779539141571
 20
3669.473191124126
  0
ARC
  5
19ADA
330
747D
100
AcDbEntity
  8
細線
 48
50.0
100
AcDbCircle
 10
8446.279539141571
 20
3677.219157816541
 30
0.0
 40
16.5
100
AcDbArc
 50
332.0012352654438
 51
27.99876473455621
  0
ARC
  5
19ADB
330
747D
100
AcDbEntity
  8
細線
 48
50.0
100
AcDbCircle
 10
8446.279539141571
 20
3677.219157816541
 30
0.0
 40
14.0
100
AcDbArc
 50
326.4074436112986
 51
33.59255638870134
  0
LINE
  5
19ADC
330
747D
100
AcDbEntity
  8
細線
 48
50.0
100
AcDbLine
 10
8431.710736857239
 20
3684.965124508956
 30
0.0
 11
8434.617635351882
 21
3684.965124508956
 31
0.0
  0
LINE
  5
19ADD
330
747D
100
AcDbEntity
  8
細線
 48
50.0
100
AcDbLine
 10
8431.710736857239
 20
3669.473191124126
 30
0.0
 11
8434.617635351882
 21
3669.473191124126
 31
0.0
  0
LINE
  5
19ADE
330
747D
100
AcDbEntity
  8
細線
 48
50.0
100
AcDbLine
 10
8457.941442931261
 20
3684.965124508956
 30
0.0
 11
8460.848341425906
 21
3684.965124508956
 31
0.0
  0
LINE
  5
19ADF
330
747D
100
AcDbEntity
  8
細線
 48
50.0
100
AcDbLine
 10
8457.941442931261
 20
3669.473191124126
 30
0.0
 11
8460.848341425906
 21
3669.473191124126
 31
0.0
  0
ARC
  5
19AE0
330
747D
100
AcDbEntity
  8
細線
 48
50.0
100
AcDbCircle
 10
8446.279539141571
 20
3677.219157816541
 30
0.0
 40
14.0
100
AcDbArc
 50
146.4074436112986
 51
213.5925563887013
  0
ARC
  5
19AE1
330
747D
100
AcDbEntity
  8
細線
 48
50.0
100
AcDbCircle
 10
8446.279539141571
 20
3677.219157816541
 30
0.0
 40
16.5
100
AcDbArc
 50
152.0012352654438
 51
207.9987647345562
  0
ARC
  5
19AE2
330
747D
100
AcDbEntity
  8
部品1
 48
50.0
100
AcDbCircle
 10
8419.77953914157
 20
3702.71915781654
 30
0.0
 40
5.0
100
AcDbArc
 50
90.0
 51
180.0
  0
ARC
  5
19AE3
330
747D
100
AcDbEntity
  8
部品1
 48
50.0
100
AcDbCircle
 10
8419.77953914157
 20
3591.71915781654
 30
0.0
 40
5.0
100
AcDbArc
 50
180.0
 51
270.0
  0
ARC
  5
19AE4
330
747D
100
AcDbEntity
  8
部品1
 48
50.0
100
AcDbCircle
 10
8472.779539141571
 20
3591.71915781654
 30
0.0
 40
5.0
100
AcDbArc
 50
270.0
 51
0.0
  0
ARC
  5
19AE5
330
747D
100
AcDbEntity
  8
部品1
 48
50.0
100
AcDbCircle
 10
8472.779539141571
 20
3702.71915781654
 30
0.0
 40
5.0
100
AcDbArc
 50
0.0
 51
90.0
  0
LINE
  5
19AE7
330
747D
100
AcDbEntity
  8
部品1
 48
50.0
100
AcDbLine
 10
8414.779539141571
 20
3591.71915781654
 30
0.0
 11
8414.779539141571
 21
3702.71915781654
 31
0.0
  0
LINE
  5
19AE8
330
747D
100
AcDbEntity
  8
部品1
 48
50.0
100
AcDbLine
 10
8472.779539141571
 20
3586.719157816541
 30
0.0
 11
8419.77953914157
 21
3586.719157816541
 31
0.0
  0
LINE
  5
19AE9
330
747D
100
AcDbEntity
  8
部品1
 48
50.0
100
AcDbLine
 10
8477.77953914157
 20
3702.71915781654
 30
0.0
 11
8477.77953914157
 21
3591.71915781654
 31
0.0
  0
ENDSEC
  0
SECTION
  2
OBJECTS
  0
DICTIONARY
  5
7471
330
0
100
AcDbDictionary
281
     1
  3
ACAD_COLOR
350
18173
  3
ACAD_GROUP
350
7472
  3
ACAD_LAYOUT
350
18174
  3
ACAD_MATERIAL
350
18172
  3
ACAD_MLINESTYLE
350
7473
  3
ACAD_PLOTSETTINGS
350
18175
  3
ACAD_PLOTSTYLENAME
350
18170
  3
ACDBHEADERROUNDTRIPXREC
350
19AF8
  3
AcDbVariableDictionary
350
19AF4
  3
CONTENTDICTIONARY
350
E71C
  3
DRAWINGVARIABLESDICT
350
F3B9
  0
DICTIONARY
  5
1830D
330
7467
100
AcDbDictionary
280
     1
281
     1
  3
ACAD_LAYERSTATES
360
1830E
  0
DICTIONARY
  5
18173
102
{ACAD_REACTORS
330
7471
102
}
330
7471
100
AcDbDictionary
281
     1
  0
DICTIONARY
  5
7472
102
{ACAD_REACTORS
330
7471
102
}
330
7471
100
AcDbDictionary
281
     1
  0
DICTIONARY
  5
18174
102
{ACAD_REACTORS
330
7471
102
}
330
7471
100
AcDbDictionary
281
     1
  3
Model
350
18176
  3
レイアウト1
350
18177
  0
DICTIONARY
  5
18172
102
{ACAD_REACTORS
330
7471
102
}
330
7471
100
AcDbDictionary
281
     1
  0
DICTIONARY
  5
7473
102
{ACAD_REACTORS
330
7471
102
}
330
7471
100
AcDbDictionary
281
     1
  3
STANDARD
350
7480
  0
DICTIONARY
  5
18175
102
{ACAD_REACTORS
330
7471
102
}
330
7471
100
AcDbDictionary
281
     1
  0
ACDBDICTIONARYWDFLT
  5
18170
102
{ACAD_REACTORS
330
7471
102
}
330
7471
100
AcDbDictionary
281
     1
  3
Normal
350
18171
100
AcDbDictionaryWithDefault
340
18171
  0
DICTIONARY
  5
19AF8
102
{ACAD_REACTORS
330
7471
102
}
330
7471
100
AcDbDictionary
281
     1
  3
COLORDICT
350
19AFA
  3
MATERIALDICT
350
19AF9
  0
DICTIONARY
  5
19AF4
102
{ACAD_REACTORS
330
7471
102
}
330
7471
100
AcDbDictionary
281
     1
  3
DIMASSOC
350
19AF5
  3
PROJECTNAME
350
19AF6
  0
DICTIONARY
  5
E71C
102
{ACAD_REACTORS
330
7471
102
}
330
7471
100
AcDbDictionary
281
     1
  0
DICTIONARY
  5
F3B9
102
{ACAD_REACTORS
330
7471
102
}
330
7471
100
AcDbDictionary
281
     1
1001
DRAWINGVARIABLESXDATA
1000
POLARMODE
1000
1
  0
DICTIONARY
  5
1830E
102
{ACAD_REACTORS
330
1830D
102
}
330
1830D
100
AcDbDictionary
281
     1
  0
LAYOUT
  5
18176
102
{ACAD_XDICTIONARY
360
19AFB
102
}
102
{ACAD_REACTORS
330
18174
102
}
330
18174
100
AcDbPlotSettings
  1

  2
Microsoft Office Document Image Writer
  4

  6

 40
0.0
 41
0.0
 42
0.0
 43
0.0
 44
0.0
 45
0.0
 46
0.0
 47
0.0
 48
0.0
 49
0.0
140
0.0
141
0.0
142
1.0
143
1.0
 70
  1712
 72
     0
 73
     0
 74
     0
  7

 75
     0
147
1.0
148
0.0
149
0.0
100
AcDbLayout
  1
Model
 70
     1
 71
     0
 10
0.0
 20
0.0
 11
12.0
 21
9.0
 12
0.0
 22
0.0
 32
0.0
 14
0.0
 24
0.0
 34
0.0
 15
0.0
 25
0.0
 35
0.0
146
0.0
 13
0.0
 23
0.0
 33
0.0
 16
1.0
 26
0.0
 36
0.0
 17
0.0
 27
1.0
 37
0.0
 76
     0
330
747D
  0
LAYOUT
  5
18177
102
{ACAD_XDICTIONARY
360
19AFD
102
}
102
{ACAD_REACTORS
330
18174
102
}
330
18174
100
AcDbPlotSettings
  1

  2
Microsoft Office Document Image Writer
  4

  6

 40
0.0
 41
0.0
 42
0.0
 43
0.0
 44
0.0
 45
0.0
 46
0.0
 47
0.0
 48
0.0
 49
0.0
140
0.0
141
0.0
142
1.0
143
1.0
 70
   688
 72
     0
 73
     0
 74
     5
  7

 75
    16
147
1.0
148
0.0
149
0.0
100
AcDbLayout
  1
レイアウト1
 70
     0
 71
     1
 10
0.0
 20
0.0
 11
420.0
 21
297.0
 12
0.0
 22
0.0
 32
0.0
 14
1.000000000000000E+20
 24
1.000000000000000E+20
 34
1.000000000000000E+20
 15
-1.000000000000000E+20
 25
-1.000000000000000E+20
 35
-1.000000000000000E+20
146
0.0
 13
0.0
 23
0.0
 33
0.0
 16
1.0
 26
0.0
 36
0.0
 17
0.0
 27
1.0
 37
0.0
 76
     0
330
747A
  0
MLINESTYLE
  5
7480
102
{ACAD_REACTORS
330
7473
102
}
330
7473
100
AcDbMlineStyle
  2
STANDARD
 70
     0
  3

 62
     0
 51
90.0
 52
90.0
 71
     2
 49
0.5
 62
   256
  6
BYLAYER
 49
-0.5
 62
   256
  6
BYLAYER
  0
ACDBPLACEHOLDER
  5
18171
102
{ACAD_REACTORS
330
18170
102
}
330
18170
  0
XRECORD
  5
19AFA
102
{ACAD_REACTORS
330
19AF8
102
}
330
19AF8
100
AcDbXrecord
280
     1
340
18173
  0
XRECORD
  5
19AF9
102
{ACAD_REACTORS
330
19AF8
102
}
330
19AF8
100
AcDbXrecord
280
     1
340
18172
  0
DICTIONARYVAR
  5
19AF5
102
{ACAD_REACTORS
330
19AF4
102
}
330
19AF4
100
DictionaryVariables
280
     0
  1
1
  0
DICTIONARYVAR
  5
19AF6
102
{ACAD_REACTORS
330
19AF4
102
}
330
19AF4
100
DictionaryVariables
280
     0
  1

  0
DICTIONARY
  5
19AFB
330
18176
100
AcDbDictionary
280
     1
281
     1
  3
ACAD_XREC_ROUNDTRIP
360
19AFC
  0
DICTIONARY
  5
19AFD
330
18177
100
AcDbDictionary
280
     1
281
     1
  3
ACAD_XREC_ROUNDTRIP
360
19AFE
  0
XRECORD
  5
19AFC
102
{ACAD_REACTORS
330
19AFB
102
}
330
19AFB
100
AcDbXrecord
280
     1
102
SHADEPLOT
 70
     0
102
SHADEPLOTRESLEVEL
 70
     2
102
SHADEPLOTCUSTOMDPI
 70
   300
  0
XRECORD
  5
19AFE
102
{ACAD_REACTORS
330
19AFD
102
}
330
19AFD
100
AcDbXrecord
280
     1
102
SHADEPLOT
 70
     0
102
SHADEPLOTRESLEVEL
 70
     2
102
SHADEPLOTCUSTOMDPI
 70
   300
  0
ENDSEC
  0
EOF
