  0
SECTION
  2
HEADER
  9
$ACADVER
  1
AC1015
  9
$ACADMAINTVER
 70
    20
  9
$DWGCODEPAGE
  3
ANSI_932
  9
$INSBASE
 10
0.0
 20
0.0
 30
0.0
  9
$EXTMIN
 10
139.9999999999995
 20
-0.0000000000000909
 30
0.0
  9
$EXTMAX
 10
16307.2
 20
11409.6
 30
0.0
  9
$LIMMIN
 10
-25.79074261211281
 20
-125.8223078213959
  9
$LIMMAX
 10
16471.10331197129
 20
11496.44801950658
  9
$ORTHOMODE
 70
     0
  9
$REGENMODE
 70
     1
  9
$FILLMODE
 70
     1
  9
$QTEXTMODE
 70
     0
  9
$MIRRTEXT
 70
     1
  9
$LTSCALE
 40
20.0
  9
$ATTMODE
 70
     1
  9
$TEXTSIZE
 40
4.0
  9
$TRACEWID
 40
1.0
  9
$TEXTSTYLE
  7
STYLE1
  9
$CLAYER
  8
部品1
  9
$CELTYPE
  6
BYLAYER
  9
$CECOLOR
 62
   256
  9
$CELTSCALE
 40
50.0
  9
$DISPSILH
 70
     0
  9
$DIMSCALE
 40
40.0
  9
$DIMASZ
 40
2.5
  9
$DIMEXO
 40
0.5
  9
$DIMDLI
 40
7.0
  9
$DIMRND
 40
0.0
  9
$DIMDLE
 40
0.0
  9
$DIMEXE
 40
1.5
  9
$DIMTP
 40
0.0
  9
$DIMTM
 40
0.0
  9
$DIMTXT
 40
3.0
  9
$DIMCEN
 40
0.0
  9
$DIMTSZ
 40
0.0
  9
$DIMTOL
 70
     0
  9
$DIMLIM
 70
     0
  9
$DIMTIH
 70
     0
  9
$DIMTOH
 70
     0
  9
$DIMSE1
 70
     0
  9
$DIMSE2
 70
     0
  9
$DIMTAD
 70
     3
  9
$DIMZIN
 70
     8
  9
$DIMBLK
  1

  9
$DIMASO
 70
     1
  9
$DIMSHO
 70
     1
  9
$DIMPOST
  1

  9
$DIMAPOST
  1

  9
$DIMALT
 70
     0
  9
$DIMALTD
 70
     2
  9
$DIMALTF
 40
0.0394
  9
$DIMLFAC
 40
1.0
  9
$DIMTOFL
 70
     1
  9
$DIMTVP
 40
0.0
  9
$DIMTIX
 70
     1
  9
$DIMSOXD
 70
     0
  9
$DIMSAH
 70
     1
  9
$DIMBLK1
  1
DOTSMALL
  9
$DIMBLK2
  1
DOTSMALL
  9
$DIMSTYLE
  2
INABA_S40G
  9
$DIMCLRD
 70
     0
  9
$DIMCLRE
 70
     0
  9
$DIMCLRT
 70
     7
  9
$DIMTFAC
 40
1.0
  9
$DIMGAP
 40
1.0
  9
$DIMJUST
 70
     0
  9
$DIMSD1
 70
     0
  9
$DIMSD2
 70
     0
  9
$DIMTOLJ
 70
     1
  9
$DIMTZIN
 70
     0
  9
$DIMALTZ
 70
     0
  9
$DIMALTTZ
 70
     0
  9
$DIMUPT
 70
     0
  9
$DIMDEC
 70
     1
  9
$DIMTDEC
 70
     4
  9
$DIMALTU
 70
     2
  9
$DIMALTTD
 70
     2
  9
$DIMTXSTY
  7
STYLE1
  9
$DIMAUNIT
 70
     0
  9
$DIMADEC
 70
     0
  9
$DIMALTRND
 40
0.0
  9
$DIMAZIN
 70
     0
  9
$DIMDSEP
 70
    46
  9
$DIMATFIT
 70
     3
  9
$DIMFRAC
 70
     0
  9
$DIMLDRBLK
  1

  9
$DIMLUNIT
 70
     2
  9
$DIMLWD
 70
    -2
  9
$DIMLWE
 70
    -2
  9
$DIMTMOVE
 70
     0
  9
$LUNITS
 70
     2
  9
$LUPREC
 70
     1
  9
$SKETCHINC
 40
1.0
  9
$FILLETRAD
 40
3.0
  9
$AUNITS
 70
     0
  9
$AUPREC
 70
     0
  9
$MENU
  1
acad
  9
$ELEVATION
 40
0.0
  9
$PELEVATION
 40
0.0
  9
$THICKNESS
 40
0.0
  9
$LIMCHECK
 70
     0
  9
$CHAMFERA
 40
0.0
  9
$CHAMFERB
 40
0.0
  9
$CHAMFERC
 40
0.0
  9
$CHAMFERD
 40
0.0
  9
$SKPOLY
 70
     0
  9
$TDCREATE
 40
2451368.612993866
  9
$TDUCREATE
 40
2451368.237993866
  9
$TDUPDATE
 40
2455575.682745579
  9
$TDUUPDATE
 40
2455575.307745579
  9
$TDINDWG
 40
0.4305071412
  9
$TDUSRTIMER
 40
0.4305071412
  9
$USRTIMER
 70
     1
  9
$ANGBASE
 50
0.0
  9
$ANGDIR
 70
     0
  9
$PDMODE
 70
     3
  9
$PDSIZE
 40
2.0
  9
$PLINEWID
 40
0.0
  9
$SPLFRAME
 70
     0
  9
$SPLINETYPE
 70
     6
  9
$SPLINESEGS
 70
     8
  9
$HANDSEED
  5
17FD1
  9
$SURFTAB1
 70
     6
  9
$SURFTAB2
 70
     6
  9
$SURFTYPE
 70
     6
  9
$SURFU
 70
     6
  9
$SURFV
 70
     6
  9
$UCSBASE
  2

  9
$UCSNAME
  2

  9
$UCSORG
 10
0.0
 20
0.0
 30
0.0
  9
$UCSXDIR
 10
1.0
 20
0.0
 30
0.0
  9
$UCSYDIR
 10
0.0
 20
1.0
 30
0.0
  9
$UCSORTHOREF
  2

  9
$UCSORTHOVIEW
 70
     0
  9
$UCSORGTOP
 10
0.0
 20
0.0
 30
0.0
  9
$UCSORGBOTTOM
 10
0.0
 20
0.0
 30
0.0
  9
$UCSORGLEFT
 10
0.0
 20
0.0
 30
0.0
  9
$UCSORGRIGHT
 10
0.0
 20
0.0
 30
0.0
  9
$UCSORGFRONT
 10
0.0
 20
0.0
 30
0.0
  9
$UCSORGBACK
 10
0.0
 20
0.0
 30
0.0
  9
$PUCSBASE
  2

  9
$PUCSNAME
  2

  9
$PUCSORG
 10
0.0
 20
0.0
 30
0.0
  9
$PUCSXDIR
 10
1.0
 20
0.0
 30
0.0
  9
$PUCSYDIR
 10
0.0
 20
1.0
 30
0.0
  9
$PUCSORTHOREF
  2

  9
$PUCSORTHOVIEW
 70
     0
  9
$PUCSORGTOP
 10
0.0
 20
0.0
 30
0.0
  9
$PUCSORGBOTTOM
 10
0.0
 20
0.0
 30
0.0
  9
$PUCSORGLEFT
 10
0.0
 20
0.0
 30
0.0
  9
$PUCSORGRIGHT
 10
0.0
 20
0.0
 30
0.0
  9
$PUCSORGFRONT
 10
0.0
 20
0.0
 30
0.0
  9
$PUCSORGBACK
 10
0.0
 20
0.0
 30
0.0
  9
$USERI1
 70
     0
  9
$USERI2
 70
     0
  9
$USERI3
 70
     0
  9
$USERI4
 70
     0
  9
$USERI5
 70
     0
  9
$USERR1
 40
0.0
  9
$USERR2
 40
0.0
  9
$USERR3
 40
0.0
  9
$USERR4
 40
0.0
  9
$USERR5
 40
0.0
  9
$WORLDVIEW
 70
     1
  9
$SHADEDGE
 70
     3
  9
$SHADEDIF
 70
    70
  9
$TILEMODE
 70
     1
  9
$MAXACTVP
 70
    16
  9
$PINSBASE
 10
0.0
 20
0.0
 30
0.0
  9
$PLIMCHECK
 70
     0
  9
$PEXTMIN
 10
1.000000000000000E+20
 20
1.000000000000000E+20
 30
1.000000000000000E+20
  9
$PEXTMAX
 10
-1.000000000000000E+20
 20
-1.000000000000000E+20
 30
-1.000000000000000E+20
  9
$PLIMMIN
 10
0.0
 20
0.0
  9
$PLIMMAX
 10
420.0
 20
297.0
  9
$UNITMODE
 70
     0
  9
$VISRETAIN
 70
     0
  9
$PLINEGEN
 70
     0
  9
$PSLTSCALE
 70
     0
  9
$TREEDEPTH
 70
  3020
  9
$CMLSTYLE
  2
STANDARD
  9
$CMLJUST
 70
     0
  9
$CMLSCALE
 40
1.0
  9
$PROXYGRAPHICS
 70
     1
  9
$MEASUREMENT
 70
     1
  9
$CELWEIGHT
370
    -1
  9
$ENDCAPS
280
     0
  9
$JOINSTYLE
280
     0
  9
$LWDISPLAY
290
     0
  9
$INSUNITS
 70
     0
  9
$HYPERLINKBASE
  1

  9
$STYLESHEET
  1
inaba.ctb
  9
$XEDIT
290
     1
  9
$CEPSNTYPE
380
     0
  9
$PSTYLEMODE
290
     1
  9
$FINGERPRINTGUID
  2
{D819D570-4CF1-4766-97ED-7EBE7E4C8AED}
  9
$VERSIONGUID
  2
{832FD9BC-F4B6-4814-9877-A83AE919E784}
  9
$EXTNAMES
290
     1
  9
$PSVPSCALE
 40
0.0
  9
$OLESTARTUP
290
     0
  0
ENDSEC
  0
SECTION
  2
CLASSES
  0
CLASS
  1
ACDBDICTIONARYWDFLT
  2
AcDbDictionaryWithDefault
  3
ObjectDBX Classes
 90
        0
280
     0
281
     0
  0
CLASS
  1
DICTIONARYVAR
  2
AcDbDictionaryVar
  3
ObjectDBX Classes
 90
        0
280
     0
281
     0
  0
CLASS
  1
ACDBPLACEHOLDER
  2
AcDbPlaceHolder
  3
ObjectDBX Classes
 90
        0
280
     0
281
     0
  0
CLASS
  1
LAYOUT
  2
AcDbLayout
  3
ObjectDBX Classes
 90
        0
280
     0
281
     0
  0
ENDSEC
  0
SECTION
  2
TABLES
  0
TABLE
  2
VPORT
  5
746D
330
0
100
AcDbSymbolTable
 70
     2
  0
VPORT
  5
17FC9
330
746D
100
AcDbSymbolTableRecord
100
AcDbViewportTableRecord
  2
*Active
 70
     0
 10
0.0
 20
0.0
 11
1.0
 21
1.0
 12
8223.761025238504
 22
5704.608037261908
 13
0.0
 23
0.0
 14
10.0
 24
10.0
 15
10.0
 25
10.0
 16
0.0
 26
0.0
 36
1.0
 17
0.0
 27
0.0
 37
0.0
 40
11495.08541324274
 41
1.525925925925925
 42
50.0
 43
0.0
 44
0.0
 50
0.0
 51
0.0
 71
     0
 72
     0
 73
     1
 74
     0
 75
     0
 76
     0
 77
     0
 78
     0
281
     0
 65
     1
110
0.0
120
0.0
130
0.0
111
1.0
121
0.0
131
0.0
112
0.0
122
1.0
132
0.0
 79
     0
146
0.0
  0
ENDTAB
  0
TABLE
  2
LTYPE
  5
746A
330
0
100
AcDbSymbolTable
 70
     4
  0
LTYPE
  5
7477
330
746A
100
AcDbSymbolTableRecord
100
AcDbLinetypeTableRecord
  2
BYBLOCK
 70
     0
  3

 72
    65
 73
     0
 40
0.0
  0
LTYPE
  5
7478
330
746A
100
AcDbSymbolTableRecord
100
AcDbLinetypeTableRecord
  2
BYLAYER
 70
     0
  3

 72
    65
 73
     0
 40
0.0
  0
LTYPE
  5
7479
330
746A
100
AcDbSymbolTableRecord
100
AcDbLinetypeTableRecord
  2
CONTINUOUS
 70
     0
  3
Solid line
 72
    65
 73
     0
 40
0.0
  0
LTYPE
  5
7816
330
746A
100
AcDbSymbolTableRecord
100
AcDbLinetypeTableRecord
  2
CENTER
 70
     0
  3
____ _ ____ _ ____ _ ____ _ ____ _ ____ _ ____ 
 72
    65
 73
     4
 40
2.0
 49
1.25
 74
     0
 49
-0.25
 74
     0
 49
0.25
 74
     0
 49
-0.25
 74
     0
  0
LTYPE
  5
781A
330
746A
100
AcDbSymbolTableRecord
100
AcDbLinetypeTableRecord
  2
HIDDEN
 70
     0
  3
__ __ __ __ __ __ __ __ __ __ __ __ __ __ __ __
 72
    65
 73
     2
 40
0.375
 49
0.25
 74
     0
 49
-0.125
 74
     0
  0
LTYPE
  5
781B
330
746A
100
AcDbSymbolTableRecord
100
AcDbLinetypeTableRecord
  2
PHANTOM
 70
     0
  3
______  __  __  ______  __  __  ______  __  __ 
 72
    65
 73
     6
 40
2.5
 49
1.25
 74
     0
 49
-0.25
 74
     0
 49
0.25
 74
     0
 49
-0.25
 74
     0
 49
0.25
 74
     0
 49
-0.25
 74
     0
  0
ENDTAB
  0
TABLE
  2
LAYER
  5
7467
102
{ACAD_XDICTIONARY
360
15CF7
102
}
330
0
100
AcDbSymbolTable
 70
    12
  0
LAYER
  5
7474
330
7467
100
AcDbSymbolTableRecord
100
AcDbLayerTableRecord
  2
0
 70
     0
 62
     7
  6
CONTINUOUS
370
    -3
390
15B5B
  0
LAYER
  5
DEB2
330
7467
100
AcDbSymbolTableRecord
100
AcDbLayerTableRecord
  2
センター
 70
     0
 62
     3
  6
CENTER
370
    -3
390
15B5B
  0
LAYER
  5
DEB3
330
7467
100
AcDbSymbolTableRecord
100
AcDbLayerTableRecord
  2
寸法
 70
     0
 62
     4
  6
CONTINUOUS
370
    -3
390
15B5B
  0
LAYER
  5
DEB4
330
7467
100
AcDbSymbolTableRecord
100
AcDbLayerTableRecord
  2
部品1
 70
     0
 62
     7
  6
CONTINUOUS
370
    -3
390
15B5B
  0
LAYER
  5
DEB5
330
7467
100
AcDbSymbolTableRecord
100
AcDbLayerTableRecord
  2
補助
 70
     0
 62
    -1
  6
CONTINUOUS
370
    -3
390
15B5B
  0
LAYER
  5
DEB6
330
7467
100
AcDbSymbolTableRecord
100
AcDbLayerTableRecord
  2
文字
 70
     0
 62
     7
  6
CONTINUOUS
370
    -3
390
15B5B
  0
LAYER
  5
F255
330
7467
100
AcDbSymbolTableRecord
100
AcDbLayerTableRecord
  2
DEFPOINTS
 70
     0
 62
     7
  6
CONTINUOUS
290
     0
370
    -3
390
15B5B
  0
LAYER
  5
10B54
330
7467
100
AcDbSymbolTableRecord
100
AcDbLayerTableRecord
  2
仕様書枠
 70
     0
 62
   230
  6
CONTINUOUS
370
    -3
390
15B5B
  0
LAYER
  5
11729
330
7467
100
AcDbSymbolTableRecord
100
AcDbLayerTableRecord
  2
Ｇ．Ｌ
 70
     0
 62
    30
  6
CONTINUOUS
370
    -3
390
15B5B
  0
LAYER
  5
1173F
330
7467
100
AcDbSymbolTableRecord
100
AcDbLayerTableRecord
  2
細線
 70
     0
 62
     5
  6
CONTINUOUS
370
    -3
390
15B5B
  0
LAYER
  5
12CC4
330
7467
100
AcDbSymbolTableRecord
100
AcDbLayerTableRecord
  2
想像線
 70
     0
 62
     6
  6
PHANTOM
370
    -3
390
15B5B
  0
LAYER
  5
142E2
330
7467
100
AcDbSymbolTableRecord
100
AcDbLayerTableRecord
  2
破線
 70
     0
 62
     2
  6
HIDDEN
370
    -3
390
15B5B
  0
ENDTAB
  0
TABLE
  2
STYLE
  5
7468
330
0
100
AcDbSymbolTable
 70
     4
  0
STYLE
  5
7475
330
7468
100
AcDbSymbolTableRecord
100
AcDbTextStyleTableRecord
  2
STANDARD
 70
     0
 40
0.0
 41
1.0
 50
0.0
 71
     0
 42
4.0
  3
txt
  4
C:\AutoCAD LT\bigfont.shx
  0
STYLE
  5
F706
330
7468
100
AcDbSymbolTableRecord
100
AcDbTextStyleTableRecord
  2
STYLE1
 70
     0
 40
0.0
 41
1.0
 50
0.0
 71
     0
 42
4.0
  3
isocp.shx
  4
bigfont.shx
  0
STYLE
  5
103BF
330
7468
100
AcDbSymbolTableRecord
100
AcDbTextStyleTableRecord
  2
STYLE2
 70
     0
 40
0.0
 41
1.0
 50
0.0
 71
     0
 42
100.0
  3
MS PGothic.ttf
  4

1001
ACAD
1000
MS PGothic
1071
    32818
  0
STYLE
  5
178BA
330
7468
100
AcDbSymbolTableRecord
100
AcDbTextStyleTableRecord
  2
STYLE3
 70
     0
 40
0.0
 41
1.0
 50
0.0
 71
     0
 42
100.0
  3
DFPGothic-EB.ttf
  4

1001
ACAD
1000
DFPGothic-EB
1071
    32818
  0
ENDTAB
  0
TABLE
  2
VIEW
  5
746B
330
0
100
AcDbSymbolTable
 70
     0
  0
ENDTAB
  0
TABLE
  2
UCS
  5
746C
330
0
100
AcDbSymbolTable
 70
     0
  0
ENDTAB
  0
TABLE
  2
APPID
  5
746E
330
0
100
AcDbSymbolTable
 70
     6
  0
APPID
  5
7476
330
746E
100
AcDbSymbolTableRecord
100
AcDbRegAppTableRecord
  2
ACAD
 70
     0
  0
APPID
  5
DEA9
330
746E
100
AcDbSymbolTableRecord
100
AcDbRegAppTableRecord
  2
CONTENTBLOCKICON
 70
     0
  0
APPID
  5
DEAA
330
746E
100
AcDbSymbolTableRecord
100
AcDbRegAppTableRecord
  2
CONTENTBLOCKDESCRIPTION
 70
     0
  0
APPID
  5
E71D
330
746E
100
AcDbSymbolTableRecord
100
AcDbRegAppTableRecord
  2
CONTENTTABDATA
 70
     0
  0
APPID
  5
E71E
330
746E
100
AcDbSymbolTableRecord
100
AcDbRegAppTableRecord
  2
CONTENTCURRENTTAB
 70
     0
  0
APPID
  5
F3BA
330
746E
100
AcDbSymbolTableRecord
100
AcDbRegAppTableRecord
  2
DRAWINGVARIABLESXDATA
 70
     0
  0
ENDTAB
  0
TABLE
  2
DIMSTYLE
  5
746F
330
0
100
AcDbSymbolTable
 70
     5
100
AcDbDimStyleTable
 71
     0
  0
DIMSTYLE
105
7484
330
746F
100
AcDbSymbolTableRecord
100
AcDbDimStyleTableRecord
  2
JIS
 70
     0
 41
2.5
 42
1.0
 43
7.0
 44
1.0
 73
     0
 74
     0
 77
     1
 78
     8
140
2.5
141
0.0
143
0.0394
147
0.0
172
     1
174
     1
175
     1
340
7475
  0
DIMSTYLE
105
F71F
102
{ACAD_REACTORS
330
160CF
330
16138
330
16139
330
1613A
330
16245
330
1625D
330
1625F
330
16278
330
1627B
330
1628D
330
16290
330
16291
330
16292
330
16293
330
16294
330
16297
330
168F3
330
168F4
330
168F5
330
168F6
330
168FA
330
168FB
330
168FC
330
168FD
330
1693C
330
1694F
330
16951
330
16955
330
17C4C
330
17D46
102
}
330
746F
100
AcDbSymbolTableRecord
100
AcDbDimStyleTableRecord
  2
INABA_S40G
 70
     0
 40
40.0
 41
2.5
 42
0.5
 43
7.0
 44
1.5
 73
     0
 74
     0
 77
     3
 78
     8
140
3.0
141
0.0
143
0.0394
147
1.0
172
     1
173
     1
174
     1
178
     7
271
     1
340
F706
341
F770
343
F770
344
F770
  0
DIMSTYLE
105
15CF6
102
{ACAD_REACTORS
330
179C6
330
17C4D
102
}
330
746F
100
AcDbSymbolTableRecord
100
AcDbDimStyleTableRecord
  2
INABA_S40
 70
     0
 40
40.0
 41
2.5
 42
0.5
 43
7.0
 44
1.5
 73
     0
 74
     0
 77
     3
 78
     8
140
3.0
141
0.0
143
0.0394
147
1.0
172
     1
173
     1
174
     1
175
     1
178
     7
340
7475
  0
DIMSTYLE
105
178BB
330
746F
100
AcDbSymbolTableRecord
100
AcDbDimStyleTableRecord
  2
INABA_S50G
 70
     0
 41
125.0
 42
25.0
 43
7.0
 44
75.0
 73
     0
 74
     0
 77
     3
 78
     8
140
150.0
141
0.0
143
0.0394
147
25.0
172
     1
173
     1
174
     1
175
     1
178
     7
271
     1
340
F706
341
F770
343
F770
344
F770
  0
DIMSTYLE
105
17F4F
330
746F
100
AcDbSymbolTableRecord
100
AcDbDimStyleTableRecord
  2
INABA_S20G
 70
     0
 40
20.0
 41
2.5
 42
0.5
 43
7.0
 44
1.5
 73
     0
 74
     0
 77
     3
 78
     8
140
3.0
141
0.0
143
0.0394
147
1.0
172
     1
173
     1
174
     1
178
     7
271
     1
340
F706
341
F770
343
F770
344
F770
  0
ENDTAB
  0
TABLE
  2
BLOCK_RECORD
  5
7466
330
0
100
AcDbSymbolTable
 70
    34
  0
BLOCK_RECORD
  5
747D
330
7466
100
AcDbSymbolTableRecord
100
AcDbBlockTableRecord
  2
*MODEL_SPACE
340
15B60
  0
BLOCK_RECORD
  5
747A
330
7466
100
AcDbSymbolTableRecord
100
AcDbBlockTableRecord
  2
*PAPER_SPACE
340
15B61
  0
BLOCK_RECORD
  5
F770
330
7466
100
AcDbSymbolTableRecord
100
AcDbBlockTableRecord
  2
_DOTSMALL
340
0
102
{BLKREFS
331
16DF8
331
16DF9
331
16E01
331
16E02
331
16E0B
331
16E0C
331
16E15
331
16E16
331
16E1E
331
16E1F
331
16E29
331
16E2A
331
16E32
331
16E33
331
16E3B
331
16E3C
331
16E46
331
16E47
331
16E50
331
16E51
331
16E59
331
16E5A
331
16E62
331
16E63
331
16E6B
331
16E6C
331
16EDF
331
16EE0
331
16EF1
331
16EF2
331
16EFC
331
16EFD
331
16F05
331
16F06
331
16F10
331
16F11
331
17EC1
331
17EC2
331
17ED5
331
17ED6
331
17EE7
331
17EE8
331
17EF0
331
17EF1
331
17EFB
331
17EFC
331
17F06
331
17F07
331
17F11
331
17F12
331
17F1A
331
17F1B
331
17F25
331
17F26
331
17F2E
331
17F2F
331
17F37
331
17F38
331
17F40
331
17F41
102
}
  0
BLOCK_RECORD
  5
15C0C
330
7466
100
AcDbSymbolTableRecord
100
AcDbBlockTableRecord
  2
_DOT
340
0
102
{BLKREFS
331
17ECC
331
17ECD
331
17EDE
331
17EDF
102
}
  0
BLOCK_RECORD
  5
1635E
330
7466
100
AcDbSymbolTableRecord
100
AcDbBlockTableRecord
  2
*D2
340
0
  0
BLOCK_RECORD
  5
1636C
330
7466
100
AcDbSymbolTableRecord
100
AcDbBlockTableRecord
  2
*D3
340
0
  0
BLOCK_RECORD
  5
16378
330
7466
100
AcDbSymbolTableRecord
100
AcDbBlockTableRecord
  2
*D4
340
0
  0
BLOCK_RECORD
  5
16386
330
7466
100
AcDbSymbolTableRecord
100
AcDbBlockTableRecord
  2
*D5
340
0
  0
BLOCK_RECORD
  5
1639E
330
7466
100
AcDbSymbolTableRecord
100
AcDbBlockTableRecord
  2
*D6
340
0
  0
BLOCK_RECORD
  5
163AA
330
7466
100
AcDbSymbolTableRecord
100
AcDbBlockTableRecord
  2
*D7
340
0
  0
BLOCK_RECORD
  5
163B6
330
7466
100
AcDbSymbolTableRecord
100
AcDbBlockTableRecord
  2
*D8
340
0
  0
BLOCK_RECORD
  5
163C2
330
7466
100
AcDbSymbolTableRecord
100
AcDbBlockTableRecord
  2
*D9
340
0
  0
BLOCK_RECORD
  5
163CE
330
7466
100
AcDbSymbolTableRecord
100
AcDbBlockTableRecord
  2
*D10
340
0
  0
BLOCK_RECORD
  5
163E8
330
7466
100
AcDbSymbolTableRecord
100
AcDbBlockTableRecord
  2
*D11
340
0
  0
BLOCK_RECORD
  5
163F4
330
7466
100
AcDbSymbolTableRecord
100
AcDbBlockTableRecord
  2
*D12
340
0
  0
BLOCK_RECORD
  5
16402
330
7466
100
AcDbSymbolTableRecord
100
AcDbBlockTableRecord
  2
*D13
340
0
  0
BLOCK_RECORD
  5
16410
330
7466
100
AcDbSymbolTableRecord
100
AcDbBlockTableRecord
  2
*D14
340
0
  0
BLOCK_RECORD
  5
1641E
330
7466
100
AcDbSymbolTableRecord
100
AcDbBlockTableRecord
  2
*D15
340
0
  0
BLOCK_RECORD
  5
1642A
330
7466
100
AcDbSymbolTableRecord
100
AcDbBlockTableRecord
  2
*D16
340
0
  0
BLOCK_RECORD
  5
16436
330
7466
100
AcDbSymbolTableRecord
100
AcDbBlockTableRecord
  2
*D17
340
0
  0
BLOCK_RECORD
  5
16A4E
330
7466
100
AcDbSymbolTableRecord
100
AcDbBlockTableRecord
  2
*D18
340
0
  0
BLOCK_RECORD
  5
16A5A
330
7466
100
AcDbSymbolTableRecord
100
AcDbBlockTableRecord
  2
*D19
340
0
  0
BLOCK_RECORD
  5
16A66
330
7466
100
AcDbSymbolTableRecord
100
AcDbBlockTableRecord
  2
*D20
340
0
  0
BLOCK_RECORD
  5
16A73
330
7466
100
AcDbSymbolTableRecord
100
AcDbBlockTableRecord
  2
*D21
340
0
  0
BLOCK_RECORD
  5
16A81
330
7466
100
AcDbSymbolTableRecord
100
AcDbBlockTableRecord
  2
*D22
340
0
  0
BLOCK_RECORD
  5
16A8D
330
7466
100
AcDbSymbolTableRecord
100
AcDbBlockTableRecord
  2
*D23
340
0
  0
BLOCK_RECORD
  5
16A99
330
7466
100
AcDbSymbolTableRecord
100
AcDbBlockTableRecord
  2
*D24
340
0
  0
BLOCK_RECORD
  5
16AA7
330
7466
100
AcDbSymbolTableRecord
100
AcDbBlockTableRecord
  2
*D25
340
0
  0
BLOCK_RECORD
  5
16AB3
330
7466
100
AcDbSymbolTableRecord
100
AcDbBlockTableRecord
  2
*D26
340
0
  0
BLOCK_RECORD
  5
16AC0
330
7466
100
AcDbSymbolTableRecord
100
AcDbBlockTableRecord
  2
*D27
340
0
  0
BLOCK_RECORD
  5
16ACD
330
7466
100
AcDbSymbolTableRecord
100
AcDbBlockTableRecord
  2
*D28
340
0
  0
BLOCK_RECORD
  5
16AD9
330
7466
100
AcDbSymbolTableRecord
100
AcDbBlockTableRecord
  2
*D29
340
0
  0
BLOCK_RECORD
  5
17A31
330
7466
100
AcDbSymbolTableRecord
100
AcDbBlockTableRecord
  2
*D30
340
0
  0
BLOCK_RECORD
  5
17D55
330
7466
100
AcDbSymbolTableRecord
100
AcDbBlockTableRecord
  2
*D31
340
0
  0
BLOCK_RECORD
  5
17D61
330
7466
100
AcDbSymbolTableRecord
100
AcDbBlockTableRecord
  2
*D32
340
0
  0
BLOCK_RECORD
  5
17DAD
330
7466
100
AcDbSymbolTableRecord
100
AcDbBlockTableRecord
  2
*D33
340
0
  0
ENDTAB
  0
ENDSEC
  0
SECTION
  2
BLOCKS
  0
BLOCK
  5
7489
330
747D
100
AcDbEntity
  8
0
100
AcDbBlockBegin
  2
*MODEL_SPACE
 70
     0
 10
0.0
 20
0.0
 30
0.0
  3
*MODEL_SPACE
  1

  0
ENDBLK
  5
748A
330
747D
100
AcDbEntity
  8
0
100
AcDbBlockEnd
  0
BLOCK
  5
7487
330
747A
100
AcDbEntity
 67
     1
  8
0
100
AcDbBlockBegin
  2
*PAPER_SPACE
 70
     0
 10
0.0
 20
0.0
 30
0.0
  3
*PAPER_SPACE
  1

  0
ENDBLK
  5
7488
330
747A
100
AcDbEntity
 67
     1
  8
0
100
AcDbBlockEnd
  0
BLOCK
  5
F771
330
F770
100
AcDbEntity
  8
0
 48
50.0
100
AcDbBlockBegin
  2
_DOTSMALL
 70
     0
 10
0.0
 20
0.0
 30
0.0
  3
_DOTSMALL
  1

  0
LWPOLYLINE
  5
F772
330
F770
100
AcDbEntity
  8
0
  6
ByBlock
 62
     0
 48
50.0
100
AcDbPolyline
 90
        2
 70
     1
 43
0.5
 10
-0.0625
 20
0.0
 42
1.0
 10
0.0625
 20
0.0
 42
1.0
  0
ENDBLK
  5
F776
330
F770
100
AcDbEntity
  8
0
 48
50.0
100
AcDbBlockEnd
  0
BLOCK
  5
15C0D
330
15C0C
100
AcDbEntity
  8
0
 48
50.0
100
AcDbBlockBegin
  2
_DOT
 70
     0
 10
0.0
 20
0.0
 30
0.0
  3
_DOT
  1

  0
LWPOLYLINE
  5
15C0E
330
15C0C
100
AcDbEntity
  8
0
  6
ByBlock
 62
     0
 48
50.0
100
AcDbPolyline
 90
        2
 70
     1
 43
0.5
 10
-0.25
 20
0.0
 42
1.0
 10
0.25
 20
0.0
 42
1.0
  0
LINE
  5
15C0F
330
15C0C
100
AcDbEntity
  8
0
  6
ByBlock
 62
     0
 48
50.0
100
AcDbLine
 10
-0.5
 20
0.0
 30
0.0
 11
-1.0
 21
0.0
 31
0.0
  0
ENDBLK
  5
15C10
330
15C0C
100
AcDbEntity
  8
0
 48
50.0
100
AcDbBlockEnd
  0
BLOCK
  5
1636A
330
1635E
100
AcDbEntity
  8
0
 48
50.0
100
AcDbBlockBegin
  2
*D2
 70
     1
 10
0.0
 20
0.0
 30
0.0
  3
*D2
  1

  0
LINE
  5
16F0B
330
1635E
100
AcDbEntity
  8
寸法
 62
     0
 48
50.0
370
    -2
100
AcDbLine
 10
10911.78710270131
 20
4621.831130103705
 30
0.0
 11
10911.78710270131
 21
5060.924299443176
 31
0.0
  0
LINE
  5
16F0C
330
1635E
100
AcDbEntity
  8
寸法
 62
     0
 48
50.0
370
    -2
100
AcDbLine
 10
10861.78710270131
 20
4621.831130103708
 30
0.0
 11
10861.78710270131
 21
5060.924299443176
 31
0.0
  0
LINE
  5
16F0D
330
1635E
100
AcDbEntity
  8
寸法
 62
     0
 48
50.0
370
    -2
100
AcDbLine
 10
10861.78710270131
 20
5000.924299443176
 30
0.0
 11
10761.78710270131
 21
5000.924299443176
 31
0.0
  0
LINE
  5
16F0E
330
1635E
100
AcDbEntity
  8
寸法
 62
     0
 48
50.0
370
    -2
100
AcDbLine
 10
10911.78710270131
 20
5000.924299443176
 30
0.0
 11
11331.31962817004
 21
5000.924299443176
 31
0.0
  0
LINE
  5
16F0F
330
1635E
100
AcDbEntity
  8
寸法
 62
     0
 48
50.0
370
    -2
100
AcDbLine
 10
10861.78710270131
 20
5000.924299443176
 30
0.0
 11
10911.78710270131
 21
5000.924299443176
 31
0.0
  0
INSERT
  5
16F10
330
1635E
100
AcDbEntity
  8
寸法
 62
     0
 48
50.0
370
    -2
100
AcDbBlockReference
  2
_DOTSMALL
 10
10861.78710270131
 20
5000.924299443176
 30
0.0
 41
100.0
 42
100.0
 43
100.0
  0
INSERT
  5
16F11
330
1635E
100
AcDbEntity
  8
寸法
 62
     0
 48
50.0
370
    -2
100
AcDbBlockReference
  2
_DOTSMALL
 10
10911.78710270131
 20
5000.924299443176
 30
0.0
 41
100.0
 42
100.0
 43
100.0
 50
180.0
  0
MTEXT
  5
16F12
330
1635E
100
AcDbEntity
  8
寸法
 62
     7
 48
50.0
100
AcDbMText
 10
11225.27238407555
 20
5100.924299443176
 30
0.0
 40
120.0
 41
0.0
 71
     5
 72
     1
  1
\A1;50
  7
STYLE1
 73
     1
 44
1.0
1001
ACAD
1000
MTEXTBEGIN
1070
    73
1070
     1
1070
    44
1040
1.0
1070
    74
1070
     0
1000
MTEXTEND
  0
POINT
  5
16F13
330
1635E
100
AcDbEntity
  8
DEFPOINTS
 62
     0
 48
50.0
100
AcDbPoint
 10
10911.78710270131
 20
4601.831130103706
 30
0.0
  0
POINT
  5
16F14
330
1635E
100
AcDbEntity
  8
DEFPOINTS
 62
     0
 48
50.0
100
AcDbPoint
 10
10861.78710270131
 20
4601.831130103708
 30
0.0
  0
POINT
  5
16F15
330
1635E
100
AcDbEntity
  8
DEFPOINTS
 62
     0
 48
50.0
100
AcDbPoint
 10
10861.78710270131
 20
5000.924299443176
 30
0.0
  0
ENDBLK
  5
1636B
330
1635E
100
AcDbEntity
  8
0
 48
50.0
100
AcDbBlockEnd
  0
BLOCK
  5
16376
330
1636C
100
AcDbEntity
  8
0
 48
50.0
100
AcDbBlockBegin
  2
*D3
 70
     1
 10
0.0
 20
0.0
 30
0.0
  3
*D3
  1

  0
LINE
  5
16F02
330
1636C
100
AcDbEntity
  8
寸法
 62
     0
 48
50.0
370
    -2
100
AcDbLine
 10
8601.787102701313
 20
4621.831130103708
 30
0.0
 11
8601.787102701313
 21
5277.450399061621
 31
0.0
  0
LINE
  5
16F03
330
1636C
100
AcDbEntity
  8
寸法
 62
     0
 48
50.0
370
    -2
100
AcDbLine
 10
10911.78710270131
 20
4621.831130103705
 30
0.0
 11
10911.78710270131
 21
5277.450399061621
 31
0.0
  0
LINE
  5
16F04
330
1636C
100
AcDbEntity
  8
寸法
 62
     0
 48
50.0
370
    -2
100
AcDbLine
 10
8601.787102701313
 20
5217.450399061622
 30
0.0
 11
10911.78710270131
 21
5217.450399061622
 31
0.0
  0
INSERT
  5
16F05
330
1636C
100
AcDbEntity
  8
寸法
 62
     0
 48
50.0
370
    -2
100
AcDbBlockReference
  2
_DOTSMALL
 10
8601.787102701313
 20
5217.450399061622
 30
0.0
 41
100.0
 42
100.0
 43
100.0
 50
180.0
  0
INSERT
  5
16F06
330
1636C
100
AcDbEntity
  8
寸法
 62
     0
 48
50.0
370
    -2
100
AcDbBlockReference
  2
_DOTSMALL
 10
10911.78710270131
 20
5217.450399061622
 30
0.0
 41
100.0
 42
100.0
 43
100.0
  0
MTEXT
  5
16F07
330
1636C
100
AcDbEntity
  8
寸法
 62
     7
 48
50.0
100
AcDbMText
 10
9756.787102701315
 20
5317.462210085243
 30
0.0
 40
120.0
 41
0.0
 71
     5
 72
     1
  1
\A1;2310
  7
STYLE1
 73
     1
 44
1.0
1001
ACAD
1000
MTEXTBEGIN
1070
    73
1070
     1
1070
    44
1040
1.0
1070
    74
1070
     0
1000
MTEXTEND
  0
POINT
  5
16F08
330
1636C
100
AcDbEntity
  8
DEFPOINTS
 62
     0
 48
50.0
100
AcDbPoint
 10
8601.787102701313
 20
4601.831130103708
 30
0.0
  0
POINT
  5
16F09
330
1636C
100
AcDbEntity
  8
DEFPOINTS
 62
     0
 48
50.0
100
AcDbPoint
 10
10911.78710270131
 20
4601.831130103706
 30
0.0
  0
POINT
  5
16F0A
330
1636C
100
AcDbEntity
  8
DEFPOINTS
 62
     0
 48
50.0
100
AcDbPoint
 10
10911.78710270131
 20
5217.450399061622
 30
0.0
  0
ENDBLK
  5
16377
330
1636C
100
AcDbEntity
  8
0
 48
50.0
100
AcDbBlockEnd
  0
BLOCK
  5
16384
330
16378
100
AcDbEntity
  8
0
 48
50.0
100
AcDbBlockBegin
  2
*D4
 70
     1
 10
0.0
 20
0.0
 30
0.0
  3
*D4
  1

  0
LINE
  5
16EF7
330
16378
100
AcDbEntity
  8
寸法
 62
     0
 48
50.0
370
    -2
100
AcDbLine
 10
8651.787102701312
 20
4621.831130103709
 30
0.0
 11
8651.787102701312
 21
5060.924299443176
 31
0.0
  0
LINE
  5
16EF8
330
16378
100
AcDbEntity
  8
寸法
 62
     0
 48
50.0
370
    -2
100
AcDbLine
 10
8601.787102701313
 20
4621.831130103708
 30
0.0
 11
8601.787102701313
 21
5060.924299443176
 31
0.0
  0
LINE
  5
16EF9
330
16378
100
AcDbEntity
  8
寸法
 62
     0
 48
50.0
370
    -2
100
AcDbLine
 10
8651.787102701312
 20
5000.924299443176
 30
0.0
 11
8751.787102701312
 21
5000.924299443176
 31
0.0
  0
LINE
  5
16EFA
330
16378
100
AcDbEntity
  8
寸法
 62
     0
 48
50.0
370
    -2
100
AcDbLine
 10
8601.787102701313
 20
5000.924299443176
 30
0.0
 11
8182.254577232578
 21
5000.924299443176
 31
0.0
  0
LINE
  5
16EFB
330
16378
100
AcDbEntity
  8
寸法
 62
     0
 48
50.0
370
    -2
100
AcDbLine
 10
8651.787102701312
 20
5000.924299443176
 30
0.0
 11
8601.787102701313
 21
5000.924299443176
 31
0.0
  0
INSERT
  5
16EFC
330
16378
100
AcDbEntity
  8
寸法
 62
     0
 48
50.0
370
    -2
100
AcDbBlockReference
  2
_DOTSMALL
 10
8651.787102701312
 20
5000.924299443176
 30
0.0
 41
100.0
 42
100.0
 43
100.0
 50
180.0
  0
INSERT
  5
16EFD
330
16378
100
AcDbEntity
  8
寸法
 62
     0
 48
50.0
370
    -2
100
AcDbBlockReference
  2
_DOTSMALL
 10
8601.787102701313
 20
5000.924299443176
 30
0.0
 41
100.0
 42
100.0
 43
100.0
  0
MTEXT
  5
16EFE
330
16378
100
AcDbEntity
  8
寸法
 62
     7
 48
50.0
100
AcDbMText
 10
8288.301821327065
 20
5100.924299443176
 30
0.0
 40
120.0
 41
0.0
 71
     5
 72
     1
  1
\A1;50
  7
STYLE1
 73
     1
 44
1.0
1001
ACAD
1000
MTEXTBEGIN
1070
    73
1070
     1
1070
    44
1040
1.0
1070
    74
1070
     0
1000
MTEXTEND
  0
POINT
  5
16EFF
330
16378
100
AcDbEntity
  8
DEFPOINTS
 62
     0
 48
50.0
100
AcDbPoint
 10
8651.787102701312
 20
4601.831130103709
 30
0.0
  0
POINT
  5
16F00
330
16378
100
AcDbEntity
  8
DEFPOINTS
 62
     0
 48
50.0
100
AcDbPoint
 10
8601.787102701313
 20
4601.831130103708
 30
0.0
  0
POINT
  5
16F01
330
16378
100
AcDbEntity
  8
DEFPOINTS
 62
     0
 48
50.0
100
AcDbPoint
 10
8601.787102701313
 20
5000.924299443176
 30
0.0
  0
ENDBLK
  5
16385
330
16378
100
AcDbEntity
  8
0
 48
50.0
100
AcDbBlockEnd
  0
BLOCK
  5
16390
330
16386
100
AcDbEntity
  8
0
 48
50.0
100
AcDbBlockBegin
  2
*D5
 70
     1
 10
0.0
 20
0.0
 30
0.0
  3
*D5
  1

  0
LINE
  5
16EEE
330
16386
100
AcDbEntity
  8
寸法
 62
     0
 48
50.0
370
    -2
100
AcDbLine
 10
10861.78710270131
 20
4621.831130103708
 30
0.0
 11
10861.78710270131
 21
5060.924299443176
 31
0.0
  0
LINE
  5
16EEF
330
16386
100
AcDbEntity
  8
寸法
 62
     0
 48
50.0
370
    -2
100
AcDbLine
 10
8651.787102701312
 20
4621.831130103709
 30
0.0
 11
8651.787102701312
 21
5060.924299443176
 31
0.0
  0
LINE
  5
16EF0
330
16386
100
AcDbEntity
  8
寸法
 62
     0
 48
50.0
370
    -2
100
AcDbLine
 10
10861.78710270131
 20
5000.924299443176
 30
0.0
 11
8651.787102701312
 21
5000.924299443176
 31
0.0
  0
INSERT
  5
16EF1
330
16386
100
AcDbEntity
  8
寸法
 62
     0
 48
50.0
370
    -2
100
AcDbBlockReference
  2
_DOTSMALL
 10
10861.78710270131
 20
5000.924299443176
 30
0.0
 41
100.0
 42
100.0
 43
100.0
  0
INSERT
  5
16EF2
330
16386
100
AcDbEntity
  8
寸法
 62
     0
 48
50.0
370
    -2
100
AcDbBlockReference
  2
_DOTSMALL
 10
8651.787102701312
 20
5000.924299443176
 30
0.0
 41
100.0
 42
100.0
 43
100.0
 50
180.0
  0
MTEXT
  5
16EF3
330
16386
100
AcDbEntity
  8
寸法
 62
     7
 48
50.0
100
AcDbMText
 10
9756.787102701315
 20
5100.936110466798
 30
0.0
 40
120.0
 41
0.0
 71
     5
 72
     1
  1
\A1;柱外寸法2210
  7
STYLE1
 73
     1
 44
1.0
1001
ACAD
1000
MTEXTBEGIN
1070
    73
1070
     1
1070
    44
1040
1.0
1070
    74
1070
     0
1000
MTEXTEND
  0
POINT
  5
16EF4
330
16386
100
AcDbEntity
  8
DEFPOINTS
 62
     0
 48
50.0
100
AcDbPoint
 10
10861.78710270131
 20
4601.831130103708
 30
0.0
  0
POINT
  5
16EF5
330
16386
100
AcDbEntity
  8
DEFPOINTS
 62
     0
 48
50.0
100
AcDbPoint
 10
8651.787102701312
 20
4601.831130103709
 30
0.0
  0
POINT
  5
16EF6
330
16386
100
AcDbEntity
  8
DEFPOINTS
 62
     0
 48
50.0
100
AcDbPoint
 10
8651.787102701312
 20
5000.924299443176
 30
0.0
  0
ENDBLK
  5
16391
330
16386
100
AcDbEntity
  8
0
 48
50.0
100
AcDbBlockEnd
  0
BLOCK
  5
163A8
330
1639E
100
AcDbEntity
  8
0
 48
50.0
100
AcDbBlockBegin
  2
*D6
 70
     1
 10
0.0
 20
0.0
 30
0.0
  3
*D6
  1

  0
LINE
  5
16EDC
330
1639E
100
AcDbEntity
  8
寸法
 62
     0
 48
50.0
370
    -2
100
AcDbLine
 10
8659.787102701313
 20
4309.831130103702
 30
0.0
 11
8298.562296230301
 21
4309.831130103702
 31
0.0
  0
LINE
  5
16EDD
330
1639E
100
AcDbEntity
  8
寸法
 62
     0
 48
50.0
370
    -2
100
AcDbLine
 10
8659.787102701313
 20
2584.831130103702
 30
0.0
 11
8298.562296230299
 21
2584.831130103702
 31
0.0
  0
LINE
  5
16EDE
330
1639E
100
AcDbEntity
  8
寸法
 62
     0
 48
50.0
370
    -2
100
AcDbLine
 10
8358.562296230301
 20
4309.831130103702
 30
0.0
 11
8358.562296230299
 21
2584.831130103702
 31
0.0
  0
INSERT
  5
16EDF
330
1639E
100
AcDbEntity
  8
寸法
 62
     0
 48
50.0
370
    -2
100
AcDbBlockReference
  2
_DOTSMALL
 10
8358.562296230301
 20
4309.831130103702
 30
0.0
 41
100.0
 42
100.0
 43
100.0
 50
90.0
  0
INSERT
  5
16EE0
330
1639E
100
AcDbEntity
  8
寸法
 62
     0
 48
50.0
370
    -2
100
AcDbBlockReference
  2
_DOTSMALL
 10
8358.562296230299
 20
2584.831130103702
 30
0.0
 41
100.0
 42
100.0
 43
100.0
 50
270.0
  0
MTEXT
  5
16EE1
330
1639E
100
AcDbEntity
  8
寸法
 62
     7
 48
50.0
100
AcDbMText
 10
8258.550485206678
 20
3486.759750312664
 30
0.0
 40
120.0
 41
0.0
 71
     5
 72
     1
  1
\A1;有効開口部高サ1725
  7
STYLE1
 11
0.0000000000000001
 21
1.0
 31
0.0
 73
     1
 44
1.0
1001
ACAD
1000
MTEXTBEGIN
1070
    73
1070
     1
1070
    44
1040
1.0
1070
    74
1070
     0
1000
MTEXTEND
  0
POINT
  5
16EE2
330
1639E
100
AcDbEntity
  8
DEFPOINTS
 62
     0
 48
50.0
100
AcDbPoint
 10
8679.787102701313
 20
4309.831130103702
 30
0.0
  0
POINT
  5
16EE3
330
1639E
100
AcDbEntity
  8
DEFPOINTS
 62
     0
 48
50.0
100
AcDbPoint
 10
8679.787102701313
 20
2584.831130103702
 30
0.0
  0
POINT
  5
16EE4
330
1639E
100
AcDbEntity
  8
DEFPOINTS
 62
     0
 48
50.0
100
AcDbPoint
 10
8358.562296230299
 20
2584.831130103702
 30
0.0
  0
ENDBLK
  5
163A9
330
1639E
100
AcDbEntity
  8
0
 48
50.0
100
AcDbBlockEnd
  0
BLOCK
  5
163B4
330
163AA
100
AcDbEntity
  8
0
 48
50.0
100
AcDbBlockBegin
  2
*D7
 70
     1
 10
0.0
 20
0.0
 30
0.0
  3
*D7
  1

  0
LINE
  5
17F3D
330
163AA
100
AcDbEntity
  8
寸法
 62
     0
 48
50.0
370
    -2
100
AcDbLine
 10
10881.78710270132
 20
9379.943081698925
 30
0.0
 11
11569.21344843573
 21
9379.943081698925
 31
0.0
  0
LINE
  5
17F3E
330
163AA
100
AcDbEntity
  8
寸法
 62
     0
 48
50.0
370
    -2
100
AcDbLine
 10
10881.78710270129
 20
7699.94308169891
 30
0.0
 11
11569.21344843573
 21
7699.94308169891
 31
0.0
  0
LINE
  5
17F3F
330
163AA
100
AcDbEntity
  8
寸法
 62
     0
 48
50.0
370
    -2
100
AcDbLine
 10
11509.21344843573
 20
9379.943081698925
 30
0.0
 11
11509.21344843573
 21
7699.94308169891
 31
0.0
  0
INSERT
  5
17F40
330
163AA
100
AcDbEntity
  8
寸法
 62
     0
 48
50.0
370
    -2
100
AcDbBlockReference
  2
_DOTSMALL
 10
11509.21344843573
 20
9379.943081698925
 30
0.0
 41
100.0
 42
100.0
 43
100.0
 50
90.0
  0
INSERT
  5
17F41
330
163AA
100
AcDbEntity
  8
寸法
 62
     0
 48
50.0
370
    -2
100
AcDbBlockReference
  2
_DOTSMALL
 10
11509.21344843573
 20
7699.94308169891
 30
0.0
 41
100.0
 42
100.0
 43
100.0
 50
270.0
  0
MTEXT
  5
17F42
330
163AA
100
AcDbEntity
  8
寸法
 62
     7
 48
50.0
100
AcDbMText
 10
11409.20163741211
 20
8539.94308169892
 30
0.0
 40
120.0
 41
0.0
 71
     5
 72
     1
  1
\A1;4X420=1680
  7
STYLE1
 11
0.0000000000000001
 21
1.0
 31
0.0
 73
     1
 44
1.0
1001
ACAD
1000
MTEXTBEGIN
1070
    73
1070
     1
1070
    44
1040
1.0
1070
    74
1070
     0
1000
MTEXTEND
  0
POINT
  5
17F43
330
163AA
100
AcDbEntity
  8
DEFPOINTS
 62
     0
 48
50.0
100
AcDbPoint
 10
10861.78710270132
 20
9379.943081698925
 30
0.0
  0
POINT
  5
17F44
330
163AA
100
AcDbEntity
  8
DEFPOINTS
 62
     0
 48
50.0
100
AcDbPoint
 10
10861.78710270129
 20
7699.94308169891
 30
0.0
  0
POINT
  5
17F45
330
163AA
100
AcDbEntity
  8
DEFPOINTS
 62
     0
 48
50.0
100
AcDbPoint
 10
11509.21344843573
 20
7699.94308169891
 30
0.0
  0
ENDBLK
  5
163B5
330
163AA
100
AcDbEntity
  8
0
 48
50.0
100
AcDbBlockEnd
  0
BLOCK
  5
163C0
330
163B6
100
AcDbEntity
  8
0
 48
50.0
100
AcDbBlockBegin
  2
*D8
 70
     1
 10
0.0
 20
0.0
 30
0.0
  3
*D8
  1

  0
LINE
  5
17F34
330
163B6
100
AcDbEntity
  8
寸法
 62
     0
 48
50.0
370
    -2
100
AcDbLine
 10
10853.28710270132
 20
9399.584097850299
 30
0.0
 11
11248.64482856334
 21
9293.648314484165
 31
0.0
  0
LINE
  5
17F35
330
163B6
100
AcDbEntity
  8
寸法
 62
     0
 48
50.0
370
    -2
100
AcDbLine
 10
10853.28710270132
 20
8949.584097850303
 30
0.0
 11
11248.64482856334
 21
8843.64831448417
 31
0.0
  0
LINE
  5
17F36
330
163B6
100
AcDbEntity
  8
寸法
 62
     0
 48
50.0
370
    -2
100
AcDbLine
 10
11188.64482856334
 20
9309.725266030033
 30
0.0
 11
11188.64482856334
 21
8859.725266030038
 31
0.0
  0
INSERT
  5
17F37
330
163B6
100
AcDbEntity
  8
寸法
 62
     0
 48
50.0
370
    -2
100
AcDbBlockReference
  2
_DOTSMALL
 10
11188.64482856334
 20
9309.725266030033
 30
0.0
 41
100.0
 42
100.0
 43
100.0
 50
90.0
  0
INSERT
  5
17F38
330
163B6
100
AcDbEntity
  8
寸法
 62
     0
 48
50.0
370
    -2
100
AcDbBlockReference
  2
_DOTSMALL
 10
11188.64482856334
 20
8859.725266030038
 30
0.0
 41
100.0
 42
100.0
 43
100.0
 50
270.0
  0
MTEXT
  5
17F39
330
163B6
100
AcDbEntity
  8
寸法
 62
     7
 48
50.0
100
AcDbMText
 10
11088.64482856334
 20
9084.725266030037
 30
0.0
 40
120.0
 41
0.0
 71
     5
 72
     1
  1
\A1;450
  7
STYLE1
 11
0.0000000000000001
 21
1.0
 31
0.0
 73
     1
 44
1.0
1001
ACAD
1000
MTEXTBEGIN
1070
    73
1070
     1
1070
    44
1040
1.0
1070
    74
1070
     0
1000
MTEXTEND
  0
POINT
  5
17F3A
330
163B6
100
AcDbEntity
  8
DEFPOINTS
 62
     0
 48
50.0
100
AcDbPoint
 10
10833.28710270132
 20
9404.943081698922
 30
0.0
  0
POINT
  5
17F3B
330
163B6
100
AcDbEntity
  8
DEFPOINTS
 62
     0
 48
50.0
100
AcDbPoint
 10
10833.28710270132
 20
8954.943081698926
 30
0.0
  0
POINT
  5
17F3C
330
163B6
100
AcDbEntity
  8
DEFPOINTS
 62
     0
 48
50.0
100
AcDbPoint
 10
11188.64482856334
 20
8859.725266030038
 30
0.0
  0
ENDBLK
  5
163C1
330
163B6
100
AcDbEntity
  8
0
 48
50.0
100
AcDbBlockEnd
  0
BLOCK
  5
163CC
330
163C2
100
AcDbEntity
  8
0
 48
50.0
100
AcDbBlockBegin
  2
*D9
 70
     1
 10
0.0
 20
0.0
 30
0.0
  3
*D9
  1

  0
LINE
  5
17F2B
330
163C2
100
AcDbEntity
  8
寸法
 62
     0
 48
50.0
370
    -2
100
AcDbLine
 10
9974.9281188527
 20
8934.943081698934
 30
0.0
 11
9885.641377599021
 21
8601.720426897959
 31
0.0
  0
LINE
  5
17F2C
330
163C2
100
AcDbEntity
  8
寸法
 62
     0
 48
50.0
370
    -2
100
AcDbLine
 10
10827.92811885271
 20
8934.943081698927
 30
0.0
 11
10738.64137759903
 21
8601.720426897959
 31
0.0
  0
LINE
  5
17F2D
330
163C2
100
AcDbEntity
  8
寸法
 62
     0
 48
50.0
370
    -2
100
AcDbLine
 10
9901.718329144889
 20
8661.720426897959
 30
0.0
 11
10754.7183291449
 21
8661.720426897959
 31
0.0
  0
INSERT
  5
17F2E
330
163C2
100
AcDbEntity
  8
寸法
 62
     0
 48
50.0
370
    -2
100
AcDbBlockReference
  2
_DOTSMALL
 10
9901.718329144889
 20
8661.720426897959
 30
0.0
 41
100.0
 42
100.0
 43
100.0
 50
180.0
  0
INSERT
  5
17F2F
330
163C2
100
AcDbEntity
  8
寸法
 62
     0
 48
50.0
370
    -2
100
AcDbBlockReference
  2
_DOTSMALL
 10
10754.7183291449
 20
8661.720426897959
 30
0.0
 41
100.0
 42
100.0
 43
100.0
  0
MTEXT
  5
17F30
330
163C2
100
AcDbEntity
  8
寸法
 62
     7
 48
50.0
100
AcDbMText
 10
10359.63416481959
 20
8761.720426897959
 30
0.0
 40
120.0
 41
0.0
 71
     5
 72
     1
  1
\A1;853
  7
STYLE1
 73
     1
 44
1.0
1001
ACAD
1000
MTEXTBEGIN
1070
    73
1070
     1
1070
    44
1040
1.0
1070
    74
1070
     0
1000
MTEXTEND
  0
POINT
  5
17F31
330
163C2
100
AcDbEntity
  8
DEFPOINTS
 62
     0
 48
50.0
100
AcDbPoint
 10
9980.287102701321
 20
8954.943081698933
 30
0.0
  0
POINT
  5
17F32
330
163C2
100
AcDbEntity
  8
DEFPOINTS
 62
     0
 48
50.0
100
AcDbPoint
 10
10833.28710270133
 20
8954.943081698926
 30
0.0
  0
POINT
  5
17F33
330
163C2
100
AcDbEntity
  8
DEFPOINTS
 62
     0
 48
50.0
100
AcDbPoint
 10
10754.7183291449
 20
8661.720426897959
 30
0.0
  0
ENDBLK
  5
163CD
330
163C2
100
AcDbEntity
  8
0
 48
50.0
100
AcDbBlockEnd
  0
BLOCK
  5
163DA
330
163CE
100
AcDbEntity
  8
0
 48
50.0
100
AcDbBlockBegin
  2
*D10
 70
     1
 10
0.0
 20
0.0
 30
0.0
  3
*D10
  1

  0
LINE
  5
17F20
330
163CE
100
AcDbEntity
  8
寸法
 62
     0
 48
50.0
370
    -2
100
AcDbLine
 10
10881.78710270129
 20
7699.94308169891
 30
0.0
 11
11569.2134484357
 21
7699.94308169891
 31
0.0
  0
LINE
  5
17F21
330
163CE
100
AcDbEntity
  8
寸法
 62
     0
 48
50.0
370
    -2
100
AcDbLine
 10
10881.78710270129
 20
7644.943081698915
 30
0.0
 11
11569.2134484357
 21
7644.943081698915
 31
0.0
  0
LINE
  5
17F22
330
163CE
100
AcDbEntity
  8
寸法
 62
     0
 48
50.0
370
    -2
100
AcDbLine
 10
11509.2134484357
 20
7699.94308169891
 30
0.0
 11
11509.2134484357
 21
7799.94308169891
 31
0.0
  0
LINE
  5
17F23
330
163CE
100
AcDbEntity
  8
寸法
 62
     0
 48
50.0
370
    -2
100
AcDbLine
 10
11509.2134484357
 20
7644.943081698915
 30
0.0
 11
11509.2134484357
 21
7158.596333419812
 31
0.0
  0
LINE
  5
17F24
330
163CE
100
AcDbEntity
  8
寸法
 62
     0
 48
50.0
370
    -2
100
AcDbLine
 10
11509.2134484357
 20
7699.94308169891
 30
0.0
 11
11509.2134484357
 21
7644.943081698915
 31
0.0
  0
INSERT
  5
17F25
330
163CE
100
AcDbEntity
  8
寸法
 62
     0
 48
50.0
370
    -2
100
AcDbBlockReference
  2
_DOTSMALL
 10
11509.2134484357
 20
7699.94308169891
 30
0.0
 41
100.0
 42
100.0
 43
100.0
 50
270.0
  0
INSERT
  5
17F26
330
163CE
100
AcDbEntity
  8
寸法
 62
     0
 48
50.0
370
    -2
100
AcDbBlockReference
  2
_DOTSMALL
 10
11509.2134484357
 20
7644.943081698915
 30
0.0
 41
100.0
 42
100.0
 43
100.0
 50
90.0
  0
MTEXT
  5
17F27
330
163CE
100
AcDbEntity
  8
寸法
 62
     7
 48
50.0
100
AcDbMText
 10
11409.2134484357
 20
7267.081614794053
 30
0.0
 40
120.0
 41
0.0
 71
     5
 72
     1
  1
\A1;55
  7
STYLE1
 11
0.0000000000000001
 21
1.0
 31
0.0
 73
     1
 44
1.0
1001
ACAD
1000
MTEXTBEGIN
1070
    73
1070
     1
1070
    44
1040
1.0
1070
    74
1070
     0
1000
MTEXTEND
  0
POINT
  5
17F28
330
163CE
100
AcDbEntity
  8
DEFPOINTS
 62
     0
 48
50.0
100
AcDbPoint
 10
10861.78710270129
 20
7699.94308169891
 30
0.0
  0
POINT
  5
17F29
330
163CE
100
AcDbEntity
  8
DEFPOINTS
 62
     0
 48
50.0
100
AcDbPoint
 10
10861.78710270129
 20
7644.943081698915
 30
0.0
  0
POINT
  5
17F2A
330
163CE
100
AcDbEntity
  8
DEFPOINTS
 62
     0
 48
50.0
100
AcDbPoint
 10
11509.2134484357
 20
7644.943081698915
 30
0.0
  0
ENDBLK
  5
163DB
330
163CE
100
AcDbEntity
  8
0
 48
50.0
100
AcDbBlockEnd
  0
BLOCK
  5
163F2
330
163E8
100
AcDbEntity
  8
0
 48
50.0
100
AcDbBlockBegin
  2
*D11
 70
     1
 10
0.0
 20
0.0
 30
0.0
  3
*D11
  1

  0
LINE
  5
17F17
330
163E8
100
AcDbEntity
  8
寸法
 62
     0
 48
50.0
370
    -2
100
AcDbLine
 10
8674.928118852697
 20
8934.943081698827
 30
0.0
 11
8585.817831442239
 21
8602.378961605937
 31
0.0
  0
LINE
  5
17F18
330
163E8
100
AcDbEntity
  8
寸法
 62
     0
 48
50.0
370
    -2
100
AcDbLine
 10
9947.928118852709
 20
8934.94308169882
 30
0.0
 11
9858.817831442253
 21
8602.378961605937
 31
0.0
  0
LINE
  5
17F19
330
163E8
100
AcDbEntity
  8
寸法
 62
     0
 48
50.0
370
    -2
100
AcDbLine
 10
8601.894782988107
 20
8662.378961605936
 30
0.0
 11
9874.894782988121
 21
8662.378961605936
 31
0.0
  0
INSERT
  5
17F1A
330
163E8
100
AcDbEntity
  8
寸法
 62
     0
 48
50.0
370
    -2
100
AcDbBlockReference
  2
_DOTSMALL
 10
8601.894782988107
 20
8662.378961605936
 30
0.0
 41
100.0
 42
100.0
 43
100.0
 50
180.0
  0
INSERT
  5
17F1B
330
163E8
100
AcDbEntity
  8
寸法
 62
     0
 48
50.0
370
    -2
100
AcDbBlockReference
  2
_DOTSMALL
 10
9874.894782988121
 20
8662.378961605936
 30
0.0
 41
100.0
 42
100.0
 43
100.0
  0
MTEXT
  5
17F1C
330
163E8
100
AcDbEntity
  8
寸法
 62
     7
 48
50.0
100
AcDbMText
 10
9214.898303323979
 20
8762.390772629558
 30
0.0
 40
120.0
 41
0.0
 71
     5
 72
     1
  1
\A1;1273
  7
STYLE1
 73
     1
 44
1.0
1001
ACAD
1000
MTEXTBEGIN
1070
    73
1070
     1
1070
    44
1040
1.0
1070
    74
1070
     0
1000
MTEXTEND
  0
POINT
  5
17F1D
330
163E8
100
AcDbEntity
  8
DEFPOINTS
 62
     0
 48
50.0
100
AcDbPoint
 10
8680.287102701321
 20
8954.943081698827
 30
0.0
  0
POINT
  5
17F1E
330
163E8
100
AcDbEntity
  8
DEFPOINTS
 62
     0
 48
50.0
100
AcDbPoint
 10
9953.287102701331
 20
8954.94308169882
 30
0.0
  0
POINT
  5
17F1F
330
163E8
100
AcDbEntity
  8
DEFPOINTS
 62
     0
 48
50.0
100
AcDbPoint
 10
9874.894782988121
 20
8662.378961605936
 30
0.0
  0
ENDBLK
  5
163F3
330
163E8
100
AcDbEntity
  8
0
 48
50.0
100
AcDbBlockEnd
  0
BLOCK
  5
16400
330
163F4
100
AcDbEntity
  8
0
 48
50.0
100
AcDbBlockBegin
  2
*D12
 70
     1
 10
0.0
 20
0.0
 30
0.0
  3
*D12
  1

  0
LINE
  5
17F0C
330
163F4
100
AcDbEntity
  8
寸法
 62
     0
 48
50.0
370
    -2
100
AcDbLine
 10
8651.787102701284
 20
9454.943081698827
 30
0.0
 11
8651.787102701284
 21
9797.988676274407
 31
0.0
  0
LINE
  5
17F0D
330
163F4
100
AcDbEntity
  8
寸法
 62
     0
 48
50.0
370
    -2
100
AcDbLine
 10
8706.787102701321
 20
9454.943081698827
 30
0.0
 11
8706.787102701321
 21
9797.988676274407
 31
0.0
  0
LINE
  5
17F0E
330
163F4
100
AcDbEntity
  8
寸法
 62
     0
 48
50.0
370
    -2
100
AcDbLine
 10
8706.787102701321
 20
9737.988676274406
 30
0.0
 11
8806.787102701321
 21
9737.988676274406
 31
0.0
  0
LINE
  5
17F0F
330
163F4
100
AcDbEntity
  8
寸法
 62
     0
 48
50.0
370
    -2
100
AcDbLine
 10
8651.787102701284
 20
9737.988676274406
 30
0.0
 11
8234.816539952808
 21
9737.988676274406
 31
0.0
  0
LINE
  5
17F10
330
163F4
100
AcDbEntity
  8
寸法
 62
     0
 48
50.0
370
    -2
100
AcDbLine
 10
8706.787102701321
 20
9737.988676274406
 30
0.0
 11
8651.787102701284
 21
9737.988676274406
 31
0.0
  0
INSERT
  5
17F11
330
163F4
100
AcDbEntity
  8
寸法
 62
     0
 48
50.0
370
    -2
100
AcDbBlockReference
  2
_DOTSMALL
 10
8706.787102701321
 20
9737.988676274406
 30
0.0
 41
100.0
 42
100.0
 43
100.0
 50
180.0
  0
INSERT
  5
17F12
330
163F4
100
AcDbEntity
  8
寸法
 62
     0
 48
50.0
370
    -2
100
AcDbBlockReference
  2
_DOTSMALL
 10
8651.787102701284
 20
9737.988676274406
 30
0.0
 41
100.0
 42
100.0
 43
100.0
  0
MTEXT
  5
17F13
330
163F4
100
AcDbEntity
  8
寸法
 62
     7
 48
50.0
100
AcDbMText
 10
8343.301821327045
 20
9837.988676274406
 30
0.0
 40
120.0
 41
0.0
 71
     5
 72
     1
  1
\A1;55
  7
STYLE1
 73
     1
 44
1.0
1001
ACAD
1000
MTEXTBEGIN
1070
    73
1070
     1
1070
    44
1040
1.0
1070
    74
1070
     0
1000
MTEXTEND
  0
POINT
  5
17F14
330
163F4
100
AcDbEntity
  8
DEFPOINTS
 62
     0
 48
50.0
100
AcDbPoint
 10
8651.787102701284
 20
9434.943081698827
 30
0.0
  0
POINT
  5
17F15
330
163F4
100
AcDbEntity
  8
DEFPOINTS
 62
     0
 48
50.0
100
AcDbPoint
 10
8706.787102701321
 20
9434.943081698827
 30
0.0
  0
POINT
  5
17F16
330
163F4
100
AcDbEntity
  8
DEFPOINTS
 62
     0
 48
50.0
100
AcDbPoint
 10
8706.787102701321
 20
9737.988676274406
 30
0.0
  0
ENDBLK
  5
16401
330
163F4
100
AcDbEntity
  8
0
 48
50.0
100
AcDbBlockEnd
  0
BLOCK
  5
1640E
330
16402
100
AcDbEntity
  8
0
 48
50.0
100
AcDbBlockBegin
  2
*D13
 70
     1
 10
0.0
 20
0.0
 30
0.0
  3
*D13
  1

  0
LINE
  5
17F01
330
16402
100
AcDbEntity
  8
寸法
 62
     0
 48
50.0
370
    -2
100
AcDbLine
 10
10881.78710270132
 20
9434.943081698923
 30
0.0
 11
11569.21344843573
 21
9434.943081698923
 31
0.0
  0
LINE
  5
17F02
330
16402
100
AcDbEntity
  8
寸法
 62
     0
 48
50.0
370
    -2
100
AcDbLine
 10
10881.78710270132
 20
9379.943081698925
 30
0.0
 11
11569.21344843573
 21
9379.943081698925
 31
0.0
  0
LINE
  5
17F03
330
16402
100
AcDbEntity
  8
寸法
 62
     0
 48
50.0
370
    -2
100
AcDbLine
 10
11509.21344843573
 20
9379.943081698925
 30
0.0
 11
11509.21344843573
 21
9279.943081698926
 31
0.0
  0
LINE
  5
17F04
330
16402
100
AcDbEntity
  8
寸法
 62
     0
 48
50.0
370
    -2
100
AcDbLine
 10
11509.21344843573
 20
9434.943081698923
 30
0.0
 11
11509.21344843573
 21
9851.9136444474
 31
0.0
  0
LINE
  5
17F05
330
16402
100
AcDbEntity
  8
寸法
 62
     0
 48
50.0
370
    -2
100
AcDbLine
 10
11509.21344843573
 20
9379.943081698925
 30
0.0
 11
11509.21344843573
 21
9434.943081698923
 31
0.0
  0
INSERT
  5
17F06
330
16402
100
AcDbEntity
  8
寸法
 62
     0
 48
50.0
370
    -2
100
AcDbBlockReference
  2
_DOTSMALL
 10
11509.21344843573
 20
9379.943081698925
 30
0.0
 41
100.0
 42
100.0
 43
100.0
 50
90.0
  0
INSERT
  5
17F07
330
16402
100
AcDbEntity
  8
寸法
 62
     0
 48
50.0
370
    -2
100
AcDbBlockReference
  2
_DOTSMALL
 10
11509.21344843573
 20
9434.943081698923
 30
0.0
 41
100.0
 42
100.0
 43
100.0
 50
270.0
  0
MTEXT
  5
17F08
330
16402
100
AcDbEntity
  8
寸法
 62
     7
 48
50.0
100
AcDbMText
 10
11409.21344843573
 20
9743.428363073164
 30
0.0
 40
120.0
 41
0.0
 71
     5
 72
     1
  1
\A1;55
  7
STYLE1
 11
0.0000000000000001
 21
1.0
 31
0.0
 73
     1
 44
1.0
1001
ACAD
1000
MTEXTBEGIN
1070
    73
1070
     1
1070
    44
1040
1.0
1070
    74
1070
     0
1000
MTEXTEND
  0
POINT
  5
17F09
330
16402
100
AcDbEntity
  8
DEFPOINTS
 62
     0
 48
50.0
100
AcDbPoint
 10
10861.78710270132
 20
9434.943081698923
 30
0.0
  0
POINT
  5
17F0A
330
16402
100
AcDbEntity
  8
DEFPOINTS
 62
     0
 48
50.0
100
AcDbPoint
 10
10861.78710270132
 20
9379.943081698925
 30
0.0
  0
POINT
  5
17F0B
330
16402
100
AcDbEntity
  8
DEFPOINTS
 62
     0
 48
50.0
100
AcDbPoint
 10
11509.21344843573
 20
9379.943081698925
 30
0.0
  0
ENDBLK
  5
1640F
330
16402
100
AcDbEntity
  8
0
 48
50.0
100
AcDbBlockEnd
  0
BLOCK
  5
1641C
330
16410
100
AcDbEntity
  8
0
 48
50.0
100
AcDbBlockBegin
  2
*D14
 70
     1
 10
0.0
 20
0.0
 30
0.0
  3
*D14
  1

  0
LINE
  5
17EF6
330
16410
100
AcDbEntity
  8
寸法
 62
     0
 48
50.0
370
    -2
100
AcDbLine
 10
10806.78710270132
 20
9454.943081698923
 30
0.0
 11
10806.78710270132
 21
9797.988676274506
 31
0.0
  0
LINE
  5
17EF7
330
16410
100
AcDbEntity
  8
寸法
 62
     0
 48
50.0
370
    -2
100
AcDbLine
 10
10861.78710270132
 20
9454.943081698923
 30
0.0
 11
10861.78710270132
 21
9797.988676274506
 31
0.0
  0
LINE
  5
17EF8
330
16410
100
AcDbEntity
  8
寸法
 62
     0
 48
50.0
370
    -2
100
AcDbLine
 10
10806.78710270132
 20
9737.988676274504
 30
0.0
 11
10706.78710270132
 21
9737.988676274504
 31
0.0
  0
LINE
  5
17EF9
330
16410
100
AcDbEntity
  8
寸法
 62
     0
 48
50.0
370
    -2
100
AcDbLine
 10
10861.78710270132
 20
9737.988676274504
 30
0.0
 11
11278.75766544979
 21
9737.988676274504
 31
0.0
  0
LINE
  5
17EFA
330
16410
100
AcDbEntity
  8
寸法
 62
     0
 48
50.0
370
    -2
100
AcDbLine
 10
10806.78710270132
 20
9737.988676274504
 30
0.0
 11
10861.78710270132
 21
9737.988676274504
 31
0.0
  0
INSERT
  5
17EFB
330
16410
100
AcDbEntity
  8
寸法
 62
     0
 48
50.0
370
    -2
100
AcDbBlockReference
  2
_DOTSMALL
 10
10806.78710270132
 20
9737.988676274504
 30
0.0
 41
100.0
 42
100.0
 43
100.0
  0
INSERT
  5
17EFC
330
16410
100
AcDbEntity
  8
寸法
 62
     0
 48
50.0
370
    -2
100
AcDbBlockReference
  2
_DOTSMALL
 10
10861.78710270132
 20
9737.988676274504
 30
0.0
 41
100.0
 42
100.0
 43
100.0
 50
180.0
  0
MTEXT
  5
17EFD
330
16410
100
AcDbEntity
  8
寸法
 62
     7
 48
50.0
100
AcDbMText
 10
11170.27238407556
 20
9837.988676274505
 30
0.0
 40
120.0
 41
0.0
 71
     5
 72
     1
  1
\A1;55
  7
STYLE1
 73
     1
 44
1.0
1001
ACAD
1000
MTEXTBEGIN
1070
    73
1070
     1
1070
    44
1040
1.0
1070
    74
1070
     0
1000
MTEXTEND
  0
POINT
  5
17EFE
330
16410
100
AcDbEntity
  8
DEFPOINTS
 62
     0
 48
50.0
100
AcDbPoint
 10
10806.78710270132
 20
9434.943081698923
 30
0.0
  0
POINT
  5
17EFF
330
16410
100
AcDbEntity
  8
DEFPOINTS
 62
     0
 48
50.0
100
AcDbPoint
 10
10861.78710270132
 20
9434.943081698923
 30
0.0
  0
POINT
  5
17F00
330
16410
100
AcDbEntity
  8
DEFPOINTS
 62
     0
 48
50.0
100
AcDbPoint
 10
10861.78710270132
 20
9737.988676274504
 30
0.0
  0
ENDBLK
  5
1641D
330
16410
100
AcDbEntity
  8
0
 48
50.0
100
AcDbBlockEnd
  0
BLOCK
  5
16428
330
1641E
100
AcDbEntity
  8
0
 48
50.0
100
AcDbBlockBegin
  2
*D15
 70
     1
 10
0.0
 20
0.0
 30
0.0
  3
*D15
  1

  0
LINE
  5
17EED
330
1641E
100
AcDbEntity
  8
寸法
 62
     0
 48
50.0
370
    -2
100
AcDbLine
 10
8706.787102701321
 20
9454.943081698827
 30
0.0
 11
8706.787102701321
 21
9797.988676274522
 31
0.0
  0
LINE
  5
17EEE
330
1641E
100
AcDbEntity
  8
寸法
 62
     0
 48
50.0
370
    -2
100
AcDbLine
 10
10806.78710270132
 20
9454.943081698923
 30
0.0
 11
10806.78710270132
 21
9797.988676274522
 31
0.0
  0
LINE
  5
17EEF
330
1641E
100
AcDbEntity
  8
寸法
 62
     0
 48
50.0
370
    -2
100
AcDbLine
 10
8706.787102701321
 20
9737.988676274524
 30
0.0
 11
10806.78710270132
 21
9737.988676274524
 31
0.0
  0
INSERT
  5
17EF0
330
1641E
100
AcDbEntity
  8
寸法
 62
     0
 48
50.0
370
    -2
100
AcDbBlockReference
  2
_DOTSMALL
 10
8706.787102701321
 20
9737.988676274524
 30
0.0
 41
100.0
 42
100.0
 43
100.0
 50
180.0
  0
INSERT
  5
17EF1
330
1641E
100
AcDbEntity
  8
寸法
 62
     0
 48
50.0
370
    -2
100
AcDbBlockReference
  2
_DOTSMALL
 10
10806.78710270132
 20
9737.988676274524
 30
0.0
 41
100.0
 42
100.0
 43
100.0
  0
MTEXT
  5
17EF2
330
1641E
100
AcDbEntity
  8
寸法
 62
     7
 48
50.0
100
AcDbMText
 10
9756.78710270132
 20
9838.000487298145
 30
0.0
 40
120.0
 41
0.0
 71
     5
 72
     1
  1
\A1;5X420=2100
  7
STYLE1
 73
     1
 44
1.0
1001
ACAD
1000
MTEXTBEGIN
1070
    73
1070
     1
1070
    44
1040
1.0
1070
    74
1070
     0
1000
MTEXTEND
  0
POINT
  5
17EF3
330
1641E
100
AcDbEntity
  8
DEFPOINTS
 62
     0
 48
50.0
100
AcDbPoint
 10
8706.787102701321
 20
9434.943081698827
 30
0.0
  0
POINT
  5
17EF4
330
1641E
100
AcDbEntity
  8
DEFPOINTS
 62
     0
 48
50.0
100
AcDbPoint
 10
10806.78710270132
 20
9434.943081698923
 30
0.0
  0
POINT
  5
17EF5
330
1641E
100
AcDbEntity
  8
DEFPOINTS
 62
     0
 48
50.0
100
AcDbPoint
 10
10806.78710270132
 20
9737.988676274524
 30
0.0
  0
ENDBLK
  5
16429
330
1641E
100
AcDbEntity
  8
0
 48
50.0
100
AcDbBlockEnd
  0
BLOCK
  5
16434
330
1642A
100
AcDbEntity
  8
0
 48
50.0
100
AcDbBlockBegin
  2
*D16
 70
     1
 10
0.0
 20
0.0
 30
0.0
  3
*D16
  1

  0
LINE
  5
17EE4
330
1642A
100
AcDbEntity
  8
寸法
 62
     0
 48
50.0
370
    -2
100
AcDbLine
 10
10881.78710270132
 20
9434.943081698923
 30
0.0
 11
11858.39997442166
 21
9434.943081698923
 31
0.0
  0
LINE
  5
17EE5
330
1642A
100
AcDbEntity
  8
寸法
 62
     0
 48
50.0
370
    -2
100
AcDbLine
 10
10881.78710270129
 20
7644.943081698915
 30
0.0
 11
11858.39997442166
 21
7644.943081698915
 31
0.0
  0
LINE
  5
17EE6
330
1642A
100
AcDbEntity
  8
寸法
 62
     0
 48
50.0
370
    -2
100
AcDbLine
 10
11798.39997442166
 20
9434.943081698923
 30
0.0
 11
11798.39997442166
 21
7644.943081698915
 31
0.0
  0
INSERT
  5
17EE7
330
1642A
100
AcDbEntity
  8
寸法
 62
     0
 48
50.0
370
    -2
100
AcDbBlockReference
  2
_DOTSMALL
 10
11798.39997442166
 20
9434.943081698923
 30
0.0
 41
100.0
 42
100.0
 43
100.0
 50
90.0
  0
INSERT
  5
17EE8
330
1642A
100
AcDbEntity
  8
寸法
 62
     0
 48
50.0
370
    -2
100
AcDbBlockReference
  2
_DOTSMALL
 10
11798.39997442166
 20
7644.943081698915
 30
0.0
 41
100.0
 42
100.0
 43
100.0
 50
270.0
  0
MTEXT
  5
17EE9
330
1642A
100
AcDbEntity
  8
寸法
 62
     7
 48
50.0
100
AcDbMText
 10
11698.39997442165
 20
8540.033129040006
 30
0.0
 40
120.0
 41
0.0
 71
     5
 72
     1
  1
\A1;1790
  7
STYLE1
 11
0.0000000000000001
 21
1.0
 31
0.0
 73
     1
 44
1.0
1001
ACAD
1000
MTEXTBEGIN
1070
    73
1070
     1
1070
    44
1040
1.0
1070
    74
1070
     0
1000
MTEXTEND
  0
POINT
  5
17EEA
330
1642A
100
AcDbEntity
  8
DEFPOINTS
 62
     0
 48
50.0
100
AcDbPoint
 10
10861.78710270132
 20
9434.943081698923
 30
0.0
  0
POINT
  5
17EEB
330
1642A
100
AcDbEntity
  8
DEFPOINTS
 62
     0
 48
50.0
100
AcDbPoint
 10
10861.78710270129
 20
7644.943081698915
 30
0.0
  0
POINT
  5
17EEC
330
1642A
100
AcDbEntity
  8
DEFPOINTS
 62
     0
 48
50.0
100
AcDbPoint
 10
11798.39997442166
 20
7644.943081698915
 30
0.0
  0
ENDBLK
  5
16435
330
1642A
100
AcDbEntity
  8
0
 48
50.0
100
AcDbBlockEnd
  0
BLOCK
  5
16440
330
16436
100
AcDbEntity
  8
0
 48
50.0
100
AcDbBlockBegin
  2
*D17
 70
     1
 10
0.0
 20
0.0
 30
0.0
  3
*D17
  1

  0
LINE
  5
16E68
330
16436
100
AcDbEntity
  8
寸法
 62
     0
 48
50.0
370
    -2
100
AcDbLine
 10
8751.787102701316
 20
2206.831130103703
 30
0.0
 11
8751.787102701316
 21
1880.783800803326
 31
0.0
  0
LINE
  5
16E69
330
16436
100
AcDbEntity
  8
寸法
 62
     0
 48
50.0
370
    -2
100
AcDbLine
 10
8551.787102701313
 20
2206.831130103703
 30
0.0
 11
8551.787102701313
 21
1880.783800803326
 31
0.0
  0
LINE
  5
16E6A
330
16436
100
AcDbEntity
  8
寸法
 62
     0
 48
50.0
370
    -2
100
AcDbLine
 10
8751.787102701316
 20
1940.783800803326
 30
0.0
 11
8551.787102701313
 21
1940.783800803326
 31
0.0
  0
INSERT
  5
16E6B
330
16436
100
AcDbEntity
  8
寸法
 62
     0
 48
50.0
370
    -2
100
AcDbBlockReference
  2
_DOTSMALL
 10
8751.787102701316
 20
1940.783800803326
 30
0.0
 41
100.0
 42
100.0
 43
100.0
  0
INSERT
  5
16E6C
330
16436
100
AcDbEntity
  8
寸法
 62
     0
 48
50.0
370
    -2
100
AcDbBlockReference
  2
_DOTSMALL
 10
8551.787102701313
 20
1940.783800803326
 30
0.0
 41
100.0
 42
100.0
 43
100.0
 50
180.0
  0
MTEXT
  5
16E6D
330
16436
100
AcDbEntity
  8
寸法
 62
     7
 48
50.0
100
AcDbMText
 10
8651.787102701312
 20
2040.795611826948
 30
0.0
 40
120.0
 41
0.0
 71
     5
 72
     1
  1
\A1;200
  7
STYLE1
 73
     1
 44
1.0
1001
ACAD
1000
MTEXTBEGIN
1070
    73
1070
     1
1070
    44
1040
1.0
1070
    74
1070
     0
1000
MTEXTEND
  0
POINT
  5
16E6E
330
16436
100
AcDbEntity
  8
DEFPOINTS
 62
     0
 48
50.0
100
AcDbPoint
 10
8751.787102701316
 20
2226.831130103703
 30
0.0
  0
POINT
  5
16E6F
330
16436
100
AcDbEntity
  8
DEFPOINTS
 62
     0
 48
50.0
100
AcDbPoint
 10
8551.787102701313
 20
2226.831130103703
 30
0.0
  0
POINT
  5
16E70
330
16436
100
AcDbEntity
  8
DEFPOINTS
 62
     0
 48
50.0
100
AcDbPoint
 10
8551.787102701313
 20
1940.783800803326
 30
0.0
  0
ENDBLK
  5
16441
330
16436
100
AcDbEntity
  8
0
 48
50.0
100
AcDbBlockEnd
  0
BLOCK
  5
16A58
330
16A4E
100
AcDbEntity
  8
0
 48
50.0
100
AcDbBlockBegin
  2
*D18
 70
     1
 10
0.0
 20
0.0
 30
0.0
  3
*D18
  1

  0
LINE
  5
16E5F
330
16A4E
100
AcDbEntity
  8
寸法
 62
     0
 48
50.0
370
    -2
100
AcDbLine
 10
4715.326756603775
 20
4366.831130103703
 30
0.0
 11
4051.674047445479
 21
4366.831130103703
 31
0.0
  0
LINE
  5
16E60
330
16A4E
100
AcDbEntity
  8
寸法
 62
     0
 48
50.0
370
    -2
100
AcDbLine
 10
4715.326756603775
 20
2576.831130103703
 30
0.0
 11
4051.674047445478
 21
2576.831130103703
 31
0.0
  0
LINE
  5
16E61
330
16A4E
100
AcDbEntity
  8
寸法
 62
     0
 48
50.0
370
    -2
100
AcDbLine
 10
4111.674047445479
 20
4366.831130103703
 30
0.0
 11
4111.674047445479
 21
2576.831130103703
 31
0.0
  0
INSERT
  5
16E62
330
16A4E
100
AcDbEntity
  8
寸法
 62
     0
 48
50.0
370
    -2
100
AcDbBlockReference
  2
_DOTSMALL
 10
4111.674047445479
 20
4366.831130103703
 30
0.0
 41
100.0
 42
100.0
 43
100.0
 50
90.0
  0
INSERT
  5
16E63
330
16A4E
100
AcDbEntity
  8
寸法
 62
     0
 48
50.0
370
    -2
100
AcDbBlockReference
  2
_DOTSMALL
 10
4111.674047445479
 20
2576.831130103703
 30
0.0
 41
100.0
 42
100.0
 43
100.0
 50
270.0
  0
MTEXT
  5
16E64
330
16A4E
100
AcDbEntity
  8
寸法
 62
     7
 48
50.0
100
AcDbMText
 10
4011.674047445477
 20
3467.285428645661
 30
0.0
 40
120.0
 41
0.0
 71
     5
 72
     1
  1
\A1;1790
  7
STYLE1
 11
0.0000000000000001
 21
1.0
 31
0.0
 73
     1
 44
1.0
1001
ACAD
1000
MTEXTBEGIN
1070
    73
1070
     1
1070
    44
1040
1.0
1070
    74
1070
     0
1000
MTEXTEND
  0
POINT
  5
16E65
330
16A4E
100
AcDbEntity
  8
DEFPOINTS
 62
     0
 48
50.0
100
AcDbPoint
 10
4735.326756603775
 20
4366.831130103703
 30
0.0
  0
POINT
  5
16E66
330
16A4E
100
AcDbEntity
  8
DEFPOINTS
 62
     0
 48
50.0
100
AcDbPoint
 10
4735.326756603775
 20
2576.831130103703
 30
0.0
  0
POINT
  5
16E67
330
16A4E
100
AcDbEntity
  8
DEFPOINTS
 62
     0
 48
50.0
100
AcDbPoint
 10
4111.674047445479
 20
2576.831130103703
 30
0.0
  0
ENDBLK
  5
16A59
330
16A4E
100
AcDbEntity
  8
0
 48
50.0
100
AcDbBlockEnd
  0
BLOCK
  5
16A64
330
16A5A
100
AcDbEntity
  8
0
 48
50.0
100
AcDbBlockBegin
  2
*D19
 70
     1
 10
0.0
 20
0.0
 30
0.0
  3
*D19
  1

  0
LINE
  5
16E56
330
16A5A
100
AcDbEntity
  8
寸法
 62
     0
 48
50.0
370
    -2
100
AcDbLine
 10
4715.326756603775
 20
2526.831130103703
 30
0.0
 11
3766.687374674417
 21
2526.831130103703
 31
0.0
  0
LINE
  5
16E57
330
16A5A
100
AcDbEntity
  8
寸法
 62
     0
 48
50.0
370
    -2
100
AcDbLine
 10
4655.326756603776
 20
4601.831130103707
 30
0.0
 11
3766.687374674418
 21
4601.831130103707
 31
0.0
  0
LINE
  5
16E58
330
16A5A
100
AcDbEntity
  8
寸法
 62
     0
 48
50.0
370
    -2
100
AcDbLine
 10
3826.687374674417
 20
2526.831130103703
 30
0.0
 11
3826.687374674417
 21
4601.831130103707
 31
0.0
  0
INSERT
  5
16E59
330
16A5A
100
AcDbEntity
  8
寸法
 62
     0
 48
50.0
370
    -2
100
AcDbBlockReference
  2
_DOTSMALL
 10
3826.687374674417
 20
2526.831130103703
 30
0.0
 41
100.0
 42
100.0
 43
100.0
 50
270.0
  0
INSERT
  5
16E5A
330
16A5A
100
AcDbEntity
  8
寸法
 62
     0
 48
50.0
370
    -2
100
AcDbBlockReference
  2
_DOTSMALL
 10
3826.687374674417
 20
4601.831130103707
 30
0.0
 41
100.0
 42
100.0
 43
100.0
 50
90.0
  0
MTEXT
  5
16E5B
330
16A5A
100
AcDbEntity
  8
寸法
 62
     7
 48
50.0
100
AcDbMText
 10
3726.675563650795
 20
3521.037007596813
 30
0.0
 40
120.0
 41
0.0
 71
     5
 72
     1
  1
\A1;2075
  7
STYLE1
 11
0.0000000000000001
 21
1.0
 31
0.0
 73
     1
 44
1.0
1001
ACAD
1000
MTEXTBEGIN
1070
    73
1070
     1
1070
    44
1040
1.0
1070
    74
1070
     0
1000
MTEXTEND
  0
POINT
  5
16E5C
330
16A5A
100
AcDbEntity
  8
DEFPOINTS
 62
     0
 48
50.0
100
AcDbPoint
 10
4735.326756603775
 20
2526.831130103703
 30
0.0
  0
POINT
  5
16E5D
330
16A5A
100
AcDbEntity
  8
DEFPOINTS
 62
     0
 48
50.0
100
AcDbPoint
 10
4675.326756603776
 20
4601.831130103707
 30
0.0
  0
POINT
  5
16E5E
330
16A5A
100
AcDbEntity
  8
DEFPOINTS
 62
     0
 48
50.0
100
AcDbPoint
 10
3826.687374674417
 20
4601.831130103707
 30
0.0
  0
ENDBLK
  5
16A65
330
16A5A
100
AcDbEntity
  8
0
 48
50.0
100
AcDbBlockEnd
  0
BLOCK
  5
16A71
330
16A66
100
AcDbEntity
  8
0
 48
50.0
100
AcDbBlockBegin
  2
*D20
 70
     1
 10
0.0
 20
0.0
 30
0.0
  3
*D20
  1

  0
LINE
  5
16E4C
330
16A66
100
AcDbEntity
  8
寸法
 62
     0
 48
50.0
370
    -2
100
AcDbLine
 10
4660.326756603775
 20
2526.831130103703
 30
0.0
 11
3766.687374674417
 21
2526.831130103703
 31
0.0
  0
LINE
  5
16E4D
330
16A66
100
AcDbEntity
  8
寸法
 62
     0
 48
50.0
370
    -2
100
AcDbLine
 10
4091.674047445478
 20
2426.831130103703
 30
0.0
 11
3766.687374674417
 21
2426.831130103703
 31
0.0
  0
LINE
  5
16E4E
330
16A66
100
AcDbEntity
  8
寸法
 62
     0
 48
50.0
370
    -2
100
AcDbLine
 10
3826.687374674417
 20
2526.831130103703
 30
0.0
 11
3826.687374674417
 21
2426.831130103703
 31
0.0
  0
LINE
  5
16E4F
330
16A66
100
AcDbEntity
  8
寸法
 62
     0
 48
50.0
370
    -2
100
AcDbLine
 10
3826.687374674417
 20
2426.831130103703
 30
0.0
 11
3826.687374674417
 21
2054.736641914725
 31
0.0
  0
INSERT
  5
16E50
330
16A66
100
AcDbEntity
  8
寸法
 62
     0
 48
50.0
370
    -2
100
AcDbBlockReference
  2
_DOTSMALL
 10
3826.687374674417
 20
2526.831130103703
 30
0.0
 41
100.0
 42
100.0
 43
100.0
 50
90.0
  0
INSERT
  5
16E51
330
16A66
100
AcDbEntity
  8
寸法
 62
     0
 48
50.0
370
    -2
100
AcDbBlockReference
  2
_DOTSMALL
 10
3826.687374674417
 20
2426.831130103703
 30
0.0
 41
100.0
 42
100.0
 43
100.0
 50
270.0
  0
MTEXT
  5
16E52
330
16A66
100
AcDbEntity
  8
寸法
 62
     7
 48
50.0
100
AcDbMText
 10
3726.687374674417
 20
2190.783886009214
 30
0.0
 40
120.0
 41
0.0
 71
     5
 72
     1
  1
\A1;100
  7
STYLE1
 11
0.0000000000000001
 21
1.0
 31
0.0
 73
     1
 44
1.0
1001
ACAD
1000
MTEXTBEGIN
1070
    73
1070
     1
1070
    44
1040
1.0
1070
    74
1070
     0
1000
MTEXTEND
  0
POINT
  5
16E53
330
16A66
100
AcDbEntity
  8
DEFPOINTS
 62
     0
 48
50.0
100
AcDbPoint
 10
4680.326756603776
 20
2526.831130103703
 30
0.0
  0
POINT
  5
16E54
330
16A66
100
AcDbEntity
  8
DEFPOINTS
 62
     0
 48
50.0
100
AcDbPoint
 10
4111.674047445478
 20
2426.831130103703
 30
0.0
  0
POINT
  5
16E55
330
16A66
100
AcDbEntity
  8
DEFPOINTS
 62
     0
 48
50.0
100
AcDbPoint
 10
3826.687374674417
 20
2426.831130103703
 30
0.0
  0
ENDBLK
  5
16A72
330
16A66
100
AcDbEntity
  8
0
 48
50.0
100
AcDbBlockEnd
  0
BLOCK
  5
16A7F
330
16A73
100
AcDbEntity
  8
0
 48
50.0
100
AcDbBlockBegin
  2
*D21
 70
     1
 10
0.0
 20
0.0
 30
0.0
  3
*D21
  1

  0
LINE
  5
16E41
330
16A73
100
AcDbEntity
  8
寸法
 62
     0
 48
50.0
370
    -2
100
AcDbLine
 10
4715.326756603775
 20
2576.831130103703
 30
0.0
 11
4051.674047445478
 21
2576.831130103703
 31
0.0
  0
LINE
  5
16E42
330
16A73
100
AcDbEntity
  8
寸法
 62
     0
 48
50.0
370
    -2
100
AcDbLine
 10
4660.326756603775
 20
2526.831130103703
 30
0.0
 11
4051.674047445478
 21
2526.831130103703
 31
0.0
  0
LINE
  5
16E43
330
16A73
100
AcDbEntity
  8
寸法
 62
     0
 48
50.0
370
    -2
100
AcDbLine
 10
4111.674047445479
 20
2576.831130103703
 30
0.0
 11
4111.674047445479
 21
2676.831130103703
 31
0.0
  0
LINE
  5
16E44
330
16A73
100
AcDbEntity
  8
寸法
 62
     0
 48
50.0
370
    -2
100
AcDbLine
 10
4111.674047445479
 20
2526.831130103703
 30
0.0
 11
4111.674047445479
 21
2114.736641914725
 31
0.0
  0
LINE
  5
16E45
330
16A73
100
AcDbEntity
  8
寸法
 62
     0
 48
50.0
370
    -2
100
AcDbLine
 10
4111.674047445479
 20
2576.831130103703
 30
0.0
 11
4111.674047445479
 21
2526.831130103703
 31
0.0
  0
INSERT
  5
16E46
330
16A73
100
AcDbEntity
  8
寸法
 62
     0
 48
50.0
370
    -2
100
AcDbBlockReference
  2
_DOTSMALL
 10
4111.674047445479
 20
2576.831130103703
 30
0.0
 41
100.0
 42
100.0
 43
100.0
 50
270.0
  0
INSERT
  5
16E47
330
16A73
100
AcDbEntity
  8
寸法
 62
     0
 48
50.0
370
    -2
100
AcDbBlockReference
  2
_DOTSMALL
 10
4111.674047445479
 20
2526.831130103703
 30
0.0
 41
100.0
 42
100.0
 43
100.0
 50
90.0
  0
MTEXT
  5
16E48
330
16A73
100
AcDbEntity
  8
寸法
 62
     7
 48
50.0
100
AcDbMText
 10
4011.674047445477
 20
2220.783886009213
 30
0.0
 40
120.0
 41
0.0
 71
     5
 72
     1
  1
\A1;50
  7
STYLE1
 11
0.0000000000000001
 21
1.0
 31
0.0
 73
     1
 44
1.0
1001
ACAD
1000
MTEXTBEGIN
1070
    73
1070
     1
1070
    44
1040
1.0
1070
    74
1070
     0
1000
MTEXTEND
  0
POINT
  5
16E49
330
16A73
100
AcDbEntity
  8
DEFPOINTS
 62
     0
 48
50.0
100
AcDbPoint
 10
4735.326756603775
 20
2576.831130103703
 30
0.0
  0
POINT
  5
16E4A
330
16A73
100
AcDbEntity
  8
DEFPOINTS
 62
     0
 48
50.0
100
AcDbPoint
 10
4680.326756603776
 20
2526.831130103703
 30
0.0
  0
POINT
  5
16E4B
330
16A73
100
AcDbEntity
  8
DEFPOINTS
 62
     0
 48
50.0
100
AcDbPoint
 10
4111.674047445479
 20
2526.831130103703
 30
0.0
  0
ENDBLK
  5
16A80
330
16A73
100
AcDbEntity
  8
0
 48
50.0
100
AcDbBlockEnd
  0
BLOCK
  5
16A8B
330
16A81
100
AcDbEntity
  8
0
 48
50.0
100
AcDbBlockBegin
  2
*D22
 70
     1
 10
0.0
 20
0.0
 30
0.0
  3
*D22
  1

  0
LINE
  5
16E38
330
16A81
100
AcDbEntity
  8
寸法
 62
     0
 48
50.0
370
    -2
100
AcDbLine
 10
6622.326756603779
 20
2526.831130103703
 30
0.0
 11
7197.496852366204
 21
2526.831130103702
 31
0.0
  0
LINE
  5
16E39
330
16A81
100
AcDbEntity
  8
寸法
 62
     0
 48
50.0
370
    -2
100
AcDbLine
 10
6625.326756603776
 20
4546.831130103703
 30
0.0
 11
7197.496852366204
 21
4546.831130103703
 31
0.0
  0
LINE
  5
16E3A
330
16A81
100
AcDbEntity
  8
寸法
 62
     0
 48
50.0
370
    -2
100
AcDbLine
 10
7137.496852366203
 20
2526.831130103703
 30
0.0
 11
7137.496852366203
 21
4546.831130103703
 31
0.0
  0
INSERT
  5
16E3B
330
16A81
100
AcDbEntity
  8
寸法
 62
     0
 48
50.0
370
    -2
100
AcDbBlockReference
  2
_DOTSMALL
 10
7137.496852366203
 20
2526.831130103703
 30
0.0
 41
100.0
 42
100.0
 43
100.0
 50
270.0
  0
INSERT
  5
16E3C
330
16A81
100
AcDbEntity
  8
寸法
 62
     0
 48
50.0
370
    -2
100
AcDbBlockReference
  2
_DOTSMALL
 10
7137.496852366203
 20
4546.831130103703
 30
0.0
 41
100.0
 42
100.0
 43
100.0
 50
90.0
  0
MTEXT
  5
16E3D
330
16A81
100
AcDbEntity
  8
寸法
 62
     7
 48
50.0
100
AcDbMText
 10
7037.485041342582
 20
3509.087457533392
 30
0.0
 40
120.0
 41
0.0
 71
     5
 72
     1
  1
\A1;2020
  7
STYLE1
 11
0.0000000000000001
 21
1.0
 31
0.0
 73
     1
 44
1.0
1001
ACAD
1000
MTEXTBEGIN
1070
    73
1070
     1
1070
    44
1040
1.0
1070
    74
1070
     0
1000
MTEXTEND
  0
POINT
  5
16E3E
330
16A81
100
AcDbEntity
  8
DEFPOINTS
 62
     0
 48
50.0
100
AcDbPoint
 10
6602.326756603779
 20
2526.831130103703
 30
0.0
  0
POINT
  5
16E3F
330
16A81
100
AcDbEntity
  8
DEFPOINTS
 62
     0
 48
50.0
100
AcDbPoint
 10
6605.326756603776
 20
4546.831130103703
 30
0.0
  0
POINT
  5
16E40
330
16A81
100
AcDbEntity
  8
DEFPOINTS
 62
     0
 48
50.0
100
AcDbPoint
 10
7137.496852366203
 20
4546.831130103703
 30
0.0
  0
ENDBLK
  5
16A8C
330
16A81
100
AcDbEntity
  8
0
 48
50.0
100
AcDbBlockEnd
  0
BLOCK
  5
16A97
330
16A8D
100
AcDbEntity
  8
0
 48
50.0
100
AcDbBlockBegin
  2
*D23
 70
     1
 10
0.0
 20
0.0
 30
0.0
  3
*D23
  1

  0
LINE
  5
16E2F
330
16A8D
100
AcDbEntity
  8
寸法
 62
     0
 48
50.0
370
    -2
100
AcDbLine
 10
6525.326756603776
 20
4568.641809715356
 30
0.0
 11
6525.326756603776
 21
5060.924299443176
 31
0.0
  0
LINE
  5
16E30
330
16A8D
100
AcDbEntity
  8
寸法
 62
     0
 48
50.0
370
    -2
100
AcDbLine
 10
4735.326756603775
 20
4617.832748226679
 30
0.0
 11
4735.326756603775
 21
5060.924299443176
 31
0.0
  0
LINE
  5
16E31
330
16A8D
100
AcDbEntity
  8
寸法
 62
     0
 48
50.0
370
    -2
100
AcDbLine
 10
6525.326756603776
 20
5000.924299443176
 30
0.0
 11
4735.326756603775
 21
5000.924299443176
 31
0.0
  0
INSERT
  5
16E32
330
16A8D
100
AcDbEntity
  8
寸法
 62
     0
 48
50.0
370
    -2
100
AcDbBlockReference
  2
_DOTSMALL
 10
6525.326756603776
 20
5000.924299443176
 30
0.0
 41
100.0
 42
100.0
 43
100.0
  0
INSERT
  5
16E33
330
16A8D
100
AcDbEntity
  8
寸法
 62
     0
 48
50.0
370
    -2
100
AcDbBlockReference
  2
_DOTSMALL
 10
4735.326756603775
 20
5000.924299443176
 30
0.0
 41
100.0
 42
100.0
 43
100.0
 50
180.0
  0
MTEXT
  5
16E34
330
16A8D
100
AcDbEntity
  8
寸法
 62
     7
 48
50.0
100
AcDbMText
 10
5644.922405280256
 20
5100.924299443176
 30
0.0
 40
120.0
 41
0.0
 71
     5
 72
     1
  1
\A1;柱外寸法1790
  7
STYLE1
 73
     1
 44
1.0
1001
ACAD
1000
MTEXTBEGIN
1070
    73
1070
     1
1070
    44
1040
1.0
1070
    74
1070
     0
1000
MTEXTEND
  0
POINT
  5
16E35
330
16A8D
100
AcDbEntity
  8
DEFPOINTS
 62
     0
 48
50.0
100
AcDbPoint
 10
6525.326756603776
 20
4548.641809715356
 30
0.0
  0
POINT
  5
16E36
330
16A8D
100
AcDbEntity
  8
DEFPOINTS
 62
     0
 48
50.0
100
AcDbPoint
 10
4735.326756603775
 20
4597.83274822668
 30
0.0
  0
POINT
  5
16E37
330
16A8D
100
AcDbEntity
  8
DEFPOINTS
 62
     0
 48
50.0
100
AcDbPoint
 10
4735.326756603775
 20
5000.924299443176
 30
0.0
  0
ENDBLK
  5
16A98
330
16A8D
100
AcDbEntity
  8
0
 48
50.0
100
AcDbBlockEnd
  0
BLOCK
  5
16AA5
330
16A99
100
AcDbEntity
  8
0
 48
50.0
100
AcDbBlockBegin
  2
*D24
 70
     1
 10
0.0
 20
0.0
 30
0.0
  3
*D24
  1

  0
LINE
  5
16E24
330
16A99
100
AcDbEntity
  8
寸法
 62
     0
 48
50.0
370
    -2
100
AcDbLine
 10
4735.326756603775
 20
4617.832748226679
 30
0.0
 11
4735.326756603775
 21
5060.488583683007
 31
0.0
  0
LINE
  5
16E25
330
16A99
100
AcDbEntity
  8
寸法
 62
     0
 48
50.0
370
    -2
100
AcDbLine
 10
4675.326756603776
 20
4621.831130103707
 30
0.0
 11
4675.326756603776
 21
5060.488583683007
 31
0.0
  0
LINE
  5
16E26
330
16A99
100
AcDbEntity
  8
寸法
 62
     0
 48
50.0
370
    -2
100
AcDbLine
 10
4735.326756603775
 20
5000.488583683007
 30
0.0
 11
4835.326756603776
 21
5000.488583683007
 31
0.0
  0
LINE
  5
16E27
330
16A99
100
AcDbEntity
  8
寸法
 62
     0
 48
50.0
370
    -2
100
AcDbLine
 10
4675.326756603776
 20
5000.488583683007
 30
0.0
 11
4256.051166052595
 21
5000.488583683007
 31
0.0
  0
LINE
  5
16E28
330
16A99
100
AcDbEntity
  8
寸法
 62
     0
 48
50.0
370
    -2
100
AcDbLine
 10
4735.326756603775
 20
5000.488583683007
 30
0.0
 11
4675.326756603776
 21
5000.488583683007
 31
0.0
  0
INSERT
  5
16E29
330
16A99
100
AcDbEntity
  8
寸法
 62
     0
 48
50.0
370
    -2
100
AcDbBlockReference
  2
_DOTSMALL
 10
4735.326756603775
 20
5000.488583683007
 30
0.0
 41
100.0
 42
100.0
 43
100.0
 50
180.0
  0
INSERT
  5
16E2A
330
16A99
100
AcDbEntity
  8
寸法
 62
     0
 48
50.0
370
    -2
100
AcDbBlockReference
  2
_DOTSMALL
 10
4675.326756603776
 20
5000.488583683007
 30
0.0
 41
100.0
 42
100.0
 43
100.0
  0
MTEXT
  5
16E2B
330
16A99
100
AcDbEntity
  8
寸法
 62
     7
 48
50.0
100
AcDbMText
 10
4365.688961328185
 20
5100.488583683007
 30
0.0
 40
120.0
 41
0.0
 71
     5
 72
     1
  1
\A1;60
  7
STYLE1
 73
     1
 44
1.0
1001
ACAD
1000
MTEXTBEGIN
1070
    73
1070
     1
1070
    44
1040
1.0
1070
    74
1070
     0
1000
MTEXTEND
  0
POINT
  5
16E2C
330
16A99
100
AcDbEntity
  8
DEFPOINTS
 62
     0
 48
50.0
100
AcDbPoint
 10
4735.326756603775
 20
4597.83274822668
 30
0.0
  0
POINT
  5
16E2D
330
16A99
100
AcDbEntity
  8
DEFPOINTS
 62
     0
 48
50.0
100
AcDbPoint
 10
4675.326756603776
 20
4601.831130103707
 30
0.0
  0
POINT
  5
16E2E
330
16A99
100
AcDbEntity
  8
DEFPOINTS
 62
     0
 48
50.0
100
AcDbPoint
 10
4675.326756603776
 20
5000.488583683007
 30
0.0
  0
ENDBLK
  5
16AA6
330
16A99
100
AcDbEntity
  8
0
 48
50.0
100
AcDbBlockEnd
  0
BLOCK
  5
16AB1
330
16AA7
100
AcDbEntity
  8
0
 48
50.0
100
AcDbBlockBegin
  2
*D25
 70
     1
 10
0.0
 20
0.0
 30
0.0
  3
*D25
  1

  0
LINE
  5
16E1B
330
16AA7
100
AcDbEntity
  8
寸法
 62
     0
 48
50.0
370
    -2
100
AcDbLine
 10
6605.326756603776
 20
4566.831130103703
 30
0.0
 11
6605.326756603776
 21
5277.450399061621
 31
0.0
  0
LINE
  5
16E1C
330
16AA7
100
AcDbEntity
  8
寸法
 62
     0
 48
50.0
370
    -2
100
AcDbLine
 10
4675.326756603776
 20
4621.831130103707
 30
0.0
 11
4675.326756603776
 21
5277.450399061621
 31
0.0
  0
LINE
  5
16E1D
330
16AA7
100
AcDbEntity
  8
寸法
 62
     0
 48
50.0
370
    -2
100
AcDbLine
 10
6605.326756603776
 20
5217.450399061622
 30
0.0
 11
4675.326756603776
 21
5217.450399061622
 31
0.0
  0
INSERT
  5
16E1E
330
16AA7
100
AcDbEntity
  8
寸法
 62
     0
 48
50.0
370
    -2
100
AcDbBlockReference
  2
_DOTSMALL
 10
6605.326756603776
 20
5217.450399061622
 30
0.0
 41
100.0
 42
100.0
 43
100.0
  0
INSERT
  5
16E1F
330
16AA7
100
AcDbEntity
  8
寸法
 62
     0
 48
50.0
370
    -2
100
AcDbBlockReference
  2
_DOTSMALL
 10
4675.326756603776
 20
5217.450399061622
 30
0.0
 41
100.0
 42
100.0
 43
100.0
 50
180.0
  0
MTEXT
  5
16E20
330
16AA7
100
AcDbEntity
  8
寸法
 62
     7
 48
50.0
100
AcDbMText
 10
5581.132507854746
 20
5317.450399061621
 30
0.0
 40
120.0
 41
0.0
 71
     5
 72
     1
  1
\A1;1930
  7
STYLE1
 73
     1
 44
1.0
1001
ACAD
1000
MTEXTBEGIN
1070
    73
1070
     1
1070
    44
1040
1.0
1070
    74
1070
     0
1000
MTEXTEND
  0
POINT
  5
16E21
330
16AA7
100
AcDbEntity
  8
DEFPOINTS
 62
     0
 48
50.0
100
AcDbPoint
 10
6605.326756603776
 20
4546.831130103703
 30
0.0
  0
POINT
  5
16E22
330
16AA7
100
AcDbEntity
  8
DEFPOINTS
 62
     0
 48
50.0
100
AcDbPoint
 10
4675.326756603776
 20
4601.831130103707
 30
0.0
  0
POINT
  5
16E23
330
16AA7
100
AcDbEntity
  8
DEFPOINTS
 62
     0
 48
50.0
100
AcDbPoint
 10
4675.326756603776
 20
5217.450399061622
 30
0.0
  0
ENDBLK
  5
16AB2
330
16AA7
100
AcDbEntity
  8
0
 48
50.0
100
AcDbBlockEnd
  0
BLOCK
  5
16ABE
330
16AB3
100
AcDbEntity
  8
0
 48
50.0
100
AcDbBlockBegin
  2
*D26
 70
     1
 10
0.0
 20
0.0
 30
0.0
  3
*D26
  1

  0
LINE
  5
16E11
330
16AB3
100
AcDbEntity
  8
寸法
 62
     0
 48
50.0
370
    -2
100
AcDbLine
 10
6525.326756603776
 20
4568.641809715356
 30
0.0
 11
6525.326756603776
 21
5060.488583683007
 31
0.0
  0
LINE
  5
16E12
330
16AB3
100
AcDbEntity
  8
寸法
 62
     0
 48
50.0
370
    -2
100
AcDbLine
 10
6605.326756603776
 20
4566.831130103703
 30
0.0
 11
6605.326756603776
 21
5060.488583683007
 31
0.0
  0
LINE
  5
16E13
330
16AB3
100
AcDbEntity
  8
寸法
 62
     0
 48
50.0
370
    -2
100
AcDbLine
 10
6525.326756603776
 20
5000.488583683007
 30
0.0
 11
6605.326756603776
 21
5000.488583683007
 31
0.0
  0
LINE
  5
16E14
330
16AB3
100
AcDbEntity
  8
寸法
 62
     0
 48
50.0
370
    -2
100
AcDbLine
 10
6605.326756603776
 20
5000.488583683007
 30
0.0
 11
6917.421244792754
 21
5000.488583683007
 31
0.0
  0
INSERT
  5
16E15
330
16AB3
100
AcDbEntity
  8
寸法
 62
     0
 48
50.0
370
    -2
100
AcDbBlockReference
  2
_DOTSMALL
 10
6525.326756603776
 20
5000.488583683007
 30
0.0
 41
100.0
 42
100.0
 43
100.0
 50
180.0
  0
INSERT
  5
16E16
330
16AB3
100
AcDbEntity
  8
寸法
 62
     0
 48
50.0
370
    -2
100
AcDbBlockReference
  2
_DOTSMALL
 10
6605.326756603776
 20
5000.488583683007
 30
0.0
 41
100.0
 42
100.0
 43
100.0
  0
MTEXT
  5
16E17
330
16AB3
100
AcDbEntity
  8
寸法
 62
     7
 48
50.0
100
AcDbMText
 10
6811.374000698267
 20
5100.488583683007
 30
0.0
 40
120.0
 41
0.0
 71
     5
 72
     1
  1
\A1;80
  7
STYLE1
 73
     1
 44
1.0
1001
ACAD
1000
MTEXTBEGIN
1070
    73
1070
     1
1070
    44
1040
1.0
1070
    74
1070
     0
1000
MTEXTEND
  0
POINT
  5
16E18
330
16AB3
100
AcDbEntity
  8
DEFPOINTS
 62
     0
 48
50.0
100
AcDbPoint
 10
6525.326756603776
 20
4548.641809715356
 30
0.0
  0
POINT
  5
16E19
330
16AB3
100
AcDbEntity
  8
DEFPOINTS
 62
     0
 48
50.0
100
AcDbPoint
 10
6605.326756603776
 20
4546.831130103703
 30
0.0
  0
POINT
  5
16E1A
330
16AB3
100
AcDbEntity
  8
DEFPOINTS
 62
     0
 48
50.0
100
AcDbPoint
 10
6605.326756603776
 20
5000.488583683007
 30
0.0
  0
ENDBLK
  5
16ABF
330
16AB3
100
AcDbEntity
  8
0
 48
50.0
100
AcDbBlockEnd
  0
BLOCK
  5
16ACB
330
16AC0
100
AcDbEntity
  8
0
 48
50.0
100
AcDbBlockBegin
  2
*D27
 70
     1
 10
0.0
 20
0.0
 30
0.0
  3
*D27
  1

  0
LINE
  5
16E07
330
16AC0
100
AcDbEntity
  8
寸法
 62
     0
 48
50.0
370
    -2
100
AcDbLine
 10
4674.731042894876
 20
4601.128837173365
 30
0.0
 11
4058.796603789609
 21
4618.842987447693
 31
0.0
  0
LINE
  5
16E08
330
16AC0
100
AcDbEntity
  8
寸法
 62
     0
 48
50.0
370
    -2
100
AcDbLine
 10
4670.677587338251
 20
4460.187113407652
 30
0.0
 11
4054.743148232983
 21
4477.901263681981
 31
0.0
  0
LINE
  5
16E09
330
16AC0
100
AcDbEntity
  8
寸法
 62
     0
 48
50.0
370
    -2
100
AcDbLine
 10
4114.718349835414
 20
4476.176388977034
 30
0.0
 11
4118.77180539204
 21
4617.118112742747
 31
0.0
  0
LINE
  5
16E0A
330
16AC0
100
AcDbEntity
  8
寸法
 62
     0
 48
50.0
370
    -2
100
AcDbLine
 10
4118.77180539204
 20
4617.118112742747
 30
0.0
 11
4129.121053621725
 21
4976.969322357332
 31
0.0
  0
INSERT
  5
16E0B
330
16AC0
100
AcDbEntity
  8
寸法
 62
     0
 48
50.0
370
    -2
100
AcDbBlockReference
  2
_DOTSMALL
 10
4114.718349835414
 20
4476.176388977034
 30
0.0
 41
100.0
 42
100.0
 43
100.0
 50
268.3526390256378
  0
INSERT
  5
16E0C
330
16AC0
100
AcDbEntity
  8
寸法
 62
     0
 48
50.0
370
    -2
100
AcDbBlockReference
  2
_DOTSMALL
 10
4118.77180539204
 20
4617.118112742747
 30
0.0
 41
100.0
 42
100.0
 43
100.0
 50
88.35263902563776
  0
MTEXT
  5
16E0D
330
16AC0
100
AcDbEntity
  8
寸法
 62
     7
 48
50.0
100
AcDbMText
 10
4025.425155756954
 20
4849.897843393645
 30
0.0
 40
120.0
 41
0.0
 71
     5
 72
     1
  1
\A1;141
  7
STYLE1
 11
0.0287479117491237
 21
0.9995866933738488
 31
0.0
 73
     1
 44
1.0
1001
ACAD
1000
MTEXTBEGIN
1070
    73
1070
     1
1070
    44
1040
1.0
1070
    74
1070
     0
1000
MTEXTEND
  0
POINT
  5
16E0E
330
16AC0
100
AcDbEntity
  8
DEFPOINTS
 62
     0
 48
50.0
100
AcDbPoint
 10
4694.722776762354
 20
4600.553878938382
 30
0.0
  0
POINT
  5
16E0F
330
16AC0
100
AcDbEntity
  8
DEFPOINTS
 62
     0
 48
50.0
100
AcDbPoint
 10
4690.669321205729
 20
4459.61215517267
 30
0.0
  0
POINT
  5
16E10
330
16AC0
100
AcDbEntity
  8
DEFPOINTS
 62
     0
 48
50.0
100
AcDbPoint
 10
4114.718349835414
 20
4476.176388977034
 30
0.0
  0
ENDBLK
  5
16ACC
330
16AC0
100
AcDbEntity
  8
0
 48
50.0
100
AcDbBlockEnd
  0
BLOCK
  5
16AD7
330
16ACD
100
AcDbEntity
  8
0
 48
50.0
100
AcDbBlockBegin
  2
*D28
 70
     1
 10
0.0
 20
0.0
 30
0.0
  3
*D28
  1

  0
LINE
  5
16DFE
330
16ACD
100
AcDbEntity
  8
寸法
 62
     0
 48
50.0
370
    -2
100
AcDbLine
 10
4642.826756603779
 20
2226.831130103702
 30
0.0
 11
4453.326753357142
 21
2226.831130103702
 31
0.0
  0
LINE
  5
16DFF
330
16ACD
100
AcDbEntity
  8
寸法
 62
     0
 48
50.0
370
    -2
100
AcDbLine
 10
4617.826756603776
 20
2426.831130103703
 30
0.0
 11
4453.326753357142
 21
2426.831130103703
 31
0.0
  0
LINE
  5
16E00
330
16ACD
100
AcDbEntity
  8
寸法
 62
     0
 48
50.0
370
    -2
100
AcDbLine
 10
4513.326753357143
 20
2226.831130103702
 30
0.0
 11
4513.326753357143
 21
2426.831130103703
 31
0.0
  0
INSERT
  5
16E01
330
16ACD
100
AcDbEntity
  8
寸法
 62
     0
 48
50.0
370
    -2
100
AcDbBlockReference
  2
_DOTSMALL
 10
4513.326753357143
 20
2226.831130103702
 30
0.0
 41
100.0
 42
100.0
 43
100.0
 50
270.0
  0
INSERT
  5
16E02
330
16ACD
100
AcDbEntity
  8
寸法
 62
     0
 48
50.0
370
    -2
100
AcDbBlockReference
  2
_DOTSMALL
 10
4513.326753357143
 20
2426.831130103703
 30
0.0
 41
100.0
 42
100.0
 43
100.0
 50
90.0
  0
MTEXT
  5
16E03
330
16ACD
100
AcDbEntity
  8
寸法
 62
     7
 48
50.0
100
AcDbMText
 10
4413.31494233352
 20
2326.831130103703
 30
0.0
 40
120.0
 41
0.0
 71
     5
 72
     1
  1
\A1;200
  7
STYLE1
 11
0.0000000000000001
 21
1.0
 31
0.0
 73
     1
 44
1.0
1001
ACAD
1000
MTEXTBEGIN
1070
    73
1070
     1
1070
    44
1040
1.0
1070
    74
1070
     0
1000
MTEXTEND
  0
POINT
  5
16E04
330
16ACD
100
AcDbEntity
  8
DEFPOINTS
 62
     0
 48
50.0
100
AcDbPoint
 10
4662.826756603779
 20
2226.831130103702
 30
0.0
  0
POINT
  5
16E05
330
16ACD
100
AcDbEntity
  8
DEFPOINTS
 62
     0
 48
50.0
100
AcDbPoint
 10
4637.826756603775
 20
2426.831130103703
 30
0.0
  0
POINT
  5
16E06
330
16ACD
100
AcDbEntity
  8
DEFPOINTS
 62
     0
 48
50.0
100
AcDbPoint
 10
4513.326753357143
 20
2426.831130103703
 30
0.0
  0
ENDBLK
  5
16AD8
330
16ACD
100
AcDbEntity
  8
0
 48
50.0
100
AcDbBlockEnd
  0
BLOCK
  5
16AE3
330
16AD9
100
AcDbEntity
  8
0
 48
50.0
100
AcDbBlockBegin
  2
*D29
 70
     1
 10
0.0
 20
0.0
 30
0.0
  3
*D29
  1

  0
LINE
  5
16DF5
330
16AD9
100
AcDbEntity
  8
寸法
 62
     0
 48
50.0
370
    -2
100
AcDbLine
 10
4862.826756603776
 20
2206.8311301037
 30
0.0
 11
4862.826756603776
 21
1880.783800803324
 31
0.0
  0
LINE
  5
16DF6
330
16AD9
100
AcDbEntity
  8
寸法
 62
     0
 48
50.0
370
    -2
100
AcDbLine
 10
4662.826756603779
 20
2206.831130103702
 30
0.0
 11
4662.826756603779
 21
1880.783800803324
 31
0.0
  0
LINE
  5
16DF7
330
16AD9
100
AcDbEntity
  8
寸法
 62
     0
 48
50.0
370
    -2
100
AcDbLine
 10
4862.826756603776
 20
1940.783800803324
 30
0.0
 11
4662.826756603779
 21
1940.783800803324
 31
0.0
  0
INSERT
  5
16DF8
330
16AD9
100
AcDbEntity
  8
寸法
 62
     0
 48
50.0
370
    -2
100
AcDbBlockReference
  2
_DOTSMALL
 10
4862.826756603776
 20
1940.783800803324
 30
0.0
 41
100.0
 42
100.0
 43
100.0
  0
INSERT
  5
16DF9
330
16AD9
100
AcDbEntity
  8
寸法
 62
     0
 48
50.0
370
    -2
100
AcDbBlockReference
  2
_DOTSMALL
 10
4662.826756603779
 20
1940.783800803324
 30
0.0
 41
100.0
 42
100.0
 43
100.0
 50
180.0
  0
MTEXT
  5
16DFA
330
16AD9
100
AcDbEntity
  8
寸法
 62
     7
 48
50.0
100
AcDbMText
 10
4762.826756603778
 20
2040.795611826947
 30
0.0
 40
120.0
 41
0.0
 71
     5
 72
     1
  1
\A1;200
  7
STYLE1
 73
     1
 44
1.0
1001
ACAD
1000
MTEXTBEGIN
1070
    73
1070
     1
1070
    44
1040
1.0
1070
    74
1070
     0
1000
MTEXTEND
  0
POINT
  5
16DFB
330
16AD9
100
AcDbEntity
  8
DEFPOINTS
 62
     0
 48
50.0
100
AcDbPoint
 10
4862.826756603776
 20
2226.8311301037
 30
0.0
  0
POINT
  5
16DFC
330
16AD9
100
AcDbEntity
  8
DEFPOINTS
 62
     0
 48
50.0
100
AcDbPoint
 10
4662.826756603779
 20
2226.831130103702
 30
0.0
  0
POINT
  5
16DFD
330
16AD9
100
AcDbEntity
  8
DEFPOINTS
 62
     0
 48
50.0
100
AcDbPoint
 10
4662.826756603779
 20
1940.783800803324
 30
0.0
  0
ENDBLK
  5
16AE4
330
16AD9
100
AcDbEntity
  8
0
 48
50.0
100
AcDbBlockEnd
  0
BLOCK
  5
17A3B
330
17A31
100
AcDbEntity
  8
0
 48
50.0
100
AcDbBlockBegin
  2
*D30
 70
     1
 10
0.0
 20
0.0
 30
0.0
  3
*D30
  1

  0
LINE
  5
17EDB
330
17A31
100
AcDbEntity
  8
寸法
 62
     0
 48
50.0
370
    -2
100
AcDbLine
 10
8718.787102701297
 20
7547.943081698763
 30
0.0
 11
8718.787102701297
 21
6875.103067175435
 31
0.0
  0
LINE
  5
17EDC
330
17A31
100
AcDbEntity
  8
寸法
 62
     0
 48
50.0
370
    -2
100
AcDbLine
 10
9984.787102701297
 20
7547.943081698763
 30
0.0
 11
9984.787102701297
 21
6875.103067175435
 31
0.0
  0
LINE
  5
17EDD
330
17A31
100
AcDbEntity
  8
寸法
 62
     0
 48
50.0
370
    -2
100
AcDbLine
 10
8738.787102701294
 20
6915.103067175434
 30
0.0
 11
9964.787102701295
 21
6915.103067175434
 31
0.0
  0
INSERT
  5
17EDE
330
17A31
100
AcDbEntity
  8
寸法
 62
     0
 48
50.0
370
    -2
100
AcDbBlockReference
  2
_DOT
 10
8718.787102701297
 20
6915.103067175434
 30
0.0
 41
20.0
 42
20.0
 43
20.0
 50
180.0
  0
INSERT
  5
17EDF
330
17A31
100
AcDbEntity
  8
寸法
 62
     0
 48
50.0
370
    -2
100
AcDbBlockReference
  2
_DOT
 10
9984.787102701297
 20
6915.103067175434
 30
0.0
 41
20.0
 42
20.0
 43
20.0
  0
MTEXT
  5
17EE0
330
17A31
100
AcDbEntity
  8
寸法
 62
     7
 48
50.0
100
AcDbMText
 10
9365.543483443108
 20
7107.114878199055
 30
0.0
 40
120.0
 41
0.0
 71
     5
 72
     1
  1
\A1;有効開口部間口\P1266
  7
STYLE1
 73
     1
 44
1.0
1001
ACAD
1000
MTEXTBEGIN
1070
    73
1070
     1
1070
    44
1040
1.0
1070
    74
1070
     0
1000
MTEXTEND
  0
POINT
  5
17EE1
330
17A31
100
AcDbEntity
  8
DEFPOINTS
 62
     0
 48
50.0
100
AcDbPoint
 10
8718.787102701297
 20
7567.943081698762
 30
0.0
  0
POINT
  5
17EE2
330
17A31
100
AcDbEntity
  8
DEFPOINTS
 62
     0
 48
50.0
100
AcDbPoint
 10
9984.787102701297
 20
7567.943081698762
 30
0.0
  0
POINT
  5
17EE3
330
17A31
100
AcDbEntity
  8
DEFPOINTS
 62
     0
 48
50.0
100
AcDbPoint
 10
9984.787102701297
 20
6915.103067175434
 30
0.0
  0
ENDBLK
  5
17A3C
330
17A31
100
AcDbEntity
  8
0
 48
50.0
100
AcDbBlockEnd
  0
BLOCK
  5
17D5F
330
17D55
100
AcDbEntity
  8
0
 48
50.0
100
AcDbBlockBegin
  2
*D31
 70
     1
 10
0.0
 20
0.0
 30
0.0
  3
*D31
  1

  0
LINE
  5
17ED2
330
17D55
100
AcDbEntity
  8
寸法
 62
     0
 48
50.0
370
    -2
100
AcDbLine
 10
8679.787102701263
 20
7547.943081698766
 30
0.0
 11
8679.787102701263
 21
6543.269886178368
 31
0.0
  0
LINE
  5
17ED3
330
17D55
100
AcDbEntity
  8
寸法
 62
     0
 48
50.0
370
    -2
100
AcDbLine
 10
10833.78710270126
 20
7547.943081698766
 30
0.0
 11
10833.78710270126
 21
6543.269886178368
 31
0.0
  0
LINE
  5
17ED4
330
17D55
100
AcDbEntity
  8
寸法
 62
     0
 48
50.0
370
    -2
100
AcDbLine
 10
8679.787102701263
 20
6603.269886178367
 30
0.0
 11
10833.78710270126
 21
6603.269886178367
 31
0.0
  0
INSERT
  5
17ED5
330
17D55
100
AcDbEntity
  8
寸法
 62
     0
 48
50.0
370
    -2
100
AcDbBlockReference
  2
_DOTSMALL
 10
8679.787102701263
 20
6603.269886178367
 30
0.0
 41
100.0
 42
100.0
 43
100.0
 50
180.0
  0
INSERT
  5
17ED6
330
17D55
100
AcDbEntity
  8
寸法
 62
     0
 48
50.0
370
    -2
100
AcDbBlockReference
  2
_DOTSMALL
 10
10833.78710270126
 20
6603.269886178367
 30
0.0
 41
100.0
 42
100.0
 43
100.0
  0
MTEXT
  5
17ED7
330
17D55
100
AcDbEntity
  8
寸法
 62
     7
 48
50.0
100
AcDbMText
 10
9756.787102701263
 20
6703.281697201989
 30
0.0
 40
120.0
 41
0.0
 71
     5
 72
     1
  1
\A1;2154
  7
STYLE1
 73
     1
 44
1.0
1001
ACAD
1000
MTEXTBEGIN
1070
    73
1070
     1
1070
    44
1040
1.0
1070
    74
1070
     0
1000
MTEXTEND
  0
POINT
  5
17ED8
330
17D55
100
AcDbEntity
  8
DEFPOINTS
 62
     0
 48
50.0
100
AcDbPoint
 10
8679.787102701263
 20
7567.943081698764
 30
0.0
  0
POINT
  5
17ED9
330
17D55
100
AcDbEntity
  8
DEFPOINTS
 62
     0
 48
50.0
100
AcDbPoint
 10
10833.78710270126
 20
7567.943081698764
 30
0.0
  0
POINT
  5
17EDA
330
17D55
100
AcDbEntity
  8
DEFPOINTS
 62
     0
 48
50.0
100
AcDbPoint
 10
10833.78710270126
 20
6603.269886178367
 30
0.0
  0
ENDBLK
  5
17D60
330
17D55
100
AcDbEntity
  8
0
 48
50.0
100
AcDbBlockEnd
  0
BLOCK
  5
17D6D
330
17D61
100
AcDbEntity
  8
0
 48
50.0
100
AcDbBlockBegin
  2
*D32
 70
     1
 10
0.0
 20
0.0
 30
0.0
  3
*D32
  1

  0
LINE
  5
17EC7
330
17D61
100
AcDbEntity
  8
寸法
 62
     0
 48
50.0
370
    -2
100
AcDbLine
 10
8631.787102701315
 20
7644.943081698819
 30
0.0
 11
8317.175857074596
 21
7644.943081698819
 31
0.0
  0
LINE
  5
17EC8
330
17D61
100
AcDbEntity
  8
寸法
 62
     0
 48
50.0
370
    -2
100
AcDbLine
 10
8659.787102701292
 20
7569.94308169882
 30
0.0
 11
8317.175857074596
 21
7569.94308169882
 31
0.0
  0
LINE
  5
17EC9
330
17D61
100
AcDbEntity
  8
寸法
 62
     0
 48
50.0
370
    -2
100
AcDbLine
 10
8357.175857074597
 20
7664.94308169882
 30
0.0
 11
8357.175857074597
 21
7684.94308169882
 31
0.0
  0
LINE
  5
17ECA
330
17D61
100
AcDbEntity
  8
寸法
 62
     0
 48
50.0
370
    -2
100
AcDbLine
 10
8357.175857074597
 20
7549.94308169882
 30
0.0
 11
8357.175857074597
 21
7328.972518950341
 31
0.0
  0
LINE
  5
17ECB
330
17D61
100
AcDbEntity
  8
寸法
 62
     0
 48
50.0
370
    -2
100
AcDbLine
 10
8357.175857074597
 20
7644.943081698819
 30
0.0
 11
8357.175857074597
 21
7569.94308169882
 31
0.0
  0
INSERT
  5
17ECC
330
17D61
100
AcDbEntity
  8
寸法
 62
     0
 48
50.0
370
    -2
100
AcDbBlockReference
  2
_DOT
 10
8357.175857074597
 20
7644.943081698819
 30
0.0
 41
20.0
 42
20.0
 43
20.0
 50
270.0
  0
INSERT
  5
17ECD
330
17D61
100
AcDbEntity
  8
寸法
 62
     0
 48
50.0
370
    -2
100
AcDbBlockReference
  2
_DOT
 10
8357.175857074597
 20
7569.94308169882
 30
0.0
 41
20.0
 42
20.0
 43
20.0
 50
90.0
  0
MTEXT
  5
17ECE
330
17D61
100
AcDbEntity
  8
寸法
 62
     7
 48
50.0
100
AcDbMText
 10
8265.175857074595
 20
7429.457800324581
 30
0.0
 40
120.0
 41
0.0
 71
     5
 72
     1
  1
\A1;75
  7
STYLE1
 11
0.0000000000000001
 21
1.0
 31
0.0
 73
     1
 44
1.0
1001
ACAD
1000
MTEXTBEGIN
1070
    73
1070
     1
1070
    44
1040
1.0
1070
    74
1070
     0
1000
MTEXTEND
  0
POINT
  5
17ECF
330
17D61
100
AcDbEntity
  8
DEFPOINTS
 62
     0
 48
50.0
100
AcDbPoint
 10
8651.787102701312
 20
7644.943081698819
 30
0.0
  0
POINT
  5
17ED0
330
17D61
100
AcDbEntity
  8
DEFPOINTS
 62
     0
 48
50.0
100
AcDbPoint
 10
8679.787102701292
 20
7569.94308169882
 30
0.0
  0
POINT
  5
17ED1
330
17D61
100
AcDbEntity
  8
DEFPOINTS
 62
     0
 48
50.0
100
AcDbPoint
 10
8357.175857074597
 20
7569.94308169882
 30
0.0
  0
ENDBLK
  5
17D6E
330
17D61
100
AcDbEntity
  8
0
 48
50.0
100
AcDbBlockEnd
  0
BLOCK
  5
17DB7
330
17DAD
100
AcDbEntity
  8
0
 48
50.0
100
AcDbBlockBegin
  2
*D33
 70
     1
 10
0.0
 20
0.0
 30
0.0
  3
*D33
  1

  0
LINE
  5
17EBE
330
17DAD
100
AcDbEntity
  8
寸法
 62
     0
 48
50.0
370
    -2
100
AcDbLine
 10
8651.787102701312
 20
7624.943081698787
 30
0.0
 11
8651.787102701312
 21
6280.916756171889
 31
0.0
  0
LINE
  5
17EBF
330
17DAD
100
AcDbEntity
  8
寸法
 62
     0
 48
50.0
370
    -2
100
AcDbLine
 10
10861.78710270129
 20
7624.943081698915
 30
0.0
 11
10861.78710270129
 21
6280.916756171889
 31
0.0
  0
LINE
  5
17EC0
330
17DAD
100
AcDbEntity
  8
寸法
 62
     0
 48
50.0
370
    -2
100
AcDbLine
 10
8651.787102701312
 20
6340.916756171889
 30
0.0
 11
10861.78710270129
 21
6340.916756171889
 31
0.0
  0
INSERT
  5
17EC1
330
17DAD
100
AcDbEntity
  8
寸法
 62
     0
 48
50.0
370
    -2
100
AcDbBlockReference
  2
_DOTSMALL
 10
8651.787102701312
 20
6340.916756171889
 30
0.0
 41
100.0
 42
100.0
 43
100.0
 50
180.0
  0
INSERT
  5
17EC2
330
17DAD
100
AcDbEntity
  8
寸法
 62
     0
 48
50.0
370
    -2
100
AcDbBlockReference
  2
_DOTSMALL
 10
10861.78710270129
 20
6340.916756171889
 30
0.0
 41
100.0
 42
100.0
 43
100.0
  0
MTEXT
  5
17EC3
330
17DAD
100
AcDbEntity
  8
寸法
 62
     7
 48
50.0
100
AcDbMText
 10
9755.36853390974
 20
6440.92856719551
 30
0.0
 40
120.0
 41
0.0
 71
     5
 72
     1
  1
\A1;2210
  7
STYLE1
 73
     1
 44
1.0
1001
ACAD
1000
MTEXTBEGIN
1070
    73
1070
     1
1070
    44
1040
1.0
1070
    74
1070
     0
1000
MTEXTEND
  0
POINT
  5
17EC4
330
17DAD
100
AcDbEntity
  8
DEFPOINTS
 62
     0
 48
50.0
100
AcDbPoint
 10
8651.787102701312
 20
7644.943081698787
 30
0.0
  0
POINT
  5
17EC5
330
17DAD
100
AcDbEntity
  8
DEFPOINTS
 62
     0
 48
50.0
100
AcDbPoint
 10
10861.78710270129
 20
7644.943081698915
 30
0.0
  0
POINT
  5
17EC6
330
17DAD
100
AcDbEntity
  8
DEFPOINTS
 62
     0
 48
50.0
100
AcDbPoint
 10
10861.78710270129
 20
6340.916756171889
 30
0.0
  0
ENDBLK
  5
17DB8
330
17DAD
100
AcDbEntity
  8
0
 48
50.0
100
AcDbBlockEnd
  0
ENDSEC
  0
SECTION
  2
ENTITIES
  0
LINE
  5
10B57
330
747D
100
AcDbEntity
  8
補助
  6
PHANTOM
 62
   230
 48
50.0
100
AcDbLine
 10
139.9999999999995
 20
11409.6
 30
0.0
 11
16307.2
 21
11409.6
 31
0.0
  0
LINE
  5
10B59
330
747D
100
AcDbEntity
  8
仕様書枠
  6
Continuous
 48
50.0
100
AcDbLine
 10
13107.2
 20
1200.0
 30
0.0
 11
13107.2
 21
-0.0000000000000729
 31
0.0
  0
LINE
  5
10B5C
330
747D
100
AcDbEntity
  8
仕様書枠
 48
50.0
100
AcDbLine
 10
16307.2
 20
1200.0
 30
0.0
 11
16307.2
 21
-0.0000000000000909
 31
0.0
  0
LINE
  5
10B5D
330
747D
100
AcDbEntity
  8
仕様書枠
 48
50.0
100
AcDbLine
 10
140.0
 20
0.0
 30
0.0
 11
16307.2
 21
-0.0000000000000909
 31
0.0
  0
LINE
  5
10B5E
330
747D
100
AcDbEntity
  8
補助
  6
PHANTOM
 62
   230
 48
50.0
100
AcDbLine
 10
16307.2
 20
11409.6
 30
0.0
 11
16307.2
 21
1200.0
 31
0.0
  0
LINE
  5
10B6C
330
747D
100
AcDbEntity
  8
仕様書枠
 48
50.0
100
AcDbLine
 10
13107.2
 20
1200.0
 30
0.0
 11
16307.2
 21
1200.0
 31
0.0
  0
LINE
  5
10B6D
330
747D
100
AcDbEntity
  8
補助
  6
PHANTOM
 62
   230
 48
50.0
100
AcDbLine
 10
13107.2
 20
11409.6
 30
0.0
 11
13107.2
 21
4800.0
 31
0.0
  0
LINE
  5
10B6F
330
747D
100
AcDbEntity
  8
補助
  6
PHANTOM
 62
   230
 48
50.0
100
AcDbLine
 10
13107.2
 20
4800.0
 30
0.0
 11
16307.2
 21
4800.0
 31
0.0
  0
LINE
  5
10B72
330
747D
100
AcDbEntity
  8
文字
 62
     7
 48
50.0
100
AcDbLine
 10
13187.2
 20
400.0
 30
0.0
 11
16227.2
 21
400.0
 31
0.0
  0
TEXT
  5
10B73
330
747D
100
AcDbEntity
  8
文字
 62
     7
 48
50.0
100
AcDbText
 10
13162.9790565769
 20
895.0906074299405
 30
0.0
 40
200.0
  1
外 形 図
  7
STYLE2
100
AcDbText
  0
TEXT
  5
10B74
330
747D
100
AcDbEntity
  8
文字
 62
     7
 48
50.0
100
AcDbText
 10
13201.43669998441
 20
477.2740661031255
 30
0.0
 40
160.0
  1
機種名
  7
STYLE2
100
AcDbText
  0
TEXT
  5
10B76
330
747D
100
AcDbEntity
  8
文字
 62
     7
 48
50.0
100
AcDbText
 10
13209.4053442172
 20
76.09434707649343
 30
0.0
 40
100.0
  1
○床面積 ： 4.12㎡(1.25坪) 　
  7
STYLE2
100
AcDbText
  0
TEXT
  5
10B79
330
747D
100
AcDbEntity
  8
文字
 62
     7
 48
50.0
100
AcDbText
 10
14524.131837222
 20
1031.557706291228
 30
0.0
 40
100.0
  1
NO.14      <縮尺> S=1/40
  7
STYLE2
100
AcDbText
  0
LINE
  5
10B7B
330
747D
100
AcDbEntity
  8
仕様書枠
 48
50.0
100
AcDbLine
 10
13107.2
 20
800.0
 30
0.0
 11
14251.2
 21
800.0
 31
0.0
  0
LINE
  5
10B88
330
747D
100
AcDbEntity
  8
仕様書枠
  6
Continuous
 48
50.0
100
AcDbLine
 10
14251.2
 20
1200.0
 30
0.0
 11
14251.2
 21
800.0
 31
0.0
  0
TEXT
  5
154D3
330
747D
100
AcDbEntity
  8
文字
 62
     7
 48
50.0
100
AcDbText
 10
14643.63059855437
 20
863.0097378581719
 30
0.0
 40
100.0
  1
～一般型・多雪地型～
  7
STYLE2
100
AcDbText
  0
TEXT
  5
15FDC
330
747D
100
AcDbEntity
  8
文字
 62
     7
 48
50.0
100
AcDbText
 10
13583.11819016569
 20
8550.013745883731
 30
0.0
 40
100.0
  1
棚板
  7
STYLE1
100
AcDbText
  0
TEXT
  5
15FDD
330
747D
100
AcDbEntity
  8
文字
 62
     7
 48
50.0
100
AcDbText
 10
15022.63965474516
 20
8550.013745883727
 30
0.0
 40
100.0
  1
F12            0.6
  7
STYLE1
100
AcDbText
  0
TEXT
  5
15FDE
330
747D
100
AcDbEntity
  8
文字
 62
     7
 48
50.0
100
AcDbText
 10
13583.11819016569
 20
9740.013745883729
 30
0.0
 40
100.0
  1
母屋中
  7
STYLE1
100
AcDbText
  0
TEXT
  5
15FDF
330
747D
100
AcDbEntity
  8
文字
 62
     7
 48
50.0
100
AcDbText
 10
13248.77747366447
 20
8720.013745883729
 30
0.0
 40
100.0
  1
15
  7
STYLE1
100
AcDbText
  0
LINE
  5
15FE0
330
747D
100
AcDbEntity
  8
仕様書枠
 48
50.0
100
AcDbLine
 10
16307.19999999999
 20
8009.600000000004
 30
0.0
 11
13127.19999999999
 21
8009.600000000006
 31
0.0
  0
TEXT
  5
15FE1
330
747D
100
AcDbEntity
  8
文字
 62
     7
 48
50.0
100
AcDbText
 10
13583.11819016569
 20
8720.013745883731
 30
0.0
 40
100.0
  1
扉
  7
STYLE1
100
AcDbText
  0
TEXT
  5
15FE2
330
747D
100
AcDbEntity
  8
文字
 62
     7
 48
50.0
100
AcDbText
 10
15022.63965474516
 20
8720.013745883727
 30
0.0
 40
100.0
  1
F12            0.8
  7
STYLE1
100
AcDbText
  0
TEXT
  5
15FE3
330
747D
100
AcDbEntity
  8
文字
 62
     7
 48
50.0
100
AcDbText
 10
13583.11819016568
 20
8890.013745883731
 30
0.0
 40
100.0
  1
正面パネル
  7
STYLE1
100
AcDbText
  0
TEXT
  5
15FE4
330
747D
100
AcDbEntity
  8
文字
 62
     7
 48
50.0
100
AcDbText
 10
15022.63965474515
 20
8890.013745883727
 30
0.0
 40
100.0
  1
F12            0.7
  7
STYLE1
100
AcDbText
  0
TEXT
  5
15FE5
330
747D
100
AcDbEntity
  8
文字
 62
     7
 48
50.0
100
AcDbText
 10
15022.63965474517
 20
10590.01374588372
 30
0.0
 40
100.0
  1
F12            1.0
  7
STYLE1
100
AcDbText
  0
TEXT
  5
15FE6
330
747D
100
AcDbEntity
  8
文字
 62
     7
 48
50.0
100
AcDbText
 10
15022.63965474516
 20
10930.01374588372
 30
0.0
 40
100.0
  1
F12            1.2
  7
STYLE1
100
AcDbText
  0
TEXT
  5
15FE7
330
747D
100
AcDbEntity
  8
文字
 62
     7
 48
50.0
100
AcDbText
 10
13248.77747366448
 20
8890.013745883727
 30
0.0
 40
100.0
  1
14
  7
STYLE1
100
AcDbText
  0
TEXT
  5
15FE8
330
747D
100
AcDbEntity
  8
文字
 62
     7
 48
50.0
100
AcDbText
 10
13583.11819016569
 20
10930.01374588372
 30
0.0
 40
100.0
  1
根太
  7
STYLE1
100
AcDbText
  0
TEXT
  5
15FE9
330
747D
100
AcDbEntity
  8
文字
 62
     7
 48
50.0
100
AcDbText
 10
13583.1181901657
 20
10590.01374588372
 30
0.0
 40
100.0
  1
床パネル
 41
0.9
  7
STYLE1
100
AcDbText
  0
LINE
  5
15FEA
330
747D
100
AcDbEntity
  8
仕様書枠
 48
50.0
100
AcDbLine
 10
16307.19999999999
 20
9029.6
 30
0.0
 11
13127.2
 21
9029.600000000002
 31
0.0
  0
LINE
  5
15FEB
330
747D
100
AcDbEntity
  8
仕様書枠
 48
50.0
100
AcDbLine
 10
13127.2
 20
11409.6
 30
0.0
 11
13127.19999999999
 21
8009.600000000006
 31
0.0
  0
TEXT
  5
15FEC
330
747D
100
AcDbEntity
  8
文字
 62
     7
 48
50.0
100
AcDbText
 10
13229.83081656554
 20
8040.013745883731
 30
0.0
 40
100.0
  1
Y10→溶融亜鉛-5％アルミニウム合金めっき鋼板(JIS G 3317)
 41
0.9
  7
STYLE1
100
AcDbText
  0
TEXT
  5
15FED
330
747D
100
AcDbEntity
  8
文字
 62
     7
 48
50.0
100
AcDbText
 10
13229.83081656554
 20
8210.013745883733
 30
0.0
 40
100.0
  1
F12→溶融亜鉛めっき鋼板(JIS G 3302)
  7
STYLE1
100
AcDbText
  0
LINE
  5
15FEE
330
747D
100
AcDbEntity
  8
仕様書枠
 48
50.0
100
AcDbLine
 10
16307.19999999999
 20
8179.600000000004
 30
0.0
 11
13127.19999999999
 21
8179.600000000005
 31
0.0
  0
LINE
  5
15FEF
330
747D
100
AcDbEntity
  8
仕様書枠
 48
50.0
100
AcDbLine
 10
16307.19999999999
 20
8349.600000000004
 30
0.0
 11
13127.19999999999
 21
8349.600000000007
 31
0.0
  0
TEXT
  5
15FF0
330
747D
100
AcDbEntity
  8
文字
 62
     7
 48
50.0
100
AcDbText
 10
15022.63965474515
 20
9570.013745883725
 30
0.0
 40
100.0
  1
F12            0.6
  7
STYLE1
100
AcDbText
  0
TEXT
  5
15FF1
330
747D
100
AcDbEntity
  8
文字
 62
     7
 48
50.0
100
AcDbText
 10
15022.63965474517
 20
9910.013745883725
 30
0.0
 40
100.0
  1
Y10            0.5
  7
STYLE1
100
AcDbText
  0
TEXT
  5
15FF2
330
747D
100
AcDbEntity
  8
文字
 62
     7
 48
50.0
100
AcDbText
 10
15022.63965474516
 20
10080.01374588372
 30
0.0
 40
100.0
  1
Y10            0.7
  7
STYLE1
100
AcDbText
  0
TEXT
  5
15FF3
330
747D
100
AcDbEntity
  8
文字
 62
     7
 48
50.0
100
AcDbText
 10
15022.63965474516
 20
10250.01374588372
 30
0.0
 40
100.0
  1
Y10            0.7
  7
STYLE1
100
AcDbText
  0
TEXT
  5
15FF4
330
747D
100
AcDbEntity
  8
文字
 62
     7
 48
50.0
100
AcDbText
 10
15022.63965474516
 20
10420.01374588372
 30
0.0
 40
100.0
  1
Y10            1.0
  7
STYLE1
100
AcDbText
  0
TEXT
  5
15FF5
330
747D
100
AcDbEntity
  8
文字
 62
     7
 48
50.0
100
AcDbText
 10
15022.63965474518
 20
10760.01374588372
 30
0.0
 40
100.0
  1
F12            1.0
  7
STYLE1
100
AcDbText
  0
TEXT
  5
15FF6
330
747D
100
AcDbEntity
  8
文字
 62
     7
 48
50.0
100
AcDbText
 10
15022.63965474517
 20
11100.01374588372
 30
0.0
 40
100.0
  1
F12            1.2
  7
STYLE1
100
AcDbText
  0
TEXT
  5
15FF7
330
747D
100
AcDbEntity
  8
文字
 62
     7
 48
50.0
100
AcDbText
 10
13248.77747366448
 20
9230.013745883727
 30
0.0
 40
100.0
  1
12
  7
STYLE1
100
AcDbText
  0
TEXT
  5
15FF8
330
747D
100
AcDbEntity
  8
文字
 62
     7
 48
50.0
100
AcDbText
 10
13248.77747366448
 20
9060.013745883727
 30
0.0
 40
100.0
  1
13
  7
STYLE1
100
AcDbText
  0
LINE
  5
15FF9
330
747D
100
AcDbEntity
  8
仕様書枠
 48
50.0
100
AcDbLine
 10
16307.19999999999
 20
8859.6
 30
0.0
 11
13127.2
 21
8859.600000000002
 31
0.0
  0
LINE
  5
15FFA
330
747D
100
AcDbEntity
  8
仕様書枠
 48
50.0
100
AcDbLine
 10
16307.19999999999
 20
9199.599999999998
 30
0.0
 11
13127.2
 21
9199.600000000001
 31
0.0
  0
TEXT
  5
15FFB
330
747D
100
AcDbEntity
  8
文字
 62
     7
 48
50.0
100
AcDbText
 10
13248.77747366447
 20
9400.013745883727
 30
0.0
 40
100.0
  1
11
  7
STYLE1
100
AcDbText
  0
LINE
  5
15FFC
330
747D
100
AcDbEntity
  8
仕様書枠
 48
50.0
100
AcDbLine
 10
16307.2
 20
9879.599999999999
 30
0.0
 11
13127.2
 21
9879.600000000001
 31
0.0
  0
LINE
  5
15FFD
330
747D
100
AcDbEntity
  8
仕様書枠
 48
50.0
100
AcDbLine
 10
16307.2
 20
10219.6
 30
0.0
 11
13127.2
 21
10219.6
 31
0.0
  0
LINE
  5
15FFE
330
747D
100
AcDbEntity
  8
仕様書枠
 48
50.0
100
AcDbLine
 10
16307.19999999999
 20
9539.599999999998
 30
0.0
 11
13127.2
 21
9539.6
 31
0.0
  0
LINE
  5
15FFF
330
747D
100
AcDbEntity
  8
仕様書枠
 48
50.0
100
AcDbLine
 10
16307.19999999999
 20
9369.599999999998
 30
0.0
 11
13127.2
 21
9369.600000000001
 31
0.0
  0
LINE
  5
16000
330
747D
100
AcDbEntity
  8
仕様書枠
 48
50.0
100
AcDbLine
 10
16307.19999999999
 20
9709.6
 30
0.0
 11
13127.2
 21
9709.600000000001
 31
0.0
  0
TEXT
  5
16001
330
747D
100
AcDbEntity
  8
文字
 62
     7
 48
50.0
100
AcDbText
 10
13271.19032244792
 20
10250.01374588373
 30
0.0
 40
100.0
  1
6
  7
STYLE1
100
AcDbText
  0
TEXT
  5
16002
330
747D
100
AcDbEntity
  8
文字
 62
     7
 48
50.0
100
AcDbText
 10
13271.19032244792
 20
10080.01374588373
 30
0.0
 40
100.0
  1
7
  7
STYLE1
100
AcDbText
  0
TEXT
  5
16003
330
747D
100
AcDbEntity
  8
文字
 62
     7
 48
50.0
100
AcDbText
 10
13271.19032244792
 20
9740.013745883729
 30
0.0
 40
100.0
  1
9
  7
STYLE1
100
AcDbText
  0
TEXT
  5
16004
330
747D
100
AcDbEntity
  8
文字
 62
     7
 48
50.0
100
AcDbText
 10
13271.19032244792
 20
9910.01374588373
 30
0.0
 40
100.0
  1
8
  7
STYLE1
100
AcDbText
  0
TEXT
  5
16005
330
747D
100
AcDbEntity
  8
文字
 62
     7
 48
50.0
100
AcDbText
 10
13583.11819016569
 20
10080.01374588372
 30
0.0
 40
100.0
  1
鼻隠シ前後
  7
STYLE1
100
AcDbText
  0
TEXT
  5
16006
330
747D
100
AcDbEntity
  8
文字
 62
     7
 48
50.0
100
AcDbText
 10
13583.11819016569
 20
9910.013745883727
 30
0.0
 40
100.0
  1
屋根パネル
  7
STYLE1
100
AcDbText
  0
TEXT
  5
16007
330
747D
100
AcDbEntity
  8
文字
 62
     7
 48
50.0
100
AcDbText
 10
13583.11819016568
 20
9570.013745883729
 30
0.0
 40
100.0
  1
壁パネル
  7
STYLE1
100
AcDbText
  0
TEXT
  5
16008
330
747D
100
AcDbEntity
  8
文字
 62
     7
 48
50.0
100
AcDbText
 10
13248.77747366447
 20
9570.013745883727
 30
0.0
 40
100.0
  1
10
  7
STYLE1
100
AcDbText
  0
TEXT
  5
16009
330
747D
100
AcDbEntity
  8
文字
 62
     7
 48
50.0
100
AcDbText
 10
13583.11819016569
 20
10250.01374588373
 30
0.0
 40
100.0
  1
妻板左右
  7
STYLE1
100
AcDbText
  0
TEXT
  5
1600A
330
747D
100
AcDbEntity
  8
文字
 62
     7
 48
50.0
100
AcDbText
 10
13271.19032244792
 20
10420.01374588372
 30
0.0
 40
100.0
  1
5
  7
STYLE1
100
AcDbText
  0
TEXT
  5
1600B
330
747D
100
AcDbEntity
  8
文字
 62
     7
 48
50.0
100
AcDbText
 10
13583.11819016569
 20
10420.01374588373
 30
0.0
 40
100.0
  1
桁前後
  7
STYLE1
100
AcDbText
  0
TEXT
  5
1600C
330
747D
100
AcDbEntity
  8
文字
 62
     7
 48
50.0
100
AcDbText
 10
13583.1181901657
 20
10760.01374588372
 30
0.0
 40
100.0
  1
柱
  7
STYLE1
100
AcDbText
  0
TEXT
  5
1600D
330
747D
100
AcDbEntity
  8
文字
 62
     7
 48
50.0
100
AcDbText
 10
13583.11819016569
 20
11100.01374588372
 30
0.0
 40
100.0
  1
土台枠
  7
STYLE1
100
AcDbText
  0
TEXT
  5
1600E
330
747D
100
AcDbEntity
  8
文字
 62
     7
 48
50.0
100
AcDbText
 10
14859.79774614482
 20
11270.01374588372
 30
0.0
 40
100.0
  1
材料（材質）　　単位mm
  7
STYLE1
100
AcDbText
  0
TEXT
  5
1600F
330
747D
100
AcDbEntity
  8
文字
 62
     7
 48
50.0
100
AcDbText
 10
13732.03840939434
 20
11270.01374588372
 30
0.0
 40
100.0
  1
部　　品　　名
  7
STYLE1
100
AcDbText
  0
TEXT
  5
16010
330
747D
100
AcDbEntity
  8
文字
 62
     7
 48
50.0
100
AcDbText
 10
13271.19032244792
 20
10760.01374588373
 30
0.0
 40
100.0
  1
3
  7
STYLE1
100
AcDbText
  0
TEXT
  5
16011
330
747D
100
AcDbEntity
  8
文字
 62
     7
 48
50.0
100
AcDbText
 10
13271.19032244792
 20
10590.01374588373
 30
0.0
 40
100.0
  1
4
  7
STYLE1
100
AcDbText
  0
TEXT
  5
16012
330
747D
100
AcDbEntity
  8
文字
 62
     7
 48
50.0
100
AcDbText
 10
13271.19032244792
 20
10930.01374588373
 30
0.0
 40
100.0
  1
2
  7
STYLE1
100
AcDbText
  0
TEXT
  5
16013
330
747D
100
AcDbEntity
  8
文字
 62
     7
 48
50.0
100
AcDbText
 10
13271.19032244792
 20
11100.01374588373
 30
0.0
 40
100.0
  1
1
  7
STYLE1
100
AcDbText
  0
TEXT
  5
16014
330
747D
100
AcDbEntity
  8
文字
 62
     7
 48
50.0
100
AcDbText
 10
13197.42518560407
 20
11270.01374588372
 30
0.0
 40
100.0
  1
品番
  7
STYLE1
100
AcDbText
  0
LINE
  5
16015
330
747D
100
AcDbEntity
  8
仕様書枠
 48
50.0
100
AcDbLine
 10
16307.19999999999
 20
10729.59999999999
 30
0.0
 11
13127.2
 21
10729.6
 31
0.0
  0
LINE
  5
16016
330
747D
100
AcDbEntity
  8
仕様書枠
 48
50.0
100
AcDbLine
 10
16307.19999999999
 20
10389.6
 30
0.0
 11
13127.2
 21
10389.6
 31
0.0
  0
LINE
  5
16017
330
747D
100
AcDbEntity
  8
仕様書枠
 48
50.0
100
AcDbLine
 10
16307.19999999999
 20
10559.6
 30
0.0
 11
13127.2
 21
10559.6
 31
0.0
  0
LINE
  5
16018
330
747D
100
AcDbEntity
  8
仕様書枠
 48
50.0
100
AcDbLine
 10
16307.2
 20
11069.59999999999
 30
0.0
 11
13127.2
 21
11069.6
 31
0.0
  0
LINE
  5
16019
330
747D
100
AcDbEntity
  8
仕様書枠
 48
50.0
100
AcDbLine
 10
16307.2
 20
10899.6
 30
0.0
 11
13127.2
 21
10899.6
 31
0.0
  0
LINE
  5
1601A
330
747D
100
AcDbEntity
  8
仕様書枠
 48
50.0
100
AcDbLine
 10
16307.2
 20
11239.59999999999
 30
0.0
 11
13127.2
 21
11239.6
 31
0.0
  0
LINE
  5
1601B
330
747D
100
AcDbEntity
  8
仕様書枠
 48
50.0
100
AcDbLine
 10
13490.2
 20
11409.59999999999
 30
0.0
 11
13490.20000000001
 21
8349.600000000007
 31
0.0
  0
LINE
  5
1601C
330
747D
100
AcDbEntity
  8
仕様書枠
 48
50.0
100
AcDbLine
 10
14785.2
 20
11409.59999999999
 30
0.0
 11
14785.2
 21
8349.600000000004
 31
0.0
  0
LINE
  5
1601D
330
747D
100
AcDbEntity
  8
仕様書枠
 48
50.0
100
AcDbLine
 10
16307.19999999999
 20
8009.600000000004
 30
0.0
 11
16307.2
 21
11409.6
 31
0.0
  0
LINE
  5
1601E
330
747D
100
AcDbEntity
  8
仕様書枠
 48
50.0
100
AcDbLine
 10
16307.2
 20
11409.59999999999
 30
0.0
 11
13127.2
 21
11409.6
 31
0.0
  0
LINE
  5
1601F
330
747D
100
AcDbEntity
  8
仕様書枠
 48
50.0
100
AcDbLine
 10
16307.2
 20
10049.6
 30
0.0
 11
13127.2
 21
10049.6
 31
0.0
  0
TEXT
  5
16020
330
747D
100
AcDbEntity
  8
文字
 62
     7
 48
50.0
100
AcDbText
 10
15022.63965474515
 20
8380.013745883724
 30
0.0
 40
100.0
  1
F12            2.3
  7
STYLE1
100
AcDbText
  0
TEXT
  5
16021
330
747D
100
AcDbEntity
  8
文字
 62
     7
 48
50.0
100
AcDbText
 10
13583.11819016569
 20
8380.013745883728
 30
0.0
 40
100.0
  1
アンカープレート
  7
STYLE1
100
AcDbText
  0
LINE
  5
16022
330
747D
100
AcDbEntity
  8
仕様書枠
 48
50.0
100
AcDbLine
 10
16307.19999999999
 20
8519.600000000004
 30
0.0
 11
13127.2
 21
8519.600000000005
 31
0.0
  0
LINE
  5
16023
330
747D
100
AcDbEntity
  8
仕様書枠
 48
50.0
100
AcDbLine
 10
16307.19999999999
 20
8689.600000000003
 30
0.0
 11
13127.2
 21
8689.600000000005
 31
0.0
  0
TEXT
  5
16024
330
747D
100
AcDbEntity
  8
文字
 62
     7
 48
50.0
100
AcDbText
 10
13583.11819016569
 20
9400.013745883729
 30
0.0
 40
100.0
  1
壁面扉鴨居
  7
STYLE1
100
AcDbText
  0
TEXT
  5
16025
330
747D
100
AcDbEntity
  8
文字
 62
     7
 48
50.0
100
AcDbText
 10
13583.11819016569
 20
9230.013745883733
 30
0.0
 40
100.0
  1
壁面扉敷居
  7
STYLE1
100
AcDbText
  0
TEXT
  5
16026
330
747D
100
AcDbEntity
  8
文字
 62
     7
 48
50.0
100
AcDbText
 10
15022.63965474515
 20
9400.013745883727
 30
0.0
 40
100.0
  1
F12            0.7
  7
STYLE1
100
AcDbText
  0
TEXT
  5
16027
330
747D
100
AcDbEntity
  8
文字
 62
     7
 48
50.0
100
AcDbText
 10
15022.63965474517
 20
9230.013745883725
 30
0.0
 40
100.0
  1
F12            1.0
  7
STYLE1
100
AcDbText
  0
TEXT
  5
16028
330
747D
100
AcDbEntity
  8
文字
 62
     7
 48
50.0
100
AcDbText
 10
13583.11819016569
 20
9060.013745883733
 30
0.0
 40
100.0
  1
壁面扉枠左右
  7
STYLE1
100
AcDbText
  0
TEXT
  5
16029
330
747D
100
AcDbEntity
  8
文字
 62
     7
 48
50.0
100
AcDbText
 10
15022.63965474517
 20
9060.013745883725
 30
0.0
 40
100.0
  1
F12            1.0
  7
STYLE1
100
AcDbText
  0
TEXT
  5
1602A
330
747D
100
AcDbEntity
  8
文字
 62
     7
 48
50.0
100
AcDbText
 10
13248.77747366447
 20
8550.013745883729
 30
0.0
 40
100.0
  1
16
  7
STYLE1
100
AcDbText
  0
TEXT
  5
1602B
330
747D
100
AcDbEntity
  8
文字
 62
     7
 48
50.0
100
AcDbText
 10
13248.77747366447
 20
8380.013745883728
 30
0.0
 40
100.0
  1
17
  7
STYLE1
100
AcDbText
  0
TEXT
  5
1602C
330
747D
100
AcDbEntity
  8
文字
 62
     7
 48
50.0
100
AcDbText
 10
14798.72402257234
 20
9740.013745883725
 30
0.0
 40
100.0
  1
F12(一般型1.0/多雪地型2.3)
  7
STYLE1
100
AcDbText
  0
MTEXT
  5
1609E
330
747D
100
AcDbEntity
  8
寸法
 62
     7
 48
50.0
100
AcDbMText
 10
9331.889639794461
 20
9021.177899896185
 30
0.0
 40
96.0
 41
0.0
 71
     5
 72
     1
  1
棚 2段
  7
STYLE1
 73
     1
 44
1.0
1001
ACAD
1000
MTEXTBEGIN
1070
    73
1070
     1
1070
    44
1040
1.0
1070
    74
1070
     0
1000
MTEXTEND
  0
MTEXT
  5
1609F
330
747D
100
AcDbEntity
  8
寸法
 62
     7
 48
50.0
100
AcDbMText
 10
10421.88963979445
 20
9021.177899896233
 30
0.0
 40
96.0
 41
0.0
 71
     5
 72
     1
  1
棚 2段
  7
STYLE1
 73
     1
 44
1.0
1001
ACAD
1000
MTEXTBEGIN
1070
    73
1070
     1
1070
    44
1040
1.0
1070
    74
1070
     0
1000
MTEXTEND
  0
LINE
  5
160A0
330
747D
100
AcDbEntity
  8
部品1
100
AcDbLine
 10
10377.78710270131
 20
4596.831130112168
 30
0.0
 11
10377.78710270131
 21
4499.420062603603
 31
0.0
  0
LINE
  5
160A1
330
747D
100
AcDbEntity
  8
部品1
100
AcDbLine
 10
10395.78710270131
 20
4596.831130112179
 30
0.0
 11
10395.78710270131
 21
4499.420062603603
 31
0.0
  0
LINE
  5
160A2
330
747D
100
AcDbEntity
  8
部品1
 48
50.0
100
AcDbLine
 10
10374.78710270132
 20
4596.831130112179
 30
0.0
 11
10398.78710270132
 21
4596.831130112179
 31
0.0
  0
LINE
  5
160A3
330
747D
100
AcDbEntity
  8
部品1
 48
50.0
100
AcDbLine
 10
10374.78710270132
 20
4596.831130112179
 30
0.0
 11
10373.57576249514
 21
4587.431130112178
 31
0.0
  0
LINE
  5
160A4
330
747D
100
AcDbEntity
  8
部品1
 48
50.0
100
AcDbLine
 10
10359.57576249514
 20
4587.431130112178
 30
0.0
 11
10373.57576249514
 21
4587.431130112178
 31
0.0
  0
LINE
  5
160A5
330
747D
100
AcDbEntity
  8
部品1
 48
50.0
100
AcDbLine
 10
10359.57576249514
 20
4587.431130112178
 30
0.0
 11
10358.28710270132
 21
4577.431130112177
 31
0.0
  0
LINE
  5
160A6
330
747D
100
AcDbEntity
  8
部品1
 48
50.0
100
AcDbLine
 10
10398.78710270132
 20
4596.831130112179
 30
0.0
 11
10401.28710270132
 21
4577.431130112177
 31
0.0
  0
LINE
  5
160A7
330
747D
100
AcDbEntity
  8
部品1
100
AcDbLine
 10
10544.78710270132
 20
4577.431130112177
 30
0.0
 11
10401.28710270132
 21
4577.431130112177
 31
0.0
  0
LINE
  5
160A8
330
747D
100
AcDbEntity
  8
部品1
100
AcDbLine
 10
10617.78710270132
 20
4577.431130112177
 30
0.0
 11
10593.78710270132
 21
4577.431130112177
 31
0.0
  0
LINE
  5
160A9
330
747D
100
AcDbEntity
  8
部品1
 48
50.0
100
AcDbLine
 10
10583.28710270132
 20
4596.831130112183
 30
0.0
 11
10593.78710270132
 21
4577.431130112182
 31
0.0
  0
LINE
  5
160AA
330
747D
100
AcDbEntity
  8
部品1
 48
50.0
100
AcDbLine
 10
10555.28710270132
 20
4596.831130112183
 30
0.0
 11
10544.78710270132
 21
4577.431130112182
 31
0.0
  0
LINE
  5
160AB
330
747D
100
AcDbEntity
  8
部品1
 48
50.0
100
AcDbLine
 10
10555.28710270132
 20
4596.831130112183
 30
0.0
 11
10583.28710270132
 21
4596.831130112183
 31
0.0
  0
LINE
  5
160AC
330
747D
100
AcDbEntity
  8
部品1
 48
50.0
100
AcDbLine
 10
10628.28710270132
 20
4596.831130112183
 30
0.0
 11
10617.78710270132
 21
4577.431130112182
 31
0.0
  0
LINE
  5
160AD
330
747D
100
AcDbEntity
  8
部品1
 48
50.0
100
AcDbLine
 10
10656.28710270132
 20
4596.831130112183
 30
0.0
 11
10666.78710270132
 21
4577.431130112182
 31
0.0
  0
LINE
  5
160AE
330
747D
100
AcDbEntity
  8
部品1
 48
50.0
100
AcDbLine
 10
10628.28710270132
 20
4596.831130112183
 30
0.0
 11
10656.28710270132
 21
4596.831130112183
 31
0.0
  0
LINE
  5
160AF
330
747D
100
AcDbEntity
  8
部品1
100
AcDbLine
 10
10581.78710270133
 20
4596.831130112179
 30
0.0
 11
10581.78710270133
 21
4499.420062603607
 31
0.0
  0
LINE
  5
160B0
330
747D
100
AcDbEntity
  8
部品1
100
AcDbLine
 10
10556.78710270133
 20
4596.831130112179
 30
0.0
 11
10556.78710270133
 21
4499.420062603607
 31
0.0
  0
LINE
  5
160B1
330
747D
100
AcDbEntity
  8
部品1
100
AcDbLine
 10
10629.78710270133
 20
4596.831130112179
 30
0.0
 11
10629.78710270133
 21
4499.420062603607
 31
0.0
  0
LINE
  5
160B2
330
747D
100
AcDbEntity
  8
部品1
100
AcDbLine
 10
10654.78710270133
 20
4596.831130112179
 30
0.0
 11
10654.78710270133
 21
4499.420062603607
 31
0.0
  0
LINE
  5
160B3
330
747D
100
AcDbEntity
  8
部品1
100
AcDbLine
 10
10778.28710270132
 20
4577.431130112163
 30
0.0
 11
10666.78710270133
 21
4577.431130112163
 31
0.0
  0
LINE
  5
160B4
330
747D
100
AcDbEntity
  8
部品1
100
AcDbLine
 10
10861.85773069451
 20
4577.43113011217
 30
0.0
 11
10821.2871027013
 21
4577.43113011217
 31
0.0
  0
LINE
  5
160B5
330
747D
100
AcDbEntity
  8
部品1
 48
50.0
100
AcDbLine
 10
10818.7871027013
 20
4596.831130112176
 30
0.0
 11
10821.2871027013
 21
4577.431130112174
 31
0.0
  0
LINE
  5
160B6
330
747D
100
AcDbEntity
  8
部品1
 48
50.0
100
AcDbLine
 10
10779.57576249512
 20
4587.431130112174
 30
0.0
 11
10778.2871027013
 21
4577.431130112174
 31
0.0
  0
LINE
  5
160B7
330
747D
100
AcDbEntity
  8
部品1
 48
50.0
100
AcDbLine
 10
10779.57576249512
 20
4587.431130112174
 30
0.0
 11
10793.57576249512
 21
4587.431130112174
 31
0.0
  0
LINE
  5
160B8
330
747D
100
AcDbEntity
  8
部品1
 48
50.0
100
AcDbLine
 10
10794.7871027013
 20
4596.831130112176
 30
0.0
 11
10793.57576249512
 21
4587.431130112174
 31
0.0
  0
LINE
  5
160B9
330
747D
100
AcDbEntity
  8
細線
 48
50.0
100
AcDbLine
 10
10861.85773069451
 20
4518.802962851652
 30
0.0
 11
10909.92097197845
 21
4518.802962851659
 31
0.0
  0
LINE
  5
160BA
330
747D
100
AcDbEntity
  8
細線
 48
50.0
100
AcDbLine
 10
10879.29819260559
 20
4546.831130103702
 30
0.0
 11
10879.29819260559
 21
4420.331130103703
 31
0.0
  0
ARC
  5
160BB
330
747D
100
AcDbEntity
  8
部品1
100
AcDbCircle
 10
10904.80105888409
 20
4594.831130120601
 30
0.0
 40
7.0
100
AcDbArc
 50
356.3813705198622
 51
90.0
  0
LINE
  5
160BC
330
747D
100
AcDbEntity
  8
部品1
100
AcDbLine
 10
10866.85773069451
 20
4601.831130120601
 30
0.0
 11
10904.80105888409
 21
4601.831130120601
 31
0.0
  0
ARC
  5
160BD
330
747D
100
AcDbEntity
  8
部品1
100
AcDbCircle
 10
10866.85773069451
 20
4596.831130120601
 30
0.0
 40
5.0
100
AcDbArc
 50
90.0
 51
180.0
  0
LINE
  5
160BE
330
747D
100
AcDbEntity
  8
部品1
 48
50.0
100
AcDbLine
 10
10911.7871027013
 20
4539.389324961113
 30
0.0
 11
10911.7871027013
 21
4594.389324978013
 31
0.0
  0
LINE
  5
160BF
330
747D
100
AcDbEntity
  8
部品1
100
AcDbLine
 10
10861.85773069451
 20
4596.831130120601
 30
0.0
 11
10861.85773069451
 21
4499.4200626036
 31
0.0
  0
ARC
  5
160C0
330
747D
100
AcDbEntity
  8
部品1
100
AcDbCircle
 10
10866.85773069451
 20
4541.831130103703
 30
0.0
 40
5.0
100
AcDbArc
 50
90.0
 51
180.0
  0
LINE
  5
160C1
330
747D
100
AcDbEntity
  8
部品1
100
AcDbLine
 10
10866.85773069451
 20
4546.831130103702
 30
0.0
 11
10904.80105888409
 21
4546.831130103702
 31
0.0
  0
LINE
  5
160C2
330
747D
100
AcDbEntity
  8
部品1
100
AcDbLine
 10
10910.52656464274
 20
4519.457066910032
 30
0.0
 11
10911.7871027013
 21
4539.389324961113
 31
0.0
  0
LINE
  5
160C3
330
747D
100
AcDbEntity
  8
部品1
100
AcDbLine
 10
10898.66049185533
 20
4426.889324961114
 30
0.0
 11
10899.33281755991
 21
4437.520475164814
 31
0.0
  0
ARC
  5
160C4
330
747D
100
AcDbEntity
  8
部品1
100
AcDbCircle
 10
10904.80105888409
 20
4539.831130103703
 30
0.0
 40
7.0
100
AcDbArc
 50
356.3813705198622
 51
90.0
  0
ARC
  5
160C5
330
747D
100
AcDbEntity
  8
部品1
100
AcDbCircle
 10
10891.67444803812
 20
4427.331130103703
 30
0.0
 40
7.0
100
AcDbArc
 50
270.0
 51
356.3813705198622
  0
ARC
  5
160C6
330
747D
100
AcDbEntity
  8
部品1
100
AcDbCircle
 10
10902.32683633872
 20
4437.331130103703
 30
0.0
 40
3.0
100
AcDbArc
 50
90.0
 51
176.3813705198622
  0
ARC
  5
160C7
330
747D
100
AcDbEntity
  8
部品1
100
AcDbCircle
 10
10901.85754021352
 20
4441.001247424292
 30
0.0
 40
0.7
100
AcDbArc
 50
277.2868405166456
 51
356.3813705198622
  0
LINE
  5
160C8
330
747D
100
AcDbEntity
  8
部品1
100
AcDbLine
 10
10907.30323760741
 20
4516.020475164814
 30
0.0
 11
10902.55614459525
 21
4440.957066910033
 31
0.0
  0
ARC
  5
160C9
330
747D
100
AcDbEntity
  8
部品1
100
AcDbCircle
 10
10910.29725638621
 20
4515.831130103703
 30
0.0
 40
3.0
100
AcDbArc
 50
90.0
 51
176.3813705198622
  0
ARC
  5
160CA
330
747D
100
AcDbEntity
  8
部品1
100
AcDbCircle
 10
10909.82796026101
 20
4519.501247424292
 30
0.0
 40
0.7
100
AcDbArc
 50
277.2868405166456
 51
356.3813705198622
  0
LINE
  5
160CB
330
747D
100
AcDbEntity
  8
部品1
 48
50.0
100
AcDbLine
 10
10866.85773069451
 20
4546.831130103702
 30
0.0
 11
10904.80105888409
 21
4546.831130103702
 31
0.0
  0
LINE
  5
160CC
330
747D
100
AcDbEntity
  8
部品1
 48
50.0
100
AcDbLine
 10
10794.7871027013
 20
4596.831130112176
 30
0.0
 11
10818.7871027013
 21
4596.831130112176
 31
0.0
  0
LINE
  5
160CD
330
747D
100
AcDbEntity
  8
部品1
100
AcDbLine
 10
10815.78710270129
 20
4596.831130112176
 30
0.0
 11
10815.78710270129
 21
4499.4200626036
 31
0.0
  0
LINE
  5
160CE
330
747D
100
AcDbEntity
  8
部品1
100
AcDbLine
 10
10797.78710270129
 20
4596.831130112165
 30
0.0
 11
10797.78710270129
 21
4499.4200626036
 31
0.0
  0
DIMENSION
  5
160CF
330
747D
100
AcDbEntity
  8
寸法
 48
50.0
100
AcDbDimension
  2
*D2
 10
10861.78710270131
 20
5000.924299443176
 30
0.0
 11
11225.27238407555
 21
5000.924299443176
 31
0.0
 70
   160
 71
     5
 42
50.0
  3
INABA_S40G
100
AcDbAlignedDimension
 13
10911.78710270131
 23
4601.831130103706
 33
0.0
 14
10861.78710270131
 24
4601.831130103708
 34
0.0
100
AcDbRotatedDimension
  0
LINE
  5
160D0
330
747D
100
AcDbEntity
  8
部品1
100
AcDbLine
 10
10234.78710270133
 20
4596.831130112176
 30
0.0
 11
10234.78710270133
 21
4499.420062603603
 31
0.0
  0
LINE
  5
160D1
330
747D
100
AcDbEntity
  8
部品1
100
AcDbLine
 10
10209.78710270133
 20
4596.831130112176
 30
0.0
 11
10209.78710270133
 21
4499.420062603603
 31
0.0
  0
LINE
  5
160D2
330
747D
100
AcDbEntity
  8
部品1
100
AcDbLine
 10
10136.78710270133
 20
4596.831130112176
 30
0.0
 11
10136.78710270133
 21
4499.420062603603
 31
0.0
  0
LINE
  5
160D3
330
747D
100
AcDbEntity
  8
部品1
100
AcDbLine
 10
10161.78710270133
 20
4596.831130112176
 30
0.0
 11
10161.78710270133
 21
4499.420062603603
 31
0.0
  0
LINE
  5
160D4
330
747D
100
AcDbEntity
  8
部品1
100
AcDbLine
 10
10124.78710270132
 20
4577.431130112174
 30
0.0
 11
9981.287102701319
 21
4577.431130112174
 31
0.0
  0
LINE
  5
160D5
330
747D
100
AcDbEntity
  8
部品1
100
AcDbLine
 10
10358.28710270132
 20
4577.431130112159
 30
0.0
 11
10246.78710270133
 21
4577.431130112159
 31
0.0
  0
LINE
  5
160D6
330
747D
100
AcDbEntity
  8
部品1
 48
50.0
100
AcDbLine
 10
10208.28710270132
 20
4596.831130112179
 30
0.0
 11
10236.28710270132
 21
4596.831130112179
 31
0.0
  0
LINE
  5
160D7
330
747D
100
AcDbEntity
  8
部品1
 48
50.0
100
AcDbLine
 10
10236.28710270132
 20
4596.831130112179
 30
0.0
 11
10246.78710270132
 21
4577.431130112177
 31
0.0
  0
LINE
  5
160D8
330
747D
100
AcDbEntity
  8
部品1
 48
50.0
100
AcDbLine
 10
10208.28710270132
 20
4596.831130112179
 30
0.0
 11
10197.78710270132
 21
4577.431130112177
 31
0.0
  0
LINE
  5
160D9
330
747D
100
AcDbEntity
  8
部品1
 48
50.0
100
AcDbLine
 10
10135.28710270132
 20
4596.831130112179
 30
0.0
 11
10163.28710270132
 21
4596.831130112179
 31
0.0
  0
LINE
  5
160DA
330
747D
100
AcDbEntity
  8
部品1
 48
50.0
100
AcDbLine
 10
10135.28710270132
 20
4596.831130112179
 30
0.0
 11
10124.78710270132
 21
4577.431130112177
 31
0.0
  0
LINE
  5
160DB
330
747D
100
AcDbEntity
  8
部品1
 48
50.0
100
AcDbLine
 10
10163.28710270132
 20
4596.831130112179
 30
0.0
 11
10173.78710270132
 21
4577.431130112177
 31
0.0
  0
LINE
  5
160DC
330
747D
100
AcDbEntity
  8
部品1
100
AcDbLine
 10
10197.78710270132
 20
4577.431130112174
 30
0.0
 11
10173.78710270132
 21
4577.431130112174
 31
0.0
  0
LINE
  5
160DD
330
747D
100
AcDbEntity
  8
部品1
 48
50.0
100
AcDbLine
 10
8634.276012797039
 20
4499.4200626036
 30
0.0
 11
10879.29819260559
 21
4499.4200626036
 31
0.0
  0
LINE
  5
160DE
330
747D
100
AcDbEntity
  8
部品1
 48
50.0
100
AcDbLine
 10
9978.787102701323
 20
4596.831130112176
 30
0.0
 11
9981.287102701323
 21
4577.431130112174
 31
0.0
  0
LINE
  5
160DF
330
747D
100
AcDbEntity
  8
部品1
 48
50.0
100
AcDbLine
 10
9939.575762495138
 20
4587.431130112174
 30
0.0
 11
9938.287102701323
 21
4577.431130112174
 31
0.0
  0
LINE
  5
160E0
330
747D
100
AcDbEntity
  8
部品1
 48
50.0
100
AcDbLine
 10
9939.575762495138
 20
4587.431130112174
 30
0.0
 11
9953.575762495137
 21
4587.431130112174
 31
0.0
  0
LINE
  5
160E1
330
747D
100
AcDbEntity
  8
部品1
 48
50.0
100
AcDbLine
 10
9954.787102701324
 20
4596.831130112176
 30
0.0
 11
9953.575762495137
 21
4587.431130112174
 31
0.0
  0
LINE
  5
160E2
330
747D
100
AcDbEntity
  8
部品1
 48
50.0
100
AcDbLine
 10
9954.787102701324
 20
4596.831130112176
 30
0.0
 11
9978.787102701323
 21
4596.831130112176
 31
0.0
  0
LINE
  5
160E3
330
747D
100
AcDbEntity
  8
部品1
100
AcDbLine
 10
9975.787102701316
 20
4596.831130112176
 30
0.0
 11
9975.787102701316
 21
4499.4200626036
 31
0.0
  0
LINE
  5
160E4
330
747D
100
AcDbEntity
  8
部品1
100
AcDbLine
 10
9957.787102701317
 20
4596.831130112165
 30
0.0
 11
9957.787102701317
 21
4499.4200626036
 31
0.0
  0
LINE
  5
160E5
330
747D
100
AcDbEntity
  8
細線
 48
50.0
100
AcDbLine
 10
8651.716474708115
 20
4518.802962851652
 30
0.0
 11
8603.653233424166
 21
4518.802962851659
 31
0.0
  0
LINE
  5
160E6
330
747D
100
AcDbEntity
  8
細線
 48
50.0
100
AcDbLine
 10
8634.276012797037
 20
4546.831130103702
 30
0.0
 11
8634.276012797037
 21
4420.331130103703
 31
0.0
  0
LINE
  5
160E7
330
747D
100
AcDbEntity
  8
細線
 48
50.0
100
AcDbLine
 10
10902.56546037437
 20
4441.104372667487
 30
0.0
 11
8611.67069433384
 21
4441.104372667489
 31
0.0
  0
ARC
  5
160E8
330
747D
100
AcDbEntity
  8
部品1
100
AcDbCircle
 10
8608.773146518531
 20
4594.831130120601
 30
0.0
 40
7.0
100
AcDbArc
 50
90.0
 51
183.6186294801377
  0
LINE
  5
160E9
330
747D
100
AcDbEntity
  8
部品1
100
AcDbLine
 10
8646.716474708115
 20
4601.831130120601
 30
0.0
 11
8608.773146518531
 21
4601.831130120601
 31
0.0
  0
ARC
  5
160EA
330
747D
100
AcDbEntity
  8
部品1
100
AcDbCircle
 10
8646.716474708115
 20
4596.831130120601
 30
0.0
 40
5.0
100
AcDbArc
 50
0.0
 51
90.0
  0
LINE
  5
160EB
330
747D
100
AcDbEntity
  8
部品1
 48
50.0
100
AcDbLine
 10
8601.787102701321
 20
4539.389324961113
 30
0.0
 11
8601.787102701321
 21
4594.389324978013
 31
0.0
  0
LINE
  5
160EC
330
747D
100
AcDbEntity
  8
部品1
100
AcDbLine
 10
10891.67444803812
 20
4420.331130103703
 30
0.0
 11
8621.899757364502
 21
4420.331130103703
 31
0.0
  0
LINE
  5
160ED
330
747D
100
AcDbEntity
  8
部品1
100
AcDbLine
 10
8651.716474708115
 20
4596.831130120601
 30
0.0
 11
8651.716474708115
 21
4499.427101431033
 31
0.0
  0
ARC
  5
160EE
330
747D
100
AcDbEntity
  8
部品1
100
AcDbCircle
 10
8646.716474708115
 20
4541.831130103703
 30
0.0
 40
5.0
100
AcDbArc
 50
0.0
 51
90.0
  0
LINE
  5
160EF
330
747D
100
AcDbEntity
  8
部品1
100
AcDbLine
 10
8646.716474708115
 20
4546.831130103702
 30
0.0
 11
8608.773146518531
 21
4546.831130103702
 31
0.0
  0
LINE
  5
160F0
330
747D
100
AcDbEntity
  8
部品1
100
AcDbLine
 10
8603.047640759887
 20
4519.457066910032
 30
0.0
 11
8601.787102701321
 21
4539.389324961113
 31
0.0
  0
LINE
  5
160F1
330
747D
100
AcDbEntity
  8
部品1
100
AcDbLine
 10
8614.913713547293
 20
4426.889324961114
 30
0.0
 11
8614.24138784271
 21
4437.520475164814
 31
0.0
  0
ARC
  5
160F2
330
747D
100
AcDbEntity
  8
部品1
100
AcDbCircle
 10
8608.773146518531
 20
4539.831130103703
 30
0.0
 40
7.0
100
AcDbArc
 50
90.0
 51
183.6186294801377
  0
ARC
  5
160F3
330
747D
100
AcDbEntity
  8
部品1
100
AcDbCircle
 10
8621.899757364502
 20
4427.331130103703
 30
0.0
 40
7.0
100
AcDbArc
 50
183.6186294801377
 51
270.0
  0
ARC
  5
160F4
330
747D
100
AcDbEntity
  8
部品1
100
AcDbCircle
 10
8611.247369063905
 20
4437.331130103703
 30
0.0
 40
3.0
100
AcDbArc
 50
3.618629480137788
 51
90.0
  0
ARC
  5
160F5
330
747D
100
AcDbEntity
  8
部品1
100
AcDbCircle
 10
8611.716665189099
 20
4441.001247424292
 30
0.0
 40
0.7
100
AcDbArc
 50
183.6186294801377
 51
262.7131594833544
  0
LINE
  5
160F6
330
747D
100
AcDbEntity
  8
部品1
100
AcDbLine
 10
8606.270967795218
 20
4516.020475164814
 30
0.0
 11
8611.01806080738
 21
4440.957066910033
 31
0.0
  0
ARC
  5
160F7
330
747D
100
AcDbEntity
  8
部品1
100
AcDbCircle
 10
8603.276949016414
 20
4515.831130103703
 30
0.0
 40
3.0
100
AcDbArc
 50
3.618629480137788
 51
90.0
  0
ARC
  5
160F8
330
747D
100
AcDbEntity
  8
部品1
100
AcDbCircle
 10
8603.746245141609
 20
4519.501247424292
 30
0.0
 40
0.7
100
AcDbArc
 50
183.6186294801377
 51
262.7131594833544
  0
LINE
  5
160F9
330
747D
100
AcDbEntity
  8
部品1
 48
50.0
100
AcDbLine
 10
8646.716474708115
 20
4546.831130103702
 30
0.0
 11
8608.773146518531
 21
4546.831130103702
 31
0.0
  0
LINE
  5
160FA
330
747D
100
AcDbEntity
  8
部品1
100
AcDbLine
 10
9938.287102701316
 20
4577.431130112156
 30
0.0
 11
9826.787102701329
 21
4577.431130112156
 31
0.0
  0
LINE
  5
160FB
330
747D
100
AcDbEntity
  8
部品1
100
AcDbLine
 10
10866.85744003359
 20
4601.831130112154
 30
0.0
 11
8626.219263082228
 21
4601.831130112175
 31
0.0
  0
LINE
  5
160FC
330
747D
100
AcDbEntity
  8
部品1
 48
50.0
100
AcDbLine
 10
9099.575762495133
 20
4587.431130112174
 30
0.0
 11
9113.575762495132
 21
4587.431130112174
 31
0.0
  0
LINE
  5
160FD
330
747D
100
AcDbEntity
  8
部品1
100
AcDbLine
 10
8864.78710270132
 20
4577.43113011217
 30
0.0
 11
8721.287102701321
 21
4577.431130112174
 31
0.0
  0
LINE
  5
160FE
330
747D
100
AcDbEntity
  8
部品1
 48
50.0
100
AcDbLine
 10
8718.78710270132
 20
4596.831130112176
 30
0.0
 11
8694.787102701321
 21
4596.831130112176
 31
0.0
  0
LINE
  5
160FF
330
747D
100
AcDbEntity
  8
部品1
 48
50.0
100
AcDbLine
 10
8694.787102701321
 20
4596.831130112176
 30
0.0
 11
8693.575762495134
 21
4587.431130112174
 31
0.0
  0
LINE
  5
16100
330
747D
100
AcDbEntity
  8
部品1
 48
50.0
100
AcDbLine
 10
8679.575762495133
 20
4587.431130112174
 30
0.0
 11
8678.287102701322
 21
4577.431130112174
 31
0.0
  0
LINE
  5
16101
330
747D
100
AcDbEntity
  8
部品1
 48
50.0
100
AcDbLine
 10
8679.575762495133
 20
4587.431130112174
 30
0.0
 11
8693.575762495134
 21
4587.431130112174
 31
0.0
  0
LINE
  5
16102
330
747D
100
AcDbEntity
  8
部品1
100
AcDbLine
 10
8678.287102701322
 20
4577.431130112174
 30
0.0
 11
8651.787102701321
 21
4577.431130112174
 31
0.0
  0
LINE
  5
16103
330
747D
100
AcDbEntity
  8
部品1
 48
50.0
100
AcDbLine
 10
8718.78710270132
 20
4596.831130112176
 30
0.0
 11
8721.287102701321
 21
4577.431130112174
 31
0.0
  0
LINE
  5
16104
330
747D
100
AcDbEntity
  8
部品1
100
AcDbLine
 10
8697.787102701328
 20
4596.831130112176
 30
0.0
 11
8697.78710270133
 21
4499.4200626036
 31
0.0
  0
LINE
  5
16105
330
747D
100
AcDbEntity
  8
部品1
100
AcDbLine
 10
8715.787102701328
 20
4596.831130112165
 30
0.0
 11
8715.787102701328
 21
4499.4200626036
 31
0.0
  0
LINE
  5
16106
330
747D
100
AcDbEntity
  8
部品1
 48
50.0
100
AcDbLine
 10
8948.287102701319
 20
4596.831130112176
 30
0.0
 11
8937.787102701321
 21
4577.431130112174
 31
0.0
  0
LINE
  5
16107
330
747D
100
AcDbEntity
  8
部品1
 48
50.0
100
AcDbLine
 10
8875.287102701321
 20
4596.831130112176
 30
0.0
 11
8903.287102701318
 21
4596.831130112176
 31
0.0
  0
LINE
  5
16108
330
747D
100
AcDbEntity
  8
部品1
 48
50.0
100
AcDbLine
 10
8875.287102701321
 20
4596.831130112176
 30
0.0
 11
8864.78710270132
 21
4577.431130112174
 31
0.0
  0
LINE
  5
16109
330
747D
100
AcDbEntity
  8
部品1
100
AcDbLine
 10
8876.787102701328
 20
4596.831130112172
 30
0.0
 11
8876.787102701326
 21
4499.4200626036
 31
0.0
  0
LINE
  5
1610A
330
747D
100
AcDbEntity
  8
部品1
 48
50.0
100
AcDbLine
 10
8903.287102701321
 20
4596.831130112176
 30
0.0
 11
8913.78710270132
 21
4577.431130112174
 31
0.0
  0
LINE
  5
1610B
330
747D
100
AcDbEntity
  8
部品1
100
AcDbLine
 10
8901.787102701328
 20
4596.831130112172
 30
0.0
 11
8901.78710270133
 21
4499.4200626036
 31
0.0
  0
LINE
  5
1610C
330
747D
100
AcDbEntity
  8
部品1
100
AcDbLine
 10
8937.787102701317
 20
4577.43113011217
 30
0.0
 11
8913.78710270132
 21
4577.431130112174
 31
0.0
  0
LINE
  5
1610D
330
747D
100
AcDbEntity
  8
部品1
 48
50.0
100
AcDbLine
 10
9099.575762495133
 20
4587.431130112174
 30
0.0
 11
9098.28710270132
 21
4577.431130112174
 31
0.0
  0
LINE
  5
1610E
330
747D
100
AcDbEntity
  8
部品1
 48
50.0
100
AcDbLine
 10
8948.287102701319
 20
4596.831130112176
 30
0.0
 11
8976.287102701318
 21
4596.831130112176
 31
0.0
  0
LINE
  5
1610F
330
747D
100
AcDbEntity
  8
部品1
 48
50.0
100
AcDbLine
 10
8976.28710270132
 20
4596.831130112176
 30
0.0
 11
8986.78710270132
 21
4577.431130112174
 31
0.0
  0
LINE
  5
16110
330
747D
100
AcDbEntity
  8
部品1
100
AcDbLine
 10
8974.787102701327
 20
4596.831130112172
 30
0.0
 11
8974.787102701327
 21
4499.4200626036
 31
0.0
  0
LINE
  5
16111
330
747D
100
AcDbEntity
  8
部品1
100
AcDbLine
 10
8949.787102701327
 20
4596.831130112172
 30
0.0
 11
8949.787102701327
 21
4499.4200626036
 31
0.0
  0
LINE
  5
16112
330
747D
100
AcDbEntity
  8
部品1
100
AcDbLine
 10
9098.28710270132
 20
4577.43113011217
 30
0.0
 11
8986.78710270132
 21
4577.43113011217
 31
0.0
  0
LINE
  5
16113
330
747D
100
AcDbEntity
  8
部品1
100
AcDbLine
 10
9777.787102701317
 20
4577.43113011217
 30
0.0
 11
9753.787102701322
 21
4577.43113011217
 31
0.0
  0
LINE
  5
16114
330
747D
100
AcDbEntity
  8
部品1
100
AcDbLine
 10
9518.28710270132
 20
4577.43113011217
 30
0.0
 11
9406.78710270132
 21
4577.43113011217
 31
0.0
  0
LINE
  5
16115
330
747D
100
AcDbEntity
  8
部品1
100
AcDbLine
 10
9284.787102701317
 20
4577.43113011217
 30
0.0
 11
9141.287102701317
 21
4577.43113011217
 31
0.0
  0
LINE
  5
16116
330
747D
100
AcDbEntity
  8
部品1
 48
50.0
100
AcDbLine
 10
9138.78710270132
 20
4596.831130112176
 30
0.0
 11
9141.287102701321
 21
4577.431130112174
 31
0.0
  0
LINE
  5
16117
330
747D
100
AcDbEntity
  8
部品1
 48
50.0
100
AcDbLine
 10
9114.78710270132
 20
4596.831130112176
 30
0.0
 11
9113.575762495132
 21
4587.431130112174
 31
0.0
  0
LINE
  5
16118
330
747D
100
AcDbEntity
  8
部品1
 48
50.0
100
AcDbLine
 10
9138.78710270132
 20
4596.831130112176
 30
0.0
 11
9114.78710270132
 21
4596.831130112176
 31
0.0
  0
LINE
  5
16119
330
747D
100
AcDbEntity
  8
部品1
100
AcDbLine
 10
9117.787102701328
 20
4596.831130112165
 30
0.0
 11
9117.787102701329
 21
4499.4200626036
 31
0.0
  0
LINE
  5
1611A
330
747D
100
AcDbEntity
  8
部品1
100
AcDbLine
 10
9135.787102701327
 20
4596.831130112165
 30
0.0
 11
9135.78710270133
 21
4499.4200626036
 31
0.0
  0
LINE
  5
1611B
330
747D
100
AcDbEntity
  8
部品1
 48
50.0
100
AcDbLine
 10
9368.287102701321
 20
4596.831130112176
 30
0.0
 11
9396.287102701318
 21
4596.831130112176
 31
0.0
  0
LINE
  5
1611C
330
747D
100
AcDbEntity
  8
部品1
 48
50.0
100
AcDbLine
 10
9295.287102701321
 20
4596.831130112176
 30
0.0
 11
9323.287102701318
 21
4596.831130112176
 31
0.0
  0
LINE
  5
1611D
330
747D
100
AcDbEntity
  8
部品1
 48
50.0
100
AcDbLine
 10
9368.287102701321
 20
4596.831130112176
 30
0.0
 11
9357.787102701321
 21
4577.431130112174
 31
0.0
  0
LINE
  5
1611E
330
747D
100
AcDbEntity
  8
部品1
 48
50.0
100
AcDbLine
 10
9323.287102701319
 20
4596.831130112176
 30
0.0
 11
9333.78710270132
 21
4577.431130112174
 31
0.0
  0
LINE
  5
1611F
330
747D
100
AcDbEntity
  8
部品1
100
AcDbLine
 10
9357.787102701317
 20
4577.43113011217
 30
0.0
 11
9333.78710270132
 21
4577.43113011217
 31
0.0
  0
LINE
  5
16120
330
747D
100
AcDbEntity
  8
部品1
 48
50.0
100
AcDbLine
 10
9295.287102701321
 20
4596.831130112176
 30
0.0
 11
9284.78710270132
 21
4577.431130112174
 31
0.0
  0
LINE
  5
16121
330
747D
100
AcDbEntity
  8
部品1
100
AcDbLine
 10
9369.787102701328
 20
4596.831130112172
 30
0.0
 11
9369.787102701328
 21
4499.4200626036
 31
0.0
  0
LINE
  5
16122
330
747D
100
AcDbEntity
  8
部品1
100
AcDbLine
 10
9321.787102701328
 20
4596.831130112172
 30
0.0
 11
9321.787102701328
 21
4499.4200626036
 31
0.0
  0
LINE
  5
16123
330
747D
100
AcDbEntity
  8
部品1
100
AcDbLine
 10
9296.787102701328
 20
4596.831130112172
 30
0.0
 11
9296.787102701328
 21
4499.4200626036
 31
0.0
  0
LINE
  5
16124
330
747D
100
AcDbEntity
  8
部品1
 48
50.0
100
AcDbLine
 10
9396.28710270132
 20
4596.831130112176
 30
0.0
 11
9406.78710270132
 21
4577.431130112174
 31
0.0
  0
LINE
  5
16125
330
747D
100
AcDbEntity
  8
部品1
100
AcDbLine
 10
9394.787102701327
 20
4596.831130112172
 30
0.0
 11
9394.78710270133
 21
4499.4200626036
 31
0.0
  0
LINE
  5
16126
330
747D
100
AcDbEntity
  8
部品1
100
AcDbLine
 10
9704.787102701317
 20
4577.43113011217
 30
0.0
 11
9561.287102701317
 21
4577.43113011217
 31
0.0
  0
LINE
  5
16127
330
747D
100
AcDbEntity
  8
部品1
 48
50.0
100
AcDbLine
 10
9558.787102701321
 20
4596.831130112176
 30
0.0
 11
9534.78710270132
 21
4596.831130112176
 31
0.0
  0
LINE
  5
16128
330
747D
100
AcDbEntity
  8
部品1
 48
50.0
100
AcDbLine
 10
9534.78710270132
 20
4596.831130112176
 30
0.0
 11
9533.575762495132
 21
4587.431130112174
 31
0.0
  0
LINE
  5
16129
330
747D
100
AcDbEntity
  8
部品1
 48
50.0
100
AcDbLine
 10
9519.575762495133
 20
4587.431130112174
 30
0.0
 11
9533.575762495132
 21
4587.431130112174
 31
0.0
  0
LINE
  5
1612A
330
747D
100
AcDbEntity
  8
部品1
 48
50.0
100
AcDbLine
 10
9519.575762495133
 20
4587.431130112174
 30
0.0
 11
9518.28710270132
 21
4577.431130112174
 31
0.0
  0
LINE
  5
1612B
330
747D
100
AcDbEntity
  8
部品1
100
AcDbLine
 10
9537.787102701328
 20
4596.831130112165
 30
0.0
 11
9537.787102701329
 21
4499.4200626036
 31
0.0
  0
LINE
  5
1612C
330
747D
100
AcDbEntity
  8
部品1
 48
50.0
100
AcDbLine
 10
9558.787102701321
 20
4596.831130112176
 30
0.0
 11
9561.287102701321
 21
4577.431130112174
 31
0.0
  0
LINE
  5
1612D
330
747D
100
AcDbEntity
  8
部品1
100
AcDbLine
 10
9555.787102701328
 20
4596.831130112165
 30
0.0
 11
9555.78710270133
 21
4499.4200626036
 31
0.0
  0
LINE
  5
1612E
330
747D
100
AcDbEntity
  8
部品1
 48
50.0
100
AcDbLine
 10
9743.287102701321
 20
4596.831130112176
 30
0.0
 11
9753.787102701322
 21
4577.431130112174
 31
0.0
  0
LINE
  5
1612F
330
747D
100
AcDbEntity
  8
部品1
100
AcDbLine
 10
9741.787102701328
 20
4596.831130112172
 30
0.0
 11
9741.787102701328
 21
4499.4200626036
 31
0.0
  0
LINE
  5
16130
330
747D
100
AcDbEntity
  8
部品1
 48
50.0
100
AcDbLine
 10
9715.287102701321
 20
4596.831130112176
 30
0.0
 11
9704.787102701322
 21
4577.431130112174
 31
0.0
  0
LINE
  5
16131
330
747D
100
AcDbEntity
  8
部品1
100
AcDbLine
 10
9716.787102701328
 20
4596.831130112172
 30
0.0
 11
9716.787102701328
 21
4499.4200626036
 31
0.0
  0
LINE
  5
16132
330
747D
100
AcDbEntity
  8
部品1
 48
50.0
100
AcDbLine
 10
9715.287102701321
 20
4596.831130112176
 30
0.0
 11
9743.287102701318
 21
4596.831130112176
 31
0.0
  0
LINE
  5
16133
330
747D
100
AcDbEntity
  8
部品1
 48
50.0
100
AcDbLine
 10
9788.287102701321
 20
4596.831130112176
 30
0.0
 11
9777.787102701321
 21
4577.431130112174
 31
0.0
  0
LINE
  5
16134
330
747D
100
AcDbEntity
  8
部品1
 48
50.0
100
AcDbLine
 10
9816.287102701322
 20
4596.831130112176
 30
0.0
 11
9826.787102701322
 21
4577.431130112174
 31
0.0
  0
LINE
  5
16135
330
747D
100
AcDbEntity
  8
部品1
 48
50.0
100
AcDbLine
 10
9788.287102701321
 20
4596.831130112176
 30
0.0
 11
9816.287102701316
 21
4596.831130112176
 31
0.0
  0
LINE
  5
16136
330
747D
100
AcDbEntity
  8
部品1
100
AcDbLine
 10
9789.787102701328
 20
4596.831130112172
 30
0.0
 11
9789.78710270133
 21
4499.4200626036
 31
0.0
  0
LINE
  5
16137
330
747D
100
AcDbEntity
  8
部品1
100
AcDbLine
 10
9814.787102701329
 20
4596.831130112172
 30
0.0
 11
9814.78710270133
 21
4499.4200626036
 31
0.0
  0
DIMENSION
  5
16138
330
747D
100
AcDbEntity
  8
寸法
 48
50.0
100
AcDbDimension
  2
*D3
 10
10911.78710270131
 20
5217.450399061622
 30
0.0
 11
9756.787102701315
 21
5217.450399061622
 31
0.0
 70
   160
 71
     5
 42
2310.0
  3
INABA_S40G
100
AcDbAlignedDimension
 13
8601.787102701313
 23
4601.831130103708
 33
0.0
 14
10911.78710270131
 24
4601.831130103706
 34
0.0
100
AcDbRotatedDimension
  0
DIMENSION
  5
16139
330
747D
100
AcDbEntity
  8
寸法
 48
50.0
100
AcDbDimension
  2
*D4
 10
8601.787102701313
 20
5000.924299443176
 30
0.0
 11
8288.301821327065
 21
5000.924299443176
 31
0.0
 70
   160
 71
     5
 42
50.0
  3
INABA_S40G
100
AcDbAlignedDimension
 13
8651.787102701312
 23
4601.831130103709
 33
0.0
 14
8601.787102701313
 24
4601.831130103708
 34
0.0
100
AcDbRotatedDimension
1001
ACAD
1000
DSTYLE
1002
{
1002
}
  0
DIMENSION
  5
1613A
330
747D
100
AcDbEntity
  8
寸法
 48
50.0
100
AcDbDimension
  2
*D5
 10
8651.787102701312
 20
5000.924299443176
 30
0.0
 11
9756.787102701315
 21
5000.924299443176
 31
0.0
 70
   160
  1
柱外寸法<>
 71
     5
 42
2210.0
  3
INABA_S40G
100
AcDbAlignedDimension
 13
10861.78710270131
 23
4601.831130103708
 33
0.0
 14
8651.787102701312
 24
4601.831130103709
 34
0.0
100
AcDbRotatedDimension
  0
LINE
  5
1613B
330
747D
100
AcDbEntity
  8
部品1
 48
50.0
100
AcDbLine
 10
9513.787102701311
 20
4309.83113012847
 30
0.0
 11
9513.787102701311
 21
2576.831130103699
 31
0.0
  0
LINE
  5
1613C
330
747D
100
AcDbEntity
  8
部品1
100
AcDbLine
 10
10167.78709300617
 20
4309.831130140854
 30
0.0
 11
10167.78709300617
 21
2584.331130140869
 31
0.0
  0
LINE
  5
1613D
330
747D
100
AcDbEntity
  8
細線
100
AcDbLine
 10
9413.787102701313
 20
4309.831130103702
 30
0.0
 11
9413.787102701311
 21
2576.83113010371
 31
0.0
  0
LINE
  5
1613E
330
747D
100
AcDbEntity
  8
細線
100
AcDbLine
 10
9343.787102701313
 20
4309.831130103702
 30
0.0
 11
9343.787102701311
 21
2576.83113010371
 31
0.0
  0
LINE
  5
1613F
330
747D
100
AcDbEntity
  8
細線
100
AcDbLine
 10
9273.787102701314
 20
4309.831130103702
 30
0.0
 11
9273.787102701311
 21
2576.831130103707
 31
0.0
  0
LINE
  5
16140
330
747D
100
AcDbEntity
  8
細線
100
AcDbLine
 10
9203.787102701314
 20
4309.831130103702
 30
0.0
 11
9203.78710270131
 21
2576.831130103707
 31
0.0
  0
LINE
  5
16141
330
747D
100
AcDbEntity
  8
細線
100
AcDbLine
 10
9133.787102701313
 20
4309.831130103702
 30
0.0
 11
9133.78710270131
 21
2576.831130103707
 31
0.0
  0
LINE
  5
16142
330
747D
100
AcDbEntity
  8
細線
100
AcDbLine
 10
9063.787102701313
 20
4309.831130103702
 30
0.0
 11
9063.78710270131
 21
2576.831130103707
 31
0.0
  0
LINE
  5
16143
330
747D
100
AcDbEntity
  8
部品1
100
AcDbLine
 10
8879.78710270131
 20
4309.831130103702
 30
0.0
 11
8879.787102701312
 21
2576.831130103707
 31
0.0
  0
LINE
  5
16144
330
747D
100
AcDbEntity
  8
部品1
100
AcDbLine
 10
8829.78710270131
 20
4309.831130103702
 30
0.0
 11
8829.787102701313
 21
2576.831130103707
 31
0.0
  0
LINE
  5
16145
330
747D
100
AcDbEntity
  8
細線
100
AcDbLine
 10
8871.787102701309
 20
4309.831130103702
 30
0.0
 11
8871.787102701313
 21
2576.831130103707
 31
0.0
  0
LINE
  5
16146
330
747D
100
AcDbEntity
  8
細線
100
AcDbLine
 10
8837.787102701311
 20
4309.831130103702
 30
0.0
 11
8837.787102701314
 21
2576.831130103707
 31
0.0
  0
LINE
  5
16147
330
747D
100
AcDbEntity
  8
細線
100
AcDbLine
 10
10065.28711245155
 20
4309.831130103702
 30
0.0
 11
10065.28711245155
 21
2584.331130103714
 31
0.0
  0
LINE
  5
16148
330
747D
100
AcDbEntity
  8
細線
100
AcDbLine
 10
9995.287112451556
 20
4309.831130103702
 30
0.0
 11
9995.287112451556
 21
2584.331130103714
 31
0.0
  0
LINE
  5
16149
330
747D
100
AcDbEntity
  8
細線
100
AcDbLine
 10
9925.287112451556
 20
4309.831130103702
 30
0.0
 11
9925.287112451556
 21
2584.331130103714
 31
0.0
  0
LINE
  5
1614A
330
747D
100
AcDbEntity
  8
細線
100
AcDbLine
 10
9855.287112451556
 20
4309.831130103702
 30
0.0
 11
9855.287112451556
 21
2584.331130103714
 31
0.0
  0
LINE
  5
1614B
330
747D
100
AcDbEntity
  8
細線
100
AcDbLine
 10
9785.287112451555
 20
4309.831130103702
 30
0.0
 11
9785.287112451555
 21
2584.331130103714
 31
0.0
  0
LINE
  5
1614C
330
747D
100
AcDbEntity
  8
細線
100
AcDbLine
 10
9715.287112451555
 20
4309.831130103702
 30
0.0
 11
9715.287112451555
 21
2584.331130103714
 31
0.0
  0
LINE
  5
1614D
330
747D
100
AcDbEntity
  8
細線
100
AcDbLine
 10
10640.53710270131
 20
4309.831130103702
 30
0.0
 11
10640.53710270131
 21
2584.331130103721
 31
0.0
  0
LINE
  5
1614E
330
747D
100
AcDbEntity
  8
細線
100
AcDbLine
 10
10570.53710270132
 20
4309.831130103702
 30
0.0
 11
10570.53710270132
 21
2584.331130103721
 31
0.0
  0
LINE
  5
1614F
330
747D
100
AcDbEntity
  8
細線
100
AcDbLine
 10
10500.53710270131
 20
4309.831130103702
 30
0.0
 11
10500.53710270131
 21
2584.331130103721
 31
0.0
  0
LINE
  5
16150
330
747D
100
AcDbEntity
  8
細線
100
AcDbLine
 10
10430.53710270132
 20
4309.831130103702
 30
0.0
 11
10430.53710270132
 21
2584.331130103721
 31
0.0
  0
LINE
  5
16151
330
747D
100
AcDbEntity
  8
細線
100
AcDbLine
 10
10360.53710270131
 20
4309.831130103702
 30
0.0
 11
10360.53710270131
 21
2584.331130103721
 31
0.0
  0
LINE
  5
16152
330
747D
100
AcDbEntity
  8
細線
100
AcDbLine
 10
8993.787102701313
 20
4309.831130103702
 30
0.0
 11
8993.787102701309
 21
2576.831130103707
 31
0.0
  0
LINE
  5
16153
330
747D
100
AcDbEntity
  8
細線
100
AcDbLine
 10
8923.787102701314
 20
4309.831130103702
 30
0.0
 11
8923.787102701309
 21
2576.831130103707
 31
0.0
  0
LINE
  5
16154
330
747D
100
AcDbEntity
  8
細線
100
AcDbLine
 10
9645.287112451555
 20
4309.831130103702
 30
0.0
 11
9645.287112451555
 21
2584.331130103714
 31
0.0
  0
LINE
  5
16155
330
747D
100
AcDbEntity
  8
細線
100
AcDbLine
 10
9575.287112451555
 20
4309.831130103702
 30
0.0
 11
9575.287112451555
 21
2584.331130103714
 31
0.0
  0
LINE
  5
16156
330
747D
100
AcDbEntity
  8
細線
100
AcDbLine
 10
10290.53710270132
 20
4309.831130103702
 30
0.0
 11
10290.53710270132
 21
2584.331130103721
 31
0.0
  0
LINE
  5
16157
330
747D
100
AcDbEntity
  8
部品1
 48
50.0
100
AcDbLine
 10
10833.78710270131
 20
4317.831130103702
 30
0.0
 11
10803.78710270131
 21
4317.831130103702
 31
0.0
  0
LINE
  5
16158
330
747D
100
AcDbEntity
  8
細線
 48
50.0
100
AcDbLine
 10
10781.78710270131
 20
2573.831130103703
 30
0.0
 11
10777.78710270131
 21
2584.331130103703
 31
0.0
  0
LINE
  5
16159
330
747D
100
AcDbEntity
  8
部品1
 48
50.0
100
AcDbLine
 10
10167.78709300617
 20
4309.83113014085
 30
0.0
 11
10167.78709300617
 21
2584.331130140851
 31
0.0
  0
LINE
  5
1615A
330
747D
100
AcDbEntity
  8
部品1
 48
50.0
100
AcDbLine
 10
10833.78710270131
 20
2526.831130103703
 30
0.0
 11
10833.78710270131
 21
4361.831130103703
 31
0.0
  0
LINE
  5
1615B
330
747D
100
AcDbEntity
  8
細線
 48
50.0
100
AcDbLine
 10
10803.78710270131
 20
2526.831130103703
 30
0.0
 11
10803.78710270131
 21
4319.331130103702
 31
0.0
  0
LINE
  5
1615C
330
747D
100
AcDbEntity
  8
部品1
 48
50.0
100
AcDbLine
 10
10794.78710270131
 20
2573.831130103703
 30
0.0
 11
10794.78710270131
 21
4309.831130103702
 31
0.0
  0
LINE
  5
1615D
330
747D
100
AcDbEntity
  8
部品1
 48
50.0
100
AcDbLine
 10
8709.787102701314
 20
4317.831130103702
 30
0.0
 11
8679.787102701313
 21
4317.831130103702
 31
0.0
  0
LINE
  5
1615E
330
747D
100
AcDbEntity
  8
部品1
 48
50.0
100
AcDbLine
 10
8718.787102701313
 20
2576.831130103703
 30
0.0
 11
8718.787102701313
 21
2573.831130103703
 31
0.0
  0
LINE
  5
1615F
330
747D
100
AcDbEntity
  8
部品1
 48
50.0
100
AcDbLine
 10
8709.787102701314
 20
2576.831130103703
 30
0.0
 11
9513.787102701311
 21
2576.831130103699
 31
0.0
  0
LINE
  5
16160
330
747D
100
AcDbEntity
  8
部品1
 48
50.0
100
AcDbLine
 10
9513.787102701311
 20
4309.83113012847
 30
0.0
 11
9513.787102701311
 21
2576.83113012847
 31
0.0
  0
LINE
  5
16161
330
747D
100
AcDbEntity
  8
部品1
 48
50.0
100
AcDbLine
 10
8679.787102701313
 20
4361.831130103703
 30
0.0
 11
8679.787102701313
 21
2526.831130103703
 31
0.0
  0
LINE
  5
16162
330
747D
100
AcDbEntity
  8
細線
 48
50.0
100
AcDbLine
 10
8709.787102701314
 20
4319.331130103702
 30
0.0
 11
8709.787102701314
 21
2526.831130103703
 31
0.0
  0
LINE
  5
16163
330
747D
100
AcDbEntity
  8
部品1
 48
50.0
100
AcDbLine
 10
8709.787102701314
 20
2576.831130103703
 30
0.0
 11
8709.787102701314
 21
4309.831130103702
 31
0.0
  0
LINE
  5
16164
330
747D
100
AcDbEntity
  8
細線
 48
50.0
100
AcDbLine
 10
9513.787102701311
 20
2584.331130103703
 30
0.0
 11
10777.78710270131
 21
2584.331130103703
 31
0.0
  0
LINE
  5
16165
330
747D
100
AcDbEntity
  8
細線
 48
50.0
100
AcDbLine
 10
8709.787102701314
 20
2573.831130103703
 30
0.0
 11
10803.78710270131
 21
2573.831130103703
 31
0.0
  0
LINE
  5
16166
330
747D
100
AcDbEntity
  8
細線
 48
50.0
100
AcDbLine
 10
8709.787102701314
 20
2569.831130103703
 30
0.0
 11
10803.78710270131
 21
2569.831130103703
 31
0.0
  0
LINE
  5
16167
330
747D
100
AcDbEntity
  8
部品1
 48
50.0
100
AcDbLine
 10
8679.787102701313
 20
2526.831130103703
 30
0.0
 11
10833.78710270131
 21
2526.831130103703
 31
0.0
  0
LINE
  5
16168
330
747D
100
AcDbEntity
  8
細線
 48
50.0
100
AcDbLine
 10
10803.78710270131
 20
4319.331130103702
 30
0.0
 11
8709.787102701314
 21
4319.331130103702
 31
0.0
  0
LINE
  5
16169
330
747D
100
AcDbEntity
  8
細線
 48
50.0
100
AcDbLine
 10
10803.78710270131
 20
4309.831130103702
 30
0.0
 11
8709.787102701314
 21
4309.831130103702
 31
0.0
  0
LINE
  5
1616A
330
747D
100
AcDbEntity
  8
細線
 48
50.0
100
AcDbLine
 10
10833.78710270131
 20
4351.831130103703
 30
0.0
 11
8679.787102701313
 21
4351.831130103703
 31
0.0
  0
LINE
  5
1616B
330
747D
100
AcDbEntity
  8
部品1
 48
50.0
100
AcDbLine
 10
10833.78710270131
 20
4361.831130103703
 30
0.0
 11
8679.787102701313
 21
4361.831130103703
 31
0.0
  0
LINE
  5
16185
330
747D
100
AcDbEntity
  8
部品1
 48
50.0
100
AcDbLine
 10
8753.787102701314
 20
3508.331130103703
 30
0.0
 11
8806.787102701314
 21
3508.331130103703
 31
0.0
  0
TEXT
  5
16239
330
747D
100
AcDbEntity
  8
文字
 62
     7
 48
50.0
100
AcDbText
 10
14491.96323844892
 20
483.8967129911416
 30
0.0
 40
160.0
  1
ＮＸＮ－４０ＳＡ
  7
STYLE2
100
AcDbText
  0
LINE
  5
1623A
330
747D
100
AcDbEntity
  8
部品1
100
AcDbLine
 10
10138.52243581553
 20
1737.792867126293
 30
0.0
 11
9375.051769587091
 21
1737.792867126293
 31
0.0
  0
LINE
  5
1623B
330
747D
100
AcDbEntity
  8
部品1
100
AcDbLine
 10
10138.52243581553
 20
1497.900545580761
 30
0.0
 11
10138.52243581553
 21
1737.792867126293
 31
0.0
  0
LINE
  5
1623C
330
747D
100
AcDbEntity
  8
部品1
100
AcDbLine
 10
9375.051769587091
 20
1497.900545580761
 30
0.0
 11
10138.52243581553
 21
1497.900545580761
 31
0.0
  0
LINE
  5
1623D
330
747D
100
AcDbEntity
  8
部品1
100
AcDbLine
 10
9375.051769587091
 20
1737.792867126293
 30
0.0
 11
9375.051769587091
 21
1497.900545580761
 31
0.0
  0
LINE
  5
16242
330
747D
100
AcDbEntity
  8
部品1
100
AcDbLine
 10
10833.78710270131
 20
2576.831130103723
 30
0.0
 11
10861.78710270131
 21
2576.831130103723
 31
0.0
  0
LINE
  5
16243
330
747D
100
AcDbEntity
  8
部品1
 48
50.0
100
AcDbLine
 10
10806.78710270131
 20
4361.831130103703
 30
0.0
 11
10806.78710270131
 21
4366.831130103703
 31
0.0
  0
LINE
  5
16244
330
747D
100
AcDbEntity
  8
部品1
 48
50.0
100
AcDbLine
 10
8706.787102701314
 20
4361.831130103703
 30
0.0
 11
8706.787102701314
 21
4366.831130103703
 31
0.0
  0
DIMENSION
  5
16245
330
747D
100
AcDbEntity
  8
寸法
 48
50.0
100
AcDbDimension
  2
*D6
 10
8358.562296230299
 20
2584.831130103702
 30
0.0
 11
8358.562296230299
 21
3486.759750312664
 31
0.0
 70
   160
  1
有効開口部高サ<>
 71
     5
 42
1725.000000000001
  3
INABA_S40G
100
AcDbAlignedDimension
 13
8679.787102701313
 23
4309.831130103702
 33
0.0
 14
8679.787102701313
 24
2584.831130103702
 34
0.0
 50
90.0
100
AcDbRotatedDimension
  0
LINE
  5
16246
330
747D
100
AcDbEntity
  8
部品1
 48
50.0
100
AcDbLine
 10
10806.78710270129
 20
7644.943081698909
 30
0.0
 11
10861.78710270129
 21
7644.943081698915
 31
0.0
  0
LINE
  5
16247
330
747D
100
AcDbEntity
  8
部品1
 48
50.0
100
AcDbLine
 10
10833.78710270129
 20
7672.943081698879
 30
0.0
 11
8679.787102701295
 21
7672.943081698846
 31
0.0
  0
LINE
  5
16248
330
747D
100
AcDbEntity
  8
部品1
 48
50.0
100
AcDbLine
 10
8651.787102701312
 20
7644.943081698752
 30
0.0
 11
8706.787102701296
 21
7644.943081698755
 31
0.0
  0
LINE
  5
16249
330
747D
100
AcDbEntity
  8
部品1
100
AcDbLine
 10
10806.78710270129
 20
7672.943081698879
 30
0.0
 11
10806.78710270129
 21
7644.94308169888
 31
0.0
  0
LINE
  5
1624A
330
747D
100
AcDbEntity
  8
部品1
100
AcDbLine
 10
10806.78710270129
 20
7672.943081698857
 30
0.0
 11
10806.78710270129
 21
7644.943081698857
 31
0.0
  0
LINE
  5
1624B
330
747D
100
AcDbEntity
  8
部品1
100
AcDbLine
 10
8706.787102701296
 20
7672.943081698763
 30
0.0
 11
8706.787102701296
 21
7644.943081698762
 31
0.0
  0
LINE
  5
1624C
330
747D
100
AcDbEntity
  8
部品1
100
AcDbLine
 10
8706.787102701259
 20
7672.94308169873
 30
0.0
 11
8706.787102701262
 21
7644.94308169873
 31
0.0
  0
LINE
  5
1624D
330
747D
100
AcDbEntity
  8
部品1
100
AcDbLine
 10
8679.787102701299
 20
7699.943081698799
 30
0.0
 11
8651.787102701298
 21
7699.943081698799
 31
0.0
  0
LINE
  5
1624E
330
747D
100
AcDbEntity
  8
部品1
100
AcDbLine
 10
10833.78710270132
 20
7699.943081698926
 30
0.0
 11
10861.78710270132
 21
7699.943081698926
 31
0.0
  0
LINE
  5
16250
330
747D
100
AcDbEntity
  8
部品1
100
AcDbLine
 10
10833.78710270132
 20
8539.943081698927
 30
0.0
 11
10861.78710270132
 21
8539.943081698927
 31
0.0
  0
LINE
  5
16251
330
747D
100
AcDbEntity
  8
部品1
100
AcDbLine
 10
8679.787102701299
 20
8539.943081698799
 30
0.0
 11
8651.787102701298
 21
8539.943081698799
 31
0.0
  0
LINE
  5
16252
330
747D
100
AcDbEntity
  8
部品1
 48
50.0
100
AcDbLine
 10
10805.2871027013
 20
8539.943081698927
 30
0.0
 11
8708.287102701303
 21
8539.943081699012
 31
0.0
  0
LINE
  5
16253
330
747D
100
AcDbEntity
  8
部品1
100
AcDbLine
 10
9546.787102701321
 20
9434.943081698945
 30
0.0
 11
9546.787102701321
 21
9406.943081698944
 31
0.0
  0
LINE
  5
16254
330
747D
100
AcDbEntity
  8
部品1
100
AcDbLine
 10
9546.787102701321
 20
9434.943081698827
 30
0.0
 11
9546.787102701321
 21
9406.943081698829
 31
0.0
  0
LINE
  5
16255
330
747D
100
AcDbEntity
  8
部品1
100
AcDbLine
 10
9546.787102701321
 20
9434.943081698827
 30
0.0
 11
9546.787102701321
 21
9406.943081698829
 31
0.0
  0
LINE
  5
16256
330
747D
100
AcDbEntity
  8
部品1
100
AcDbLine
 10
10806.78710270132
 20
9434.943081698923
 30
0.0
 11
10806.78710270132
 21
9406.943081698923
 31
0.0
  0
LINE
  5
16257
330
747D
100
AcDbEntity
  8
部品1
100
AcDbLine
 10
10806.78710270132
 20
9434.943081698945
 30
0.0
 11
10806.78710270132
 21
9406.943081698944
 31
0.0
  0
LINE
  5
16258
330
747D
100
AcDbEntity
  8
部品1
100
AcDbLine
 10
10833.78710270132
 20
9379.943081698925
 30
0.0
 11
10861.78710270132
 21
9379.943081698925
 31
0.0
  0
LINE
  5
16259
330
747D
100
AcDbEntity
  8
部品1
100
AcDbLine
 10
10833.78710270132
 20
8959.943081698927
 30
0.0
 11
10861.78710270132
 21
8959.943081698927
 31
0.0
  0
LINE
  5
1625A
330
747D
100
AcDbEntity
  8
部品1
100
AcDbLine
 10
10833.28710270132
 20
9404.943081698922
 30
0.0
 11
10833.28710270132
 21
8954.943081698926
 31
0.0
  0
LINE
  5
1625B
330
747D
100
AcDbEntity
  8
部品1
 48
50.0
100
AcDbLine
 10
10805.28710270128
 20
7701.443081698845
 30
0.0
 11
10833.78710270128
 21
7672.943081698846
 31
0.0
  0
LINE
  5
1625C
330
747D
100
AcDbEntity
  8
部品1
100
AcDbLine
 10
10861.78710270132
 20
9434.943081698923
 30
0.0
 11
10861.78710270129
 21
7644.943081698915
 31
0.0
  0
DIMENSION
  5
1625D
330
747D
100
AcDbEntity
  8
寸法
100
AcDbDimension
  2
*D7
 10
11509.21344843573
 20
7699.94308169891
 30
0.0
 11
11509.21344843573
 21
8539.94308169892
 31
0.0
 70
   160
  1
4X420=<>
 71
     5
 42
1680.000000000014
  3
INABA_S40G
100
AcDbAlignedDimension
 13
10861.78710270132
 23
9379.943081698925
 33
0.0
 14
10861.78710270129
 24
7699.94308169891
 34
0.0
 50
90.0
100
AcDbRotatedDimension
1001
ACAD
1000
DSTYLE
1002
{
1002
}
  0
LINE
  5
1625E
330
747D
100
AcDbEntity
  8
部品1
100
AcDbLine
 10
10833.78710270132
 20
9406.943081698923
 30
0.0
 11
10833.78710270129
 21
7672.943081698879
 31
0.0
  0
DIMENSION
  5
1625F
330
747D
100
AcDbEntity
  8
寸法
100
AcDbDimension
  2
*D8
 10
11188.64482856334
 20
8859.725266030038
 30
0.0
 11
11088.64482856334
 21
9084.725266030037
 31
0.0
 70
    32
 71
     5
 42
449.9999999999963
  3
INABA_S40G
100
AcDbAlignedDimension
 13
10833.28710270132
 23
9404.943081698922
 33
0.0
 14
10833.28710270132
 24
8954.943081698926
 34
0.0
 50
90.0
100
AcDbRotatedDimension
1001
ACAD
1000
DSTYLE
1002
{
1002
}
  0
LINE
  5
16260
330
747D
100
AcDbEntity
  8
部品1
100
AcDbLine
 10
10805.28710270131
 20
8954.943081698926
 30
0.0
 11
10805.28710270129
 21
7701.443081698833
 31
0.0
  0
LINE
  5
16261
330
747D
100
AcDbEntity
  8
破線
 48
10.0
100
AcDbLine
 10
10781.78710270131
 20
8954.943081698926
 30
0.0
 11
10781.7871027013
 21
7724.943081698842
 31
0.0
  0
LINE
  5
16262
330
747D
100
AcDbEntity
  8
部品1
100
AcDbLine
 10
10386.78710270132
 20
9434.943081698945
 30
0.0
 11
10386.78710270132
 21
9406.943081698944
 31
0.0
  0
LINE
  5
16263
330
747D
100
AcDbEntity
  8
部品1
100
AcDbLine
 10
9966.787102701321
 20
9434.943081698945
 30
0.0
 11
9966.787102701321
 21
9406.943081698944
 31
0.0
  0
LINE
  5
16264
330
747D
100
AcDbEntity
  8
部品1
100
AcDbLine
 10
9954.287102701321
 20
9398.943081698927
 30
0.0
 11
9979.28710270132
 21
9398.943081698929
 31
0.0
  0
LINE
  5
16265
330
747D
100
AcDbEntity
  8
部品1
100
AcDbLine
 10
9995.787102701321
 20
9424.943081698931
 30
0.0
 11
10001.78710270132
 21
9424.943081698931
 31
0.0
  0
LINE
  5
16266
330
747D
100
AcDbEntity
  8
部品1
100
AcDbLine
 10
10001.78710270132
 20
9424.943081698931
 30
0.0
 11
10001.78710270132
 21
9406.94308169893
 31
0.0
  0
LINE
  5
16267
330
747D
100
AcDbEntity
  8
部品1
100
AcDbLine
 10
9931.787102701321
 20
9424.943081698931
 30
0.0
 11
9937.787102701321
 21
9424.943081698931
 31
0.0
  0
LINE
  5
16268
330
747D
100
AcDbEntity
  8
部品1
100
AcDbLine
 10
9931.787102701321
 20
9424.943081698931
 30
0.0
 11
9931.787102701321
 21
9406.94308169893
 31
0.0
  0
LINE
  5
16269
330
747D
100
AcDbEntity
  8
部品1
100
AcDbLine
 10
9954.287102701321
 20
8954.943081698933
 30
0.0
 11
9979.28710270132
 21
8954.943081698933
 31
0.0
  0
LINE
  5
1626A
330
747D
100
AcDbEntity
  8
部品1
 48
50.0
100
AcDbLine
 10
9979.28710270132
 20
9406.943081698933
 30
0.0
 11
9979.28710270132
 21
8954.943081698933
 31
0.0
  0
LINE
  5
1626B
330
747D
100
AcDbEntity
  8
部品1
 48
50.0
100
AcDbLine
 10
9954.28710270132
 20
9406.943081698937
 30
0.0
 11
9954.287102701321
 21
8954.943081698933
 31
0.0
  0
LINE
  5
1626C
330
747D
100
AcDbEntity
  8
部品1
 48
50.0
100
AcDbLine
 10
9980.287102701321
 20
9404.943081698926
 30
0.0
 11
9980.287102701321
 21
8954.943081698933
 31
0.0
  0
LINE
  5
1626D
330
747D
100
AcDbEntity
  8
部品1
 48
50.0
100
AcDbLine
 10
9953.287102701322
 20
9404.943081698929
 30
0.0
 11
9953.287102701322
 21
8954.943081698933
 31
0.0
  0
LINE
  5
1626E
330
747D
100
AcDbEntity
  8
部品1
100
AcDbLine
 10
9126.787102701321
 20
9434.943081698945
 30
0.0
 11
9126.787102701321
 21
9406.943081698944
 31
0.0
  0
LINE
  5
1626F
330
747D
100
AcDbEntity
  8
部品1
100
AcDbLine
 10
9126.787102701321
 20
9434.943081698827
 30
0.0
 11
9126.787102701321
 21
9406.943081698829
 31
0.0
  0
LINE
  5
16270
330
747D
100
AcDbEntity
  8
部品1
100
AcDbLine
 10
9126.787102701321
 20
9434.943081698827
 30
0.0
 11
9126.787102701321
 21
9406.943081698829
 31
0.0
  0
LINE
  5
16273
330
747D
100
AcDbEntity
  8
部品1
100
AcDbLine
 10
9979.28710270132
 20
9406.943081698941
 30
0.0
 11
10833.78710270132
 21
9406.943081698923
 31
0.0
  0
LINE
  5
16274
330
747D
100
AcDbEntity
  8
細線
 48
50.0
100
AcDbLine
 10
10833.28710270132
 20
8954.943081698926
 30
0.0
 11
9980.287102701321
 21
9404.943081698926
 31
0.0
  0
LINE
  5
16275
330
747D
100
AcDbEntity
  8
部品1
100
AcDbLine
 10
9980.28710270132
 20
8954.943081698933
 30
0.0
 11
10833.28710270132
 21
8954.943081698926
 31
0.0
  0
LINE
  5
16276
330
747D
100
AcDbEntity
  8
部品1
100
AcDbLine
 10
9980.287102701321
 20
9404.943081698929
 30
0.0
 11
10833.28710270132
 21
9404.943081698922
 31
0.0
  0
LINE
  5
16277
330
747D
100
AcDbEntity
  8
細線
 48
50.0
100
AcDbLine
 10
10833.28710270132
 20
9404.943081698922
 30
0.0
 11
9980.28710270132
 21
8954.943081698933
 31
0.0
  0
DIMENSION
  5
16278
330
747D
100
AcDbEntity
  8
寸法
100
AcDbDimension
  2
*D9
 10
10754.7183291449
 20
8661.720426897959
 30
0.0
 11
10359.63416481959
 21
8661.720426897959
 31
0.0
 70
   160
 71
     5
 42
853.0000000000109
  3
INABA_S40G
100
AcDbAlignedDimension
 13
9980.287102701321
 23
8954.943081698933
 33
0.0
 14
10833.28710270133
 24
8954.943081698926
 34
0.0
100
AcDbRotatedDimension
1001
ACAD
1000
DSTYLE
1002
{
1002
}
  0
LINE
  5
16279
330
747D
100
AcDbEntity
  8
破線
 48
10.0
100
AcDbLine
 10
10781.78710270128
 20
7724.943081698842
 30
0.0
 11
10127.28710270136
 21
7724.943081698814
 31
0.0
  0
DIMENSION
  5
1627B
330
747D
100
AcDbEntity
  8
寸法
100
AcDbDimension
  2
*D10
 10
11509.2134484357
 20
7644.943081698915
 30
0.0
 11
11509.2134484357
 21
7267.081614794053
 31
0.0
 70
   160
 71
     5
 42
54.99999999999636
  3
INABA_S40G
100
AcDbAlignedDimension
 13
10861.78710270129
 23
7699.94308169891
 33
0.0
 14
10861.78710270129
 24
7644.943081698915
 34
0.0
 50
90.0
100
AcDbRotatedDimension
1001
ACAD
1000
DSTYLE
1002
{
1002
}
  0
LINE
  5
1627C
330
747D
100
AcDbEntity
  8
部品1
100
AcDbLine
 10
8706.787102701284
 20
9434.943081698795
 30
0.0
 11
8706.787102701289
 21
9406.943081698795
 31
0.0
  0
LINE
  5
1627D
330
747D
100
AcDbEntity
  8
部品1
100
AcDbLine
 10
8706.787102701321
 20
9434.943081698827
 30
0.0
 11
8706.787102701321
 21
9406.943081698829
 31
0.0
  0
LINE
  5
1627E
330
747D
100
AcDbEntity
  8
部品1
100
AcDbLine
 10
8679.787102701288
 20
9379.943081698799
 30
0.0
 11
8651.787102701289
 21
9379.943081698799
 31
0.0
  0
LINE
  5
1627F
330
747D
100
AcDbEntity
  8
部品1
100
AcDbLine
 10
8679.787102701295
 20
8959.943081698799
 30
0.0
 11
8651.787102701296
 21
8959.943081698799
 31
0.0
  0
LINE
  5
16280
330
747D
100
AcDbEntity
  8
部品1
 48
50.0
100
AcDbLine
 10
8680.287102701319
 20
9404.943081698824
 30
0.0
 11
8680.287102701321
 21
8954.943081698825
 31
0.0
  0
LINE
  5
16281
330
747D
100
AcDbEntity
  8
部品1
 48
50.0
100
AcDbLine
 10
8708.287102701294
 20
7701.443081698845
 30
0.0
 11
8679.787102701295
 21
7672.943081698846
 31
0.0
  0
LINE
  5
16282
330
747D
100
AcDbEntity
  8
部品1
100
AcDbLine
 10
8651.787102701284
 20
9434.943081698795
 30
0.0
 11
8651.787102701312
 21
7644.943081698784
 31
0.0
  0
LINE
  5
16283
330
747D
100
AcDbEntity
  8
部品1
100
AcDbLine
 10
8679.787102701295
 20
7672.943081698846
 30
0.0
 11
8679.787102701322
 21
9406.943081698829
 31
0.0
  0
LINE
  5
16284
330
747D
100
AcDbEntity
  8
部品1
100
AcDbLine
 10
8708.287102701296
 20
8954.943081698926
 30
0.0
 11
8708.287102701314
 21
7701.443081698865
 31
0.0
  0
LINE
  5
16285
330
747D
100
AcDbEntity
  8
破線
 48
10.0
100
AcDbLine
 10
8731.787102701295
 20
8954.943081698926
 30
0.0
 11
8731.787102701309
 21
7724.943081698748
 31
0.0
  0
LINE
  5
16287
330
747D
100
AcDbEntity
  8
部品1
100
AcDbLine
 10
8679.787102701322
 20
9406.943081698829
 30
0.0
 11
9954.287102701318
 21
9406.943081698944
 31
0.0
  0
LINE
  5
16288
330
747D
100
AcDbEntity
  8
部品1
100
AcDbLine
 10
8651.787102701321
 20
9434.943081698827
 30
0.0
 11
10861.78710270132
 21
9434.943081698923
 31
0.0
  0
LINE
  5
16289
330
747D
100
AcDbEntity
  8
部品1
100
AcDbLine
 10
8680.287102701321
 20
8954.943081698827
 30
0.0
 11
9953.287102701319
 21
8954.943081698933
 31
0.0
  0
LINE
  5
1628A
330
747D
100
AcDbEntity
  8
細線
 48
50.0
100
AcDbLine
 10
9953.287102701322
 20
9404.943081698929
 30
0.0
 11
8680.287102701321
 21
8954.943081698827
 31
0.0
  0
LINE
  5
1628B
330
747D
100
AcDbEntity
  8
部品1
100
AcDbLine
 10
8680.287102701319
 20
9404.943081698828
 30
0.0
 11
9953.287102701322
 21
9404.943081698933
 31
0.0
  0
LINE
  5
1628C
330
747D
100
AcDbEntity
  8
細線
 48
50.0
100
AcDbLine
 10
9953.287102701319
 20
8954.943081698933
 30
0.0
 11
8680.287102701319
 21
9404.943081698828
 31
0.0
  0
DIMENSION
  5
1628D
330
747D
100
AcDbEntity
  8
寸法
100
AcDbDimension
  2
*D11
 10
9874.894782988121
 20
8662.378961605936
 30
0.0
 11
9214.898303323979
 21
8662.378961605936
 31
0.0
 70
   160
 71
     5
 42
1273.000000000011
  3
INABA_S40G
100
AcDbAlignedDimension
 13
8680.287102701321
 23
8954.943081698827
 33
0.0
 14
9953.287102701331
 24
8954.94308169882
 34
0.0
100
AcDbRotatedDimension
1001
ACAD
1000
DSTYLE
1002
{
1002
}
  0
LINE
  5
1628E
330
747D
100
AcDbEntity
  8
破線
 48
10.0
100
AcDbLine
 10
10077.28710270137
 20
7724.943081698812
 30
0.0
 11
9436.287102701367
 21
7724.943081698784
 31
0.0
  0
LINE
  5
1628F
330
747D
100
AcDbEntity
  8
部品1
100
AcDbLine
 10
10805.28710270128
 20
7701.443081698845
 30
0.0
 11
8708.287102701197
 21
7701.443081698748
 31
0.0
  0
DIMENSION
  5
16290
330
747D
100
AcDbEntity
  8
寸法
100
AcDbDimension
  2
*D12
 10
8706.787102701321
 20
9737.988676274406
 30
0.0
 11
8343.301821327045
 21
9737.988676274406
 31
0.0
 70
   160
 71
     5
 42
55.00000000003637
  3
INABA_S40G
100
AcDbAlignedDimension
 13
8651.787102701284
 23
9434.943081698827
 33
0.0
 14
8706.787102701321
 24
9434.943081698827
 34
0.0
100
AcDbRotatedDimension
1001
ACAD
1000
DSTYLE
1002
{
1002
}
  0
DIMENSION
  5
16291
330
747D
100
AcDbEntity
  8
寸法
100
AcDbDimension
  2
*D13
 10
11509.21344843573
 20
9379.943081698925
 30
0.0
 11
11509.21344843573
 21
9743.428363073164
 31
0.0
 70
   160
 71
     5
 42
54.99999999999636
  3
INABA_S40G
100
AcDbAlignedDimension
 13
10861.78710270132
 23
9434.943081698923
 33
0.0
 14
10861.78710270132
 24
9379.943081698925
 34
0.0
 50
90.0
100
AcDbRotatedDimension
1001
ACAD
1000
DSTYLE
1002
{
1002
}
  0
DIMENSION
  5
16292
330
747D
100
AcDbEntity
  8
寸法
100
AcDbDimension
  2
*D14
 10
10861.78710270132
 20
9737.988676274504
 30
0.0
 11
11170.27238407556
 21
9737.988676274504
 31
0.0
 70
   160
 71
     5
 42
55.0
  3
INABA_S40G
100
AcDbAlignedDimension
 13
10806.78710270132
 23
9434.943081698923
 33
0.0
 14
10861.78710270132
 24
9434.943081698923
 34
0.0
100
AcDbRotatedDimension
1001
ACAD
1000
DSTYLE
1002
{
1002
}
  0
DIMENSION
  5
16293
330
747D
100
AcDbEntity
  8
寸法
100
AcDbDimension
  2
*D15
 10
10806.78710270132
 20
9737.988676274524
 30
0.0
 11
9756.78710270132
 21
9737.988676274524
 31
0.0
 70
   160
  1
5X420=<>
 71
     5
 42
2100.0
  3
INABA_S40G
100
AcDbAlignedDimension
 13
8706.787102701321
 23
9434.943081698827
 33
0.0
 14
10806.78710270132
 24
9434.943081698923
 34
0.0
100
AcDbRotatedDimension
1001
ACAD
1000
DSTYLE
1002
{
1002
}
  0
DIMENSION
  5
16294
330
747D
100
AcDbEntity
  8
寸法
100
AcDbDimension
  2
*D16
 10
11798.39997442166
 20
7644.943081698915
 30
0.0
 11
11798.39997442165
 21
8540.033129040006
 31
0.0
 70
   160
 71
     5
 42
1790.000000000007
  3
INABA_S40G
100
AcDbAlignedDimension
 13
10861.78710270132
 23
9434.943081698923
 33
0.0
 14
10861.78710270129
 24
7644.943081698915
 34
0.0
 50
90.0
100
AcDbRotatedDimension
1001
ACAD
1000
DSTYLE
1002
{
1002
}
  0
LINE
  5
16295
330
747D
100
AcDbEntity
  8
部品1
100
AcDbLine
 10
8651.787102701312
 20
2576.831130103707
 30
0.0
 11
8679.787102701313
 21
2576.831130103707
 31
0.0
  0
TEXT
  5
16296
330
747D
100
AcDbEntity
  8
部品1
100
AcDbText
 10
9465.577173325046
 20
1544.89933790777
 30
0.0
 40
135.0
  1
正面図
  7
STYLE2
100
AcDbText
  0
DIMENSION
  5
16297
330
747D
100
AcDbEntity
  8
寸法
 48
50.0
100
AcDbDimension
  2
*D17
 10
8551.787102701313
 20
1940.783800803326
 30
0.0
 11
8651.787102701312
 21
1940.783800803326
 31
0.0
 70
   160
 71
     5
 42
200.0000000000018
  3
INABA_S40G
100
AcDbAlignedDimension
 13
8751.787102701316
 23
2226.831130103703
 33
0.0
 14
8551.787102701313
 24
2226.831130103703
 34
0.0
100
AcDbRotatedDimension
  0
LINE
  5
16298
330
747D
100
AcDbEntity
  8
破線
 48
5.0
100
AcDbLine
 10
8646.787102701313
 20
2426.831130103703
 30
0.0
 11
8646.787102701313
 21
2271.831130103703
 31
0.0
  0
LINE
  5
16299
330
747D
100
AcDbEntity
  8
破線
 48
5.0
100
AcDbLine
 10
10866.78710270131
 20
2426.831130103703
 30
0.0
 11
10866.78710270131
 21
2271.831130103703
 31
0.0
  0
LINE
  5
1629A
330
747D
100
AcDbEntity
  8
破線
 48
5.0
100
AcDbLine
 10
8751.787102701312
 20
2426.831130103703
 30
0.0
 11
8751.787102701312
 21
2226.831130103703
 31
0.0
  0
LINE
  5
1629B
330
747D
100
AcDbEntity
  8
破線
 48
5.0
100
AcDbLine
 10
8626.787102701312
 20
2271.831130103703
 30
0.0
 11
8646.787102701315
 21
2271.831130103703
 31
0.0
  0
LINE
  5
1629C
330
747D
100
AcDbEntity
  8
破線
 48
5.0
100
AcDbLine
 10
8551.787102701313
 20
2426.831130103703
 30
0.0
 11
8551.787102701313
 21
2226.831130103703
 31
0.0
  0
LINE
  5
1629D
330
747D
100
AcDbEntity
  8
破線
 48
5.0
100
AcDbLine
 10
8551.787102701313
 20
2226.831130103703
 30
0.0
 11
8751.787102701316
 21
2226.831130103703
 31
0.0
  0
LINE
  5
1629E
330
747D
100
AcDbEntity
  8
部品1
100
AcDbLine
 10
8646.787102701313
 20
2571.831130103705
 30
0.0
 11
8646.787102701313
 21
2426.831130103703
 31
0.0
  0
LINE
  5
1629F
330
747D
100
AcDbEntity
  8
破線
 48
5.0
100
AcDbLine
 10
10886.78710270131
 20
2271.831130103703
 30
0.0
 11
10866.78710270131
 21
2271.831130103703
 31
0.0
  0
LINE
  5
162A0
330
747D
100
AcDbEntity
  8
破線
 48
5.0
100
AcDbLine
 10
10961.78710270131
 20
2426.831130103703
 30
0.0
 11
10961.78710270131
 21
2226.831130103703
 31
0.0
  0
LINE
  5
162A1
330
747D
100
AcDbEntity
  8
破線
 48
5.0
100
AcDbLine
 10
10761.78710270131
 20
2426.831130103703
 30
0.0
 11
10761.78710270131
 21
2226.831130103703
 31
0.0
  0
LINE
  5
162A2
330
747D
100
AcDbEntity
  8
破線
 48
5.0
100
AcDbLine
 10
10961.78710270131
 20
2226.831130103703
 30
0.0
 11
10761.78710270131
 21
2226.831130103703
 31
0.0
  0
LINE
  5
162A3
330
747D
100
AcDbEntity
  8
部品1
100
AcDbLine
 10
10866.78710270131
 20
2571.831130103703
 30
0.0
 11
10866.78710270131
 21
2426.831130103703
 31
0.0
  0
LINE
  5
162A6
330
747D
100
AcDbEntity
  8
部品1
100
AcDbLine
 10
9051.787102701313
 20
2526.831130103703
 30
0.0
 11
9051.787102701313
 21
2426.831130103703
 31
0.0
  0
LINE
  5
162A7
330
747D
100
AcDbEntity
  8
部品1
100
AcDbLine
 10
10461.78710270131
 20
2526.831130103703
 30
0.0
 11
10461.78710270131
 21
2426.831130103703
 31
0.0
  0
LINE
  5
162A8
330
747D
100
AcDbEntity
  8
部品1
100
AcDbLine
 10
10861.78710270131
 20
4420.331130103703
 30
0.0
 11
10861.78710270131
 21
2426.831130103703
 31
0.0
  0
LINE
  5
162A9
330
747D
100
AcDbEntity
  8
部品1
100
AcDbLine
 10
8651.787102701312
 20
4420.331130103703
 30
0.0
 11
8651.787102701312
 21
2426.831130103703
 31
0.0
  0
LINE
  5
162AA
330
747D
100
AcDbEntity
  8
部品1
100
AcDbLine
 10
8651.787102701312
 20
4366.831130103703
 30
0.0
 11
10861.78710270131
 21
4366.831130103703
 31
0.0
  0
LINE
  5
162AB
330
747D
100
AcDbEntity
  8
部品1
100
AcDbLine
 10
8651.787102701312
 20
2526.831130103703
 30
0.0
 11
10861.78710270131
 21
2526.831130103703
 31
0.0
  0
LINE
  5
162AC
330
747D
100
AcDbEntity
  8
Ｇ．Ｌ
100
AcDbLine
 10
2696.916359514911
 20
2426.831130103703
 30
0.0
 11
11511.29965573015
 21
2426.831130103703
 31
0.0
  0
TEXT
  5
162B1
330
747D
100
AcDbEntity
  8
文字
 62
     7
 48
50.0
100
AcDbText
 10
13209.4053442172
 20
228.543524256902
 30
0.0
 40
100.0
  1
○有効開口寸法 ： 1266×1725(mm)
  7
STYLE2
100
AcDbText
  0
LINE
  5
1656E
330
747D
100
AcDbEntity
  8
補助
  6
PHANTOM
 62
   230
 48
50.0
100
AcDbLine
 10
140.0
 20
0.0
 30
0.0
 11
140.0
 21
11409.6
 31
0.0
  0
TEXT
  5
168E8
330
747D
100
AcDbEntity
  8
部品1
100
AcDbText
 10
2854.758715032604
 20
2462.938033709605
 30
0.0
 40
125.0
  1
▽G.L
  7
STYLE2
100
AcDbText
  0
TEXT
  5
168E9
330
747D
100
AcDbEntity
  8
部品1
100
AcDbText
 10
5338.037524913163
 20
1544.899337907769
 30
0.0
 40
135.0
  1
側面図
  7
STYLE2
100
AcDbText
  0
LINE
  5
168EA
330
747D
100
AcDbEntity
  8
部品1
100
AcDbLine
 10
5248.591423489555
 20
1737.792867126293
 30
0.0
 11
5248.591423489555
 21
1497.900545580761
 31
0.0
  0
LINE
  5
168EB
330
747D
100
AcDbEntity
  8
部品1
100
AcDbLine
 10
5248.591423489555
 20
1497.900545580761
 30
0.0
 11
6012.062089717995
 21
1497.900545580761
 31
0.0
  0
LINE
  5
168EC
330
747D
100
AcDbEntity
  8
部品1
100
AcDbLine
 10
6012.062089717995
 20
1497.900545580761
 30
0.0
 11
6012.062089717995
 21
1737.792867126293
 31
0.0
  0
LINE
  5
168ED
330
747D
100
AcDbEntity
  8
部品1
100
AcDbLine
 10
6012.062089717995
 20
1737.792867126293
 30
0.0
 11
5248.591423489555
 21
1737.792867126293
 31
0.0
  0
LINE
  5
168EE
330
747D
100
AcDbEntity
  8
部品1
100
AcDbLine
 10
4735.326756603775
 20
4366.831130103703
 30
0.0
 11
6525.326756603776
 21
4366.831130103703
 31
0.0
  0
LINE
  5
168EF
330
747D
100
AcDbEntity
  8
部品1
100
AcDbLine
 10
4735.326756603775
 20
2576.831130103703
 30
0.0
 11
6525.326756603779
 21
2576.831130103703
 31
0.0
  0
LINE
  5
168F0
330
747D
100
AcDbEntity
  8
部品1
100
AcDbLine
 10
4735.326756603775
 20
2526.831130103703
 30
0.0
 11
4742.826756603776
 21
2526.831130103703
 31
0.0
  0
LINE
  5
168F1
330
747D
100
AcDbEntity
  8
部品1
100
AcDbLine
 10
4790.326756603775
 20
4366.831130103703
 30
0.0
 11
4790.326756603775
 21
2576.831130103703
 31
0.0
  0
LINE
  5
168F2
330
747D
100
AcDbEntity
  8
部品1
100
AcDbLine
 10
4735.326756603775
 20
4458.689649545951
 30
0.0
 11
4735.326756603775
 21
2426.831130103703
 31
0.0
  0
DIMENSION
  5
168F3
330
747D
100
AcDbEntity
  8
寸法
100
AcDbDimension
  2
*D18
 10
4111.674047445479
 20
2576.831130103703
 30
0.0
 11
4111.674047445478
 21
3467.285428645661
 31
0.0
 70
   160
 71
     5
 42
1790.0
  3
INABA_S40G
100
AcDbAlignedDimension
 13
4735.326756603775
 23
4366.831130103703
 33
0.0
 14
4735.326756603775
 24
2576.831130103703
 34
0.0
 50
90.0
100
AcDbRotatedDimension
1001
ACAD
1000
DSTYLE
1002
{
1070
   174
1070
     0
1070
   272
1070
     1
1070
   288
1070
     0
1070
   341
1005
0
1002
}
  0
DIMENSION
  5
168F4
330
747D
100
AcDbEntity
  8
寸法
100
AcDbDimension
  2
*D19
 10
3826.687374674417
 20
4601.831130103707
 30
0.0
 11
3826.687374674417
 21
3521.037007596813
 31
0.0
 70
   160
 71
     5
 42
2075.000000000005
  3
INABA_S40G
100
AcDbAlignedDimension
 13
4735.326756603775
 23
2526.831130103703
 33
0.0
 14
4675.326756603776
 24
4601.831130103707
 34
0.0
 50
90.0
100
AcDbRotatedDimension
1001
ACAD
1000
DSTYLE
1002
{
1070
   174
1070
     0
1070
   272
1070
     1
1070
   288
1070
     0
1070
   341
1005
0
1002
}
  0
DIMENSION
  5
168F5
330
747D
100
AcDbEntity
  8
寸法
100
AcDbDimension
  2
*D20
 10
3826.687374674417
 20
2426.831130103703
 30
0.0
 11
3826.687374674417
 21
2190.783886009214
 31
0.0
 70
   160
 71
     5
 42
100.0
  3
INABA_S40G
100
AcDbAlignedDimension
 13
4680.326756603776
 23
2526.831130103703
 33
0.0
 14
4111.674047445478
 24
2426.831130103703
 34
0.0
 50
90.0
100
AcDbRotatedDimension
1001
ACAD
1000
DSTYLE
1002
{
1070
   174
1070
     0
1070
   272
1070
     1
1070
   288
1070
     0
1070
   341
1005
0
1002
}
  0
DIMENSION
  5
168F6
330
747D
100
AcDbEntity
  8
寸法
100
AcDbDimension
  2
*D21
 10
4111.674047445479
 20
2526.831130103703
 30
0.0
 11
4111.674047445478
 21
2220.783886009213
 31
0.0
 70
   160
 71
     5
 42
50.0
  3
INABA_S40G
100
AcDbAlignedDimension
 13
4735.326756603775
 23
2576.831130103703
 33
0.0
 14
4680.326756603776
 24
2526.831130103703
 34
0.0
 50
90.0
100
AcDbRotatedDimension
1001
ACAD
1000
DSTYLE
1002
{
1070
   174
1070
     0
1070
   272
1070
     1
1070
   288
1070
     0
1070
   341
1005
0
1002
}
  0
LINE
  5
168F7
330
747D
100
AcDbEntity
  8
部品1
100
AcDbLine
 10
5210.326756603776
 20
4366.831130103703
 30
0.0
 11
5210.326756603776
 21
2576.831130103703
 31
0.0
  0
LINE
  5
168F8
330
747D
100
AcDbEntity
  8
部品1
100
AcDbLine
 10
6525.326756603776
 20
4421.712938789709
 30
0.0
 11
6525.326756603779
 21
2426.831130103703
 31
0.0
  0
LINE
  5
168F9
330
747D
100
AcDbEntity
  8
部品1
100
AcDbLine
 10
6470.326756603779
 20
4366.831130103703
 30
0.0
 11
6470.326756603779
 21
2576.831130103703
 31
0.0
  0
DIMENSION
  5
168FA
330
747D
100
AcDbEntity
  8
寸法
100
AcDbDimension
  2
*D22
 10
7137.496852366203
 20
4546.831130103703
 30
0.0
 11
7137.496852366203
 21
3509.087457533392
 31
0.0
 70
   160
 71
     5
 42
2020.000000000001
  3
INABA_S40G
100
AcDbAlignedDimension
 13
6602.326756603779
 23
2526.831130103703
 33
0.0
 14
6605.326756603776
 24
4546.831130103703
 34
0.0
 50
90.0
100
AcDbRotatedDimension
1001
ACAD
1000
DSTYLE
1002
{
1070
   174
1070
     0
1070
   272
1070
     1
1070
   288
1070
     0
1070
   341
1005
0
1002
}
  0
DIMENSION
  5
168FB
330
747D
100
AcDbEntity
  8
寸法
 48
50.0
100
AcDbDimension
  2
*D23
 10
4735.326756603775
 20
5000.924299443176
 30
0.0
 11
5644.922405280256
 21
5000.924299443176
 31
0.0
 70
   160
  1
柱外寸法<>
 71
     5
 42
1790.0
  3
INABA_S40G
100
AcDbAlignedDimension
 13
6525.326756603776
 23
4548.641809715356
 33
0.0
 14
4735.326756603775
 24
4597.83274822668
 34
0.0
100
AcDbRotatedDimension
1001
ACAD
1000
DSTYLE
1002
{
1070
   174
1070
     0
1070
   272
1070
     1
1070
   288
1070
     0
1070
   341
1005
0
1002
}
  0
DIMENSION
  5
168FC
330
747D
100
AcDbEntity
  8
寸法
 48
50.0
100
AcDbDimension
  2
*D24
 10
4675.326756603776
 20
5000.488583683007
 30
0.0
 11
4365.688961328185
 21
5000.488583683007
 31
0.0
 70
   160
 71
     5
 42
60.0
  3
INABA_S40G
100
AcDbAlignedDimension
 13
4735.326756603775
 23
4597.83274822668
 33
0.0
 14
4675.326756603776
 24
4601.831130103707
 34
0.0
100
AcDbRotatedDimension
1001
ACAD
1000
DSTYLE
1002
{
1070
   174
1070
     0
1070
   272
1070
     1
1070
   288
1070
     0
1070
   341
1005
0
1002
}
  0
DIMENSION
  5
168FD
330
747D
100
AcDbEntity
  8
寸法
 48
50.0
100
AcDbDimension
  2
*D25
 10
4675.326756603776
 20
5217.450399061622
 30
0.0
 11
5581.132507854746
 21
5217.450399061622
 31
0.0
 70
   160
 71
     5
 42
1930.0
  3
INABA_S40G
100
AcDbAlignedDimension
 13
6605.326756603776
 23
4546.831130103703
 33
0.0
 14
4675.326756603776
 24
4601.831130103707
 34
0.0
100
AcDbRotatedDimension
1001
ACAD
1000
DSTYLE
1002
{
1070
   174
1070
     0
1070
   272
1070
     1
1070
   288
1070
     0
1070
   341
1005
0
1002
}
  0
LINE
  5
168FE
330
747D
100
AcDbEntity
  8
破線
  6
HIDDEN
 48
5.0
100
AcDbLine
 10
6532.826756603775
 20
2271.831130103703
 30
0.0
 11
6462.826756603776
 21
2271.831130103703
 31
0.0
  0
LINE
  5
168FF
330
747D
100
AcDbEntity
  8
破線
  6
HIDDEN
 48
5.0
100
AcDbLine
 10
6477.826756603775
 20
2421.831130103703
 30
0.0
 11
6462.826756603776
 21
2274.131130103702
 31
0.0
  0
LINE
  5
16900
330
747D
100
AcDbEntity
  8
破線
  6
HIDDEN
 48
5.0
100
AcDbLine
 10
6462.826756603776
 20
2274.131130103702
 30
0.0
 11
6462.826756603776
 21
2271.831130103703
 31
0.0
  0
LINE
  5
16901
330
747D
100
AcDbEntity
  8
破線
  6
HIDDEN
 48
5.0
100
AcDbLine
 10
6517.826756603776
 20
2421.831130103703
 30
0.0
 11
6532.826756603775
 21
2274.131130103702
 31
0.0
  0
LINE
  5
16902
330
747D
100
AcDbEntity
  8
破線
  6
HIDDEN
 48
5.0
100
AcDbLine
 10
6532.826756603775
 20
2274.131130103702
 30
0.0
 11
6532.826756603775
 21
2271.831130103703
 31
0.0
  0
LINE
  5
16903
330
747D
100
AcDbEntity
  8
破線
  6
HIDDEN
 48
5.0
100
AcDbLine
 10
4727.826756603775
 20
2271.831130103703
 30
0.0
 11
4797.826756603775
 21
2271.831130103703
 31
0.0
  0
LINE
  5
16904
330
747D
100
AcDbEntity
  8
破線
  6
HIDDEN
 48
5.0
100
AcDbLine
 10
4727.826756603775
 20
2274.131130103702
 30
0.0
 11
4727.826756603775
 21
2271.831130103703
 31
0.0
  0
LINE
  5
16905
330
747D
100
AcDbEntity
  8
破線
  6
HIDDEN
 48
5.0
100
AcDbLine
 10
4797.826756603775
 20
2274.131130103702
 30
0.0
 11
4797.826756603775
 21
2271.831130103703
 31
0.0
  0
LINE
  5
16906
330
747D
100
AcDbEntity
  8
破線
  6
HIDDEN
 48
5.0
100
AcDbLine
 10
4742.826756603776
 20
2421.831130103703
 30
0.0
 11
4727.826756603775
 21
2274.131130103702
 31
0.0
  0
LINE
  5
16907
330
747D
100
AcDbEntity
  8
破線
  6
HIDDEN
 48
5.0
100
AcDbLine
 10
4782.826756603776
 20
2421.831130103703
 30
0.0
 11
4797.826756603775
 21
2274.131130103702
 31
0.0
  0
LINE
  5
16908
330
747D
100
AcDbEntity
  8
部品1
 48
50.0
100
AcDbLine
 10
4742.826756603776
 20
2566.831130103703
 30
0.0
 11
4742.826756603776
 21
2426.831130103703
 31
0.0
  0
LINE
  5
16909
330
747D
100
AcDbEntity
  8
部品1
 48
50.0
100
AcDbLine
 10
4782.826756603776
 20
2566.831130103703
 30
0.0
 11
4782.826756603776
 21
2426.831130103703
 31
0.0
  0
LINE
  5
1690A
330
747D
100
AcDbEntity
  8
部品1
100
AcDbLine
 10
4747.826756603775
 20
2571.831130103703
 30
0.0
 11
4777.826756603775
 21
2571.831130103703
 31
0.0
  0
ARC
  5
1690B
330
747D
100
AcDbEntity
  8
部品1
 48
50.0
100
AcDbCircle
 10
4747.826756603775
 20
2566.831130103703
 30
0.0
 40
5.0
100
AcDbArc
 50
90.0
 51
180.0
  0
ARC
  5
1690C
330
747D
100
AcDbEntity
  8
部品1
 48
50.0
100
AcDbCircle
 10
4777.826756603775
 20
2566.831130103703
 30
0.0
 40
5.0
100
AcDbArc
 50
0.0
 51
90.0
  0
LINE
  5
1690D
330
747D
100
AcDbEntity
  8
部品1
 48
50.0
100
AcDbLine
 10
6477.826756603775
 20
2566.831130103703
 30
0.0
 11
6477.826756603775
 21
2426.831130103703
 31
0.0
  0
LINE
  5
1690E
330
747D
100
AcDbEntity
  8
部品1
 48
50.0
100
AcDbLine
 10
6517.826756603776
 20
2566.831130103703
 30
0.0
 11
6517.826756603776
 21
2426.831130103703
 31
0.0
  0
LINE
  5
1690F
330
747D
100
AcDbEntity
  8
部品1
100
AcDbLine
 10
6512.826756603776
 20
2571.831130103703
 30
0.0
 11
6482.826756603775
 21
2571.831130103703
 31
0.0
  0
ARC
  5
16910
330
747D
100
AcDbEntity
  8
部品1
 48
50.0
100
AcDbCircle
 10
6482.826756603775
 20
2566.831130103703
 30
0.0
 40
5.0
100
AcDbArc
 50
90.0
 51
180.0
  0
ARC
  5
16911
330
747D
100
AcDbEntity
  8
部品1
 48
50.0
100
AcDbCircle
 10
6512.826756603776
 20
2566.831130103703
 30
0.0
 40
5.0
100
AcDbArc
 50
0.0
 51
90.0
  0
LINE
  5
16912
330
747D
100
AcDbEntity
  8
破線
  6
HIDDEN
 48
5.0
100
AcDbLine
 10
6477.826756603775
 20
2426.831130103703
 30
0.0
 11
6477.826756603775
 21
2421.831130103703
 31
0.0
  0
LINE
  5
16913
330
747D
100
AcDbEntity
  8
破線
  6
HIDDEN
 48
5.0
100
AcDbLine
 10
6517.826756603776
 20
2426.831130103703
 30
0.0
 11
6517.826756603776
 21
2421.831130103703
 31
0.0
  0
LINE
  5
16914
330
747D
100
AcDbEntity
  8
破線
  6
HIDDEN
 48
5.0
100
AcDbLine
 10
4742.826756603783
 20
2426.831130103703
 30
0.0
 11
4742.826756603783
 21
2421.831130103703
 31
0.0
  0
LINE
  5
16915
330
747D
100
AcDbEntity
  8
破線
  6
HIDDEN
 48
5.0
100
AcDbLine
 10
4782.826756603776
 20
2426.831130103703
 30
0.0
 11
4782.826756603776
 21
2421.831130103703
 31
0.0
  0
LINE
  5
16916
330
747D
100
AcDbEntity
  8
部品1
100
AcDbLine
 10
6517.826756603776
 20
2526.831130103703
 30
0.0
 11
6525.326756603779
 21
2526.831130103703
 31
0.0
  0
LINE
  5
16917
330
747D
100
AcDbEntity
  8
部品1
100
AcDbLine
 10
4782.826756603776
 20
2526.831130103703
 30
0.0
 11
6477.826756603775
 21
2526.831130103703
 31
0.0
  0
LINE
  5
16918
330
747D
100
AcDbEntity
  8
細線
 48
50.0
100
AcDbLine
 10
5287.826756603775
 20
4366.831130103703
 30
0.0
 11
5287.826756603775
 21
2576.831130103703
 31
0.0
  0
LINE
  5
16919
330
747D
100
AcDbEntity
  8
細線
 48
50.0
100
AcDbLine
 10
5272.826756603776
 20
4366.831130103703
 30
0.0
 11
5272.826756603776
 21
2576.831130103703
 31
0.0
  0
LINE
  5
1691A
330
747D
100
AcDbEntity
  8
細線
 48
50.0
100
AcDbLine
 10
5412.826756603775
 20
4366.831130103703
 30
0.0
 11
5412.826756603775
 21
2576.831130103703
 31
0.0
  0
LINE
  5
1691B
330
747D
100
AcDbEntity
  8
細線
 48
50.0
100
AcDbLine
 10
5427.826756603775
 20
4366.831130103703
 30
0.0
 11
5427.826756603775
 21
2576.831130103703
 31
0.0
  0
LINE
  5
1691C
330
747D
100
AcDbEntity
  8
細線
 48
50.0
100
AcDbLine
 10
5567.826756603776
 20
4366.831130103703
 30
0.0
 11
5567.826756603776
 21
2576.831130103703
 31
0.0
  0
LINE
  5
1691D
330
747D
100
AcDbEntity
  8
細線
 48
50.0
100
AcDbLine
 10
5552.826756603775
 20
4366.831130103703
 30
0.0
 11
5552.826756603775
 21
2576.831130103703
 31
0.0
  0
LINE
  5
1691E
330
747D
100
AcDbEntity
  8
細線
 48
50.0
100
AcDbLine
 10
5132.826756603776
 20
4366.831130103703
 30
0.0
 11
5132.826756603776
 21
2576.831130103703
 31
0.0
  0
LINE
  5
1691F
330
747D
100
AcDbEntity
  8
細線
 48
50.0
100
AcDbLine
 10
5147.826756603776
 20
4366.831130103703
 30
0.0
 11
5147.826756603776
 21
2576.831130103703
 31
0.0
  0
LINE
  5
16920
330
747D
100
AcDbEntity
  8
細線
 48
50.0
100
AcDbLine
 10
5007.826756603776
 20
4366.831130103703
 30
0.0
 11
5007.826756603776
 21
2576.831130103703
 31
0.0
  0
LINE
  5
16921
330
747D
100
AcDbEntity
  8
細線
 48
50.0
100
AcDbLine
 10
4992.826756603776
 20
4366.831130103703
 30
0.0
 11
4992.826756603776
 21
2576.831130103703
 31
0.0
  0
LINE
  5
16922
330
747D
100
AcDbEntity
  8
細線
 48
50.0
100
AcDbLine
 10
4852.826756603775
 20
4366.831130103703
 30
0.0
 11
4852.826756603775
 21
2576.831130103703
 31
0.0
  0
LINE
  5
16923
330
747D
100
AcDbEntity
  8
細線
 48
50.0
100
AcDbLine
 10
4867.826756603776
 20
4366.831130103703
 30
0.0
 11
4867.826756603776
 21
2576.831130103703
 31
0.0
  0
LINE
  5
16924
330
747D
100
AcDbEntity
  8
部品1
100
AcDbLine
 10
4682.871742960738
 20
4600.54886543797
 30
0.0
 11
6597.938633465237
 21
4545.471927812843
 31
0.0
  0
LINE
  5
16925
330
747D
100
AcDbEntity
  8
部品1
100
AcDbLine
 10
4690.669321205729
 20
4459.61215517267
 30
0.0
 11
6579.99045714362
 21
4420.583729938465
 31
0.0
  0
LINE
  5
16926
330
747D
100
AcDbEntity
  8
細線
 48
50.0
100
AcDbLine
 10
4708.326756603775
 20
4599.230806479106
 30
0.0
 11
4703.037655048269
 21
4459.145173851753
 31
0.0
  0
LINE
  5
16927
330
747D
100
AcDbEntity
  8
細線
 48
50.0
100
AcDbLine
 10
6572.326756603776
 20
4546.798109138999
 30
0.0
 11
6567.579073715776
 21
4421.052336648255
 31
0.0
  0
LINE
  5
16928
330
747D
100
AcDbEntity
  8
部品1
 48
50.0
100
AcDbLine
 10
4675.511042516882
 20
4593.424676268396
 30
0.0
 11
4675.891302294695
 21
4573.497711821983
 31
0.0
  0
LINE
  5
16929
330
747D
100
AcDbEntity
  8
部品1
 48
50.0
100
AcDbLine
 10
4678.96007440094
 20
4569.922430328512
 30
0.0
 11
4680.663975892304
 21
4480.631933621865
 31
0.0
  0
LINE
  5
1692A
330
747D
100
AcDbEntity
  8
細線
 48
50.0
100
AcDbLine
 10
4676.366179704589
 20
4572.848211945063
 30
0.0
 11
6602.002164449757
 21
4517.224007304237
 31
0.0
  0
LINE
  5
1692B
330
747D
100
AcDbEntity
  8
細線
 48
50.0
100
AcDbLine
 10
4681.126654941876
 20
4479.986700247201
 30
0.0
 11
6591.13031937251
 21
4440.177381272707
 31
0.0
  0
LINE
  5
1692C
330
747D
100
AcDbEntity
  8
部品1
 48
50.0
100
AcDbLine
 10
4683.732747998546
 20
4477.056652128392
 30
0.0
 11
4683.934700618978
 21
4466.4736167353
 31
0.0
  0
ARC
  5
1692D
330
747D
100
AcDbEntity
  8
部品1
 48
50.0
100
AcDbCircle
 10
4682.509768345222
 20
4593.558230675823
 30
0.0
 40
7.0
100
AcDbArc
 50
87.03587545283228
 51
181.0932240292635
  0
ARC
  5
1692E
330
747D
100
AcDbEntity
  8
部品1
 48
50.0
100
AcDbCircle
 10
4690.933426447318
 20
4466.607171142729
 30
0.0
 40
7.0
100
AcDbArc
 50
181.0932240292635
 51
267.8377559869492
  0
ARC
  5
1692F
330
747D
100
AcDbEntity
  8
部品1
100
AcDbCircle
 10
4680.733294072117
 20
4476.999414525208
 30
0.0
 40
3.0
100
AcDbArc
 50
1.093224029263536
 51
80.18775403148449
  0
ARC
  5
16930
330
747D
100
AcDbEntity
  8
部品1
100
AcDbCircle
 10
4675.96062047451
 20
4569.865192725329
 30
0.0
 40
3.0
100
AcDbArc
 50
1.093224029263536
 51
80.18775403169875
  0
ARC
  5
16931
330
747D
100
AcDbEntity
  8
部品1
100
AcDbCircle
 10
4676.591174877532
 20
4573.511067262727
 30
0.0
 40
0.7
100
AcDbArc
 50
181.0932240292114
 51
260.1877540314845
  0
ARC
  5
16932
330
747D
100
AcDbEntity
  8
部品1
100
AcDbCircle
 10
4681.363848475142
 20
4480.645289062606
 30
0.0
 40
0.7
100
AcDbArc
 50
181.0932240292114
 51
260.1877540314845
  0
LINE
  5
16933
330
747D
100
AcDbEntity
  8
部品1
 48
50.0
100
AcDbLine
 10
6604.540659414476
 20
4537.772282377922
 30
0.0
 11
6602.510038223506
 21
4517.827241120141
 31
0.0
  0
LINE
  5
16934
330
747D
100
AcDbEntity
  8
部品1
 48
50.0
100
AcDbLine
 10
6599.157471739025
 20
4514.516607047233
 30
0.0
 11
6591.650692474188
 21
4440.78398630222
 31
0.0
  0
LINE
  5
16935
330
747D
100
AcDbEntity
  8
部品1
 48
50.0
100
AcDbLine
 10
6588.298125989702
 20
4437.473352229308
 30
0.0
 11
6587.218562949963
 21
4426.869735235748
 31
0.0
  0
ARC
  5
16936
330
747D
100
AcDbEntity
  8
部品1
 48
50.0
100
AcDbCircle
 10
6597.576658849721
 20
4538.481293050696
 30
0.0
 40
7.0
100
AcDbArc
 50
354.1866997665479
 51
87.03587545283228
  0
ARC
  5
16937
330
747D
100
AcDbEntity
  8
部品1
 48
50.0
100
AcDbCircle
 10
6580.254562385206
 20
4427.578745908522
 30
0.0
 40
7.0
100
AcDbArc
 50
267.8377559869492
 51
354.1866997665479
  0
ARC
  5
16938
330
747D
100
AcDbEntity
  8
部品1
100
AcDbCircle
 10
6591.28269766031
 20
4437.169490512405
 30
0.0
 40
3.0
100
AcDbArc
 50
95.09216976420788
 51
174.1866997665479
  0
ARC
  5
16939
330
747D
100
AcDbEntity
  8
部品1
100
AcDbCircle
 10
6602.142043409637
 20
4514.212745330329
 30
0.0
 40
3.0
100
AcDbArc
 50
95.09216976420788
 51
174.1866997665479
  0
ARC
  5
1693A
330
747D
100
AcDbEntity
  8
部品1
100
AcDbCircle
 10
6601.813638167034
 20
4517.898142187419
 30
0.0
 40
0.7
100
AcDbArc
 50
275.0921697642079
 51
354.1866997665479
  0
ARC
  5
1693B
330
747D
100
AcDbEntity
  8
部品1
100
AcDbCircle
 10
6590.954292417714
 20
4440.854887369495
 30
0.0
 40
0.7
100
AcDbArc
 50
275.0921697642079
 51
354.1866997667034
  0
DIMENSION
  5
1693C
330
747D
100
AcDbEntity
  8
寸法
 48
50.0
100
AcDbDimension
  2
*D26
 10
6605.326756603776
 20
5000.488583683007
 30
0.0
 11
6811.374000698267
 21
5000.488583683007
 31
0.0
 70
   160
 71
     5
 42
80.0
  3
INABA_S40G
100
AcDbAlignedDimension
 13
6525.326756603776
 23
4548.641809715356
 33
0.0
 14
6605.326756603776
 24
4546.831130103703
 34
0.0
100
AcDbRotatedDimension
1001
ACAD
1000
DSTYLE
1002
{
1070
   174
1070
     0
1070
   272
1070
     1
1070
   288
1070
     0
1070
   341
1005
0
1002
}
  0
LINE
  5
1693D
330
747D
100
AcDbEntity
  8
部品1
 48
50.0
100
AcDbLine
 10
5480.326756603776
 20
4732.699269204982
 30
0.0
 11
5780.326756603776
 21
4732.699269204982
 31
0.0
  0
LINE
  5
1693E
330
747D
100
AcDbEntity
  8
部品1
 48
50.0
100
AcDbLine
 10
5780.326756603776
 20
4732.699269204982
 30
0.0
 11
5780.326756603776
 21
4716.499269204983
 31
0.0
  0
TEXT
  5
1693F
330
747D
100
AcDbEntity
  8
部品1
 48
50.0
100
AcDbText
 10
5468.594591827503
 20
4768.583291357415
 30
0.0
 40
120.0
  1
1000
  7
STYLE1
100
AcDbText
  0
TEXT
  5
16940
330
747D
100
AcDbEntity
  8
部品1
 48
50.0
100
AcDbText
 10
5957.419603891634
 20
4631.082033139133
 30
0.0
 40
120.0
  1
54
 50
90.0
  7
STYLE1
100
AcDbText
  0
LINE
  5
16941
330
747D
100
AcDbEntity
  8
部品1
100
AcDbLine
 10
5630.326756603776
 20
4366.831130103703
 30
0.0
 11
5630.326756603776
 21
2576.831130103703
 31
0.0
  0
LINE
  5
16942
330
747D
100
AcDbEntity
  8
細線
 48
50.0
100
AcDbLine
 10
5972.82675660378
 20
4366.831130103703
 30
0.0
 11
5972.82675660378
 21
2576.831130103703
 31
0.0
  0
LINE
  5
16943
330
747D
100
AcDbEntity
  8
細線
 48
50.0
100
AcDbLine
 10
5987.826756603779
 20
4366.831130103703
 30
0.0
 11
5987.826756603779
 21
2576.831130103703
 31
0.0
  0
LINE
  5
16944
330
747D
100
AcDbEntity
  8
細線
 48
50.0
100
AcDbLine
 10
5847.82675660378
 20
4366.831130103703
 30
0.0
 11
5847.82675660378
 21
2576.831130103703
 31
0.0
  0
LINE
  5
16945
330
747D
100
AcDbEntity
  8
細線
 48
50.0
100
AcDbLine
 10
5832.826756603779
 20
4366.831130103703
 30
0.0
 11
5832.826756603779
 21
2576.831130103703
 31
0.0
  0
LINE
  5
16946
330
747D
100
AcDbEntity
  8
細線
 48
50.0
100
AcDbLine
 10
5692.826756603779
 20
4366.831130103703
 30
0.0
 11
5692.826756603779
 21
2576.831130103703
 31
0.0
  0
LINE
  5
16947
330
747D
100
AcDbEntity
  8
細線
 48
50.0
100
AcDbLine
 10
5707.826756603779
 20
4366.831130103703
 30
0.0
 11
5707.826756603779
 21
2576.831130103703
 31
0.0
  0
LINE
  5
16948
330
747D
100
AcDbEntity
  8
部品1
100
AcDbLine
 10
6050.326756603776
 20
4366.831130103703
 30
0.0
 11
6050.326756603776
 21
2576.831130103703
 31
0.0
  0
LINE
  5
16949
330
747D
100
AcDbEntity
  8
細線
 48
50.0
100
AcDbLine
 10
6127.826756603783
 20
4366.831130103703
 30
0.0
 11
6127.826756603783
 21
2576.831130103703
 31
0.0
  0
LINE
  5
1694A
330
747D
100
AcDbEntity
  8
細線
 48
50.0
100
AcDbLine
 10
6112.826756603784
 20
4366.831130103703
 30
0.0
 11
6112.826756603784
 21
2576.831130103703
 31
0.0
  0
LINE
  5
1694B
330
747D
100
AcDbEntity
  8
細線
 48
50.0
100
AcDbLine
 10
6252.826756603783
 20
4366.831130103703
 30
0.0
 11
6252.826756603783
 21
2576.831130103703
 31
0.0
  0
LINE
  5
1694C
330
747D
100
AcDbEntity
  8
細線
 48
50.0
100
AcDbLine
 10
6267.826756603783
 20
4366.831130103703
 30
0.0
 11
6267.826756603783
 21
2576.831130103703
 31
0.0
  0
LINE
  5
1694D
330
747D
100
AcDbEntity
  8
細線
 48
50.0
100
AcDbLine
 10
6407.826756603784
 20
4366.831130103703
 30
0.0
 11
6407.826756603784
 21
2576.831130103703
 31
0.0
  0
LINE
  5
1694E
330
747D
100
AcDbEntity
  8
細線
 48
50.0
100
AcDbLine
 10
6392.826756603783
 20
4366.831130103703
 30
0.0
 11
6392.826756603783
 21
2576.831130103703
 31
0.0
  0
DIMENSION
  5
1694F
330
747D
100
AcDbEntity
  8
寸法
 48
50.0
100
AcDbDimension
  2
*D27
 10
4114.718349835414
 20
4476.176388977034
 30
0.0
 11
4125.383825094337
 21
4847.023052218732
 31
0.0
 70
   161
 71
     5
 42
140.9999999999991
  3
INABA_S40G
100
AcDbAlignedDimension
 13
4694.722776762355
 23
4600.553878938383
 33
0.0
 14
4690.669321205729
 24
4459.61215517267
 34
0.0
1001
ACAD
1000
DSTYLE
1002
{
1070
   174
1070
     0
1070
   272
1070
     1
1070
   288
1070
     0
1070
   341
1005
0
1002
}
  0
LINE
  5
16950
330
747D
100
AcDbEntity
  8
部品1
 48
50.0
100
AcDbLine
 10
5480.326756603776
 20
4732.699269204982
 30
0.0
 11
5780.326756603776
 21
4716.499269204983
 31
0.0
  0
DIMENSION
  5
16951
330
747D
100
AcDbEntity
  8
寸法
 48
50.0
100
AcDbDimension
  2
*D28
 10
4513.326753357143
 20
2426.831130103703
 30
0.0
 11
4513.326753357142
 21
2326.831130103703
 31
0.0
 70
   160
 71
     5
 42
200.0000000000009
  3
INABA_S40G
100
AcDbAlignedDimension
 13
4662.826756603779
 23
2226.831130103702
 33
0.0
 14
4637.826756603775
 24
2426.831130103703
 34
0.0
 50
90.0
100
AcDbRotatedDimension
1001
ACAD
1000
DSTYLE
1002
{
1070
   174
1070
     0
1070
   272
1070
     1
1070
   288
1070
     0
1070
   341
1005
0
1002
}
  0
LINE
  5
16952
330
747D
100
AcDbEntity
  8
破線
 48
5.0
100
AcDbLine
 10
4862.826756603776
 20
2226.831130103701
 30
0.0
 11
4662.826756603779
 21
2226.831130103701
 31
0.0
  0
LINE
  5
16953
330
747D
100
AcDbEntity
  8
破線
 48
5.0
100
AcDbLine
 10
4862.826756603776
 20
2426.831130103703
 30
0.0
 11
4862.826756603776
 21
2226.831130103701
 31
0.0
  0
LINE
  5
16954
330
747D
100
AcDbEntity
  8
破線
 48
5.0
100
AcDbLine
 10
4662.826756603775
 20
2426.831130103703
 30
0.0
 11
4662.826756603779
 21
2226.831130103701
 31
0.0
  0
DIMENSION
  5
16955
330
747D
100
AcDbEntity
  8
寸法
 48
50.0
100
AcDbDimension
  2
*D29
 10
4662.826756603779
 20
1940.783800803324
 30
0.0
 11
4762.826756603778
 21
1940.783800803324
 31
0.0
 70
   160
 71
     5
 42
199.9999999999963
  3
INABA_S40G
100
AcDbAlignedDimension
 13
4862.826756603776
 23
2226.8311301037
 33
0.0
 14
4662.826756603779
 24
2226.831130103702
 34
0.0
100
AcDbRotatedDimension
  0
LINE
  5
16956
330
747D
100
AcDbEntity
  8
破線
 48
5.0
100
AcDbLine
 10
6597.826756603783
 20
2426.831130103703
 30
0.0
 11
6597.82675660378
 21
2226.831130103701
 31
0.0
  0
LINE
  5
16957
330
747D
100
AcDbEntity
  8
破線
 48
5.0
100
AcDbLine
 10
6597.82675660378
 20
2226.831130103701
 30
0.0
 11
6397.826756603783
 21
2226.831130103703
 31
0.0
  0
LINE
  5
16958
330
747D
100
AcDbEntity
  8
破線
 48
5.0
100
AcDbLine
 10
6397.826756603783
 20
2426.831130103703
 30
0.0
 11
6397.826756603783
 21
2226.831130103703
 31
0.0
  0
LINE
  5
16959
330
747D
100
AcDbEntity
  8
部品1
 48
50.0
100
AcDbLine
 10
6525.326756603779
 20
4361.831130103704
 30
0.0
 11
6602.326756603779
 21
4351.831130103703
 31
0.0
  0
LINE
  5
1695A
330
747D
100
AcDbEntity
  8
部品1
 48
50.0
100
AcDbLine
 10
6602.326756603779
 20
4351.831130103703
 30
0.0
 11
6602.326756603779
 21
2426.831130103703
 31
0.0
  0
LINE
  5
1695B
330
747D
100
AcDbEntity
  8
部品1
 48
50.0
100
AcDbLine
 10
6602.326756603779
 20
2526.831130103703
 30
0.0
 11
6517.826756603779
 21
2526.831130103703
 31
0.0
  0
LINE
  5
1695C
330
747D
100
AcDbEntity
  8
部品1
100
AcDbLine
 10
6325.326756603775
 20
2526.831130103703
 30
0.0
 11
6325.326756603775
 21
2426.831130103703
 31
0.0
  0
LINE
  5
1695D
330
747D
100
AcDbEntity
  8
部品1
 48
50.0
100
AcDbLine
 10
5730.326756603776
 20
2526.831130103703
 30
0.0
 11
5730.326756603776
 21
2426.831130103703
 31
0.0
  0
LINE
  5
1695E
330
747D
100
AcDbEntity
  8
部品1
 48
50.0
100
AcDbLine
 10
5530.326756603776
 20
2526.831130103703
 30
0.0
 11
5530.326756603776
 21
2426.831130103703
 31
0.0
  0
LINE
  5
1695F
330
747D
100
AcDbEntity
  8
部品1
100
AcDbLine
 10
4935.326756603775
 20
2526.831130103703
 30
0.0
 11
4935.326756603775
 21
2426.831130103703
 31
0.0
  0
LINE
  5
16DD6
330
747D
100
AcDbEntity
  8
部品1
 48
50.0
100
AcDbLine
 10
10805.2871027013
 20
8119.943081698925
 30
0.0
 11
8708.287102701303
 21
8119.943081699013
 31
0.0
  0
LINE
  5
16DD7
330
747D
100
AcDbEntity
  8
部品1
100
AcDbLine
 10
8679.787102701299
 20
8119.943081698798
 30
0.0
 11
8651.787102701298
 21
8119.943081698798
 31
0.0
  0
LINE
  5
16DD8
330
747D
100
AcDbEntity
  8
部品1
100
AcDbLine
 10
10833.78710270132
 20
8119.943081698925
 30
0.0
 11
10861.78710270132
 21
8119.943081698925
 31
0.0
  0
LINE
  5
1733B
330
747D
100
AcDbEntity
  8
部品1
 48
50.0
100
AcDbLine
 10
10002.7871027013
 20
2526.831130103703
 30
0.0
 11
10002.7871027013
 21
2426.831130103703
 31
0.0
  0
LINE
  5
1733C
330
747D
100
AcDbEntity
  8
部品1
 48
50.0
100
AcDbLine
 10
10202.7871027013
 20
2526.831130103703
 30
0.0
 11
10202.7871027013
 21
2426.831130103703
 31
0.0
  0
LINE
  5
1733D
330
747D
100
AcDbEntity
  8
部品1
 48
50.0
100
AcDbLine
 10
9310.787102701304
 20
2526.831130103703
 30
0.0
 11
9310.787102701304
 21
2426.831130103703
 31
0.0
  0
LINE
  5
1733E
330
747D
100
AcDbEntity
  8
部品1
 48
50.0
100
AcDbLine
 10
9510.787102701305
 20
2526.831130103703
 30
0.0
 11
9510.787102701305
 21
2426.831130103703
 31
0.0
  0
LINE
  5
17874
330
747D
100
AcDbEntity
  8
破線
 48
10.0
100
AcDbLine
 10
9436.287102701363
 20
7701.443081698835
 30
0.0
 11
9436.287102701369
 21
8954.943081698887
 31
0.0
  0
LINE
  5
17875
330
747D
100
AcDbEntity
  8
破線
 48
10.0
100
AcDbLine
 10
9386.287102701368
 20
7701.443081698833
 30
0.0
 11
9386.287102701361
 21
8954.943081698884
 31
0.0
  0
LINE
  5
17876
330
747D
100
AcDbEntity
  8
破線
 48
10.0
100
AcDbLine
 10
10077.28710270137
 20
7701.443081698866
 30
0.0
 11
10077.28710270136
 21
8954.943081698932
 31
0.0
  0
LINE
  5
17877
330
747D
100
AcDbEntity
  8
破線
 48
10.0
100
AcDbLine
 10
10127.28710270136
 20
7701.443081698868
 30
0.0
 11
10127.28710270137
 21
8954.943081698933
 31
0.0
  0
LINE
  5
17878
330
747D
100
AcDbEntity
  8
破線
 48
10.0
100
AcDbLine
 10
9386.287102701366
 20
7724.943081698779
 30
0.0
 11
8731.787102701291
 21
7724.943081698748
 31
0.0
  0
LINE
  5
17974
330
747D
100
AcDbEntity
  8
寸法
 48
50.0
100
AcDbLine
 10
9141.99010898314
 20
7422.979833267625
 30
0.0
 11
9090.584101073037
 21
7422.979833267625
 31
0.0
  0
LINE
  5
17975
330
747D
100
AcDbEntity
  8
寸法
 48
50.0
100
AcDbLine
 10
9090.584101073037
 20
7422.979833267625
 30
0.0
 11
9090.584101073037
 21
7454.289991919792
 31
0.0
  0
LINE
  5
17976
330
747D
100
AcDbEntity
  8
寸法
 48
50.0
100
AcDbLine
 10
9090.584101073037
 20
7454.289991919792
 30
0.0
 11
9060.822769081614
 21
7454.289991919792
 31
0.0
  0
LINE
  5
17977
330
747D
100
AcDbEntity
  8
寸法
 48
50.0
100
AcDbLine
 10
9060.822769081614
 20
7454.289991919792
 30
0.0
 11
9116.287105028089
 21
7491.869442848401
 31
0.0
  0
LINE
  5
17978
330
747D
100
AcDbEntity
  8
寸法
 48
50.0
100
AcDbLine
 10
9171.751440974563
 20
7454.289991919792
 30
0.0
 11
9116.287105028089
 21
7491.869442848401
 31
0.0
  0
LINE
  5
17979
330
747D
100
AcDbEntity
  8
寸法
 48
50.0
100
AcDbLine
 10
9141.99010898314
 20
7454.289991919792
 30
0.0
 11
9171.751440974563
 21
7454.289991919792
 31
0.0
  0
LINE
  5
1797A
330
747D
100
AcDbEntity
  8
寸法
 48
50.0
100
AcDbLine
 10
9141.99010898314
 20
7422.979833267625
 30
0.0
 11
9141.99010898314
 21
7454.289991919792
 31
0.0
  0
LINE
  5
1797B
330
747D
100
AcDbEntity
  8
寸法
 48
50.0
100
AcDbLine
 10
9090.584101073037
 20
7422.979833267625
 30
0.0
 11
9141.99010898314
 21
7422.979833267625
 31
0.0
  0
LINE
  5
1797C
330
747D
100
AcDbEntity
  8
寸法
 48
50.0
100
AcDbLine
 10
9421.155643259998
 20
7480.125424022448
 30
0.0
 11
9421.155643259998
 21
7426.461789440658
 31
0.0
  0
LINE
  5
1797D
330
747D
100
AcDbEntity
  8
寸法
 48
50.0
100
AcDbLine
 10
9510.439861855418
 20
7456.201789752963
 30
0.0
 11
9421.155643259998
 21
7480.125424022448
 31
0.0
  0
LINE
  5
1797E
330
747D
100
AcDbEntity
  8
寸法
 48
50.0
100
AcDbLine
 10
9291.287921679694
 20
7456.201789752963
 30
0.0
 11
9510.439861855418
 21
7456.201789752963
 31
0.0
  0
LINE
  5
1797F
330
747D
100
AcDbEntity
  8
細線
 48
50.0
100
AcDbLine
 10
10167.7871027013
 20
7621.443196647487
 30
0.0
 11
10794.78710270129
 21
7621.443196647487
 31
0.0
  0
LINE
  5
17980
330
747D
100
AcDbEntity
  8
細線
 48
50.0
100
AcDbLine
 10
9513.787107354884
 20
7587.734428093412
 30
0.0
 11
10794.78710270129
 21
7587.734428093412
 31
0.0
  0
LINE
  5
17981
330
747D
100
AcDbEntity
  8
細線
 48
50.0
100
AcDbLine
 10
9472.787107354887
 20
7617.139336089666
 30
0.0
 11
8718.787102701297
 21
7617.139336089661
 31
0.0
  0
LINE
  5
17982
330
747D
100
AcDbEntity
  8
細線
100
AcDbLine
 10
10570.53709328484
 20
7640.943096612497
 30
0.0
 11
10572.86863280664
 21
7645.943099252457
 31
0.0
  0
LINE
  5
17983
330
747D
100
AcDbEntity
  8
細線
100
AcDbLine
 10
10640.53710270129
 20
7640.943081698762
 30
0.0
 11
10638.20555622511
 21
7645.943099252443
 31
0.0
  0
LINE
  5
17984
330
747D
100
AcDbEntity
  8
細線
100
AcDbLine
 10
10638.20555622511
 20
7645.943099252443
 30
0.0
 11
10572.86863280663
 21
7645.943099252429
 31
0.0
  0
LINE
  5
17985
330
747D
100
AcDbEntity
  8
細線
100
AcDbLine
 10
10498.20555622511
 20
7645.943099252443
 30
0.0
 11
10432.86863280663
 21
7645.943099252429
 31
0.0
  0
LINE
  5
17986
330
747D
100
AcDbEntity
  8
細線
100
AcDbLine
 10
10500.53710270129
 20
7640.943081698762
 30
0.0
 11
10498.20555622511
 21
7645.943099252443
 31
0.0
  0
LINE
  5
17987
330
747D
100
AcDbEntity
  8
細線
100
AcDbLine
 10
10430.53709328484
 20
7640.943096612497
 30
0.0
 11
10432.86863280664
 21
7645.943099252457
 31
0.0
  0
LINE
  5
17988
330
747D
100
AcDbEntity
  8
細線
100
AcDbLine
 10
10290.53710270129
 20
7640.943081698762
 30
0.0
 11
10292.8686422231
 21
7645.943084338724
 31
0.0
  0
LINE
  5
17989
330
747D
100
AcDbEntity
  8
細線
100
AcDbLine
 10
10360.53711211775
 20
7640.943066785029
 30
0.0
 11
10358.20556564156
 21
7645.94308433871
 31
0.0
  0
LINE
  5
1798A
330
747D
100
AcDbEntity
  8
細線
100
AcDbLine
 10
10358.20556564157
 20
7645.94308433871
 30
0.0
 11
10292.86864222309
 21
7645.943084338694
 31
0.0
  0
LINE
  5
1798B
330
747D
100
AcDbEntity
  8
細線
100
AcDbLine
 10
10062.9555868904
 20
7611.943121036091
 30
0.0
 11
9997.618663471927
 21
7611.943121036076
 31
0.0
  0
LINE
  5
1798C
330
747D
100
AcDbEntity
  8
細線
100
AcDbLine
 10
10065.28713336659
 20
7606.943103482411
 30
0.0
 11
10062.9555868904
 21
7611.943121036091
 31
0.0
  0
LINE
  5
1798D
330
747D
100
AcDbEntity
  8
細線
100
AcDbLine
 10
9995.287123950134
 20
7606.943118396144
 30
0.0
 11
9997.618663471941
 21
7611.943121036105
 31
0.0
  0
LINE
  5
1798E
330
747D
100
AcDbEntity
  8
細線
 48
50.0
100
AcDbLine
 10
9836.67048194931
 20
7625.213944851843
 30
0.0
 11
9842.425999531977
 21
7606.943093561357
 31
0.0
  0
LINE
  5
1798F
330
747D
100
AcDbEntity
  8
細線
 48
50.0
100
AcDbLine
 10
9825.74203346888
 20
7625.213944851843
 30
0.0
 11
9836.67048194931
 21
7625.213944851843
 31
0.0
  0
ARC
  5
17990
330
747D
100
AcDbEntity
  8
細線
 48
50.0
100
AcDbCircle
 10
9820.287677411558
 20
7626.713944851843
 30
0.0
 40
5.0
100
AcDbArc
 50
204.6243183521304
 51
335.3756816478695
  0
ARC
  5
17991
330
747D
100
AcDbEntity
  8
細線
 48
50.0
100
AcDbCircle
 10
9825.74203346888
 20
7624.213944851843
 30
0.0
 40
1.0
100
AcDbArc
 50
90.0
 51
155.3756816478695
  0
ARC
  5
17992
330
747D
100
AcDbEntity
  8
細線
 48
50.0
100
AcDbCircle
 10
9814.833321354242
 20
7624.213944851843
 30
0.0
 40
1.0
100
AcDbArc
 50
24.62431835213048
 51
90.0
  0
LINE
  5
17993
330
747D
100
AcDbEntity
  8
細線
 48
50.0
100
AcDbLine
 10
9803.904872873809
 20
7625.213944851843
 30
0.0
 11
9814.833321354242
 21
7625.213944851843
 31
0.0
  0
LINE
  5
17994
330
747D
100
AcDbEntity
  8
細線
 48
50.0
100
AcDbLine
 10
9798.149355291142
 20
7606.94309356135
 30
0.0
 11
9803.904872873809
 21
7625.213944851843
 31
0.0
  0
LINE
  5
17995
330
747D
100
AcDbEntity
  8
細線
100
AcDbLine
 10
9855.287125181174
 20
7606.943090927153
 30
0.0
 11
9857.618664702988
 21
7611.943093567115
 31
0.0
  0
LINE
  5
17996
330
747D
100
AcDbEntity
  8
細線
100
AcDbLine
 10
9925.287134597635
 20
7606.943076013419
 30
0.0
 11
9922.955588121444
 21
7611.9430935671
 31
0.0
  0
LINE
  5
17997
330
747D
100
AcDbEntity
  8
細線
100
AcDbLine
 10
9922.955588121444
 20
7611.9430935671
 30
0.0
 11
9857.618664702972
 21
7611.943093567084
 31
0.0
  0
LINE
  5
17998
330
747D
100
AcDbEntity
  8
細線
100
AcDbLine
 10
9782.955559756928
 20
7611.943093561319
 30
0.0
 11
9717.618636338452
 21
7611.943093561305
 31
0.0
  0
LINE
  5
17999
330
747D
100
AcDbEntity
  8
細線
100
AcDbLine
 10
9785.287106233115
 20
7606.94307600764
 30
0.0
 11
9782.955559756928
 21
7611.943093561319
 31
0.0
  0
LINE
  5
1799A
330
747D
100
AcDbEntity
  8
細線
100
AcDbLine
 10
9715.287098047699
 20
7606.94309356135
 30
0.0
 11
9717.618636338466
 21
7611.943093561335
 31
0.0
  0
LINE
  5
1799B
330
747D
100
AcDbEntity
  8
細線
100
AcDbLine
 10
9575.28713336659
 20
7606.943101748719
 30
0.0
 11
9577.618671657358
 21
7611.943101748704
 31
0.0
  0
LINE
  5
1799C
330
747D
100
AcDbEntity
  8
細線
100
AcDbLine
 10
9645.287141552007
 20
7606.943084195009
 30
0.0
 11
9642.955595075818
 21
7611.943101748686
 31
0.0
  0
LINE
  5
1799D
330
747D
100
AcDbEntity
  8
細線
100
AcDbLine
 10
9642.955595075818
 20
7611.943101748686
 30
0.0
 11
9577.618671657344
 21
7611.943101748675
 31
0.0
  0
LINE
  5
1799E
330
747D
100
AcDbEntity
  8
細線
100
AcDbLine
 10
9203.787099169469
 20
7572.943273429432
 30
0.0
 11
9206.118637460237
 21
7577.943273429418
 31
0.0
  0
LINE
  5
1799F
330
747D
100
AcDbEntity
  8
細線
100
AcDbLine
 10
9273.787107354884
 20
7572.943255875718
 30
0.0
 11
9271.455560878697
 21
7577.943273429394
 31
0.0
  0
LINE
  5
179A0
330
747D
100
AcDbEntity
  8
細線
100
AcDbLine
 10
9271.455560878697
 20
7577.943273429394
 30
0.0
 11
9206.118637460226
 21
7577.943273429387
 31
0.0
  0
LINE
  5
179A1
330
747D
100
AcDbEntity
  8
細線
100
AcDbLine
 10
9411.455560878698
 20
7577.943273429394
 30
0.0
 11
9346.118637460227
 21
7577.943273429387
 31
0.0
  0
LINE
  5
179A2
330
747D
100
AcDbEntity
  8
細線
100
AcDbLine
 10
9413.787107354885
 20
7572.943255875718
 30
0.0
 11
9411.455560878698
 21
7577.943273429394
 31
0.0
  0
LINE
  5
179A3
330
747D
100
AcDbEntity
  8
細線
100
AcDbLine
 10
9343.787099169469
 20
7572.943273429432
 30
0.0
 11
9346.118637460236
 21
7577.943273429418
 31
0.0
  0
LINE
  5
179A4
330
747D
100
AcDbEntity
  8
細線
100
AcDbLine
 10
9131.455560878697
 20
7577.943273429394
 30
0.0
 11
9066.118637460226
 21
7577.943273429385
 31
0.0
  0
LINE
  5
179A5
330
747D
100
AcDbEntity
  8
細線
100
AcDbLine
 10
9133.787107354885
 20
7572.943255875718
 30
0.0
 11
9131.455560878697
 21
7577.943273429394
 31
0.0
  0
LINE
  5
179A6
330
747D
100
AcDbEntity
  8
細線
100
AcDbLine
 10
9063.78709916947
 20
7572.943273429427
 30
0.0
 11
9066.118637460236
 21
7577.943273429413
 31
0.0
  0
LINE
  5
179A7
330
747D
100
AcDbEntity
  8
細線
100
AcDbLine
 10
8923.787107354884
 20
7572.943273429432
 30
0.0
 11
8926.118645645653
 21
7577.943273429418
 31
0.0
  0
LINE
  5
179A8
330
747D
100
AcDbEntity
  8
細線
100
AcDbLine
 10
8993.787115540301
 20
7572.943255875718
 30
0.0
 11
8991.455569064113
 21
7577.943273429394
 31
0.0
  0
LINE
  5
179A9
330
747D
100
AcDbEntity
  8
細線
100
AcDbLine
 10
8991.455569064113
 20
7577.943273429394
 30
0.0
 11
8926.118645645642
 21
7577.943273429387
 31
0.0
  0
ARC
  5
179AA
330
747D
100
AcDbEntity
  8
部品1
 48
0.01
100
AcDbCircle
 10
8879.28699610255
 20
7571.942151244359
 30
0.0
 40
0.5
100
AcDbArc
 50
270.0
 51
0.0
  0
LINE
  5
179AB
330
747D
100
AcDbEntity
  8
部品1
 48
0.01
100
AcDbLine
 10
8879.78699610255
 20
7572.942151244359
 30
0.0
 11
8879.78699610255
 21
7571.942151244359
 31
0.0
  0
LINE
  5
179AC
330
747D
100
AcDbEntity
  8
部品1
 48
0.01
100
AcDbLine
 10
8879.78699610255
 20
7572.942151244359
 30
0.0
 11
8879.78699610255
 21
7571.942151244359
 31
0.0
  0
LINE
  5
179AD
330
747D
100
AcDbEntity
  8
部品1
 48
0.01
100
AcDbLine
 10
8879.28699610255
 20
7571.442151244359
 30
0.0
 11
8872.674490672485
 21
7571.442151244359
 31
0.0
  0
ARC
  5
179AE
330
747D
100
AcDbEntity
  8
部品1
100
AcDbCircle
 10
8872.742840225267
 20
7572.442151244358
 30
0.0
 40
1.0
100
AcDbArc
 50
160.5287793655778
 51
270.0
  0
ARC
  5
179AF
330
747D
100
AcDbEntity
  8
部品1
100
AcDbCircle
 10
8847.28699610255
 20
7581.442151244359
 30
0.0
 40
26.0
100
AcDbArc
 50
340.5287793655779
 51
0.0
  0
LINE
  5
179B0
330
747D
100
AcDbEntity
  8
部品1
100
AcDbLine
 10
8873.28699610255
 20
7581.442151244359
 30
0.0
 11
8873.28699610255
 21
7586.442151244359
 31
0.0
  0
ARC
  5
179B1
330
747D
100
AcDbEntity
  8
部品1
 48
0.01
100
AcDbCircle
 10
8871.286996102551
 20
7586.442151244359
 30
0.0
 40
2.0
100
AcDbArc
 50
0.0
 51
90.0
  0
ARC
  5
179B2
330
747D
100
AcDbEntity
  8
部品1
100
AcDbCircle
 10
8869.678604477739
 20
7585.442151244359
 30
0.0
 40
3.0
100
AcDbArc
 50
90.0
 51
141.6069559807873
  0
LINE
  5
179B3
330
747D
100
AcDbEntity
  8
部品1
 48
0.01
100
AcDbLine
 10
8871.286996102551
 20
7588.442151244359
 30
0.0
 11
8869.678604477739
 21
7588.442151244359
 31
0.0
  0
ARC
  5
179B4
330
747D
100
AcDbEntity
  8
部品1
100
AcDbCircle
 10
8851.216281888278
 20
7584.742151244362
 30
0.0
 40
3.0
100
AcDbArc
 50
254.0576313943215
 51
270.0
  0
ARC
  5
179B5
330
747D
100
AcDbEntity
  8
部品1
100
AcDbCircle
 10
8858.357710316822
 20
7584.742151244362
 30
0.0
 40
3.0
100
AcDbArc
 50
270.0
 51
285.9423686056786
  0
LINE
  5
179B6
330
747D
100
AcDbEntity
  8
部品1
100
AcDbLine
 10
8858.357710316822
 20
7581.742151244362
 30
0.0
 11
8851.216281888278
 21
7581.742151244362
 31
0.0
  0
ARC
  5
179B7
330
747D
100
AcDbEntity
  8
部品1
100
AcDbCircle
 10
8854.78699610255
 20
7597.242151244362
 30
0.0
 40
16.0
100
AcDbArc
 50
285.9423686056786
 51
321.6069559807873
  0
LINE
  5
179B8
330
747D
100
AcDbEntity
  8
部品1
 48
0.01
100
AcDbLine
 10
8838.286996102551
 20
7588.442151244359
 30
0.0
 11
8839.895387727359
 21
7588.442151244359
 31
0.0
  0
ARC
  5
179B9
330
747D
100
AcDbEntity
  8
部品1
100
AcDbCircle
 10
8839.895387727359
 20
7585.442151244359
 30
0.0
 40
3.0
100
AcDbArc
 50
38.39304401921267
 51
90.0
  0
ARC
  5
179BA
330
747D
100
AcDbEntity
  8
部品1
100
AcDbCircle
 10
8854.78699610255
 20
7597.242151244362
 30
0.0
 40
16.0
100
AcDbArc
 50
218.3930440192126
 51
254.0576313943215
  0
LINE
  5
179BB
330
747D
100
AcDbEntity
  8
部品1
100
AcDbLine
 10
8836.286996102549
 20
7581.442151244359
 30
0.0
 11
8836.286996102549
 21
7586.442151244359
 31
0.0
  0
ARC
  5
179BC
330
747D
100
AcDbEntity
  8
部品1
 48
0.01
100
AcDbCircle
 10
8838.286996102551
 20
7586.442151244359
 30
0.0
 40
2.0
100
AcDbArc
 50
90.0
 51
180.0
  0
ARC
  5
179BD
330
747D
100
AcDbEntity
  8
部品1
100
AcDbCircle
 10
8862.28699610255
 20
7581.442151244359
 30
0.0
 40
26.0
100
AcDbArc
 50
180.0
 51
199.4712206344221
  0
ARC
  5
179BE
330
747D
100
AcDbEntity
  8
部品1
 48
0.01
100
AcDbCircle
 10
8830.28699610255
 20
7571.942151244359
 30
0.0
 40
0.5
100
AcDbArc
 50
180.0
 51
270.0
  0
LINE
  5
179BF
330
747D
100
AcDbEntity
  8
部品1
 48
0.01
100
AcDbLine
 10
8830.28699610255
 20
7571.442151244359
 30
0.0
 11
8836.831151979835
 21
7571.442151244359
 31
0.0
  0
LINE
  5
179C0
330
747D
100
AcDbEntity
  8
部品1
 48
0.01
100
AcDbLine
 10
8829.78699610255
 20
7572.942151244359
 30
0.0
 11
8829.78699610255
 21
7571.942151244359
 31
0.0
  0
ARC
  5
179C1
330
747D
100
AcDbEntity
  8
部品1
100
AcDbCircle
 10
8836.831151979835
 20
7572.442151244358
 30
0.0
 40
1.0
100
AcDbArc
 50
270.0
 51
19.47122063442214
  0
LINE
  5
179C2
330
747D
100
AcDbEntity
  8
細線
100
AcDbLine
 10
8875.286996102557
 20
7590.942151244362
 30
0.0
 11
8834.286996102557
 21
7590.942151244355
 31
0.0
  0
LINE
  5
179C3
330
747D
100
AcDbEntity
  8
細線
100
AcDbLine
 10
8834.286996102557
 20
7590.942151244355
 30
0.0
 11
8834.286996102557
 21
7572.942151244337
 31
0.0
  0
LINE
  5
179C4
330
747D
100
AcDbEntity
  8
細線
100
AcDbLine
 10
8875.286996102557
 20
7590.942151244362
 30
0.0
 11
8875.286996102557
 21
7572.942151244337
 31
0.0
  0
LINE
  5
179C5
330
747D
100
AcDbEntity
  8
細線
100
AcDbLine
 10
8718.787102701297
 20
7576.943081698762
 30
0.0
 11
8718.787102701297
 21
7572.943081698809
 31
0.0
  0
DIMENSION
  5
179C6
330
747D
100
AcDbEntity
  8
寸法
 48
50.0
100
AcDbDimension
  2
*D30
 10
9984.787102701297
 20
6915.103067175434
 30
0.0
 11
9365.543483443108
 21
6915.103067175434
 31
0.0
 70
   160
  1
有効開口部間口\P<>
 71
     5
 42
1266.0
  3
INABA_S40
100
AcDbAlignedDimension
 13
8718.787102701297
 23
7567.943081698762
 33
0.0
 14
9984.787102701297
 24
7567.943081698762
 34
0.0
100
AcDbRotatedDimension
1001
ACAD
1000
DSTYLE
1002
{
1070
    41
1040
0.5
1070
    44
1040
1.0
1070
   147
1040
0.8
1070
   271
1070
     2
1070
   272
1070
     2
1070
   289
1070
     3
1070
   340
1005
F706
1070
   343
1005
15C0C
1070
   344
1005
15C0C
1002
}
  0
LINE
  5
179C7
330
747D
100
AcDbEntity
  8
部品1
100
AcDbLine
 10
10806.78710270129
 20
7644.943081698762
 30
0.0
 11
10833.78710270129
 21
7644.943081698762
 31
0.0
  0
LINE
  5
179C9
330
747D
100
AcDbEntity
  8
部品1
100
AcDbLine
 10
10833.78710270129
 20
7567.943081698762
 30
0.0
 11
10833.78710270129
 21
7644.943081698762
 31
0.0
  0
LINE
  5
179CA
330
747D
100
AcDbEntity
  8
部品1
100
AcDbLine
 10
10794.78710270129
 20
7640.943081698762
 30
0.0
 11
10806.78710270129
 21
7640.943081698762
 31
0.0
  0
LINE
  5
179CB
330
747D
100
AcDbEntity
  8
部品1
100
AcDbLine
 10
10803.78710270129
 20
7576.943081698762
 30
0.0
 11
10803.78710270129
 21
7567.943081698762
 31
0.0
  0
LINE
  5
179CC
330
747D
100
AcDbEntity
  8
部品1
100
AcDbLine
 10
10794.78710270129
 20
7576.943081698762
 30
0.0
 11
10803.78710270129
 21
7576.943081698762
 31
0.0
  0
LINE
  5
179CD
330
747D
100
AcDbEntity
  8
部品1
100
AcDbLine
 10
10794.78710270129
 20
7640.943081698762
 30
0.0
 11
10794.78710270129
 21
7576.943081698762
 31
0.0
  0
LINE
  5
179CE
330
747D
100
AcDbEntity
  8
部品1
100
AcDbLine
 10
10806.78710270129
 20
7671.943081698763
 30
0.0
 11
10806.78710270129
 21
7640.943081698762
 31
0.0
  0
LINE
  5
179CF
330
747D
100
AcDbEntity
  8
部品1
100
AcDbLine
 10
8718.787102701297
 20
7640.943081698762
 30
0.0
 11
8706.787102701296
 21
7640.943081698762
 31
0.0
  0
LINE
  5
179D0
330
747D
100
AcDbEntity
  8
部品1
100
AcDbLine
 10
8679.787102701295
 20
7644.943081698762
 30
0.0
 11
8706.787102701296
 21
7644.943081698762
 31
0.0
  0
LINE
  5
179D1
330
747D
100
AcDbEntity
  8
部品1
100
AcDbLine
 10
8709.787102701296
 20
7576.943081698762
 30
0.0
 11
8709.787102701296
 21
7567.943081698762
 31
0.0
  0
LINE
  5
179D2
330
747D
100
AcDbEntity
  8
部品1
100
AcDbLine
 10
8718.787102701297
 20
7576.943081698762
 30
0.0
 11
8709.787102701296
 21
7576.943081698762
 31
0.0
  0
LINE
  5
179D3
330
747D
100
AcDbEntity
  8
部品1
100
AcDbLine
 10
8709.787102701296
 20
7567.943081698762
 30
0.0
 11
8679.787102701295
 21
7567.943081698762
 31
0.0
  0
LINE
  5
179D4
330
747D
100
AcDbEntity
  8
部品1
100
AcDbLine
 10
8679.787102701295
 20
7567.943081698762
 30
0.0
 11
8679.787102701295
 21
7644.943081698762
 31
0.0
  0
LINE
  5
179D5
330
747D
100
AcDbEntity
  8
部品1
100
AcDbLine
 10
8718.787102701297
 20
7640.943081698762
 30
0.0
 11
8718.787102701297
 21
7576.943081698762
 31
0.0
  0
LINE
  5
179D6
330
747D
100
AcDbEntity
  8
部品1
100
AcDbLine
 10
8706.787102701296
 20
7671.943081698758
 30
0.0
 11
8706.787102701296
 21
7640.943081698762
 31
0.0
  0
LINE
  5
179D7
330
747D
100
AcDbEntity
  8
部品1
100
AcDbLine
 10
8706.787102701296
 20
7671.943081698758
 30
0.0
 11
10806.78710270129
 21
7671.943081698763
 31
0.0
  0
LINE
  5
179D8
330
747D
100
AcDbEntity
  8
部品1
100
AcDbLine
 10
10803.78710270129
 20
7567.943081698762
 30
0.0
 11
10833.78710270129
 21
7567.943081698762
 31
0.0
  0
LINE
  5
179D9
330
747D
100
AcDbEntity
  8
部品1
100
AcDbLine
 10
8709.787102701296
 20
7567.943081698762
 30
0.0
 11
10806.78710270129
 21
7567.943081698762
 31
0.0
  0
LINE
  5
179DA
330
747D
100
AcDbEntity
  8
細線
  6
Continuous
 62
     5
100
AcDbLine
 10
10085.7871027013
 20
7606.943081698759
 30
0.0
 11
10085.7871027013
 21
7606.943081698759
 31
0.0
  0
LINE
  5
179DB
330
747D
100
AcDbEntity
  8
細線
  6
Continuous
 62
     5
100
AcDbLine
 10
10078.28713802019
 20
7606.943091619815
 30
0.0
 11
10078.28713802019
 21
7606.943091619815
 31
0.0
  0
LINE
  5
179DC
330
747D
100
AcDbEntity
  8
細線
  6
Continuous
 62
     5
100
AcDbLine
 10
10072.28713802019
 20
7606.943091619815
 30
0.0
 11
10072.28713802019
 21
7606.943091619815
 31
0.0
  0
LINE
  5
179DD
330
747D
100
AcDbEntity
  8
細線
  6
Continuous
 62
     5
100
AcDbLine
 10
10139.7871027013
 20
7625.943081698759
 30
0.0
 11
10139.7871027013
 21
7625.943081698759
 31
0.0
  0
LINE
  5
179DE
330
747D
100
AcDbEntity
  8
細線
 48
50.0
100
AcDbLine
 10
8732.787107354889
 20
7593.543255875717
 30
0.0
 11
8732.787107354889
 21
7601.939406283356
 31
0.0
  0
LINE
  5
179DF
330
747D
100
AcDbEntity
  8
細線
 48
50.0
100
AcDbLine
 10
8732.787107354889
 20
7601.939406283356
 30
0.0
 11
8718.787102701297
 21
7601.939406283353
 31
0.0
  0
LINE
  5
179E0
330
747D
100
AcDbEntity
  8
細線
 48
50.0
100
AcDbLine
 10
9483.787107354885
 20
7590.093255875716
 30
0.0
 11
9483.787107354885
 21
7594.943255875718
 31
0.0
  0
LINE
  5
179E1
330
747D
100
AcDbEntity
  8
細線
 48
50.0
100
AcDbLine
 10
9483.787107354885
 20
7594.943255875718
 30
0.0
 11
9498.787107354884
 21
7594.943255875718
 31
0.0
  0
LINE
  5
179E2
330
747D
100
AcDbEntity
  8
細線
 48
50.0
100
AcDbLine
 10
9498.787107354884
 20
7594.943255875718
 30
0.0
 11
9498.787107354889
 21
7601.943255875719
 31
0.0
  0
LINE
  5
179E3
330
747D
100
AcDbEntity
  8
細線
 48
50.0
100
AcDbLine
 10
9498.787107354889
 20
7601.943255875719
 30
0.0
 11
9513.787107354884
 21
7601.943255875719
 31
0.0
  0
LINE
  5
179E4
330
747D
100
AcDbEntity
  8
細線
 48
50.0
100
AcDbLine
 10
9513.787107354884
 20
7601.943255875719
 30
0.0
 11
9513.787107354884
 21
7572.943255875718
 31
0.0
  0
LINE
  5
179E5
330
747D
100
AcDbEntity
  8
細線
 48
50.0
100
AcDbLine
 10
8709.787102701296
 20
7572.940590219187
 30
0.0
 11
8923.787107354884
 21
7572.943273429432
 31
0.0
  0
LINE
  5
179E6
330
747D
100
AcDbEntity
  8
細線
 48
50.0
100
AcDbLine
 10
9413.787107354885
 20
7572.943255875718
 30
0.0
 11
9513.787107354884
 21
7572.943255875718
 31
0.0
  0
LINE
  5
179E7
330
747D
100
AcDbEntity
  8
細線
 48
50.0
100
AcDbLine
 10
9133.787107354885
 20
7572.943255875718
 30
0.0
 11
9203.787107354886
 21
7572.943255875718
 31
0.0
  0
LINE
  5
179E8
330
747D
100
AcDbEntity
  8
細線
 48
50.0
100
AcDbLine
 10
9146.649072367415
 20
7572.943255875718
 30
0.0
 11
9152.404589950082
 21
7591.214107166212
 31
0.0
  0
LINE
  5
179E9
330
747D
100
AcDbEntity
  8
細線
 48
50.0
100
AcDbLine
 10
9152.404589950082
 20
7591.214107166212
 30
0.0
 11
9163.333038430515
 21
7591.214107166208
 31
0.0
  0
ARC
  5
179EA
330
747D
100
AcDbEntity
  8
細線
 48
50.0
100
AcDbCircle
 10
9163.333038430515
 20
7590.214107166208
 30
0.0
 40
1.0
100
AcDbArc
 50
24.62431835213048
 51
90.0
  0
ARC
  5
179EB
330
747D
100
AcDbEntity
  8
細線
 48
50.0
100
AcDbCircle
 10
9174.241750545148
 20
7590.214107166208
 30
0.0
 40
1.0
100
AcDbArc
 50
90.0
 51
155.3756816478695
  0
ARC
  5
179EC
330
747D
100
AcDbEntity
  8
細線
 48
50.0
100
AcDbCircle
 10
9168.78739448783
 20
7592.714107166208
 30
0.0
 40
5.0
100
AcDbArc
 50
204.6243183521304
 51
335.3756816478695
  0
LINE
  5
179ED
330
747D
100
AcDbEntity
  8
細線
 48
50.0
100
AcDbLine
 10
9174.241750545148
 20
7591.214107166208
 30
0.0
 11
9185.170199025582
 21
7591.214107166212
 31
0.0
  0
LINE
  5
179EE
330
747D
100
AcDbEntity
  8
細線
 48
50.0
100
AcDbLine
 10
9185.170199025582
 20
7591.214107166212
 30
0.0
 11
9190.92571660825
 21
7572.943255875718
 31
0.0
  0
LINE
  5
179EF
330
747D
100
AcDbEntity
  8
細線
 48
50.0
100
AcDbLine
 10
9483.787107354885
 20
7593.543255875717
 30
0.0
 11
8732.787107354889
 21
7593.543255875717
 31
0.0
  0
LINE
  5
179F0
330
747D
100
AcDbEntity
  8
細線
 48
50.0
100
AcDbLine
 10
9343.787107354884
 20
7572.943255875718
 30
0.0
 11
9273.787107354884
 21
7572.943255875718
 31
0.0
  0
LINE
  5
179F1
330
747D
100
AcDbEntity
  8
細線
100
AcDbLine
 10
9063.787107354885
 20
7572.943255875718
 30
0.0
 11
8993.787115540301
 21
7572.943255875718
 31
0.0
  0
LINE
  5
179F2
330
747D
100
AcDbEntity
  8
細線
 48
50.0
100
AcDbLine
 10
10137.78709804771
 20
7627.543299733585
 30
0.0
 11
9502.787107354885
 21
7627.543299733581
 31
0.0
  0
LINE
  5
179F3
330
747D
100
AcDbEntity
  8
細線
 48
50.0
100
AcDbLine
 10
9502.787107354885
 20
7624.439450141224
 30
0.0
 11
9502.787107354885
 21
7628.939450141224
 31
0.0
  0
LINE
  5
179F4
330
747D
100
AcDbEntity
  8
細線
 48
50.0
100
AcDbLine
 10
9502.787107354885
 20
7628.939450141224
 30
0.0
 11
9487.787107354884
 21
7628.939450141224
 31
0.0
  0
LINE
  5
179F5
330
747D
100
AcDbEntity
  8
細線
 48
50.0
100
AcDbLine
 10
9487.787107354884
 20
7628.939450141224
 30
0.0
 11
9487.787107354884
 21
7635.939450141224
 31
0.0
  0
LINE
  5
179F6
330
747D
100
AcDbEntity
  8
細線
 48
50.0
100
AcDbLine
 10
9487.787107354884
 20
7635.939450141224
 30
0.0
 11
9472.787107354887
 21
7635.939450141221
 31
0.0
  0
LINE
  5
179F7
330
747D
100
AcDbEntity
  8
細線
 48
50.0
100
AcDbLine
 10
9472.787107354887
 20
7635.939450141221
 30
0.0
 11
9472.787107354887
 21
7598.33922203811
 31
0.0
  0
LINE
  5
179F8
330
747D
100
AcDbEntity
  8
細線
 48
50.0
100
AcDbLine
 10
9472.787107354887
 20
7598.33922203811
 30
0.0
 11
9492.78711465606
 21
7598.339263587651
 31
0.0
  0
LINE
  5
179F9
330
747D
100
AcDbEntity
  8
細線
 48
50.0
100
AcDbLine
 10
9492.787069787118
 20
7606.94272522346
 30
0.0
 11
9492.78711465606
 21
7598.339263587651
 31
0.0
  0
LINE
  5
179FA
330
747D
100
AcDbEntity
  8
細線
 48
50.0
100
AcDbLine
 10
10137.78709804771
 20
7624.093299733584
 30
0.0
 11
10137.78709804771
 21
7628.943299733582
 31
0.0
  0
LINE
  5
179FB
330
747D
100
AcDbEntity
  8
細線
 48
50.0
100
AcDbLine
 10
10137.78709804771
 20
7628.943299733582
 30
0.0
 11
10152.7870980477
 21
7628.943299733582
 31
0.0
  0
LINE
  5
179FC
330
747D
100
AcDbEntity
  8
細線
 48
50.0
100
AcDbLine
 10
10152.7870980477
 20
7628.943299733582
 30
0.0
 11
10152.78710968168
 21
7635.943299733627
 31
0.0
  0
LINE
  5
179FD
330
747D
100
AcDbEntity
  8
細線
 48
50.0
100
AcDbLine
 10
10152.78710968168
 20
7635.943299733627
 30
0.0
 11
10167.78710785221
 21
7635.943299733627
 31
0.0
  0
LINE
  5
179FE
330
747D
100
AcDbEntity
  8
細線
 48
50.0
100
AcDbLine
 10
10167.78710785221
 20
7635.943299733627
 30
0.0
 11
10167.78709755039
 21
7606.943093561352
 31
0.0
  0
LINE
  5
179FF
330
747D
100
AcDbEntity
  8
細線
 48
50.0
100
AcDbLine
 10
9855.287125181174
 20
7606.943101748719
 30
0.0
 11
9785.287377263591
 21
7606.943096311382
 31
0.0
  0
LINE
  5
17A00
330
747D
100
AcDbEntity
  8
細線
 48
50.0
100
AcDbLine
 10
9492.787069787118
 20
7606.94272522346
 30
0.0
 11
9504.019759141829
 21
7606.942908176607
 31
0.0
  0
ARC
  5
17A01
330
747D
100
AcDbEntity
  8
細線
 48
50.0
100
AcDbCircle
 10
9510.602051449165
 20
7605.743072090219
 30
0.0
 40
1.8
100
AcDbArc
 50
270.0006665777295
 51
345.0005554812987
  0
LINE
  5
17A02
330
747D
100
AcDbEntity
  8
細線
 48
50.0
100
AcDbLine
 10
9512.588484895244
 20
7606.201912547497
 30
0.0
 11
9512.340722453044
 21
7605.277214665392
 31
0.0
  0
LINE
  5
17A03
330
747D
100
AcDbEntity
  8
細線
 48
50.0
100
AcDbLine
 10
9510.602072390319
 20
7603.94307209034
 30
0.0
 11
9506.972144971552
 21
7603.94302985986
 31
0.0
  0
ARC
  5
17A04
330
747D
100
AcDbEntity
  8
細線
 48
50.0
100
AcDbCircle
 10
9506.972124030399
 20
7605.743029859739
 30
0.0
 40
1.8
100
AcDbArc
 50
195.0010443049394
 51
270.0006665777295
  0
LINE
  5
17A05
330
747D
100
AcDbEntity
  8
細線
 48
50.0
100
AcDbLine
 10
9504.98569653814
 20
7606.201744827304
 30
0.0
 11
9505.233466034653
 21
7605.277123888722
 31
0.0
  0
ARC
  5
17A06
330
747D
100
AcDbEntity
  8
細線
 48
50.0
100
AcDbCircle
 10
9504.019775429391
 20
7605.942908176742
 30
0.0
 40
1.0
100
AcDbArc
 50
15.00104430493943
 51
90.00093320877969
  0
LINE
  5
17A07
330
747D
100
AcDbEntity
  8
細線
 48
50.0
100
AcDbLine
 10
9513.554406250348
 20
7606.943102867011
 30
0.0
 11
9514.496166401251
 21
7606.943109440861
 31
0.0
  0
ARC
  5
17A08
330
747D
100
AcDbEntity
  8
細線
 48
50.0
100
AcDbCircle
 10
9513.554413230734
 20
7605.943102867037
 30
0.0
 40
1.0
100
AcDbArc
 50
90.0003999466794
 51
165.0005554812987
  0
LINE
  5
17A09
330
747D
100
AcDbEntity
  8
細線
 48
50.0
100
AcDbLine
 10
10065.2870980477
 20
7606.943093561352
 30
0.0
 11
10167.78709755039
 21
7606.943093561352
 31
0.0
  0
LINE
  5
17A0A
330
747D
100
AcDbEntity
  8
細線
 48
50.0
100
AcDbLine
 10
9575.28713336659
 20
7606.943101748719
 30
0.0
 11
9514.187072139669
 21
7606.943109440861
 31
0.0
  0
LINE
  5
17A0B
330
747D
100
AcDbEntity
  8
細線
 48
50.0
100
AcDbLine
 10
9995.28713336659
 20
7606.943138589802
 30
0.0
 11
9925.287126412206
 21
7606.943093567133
 31
0.0
  0
LINE
  5
17A0C
330
747D
100
AcDbEntity
  8
細線
 48
50.0
100
AcDbLine
 10
9715.287098047699
 20
7606.94309356135
 30
0.0
 11
9645.287080759823
 21
7606.943093561357
 31
0.0
  0
ARC
  5
17A0D
330
747D
100
AcDbEntity
  8
細線
 48
50.0
100
AcDbCircle
 10
10151.9871027013
 20
7640.143081698763
 30
0.0
 40
0.8
100
AcDbArc
 50
359.9997333689499
 51
89.99986668437072
  0
ARC
  5
17A0E
330
747D
100
AcDbEntity
  8
細線
 48
50.0
100
AcDbCircle
 10
10159.5871095264
 20
7640.14309286738
 30
0.0
 40
0.8
100
AcDbArc
 50
90.00014387753465
 51
179.9997333689498
  0
LINE
  5
17A0F
330
747D
100
AcDbEntity
  8
細線
 48
50.0
100
AcDbLine
 10
10151.98710456274
 20
7640.943081698762
 30
0.0
 11
10146.78710270129
 21
7640.943081698762
 31
0.0
  0
ARC
  5
17A10
330
747D
100
AcDbEntity
  8
細線
 48
50.0
100
AcDbCircle
 10
10153.48710270129
 20
7638.643081698763
 30
0.0
 40
0.7
100
AcDbArc
 50
180.0
 51
270.0
  0
ARC
  5
17A11
330
747D
100
AcDbEntity
  8
細線
 48
50.0
100
AcDbCircle
 10
10158.0871027013
 20
7638.643081698763
 30
0.0
 40
0.7
100
AcDbArc
 50
270.0
 51
0.0
  0
LINE
  5
17A12
330
747D
100
AcDbEntity
  8
細線
 48
50.0
100
AcDbLine
 10
10158.78710270129
 20
7638.643081698763
 30
0.0
 11
10158.78710952641
 21
7640.14309659025
 31
0.0
  0
LINE
  5
17A13
330
747D
100
AcDbEntity
  8
細線
 48
50.0
100
AcDbLine
 10
10153.48710270129
 20
7637.943081698762
 30
0.0
 11
10158.0871027013
 21
7637.943081698762
 31
0.0
  0
LINE
  5
17A14
330
747D
100
AcDbEntity
  8
細線
 48
50.0
100
AcDbLine
 10
10152.78710270129
 20
7640.143081698763
 30
0.0
 11
10152.78710270129
 21
7638.643081698763
 31
0.0
  0
LINE
  5
17A15
330
747D
100
AcDbEntity
  8
細線
 48
50.0
100
AcDbLine
 10
10778.3871027013
 20
7670.943081698762
 30
0.0
 11
10141.78710270129
 21
7670.943081698759
 31
0.0
  0
LINE
  5
17A16
330
747D
100
AcDbEntity
  8
細線
 48
50.0
100
AcDbLine
 10
10804.28710270129
 20
7665.943081698767
 30
0.0
 11
10788.3871027013
 21
7665.943081698762
 31
0.0
  0
LINE
  5
17A17
330
747D
100
AcDbEntity
  8
細線
 48
50.0
100
AcDbLine
 10
10788.3871027013
 20
7665.943081698762
 30
0.0
 11
10778.3871027013
 21
7670.943081698762
 31
0.0
  0
LINE
  5
17A18
330
747D
100
AcDbEntity
  8
細線
100
AcDbLine
 10
10389.28710270129
 20
7640.943081698762
 30
0.0
 11
10389.28710270129
 21
7670.243081698761
 31
0.0
  0
LINE
  5
17A19
330
747D
100
AcDbEntity
  8
細線
100
AcDbLine
 10
10389.28710270129
 20
7670.243081698761
 30
0.0
 11
10409.28710270129
 21
7670.243081698761
 31
0.0
  0
LINE
  5
17A1A
330
747D
100
AcDbEntity
  8
細線
100
AcDbLine
 10
10409.28710270129
 20
7640.943081698762
 30
0.0
 11
10409.28710270129
 21
7670.243081698761
 31
0.0
  0
LINE
  5
17A1B
330
747D
100
AcDbEntity
  8
細線
100
AcDbLine
 10
10570.53710270129
 20
7640.943081698762
 30
0.0
 11
10500.53710270129
 21
7640.943081698762
 31
0.0
  0
LINE
  5
17A1C
330
747D
100
AcDbEntity
  8
細線
 48
50.0
100
AcDbLine
 10
10290.53710270129
 20
7640.943081698762
 30
0.0
 11
10159.58288227414
 21
7640.943081698762
 31
0.0
  0
LINE
  5
17A1D
330
747D
100
AcDbEntity
  8
細線
100
AcDbLine
 10
10430.53710270129
 20
7640.943081698762
 30
0.0
 11
10360.53710270129
 21
7640.943081698762
 31
0.0
  0
LINE
  5
17A1E
330
747D
100
AcDbEntity
  8
細線
 48
50.0
100
AcDbLine
 10
10146.78710270129
 20
7632.943081698762
 30
0.0
 11
10146.78710270129
 21
7640.943081698762
 31
0.0
  0
LINE
  5
17A1F
330
747D
100
AcDbEntity
  8
細線
 48
50.0
100
AcDbLine
 10
10126.78710270129
 20
7632.943081698766
 30
0.0
 11
10146.78710270129
 21
7632.943081698762
 31
0.0
  0
LINE
  5
17A20
330
747D
100
AcDbEntity
  8
細線
 48
50.0
100
AcDbLine
 10
10141.78710270129
 20
7670.943081698762
 30
0.0
 11
10141.78710270129
 21
7665.943081698762
 31
0.0
  0
LINE
  5
17A21
330
747D
100
AcDbEntity
  8
細線
 48
50.0
100
AcDbLine
 10
10126.78710270129
 20
7670.943081698759
 30
0.0
 11
10141.78710270129
 21
7670.943081698762
 31
0.0
  0
LINE
  5
17A22
330
747D
100
AcDbEntity
  8
細線
 48
50.0
100
AcDbLine
 10
10126.78710270129
 20
7632.943081698766
 30
0.0
 11
10126.78710270129
 21
7670.943081698759
 31
0.0
  0
LINE
  5
17A23
330
747D
100
AcDbEntity
  8
細線
100
AcDbLine
 10
10794.78710270129
 20
7640.943081698762
 30
0.0
 11
10640.53710270129
 21
7640.943081698762
 31
0.0
  0
LINE
  5
17A24
330
747D
100
AcDbEntity
  8
細線
 48
50.0
100
AcDbLine
 10
10804.28710270129
 20
7665.943081698767
 30
0.0
 11
10804.28710270129
 21
7640.943081698762
 31
0.0
  0
DIMENSION
  5
17C4C
330
747D
100
AcDbEntity
  8
寸法
 48
50.0
100
AcDbDimension
  2
*D31
 10
10833.78710270126
 20
6603.269886178367
 30
0.0
 11
9756.787102701263
 21
6703.281697201989
 31
0.0
 70
    32
 71
     5
 42
2154.0
  3
INABA_S40G
100
AcDbAlignedDimension
 13
8679.787102701263
 23
7567.943081698764
 33
0.0
 14
10833.78710270126
 24
7567.943081698764
 34
0.0
100
AcDbRotatedDimension
1001
ACAD
1000
DSTYLE
1002
{
1070
   341
1005
0
1002
}
  0
DIMENSION
  5
17C4D
330
747D
100
AcDbEntity
  8
寸法
100
AcDbDimension
  2
*D32
 10
8357.175857074597
 20
7569.94308169882
 30
0.0
 11
8357.175857074595
 21
7429.457800324581
 31
0.0
 70
   160
 71
     5
 42
75.0
  3
INABA_S40
100
AcDbAlignedDimension
 13
8651.787102701312
 23
7644.943081698819
 33
0.0
 14
8679.787102701292
 24
7569.94308169882
 34
0.0
 50
90.0
100
AcDbRotatedDimension
1001
ACAD
1000
DSTYLE
1002
{
1070
    41
1040
0.5
1070
    44
1040
1.0
1070
   147
1040
0.8
1070
   271
1070
     2
1070
   272
1070
     2
1070
   289
1070
     3
1070
   340
1005
F706
1070
   343
1005
15C0C
1070
   344
1005
15C0C
1002
}
  0
LINE
  5
17D05
330
747D
100
AcDbEntity
  8
部品1
100
AcDbLine
 10
10138.52243581553
 20
5969.440862902018
 30
0.0
 11
9375.051769587091
 21
5969.440862902018
 31
0.0
  0
LINE
  5
17D06
330
747D
100
AcDbEntity
  8
部品1
100
AcDbLine
 10
10138.52243581553
 20
5729.548541356487
 30
0.0
 11
10138.52243581553
 21
5969.440862902018
 31
0.0
  0
LINE
  5
17D07
330
747D
100
AcDbEntity
  8
部品1
100
AcDbLine
 10
9375.051769587091
 20
5729.548541356487
 30
0.0
 11
10138.52243581553
 21
5729.548541356487
 31
0.0
  0
LINE
  5
17D08
330
747D
100
AcDbEntity
  8
部品1
100
AcDbLine
 10
9375.051769587091
 20
5969.440862902018
 30
0.0
 11
9375.051769587091
 21
5729.548541356487
 31
0.0
  0
TEXT
  5
17D3A
330
747D
100
AcDbEntity
  8
部品1
100
AcDbText
 10
9464.971379416128
 20
5776.547333683495
 30
0.0
 40
135.0
  1
平面図
  7
STYLE2
100
AcDbText
  0
DIMENSION
  5
17D46
330
747D
100
AcDbEntity
  8
寸法
100
AcDbDimension
  2
*D33
 10
10861.78710270129
 20
6340.916756171889
 30
0.0
 11
9755.36853390974
 21
6340.916756171889
 31
0.0
 70
   160
 71
     5
 42
2209.999999999982
  3
INABA_S40G
100
AcDbAlignedDimension
 13
8651.787102701312
 23
7644.943081698787
 33
0.0
 14
10861.78710270129
 24
7644.943081698915
 34
0.0
100
AcDbRotatedDimension
1001
ACAD
1000
DSTYLE
1002
{
1002
}
  0
LWPOLYLINE
  5
17F80
330
747D
100
AcDbEntity
  8
部品1
 48
50.0
100
AcDbPolyline
 90
        4
 70
     1
 43
0.0
 10
8778.837102701313
 20
3423.081130103703
 10
8781.737102701313
 20
3423.081130103703
 10
8781.737102701313
 20
3432.581130103703
 10
8778.837102701313
 20
3432.581130103703
  0
CIRCLE
  5
17F81
330
747D
100
AcDbEntity
  8
部品1
 48
50.0
100
AcDbCircle
 10
8780.287102701313
 20
3427.831130103703
 30
0.0
 40
9.0
  0
ARC
  5
17F82
330
747D
100
AcDbEntity
  8
細線
 48
50.0
100
AcDbCircle
 10
8780.287102701313
 20
3427.831130103703
 30
0.0
 40
4.0
100
AcDbArc
 50
111.2538091853132
 51
248.7461908146868
  0
ARC
  5
17F83
330
747D
100
AcDbEntity
  8
細線
 48
50.0
100
AcDbCircle
 10
8780.287102701313
 20
3427.831130103703
 30
0.0
 40
17.5
100
AcDbArc
 50
306.4837370612677
 51
233.5162629387323
  0
LINE
  5
17F84
330
747D
100
AcDbEntity
  8
細線
 48
50.0
100
AcDbLine
 10
8790.287102701311
 20
3403.97216952282
 30
0.0
 11
8790.287102701313
 21
3412.956655323062
 31
0.0
  0
LINE
  5
17F85
330
747D
100
AcDbEntity
  8
細線
 48
50.0
100
AcDbLine
 10
8770.287102701313
 20
3403.972169522822
 30
0.0
 11
8770.287102701313
 21
3412.956655323058
 31
0.0
  0
ARC
  5
17F86
330
747D
100
AcDbEntity
  8
細線
 48
50.0
100
AcDbCircle
 10
8780.287102701313
 20
3427.831130103703
 30
0.0
 40
26.5
100
AcDbArc
 50
249.3326835063939
 51
290.6673164933835
  0
ARC
  5
17F87
330
747D
100
AcDbEntity
  8
細線
 48
50.0
100
AcDbCircle
 10
8789.287102701306
 20
3403.97216952282
 30
0.0
 40
1.0
100
AcDbArc
 50
290.6673164936062
 51
359.9999999998958
  0
ARC
  5
17F88
330
747D
100
AcDbEntity
  8
細線
 48
50.0
100
AcDbCircle
 10
8771.287102701313
 20
3403.972169522822
 30
0.0
 40
1.0
100
AcDbArc
 50
180.0
 51
249.3326835066164
  0
ARC
  5
17F89
330
747D
100
AcDbEntity
  8
細線
 48
50.0
100
AcDbCircle
 10
8769.287102701314
 20
3412.956655323058
 30
0.0
 40
1.0
100
AcDbArc
 50
0.0
 51
53.51626293873231
  0
ARC
  5
17F8A
330
747D
100
AcDbEntity
  8
細線
 48
50.0
100
AcDbCircle
 10
8791.287102701316
 20
3412.956655323062
 30
0.0
 40
1.0
100
AcDbArc
 50
126.4837370615127
 51
180.0
  0
ARC
  5
17F8B
330
747D
100
AcDbEntity
  8
細線
 48
50.0
100
AcDbCircle
 10
8780.287102701313
 20
3427.831130103703
 30
0.0
 40
21.5
100
AcDbArc
 50
255.8014401250294
 51
284.1985598749706
  0
ARC
  5
17F8C
330
747D
100
AcDbEntity
  8
細線
 48
50.0
100
AcDbCircle
 10
8780.287102701313
 20
3427.831130103703
 30
0.0
 40
16.5
100
AcDbArc
 50
251.9694646069326
 51
288.0305353930674
  0
LINE
  5
17F8D
330
747D
100
AcDbEntity
  8
細線
 48
50.0
100
AcDbLine
 10
8785.787102701313
 20
3407.278757977896
 30
0.0
 11
8785.787102701313
 21
3411.856149665233
 31
0.0
  0
LINE
  5
17F8E
330
747D
100
AcDbEntity
  8
細線
 48
50.0
100
AcDbLine
 10
8774.787102701314
 20
3407.278757977896
 30
0.0
 11
8774.787102701314
 21
3411.856149665231
 31
0.0
  0
ARC
  5
17F8F
330
747D
100
AcDbEntity
  8
細線
 48
50.0
100
AcDbCircle
 10
8775.087102701316
 20
3411.856149665231
 30
0.0
 40
0.3
100
AcDbArc
 50
71.96946460693259
 51
180.0
  0
ARC
  5
17F90
330
747D
100
AcDbEntity
  8
細線
 48
50.0
100
AcDbCircle
 10
8785.487102701315
 20
3411.856149665233
 30
0.0
 40
0.3
100
AcDbArc
 50
0.0
 51
108.0305353930674
  0
ARC
  5
17F91
330
747D
100
AcDbEntity
  8
細線
 48
50.0
100
AcDbCircle
 10
8785.48710270131
 20
3407.278757977896
 30
0.0
 40
0.3
100
AcDbArc
 50
284.1985598747622
 51
0.0000000001042204
  0
ARC
  5
17F92
330
747D
100
AcDbEntity
  8
細線
 48
50.0
100
AcDbCircle
 10
8775.087102701316
 20
3407.278757977896
 30
0.0
 40
0.3
100
AcDbArc
 50
180.0
 51
255.8014401248081
  0
CIRCLE
  5
17F93
330
747D
100
AcDbEntity
  8
細線
 48
50.0
100
AcDbCircle
 10
8780.287102701313
 20
3427.831130103703
 30
0.0
 40
12.0
  0
ARC
  5
17F94
330
747D
100
AcDbEntity
  8
部品1
 48
50.0
100
AcDbCircle
 10
8780.287102701313
 20
3477.831130103703
 30
0.0
 40
8.5
100
AcDbArc
 50
114.315739171091
 51
245.684260828909
  0
CIRCLE
  5
17F95
330
747D
100
AcDbEntity
  8
細線
 48
50.0
100
AcDbCircle
 10
8780.287102701313
 20
3477.831130103703
 30
0.0
 40
4.5
  0
LWPOLYLINE
  5
17F96
330
747D
100
AcDbEntity
  8
部品1
 48
50.0
100
AcDbPolyline
 90
        2
 70
     0
 43
0.0
 10
8776.787102701312
 20
3496.505979500686
 10
8776.787102701312
 20
3485.577096796118
  0
CIRCLE
  5
17F97
330
747D
100
AcDbEntity
  8
部品1
 48
50.0
100
AcDbCircle
 10
8780.287102701313
 20
3477.831130103703
 30
0.0
 40
19.0
  0
LWPOLYLINE
  5
17F98
330
747D
100
AcDbEntity
  8
部品1
 48
50.0
100
AcDbPolyline
 90
        2
 70
     0
 43
0.0
 10
8776.787102701312
 20
3470.085163411288
 10
8776.787102701312
 20
3459.156280706721
  0
LWPOLYLINE
  5
17F99
330
747D
100
AcDbEntity
  8
部品1
 48
50.0
100
AcDbPolyline
 90
        2
 70
     0
 43
0.0
 10
8783.787102701314
 20
3485.577096796118
 10
8783.787102701314
 20
3496.505979500686
  0
ARC
  5
17F9A
330
747D
100
AcDbEntity
  8
部品1
 48
50.0
100
AcDbCircle
 10
8780.287102701313
 20
3477.831130103703
 30
0.0
 40
8.5
100
AcDbArc
 50
294.315739171091
 51
65.68426082890896
  0
LWPOLYLINE
  5
17F9B
330
747D
100
AcDbEntity
  8
部品1
 48
50.0
100
AcDbPolyline
 90
        2
 70
     0
 43
0.0
 10
8783.787102701314
 20
3459.156280706721
 10
8783.787102701314
 20
3470.085163411288
  0
ARC
  5
17F9C
330
747D
100
AcDbEntity
  8
細線
 48
50.0
100
AcDbCircle
 10
8780.287102701313
 20
3477.831130103703
 30
0.0
 40
16.5
100
AcDbArc
 50
332.0012352654438
 51
27.99876473455621
  0
ARC
  5
17F9D
330
747D
100
AcDbEntity
  8
細線
 48
50.0
100
AcDbCircle
 10
8780.287102701313
 20
3477.831130103703
 30
0.0
 40
14.0
100
AcDbArc
 50
326.4074436112986
 51
33.59255638870134
  0
LINE
  5
17F9E
330
747D
100
AcDbEntity
  8
細線
 48
50.0
100
AcDbLine
 10
8765.718300416983
 20
3485.577096796118
 30
0.0
 11
8768.625198911625
 21
3485.577096796118
 31
0.0
  0
LINE
  5
17F9F
330
747D
100
AcDbEntity
  8
細線
 48
50.0
100
AcDbLine
 10
8765.718300416983
 20
3470.085163411288
 30
0.0
 11
8768.625198911625
 21
3470.085163411288
 31
0.0
  0
LINE
  5
17FA0
330
747D
100
AcDbEntity
  8
細線
 48
50.0
100
AcDbLine
 10
8791.949006491002
 20
3485.577096796118
 30
0.0
 11
8794.855904985649
 21
3485.577096796118
 31
0.0
  0
LINE
  5
17FA1
330
747D
100
AcDbEntity
  8
細線
 48
50.0
100
AcDbLine
 10
8791.949006491002
 20
3470.085163411288
 30
0.0
 11
8794.855904985649
 21
3470.085163411288
 31
0.0
  0
ARC
  5
17FA2
330
747D
100
AcDbEntity
  8
細線
 48
50.0
100
AcDbCircle
 10
8780.287102701313
 20
3477.831130103703
 30
0.0
 40
14.0
100
AcDbArc
 50
146.4074436112986
 51
213.5925563887013
  0
ARC
  5
17FA3
330
747D
100
AcDbEntity
  8
細線
 48
50.0
100
AcDbCircle
 10
8780.287102701313
 20
3477.831130103703
 30
0.0
 40
16.5
100
AcDbArc
 50
152.0012352654438
 51
207.9987647345562
  0
ARC
  5
17FA4
330
747D
100
AcDbEntity
  8
部品1
 48
50.0
100
AcDbCircle
 10
8753.787102701314
 20
3503.331130103703
 30
0.0
 40
5.0
100
AcDbArc
 50
90.0
 51
180.0
  0
ARC
  5
17FA5
330
747D
100
AcDbEntity
  8
部品1
 48
50.0
100
AcDbCircle
 10
8753.787102701314
 20
3392.331130103703
 30
0.0
 40
5.0
100
AcDbArc
 50
180.0
 51
270.0
  0
ARC
  5
17FA6
330
747D
100
AcDbEntity
  8
部品1
 48
50.0
100
AcDbCircle
 10
8806.787102701314
 20
3392.331130103703
 30
0.0
 40
5.0
100
AcDbArc
 50
270.0
 51
0.0
  0
ARC
  5
17FA7
330
747D
100
AcDbEntity
  8
部品1
 48
50.0
100
AcDbCircle
 10
8806.787102701314
 20
3503.331130103703
 30
0.0
 40
5.0
100
AcDbArc
 50
0.0
 51
90.0
  0
LINE
  5
17FA9
330
747D
100
AcDbEntity
  8
部品1
 48
50.0
100
AcDbLine
 10
8748.787102701314
 20
3392.331130103703
 30
0.0
 11
8748.787102701314
 21
3503.331130103703
 31
0.0
  0
LINE
  5
17FAA
330
747D
100
AcDbEntity
  8
部品1
 48
50.0
100
AcDbLine
 10
8806.787102701314
 20
3387.331130103703
 30
0.0
 11
8753.787102701314
 21
3387.331130103703
 31
0.0
  0
LINE
  5
17FAB
330
747D
100
AcDbEntity
  8
部品1
 48
50.0
100
AcDbLine
 10
8811.787102701314
 20
3503.331130103703
 30
0.0
 11
8811.787102701314
 21
3392.331130103703
 31
0.0
  0
ENDSEC
  0
SECTION
  2
OBJECTS
  0
DICTIONARY
  5
7471
330
0
100
AcDbDictionary
281
     1
  3
ACAD_COLOR
350
15B5D
  3
ACAD_GROUP
350
7472
  3
ACAD_LAYOUT
350
15B5E
  3
ACAD_MATERIAL
350
15B5C
  3
ACAD_MLINESTYLE
350
7473
  3
ACAD_PLOTSETTINGS
350
15B5F
  3
ACAD_PLOTSTYLENAME
350
15B5A
  3
ACDBHEADERROUNDTRIPXREC
350
17FCA
  3
AcDbVariableDictionary
350
17FC6
  3
CONTENTDICTIONARY
350
E71C
  3
DRAWINGVARIABLESDICT
350
F3B9
  0
DICTIONARY
  5
15CF7
330
7467
100
AcDbDictionary
280
     1
281
     1
  3
ACAD_LAYERSTATES
360
15CF8
  0
DICTIONARY
  5
15B5D
102
{ACAD_REACTORS
330
7471
102
}
330
7471
100
AcDbDictionary
281
     1
  0
DICTIONARY
  5
7472
102
{ACAD_REACTORS
330
7471
102
}
330
7471
100
AcDbDictionary
281
     1
  0
DICTIONARY
  5
15B5E
102
{ACAD_REACTORS
330
7471
102
}
330
7471
100
AcDbDictionary
281
     1
  3
Model
350
15B60
  3
レイアウト1
350
15B61
  0
DICTIONARY
  5
15B5C
102
{ACAD_REACTORS
330
7471
102
}
330
7471
100
AcDbDictionary
281
     1
  0
DICTIONARY
  5
7473
102
{ACAD_REACTORS
330
7471
102
}
330
7471
100
AcDbDictionary
281
     1
  3
STANDARD
350
7480
  0
DICTIONARY
  5
15B5F
102
{ACAD_REACTORS
330
7471
102
}
330
7471
100
AcDbDictionary
281
     1
  0
ACDBDICTIONARYWDFLT
  5
15B5A
102
{ACAD_REACTORS
330
7471
102
}
330
7471
100
AcDbDictionary
281
     1
  3
Normal
350
15B5B
100
AcDbDictionaryWithDefault
340
15B5B
  0
DICTIONARY
  5
17FCA
102
{ACAD_REACTORS
330
7471
102
}
330
7471
100
AcDbDictionary
281
     1
  3
COLORDICT
350
17FCC
  3
MATERIALDICT
350
17FCB
  0
DICTIONARY
  5
17FC6
102
{ACAD_REACTORS
330
7471
102
}
330
7471
100
AcDbDictionary
281
     1
  3
DIMASSOC
350
17FC7
  3
PROJECTNAME
350
17FC8
  0
DICTIONARY
  5
E71C
102
{ACAD_REACTORS
330
7471
102
}
330
7471
100
AcDbDictionary
281
     1
  0
DICTIONARY
  5
F3B9
102
{ACAD_REACTORS
330
7471
102
}
330
7471
100
AcDbDictionary
281
     1
1001
DRAWINGVARIABLESXDATA
1000
POLARMODE
1000
1
  0
DICTIONARY
  5
15CF8
102
{ACAD_REACTORS
330
15CF7
102
}
330
15CF7
100
AcDbDictionary
281
     1
  0
LAYOUT
  5
15B60
102
{ACAD_XDICTIONARY
360
17FCD
102
}
102
{ACAD_REACTORS
330
15B5E
102
}
330
15B5E
100
AcDbPlotSettings
  1

  2
クセロPDF
  4
A3
  6

 40
3.174999952316284
 41
3.174999952316284
 42
3.17498779296875
 43
3.17498779296875
 44
419.9466552734374
 45
296.9259948730469
 46
0.0
 47
0.0
 48
3.619013395666115
 49
-4.192117100517862
140
820.022926294543
141
573.2392198881443
142
1.0
143
39.99735023620806
 70
 11952
 72
     1
 73
     0
 74
     2
  7
inaba.ctb
 75
     0
147
0.0250016562120842
148
25.79074261211281
149
125.8223078213959
100
AcDbLayout
  1
Model
 70
     1
 71
     0
 10
0.0
 20
0.0
 11
12.0
 21
9.0
 12
0.0
 22
0.0
 32
0.0
 14
0.0
 24
0.0
 34
0.0
 15
0.0
 25
0.0
 35
0.0
146
0.0
 13
0.0
 23
0.0
 33
0.0
 16
1.0
 26
0.0
 36
0.0
 17
0.0
 27
1.0
 37
0.0
 76
     0
330
747D
  0
LAYOUT
  5
15B61
102
{ACAD_XDICTIONARY
360
17FCF
102
}
102
{ACAD_REACTORS
330
15B5E
102
}
330
15B5E
100
AcDbPlotSettings
  1

  2
Microsoft Office Document Image Writer
  4

  6

 40
0.0
 41
0.0
 42
0.0
 43
0.0
 44
0.0
 45
0.0
 46
0.0
 47
0.0
 48
0.0
 49
0.0
140
0.0
141
0.0
142
1.0
143
1.0
 70
   688
 72
     0
 73
     0
 74
     5
  7

 75
    16
147
1.0
148
0.0
149
0.0
100
AcDbLayout
  1
レイアウト1
 70
     0
 71
     1
 10
0.0
 20
0.0
 11
420.0
 21
297.0
 12
0.0
 22
0.0
 32
0.0
 14
1.000000000000000E+20
 24
1.000000000000000E+20
 34
1.000000000000000E+20
 15
-1.000000000000000E+20
 25
-1.000000000000000E+20
 35
-1.000000000000000E+20
146
0.0
 13
0.0
 23
0.0
 33
0.0
 16
1.0
 26
0.0
 36
0.0
 17
0.0
 27
1.0
 37
0.0
 76
     0
330
747A
  0
MLINESTYLE
  5
7480
102
{ACAD_REACTORS
330
7473
102
}
330
7473
100
AcDbMlineStyle
  2
STANDARD
 70
     0
  3

 62
     0
 51
90.0
 52
90.0
 71
     2
 49
0.5
 62
   256
  6
BYLAYER
 49
-0.5
 62
   256
  6
BYLAYER
  0
ACDBPLACEHOLDER
  5
15B5B
102
{ACAD_REACTORS
330
15B5A
102
}
330
15B5A
  0
XRECORD
  5
17FCC
102
{ACAD_REACTORS
330
17FCA
102
}
330
17FCA
100
AcDbXrecord
280
     1
340
15B5D
  0
XRECORD
  5
17FCB
102
{ACAD_REACTORS
330
17FCA
102
}
330
17FCA
100
AcDbXrecord
280
     1
340
15B5C
  0
DICTIONARYVAR
  5
17FC7
102
{ACAD_REACTORS
330
17FC6
102
}
330
17FC6
100
DictionaryVariables
280
     0
  1
1
  0
DICTIONARYVAR
  5
17FC8
102
{ACAD_REACTORS
330
17FC6
102
}
330
17FC6
100
DictionaryVariables
280
     0
  1

  0
DICTIONARY
  5
17FCD
330
15B60
100
AcDbDictionary
280
     1
281
     1
  3
ACAD_XREC_ROUNDTRIP
360
17FCE
  0
DICTIONARY
  5
17FCF
330
15B61
100
AcDbDictionary
280
     1
281
     1
  3
ACAD_XREC_ROUNDTRIP
360
17FD0
  0
XRECORD
  5
17FCE
102
{ACAD_REACTORS
330
17FCD
102
}
330
17FCD
100
AcDbXrecord
280
     1
102
SHADEPLOT
 70
     0
102
SHADEPLOTRESLEVEL
 70
     2
102
SHADEPLOTCUSTOMDPI
 70
   150
  0
XRECORD
  5
17FD0
102
{ACAD_REACTORS
330
17FCF
102
}
330
17FCF
100
AcDbXrecord
280
     1
102
SHADEPLOT
 70
     0
102
SHADEPLOTRESLEVEL
 70
     2
102
SHADEPLOTCUSTOMDPI
 70
   300
  0
ENDSEC
  0
EOF
