  0
SECTION
  2
HEADER
  9
$ACADVER
  1
AC1015
  9
$ACADMAINTVER
 70
    20
  9
$DWGCODEPAGE
  3
ANSI_932
  9
$INSBASE
 10
0.0
 20
0.0
 30
0.0
  9
$EXTMIN
 10
139.9999999999995
 20
-0.0000000000000909
 30
0.0
  9
$EXTMAX
 10
16307.2
 20
11409.6
 30
0.0
  9
$LIMMIN
 10
-25.79074261211281
 20
-125.8223078213959
  9
$LIMMAX
 10
16471.10331197129
 20
11496.44801950658
  9
$ORTHOMODE
 70
     0
  9
$REGENMODE
 70
     1
  9
$FILLMODE
 70
     1
  9
$QTEXTMODE
 70
     0
  9
$MIRRTEXT
 70
     1
  9
$LTSCALE
 40
20.0
  9
$ATTMODE
 70
     1
  9
$TEXTSIZE
 40
4.0
  9
$TRACEWID
 40
1.0
  9
$TEXTSTYLE
  7
STYLE1
  9
$CLAYER
  8
寸法
  9
$CELTYPE
  6
BYLAYER
  9
$CECOLOR
 62
   256
  9
$CELTSCALE
 40
50.0
  9
$DISPSILH
 70
     0
  9
$DIMSCALE
 40
40.0
  9
$DIMASZ
 40
2.5
  9
$DIMEXO
 40
0.5
  9
$DIMDLI
 40
7.0
  9
$DIMRND
 40
0.0
  9
$DIMDLE
 40
0.0
  9
$DIMEXE
 40
1.5
  9
$DIMTP
 40
0.0
  9
$DIMTM
 40
0.0
  9
$DIMTXT
 40
3.0
  9
$DIMCEN
 40
0.0
  9
$DIMTSZ
 40
0.0
  9
$DIMTOL
 70
     0
  9
$DIMLIM
 70
     0
  9
$DIMTIH
 70
     0
  9
$DIMTOH
 70
     0
  9
$DIMSE1
 70
     0
  9
$DIMSE2
 70
     0
  9
$DIMTAD
 70
     3
  9
$DIMZIN
 70
     8
  9
$DIMBLK
  1

  9
$DIMASO
 70
     1
  9
$DIMSHO
 70
     1
  9
$DIMPOST
  1

  9
$DIMAPOST
  1

  9
$DIMALT
 70
     0
  9
$DIMALTD
 70
     2
  9
$DIMALTF
 40
0.0394
  9
$DIMLFAC
 40
1.0
  9
$DIMTOFL
 70
     1
  9
$DIMTVP
 40
0.0
  9
$DIMTIX
 70
     1
  9
$DIMSOXD
 70
     0
  9
$DIMSAH
 70
     1
  9
$DIMBLK1
  1
DOTSMALL
  9
$DIMBLK2
  1
DOTSMALL
  9
$DIMSTYLE
  2
INABA_S40G
  9
$DIMCLRD
 70
     0
  9
$DIMCLRE
 70
     0
  9
$DIMCLRT
 70
     7
  9
$DIMTFAC
 40
1.0
  9
$DIMGAP
 40
1.0
  9
$DIMJUST
 70
     0
  9
$DIMSD1
 70
     0
  9
$DIMSD2
 70
     0
  9
$DIMTOLJ
 70
     1
  9
$DIMTZIN
 70
     0
  9
$DIMALTZ
 70
     0
  9
$DIMALTTZ
 70
     0
  9
$DIMUPT
 70
     0
  9
$DIMDEC
 70
     1
  9
$DIMTDEC
 70
     4
  9
$DIMALTU
 70
     2
  9
$DIMALTTD
 70
     2
  9
$DIMTXSTY
  7
STYLE1
  9
$DIMAUNIT
 70
     0
  9
$DIMADEC
 70
     0
  9
$DIMALTRND
 40
0.0
  9
$DIMAZIN
 70
     0
  9
$DIMDSEP
 70
    46
  9
$DIMATFIT
 70
     3
  9
$DIMFRAC
 70
     0
  9
$DIMLDRBLK
  1

  9
$DIMLUNIT
 70
     2
  9
$DIMLWD
 70
    -2
  9
$DIMLWE
 70
    -2
  9
$DIMTMOVE
 70
     0
  9
$LUNITS
 70
     2
  9
$LUPREC
 70
     1
  9
$SKETCHINC
 40
1.0
  9
$FILLETRAD
 40
3.0
  9
$AUNITS
 70
     0
  9
$AUPREC
 70
     0
  9
$MENU
  1
acad
  9
$ELEVATION
 40
0.0
  9
$PELEVATION
 40
0.0
  9
$THICKNESS
 40
0.0
  9
$LIMCHECK
 70
     0
  9
$CHAMFERA
 40
0.0
  9
$CHAMFERB
 40
0.0
  9
$CHAMFERC
 40
0.0
  9
$CHAMFERD
 40
0.0
  9
$SKPOLY
 70
     0
  9
$TDCREATE
 40
2451368.612993866
  9
$TDUCREATE
 40
2451368.237993866
  9
$TDUPDATE
 40
2455575.682775961
  9
$TDUUPDATE
 40
2455575.307775961
  9
$TDINDWG
 40
0.4495658796
  9
$TDUSRTIMER
 40
0.4495658796
  9
$USRTIMER
 70
     1
  9
$ANGBASE
 50
0.0
  9
$ANGDIR
 70
     0
  9
$PDMODE
 70
     3
  9
$PDSIZE
 40
2.0
  9
$PLINEWID
 40
0.0
  9
$SPLFRAME
 70
     0
  9
$SPLINETYPE
 70
     6
  9
$SPLINESEGS
 70
     8
  9
$HANDSEED
  5
17CD0
  9
$SURFTAB1
 70
     6
  9
$SURFTAB2
 70
     6
  9
$SURFTYPE
 70
     6
  9
$SURFU
 70
     6
  9
$SURFV
 70
     6
  9
$UCSBASE
  2

  9
$UCSNAME
  2

  9
$UCSORG
 10
0.0
 20
0.0
 30
0.0
  9
$UCSXDIR
 10
1.0
 20
0.0
 30
0.0
  9
$UCSYDIR
 10
0.0
 20
1.0
 30
0.0
  9
$UCSORTHOREF
  2

  9
$UCSORTHOVIEW
 70
     0
  9
$UCSORGTOP
 10
0.0
 20
0.0
 30
0.0
  9
$UCSORGBOTTOM
 10
0.0
 20
0.0
 30
0.0
  9
$UCSORGLEFT
 10
0.0
 20
0.0
 30
0.0
  9
$UCSORGRIGHT
 10
0.0
 20
0.0
 30
0.0
  9
$UCSORGFRONT
 10
0.0
 20
0.0
 30
0.0
  9
$UCSORGBACK
 10
0.0
 20
0.0
 30
0.0
  9
$PUCSBASE
  2

  9
$PUCSNAME
  2

  9
$PUCSORG
 10
0.0
 20
0.0
 30
0.0
  9
$PUCSXDIR
 10
1.0
 20
0.0
 30
0.0
  9
$PUCSYDIR
 10
0.0
 20
1.0
 30
0.0
  9
$PUCSORTHOREF
  2

  9
$PUCSORTHOVIEW
 70
     0
  9
$PUCSORGTOP
 10
0.0
 20
0.0
 30
0.0
  9
$PUCSORGBOTTOM
 10
0.0
 20
0.0
 30
0.0
  9
$PUCSORGLEFT
 10
0.0
 20
0.0
 30
0.0
  9
$PUCSORGRIGHT
 10
0.0
 20
0.0
 30
0.0
  9
$PUCSORGFRONT
 10
0.0
 20
0.0
 30
0.0
  9
$PUCSORGBACK
 10
0.0
 20
0.0
 30
0.0
  9
$USERI1
 70
     0
  9
$USERI2
 70
     0
  9
$USERI3
 70
     0
  9
$USERI4
 70
     0
  9
$USERI5
 70
     0
  9
$USERR1
 40
0.0
  9
$USERR2
 40
0.0
  9
$USERR3
 40
0.0
  9
$USERR4
 40
0.0
  9
$USERR5
 40
0.0
  9
$WORLDVIEW
 70
     1
  9
$SHADEDGE
 70
     3
  9
$SHADEDIF
 70
    70
  9
$TILEMODE
 70
     1
  9
$MAXACTVP
 70
    16
  9
$PINSBASE
 10
0.0
 20
0.0
 30
0.0
  9
$PLIMCHECK
 70
     0
  9
$PEXTMIN
 10
1.000000000000000E+20
 20
1.000000000000000E+20
 30
1.000000000000000E+20
  9
$PEXTMAX
 10
-1.000000000000000E+20
 20
-1.000000000000000E+20
 30
-1.000000000000000E+20
  9
$PLIMMIN
 10
0.0
 20
0.0
  9
$PLIMMAX
 10
420.0
 20
297.0
  9
$UNITMODE
 70
     0
  9
$VISRETAIN
 70
     0
  9
$PLINEGEN
 70
     0
  9
$PSLTSCALE
 70
     0
  9
$TREEDEPTH
 70
  3020
  9
$CMLSTYLE
  2
STANDARD
  9
$CMLJUST
 70
     0
  9
$CMLSCALE
 40
1.0
  9
$PROXYGRAPHICS
 70
     1
  9
$MEASUREMENT
 70
     1
  9
$CELWEIGHT
370
    -1
  9
$ENDCAPS
280
     0
  9
$JOINSTYLE
280
     0
  9
$LWDISPLAY
290
     0
  9
$INSUNITS
 70
     0
  9
$HYPERLINKBASE
  1

  9
$STYLESHEET
  1
inaba.ctb
  9
$XEDIT
290
     1
  9
$CEPSNTYPE
380
     0
  9
$PSTYLEMODE
290
     1
  9
$FINGERPRINTGUID
  2
{1A74292F-D6BA-434E-B291-34E6544469EC}
  9
$VERSIONGUID
  2
{7159C9DC-0307-40EE-A11C-BC57024492B6}
  9
$EXTNAMES
290
     1
  9
$PSVPSCALE
 40
0.0
  9
$OLESTARTUP
290
     0
  0
ENDSEC
  0
SECTION
  2
CLASSES
  0
CLASS
  1
ACDBDICTIONARYWDFLT
  2
AcDbDictionaryWithDefault
  3
ObjectDBX Classes
 90
        0
280
     0
281
     0
  0
CLASS
  1
DICTIONARYVAR
  2
AcDbDictionaryVar
  3
ObjectDBX Classes
 90
        0
280
     0
281
     0
  0
CLASS
  1
ACDBPLACEHOLDER
  2
AcDbPlaceHolder
  3
ObjectDBX Classes
 90
        0
280
     0
281
     0
  0
CLASS
  1
LAYOUT
  2
AcDbLayout
  3
ObjectDBX Classes
 90
        0
280
     0
281
     0
  0
ENDSEC
  0
SECTION
  2
TABLES
  0
TABLE
  2
VPORT
  5
746D
330
0
100
AcDbSymbolTable
 70
     2
  0
VPORT
  5
17CC8
330
746D
100
AcDbSymbolTableRecord
100
AcDbViewportTableRecord
  2
*Active
 70
     0
 10
0.0
 20
0.0
 11
1.0
 21
1.0
 12
8223.761025238504
 22
5704.608037261908
 13
0.0
 23
0.0
 14
10.0
 24
10.0
 15
10.0
 25
10.0
 16
0.0
 26
0.0
 36
1.0
 17
0.0
 27
0.0
 37
0.0
 40
11495.08541324274
 41
1.525925925925925
 42
50.0
 43
0.0
 44
0.0
 50
0.0
 51
0.0
 71
     0
 72
     0
 73
     1
 74
     0
 75
     0
 76
     0
 77
     0
 78
     0
281
     0
 65
     1
110
0.0
120
0.0
130
0.0
111
1.0
121
0.0
131
0.0
112
0.0
122
1.0
132
0.0
 79
     0
146
0.0
  0
ENDTAB
  0
TABLE
  2
LTYPE
  5
746A
330
0
100
AcDbSymbolTable
 70
     4
  0
LTYPE
  5
7477
330
746A
100
AcDbSymbolTableRecord
100
AcDbLinetypeTableRecord
  2
BYBLOCK
 70
     0
  3

 72
    65
 73
     0
 40
0.0
  0
LTYPE
  5
7478
330
746A
100
AcDbSymbolTableRecord
100
AcDbLinetypeTableRecord
  2
BYLAYER
 70
     0
  3

 72
    65
 73
     0
 40
0.0
  0
LTYPE
  5
7479
330
746A
100
AcDbSymbolTableRecord
100
AcDbLinetypeTableRecord
  2
CONTINUOUS
 70
     0
  3
Solid line
 72
    65
 73
     0
 40
0.0
  0
LTYPE
  5
7816
330
746A
100
AcDbSymbolTableRecord
100
AcDbLinetypeTableRecord
  2
CENTER
 70
     0
  3
____ _ ____ _ ____ _ ____ _ ____ _ ____ _ ____ 
 72
    65
 73
     4
 40
2.0
 49
1.25
 74
     0
 49
-0.25
 74
     0
 49
0.25
 74
     0
 49
-0.25
 74
     0
  0
LTYPE
  5
781A
330
746A
100
AcDbSymbolTableRecord
100
AcDbLinetypeTableRecord
  2
HIDDEN
 70
     0
  3
__ __ __ __ __ __ __ __ __ __ __ __ __ __ __ __
 72
    65
 73
     2
 40
0.375
 49
0.25
 74
     0
 49
-0.125
 74
     0
  0
LTYPE
  5
781B
330
746A
100
AcDbSymbolTableRecord
100
AcDbLinetypeTableRecord
  2
PHANTOM
 70
     0
  3
______  __  __  ______  __  __  ______  __  __ 
 72
    65
 73
     6
 40
2.5
 49
1.25
 74
     0
 49
-0.25
 74
     0
 49
0.25
 74
     0
 49
-0.25
 74
     0
 49
0.25
 74
     0
 49
-0.25
 74
     0
  0
ENDTAB
  0
TABLE
  2
LAYER
  5
7467
102
{ACAD_XDICTIONARY
360
15F07
102
}
330
0
100
AcDbSymbolTable
 70
    12
  0
LAYER
  5
7474
330
7467
100
AcDbSymbolTableRecord
100
AcDbLayerTableRecord
  2
0
 70
     0
 62
     7
  6
CONTINUOUS
370
    -3
390
15D6A
  0
LAYER
  5
DEB2
330
7467
100
AcDbSymbolTableRecord
100
AcDbLayerTableRecord
  2
センター
 70
     0
 62
     3
  6
CENTER
370
    -3
390
15D6A
  0
LAYER
  5
DEB3
330
7467
100
AcDbSymbolTableRecord
100
AcDbLayerTableRecord
  2
寸法
 70
     0
 62
     4
  6
CONTINUOUS
370
    -3
390
15D6A
  0
LAYER
  5
DEB4
330
7467
100
AcDbSymbolTableRecord
100
AcDbLayerTableRecord
  2
部品1
 70
     0
 62
     7
  6
CONTINUOUS
370
    -3
390
15D6A
  0
LAYER
  5
DEB5
330
7467
100
AcDbSymbolTableRecord
100
AcDbLayerTableRecord
  2
補助
 70
     0
 62
    -1
  6
CONTINUOUS
370
    -3
390
15D6A
  0
LAYER
  5
DEB6
330
7467
100
AcDbSymbolTableRecord
100
AcDbLayerTableRecord
  2
文字
 70
     0
 62
     7
  6
CONTINUOUS
370
    -3
390
15D6A
  0
LAYER
  5
F255
330
7467
100
AcDbSymbolTableRecord
100
AcDbLayerTableRecord
  2
DEFPOINTS
 70
     0
 62
     7
  6
CONTINUOUS
290
     0
370
    -3
390
15D6A
  0
LAYER
  5
10B54
330
7467
100
AcDbSymbolTableRecord
100
AcDbLayerTableRecord
  2
仕様書枠
 70
     0
 62
   230
  6
CONTINUOUS
370
    -3
390
15D6A
  0
LAYER
  5
11729
330
7467
100
AcDbSymbolTableRecord
100
AcDbLayerTableRecord
  2
Ｇ．Ｌ
 70
     0
 62
    30
  6
CONTINUOUS
370
    -3
390
15D6A
  0
LAYER
  5
1173F
330
7467
100
AcDbSymbolTableRecord
100
AcDbLayerTableRecord
  2
細線
 70
     0
 62
     5
  6
CONTINUOUS
370
    -3
390
15D6A
  0
LAYER
  5
12CC4
330
7467
100
AcDbSymbolTableRecord
100
AcDbLayerTableRecord
  2
想像線
 70
     0
 62
     6
  6
PHANTOM
370
    -3
390
15D6A
  0
LAYER
  5
142E2
330
7467
100
AcDbSymbolTableRecord
100
AcDbLayerTableRecord
  2
破線
 70
     0
 62
     2
  6
HIDDEN
370
    -3
390
15D6A
  0
ENDTAB
  0
TABLE
  2
STYLE
  5
7468
330
0
100
AcDbSymbolTable
 70
     4
  0
STYLE
  5
7475
330
7468
100
AcDbSymbolTableRecord
100
AcDbTextStyleTableRecord
  2
STANDARD
 70
     0
 40
0.0
 41
1.0
 50
0.0
 71
     0
 42
4.0
  3
txt
  4
C:\AutoCAD LT\bigfont.shx
  0
STYLE
  5
F706
330
7468
100
AcDbSymbolTableRecord
100
AcDbTextStyleTableRecord
  2
STYLE1
 70
     0
 40
0.0
 41
1.0
 50
0.0
 71
     0
 42
4.0
  3
isocp.shx
  4
bigfont.shx
  0
STYLE
  5
103BF
330
7468
100
AcDbSymbolTableRecord
100
AcDbTextStyleTableRecord
  2
STYLE2
 70
     0
 40
0.0
 41
1.0
 50
0.0
 71
     0
 42
100.0
  3
MS PGothic.ttf
  4

1001
ACAD
1000
MS PGothic
1071
    32818
  0
STYLE
  5
168DD
330
7468
100
AcDbSymbolTableRecord
100
AcDbTextStyleTableRecord
  2
STYLE3
 70
     0
 40
0.0
 41
1.0
 50
0.0
 71
     0
 42
100.0
  3
DFPGothic-EB.ttf
  4

1001
ACAD
1000
DFPGothic-EB
1071
    32818
  0
ENDTAB
  0
TABLE
  2
VIEW
  5
746B
330
0
100
AcDbSymbolTable
 70
     0
  0
ENDTAB
  0
TABLE
  2
UCS
  5
746C
330
0
100
AcDbSymbolTable
 70
     0
  0
ENDTAB
  0
TABLE
  2
APPID
  5
746E
330
0
100
AcDbSymbolTable
 70
     6
  0
APPID
  5
7476
330
746E
100
AcDbSymbolTableRecord
100
AcDbRegAppTableRecord
  2
ACAD
 70
     0
  0
APPID
  5
DEA9
330
746E
100
AcDbSymbolTableRecord
100
AcDbRegAppTableRecord
  2
CONTENTBLOCKICON
 70
     0
  0
APPID
  5
DEAA
330
746E
100
AcDbSymbolTableRecord
100
AcDbRegAppTableRecord
  2
CONTENTBLOCKDESCRIPTION
 70
     0
  0
APPID
  5
E71D
330
746E
100
AcDbSymbolTableRecord
100
AcDbRegAppTableRecord
  2
CONTENTTABDATA
 70
     0
  0
APPID
  5
E71E
330
746E
100
AcDbSymbolTableRecord
100
AcDbRegAppTableRecord
  2
CONTENTCURRENTTAB
 70
     0
  0
APPID
  5
F3BA
330
746E
100
AcDbSymbolTableRecord
100
AcDbRegAppTableRecord
  2
DRAWINGVARIABLESXDATA
 70
     0
  0
ENDTAB
  0
TABLE
  2
DIMSTYLE
  5
746F
330
0
100
AcDbSymbolTable
 70
     5
100
AcDbDimStyleTable
 71
     0
  0
DIMSTYLE
105
7484
330
746F
100
AcDbSymbolTableRecord
100
AcDbDimStyleTableRecord
  2
JIS
 70
     0
 41
2.5
 42
1.0
 43
7.0
 44
1.0
 73
     0
 74
     0
 77
     1
 78
     8
140
2.5
141
0.0
143
0.0394
147
0.0
172
     1
174
     1
175
     1
340
7475
  0
DIMSTYLE
105
F71F
102
{ACAD_REACTORS
330
15CB9
330
16202
330
16206
330
16208
330
1621B
330
1625A
330
1625B
330
1625C
330
1625D
330
16261
330
16262
330
16263
330
16264
330
16286
330
16289
330
1628A
330
1628B
330
1628C
330
1628D
330
16290
330
162A2
330
162A5
330
162BE
330
162C0
330
162D7
330
163E2
330
163E3
330
163E4
330
1644D
330
1792D
330
17A27
102
}
330
746F
100
AcDbSymbolTableRecord
100
AcDbDimStyleTableRecord
  2
INABA_S40G
 70
     0
 40
40.0
 41
2.5
 42
0.5
 43
7.0
 44
1.5
 73
     0
 74
     0
 77
     3
 78
     8
140
3.0
141
0.0
143
0.0394
147
1.0
172
     1
173
     1
174
     1
178
     7
271
     1
340
F706
341
F770
343
F770
344
F770
  0
DIMSTYLE
105
15F06
102
{ACAD_REACTORS
330
1769C
330
1792E
102
}
330
746F
100
AcDbSymbolTableRecord
100
AcDbDimStyleTableRecord
  2
INABA_S40
 70
     0
 40
40.0
 41
2.5
 42
0.5
 43
7.0
 44
1.5
 73
     0
 74
     0
 77
     3
 78
     8
140
3.0
141
0.0
143
0.0394
147
1.0
172
     1
173
     1
174
     1
175
     1
178
     7
340
7475
  0
DIMSTYLE
105
168DE
330
746F
100
AcDbSymbolTableRecord
100
AcDbDimStyleTableRecord
  2
INABA_S50G
 70
     0
 41
125.0
 42
25.0
 43
7.0
 44
75.0
 73
     0
 74
     0
 77
     3
 78
     8
140
150.0
141
0.0
143
0.0394
147
25.0
172
     1
173
     1
174
     1
175
     1
178
     7
271
     1
340
F706
341
F770
343
F770
344
F770
  0
DIMSTYLE
105
17C4D
330
746F
100
AcDbSymbolTableRecord
100
AcDbDimStyleTableRecord
  2
INABA_S20G
 70
     0
 40
20.0
 41
2.5
 42
0.5
 43
7.0
 44
1.5
 73
     0
 74
     0
 77
     3
 78
     8
140
3.0
141
0.0
143
0.0394
147
1.0
172
     1
173
     1
174
     1
178
     7
271
     1
340
F706
341
F770
343
F770
344
F770
  0
ENDTAB
  0
TABLE
  2
BLOCK_RECORD
  5
7466
330
0
100
AcDbSymbolTable
 70
    36
  0
BLOCK_RECORD
  5
747D
330
7466
100
AcDbSymbolTableRecord
100
AcDbBlockTableRecord
  2
*MODEL_SPACE
340
15D6F
  0
BLOCK_RECORD
  5
747A
330
7466
100
AcDbSymbolTableRecord
100
AcDbBlockTableRecord
  2
*PAPER_SPACE
340
15D70
  0
BLOCK_RECORD
  5
F770
330
7466
100
AcDbSymbolTableRecord
100
AcDbBlockTableRecord
  2
_DOTSMALL
340
0
102
{BLKREFS
331
15CAF
331
15CB0
331
16AA9
331
16AAA
331
16AB2
331
16AB3
331
16ABD
331
16ABE
331
16AC6
331
16AC7
331
16B4C
331
16B4D
331
16B68
331
16B69
331
16B73
331
16B74
331
16B7C
331
16B7D
331
16B85
331
16B86
331
16B90
331
16B91
331
16B99
331
16B9A
331
16BA3
331
16BA4
331
16BAD
331
16BAE
331
16BB6
331
16BB7
331
16BBF
331
16BC0
331
16BE3
331
16BE4
331
16BED
331
16BEE
331
16BF6
331
16BF7
331
17BAD
331
17BAE
331
17BC1
331
17BC2
331
17BD3
331
17BD4
331
17BDC
331
17BDD
331
17BE5
331
17BE6
331
17BF0
331
17BF1
331
17BF9
331
17BFA
331
17C04
331
17C05
331
17C0F
331
17C10
331
17C1A
331
17C1B
331
17C23
331
17C24
331
17C3E
331
17C3F
102
}
  0
BLOCK_RECORD
  5
15CAB
330
7466
100
AcDbSymbolTableRecord
100
AcDbBlockTableRecord
  2
*D1
340
0
  0
BLOCK_RECORD
  5
15CB7
330
7466
100
AcDbSymbolTableRecord
100
AcDbBlockTableRecord
  2
A$C30647BB7
340
0
  0
BLOCK_RECORD
  5
15D78
330
7466
100
AcDbSymbolTableRecord
100
AcDbBlockTableRecord
  2
_DOT
340
0
102
{BLKREFS
331
17BB8
331
17BB9
331
17BCA
331
17BCB
102
}
  0
BLOCK_RECORD
  5
164EB
330
7466
100
AcDbSymbolTableRecord
100
AcDbBlockTableRecord
  2
*D4
340
0
  0
BLOCK_RECORD
  5
164F7
330
7466
100
AcDbSymbolTableRecord
100
AcDbBlockTableRecord
  2
*D5
340
0
  0
BLOCK_RECORD
  5
16503
330
7466
100
AcDbSymbolTableRecord
100
AcDbBlockTableRecord
  2
*D6
340
0
  0
BLOCK_RECORD
  5
16510
330
7466
100
AcDbSymbolTableRecord
100
AcDbBlockTableRecord
  2
*D7
340
0
  0
BLOCK_RECORD
  5
1651D
330
7466
100
AcDbSymbolTableRecord
100
AcDbBlockTableRecord
  2
*D8
340
0
  0
BLOCK_RECORD
  5
16529
330
7466
100
AcDbSymbolTableRecord
100
AcDbBlockTableRecord
  2
*D9
340
0
  0
BLOCK_RECORD
  5
16537
330
7466
100
AcDbSymbolTableRecord
100
AcDbBlockTableRecord
  2
*D10
340
0
  0
BLOCK_RECORD
  5
16543
330
7466
100
AcDbSymbolTableRecord
100
AcDbBlockTableRecord
  2
*D11
340
0
  0
BLOCK_RECORD
  5
1654F
330
7466
100
AcDbSymbolTableRecord
100
AcDbBlockTableRecord
  2
*D12
340
0
  0
BLOCK_RECORD
  5
1655D
330
7466
100
AcDbSymbolTableRecord
100
AcDbBlockTableRecord
  2
*D13
340
0
  0
BLOCK_RECORD
  5
1656A
330
7466
100
AcDbSymbolTableRecord
100
AcDbBlockTableRecord
  2
*D14
340
0
  0
BLOCK_RECORD
  5
16576
330
7466
100
AcDbSymbolTableRecord
100
AcDbBlockTableRecord
  2
*D15
340
0
  0
BLOCK_RECORD
  5
16582
330
7466
100
AcDbSymbolTableRecord
100
AcDbBlockTableRecord
  2
*D16
340
0
  0
BLOCK_RECORD
  5
1658E
330
7466
100
AcDbSymbolTableRecord
100
AcDbBlockTableRecord
  2
*D17
340
0
  0
BLOCK_RECORD
  5
1659A
330
7466
100
AcDbSymbolTableRecord
100
AcDbBlockTableRecord
  2
*D18
340
0
  0
BLOCK_RECORD
  5
165A6
330
7466
100
AcDbSymbolTableRecord
100
AcDbBlockTableRecord
  2
*D19
340
0
  0
BLOCK_RECORD
  5
165B4
330
7466
100
AcDbSymbolTableRecord
100
AcDbBlockTableRecord
  2
*D20
340
0
  0
BLOCK_RECORD
  5
165C2
330
7466
100
AcDbSymbolTableRecord
100
AcDbBlockTableRecord
  2
*D21
340
0
  0
BLOCK_RECORD
  5
165D0
330
7466
100
AcDbSymbolTableRecord
100
AcDbBlockTableRecord
  2
*D22
340
0
  0
BLOCK_RECORD
  5
165E8
330
7466
100
AcDbSymbolTableRecord
100
AcDbBlockTableRecord
  2
*D23
340
0
  0
BLOCK_RECORD
  5
165F6
330
7466
100
AcDbSymbolTableRecord
100
AcDbBlockTableRecord
  2
*D24
340
0
  0
BLOCK_RECORD
  5
16602
330
7466
100
AcDbSymbolTableRecord
100
AcDbBlockTableRecord
  2
*D25
340
0
  0
BLOCK_RECORD
  5
1660E
330
7466
100
AcDbSymbolTableRecord
100
AcDbBlockTableRecord
  2
*D26
340
0
  0
BLOCK_RECORD
  5
1661A
330
7466
100
AcDbSymbolTableRecord
100
AcDbBlockTableRecord
  2
*D27
340
0
  0
BLOCK_RECORD
  5
16632
330
7466
100
AcDbSymbolTableRecord
100
AcDbBlockTableRecord
  2
*D28
340
0
  0
BLOCK_RECORD
  5
1663E
330
7466
100
AcDbSymbolTableRecord
100
AcDbBlockTableRecord
  2
*D29
340
0
  0
BLOCK_RECORD
  5
1664C
330
7466
100
AcDbSymbolTableRecord
100
AcDbBlockTableRecord
  2
*D30
340
0
  0
BLOCK_RECORD
  5
16658
330
7466
100
AcDbSymbolTableRecord
100
AcDbBlockTableRecord
  2
*D31
340
0
  0
BLOCK_RECORD
  5
17707
330
7466
100
AcDbSymbolTableRecord
100
AcDbBlockTableRecord
  2
*D32
340
0
  0
BLOCK_RECORD
  5
17A36
330
7466
100
AcDbSymbolTableRecord
100
AcDbBlockTableRecord
  2
*D33
340
0
  0
BLOCK_RECORD
  5
17A42
330
7466
100
AcDbSymbolTableRecord
100
AcDbBlockTableRecord
  2
*D34
340
0
  0
BLOCK_RECORD
  5
17A8E
330
7466
100
AcDbSymbolTableRecord
100
AcDbBlockTableRecord
  2
*D35
340
0
  0
ENDTAB
  0
ENDSEC
  0
SECTION
  2
BLOCKS
  0
BLOCK
  5
7489
330
747D
100
AcDbEntity
  8
0
100
AcDbBlockBegin
  2
*MODEL_SPACE
 70
     0
 10
0.0
 20
0.0
 30
0.0
  3
*MODEL_SPACE
  1

  0
ENDBLK
  5
748A
330
747D
100
AcDbEntity
  8
0
100
AcDbBlockEnd
  0
BLOCK
  5
7487
330
747A
100
AcDbEntity
 67
     1
  8
0
100
AcDbBlockBegin
  2
*PAPER_SPACE
 70
     0
 10
0.0
 20
0.0
 30
0.0
  3
*PAPER_SPACE
  1

  0
ENDBLK
  5
7488
330
747A
100
AcDbEntity
 67
     1
  8
0
100
AcDbBlockEnd
  0
BLOCK
  5
F771
330
F770
100
AcDbEntity
  8
0
 48
50.0
100
AcDbBlockBegin
  2
_DOTSMALL
 70
     0
 10
0.0
 20
0.0
 30
0.0
  3
_DOTSMALL
  1

  0
LWPOLYLINE
  5
F772
330
F770
100
AcDbEntity
  8
0
  6
ByBlock
 62
     0
 48
50.0
100
AcDbPolyline
 90
        2
 70
     1
 43
0.5
 10
-0.0625
 20
0.0
 42
1.0
 10
0.0625
 20
0.0
 42
1.0
  0
ENDBLK
  5
F776
330
F770
100
AcDbEntity
  8
0
 48
50.0
100
AcDbBlockEnd
  0
BLOCK
  5
15CB5
330
15CAB
100
AcDbEntity
  8
0
 48
50.0
100
AcDbBlockBegin
  2
*D1
 70
     1
 10
0.0
 20
0.0
 30
0.0
  3
*D1
  1

  0
LINE
  5
15CAC
330
15CAB
100
AcDbEntity
  8
0
  6
ByBlock
 62
     0
 48
50.0
100
AcDbLine
 10
3306.365918176074
 20
7091.062405985133
 30
0.0
 11
3306.365918176074
 21
6451.062405985132
 31
0.0
  0
LINE
  5
15CAD
330
15CAB
100
AcDbEntity
  8
0
  6
ByBlock
 62
     0
 48
50.0
100
AcDbLine
 10
1985.365918176074
 20
7091.062405985133
 30
0.0
 11
1985.365918176074
 21
6451.062405985132
 31
0.0
  0
LINE
  5
15CAE
330
15CAB
100
AcDbEntity
  8
0
  6
ByBlock
 62
     0
 48
50.0
100
AcDbLine
 10
3306.365918176074
 20
6511.062405985133
 30
0.0
 11
1985.365918176074
 21
6511.062405985133
 31
0.0
  0
INSERT
  5
15CAF
330
15CAB
100
AcDbEntity
  8
0
  6
ByBlock
 62
     0
 48
50.0
100
AcDbBlockReference
  2
_DOTSMALL
 10
3306.365918176074
 20
6511.062405985133
 30
0.0
 41
100.0
 42
100.0
 43
100.0
  0
INSERT
  5
15CB0
330
15CAB
100
AcDbEntity
  8
0
  6
ByBlock
 62
     0
 48
50.0
100
AcDbBlockReference
  2
_DOTSMALL
 10
1985.365918176074
 20
6511.062405985133
 30
0.0
 41
100.0
 42
100.0
 43
100.0
 50
180.0
  0
MTEXT
  5
15CB1
330
15CAB
100
AcDbEntity
  8
0
  6
ByBlock
 62
     7
 48
50.0
100
AcDbMText
 10
2645.865918176074
 20
6711.070280000881
 30
0.0
 40
120.0
 41
0.0
 71
     5
 72
     1
  1
\A1;有効開口部間口\P1321
  7
STYLE1
 73
     1
 44
1.0
1001
ACAD
1000
MTEXTBEGIN
1070
    73
1070
     1
1070
    44
1040
1.0
1070
    74
1070
     0
1000
MTEXTEND
  0
POINT
  5
15CB2
330
15CAB
100
AcDbEntity
  8
DEFPOINTS
  6
ByBlock
 62
     0
 48
50.0
100
AcDbPoint
 10
3306.365918176074
 20
7111.062405985133
 30
0.0
  0
POINT
  5
15CB3
330
15CAB
100
AcDbEntity
  8
DEFPOINTS
  6
ByBlock
 62
     0
 48
50.0
100
AcDbPoint
 10
1985.365918176074
 20
7111.062405985133
 30
0.0
  0
POINT
  5
15CB4
330
15CAB
100
AcDbEntity
  8
DEFPOINTS
  6
ByBlock
 62
     0
 48
50.0
100
AcDbPoint
 10
1985.365918176074
 20
6511.062405985133
 30
0.0
  0
ENDBLK
  5
15CB6
330
15CAB
100
AcDbEntity
  8
0
 48
50.0
100
AcDbBlockEnd
  0
BLOCK
  5
15CC3
330
15CB7
100
AcDbEntity
  8
0
 48
50.0
100
AcDbBlockBegin
  2
A$C30647BB7
 70
     0
 10
0.0
 20
0.0
 30
0.0
  3
A$C30647BB7
  1

  0
LINE
  5
15CB8
330
15CB7
100
AcDbEntity
  8
寸法
 48
50.0
100
AcDbLine
 10
762.3946456918384
 20
590.3275888192884
 30
0.0
 11
981.5465858675635
 21
590.3275888192884
 31
0.0
  0
DIMENSION
  5
15CB9
330
15CB7
100
AcDbEntity
  8
寸法
100
AcDbDimension
  2
*D1
 10
12.50000483529948
 20
59.99999120570738
 30
0.0
 11
673.0000048352994
 21
59.99999120570738
 31
0.0
 12
-1972.865913340774
 22
-6451.062414779425
 32
0.0
 70
   128
  1
有効開口部間口\P<>
 71
     5
 42
-1.0
  3
INABA_S40G
100
AcDbAlignedDimension
 13
1333.500004835299
 23
659.9999912057073
 33
0.0
 14
12.50000483529948
 24
659.9999912057073
 34
0.0
100
AcDbRotatedDimension
1001
ACAD
1000
DSTYLE
1002
{
1002
}
  0
LINE
  5
15CBA
330
15CB7
100
AcDbEntity
  8
寸法
 48
50.0
100
AcDbLine
 10
432.4429828439933
 20
588.4157909861178
 30
0.0
 11
376.978646897518
 21
625.9952419147311
 31
0.0
  0
LINE
  5
15CBB
330
15CB7
100
AcDbEntity
  8
寸法
 48
50.0
100
AcDbLine
 10
402.6816508525699
 20
557.1056323339517
 30
0.0
 11
402.6816508525699
 21
588.4157909861178
 31
0.0
  0
LINE
  5
15CBC
330
15CB7
100
AcDbEntity
  8
寸法
 48
50.0
100
AcDbLine
 10
402.6816508525699
 20
588.4157909861178
 30
0.0
 11
432.4429828439933
 21
588.4157909861178
 31
0.0
  0
LINE
  5
15CBD
330
15CB7
100
AcDbEntity
  8
寸法
 48
50.0
100
AcDbLine
 10
351.2756429424662
 20
588.4157909861178
 30
0.0
 11
321.5143109510427
 21
588.4157909861178
 31
0.0
  0
LINE
  5
15CBE
330
15CB7
100
AcDbEntity
  8
寸法
 48
50.0
100
AcDbLine
 10
351.2756429424662
 20
557.1056323339517
 30
0.0
 11
351.2756429424662
 21
588.4157909861178
 31
0.0
  0
LINE
  5
15CBF
330
15CB7
100
AcDbEntity
  8
寸法
 48
50.0
100
AcDbLine
 10
321.5143109510427
 20
588.4157909861178
 30
0.0
 11
376.978646897518
 21
625.9952419147311
 31
0.0
  0
LINE
  5
15CC0
330
15CB7
100
AcDbEntity
  8
寸法
 48
50.0
100
AcDbLine
 10
402.6816508525699
 20
557.1056323339517
 30
0.0
 11
351.2756429424662
 21
557.1056323339517
 31
0.0
  0
LINE
  5
15CC1
330
15CB7
100
AcDbEntity
  8
寸法
 48
50.0
100
AcDbLine
 10
981.5465858675635
 20
590.3275888192884
 30
0.0
 11
892.2623672721419
 21
614.251223088776
 31
0.0
  0
LINE
  5
15CC2
330
15CB7
100
AcDbEntity
  8
寸法
 48
50.0
100
AcDbLine
 10
892.2623672721419
 20
614.251223088776
 30
0.0
 11
892.2623672721419
 21
560.5875885069845
 31
0.0
  0
ENDBLK
  5
15CC4
330
15CB7
100
AcDbEntity
  8
0
 48
50.0
100
AcDbBlockEnd
  0
BLOCK
  5
15D79
330
15D78
100
AcDbEntity
  8
0
 48
50.0
100
AcDbBlockBegin
  2
_DOT
 70
     0
 10
0.0
 20
0.0
 30
0.0
  3
_DOT
  1

  0
LWPOLYLINE
  5
15D7A
330
15D78
100
AcDbEntity
  8
0
  6
ByBlock
 62
     0
 48
50.0
100
AcDbPolyline
 90
        2
 70
     1
 43
0.5
 10
-0.25
 20
0.0
 42
1.0
 10
0.25
 20
0.0
 42
1.0
  0
LINE
  5
15D7B
330
15D78
100
AcDbEntity
  8
0
  6
ByBlock
 62
     0
 48
50.0
100
AcDbLine
 10
-0.5
 20
0.0
 30
0.0
 11
-1.0
 21
0.0
 31
0.0
  0
ENDBLK
  5
15D7C
330
15D78
100
AcDbEntity
  8
0
 48
50.0
100
AcDbBlockEnd
  0
BLOCK
  5
164F5
330
164EB
100
AcDbEntity
  8
0
 48
50.0
100
AcDbBlockBegin
  2
*D4
 70
     1
 10
0.0
 20
0.0
 30
0.0
  3
*D4
  1

  0
LINE
  5
16BBC
330
164EB
100
AcDbEntity
  8
寸法
 62
     0
 48
50.0
370
    -2
100
AcDbLine
 10
5055.485105577707
 20
2259.708667612137
 30
0.0
 11
5055.485105577707
 21
1933.661338311761
 31
0.0
  0
LINE
  5
16BBD
330
164EB
100
AcDbEntity
  8
寸法
 62
     0
 48
50.0
370
    -2
100
AcDbLine
 10
4855.48510557771
 20
2259.708667612139
 30
0.0
 11
4855.48510557771
 21
1933.661338311761
 31
0.0
  0
LINE
  5
16BBE
330
164EB
100
AcDbEntity
  8
寸法
 62
     0
 48
50.0
370
    -2
100
AcDbLine
 10
5055.485105577707
 20
1993.661338311761
 30
0.0
 11
4855.48510557771
 21
1993.661338311761
 31
0.0
  0
INSERT
  5
16BBF
330
164EB
100
AcDbEntity
  8
寸法
 62
     0
 48
50.0
370
    -2
100
AcDbBlockReference
  2
_DOTSMALL
 10
5055.485105577707
 20
1993.661338311761
 30
0.0
 41
100.0
 42
100.0
 43
100.0
  0
INSERT
  5
16BC0
330
164EB
100
AcDbEntity
  8
寸法
 62
     0
 48
50.0
370
    -2
100
AcDbBlockReference
  2
_DOTSMALL
 10
4855.48510557771
 20
1993.661338311761
 30
0.0
 41
100.0
 42
100.0
 43
100.0
 50
180.0
  0
MTEXT
  5
16BC1
330
164EB
100
AcDbEntity
  8
寸法
 62
     7
 48
50.0
100
AcDbMText
 10
4955.485105577709
 20
2093.673149335383
 30
0.0
 40
120.0
 41
0.0
 71
     5
 72
     1
  1
\A1;200
  7
STYLE1
 73
     1
 44
1.0
1001
ACAD
1000
MTEXTBEGIN
1070
    73
1070
     1
1070
    44
1040
1.0
1070
    74
1070
     0
1000
MTEXTEND
  0
POINT
  5
16BC2
330
164EB
100
AcDbEntity
  8
DEFPOINTS
 62
     0
 48
50.0
100
AcDbPoint
 10
5055.485105577707
 20
2279.708667612137
 30
0.0
  0
POINT
  5
16BC3
330
164EB
100
AcDbEntity
  8
DEFPOINTS
 62
     0
 48
50.0
100
AcDbPoint
 10
4855.48510557771
 20
2279.708667612139
 30
0.0
  0
POINT
  5
16BC4
330
164EB
100
AcDbEntity
  8
DEFPOINTS
 62
     0
 48
50.0
100
AcDbPoint
 10
4855.48510557771
 20
1993.661338311761
 30
0.0
  0
ENDBLK
  5
164F6
330
164EB
100
AcDbEntity
  8
0
 48
50.0
100
AcDbBlockEnd
  0
BLOCK
  5
16501
330
164F7
100
AcDbEntity
  8
0
 48
50.0
100
AcDbBlockBegin
  2
*D5
 70
     1
 10
0.0
 20
0.0
 30
0.0
  3
*D5
  1

  0
LINE
  5
16BB3
330
164F7
100
AcDbEntity
  8
寸法
 62
     0
 48
50.0
370
    -2
100
AcDbLine
 10
4835.485105577711
 20
2279.708667612139
 30
0.0
 11
4645.985102331073
 21
2279.708667612139
 31
0.0
  0
LINE
  5
16BB4
330
164F7
100
AcDbEntity
  8
寸法
 62
     0
 48
50.0
370
    -2
100
AcDbLine
 10
4810.485105577708
 20
2479.70866761214
 30
0.0
 11
4645.985102331073
 21
2479.70866761214
 31
0.0
  0
LINE
  5
16BB5
330
164F7
100
AcDbEntity
  8
寸法
 62
     0
 48
50.0
370
    -2
100
AcDbLine
 10
4705.985102331074
 20
2279.708667612139
 30
0.0
 11
4705.985102331074
 21
2479.70866761214
 31
0.0
  0
INSERT
  5
16BB6
330
164F7
100
AcDbEntity
  8
寸法
 62
     0
 48
50.0
370
    -2
100
AcDbBlockReference
  2
_DOTSMALL
 10
4705.985102331074
 20
2279.708667612139
 30
0.0
 41
100.0
 42
100.0
 43
100.0
 50
270.0
  0
INSERT
  5
16BB7
330
164F7
100
AcDbEntity
  8
寸法
 62
     0
 48
50.0
370
    -2
100
AcDbBlockReference
  2
_DOTSMALL
 10
4705.985102331074
 20
2479.70866761214
 30
0.0
 41
100.0
 42
100.0
 43
100.0
 50
90.0
  0
MTEXT
  5
16BB8
330
164F7
100
AcDbEntity
  8
寸法
 62
     7
 48
50.0
100
AcDbMText
 10
4605.973291307451
 20
2379.70866761214
 30
0.0
 40
120.0
 41
0.0
 71
     5
 72
     1
  1
\A1;200
  7
STYLE1
 11
0.0000000000000001
 21
1.0
 31
0.0
 73
     1
 44
1.0
1001
ACAD
1000
MTEXTBEGIN
1070
    73
1070
     1
1070
    44
1040
1.0
1070
    74
1070
     0
1000
MTEXTEND
  0
POINT
  5
16BB9
330
164F7
100
AcDbEntity
  8
DEFPOINTS
 62
     0
 48
50.0
100
AcDbPoint
 10
4855.48510557771
 20
2279.708667612139
 30
0.0
  0
POINT
  5
16BBA
330
164F7
100
AcDbEntity
  8
DEFPOINTS
 62
     0
 48
50.0
100
AcDbPoint
 10
4830.485105577707
 20
2479.70866761214
 30
0.0
  0
POINT
  5
16BBB
330
164F7
100
AcDbEntity
  8
DEFPOINTS
 62
     0
 48
50.0
100
AcDbPoint
 10
4705.985102331074
 20
2479.70866761214
 30
0.0
  0
ENDBLK
  5
16502
330
164F7
100
AcDbEntity
  8
0
 48
50.0
100
AcDbBlockEnd
  0
BLOCK
  5
1650E
330
16503
100
AcDbEntity
  8
0
 48
50.0
100
AcDbBlockBegin
  2
*D6
 70
     1
 10
0.0
 20
0.0
 30
0.0
  3
*D6
  1

  0
LINE
  5
16BA9
330
16503
100
AcDbEntity
  8
寸法
 62
     0
 48
50.0
370
    -2
100
AcDbLine
 10
4867.389391868809
 20
4954.006374681802
 30
0.0
 11
4251.454952763544
 21
4971.720524956131
 31
0.0
  0
LINE
  5
16BAA
330
16503
100
AcDbEntity
  8
寸法
 62
     0
 48
50.0
370
    -2
100
AcDbLine
 10
4863.335936312182
 20
4813.064650916089
 30
0.0
 11
4247.401497206918
 21
4830.778801190419
 31
0.0
  0
LINE
  5
16BAB
330
16503
100
AcDbEntity
  8
寸法
 62
     0
 48
50.0
370
    -2
100
AcDbLine
 10
4307.376698809349
 20
4829.053926485471
 30
0.0
 11
4311.430154365975
 21
4969.995650251184
 31
0.0
  0
LINE
  5
16BAC
330
16503
100
AcDbEntity
  8
寸法
 62
     0
 48
50.0
370
    -2
100
AcDbLine
 10
4311.430154365975
 20
4969.995650251184
 30
0.0
 11
4321.77940259566
 21
5329.846859865769
 31
0.0
  0
INSERT
  5
16BAD
330
16503
100
AcDbEntity
  8
寸法
 62
     0
 48
50.0
370
    -2
100
AcDbBlockReference
  2
_DOTSMALL
 10
4307.376698809349
 20
4829.053926485471
 30
0.0
 41
100.0
 42
100.0
 43
100.0
 50
268.3526390256378
  0
INSERT
  5
16BAE
330
16503
100
AcDbEntity
  8
寸法
 62
     0
 48
50.0
370
    -2
100
AcDbBlockReference
  2
_DOTSMALL
 10
4311.430154365975
 20
4969.995650251184
 30
0.0
 41
100.0
 42
100.0
 43
100.0
 50
88.35263902563776
  0
MTEXT
  5
16BAF
330
16503
100
AcDbEntity
  8
寸法
 62
     7
 48
50.0
100
AcDbMText
 10
4218.083504730888
 20
5202.775380902082
 30
0.0
 40
120.0
 41
0.0
 71
     5
 72
     1
  1
\A1;141
  7
STYLE1
 11
0.0287479117491237
 21
0.9995866933738488
 31
0.0
 73
     1
 44
1.0
1001
ACAD
1000
MTEXTBEGIN
1070
    73
1070
     1
1070
    44
1040
1.0
1070
    74
1070
     0
1000
MTEXTEND
  0
POINT
  5
16BB0
330
16503
100
AcDbEntity
  8
DEFPOINTS
 62
     0
 48
50.0
100
AcDbPoint
 10
4887.381125736286
 20
4953.43141644682
 30
0.0
  0
POINT
  5
16BB1
330
16503
100
AcDbEntity
  8
DEFPOINTS
 62
     0
 48
50.0
100
AcDbPoint
 10
4883.32767017966
 20
4812.489692681107
 30
0.0
  0
POINT
  5
16BB2
330
16503
100
AcDbEntity
  8
DEFPOINTS
 62
     0
 48
50.0
100
AcDbPoint
 10
4307.376698809349
 20
4829.053926485471
 30
0.0
  0
ENDBLK
  5
1650F
330
16503
100
AcDbEntity
  8
0
 48
50.0
100
AcDbBlockEnd
  0
BLOCK
  5
1651B
330
16510
100
AcDbEntity
  8
0
 48
50.0
100
AcDbBlockBegin
  2
*D7
 70
     1
 10
0.0
 20
0.0
 30
0.0
  3
*D7
  1

  0
LINE
  5
16B9F
330
16510
100
AcDbEntity
  8
寸法
 62
     0
 48
50.0
370
    -2
100
AcDbLine
 10
6717.985105577708
 20
4921.519347223793
 30
0.0
 11
6717.985105577708
 21
5413.366121191444
 31
0.0
  0
LINE
  5
16BA0
330
16510
100
AcDbEntity
  8
寸法
 62
     0
 48
50.0
370
    -2
100
AcDbLine
 10
6797.985105577708
 20
4919.708667612141
 30
0.0
 11
6797.985105577708
 21
5413.366121191444
 31
0.0
  0
LINE
  5
16BA1
330
16510
100
AcDbEntity
  8
寸法
 62
     0
 48
50.0
370
    -2
100
AcDbLine
 10
6717.985105577708
 20
5353.366121191444
 30
0.0
 11
6797.985105577708
 21
5353.366121191444
 31
0.0
  0
LINE
  5
16BA2
330
16510
100
AcDbEntity
  8
寸法
 62
     0
 48
50.0
370
    -2
100
AcDbLine
 10
6797.985105577708
 20
5353.366121191444
 30
0.0
 11
7110.079593766686
 21
5353.366121191444
 31
0.0
  0
INSERT
  5
16BA3
330
16510
100
AcDbEntity
  8
寸法
 62
     0
 48
50.0
370
    -2
100
AcDbBlockReference
  2
_DOTSMALL
 10
6717.985105577708
 20
5353.366121191444
 30
0.0
 41
100.0
 42
100.0
 43
100.0
 50
180.0
  0
INSERT
  5
16BA4
330
16510
100
AcDbEntity
  8
寸法
 62
     0
 48
50.0
370
    -2
100
AcDbBlockReference
  2
_DOTSMALL
 10
6797.985105577708
 20
5353.366121191444
 30
0.0
 41
100.0
 42
100.0
 43
100.0
  0
MTEXT
  5
16BA5
330
16510
100
AcDbEntity
  8
寸法
 62
     7
 48
50.0
100
AcDbMText
 10
7004.032349672198
 20
5453.366121191444
 30
0.0
 40
120.0
 41
0.0
 71
     5
 72
     1
  1
\A1;80
  7
STYLE1
 73
     1
 44
1.0
1001
ACAD
1000
MTEXTBEGIN
1070
    73
1070
     1
1070
    44
1040
1.0
1070
    74
1070
     0
1000
MTEXTEND
  0
POINT
  5
16BA6
330
16510
100
AcDbEntity
  8
DEFPOINTS
 62
     0
 48
50.0
100
AcDbPoint
 10
6717.985105577708
 20
4901.519347223793
 30
0.0
  0
POINT
  5
16BA7
330
16510
100
AcDbEntity
  8
DEFPOINTS
 62
     0
 48
50.0
100
AcDbPoint
 10
6797.985105577708
 20
4899.708667612141
 30
0.0
  0
POINT
  5
16BA8
330
16510
100
AcDbEntity
  8
DEFPOINTS
 62
     0
 48
50.0
100
AcDbPoint
 10
6797.985105577708
 20
5353.366121191444
 30
0.0
  0
ENDBLK
  5
1651C
330
16510
100
AcDbEntity
  8
0
 48
50.0
100
AcDbBlockEnd
  0
BLOCK
  5
16527
330
1651D
100
AcDbEntity
  8
0
 48
50.0
100
AcDbBlockBegin
  2
*D8
 70
     1
 10
0.0
 20
0.0
 30
0.0
  3
*D8
  1

  0
LINE
  5
16B96
330
1651D
100
AcDbEntity
  8
寸法
 62
     0
 48
50.0
370
    -2
100
AcDbLine
 10
6797.985105577708
 20
4919.708667612141
 30
0.0
 11
6797.985105577708
 21
5630.327936570058
 31
0.0
  0
LINE
  5
16B97
330
1651D
100
AcDbEntity
  8
寸法
 62
     0
 48
50.0
370
    -2
100
AcDbLine
 10
4867.985105577707
 20
4974.708667612144
 30
0.0
 11
4867.985105577707
 21
5630.327936570058
 31
0.0
  0
LINE
  5
16B98
330
1651D
100
AcDbEntity
  8
寸法
 62
     0
 48
50.0
370
    -2
100
AcDbLine
 10
6797.985105577708
 20
5570.327936570058
 30
0.0
 11
4867.985105577707
 21
5570.327936570058
 31
0.0
  0
INSERT
  5
16B99
330
1651D
100
AcDbEntity
  8
寸法
 62
     0
 48
50.0
370
    -2
100
AcDbBlockReference
  2
_DOTSMALL
 10
6797.985105577708
 20
5570.327936570058
 30
0.0
 41
100.0
 42
100.0
 43
100.0
  0
INSERT
  5
16B9A
330
1651D
100
AcDbEntity
  8
寸法
 62
     0
 48
50.0
370
    -2
100
AcDbBlockReference
  2
_DOTSMALL
 10
4867.985105577707
 20
5570.327936570058
 30
0.0
 41
100.0
 42
100.0
 43
100.0
 50
180.0
  0
MTEXT
  5
16B9B
330
1651D
100
AcDbEntity
  8
寸法
 62
     7
 48
50.0
100
AcDbMText
 10
5773.790856828677
 20
5670.327936570058
 30
0.0
 40
120.0
 41
0.0
 71
     5
 72
     1
  1
\A1;1930
  7
STYLE1
 73
     1
 44
1.0
1001
ACAD
1000
MTEXTBEGIN
1070
    73
1070
     1
1070
    44
1040
1.0
1070
    74
1070
     0
1000
MTEXTEND
  0
POINT
  5
16B9C
330
1651D
100
AcDbEntity
  8
DEFPOINTS
 62
     0
 48
50.0
100
AcDbPoint
 10
6797.985105577708
 20
4899.708667612141
 30
0.0
  0
POINT
  5
16B9D
330
1651D
100
AcDbEntity
  8
DEFPOINTS
 62
     0
 48
50.0
100
AcDbPoint
 10
4867.985105577707
 20
4954.708667612145
 30
0.0
  0
POINT
  5
16B9E
330
1651D
100
AcDbEntity
  8
DEFPOINTS
 62
     0
 48
50.0
100
AcDbPoint
 10
4867.985105577707
 20
5570.327936570058
 30
0.0
  0
ENDBLK
  5
16528
330
1651D
100
AcDbEntity
  8
0
 48
50.0
100
AcDbBlockEnd
  0
BLOCK
  5
16535
330
16529
100
AcDbEntity
  8
0
 48
50.0
100
AcDbBlockBegin
  2
*D9
 70
     1
 10
0.0
 20
0.0
 30
0.0
  3
*D9
  1

  0
LINE
  5
16B8B
330
16529
100
AcDbEntity
  8
寸法
 62
     0
 48
50.0
370
    -2
100
AcDbLine
 10
4927.985105577707
 20
4970.710285735116
 30
0.0
 11
4927.985105577707
 21
5413.366121191444
 31
0.0
  0
LINE
  5
16B8C
330
16529
100
AcDbEntity
  8
寸法
 62
     0
 48
50.0
370
    -2
100
AcDbLine
 10
4867.985105577707
 20
4974.708667612144
 30
0.0
 11
4867.985105577707
 21
5413.366121191444
 31
0.0
  0
LINE
  5
16B8D
330
16529
100
AcDbEntity
  8
寸法
 62
     0
 48
50.0
370
    -2
100
AcDbLine
 10
4927.985105577707
 20
5353.366121191444
 30
0.0
 11
5027.985105577707
 21
5353.366121191444
 31
0.0
  0
LINE
  5
16B8E
330
16529
100
AcDbEntity
  8
寸法
 62
     0
 48
50.0
370
    -2
100
AcDbLine
 10
4867.985105577707
 20
5353.366121191444
 30
0.0
 11
4448.709515026526
 21
5353.366121191444
 31
0.0
  0
LINE
  5
16B8F
330
16529
100
AcDbEntity
  8
寸法
 62
     0
 48
50.0
370
    -2
100
AcDbLine
 10
4927.985105577707
 20
5353.366121191444
 30
0.0
 11
4867.985105577707
 21
5353.366121191444
 31
0.0
  0
INSERT
  5
16B90
330
16529
100
AcDbEntity
  8
寸法
 62
     0
 48
50.0
370
    -2
100
AcDbBlockReference
  2
_DOTSMALL
 10
4927.985105577707
 20
5353.366121191444
 30
0.0
 41
100.0
 42
100.0
 43
100.0
 50
180.0
  0
INSERT
  5
16B91
330
16529
100
AcDbEntity
  8
寸法
 62
     0
 48
50.0
370
    -2
100
AcDbBlockReference
  2
_DOTSMALL
 10
4867.985105577707
 20
5353.366121191444
 30
0.0
 41
100.0
 42
100.0
 43
100.0
  0
MTEXT
  5
16B92
330
16529
100
AcDbEntity
  8
寸法
 62
     7
 48
50.0
100
AcDbMText
 10
4558.347310302116
 20
5453.366121191444
 30
0.0
 40
120.0
 41
0.0
 71
     5
 72
     1
  1
\A1;60
  7
STYLE1
 73
     1
 44
1.0
1001
ACAD
1000
MTEXTBEGIN
1070
    73
1070
     1
1070
    44
1040
1.0
1070
    74
1070
     0
1000
MTEXTEND
  0
POINT
  5
16B93
330
16529
100
AcDbEntity
  8
DEFPOINTS
 62
     0
 48
50.0
100
AcDbPoint
 10
4927.985105577707
 20
4950.710285735116
 30
0.0
  0
POINT
  5
16B94
330
16529
100
AcDbEntity
  8
DEFPOINTS
 62
     0
 48
50.0
100
AcDbPoint
 10
4867.985105577707
 20
4954.708667612145
 30
0.0
  0
POINT
  5
16B95
330
16529
100
AcDbEntity
  8
DEFPOINTS
 62
     0
 48
50.0
100
AcDbPoint
 10
4867.985105577707
 20
5353.366121191444
 30
0.0
  0
ENDBLK
  5
16536
330
16529
100
AcDbEntity
  8
0
 48
50.0
100
AcDbBlockEnd
  0
BLOCK
  5
16541
330
16537
100
AcDbEntity
  8
0
 48
50.0
100
AcDbBlockBegin
  2
*D10
 70
     1
 10
0.0
 20
0.0
 30
0.0
  3
*D10
  1

  0
LINE
  5
16B82
330
16537
100
AcDbEntity
  8
寸法
 62
     0
 48
50.0
370
    -2
100
AcDbLine
 10
6717.985105577708
 20
4921.519347223793
 30
0.0
 11
6717.985105577708
 21
5413.801836951613
 31
0.0
  0
LINE
  5
16B83
330
16537
100
AcDbEntity
  8
寸法
 62
     0
 48
50.0
370
    -2
100
AcDbLine
 10
4927.985105577707
 20
4970.710285735116
 30
0.0
 11
4927.985105577707
 21
5413.801836951613
 31
0.0
  0
LINE
  5
16B84
330
16537
100
AcDbEntity
  8
寸法
 62
     0
 48
50.0
370
    -2
100
AcDbLine
 10
6717.985105577708
 20
5353.801836951613
 30
0.0
 11
4927.985105577707
 21
5353.801836951613
 31
0.0
  0
INSERT
  5
16B85
330
16537
100
AcDbEntity
  8
寸法
 62
     0
 48
50.0
370
    -2
100
AcDbBlockReference
  2
_DOTSMALL
 10
6717.985105577708
 20
5353.801836951613
 30
0.0
 41
100.0
 42
100.0
 43
100.0
  0
INSERT
  5
16B86
330
16537
100
AcDbEntity
  8
寸法
 62
     0
 48
50.0
370
    -2
100
AcDbBlockReference
  2
_DOTSMALL
 10
4927.985105577707
 20
5353.801836951613
 30
0.0
 41
100.0
 42
100.0
 43
100.0
 50
180.0
  0
MTEXT
  5
16B87
330
16537
100
AcDbEntity
  8
寸法
 62
     7
 48
50.0
100
AcDbMText
 10
5837.580754254187
 20
5453.801836951613
 30
0.0
 40
120.0
 41
0.0
 71
     5
 72
     1
  1
\A1;柱外寸法1790
  7
STYLE1
 73
     1
 44
1.0
1001
ACAD
1000
MTEXTBEGIN
1070
    73
1070
     1
1070
    44
1040
1.0
1070
    74
1070
     0
1000
MTEXTEND
  0
POINT
  5
16B88
330
16537
100
AcDbEntity
  8
DEFPOINTS
 62
     0
 48
50.0
100
AcDbPoint
 10
6717.985105577708
 20
4901.519347223793
 30
0.0
  0
POINT
  5
16B89
330
16537
100
AcDbEntity
  8
DEFPOINTS
 62
     0
 48
50.0
100
AcDbPoint
 10
4927.985105577707
 20
4950.710285735116
 30
0.0
  0
POINT
  5
16B8A
330
16537
100
AcDbEntity
  8
DEFPOINTS
 62
     0
 48
50.0
100
AcDbPoint
 10
4927.985105577707
 20
5353.801836951613
 30
0.0
  0
ENDBLK
  5
16542
330
16537
100
AcDbEntity
  8
0
 48
50.0
100
AcDbBlockEnd
  0
BLOCK
  5
1654D
330
16543
100
AcDbEntity
  8
0
 48
50.0
100
AcDbBlockBegin
  2
*D11
 70
     1
 10
0.0
 20
0.0
 30
0.0
  3
*D11
  1

  0
LINE
  5
16B79
330
16543
100
AcDbEntity
  8
寸法
 62
     0
 48
50.0
370
    -2
100
AcDbLine
 10
6814.985105577711
 20
2579.70866761214
 30
0.0
 11
7390.155201340135
 21
2579.70866761214
 31
0.0
  0
LINE
  5
16B7A
330
16543
100
AcDbEntity
  8
寸法
 62
     0
 48
50.0
370
    -2
100
AcDbLine
 10
6817.985105577708
 20
4899.708667612141
 30
0.0
 11
7390.155201340135
 21
4899.708667612141
 31
0.0
  0
LINE
  5
16B7B
330
16543
100
AcDbEntity
  8
寸法
 62
     0
 48
50.0
370
    -2
100
AcDbLine
 10
7330.155201340135
 20
2579.70866761214
 30
0.0
 11
7330.155201340135
 21
4899.708667612141
 31
0.0
  0
INSERT
  5
16B7C
330
16543
100
AcDbEntity
  8
寸法
 62
     0
 48
50.0
370
    -2
100
AcDbBlockReference
  2
_DOTSMALL
 10
7330.155201340135
 20
2579.70866761214
 30
0.0
 41
100.0
 42
100.0
 43
100.0
 50
270.0
  0
INSERT
  5
16B7D
330
16543
100
AcDbEntity
  8
寸法
 62
     0
 48
50.0
370
    -2
100
AcDbBlockReference
  2
_DOTSMALL
 10
7330.155201340135
 20
4899.708667612141
 30
0.0
 41
100.0
 42
100.0
 43
100.0
 50
90.0
  0
MTEXT
  5
16B7E
330
16543
100
AcDbEntity
  8
寸法
 62
     7
 48
50.0
100
AcDbMText
 10
7230.143390316513
 20
3861.964995041828
 30
0.0
 40
120.0
 41
0.0
 71
     5
 72
     1
  1
\A1;2320
  7
STYLE1
 11
0.0000000000000001
 21
1.0
 31
0.0
 73
     1
 44
1.0
1001
ACAD
1000
MTEXTBEGIN
1070
    73
1070
     1
1070
    44
1040
1.0
1070
    74
1070
     0
1000
MTEXTEND
  0
POINT
  5
16B7F
330
16543
100
AcDbEntity
  8
DEFPOINTS
 62
     0
 48
50.0
100
AcDbPoint
 10
6794.98510557771
 20
2579.70866761214
 30
0.0
  0
POINT
  5
16B80
330
16543
100
AcDbEntity
  8
DEFPOINTS
 62
     0
 48
50.0
100
AcDbPoint
 10
6797.985105577708
 20
4899.708667612141
 30
0.0
  0
POINT
  5
16B81
330
16543
100
AcDbEntity
  8
DEFPOINTS
 62
     0
 48
50.0
100
AcDbPoint
 10
7330.155201340135
 20
4899.708667612141
 30
0.0
  0
ENDBLK
  5
1654E
330
16543
100
AcDbEntity
  8
0
 48
50.0
100
AcDbBlockEnd
  0
BLOCK
  5
1655B
330
1654F
100
AcDbEntity
  8
0
 48
50.0
100
AcDbBlockBegin
  2
*D12
 70
     1
 10
0.0
 20
0.0
 30
0.0
  3
*D12
  1

  0
LINE
  5
16B6E
330
1654F
100
AcDbEntity
  8
寸法
 62
     0
 48
50.0
370
    -2
100
AcDbLine
 10
4907.985105577707
 20
2629.70866761214
 30
0.0
 11
4244.332396419411
 21
2629.70866761214
 31
0.0
  0
LINE
  5
16B6F
330
1654F
100
AcDbEntity
  8
寸法
 62
     0
 48
50.0
370
    -2
100
AcDbLine
 10
4852.985105577707
 20
2579.70866761214
 30
0.0
 11
4244.332396419411
 21
2579.70866761214
 31
0.0
  0
LINE
  5
16B70
330
1654F
100
AcDbEntity
  8
寸法
 62
     0
 48
50.0
370
    -2
100
AcDbLine
 10
4304.33239641941
 20
2629.70866761214
 30
0.0
 11
4304.33239641941
 21
2729.70866761214
 31
0.0
  0
LINE
  5
16B71
330
1654F
100
AcDbEntity
  8
寸法
 62
     0
 48
50.0
370
    -2
100
AcDbLine
 10
4304.33239641941
 20
2579.70866761214
 30
0.0
 11
4304.33239641941
 21
2167.61417942316
 31
0.0
  0
LINE
  5
16B72
330
1654F
100
AcDbEntity
  8
寸法
 62
     0
 48
50.0
370
    -2
100
AcDbLine
 10
4304.33239641941
 20
2629.70866761214
 30
0.0
 11
4304.33239641941
 21
2579.70866761214
 31
0.0
  0
INSERT
  5
16B73
330
1654F
100
AcDbEntity
  8
寸法
 62
     0
 48
50.0
370
    -2
100
AcDbBlockReference
  2
_DOTSMALL
 10
4304.33239641941
 20
2629.70866761214
 30
0.0
 41
100.0
 42
100.0
 43
100.0
 50
270.0
  0
INSERT
  5
16B74
330
1654F
100
AcDbEntity
  8
寸法
 62
     0
 48
50.0
370
    -2
100
AcDbBlockReference
  2
_DOTSMALL
 10
4304.33239641941
 20
2579.70866761214
 30
0.0
 41
100.0
 42
100.0
 43
100.0
 50
90.0
  0
MTEXT
  5
16B75
330
1654F
100
AcDbEntity
  8
寸法
 62
     7
 48
50.0
100
AcDbMText
 10
4204.332396419409
 20
2273.661423517649
 30
0.0
 40
120.0
 41
0.0
 71
     5
 72
     1
  1
\A1;50
  7
STYLE1
 11
0.0000000000000001
 21
1.0
 31
0.0
 73
     1
 44
1.0
1001
ACAD
1000
MTEXTBEGIN
1070
    73
1070
     1
1070
    44
1040
1.0
1070
    74
1070
     0
1000
MTEXTEND
  0
POINT
  5
16B76
330
1654F
100
AcDbEntity
  8
DEFPOINTS
 62
     0
 48
50.0
100
AcDbPoint
 10
4927.985105577707
 20
2629.70866761214
 30
0.0
  0
POINT
  5
16B77
330
1654F
100
AcDbEntity
  8
DEFPOINTS
 62
     0
 48
50.0
100
AcDbPoint
 10
4872.985105577708
 20
2579.70866761214
 30
0.0
  0
POINT
  5
16B78
330
1654F
100
AcDbEntity
  8
DEFPOINTS
 62
     0
 48
50.0
100
AcDbPoint
 10
4304.33239641941
 20
2579.70866761214
 30
0.0
  0
ENDBLK
  5
1655C
330
1654F
100
AcDbEntity
  8
0
 48
50.0
100
AcDbBlockEnd
  0
BLOCK
  5
16568
330
1655D
100
AcDbEntity
  8
0
 48
50.0
100
AcDbBlockBegin
  2
*D13
 70
     1
 10
0.0
 20
0.0
 30
0.0
  3
*D13
  1

  0
LINE
  5
16B64
330
1655D
100
AcDbEntity
  8
寸法
 62
     0
 48
50.0
370
    -2
100
AcDbLine
 10
4852.985105577707
 20
2579.70866761214
 30
0.0
 11
3959.345723648349
 21
2579.70866761214
 31
0.0
  0
LINE
  5
16B65
330
1655D
100
AcDbEntity
  8
寸法
 62
     0
 48
50.0
370
    -2
100
AcDbLine
 10
4284.33239641941
 20
2479.70866761214
 30
0.0
 11
3959.345723648349
 21
2479.70866761214
 31
0.0
  0
LINE
  5
16B66
330
1655D
100
AcDbEntity
  8
寸法
 62
     0
 48
50.0
370
    -2
100
AcDbLine
 10
4019.345723648348
 20
2579.70866761214
 30
0.0
 11
4019.345723648348
 21
2479.70866761214
 31
0.0
  0
LINE
  5
16B67
330
1655D
100
AcDbEntity
  8
寸法
 62
     0
 48
50.0
370
    -2
100
AcDbLine
 10
4019.345723648348
 20
2479.70866761214
 30
0.0
 11
4019.345723648348
 21
2107.61417942316
 31
0.0
  0
INSERT
  5
16B68
330
1655D
100
AcDbEntity
  8
寸法
 62
     0
 48
50.0
370
    -2
100
AcDbBlockReference
  2
_DOTSMALL
 10
4019.345723648348
 20
2579.70866761214
 30
0.0
 41
100.0
 42
100.0
 43
100.0
 50
90.0
  0
INSERT
  5
16B69
330
1655D
100
AcDbEntity
  8
寸法
 62
     0
 48
50.0
370
    -2
100
AcDbBlockReference
  2
_DOTSMALL
 10
4019.345723648348
 20
2479.70866761214
 30
0.0
 41
100.0
 42
100.0
 43
100.0
 50
270.0
  0
MTEXT
  5
16B6A
330
1655D
100
AcDbEntity
  8
寸法
 62
     7
 48
50.0
100
AcDbMText
 10
3919.345723648348
 20
2243.661423517648
 30
0.0
 40
120.0
 41
0.0
 71
     5
 72
     1
  1
\A1;100
  7
STYLE1
 11
0.0000000000000001
 21
1.0
 31
0.0
 73
     1
 44
1.0
1001
ACAD
1000
MTEXTBEGIN
1070
    73
1070
     1
1070
    44
1040
1.0
1070
    74
1070
     0
1000
MTEXTEND
  0
POINT
  5
16B6B
330
1655D
100
AcDbEntity
  8
DEFPOINTS
 62
     0
 48
50.0
100
AcDbPoint
 10
4872.985105577708
 20
2579.70866761214
 30
0.0
  0
POINT
  5
16B6C
330
1655D
100
AcDbEntity
  8
DEFPOINTS
 62
     0
 48
50.0
100
AcDbPoint
 10
4304.332396419409
 20
2479.70866761214
 30
0.0
  0
POINT
  5
16B6D
330
1655D
100
AcDbEntity
  8
DEFPOINTS
 62
     0
 48
50.0
100
AcDbPoint
 10
4019.345723648348
 20
2479.70866761214
 30
0.0
  0
ENDBLK
  5
16569
330
1655D
100
AcDbEntity
  8
0
 48
50.0
100
AcDbBlockEnd
  0
BLOCK
  5
16574
330
1656A
100
AcDbEntity
  8
0
 48
50.0
100
AcDbBlockBegin
  2
*D14
 70
     1
 10
0.0
 20
0.0
 30
0.0
  3
*D14
  1

  0
LINE
  5
16BF3
330
1656A
100
AcDbEntity
  8
寸法
 62
     0
 48
50.0
370
    -2
100
AcDbLine
 10
4907.985105577707
 20
2579.70866761214
 30
0.0
 11
3959.345723648349
 21
2579.70866761214
 31
0.0
  0
LINE
  5
16BF4
330
1656A
100
AcDbEntity
  8
寸法
 62
     0
 48
50.0
370
    -2
100
AcDbLine
 10
4847.985105577707
 20
4954.708667612145
 30
0.0
 11
3959.34572364835
 21
4954.708667612145
 31
0.0
  0
LINE
  5
16BF5
330
1656A
100
AcDbEntity
  8
寸法
 62
     0
 48
50.0
370
    -2
100
AcDbLine
 10
4019.345723648348
 20
2579.70866761214
 30
0.0
 11
4019.345723648348
 21
4954.708667612145
 31
0.0
  0
INSERT
  5
16BF6
330
1656A
100
AcDbEntity
  8
寸法
 62
     0
 48
50.0
370
    -2
100
AcDbBlockReference
  2
_DOTSMALL
 10
4019.345723648348
 20
2579.70866761214
 30
0.0
 41
100.0
 42
100.0
 43
100.0
 50
270.0
  0
INSERT
  5
16BF7
330
1656A
100
AcDbEntity
  8
寸法
 62
     0
 48
50.0
370
    -2
100
AcDbBlockReference
  2
_DOTSMALL
 10
4019.345723648348
 20
4954.708667612145
 30
0.0
 41
100.0
 42
100.0
 43
100.0
 50
90.0
  0
MTEXT
  5
16BF8
330
1656A
100
AcDbEntity
  8
寸法
 62
     7
 48
50.0
100
AcDbMText
 10
3919.333912624726
 20
3674.70866761214
 30
0.0
 40
120.0
 41
0.0
 71
     5
 72
     1
  1
\A1;2375
  7
STYLE1
 11
0.0000000000000001
 21
1.0
 31
0.0
 73
     1
 44
1.0
1001
ACAD
1000
MTEXTBEGIN
1070
    73
1070
     1
1070
    44
1040
1.0
1070
    74
1070
     0
1000
MTEXTEND
  0
POINT
  5
16BF9
330
1656A
100
AcDbEntity
  8
DEFPOINTS
 62
     0
 48
50.0
100
AcDbPoint
 10
4927.985105577707
 20
2579.70866761214
 30
0.0
  0
POINT
  5
16BFA
330
1656A
100
AcDbEntity
  8
DEFPOINTS
 62
     0
 48
50.0
100
AcDbPoint
 10
4867.985105577707
 20
4954.708667612145
 30
0.0
  0
POINT
  5
16BFB
330
1656A
100
AcDbEntity
  8
DEFPOINTS
 62
     0
 48
50.0
100
AcDbPoint
 10
4019.345723648348
 20
4954.708667612145
 30
0.0
  0
ENDBLK
  5
16575
330
1656A
100
AcDbEntity
  8
0
 48
50.0
100
AcDbBlockEnd
  0
BLOCK
  5
16580
330
16576
100
AcDbEntity
  8
0
 48
50.0
100
AcDbBlockBegin
  2
*D15
 70
     1
 10
0.0
 20
0.0
 30
0.0
  3
*D15
  1

  0
LINE
  5
16BEA
330
16576
100
AcDbEntity
  8
寸法
 62
     0
 48
50.0
370
    -2
100
AcDbLine
 10
4907.985105577707
 20
4719.70866761214
 30
0.0
 11
4244.332396419411
 21
4719.70866761214
 31
0.0
  0
LINE
  5
16BEB
330
16576
100
AcDbEntity
  8
寸法
 62
     0
 48
50.0
370
    -2
100
AcDbLine
 10
4907.985105577707
 20
2629.70866761214
 30
0.0
 11
4244.332396419411
 21
2629.70866761214
 31
0.0
  0
LINE
  5
16BEC
330
16576
100
AcDbEntity
  8
寸法
 62
     0
 48
50.0
370
    -2
100
AcDbLine
 10
4304.332396419411
 20
4719.70866761214
 30
0.0
 11
4304.332396419411
 21
2629.70866761214
 31
0.0
  0
INSERT
  5
16BED
330
16576
100
AcDbEntity
  8
寸法
 62
     0
 48
50.0
370
    -2
100
AcDbBlockReference
  2
_DOTSMALL
 10
4304.332396419411
 20
4719.70866761214
 30
0.0
 41
100.0
 42
100.0
 43
100.0
 50
90.0
  0
INSERT
  5
16BEE
330
16576
100
AcDbEntity
  8
寸法
 62
     0
 48
50.0
370
    -2
100
AcDbBlockReference
  2
_DOTSMALL
 10
4304.332396419411
 20
2629.70866761214
 30
0.0
 41
100.0
 42
100.0
 43
100.0
 50
270.0
  0
MTEXT
  5
16BEF
330
16576
100
AcDbEntity
  8
寸法
 62
     7
 48
50.0
100
AcDbMText
 10
4204.320585395788
 20
3674.70866761214
 30
0.0
 40
120.0
 41
0.0
 71
     5
 72
     1
  1
\A1;2090
  7
STYLE1
 11
0.0000000000000001
 21
1.0
 31
0.0
 73
     1
 44
1.0
1001
ACAD
1000
MTEXTBEGIN
1070
    73
1070
     1
1070
    44
1040
1.0
1070
    74
1070
     0
1000
MTEXTEND
  0
POINT
  5
16BF0
330
16576
100
AcDbEntity
  8
DEFPOINTS
 62
     0
 48
50.0
100
AcDbPoint
 10
4927.985105577707
 20
4719.70866761214
 30
0.0
  0
POINT
  5
16BF1
330
16576
100
AcDbEntity
  8
DEFPOINTS
 62
     0
 48
50.0
100
AcDbPoint
 10
4927.985105577707
 20
2629.70866761214
 30
0.0
  0
POINT
  5
16BF2
330
16576
100
AcDbEntity
  8
DEFPOINTS
 62
     0
 48
50.0
100
AcDbPoint
 10
4304.332396419411
 20
2629.70866761214
 30
0.0
  0
ENDBLK
  5
16581
330
16576
100
AcDbEntity
  8
0
 48
50.0
100
AcDbBlockEnd
  0
BLOCK
  5
1658C
330
16582
100
AcDbEntity
  8
0
 48
50.0
100
AcDbBlockBegin
  2
*D16
 70
     1
 10
0.0
 20
0.0
 30
0.0
  3
*D16
  1

  0
LINE
  5
16B49
330
16582
100
AcDbEntity
  8
寸法
 62
     0
 48
50.0
370
    -2
100
AcDbLine
 10
8944.445451675248
 20
2259.70866761214
 30
0.0
 11
8944.445451675248
 21
1933.661338311763
 31
0.0
  0
LINE
  5
16B4A
330
16582
100
AcDbEntity
  8
寸法
 62
     0
 48
50.0
370
    -2
100
AcDbLine
 10
8744.445451675245
 20
2259.70866761214
 30
0.0
 11
8744.445451675245
 21
1933.661338311763
 31
0.0
  0
LINE
  5
16B4B
330
16582
100
AcDbEntity
  8
寸法
 62
     0
 48
50.0
370
    -2
100
AcDbLine
 10
8944.445451675248
 20
1993.661338311763
 30
0.0
 11
8744.445451675245
 21
1993.661338311763
 31
0.0
  0
INSERT
  5
16B4C
330
16582
100
AcDbEntity
  8
寸法
 62
     0
 48
50.0
370
    -2
100
AcDbBlockReference
  2
_DOTSMALL
 10
8944.445451675248
 20
1993.661338311763
 30
0.0
 41
100.0
 42
100.0
 43
100.0
  0
INSERT
  5
16B4D
330
16582
100
AcDbEntity
  8
寸法
 62
     0
 48
50.0
370
    -2
100
AcDbBlockReference
  2
_DOTSMALL
 10
8744.445451675245
 20
1993.661338311763
 30
0.0
 41
100.0
 42
100.0
 43
100.0
 50
180.0
  0
MTEXT
  5
16B4E
330
16582
100
AcDbEntity
  8
寸法
 62
     7
 48
50.0
100
AcDbMText
 10
8844.445451675245
 20
2093.673149335385
 30
0.0
 40
120.0
 41
0.0
 71
     5
 72
     1
  1
\A1;200
  7
STYLE1
 73
     1
 44
1.0
1001
ACAD
1000
MTEXTBEGIN
1070
    73
1070
     1
1070
    44
1040
1.0
1070
    74
1070
     0
1000
MTEXTEND
  0
POINT
  5
16B4F
330
16582
100
AcDbEntity
  8
DEFPOINTS
 62
     0
 48
50.0
100
AcDbPoint
 10
8944.445451675248
 20
2279.70866761214
 30
0.0
  0
POINT
  5
16B50
330
16582
100
AcDbEntity
  8
DEFPOINTS
 62
     0
 48
50.0
100
AcDbPoint
 10
8744.445451675245
 20
2279.70866761214
 30
0.0
  0
POINT
  5
16B51
330
16582
100
AcDbEntity
  8
DEFPOINTS
 62
     0
 48
50.0
100
AcDbPoint
 10
8744.445451675245
 20
1993.661338311763
 30
0.0
  0
ENDBLK
  5
1658D
330
16582
100
AcDbEntity
  8
0
 48
50.0
100
AcDbBlockEnd
  0
BLOCK
  5
16598
330
1658E
100
AcDbEntity
  8
0
 48
50.0
100
AcDbBlockBegin
  2
*D17
 70
     1
 10
0.0
 20
0.0
 30
0.0
  3
*D17
  1

  0
LINE
  5
17C3B
330
1658E
100
AcDbEntity
  8
寸法
 62
     0
 48
50.0
370
    -2
100
AcDbLine
 10
11074.44545167525
 20
9859.037739887044
 30
0.0
 11
12038.65542292914
 21
9859.037739887044
 31
0.0
  0
LINE
  5
17C3C
330
1658E
100
AcDbEntity
  8
寸法
 62
     0
 48
50.0
370
    -2
100
AcDbLine
 10
11074.44545167522
 20
8069.037739887036
 30
0.0
 11
12038.65542292914
 21
8069.037739887036
 31
0.0
  0
LINE
  5
17C3D
330
1658E
100
AcDbEntity
  8
寸法
 62
     0
 48
50.0
370
    -2
100
AcDbLine
 10
11978.65542292914
 20
9859.037739887044
 30
0.0
 11
11978.65542292914
 21
8069.037739887036
 31
0.0
  0
INSERT
  5
17C3E
330
1658E
100
AcDbEntity
  8
寸法
 62
     0
 48
50.0
370
    -2
100
AcDbBlockReference
  2
_DOTSMALL
 10
11978.65542292914
 20
9859.037739887044
 30
0.0
 41
100.0
 42
100.0
 43
100.0
 50
90.0
  0
INSERT
  5
17C3F
330
1658E
100
AcDbEntity
  8
寸法
 62
     0
 48
50.0
370
    -2
100
AcDbBlockReference
  2
_DOTSMALL
 10
11978.65542292914
 20
8069.037739887036
 30
0.0
 41
100.0
 42
100.0
 43
100.0
 50
270.0
  0
MTEXT
  5
17C40
330
1658E
100
AcDbEntity
  8
寸法
 62
     7
 48
50.0
100
AcDbMText
 10
11878.65542292914
 20
8948.811017056421
 30
0.0
 40
120.0
 41
0.0
 71
     5
 72
     1
  1
\A1;1790
  7
STYLE1
 11
0.0000000000000001
 21
1.0
 31
0.0
 73
     1
 44
1.0
1001
ACAD
1000
MTEXTBEGIN
1070
    73
1070
     1
1070
    44
1040
1.0
1070
    74
1070
     0
1000
MTEXTEND
  0
POINT
  5
17C41
330
1658E
100
AcDbEntity
  8
DEFPOINTS
 62
     0
 48
50.0
100
AcDbPoint
 10
11054.44545167525
 20
9859.037739887044
 30
0.0
  0
POINT
  5
17C42
330
1658E
100
AcDbEntity
  8
DEFPOINTS
 62
     0
 48
50.0
100
AcDbPoint
 10
11054.44545167522
 20
8069.037739887036
 30
0.0
  0
POINT
  5
17C43
330
1658E
100
AcDbEntity
  8
DEFPOINTS
 62
     0
 48
50.0
100
AcDbPoint
 10
11978.65542292914
 20
8069.037739887036
 30
0.0
  0
ENDBLK
  5
16599
330
1658E
100
AcDbEntity
  8
0
 48
50.0
100
AcDbBlockEnd
  0
BLOCK
  5
165A4
330
1659A
100
AcDbEntity
  8
0
 48
50.0
100
AcDbBlockBegin
  2
*D18
 70
     1
 10
0.0
 20
0.0
 30
0.0
  3
*D18
  1

  0
LINE
  5
17C20
330
1659A
100
AcDbEntity
  8
寸法
 62
     0
 48
50.0
370
    -2
100
AcDbLine
 10
8899.445451675253
 20
9879.03773988695
 30
0.0
 11
8899.445451675253
 21
10222.08333446264
 31
0.0
  0
LINE
  5
17C21
330
1659A
100
AcDbEntity
  8
寸法
 62
     0
 48
50.0
370
    -2
100
AcDbLine
 10
10999.44545167525
 20
9879.037739887046
 30
0.0
 11
10999.44545167525
 21
10222.08333446264
 31
0.0
  0
LINE
  5
17C22
330
1659A
100
AcDbEntity
  8
寸法
 62
     0
 48
50.0
370
    -2
100
AcDbLine
 10
8899.445451675253
 20
10162.08333446264
 30
0.0
 11
10999.44545167525
 21
10162.08333446264
 31
0.0
  0
INSERT
  5
17C23
330
1659A
100
AcDbEntity
  8
寸法
 62
     0
 48
50.0
370
    -2
100
AcDbBlockReference
  2
_DOTSMALL
 10
8899.445451675253
 20
10162.08333446264
 30
0.0
 41
100.0
 42
100.0
 43
100.0
 50
180.0
  0
INSERT
  5
17C24
330
1659A
100
AcDbEntity
  8
寸法
 62
     0
 48
50.0
370
    -2
100
AcDbBlockReference
  2
_DOTSMALL
 10
10999.44545167525
 20
10162.08333446264
 30
0.0
 41
100.0
 42
100.0
 43
100.0
  0
MTEXT
  5
17C25
330
1659A
100
AcDbEntity
  8
寸法
 62
     7
 48
50.0
100
AcDbMText
 10
9949.445451675252
 20
10262.09514548626
 30
0.0
 40
120.0
 41
0.0
 71
     5
 72
     1
  1
\A1;5X420=2100
  7
STYLE1
 73
     1
 44
1.0
1001
ACAD
1000
MTEXTBEGIN
1070
    73
1070
     1
1070
    44
1040
1.0
1070
    74
1070
     0
1000
MTEXTEND
  0
POINT
  5
17C26
330
1659A
100
AcDbEntity
  8
DEFPOINTS
 62
     0
 48
50.0
100
AcDbPoint
 10
8899.445451675253
 20
9859.03773988695
 30
0.0
  0
POINT
  5
17C27
330
1659A
100
AcDbEntity
  8
DEFPOINTS
 62
     0
 48
50.0
100
AcDbPoint
 10
10999.44545167525
 20
9859.037739887044
 30
0.0
  0
POINT
  5
17C28
330
1659A
100
AcDbEntity
  8
DEFPOINTS
 62
     0
 48
50.0
100
AcDbPoint
 10
10999.44545167525
 20
10162.08333446264
 30
0.0
  0
ENDBLK
  5
165A5
330
1659A
100
AcDbEntity
  8
0
 48
50.0
100
AcDbBlockEnd
  0
BLOCK
  5
165B2
330
165A6
100
AcDbEntity
  8
0
 48
50.0
100
AcDbBlockBegin
  2
*D19
 70
     1
 10
0.0
 20
0.0
 30
0.0
  3
*D19
  1

  0
LINE
  5
17C15
330
165A6
100
AcDbEntity
  8
寸法
 62
     0
 48
50.0
370
    -2
100
AcDbLine
 10
10999.44545167525
 20
9879.037739887046
 30
0.0
 11
10999.44545167525
 21
10222.08333446262
 31
0.0
  0
LINE
  5
17C16
330
165A6
100
AcDbEntity
  8
寸法
 62
     0
 48
50.0
370
    -2
100
AcDbLine
 10
11054.44545167525
 20
9879.037739887046
 30
0.0
 11
11054.44545167525
 21
10222.08333446262
 31
0.0
  0
LINE
  5
17C17
330
165A6
100
AcDbEntity
  8
寸法
 62
     0
 48
50.0
370
    -2
100
AcDbLine
 10
10999.44545167525
 20
10162.08333446262
 30
0.0
 11
10899.44545167525
 21
10162.08333446262
 31
0.0
  0
LINE
  5
17C18
330
165A6
100
AcDbEntity
  8
寸法
 62
     0
 48
50.0
370
    -2
100
AcDbLine
 10
11054.44545167525
 20
10162.08333446262
 30
0.0
 11
11471.41601442373
 21
10162.08333446262
 31
0.0
  0
LINE
  5
17C19
330
165A6
100
AcDbEntity
  8
寸法
 62
     0
 48
50.0
370
    -2
100
AcDbLine
 10
10999.44545167525
 20
10162.08333446262
 30
0.0
 11
11054.44545167525
 21
10162.08333446262
 31
0.0
  0
INSERT
  5
17C1A
330
165A6
100
AcDbEntity
  8
寸法
 62
     0
 48
50.0
370
    -2
100
AcDbBlockReference
  2
_DOTSMALL
 10
10999.44545167525
 20
10162.08333446262
 30
0.0
 41
100.0
 42
100.0
 43
100.0
  0
INSERT
  5
17C1B
330
165A6
100
AcDbEntity
  8
寸法
 62
     0
 48
50.0
370
    -2
100
AcDbBlockReference
  2
_DOTSMALL
 10
11054.44545167525
 20
10162.08333446262
 30
0.0
 41
100.0
 42
100.0
 43
100.0
 50
180.0
  0
MTEXT
  5
17C1C
330
165A6
100
AcDbEntity
  8
寸法
 62
     7
 48
50.0
100
AcDbMText
 10
11362.93073304949
 20
10262.08333446262
 30
0.0
 40
120.0
 41
0.0
 71
     5
 72
     1
  1
\A1;55
  7
STYLE1
 73
     1
 44
1.0
1001
ACAD
1000
MTEXTBEGIN
1070
    73
1070
     1
1070
    44
1040
1.0
1070
    74
1070
     0
1000
MTEXTEND
  0
POINT
  5
17C1D
330
165A6
100
AcDbEntity
  8
DEFPOINTS
 62
     0
 48
50.0
100
AcDbPoint
 10
10999.44545167525
 20
9859.037739887044
 30
0.0
  0
POINT
  5
17C1E
330
165A6
100
AcDbEntity
  8
DEFPOINTS
 62
     0
 48
50.0
100
AcDbPoint
 10
11054.44545167525
 20
9859.037739887044
 30
0.0
  0
POINT
  5
17C1F
330
165A6
100
AcDbEntity
  8
DEFPOINTS
 62
     0
 48
50.0
100
AcDbPoint
 10
11054.44545167525
 20
10162.08333446262
 30
0.0
  0
ENDBLK
  5
165B3
330
165A6
100
AcDbEntity
  8
0
 48
50.0
100
AcDbBlockEnd
  0
BLOCK
  5
165C0
330
165B4
100
AcDbEntity
  8
0
 48
50.0
100
AcDbBlockBegin
  2
*D20
 70
     1
 10
0.0
 20
0.0
 30
0.0
  3
*D20
  1

  0
LINE
  5
17C0A
330
165B4
100
AcDbEntity
  8
寸法
 62
     0
 48
50.0
370
    -2
100
AcDbLine
 10
11074.44545167525
 20
9859.037739887044
 30
0.0
 11
11761.87179740966
 21
9859.037739887044
 31
0.0
  0
LINE
  5
17C0B
330
165B4
100
AcDbEntity
  8
寸法
 62
     0
 48
50.0
370
    -2
100
AcDbLine
 10
11074.44545167525
 20
9804.037739887048
 30
0.0
 11
11761.87179740966
 21
9804.037739887048
 31
0.0
  0
LINE
  5
17C0C
330
165B4
100
AcDbEntity
  8
寸法
 62
     0
 48
50.0
370
    -2
100
AcDbLine
 10
11701.87179740966
 20
9804.037739887048
 30
0.0
 11
11701.87179740966
 21
9704.037739887048
 31
0.0
  0
LINE
  5
17C0D
330
165B4
100
AcDbEntity
  8
寸法
 62
     0
 48
50.0
370
    -2
100
AcDbLine
 10
11701.87179740966
 20
9859.037739887044
 30
0.0
 11
11701.87179740966
 21
10276.00830263552
 31
0.0
  0
LINE
  5
17C0E
330
165B4
100
AcDbEntity
  8
寸法
 62
     0
 48
50.0
370
    -2
100
AcDbLine
 10
11701.87179740966
 20
9804.037739887048
 30
0.0
 11
11701.87179740966
 21
9859.037739887044
 31
0.0
  0
INSERT
  5
17C0F
330
165B4
100
AcDbEntity
  8
寸法
 62
     0
 48
50.0
370
    -2
100
AcDbBlockReference
  2
_DOTSMALL
 10
11701.87179740966
 20
9804.037739887048
 30
0.0
 41
100.0
 42
100.0
 43
100.0
 50
90.0
  0
INSERT
  5
17C10
330
165B4
100
AcDbEntity
  8
寸法
 62
     0
 48
50.0
370
    -2
100
AcDbBlockReference
  2
_DOTSMALL
 10
11701.87179740966
 20
9859.037739887044
 30
0.0
 41
100.0
 42
100.0
 43
100.0
 50
270.0
  0
MTEXT
  5
17C11
330
165B4
100
AcDbEntity
  8
寸法
 62
     7
 48
50.0
100
AcDbMText
 10
11601.87179740966
 20
10167.52302126128
 30
0.0
 40
120.0
 41
0.0
 71
     5
 72
     1
  1
\A1;55
  7
STYLE1
 11
0.0000000000000001
 21
1.0
 31
0.0
 73
     1
 44
1.0
1001
ACAD
1000
MTEXTBEGIN
1070
    73
1070
     1
1070
    44
1040
1.0
1070
    74
1070
     0
1000
MTEXTEND
  0
POINT
  5
17C12
330
165B4
100
AcDbEntity
  8
DEFPOINTS
 62
     0
 48
50.0
100
AcDbPoint
 10
11054.44545167525
 20
9859.037739887044
 30
0.0
  0
POINT
  5
17C13
330
165B4
100
AcDbEntity
  8
DEFPOINTS
 62
     0
 48
50.0
100
AcDbPoint
 10
11054.44545167525
 20
9804.037739887048
 30
0.0
  0
POINT
  5
17C14
330
165B4
100
AcDbEntity
  8
DEFPOINTS
 62
     0
 48
50.0
100
AcDbPoint
 10
11701.87179740966
 20
9804.037739887048
 30
0.0
  0
ENDBLK
  5
165C1
330
165B4
100
AcDbEntity
  8
0
 48
50.0
100
AcDbBlockEnd
  0
BLOCK
  5
165CE
330
165C2
100
AcDbEntity
  8
0
 48
50.0
100
AcDbBlockBegin
  2
*D21
 70
     1
 10
0.0
 20
0.0
 30
0.0
  3
*D21
  1

  0
LINE
  5
17BFF
330
165C2
100
AcDbEntity
  8
寸法
 62
     0
 48
50.0
370
    -2
100
AcDbLine
 10
8844.445451675216
 20
9879.03773988695
 30
0.0
 11
8844.445451675216
 21
10222.08333446253
 31
0.0
  0
LINE
  5
17C00
330
165C2
100
AcDbEntity
  8
寸法
 62
     0
 48
50.0
370
    -2
100
AcDbLine
 10
8899.445451675253
 20
9879.03773988695
 30
0.0
 11
8899.445451675253
 21
10222.08333446253
 31
0.0
  0
LINE
  5
17C01
330
165C2
100
AcDbEntity
  8
寸法
 62
     0
 48
50.0
370
    -2
100
AcDbLine
 10
8899.445451675253
 20
10162.08333446253
 30
0.0
 11
8999.445451675253
 21
10162.08333446253
 31
0.0
  0
LINE
  5
17C02
330
165C2
100
AcDbEntity
  8
寸法
 62
     0
 48
50.0
370
    -2
100
AcDbLine
 10
8844.445451675216
 20
10162.08333446253
 30
0.0
 11
8427.47488892674
 21
10162.08333446253
 31
0.0
  0
LINE
  5
17C03
330
165C2
100
AcDbEntity
  8
寸法
 62
     0
 48
50.0
370
    -2
100
AcDbLine
 10
8899.445451675253
 20
10162.08333446253
 30
0.0
 11
8844.445451675216
 21
10162.08333446253
 31
0.0
  0
INSERT
  5
17C04
330
165C2
100
AcDbEntity
  8
寸法
 62
     0
 48
50.0
370
    -2
100
AcDbBlockReference
  2
_DOTSMALL
 10
8899.445451675253
 20
10162.08333446253
 30
0.0
 41
100.0
 42
100.0
 43
100.0
 50
180.0
  0
INSERT
  5
17C05
330
165C2
100
AcDbEntity
  8
寸法
 62
     0
 48
50.0
370
    -2
100
AcDbBlockReference
  2
_DOTSMALL
 10
8844.445451675216
 20
10162.08333446253
 30
0.0
 41
100.0
 42
100.0
 43
100.0
  0
MTEXT
  5
17C06
330
165C2
100
AcDbEntity
  8
寸法
 62
     7
 48
50.0
100
AcDbMText
 10
8535.960170300977
 20
10262.08333446253
 30
0.0
 40
120.0
 41
0.0
 71
     5
 72
     1
  1
\A1;55
  7
STYLE1
 73
     1
 44
1.0
1001
ACAD
1000
MTEXTBEGIN
1070
    73
1070
     1
1070
    44
1040
1.0
1070
    74
1070
     0
1000
MTEXTEND
  0
POINT
  5
17C07
330
165C2
100
AcDbEntity
  8
DEFPOINTS
 62
     0
 48
50.0
100
AcDbPoint
 10
8844.445451675216
 20
9859.03773988695
 30
0.0
  0
POINT
  5
17C08
330
165C2
100
AcDbEntity
  8
DEFPOINTS
 62
     0
 48
50.0
100
AcDbPoint
 10
8899.445451675253
 20
9859.03773988695
 30
0.0
  0
POINT
  5
17C09
330
165C2
100
AcDbEntity
  8
DEFPOINTS
 62
     0
 48
50.0
100
AcDbPoint
 10
8899.445451675253
 20
10162.08333446253
 30
0.0
  0
ENDBLK
  5
165CF
330
165C2
100
AcDbEntity
  8
0
 48
50.0
100
AcDbBlockEnd
  0
BLOCK
  5
165DA
330
165D0
100
AcDbEntity
  8
0
 48
50.0
100
AcDbBlockBegin
  2
*D22
 70
     1
 10
0.0
 20
0.0
 30
0.0
  3
*D22
  1

  0
LINE
  5
17BF6
330
165D0
100
AcDbEntity
  8
寸法
 62
     0
 48
50.0
370
    -2
100
AcDbLine
 10
8867.58646782663
 20
9359.037739886948
 30
0.0
 11
8778.269564132232
 21
9025.702517324724
 31
0.0
  0
LINE
  5
17BF7
330
165D0
100
AcDbEntity
  8
寸法
 62
     0
 48
50.0
370
    -2
100
AcDbLine
 10
10140.58646782664
 20
9359.037739886941
 30
0.0
 11
10051.26956413224
 21
9025.702517324724
 31
0.0
  0
LINE
  5
17BF8
330
165D0
100
AcDbEntity
  8
寸法
 62
     0
 48
50.0
370
    -2
100
AcDbLine
 10
8794.3465156781
 20
9085.702517324724
 30
0.0
 11
10067.34651567811
 21
9085.702517324724
 31
0.0
  0
INSERT
  5
17BF9
330
165D0
100
AcDbEntity
  8
寸法
 62
     0
 48
50.0
370
    -2
100
AcDbBlockReference
  2
_DOTSMALL
 10
8794.3465156781
 20
9085.702517324724
 30
0.0
 41
100.0
 42
100.0
 43
100.0
 50
180.0
  0
INSERT
  5
17BFA
330
165D0
100
AcDbEntity
  8
寸法
 62
     0
 48
50.0
370
    -2
100
AcDbBlockReference
  2
_DOTSMALL
 10
10067.34651567811
 20
9085.702517324724
 30
0.0
 41
100.0
 42
100.0
 43
100.0
  0
MTEXT
  5
17BFB
330
165D0
100
AcDbEntity
  8
寸法
 62
     7
 48
50.0
100
AcDbMText
 10
9403.581340383956
 20
9185.714328348344
 30
0.0
 40
120.0
 41
0.0
 71
     5
 72
     1
  1
\A1;1273
  7
STYLE1
 73
     1
 44
1.0
1001
ACAD
1000
MTEXTBEGIN
1070
    73
1070
     1
1070
    44
1040
1.0
1070
    74
1070
     0
1000
MTEXTEND
  0
POINT
  5
17BFC
330
165D0
100
AcDbEntity
  8
DEFPOINTS
 62
     0
 48
50.0
100
AcDbPoint
 10
8872.945451675253
 20
9379.03773988695
 30
0.0
  0
POINT
  5
17BFD
330
165D0
100
AcDbEntity
  8
DEFPOINTS
 62
     0
 48
50.0
100
AcDbPoint
 10
10145.94545167526
 20
9379.037739886943
 30
0.0
  0
POINT
  5
17BFE
330
165D0
100
AcDbEntity
  8
DEFPOINTS
 62
     0
 48
50.0
100
AcDbPoint
 10
10067.34651567811
 20
9085.702517324724
 30
0.0
  0
ENDBLK
  5
165DB
330
165D0
100
AcDbEntity
  8
0
 48
50.0
100
AcDbBlockEnd
  0
BLOCK
  5
165F4
330
165E8
100
AcDbEntity
  8
0
 48
50.0
100
AcDbBlockBegin
  2
*D23
 70
     1
 10
0.0
 20
0.0
 30
0.0
  3
*D23
  1

  0
LINE
  5
17BEB
330
165E8
100
AcDbEntity
  8
寸法
 62
     0
 48
50.0
370
    -2
100
AcDbLine
 10
11074.44545167522
 20
8124.037739887034
 30
0.0
 11
11761.87179740963
 21
8124.037739887034
 31
0.0
  0
LINE
  5
17BEC
330
165E8
100
AcDbEntity
  8
寸法
 62
     0
 48
50.0
370
    -2
100
AcDbLine
 10
11074.44545167522
 20
8069.037739887036
 30
0.0
 11
11761.87179740963
 21
8069.037739887036
 31
0.0
  0
LINE
  5
17BED
330
165E8
100
AcDbEntity
  8
寸法
 62
     0
 48
50.0
370
    -2
100
AcDbLine
 10
11701.87179740963
 20
8124.037739887034
 30
0.0
 11
11701.87179740963
 21
8224.037739887036
 31
0.0
  0
LINE
  5
17BEE
330
165E8
100
AcDbEntity
  8
寸法
 62
     0
 48
50.0
370
    -2
100
AcDbLine
 10
11701.87179740963
 20
8069.037739887036
 30
0.0
 11
11701.87179740963
 21
7582.690991607934
 31
0.0
  0
LINE
  5
17BEF
330
165E8
100
AcDbEntity
  8
寸法
 62
     0
 48
50.0
370
    -2
100
AcDbLine
 10
11701.87179740963
 20
8124.037739887034
 30
0.0
 11
11701.87179740963
 21
8069.037739887036
 31
0.0
  0
INSERT
  5
17BF0
330
165E8
100
AcDbEntity
  8
寸法
 62
     0
 48
50.0
370
    -2
100
AcDbBlockReference
  2
_DOTSMALL
 10
11701.87179740963
 20
8124.037739887034
 30
0.0
 41
100.0
 42
100.0
 43
100.0
 50
270.0
  0
INSERT
  5
17BF1
330
165E8
100
AcDbEntity
  8
寸法
 62
     0
 48
50.0
370
    -2
100
AcDbBlockReference
  2
_DOTSMALL
 10
11701.87179740963
 20
8069.037739887036
 30
0.0
 41
100.0
 42
100.0
 43
100.0
 50
90.0
  0
MTEXT
  5
17BF2
330
165E8
100
AcDbEntity
  8
寸法
 62
     7
 48
50.0
100
AcDbMText
 10
11601.87179740963
 20
7691.176272982175
 30
0.0
 40
120.0
 41
0.0
 71
     5
 72
     1
  1
\A1;55
  7
STYLE1
 11
0.0000000000000001
 21
1.0
 31
0.0
 73
     1
 44
1.0
1001
ACAD
1000
MTEXTBEGIN
1070
    73
1070
     1
1070
    44
1040
1.0
1070
    74
1070
     0
1000
MTEXTEND
  0
POINT
  5
17BF3
330
165E8
100
AcDbEntity
  8
DEFPOINTS
 62
     0
 48
50.0
100
AcDbPoint
 10
11054.44545167522
 20
8124.037739887034
 30
0.0
  0
POINT
  5
17BF4
330
165E8
100
AcDbEntity
  8
DEFPOINTS
 62
     0
 48
50.0
100
AcDbPoint
 10
11054.44545167522
 20
8069.037739887036
 30
0.0
  0
POINT
  5
17BF5
330
165E8
100
AcDbEntity
  8
DEFPOINTS
 62
     0
 48
50.0
100
AcDbPoint
 10
11701.87179740963
 20
8069.037739887036
 30
0.0
  0
ENDBLK
  5
165F5
330
165E8
100
AcDbEntity
  8
0
 48
50.0
100
AcDbBlockEnd
  0
BLOCK
  5
16600
330
165F6
100
AcDbEntity
  8
0
 48
50.0
100
AcDbBlockBegin
  2
*D24
 70
     1
 10
0.0
 20
0.0
 30
0.0
  3
*D24
  1

  0
LINE
  5
17BE2
330
165F6
100
AcDbEntity
  8
寸法
 62
     0
 48
50.0
370
    -2
100
AcDbLine
 10
10167.58646782663
 20
9359.037739887055
 30
0.0
 11
10078.29972657295
 21
9025.81508508608
 31
0.0
  0
LINE
  5
17BE3
330
165F6
100
AcDbEntity
  8
寸法
 62
     0
 48
50.0
370
    -2
100
AcDbLine
 10
11020.58646782664
 20
9359.037739887048
 30
0.0
 11
10931.29972657296
 21
9025.81508508608
 31
0.0
  0
LINE
  5
17BE4
330
165F6
100
AcDbEntity
  8
寸法
 62
     0
 48
50.0
370
    -2
100
AcDbLine
 10
10094.37667811882
 20
9085.81508508608
 30
0.0
 11
10947.37667811883
 21
9085.81508508608
 31
0.0
  0
INSERT
  5
17BE5
330
165F6
100
AcDbEntity
  8
寸法
 62
     0
 48
50.0
370
    -2
100
AcDbBlockReference
  2
_DOTSMALL
 10
10094.37667811882
 20
9085.81508508608
 30
0.0
 41
100.0
 42
100.0
 43
100.0
 50
180.0
  0
INSERT
  5
17BE6
330
165F6
100
AcDbEntity
  8
寸法
 62
     0
 48
50.0
370
    -2
100
AcDbBlockReference
  2
_DOTSMALL
 10
10947.37667811883
 20
9085.81508508608
 30
0.0
 41
100.0
 42
100.0
 43
100.0
  0
MTEXT
  5
17BE7
330
165F6
100
AcDbEntity
  8
寸法
 62
     7
 48
50.0
100
AcDbMText
 10
10552.29251379352
 20
9185.815085086082
 30
0.0
 40
120.0
 41
0.0
 71
     5
 72
     1
  1
\A1;853
  7
STYLE1
 73
     1
 44
1.0
1001
ACAD
1000
MTEXTBEGIN
1070
    73
1070
     1
1070
    44
1040
1.0
1070
    74
1070
     0
1000
MTEXTEND
  0
POINT
  5
17BE8
330
165F6
100
AcDbEntity
  8
DEFPOINTS
 62
     0
 48
50.0
100
AcDbPoint
 10
10172.94545167525
 20
9379.037739887055
 30
0.0
  0
POINT
  5
17BE9
330
165F6
100
AcDbEntity
  8
DEFPOINTS
 62
     0
 48
50.0
100
AcDbPoint
 10
11025.94545167526
 20
9379.037739887047
 30
0.0
  0
POINT
  5
17BEA
330
165F6
100
AcDbEntity
  8
DEFPOINTS
 62
     0
 48
50.0
100
AcDbPoint
 10
10947.37667811883
 20
9085.81508508608
 30
0.0
  0
ENDBLK
  5
16601
330
165F6
100
AcDbEntity
  8
0
 48
50.0
100
AcDbBlockEnd
  0
BLOCK
  5
1660C
330
16602
100
AcDbEntity
  8
0
 48
50.0
100
AcDbBlockBegin
  2
*D25
 70
     1
 10
0.0
 20
0.0
 30
0.0
  3
*D25
  1

  0
LINE
  5
17BD9
330
16602
100
AcDbEntity
  8
寸法
 62
     0
 48
50.0
370
    -2
100
AcDbLine
 10
11045.94545167525
 20
9823.678756038422
 30
0.0
 11
11441.30317753727
 21
9717.742972672288
 31
0.0
  0
LINE
  5
17BDA
330
16602
100
AcDbEntity
  8
寸法
 62
     0
 48
50.0
370
    -2
100
AcDbLine
 10
11045.94545167525
 20
9373.678756038426
 30
0.0
 11
11441.30317753727
 21
9267.742972672293
 31
0.0
  0
LINE
  5
17BDB
330
16602
100
AcDbEntity
  8
寸法
 62
     0
 48
50.0
370
    -2
100
AcDbLine
 10
11381.30317753727
 20
9733.819924218154
 30
0.0
 11
11381.30317753727
 21
9283.819924218159
 31
0.0
  0
INSERT
  5
17BDC
330
16602
100
AcDbEntity
  8
寸法
 62
     0
 48
50.0
370
    -2
100
AcDbBlockReference
  2
_DOTSMALL
 10
11381.30317753727
 20
9733.819924218154
 30
0.0
 41
100.0
 42
100.0
 43
100.0
 50
90.0
  0
INSERT
  5
17BDD
330
16602
100
AcDbEntity
  8
寸法
 62
     0
 48
50.0
370
    -2
100
AcDbBlockReference
  2
_DOTSMALL
 10
11381.30317753727
 20
9283.819924218159
 30
0.0
 41
100.0
 42
100.0
 43
100.0
 50
270.0
  0
MTEXT
  5
17BDE
330
16602
100
AcDbEntity
  8
寸法
 62
     7
 48
50.0
100
AcDbMText
 10
11281.30317753727
 20
9508.819924218158
 30
0.0
 40
120.0
 41
0.0
 71
     5
 72
     1
  1
\A1;450
  7
STYLE1
 11
0.0000000000000001
 21
1.0
 31
0.0
 73
     1
 44
1.0
1001
ACAD
1000
MTEXTBEGIN
1070
    73
1070
     1
1070
    44
1040
1.0
1070
    74
1070
     0
1000
MTEXTEND
  0
POINT
  5
17BDF
330
16602
100
AcDbEntity
  8
DEFPOINTS
 62
     0
 48
50.0
100
AcDbPoint
 10
11025.94545167525
 20
9829.037739887045
 30
0.0
  0
POINT
  5
17BE0
330
16602
100
AcDbEntity
  8
DEFPOINTS
 62
     0
 48
50.0
100
AcDbPoint
 10
11025.94545167525
 20
9379.037739887047
 30
0.0
  0
POINT
  5
17BE1
330
16602
100
AcDbEntity
  8
DEFPOINTS
 62
     0
 48
50.0
100
AcDbPoint
 10
11381.30317753727
 20
9283.819924218159
 30
0.0
  0
ENDBLK
  5
1660D
330
16602
100
AcDbEntity
  8
0
 48
50.0
100
AcDbBlockEnd
  0
BLOCK
  5
16618
330
1660E
100
AcDbEntity
  8
0
 48
50.0
100
AcDbBlockBegin
  2
*D26
 70
     1
 10
0.0
 20
0.0
 30
0.0
  3
*D26
  1

  0
LINE
  5
17BD0
330
1660E
100
AcDbEntity
  8
寸法
 62
     0
 48
50.0
370
    -2
100
AcDbLine
 10
11074.44545167525
 20
9804.037739887048
 30
0.0
 11
11761.87179740966
 21
9804.037739887048
 31
0.0
  0
LINE
  5
17BD1
330
1660E
100
AcDbEntity
  8
寸法
 62
     0
 48
50.0
370
    -2
100
AcDbLine
 10
11074.44545167522
 20
8124.037739887034
 30
0.0
 11
11761.87179740966
 21
8124.037739887034
 31
0.0
  0
LINE
  5
17BD2
330
1660E
100
AcDbEntity
  8
寸法
 62
     0
 48
50.0
370
    -2
100
AcDbLine
 10
11701.87179740966
 20
9804.037739887048
 30
0.0
 11
11701.87179740966
 21
8124.037739887034
 31
0.0
  0
INSERT
  5
17BD3
330
1660E
100
AcDbEntity
  8
寸法
 62
     0
 48
50.0
370
    -2
100
AcDbBlockReference
  2
_DOTSMALL
 10
11701.87179740966
 20
9804.037739887048
 30
0.0
 41
100.0
 42
100.0
 43
100.0
 50
90.0
  0
INSERT
  5
17BD4
330
1660E
100
AcDbEntity
  8
寸法
 62
     0
 48
50.0
370
    -2
100
AcDbBlockReference
  2
_DOTSMALL
 10
11701.87179740966
 20
8124.037739887034
 30
0.0
 41
100.0
 42
100.0
 43
100.0
 50
270.0
  0
MTEXT
  5
17BD5
330
1660E
100
AcDbEntity
  8
寸法
 62
     7
 48
50.0
100
AcDbMText
 10
11601.85998638604
 20
8964.037739887041
 30
0.0
 40
120.0
 41
0.0
 71
     5
 72
     1
  1
\A1;4X420=1680
  7
STYLE1
 11
0.0000000000000001
 21
1.0
 31
0.0
 73
     1
 44
1.0
1001
ACAD
1000
MTEXTBEGIN
1070
    73
1070
     1
1070
    44
1040
1.0
1070
    74
1070
     0
1000
MTEXTEND
  0
POINT
  5
17BD6
330
1660E
100
AcDbEntity
  8
DEFPOINTS
 62
     0
 48
50.0
100
AcDbPoint
 10
11054.44545167525
 20
9804.037739887048
 30
0.0
  0
POINT
  5
17BD7
330
1660E
100
AcDbEntity
  8
DEFPOINTS
 62
     0
 48
50.0
100
AcDbPoint
 10
11054.44545167522
 20
8124.037739887034
 30
0.0
  0
POINT
  5
17BD8
330
1660E
100
AcDbEntity
  8
DEFPOINTS
 62
     0
 48
50.0
100
AcDbPoint
 10
11701.87179740966
 20
8124.037739887034
 30
0.0
  0
ENDBLK
  5
16619
330
1660E
100
AcDbEntity
  8
0
 48
50.0
100
AcDbBlockEnd
  0
BLOCK
  5
16624
330
1661A
100
AcDbEntity
  8
0
 48
50.0
100
AcDbBlockBegin
  2
*D27
 70
     1
 10
0.0
 20
0.0
 30
0.0
  3
*D27
  1

  0
LINE
  5
16BE0
330
1661A
100
AcDbEntity
  8
寸法
 62
     0
 48
50.0
370
    -2
100
AcDbLine
 10
8852.445451675245
 20
4662.70866761214
 30
0.0
 11
8479.820982591133
 21
4662.70866761214
 31
0.0
  0
LINE
  5
16BE1
330
1661A
100
AcDbEntity
  8
寸法
 62
     0
 48
50.0
370
    -2
100
AcDbLine
 10
8852.445451675245
 20
2637.708667612139
 30
0.0
 11
8479.820982591133
 21
2637.708667612139
 31
0.0
  0
LINE
  5
16BE2
330
1661A
100
AcDbEntity
  8
寸法
 62
     0
 48
50.0
370
    -2
100
AcDbLine
 10
8539.820982591136
 20
4662.70866761214
 30
0.0
 11
8539.820982591132
 21
2637.708667612139
 31
0.0
  0
INSERT
  5
16BE3
330
1661A
100
AcDbEntity
  8
寸法
 62
     0
 48
50.0
370
    -2
100
AcDbBlockReference
  2
_DOTSMALL
 10
8539.820982591136
 20
4662.70866761214
 30
0.0
 41
100.0
 42
100.0
 43
100.0
 50
90.0
  0
INSERT
  5
16BE4
330
1661A
100
AcDbEntity
  8
寸法
 62
     0
 48
50.0
370
    -2
100
AcDbBlockReference
  2
_DOTSMALL
 10
8539.820982591132
 20
2637.708667612139
 30
0.0
 41
100.0
 42
100.0
 43
100.0
 50
270.0
  0
MTEXT
  5
16BE5
330
1661A
100
AcDbEntity
  8
寸法
 62
     7
 48
50.0
100
AcDbMText
 10
8439.80917156751
 20
3651.606572078338
 30
0.0
 40
120.0
 41
0.0
 71
     5
 72
     1
  1
\A1;有効開口部高サ2025
  7
STYLE1
 11
0.0000000000000001
 21
1.0
 31
0.0
 73
     1
 44
1.0
1001
ACAD
1000
MTEXTBEGIN
1070
    73
1070
     1
1070
    44
1040
1.0
1070
    74
1070
     0
1000
MTEXTEND
  0
POINT
  5
16BE6
330
1661A
100
AcDbEntity
  8
DEFPOINTS
 62
     0
 48
50.0
100
AcDbPoint
 10
8872.445451675245
 20
4662.70866761214
 30
0.0
  0
POINT
  5
16BE7
330
1661A
100
AcDbEntity
  8
DEFPOINTS
 62
     0
 48
50.0
100
AcDbPoint
 10
8872.445451675245
 20
2637.708667612139
 30
0.0
  0
POINT
  5
16BE8
330
1661A
100
AcDbEntity
  8
DEFPOINTS
 62
     0
 48
50.0
100
AcDbPoint
 10
8539.820982591132
 20
2637.708667612139
 30
0.0
  0
ENDBLK
  5
16625
330
1661A
100
AcDbEntity
  8
0
 48
50.0
100
AcDbBlockEnd
  0
BLOCK
  5
1663C
330
16632
100
AcDbEntity
  8
0
 48
50.0
100
AcDbBlockBegin
  2
*D28
 70
     1
 10
0.0
 20
0.0
 30
0.0
  3
*D28
  1

  0
LINE
  5
16AC3
330
16632
100
AcDbEntity
  8
寸法
 62
     0
 48
50.0
370
    -2
100
AcDbLine
 10
11054.44545167524
 20
4974.708667612145
 30
0.0
 11
11054.44545167524
 21
5413.801836951613
 31
0.0
  0
LINE
  5
16AC4
330
16632
100
AcDbEntity
  8
寸法
 62
     0
 48
50.0
370
    -2
100
AcDbLine
 10
8844.445451675245
 20
4974.708667612146
 30
0.0
 11
8844.445451675245
 21
5413.801836951613
 31
0.0
  0
LINE
  5
16AC5
330
16632
100
AcDbEntity
  8
寸法
 62
     0
 48
50.0
370
    -2
100
AcDbLine
 10
11054.44545167524
 20
5353.801836951613
 30
0.0
 11
8844.445451675245
 21
5353.801836951613
 31
0.0
  0
INSERT
  5
16AC6
330
16632
100
AcDbEntity
  8
寸法
 62
     0
 48
50.0
370
    -2
100
AcDbBlockReference
  2
_DOTSMALL
 10
11054.44545167524
 20
5353.801836951613
 30
0.0
 41
100.0
 42
100.0
 43
100.0
  0
INSERT
  5
16AC7
330
16632
100
AcDbEntity
  8
寸法
 62
     0
 48
50.0
370
    -2
100
AcDbBlockReference
  2
_DOTSMALL
 10
8844.445451675245
 20
5353.801836951613
 30
0.0
 41
100.0
 42
100.0
 43
100.0
 50
180.0
  0
MTEXT
  5
16AC8
330
16632
100
AcDbEntity
  8
寸法
 62
     7
 48
50.0
100
AcDbMText
 10
9949.445451675245
 20
5453.813647975234
 30
0.0
 40
120.0
 41
0.0
 71
     5
 72
     1
  1
\A1;柱外寸法2210
  7
STYLE1
 73
     1
 44
1.0
1001
ACAD
1000
MTEXTBEGIN
1070
    73
1070
     1
1070
    44
1040
1.0
1070
    74
1070
     0
1000
MTEXTEND
  0
POINT
  5
16AC9
330
16632
100
AcDbEntity
  8
DEFPOINTS
 62
     0
 48
50.0
100
AcDbPoint
 10
11054.44545167524
 20
4954.708667612145
 30
0.0
  0
POINT
  5
16ACA
330
16632
100
AcDbEntity
  8
DEFPOINTS
 62
     0
 48
50.0
100
AcDbPoint
 10
8844.445451675245
 20
4954.708667612147
 30
0.0
  0
POINT
  5
16ACB
330
16632
100
AcDbEntity
  8
DEFPOINTS
 62
     0
 48
50.0
100
AcDbPoint
 10
8844.445451675245
 20
5353.801836951613
 30
0.0
  0
ENDBLK
  5
1663D
330
16632
100
AcDbEntity
  8
0
 48
50.0
100
AcDbBlockEnd
  0
BLOCK
  5
1664A
330
1663E
100
AcDbEntity
  8
0
 48
50.0
100
AcDbBlockBegin
  2
*D29
 70
     1
 10
0.0
 20
0.0
 30
0.0
  3
*D29
  1

  0
LINE
  5
16AB8
330
1663E
100
AcDbEntity
  8
寸法
 62
     0
 48
50.0
370
    -2
100
AcDbLine
 10
8844.445451675245
 20
4974.708667612146
 30
0.0
 11
8844.445451675245
 21
5413.801836951613
 31
0.0
  0
LINE
  5
16AB9
330
1663E
100
AcDbEntity
  8
寸法
 62
     0
 48
50.0
370
    -2
100
AcDbLine
 10
8794.445451675244
 20
4974.708667612145
 30
0.0
 11
8794.445451675244
 21
5413.801836951613
 31
0.0
  0
LINE
  5
16ABA
330
1663E
100
AcDbEntity
  8
寸法
 62
     0
 48
50.0
370
    -2
100
AcDbLine
 10
8844.445451675245
 20
5353.801836951613
 30
0.0
 11
8944.445451675244
 21
5353.801836951613
 31
0.0
  0
LINE
  5
16ABB
330
1663E
100
AcDbEntity
  8
寸法
 62
     0
 48
50.0
370
    -2
100
AcDbLine
 10
8794.445451675244
 20
5353.801836951613
 30
0.0
 11
8374.91292620651
 21
5353.801836951613
 31
0.0
  0
LINE
  5
16ABC
330
1663E
100
AcDbEntity
  8
寸法
 62
     0
 48
50.0
370
    -2
100
AcDbLine
 10
8844.445451675245
 20
5353.801836951613
 30
0.0
 11
8794.445451675244
 21
5353.801836951613
 31
0.0
  0
INSERT
  5
16ABD
330
1663E
100
AcDbEntity
  8
寸法
 62
     0
 48
50.0
370
    -2
100
AcDbBlockReference
  2
_DOTSMALL
 10
8844.445451675245
 20
5353.801836951613
 30
0.0
 41
100.0
 42
100.0
 43
100.0
 50
180.0
  0
INSERT
  5
16ABE
330
1663E
100
AcDbEntity
  8
寸法
 62
     0
 48
50.0
370
    -2
100
AcDbBlockReference
  2
_DOTSMALL
 10
8794.445451675244
 20
5353.801836951613
 30
0.0
 41
100.0
 42
100.0
 43
100.0
  0
MTEXT
  5
16ABF
330
1663E
100
AcDbEntity
  8
寸法
 62
     7
 48
50.0
100
AcDbMText
 10
8480.960170300997
 20
5453.801836951613
 30
0.0
 40
120.0
 41
0.0
 71
     5
 72
     1
  1
\A1;50
  7
STYLE1
 73
     1
 44
1.0
1001
ACAD
1000
MTEXTBEGIN
1070
    73
1070
     1
1070
    44
1040
1.0
1070
    74
1070
     0
1000
MTEXTEND
  0
POINT
  5
16AC0
330
1663E
100
AcDbEntity
  8
DEFPOINTS
 62
     0
 48
50.0
100
AcDbPoint
 10
8844.445451675245
 20
4954.708667612147
 30
0.0
  0
POINT
  5
16AC1
330
1663E
100
AcDbEntity
  8
DEFPOINTS
 62
     0
 48
50.0
100
AcDbPoint
 10
8794.445451675244
 20
4954.708667612145
 30
0.0
  0
POINT
  5
16AC2
330
1663E
100
AcDbEntity
  8
DEFPOINTS
 62
     0
 48
50.0
100
AcDbPoint
 10
8794.445451675244
 20
5353.801836951613
 30
0.0
  0
ENDBLK
  5
1664B
330
1663E
100
AcDbEntity
  8
0
 48
50.0
100
AcDbBlockEnd
  0
BLOCK
  5
16656
330
1664C
100
AcDbEntity
  8
0
 48
50.0
100
AcDbBlockBegin
  2
*D30
 70
     1
 10
0.0
 20
0.0
 30
0.0
  3
*D30
  1

  0
LINE
  5
16AAF
330
1664C
100
AcDbEntity
  8
寸法
 62
     0
 48
50.0
370
    -2
100
AcDbLine
 10
8794.445451675244
 20
4974.708667612145
 30
0.0
 11
8794.445451675244
 21
5630.327936570058
 31
0.0
  0
LINE
  5
16AB0
330
1664C
100
AcDbEntity
  8
寸法
 62
     0
 48
50.0
370
    -2
100
AcDbLine
 10
11104.44545167524
 20
4974.708667612143
 30
0.0
 11
11104.44545167524
 21
5630.327936570058
 31
0.0
  0
LINE
  5
16AB1
330
1664C
100
AcDbEntity
  8
寸法
 62
     0
 48
50.0
370
    -2
100
AcDbLine
 10
8794.445451675244
 20
5570.327936570058
 30
0.0
 11
11104.44545167524
 21
5570.327936570058
 31
0.0
  0
INSERT
  5
16AB2
330
1664C
100
AcDbEntity
  8
寸法
 62
     0
 48
50.0
370
    -2
100
AcDbBlockReference
  2
_DOTSMALL
 10
8794.445451675244
 20
5570.327936570058
 30
0.0
 41
100.0
 42
100.0
 43
100.0
 50
180.0
  0
INSERT
  5
16AB3
330
1664C
100
AcDbEntity
  8
寸法
 62
     0
 48
50.0
370
    -2
100
AcDbBlockReference
  2
_DOTSMALL
 10
11104.44545167524
 20
5570.327936570058
 30
0.0
 41
100.0
 42
100.0
 43
100.0
  0
MTEXT
  5
16AB4
330
1664C
100
AcDbEntity
  8
寸法
 62
     7
 48
50.0
100
AcDbMText
 10
9949.445451675245
 20
5670.33974759368
 30
0.0
 40
120.0
 41
0.0
 71
     5
 72
     1
  1
\A1;2310
  7
STYLE1
 73
     1
 44
1.0
1001
ACAD
1000
MTEXTBEGIN
1070
    73
1070
     1
1070
    44
1040
1.0
1070
    74
1070
     0
1000
MTEXTEND
  0
POINT
  5
16AB5
330
1664C
100
AcDbEntity
  8
DEFPOINTS
 62
     0
 48
50.0
100
AcDbPoint
 10
8794.445451675244
 20
4954.708667612145
 30
0.0
  0
POINT
  5
16AB6
330
1664C
100
AcDbEntity
  8
DEFPOINTS
 62
     0
 48
50.0
100
AcDbPoint
 10
11104.44545167524
 20
4954.708667612142
 30
0.0
  0
POINT
  5
16AB7
330
1664C
100
AcDbEntity
  8
DEFPOINTS
 62
     0
 48
50.0
100
AcDbPoint
 10
11104.44545167524
 20
5570.327936570058
 30
0.0
  0
ENDBLK
  5
16657
330
1664C
100
AcDbEntity
  8
0
 48
50.0
100
AcDbBlockEnd
  0
BLOCK
  5
16664
330
16658
100
AcDbEntity
  8
0
 48
50.0
100
AcDbBlockBegin
  2
*D31
 70
     1
 10
0.0
 20
0.0
 30
0.0
  3
*D31
  1

  0
LINE
  5
16AA4
330
16658
100
AcDbEntity
  8
寸法
 62
     0
 48
50.0
370
    -2
100
AcDbLine
 10
11104.44545167524
 20
4974.708667612143
 30
0.0
 11
11104.44545167524
 21
5413.801836951613
 31
0.0
  0
LINE
  5
16AA5
330
16658
100
AcDbEntity
  8
寸法
 62
     0
 48
50.0
370
    -2
100
AcDbLine
 10
11054.44545167524
 20
4974.708667612145
 30
0.0
 11
11054.44545167524
 21
5413.801836951613
 31
0.0
  0
LINE
  5
16AA6
330
16658
100
AcDbEntity
  8
寸法
 62
     0
 48
50.0
370
    -2
100
AcDbLine
 10
11054.44545167524
 20
5353.801836951613
 30
0.0
 11
10954.44545167524
 21
5353.801836951613
 31
0.0
  0
LINE
  5
16AA7
330
16658
100
AcDbEntity
  8
寸法
 62
     0
 48
50.0
370
    -2
100
AcDbLine
 10
11104.44545167524
 20
5353.801836951613
 30
0.0
 11
11523.97797714397
 21
5353.801836951613
 31
0.0
  0
LINE
  5
16AA8
330
16658
100
AcDbEntity
  8
寸法
 62
     0
 48
50.0
370
    -2
100
AcDbLine
 10
11054.44545167524
 20
5353.801836951613
 30
0.0
 11
11104.44545167524
 21
5353.801836951613
 31
0.0
  0
INSERT
  5
16AA9
330
16658
100
AcDbEntity
  8
寸法
 62
     0
 48
50.0
370
    -2
100
AcDbBlockReference
  2
_DOTSMALL
 10
11054.44545167524
 20
5353.801836951613
 30
0.0
 41
100.0
 42
100.0
 43
100.0
  0
INSERT
  5
16AAA
330
16658
100
AcDbEntity
  8
寸法
 62
     0
 48
50.0
370
    -2
100
AcDbBlockReference
  2
_DOTSMALL
 10
11104.44545167524
 20
5353.801836951613
 30
0.0
 41
100.0
 42
100.0
 43
100.0
 50
180.0
  0
MTEXT
  5
16AAB
330
16658
100
AcDbEntity
  8
寸法
 62
     7
 48
50.0
100
AcDbMText
 10
11417.93073304948
 20
5453.801836951613
 30
0.0
 40
120.0
 41
0.0
 71
     5
 72
     1
  1
\A1;50
  7
STYLE1
 73
     1
 44
1.0
1001
ACAD
1000
MTEXTBEGIN
1070
    73
1070
     1
1070
    44
1040
1.0
1070
    74
1070
     0
1000
MTEXTEND
  0
POINT
  5
16AAC
330
16658
100
AcDbEntity
  8
DEFPOINTS
 62
     0
 48
50.0
100
AcDbPoint
 10
11104.44545167524
 20
4954.708667612142
 30
0.0
  0
POINT
  5
16AAD
330
16658
100
AcDbEntity
  8
DEFPOINTS
 62
     0
 48
50.0
100
AcDbPoint
 10
11054.44545167524
 20
4954.708667612145
 30
0.0
  0
POINT
  5
16AAE
330
16658
100
AcDbEntity
  8
DEFPOINTS
 62
     0
 48
50.0
100
AcDbPoint
 10
11054.44545167524
 20
5353.801836951613
 30
0.0
  0
ENDBLK
  5
16665
330
16658
100
AcDbEntity
  8
0
 48
50.0
100
AcDbBlockEnd
  0
BLOCK
  5
17711
330
17707
100
AcDbEntity
  8
0
 48
50.0
100
AcDbBlockBegin
  2
*D32
 70
     1
 10
0.0
 20
0.0
 30
0.0
  3
*D32
  1

  0
LINE
  5
17BC7
330
17707
100
AcDbEntity
  8
寸法
 62
     0
 48
50.0
370
    -2
100
AcDbLine
 10
8911.445451675227
 20
7972.037739886885
 30
0.0
 11
8911.445451675227
 21
7296.787742481138
 31
0.0
  0
LINE
  5
17BC8
330
17707
100
AcDbEntity
  8
寸法
 62
     0
 48
50.0
370
    -2
100
AcDbLine
 10
10177.44545167522
 20
7972.037739886885
 30
0.0
 11
10177.44545167522
 21
7296.787742481138
 31
0.0
  0
LINE
  5
17BC9
330
17707
100
AcDbEntity
  8
寸法
 62
     0
 48
50.0
370
    -2
100
AcDbLine
 10
8931.445451675227
 20
7336.787742481138
 30
0.0
 11
10157.44545167522
 21
7336.787742481138
 31
0.0
  0
INSERT
  5
17BCA
330
17707
100
AcDbEntity
  8
寸法
 62
     0
 48
50.0
370
    -2
100
AcDbBlockReference
  2
_DOT
 10
8911.445451675227
 20
7336.787742481138
 30
0.0
 41
20.0
 42
20.0
 43
20.0
 50
180.0
  0
INSERT
  5
17BCB
330
17707
100
AcDbEntity
  8
寸法
 62
     0
 48
50.0
370
    -2
100
AcDbBlockReference
  2
_DOT
 10
10177.44545167522
 20
7336.787742481138
 30
0.0
 41
20.0
 42
20.0
 43
20.0
  0
MTEXT
  5
17BCC
330
17707
100
AcDbEntity
  8
寸法
 62
     7
 48
50.0
100
AcDbMText
 10
9540.862785253251
 20
7528.79955350476
 30
0.0
 40
120.0
 41
0.0
 71
     5
 72
     1
  1
\A1;有効開口部間口\P1266
  7
STYLE1
 73
     1
 44
1.0
1001
ACAD
1000
MTEXTBEGIN
1070
    73
1070
     1
1070
    44
1040
1.0
1070
    74
1070
     0
1000
MTEXTEND
  0
POINT
  5
17BCD
330
17707
100
AcDbEntity
  8
DEFPOINTS
 62
     0
 48
50.0
100
AcDbPoint
 10
8911.445451675227
 20
7992.037739886884
 30
0.0
  0
POINT
  5
17BCE
330
17707
100
AcDbEntity
  8
DEFPOINTS
 62
     0
 48
50.0
100
AcDbPoint
 10
10177.44545167522
 20
7992.037739886884
 30
0.0
  0
POINT
  5
17BCF
330
17707
100
AcDbEntity
  8
DEFPOINTS
 62
     0
 48
50.0
100
AcDbPoint
 10
10177.44545167522
 20
7336.787742481138
 30
0.0
  0
ENDBLK
  5
17712
330
17707
100
AcDbEntity
  8
0
 48
50.0
100
AcDbBlockEnd
  0
BLOCK
  5
17A40
330
17A36
100
AcDbEntity
  8
0
 48
50.0
100
AcDbBlockBegin
  2
*D33
 70
     1
 10
0.0
 20
0.0
 30
0.0
  3
*D33
  1

  0
LINE
  5
17BBE
330
17A36
100
AcDbEntity
  8
寸法
 62
     0
 48
50.0
370
    -2
100
AcDbLine
 10
8872.445451675195
 20
7972.037739886888
 30
0.0
 11
8872.445451675195
 21
6967.364544366489
 31
0.0
  0
LINE
  5
17BBF
330
17A36
100
AcDbEntity
  8
寸法
 62
     0
 48
50.0
370
    -2
100
AcDbLine
 10
11026.44545167519
 20
7972.037739886888
 30
0.0
 11
11026.44545167519
 21
6967.364544366489
 31
0.0
  0
LINE
  5
17BC0
330
17A36
100
AcDbEntity
  8
寸法
 62
     0
 48
50.0
370
    -2
100
AcDbLine
 10
8872.445451675195
 20
7027.36454436649
 30
0.0
 11
11026.44545167519
 21
7027.36454436649
 31
0.0
  0
INSERT
  5
17BC1
330
17A36
100
AcDbEntity
  8
寸法
 62
     0
 48
50.0
370
    -2
100
AcDbBlockReference
  2
_DOTSMALL
 10
8872.445451675195
 20
7027.36454436649
 30
0.0
 41
100.0
 42
100.0
 43
100.0
 50
180.0
  0
INSERT
  5
17BC2
330
17A36
100
AcDbEntity
  8
寸法
 62
     0
 48
50.0
370
    -2
100
AcDbBlockReference
  2
_DOTSMALL
 10
11026.44545167519
 20
7027.36454436649
 30
0.0
 41
100.0
 42
100.0
 43
100.0
  0
MTEXT
  5
17BC3
330
17A36
100
AcDbEntity
  8
寸法
 62
     7
 48
50.0
100
AcDbMText
 10
9949.445451675195
 20
7127.376355390111
 30
0.0
 40
120.0
 41
0.0
 71
     5
 72
     1
  1
\A1;2154
  7
STYLE1
 73
     1
 44
1.0
1001
ACAD
1000
MTEXTBEGIN
1070
    73
1070
     1
1070
    44
1040
1.0
1070
    74
1070
     0
1000
MTEXTEND
  0
POINT
  5
17BC4
330
17A36
100
AcDbEntity
  8
DEFPOINTS
 62
     0
 48
50.0
100
AcDbPoint
 10
8872.445451675195
 20
7992.037739886888
 30
0.0
  0
POINT
  5
17BC5
330
17A36
100
AcDbEntity
  8
DEFPOINTS
 62
     0
 48
50.0
100
AcDbPoint
 10
11026.44545167519
 20
7992.037739886888
 30
0.0
  0
POINT
  5
17BC6
330
17A36
100
AcDbEntity
  8
DEFPOINTS
 62
     0
 48
50.0
100
AcDbPoint
 10
11026.44545167519
 20
7027.36454436649
 30
0.0
  0
ENDBLK
  5
17A41
330
17A36
100
AcDbEntity
  8
0
 48
50.0
100
AcDbBlockEnd
  0
BLOCK
  5
17A4E
330
17A42
100
AcDbEntity
  8
0
 48
50.0
100
AcDbBlockBegin
  2
*D34
 70
     1
 10
0.0
 20
0.0
 30
0.0
  3
*D34
  1

  0
LINE
  5
17BB3
330
17A42
100
AcDbEntity
  8
寸法
 62
     0
 48
50.0
370
    -2
100
AcDbLine
 10
8824.445451675245
 20
8069.037739886942
 30
0.0
 11
8509.834206048529
 21
8069.037739886942
 31
0.0
  0
LINE
  5
17BB4
330
17A42
100
AcDbEntity
  8
寸法
 62
     0
 48
50.0
370
    -2
100
AcDbLine
 10
8852.445451675222
 20
7994.037739886943
 30
0.0
 11
8509.834206048529
 21
7994.037739886943
 31
0.0
  0
LINE
  5
17BB5
330
17A42
100
AcDbEntity
  8
寸法
 62
     0
 48
50.0
370
    -2
100
AcDbLine
 10
8549.834206048528
 20
8089.037739886942
 30
0.0
 11
8549.834206048528
 21
8109.037739886941
 31
0.0
  0
LINE
  5
17BB6
330
17A42
100
AcDbEntity
  8
寸法
 62
     0
 48
50.0
370
    -2
100
AcDbLine
 10
8549.834206048528
 20
7974.037739886942
 30
0.0
 11
8549.834206048528
 21
7753.067177138465
 31
0.0
  0
LINE
  5
17BB7
330
17A42
100
AcDbEntity
  8
寸法
 62
     0
 48
50.0
370
    -2
100
AcDbLine
 10
8549.834206048528
 20
8069.037739886942
 30
0.0
 11
8549.834206048528
 21
7994.037739886943
 31
0.0
  0
INSERT
  5
17BB8
330
17A42
100
AcDbEntity
  8
寸法
 62
     0
 48
50.0
370
    -2
100
AcDbBlockReference
  2
_DOT
 10
8549.834206048528
 20
8069.037739886942
 30
0.0
 41
20.0
 42
20.0
 43
20.0
 50
270.0
  0
INSERT
  5
17BB9
330
17A42
100
AcDbEntity
  8
寸法
 62
     0
 48
50.0
370
    -2
100
AcDbBlockReference
  2
_DOT
 10
8549.834206048528
 20
7994.037739886943
 30
0.0
 41
20.0
 42
20.0
 43
20.0
 50
90.0
  0
MTEXT
  5
17BBA
330
17A42
100
AcDbEntity
  8
寸法
 62
     7
 48
50.0
100
AcDbMText
 10
8457.834206048527
 20
7853.552458512705
 30
0.0
 40
120.0
 41
0.0
 71
     5
 72
     1
  1
\A1;75
  7
STYLE1
 11
0.0000000000000001
 21
1.0
 31
0.0
 73
     1
 44
1.0
1001
ACAD
1000
MTEXTBEGIN
1070
    73
1070
     1
1070
    44
1040
1.0
1070
    74
1070
     0
1000
MTEXTEND
  0
POINT
  5
17BBB
330
17A42
100
AcDbEntity
  8
DEFPOINTS
 62
     0
 48
50.0
100
AcDbPoint
 10
8844.445451675245
 20
8069.037739886942
 30
0.0
  0
POINT
  5
17BBC
330
17A42
100
AcDbEntity
  8
DEFPOINTS
 62
     0
 48
50.0
100
AcDbPoint
 10
8872.445451675224
 20
7994.037739886943
 30
0.0
  0
POINT
  5
17BBD
330
17A42
100
AcDbEntity
  8
DEFPOINTS
 62
     0
 48
50.0
100
AcDbPoint
 10
8549.834206048528
 20
7994.037739886943
 30
0.0
  0
ENDBLK
  5
17A4F
330
17A42
100
AcDbEntity
  8
0
 48
50.0
100
AcDbBlockEnd
  0
BLOCK
  5
17A98
330
17A8E
100
AcDbEntity
  8
0
 48
50.0
100
AcDbBlockBegin
  2
*D35
 70
     1
 10
0.0
 20
0.0
 30
0.0
  3
*D35
  1

  0
LINE
  5
17BAA
330
17A8E
100
AcDbEntity
  8
寸法
 62
     0
 48
50.0
370
    -2
100
AcDbLine
 10
8844.445451675245
 20
8049.037739886911
 30
0.0
 11
8844.445451675245
 21
6705.011414360011
 31
0.0
  0
LINE
  5
17BAB
330
17A8E
100
AcDbEntity
  8
寸法
 62
     0
 48
50.0
370
    -2
100
AcDbLine
 10
11054.44545167522
 20
8049.037739887037
 30
0.0
 11
11054.44545167522
 21
6705.011414360011
 31
0.0
  0
LINE
  5
17BAC
330
17A8E
100
AcDbEntity
  8
寸法
 62
     0
 48
50.0
370
    -2
100
AcDbLine
 10
8844.445451675245
 20
6765.011414360012
 30
0.0
 11
11054.44545167522
 21
6765.011414360012
 31
0.0
  0
INSERT
  5
17BAD
330
17A8E
100
AcDbEntity
  8
寸法
 62
     0
 48
50.0
370
    -2
100
AcDbBlockReference
  2
_DOTSMALL
 10
8844.445451675245
 20
6765.011414360012
 30
0.0
 41
100.0
 42
100.0
 43
100.0
 50
180.0
  0
INSERT
  5
17BAE
330
17A8E
100
AcDbEntity
  8
寸法
 62
     0
 48
50.0
370
    -2
100
AcDbBlockReference
  2
_DOTSMALL
 10
11054.44545167522
 20
6765.011414360012
 30
0.0
 41
100.0
 42
100.0
 43
100.0
  0
MTEXT
  5
17BAF
330
17A8E
100
AcDbEntity
  8
寸法
 62
     7
 48
50.0
100
AcDbMText
 10
9948.026882883672
 20
6865.023225383634
 30
0.0
 40
120.0
 41
0.0
 71
     5
 72
     1
  1
\A1;2210
  7
STYLE1
 73
     1
 44
1.0
1001
ACAD
1000
MTEXTBEGIN
1070
    73
1070
     1
1070
    44
1040
1.0
1070
    74
1070
     0
1000
MTEXTEND
  0
POINT
  5
17BB0
330
17A8E
100
AcDbEntity
  8
DEFPOINTS
 62
     0
 48
50.0
100
AcDbPoint
 10
8844.445451675245
 20
8069.03773988691
 30
0.0
  0
POINT
  5
17BB1
330
17A8E
100
AcDbEntity
  8
DEFPOINTS
 62
     0
 48
50.0
100
AcDbPoint
 10
11054.44545167522
 20
8069.037739887036
 30
0.0
  0
POINT
  5
17BB2
330
17A8E
100
AcDbEntity
  8
DEFPOINTS
 62
     0
 48
50.0
100
AcDbPoint
 10
11054.44545167522
 20
6765.011414360012
 30
0.0
  0
ENDBLK
  5
17A99
330
17A8E
100
AcDbEntity
  8
0
 48
50.0
100
AcDbBlockEnd
  0
ENDSEC
  0
SECTION
  2
ENTITIES
  0
LINE
  5
10B57
330
747D
100
AcDbEntity
  8
補助
  6
PHANTOM
 62
   230
 48
50.0
100
AcDbLine
 10
139.9999999999995
 20
11409.6
 30
0.0
 11
16307.2
 21
11409.6
 31
0.0
  0
LINE
  5
10B59
330
747D
100
AcDbEntity
  8
仕様書枠
  6
Continuous
 48
50.0
100
AcDbLine
 10
13107.2
 20
1200.0
 30
0.0
 11
13107.2
 21
-0.0000000000000729
 31
0.0
  0
LINE
  5
10B5C
330
747D
100
AcDbEntity
  8
仕様書枠
 48
50.0
100
AcDbLine
 10
16307.2
 20
1200.0
 30
0.0
 11
16307.2
 21
-0.0000000000000909
 31
0.0
  0
LINE
  5
10B5D
330
747D
100
AcDbEntity
  8
仕様書枠
 48
50.0
100
AcDbLine
 10
140.0
 20
0.0
 30
0.0
 11
16307.2
 21
-0.0000000000000909
 31
0.0
  0
LINE
  5
10B5E
330
747D
100
AcDbEntity
  8
補助
  6
PHANTOM
 62
   230
 48
50.0
100
AcDbLine
 10
16307.2
 20
11409.6
 30
0.0
 11
16307.2
 21
1200.0
 31
0.0
  0
LINE
  5
10B6C
330
747D
100
AcDbEntity
  8
仕様書枠
 48
50.0
100
AcDbLine
 10
13107.2
 20
1200.0
 30
0.0
 11
16307.2
 21
1200.0
 31
0.0
  0
LINE
  5
10B6D
330
747D
100
AcDbEntity
  8
補助
  6
PHANTOM
 62
   230
 48
50.0
100
AcDbLine
 10
13107.2
 20
11409.6
 30
0.0
 11
13107.2
 21
4800.0
 31
0.0
  0
LINE
  5
10B6F
330
747D
100
AcDbEntity
  8
補助
  6
PHANTOM
 62
   230
 48
50.0
100
AcDbLine
 10
13107.2
 20
4800.0
 30
0.0
 11
16307.2
 21
4800.0
 31
0.0
  0
LINE
  5
10B72
330
747D
100
AcDbEntity
  8
文字
 62
     7
 48
50.0
100
AcDbLine
 10
13187.2
 20
400.0
 30
0.0
 11
16227.2
 21
400.0
 31
0.0
  0
TEXT
  5
10B73
330
747D
100
AcDbEntity
  8
文字
 62
     7
 48
50.0
100
AcDbText
 10
13162.9790565769
 20
895.0906074299405
 30
0.0
 40
200.0
  1
外 形 図
  7
STYLE2
100
AcDbText
  0
TEXT
  5
10B74
330
747D
100
AcDbEntity
  8
文字
 62
     7
 48
50.0
100
AcDbText
 10
13201.43669998441
 20
477.2740661031255
 30
0.0
 40
160.0
  1
機種名
  7
STYLE2
100
AcDbText
  0
TEXT
  5
10B76
330
747D
100
AcDbEntity
  8
文字
 62
     7
 48
50.0
100
AcDbText
 10
13209.4053442172
 20
76.09434707649343
 30
0.0
 40
100.0
  1
○床面積 ： 4.12㎡(1.25坪) 　
  7
STYLE2
100
AcDbText
  0
TEXT
  5
10B79
330
747D
100
AcDbEntity
  8
文字
 62
     7
 48
50.0
100
AcDbText
 10
14524.131837222
 20
1031.557706291228
 30
0.0
 40
100.0
  1
NO.15      <縮尺> S=1/40
  7
STYLE2
100
AcDbText
  0
LINE
  5
10B7B
330
747D
100
AcDbEntity
  8
仕様書枠
 48
50.0
100
AcDbLine
 10
13107.2
 20
800.0
 30
0.0
 11
14251.2
 21
800.0
 31
0.0
  0
LINE
  5
10B88
330
747D
100
AcDbEntity
  8
仕様書枠
  6
Continuous
 48
50.0
100
AcDbLine
 10
14251.2
 20
1200.0
 30
0.0
 11
14251.2
 21
800.0
 31
0.0
  0
TEXT
  5
154D3
330
747D
100
AcDbEntity
  8
文字
 62
     7
 48
50.0
100
AcDbText
 10
14643.63059855437
 20
863.0097378581719
 30
0.0
 40
100.0
  1
～一般型・多雪地型～
  7
STYLE2
100
AcDbText
  0
LINE
  5
15D77
330
747D
100
AcDbEntity
  8
補助
  6
PHANTOM
 62
   230
 48
50.0
100
AcDbLine
 10
140.0
 20
0.0
 30
0.0
 11
140.0
 21
11409.6
 31
0.0
  0
LINE
  5
161F5
330
747D
100
AcDbEntity
  8
部品1
100
AcDbLine
 10
11026.44545167525
 20
8544.037739887048
 30
0.0
 11
11054.44545167525
 21
8544.037739887048
 31
0.0
  0
LINE
  5
161F6
330
747D
100
AcDbEntity
  8
部品1
100
AcDbLine
 10
8872.445451675231
 20
8544.03773988692
 30
0.0
 11
8844.44545167523
 21
8544.03773988692
 31
0.0
  0
LINE
  5
161F7
330
747D
100
AcDbEntity
  8
部品1
 48
50.0
100
AcDbLine
 10
10997.94545167523
 20
8544.037739887048
 30
0.0
 11
8900.945451675235
 21
8544.037739887135
 31
0.0
  0
LINE
  5
161F8
330
747D
100
AcDbEntity
  8
部品1
100
AcDbLine
 10
5127.985105577707
 20
2579.70866761214
 30
0.0
 11
5127.985105577707
 21
2479.70866761214
 31
0.0
  0
LINE
  5
161F9
330
747D
100
AcDbEntity
  8
部品1
 48
50.0
100
AcDbLine
 10
5722.985105577707
 20
2579.70866761214
 30
0.0
 11
5722.985105577707
 21
2479.70866761214
 31
0.0
  0
LINE
  5
161FA
330
747D
100
AcDbEntity
  8
部品1
 48
50.0
100
AcDbLine
 10
5922.985105577708
 20
2579.70866761214
 30
0.0
 11
5922.985105577708
 21
2479.70866761214
 31
0.0
  0
LINE
  5
161FB
330
747D
100
AcDbEntity
  8
部品1
100
AcDbLine
 10
6517.985105577707
 20
2579.70866761214
 30
0.0
 11
6517.985105577707
 21
2479.70866761214
 31
0.0
  0
LINE
  5
161FC
330
747D
100
AcDbEntity
  8
部品1
 48
50.0
100
AcDbLine
 10
6794.98510557771
 20
2579.70866761214
 30
0.0
 11
6710.48510557771
 21
2579.70866761214
 31
0.0
  0
LINE
  5
161FD
330
747D
100
AcDbEntity
  8
部品1
 48
50.0
100
AcDbLine
 10
6794.98510557771
 20
4704.70866761214
 30
0.0
 11
6794.98510557771
 21
2479.70866761214
 31
0.0
  0
LINE
  5
161FE
330
747D
100
AcDbEntity
  8
部品1
 48
50.0
100
AcDbLine
 10
6717.98510557771
 20
4714.708667612139
 30
0.0
 11
6794.98510557771
 21
4704.70866761214
 31
0.0
  0
LINE
  5
161FF
330
747D
100
AcDbEntity
  8
破線
 48
5.0
100
AcDbLine
 10
6590.485105577714
 20
2479.70866761214
 30
0.0
 11
6590.485105577714
 21
2279.70866761214
 31
0.0
  0
LINE
  5
16200
330
747D
100
AcDbEntity
  8
破線
 48
5.0
100
AcDbLine
 10
6790.485105577712
 20
2279.708667612138
 30
0.0
 11
6590.485105577714
 21
2279.70866761214
 31
0.0
  0
LINE
  5
16201
330
747D
100
AcDbEntity
  8
破線
 48
5.0
100
AcDbLine
 10
6790.485105577714
 20
2479.70866761214
 30
0.0
 11
6790.485105577712
 21
2279.708667612138
 31
0.0
  0
DIMENSION
  5
16202
330
747D
100
AcDbEntity
  8
寸法
 48
50.0
100
AcDbDimension
  2
*D4
 10
4855.48510557771
 20
1993.661338311761
 30
0.0
 11
4955.485105577709
 21
1993.661338311761
 31
0.0
 70
   160
 71
     5
 42
199.9999999999963
  3
INABA_S40G
100
AcDbAlignedDimension
 13
5055.485105577707
 23
2279.708667612137
 33
0.0
 14
4855.48510557771
 24
2279.708667612139
 34
0.0
100
AcDbRotatedDimension
  0
LINE
  5
16203
330
747D
100
AcDbEntity
  8
破線
 48
5.0
100
AcDbLine
 10
4855.485105577707
 20
2479.70866761214
 30
0.0
 11
4855.48510557771
 21
2279.708667612138
 31
0.0
  0
LINE
  5
16204
330
747D
100
AcDbEntity
  8
破線
 48
5.0
100
AcDbLine
 10
5055.485105577707
 20
2479.70866761214
 30
0.0
 11
5055.485105577707
 21
2279.708667612138
 31
0.0
  0
LINE
  5
16205
330
747D
100
AcDbEntity
  8
破線
 48
5.0
100
AcDbLine
 10
5055.485105577707
 20
2279.708667612138
 30
0.0
 11
4855.48510557771
 21
2279.708667612138
 31
0.0
  0
DIMENSION
  5
16206
330
747D
100
AcDbEntity
  8
寸法
 48
50.0
100
AcDbDimension
  2
*D5
 10
4705.985102331074
 20
2479.70866761214
 30
0.0
 11
4705.985102331072
 21
2379.70866761214
 31
0.0
 70
   160
 71
     5
 42
200.0000000000009
  3
INABA_S40G
100
AcDbAlignedDimension
 13
4855.48510557771
 23
2279.708667612139
 33
0.0
 14
4830.485105577707
 24
2479.70866761214
 34
0.0
 50
90.0
100
AcDbRotatedDimension
1001
ACAD
1000
DSTYLE
1002
{
1070
   174
1070
     0
1070
   272
1070
     1
1070
   288
1070
     0
1070
   341
1005
0
1002
}
  0
LINE
  5
16207
330
747D
100
AcDbEntity
  8
部品1
 48
50.0
100
AcDbLine
 10
5672.985105577708
 20
5085.576806713419
 30
0.0
 11
5972.985105577707
 21
5069.376806713421
 31
0.0
  0
DIMENSION
  5
16208
330
747D
100
AcDbEntity
  8
寸法
 48
50.0
100
AcDbDimension
  2
*D6
 10
4307.376698809349
 20
4829.053926485471
 30
0.0
 11
4318.042174068273
 21
5199.900589727169
 31
0.0
 70
   161
 71
     5
 42
141.0
  3
INABA_S40G
100
AcDbAlignedDimension
 13
4887.381125736286
 23
4953.43141644682
 33
0.0
 14
4883.32767017966
 24
4812.489692681107
 34
0.0
1001
ACAD
1000
DSTYLE
1002
{
1070
   174
1070
     0
1070
   272
1070
     1
1070
   288
1070
     0
1070
   341
1005
0
1002
}
  0
LINE
  5
16209
330
747D
100
AcDbEntity
  8
細線
 48
50.0
100
AcDbLine
 10
6585.485105577714
 20
4719.70866761214
 30
0.0
 11
6585.485105577714
 21
2629.70866761214
 31
0.0
  0
LINE
  5
1620A
330
747D
100
AcDbEntity
  8
細線
 48
50.0
100
AcDbLine
 10
6600.485105577715
 20
4719.70866761214
 30
0.0
 11
6600.485105577715
 21
2629.70866761214
 31
0.0
  0
LINE
  5
1620B
330
747D
100
AcDbEntity
  8
細線
 48
50.0
100
AcDbLine
 10
6460.485105577714
 20
4719.70866761214
 30
0.0
 11
6460.485105577714
 21
2629.70866761214
 31
0.0
  0
LINE
  5
1620C
330
747D
100
AcDbEntity
  8
細線
 48
50.0
100
AcDbLine
 10
6445.485105577714
 20
4719.70866761214
 30
0.0
 11
6445.485105577714
 21
2629.70866761214
 31
0.0
  0
LINE
  5
1620D
330
747D
100
AcDbEntity
  8
細線
 48
50.0
100
AcDbLine
 10
6305.485105577714
 20
4719.70866761214
 30
0.0
 11
6305.485105577714
 21
2629.70866761214
 31
0.0
  0
LINE
  5
1620E
330
747D
100
AcDbEntity
  8
細線
 48
50.0
100
AcDbLine
 10
6320.485105577715
 20
4719.70866761214
 30
0.0
 11
6320.485105577715
 21
2629.70866761214
 31
0.0
  0
LINE
  5
1620F
330
747D
100
AcDbEntity
  8
部品1
100
AcDbLine
 10
6242.985105577707
 20
4719.70866761214
 30
0.0
 11
6242.985105577707
 21
2629.70866761214
 31
0.0
  0
LINE
  5
16210
330
747D
100
AcDbEntity
  8
細線
 48
50.0
100
AcDbLine
 10
5900.485105577711
 20
4719.70866761214
 30
0.0
 11
5900.485105577711
 21
2629.70866761214
 31
0.0
  0
LINE
  5
16211
330
747D
100
AcDbEntity
  8
細線
 48
50.0
100
AcDbLine
 10
5885.485105577711
 20
4719.70866761214
 30
0.0
 11
5885.485105577711
 21
2629.70866761214
 31
0.0
  0
LINE
  5
16212
330
747D
100
AcDbEntity
  8
細線
 48
50.0
100
AcDbLine
 10
6025.485105577711
 20
4719.70866761214
 30
0.0
 11
6025.485105577711
 21
2629.70866761214
 31
0.0
  0
LINE
  5
16213
330
747D
100
AcDbEntity
  8
細線
 48
50.0
100
AcDbLine
 10
6040.485105577711
 20
4719.70866761214
 30
0.0
 11
6040.485105577711
 21
2629.70866761214
 31
0.0
  0
LINE
  5
16214
330
747D
100
AcDbEntity
  8
細線
 48
50.0
100
AcDbLine
 10
6180.485105577711
 20
4719.70866761214
 30
0.0
 11
6180.485105577711
 21
2629.70866761214
 31
0.0
  0
LINE
  5
16215
330
747D
100
AcDbEntity
  8
細線
 48
50.0
100
AcDbLine
 10
6165.485105577711
 20
4719.70866761214
 30
0.0
 11
6165.485105577711
 21
2629.70866761214
 31
0.0
  0
LINE
  5
16216
330
747D
100
AcDbEntity
  8
部品1
100
AcDbLine
 10
5822.985105577707
 20
4719.70866761214
 30
0.0
 11
5822.985105577707
 21
2629.70866761214
 31
0.0
  0
TEXT
  5
16217
330
747D
100
AcDbEntity
  8
部品1
 48
50.0
100
AcDbText
 10
6150.077952865565
 20
4983.95957064757
 30
0.0
 40
120.0
  1
54
 50
90.0
  7
STYLE1
100
AcDbText
  0
TEXT
  5
16218
330
747D
100
AcDbEntity
  8
部品1
 48
50.0
100
AcDbText
 10
5661.252940801435
 20
5121.460828865853
 30
0.0
 40
120.0
  1
1000
  7
STYLE1
100
AcDbText
  0
LINE
  5
16219
330
747D
100
AcDbEntity
  8
部品1
 48
50.0
100
AcDbLine
 10
5972.985105577707
 20
5085.576806713419
 30
0.0
 11
5972.985105577707
 21
5069.376806713421
 31
0.0
  0
LINE
  5
1621A
330
747D
100
AcDbEntity
  8
部品1
 48
50.0
100
AcDbLine
 10
5672.985105577708
 20
5085.576806713419
 30
0.0
 11
5972.985105577707
 21
5085.576806713419
 31
0.0
  0
DIMENSION
  5
1621B
330
747D
100
AcDbEntity
  8
寸法
 48
50.0
100
AcDbDimension
  2
*D7
 10
6797.985105577708
 20
5353.366121191444
 30
0.0
 11
7004.032349672198
 21
5353.366121191444
 31
0.0
 70
   160
 71
     5
 42
80.0
  3
INABA_S40G
100
AcDbAlignedDimension
 13
6717.985105577708
 23
4901.519347223793
 33
0.0
 14
6797.985105577708
 24
4899.708667612141
 34
0.0
100
AcDbRotatedDimension
1001
ACAD
1000
DSTYLE
1002
{
1070
   174
1070
     0
1070
   272
1070
     1
1070
   288
1070
     0
1070
   341
1005
0
1002
}
  0
ARC
  5
1621C
330
747D
100
AcDbEntity
  8
部品1
100
AcDbCircle
 10
6783.612641391646
 20
4793.732424877933
 30
0.0
 40
0.7
100
AcDbArc
 50
275.0921697642102
 51
354.1866997667071
  0
ARC
  5
1621D
330
747D
100
AcDbEntity
  8
部品1
100
AcDbCircle
 10
6794.471987140966
 20
4870.775679695857
 30
0.0
 40
0.7
100
AcDbArc
 50
275.0921697642102
 51
354.1866997665532
  0
ARC
  5
1621E
330
747D
100
AcDbEntity
  8
部品1
100
AcDbCircle
 10
6794.800392383567
 20
4867.090282838766
 30
0.0
 40
3.0
100
AcDbArc
 50
95.0921697642102
 51
174.1866997665532
  0
ARC
  5
1621F
330
747D
100
AcDbEntity
  8
部品1
100
AcDbCircle
 10
6783.941046634241
 20
4790.047028020842
 30
0.0
 40
3.0
100
AcDbArc
 50
95.0921697642102
 51
174.1866997665532
  0
ARC
  5
16220
330
747D
100
AcDbEntity
  8
部品1
 48
50.0
100
AcDbCircle
 10
6772.912911359137
 20
4780.456283416959
 30
0.0
 40
7.0
100
AcDbArc
 50
267.8377559869488
 51
354.1866997665532
  0
ARC
  5
16221
330
747D
100
AcDbEntity
  8
部品1
 48
50.0
100
AcDbCircle
 10
6790.235007823652
 20
4891.358830559133
 30
0.0
 40
7.0
100
AcDbArc
 50
354.1866997665532
 51
87.03587545283102
  0
LINE
  5
16222
330
747D
100
AcDbEntity
  8
部品1
 48
50.0
100
AcDbLine
 10
6780.956474963634
 20
4790.350889737744
 30
0.0
 11
6779.876911923892
 21
4779.747272744185
 31
0.0
  0
LINE
  5
16223
330
747D
100
AcDbEntity
  8
部品1
 48
50.0
100
AcDbLine
 10
6791.815820712956
 20
4867.39414455567
 30
0.0
 11
6784.309041448119
 21
4793.661523810657
 31
0.0
  0
LINE
  5
16224
330
747D
100
AcDbEntity
  8
部品1
 48
50.0
100
AcDbLine
 10
6797.199008388408
 20
4890.649819886359
 30
0.0
 11
6795.168387197438
 21
4870.704778628578
 31
0.0
  0
ARC
  5
16225
330
747D
100
AcDbEntity
  8
部品1
100
AcDbCircle
 10
4874.022197449074
 20
4833.522826571043
 30
0.0
 40
0.7
100
AcDbArc
 50
181.0932240292114
 51
260.1877540314855
  0
ARC
  5
16226
330
747D
100
AcDbEntity
  8
部品1
100
AcDbCircle
 10
4869.249523851464
 20
4926.388604771164
 30
0.0
 40
0.7
100
AcDbArc
 50
181.0932240292114
 51
260.1877540314855
  0
ARC
  5
16227
330
747D
100
AcDbEntity
  8
部品1
100
AcDbCircle
 10
4868.618969448442
 20
4922.742730233766
 30
0.0
 40
3.0
100
AcDbArc
 50
1.093224029263536
 51
80.18775403169737
  0
ARC
  5
16228
330
747D
100
AcDbEntity
  8
部品1
100
AcDbCircle
 10
4873.391643046049
 20
4829.876952033647
 30
0.0
 40
3.0
100
AcDbArc
 50
1.093224029263536
 51
80.18775403148559
  0
ARC
  5
16229
330
747D
100
AcDbEntity
  8
部品1
 48
50.0
100
AcDbCircle
 10
4883.591775421249
 20
4819.484708651166
 30
0.0
 40
7.0
100
AcDbArc
 50
181.0932240292635
 51
267.8377559869488
  0
ARC
  5
1622A
330
747D
100
AcDbEntity
  8
部品1
 48
50.0
100
AcDbCircle
 10
4875.168117319153
 20
4946.435768184259
 30
0.0
 40
7.0
100
AcDbArc
 50
87.03587545283102
 51
181.0932240292635
  0
LINE
  5
1622B
330
747D
100
AcDbEntity
  8
部品1
 48
50.0
100
AcDbLine
 10
4876.391096972478
 20
4829.93418963683
 30
0.0
 11
4876.593049592909
 21
4819.351154243737
 31
0.0
  0
LINE
  5
1622C
330
747D
100
AcDbEntity
  8
細線
 48
50.0
100
AcDbLine
 10
4873.785003915807
 20
4832.864237755639
 30
0.0
 11
6783.788668346442
 21
4793.054918781145
 31
0.0
  0
LINE
  5
1622D
330
747D
100
AcDbEntity
  8
細線
 48
50.0
100
AcDbLine
 10
4869.024528678521
 20
4925.7257494535
 30
0.0
 11
6794.660513423689
 21
4870.101544812674
 31
0.0
  0
LINE
  5
1622E
330
747D
100
AcDbEntity
  8
部品1
 48
50.0
100
AcDbLine
 10
4871.618423374872
 20
4922.799967836948
 30
0.0
 11
4873.322324866236
 21
4833.509471130303
 31
0.0
  0
LINE
  5
1622F
330
747D
100
AcDbEntity
  8
部品1
 48
50.0
100
AcDbLine
 10
4868.169391490813
 20
4946.302213776833
 30
0.0
 11
4868.549651268626
 21
4926.37524933042
 31
0.0
  0
LINE
  5
16230
330
747D
100
AcDbEntity
  8
細線
 48
50.0
100
AcDbLine
 10
6764.985105577707
 20
4899.675646647437
 30
0.0
 11
6760.237422689709
 21
4773.929874156692
 31
0.0
  0
LINE
  5
16231
330
747D
100
AcDbEntity
  8
細線
 48
50.0
100
AcDbLine
 10
4900.985105577706
 20
4952.108343987544
 30
0.0
 11
4895.6960040222
 21
4812.02271136019
 31
0.0
  0
LINE
  5
16232
330
747D
100
AcDbEntity
  8
部品1
100
AcDbLine
 10
4883.32767017966
 20
4812.489692681107
 30
0.0
 11
6772.648806117551
 21
4773.461267446903
 31
0.0
  0
LINE
  5
16233
330
747D
100
AcDbEntity
  8
部品1
100
AcDbLine
 10
4875.53009193467
 20
4953.426402946407
 30
0.0
 11
6790.596982439168
 21
4898.34946532128
 31
0.0
  0
LINE
  5
16234
330
747D
100
AcDbEntity
  8
細線
 48
50.0
100
AcDbLine
 10
5060.485105577708
 20
4719.70866761214
 30
0.0
 11
5060.485105577708
 21
2629.70866761214
 31
0.0
  0
LINE
  5
16235
330
747D
100
AcDbEntity
  8
細線
 48
50.0
100
AcDbLine
 10
5045.485105577707
 20
4719.70866761214
 30
0.0
 11
5045.485105577707
 21
2629.70866761214
 31
0.0
  0
LINE
  5
16236
330
747D
100
AcDbEntity
  8
細線
 48
50.0
100
AcDbLine
 10
5185.485105577708
 20
4719.70866761214
 30
0.0
 11
5185.485105577708
 21
2629.70866761214
 31
0.0
  0
LINE
  5
16237
330
747D
100
AcDbEntity
  8
細線
 48
50.0
100
AcDbLine
 10
5200.485105577707
 20
4719.70866761214
 30
0.0
 11
5200.485105577707
 21
2629.70866761214
 31
0.0
  0
LINE
  5
16238
330
747D
100
AcDbEntity
  8
細線
 48
50.0
100
AcDbLine
 10
5340.485105577707
 20
4719.70866761214
 30
0.0
 11
5340.485105577707
 21
2629.70866761214
 31
0.0
  0
LINE
  5
16239
330
747D
100
AcDbEntity
  8
細線
 48
50.0
100
AcDbLine
 10
5325.485105577707
 20
4719.70866761214
 30
0.0
 11
5325.485105577707
 21
2629.70866761214
 31
0.0
  0
LINE
  5
1623A
330
747D
100
AcDbEntity
  8
細線
 48
50.0
100
AcDbLine
 10
5745.485105577706
 20
4719.70866761214
 30
0.0
 11
5745.485105577706
 21
2629.70866761214
 31
0.0
  0
LINE
  5
1623B
330
747D
100
AcDbEntity
  8
細線
 48
50.0
100
AcDbLine
 10
5760.485105577707
 20
4719.70866761214
 30
0.0
 11
5760.485105577707
 21
2629.70866761214
 31
0.0
  0
LINE
  5
1623C
330
747D
100
AcDbEntity
  8
細線
 48
50.0
100
AcDbLine
 10
5620.485105577706
 20
4719.70866761214
 30
0.0
 11
5620.485105577706
 21
2629.70866761214
 31
0.0
  0
LINE
  5
1623D
330
747D
100
AcDbEntity
  8
細線
 48
50.0
100
AcDbLine
 10
5605.485105577707
 20
4719.70866761214
 30
0.0
 11
5605.485105577707
 21
2629.70866761214
 31
0.0
  0
LINE
  5
1623E
330
747D
100
AcDbEntity
  8
細線
 48
50.0
100
AcDbLine
 10
5465.485105577707
 20
4719.70866761214
 30
0.0
 11
5465.485105577707
 21
2629.70866761214
 31
0.0
  0
LINE
  5
1623F
330
747D
100
AcDbEntity
  8
細線
 48
50.0
100
AcDbLine
 10
5480.485105577707
 20
4719.70866761214
 30
0.0
 11
5480.485105577707
 21
2629.70866761214
 31
0.0
  0
LINE
  5
16240
330
747D
100
AcDbEntity
  8
部品1
100
AcDbLine
 10
4975.485105577707
 20
2579.70866761214
 30
0.0
 11
6670.485105577707
 21
2579.70866761214
 31
0.0
  0
LINE
  5
16241
330
747D
100
AcDbEntity
  8
部品1
100
AcDbLine
 10
6710.485105577707
 20
2579.70866761214
 30
0.0
 11
6717.98510557771
 21
2579.70866761214
 31
0.0
  0
LINE
  5
16242
330
747D
100
AcDbEntity
  8
破線
  6
HIDDEN
 48
5.0
100
AcDbLine
 10
4975.485105577707
 20
2479.70866761214
 30
0.0
 11
4975.485105577707
 21
2474.70866761214
 31
0.0
  0
LINE
  5
16243
330
747D
100
AcDbEntity
  8
破線
  6
HIDDEN
 48
5.0
100
AcDbLine
 10
4935.485105577715
 20
2479.70866761214
 30
0.0
 11
4935.485105577715
 21
2474.70866761214
 31
0.0
  0
LINE
  5
16244
330
747D
100
AcDbEntity
  8
破線
  6
HIDDEN
 48
5.0
100
AcDbLine
 10
6710.485105577707
 20
2479.70866761214
 30
0.0
 11
6710.485105577707
 21
2474.70866761214
 31
0.0
  0
LINE
  5
16245
330
747D
100
AcDbEntity
  8
破線
  6
HIDDEN
 48
5.0
100
AcDbLine
 10
6670.485105577707
 20
2479.70866761214
 30
0.0
 11
6670.485105577707
 21
2474.70866761214
 31
0.0
  0
ARC
  5
16246
330
747D
100
AcDbEntity
  8
部品1
 48
50.0
100
AcDbCircle
 10
6705.485105577707
 20
2619.70866761214
 30
0.0
 40
5.0
100
AcDbArc
 50
0.0
 51
90.0
  0
ARC
  5
16247
330
747D
100
AcDbEntity
  8
部品1
 48
50.0
100
AcDbCircle
 10
6675.485105577706
 20
2619.70866761214
 30
0.0
 40
5.0
100
AcDbArc
 50
90.0
 51
180.0
  0
LINE
  5
16248
330
747D
100
AcDbEntity
  8
部品1
100
AcDbLine
 10
6705.485105577707
 20
2624.70866761214
 30
0.0
 11
6675.485105577706
 21
2624.70866761214
 31
0.0
  0
LINE
  5
16249
330
747D
100
AcDbEntity
  8
部品1
 48
50.0
100
AcDbLine
 10
6710.485105577707
 20
2619.70866761214
 30
0.0
 11
6710.485105577707
 21
2479.70866761214
 31
0.0
  0
LINE
  5
1624A
330
747D
100
AcDbEntity
  8
部品1
 48
50.0
100
AcDbLine
 10
6670.485105577707
 20
2619.70866761214
 30
0.0
 11
6670.485105577707
 21
2479.70866761214
 31
0.0
  0
ARC
  5
1624B
330
747D
100
AcDbEntity
  8
部品1
 48
50.0
100
AcDbCircle
 10
4970.485105577707
 20
2619.70866761214
 30
0.0
 40
5.0
100
AcDbArc
 50
0.0
 51
90.0
  0
ARC
  5
1624C
330
747D
100
AcDbEntity
  8
部品1
 48
50.0
100
AcDbCircle
 10
4940.485105577707
 20
2619.70866761214
 30
0.0
 40
5.0
100
AcDbArc
 50
90.0
 51
180.0
  0
LINE
  5
1624D
330
747D
100
AcDbEntity
  8
部品1
100
AcDbLine
 10
4940.485105577707
 20
2624.70866761214
 30
0.0
 11
4970.485105577707
 21
2624.70866761214
 31
0.0
  0
LINE
  5
1624E
330
747D
100
AcDbEntity
  8
部品1
 48
50.0
100
AcDbLine
 10
4975.485105577707
 20
2619.70866761214
 30
0.0
 11
4975.485105577707
 21
2479.70866761214
 31
0.0
  0
LINE
  5
1624F
330
747D
100
AcDbEntity
  8
部品1
 48
50.0
100
AcDbLine
 10
4935.485105577708
 20
2619.70866761214
 30
0.0
 11
4935.485105577708
 21
2479.70866761214
 31
0.0
  0
LINE
  5
16250
330
747D
100
AcDbEntity
  8
破線
  6
HIDDEN
 48
5.0
100
AcDbLine
 10
4975.485105577707
 20
2474.70866761214
 30
0.0
 11
4990.485105577707
 21
2327.008667612139
 31
0.0
  0
LINE
  5
16251
330
747D
100
AcDbEntity
  8
破線
  6
HIDDEN
 48
5.0
100
AcDbLine
 10
4935.485105577708
 20
2474.70866761214
 30
0.0
 11
4920.485105577707
 21
2327.008667612139
 31
0.0
  0
LINE
  5
16252
330
747D
100
AcDbEntity
  8
破線
  6
HIDDEN
 48
5.0
100
AcDbLine
 10
4990.485105577707
 20
2327.008667612139
 30
0.0
 11
4990.485105577707
 21
2324.70866761214
 31
0.0
  0
LINE
  5
16253
330
747D
100
AcDbEntity
  8
破線
  6
HIDDEN
 48
5.0
100
AcDbLine
 10
4920.485105577707
 20
2327.008667612139
 30
0.0
 11
4920.485105577707
 21
2324.70866761214
 31
0.0
  0
LINE
  5
16254
330
747D
100
AcDbEntity
  8
破線
  6
HIDDEN
 48
5.0
100
AcDbLine
 10
4920.485105577707
 20
2324.70866761214
 30
0.0
 11
4990.485105577707
 21
2324.70866761214
 31
0.0
  0
LINE
  5
16255
330
747D
100
AcDbEntity
  8
破線
  6
HIDDEN
 48
5.0
100
AcDbLine
 10
6725.485105577707
 20
2327.008667612139
 30
0.0
 11
6725.485105577707
 21
2324.70866761214
 31
0.0
  0
LINE
  5
16256
330
747D
100
AcDbEntity
  8
破線
  6
HIDDEN
 48
5.0
100
AcDbLine
 10
6710.485105577707
 20
2474.70866761214
 30
0.0
 11
6725.485105577707
 21
2327.008667612139
 31
0.0
  0
LINE
  5
16257
330
747D
100
AcDbEntity
  8
破線
  6
HIDDEN
 48
5.0
100
AcDbLine
 10
6655.485105577708
 20
2327.008667612139
 30
0.0
 11
6655.485105577708
 21
2324.70866761214
 31
0.0
  0
LINE
  5
16258
330
747D
100
AcDbEntity
  8
破線
  6
HIDDEN
 48
5.0
100
AcDbLine
 10
6670.485105577707
 20
2474.70866761214
 30
0.0
 11
6655.485105577708
 21
2327.008667612139
 31
0.0
  0
LINE
  5
16259
330
747D
100
AcDbEntity
  8
破線
  6
HIDDEN
 48
5.0
100
AcDbLine
 10
6725.485105577707
 20
2324.70866761214
 30
0.0
 11
6655.485105577708
 21
2324.70866761214
 31
0.0
  0
DIMENSION
  5
1625A
330
747D
100
AcDbEntity
  8
寸法
 48
50.0
100
AcDbDimension
  2
*D8
 10
4867.985105577707
 20
5570.327936570058
 30
0.0
 11
5773.790856828677
 21
5570.327936570058
 31
0.0
 70
   160
 71
     5
 42
1930.0
  3
INABA_S40G
100
AcDbAlignedDimension
 13
6797.985105577708
 23
4899.708667612141
 33
0.0
 14
4867.985105577707
 24
4954.708667612145
 34
0.0
100
AcDbRotatedDimension
1001
ACAD
1000
DSTYLE
1002
{
1070
   174
1070
     0
1070
   272
1070
     1
1070
   288
1070
     0
1070
   341
1005
0
1002
}
  0
DIMENSION
  5
1625B
330
747D
100
AcDbEntity
  8
寸法
 48
50.0
100
AcDbDimension
  2
*D9
 10
4867.985105577707
 20
5353.366121191444
 30
0.0
 11
4558.347310302116
 21
5353.366121191444
 31
0.0
 70
   160
 71
     5
 42
60.0
  3
INABA_S40G
100
AcDbAlignedDimension
 13
4927.985105577707
 23
4950.710285735116
 33
0.0
 14
4867.985105577707
 24
4954.708667612145
 34
0.0
100
AcDbRotatedDimension
1001
ACAD
1000
DSTYLE
1002
{
1070
   174
1070
     0
1070
   272
1070
     1
1070
   288
1070
     0
1070
   341
1005
0
1002
}
  0
DIMENSION
  5
1625C
330
747D
100
AcDbEntity
  8
寸法
 48
50.0
100
AcDbDimension
  2
*D10
 10
4927.985105577707
 20
5353.801836951613
 30
0.0
 11
5837.580754254187
 21
5353.801836951613
 31
0.0
 70
   160
  1
柱外寸法<>
 71
     5
 42
1790.0
  3
INABA_S40G
100
AcDbAlignedDimension
 13
6717.985105577708
 23
4901.519347223793
 33
0.0
 14
4927.985105577707
 24
4950.710285735116
 34
0.0
100
AcDbRotatedDimension
1001
ACAD
1000
DSTYLE
1002
{
1070
   174
1070
     0
1070
   272
1070
     1
1070
   288
1070
     0
1070
   341
1005
0
1002
}
  0
DIMENSION
  5
1625D
330
747D
100
AcDbEntity
  8
寸法
100
AcDbDimension
  2
*D11
 10
7330.155201340135
 20
4899.708667612141
 30
0.0
 11
7330.155201340135
 21
3861.964995041828
 31
0.0
 70
   160
 71
     5
 42
2320.000000000002
  3
INABA_S40G
100
AcDbAlignedDimension
 13
6794.98510557771
 23
2579.70866761214
 33
0.0
 14
6797.985105577708
 24
4899.708667612141
 34
0.0
 50
90.0
100
AcDbRotatedDimension
1001
ACAD
1000
DSTYLE
1002
{
1070
   174
1070
     0
1070
   272
1070
     1
1070
   288
1070
     0
1070
   341
1005
0
1002
}
  0
LINE
  5
1625E
330
747D
100
AcDbEntity
  8
部品1
100
AcDbLine
 10
6662.98510557771
 20
4719.70866761214
 30
0.0
 11
6662.98510557771
 21
2629.70866761214
 31
0.0
  0
LINE
  5
1625F
330
747D
100
AcDbEntity
  8
部品1
100
AcDbLine
 10
6717.985105577708
 20
4774.590476298146
 30
0.0
 11
6717.98510557771
 21
2479.70866761214
 31
0.0
  0
LINE
  5
16260
330
747D
100
AcDbEntity
  8
部品1
100
AcDbLine
 10
5402.985105577707
 20
4719.70866761214
 30
0.0
 11
5402.985105577707
 21
2629.70866761214
 31
0.0
  0
DIMENSION
  5
16261
330
747D
100
AcDbEntity
  8
寸法
100
AcDbDimension
  2
*D12
 10
4304.33239641941
 20
2579.70866761214
 30
0.0
 11
4304.332396419409
 21
2273.661423517649
 31
0.0
 70
   160
 71
     5
 42
50.0
  3
INABA_S40G
100
AcDbAlignedDimension
 13
4927.985105577707
 23
2629.70866761214
 33
0.0
 14
4872.985105577708
 24
2579.70866761214
 34
0.0
 50
90.0
100
AcDbRotatedDimension
1001
ACAD
1000
DSTYLE
1002
{
1070
   174
1070
     0
1070
   272
1070
     1
1070
   288
1070
     0
1070
   341
1005
0
1002
}
  0
DIMENSION
  5
16262
330
747D
100
AcDbEntity
  8
寸法
100
AcDbDimension
  2
*D13
 10
4019.345723648348
 20
2479.70866761214
 30
0.0
 11
4019.345723648348
 21
2243.661423517648
 31
0.0
 70
   160
 71
     5
 42
100.0
  3
INABA_S40G
100
AcDbAlignedDimension
 13
4872.985105577708
 23
2579.70866761214
 33
0.0
 14
4304.332396419409
 24
2479.70866761214
 34
0.0
 50
90.0
100
AcDbRotatedDimension
1001
ACAD
1000
DSTYLE
1002
{
1070
   174
1070
     0
1070
   272
1070
     1
1070
   288
1070
     0
1070
   341
1005
0
1002
}
  0
DIMENSION
  5
16263
330
747D
100
AcDbEntity
  8
寸法
100
AcDbDimension
  2
*D14
 10
4019.345723648348
 20
4954.708667612145
 30
0.0
 11
4019.345723648348
 21
3674.70866761214
 31
0.0
 70
   160
 71
     5
 42
2375.000000000005
  3
INABA_S40G
100
AcDbAlignedDimension
 13
4927.985105577707
 23
2579.70866761214
 33
0.0
 14
4867.985105577707
 24
4954.708667612145
 34
0.0
 50
90.0
100
AcDbRotatedDimension
1001
ACAD
1000
DSTYLE
1002
{
1070
   174
1070
     0
1070
   272
1070
     1
1070
   288
1070
     0
1070
   341
1005
0
1002
}
  0
DIMENSION
  5
16264
330
747D
100
AcDbEntity
  8
寸法
100
AcDbDimension
  2
*D15
 10
4304.332396419411
 20
2629.70866761214
 30
0.0
 11
4304.33239641941
 21
3674.70866761214
 31
0.0
 70
   160
 71
     5
 42
2090.0
  3
INABA_S40G
100
AcDbAlignedDimension
 13
4927.985105577707
 23
4719.70866761214
 33
0.0
 14
4927.985105577707
 24
2629.70866761214
 34
0.0
 50
90.0
100
AcDbRotatedDimension
1001
ACAD
1000
DSTYLE
1002
{
1070
   174
1070
     0
1070
   272
1070
     1
1070
   288
1070
     0
1070
   341
1005
0
1002
}
  0
LINE
  5
16265
330
747D
100
AcDbEntity
  8
部品1
100
AcDbLine
 10
4927.985105577707
 20
4811.567187054389
 30
0.0
 11
4927.985105577707
 21
2479.70866761214
 31
0.0
  0
LINE
  5
16266
330
747D
100
AcDbEntity
  8
部品1
100
AcDbLine
 10
4982.985105577707
 20
4719.70866761214
 30
0.0
 11
4982.985105577707
 21
2629.70866761214
 31
0.0
  0
LINE
  5
16267
330
747D
100
AcDbEntity
  8
部品1
100
AcDbLine
 10
4927.985105577707
 20
2579.70866761214
 30
0.0
 11
4935.485105577708
 21
2579.70866761214
 31
0.0
  0
LINE
  5
16268
330
747D
100
AcDbEntity
  8
部品1
100
AcDbLine
 10
4927.985105577707
 20
2629.70866761214
 30
0.0
 11
6717.98510557771
 21
2629.70866761214
 31
0.0
  0
LINE
  5
16269
330
747D
100
AcDbEntity
  8
部品1
100
AcDbLine
 10
4927.985105577707
 20
4719.70866761214
 30
0.0
 11
6717.985105577708
 21
4719.70866761214
 31
0.0
  0
LINE
  5
1626A
330
747D
100
AcDbEntity
  8
部品1
100
AcDbLine
 10
6204.720438691925
 20
1790.670404634729
 30
0.0
 11
5441.249772463486
 21
1790.670404634729
 31
0.0
  0
LINE
  5
1626B
330
747D
100
AcDbEntity
  8
部品1
100
AcDbLine
 10
6204.720438691925
 20
1550.778083089197
 30
0.0
 11
6204.720438691925
 21
1790.670404634729
 31
0.0
  0
LINE
  5
1626C
330
747D
100
AcDbEntity
  8
部品1
100
AcDbLine
 10
5441.249772463486
 20
1550.778083089197
 30
0.0
 11
6204.720438691925
 21
1550.778083089197
 31
0.0
  0
LINE
  5
1626D
330
747D
100
AcDbEntity
  8
部品1
100
AcDbLine
 10
5441.249772463486
 20
1790.670404634729
 30
0.0
 11
5441.249772463486
 21
1550.778083089197
 31
0.0
  0
TEXT
  5
1626E
330
747D
100
AcDbEntity
  8
部品1
100
AcDbText
 10
5530.695873887093
 20
1597.776875416206
 30
0.0
 40
135.0
  1
側面図
  7
STYLE2
100
AcDbText
  0
TEXT
  5
1626F
330
747D
100
AcDbEntity
  8
部品1
100
AcDbText
 10
3047.417064006535
 20
2515.815571218042
 30
0.0
 40
125.0
  1
▽G.L
  7
STYLE2
100
AcDbText
  0
TEXT
  5
16270
330
747D
100
AcDbEntity
  8
文字
 62
     7
 48
50.0
100
AcDbText
 10
13209.4053442172
 20
228.543524256902
 30
0.0
 40
100.0
  1
○有効開口寸法 ： 1266×2025(mm)
  7
STYLE2
100
AcDbText
  0
LINE
  5
16271
330
747D
100
AcDbEntity
  8
Ｇ．Ｌ
100
AcDbLine
 10
2889.574708488843
 20
2479.70866761214
 30
0.0
 11
11703.95800470408
 21
2479.70866761214
 31
0.0
  0
LINE
  5
16272
330
747D
100
AcDbEntity
  8
部品1
100
AcDbLine
 10
8844.445451675245
 20
2579.70866761214
 30
0.0
 11
11054.44545167524
 21
2579.70866761214
 31
0.0
  0
LINE
  5
16273
330
747D
100
AcDbEntity
  8
部品1
100
AcDbLine
 10
8844.445451675245
 20
4719.70866761214
 30
0.0
 11
11054.44545167524
 21
4719.70866761214
 31
0.0
  0
LINE
  5
16274
330
747D
100
AcDbEntity
  8
部品1
100
AcDbLine
 10
8844.445451675245
 20
4773.20866761214
 30
0.0
 11
8844.445451675245
 21
2479.70866761214
 31
0.0
  0
LINE
  5
16275
330
747D
100
AcDbEntity
  8
部品1
100
AcDbLine
 10
11054.44545167524
 20
4773.20866761214
 30
0.0
 11
11054.44545167524
 21
2479.70866761214
 31
0.0
  0
LINE
  5
16276
330
747D
100
AcDbEntity
  8
部品1
100
AcDbLine
 10
10654.44545167524
 20
2579.70866761214
 30
0.0
 11
10654.44545167524
 21
2479.70866761214
 31
0.0
  0
LINE
  5
16277
330
747D
100
AcDbEntity
  8
部品1
100
AcDbLine
 10
9244.445451675245
 20
2579.70866761214
 30
0.0
 11
9244.445451675245
 21
2479.70866761214
 31
0.0
  0
LINE
  5
1627A
330
747D
100
AcDbEntity
  8
部品1
100
AcDbLine
 10
11059.44545167524
 20
2624.70866761214
 30
0.0
 11
11059.44545167524
 21
2479.70866761214
 31
0.0
  0
LINE
  5
1627B
330
747D
100
AcDbEntity
  8
破線
 48
5.0
100
AcDbLine
 10
11154.44545167524
 20
2279.70866761214
 30
0.0
 11
10954.44545167524
 21
2279.70866761214
 31
0.0
  0
LINE
  5
1627C
330
747D
100
AcDbEntity
  8
破線
 48
5.0
100
AcDbLine
 10
10954.44545167524
 20
2479.70866761214
 30
0.0
 11
10954.44545167524
 21
2279.70866761214
 31
0.0
  0
LINE
  5
1627D
330
747D
100
AcDbEntity
  8
破線
 48
5.0
100
AcDbLine
 10
11154.44545167524
 20
2479.70866761214
 30
0.0
 11
11154.44545167524
 21
2279.70866761214
 31
0.0
  0
LINE
  5
1627E
330
747D
100
AcDbEntity
  8
破線
 48
5.0
100
AcDbLine
 10
11079.44545167524
 20
2324.70866761214
 30
0.0
 11
11059.44545167524
 21
2324.70866761214
 31
0.0
  0
LINE
  5
1627F
330
747D
100
AcDbEntity
  8
部品1
100
AcDbLine
 10
8839.445451675244
 20
2624.708667612142
 30
0.0
 11
8839.445451675244
 21
2479.70866761214
 31
0.0
  0
LINE
  5
16280
330
747D
100
AcDbEntity
  8
破線
 48
5.0
100
AcDbLine
 10
8744.445451675245
 20
2279.70866761214
 30
0.0
 11
8944.445451675248
 21
2279.70866761214
 31
0.0
  0
LINE
  5
16281
330
747D
100
AcDbEntity
  8
破線
 48
5.0
100
AcDbLine
 10
8744.445451675245
 20
2479.70866761214
 30
0.0
 11
8744.445451675245
 21
2279.70866761214
 31
0.0
  0
LINE
  5
16282
330
747D
100
AcDbEntity
  8
破線
 48
5.0
100
AcDbLine
 10
8819.445451675244
 20
2324.70866761214
 30
0.0
 11
8839.445451675247
 21
2324.70866761214
 31
0.0
  0
LINE
  5
16283
330
747D
100
AcDbEntity
  8
破線
 48
5.0
100
AcDbLine
 10
8944.445451675244
 20
2479.70866761214
 30
0.0
 11
8944.445451675244
 21
2279.70866761214
 31
0.0
  0
LINE
  5
16284
330
747D
100
AcDbEntity
  8
破線
 48
5.0
100
AcDbLine
 10
11059.44545167524
 20
2479.70866761214
 30
0.0
 11
11059.44545167524
 21
2324.70866761214
 31
0.0
  0
LINE
  5
16285
330
747D
100
AcDbEntity
  8
破線
 48
5.0
100
AcDbLine
 10
8839.445451675244
 20
2479.70866761214
 30
0.0
 11
8839.445451675244
 21
2324.70866761214
 31
0.0
  0
DIMENSION
  5
16286
330
747D
100
AcDbEntity
  8
寸法
 48
50.0
100
AcDbDimension
  2
*D16
 10
8744.445451675245
 20
1993.661338311763
 30
0.0
 11
8844.445451675245
 21
1993.661338311763
 31
0.0
 70
   160
 71
     5
 42
200.0000000000018
  3
INABA_S40G
100
AcDbAlignedDimension
 13
8944.445451675248
 23
2279.70866761214
 33
0.0
 14
8744.445451675245
 24
2279.70866761214
 34
0.0
100
AcDbRotatedDimension
  0
TEXT
  5
16287
330
747D
100
AcDbEntity
  8
部品1
100
AcDbText
 10
9658.235522298978
 20
1597.776875416206
 30
0.0
 40
135.0
  1
正面図
  7
STYLE2
100
AcDbText
  0
LINE
  5
16288
330
747D
100
AcDbEntity
  8
部品1
100
AcDbLine
 10
8844.445451675245
 20
2629.708667612144
 30
0.0
 11
8872.445451675245
 21
2629.708667612144
 31
0.0
  0
DIMENSION
  5
16289
330
747D
100
AcDbEntity
  8
寸法
100
AcDbDimension
  2
*D17
 10
11978.65542292914
 20
8069.037739887036
 30
0.0
 11
11978.65542292914
 21
8948.811017056421
 31
0.0
 70
   160
 71
     5
 42
1790.000000000006
  3
INABA_S40G
100
AcDbAlignedDimension
 13
11054.44545167525
 23
9859.037739887044
 33
0.0
 14
11054.44545167522
 24
8069.037739887036
 34
0.0
 50
90.0
100
AcDbRotatedDimension
1001
ACAD
1000
DSTYLE
1002
{
1002
}
  0
DIMENSION
  5
1628A
330
747D
100
AcDbEntity
  8
寸法
100
AcDbDimension
  2
*D18
 10
10999.44545167525
 20
10162.08333446264
 30
0.0
 11
9949.445451675252
 21
10162.08333446264
 31
0.0
 70
   160
  1
5X420=<>
 71
     5
 42
2100.0
  3
INABA_S40G
100
AcDbAlignedDimension
 13
8899.445451675253
 23
9859.03773988695
 33
0.0
 14
10999.44545167525
 24
9859.037739887044
 34
0.0
100
AcDbRotatedDimension
1001
ACAD
1000
DSTYLE
1002
{
1002
}
  0
DIMENSION
  5
1628B
330
747D
100
AcDbEntity
  8
寸法
100
AcDbDimension
  2
*D19
 10
11054.44545167525
 20
10162.08333446262
 30
0.0
 11
11362.93073304949
 21
10162.08333446262
 31
0.0
 70
   160
 71
     5
 42
55.0
  3
INABA_S40G
100
AcDbAlignedDimension
 13
10999.44545167525
 23
9859.037739887044
 33
0.0
 14
11054.44545167525
 24
9859.037739887044
 34
0.0
100
AcDbRotatedDimension
1001
ACAD
1000
DSTYLE
1002
{
1002
}
  0
DIMENSION
  5
1628C
330
747D
100
AcDbEntity
  8
寸法
100
AcDbDimension
  2
*D20
 10
11701.87179740966
 20
9804.037739887048
 30
0.0
 11
11701.87179740966
 21
10167.52302126128
 31
0.0
 70
   160
 71
     5
 42
54.99999999999636
  3
INABA_S40G
100
AcDbAlignedDimension
 13
11054.44545167525
 23
9859.037739887044
 33
0.0
 14
11054.44545167525
 24
9804.037739887048
 34
0.0
 50
90.0
100
AcDbRotatedDimension
1001
ACAD
1000
DSTYLE
1002
{
1002
}
  0
DIMENSION
  5
1628D
330
747D
100
AcDbEntity
  8
寸法
100
AcDbDimension
  2
*D21
 10
8899.445451675253
 20
10162.08333446253
 30
0.0
 11
8535.960170300977
 21
10162.08333446253
 31
0.0
 70
   160
 71
     5
 42
55.00000000003637
  3
INABA_S40G
100
AcDbAlignedDimension
 13
8844.445451675216
 23
9859.03773988695
 33
0.0
 14
8899.445451675253
 24
9859.03773988695
 34
0.0
100
AcDbRotatedDimension
1001
ACAD
1000
DSTYLE
1002
{
1002
}
  0
LINE
  5
1628E
330
747D
100
AcDbEntity
  8
部品1
100
AcDbLine
 10
10997.94545167521
 20
8125.537739886965
 30
0.0
 11
8900.945451675129
 21
8125.537739886871
 31
0.0
  0
LINE
  5
1628F
330
747D
100
AcDbEntity
  8
破線
 48
10.0
100
AcDbLine
 10
10269.94545167527
 20
8149.037739886933
 30
0.0
 11
9628.945451675267
 21
8149.037739886903
 31
0.0
  0
DIMENSION
  5
16290
330
747D
100
AcDbEntity
  8
寸法
100
AcDbDimension
  2
*D22
 10
10067.34651567811
 20
9085.702517324724
 30
0.0
 11
9403.581340383956
 21
9085.702517324724
 31
0.0
 70
   160
 71
     5
 42
1273.000000000011
  3
INABA_S40G
100
AcDbAlignedDimension
 13
8872.945451675253
 23
9379.03773988695
 33
0.0
 14
10145.94545167526
 24
9379.037739886943
 34
0.0
100
AcDbRotatedDimension
1001
ACAD
1000
DSTYLE
1002
{
1002
}
  0
LINE
  5
16291
330
747D
100
AcDbEntity
  8
細線
 48
50.0
100
AcDbLine
 10
10145.94545167525
 20
9379.037739887055
 30
0.0
 11
8872.945451675251
 21
9829.037739886949
 31
0.0
  0
LINE
  5
16292
330
747D
100
AcDbEntity
  8
部品1
100
AcDbLine
 10
8872.945451675251
 20
9829.037739886949
 30
0.0
 11
10145.94545167525
 21
9829.037739887056
 31
0.0
  0
LINE
  5
16293
330
747D
100
AcDbEntity
  8
細線
 48
50.0
100
AcDbLine
 10
10145.94545167525
 20
9829.037739887052
 30
0.0
 11
8872.945451675253
 21
9379.03773988695
 31
0.0
  0
LINE
  5
16294
330
747D
100
AcDbEntity
  8
部品1
100
AcDbLine
 10
8872.945451675253
 20
9379.03773988695
 30
0.0
 11
10145.94545167525
 21
9379.037739887055
 31
0.0
  0
LINE
  5
16295
330
747D
100
AcDbEntity
  8
部品1
100
AcDbLine
 10
8844.445451675253
 20
9859.03773988695
 30
0.0
 11
11054.44545167525
 21
9859.037739887044
 31
0.0
  0
LINE
  5
16296
330
747D
100
AcDbEntity
  8
部品1
100
AcDbLine
 10
8872.445451675252
 20
9831.03773988695
 30
0.0
 11
10146.94545167525
 21
9831.037739887065
 31
0.0
  0
LINE
  5
16298
330
747D
100
AcDbEntity
  8
破線
 48
10.0
100
AcDbLine
 10
8924.445451675227
 20
9379.037739887047
 30
0.0
 11
8924.445451675241
 21
8149.037739886869
 31
0.0
  0
LINE
  5
16299
330
747D
100
AcDbEntity
  8
部品1
100
AcDbLine
 10
8900.945451675228
 20
9379.037739887047
 30
0.0
 11
8900.945451675246
 21
8125.537739886986
 31
0.0
  0
LINE
  5
1629A
330
747D
100
AcDbEntity
  8
部品1
100
AcDbLine
 10
8872.445451675227
 20
8097.037739886967
 30
0.0
 11
8872.445451675252
 21
9831.03773988695
 31
0.0
  0
LINE
  5
1629B
330
747D
100
AcDbEntity
  8
部品1
100
AcDbLine
 10
8844.445451675216
 20
9859.037739886916
 30
0.0
 11
8844.445451675245
 21
8069.037739886907
 31
0.0
  0
LINE
  5
1629C
330
747D
100
AcDbEntity
  8
部品1
 48
50.0
100
AcDbLine
 10
8900.945451675225
 20
8125.537739886965
 30
0.0
 11
8872.445451675227
 21
8097.037739886967
 31
0.0
  0
LINE
  5
1629D
330
747D
100
AcDbEntity
  8
部品1
 48
50.0
100
AcDbLine
 10
8872.945451675251
 20
9829.037739886947
 30
0.0
 11
8872.945451675253
 21
9379.037739886946
 31
0.0
  0
LINE
  5
1629E
330
747D
100
AcDbEntity
  8
部品1
100
AcDbLine
 10
8872.445451675227
 20
9384.03773988692
 30
0.0
 11
8844.445451675227
 21
9384.03773988692
 31
0.0
  0
LINE
  5
1629F
330
747D
100
AcDbEntity
  8
部品1
100
AcDbLine
 10
8872.445451675218
 20
9804.037739886922
 30
0.0
 11
8844.44545167522
 21
9804.037739886922
 31
0.0
  0
LINE
  5
162A0
330
747D
100
AcDbEntity
  8
部品1
100
AcDbLine
 10
8899.445451675253
 20
9859.03773988695
 30
0.0
 11
8899.445451675253
 21
9831.03773988695
 31
0.0
  0
LINE
  5
162A1
330
747D
100
AcDbEntity
  8
部品1
100
AcDbLine
 10
8899.445451675216
 20
9859.037739886916
 30
0.0
 11
8899.445451675219
 21
9831.037739886916
 31
0.0
  0
DIMENSION
  5
162A2
330
747D
100
AcDbEntity
  8
寸法
100
AcDbDimension
  2
*D23
 10
11701.87179740963
 20
8069.037739887036
 30
0.0
 11
11701.87179740963
 21
7691.176272982175
 31
0.0
 70
   160
 71
     5
 42
54.99999999999636
  3
INABA_S40G
100
AcDbAlignedDimension
 13
11054.44545167522
 23
8124.037739887034
 33
0.0
 14
11054.44545167522
 24
8069.037739887036
 34
0.0
 50
90.0
100
AcDbRotatedDimension
1001
ACAD
1000
DSTYLE
1002
{
1002
}
  0
LINE
  5
162A4
330
747D
100
AcDbEntity
  8
破線
 48
10.0
100
AcDbLine
 10
10974.44545167521
 20
8149.037739886964
 30
0.0
 11
10319.94545167527
 21
8149.037739886935
 31
0.0
  0
DIMENSION
  5
162A5
330
747D
100
AcDbEntity
  8
寸法
100
AcDbDimension
  2
*D24
 10
10947.37667811883
 20
9085.81508508608
 30
0.0
 11
10552.29251379352
 21
9085.81508508608
 31
0.0
 70
   160
 71
     5
 42
853.0000000000109
  3
INABA_S40G
100
AcDbAlignedDimension
 13
10172.94545167525
 23
9379.037739887055
 33
0.0
 14
11025.94545167526
 24
9379.037739887047
 34
0.0
100
AcDbRotatedDimension
1001
ACAD
1000
DSTYLE
1002
{
1002
}
  0
LINE
  5
162A6
330
747D
100
AcDbEntity
  8
細線
 48
50.0
100
AcDbLine
 10
11025.94545167525
 20
9829.037739887045
 30
0.0
 11
10172.94545167525
 21
9379.037739887055
 31
0.0
  0
LINE
  5
162A7
330
747D
100
AcDbEntity
  8
部品1
100
AcDbLine
 10
10172.94545167525
 20
9829.037739887052
 30
0.0
 11
11025.94545167525
 21
9829.037739887045
 31
0.0
  0
LINE
  5
162A8
330
747D
100
AcDbEntity
  8
部品1
100
AcDbLine
 10
10172.94545167525
 20
9379.037739887055
 30
0.0
 11
11025.94545167525
 21
9379.037739887047
 31
0.0
  0
LINE
  5
162A9
330
747D
100
AcDbEntity
  8
細線
 48
50.0
100
AcDbLine
 10
11025.94545167525
 20
9379.037739887047
 30
0.0
 11
10172.94545167525
 21
9829.037739887048
 31
0.0
  0
LINE
  5
162AA
330
747D
100
AcDbEntity
  8
部品1
100
AcDbLine
 10
10171.94545167525
 20
9831.037739887063
 30
0.0
 11
11026.44545167525
 21
9831.037739887044
 31
0.0
  0
LINE
  5
162AD
330
747D
100
AcDbEntity
  8
部品1
100
AcDbLine
 10
9319.445451675253
 20
9859.03773988695
 30
0.0
 11
9319.445451675253
 21
9831.03773988695
 31
0.0
  0
LINE
  5
162AE
330
747D
100
AcDbEntity
  8
部品1
100
AcDbLine
 10
9319.445451675253
 20
9859.03773988695
 30
0.0
 11
9319.445451675253
 21
9831.03773988695
 31
0.0
  0
LINE
  5
162AF
330
747D
100
AcDbEntity
  8
部品1
100
AcDbLine
 10
9319.445451675253
 20
9859.037739887066
 30
0.0
 11
9319.445451675253
 21
9831.037739887065
 31
0.0
  0
LINE
  5
162B0
330
747D
100
AcDbEntity
  8
部品1
 48
50.0
100
AcDbLine
 10
10145.94545167525
 20
9829.037739887052
 30
0.0
 11
10145.94545167525
 21
9379.037739887055
 31
0.0
  0
LINE
  5
162B1
330
747D
100
AcDbEntity
  8
部品1
 48
50.0
100
AcDbLine
 10
10172.94545167525
 20
9829.037739887048
 30
0.0
 11
10172.94545167525
 21
9379.037739887055
 31
0.0
  0
LINE
  5
162B2
330
747D
100
AcDbEntity
  8
部品1
 48
50.0
100
AcDbLine
 10
10146.94545167525
 20
9831.037739887058
 30
0.0
 11
10146.94545167525
 21
9379.037739887055
 31
0.0
  0
LINE
  5
162B3
330
747D
100
AcDbEntity
  8
部品1
 48
50.0
100
AcDbLine
 10
10171.94545167525
 20
9831.037739887056
 30
0.0
 11
10171.94545167525
 21
9379.037739887055
 31
0.0
  0
LINE
  5
162B4
330
747D
100
AcDbEntity
  8
部品1
100
AcDbLine
 10
10146.94545167525
 20
9379.037739887055
 30
0.0
 11
10171.94545167525
 21
9379.037739887055
 31
0.0
  0
LINE
  5
162B5
330
747D
100
AcDbEntity
  8
部品1
100
AcDbLine
 10
10124.44545167525
 20
9849.037739887052
 30
0.0
 11
10124.44545167525
 21
9831.037739887051
 31
0.0
  0
LINE
  5
162B6
330
747D
100
AcDbEntity
  8
部品1
100
AcDbLine
 10
10124.44545167525
 20
9849.037739887052
 30
0.0
 11
10130.44545167525
 21
9849.037739887052
 31
0.0
  0
LINE
  5
162B7
330
747D
100
AcDbEntity
  8
部品1
100
AcDbLine
 10
10194.44545167525
 20
9849.037739887052
 30
0.0
 11
10194.44545167525
 21
9831.037739887051
 31
0.0
  0
LINE
  5
162B8
330
747D
100
AcDbEntity
  8
部品1
100
AcDbLine
 10
10188.44545167525
 20
9849.037739887052
 30
0.0
 11
10194.44545167525
 21
9849.037739887052
 31
0.0
  0
LINE
  5
162B9
330
747D
100
AcDbEntity
  8
部品1
100
AcDbLine
 10
10146.94545167525
 20
9823.037739887048
 30
0.0
 11
10171.94545167525
 21
9823.037739887052
 31
0.0
  0
LINE
  5
162BA
330
747D
100
AcDbEntity
  8
部品1
100
AcDbLine
 10
10159.44545167525
 20
9859.037739887066
 30
0.0
 11
10159.44545167525
 21
9831.037739887065
 31
0.0
  0
LINE
  5
162BB
330
747D
100
AcDbEntity
  8
部品1
100
AcDbLine
 10
10579.44545167525
 20
9859.037739887066
 30
0.0
 11
10579.44545167525
 21
9831.037739887065
 31
0.0
  0
LINE
  5
162BC
330
747D
100
AcDbEntity
  8
破線
 48
10.0
100
AcDbLine
 10
10974.44545167524
 20
9379.037739887047
 30
0.0
 11
10974.44545167523
 21
8149.037739886964
 31
0.0
  0
LINE
  5
162BD
330
747D
100
AcDbEntity
  8
部品1
100
AcDbLine
 10
10997.94545167524
 20
9379.037739887047
 30
0.0
 11
10997.94545167523
 21
8125.537739886956
 31
0.0
  0
DIMENSION
  5
162BE
330
747D
100
AcDbEntity
  8
寸法
100
AcDbDimension
  2
*D25
 10
11381.30317753727
 20
9283.819924218159
 30
0.0
 11
11281.30317753727
 21
9508.819924218158
 31
0.0
 70
    32
 71
     5
 42
449.9999999999963
  3
INABA_S40G
100
AcDbAlignedDimension
 13
11025.94545167525
 23
9829.037739887045
 33
0.0
 14
11025.94545167525
 24
9379.037739887047
 34
0.0
 50
90.0
100
AcDbRotatedDimension
1001
ACAD
1000
DSTYLE
1002
{
1002
}
  0
LINE
  5
162BF
330
747D
100
AcDbEntity
  8
部品1
100
AcDbLine
 10
11026.44545167525
 20
9831.037739887044
 30
0.0
 11
11026.44545167522
 21
8097.037739887001
 31
0.0
  0
DIMENSION
  5
162C0
330
747D
100
AcDbEntity
  8
寸法
100
AcDbDimension
  2
*D26
 10
11701.87179740966
 20
8124.037739887034
 30
0.0
 11
11701.87179740966
 21
8964.037739887041
 31
0.0
 70
   160
  1
4X420=<>
 71
     5
 42
1680.000000000013
  3
INABA_S40G
100
AcDbAlignedDimension
 13
11054.44545167525
 23
9804.037739887048
 33
0.0
 14
11054.44545167522
 24
8124.037739887034
 34
0.0
 50
90.0
100
AcDbRotatedDimension
1001
ACAD
1000
DSTYLE
1002
{
1002
}
  0
LINE
  5
162C1
330
747D
100
AcDbEntity
  8
部品1
100
AcDbLine
 10
11054.44545167525
 20
9859.037739887044
 30
0.0
 11
11054.44545167522
 21
8069.037739887036
 31
0.0
  0
LINE
  5
162C2
330
747D
100
AcDbEntity
  8
部品1
 48
50.0
100
AcDbLine
 10
10997.94545167521
 20
8125.537739886965
 30
0.0
 11
11026.44545167521
 21
8097.037739886967
 31
0.0
  0
LINE
  5
162C3
330
747D
100
AcDbEntity
  8
部品1
100
AcDbLine
 10
11025.94545167525
 20
9829.037739887045
 30
0.0
 11
11025.94545167525
 21
9379.037739887047
 31
0.0
  0
LINE
  5
162C4
330
747D
100
AcDbEntity
  8
部品1
100
AcDbLine
 10
11026.44545167525
 20
9384.037739887046
 30
0.0
 11
11054.44545167525
 21
9384.037739887046
 31
0.0
  0
LINE
  5
162C5
330
747D
100
AcDbEntity
  8
部品1
100
AcDbLine
 10
11026.44545167525
 20
9804.037739887048
 30
0.0
 11
11054.44545167525
 21
9804.037739887048
 31
0.0
  0
LINE
  5
162C6
330
747D
100
AcDbEntity
  8
部品1
100
AcDbLine
 10
10999.44545167525
 20
9859.037739887066
 30
0.0
 11
10999.44545167525
 21
9831.037739887065
 31
0.0
  0
LINE
  5
162C7
330
747D
100
AcDbEntity
  8
部品1
100
AcDbLine
 10
10999.44545167525
 20
9859.037739887044
 30
0.0
 11
10999.44545167525
 21
9831.037739887044
 31
0.0
  0
LINE
  5
162C8
330
747D
100
AcDbEntity
  8
部品1
100
AcDbLine
 10
9739.445451675251
 20
9859.03773988695
 30
0.0
 11
9739.445451675251
 21
9831.03773988695
 31
0.0
  0
LINE
  5
162C9
330
747D
100
AcDbEntity
  8
部品1
100
AcDbLine
 10
9739.445451675251
 20
9859.03773988695
 30
0.0
 11
9739.445451675251
 21
9831.03773988695
 31
0.0
  0
LINE
  5
162CA
330
747D
100
AcDbEntity
  8
部品1
100
AcDbLine
 10
9739.445451675251
 20
9859.037739887066
 30
0.0
 11
9739.445451675251
 21
9831.037739887065
 31
0.0
  0
LINE
  5
162CB
330
747D
100
AcDbEntity
  8
部品1
 48
50.0
100
AcDbLine
 10
10997.94545167523
 20
8964.037739887048
 30
0.0
 11
8900.945451675235
 21
8964.037739887135
 31
0.0
  0
LINE
  5
162CC
330
747D
100
AcDbEntity
  8
部品1
100
AcDbLine
 10
8872.445451675231
 20
8964.03773988692
 30
0.0
 11
8844.44545167523
 21
8964.03773988692
 31
0.0
  0
LINE
  5
162CD
330
747D
100
AcDbEntity
  8
部品1
100
AcDbLine
 10
11026.44545167525
 20
8964.037739887048
 30
0.0
 11
11054.44545167525
 21
8964.037739887048
 31
0.0
  0
LINE
  5
162CE
330
747D
100
AcDbEntity
  8
部品1
100
AcDbLine
 10
11026.44545167525
 20
8124.037739887048
 30
0.0
 11
11054.44545167525
 21
8124.037739887048
 31
0.0
  0
LINE
  5
162CF
330
747D
100
AcDbEntity
  8
部品1
100
AcDbLine
 10
8872.445451675231
 20
8124.037739886921
 30
0.0
 11
8844.44545167523
 21
8124.037739886921
 31
0.0
  0
LINE
  5
162D0
330
747D
100
AcDbEntity
  8
部品1
100
AcDbLine
 10
8899.445451675189
 20
8097.037739886852
 30
0.0
 11
8899.445451675195
 21
8069.037739886852
 31
0.0
  0
LINE
  5
162D1
330
747D
100
AcDbEntity
  8
部品1
100
AcDbLine
 10
8899.445451675227
 20
8097.037739886884
 30
0.0
 11
8899.445451675227
 21
8069.037739886885
 31
0.0
  0
LINE
  5
162D2
330
747D
100
AcDbEntity
  8
部品1
100
AcDbLine
 10
10999.44545167522
 20
8097.037739886978
 30
0.0
 11
10999.44545167522
 21
8069.037739886978
 31
0.0
  0
LINE
  5
162D3
330
747D
100
AcDbEntity
  8
部品1
100
AcDbLine
 10
10999.44545167522
 20
8097.037739887001
 30
0.0
 11
10999.44545167522
 21
8069.037739887001
 31
0.0
  0
LINE
  5
162D4
330
747D
100
AcDbEntity
  8
部品1
 48
50.0
100
AcDbLine
 10
8844.445451675245
 20
8069.037739886873
 30
0.0
 11
8899.445451675227
 21
8069.037739886878
 31
0.0
  0
LINE
  5
162D5
330
747D
100
AcDbEntity
  8
部品1
 48
50.0
100
AcDbLine
 10
11026.44545167522
 20
8097.037739887001
 30
0.0
 11
8872.445451675227
 21
8097.037739886967
 31
0.0
  0
LINE
  5
162D6
330
747D
100
AcDbEntity
  8
部品1
 48
50.0
100
AcDbLine
 10
10999.44545167522
 20
8069.037739887031
 30
0.0
 11
11054.44545167522
 21
8069.037739887036
 31
0.0
  0
DIMENSION
  5
162D7
330
747D
100
AcDbEntity
  8
寸法
 48
50.0
100
AcDbDimension
  2
*D27
 10
8539.820982591132
 20
2637.708667612139
 30
0.0
 11
8539.820982591132
 21
3651.606572078338
 31
0.0
 70
   160
  1
有効開口部高サ<>
 71
     5
 42
2025.000000000001
  3
INABA_S40G
100
AcDbAlignedDimension
 13
8872.445451675245
 23
4662.70866761214
 33
0.0
 14
8872.445451675245
 24
2637.708667612139
 34
0.0
 50
90.0
100
AcDbRotatedDimension
  0
LINE
  5
162D8
330
747D
100
AcDbEntity
  8
部品1
 48
50.0
100
AcDbLine
 10
8899.445451675246
 20
4714.708667612139
 30
0.0
 11
8899.445451675246
 21
4719.70866761214
 31
0.0
  0
LINE
  5
162D9
330
747D
100
AcDbEntity
  8
部品1
 48
50.0
100
AcDbLine
 10
10999.44545167524
 20
4714.708667612139
 30
0.0
 11
10999.44545167524
 21
4719.70866761214
 31
0.0
  0
LINE
  5
162DA
330
747D
100
AcDbEntity
  8
部品1
100
AcDbLine
 10
11026.44545167524
 20
2629.70866761216
 30
0.0
 11
11054.44545167524
 21
2629.70866761216
 31
0.0
  0
LINE
  5
162DF
330
747D
100
AcDbEntity
  8
部品1
100
AcDbLine
 10
9567.710118561022
 20
1790.670404634729
 30
0.0
 11
9567.710118561022
 21
1550.778083089197
 31
0.0
  0
LINE
  5
162E0
330
747D
100
AcDbEntity
  8
部品1
100
AcDbLine
 10
9567.710118561022
 20
1550.778083089197
 30
0.0
 11
10331.18078478946
 21
1550.778083089197
 31
0.0
  0
LINE
  5
162E1
330
747D
100
AcDbEntity
  8
部品1
100
AcDbLine
 10
10331.18078478946
 20
1550.778083089197
 30
0.0
 11
10331.18078478946
 21
1790.670404634729
 31
0.0
  0
LINE
  5
162E2
330
747D
100
AcDbEntity
  8
部品1
100
AcDbLine
 10
10331.18078478946
 20
1790.670404634729
 30
0.0
 11
9567.710118561022
 21
1790.670404634729
 31
0.0
  0
TEXT
  5
162E3
330
747D
100
AcDbEntity
  8
文字
 62
     7
 48
50.0
100
AcDbText
 10
14491.96323844892
 20
483.8967129911416
 30
0.0
 40
160.0
  1
ＮＸＮ－４０ＨＡ
  7
STYLE2
100
AcDbText
  0
LINE
  5
163B1
330
747D
100
AcDbEntity
  8
部品1
 48
50.0
100
AcDbLine
 10
11026.44545167524
 20
4714.708667612139
 30
0.0
 11
8872.445451675245
 21
4714.708667612139
 31
0.0
  0
LINE
  5
163B2
330
747D
100
AcDbEntity
  8
細線
 48
50.0
100
AcDbLine
 10
11026.44545167524
 20
4704.70866761214
 30
0.0
 11
8872.445451675245
 21
4704.70866761214
 31
0.0
  0
LINE
  5
163B3
330
747D
100
AcDbEntity
  8
細線
 48
50.0
100
AcDbLine
 10
10996.44545167524
 20
4662.70866761214
 30
0.0
 11
8902.445451675246
 21
4662.70866761214
 31
0.0
  0
LINE
  5
163B4
330
747D
100
AcDbEntity
  8
細線
 48
50.0
100
AcDbLine
 10
10996.44545167524
 20
4672.20866761214
 30
0.0
 11
8902.445451675246
 21
4672.20866761214
 31
0.0
  0
LINE
  5
163B5
330
747D
100
AcDbEntity
  8
部品1
 48
50.0
100
AcDbLine
 10
8872.445451675245
 20
2579.70866761214
 30
0.0
 11
11026.44545167524
 21
2579.70866761214
 31
0.0
  0
LINE
  5
163B6
330
747D
100
AcDbEntity
  8
細線
 48
50.0
100
AcDbLine
 10
8902.445451675246
 20
2622.70866761214
 30
0.0
 11
10996.44545167524
 21
2622.70866761214
 31
0.0
  0
LINE
  5
163B7
330
747D
100
AcDbEntity
  8
細線
 48
50.0
100
AcDbLine
 10
8902.445451675246
 20
2626.70866761214
 30
0.0
 11
10996.44545167524
 21
2626.70866761214
 31
0.0
  0
LINE
  5
163B8
330
747D
100
AcDbEntity
  8
細線
 48
50.0
100
AcDbLine
 10
9706.445451675243
 20
2637.20866761214
 30
0.0
 11
10970.44545167524
 21
2637.20866761214
 31
0.0
  0
LINE
  5
163B9
330
747D
100
AcDbEntity
  8
部品1
 48
50.0
100
AcDbLine
 10
8902.445451675246
 20
2629.70866761214
 30
0.0
 11
8902.445451675246
 21
4662.70866761214
 31
0.0
  0
LINE
  5
163BA
330
747D
100
AcDbEntity
  8
細線
 48
50.0
100
AcDbLine
 10
8902.445451675246
 20
4672.20866761214
 30
0.0
 11
8902.445451675246
 21
2579.70866761214
 31
0.0
  0
LINE
  5
163BB
330
747D
100
AcDbEntity
  8
部品1
 48
50.0
100
AcDbLine
 10
8872.445451675245
 20
4714.708667612139
 30
0.0
 11
8872.445451675245
 21
2579.70866761214
 31
0.0
  0
LINE
  5
163BC
330
747D
100
AcDbEntity
  8
部品1
 48
50.0
100
AcDbLine
 10
9706.445451675243
 20
4662.708667636907
 30
0.0
 11
9706.445451675243
 21
2629.708667636907
 31
0.0
  0
LINE
  5
163BD
330
747D
100
AcDbEntity
  8
部品1
 48
50.0
100
AcDbLine
 10
8902.445451675246
 20
2629.70866761214
 30
0.0
 11
9706.445451675243
 21
2629.708667612137
 31
0.0
  0
LINE
  5
163BE
330
747D
100
AcDbEntity
  8
部品1
 48
50.0
100
AcDbLine
 10
8911.445451675245
 20
2629.70866761214
 30
0.0
 11
8911.445451675245
 21
2626.70866761214
 31
0.0
  0
LINE
  5
163BF
330
747D
100
AcDbEntity
  8
部品1
 48
50.0
100
AcDbLine
 10
8902.445451675246
 20
4670.70866761214
 30
0.0
 11
8872.445451675245
 21
4670.70866761214
 31
0.0
  0
LINE
  5
163C0
330
747D
100
AcDbEntity
  8
部品1
 48
50.0
100
AcDbLine
 10
10987.44545167524
 20
2626.70866761214
 30
0.0
 11
10987.44545167524
 21
4662.70866761214
 31
0.0
  0
LINE
  5
163C1
330
747D
100
AcDbEntity
  8
細線
 48
50.0
100
AcDbLine
 10
10996.44545167524
 20
2579.70866761214
 30
0.0
 11
10996.44545167524
 21
4672.20866761214
 31
0.0
  0
LINE
  5
163C2
330
747D
100
AcDbEntity
  8
部品1
 48
50.0
100
AcDbLine
 10
11026.44545167524
 20
2579.70866761214
 30
0.0
 11
11026.44545167524
 21
4714.708667612139
 31
0.0
  0
LINE
  5
163C3
330
747D
100
AcDbEntity
  8
部品1
 48
50.0
100
AcDbLine
 10
10360.4454419801
 20
4662.708667649287
 30
0.0
 11
10360.4454419801
 21
2637.208667649288
 31
0.0
  0
LINE
  5
163C4
330
747D
100
AcDbEntity
  8
細線
 48
50.0
100
AcDbLine
 10
10974.44545167524
 20
2626.70866761214
 30
0.0
 11
10970.44545167524
 21
2637.20866761214
 31
0.0
  0
LINE
  5
163C5
330
747D
100
AcDbEntity
  8
部品1
 48
50.0
100
AcDbLine
 10
11026.44545167524
 20
4670.70866761214
 30
0.0
 11
10996.44545167524
 21
4670.70866761214
 31
0.0
  0
LINE
  5
163C6
330
747D
100
AcDbEntity
  8
細線
100
AcDbLine
 10
10483.19545167525
 20
4662.70866761214
 30
0.0
 11
10483.19545167525
 21
2637.208667612158
 31
0.0
  0
LINE
  5
163C7
330
747D
100
AcDbEntity
  8
細線
100
AcDbLine
 10
9767.945461425487
 20
4662.70866761214
 30
0.0
 11
9767.945461425487
 21
2637.208667612151
 31
0.0
  0
LINE
  5
163C8
330
747D
100
AcDbEntity
  8
細線
100
AcDbLine
 10
9837.945461425487
 20
4662.70866761214
 30
0.0
 11
9837.945461425487
 21
2637.208667612151
 31
0.0
  0
LINE
  5
163C9
330
747D
100
AcDbEntity
  8
細線
100
AcDbLine
 10
9116.445451675245
 20
4662.70866761214
 30
0.0
 11
9116.445451675241
 21
2629.708667612144
 31
0.0
  0
LINE
  5
163CA
330
747D
100
AcDbEntity
  8
細線
100
AcDbLine
 10
9186.445451675245
 20
4662.70866761214
 30
0.0
 11
9186.445451675242
 21
2629.708667612144
 31
0.0
  0
LINE
  5
163CB
330
747D
100
AcDbEntity
  8
細線
100
AcDbLine
 10
10553.19545167525
 20
4662.70866761214
 30
0.0
 11
10553.19545167525
 21
2637.208667612158
 31
0.0
  0
LINE
  5
163CC
330
747D
100
AcDbEntity
  8
細線
100
AcDbLine
 10
10623.19545167525
 20
4662.70866761214
 30
0.0
 11
10623.19545167525
 21
2637.208667612158
 31
0.0
  0
LINE
  5
163CD
330
747D
100
AcDbEntity
  8
細線
100
AcDbLine
 10
10693.19545167525
 20
4662.70866761214
 30
0.0
 11
10693.19545167525
 21
2637.208667612158
 31
0.0
  0
LINE
  5
163CE
330
747D
100
AcDbEntity
  8
細線
100
AcDbLine
 10
10763.19545167525
 20
4662.70866761214
 30
0.0
 11
10763.19545167525
 21
2637.208667612158
 31
0.0
  0
LINE
  5
163CF
330
747D
100
AcDbEntity
  8
細線
100
AcDbLine
 10
10833.19545167525
 20
4662.70866761214
 30
0.0
 11
10833.19545167525
 21
2637.208667612158
 31
0.0
  0
LINE
  5
163D0
330
747D
100
AcDbEntity
  8
細線
100
AcDbLine
 10
9907.945461425487
 20
4662.70866761214
 30
0.0
 11
9907.945461425487
 21
2637.208667612151
 31
0.0
  0
LINE
  5
163D1
330
747D
100
AcDbEntity
  8
細線
100
AcDbLine
 10
9977.945461425486
 20
4662.70866761214
 30
0.0
 11
9977.945461425486
 21
2637.208667612151
 31
0.0
  0
LINE
  5
163D2
330
747D
100
AcDbEntity
  8
細線
100
AcDbLine
 10
10047.94546142548
 20
4662.70866761214
 30
0.0
 11
10047.94546142548
 21
2637.208667612151
 31
0.0
  0
LINE
  5
163D3
330
747D
100
AcDbEntity
  8
細線
100
AcDbLine
 10
10117.94546142548
 20
4662.70866761214
 30
0.0
 11
10117.94546142548
 21
2637.208667612151
 31
0.0
  0
LINE
  5
163D4
330
747D
100
AcDbEntity
  8
細線
100
AcDbLine
 10
10187.94546142548
 20
4662.70866761214
 30
0.0
 11
10187.94546142548
 21
2637.208667612151
 31
0.0
  0
LINE
  5
163D5
330
747D
100
AcDbEntity
  8
細線
100
AcDbLine
 10
10257.94546142548
 20
4662.70866761214
 30
0.0
 11
10257.94546142548
 21
2637.208667612151
 31
0.0
  0
LINE
  5
163D6
330
747D
100
AcDbEntity
  8
細線
100
AcDbLine
 10
9030.445451675241
 20
4662.70866761214
 30
0.0
 11
9030.445451675245
 21
2629.708667612144
 31
0.0
  0
LINE
  5
163D7
330
747D
100
AcDbEntity
  8
細線
100
AcDbLine
 10
9064.445451675242
 20
4662.70866761214
 30
0.0
 11
9064.445451675245
 21
2629.708667612144
 31
0.0
  0
LINE
  5
163D8
330
747D
100
AcDbEntity
  8
部品1
100
AcDbLine
 10
9022.445451675242
 20
4662.70866761214
 30
0.0
 11
9022.445451675244
 21
2629.708667612144
 31
0.0
  0
LINE
  5
163D9
330
747D
100
AcDbEntity
  8
部品1
100
AcDbLine
 10
9072.445451675241
 20
4662.70866761214
 30
0.0
 11
9072.445451675244
 21
2629.708667612144
 31
0.0
  0
LINE
  5
163DA
330
747D
100
AcDbEntity
  8
細線
100
AcDbLine
 10
9256.445451675245
 20
4662.70866761214
 30
0.0
 11
9256.445451675242
 21
2629.708667612144
 31
0.0
  0
LINE
  5
163DB
330
747D
100
AcDbEntity
  8
細線
100
AcDbLine
 10
9326.445451675246
 20
4662.70866761214
 30
0.0
 11
9326.44545167524
 21
2629.708667612144
 31
0.0
  0
LINE
  5
163DC
330
747D
100
AcDbEntity
  8
細線
100
AcDbLine
 10
9396.445451675246
 20
4662.70866761214
 30
0.0
 11
9396.445451675241
 21
2629.708667612144
 31
0.0
  0
LINE
  5
163DD
330
747D
100
AcDbEntity
  8
細線
100
AcDbLine
 10
9466.445451675246
 20
4662.70866761214
 30
0.0
 11
9466.445451675241
 21
2629.708667612144
 31
0.0
  0
LINE
  5
163DE
330
747D
100
AcDbEntity
  8
細線
100
AcDbLine
 10
9536.445451675245
 20
4662.70866761214
 30
0.0
 11
9536.445451675241
 21
2629.708667612147
 31
0.0
  0
LINE
  5
163DF
330
747D
100
AcDbEntity
  8
細線
100
AcDbLine
 10
9606.445451675245
 20
4662.70866761214
 30
0.0
 11
9606.445451675241
 21
2629.708667612147
 31
0.0
  0
LINE
  5
163E0
330
747D
100
AcDbEntity
  8
部品1
100
AcDbLine
 10
10360.4454419801
 20
4662.70866764929
 30
0.0
 11
10360.4454419801
 21
2637.208667649306
 31
0.0
  0
LINE
  5
163E1
330
747D
100
AcDbEntity
  8
部品1
 48
50.0
100
AcDbLine
 10
9706.445451675243
 20
4662.708667636907
 30
0.0
 11
9706.445451675243
 21
2629.708667612137
 31
0.0
  0
DIMENSION
  5
163E2
330
747D
100
AcDbEntity
  8
寸法
 48
50.0
100
AcDbDimension
  2
*D28
 10
8844.445451675245
 20
5353.801836951613
 30
0.0
 11
9949.445451675245
 21
5353.801836951613
 31
0.0
 70
   160
  1
柱外寸法<>
 71
     5
 42
2210.0
  3
INABA_S40G
100
AcDbAlignedDimension
 13
11054.44545167524
 23
4954.708667612145
 33
0.0
 14
8844.445451675245
 24
4954.708667612147
 34
0.0
100
AcDbRotatedDimension
  0
DIMENSION
  5
163E3
330
747D
100
AcDbEntity
  8
寸法
 48
50.0
100
AcDbDimension
  2
*D29
 10
8794.445451675244
 20
5353.801836951613
 30
0.0
 11
8480.960170300997
 21
5353.801836951613
 31
0.0
 70
   160
 71
     5
 42
50.0
  3
INABA_S40G
100
AcDbAlignedDimension
 13
8844.445451675245
 23
4954.708667612147
 33
0.0
 14
8794.445451675244
 24
4954.708667612145
 34
0.0
100
AcDbRotatedDimension
1001
ACAD
1000
DSTYLE
1002
{
1002
}
  0
DIMENSION
  5
163E4
330
747D
100
AcDbEntity
  8
寸法
 48
50.0
100
AcDbDimension
  2
*D30
 10
11104.44545167524
 20
5570.327936570058
 30
0.0
 11
9949.445451675245
 21
5570.327936570058
 31
0.0
 70
   160
 71
     5
 42
2310.0
  3
INABA_S40G
100
AcDbAlignedDimension
 13
8794.445451675244
 23
4954.708667612145
 33
0.0
 14
11104.44545167524
 24
4954.708667612142
 34
0.0
100
AcDbRotatedDimension
  0
LINE
  5
163E5
330
747D
100
AcDbEntity
  8
部品1
100
AcDbLine
 10
10007.44545167526
 20
4949.708667620609
 30
0.0
 11
10007.44545167526
 21
4852.297600112037
 31
0.0
  0
LINE
  5
163E6
330
747D
100
AcDbEntity
  8
部品1
100
AcDbLine
 10
9982.44545167526
 20
4949.708667620609
 30
0.0
 11
9982.44545167526
 21
4852.297600112037
 31
0.0
  0
LINE
  5
163E7
330
747D
100
AcDbEntity
  8
部品1
 48
50.0
100
AcDbLine
 10
9980.945451675253
 20
4949.708667620613
 30
0.0
 11
10008.94545167525
 21
4949.708667620613
 31
0.0
  0
LINE
  5
163E8
330
747D
100
AcDbEntity
  8
部品1
 48
50.0
100
AcDbLine
 10
10008.94545167525
 20
4949.708667620613
 30
0.0
 11
10019.44545167525
 21
4930.308667620611
 31
0.0
  0
LINE
  5
163E9
330
747D
100
AcDbEntity
  8
部品1
 48
50.0
100
AcDbLine
 10
9980.945451675253
 20
4949.708667620613
 30
0.0
 11
9970.445451675253
 21
4930.308667620611
 31
0.0
  0
LINE
  5
163EA
330
747D
100
AcDbEntity
  8
部品1
 48
50.0
100
AcDbLine
 10
9907.945451675253
 20
4949.708667620613
 30
0.0
 11
9935.94545167525
 21
4949.708667620613
 31
0.0
  0
LINE
  5
163EB
330
747D
100
AcDbEntity
  8
部品1
100
AcDbLine
 10
9909.44545167526
 20
4949.708667620609
 30
0.0
 11
9909.44545167526
 21
4852.297600112037
 31
0.0
  0
LINE
  5
163EC
330
747D
100
AcDbEntity
  8
部品1
 48
50.0
100
AcDbLine
 10
9907.945451675253
 20
4949.708667620613
 30
0.0
 11
9897.445451675253
 21
4930.308667620611
 31
0.0
  0
LINE
  5
163ED
330
747D
100
AcDbEntity
  8
部品1
100
AcDbLine
 10
9934.445451675259
 20
4949.708667620609
 30
0.0
 11
9934.445451675259
 21
4852.297600112037
 31
0.0
  0
LINE
  5
163EE
330
747D
100
AcDbEntity
  8
部品1
 48
50.0
100
AcDbLine
 10
9935.945451675252
 20
4949.708667620613
 30
0.0
 11
9946.445451675252
 21
4930.308667620611
 31
0.0
  0
LINE
  5
163EF
330
747D
100
AcDbEntity
  8
部品1
100
AcDbLine
 10
9748.445451675259
 20
4949.708667620601
 30
0.0
 11
9748.445451675262
 21
4852.297600112037
 31
0.0
  0
LINE
  5
163F0
330
747D
100
AcDbEntity
  8
部品1
 48
50.0
100
AcDbLine
 10
9751.445451675252
 20
4949.708667620613
 30
0.0
 11
9753.945451675253
 21
4930.308667620611
 31
0.0
  0
LINE
  5
163F1
330
747D
100
AcDbEntity
  8
部品1
100
AcDbLine
 10
9730.44545167526
 20
4949.708667620601
 30
0.0
 11
9730.445451675262
 21
4852.297600112037
 31
0.0
  0
LINE
  5
163F2
330
747D
100
AcDbEntity
  8
部品1
 48
50.0
100
AcDbLine
 10
9712.234111469065
 20
4940.308667620612
 30
0.0
 11
9710.945451675252
 21
4930.308667620611
 31
0.0
  0
LINE
  5
163F3
330
747D
100
AcDbEntity
  8
部品1
 48
50.0
100
AcDbLine
 10
9712.234111469065
 20
4940.308667620612
 30
0.0
 11
9726.234111469064
 21
4940.308667620612
 31
0.0
  0
LINE
  5
163F4
330
747D
100
AcDbEntity
  8
部品1
 48
50.0
100
AcDbLine
 10
9727.445451675253
 20
4949.708667620613
 30
0.0
 11
9726.234111469064
 21
4940.308667620612
 31
0.0
  0
LINE
  5
163F5
330
747D
100
AcDbEntity
  8
部品1
 48
50.0
100
AcDbLine
 10
9751.445451675252
 20
4949.708667620613
 30
0.0
 11
9727.445451675253
 21
4949.708667620613
 31
0.0
  0
LINE
  5
163F6
330
747D
100
AcDbEntity
  8
部品1
100
AcDbLine
 10
9897.445451675249
 20
4930.308667620607
 30
0.0
 11
9753.945451675249
 21
4930.308667620607
 31
0.0
  0
LINE
  5
163F7
330
747D
100
AcDbEntity
  8
部品1
100
AcDbLine
 10
9587.445451675259
 20
4949.708667620609
 30
0.0
 11
9587.445451675263
 21
4852.297600112037
 31
0.0
  0
LINE
  5
163F8
330
747D
100
AcDbEntity
  8
部品1
 48
50.0
100
AcDbLine
 10
9588.945451675252
 20
4949.708667620613
 30
0.0
 11
9599.445451675252
 21
4930.308667620611
 31
0.0
  0
LINE
  5
163F9
330
747D
100
AcDbEntity
  8
部品1
100
AcDbLine
 10
9489.445451675258
 20
4949.708667620609
 30
0.0
 11
9489.445451675258
 21
4852.297600112037
 31
0.0
  0
LINE
  5
163FA
330
747D
100
AcDbEntity
  8
部品1
100
AcDbLine
 10
9514.445451675259
 20
4949.708667620609
 30
0.0
 11
9514.445451675259
 21
4852.297600112037
 31
0.0
  0
LINE
  5
163FB
330
747D
100
AcDbEntity
  8
部品1
100
AcDbLine
 10
9562.445451675259
 20
4949.708667620609
 30
0.0
 11
9562.445451675259
 21
4852.297600112037
 31
0.0
  0
LINE
  5
163FC
330
747D
100
AcDbEntity
  8
部品1
 48
50.0
100
AcDbLine
 10
9487.945451675251
 20
4949.708667620613
 30
0.0
 11
9477.445451675253
 21
4930.308667620611
 31
0.0
  0
LINE
  5
163FD
330
747D
100
AcDbEntity
  8
部品1
100
AcDbLine
 10
9550.445451675249
 20
4930.308667620607
 30
0.0
 11
9526.445451675252
 21
4930.308667620607
 31
0.0
  0
LINE
  5
163FE
330
747D
100
AcDbEntity
  8
部品1
 48
50.0
100
AcDbLine
 10
9515.945451675252
 20
4949.708667620613
 30
0.0
 11
9526.445451675252
 21
4930.308667620611
 31
0.0
  0
LINE
  5
163FF
330
747D
100
AcDbEntity
  8
部品1
 48
50.0
100
AcDbLine
 10
9560.945451675252
 20
4949.708667620613
 30
0.0
 11
9550.445451675251
 21
4930.308667620611
 31
0.0
  0
LINE
  5
16400
330
747D
100
AcDbEntity
  8
部品1
 48
50.0
100
AcDbLine
 10
9487.945451675251
 20
4949.708667620613
 30
0.0
 11
9515.945451675248
 21
4949.708667620613
 31
0.0
  0
LINE
  5
16401
330
747D
100
AcDbEntity
  8
部品1
 48
50.0
100
AcDbLine
 10
9560.945451675252
 20
4949.708667620613
 30
0.0
 11
9588.945451675249
 21
4949.708667620613
 31
0.0
  0
LINE
  5
16402
330
747D
100
AcDbEntity
  8
部品1
100
AcDbLine
 10
9328.445451675259
 20
4949.708667620601
 30
0.0
 11
9328.445451675262
 21
4852.297600112037
 31
0.0
  0
LINE
  5
16403
330
747D
100
AcDbEntity
  8
部品1
100
AcDbLine
 10
9310.44545167526
 20
4949.708667620601
 30
0.0
 11
9310.445451675262
 21
4852.297600112037
 31
0.0
  0
LINE
  5
16404
330
747D
100
AcDbEntity
  8
部品1
 48
50.0
100
AcDbLine
 10
9331.445451675252
 20
4949.708667620613
 30
0.0
 11
9307.445451675253
 21
4949.708667620613
 31
0.0
  0
LINE
  5
16405
330
747D
100
AcDbEntity
  8
部品1
 48
50.0
100
AcDbLine
 10
9307.445451675253
 20
4949.708667620613
 30
0.0
 11
9306.234111469064
 21
4940.308667620612
 31
0.0
  0
LINE
  5
16406
330
747D
100
AcDbEntity
  8
部品1
 48
50.0
100
AcDbLine
 10
9331.445451675252
 20
4949.708667620613
 30
0.0
 11
9333.945451675253
 21
4930.308667620611
 31
0.0
  0
LINE
  5
16407
330
747D
100
AcDbEntity
  8
部品1
100
AcDbLine
 10
9477.445451675249
 20
4930.308667620607
 30
0.0
 11
9333.945451675248
 21
4930.308667620607
 31
0.0
  0
LINE
  5
16408
330
747D
100
AcDbEntity
  8
部品1
100
AcDbLine
 10
9710.945451675252
 20
4930.308667620607
 30
0.0
 11
9599.445451675252
 21
4930.308667620607
 31
0.0
  0
LINE
  5
16409
330
747D
100
AcDbEntity
  8
部品1
100
AcDbLine
 10
9970.445451675249
 20
4930.308667620607
 30
0.0
 11
9946.445451675252
 21
4930.308667620607
 31
0.0
  0
LINE
  5
1640A
330
747D
100
AcDbEntity
  8
部品1
100
AcDbLine
 10
9290.945451675252
 20
4930.308667620607
 30
0.0
 11
9179.445451675253
 21
4930.308667620607
 31
0.0
  0
LINE
  5
1640B
330
747D
100
AcDbEntity
  8
部品1
100
AcDbLine
 10
9142.445451675259
 20
4949.708667620609
 30
0.0
 11
9142.445451675259
 21
4852.297600112037
 31
0.0
  0
LINE
  5
1640C
330
747D
100
AcDbEntity
  8
部品1
100
AcDbLine
 10
9167.445451675259
 20
4949.708667620609
 30
0.0
 11
9167.445451675259
 21
4852.297600112037
 31
0.0
  0
LINE
  5
1640D
330
747D
100
AcDbEntity
  8
部品1
 48
50.0
100
AcDbLine
 10
9168.945451675252
 20
4949.708667620613
 30
0.0
 11
9179.445451675253
 21
4930.308667620611
 31
0.0
  0
LINE
  5
1640E
330
747D
100
AcDbEntity
  8
部品1
 48
50.0
100
AcDbLine
 10
9140.945451675252
 20
4949.708667620613
 30
0.0
 11
9168.945451675249
 21
4949.708667620613
 31
0.0
  0
LINE
  5
1640F
330
747D
100
AcDbEntity
  8
部品1
 48
50.0
100
AcDbLine
 10
9292.234111469063
 20
4940.308667620612
 30
0.0
 11
9290.945451675252
 21
4930.308667620611
 31
0.0
  0
LINE
  5
16410
330
747D
100
AcDbEntity
  8
部品1
100
AcDbLine
 10
9130.445451675248
 20
4930.308667620607
 30
0.0
 11
9106.445451675252
 21
4930.308667620611
 31
0.0
  0
LINE
  5
16411
330
747D
100
AcDbEntity
  8
部品1
100
AcDbLine
 10
9094.445451675261
 20
4949.708667620609
 30
0.0
 11
9094.445451675261
 21
4852.297600112037
 31
0.0
  0
LINE
  5
16412
330
747D
100
AcDbEntity
  8
部品1
 48
50.0
100
AcDbLine
 10
9095.945451675254
 20
4949.708667620613
 30
0.0
 11
9106.445451675252
 21
4930.308667620611
 31
0.0
  0
LINE
  5
16413
330
747D
100
AcDbEntity
  8
部品1
100
AcDbLine
 10
9069.44545167526
 20
4949.708667620609
 30
0.0
 11
9069.445451675257
 21
4852.297600112037
 31
0.0
  0
LINE
  5
16414
330
747D
100
AcDbEntity
  8
部品1
 48
50.0
100
AcDbLine
 10
9067.945451675253
 20
4949.708667620613
 30
0.0
 11
9057.445451675253
 21
4930.308667620611
 31
0.0
  0
LINE
  5
16415
330
747D
100
AcDbEntity
  8
部品1
 48
50.0
100
AcDbLine
 10
9067.945451675253
 20
4949.708667620613
 30
0.0
 11
9095.945451675248
 21
4949.708667620613
 31
0.0
  0
LINE
  5
16416
330
747D
100
AcDbEntity
  8
部品1
 48
50.0
100
AcDbLine
 10
9140.945451675252
 20
4949.708667620613
 30
0.0
 11
9130.445451675253
 21
4930.308667620611
 31
0.0
  0
LINE
  5
16417
330
747D
100
AcDbEntity
  8
部品1
100
AcDbLine
 10
8908.445451675261
 20
4949.708667620601
 30
0.0
 11
8908.445451675261
 21
4852.297600112037
 31
0.0
  0
LINE
  5
16418
330
747D
100
AcDbEntity
  8
部品1
100
AcDbLine
 10
8890.44545167526
 20
4949.708667620613
 30
0.0
 11
8890.44545167526
 21
4852.297600112037
 31
0.0
  0
LINE
  5
16419
330
747D
100
AcDbEntity
  8
部品1
 48
50.0
100
AcDbLine
 10
8911.445451675252
 20
4949.708667620613
 30
0.0
 11
8913.945451675251
 21
4930.308667620611
 31
0.0
  0
LINE
  5
1641A
330
747D
100
AcDbEntity
  8
部品1
100
AcDbLine
 10
8870.945451675252
 20
4930.308667620611
 30
0.0
 11
8844.445451675253
 21
4930.308667620611
 31
0.0
  0
LINE
  5
1641B
330
747D
100
AcDbEntity
  8
部品1
 48
50.0
100
AcDbLine
 10
8872.234111469065
 20
4940.308667620612
 30
0.0
 11
8886.234111469065
 21
4940.308667620612
 31
0.0
  0
LINE
  5
1641C
330
747D
100
AcDbEntity
  8
部品1
 48
50.0
100
AcDbLine
 10
8872.234111469065
 20
4940.308667620612
 30
0.0
 11
8870.945451675252
 21
4930.308667620611
 31
0.0
  0
LINE
  5
1641D
330
747D
100
AcDbEntity
  8
部品1
 48
50.0
100
AcDbLine
 10
8887.445451675253
 20
4949.708667620613
 30
0.0
 11
8886.234111469065
 21
4940.308667620612
 31
0.0
  0
LINE
  5
1641E
330
747D
100
AcDbEntity
  8
部品1
 48
50.0
100
AcDbLine
 10
8911.445451675252
 20
4949.708667620613
 30
0.0
 11
8887.445451675253
 21
4949.708667620613
 31
0.0
  0
LINE
  5
1641F
330
747D
100
AcDbEntity
  8
部品1
100
AcDbLine
 10
9057.445451675253
 20
4930.308667620607
 30
0.0
 11
8913.945451675251
 21
4930.308667620611
 31
0.0
  0
LINE
  5
16420
330
747D
100
AcDbEntity
  8
部品1
 48
50.0
100
AcDbLine
 10
9292.234111469063
 20
4940.308667620612
 30
0.0
 11
9306.234111469064
 21
4940.308667620612
 31
0.0
  0
LINE
  5
16421
330
747D
100
AcDbEntity
  8
部品1
100
AcDbLine
 10
11059.51578900752
 20
4954.70866762059
 30
0.0
 11
8818.87761205616
 21
4954.708667620613
 31
0.0
  0
LINE
  5
16422
330
747D
100
AcDbEntity
  8
部品1
100
AcDbLine
 10
10130.94545167525
 20
4930.308667620593
 30
0.0
 11
10019.44545167526
 21
4930.308667620593
 31
0.0
  0
LINE
  5
16423
330
747D
100
AcDbEntity
  8
部品1
 48
50.0
100
AcDbLine
 10
8839.374823682048
 20
4899.70866761214
 30
0.0
 11
8801.431495492463
 21
4899.70866761214
 31
0.0
  0
ARC
  5
16424
330
747D
100
AcDbEntity
  8
部品1
100
AcDbCircle
 10
8796.404594115541
 20
4872.378784932729
 30
0.0
 40
0.7
100
AcDbArc
 50
183.618629480141
 51
262.7131594833537
  0
ARC
  5
16425
330
747D
100
AcDbEntity
  8
部品1
100
AcDbCircle
 10
8795.935297990345
 20
4868.708667612139
 30
0.0
 40
3.0
100
AcDbArc
 50
3.618629480141039
 51
90.0
  0
LINE
  5
16426
330
747D
100
AcDbEntity
  8
部品1
100
AcDbLine
 10
8798.92931676915
 20
4868.898012673252
 30
0.0
 11
8803.67640978131
 21
4793.834604418469
 31
0.0
  0
ARC
  5
16427
330
747D
100
AcDbEntity
  8
部品1
100
AcDbCircle
 10
8804.375014163031
 20
4793.878784932728
 30
0.0
 40
0.7
100
AcDbArc
 50
183.618629480141
 51
262.7131594833537
  0
ARC
  5
16428
330
747D
100
AcDbEntity
  8
部品1
100
AcDbCircle
 10
8803.905718037837
 20
4790.20866761214
 30
0.0
 40
3.0
100
AcDbArc
 50
3.618629480141039
 51
90.0
  0
ARC
  5
16429
330
747D
100
AcDbEntity
  8
部品1
100
AcDbCircle
 10
8814.558106338434
 20
4780.208667612139
 30
0.0
 40
7.0
100
AcDbArc
 50
183.618629480141
 51
270.0
  0
ARC
  5
1642A
330
747D
100
AcDbEntity
  8
部品1
100
AcDbCircle
 10
8801.431495492463
 20
4892.70866761214
 30
0.0
 40
7.0
100
AcDbArc
 50
90.0
 51
183.618629480141
  0
LINE
  5
1642B
330
747D
100
AcDbEntity
  8
部品1
100
AcDbLine
 10
8807.572062521224
 20
4779.766862469551
 30
0.0
 11
8806.899736816642
 21
4790.398012673251
 31
0.0
  0
LINE
  5
1642C
330
747D
100
AcDbEntity
  8
部品1
100
AcDbLine
 10
8795.705989733818
 20
4872.334604418469
 30
0.0
 11
8794.445451675253
 21
4892.266862469551
 31
0.0
  0
LINE
  5
1642D
330
747D
100
AcDbEntity
  8
部品1
100
AcDbLine
 10
8839.374823682048
 20
4899.70866761214
 30
0.0
 11
8801.431495492463
 21
4899.70866761214
 31
0.0
  0
ARC
  5
1642E
330
747D
100
AcDbEntity
  8
部品1
100
AcDbCircle
 10
8839.374823682048
 20
4894.70866761214
 30
0.0
 40
5.0
100
AcDbArc
 50
0.0
 51
90.0
  0
LINE
  5
1642F
330
747D
100
AcDbEntity
  8
部品1
100
AcDbLine
 10
8844.374823682047
 20
4949.708667629039
 30
0.0
 11
8844.374823682045
 21
4852.304638939469
 31
0.0
  0
LINE
  5
16430
330
747D
100
AcDbEntity
  8
部品1
100
AcDbLine
 10
11084.33279701205
 20
4773.20866761214
 30
0.0
 11
8814.558106338434
 21
4773.20866761214
 31
0.0
  0
LINE
  5
16431
330
747D
100
AcDbEntity
  8
部品1
 48
50.0
100
AcDbLine
 10
8794.445451675253
 20
4892.266862469551
 30
0.0
 11
8794.445451675253
 21
4947.266862486449
 31
0.0
  0
ARC
  5
16432
330
747D
100
AcDbEntity
  8
部品1
100
AcDbCircle
 10
8839.374823682048
 20
4949.708667629039
 30
0.0
 40
5.0
100
AcDbArc
 50
0.0
 51
90.0
  0
LINE
  5
16433
330
747D
100
AcDbEntity
  8
部品1
100
AcDbLine
 10
8839.374823682048
 20
4954.708667629038
 30
0.0
 11
8801.431495492463
 21
4954.708667629038
 31
0.0
  0
ARC
  5
16434
330
747D
100
AcDbEntity
  8
部品1
100
AcDbCircle
 10
8801.431495492463
 20
4947.708667629038
 30
0.0
 40
7.0
100
AcDbArc
 50
90.0
 51
183.618629480141
  0
LINE
  5
16435
330
747D
100
AcDbEntity
  8
細線
 48
50.0
100
AcDbLine
 10
11095.2238093483
 20
4793.981910175924
 30
0.0
 11
8804.329043307772
 21
4793.981910175926
 31
0.0
  0
LINE
  5
16436
330
747D
100
AcDbEntity
  8
細線
 48
50.0
100
AcDbLine
 10
8826.93436177097
 20
4899.70866761214
 30
0.0
 11
8826.93436177097
 21
4773.20866761214
 31
0.0
  0
LINE
  5
16437
330
747D
100
AcDbEntity
  8
細線
 48
50.0
100
AcDbLine
 10
8844.374823682045
 20
4871.680500360089
 30
0.0
 11
8796.311582398098
 21
4871.680500360096
 31
0.0
  0
LINE
  5
16438
330
747D
100
AcDbEntity
  8
部品1
100
AcDbLine
 10
10150.44545167524
 20
4949.708667620601
 30
0.0
 11
10150.44545167524
 21
4852.297600112037
 31
0.0
  0
LINE
  5
16439
330
747D
100
AcDbEntity
  8
部品1
100
AcDbLine
 10
10168.44545167524
 20
4949.708667620613
 30
0.0
 11
10168.44545167524
 21
4852.297600112037
 31
0.0
  0
LINE
  5
1643A
330
747D
100
AcDbEntity
  8
部品1
 48
50.0
100
AcDbLine
 10
10147.44545167525
 20
4949.708667620613
 30
0.0
 11
10171.44545167525
 21
4949.708667620613
 31
0.0
  0
LINE
  5
1643B
330
747D
100
AcDbEntity
  8
部品1
 48
50.0
100
AcDbLine
 10
10147.44545167525
 20
4949.708667620613
 30
0.0
 11
10146.23411146907
 21
4940.308667620612
 31
0.0
  0
LINE
  5
1643C
330
747D
100
AcDbEntity
  8
部品1
 48
50.0
100
AcDbLine
 10
10132.23411146907
 20
4940.308667620612
 30
0.0
 11
10146.23411146907
 21
4940.308667620612
 31
0.0
  0
LINE
  5
1643D
330
747D
100
AcDbEntity
  8
部品1
 48
50.0
100
AcDbLine
 10
10132.23411146907
 20
4940.308667620612
 30
0.0
 11
10130.94545167525
 21
4930.308667620611
 31
0.0
  0
LINE
  5
1643E
330
747D
100
AcDbEntity
  8
部品1
 48
50.0
100
AcDbLine
 10
10171.44545167525
 20
4949.708667620613
 30
0.0
 11
10173.94545167525
 21
4930.308667620611
 31
0.0
  0
LINE
  5
1643F
330
747D
100
AcDbEntity
  8
部品1
 48
50.0
100
AcDbLine
 10
8826.934361770971
 20
4852.297600112037
 30
0.0
 11
11071.95654157952
 21
4852.297600112037
 31
0.0
  0
LINE
  5
16440
330
747D
100
AcDbEntity
  8
部品1
100
AcDbLine
 10
10390.44545167525
 20
4930.308667620611
 30
0.0
 11
10366.44545167525
 21
4930.308667620611
 31
0.0
  0
LINE
  5
16441
330
747D
100
AcDbEntity
  8
部品1
 48
50.0
100
AcDbLine
 10
10355.94545167525
 20
4949.708667620616
 30
0.0
 11
10366.44545167525
 21
4930.308667620614
 31
0.0
  0
LINE
  5
16442
330
747D
100
AcDbEntity
  8
部品1
 48
50.0
100
AcDbLine
 10
10327.94545167525
 20
4949.708667620616
 30
0.0
 11
10317.44545167525
 21
4930.308667620614
 31
0.0
  0
LINE
  5
16443
330
747D
100
AcDbEntity
  8
部品1
 48
50.0
100
AcDbLine
 10
10327.94545167525
 20
4949.708667620616
 30
0.0
 11
10355.94545167525
 21
4949.708667620616
 31
0.0
  0
LINE
  5
16444
330
747D
100
AcDbEntity
  8
部品1
 48
50.0
100
AcDbLine
 10
10400.94545167525
 20
4949.708667620616
 30
0.0
 11
10390.44545167525
 21
4930.308667620614
 31
0.0
  0
LINE
  5
16445
330
747D
100
AcDbEntity
  8
部品1
 48
50.0
100
AcDbLine
 10
10428.94545167525
 20
4949.708667620616
 30
0.0
 11
10439.44545167525
 21
4930.308667620614
 31
0.0
  0
LINE
  5
16446
330
747D
100
AcDbEntity
  8
部品1
 48
50.0
100
AcDbLine
 10
10400.94545167525
 20
4949.708667620616
 30
0.0
 11
10428.94545167525
 21
4949.708667620616
 31
0.0
  0
LINE
  5
16447
330
747D
100
AcDbEntity
  8
部品1
100
AcDbLine
 10
10550.94545167525
 20
4930.308667620597
 30
0.0
 11
10439.44545167526
 21
4930.308667620597
 31
0.0
  0
LINE
  5
16448
330
747D
100
AcDbEntity
  8
部品1
100
AcDbLine
 10
10317.44545167525
 20
4930.308667620611
 30
0.0
 11
10173.94545167525
 21
4930.308667620611
 31
0.0
  0
LINE
  5
16449
330
747D
100
AcDbEntity
  8
部品1
100
AcDbLine
 10
10354.44545167526
 20
4949.708667620613
 30
0.0
 11
10354.44545167526
 21
4852.297600112041
 31
0.0
  0
LINE
  5
1644A
330
747D
100
AcDbEntity
  8
部品1
100
AcDbLine
 10
10329.44545167526
 20
4949.708667620613
 30
0.0
 11
10329.44545167526
 21
4852.297600112041
 31
0.0
  0
LINE
  5
1644B
330
747D
100
AcDbEntity
  8
部品1
100
AcDbLine
 10
10402.44545167526
 20
4949.708667620613
 30
0.0
 11
10402.44545167526
 21
4852.297600112041
 31
0.0
  0
LINE
  5
1644C
330
747D
100
AcDbEntity
  8
部品1
100
AcDbLine
 10
10427.44545167526
 20
4949.708667620613
 30
0.0
 11
10427.44545167526
 21
4852.297600112041
 31
0.0
  0
DIMENSION
  5
1644D
330
747D
100
AcDbEntity
  8
寸法
 48
50.0
100
AcDbDimension
  2
*D31
 10
11054.44545167524
 20
5353.801836951613
 30
0.0
 11
11417.93073304948
 21
5353.801836951613
 31
0.0
 70
   160
 71
     5
 42
50.0
  3
INABA_S40G
100
AcDbAlignedDimension
 13
11104.44545167524
 23
4954.708667612142
 33
0.0
 14
11054.44545167524
 24
4954.708667612145
 34
0.0
100
AcDbRotatedDimension
  0
LINE
  5
1644E
330
747D
100
AcDbEntity
  8
部品1
100
AcDbLine
 10
10990.44545167523
 20
4949.708667620601
 30
0.0
 11
10990.44545167523
 21
4852.297600112037
 31
0.0
  0
LINE
  5
1644F
330
747D
100
AcDbEntity
  8
部品1
100
AcDbLine
 10
11008.44545167523
 20
4949.708667620613
 30
0.0
 11
11008.44545167523
 21
4852.297600112037
 31
0.0
  0
LINE
  5
16450
330
747D
100
AcDbEntity
  8
部品1
 48
50.0
100
AcDbLine
 10
10987.44545167523
 20
4949.708667620613
 30
0.0
 11
11011.44545167523
 21
4949.708667620613
 31
0.0
  0
LINE
  5
16451
330
747D
100
AcDbEntity
  8
部品1
 48
50.0
100
AcDbLine
 10
11059.51607966844
 20
4899.70866761214
 30
0.0
 11
11097.45940785803
 21
4899.70866761214
 31
0.0
  0
ARC
  5
16452
330
747D
100
AcDbEntity
  8
部品1
100
AcDbCircle
 10
11102.48630923495
 20
4872.378784932729
 30
0.0
 40
0.7
100
AcDbArc
 50
277.2868405166463
 51
356.3813705198589
  0
ARC
  5
16453
330
747D
100
AcDbEntity
  8
部品1
100
AcDbCircle
 10
11102.95560536014
 20
4868.708667612139
 30
0.0
 40
3.0
100
AcDbArc
 50
90.0
 51
176.3813705198589
  0
LINE
  5
16454
330
747D
100
AcDbEntity
  8
部品1
100
AcDbLine
 10
11099.96158658134
 20
4868.898012673252
 30
0.0
 11
11095.21449356918
 21
4793.834604418469
 31
0.0
  0
ARC
  5
16455
330
747D
100
AcDbEntity
  8
部品1
100
AcDbCircle
 10
11094.51588918745
 20
4793.878784932728
 30
0.0
 40
0.7
100
AcDbArc
 50
277.2868405166463
 51
356.3813705198589
  0
ARC
  5
16456
330
747D
100
AcDbEntity
  8
部品1
100
AcDbCircle
 10
11094.98518531265
 20
4790.20866761214
 30
0.0
 40
3.0
100
AcDbArc
 50
90.0
 51
176.3813705198589
  0
ARC
  5
16457
330
747D
100
AcDbEntity
  8
部品1
100
AcDbCircle
 10
11084.33279701205
 20
4780.208667612139
 30
0.0
 40
7.0
100
AcDbArc
 50
270.0
 51
356.3813705198589
  0
ARC
  5
16458
330
747D
100
AcDbEntity
  8
部品1
100
AcDbCircle
 10
11097.45940785803
 20
4892.70866761214
 30
0.0
 40
7.0
100
AcDbArc
 50
356.3813705198589
 51
90.0
  0
LINE
  5
16459
330
747D
100
AcDbEntity
  8
部品1
100
AcDbLine
 10
11091.31884082926
 20
4779.766862469551
 30
0.0
 11
11091.99116653384
 21
4790.398012673251
 31
0.0
  0
LINE
  5
1645A
330
747D
100
AcDbEntity
  8
部品1
100
AcDbLine
 10
11103.18491361667
 20
4872.334604418469
 30
0.0
 11
11104.44545167523
 21
4892.266862469551
 31
0.0
  0
LINE
  5
1645B
330
747D
100
AcDbEntity
  8
部品1
100
AcDbLine
 10
11059.51607966844
 20
4899.70866761214
 30
0.0
 11
11097.45940785803
 21
4899.70866761214
 31
0.0
  0
ARC
  5
1645C
330
747D
100
AcDbEntity
  8
部品1
100
AcDbCircle
 10
11059.51607966844
 20
4894.70866761214
 30
0.0
 40
5.0
100
AcDbArc
 50
90.0
 51
180.0
  0
LINE
  5
1645D
330
747D
100
AcDbEntity
  8
部品1
100
AcDbLine
 10
11054.51607966844
 20
4949.708667629039
 30
0.0
 11
11054.51607966844
 21
4852.297600112037
 31
0.0
  0
LINE
  5
1645E
330
747D
100
AcDbEntity
  8
部品1
 48
50.0
100
AcDbLine
 10
11104.44545167523
 20
4892.266862469551
 30
0.0
 11
11104.44545167523
 21
4947.266862486449
 31
0.0
  0
ARC
  5
1645F
330
747D
100
AcDbEntity
  8
部品1
100
AcDbCircle
 10
11059.51607966844
 20
4949.708667629039
 30
0.0
 40
5.0
100
AcDbArc
 50
90.0
 51
180.0
  0
LINE
  5
16460
330
747D
100
AcDbEntity
  8
部品1
100
AcDbLine
 10
11059.51607966844
 20
4954.708667629038
 30
0.0
 11
11097.45940785803
 21
4954.708667629038
 31
0.0
  0
ARC
  5
16461
330
747D
100
AcDbEntity
  8
部品1
100
AcDbCircle
 10
11097.45940785803
 20
4947.708667629038
 30
0.0
 40
7.0
100
AcDbArc
 50
356.3813705198589
 51
90.0
  0
LINE
  5
16462
330
747D
100
AcDbEntity
  8
細線
 48
50.0
100
AcDbLine
 10
11071.95654157952
 20
4899.70866761214
 30
0.0
 11
11071.95654157952
 21
4773.20866761214
 31
0.0
  0
LINE
  5
16463
330
747D
100
AcDbEntity
  8
細線
 48
50.0
100
AcDbLine
 10
11054.51607966844
 20
4871.680500360089
 30
0.0
 11
11102.57932095239
 21
4871.680500360096
 31
0.0
  0
LINE
  5
16464
330
747D
100
AcDbEntity
  8
部品1
 48
50.0
100
AcDbLine
 10
10987.44545167523
 20
4949.708667620613
 30
0.0
 11
10986.23411146905
 21
4940.308667620612
 31
0.0
  0
LINE
  5
16465
330
747D
100
AcDbEntity
  8
部品1
 48
50.0
100
AcDbLine
 10
10972.23411146905
 20
4940.308667620612
 30
0.0
 11
10986.23411146905
 21
4940.308667620612
 31
0.0
  0
LINE
  5
16466
330
747D
100
AcDbEntity
  8
部品1
 48
50.0
100
AcDbLine
 10
10972.23411146905
 20
4940.308667620612
 30
0.0
 11
10970.94545167523
 21
4930.308667620611
 31
0.0
  0
LINE
  5
16467
330
747D
100
AcDbEntity
  8
部品1
 48
50.0
100
AcDbLine
 10
11011.44545167523
 20
4949.708667620613
 30
0.0
 11
11013.94545167523
 21
4930.308667620611
 31
0.0
  0
LINE
  5
16468
330
747D
100
AcDbEntity
  8
部品1
100
AcDbLine
 10
11054.51607966844
 20
4930.308667620607
 30
0.0
 11
11013.94545167523
 21
4930.308667620607
 31
0.0
  0
LINE
  5
16469
330
747D
100
AcDbEntity
  8
部品1
100
AcDbLine
 10
10970.94545167525
 20
4930.3086676206
 30
0.0
 11
10859.44545167526
 21
4930.3086676206
 31
0.0
  0
LINE
  5
1646A
330
747D
100
AcDbEntity
  8
部品1
100
AcDbLine
 10
10847.44545167526
 20
4949.708667620616
 30
0.0
 11
10847.44545167526
 21
4852.297600112044
 31
0.0
  0
LINE
  5
1646B
330
747D
100
AcDbEntity
  8
部品1
100
AcDbLine
 10
10822.44545167526
 20
4949.708667620616
 30
0.0
 11
10822.44545167526
 21
4852.297600112044
 31
0.0
  0
LINE
  5
1646C
330
747D
100
AcDbEntity
  8
部品1
100
AcDbLine
 10
10749.44545167526
 20
4949.708667620616
 30
0.0
 11
10749.44545167526
 21
4852.297600112044
 31
0.0
  0
LINE
  5
1646D
330
747D
100
AcDbEntity
  8
部品1
100
AcDbLine
 10
10774.44545167526
 20
4949.708667620616
 30
0.0
 11
10774.44545167526
 21
4852.297600112044
 31
0.0
  0
LINE
  5
1646E
330
747D
100
AcDbEntity
  8
部品1
 48
50.0
100
AcDbLine
 10
10820.94545167525
 20
4949.70866762062
 30
0.0
 11
10848.94545167525
 21
4949.70866762062
 31
0.0
  0
LINE
  5
1646F
330
747D
100
AcDbEntity
  8
部品1
 48
50.0
100
AcDbLine
 10
10848.94545167525
 20
4949.70866762062
 30
0.0
 11
10859.44545167525
 21
4930.308667620618
 31
0.0
  0
LINE
  5
16470
330
747D
100
AcDbEntity
  8
部品1
 48
50.0
100
AcDbLine
 10
10820.94545167525
 20
4949.70866762062
 30
0.0
 11
10810.44545167525
 21
4930.308667620618
 31
0.0
  0
LINE
  5
16471
330
747D
100
AcDbEntity
  8
部品1
 48
50.0
100
AcDbLine
 10
10747.94545167525
 20
4949.70866762062
 30
0.0
 11
10775.94545167525
 21
4949.70866762062
 31
0.0
  0
LINE
  5
16472
330
747D
100
AcDbEntity
  8
部品1
 48
50.0
100
AcDbLine
 10
10747.94545167525
 20
4949.70866762062
 30
0.0
 11
10737.44545167525
 21
4930.308667620618
 31
0.0
  0
LINE
  5
16473
330
747D
100
AcDbEntity
  8
部品1
 48
50.0
100
AcDbLine
 10
10775.94545167525
 20
4949.70866762062
 30
0.0
 11
10786.44545167525
 21
4930.308667620618
 31
0.0
  0
LINE
  5
16474
330
747D
100
AcDbEntity
  8
部品1
100
AcDbLine
 10
10810.44545167525
 20
4930.308667620614
 30
0.0
 11
10786.44545167525
 21
4930.308667620614
 31
0.0
  0
LINE
  5
16475
330
747D
100
AcDbEntity
  8
部品1
100
AcDbLine
 10
10737.44545167525
 20
4930.308667620614
 30
0.0
 11
10593.94545167525
 21
4930.308667620614
 31
0.0
  0
LINE
  5
16476
330
747D
100
AcDbEntity
  8
部品1
 48
50.0
100
AcDbLine
 10
10591.44545167525
 20
4949.708667620616
 30
0.0
 11
10593.94545167525
 21
4930.308667620614
 31
0.0
  0
LINE
  5
16477
330
747D
100
AcDbEntity
  8
部品1
 48
50.0
100
AcDbLine
 10
10552.23411146907
 20
4940.308667620615
 30
0.0
 11
10550.94545167525
 21
4930.308667620614
 31
0.0
  0
LINE
  5
16478
330
747D
100
AcDbEntity
  8
部品1
 48
50.0
100
AcDbLine
 10
10552.23411146907
 20
4940.308667620615
 30
0.0
 11
10566.23411146907
 21
4940.308667620615
 31
0.0
  0
LINE
  5
16479
330
747D
100
AcDbEntity
  8
部品1
 48
50.0
100
AcDbLine
 10
10567.44545167525
 20
4949.708667620616
 30
0.0
 11
10566.23411146907
 21
4940.308667620615
 31
0.0
  0
LINE
  5
1647A
330
747D
100
AcDbEntity
  8
部品1
 48
50.0
100
AcDbLine
 10
10567.44545167525
 20
4949.708667620616
 30
0.0
 11
10591.44545167525
 21
4949.708667620616
 31
0.0
  0
LINE
  5
1647B
330
747D
100
AcDbEntity
  8
部品1
100
AcDbLine
 10
10588.44545167525
 20
4949.708667620616
 30
0.0
 11
10588.44545167525
 21
4852.297600112041
 31
0.0
  0
LINE
  5
1647C
330
747D
100
AcDbEntity
  8
部品1
100
AcDbLine
 10
10570.44545167525
 20
4949.708667620605
 30
0.0
 11
10570.44545167525
 21
4852.297600112041
 31
0.0
  0
MTEXT
  5
1647D
330
747D
100
AcDbEntity
  8
寸法
 62
     7
 48
50.0
100
AcDbMText
 10
10614.54798876839
 20
9445.272558084354
 30
0.0
 40
96.0
 41
0.0
 71
     5
 72
     1
  1
棚 3段
  7
STYLE1
 73
     1
 44
1.0
1001
ACAD
1000
MTEXTBEGIN
1070
    73
1070
     1
1070
    44
1040
1.0
1070
    74
1070
     0
1000
MTEXTEND
  0
MTEXT
  5
1647E
330
747D
100
AcDbEntity
  8
寸法
 62
     7
 48
50.0
100
AcDbMText
 10
9524.547988768393
 20
9445.272558084308
 30
0.0
 40
96.0
 41
0.0
 71
     5
 72
     1
  1
棚 3段
  7
STYLE1
 73
     1
 44
1.0
1001
ACAD
1000
MTEXTBEGIN
1070
    73
1070
     1
1070
    44
1040
1.0
1070
    74
1070
     0
1000
MTEXTEND
  0
TEXT
  5
1647F
330
747D
100
AcDbEntity
  8
文字
 62
     7
 48
50.0
100
AcDbText
 10
14798.72402257234
 20
9740.013745883725
 30
0.0
 40
100.0
  1
F12(一般型1.0/多雪地型2.3)
  7
STYLE1
100
AcDbText
  0
TEXT
  5
16480
330
747D
100
AcDbEntity
  8
文字
 62
     7
 48
50.0
100
AcDbText
 10
13248.77747366447
 20
8380.013745883728
 30
0.0
 40
100.0
  1
17
  7
STYLE1
100
AcDbText
  0
TEXT
  5
16481
330
747D
100
AcDbEntity
  8
文字
 62
     7
 48
50.0
100
AcDbText
 10
13248.77747366447
 20
8550.013745883729
 30
0.0
 40
100.0
  1
16
  7
STYLE1
100
AcDbText
  0
TEXT
  5
16482
330
747D
100
AcDbEntity
  8
文字
 62
     7
 48
50.0
100
AcDbText
 10
15022.63965474517
 20
9060.013745883725
 30
0.0
 40
100.0
  1
F12            1.0
  7
STYLE1
100
AcDbText
  0
TEXT
  5
16483
330
747D
100
AcDbEntity
  8
文字
 62
     7
 48
50.0
100
AcDbText
 10
13583.11819016569
 20
9060.013745883733
 30
0.0
 40
100.0
  1
壁面扉枠左右
  7
STYLE1
100
AcDbText
  0
TEXT
  5
16484
330
747D
100
AcDbEntity
  8
文字
 62
     7
 48
50.0
100
AcDbText
 10
15022.63965474517
 20
9230.013745883725
 30
0.0
 40
100.0
  1
F12            1.0
  7
STYLE1
100
AcDbText
  0
TEXT
  5
16485
330
747D
100
AcDbEntity
  8
文字
 62
     7
 48
50.0
100
AcDbText
 10
15022.63965474515
 20
9400.013745883727
 30
0.0
 40
100.0
  1
F12            0.7
  7
STYLE1
100
AcDbText
  0
TEXT
  5
16486
330
747D
100
AcDbEntity
  8
文字
 62
     7
 48
50.0
100
AcDbText
 10
13583.11819016569
 20
9230.013745883733
 30
0.0
 40
100.0
  1
壁面扉敷居
  7
STYLE1
100
AcDbText
  0
TEXT
  5
16487
330
747D
100
AcDbEntity
  8
文字
 62
     7
 48
50.0
100
AcDbText
 10
13583.11819016569
 20
9400.013745883729
 30
0.0
 40
100.0
  1
壁面扉鴨居
  7
STYLE1
100
AcDbText
  0
LINE
  5
16488
330
747D
100
AcDbEntity
  8
仕様書枠
 48
50.0
100
AcDbLine
 10
16307.19999999999
 20
8689.600000000003
 30
0.0
 11
13127.2
 21
8689.600000000005
 31
0.0
  0
LINE
  5
16489
330
747D
100
AcDbEntity
  8
仕様書枠
 48
50.0
100
AcDbLine
 10
16307.19999999999
 20
8519.600000000004
 30
0.0
 11
13127.2
 21
8519.600000000005
 31
0.0
  0
TEXT
  5
1648A
330
747D
100
AcDbEntity
  8
文字
 62
     7
 48
50.0
100
AcDbText
 10
13583.11819016569
 20
8380.013745883728
 30
0.0
 40
100.0
  1
アンカープレート
  7
STYLE1
100
AcDbText
  0
TEXT
  5
1648B
330
747D
100
AcDbEntity
  8
文字
 62
     7
 48
50.0
100
AcDbText
 10
15022.63965474515
 20
8380.013745883724
 30
0.0
 40
100.0
  1
F12            2.3
  7
STYLE1
100
AcDbText
  0
LINE
  5
1648C
330
747D
100
AcDbEntity
  8
仕様書枠
 48
50.0
100
AcDbLine
 10
16307.2
 20
10049.6
 30
0.0
 11
13127.2
 21
10049.6
 31
0.0
  0
LINE
  5
1648D
330
747D
100
AcDbEntity
  8
仕様書枠
 48
50.0
100
AcDbLine
 10
16307.2
 20
11409.59999999999
 30
0.0
 11
13127.2
 21
11409.6
 31
0.0
  0
LINE
  5
1648E
330
747D
100
AcDbEntity
  8
仕様書枠
 48
50.0
100
AcDbLine
 10
16307.19999999999
 20
8009.600000000004
 30
0.0
 11
16307.2
 21
11409.6
 31
0.0
  0
LINE
  5
1648F
330
747D
100
AcDbEntity
  8
仕様書枠
 48
50.0
100
AcDbLine
 10
14785.2
 20
11409.59999999999
 30
0.0
 11
14785.2
 21
8349.600000000004
 31
0.0
  0
LINE
  5
16490
330
747D
100
AcDbEntity
  8
仕様書枠
 48
50.0
100
AcDbLine
 10
13490.2
 20
11409.59999999999
 30
0.0
 11
13490.20000000001
 21
8349.600000000007
 31
0.0
  0
LINE
  5
16491
330
747D
100
AcDbEntity
  8
仕様書枠
 48
50.0
100
AcDbLine
 10
16307.2
 20
11239.59999999999
 30
0.0
 11
13127.2
 21
11239.6
 31
0.0
  0
LINE
  5
16492
330
747D
100
AcDbEntity
  8
仕様書枠
 48
50.0
100
AcDbLine
 10
16307.2
 20
10899.6
 30
0.0
 11
13127.2
 21
10899.6
 31
0.0
  0
LINE
  5
16493
330
747D
100
AcDbEntity
  8
仕様書枠
 48
50.0
100
AcDbLine
 10
16307.2
 20
11069.59999999999
 30
0.0
 11
13127.2
 21
11069.6
 31
0.0
  0
LINE
  5
16494
330
747D
100
AcDbEntity
  8
仕様書枠
 48
50.0
100
AcDbLine
 10
16307.19999999999
 20
10559.6
 30
0.0
 11
13127.2
 21
10559.6
 31
0.0
  0
LINE
  5
16495
330
747D
100
AcDbEntity
  8
仕様書枠
 48
50.0
100
AcDbLine
 10
16307.19999999999
 20
10389.6
 30
0.0
 11
13127.2
 21
10389.6
 31
0.0
  0
LINE
  5
16496
330
747D
100
AcDbEntity
  8
仕様書枠
 48
50.0
100
AcDbLine
 10
16307.19999999999
 20
10729.59999999999
 30
0.0
 11
13127.2
 21
10729.6
 31
0.0
  0
TEXT
  5
16497
330
747D
100
AcDbEntity
  8
文字
 62
     7
 48
50.0
100
AcDbText
 10
13197.42518560407
 20
11270.01374588372
 30
0.0
 40
100.0
  1
品番
  7
STYLE1
100
AcDbText
  0
TEXT
  5
16498
330
747D
100
AcDbEntity
  8
文字
 62
     7
 48
50.0
100
AcDbText
 10
13271.19032244792
 20
11100.01374588373
 30
0.0
 40
100.0
  1
1
  7
STYLE1
100
AcDbText
  0
TEXT
  5
16499
330
747D
100
AcDbEntity
  8
文字
 62
     7
 48
50.0
100
AcDbText
 10
13271.19032244792
 20
10930.01374588373
 30
0.0
 40
100.0
  1
2
  7
STYLE1
100
AcDbText
  0
TEXT
  5
1649A
330
747D
100
AcDbEntity
  8
文字
 62
     7
 48
50.0
100
AcDbText
 10
13271.19032244792
 20
10590.01374588373
 30
0.0
 40
100.0
  1
4
  7
STYLE1
100
AcDbText
  0
TEXT
  5
1649B
330
747D
100
AcDbEntity
  8
文字
 62
     7
 48
50.0
100
AcDbText
 10
13271.19032244792
 20
10760.01374588373
 30
0.0
 40
100.0
  1
3
  7
STYLE1
100
AcDbText
  0
TEXT
  5
1649C
330
747D
100
AcDbEntity
  8
文字
 62
     7
 48
50.0
100
AcDbText
 10
13732.03840939434
 20
11270.01374588372
 30
0.0
 40
100.0
  1
部　　品　　名
  7
STYLE1
100
AcDbText
  0
TEXT
  5
1649D
330
747D
100
AcDbEntity
  8
文字
 62
     7
 48
50.0
100
AcDbText
 10
14859.79774614482
 20
11270.01374588372
 30
0.0
 40
100.0
  1
材料（材質）　　単位mm
  7
STYLE1
100
AcDbText
  0
TEXT
  5
1649E
330
747D
100
AcDbEntity
  8
文字
 62
     7
 48
50.0
100
AcDbText
 10
13583.11819016569
 20
11100.01374588372
 30
0.0
 40
100.0
  1
土台枠
  7
STYLE1
100
AcDbText
  0
TEXT
  5
1649F
330
747D
100
AcDbEntity
  8
文字
 62
     7
 48
50.0
100
AcDbText
 10
13583.1181901657
 20
10760.01374588372
 30
0.0
 40
100.0
  1
柱
  7
STYLE1
100
AcDbText
  0
TEXT
  5
164A0
330
747D
100
AcDbEntity
  8
文字
 62
     7
 48
50.0
100
AcDbText
 10
13583.11819016569
 20
10420.01374588373
 30
0.0
 40
100.0
  1
桁前後
  7
STYLE1
100
AcDbText
  0
TEXT
  5
164A1
330
747D
100
AcDbEntity
  8
文字
 62
     7
 48
50.0
100
AcDbText
 10
13271.19032244792
 20
10420.01374588372
 30
0.0
 40
100.0
  1
5
  7
STYLE1
100
AcDbText
  0
TEXT
  5
164A2
330
747D
100
AcDbEntity
  8
文字
 62
     7
 48
50.0
100
AcDbText
 10
13583.11819016569
 20
10250.01374588373
 30
0.0
 40
100.0
  1
妻板左右
  7
STYLE1
100
AcDbText
  0
TEXT
  5
164A3
330
747D
100
AcDbEntity
  8
文字
 62
     7
 48
50.0
100
AcDbText
 10
13248.77747366447
 20
9570.013745883727
 30
0.0
 40
100.0
  1
10
  7
STYLE1
100
AcDbText
  0
TEXT
  5
164A4
330
747D
100
AcDbEntity
  8
文字
 62
     7
 48
50.0
100
AcDbText
 10
13583.11819016568
 20
9570.013745883729
 30
0.0
 40
100.0
  1
壁パネル
  7
STYLE1
100
AcDbText
  0
TEXT
  5
164A5
330
747D
100
AcDbEntity
  8
文字
 62
     7
 48
50.0
100
AcDbText
 10
13583.11819016569
 20
9910.013745883727
 30
0.0
 40
100.0
  1
屋根パネル
  7
STYLE1
100
AcDbText
  0
TEXT
  5
164A6
330
747D
100
AcDbEntity
  8
文字
 62
     7
 48
50.0
100
AcDbText
 10
13583.11819016569
 20
10080.01374588372
 30
0.0
 40
100.0
  1
鼻隠シ前後
  7
STYLE1
100
AcDbText
  0
TEXT
  5
164A7
330
747D
100
AcDbEntity
  8
文字
 62
     7
 48
50.0
100
AcDbText
 10
13271.19032244792
 20
9910.01374588373
 30
0.0
 40
100.0
  1
8
  7
STYLE1
100
AcDbText
  0
TEXT
  5
164A8
330
747D
100
AcDbEntity
  8
文字
 62
     7
 48
50.0
100
AcDbText
 10
13271.19032244792
 20
9740.013745883729
 30
0.0
 40
100.0
  1
9
  7
STYLE1
100
AcDbText
  0
TEXT
  5
164A9
330
747D
100
AcDbEntity
  8
文字
 62
     7
 48
50.0
100
AcDbText
 10
13271.19032244792
 20
10080.01374588373
 30
0.0
 40
100.0
  1
7
  7
STYLE1
100
AcDbText
  0
TEXT
  5
164AA
330
747D
100
AcDbEntity
  8
文字
 62
     7
 48
50.0
100
AcDbText
 10
13271.19032244792
 20
10250.01374588373
 30
0.0
 40
100.0
  1
6
  7
STYLE1
100
AcDbText
  0
LINE
  5
164AB
330
747D
100
AcDbEntity
  8
仕様書枠
 48
50.0
100
AcDbLine
 10
16307.19999999999
 20
9709.6
 30
0.0
 11
13127.2
 21
9709.600000000001
 31
0.0
  0
LINE
  5
164AC
330
747D
100
AcDbEntity
  8
仕様書枠
 48
50.0
100
AcDbLine
 10
16307.19999999999
 20
9369.599999999998
 30
0.0
 11
13127.2
 21
9369.600000000001
 31
0.0
  0
LINE
  5
164AD
330
747D
100
AcDbEntity
  8
仕様書枠
 48
50.0
100
AcDbLine
 10
16307.19999999999
 20
9539.599999999998
 30
0.0
 11
13127.2
 21
9539.6
 31
0.0
  0
LINE
  5
164AE
330
747D
100
AcDbEntity
  8
仕様書枠
 48
50.0
100
AcDbLine
 10
16307.2
 20
10219.6
 30
0.0
 11
13127.2
 21
10219.6
 31
0.0
  0
LINE
  5
164AF
330
747D
100
AcDbEntity
  8
仕様書枠
 48
50.0
100
AcDbLine
 10
16307.2
 20
9879.599999999999
 30
0.0
 11
13127.2
 21
9879.600000000001
 31
0.0
  0
TEXT
  5
164B0
330
747D
100
AcDbEntity
  8
文字
 62
     7
 48
50.0
100
AcDbText
 10
13248.77747366447
 20
9400.013745883727
 30
0.0
 40
100.0
  1
11
  7
STYLE1
100
AcDbText
  0
LINE
  5
164B1
330
747D
100
AcDbEntity
  8
仕様書枠
 48
50.0
100
AcDbLine
 10
16307.19999999999
 20
9199.599999999998
 30
0.0
 11
13127.2
 21
9199.600000000001
 31
0.0
  0
LINE
  5
164B2
330
747D
100
AcDbEntity
  8
仕様書枠
 48
50.0
100
AcDbLine
 10
16307.19999999999
 20
8859.6
 30
0.0
 11
13127.2
 21
8859.600000000002
 31
0.0
  0
TEXT
  5
164B3
330
747D
100
AcDbEntity
  8
文字
 62
     7
 48
50.0
100
AcDbText
 10
13248.77747366448
 20
9060.013745883727
 30
0.0
 40
100.0
  1
13
  7
STYLE1
100
AcDbText
  0
TEXT
  5
164B4
330
747D
100
AcDbEntity
  8
文字
 62
     7
 48
50.0
100
AcDbText
 10
13248.77747366448
 20
9230.013745883727
 30
0.0
 40
100.0
  1
12
  7
STYLE1
100
AcDbText
  0
TEXT
  5
164B5
330
747D
100
AcDbEntity
  8
文字
 62
     7
 48
50.0
100
AcDbText
 10
15022.63965474517
 20
11100.01374588372
 30
0.0
 40
100.0
  1
F12            1.2
  7
STYLE1
100
AcDbText
  0
TEXT
  5
164B6
330
747D
100
AcDbEntity
  8
文字
 62
     7
 48
50.0
100
AcDbText
 10
15022.63965474518
 20
10760.01374588372
 30
0.0
 40
100.0
  1
F12            1.0
  7
STYLE1
100
AcDbText
  0
TEXT
  5
164B7
330
747D
100
AcDbEntity
  8
文字
 62
     7
 48
50.0
100
AcDbText
 10
15022.63965474516
 20
10420.01374588372
 30
0.0
 40
100.0
  1
Y10            1.0
  7
STYLE1
100
AcDbText
  0
TEXT
  5
164B8
330
747D
100
AcDbEntity
  8
文字
 62
     7
 48
50.0
100
AcDbText
 10
15022.63965474516
 20
10250.01374588372
 30
0.0
 40
100.0
  1
Y10            0.7
  7
STYLE1
100
AcDbText
  0
TEXT
  5
164B9
330
747D
100
AcDbEntity
  8
文字
 62
     7
 48
50.0
100
AcDbText
 10
15022.63965474516
 20
10080.01374588372
 30
0.0
 40
100.0
  1
Y10            0.7
  7
STYLE1
100
AcDbText
  0
TEXT
  5
164BA
330
747D
100
AcDbEntity
  8
文字
 62
     7
 48
50.0
100
AcDbText
 10
15022.63965474517
 20
9910.013745883725
 30
0.0
 40
100.0
  1
Y10            0.5
  7
STYLE1
100
AcDbText
  0
TEXT
  5
164BB
330
747D
100
AcDbEntity
  8
文字
 62
     7
 48
50.0
100
AcDbText
 10
15022.63965474515
 20
9570.013745883725
 30
0.0
 40
100.0
  1
F12            0.7
  7
STYLE1
100
AcDbText
  0
LINE
  5
164BC
330
747D
100
AcDbEntity
  8
仕様書枠
 48
50.0
100
AcDbLine
 10
16307.19999999999
 20
8349.600000000004
 30
0.0
 11
13127.19999999999
 21
8349.600000000007
 31
0.0
  0
LINE
  5
164BD
330
747D
100
AcDbEntity
  8
仕様書枠
 48
50.0
100
AcDbLine
 10
16307.19999999999
 20
8179.600000000004
 30
0.0
 11
13127.19999999999
 21
8179.600000000005
 31
0.0
  0
TEXT
  5
164BE
330
747D
100
AcDbEntity
  8
文字
 62
     7
 48
50.0
100
AcDbText
 10
13229.83081656554
 20
8210.013745883733
 30
0.0
 40
100.0
  1
F12→溶融亜鉛めっき鋼板(JIS G 3302)
  7
STYLE1
100
AcDbText
  0
TEXT
  5
164BF
330
747D
100
AcDbEntity
  8
文字
 62
     7
 48
50.0
100
AcDbText
 10
13229.83081656554
 20
8040.013745883731
 30
0.0
 40
100.0
  1
Y10→溶融亜鉛-5％アルミニウム合金めっき鋼板(JIS G 3317)
 41
0.9
  7
STYLE1
100
AcDbText
  0
LINE
  5
164C0
330
747D
100
AcDbEntity
  8
仕様書枠
 48
50.0
100
AcDbLine
 10
13127.2
 20
11409.6
 30
0.0
 11
13127.19999999999
 21
8009.600000000006
 31
0.0
  0
LINE
  5
164C1
330
747D
100
AcDbEntity
  8
仕様書枠
 48
50.0
100
AcDbLine
 10
16307.19999999999
 20
9029.6
 30
0.0
 11
13127.2
 21
9029.600000000002
 31
0.0
  0
TEXT
  5
164C2
330
747D
100
AcDbEntity
  8
文字
 62
     7
 48
50.0
100
AcDbText
 10
13583.1181901657
 20
10590.01374588372
 30
0.0
 40
100.0
  1
床パネル
 41
0.9
  7
STYLE1
100
AcDbText
  0
TEXT
  5
164C3
330
747D
100
AcDbEntity
  8
文字
 62
     7
 48
50.0
100
AcDbText
 10
13583.11819016569
 20
10930.01374588372
 30
0.0
 40
100.0
  1
根太
  7
STYLE1
100
AcDbText
  0
TEXT
  5
164C4
330
747D
100
AcDbEntity
  8
文字
 62
     7
 48
50.0
100
AcDbText
 10
13248.77747366448
 20
8890.013745883727
 30
0.0
 40
100.0
  1
14
  7
STYLE1
100
AcDbText
  0
TEXT
  5
164C5
330
747D
100
AcDbEntity
  8
文字
 62
     7
 48
50.0
100
AcDbText
 10
15022.63965474516
 20
10930.01374588372
 30
0.0
 40
100.0
  1
F12            1.2
  7
STYLE1
100
AcDbText
  0
TEXT
  5
164C6
330
747D
100
AcDbEntity
  8
文字
 62
     7
 48
50.0
100
AcDbText
 10
15022.63965474517
 20
10590.01374588372
 30
0.0
 40
100.0
  1
F12            1.0
  7
STYLE1
100
AcDbText
  0
TEXT
  5
164C7
330
747D
100
AcDbEntity
  8
文字
 62
     7
 48
50.0
100
AcDbText
 10
15022.63965474515
 20
8890.013745883727
 30
0.0
 40
100.0
  1
F12            0.7
  7
STYLE1
100
AcDbText
  0
TEXT
  5
164C8
330
747D
100
AcDbEntity
  8
文字
 62
     7
 48
50.0
100
AcDbText
 10
13583.11819016568
 20
8890.013745883731
 30
0.0
 40
100.0
  1
正面パネル
  7
STYLE1
100
AcDbText
  0
TEXT
  5
164C9
330
747D
100
AcDbEntity
  8
文字
 62
     7
 48
50.0
100
AcDbText
 10
15022.63965474516
 20
8720.013745883727
 30
0.0
 40
100.0
  1
F12            0.8
  7
STYLE1
100
AcDbText
  0
TEXT
  5
164CA
330
747D
100
AcDbEntity
  8
文字
 62
     7
 48
50.0
100
AcDbText
 10
13583.11819016569
 20
8720.013745883731
 30
0.0
 40
100.0
  1
扉
  7
STYLE1
100
AcDbText
  0
LINE
  5
164CB
330
747D
100
AcDbEntity
  8
仕様書枠
 48
50.0
100
AcDbLine
 10
16307.19999999999
 20
8009.600000000004
 30
0.0
 11
13127.19999999999
 21
8009.600000000006
 31
0.0
  0
TEXT
  5
164CC
330
747D
100
AcDbEntity
  8
文字
 62
     7
 48
50.0
100
AcDbText
 10
13248.77747366447
 20
8720.013745883729
 30
0.0
 40
100.0
  1
15
  7
STYLE1
100
AcDbText
  0
TEXT
  5
164CD
330
747D
100
AcDbEntity
  8
文字
 62
     7
 48
50.0
100
AcDbText
 10
13583.11819016569
 20
9740.013745883729
 30
0.0
 40
100.0
  1
母屋中
  7
STYLE1
100
AcDbText
  0
TEXT
  5
164CE
330
747D
100
AcDbEntity
  8
文字
 62
     7
 48
50.0
100
AcDbText
 10
15022.63965474516
 20
8550.013745883727
 30
0.0
 40
100.0
  1
F12            0.6
  7
STYLE1
100
AcDbText
  0
TEXT
  5
164CF
330
747D
100
AcDbEntity
  8
文字
 62
     7
 48
50.0
100
AcDbText
 10
13583.11819016569
 20
8550.013745883731
 30
0.0
 40
100.0
  1
棚板
  7
STYLE1
100
AcDbText
  0
LINE
  5
16950
330
747D
100
AcDbEntity
  8
部品1
 48
50.0
100
AcDbLine
 10
8946.445451675245
 20
3711.208667612142
 30
0.0
 11
8999.445451675246
 21
3711.208667612142
 31
0.0
  0
LINE
  5
17017
330
747D
100
AcDbEntity
  8
部品1
 48
50.0
100
AcDbLine
 10
10195.44545167523
 20
2579.70866761214
 30
0.0
 11
10195.44545167523
 21
2479.70866761214
 31
0.0
  0
LINE
  5
17018
330
747D
100
AcDbEntity
  8
部品1
 48
50.0
100
AcDbLine
 10
10395.44545167523
 20
2579.70866761214
 30
0.0
 11
10395.44545167523
 21
2479.70866761214
 31
0.0
  0
LINE
  5
17019
330
747D
100
AcDbEntity
  8
部品1
 48
50.0
100
AcDbLine
 10
9503.445451675236
 20
2579.70866761214
 30
0.0
 11
9503.445451675236
 21
2479.70866761214
 31
0.0
  0
LINE
  5
1701A
330
747D
100
AcDbEntity
  8
部品1
 48
50.0
100
AcDbLine
 10
9703.445451675236
 20
2579.70866761214
 30
0.0
 11
9703.445451675236
 21
2479.70866761214
 31
0.0
  0
LINE
  5
1701C
330
747D
100
AcDbEntity
  8
破線
 48
10.0
100
AcDbLine
 10
10319.94545167527
 20
8125.537739886935
 30
0.0
 11
10319.94545167527
 21
9379.037739887051
 31
0.0
  0
LINE
  5
1701D
330
747D
100
AcDbEntity
  8
破線
 48
10.0
100
AcDbLine
 10
10269.94545167527
 20
8125.537739886933
 30
0.0
 11
10269.94545167527
 21
9379.037739887055
 31
0.0
  0
LINE
  5
1701E
330
747D
100
AcDbEntity
  8
破線
 48
10.0
100
AcDbLine
 10
9578.94545167527
 20
8125.537739886899
 30
0.0
 11
9578.945451675265
 21
9379.037739887008
 31
0.0
  0
LINE
  5
1701F
330
747D
100
AcDbEntity
  8
破線
 48
10.0
100
AcDbLine
 10
9628.945451675267
 20
8125.537739886903
 30
0.0
 11
9628.945451675271
 21
9379.037739887012
 31
0.0
  0
LINE
  5
17550
330
747D
100
AcDbEntity
  8
破線
 48
10.0
100
AcDbLine
 10
9578.945451675272
 20
8149.0377398869
 30
0.0
 11
8924.445451675223
 21
8149.037739886869
 31
0.0
  0
LINE
  5
1764A
330
747D
100
AcDbEntity
  8
寸法
 48
50.0
100
AcDbLine
 10
9334.64845795707
 20
7847.074491455747
 30
0.0
 11
9283.242450046968
 21
7847.074491455747
 31
0.0
  0
LINE
  5
1764B
330
747D
100
AcDbEntity
  8
寸法
 48
50.0
100
AcDbLine
 10
9283.242450046968
 20
7847.074491455747
 30
0.0
 11
9283.242450046968
 21
7878.384650107914
 31
0.0
  0
LINE
  5
1764C
330
747D
100
AcDbEntity
  8
寸法
 48
50.0
100
AcDbLine
 10
9283.242450046968
 20
7878.384650107914
 30
0.0
 11
9253.481118055544
 21
7878.384650107914
 31
0.0
  0
LINE
  5
1764D
330
747D
100
AcDbEntity
  8
寸法
 48
50.0
100
AcDbLine
 10
9253.481118055544
 20
7878.384650107914
 30
0.0
 11
9308.945454002019
 21
7915.964101036523
 31
0.0
  0
LINE
  5
1764E
330
747D
100
AcDbEntity
  8
寸法
 48
50.0
100
AcDbLine
 10
9364.409789948494
 20
7878.384650107914
 30
0.0
 11
9308.945454002019
 21
7915.964101036523
 31
0.0
  0
LINE
  5
1764F
330
747D
100
AcDbEntity
  8
寸法
 48
50.0
100
AcDbLine
 10
9334.64845795707
 20
7878.384650107914
 30
0.0
 11
9364.409789948494
 21
7878.384650107914
 31
0.0
  0
LINE
  5
17650
330
747D
100
AcDbEntity
  8
寸法
 48
50.0
100
AcDbLine
 10
9334.64845795707
 20
7847.074491455747
 30
0.0
 11
9334.64845795707
 21
7878.384650107914
 31
0.0
  0
LINE
  5
17651
330
747D
100
AcDbEntity
  8
寸法
 48
50.0
100
AcDbLine
 10
9283.242450046968
 20
7847.074491455747
 30
0.0
 11
9334.64845795707
 21
7847.074491455747
 31
0.0
  0
LINE
  5
17652
330
747D
100
AcDbEntity
  8
寸法
 48
50.0
100
AcDbLine
 10
9613.813992233929
 20
7904.22008221057
 30
0.0
 11
9613.813992233929
 21
7850.55644762878
 31
0.0
  0
LINE
  5
17653
330
747D
100
AcDbEntity
  8
寸法
 48
50.0
100
AcDbLine
 10
9703.098210829351
 20
7880.296447941084
 30
0.0
 11
9613.813992233929
 21
7904.22008221057
 31
0.0
  0
LINE
  5
17654
330
747D
100
AcDbEntity
  8
寸法
 48
50.0
100
AcDbLine
 10
9483.946270653625
 20
7880.296447941084
 30
0.0
 11
9703.098210829351
 21
7880.296447941084
 31
0.0
  0
LINE
  5
17655
330
747D
100
AcDbEntity
  8
細線
 48
50.0
100
AcDbLine
 10
10360.44545167523
 20
8045.537854835609
 30
0.0
 11
10987.44545167522
 21
8045.537854835609
 31
0.0
  0
LINE
  5
17656
330
747D
100
AcDbEntity
  8
細線
 48
50.0
100
AcDbLine
 10
9706.445456328816
 20
8011.829086281535
 30
0.0
 11
10987.44545167522
 21
8011.829086281535
 31
0.0
  0
LINE
  5
17657
330
747D
100
AcDbEntity
  8
細線
 48
50.0
100
AcDbLine
 10
9665.44545632882
 20
8041.233994277787
 30
0.0
 11
8911.445451675227
 21
8041.233994277783
 31
0.0
  0
LINE
  5
17658
330
747D
100
AcDbEntity
  8
細線
100
AcDbLine
 10
10763.19544225877
 20
8065.037754800618
 30
0.0
 11
10765.52698178058
 21
8070.037757440578
 31
0.0
  0
LINE
  5
17659
330
747D
100
AcDbEntity
  8
細線
100
AcDbLine
 10
10833.19545167523
 20
8065.037739886884
 30
0.0
 11
10830.86390519904
 21
8070.037757440564
 31
0.0
  0
LINE
  5
1765A
330
747D
100
AcDbEntity
  8
細線
100
AcDbLine
 10
10830.86390519904
 20
8070.037757440564
 30
0.0
 11
10765.52698178056
 21
8070.03775744055
 31
0.0
  0
LINE
  5
1765B
330
747D
100
AcDbEntity
  8
細線
100
AcDbLine
 10
10690.86390519904
 20
8070.037757440564
 30
0.0
 11
10625.52698178056
 21
8070.03775744055
 31
0.0
  0
LINE
  5
1765C
330
747D
100
AcDbEntity
  8
細線
100
AcDbLine
 10
10693.19545167523
 20
8065.037739886884
 30
0.0
 11
10690.86390519904
 21
8070.037757440564
 31
0.0
  0
LINE
  5
1765D
330
747D
100
AcDbEntity
  8
細線
100
AcDbLine
 10
10623.19544225877
 20
8065.037754800618
 30
0.0
 11
10625.52698178058
 21
8070.037757440578
 31
0.0
  0
LINE
  5
1765E
330
747D
100
AcDbEntity
  8
細線
100
AcDbLine
 10
10483.19545167522
 20
8065.037739886884
 30
0.0
 11
10485.52699119704
 21
8070.037742526846
 31
0.0
  0
LINE
  5
1765F
330
747D
100
AcDbEntity
  8
細線
100
AcDbLine
 10
10553.19546109169
 20
8065.03772497315
 30
0.0
 11
10550.86391461549
 21
8070.037742526832
 31
0.0
  0
LINE
  5
17660
330
747D
100
AcDbEntity
  8
細線
100
AcDbLine
 10
10550.8639146155
 20
8070.037742526832
 30
0.0
 11
10485.52699119702
 21
8070.037742526816
 31
0.0
  0
LINE
  5
17661
330
747D
100
AcDbEntity
  8
細線
100
AcDbLine
 10
10255.61393586433
 20
8036.037779224214
 30
0.0
 11
10190.27701244586
 21
8036.037779224198
 31
0.0
  0
LINE
  5
17662
330
747D
100
AcDbEntity
  8
細線
100
AcDbLine
 10
10257.94548234052
 20
8031.037761670532
 30
0.0
 11
10255.61393586433
 21
8036.037779224214
 31
0.0
  0
LINE
  5
17663
330
747D
100
AcDbEntity
  8
細線
100
AcDbLine
 10
10187.94547292406
 20
8031.037776584266
 30
0.0
 11
10190.27701244587
 21
8036.037779224228
 31
0.0
  0
LINE
  5
17664
330
747D
100
AcDbEntity
  8
細線
 48
50.0
100
AcDbLine
 10
10029.32883092324
 20
8049.308603039966
 30
0.0
 11
10035.08434850591
 21
8031.037751749478
 31
0.0
  0
LINE
  5
17665
330
747D
100
AcDbEntity
  8
細線
 48
50.0
100
AcDbLine
 10
10018.40038244281
 20
8049.308603039966
 30
0.0
 11
10029.32883092324
 21
8049.308603039966
 31
0.0
  0
ARC
  5
17666
330
747D
100
AcDbEntity
  8
細線
 48
50.0
100
AcDbCircle
 10
10012.94602638549
 20
8050.808603039966
 30
0.0
 40
5.0
100
AcDbArc
 50
204.6243183521304
 51
335.3756816478695
  0
ARC
  5
17667
330
747D
100
AcDbEntity
  8
細線
 48
50.0
100
AcDbCircle
 10
10018.40038244281
 20
8048.308603039965
 30
0.0
 40
1.0
100
AcDbArc
 50
90.0
 51
155.3756816478695
  0
ARC
  5
17668
330
747D
100
AcDbEntity
  8
細線
 48
50.0
100
AcDbCircle
 10
10007.49167032817
 20
8048.308603039965
 30
0.0
 40
1.0
100
AcDbArc
 50
24.62431835213048
 51
90.0
  0
LINE
  5
17669
330
747D
100
AcDbEntity
  8
細線
 48
50.0
100
AcDbLine
 10
9996.563221847742
 20
8049.308603039966
 30
0.0
 11
10007.49167032817
 21
8049.308603039966
 31
0.0
  0
LINE
  5
1766A
330
747D
100
AcDbEntity
  8
細線
 48
50.0
100
AcDbLine
 10
9990.807704265073
 20
8031.037751749471
 30
0.0
 11
9996.563221847742
 21
8049.308603039966
 31
0.0
  0
LINE
  5
1766B
330
747D
100
AcDbEntity
  8
細線
100
AcDbLine
 10
10047.9454741551
 20
8031.037749115276
 30
0.0
 11
10050.27701367692
 21
8036.037751755236
 31
0.0
  0
LINE
  5
1766C
330
747D
100
AcDbEntity
  8
細線
100
AcDbLine
 10
10117.94548357156
 20
8031.037734201541
 30
0.0
 11
10115.61393709537
 21
8036.037751755221
 31
0.0
  0
LINE
  5
1766D
330
747D
100
AcDbEntity
  8
細線
100
AcDbLine
 10
10115.61393709537
 20
8036.037751755221
 30
0.0
 11
10050.2770136769
 21
8036.037751755207
 31
0.0
  0
LINE
  5
1766E
330
747D
100
AcDbEntity
  8
細線
100
AcDbLine
 10
9975.613908730858
 20
8036.037751749441
 30
0.0
 11
9910.276985312384
 21
8036.037751749427
 31
0.0
  0
LINE
  5
1766F
330
747D
100
AcDbEntity
  8
細線
100
AcDbLine
 10
9977.945455207047
 20
8031.037734195761
 30
0.0
 11
9975.613908730858
 21
8036.037751749441
 31
0.0
  0
LINE
  5
17670
330
747D
100
AcDbEntity
  8
細線
100
AcDbLine
 10
9907.945447021631
 20
8031.037751749471
 30
0.0
 11
9910.276985312398
 21
8036.037751749457
 31
0.0
  0
LINE
  5
17671
330
747D
100
AcDbEntity
  8
細線
100
AcDbLine
 10
9767.945482340522
 20
8031.037759936841
 30
0.0
 11
9770.27702063129
 21
8036.037759936826
 31
0.0
  0
LINE
  5
17672
330
747D
100
AcDbEntity
  8
細線
100
AcDbLine
 10
9837.945490525939
 20
8031.037742383132
 30
0.0
 11
9835.61394404975
 21
8036.037759936808
 31
0.0
  0
LINE
  5
17673
330
747D
100
AcDbEntity
  8
細線
100
AcDbLine
 10
9835.61394404975
 20
8036.037759936808
 30
0.0
 11
9770.277020631276
 21
8036.037759936796
 31
0.0
  0
LINE
  5
17674
330
747D
100
AcDbEntity
  8
細線
100
AcDbLine
 10
9396.445448143401
 20
7997.037931617554
 30
0.0
 11
9398.776986434169
 21
8002.03793161754
 31
0.0
  0
LINE
  5
17675
330
747D
100
AcDbEntity
  8
細線
100
AcDbLine
 10
9466.445456328816
 20
7997.03791406384
 30
0.0
 11
9464.113909852629
 21
8002.037931617516
 31
0.0
  0
LINE
  5
17676
330
747D
100
AcDbEntity
  8
細線
100
AcDbLine
 10
9464.113909852629
 20
8002.037931617516
 30
0.0
 11
9398.776986434157
 21
8002.037931617509
 31
0.0
  0
LINE
  5
17677
330
747D
100
AcDbEntity
  8
細線
100
AcDbLine
 10
9604.113909852628
 20
8002.037931617516
 30
0.0
 11
9538.776986434157
 21
8002.037931617509
 31
0.0
  0
LINE
  5
17678
330
747D
100
AcDbEntity
  8
細線
100
AcDbLine
 10
9606.445456328817
 20
7997.03791406384
 30
0.0
 11
9604.113909852628
 21
8002.037931617516
 31
0.0
  0
LINE
  5
17679
330
747D
100
AcDbEntity
  8
細線
100
AcDbLine
 10
9536.445448143402
 20
7997.037931617554
 30
0.0
 11
9538.776986434168
 21
8002.03793161754
 31
0.0
  0
LINE
  5
1767A
330
747D
100
AcDbEntity
  8
細線
100
AcDbLine
 10
9324.113909852629
 20
8002.037931617516
 30
0.0
 11
9258.776986434156
 21
8002.037931617506
 31
0.0
  0
LINE
  5
1767B
330
747D
100
AcDbEntity
  8
細線
100
AcDbLine
 10
9326.445456328817
 20
7997.03791406384
 30
0.0
 11
9324.113909852629
 21
8002.037931617516
 31
0.0
  0
LINE
  5
1767C
330
747D
100
AcDbEntity
  8
細線
100
AcDbLine
 10
9256.4454481434
 20
7997.037931617549
 30
0.0
 11
9258.776986434169
 21
8002.037931617534
 31
0.0
  0
LINE
  5
1767D
330
747D
100
AcDbEntity
  8
細線
100
AcDbLine
 10
9116.445456328817
 20
7997.037931617554
 30
0.0
 11
9118.776994619585
 21
8002.03793161754
 31
0.0
  0
LINE
  5
1767E
330
747D
100
AcDbEntity
  8
細線
100
AcDbLine
 10
9186.445464514234
 20
7997.03791406384
 30
0.0
 11
9184.113918038045
 21
8002.037931617516
 31
0.0
  0
LINE
  5
1767F
330
747D
100
AcDbEntity
  8
細線
100
AcDbLine
 10
9184.113918038045
 20
8002.037931617516
 30
0.0
 11
9118.776994619572
 21
8002.037931617509
 31
0.0
  0
ARC
  5
17680
330
747D
100
AcDbEntity
  8
部品1
 48
0.01
100
AcDbCircle
 10
9071.945345076482
 20
7996.036809432481
 30
0.0
 40
0.5
100
AcDbArc
 50
270.0
 51
0.0
  0
LINE
  5
17681
330
747D
100
AcDbEntity
  8
部品1
 48
0.01
100
AcDbLine
 10
9072.445345076481
 20
7997.036809432481
 30
0.0
 11
9072.445345076481
 21
7996.036809432481
 31
0.0
  0
LINE
  5
17682
330
747D
100
AcDbEntity
  8
部品1
 48
0.01
100
AcDbLine
 10
9072.445345076481
 20
7997.036809432481
 30
0.0
 11
9072.445345076481
 21
7996.036809432481
 31
0.0
  0
LINE
  5
17683
330
747D
100
AcDbEntity
  8
部品1
 48
0.01
100
AcDbLine
 10
9071.945345076482
 20
7995.536809432481
 30
0.0
 11
9065.332839646417
 21
7995.536809432481
 31
0.0
  0
ARC
  5
17684
330
747D
100
AcDbEntity
  8
部品1
100
AcDbCircle
 10
9065.401189199198
 20
7996.53680943248
 30
0.0
 40
1.0
100
AcDbArc
 50
160.5287793655778
 51
270.0
  0
ARC
  5
17685
330
747D
100
AcDbEntity
  8
部品1
100
AcDbCircle
 10
9039.94534507648
 20
8005.536809432481
 30
0.0
 40
26.0
100
AcDbArc
 50
340.5287793655779
 51
0.0
  0
LINE
  5
17686
330
747D
100
AcDbEntity
  8
部品1
100
AcDbLine
 10
9065.945345076482
 20
8005.536809432481
 30
0.0
 11
9065.945345076482
 21
8010.53680943248
 31
0.0
  0
ARC
  5
17687
330
747D
100
AcDbEntity
  8
部品1
 48
0.01
100
AcDbCircle
 10
9063.945345076481
 20
8010.53680943248
 30
0.0
 40
2.0
100
AcDbArc
 50
0.0
 51
90.0
  0
ARC
  5
17688
330
747D
100
AcDbEntity
  8
部品1
100
AcDbCircle
 10
9062.336953451671
 20
8009.53680943248
 30
0.0
 40
3.0
100
AcDbArc
 50
90.0
 51
141.6069559807873
  0
LINE
  5
17689
330
747D
100
AcDbEntity
  8
部品1
 48
0.01
100
AcDbLine
 10
9063.945345076481
 20
8012.53680943248
 30
0.0
 11
9062.336953451671
 21
8012.53680943248
 31
0.0
  0
ARC
  5
1768A
330
747D
100
AcDbEntity
  8
部品1
100
AcDbCircle
 10
9043.874630862211
 20
8008.836809432484
 30
0.0
 40
3.0
100
AcDbArc
 50
254.0576313943215
 51
270.0
  0
ARC
  5
1768B
330
747D
100
AcDbEntity
  8
部品1
100
AcDbCircle
 10
9051.016059290752
 20
8008.836809432484
 30
0.0
 40
3.0
100
AcDbArc
 50
270.0
 51
285.9423686056786
  0
LINE
  5
1768C
330
747D
100
AcDbEntity
  8
部品1
100
AcDbLine
 10
9051.016059290752
 20
8005.836809432484
 30
0.0
 11
9043.874630862211
 21
8005.836809432484
 31
0.0
  0
ARC
  5
1768D
330
747D
100
AcDbEntity
  8
部品1
100
AcDbCircle
 10
9047.44534507648
 20
8021.336809432483
 30
0.0
 40
16.0
100
AcDbArc
 50
285.9423686056786
 51
321.6069559807873
  0
LINE
  5
1768E
330
747D
100
AcDbEntity
  8
部品1
 48
0.01
100
AcDbLine
 10
9030.945345076482
 20
8012.53680943248
 30
0.0
 11
9032.553736701292
 21
8012.53680943248
 31
0.0
  0
ARC
  5
1768F
330
747D
100
AcDbEntity
  8
部品1
100
AcDbCircle
 10
9032.553736701292
 20
8009.53680943248
 30
0.0
 40
3.0
100
AcDbArc
 50
38.39304401921267
 51
90.0
  0
ARC
  5
17690
330
747D
100
AcDbEntity
  8
部品1
100
AcDbCircle
 10
9047.44534507648
 20
8021.336809432483
 30
0.0
 40
16.0
100
AcDbArc
 50
218.3930440192126
 51
254.0576313943215
  0
LINE
  5
17691
330
747D
100
AcDbEntity
  8
部品1
100
AcDbLine
 10
9028.945345076481
 20
8005.536809432481
 30
0.0
 11
9028.945345076481
 21
8010.53680943248
 31
0.0
  0
ARC
  5
17692
330
747D
100
AcDbEntity
  8
部品1
 48
0.01
100
AcDbCircle
 10
9030.945345076482
 20
8010.53680943248
 30
0.0
 40
2.0
100
AcDbArc
 50
90.0
 51
180.0
  0
ARC
  5
17693
330
747D
100
AcDbEntity
  8
部品1
100
AcDbCircle
 10
9054.945345076481
 20
8005.536809432481
 30
0.0
 40
26.0
100
AcDbArc
 50
180.0
 51
199.4712206344221
  0
ARC
  5
17694
330
747D
100
AcDbEntity
  8
部品1
 48
0.01
100
AcDbCircle
 10
9022.945345076481
 20
7996.036809432481
 30
0.0
 40
0.5
100
AcDbArc
 50
180.0
 51
270.0
  0
LINE
  5
17695
330
747D
100
AcDbEntity
  8
部品1
 48
0.01
100
AcDbLine
 10
9022.945345076481
 20
7995.536809432481
 30
0.0
 11
9029.489500953765
 21
7995.536809432481
 31
0.0
  0
LINE
  5
17696
330
747D
100
AcDbEntity
  8
部品1
 48
0.01
100
AcDbLine
 10
9022.445345076482
 20
7997.036809432481
 30
0.0
 11
9022.445345076482
 21
7996.036809432481
 31
0.0
  0
ARC
  5
17697
330
747D
100
AcDbEntity
  8
部品1
100
AcDbCircle
 10
9029.489500953765
 20
7996.53680943248
 30
0.0
 40
1.0
100
AcDbArc
 50
270.0
 51
19.47122063442214
  0
LINE
  5
17698
330
747D
100
AcDbEntity
  8
細線
100
AcDbLine
 10
9067.945345076488
 20
8015.036809432485
 30
0.0
 11
9026.945345076489
 21
8015.036809432478
 31
0.0
  0
LINE
  5
17699
330
747D
100
AcDbEntity
  8
細線
100
AcDbLine
 10
9026.945345076489
 20
8015.036809432478
 30
0.0
 11
9026.945345076489
 21
7997.036809432458
 31
0.0
  0
LINE
  5
1769A
330
747D
100
AcDbEntity
  8
細線
100
AcDbLine
 10
9067.945345076488
 20
8015.036809432485
 30
0.0
 11
9067.945345076488
 21
7997.036809432458
 31
0.0
  0
LINE
  5
1769B
330
747D
100
AcDbEntity
  8
細線
100
AcDbLine
 10
8911.445451675227
 20
8001.037739886884
 30
0.0
 11
8911.445451675227
 21
7997.037739886931
 31
0.0
  0
DIMENSION
  5
1769C
330
747D
100
AcDbEntity
  8
寸法
 48
50.0
100
AcDbDimension
  2
*D32
 10
10177.44545167522
 20
7336.787742481138
 30
0.0
 11
9540.862785253251
 21
7336.787742481138
 31
0.0
 70
   160
  1
有効開口部間口\P<>
 71
     5
 42
1266.0
  3
INABA_S40
100
AcDbAlignedDimension
 13
8911.445451675227
 23
7992.037739886884
 33
0.0
 14
10177.44545167522
 24
7992.037739886884
 34
0.0
100
AcDbRotatedDimension
1001
ACAD
1000
DSTYLE
1002
{
1070
    41
1040
0.5
1070
    44
1040
1.0
1070
   147
1040
0.8
1070
   271
1070
     2
1070
   272
1070
     2
1070
   289
1070
     3
1070
   340
1005
F706
1070
   343
1005
15D78
1070
   344
1005
15D78
1002
}
  0
LINE
  5
1769D
330
747D
100
AcDbEntity
  8
部品1
100
AcDbLine
 10
10999.44545167522
 20
8069.037739886885
 30
0.0
 11
11026.44545167522
 21
8069.037739886885
 31
0.0
  0
LINE
  5
1769F
330
747D
100
AcDbEntity
  8
部品1
100
AcDbLine
 10
11026.44545167522
 20
7992.037739886884
 30
0.0
 11
11026.44545167522
 21
8069.037739886885
 31
0.0
  0
LINE
  5
176A0
330
747D
100
AcDbEntity
  8
部品1
100
AcDbLine
 10
10987.44545167522
 20
8065.037739886884
 30
0.0
 11
10999.44545167522
 21
8065.037739886884
 31
0.0
  0
LINE
  5
176A1
330
747D
100
AcDbEntity
  8
部品1
100
AcDbLine
 10
10996.44545167522
 20
8001.037739886884
 30
0.0
 11
10996.44545167522
 21
7992.037739886884
 31
0.0
  0
LINE
  5
176A2
330
747D
100
AcDbEntity
  8
部品1
100
AcDbLine
 10
10987.44545167522
 20
8001.037739886884
 30
0.0
 11
10996.44545167522
 21
8001.037739886884
 31
0.0
  0
LINE
  5
176A3
330
747D
100
AcDbEntity
  8
部品1
100
AcDbLine
 10
10987.44545167522
 20
8065.037739886884
 30
0.0
 11
10987.44545167522
 21
8001.037739886884
 31
0.0
  0
LINE
  5
176A4
330
747D
100
AcDbEntity
  8
部品1
100
AcDbLine
 10
10999.44545167522
 20
8096.037739886885
 30
0.0
 11
10999.44545167522
 21
8065.037739886884
 31
0.0
  0
LINE
  5
176A5
330
747D
100
AcDbEntity
  8
部品1
100
AcDbLine
 10
8911.445451675227
 20
8065.037739886884
 30
0.0
 11
8899.445451675227
 21
8065.037739886884
 31
0.0
  0
LINE
  5
176A6
330
747D
100
AcDbEntity
  8
部品1
100
AcDbLine
 10
8872.445451675227
 20
8069.037739886885
 30
0.0
 11
8899.445451675227
 21
8069.037739886885
 31
0.0
  0
LINE
  5
176A7
330
747D
100
AcDbEntity
  8
部品1
100
AcDbLine
 10
8902.445451675227
 20
8001.037739886884
 30
0.0
 11
8902.445451675227
 21
7992.037739886884
 31
0.0
  0
LINE
  5
176A8
330
747D
100
AcDbEntity
  8
部品1
100
AcDbLine
 10
8911.445451675227
 20
8001.037739886884
 30
0.0
 11
8902.445451675227
 21
8001.037739886884
 31
0.0
  0
LINE
  5
176A9
330
747D
100
AcDbEntity
  8
部品1
100
AcDbLine
 10
8902.445451675227
 20
7992.037739886884
 30
0.0
 11
8872.445451675227
 21
7992.037739886884
 31
0.0
  0
LINE
  5
176AA
330
747D
100
AcDbEntity
  8
部品1
100
AcDbLine
 10
8872.445451675227
 20
7992.037739886884
 30
0.0
 11
8872.445451675227
 21
8069.037739886885
 31
0.0
  0
LINE
  5
176AB
330
747D
100
AcDbEntity
  8
部品1
100
AcDbLine
 10
8911.445451675227
 20
8065.037739886884
 30
0.0
 11
8911.445451675227
 21
8001.037739886884
 31
0.0
  0
LINE
  5
176AC
330
747D
100
AcDbEntity
  8
部品1
100
AcDbLine
 10
8899.445451675227
 20
8096.037739886879
 30
0.0
 11
8899.445451675227
 21
8065.037739886884
 31
0.0
  0
LINE
  5
176AD
330
747D
100
AcDbEntity
  8
部品1
100
AcDbLine
 10
8899.445451675227
 20
8096.037739886879
 30
0.0
 11
10999.44545167522
 21
8096.037739886885
 31
0.0
  0
LINE
  5
176AE
330
747D
100
AcDbEntity
  8
部品1
100
AcDbLine
 10
10996.44545167522
 20
7992.037739886884
 30
0.0
 11
11026.44545167522
 21
7992.037739886884
 31
0.0
  0
LINE
  5
176AF
330
747D
100
AcDbEntity
  8
部品1
100
AcDbLine
 10
8902.445451675227
 20
7992.037739886884
 30
0.0
 11
10999.44545167522
 21
7992.037739886884
 31
0.0
  0
LINE
  5
176B0
330
747D
100
AcDbEntity
  8
細線
  6
Continuous
 62
     5
100
AcDbLine
 10
10278.44545167523
 20
8031.037739886881
 30
0.0
 11
10278.44545167523
 21
8031.037739886881
 31
0.0
  0
LINE
  5
176B1
330
747D
100
AcDbEntity
  8
細線
  6
Continuous
 62
     5
100
AcDbLine
 10
10270.94548699412
 20
8031.037749807937
 30
0.0
 11
10270.94548699412
 21
8031.037749807937
 31
0.0
  0
LINE
  5
176B2
330
747D
100
AcDbEntity
  8
細線
  6
Continuous
 62
     5
100
AcDbLine
 10
10264.94548699412
 20
8031.037749807937
 30
0.0
 11
10264.94548699412
 21
8031.037749807937
 31
0.0
  0
LINE
  5
176B3
330
747D
100
AcDbEntity
  8
細線
  6
Continuous
 62
     5
100
AcDbLine
 10
10332.44545167523
 20
8050.03773988688
 30
0.0
 11
10332.44545167523
 21
8050.03773988688
 31
0.0
  0
LINE
  5
176B4
330
747D
100
AcDbEntity
  8
細線
 48
50.0
100
AcDbLine
 10
8925.445456328821
 20
8017.637914063838
 30
0.0
 11
8925.445456328821
 21
8026.034064471479
 31
0.0
  0
LINE
  5
176B5
330
747D
100
AcDbEntity
  8
細線
 48
50.0
100
AcDbLine
 10
8925.445456328821
 20
8026.034064471479
 30
0.0
 11
8911.445451675227
 21
8026.034064471474
 31
0.0
  0
LINE
  5
176B6
330
747D
100
AcDbEntity
  8
細線
 48
50.0
100
AcDbLine
 10
9676.445456328817
 20
8014.187914063837
 30
0.0
 11
9676.445456328817
 21
8019.03791406384
 31
0.0
  0
LINE
  5
176B7
330
747D
100
AcDbEntity
  8
細線
 48
50.0
100
AcDbLine
 10
9676.445456328817
 20
8019.03791406384
 30
0.0
 11
9691.445456328816
 21
8019.03791406384
 31
0.0
  0
LINE
  5
176B8
330
747D
100
AcDbEntity
  8
細線
 48
50.0
100
AcDbLine
 10
9691.445456328816
 20
8019.03791406384
 30
0.0
 11
9691.445456328821
 21
8026.03791406384
 31
0.0
  0
LINE
  5
176B9
330
747D
100
AcDbEntity
  8
細線
 48
50.0
100
AcDbLine
 10
9691.445456328821
 20
8026.03791406384
 30
0.0
 11
9706.445456328816
 21
8026.03791406384
 31
0.0
  0
LINE
  5
176BA
330
747D
100
AcDbEntity
  8
細線
 48
50.0
100
AcDbLine
 10
9706.445456328816
 20
8026.03791406384
 30
0.0
 11
9706.445456328816
 21
7997.03791406384
 31
0.0
  0
LINE
  5
176BB
330
747D
100
AcDbEntity
  8
細線
 48
50.0
100
AcDbLine
 10
8902.445451675227
 20
7997.035248407309
 30
0.0
 11
9116.445456328817
 21
7997.037931617554
 31
0.0
  0
LINE
  5
176BC
330
747D
100
AcDbEntity
  8
細線
 48
50.0
100
AcDbLine
 10
9606.445456328817
 20
7997.03791406384
 30
0.0
 11
9706.445456328816
 21
7997.03791406384
 31
0.0
  0
LINE
  5
176BD
330
747D
100
AcDbEntity
  8
細線
 48
50.0
100
AcDbLine
 10
9326.445456328817
 20
7997.03791406384
 30
0.0
 11
9396.445456328818
 21
7997.03791406384
 31
0.0
  0
LINE
  5
176BE
330
747D
100
AcDbEntity
  8
細線
 48
50.0
100
AcDbLine
 10
9339.307421341345
 20
7997.03791406384
 30
0.0
 11
9345.062938924014
 21
8015.308765354333
 31
0.0
  0
LINE
  5
176BF
330
747D
100
AcDbEntity
  8
細線
 48
50.0
100
AcDbLine
 10
9345.062938924014
 20
8015.308765354333
 30
0.0
 11
9355.991387404447
 21
8015.30876535433
 31
0.0
  0
ARC
  5
176C0
330
747D
100
AcDbEntity
  8
細線
 48
50.0
100
AcDbCircle
 10
9355.991387404447
 20
8014.30876535433
 30
0.0
 40
1.0
100
AcDbArc
 50
24.62431835213048
 51
90.0
  0
ARC
  5
176C1
330
747D
100
AcDbEntity
  8
細線
 48
50.0
100
AcDbCircle
 10
9366.90009951908
 20
8014.30876535433
 30
0.0
 40
1.0
100
AcDbArc
 50
90.0
 51
155.3756816478695
  0
ARC
  5
176C2
330
747D
100
AcDbEntity
  8
細線
 48
50.0
100
AcDbCircle
 10
9361.445743461763
 20
8016.80876535433
 30
0.0
 40
5.0
100
AcDbArc
 50
204.6243183521304
 51
335.3756816478695
  0
LINE
  5
176C3
330
747D
100
AcDbEntity
  8
細線
 48
50.0
100
AcDbLine
 10
9366.90009951908
 20
8015.30876535433
 30
0.0
 11
9377.828547999513
 21
8015.308765354333
 31
0.0
  0
LINE
  5
176C4
330
747D
100
AcDbEntity
  8
細線
 48
50.0
100
AcDbLine
 10
9377.828547999513
 20
8015.308765354333
 30
0.0
 11
9383.584065582182
 21
7997.03791406384
 31
0.0
  0
LINE
  5
176C5
330
747D
100
AcDbEntity
  8
細線
 48
50.0
100
AcDbLine
 10
9676.445456328817
 20
8017.637914063838
 30
0.0
 11
8925.445456328821
 21
8017.637914063838
 31
0.0
  0
LINE
  5
176C6
330
747D
100
AcDbEntity
  8
細線
 48
50.0
100
AcDbLine
 10
9536.445456328817
 20
7997.03791406384
 30
0.0
 11
9466.445456328816
 21
7997.03791406384
 31
0.0
  0
LINE
  5
176C7
330
747D
100
AcDbEntity
  8
細線
100
AcDbLine
 10
9256.445456328817
 20
7997.03791406384
 30
0.0
 11
9186.445464514234
 21
7997.03791406384
 31
0.0
  0
LINE
  5
176C8
330
747D
100
AcDbEntity
  8
細線
 48
50.0
100
AcDbLine
 10
10330.44544702164
 20
8051.637957921705
 30
0.0
 11
9695.445456328817
 21
8051.637957921704
 31
0.0
  0
LINE
  5
176C9
330
747D
100
AcDbEntity
  8
細線
 48
50.0
100
AcDbLine
 10
9695.445456328817
 20
8048.534108329347
 30
0.0
 11
9695.445456328817
 21
8053.034108329347
 31
0.0
  0
LINE
  5
176CA
330
747D
100
AcDbEntity
  8
細線
 48
50.0
100
AcDbLine
 10
9695.445456328817
 20
8053.034108329347
 30
0.0
 11
9680.445456328817
 21
8053.034108329347
 31
0.0
  0
LINE
  5
176CB
330
747D
100
AcDbEntity
  8
細線
 48
50.0
100
AcDbLine
 10
9680.445456328817
 20
8053.034108329347
 30
0.0
 11
9680.445456328817
 21
8060.034108329345
 31
0.0
  0
LINE
  5
176CC
330
747D
100
AcDbEntity
  8
細線
 48
50.0
100
AcDbLine
 10
9680.445456328817
 20
8060.034108329345
 30
0.0
 11
9665.44545632882
 21
8060.034108329343
 31
0.0
  0
LINE
  5
176CD
330
747D
100
AcDbEntity
  8
細線
 48
50.0
100
AcDbLine
 10
9665.44545632882
 20
8060.034108329343
 30
0.0
 11
9665.44545632882
 21
8022.433880226232
 31
0.0
  0
LINE
  5
176CE
330
747D
100
AcDbEntity
  8
細線
 48
50.0
100
AcDbLine
 10
9665.44545632882
 20
8022.433880226232
 30
0.0
 11
9685.445463629992
 21
8022.433921775773
 31
0.0
  0
LINE
  5
176CF
330
747D
100
AcDbEntity
  8
細線
 48
50.0
100
AcDbLine
 10
9685.44541876105
 20
8031.037383411582
 30
0.0
 11
9685.445463629992
 21
8022.433921775773
 31
0.0
  0
LINE
  5
176D0
330
747D
100
AcDbEntity
  8
細線
 48
50.0
100
AcDbLine
 10
10330.44544702164
 20
8048.187957921706
 30
0.0
 11
10330.44544702164
 21
8053.037957921704
 31
0.0
  0
LINE
  5
176D1
330
747D
100
AcDbEntity
  8
細線
 48
50.0
100
AcDbLine
 10
10330.44544702164
 20
8053.037957921704
 30
0.0
 11
10345.44544702163
 21
8053.037957921704
 31
0.0
  0
LINE
  5
176D2
330
747D
100
AcDbEntity
  8
細線
 48
50.0
100
AcDbLine
 10
10345.44544702163
 20
8053.037957921704
 30
0.0
 11
10345.44545865561
 21
8060.037957921748
 31
0.0
  0
LINE
  5
176D3
330
747D
100
AcDbEntity
  8
細線
 48
50.0
100
AcDbLine
 10
10345.44545865561
 20
8060.037957921748
 30
0.0
 11
10360.44545682614
 21
8060.037957921748
 31
0.0
  0
LINE
  5
176D4
330
747D
100
AcDbEntity
  8
細線
 48
50.0
100
AcDbLine
 10
10360.44545682614
 20
8060.037957921748
 30
0.0
 11
10360.44544652432
 21
8031.037751749474
 31
0.0
  0
LINE
  5
176D5
330
747D
100
AcDbEntity
  8
細線
 48
50.0
100
AcDbLine
 10
10047.9454741551
 20
8031.037759936841
 30
0.0
 11
9977.945726237521
 21
8031.037754499504
 31
0.0
  0
LINE
  5
176D6
330
747D
100
AcDbEntity
  8
細線
 48
50.0
100
AcDbLine
 10
9685.44541876105
 20
8031.037383411582
 30
0.0
 11
9696.678108115762
 21
8031.037566364728
 31
0.0
  0
ARC
  5
176D7
330
747D
100
AcDbEntity
  8
細線
 48
50.0
100
AcDbCircle
 10
9703.260400423097
 20
8029.837730278341
 30
0.0
 40
1.8
100
AcDbArc
 50
270.0006665777295
 51
345.0005554812987
  0
LINE
  5
176D8
330
747D
100
AcDbEntity
  8
細線
 48
50.0
100
AcDbLine
 10
9705.246833869177
 20
8030.29657073562
 30
0.0
 11
9704.999071426977
 21
8029.371872853515
 31
0.0
  0
LINE
  5
176D9
330
747D
100
AcDbEntity
  8
細線
 48
50.0
100
AcDbLine
 10
9703.260421364252
 20
8028.037730278461
 30
0.0
 11
9699.630493945484
 21
8028.037688047982
 31
0.0
  0
ARC
  5
176DA
330
747D
100
AcDbEntity
  8
細線
 48
50.0
100
AcDbCircle
 10
9699.630473004331
 20
8029.837688047861
 30
0.0
 40
1.8
100
AcDbArc
 50
195.0010443049394
 51
270.0006665777295
  0
LINE
  5
176DB
330
747D
100
AcDbEntity
  8
細線
 48
50.0
100
AcDbLine
 10
9697.644045512072
 20
8030.296403015425
 30
0.0
 11
9697.891815008585
 21
8029.371782076843
 31
0.0
  0
ARC
  5
176DC
330
747D
100
AcDbEntity
  8
細線
 48
50.0
100
AcDbCircle
 10
9696.678124403323
 20
8030.037566364864
 30
0.0
 40
1.0
100
AcDbArc
 50
15.00104430493943
 51
90.00093320877969
  0
LINE
  5
176DD
330
747D
100
AcDbEntity
  8
細線
 48
50.0
100
AcDbLine
 10
9706.212755224278
 20
8031.037761055133
 30
0.0
 11
9707.154515375183
 21
8031.037767628983
 31
0.0
  0
ARC
  5
176DE
330
747D
100
AcDbEntity
  8
細線
 48
50.0
100
AcDbCircle
 10
9706.212762204664
 20
8030.03776105516
 30
0.0
 40
1.0
100
AcDbArc
 50
90.0003999466794
 51
165.0005554812987
  0
LINE
  5
176DF
330
747D
100
AcDbEntity
  8
細線
 48
50.0
100
AcDbLine
 10
10257.94544702163
 20
8031.037751749474
 30
0.0
 11
10360.44544652432
 21
8031.037751749474
 31
0.0
  0
LINE
  5
176E0
330
747D
100
AcDbEntity
  8
細線
 48
50.0
100
AcDbLine
 10
9767.945482340522
 20
8031.037759936841
 30
0.0
 11
9706.845421113602
 21
8031.037767628983
 31
0.0
  0
LINE
  5
176E1
330
747D
100
AcDbEntity
  8
細線
 48
50.0
100
AcDbLine
 10
10187.94548234052
 20
8031.037796777923
 30
0.0
 11
10117.94547538613
 21
8031.037751755254
 31
0.0
  0
LINE
  5
176E2
330
747D
100
AcDbEntity
  8
細線
 48
50.0
100
AcDbLine
 10
9907.945447021631
 20
8031.037751749471
 30
0.0
 11
9837.945429733755
 21
8031.037751749478
 31
0.0
  0
ARC
  5
176E3
330
747D
100
AcDbEntity
  8
細線
 48
50.0
100
AcDbCircle
 10
10344.64545167524
 20
8064.237739886884
 30
0.0
 40
0.8
100
AcDbArc
 50
359.9997333689499
 51
89.99986668437072
  0
ARC
  5
176E4
330
747D
100
AcDbEntity
  8
細線
 48
50.0
100
AcDbCircle
 10
10352.24545850033
 20
8064.237751055502
 30
0.0
 40
0.8
100
AcDbArc
 50
90.00014387753465
 51
179.9997333689498
  0
LINE
  5
176E5
330
747D
100
AcDbEntity
  8
細線
 48
50.0
100
AcDbLine
 10
10344.64545353667
 20
8065.037739886884
 30
0.0
 11
10339.44545167522
 21
8065.037739886884
 31
0.0
  0
ARC
  5
176E6
330
747D
100
AcDbEntity
  8
細線
 48
50.0
100
AcDbCircle
 10
10346.14545167523
 20
8062.737739886884
 30
0.0
 40
0.7
100
AcDbArc
 50
180.0
 51
270.0
  0
ARC
  5
176E7
330
747D
100
AcDbEntity
  8
細線
 48
50.0
100
AcDbCircle
 10
10350.74545167523
 20
8062.737739886884
 30
0.0
 40
0.7
100
AcDbArc
 50
270.0
 51
0.0
  0
LINE
  5
176E8
330
747D
100
AcDbEntity
  8
細線
 48
50.0
100
AcDbLine
 10
10351.44545167522
 20
8062.737739886884
 30
0.0
 11
10351.44545850034
 21
8064.237754778373
 31
0.0
  0
LINE
  5
176E9
330
747D
100
AcDbEntity
  8
細線
 48
50.0
100
AcDbLine
 10
10346.14545167523
 20
8062.037739886884
 30
0.0
 11
10350.74545167523
 21
8062.037739886884
 31
0.0
  0
LINE
  5
176EA
330
747D
100
AcDbEntity
  8
細線
 48
50.0
100
AcDbLine
 10
10345.44545167523
 20
8064.237739886884
 30
0.0
 11
10345.44545167523
 21
8062.737739886884
 31
0.0
  0
LINE
  5
176EB
330
747D
100
AcDbEntity
  8
細線
 48
50.0
100
AcDbLine
 10
10971.04545167523
 20
8095.037739886883
 30
0.0
 11
10334.44545167522
 21
8095.037739886882
 31
0.0
  0
LINE
  5
176EC
330
747D
100
AcDbEntity
  8
細線
 48
50.0
100
AcDbLine
 10
10996.94545167522
 20
8090.037739886888
 30
0.0
 11
10981.04545167523
 21
8090.037739886884
 31
0.0
  0
LINE
  5
176ED
330
747D
100
AcDbEntity
  8
細線
 48
50.0
100
AcDbLine
 10
10981.04545167523
 20
8090.037739886884
 30
0.0
 11
10971.04545167523
 21
8095.037739886883
 31
0.0
  0
LINE
  5
176EE
330
747D
100
AcDbEntity
  8
細線
100
AcDbLine
 10
10581.94545167522
 20
8065.037739886884
 30
0.0
 11
10581.94545167522
 21
8094.337739886883
 31
0.0
  0
LINE
  5
176EF
330
747D
100
AcDbEntity
  8
細線
100
AcDbLine
 10
10581.94545167522
 20
8094.337739886883
 30
0.0
 11
10601.94545167522
 21
8094.337739886883
 31
0.0
  0
LINE
  5
176F0
330
747D
100
AcDbEntity
  8
細線
100
AcDbLine
 10
10601.94545167522
 20
8065.037739886884
 30
0.0
 11
10601.94545167522
 21
8094.337739886883
 31
0.0
  0
LINE
  5
176F1
330
747D
100
AcDbEntity
  8
細線
100
AcDbLine
 10
10763.19545167522
 20
8065.037739886884
 30
0.0
 11
10693.19545167523
 21
8065.037739886884
 31
0.0
  0
LINE
  5
176F2
330
747D
100
AcDbEntity
  8
細線
 48
50.0
100
AcDbLine
 10
10483.19545167522
 20
8065.037739886884
 30
0.0
 11
10352.24123124807
 21
8065.037739886884
 31
0.0
  0
LINE
  5
176F3
330
747D
100
AcDbEntity
  8
細線
100
AcDbLine
 10
10623.19545167522
 20
8065.037739886884
 30
0.0
 11
10553.19545167523
 21
8065.037739886884
 31
0.0
  0
LINE
  5
176F4
330
747D
100
AcDbEntity
  8
細線
 48
50.0
100
AcDbLine
 10
10339.44545167522
 20
8057.037739886885
 30
0.0
 11
10339.44545167522
 21
8065.037739886884
 31
0.0
  0
LINE
  5
176F5
330
747D
100
AcDbEntity
  8
細線
 48
50.0
100
AcDbLine
 10
10319.44545167522
 20
8057.037739886888
 30
0.0
 11
10339.44545167522
 21
8057.037739886885
 31
0.0
  0
LINE
  5
176F6
330
747D
100
AcDbEntity
  8
細線
 48
50.0
100
AcDbLine
 10
10334.44545167522
 20
8095.037739886883
 30
0.0
 11
10334.44545167522
 21
8090.037739886884
 31
0.0
  0
LINE
  5
176F7
330
747D
100
AcDbEntity
  8
細線
 48
50.0
100
AcDbLine
 10
10319.44545167522
 20
8095.037739886882
 30
0.0
 11
10334.44545167522
 21
8095.037739886883
 31
0.0
  0
LINE
  5
176F8
330
747D
100
AcDbEntity
  8
細線
 48
50.0
100
AcDbLine
 10
10319.44545167522
 20
8057.037739886888
 30
0.0
 11
10319.44545167522
 21
8095.037739886882
 31
0.0
  0
LINE
  5
176F9
330
747D
100
AcDbEntity
  8
細線
100
AcDbLine
 10
10987.44545167522
 20
8065.037739886884
 30
0.0
 11
10833.19545167523
 21
8065.037739886884
 31
0.0
  0
LINE
  5
176FA
330
747D
100
AcDbEntity
  8
細線
 48
50.0
100
AcDbLine
 10
10996.94545167522
 20
8090.037739886888
 30
0.0
 11
10996.94545167522
 21
8065.037739886884
 31
0.0
  0
DIMENSION
  5
1792D
330
747D
100
AcDbEntity
  8
寸法
 48
50.0
100
AcDbDimension
  2
*D33
 10
11026.44545167519
 20
7027.36454436649
 30
0.0
 11
9949.445451675195
 21
7127.376355390111
 31
0.0
 70
    32
 71
     5
 42
2154.0
  3
INABA_S40G
100
AcDbAlignedDimension
 13
8872.445451675195
 23
7992.037739886888
 33
0.0
 14
11026.44545167519
 24
7992.037739886888
 34
0.0
100
AcDbRotatedDimension
1001
ACAD
1000
DSTYLE
1002
{
1070
   341
1005
0
1002
}
  0
DIMENSION
  5
1792E
330
747D
100
AcDbEntity
  8
寸法
100
AcDbDimension
  2
*D34
 10
8549.834206048528
 20
7994.037739886943
 30
0.0
 11
8549.834206048528
 21
7853.552458512705
 31
0.0
 70
   160
 71
     5
 42
75.0
  3
INABA_S40
100
AcDbAlignedDimension
 13
8844.445451675245
 23
8069.037739886942
 33
0.0
 14
8872.445451675224
 24
7994.037739886943
 34
0.0
 50
90.0
100
AcDbRotatedDimension
1001
ACAD
1000
DSTYLE
1002
{
1070
    41
1040
0.5
1070
    44
1040
1.0
1070
   147
1040
0.8
1070
   271
1070
     2
1070
   272
1070
     2
1070
   289
1070
     3
1070
   340
1005
F706
1070
   343
1005
15D78
1070
   344
1005
15D78
1002
}
  0
LINE
  5
179E6
330
747D
100
AcDbEntity
  8
部品1
100
AcDbLine
 10
10331.18078478946
 20
6393.535521090142
 30
0.0
 11
9567.710118561022
 21
6393.535521090142
 31
0.0
  0
LINE
  5
179E7
330
747D
100
AcDbEntity
  8
部品1
100
AcDbLine
 10
10331.18078478946
 20
6153.643199544609
 30
0.0
 11
10331.18078478946
 21
6393.535521090142
 31
0.0
  0
LINE
  5
179E8
330
747D
100
AcDbEntity
  8
部品1
100
AcDbLine
 10
9567.710118561022
 20
6153.643199544609
 30
0.0
 11
10331.18078478946
 21
6153.643199544609
 31
0.0
  0
LINE
  5
179E9
330
747D
100
AcDbEntity
  8
部品1
100
AcDbLine
 10
9567.710118561022
 20
6393.535521090142
 30
0.0
 11
9567.710118561022
 21
6153.643199544609
 31
0.0
  0
TEXT
  5
17A1B
330
747D
100
AcDbEntity
  8
部品1
100
AcDbText
 10
9657.629728390061
 20
6200.641991871618
 30
0.0
 40
135.0
  1
平面図
  7
STYLE2
100
AcDbText
  0
DIMENSION
  5
17A27
330
747D
100
AcDbEntity
  8
寸法
100
AcDbDimension
  2
*D35
 10
11054.44545167522
 20
6765.011414360012
 30
0.0
 11
9948.026882883672
 21
6765.011414360012
 31
0.0
 70
   160
 71
     5
 42
2209.999999999982
  3
INABA_S40G
100
AcDbAlignedDimension
 13
8844.445451675245
 23
8069.03773988691
 33
0.0
 14
11054.44545167522
 24
8069.037739887036
 34
0.0
100
AcDbRotatedDimension
1001
ACAD
1000
DSTYLE
1002
{
1002
}
  0
LWPOLYLINE
  5
17C7E
330
747D
100
AcDbEntity
  8
部品1
 48
50.0
100
AcDbPolyline
 90
        4
 70
     1
 43
0.0
 10
8971.495451675243
 20
3625.958667612142
 10
8974.395451675245
 20
3625.958667612142
 10
8974.395451675245
 20
3635.458667612141
 10
8971.495451675243
 20
3635.458667612141
  0
CIRCLE
  5
17C7F
330
747D
100
AcDbEntity
  8
部品1
 48
50.0
100
AcDbCircle
 10
8972.945451675245
 20
3630.708667612142
 30
0.0
 40
9.0
  0
ARC
  5
17C80
330
747D
100
AcDbEntity
  8
細線
 48
50.0
100
AcDbCircle
 10
8972.945451675245
 20
3630.708667612142
 30
0.0
 40
4.0
100
AcDbArc
 50
111.2538091853132
 51
248.7461908146868
  0
ARC
  5
17C81
330
747D
100
AcDbEntity
  8
細線
 48
50.0
100
AcDbCircle
 10
8972.945451675245
 20
3630.708667612142
 30
0.0
 40
17.5
100
AcDbArc
 50
306.4837370612677
 51
233.5162629387323
  0
LINE
  5
17C82
330
747D
100
AcDbEntity
  8
細線
 48
50.0
100
AcDbLine
 10
8982.945451675242
 20
3606.849707031259
 30
0.0
 11
8982.945451675245
 21
3615.8341928315
 31
0.0
  0
LINE
  5
17C83
330
747D
100
AcDbEntity
  8
細線
 48
50.0
100
AcDbLine
 10
8962.945451675244
 20
3606.849707031261
 30
0.0
 11
8962.945451675244
 21
3615.834192831497
 31
0.0
  0
ARC
  5
17C84
330
747D
100
AcDbEntity
  8
細線
 48
50.0
100
AcDbCircle
 10
8972.945451675245
 20
3630.708667612142
 30
0.0
 40
26.5
100
AcDbArc
 50
249.3326835063939
 51
290.6673164933835
  0
ARC
  5
17C85
330
747D
100
AcDbEntity
  8
細線
 48
50.0
100
AcDbCircle
 10
8981.945451675237
 20
3606.849707031259
 30
0.0
 40
1.0
100
AcDbArc
 50
290.6673164936062
 51
359.9999999998958
  0
ARC
  5
17C86
330
747D
100
AcDbEntity
  8
細線
 48
50.0
100
AcDbCircle
 10
8963.945451675245
 20
3606.849707031261
 30
0.0
 40
1.0
100
AcDbArc
 50
180.0
 51
249.3326835066164
  0
ARC
  5
17C87
330
747D
100
AcDbEntity
  8
細線
 48
50.0
100
AcDbCircle
 10
8961.945451675246
 20
3615.834192831497
 30
0.0
 40
1.0
100
AcDbArc
 50
0.0
 51
53.51626293873231
  0
ARC
  5
17C88
330
747D
100
AcDbEntity
  8
細線
 48
50.0
100
AcDbCircle
 10
8983.945451675248
 20
3615.8341928315
 30
0.0
 40
1.0
100
AcDbArc
 50
126.4837370615127
 51
180.0
  0
ARC
  5
17C89
330
747D
100
AcDbEntity
  8
細線
 48
50.0
100
AcDbCircle
 10
8972.945451675245
 20
3630.708667612142
 30
0.0
 40
21.5
100
AcDbArc
 50
255.8014401250294
 51
284.1985598749706
  0
ARC
  5
17C8A
330
747D
100
AcDbEntity
  8
細線
 48
50.0
100
AcDbCircle
 10
8972.945451675245
 20
3630.708667612142
 30
0.0
 40
16.5
100
AcDbArc
 50
251.9694646069326
 51
288.0305353930674
  0
LINE
  5
17C8B
330
747D
100
AcDbEntity
  8
細線
 48
50.0
100
AcDbLine
 10
8978.445451675245
 20
3610.156295486335
 30
0.0
 11
8978.445451675245
 21
3614.733687173672
 31
0.0
  0
LINE
  5
17C8C
330
747D
100
AcDbEntity
  8
細線
 48
50.0
100
AcDbLine
 10
8967.445451675244
 20
3610.156295486335
 30
0.0
 11
8967.445451675244
 21
3614.73368717367
 31
0.0
  0
ARC
  5
17C8D
330
747D
100
AcDbEntity
  8
細線
 48
50.0
100
AcDbCircle
 10
8967.745451675247
 20
3614.73368717367
 30
0.0
 40
0.3
100
AcDbArc
 50
71.96946460693259
 51
180.0
  0
ARC
  5
17C8E
330
747D
100
AcDbEntity
  8
細線
 48
50.0
100
AcDbCircle
 10
8978.145451675246
 20
3614.733687173672
 30
0.0
 40
0.3
100
AcDbArc
 50
0.0
 51
108.0305353930674
  0
ARC
  5
17C8F
330
747D
100
AcDbEntity
  8
細線
 48
50.0
100
AcDbCircle
 10
8978.145451675242
 20
3610.156295486335
 30
0.0
 40
0.3
100
AcDbArc
 50
284.1985598747622
 51
0.0000000001042204
  0
ARC
  5
17C90
330
747D
100
AcDbEntity
  8
細線
 48
50.0
100
AcDbCircle
 10
8967.745451675247
 20
3610.156295486335
 30
0.0
 40
0.3
100
AcDbArc
 50
180.0
 51
255.8014401248081
  0
CIRCLE
  5
17C91
330
747D
100
AcDbEntity
  8
細線
 48
50.0
100
AcDbCircle
 10
8972.945451675245
 20
3630.708667612142
 30
0.0
 40
12.0
  0
ARC
  5
17C92
330
747D
100
AcDbEntity
  8
部品1
 48
50.0
100
AcDbCircle
 10
8972.945451675245
 20
3680.708667612142
 30
0.0
 40
8.5
100
AcDbArc
 50
114.315739171091
 51
245.684260828909
  0
CIRCLE
  5
17C93
330
747D
100
AcDbEntity
  8
細線
 48
50.0
100
AcDbCircle
 10
8972.945451675245
 20
3680.708667612142
 30
0.0
 40
4.5
  0
LWPOLYLINE
  5
17C94
330
747D
100
AcDbEntity
  8
部品1
 48
50.0
100
AcDbPolyline
 90
        2
 70
     0
 43
0.0
 10
8969.445451675245
 20
3699.383517009124
 10
8969.445451675245
 20
3688.454634304557
  0
CIRCLE
  5
17C95
330
747D
100
AcDbEntity
  8
部品1
 48
50.0
100
AcDbCircle
 10
8972.945451675245
 20
3680.708667612142
 30
0.0
 40
19.0
  0
LWPOLYLINE
  5
17C96
330
747D
100
AcDbEntity
  8
部品1
 48
50.0
100
AcDbPolyline
 90
        2
 70
     0
 43
0.0
 10
8969.445451675245
 20
3672.962700919727
 10
8969.445451675245
 20
3662.033818215159
  0
LWPOLYLINE
  5
17C97
330
747D
100
AcDbEntity
  8
部品1
 48
50.0
100
AcDbPolyline
 90
        2
 70
     0
 43
0.0
 10
8976.445451675244
 20
3688.454634304557
 10
8976.445451675244
 20
3699.383517009124
  0
ARC
  5
17C98
330
747D
100
AcDbEntity
  8
部品1
 48
50.0
100
AcDbCircle
 10
8972.945451675245
 20
3680.708667612142
 30
0.0
 40
8.5
100
AcDbArc
 50
294.315739171091
 51
65.68426082890896
  0
LWPOLYLINE
  5
17C99
330
747D
100
AcDbEntity
  8
部品1
 48
50.0
100
AcDbPolyline
 90
        2
 70
     0
 43
0.0
 10
8976.445451675244
 20
3662.033818215159
 10
8976.445451675244
 20
3672.962700919727
  0
ARC
  5
17C9A
330
747D
100
AcDbEntity
  8
細線
 48
50.0
100
AcDbCircle
 10
8972.945451675245
 20
3680.708667612142
 30
0.0
 40
16.5
100
AcDbArc
 50
332.0012352654438
 51
27.99876473455621
  0
ARC
  5
17C9B
330
747D
100
AcDbEntity
  8
細線
 48
50.0
100
AcDbCircle
 10
8972.945451675245
 20
3680.708667612142
 30
0.0
 40
14.0
100
AcDbArc
 50
326.4074436112986
 51
33.59255638870134
  0
LINE
  5
17C9C
330
747D
100
AcDbEntity
  8
細線
 48
50.0
100
AcDbLine
 10
8958.376649390913
 20
3688.454634304557
 30
0.0
 11
8961.283547885555
 21
3688.454634304557
 31
0.0
  0
LINE
  5
17C9D
330
747D
100
AcDbEntity
  8
細線
 48
50.0
100
AcDbLine
 10
8958.376649390913
 20
3672.962700919727
 30
0.0
 11
8961.283547885555
 21
3672.962700919727
 31
0.0
  0
LINE
  5
17C9E
330
747D
100
AcDbEntity
  8
細線
 48
50.0
100
AcDbLine
 10
8984.607355464934
 20
3688.454634304557
 30
0.0
 11
8987.514253959579
 21
3688.454634304557
 31
0.0
  0
LINE
  5
17C9F
330
747D
100
AcDbEntity
  8
細線
 48
50.0
100
AcDbLine
 10
8984.607355464934
 20
3672.962700919727
 30
0.0
 11
8987.514253959579
 21
3672.962700919727
 31
0.0
  0
ARC
  5
17CA0
330
747D
100
AcDbEntity
  8
細線
 48
50.0
100
AcDbCircle
 10
8972.945451675245
 20
3680.708667612142
 30
0.0
 40
14.0
100
AcDbArc
 50
146.4074436112986
 51
213.5925563887013
  0
ARC
  5
17CA1
330
747D
100
AcDbEntity
  8
細線
 48
50.0
100
AcDbCircle
 10
8972.945451675245
 20
3680.708667612142
 30
0.0
 40
16.5
100
AcDbArc
 50
152.0012352654438
 51
207.9987647345562
  0
ARC
  5
17CA2
330
747D
100
AcDbEntity
  8
部品1
 48
50.0
100
AcDbCircle
 10
8946.445451675245
 20
3706.208667612142
 30
0.0
 40
5.0
100
AcDbArc
 50
90.0
 51
180.0
  0
ARC
  5
17CA3
330
747D
100
AcDbEntity
  8
部品1
 48
50.0
100
AcDbCircle
 10
8946.445451675245
 20
3595.208667612142
 30
0.0
 40
5.0
100
AcDbArc
 50
180.0
 51
270.0
  0
ARC
  5
17CA4
330
747D
100
AcDbEntity
  8
部品1
 48
50.0
100
AcDbCircle
 10
8999.445451675246
 20
3595.208667612142
 30
0.0
 40
5.0
100
AcDbArc
 50
270.0
 51
0.0
  0
ARC
  5
17CA5
330
747D
100
AcDbEntity
  8
部品1
 48
50.0
100
AcDbCircle
 10
8999.445451675246
 20
3706.208667612142
 30
0.0
 40
5.0
100
AcDbArc
 50
0.0
 51
90.0
  0
LINE
  5
17CA7
330
747D
100
AcDbEntity
  8
部品1
 48
50.0
100
AcDbLine
 10
8941.445451675246
 20
3595.208667612142
 30
0.0
 11
8941.445451675246
 21
3706.208667612142
 31
0.0
  0
LINE
  5
17CA8
330
747D
100
AcDbEntity
  8
部品1
 48
50.0
100
AcDbLine
 10
8999.445451675246
 20
3590.208667612142
 30
0.0
 11
8946.445451675245
 21
3590.208667612142
 31
0.0
  0
LINE
  5
17CA9
330
747D
100
AcDbEntity
  8
部品1
 48
50.0
100
AcDbLine
 10
9004.445451675245
 20
3706.208667612142
 30
0.0
 11
9004.445451675245
 21
3595.208667612142
 31
0.0
  0
ENDSEC
  0
SECTION
  2
OBJECTS
  0
DICTIONARY
  5
7471
330
0
100
AcDbDictionary
281
     1
  3
ACAD_COLOR
350
15D6C
  3
ACAD_GROUP
350
7472
  3
ACAD_LAYOUT
350
15D6D
  3
ACAD_MATERIAL
350
15D6B
  3
ACAD_MLINESTYLE
350
7473
  3
ACAD_PLOTSETTINGS
350
15D6E
  3
ACAD_PLOTSTYLENAME
350
15D69
  3
ACDBHEADERROUNDTRIPXREC
350
17CC9
  3
AcDbVariableDictionary
350
17CC5
  3
CONTENTDICTIONARY
350
E71C
  3
DRAWINGVARIABLESDICT
350
F3B9
  0
DICTIONARY
  5
15F07
330
7467
100
AcDbDictionary
280
     1
281
     1
  3
ACAD_LAYERSTATES
360
15F08
  0
DICTIONARY
  5
15D6C
102
{ACAD_REACTORS
330
7471
102
}
330
7471
100
AcDbDictionary
281
     1
  0
DICTIONARY
  5
7472
102
{ACAD_REACTORS
330
7471
102
}
330
7471
100
AcDbDictionary
281
     1
  0
DICTIONARY
  5
15D6D
102
{ACAD_REACTORS
330
7471
102
}
330
7471
100
AcDbDictionary
281
     1
  3
Model
350
15D6F
  3
レイアウト1
350
15D70
  0
DICTIONARY
  5
15D6B
102
{ACAD_REACTORS
330
7471
102
}
330
7471
100
AcDbDictionary
281
     1
  0
DICTIONARY
  5
7473
102
{ACAD_REACTORS
330
7471
102
}
330
7471
100
AcDbDictionary
281
     1
  3
STANDARD
350
7480
  0
DICTIONARY
  5
15D6E
102
{ACAD_REACTORS
330
7471
102
}
330
7471
100
AcDbDictionary
281
     1
  0
ACDBDICTIONARYWDFLT
  5
15D69
102
{ACAD_REACTORS
330
7471
102
}
330
7471
100
AcDbDictionary
281
     1
  3
Normal
350
15D6A
100
AcDbDictionaryWithDefault
340
15D6A
  0
DICTIONARY
  5
17CC9
102
{ACAD_REACTORS
330
7471
102
}
330
7471
100
AcDbDictionary
281
     1
  3
COLORDICT
350
17CCB
  3
MATERIALDICT
350
17CCA
  0
DICTIONARY
  5
17CC5
102
{ACAD_REACTORS
330
7471
102
}
330
7471
100
AcDbDictionary
281
     1
  3
DIMASSOC
350
17CC6
  3
PROJECTNAME
350
17CC7
  0
DICTIONARY
  5
E71C
102
{ACAD_REACTORS
330
7471
102
}
330
7471
100
AcDbDictionary
281
     1
  0
DICTIONARY
  5
F3B9
102
{ACAD_REACTORS
330
7471
102
}
330
7471
100
AcDbDictionary
281
     1
1001
DRAWINGVARIABLESXDATA
1000
POLARMODE
1000
1
  0
DICTIONARY
  5
15F08
102
{ACAD_REACTORS
330
15F07
102
}
330
15F07
100
AcDbDictionary
281
     1
  0
LAYOUT
  5
15D6F
102
{ACAD_XDICTIONARY
360
17CCC
102
}
102
{ACAD_REACTORS
330
15D6D
102
}
330
15D6D
100
AcDbPlotSettings
  1

  2
クセロPDF
  4
A3
  6

 40
3.174999952316284
 41
3.174999952316284
 42
3.17498779296875
 43
3.17498779296875
 44
419.9466552734374
 45
296.9259948730469
 46
0.0
 47
0.0
 48
3.619013395666115
 49
-4.192117100517862
140
820.022926294543
141
573.2392198881443
142
1.0
143
39.99735023620806
 70
 11952
 72
     1
 73
     0
 74
     2
  7
inaba.ctb
 75
     0
147
0.0250016562120842
148
25.79074261211281
149
125.8223078213959
100
AcDbLayout
  1
Model
 70
     1
 71
     0
 10
0.0
 20
0.0
 11
12.0
 21
9.0
 12
0.0
 22
0.0
 32
0.0
 14
0.0
 24
0.0
 34
0.0
 15
0.0
 25
0.0
 35
0.0
146
0.0
 13
0.0
 23
0.0
 33
0.0
 16
1.0
 26
0.0
 36
0.0
 17
0.0
 27
1.0
 37
0.0
 76
     0
330
747D
  0
LAYOUT
  5
15D70
102
{ACAD_XDICTIONARY
360
17CCE
102
}
102
{ACAD_REACTORS
330
15D6D
102
}
330
15D6D
100
AcDbPlotSettings
  1

  2
Microsoft Office Document Image Writer
  4

  6

 40
0.0
 41
0.0
 42
0.0
 43
0.0
 44
0.0
 45
0.0
 46
0.0
 47
0.0
 48
0.0
 49
0.0
140
0.0
141
0.0
142
1.0
143
1.0
 70
   688
 72
     0
 73
     0
 74
     5
  7

 75
    16
147
1.0
148
0.0
149
0.0
100
AcDbLayout
  1
レイアウト1
 70
     0
 71
     1
 10
0.0
 20
0.0
 11
420.0
 21
297.0
 12
0.0
 22
0.0
 32
0.0
 14
1.000000000000000E+20
 24
1.000000000000000E+20
 34
1.000000000000000E+20
 15
-1.000000000000000E+20
 25
-1.000000000000000E+20
 35
-1.000000000000000E+20
146
0.0
 13
0.0
 23
0.0
 33
0.0
 16
1.0
 26
0.0
 36
0.0
 17
0.0
 27
1.0
 37
0.0
 76
     0
330
747A
  0
MLINESTYLE
  5
7480
102
{ACAD_REACTORS
330
7473
102
}
330
7473
100
AcDbMlineStyle
  2
STANDARD
 70
     0
  3

 62
     0
 51
90.0
 52
90.0
 71
     2
 49
0.5
 62
   256
  6
BYLAYER
 49
-0.5
 62
   256
  6
BYLAYER
  0
ACDBPLACEHOLDER
  5
15D6A
102
{ACAD_REACTORS
330
15D69
102
}
330
15D69
  0
XRECORD
  5
17CCB
102
{ACAD_REACTORS
330
17CC9
102
}
330
17CC9
100
AcDbXrecord
280
     1
340
15D6C
  0
XRECORD
  5
17CCA
102
{ACAD_REACTORS
330
17CC9
102
}
330
17CC9
100
AcDbXrecord
280
     1
340
15D6B
  0
DICTIONARYVAR
  5
17CC6
102
{ACAD_REACTORS
330
17CC5
102
}
330
17CC5
100
DictionaryVariables
280
     0
  1
1
  0
DICTIONARYVAR
  5
17CC7
102
{ACAD_REACTORS
330
17CC5
102
}
330
17CC5
100
DictionaryVariables
280
     0
  1

  0
DICTIONARY
  5
17CCC
330
15D6F
100
AcDbDictionary
280
     1
281
     1
  3
ACAD_XREC_ROUNDTRIP
360
17CCD
  0
DICTIONARY
  5
17CCE
330
15D70
100
AcDbDictionary
280
     1
281
     1
  3
ACAD_XREC_ROUNDTRIP
360
17CCF
  0
XRECORD
  5
17CCD
102
{ACAD_REACTORS
330
17CCC
102
}
330
17CCC
100
AcDbXrecord
280
     1
102
SHADEPLOT
 70
     0
102
SHADEPLOTRESLEVEL
 70
     2
102
SHADEPLOTCUSTOMDPI
 70
   150
  0
XRECORD
  5
17CCF
102
{ACAD_REACTORS
330
17CCE
102
}
330
17CCE
100
AcDbXrecord
280
     1
102
SHADEPLOT
 70
     0
102
SHADEPLOTRESLEVEL
 70
     2
102
SHADEPLOTCUSTOMDPI
 70
   300
  0
ENDSEC
  0
EOF
