  0
SECTION
  2
HEADER
  9
$ACADVER
  1
AC1015
  9
$ACADMAINTVER
 70
    20
  9
$DWGCODEPAGE
  3
ANSI_932
  9
$INSBASE
 10
0.0
 20
0.0
 30
0.0
  9
$EXTMIN
 10
139.9999999999995
 20
-0.0000000000000909
 30
0.0
  9
$EXTMAX
 10
16307.2
 20
11409.6
 30
0.0
  9
$LIMMIN
 10
0.0
 20
0.0
  9
$LIMMAX
 10
16800.0
 20
11880.0
  9
$ORTHOMODE
 70
     0
  9
$REGENMODE
 70
     1
  9
$FILLMODE
 70
     1
  9
$QTEXTMODE
 70
     0
  9
$MIRRTEXT
 70
     1
  9
$LTSCALE
 40
20.0
  9
$ATTMODE
 70
     1
  9
$TEXTSIZE
 40
100.0
  9
$TRACEWID
 40
1.0
  9
$TEXTSTYLE
  7
STYLE2
  9
$CLAYER
  8
部品1
  9
$CELTYPE
  6
BYLAYER
  9
$CECOLOR
 62
   256
  9
$CELTSCALE
 40
50.0
  9
$DISPSILH
 70
     0
  9
$DIMSCALE
 40
40.0
  9
$DIMASZ
 40
2.5
  9
$DIMEXO
 40
0.5
  9
$DIMDLI
 40
7.0
  9
$DIMRND
 40
0.0
  9
$DIMDLE
 40
0.0
  9
$DIMEXE
 40
1.5
  9
$DIMTP
 40
0.0
  9
$DIMTM
 40
0.0
  9
$DIMTXT
 40
3.0
  9
$DIMCEN
 40
0.0
  9
$DIMTSZ
 40
0.0
  9
$DIMTOL
 70
     0
  9
$DIMLIM
 70
     0
  9
$DIMTIH
 70
     0
  9
$DIMTOH
 70
     0
  9
$DIMSE1
 70
     0
  9
$DIMSE2
 70
     0
  9
$DIMTAD
 70
     3
  9
$DIMZIN
 70
     8
  9
$DIMBLK
  1

  9
$DIMASO
 70
     1
  9
$DIMSHO
 70
     1
  9
$DIMPOST
  1

  9
$DIMAPOST
  1

  9
$DIMALT
 70
     0
  9
$DIMALTD
 70
     2
  9
$DIMALTF
 40
0.0394
  9
$DIMLFAC
 40
1.0
  9
$DIMTOFL
 70
     1
  9
$DIMTVP
 40
0.0
  9
$DIMTIX
 70
     0
  9
$DIMSOXD
 70
     0
  9
$DIMSAH
 70
     1
  9
$DIMBLK1
  1
DOTSMALL
  9
$DIMBLK2
  1
DOTSMALL
  9
$DIMSTYLE
  2
INABA_S40G
  9
$DIMCLRD
 70
     0
  9
$DIMCLRE
 70
     0
  9
$DIMCLRT
 70
     7
  9
$DIMTFAC
 40
1.0
  9
$DIMGAP
 40
1.0
  9
$DIMJUST
 70
     0
  9
$DIMSD1
 70
     0
  9
$DIMSD2
 70
     0
  9
$DIMTOLJ
 70
     1
  9
$DIMTZIN
 70
     0
  9
$DIMALTZ
 70
     0
  9
$DIMALTTZ
 70
     0
  9
$DIMUPT
 70
     0
  9
$DIMDEC
 70
     1
  9
$DIMTDEC
 70
     1
  9
$DIMALTU
 70
     2
  9
$DIMALTTD
 70
     2
  9
$DIMTXSTY
  7
STYLE1
  9
$DIMAUNIT
 70
     0
  9
$DIMADEC
 70
     0
  9
$DIMALTRND
 40
0.0
  9
$DIMAZIN
 70
     0
  9
$DIMDSEP
 70
    46
  9
$DIMATFIT
 70
     3
  9
$DIMFRAC
 70
     0
  9
$DIMLDRBLK
  1

  9
$DIMLUNIT
 70
     2
  9
$DIMLWD
 70
    -2
  9
$DIMLWE
 70
    -2
  9
$DIMTMOVE
 70
     0
  9
$LUNITS
 70
     2
  9
$LUPREC
 70
     1
  9
$SKETCHINC
 40
1.0
  9
$FILLETRAD
 40
7.0
  9
$AUNITS
 70
     0
  9
$AUPREC
 70
     0
  9
$MENU
  1
acad
  9
$ELEVATION
 40
0.0
  9
$PELEVATION
 40
0.0
  9
$THICKNESS
 40
0.0
  9
$LIMCHECK
 70
     0
  9
$CHAMFERA
 40
3.0
  9
$CHAMFERB
 40
3.0
  9
$CHAMFERC
 40
0.0
  9
$CHAMFERD
 40
0.0
  9
$SKPOLY
 70
     0
  9
$TDCREATE
 40
2451368.612993866
  9
$TDUCREATE
 40
2451368.237993866
  9
$TDUPDATE
 40
2455575.698007268
  9
$TDUUPDATE
 40
2455575.323007268
  9
$TDINDWG
 40
1.3263902083
  9
$TDUSRTIMER
 40
1.3263902083
  9
$USRTIMER
 70
     1
  9
$ANGBASE
 50
0.0
  9
$ANGDIR
 70
     0
  9
$PDMODE
 70
     3
  9
$PDSIZE
 40
2.0
  9
$PLINEWID
 40
0.0
  9
$SPLFRAME
 70
     0
  9
$SPLINETYPE
 70
     6
  9
$SPLINESEGS
 70
     8
  9
$HANDSEED
  5
2392E
  9
$SURFTAB1
 70
     6
  9
$SURFTAB2
 70
     6
  9
$SURFTYPE
 70
     6
  9
$SURFU
 70
     6
  9
$SURFV
 70
     6
  9
$UCSBASE
  2

  9
$UCSNAME
  2

  9
$UCSORG
 10
0.0
 20
0.0
 30
0.0
  9
$UCSXDIR
 10
1.0
 20
0.0
 30
0.0
  9
$UCSYDIR
 10
0.0
 20
1.0
 30
0.0
  9
$UCSORTHOREF
  2

  9
$UCSORTHOVIEW
 70
     0
  9
$UCSORGTOP
 10
0.0
 20
0.0
 30
0.0
  9
$UCSORGBOTTOM
 10
0.0
 20
0.0
 30
0.0
  9
$UCSORGLEFT
 10
0.0
 20
0.0
 30
0.0
  9
$UCSORGRIGHT
 10
0.0
 20
0.0
 30
0.0
  9
$UCSORGFRONT
 10
0.0
 20
0.0
 30
0.0
  9
$UCSORGBACK
 10
0.0
 20
0.0
 30
0.0
  9
$PUCSBASE
  2

  9
$PUCSNAME
  2

  9
$PUCSORG
 10
0.0
 20
0.0
 30
0.0
  9
$PUCSXDIR
 10
1.0
 20
0.0
 30
0.0
  9
$PUCSYDIR
 10
0.0
 20
1.0
 30
0.0
  9
$PUCSORTHOREF
  2

  9
$PUCSORTHOVIEW
 70
     0
  9
$PUCSORGTOP
 10
0.0
 20
0.0
 30
0.0
  9
$PUCSORGBOTTOM
 10
0.0
 20
0.0
 30
0.0
  9
$PUCSORGLEFT
 10
0.0
 20
0.0
 30
0.0
  9
$PUCSORGRIGHT
 10
0.0
 20
0.0
 30
0.0
  9
$PUCSORGFRONT
 10
0.0
 20
0.0
 30
0.0
  9
$PUCSORGBACK
 10
0.0
 20
0.0
 30
0.0
  9
$USERI1
 70
     0
  9
$USERI2
 70
     0
  9
$USERI3
 70
     0
  9
$USERI4
 70
     0
  9
$USERI5
 70
     0
  9
$USERR1
 40
0.0
  9
$USERR2
 40
0.0
  9
$USERR3
 40
0.0
  9
$USERR4
 40
0.0
  9
$USERR5
 40
0.0
  9
$WORLDVIEW
 70
     1
  9
$SHADEDGE
 70
     3
  9
$SHADEDIF
 70
    70
  9
$TILEMODE
 70
     1
  9
$MAXACTVP
 70
    16
  9
$PINSBASE
 10
0.0
 20
0.0
 30
0.0
  9
$PLIMCHECK
 70
     0
  9
$PEXTMIN
 10
1.000000000000000E+20
 20
1.000000000000000E+20
 30
1.000000000000000E+20
  9
$PEXTMAX
 10
-1.000000000000000E+20
 20
-1.000000000000000E+20
 30
-1.000000000000000E+20
  9
$PLIMMIN
 10
0.0
 20
0.0
  9
$PLIMMAX
 10
420.0
 20
297.0
  9
$UNITMODE
 70
     0
  9
$VISRETAIN
 70
     0
  9
$PLINEGEN
 70
     0
  9
$PSLTSCALE
 70
     0
  9
$TREEDEPTH
 70
  3020
  9
$CMLSTYLE
  2
STANDARD
  9
$CMLJUST
 70
     0
  9
$CMLSCALE
 40
1.0
  9
$PROXYGRAPHICS
 70
     1
  9
$MEASUREMENT
 70
     1
  9
$CELWEIGHT
370
    -1
  9
$ENDCAPS
280
     0
  9
$JOINSTYLE
280
     0
  9
$LWDISPLAY
290
     0
  9
$INSUNITS
 70
     0
  9
$HYPERLINKBASE
  1

  9
$STYLESHEET
  1
inaba.ctb
  9
$XEDIT
290
     1
  9
$CEPSNTYPE
380
     0
  9
$PSTYLEMODE
290
     1
  9
$FINGERPRINTGUID
  2
{3B57B35E-7D77-4BBF-81B7-6C583B9EB24C}
  9
$VERSIONGUID
  2
{E9693109-FF59-4224-BA50-C57747C675E9}
  9
$EXTNAMES
290
     1
  9
$PSVPSCALE
 40
0.0
  9
$OLESTARTUP
290
     0
  0
ENDSEC
  0
SECTION
  2
CLASSES
  0
CLASS
  1
ACDBDICTIONARYWDFLT
  2
AcDbDictionaryWithDefault
  3
ObjectDBX Classes
 90
        0
280
     0
281
     0
  0
CLASS
  1
DICTIONARYVAR
  2
AcDbDictionaryVar
  3
ObjectDBX Classes
 90
        0
280
     0
281
     0
  0
CLASS
  1
ACDBPLACEHOLDER
  2
AcDbPlaceHolder
  3
ObjectDBX Classes
 90
        0
280
     0
281
     0
  0
CLASS
  1
LAYOUT
  2
AcDbLayout
  3
ObjectDBX Classes
 90
        0
280
     0
281
     0
  0
ENDSEC
  0
SECTION
  2
TABLES
  0
TABLE
  2
VPORT
  5
746D
330
0
100
AcDbSymbolTable
 70
     2
  0
VPORT
  5
23926
330
746D
100
AcDbSymbolTableRecord
100
AcDbViewportTableRecord
  2
*Active
 70
     0
 10
0.0
 20
0.0
 11
1.0
 21
1.0
 12
8223.761025238502
 22
6348.534373990247
 13
0.0
 23
0.0
 14
10.0
 24
10.0
 15
10.0
 25
10.0
 16
0.0
 26
0.0
 36
1.0
 17
0.0
 27
0.0
 37
0.0
 40
12805.99765711426
 41
1.525925925925925
 42
50.0
 43
0.0
 44
0.0
 50
0.0
 51
0.0
 71
     0
 72
     0
 73
     1
 74
     0
 75
     0
 76
     0
 77
     0
 78
     0
281
     0
 65
     1
110
0.0
120
0.0
130
0.0
111
1.0
121
0.0
131
0.0
112
0.0
122
1.0
132
0.0
 79
     0
146
0.0
  0
ENDTAB
  0
TABLE
  2
LTYPE
  5
746A
330
0
100
AcDbSymbolTable
 70
     3
  0
LTYPE
  5
7477
330
746A
100
AcDbSymbolTableRecord
100
AcDbLinetypeTableRecord
  2
BYBLOCK
 70
     0
  3

 72
    65
 73
     0
 40
0.0
  0
LTYPE
  5
7478
330
746A
100
AcDbSymbolTableRecord
100
AcDbLinetypeTableRecord
  2
BYLAYER
 70
     0
  3

 72
    65
 73
     0
 40
0.0
  0
LTYPE
  5
7479
330
746A
100
AcDbSymbolTableRecord
100
AcDbLinetypeTableRecord
  2
CONTINUOUS
 70
     0
  3
Solid line
 72
    65
 73
     0
 40
0.0
  0
LTYPE
  5
781A
330
746A
100
AcDbSymbolTableRecord
100
AcDbLinetypeTableRecord
  2
HIDDEN
 70
     0
  3
__ __ __ __ __ __ __ __ __ __ __ __ __ __ __ __
 72
    65
 73
     2
 40
0.375
 49
0.25
 74
     0
 49
-0.125
 74
     0
  0
LTYPE
  5
781B
330
746A
100
AcDbSymbolTableRecord
100
AcDbLinetypeTableRecord
  2
PHANTOM
 70
     0
  3
______  __  __  ______  __  __  ______  __  __ 
 72
    65
 73
     6
 40
2.5
 49
1.25
 74
     0
 49
-0.25
 74
     0
 49
0.25
 74
     0
 49
-0.25
 74
     0
 49
0.25
 74
     0
 49
-0.25
 74
     0
  0
ENDTAB
  0
TABLE
  2
LAYER
  5
7467
102
{ACAD_XDICTIONARY
360
21E20
102
}
330
0
100
AcDbSymbolTable
 70
    10
  0
LAYER
  5
7474
330
7467
100
AcDbSymbolTableRecord
100
AcDbLayerTableRecord
  2
0
 70
     0
 62
     7
  6
CONTINUOUS
370
    -3
390
159AE
  0
LAYER
  5
DEB3
330
7467
100
AcDbSymbolTableRecord
100
AcDbLayerTableRecord
  2
寸法
 70
     0
 62
     4
  6
CONTINUOUS
370
    -3
390
159AE
  0
LAYER
  5
DEB4
330
7467
100
AcDbSymbolTableRecord
100
AcDbLayerTableRecord
  2
部品1
 70
     0
 62
     7
  6
CONTINUOUS
370
    -3
390
159AE
  0
LAYER
  5
DEB5
330
7467
100
AcDbSymbolTableRecord
100
AcDbLayerTableRecord
  2
補助
 70
     0
 62
    -1
  6
CONTINUOUS
370
    -3
390
159AE
  0
LAYER
  5
DEB6
330
7467
100
AcDbSymbolTableRecord
100
AcDbLayerTableRecord
  2
文字
 70
     0
 62
     7
  6
CONTINUOUS
370
    -3
390
159AE
  0
LAYER
  5
F255
330
7467
100
AcDbSymbolTableRecord
100
AcDbLayerTableRecord
  2
DEFPOINTS
 70
     0
 62
     7
  6
CONTINUOUS
290
     0
370
    -3
390
159AE
  0
LAYER
  5
10B54
330
7467
100
AcDbSymbolTableRecord
100
AcDbLayerTableRecord
  2
仕様書枠
 70
     0
 62
   230
  6
CONTINUOUS
370
    -3
390
159AE
  0
LAYER
  5
11729
330
7467
100
AcDbSymbolTableRecord
100
AcDbLayerTableRecord
  2
Ｇ．Ｌ
 70
     0
 62
    30
  6
CONTINUOUS
370
    -3
390
159AE
  0
LAYER
  5
1173F
330
7467
100
AcDbSymbolTableRecord
100
AcDbLayerTableRecord
  2
細線
 70
     0
 62
     5
  6
CONTINUOUS
370
    -3
390
159AE
  0
LAYER
  5
142E2
330
7467
100
AcDbSymbolTableRecord
100
AcDbLayerTableRecord
  2
破線
 70
     0
 62
     2
  6
HIDDEN
370
    -3
390
159AE
  0
ENDTAB
  0
TABLE
  2
STYLE
  5
7468
330
0
100
AcDbSymbolTable
 70
     4
  0
STYLE
  5
7475
330
7468
100
AcDbSymbolTableRecord
100
AcDbTextStyleTableRecord
  2
STANDARD
 70
     0
 40
0.0
 41
1.0
 50
0.0
 71
     0
 42
4.0
  3
txt
  4
C:\AutoCAD LT\bigfont.shx
  0
STYLE
  5
F706
330
7468
100
AcDbSymbolTableRecord
100
AcDbTextStyleTableRecord
  2
STYLE1
 70
     0
 40
0.0
 41
1.0
 50
0.0
 71
     0
 42
100.0
  3
isocp.shx
  4
bigfont.shx
  0
STYLE
  5
103BF
330
7468
100
AcDbSymbolTableRecord
100
AcDbTextStyleTableRecord
  2
STYLE2
 70
     0
 40
0.0
 41
1.0
 50
0.0
 71
     0
 42
100.0
  3
MS PGothic.ttf
  4

1001
ACAD
1000
MS PGothic
1071
    32818
  0
STYLE
  5
238BD
330
7468
100
AcDbSymbolTableRecord
100
AcDbTextStyleTableRecord
  2
STYLE3
 70
     0
 40
0.0
 41
1.0
 50
0.0
 71
     0
 42
100.0
  3

  4

1001
ACAD
1000
DFPGothic-EB
1071
    32818
  0
ENDTAB
  0
TABLE
  2
VIEW
  5
746B
330
0
100
AcDbSymbolTable
 70
     0
  0
ENDTAB
  0
TABLE
  2
UCS
  5
746C
330
0
100
AcDbSymbolTable
 70
     0
  0
ENDTAB
  0
TABLE
  2
APPID
  5
746E
330
0
100
AcDbSymbolTable
 70
     6
  0
APPID
  5
7476
330
746E
100
AcDbSymbolTableRecord
100
AcDbRegAppTableRecord
  2
ACAD
 70
     0
  0
APPID
  5
DEA9
330
746E
100
AcDbSymbolTableRecord
100
AcDbRegAppTableRecord
  2
CONTENTBLOCKICON
 70
     0
  0
APPID
  5
DEAA
330
746E
100
AcDbSymbolTableRecord
100
AcDbRegAppTableRecord
  2
CONTENTBLOCKDESCRIPTION
 70
     0
  0
APPID
  5
E71D
330
746E
100
AcDbSymbolTableRecord
100
AcDbRegAppTableRecord
  2
CONTENTTABDATA
 70
     0
  0
APPID
  5
E71E
330
746E
100
AcDbSymbolTableRecord
100
AcDbRegAppTableRecord
  2
CONTENTCURRENTTAB
 70
     0
  0
APPID
  5
F3BA
330
746E
100
AcDbSymbolTableRecord
100
AcDbRegAppTableRecord
  2
DRAWINGVARIABLESXDATA
 70
     0
  0
ENDTAB
  0
TABLE
  2
DIMSTYLE
  5
746F
330
0
100
AcDbSymbolTable
 70
     2
100
AcDbDimStyleTable
 71
     1
340
F71F
  0
DIMSTYLE
105
F71F
102
{ACAD_REACTORS
330
14D62
330
14521
330
14526
330
1452E
330
1452F
330
14530
330
14531
330
14532
330
14533
330
1453F
330
14587
330
14589
330
22FF7
330
22FFB
330
23004
330
23092
330
230ED
330
230EE
330
230EF
330
230F3
330
230F7
330
230F8
330
230F9
330
230FA
330
230FB
330
2358D
330
23647
330
23669
330
2366A
330
23671
102
}
330
746F
100
AcDbSymbolTableRecord
100
AcDbDimStyleTableRecord
  2
INABA_S40G
 70
     0
 40
40.0
 41
2.5
 42
0.5
 43
7.0
 44
1.5
 73
     0
 74
     0
 77
     3
 78
     8
140
3.0
141
0.0
143
0.0394
147
1.0
172
     1
173
     1
174
     1
178
     7
271
     1
288
     1
340
F706
341
F770
343
F770
344
F770
  0
DIMSTYLE
105
238BE
330
746F
100
AcDbSymbolTableRecord
100
AcDbDimStyleTableRecord
  2
INABA_S20G
 70
     0
 40
20.0
 41
2.5
 42
0.5
 43
7.0
 44
1.5
 73
     0
 74
     0
 77
     3
 78
     8
140
3.0
141
0.0
143
0.0394
147
1.0
172
     1
173
     1
174
     1
178
     7
271
     1
340
F706
341
F770
343
F770
344
F770
  0
ENDTAB
  0
TABLE
  2
BLOCK_RECORD
  5
7466
330
0
100
AcDbSymbolTable
 70
    31
  0
BLOCK_RECORD
  5
747D
330
7466
100
AcDbSymbolTableRecord
100
AcDbBlockTableRecord
  2
*MODEL_SPACE
340
159B3
  0
BLOCK_RECORD
  5
747A
330
7466
100
AcDbSymbolTableRecord
100
AcDbBlockTableRecord
  2
*PAPER_SPACE
340
159B4
  0
BLOCK_RECORD
  5
F770
330
7466
100
AcDbSymbolTableRecord
100
AcDbBlockTableRecord
  2
_DOTSMALL
340
0
102
{BLKREFS
331
23295
331
23296
331
2329E
331
2329F
331
232A9
331
232AA
331
232B2
331
232B3
331
232BB
331
232BC
331
232C4
331
232C5
331
232CD
331
232CE
331
232D8
331
232D9
331
232E1
331
232E2
331
232EC
331
232ED
331
232F5
331
232F6
331
23300
331
23301
331
2330A
331
2330B
331
23313
331
23314
331
2331C
331
2331D
331
23326
331
23327
331
23331
331
23332
331
2333A
331
2333B
331
23343
331
23344
331
2334E
331
2334F
331
23357
331
23358
331
23361
331
23362
331
2336B
331
2336C
331
2381C
331
2381D
331
23827
331
23828
331
23832
331
23833
331
2383B
331
2383C
331
23844
331
23845
331
23890
331
23891
331
23899
331
2389A
102
}
  0
BLOCK_RECORD
  5
1458A
330
7466
100
AcDbSymbolTableRecord
100
AcDbBlockTableRecord
  2
*D1
340
0
  0
BLOCK_RECORD
  5
14598
330
7466
100
AcDbSymbolTableRecord
100
AcDbBlockTableRecord
  2
*D2
340
0
  0
BLOCK_RECORD
  5
145A4
330
7466
100
AcDbSymbolTableRecord
100
AcDbBlockTableRecord
  2
*D3
340
0
  0
BLOCK_RECORD
  5
145B2
330
7466
100
AcDbSymbolTableRecord
100
AcDbBlockTableRecord
  2
*D4
340
0
  0
BLOCK_RECORD
  5
145BE
330
7466
100
AcDbSymbolTableRecord
100
AcDbBlockTableRecord
  2
*D5
340
0
  0
BLOCK_RECORD
  5
145CC
330
7466
100
AcDbSymbolTableRecord
100
AcDbBlockTableRecord
  2
*D6
340
0
  0
BLOCK_RECORD
  5
145D8
330
7466
100
AcDbSymbolTableRecord
100
AcDbBlockTableRecord
  2
*D7
340
0
  0
BLOCK_RECORD
  5
145E4
330
7466
100
AcDbSymbolTableRecord
100
AcDbBlockTableRecord
  2
*D8
340
0
  0
BLOCK_RECORD
  5
145FC
330
7466
100
AcDbSymbolTableRecord
100
AcDbBlockTableRecord
  2
*D9
340
0
  0
BLOCK_RECORD
  5
14608
330
7466
100
AcDbSymbolTableRecord
100
AcDbBlockTableRecord
  2
*D10
340
0
  0
BLOCK_RECORD
  5
14616
330
7466
100
AcDbSymbolTableRecord
100
AcDbBlockTableRecord
  2
*D11
340
0
  0
BLOCK_RECORD
  5
14D63
330
7466
100
AcDbSymbolTableRecord
100
AcDbBlockTableRecord
  2
*D12
340
0
  0
BLOCK_RECORD
  5
23102
330
7466
100
AcDbSymbolTableRecord
100
AcDbBlockTableRecord
  2
*D13
340
0
  0
BLOCK_RECORD
  5
2310E
330
7466
100
AcDbSymbolTableRecord
100
AcDbBlockTableRecord
  2
*D14
340
0
  0
BLOCK_RECORD
  5
23126
330
7466
100
AcDbSymbolTableRecord
100
AcDbBlockTableRecord
  2
*D15
340
0
  0
BLOCK_RECORD
  5
23133
330
7466
100
AcDbSymbolTableRecord
100
AcDbBlockTableRecord
  2
*D16
340
0
  0
BLOCK_RECORD
  5
23174
330
7466
100
AcDbSymbolTableRecord
100
AcDbBlockTableRecord
  2
*D17
340
0
  0
BLOCK_RECORD
  5
23180
330
7466
100
AcDbSymbolTableRecord
100
AcDbBlockTableRecord
  2
*D18
340
0
  0
BLOCK_RECORD
  5
2318E
330
7466
100
AcDbSymbolTableRecord
100
AcDbBlockTableRecord
  2
*D19
340
0
  0
BLOCK_RECORD
  5
2319A
330
7466
100
AcDbSymbolTableRecord
100
AcDbBlockTableRecord
  2
*D20
340
0
  0
BLOCK_RECORD
  5
231A6
330
7466
100
AcDbSymbolTableRecord
100
AcDbBlockTableRecord
  2
*D21
340
0
  0
BLOCK_RECORD
  5
231B4
330
7466
100
AcDbSymbolTableRecord
100
AcDbBlockTableRecord
  2
*D22
340
0
  0
BLOCK_RECORD
  5
231C1
330
7466
100
AcDbSymbolTableRecord
100
AcDbBlockTableRecord
  2
*D23
340
0
  0
BLOCK_RECORD
  5
231CD
330
7466
100
AcDbSymbolTableRecord
100
AcDbBlockTableRecord
  2
*D24
340
0
  0
BLOCK_RECORD
  5
231D9
330
7466
100
AcDbSymbolTableRecord
100
AcDbBlockTableRecord
  2
*D25
340
0
  0
BLOCK_RECORD
  5
236B8
330
7466
100
AcDbSymbolTableRecord
100
AcDbBlockTableRecord
  2
*D26
340
0
  0
BLOCK_RECORD
  5
236DE
330
7466
100
AcDbSymbolTableRecord
100
AcDbBlockTableRecord
  2
*D27
340
0
  0
BLOCK_RECORD
  5
236EA
330
7466
100
AcDbSymbolTableRecord
100
AcDbBlockTableRecord
  2
*D28
340
0
  0
BLOCK_RECORD
  5
236F8
330
7466
100
AcDbSymbolTableRecord
100
AcDbBlockTableRecord
  2
*D29
340
0
  0
BLOCK_RECORD
  5
23706
330
7466
100
AcDbSymbolTableRecord
100
AcDbBlockTableRecord
  2
*D30
340
0
  0
ENDTAB
  0
ENDSEC
  0
SECTION
  2
BLOCKS
  0
BLOCK
  5
7489
330
747D
100
AcDbEntity
  8
0
100
AcDbBlockBegin
  2
*MODEL_SPACE
 70
     0
 10
0.0
 20
0.0
 30
0.0
  3
*MODEL_SPACE
  1

  0
ENDBLK
  5
748A
330
747D
100
AcDbEntity
  8
0
100
AcDbBlockEnd
  0
BLOCK
  5
7487
330
747A
100
AcDbEntity
 67
     1
  8
0
100
AcDbBlockBegin
  2
*PAPER_SPACE
 70
     0
 10
0.0
 20
0.0
 30
0.0
  3
*PAPER_SPACE
  1

  0
ENDBLK
  5
7488
330
747A
100
AcDbEntity
 67
     1
  8
0
100
AcDbBlockEnd
  0
BLOCK
  5
F771
330
F770
100
AcDbEntity
  8
0
 48
50.0
100
AcDbBlockBegin
  2
_DOTSMALL
 70
     0
 10
0.0
 20
0.0
 30
0.0
  3
_DOTSMALL
  1

  0
LWPOLYLINE
  5
F772
330
F770
100
AcDbEntity
  8
0
  6
ByBlock
 62
     0
 48
50.0
100
AcDbPolyline
 90
        2
 70
     1
 43
0.5
 10
-0.0625
 20
0.0
 42
1.0
 10
0.0625
 20
0.0
 42
1.0
  0
ENDBLK
  5
F776
330
F770
100
AcDbEntity
  8
0
 48
50.0
100
AcDbBlockEnd
  0
BLOCK
  5
148C8
330
1458A
100
AcDbEntity
  8
0
 48
50.0
100
AcDbBlockBegin
  2
*D1
 70
     1
 10
0.0
 20
0.0
 30
0.0
  3
*D1
  1

  0
LINE
  5
232FB
330
1458A
100
AcDbEntity
  8
寸法
 62
     0
 48
50.0
370
    -2
100
AcDbLine
 10
5259.896575106979
 20
9391.933683184626
 30
0.0
 11
5259.896575106979
 21
9647.741902809611
 31
0.0
  0
LINE
  5
232FC
330
1458A
100
AcDbEntity
  8
寸法
 62
     0
 48
50.0
370
    -2
100
AcDbLine
 10
5314.896575107013
 20
9391.933683184626
 30
0.0
 11
5314.896575107013
 21
9647.741902809611
 31
0.0
  0
LINE
  5
232FD
330
1458A
100
AcDbEntity
  8
寸法
 62
     0
 48
50.0
370
    -2
100
AcDbLine
 10
5314.896575107013
 20
9587.741902809609
 30
0.0
 11
5414.896575107014
 21
9587.741902809609
 31
0.0
  0
LINE
  5
232FE
330
1458A
100
AcDbEntity
  8
寸法
 62
     0
 48
50.0
370
    -2
100
AcDbLine
 10
5259.896575106979
 20
9587.741902809609
 30
0.0
 11
4842.926012358502
 21
9587.741902809609
 31
0.0
  0
LINE
  5
232FF
330
1458A
100
AcDbEntity
  8
寸法
 62
     0
 48
50.0
370
    -2
100
AcDbLine
 10
5314.896575107013
 20
9587.741902809609
 30
0.0
 11
5259.896575106979
 21
9587.741902809609
 31
0.0
  0
INSERT
  5
23300
330
1458A
100
AcDbEntity
  8
寸法
 62
     0
 48
50.0
370
    -2
100
AcDbBlockReference
  2
_DOTSMALL
 10
5314.896575107013
 20
9587.741902809609
 30
0.0
 41
100.0
 42
100.0
 43
100.0
 50
180.0
  0
INSERT
  5
23301
330
1458A
100
AcDbEntity
  8
寸法
 62
     0
 48
50.0
370
    -2
100
AcDbBlockReference
  2
_DOTSMALL
 10
5259.896575106979
 20
9587.741902809609
 30
0.0
 41
100.0
 42
100.0
 43
100.0
  0
MTEXT
  5
23302
330
1458A
100
AcDbEntity
  8
寸法
 62
     7
 48
50.0
100
AcDbMText
 10
4951.411293732741
 20
9687.741902809611
 30
0.0
 40
120.0
 41
0.0
 71
     5
 72
     1
  1
\A1;55
  7
STYLE1
 73
     1
 44
1.0
1001
ACAD
1000
MTEXTBEGIN
1070
    73
1070
     1
1070
    44
1040
1.0
1070
    74
1070
     0
1000
MTEXTEND
  0
POINT
  5
23303
330
1458A
100
AcDbEntity
  8
DEFPOINTS
 62
     0
 48
50.0
100
AcDbPoint
 10
5259.896575106979
 20
9371.933683184627
 30
0.0
  0
POINT
  5
23304
330
1458A
100
AcDbEntity
  8
DEFPOINTS
 62
     0
 48
50.0
100
AcDbPoint
 10
5314.896575107013
 20
9371.933683184627
 30
0.0
  0
POINT
  5
23305
330
1458A
100
AcDbEntity
  8
DEFPOINTS
 62
     0
 48
50.0
100
AcDbPoint
 10
5314.896575107013
 20
9587.741902809609
 30
0.0
  0
ENDBLK
  5
148D4
330
1458A
100
AcDbEntity
  8
0
 48
50.0
100
AcDbBlockEnd
  0
BLOCK
  5
14D6F
330
14598
100
AcDbEntity
  8
0
 48
50.0
100
AcDbBlockBegin
  2
*D2
 70
     1
 10
0.0
 20
0.0
 30
0.0
  3
*D2
  1

  0
LINE
  5
232F2
330
14598
100
AcDbEntity
  8
寸法
 62
     0
 48
50.0
370
    -2
100
AcDbLine
 10
7489.896575107015
 20
9371.933683184723
 30
0.0
 11
8473.865353179311
 21
9371.933683184723
 31
0.0
  0
LINE
  5
232F3
330
14598
100
AcDbEntity
  8
寸法
 62
     0
 48
50.0
370
    -2
100
AcDbLine
 10
7489.896575106977
 20
7581.933683184724
 30
0.0
 11
8473.865353179311
 21
7581.933683184724
 31
0.0
  0
LINE
  5
232F4
330
14598
100
AcDbEntity
  8
寸法
 62
     0
 48
50.0
370
    -2
100
AcDbLine
 10
8413.865353179311
 20
9371.933683184723
 30
0.0
 11
8413.865353179311
 21
7581.933683184724
 31
0.0
  0
INSERT
  5
232F5
330
14598
100
AcDbEntity
  8
寸法
 62
     0
 48
50.0
370
    -2
100
AcDbBlockReference
  2
_DOTSMALL
 10
8413.865353179311
 20
9371.933683184723
 30
0.0
 41
100.0
 42
100.0
 43
100.0
 50
90.0
  0
INSERT
  5
232F6
330
14598
100
AcDbEntity
  8
寸法
 62
     0
 48
50.0
370
    -2
100
AcDbBlockReference
  2
_DOTSMALL
 10
8413.865353179311
 20
7581.933683184724
 30
0.0
 41
100.0
 42
100.0
 43
100.0
 50
270.0
  0
MTEXT
  5
232F7
330
14598
100
AcDbEntity
  8
寸法
 62
     7
 48
50.0
100
AcDbMText
 10
8313.865353179309
 20
8427.985122738435
 30
0.0
 40
120.0
 41
0.0
 71
     5
 72
     1
  1
\A1;1790
  7
STYLE1
 11
0.0000000000000001
 21
1.0
 31
0.0
 73
     1
 44
1.0
1001
ACAD
1000
MTEXTBEGIN
1070
    73
1070
     1
1070
    44
1040
1.0
1070
    74
1070
     0
1000
MTEXTEND
  0
POINT
  5
232F8
330
14598
100
AcDbEntity
  8
DEFPOINTS
 62
     0
 48
50.0
100
AcDbPoint
 10
7469.896575107014
 20
9371.933683184723
 30
0.0
  0
POINT
  5
232F9
330
14598
100
AcDbEntity
  8
DEFPOINTS
 62
     0
 48
50.0
100
AcDbPoint
 10
7469.896575106976
 20
7581.933683184724
 30
0.0
  0
POINT
  5
232FA
330
14598
100
AcDbEntity
  8
DEFPOINTS
 62
     0
 48
50.0
100
AcDbPoint
 10
8413.865353179311
 20
7581.933683184724
 30
0.0
  0
ENDBLK
  5
14D79
330
14598
100
AcDbEntity
  8
0
 48
50.0
100
AcDbBlockEnd
  0
BLOCK
  5
1492F
330
145A4
100
AcDbEntity
  8
0
 48
50.0
100
AcDbBlockBegin
  2
*D3
 70
     1
 10
0.0
 20
0.0
 30
0.0
  3
*D3
  1

  0
LINE
  5
232E7
330
145A4
100
AcDbEntity
  8
寸法
 62
     0
 48
50.0
370
    -2
100
AcDbLine
 10
7489.896575107015
 20
9371.933683184723
 30
0.0
 11
8177.322920841424
 21
9371.933683184723
 31
0.0
  0
LINE
  5
232E8
330
145A4
100
AcDbEntity
  8
寸法
 62
     0
 48
50.0
370
    -2
100
AcDbLine
 10
7489.896575107015
 20
9316.933683184727
 30
0.0
 11
8177.322920841424
 21
9316.933683184727
 31
0.0
  0
LINE
  5
232E9
330
145A4
100
AcDbEntity
  8
寸法
 62
     0
 48
50.0
370
    -2
100
AcDbLine
 10
8117.322920841425
 20
9316.933683184727
 30
0.0
 11
8117.322920841425
 21
9216.933683184727
 31
0.0
  0
LINE
  5
232EA
330
145A4
100
AcDbEntity
  8
寸法
 62
     0
 48
50.0
370
    -2
100
AcDbLine
 10
8117.322920841425
 20
9371.933683184723
 30
0.0
 11
8117.322920841425
 21
9788.904245933201
 31
0.0
  0
LINE
  5
232EB
330
145A4
100
AcDbEntity
  8
寸法
 62
     0
 48
50.0
370
    -2
100
AcDbLine
 10
8117.322920841425
 20
9316.933683184727
 30
0.0
 11
8117.322920841425
 21
9371.933683184723
 31
0.0
  0
INSERT
  5
232EC
330
145A4
100
AcDbEntity
  8
寸法
 62
     0
 48
50.0
370
    -2
100
AcDbBlockReference
  2
_DOTSMALL
 10
8117.322920841425
 20
9316.933683184727
 30
0.0
 41
100.0
 42
100.0
 43
100.0
 50
90.0
  0
INSERT
  5
232ED
330
145A4
100
AcDbEntity
  8
寸法
 62
     0
 48
50.0
370
    -2
100
AcDbBlockReference
  2
_DOTSMALL
 10
8117.322920841425
 20
9371.933683184723
 30
0.0
 41
100.0
 42
100.0
 43
100.0
 50
270.0
  0
MTEXT
  5
232EE
330
145A4
100
AcDbEntity
  8
寸法
 62
     7
 48
50.0
100
AcDbMText
 10
8017.322920841424
 20
9680.418964558963
 30
0.0
 40
120.0
 41
0.0
 71
     5
 72
     1
  1
\A1;55
  7
STYLE1
 11
0.0000000000000001
 21
1.0
 31
0.0
 73
     1
 44
1.0
1001
ACAD
1000
MTEXTBEGIN
1070
    73
1070
     1
1070
    44
1040
1.0
1070
    74
1070
     0
1000
MTEXTEND
  0
POINT
  5
232EF
330
145A4
100
AcDbEntity
  8
DEFPOINTS
 62
     0
 48
50.0
100
AcDbPoint
 10
7469.896575107014
 20
9371.933683184723
 30
0.0
  0
POINT
  5
232F0
330
145A4
100
AcDbEntity
  8
DEFPOINTS
 62
     0
 48
50.0
100
AcDbPoint
 10
7469.896575107014
 20
9316.933683184727
 30
0.0
  0
POINT
  5
232F1
330
145A4
100
AcDbEntity
  8
DEFPOINTS
 62
     0
 48
50.0
100
AcDbPoint
 10
8117.322920841425
 20
9316.933683184727
 30
0.0
  0
ENDBLK
  5
1493B
330
145A4
100
AcDbEntity
  8
0
 48
50.0
100
AcDbBlockEnd
  0
BLOCK
  5
14BDB
330
145B2
100
AcDbEntity
  8
0
 48
50.0
100
AcDbBlockBegin
  2
*D4
 70
     1
 10
0.0
 20
0.0
 30
0.0
  3
*D4
  1

  0
LINE
  5
232DE
330
145B2
100
AcDbEntity
  8
寸法
 62
     0
 48
50.0
370
    -2
100
AcDbLine
 10
7461.396575107015
 20
9336.574699336102
 30
0.0
 11
7856.75430096904
 21
9230.638915969967
 31
0.0
  0
LINE
  5
232DF
330
145B2
100
AcDbEntity
  8
寸法
 62
     0
 48
50.0
370
    -2
100
AcDbLine
 10
7461.396575107015
 20
8886.574699336103
 30
0.0
 11
7856.75430096904
 21
8780.638915969969
 31
0.0
  0
LINE
  5
232E0
330
145B2
100
AcDbEntity
  8
寸法
 62
     0
 48
50.0
370
    -2
100
AcDbLine
 10
7796.754300969038
 20
9246.715867515833
 30
0.0
 11
7796.754300969038
 21
8796.715867515835
 31
0.0
  0
INSERT
  5
232E1
330
145B2
100
AcDbEntity
  8
寸法
 62
     0
 48
50.0
370
    -2
100
AcDbBlockReference
  2
_DOTSMALL
 10
7796.754300969038
 20
9246.715867515833
 30
0.0
 41
100.0
 42
100.0
 43
100.0
 50
90.0
  0
INSERT
  5
232E2
330
145B2
100
AcDbEntity
  8
寸法
 62
     0
 48
50.0
370
    -2
100
AcDbBlockReference
  2
_DOTSMALL
 10
7796.754300969038
 20
8796.715867515835
 30
0.0
 41
100.0
 42
100.0
 43
100.0
 50
270.0
  0
MTEXT
  5
232E3
330
145B2
100
AcDbEntity
  8
寸法
 62
     7
 48
50.0
100
AcDbMText
 10
7696.754300969039
 20
9021.715867515835
 30
0.0
 40
120.0
 41
0.0
 71
     5
 72
     1
  1
\A1;450
  7
STYLE1
 11
0.0000000000000001
 21
1.0
 31
0.0
 73
     1
 44
1.0
1001
ACAD
1000
MTEXTBEGIN
1070
    73
1070
     1
1070
    44
1040
1.0
1070
    74
1070
     0
1000
MTEXTEND
  0
POINT
  5
232E4
330
145B2
100
AcDbEntity
  8
DEFPOINTS
 62
     0
 48
50.0
100
AcDbPoint
 10
7441.396575107015
 20
9341.933683184723
 30
0.0
  0
POINT
  5
232E5
330
145B2
100
AcDbEntity
  8
DEFPOINTS
 62
     0
 48
50.0
100
AcDbPoint
 10
7441.396575107015
 20
8891.933683184724
 30
0.0
  0
POINT
  5
232E6
330
145B2
100
AcDbEntity
  8
DEFPOINTS
 62
     0
 48
50.0
100
AcDbPoint
 10
7796.754300969038
 20
8796.715867515835
 30
0.0
  0
ENDBLK
  5
14BE5
330
145B2
100
AcDbEntity
  8
0
 48
50.0
100
AcDbBlockEnd
  0
BLOCK
  5
1496A
330
145BE
100
AcDbEntity
  8
0
 48
50.0
100
AcDbBlockBegin
  2
*D5
 70
     1
 10
0.0
 20
0.0
 30
0.0
  3
*D5
  1

  0
LINE
  5
232D3
330
145BE
100
AcDbEntity
  8
寸法
 62
     0
 48
50.0
370
    -2
100
AcDbLine
 10
7489.896575106977
 20
7636.933683184719
 30
0.0
 11
8177.322920841389
 21
7636.933683184719
 31
0.0
  0
LINE
  5
232D4
330
145BE
100
AcDbEntity
  8
寸法
 62
     0
 48
50.0
370
    -2
100
AcDbLine
 10
7489.896575106977
 20
7581.933683184724
 30
0.0
 11
8177.322920841389
 21
7581.933683184724
 31
0.0
  0
LINE
  5
232D5
330
145BE
100
AcDbEntity
  8
寸法
 62
     0
 48
50.0
370
    -2
100
AcDbLine
 10
8117.322920841386
 20
7636.933683184719
 30
0.0
 11
8117.322920841386
 21
7736.933683184719
 31
0.0
  0
LINE
  5
232D6
330
145BE
100
AcDbEntity
  8
寸法
 62
     0
 48
50.0
370
    -2
100
AcDbLine
 10
8117.322920841386
 20
7581.933683184724
 30
0.0
 11
8117.322920841386
 21
7095.586934905622
 31
0.0
  0
LINE
  5
232D7
330
145BE
100
AcDbEntity
  8
寸法
 62
     0
 48
50.0
370
    -2
100
AcDbLine
 10
8117.322920841386
 20
7636.933683184719
 30
0.0
 11
8117.322920841386
 21
7581.933683184724
 31
0.0
  0
INSERT
  5
232D8
330
145BE
100
AcDbEntity
  8
寸法
 62
     0
 48
50.0
370
    -2
100
AcDbBlockReference
  2
_DOTSMALL
 10
8117.322920841386
 20
7636.933683184719
 30
0.0
 41
100.0
 42
100.0
 43
100.0
 50
270.0
  0
INSERT
  5
232D9
330
145BE
100
AcDbEntity
  8
寸法
 62
     0
 48
50.0
370
    -2
100
AcDbBlockReference
  2
_DOTSMALL
 10
8117.322920841386
 20
7581.933683184724
 30
0.0
 41
100.0
 42
100.0
 43
100.0
 50
90.0
  0
MTEXT
  5
232DA
330
145BE
100
AcDbEntity
  8
寸法
 62
     7
 48
50.0
100
AcDbMText
 10
8017.322920841385
 20
7204.072216279861
 30
0.0
 40
120.0
 41
0.0
 71
     5
 72
     1
  1
\A1;55
  7
STYLE1
 11
0.0000000000000001
 21
1.0
 31
0.0
 73
     1
 44
1.0
1001
ACAD
1000
MTEXTBEGIN
1070
    73
1070
     1
1070
    44
1040
1.0
1070
    74
1070
     0
1000
MTEXTEND
  0
POINT
  5
232DB
330
145BE
100
AcDbEntity
  8
DEFPOINTS
 62
     0
 48
50.0
100
AcDbPoint
 10
7469.896575106976
 20
7636.933683184719
 30
0.0
  0
POINT
  5
232DC
330
145BE
100
AcDbEntity
  8
DEFPOINTS
 62
     0
 48
50.0
100
AcDbPoint
 10
7469.896575106976
 20
7581.933683184724
 30
0.0
  0
POINT
  5
232DD
330
145BE
100
AcDbEntity
  8
DEFPOINTS
 62
     0
 48
50.0
100
AcDbPoint
 10
8117.322920841386
 20
7581.933683184724
 30
0.0
  0
ENDBLK
  5
14976
330
145BE
100
AcDbEntity
  8
0
 48
50.0
100
AcDbBlockEnd
  0
BLOCK
  5
14D4C
330
145CC
100
AcDbEntity
  8
0
 48
50.0
100
AcDbBlockBegin
  2
*D6
 70
     1
 10
0.0
 20
0.0
 30
0.0
  3
*D6
  1

  0
LINE
  5
232CA
330
145CC
100
AcDbEntity
  8
寸法
 62
     0
 48
50.0
370
    -2
100
AcDbLine
 10
7489.896575107019
 20
9316.933683184727
 30
0.0
 11
8177.322920841424
 21
9316.933683184727
 31
0.0
  0
LINE
  5
232CB
330
145CC
100
AcDbEntity
  8
寸法
 62
     0
 48
50.0
370
    -2
100
AcDbLine
 10
7489.896575106977
 20
7636.933683184719
 30
0.0
 11
8177.322920841424
 21
7636.933683184719
 31
0.0
  0
LINE
  5
232CC
330
145CC
100
AcDbEntity
  8
寸法
 62
     0
 48
50.0
370
    -2
100
AcDbLine
 10
8117.322920841425
 20
9316.933683184727
 30
0.0
 11
8117.322920841425
 21
7636.933683184719
 31
0.0
  0
INSERT
  5
232CD
330
145CC
100
AcDbEntity
  8
寸法
 62
     0
 48
50.0
370
    -2
100
AcDbBlockReference
  2
_DOTSMALL
 10
8117.322920841425
 20
9316.933683184727
 30
0.0
 41
100.0
 42
100.0
 43
100.0
 50
90.0
  0
INSERT
  5
232CE
330
145CC
100
AcDbEntity
  8
寸法
 62
     0
 48
50.0
370
    -2
100
AcDbBlockReference
  2
_DOTSMALL
 10
8117.322920841425
 20
7636.933683184719
 30
0.0
 41
100.0
 42
100.0
 43
100.0
 50
270.0
  0
MTEXT
  5
232CF
330
145CC
100
AcDbEntity
  8
寸法
 62
     7
 48
50.0
100
AcDbMText
 10
8017.311109817802
 20
8435.82747373003
 30
0.0
 40
120.0
 41
0.0
 71
     5
 72
     1
  1
\A1;4X420=1680
  7
STYLE1
 11
0.0000000000000001
 21
1.0
 31
0.0
 73
     1
 44
1.0
1001
ACAD
1000
MTEXTBEGIN
1070
    73
1070
     1
1070
    44
1040
1.0
1070
    74
1070
     0
1000
MTEXTEND
  0
POINT
  5
232D0
330
145CC
100
AcDbEntity
  8
DEFPOINTS
 62
     0
 48
50.0
100
AcDbPoint
 10
7469.896575107019
 20
9316.933683184727
 30
0.0
  0
POINT
  5
232D1
330
145CC
100
AcDbEntity
  8
DEFPOINTS
 62
     0
 48
50.0
100
AcDbPoint
 10
7469.896575106976
 20
7636.933683184719
 30
0.0
  0
POINT
  5
232D2
330
145CC
100
AcDbEntity
  8
DEFPOINTS
 62
     0
 48
50.0
100
AcDbPoint
 10
8117.322920841425
 20
7636.933683184719
 30
0.0
  0
ENDBLK
  5
14D56
330
145CC
100
AcDbEntity
  8
0
 48
50.0
100
AcDbBlockEnd
  0
BLOCK
  5
14954
330
145D8
100
AcDbEntity
  8
0
 48
50.0
100
AcDbBlockBegin
  2
*D7
 70
     1
 10
0.0
 20
0.0
 30
0.0
  3
*D7
  1

  0
LINE
  5
232C1
330
145D8
100
AcDbEntity
  8
寸法
 62
     0
 48
50.0
370
    -2
100
AcDbLine
 10
5259.896575106995
 20
7561.933683184593
 30
0.0
 11
5259.896575106995
 21
6742.4203118173
 31
0.0
  0
LINE
  5
232C2
330
145D8
100
AcDbEntity
  8
寸法
 62
     0
 48
50.0
370
    -2
100
AcDbLine
 10
7469.896575106976
 20
7561.933683184689
 30
0.0
 11
7469.896575106976
 21
6742.4203118173
 31
0.0
  0
LINE
  5
232C3
330
145D8
100
AcDbEntity
  8
寸法
 62
     0
 48
50.0
370
    -2
100
AcDbLine
 10
5259.896575106995
 20
6802.420311817299
 30
0.0
 11
7469.896575106976
 21
6802.420311817299
 31
0.0
  0
INSERT
  5
232C4
330
145D8
100
AcDbEntity
  8
寸法
 62
     0
 48
50.0
370
    -2
100
AcDbBlockReference
  2
_DOTSMALL
 10
5259.896575106995
 20
6802.420311817299
 30
0.0
 41
100.0
 42
100.0
 43
100.0
 50
180.0
  0
INSERT
  5
232C5
330
145D8
100
AcDbEntity
  8
寸法
 62
     0
 48
50.0
370
    -2
100
AcDbBlockReference
  2
_DOTSMALL
 10
7469.896575106976
 20
6802.420311817299
 30
0.0
 41
100.0
 42
100.0
 43
100.0
  0
MTEXT
  5
232C6
330
145D8
100
AcDbEntity
  8
寸法
 62
     7
 48
50.0
100
AcDbMText
 10
6375.856517730952
 20
6902.43212284092
 30
0.0
 40
120.0
 41
0.0
 71
     5
 72
     1
  1
\A1;2210
  7
STYLE1
 73
     1
 44
1.0
1001
ACAD
1000
MTEXTBEGIN
1070
    73
1070
     1
1070
    44
1040
1.0
1070
    74
1070
     0
1000
MTEXTEND
  0
POINT
  5
232C7
330
145D8
100
AcDbEntity
  8
DEFPOINTS
 62
     0
 48
50.0
100
AcDbPoint
 10
5259.896575106995
 20
7581.933683184593
 30
0.0
  0
POINT
  5
232C8
330
145D8
100
AcDbEntity
  8
DEFPOINTS
 62
     0
 48
50.0
100
AcDbPoint
 10
7469.896575106976
 20
7581.933683184688
 30
0.0
  0
POINT
  5
232C9
330
145D8
100
AcDbEntity
  8
DEFPOINTS
 62
     0
 48
50.0
100
AcDbPoint
 10
7469.896575106976
 20
6802.420311817299
 30
0.0
  0
ENDBLK
  5
1495E
330
145D8
100
AcDbEntity
  8
0
 48
50.0
100
AcDbBlockEnd
  0
BLOCK
  5
14D90
330
145E4
100
AcDbEntity
  8
0
 48
50.0
100
AcDbBlockBegin
  2
*D8
 70
     1
 10
0.0
 20
0.0
 30
0.0
  3
*D8
  1

  0
LINE
  5
232B8
330
145E4
100
AcDbEntity
  8
寸法
 62
     0
 48
50.0
370
    -2
100
AcDbLine
 10
6597.896575106995
 20
7561.933683184654
 30
0.0
 11
6597.896575106995
 21
6968.736931209405
 31
0.0
  0
LINE
  5
232B9
330
145E4
100
AcDbEntity
  8
寸法
 62
     0
 48
50.0
370
    -2
100
AcDbLine
 10
5319.896575106994
 20
7561.933683184591
 30
0.0
 11
5319.896575106994
 21
6968.736931209405
 31
0.0
  0
LINE
  5
232BA
330
145E4
100
AcDbEntity
  8
寸法
 62
     0
 48
50.0
370
    -2
100
AcDbLine
 10
6597.896575106995
 20
7028.736931209405
 30
0.0
 11
5319.896575106994
 21
7028.736931209405
 31
0.0
  0
INSERT
  5
232BB
330
145E4
100
AcDbEntity
  8
寸法
 62
     0
 48
50.0
370
    -2
100
AcDbBlockReference
  2
_DOTSMALL
 10
6597.896575106995
 20
7028.736931209405
 30
0.0
 41
100.0
 42
100.0
 43
100.0
  0
INSERT
  5
232BC
330
145E4
100
AcDbEntity
  8
寸法
 62
     0
 48
50.0
370
    -2
100
AcDbBlockReference
  2
_DOTSMALL
 10
5319.896575106994
 20
7028.736931209405
 30
0.0
 41
100.0
 42
100.0
 43
100.0
 50
180.0
  0
MTEXT
  5
232BD
330
145E4
100
AcDbEntity
  8
寸法
 62
     7
 48
50.0
100
AcDbMText
 10
5947.686700450972
 20
7228.748742233027
 30
0.0
 40
120.0
 41
0.0
 71
     5
 72
     1
  1
\A1;有効開口部間口\P1278
  7
STYLE1
 73
     1
 44
1.0
1001
ACAD
1000
MTEXTBEGIN
1070
    73
1070
     1
1070
    44
1040
1.0
1070
    74
1070
     0
1000
MTEXTEND
  0
POINT
  5
232BE
330
145E4
100
AcDbEntity
  8
DEFPOINTS
 62
     0
 48
50.0
100
AcDbPoint
 10
6597.896575106995
 20
7581.933683184653
 30
0.0
  0
POINT
  5
232BF
330
145E4
100
AcDbEntity
  8
DEFPOINTS
 62
     0
 48
50.0
100
AcDbPoint
 10
5319.896575106994
 20
7581.933683184591
 30
0.0
  0
POINT
  5
232C0
330
145E4
100
AcDbEntity
  8
DEFPOINTS
 62
     0
 48
50.0
100
AcDbPoint
 10
5319.896575106994
 20
7028.736931209405
 30
0.0
  0
ENDBLK
  5
14D9A
330
145E4
100
AcDbEntity
  8
0
 48
50.0
100
AcDbBlockEnd
  0
BLOCK
  5
14D57
330
145FC
100
AcDbEntity
  8
0
 48
50.0
100
AcDbBlockBegin
  2
*D9
 70
     1
 10
0.0
 20
0.0
 30
0.0
  3
*D9
  1

  0
LINE
  5
232AF
330
145FC
100
AcDbEntity
  8
寸法
 62
     0
 48
50.0
370
    -2
100
AcDbLine
 10
6583.037591258392
 20
8871.933683184733
 30
0.0
 11
6513.626127267166
 21
8612.886572941746
 31
0.0
  0
LINE
  5
232B0
330
145FC
100
AcDbEntity
  8
寸法
 62
     0
 48
50.0
370
    -2
100
AcDbLine
 10
7436.037591258403
 20
8871.933683184726
 30
0.0
 11
7366.62612726718
 21
8612.886572941746
 31
0.0
  0
LINE
  5
232B1
330
145FC
100
AcDbEntity
  8
寸法
 62
     0
 48
50.0
370
    -2
100
AcDbLine
 10
6529.703078813034
 20
8672.886572941747
 30
0.0
 11
7382.703078813048
 21
8672.886572941747
 31
0.0
  0
INSERT
  5
232B2
330
145FC
100
AcDbEntity
  8
寸法
 62
     0
 48
50.0
370
    -2
100
AcDbBlockReference
  2
_DOTSMALL
 10
6529.703078813034
 20
8672.886572941747
 30
0.0
 41
100.0
 42
100.0
 43
100.0
 50
180.0
  0
INSERT
  5
232B3
330
145FC
100
AcDbEntity
  8
寸法
 62
     0
 48
50.0
370
    -2
100
AcDbBlockReference
  2
_DOTSMALL
 10
7382.703078813048
 20
8672.886572941747
 30
0.0
 41
100.0
 42
100.0
 43
100.0
  0
MTEXT
  5
232B4
330
145FC
100
AcDbEntity
  8
寸法
 62
     7
 48
50.0
100
AcDbMText
 10
6967.743637225282
 20
8772.886572941747
 30
0.0
 40
120.0
 41
0.0
 71
     5
 72
     1
  1
\A1;853
  7
STYLE1
 73
     1
 44
1.0
1001
ACAD
1000
MTEXTBEGIN
1070
    73
1070
     1
1070
    44
1040
1.0
1070
    74
1070
     0
1000
MTEXTEND
  0
POINT
  5
232B5
330
145FC
100
AcDbEntity
  8
DEFPOINTS
 62
     0
 48
50.0
100
AcDbPoint
 10
6588.396575107013
 20
8891.933683184731
 30
0.0
  0
POINT
  5
232B6
330
145FC
100
AcDbEntity
  8
DEFPOINTS
 62
     0
 48
50.0
100
AcDbPoint
 10
7441.396575107025
 20
8891.933683184728
 30
0.0
  0
POINT
  5
232B7
330
145FC
100
AcDbEntity
  8
DEFPOINTS
 62
     0
 48
50.0
100
AcDbPoint
 10
7382.703078813048
 20
8672.886572941747
 30
0.0
  0
ENDBLK
  5
14D61
330
145FC
100
AcDbEntity
  8
0
 48
50.0
100
AcDbBlockEnd
  0
BLOCK
  5
148D5
330
14608
100
AcDbEntity
  8
0
 48
50.0
100
AcDbBlockBegin
  2
*D10
 70
     1
 10
0.0
 20
0.0
 30
0.0
  3
*D10
  1

  0
LINE
  5
232A4
330
14608
100
AcDbEntity
  8
寸法
 62
     0
 48
50.0
370
    -2
100
AcDbLine
 10
7414.896575107015
 20
9391.933683184722
 30
0.0
 11
7414.896575107015
 21
9647.741902809707
 31
0.0
  0
LINE
  5
232A5
330
14608
100
AcDbEntity
  8
寸法
 62
     0
 48
50.0
370
    -2
100
AcDbLine
 10
7469.896575107014
 20
9391.933683184722
 30
0.0
 11
7469.896575107014
 21
9647.741902809707
 31
0.0
  0
LINE
  5
232A6
330
14608
100
AcDbEntity
  8
寸法
 62
     0
 48
50.0
370
    -2
100
AcDbLine
 10
7414.896575107015
 20
9587.741902809707
 30
0.0
 11
7314.896575107015
 21
9587.741902809707
 31
0.0
  0
LINE
  5
232A7
330
14608
100
AcDbEntity
  8
寸法
 62
     0
 48
50.0
370
    -2
100
AcDbLine
 10
7469.896575107014
 20
9587.741902809707
 30
0.0
 11
7886.867137855492
 21
9587.741902809707
 31
0.0
  0
LINE
  5
232A8
330
14608
100
AcDbEntity
  8
寸法
 62
     0
 48
50.0
370
    -2
100
AcDbLine
 10
7414.896575107015
 20
9587.741902809707
 30
0.0
 11
7469.896575107014
 21
9587.741902809707
 31
0.0
  0
INSERT
  5
232A9
330
14608
100
AcDbEntity
  8
寸法
 62
     0
 48
50.0
370
    -2
100
AcDbBlockReference
  2
_DOTSMALL
 10
7414.896575107015
 20
9587.741902809707
 30
0.0
 41
100.0
 42
100.0
 43
100.0
  0
INSERT
  5
232AA
330
14608
100
AcDbEntity
  8
寸法
 62
     0
 48
50.0
370
    -2
100
AcDbBlockReference
  2
_DOTSMALL
 10
7469.896575107014
 20
9587.741902809707
 30
0.0
 41
100.0
 42
100.0
 43
100.0
 50
180.0
  0
MTEXT
  5
232AB
330
14608
100
AcDbEntity
  8
寸法
 62
     7
 48
50.0
100
AcDbMText
 10
7778.381856481253
 20
9687.741902809706
 30
0.0
 40
120.0
 41
0.0
 71
     5
 72
     1
  1
\A1;55
  7
STYLE1
 73
     1
 44
1.0
1001
ACAD
1000
MTEXTBEGIN
1070
    73
1070
     1
1070
    44
1040
1.0
1070
    74
1070
     0
1000
MTEXTEND
  0
POINT
  5
232AC
330
14608
100
AcDbEntity
  8
DEFPOINTS
 62
     0
 48
50.0
100
AcDbPoint
 10
7414.896575107015
 20
9371.933683184723
 30
0.0
  0
POINT
  5
232AD
330
14608
100
AcDbEntity
  8
DEFPOINTS
 62
     0
 48
50.0
100
AcDbPoint
 10
7469.896575107014
 20
9371.933683184723
 30
0.0
  0
POINT
  5
232AE
330
14608
100
AcDbEntity
  8
DEFPOINTS
 62
     0
 48
50.0
100
AcDbPoint
 10
7469.896575107014
 20
9587.741902809707
 30
0.0
  0
ENDBLK
  5
148E1
330
14608
100
AcDbEntity
  8
0
 48
50.0
100
AcDbBlockEnd
  0
BLOCK
  5
14B64
330
14616
100
AcDbEntity
  8
0
 48
50.0
100
AcDbBlockBegin
  2
*D11
 70
     1
 10
0.0
 20
0.0
 30
0.0
  3
*D11
  1

  0
LINE
  5
2329B
330
14616
100
AcDbEntity
  8
寸法
 62
     0
 48
50.0
370
    -2
100
AcDbLine
 10
5314.896575107013
 20
9391.933683184626
 30
0.0
 11
5314.896575107013
 21
9647.741902809611
 31
0.0
  0
LINE
  5
2329C
330
14616
100
AcDbEntity
  8
寸法
 62
     0
 48
50.0
370
    -2
100
AcDbLine
 10
7414.896575107015
 20
9391.933683184722
 30
0.0
 11
7414.896575107015
 21
9647.741902809611
 31
0.0
  0
LINE
  5
2329D
330
14616
100
AcDbEntity
  8
寸法
 62
     0
 48
50.0
370
    -2
100
AcDbLine
 10
5314.896575107013
 20
9587.741902809609
 30
0.0
 11
7414.896575107015
 21
9587.741902809609
 31
0.0
  0
INSERT
  5
2329E
330
14616
100
AcDbEntity
  8
寸法
 62
     0
 48
50.0
370
    -2
100
AcDbBlockReference
  2
_DOTSMALL
 10
5314.896575107013
 20
9587.741902809609
 30
0.0
 41
100.0
 42
100.0
 43
100.0
 50
180.0
  0
INSERT
  5
2329F
330
14616
100
AcDbEntity
  8
寸法
 62
     0
 48
50.0
370
    -2
100
AcDbBlockReference
  2
_DOTSMALL
 10
7414.896575107015
 20
9587.741902809609
 30
0.0
 41
100.0
 42
100.0
 43
100.0
  0
MTEXT
  5
232A0
330
14616
100
AcDbEntity
  8
寸法
 62
     7
 48
50.0
100
AcDbMText
 10
6356.769737990334
 20
9687.753713833231
 30
0.0
 40
120.0
 41
0.0
 71
     5
 72
     1
  1
\A1;5X420=2100
  7
STYLE1
 73
     1
 44
1.0
1001
ACAD
1000
MTEXTBEGIN
1070
    73
1070
     1
1070
    44
1040
1.0
1070
    74
1070
     0
1000
MTEXTEND
  0
POINT
  5
232A1
330
14616
100
AcDbEntity
  8
DEFPOINTS
 62
     0
 48
50.0
100
AcDbPoint
 10
5314.896575107013
 20
9371.933683184627
 30
0.0
  0
POINT
  5
232A2
330
14616
100
AcDbEntity
  8
DEFPOINTS
 62
     0
 48
50.0
100
AcDbPoint
 10
7414.896575107015
 20
9371.933683184723
 30
0.0
  0
POINT
  5
232A3
330
14616
100
AcDbEntity
  8
DEFPOINTS
 62
     0
 48
50.0
100
AcDbPoint
 10
7414.896575107015
 20
9587.741902809609
 30
0.0
  0
ENDBLK
  5
14B6E
330
14616
100
AcDbEntity
  8
0
 48
50.0
100
AcDbBlockEnd
  0
BLOCK
  5
14D64
330
14D63
100
AcDbEntity
  8
0
 48
50.0
100
AcDbBlockBegin
  2
*D12
 70
     1
 10
0.0
 20
0.0
 30
0.0
  3
*D12
  1

  0
LINE
  5
23292
330
14D63
100
AcDbEntity
  8
寸法
 62
     0
 48
50.0
370
    -2
100
AcDbLine
 10
5283.03759125839
 20
8871.933683184577
 30
0.0
 11
5213.10096837934
 21
8610.926653290173
 31
0.0
  0
LINE
  5
23293
330
14D63
100
AcDbEntity
  8
寸法
 62
     0
 48
50.0
370
    -2
100
AcDbLine
 10
6556.037591258405
 20
8871.933683184622
 30
0.0
 11
6486.100968379341
 21
8610.926653290173
 31
0.0
  0
LINE
  5
23294
330
14D63
100
AcDbEntity
  8
寸法
 62
     0
 48
50.0
370
    -2
100
AcDbLine
 10
5229.177919925206
 20
8670.926653290173
 30
0.0
 11
6502.177919925209
 21
8670.926653290173
 31
0.0
  0
INSERT
  5
23295
330
14D63
100
AcDbEntity
  8
寸法
 62
     0
 48
50.0
370
    -2
100
AcDbBlockReference
  2
_DOTSMALL
 10
5229.177919925206
 20
8670.926653290173
 30
0.0
 41
100.0
 42
100.0
 43
100.0
 50
180.0
  0
INSERT
  5
23296
330
14D63
100
AcDbEntity
  8
寸法
 62
     0
 48
50.0
370
    -2
100
AcDbBlockReference
  2
_DOTSMALL
 10
6502.177919925209
 20
8670.926653290173
 30
0.0
 41
100.0
 42
100.0
 43
100.0
  0
MTEXT
  5
23297
330
14D63
100
AcDbEntity
  8
寸法
 62
     7
 48
50.0
100
AcDbMText
 10
5765.319254562271
 20
8770.938464313795
 30
0.0
 40
120.0
 41
0.0
 71
     5
 72
     1
  1
\A1;1273
  7
STYLE1
 73
     1
 44
1.0
1001
ACAD
1000
MTEXTBEGIN
1070
    73
1070
     1
1070
    44
1040
1.0
1070
    74
1070
     0
1000
MTEXTEND
  0
POINT
  5
23298
330
14D63
100
AcDbEntity
  8
DEFPOINTS
 62
     0
 48
50.0
100
AcDbPoint
 10
5288.396575107013
 20
8891.933683184575
 30
0.0
  0
POINT
  5
23299
330
14D63
100
AcDbEntity
  8
DEFPOINTS
 62
     0
 48
50.0
100
AcDbPoint
 10
6561.396575107027
 20
8891.933683184621
 30
0.0
  0
POINT
  5
2329A
330
14D63
100
AcDbEntity
  8
DEFPOINTS
 62
     0
 48
50.0
100
AcDbPoint
 10
6502.177919925209
 20
8670.926653290173
 30
0.0
  0
ENDBLK
  5
14D6E
330
14D63
100
AcDbEntity
  8
0
 48
50.0
100
AcDbBlockEnd
  0
BLOCK
  5
2310C
330
23102
100
AcDbEntity
  8
0
 48
50.0
100
AcDbBlockBegin
  2
*D13
 70
     1
 10
0.0
 20
0.0
 30
0.0
  3
*D13
  1

  0
LINE
  5
2388D
330
23102
100
AcDbEntity
  8
寸法
 62
     0
 48
50.0
370
    -2
100
AcDbLine
 10
9558.193956914491
 20
2729.999999999998
 30
0.0
 11
9558.193956914491
 21
2402.627557308341
 31
0.0
  0
LINE
  5
2388E
330
23102
100
AcDbEntity
  8
寸法
 62
     0
 48
50.0
370
    -2
100
AcDbLine
 10
9308.193956914495
 20
2729.999999999998
 30
0.0
 11
9308.193956914495
 21
2402.627557308341
 31
0.0
  0
LINE
  5
2388F
330
23102
100
AcDbEntity
  8
寸法
 62
     0
 48
50.0
370
    -2
100
AcDbLine
 10
9558.193956914491
 20
2462.627557308341
 30
0.0
 11
9308.193956914495
 21
2462.627557308341
 31
0.0
  0
INSERT
  5
23890
330
23102
100
AcDbEntity
  8
寸法
 62
     0
 48
50.0
370
    -2
100
AcDbBlockReference
  2
_DOTSMALL
 10
9558.193956914491
 20
2462.627557308341
 30
0.0
 41
100.0
 42
100.0
 43
100.0
  0
INSERT
  5
23891
330
23102
100
AcDbEntity
  8
寸法
 62
     0
 48
50.0
370
    -2
100
AcDbBlockReference
  2
_DOTSMALL
 10
9308.193956914495
 20
2462.627557308341
 30
0.0
 41
100.0
 42
100.0
 43
100.0
 50
180.0
  0
MTEXT
  5
23892
330
23102
100
AcDbEntity
  8
寸法
 62
     7
 48
50.0
100
AcDbMText
 10
9433.193956914491
 20
2562.639368331963
 30
0.0
 40
120.0
 41
0.0
 71
     5
 72
     1
  1
\A1;250
  7
STYLE1
 73
     1
 44
1.0
1001
ACAD
1000
MTEXTBEGIN
1070
    73
1070
     1
1070
    44
1040
1.0
1070
    74
1070
     0
1000
MTEXTEND
  0
POINT
  5
23893
330
23102
100
AcDbEntity
  8
DEFPOINTS
 62
     0
 48
50.0
100
AcDbPoint
 10
9558.193956914491
 20
2749.999999999998
 30
0.0
  0
POINT
  5
23894
330
23102
100
AcDbEntity
  8
DEFPOINTS
 62
     0
 48
50.0
100
AcDbPoint
 10
9308.193956914495
 20
2749.999999999998
 30
0.0
  0
POINT
  5
23895
330
23102
100
AcDbEntity
  8
DEFPOINTS
 62
     0
 48
50.0
100
AcDbPoint
 10
9308.193956914495
 20
2462.627557308341
 30
0.0
  0
ENDBLK
  5
2310D
330
23102
100
AcDbEntity
  8
0
 48
50.0
100
AcDbBlockEnd
  0
BLOCK
  5
23118
330
2310E
100
AcDbEntity
  8
0
 48
50.0
100
AcDbBlockBegin
  2
*D14
 70
     1
 10
0.0
 20
0.0
 30
0.0
  3
*D14
  1

  0
LINE
  5
23896
330
2310E
100
AcDbEntity
  8
寸法
 62
     0
 48
50.0
370
    -2
100
AcDbLine
 10
9288.193956914495
 20
2749.999999999998
 30
0.0
 11
9098.69395366786
 21
2749.999999999998
 31
0.0
  0
LINE
  5
23897
330
2310E
100
AcDbEntity
  8
寸法
 62
     0
 48
50.0
370
    -2
100
AcDbLine
 10
9288.193956914495
 20
3000.0
 30
0.0
 11
9098.69395366786
 21
3000.0
 31
0.0
  0
LINE
  5
23898
330
2310E
100
AcDbEntity
  8
寸法
 62
     0
 48
50.0
370
    -2
100
AcDbLine
 10
9158.693953667858
 20
2749.999999999998
 30
0.0
 11
9158.693953667858
 21
3000.0
 31
0.0
  0
INSERT
  5
23899
330
2310E
100
AcDbEntity
  8
寸法
 62
     0
 48
50.0
370
    -2
100
AcDbBlockReference
  2
_DOTSMALL
 10
9158.693953667858
 20
2749.999999999998
 30
0.0
 41
100.0
 42
100.0
 43
100.0
 50
270.0
  0
INSERT
  5
2389A
330
2310E
100
AcDbEntity
  8
寸法
 62
     0
 48
50.0
370
    -2
100
AcDbBlockReference
  2
_DOTSMALL
 10
9158.693953667858
 20
3000.0
 30
0.0
 41
100.0
 42
100.0
 43
100.0
 50
90.0
  0
MTEXT
  5
2389B
330
2310E
100
AcDbEntity
  8
寸法
 62
     7
 48
50.0
100
AcDbMText
 10
9058.682142644236
 20
2875.0
 30
0.0
 40
120.0
 41
0.0
 71
     5
 72
     1
  1
\A1;250
  7
STYLE1
 11
0.0000000000000001
 21
1.0
 31
0.0
 73
     1
 44
1.0
1001
ACAD
1000
MTEXTBEGIN
1070
    73
1070
     1
1070
    44
1040
1.0
1070
    74
1070
     0
1000
MTEXTEND
  0
POINT
  5
2389C
330
2310E
100
AcDbEntity
  8
DEFPOINTS
 62
     0
 48
50.0
100
AcDbPoint
 10
9308.193956914495
 20
2749.999999999998
 30
0.0
  0
POINT
  5
2389D
330
2310E
100
AcDbEntity
  8
DEFPOINTS
 62
     0
 48
50.0
100
AcDbPoint
 10
9308.193956914495
 20
3000.0
 30
0.0
  0
POINT
  5
2389E
330
2310E
100
AcDbEntity
  8
DEFPOINTS
 62
     0
 48
50.0
100
AcDbPoint
 10
9158.693953667858
 20
3000.0
 30
0.0
  0
ENDBLK
  5
23119
330
2310E
100
AcDbEntity
  8
0
 48
50.0
100
AcDbBlockEnd
  0
BLOCK
  5
23131
330
23126
100
AcDbEntity
  8
0
 48
50.0
100
AcDbBlockBegin
  2
*D15
 70
     1
 10
0.0
 20
0.0
 30
0.0
  3
*D15
  1

  0
LINE
  5
23367
330
23126
100
AcDbEntity
  8
寸法
 62
     0
 48
50.0
370
    -2
100
AcDbLine
 10
9345.098243205594
 20
5474.297707069661
 30
0.0
 11
8729.163804100329
 21
5492.011857343982
 31
0.0
  0
LINE
  5
23368
330
23126
100
AcDbEntity
  8
寸法
 62
     0
 48
50.0
370
    -2
100
AcDbLine
 10
9341.044787648968
 20
5333.355983303947
 30
0.0
 11
8725.110348543706
 21
5351.070133578269
 31
0.0
  0
LINE
  5
23369
330
23126
100
AcDbEntity
  8
寸法
 62
     0
 48
50.0
370
    -2
100
AcDbLine
 10
8785.085550146135
 20
5349.345258873322
 30
0.0
 11
8789.139005702761
 21
5490.286982639035
 31
0.0
  0
LINE
  5
2336A
330
23126
100
AcDbEntity
  8
寸法
 62
     0
 48
50.0
370
    -2
100
AcDbLine
 10
8789.139005702761
 20
5490.286982639035
 30
0.0
 11
8799.488253932439
 21
5850.138192253622
 31
0.0
  0
INSERT
  5
2336B
330
23126
100
AcDbEntity
  8
寸法
 62
     0
 48
50.0
370
    -2
100
AcDbBlockReference
  2
_DOTSMALL
 10
8785.085550146135
 20
5349.345258873322
 30
0.0
 41
100.0
 42
100.0
 43
100.0
 50
268.3526390256385
  0
INSERT
  5
2336C
330
23126
100
AcDbEntity
  8
寸法
 62
     0
 48
50.0
370
    -2
100
AcDbBlockReference
  2
_DOTSMALL
 10
8789.139005702761
 20
5490.286982639035
 30
0.0
 41
100.0
 42
100.0
 43
100.0
 50
88.35263902563855
  0
MTEXT
  5
2336D
330
23126
100
AcDbEntity
  8
寸法
 62
     7
 48
50.0
100
AcDbMText
 10
8695.79235606767
 20
5723.066713289933
 30
0.0
 40
120.0
 41
0.0
 71
     5
 72
     1
  1
\A1;141
  7
STYLE1
 11
0.0287479117491103
 21
0.999586693373849
 31
0.0
 73
     1
 44
1.0
1001
ACAD
1000
MTEXTBEGIN
1070
    73
1070
     1
1070
    44
1040
1.0
1070
    74
1070
     0
1000
MTEXTEND
  0
POINT
  5
2336E
330
23126
100
AcDbEntity
  8
DEFPOINTS
 62
     0
 48
50.0
100
AcDbPoint
 10
9365.089977073072
 20
5473.722748834679
 30
0.0
  0
POINT
  5
2336F
330
23126
100
AcDbEntity
  8
DEFPOINTS
 62
     0
 48
50.0
100
AcDbPoint
 10
9361.036521516448
 20
5332.781025068965
 30
0.0
  0
POINT
  5
23370
330
23126
100
AcDbEntity
  8
DEFPOINTS
 62
     0
 48
50.0
100
AcDbPoint
 10
8785.085550146135
 20
5349.345258873322
 30
0.0
  0
ENDBLK
  5
23132
330
23126
100
AcDbEntity
  8
0
 48
50.0
100
AcDbBlockEnd
  0
BLOCK
  5
2313E
330
23133
100
AcDbEntity
  8
0
 48
50.0
100
AcDbBlockBegin
  2
*D16
 70
     1
 10
0.0
 20
0.0
 30
0.0
  3
*D16
  1

  0
LINE
  5
2335D
330
23133
100
AcDbEntity
  8
寸法
 62
     0
 48
50.0
370
    -2
100
AcDbLine
 10
11195.69395691449
 20
5441.810679611654
 30
0.0
 11
11195.69395691449
 21
5933.657453579304
 31
0.0
  0
LINE
  5
2335E
330
23133
100
AcDbEntity
  8
寸法
 62
     0
 48
50.0
370
    -2
100
AcDbLine
 10
11275.69395691449
 20
5440.000000000001
 30
0.0
 11
11275.69395691449
 21
5933.657453579304
 31
0.0
  0
LINE
  5
2335F
330
23133
100
AcDbEntity
  8
寸法
 62
     0
 48
50.0
370
    -2
100
AcDbLine
 10
11195.69395691449
 20
5873.657453579305
 30
0.0
 11
11275.69395691449
 21
5873.657453579305
 31
0.0
  0
LINE
  5
23360
330
23133
100
AcDbEntity
  8
寸法
 62
     0
 48
50.0
370
    -2
100
AcDbLine
 10
11275.69395691449
 20
5873.657453579305
 30
0.0
 11
11587.78844510347
 21
5873.657453579305
 31
0.0
  0
INSERT
  5
23361
330
23133
100
AcDbEntity
  8
寸法
 62
     0
 48
50.0
370
    -2
100
AcDbBlockReference
  2
_DOTSMALL
 10
11195.69395691449
 20
5873.657453579305
 30
0.0
 41
100.0
 42
100.0
 43
100.0
 50
180.0
  0
INSERT
  5
23362
330
23133
100
AcDbEntity
  8
寸法
 62
     0
 48
50.0
370
    -2
100
AcDbBlockReference
  2
_DOTSMALL
 10
11275.69395691449
 20
5873.657453579305
 30
0.0
 41
100.0
 42
100.0
 43
100.0
  0
MTEXT
  5
23363
330
23133
100
AcDbEntity
  8
寸法
 62
     7
 48
50.0
100
AcDbMText
 10
11481.74120100898
 20
5973.657453579304
 30
0.0
 40
120.0
 41
0.0
 71
     5
 72
     1
  1
\A1;80
  7
STYLE1
 73
     1
 44
1.0
1001
ACAD
1000
MTEXTBEGIN
1070
    73
1070
     1
1070
    44
1040
1.0
1070
    74
1070
     0
1000
MTEXTEND
  0
POINT
  5
23364
330
23133
100
AcDbEntity
  8
DEFPOINTS
 62
     0
 48
50.0
100
AcDbPoint
 10
11195.69395691449
 20
5421.810679611653
 30
0.0
  0
POINT
  5
23365
330
23133
100
AcDbEntity
  8
DEFPOINTS
 62
     0
 48
50.0
100
AcDbPoint
 10
11275.69395691449
 20
5420.000000000001
 30
0.0
  0
POINT
  5
23366
330
23133
100
AcDbEntity
  8
DEFPOINTS
 62
     0
 48
50.0
100
AcDbPoint
 10
11275.69395691449
 20
5873.657453579305
 30
0.0
  0
ENDBLK
  5
2313F
330
23133
100
AcDbEntity
  8
0
 48
50.0
100
AcDbBlockEnd
  0
BLOCK
  5
2317E
330
23174
100
AcDbEntity
  8
0
 48
50.0
100
AcDbBlockBegin
  2
*D17
 70
     1
 10
0.0
 20
0.0
 30
0.0
  3
*D17
  1

  0
LINE
  5
23354
330
23174
100
AcDbEntity
  8
寸法
 62
     0
 48
50.0
370
    -2
100
AcDbLine
 10
11275.69395691449
 20
5440.000000000001
 30
0.0
 11
11275.69395691449
 21
6150.619268957918
 31
0.0
  0
LINE
  5
23355
330
23174
100
AcDbEntity
  8
寸法
 62
     0
 48
50.0
370
    -2
100
AcDbLine
 10
9345.693956914495
 20
5495.000000000004
 30
0.0
 11
9345.693956914495
 21
6150.619268957918
 31
0.0
  0
LINE
  5
23356
330
23174
100
AcDbEntity
  8
寸法
 62
     0
 48
50.0
370
    -2
100
AcDbLine
 10
11275.69395691449
 20
6090.619268957919
 30
0.0
 11
9345.693956914495
 21
6090.619268957919
 31
0.0
  0
INSERT
  5
23357
330
23174
100
AcDbEntity
  8
寸法
 62
     0
 48
50.0
370
    -2
100
AcDbBlockReference
  2
_DOTSMALL
 10
11275.69395691449
 20
6090.619268957919
 30
0.0
 41
100.0
 42
100.0
 43
100.0
  0
INSERT
  5
23358
330
23174
100
AcDbEntity
  8
寸法
 62
     0
 48
50.0
370
    -2
100
AcDbBlockReference
  2
_DOTSMALL
 10
9345.693956914495
 20
6090.619268957919
 30
0.0
 41
100.0
 42
100.0
 43
100.0
 50
180.0
  0
MTEXT
  5
23359
330
23174
100
AcDbEntity
  8
寸法
 62
     7
 48
50.0
100
AcDbMText
 10
10251.49970816546
 20
6190.619268957918
 30
0.0
 40
120.0
 41
0.0
 71
     5
 72
     1
  1
\A1;1930
  7
STYLE1
 73
     1
 44
1.0
1001
ACAD
1000
MTEXTBEGIN
1070
    73
1070
     1
1070
    44
1040
1.0
1070
    74
1070
     0
1000
MTEXTEND
  0
POINT
  5
2335A
330
23174
100
AcDbEntity
  8
DEFPOINTS
 62
     0
 48
50.0
100
AcDbPoint
 10
11275.69395691449
 20
5420.000000000001
 30
0.0
  0
POINT
  5
2335B
330
23174
100
AcDbEntity
  8
DEFPOINTS
 62
     0
 48
50.0
100
AcDbPoint
 10
9345.693956914495
 20
5475.000000000004
 30
0.0
  0
POINT
  5
2335C
330
23174
100
AcDbEntity
  8
DEFPOINTS
 62
     0
 48
50.0
100
AcDbPoint
 10
9345.693956914495
 20
6090.619268957919
 30
0.0
  0
ENDBLK
  5
2317F
330
23174
100
AcDbEntity
  8
0
 48
50.0
100
AcDbBlockEnd
  0
BLOCK
  5
2318C
330
23180
100
AcDbEntity
  8
0
 48
50.0
100
AcDbBlockBegin
  2
*D18
 70
     1
 10
0.0
 20
0.0
 30
0.0
  3
*D18
  1

  0
LINE
  5
23349
330
23180
100
AcDbEntity
  8
寸法
 62
     0
 48
50.0
370
    -2
100
AcDbLine
 10
9405.693956914495
 20
5491.001618122976
 30
0.0
 11
9405.693956914495
 21
5933.657453579304
 31
0.0
  0
LINE
  5
2334A
330
23180
100
AcDbEntity
  8
寸法
 62
     0
 48
50.0
370
    -2
100
AcDbLine
 10
9345.693956914495
 20
5495.000000000004
 30
0.0
 11
9345.693956914495
 21
5933.657453579304
 31
0.0
  0
LINE
  5
2334B
330
23180
100
AcDbEntity
  8
寸法
 62
     0
 48
50.0
370
    -2
100
AcDbLine
 10
9405.693956914495
 20
5873.657453579305
 30
0.0
 11
9505.693956914495
 21
5873.657453579305
 31
0.0
  0
LINE
  5
2334C
330
23180
100
AcDbEntity
  8
寸法
 62
     0
 48
50.0
370
    -2
100
AcDbLine
 10
9345.693956914495
 20
5873.657453579305
 30
0.0
 11
8926.418366363314
 21
5873.657453579305
 31
0.0
  0
LINE
  5
2334D
330
23180
100
AcDbEntity
  8
寸法
 62
     0
 48
50.0
370
    -2
100
AcDbLine
 10
9405.693956914495
 20
5873.657453579305
 30
0.0
 11
9345.693956914495
 21
5873.657453579305
 31
0.0
  0
INSERT
  5
2334E
330
23180
100
AcDbEntity
  8
寸法
 62
     0
 48
50.0
370
    -2
100
AcDbBlockReference
  2
_DOTSMALL
 10
9405.693956914495
 20
5873.657453579305
 30
0.0
 41
100.0
 42
100.0
 43
100.0
 50
180.0
  0
INSERT
  5
2334F
330
23180
100
AcDbEntity
  8
寸法
 62
     0
 48
50.0
370
    -2
100
AcDbBlockReference
  2
_DOTSMALL
 10
9345.693956914495
 20
5873.657453579305
 30
0.0
 41
100.0
 42
100.0
 43
100.0
  0
MTEXT
  5
23350
330
23180
100
AcDbEntity
  8
寸法
 62
     7
 48
50.0
100
AcDbMText
 10
9036.056161638905
 20
5973.657453579304
 30
0.0
 40
120.0
 41
0.0
 71
     5
 72
     1
  1
\A1;60
  7
STYLE1
 73
     1
 44
1.0
1001
ACAD
1000
MTEXTBEGIN
1070
    73
1070
     1
1070
    44
1040
1.0
1070
    74
1070
     0
1000
MTEXTEND
  0
POINT
  5
23351
330
23180
100
AcDbEntity
  8
DEFPOINTS
 62
     0
 48
50.0
100
AcDbPoint
 10
9405.693956914495
 20
5471.001618122977
 30
0.0
  0
POINT
  5
23352
330
23180
100
AcDbEntity
  8
DEFPOINTS
 62
     0
 48
50.0
100
AcDbPoint
 10
9345.693956914495
 20
5475.000000000004
 30
0.0
  0
POINT
  5
23353
330
23180
100
AcDbEntity
  8
DEFPOINTS
 62
     0
 48
50.0
100
AcDbPoint
 10
9345.693956914495
 20
5873.657453579305
 30
0.0
  0
ENDBLK
  5
2318D
330
23180
100
AcDbEntity
  8
0
 48
50.0
100
AcDbBlockEnd
  0
BLOCK
  5
23198
330
2318E
100
AcDbEntity
  8
0
 48
50.0
100
AcDbBlockBegin
  2
*D19
 70
     1
 10
0.0
 20
0.0
 30
0.0
  3
*D19
  1

  0
LINE
  5
23340
330
2318E
100
AcDbEntity
  8
寸法
 62
     0
 48
50.0
370
    -2
100
AcDbLine
 10
11195.69395691449
 20
5441.810679611654
 30
0.0
 11
11195.69395691449
 21
5934.093169339473
 31
0.0
  0
LINE
  5
23341
330
2318E
100
AcDbEntity
  8
寸法
 62
     0
 48
50.0
370
    -2
100
AcDbLine
 10
9405.693956914495
 20
5491.001618122976
 30
0.0
 11
9405.693956914495
 21
5934.093169339473
 31
0.0
  0
LINE
  5
23342
330
2318E
100
AcDbEntity
  8
寸法
 62
     0
 48
50.0
370
    -2
100
AcDbLine
 10
11195.69395691449
 20
5874.093169339474
 30
0.0
 11
9405.693956914495
 21
5874.093169339474
 31
0.0
  0
INSERT
  5
23343
330
2318E
100
AcDbEntity
  8
寸法
 62
     0
 48
50.0
370
    -2
100
AcDbBlockReference
  2
_DOTSMALL
 10
11195.69395691449
 20
5874.093169339474
 30
0.0
 41
100.0
 42
100.0
 43
100.0
  0
INSERT
  5
23344
330
2318E
100
AcDbEntity
  8
寸法
 62
     0
 48
50.0
370
    -2
100
AcDbBlockReference
  2
_DOTSMALL
 10
9405.693956914495
 20
5874.093169339474
 30
0.0
 41
100.0
 42
100.0
 43
100.0
 50
180.0
  0
MTEXT
  5
23345
330
2318E
100
AcDbEntity
  8
寸法
 62
     7
 48
50.0
100
AcDbMText
 10
10315.28960559097
 20
5974.093169339473
 30
0.0
 40
120.0
 41
0.0
 71
     5
 72
     1
  1
\A1;柱外寸法1790
  7
STYLE1
 73
     1
 44
1.0
1001
ACAD
1000
MTEXTBEGIN
1070
    73
1070
     1
1070
    44
1040
1.0
1070
    74
1070
     0
1000
MTEXTEND
  0
POINT
  5
23346
330
2318E
100
AcDbEntity
  8
DEFPOINTS
 62
     0
 48
50.0
100
AcDbPoint
 10
11195.69395691449
 20
5421.810679611653
 30
0.0
  0
POINT
  5
23347
330
2318E
100
AcDbEntity
  8
DEFPOINTS
 62
     0
 48
50.0
100
AcDbPoint
 10
9405.693956914495
 20
5471.001618122977
 30
0.0
  0
POINT
  5
23348
330
2318E
100
AcDbEntity
  8
DEFPOINTS
 62
     0
 48
50.0
100
AcDbPoint
 10
9405.693956914495
 20
5874.093169339474
 30
0.0
  0
ENDBLK
  5
23199
330
2318E
100
AcDbEntity
  8
0
 48
50.0
100
AcDbBlockEnd
  0
BLOCK
  5
231A4
330
2319A
100
AcDbEntity
  8
0
 48
50.0
100
AcDbBlockBegin
  2
*D20
 70
     1
 10
0.0
 20
0.0
 30
0.0
  3
*D20
  1

  0
LINE
  5
23337
330
2319A
100
AcDbEntity
  8
寸法
 62
     0
 48
50.0
370
    -2
100
AcDbLine
 10
11215.69395691449
 20
3100.0
 30
0.0
 11
11960.62111488662
 21
3100.0
 31
0.0
  0
LINE
  5
23338
330
2319A
100
AcDbEntity
  8
寸法
 62
     0
 48
50.0
370
    -2
100
AcDbLine
 10
11295.69395691449
 20
5420.000000000001
 30
0.0
 11
11960.62111488662
 21
5420.000000000001
 31
0.0
  0
LINE
  5
23339
330
2319A
100
AcDbEntity
  8
寸法
 62
     0
 48
50.0
370
    -2
100
AcDbLine
 10
11900.62111488662
 20
3100.0
 30
0.0
 11
11900.62111488662
 21
5420.000000000001
 31
0.0
  0
INSERT
  5
2333A
330
2319A
100
AcDbEntity
  8
寸法
 62
     0
 48
50.0
370
    -2
100
AcDbBlockReference
  2
_DOTSMALL
 10
11900.62111488662
 20
3100.0
 30
0.0
 41
100.0
 42
100.0
 43
100.0
 50
270.0
  0
INSERT
  5
2333B
330
2319A
100
AcDbEntity
  8
寸法
 62
     0
 48
50.0
370
    -2
100
AcDbBlockReference
  2
_DOTSMALL
 10
11900.62111488662
 20
5420.000000000001
 30
0.0
 41
100.0
 42
100.0
 43
100.0
 50
90.0
  0
MTEXT
  5
2333C
330
2319A
100
AcDbEntity
  8
寸法
 62
     7
 48
50.0
100
AcDbMText
 10
11800.609303863
 20
4260.000000000001
 30
0.0
 40
120.0
 41
0.0
 71
     5
 72
     1
  1
\A1;2320
  7
STYLE1
 11
0.0000000000000001
 21
1.0
 31
0.0
 73
     1
 44
1.0
1001
ACAD
1000
MTEXTBEGIN
1070
    73
1070
     1
1070
    44
1040
1.0
1070
    74
1070
     0
1000
MTEXTEND
  0
POINT
  5
2333D
330
2319A
100
AcDbEntity
  8
DEFPOINTS
 62
     0
 48
50.0
100
AcDbPoint
 10
11195.69395691449
 20
3100.0
 30
0.0
  0
POINT
  5
2333E
330
2319A
100
AcDbEntity
  8
DEFPOINTS
 62
     0
 48
50.0
100
AcDbPoint
 10
11275.69395691449
 20
5420.000000000001
 30
0.0
  0
POINT
  5
2333F
330
2319A
100
AcDbEntity
  8
DEFPOINTS
 62
     0
 48
50.0
100
AcDbPoint
 10
11900.62111488662
 20
5420.000000000001
 30
0.0
  0
ENDBLK
  5
231A5
330
2319A
100
AcDbEntity
  8
0
 48
50.0
100
AcDbBlockEnd
  0
BLOCK
  5
231B2
330
231A6
100
AcDbEntity
  8
0
 48
50.0
100
AcDbBlockBegin
  2
*D21
 70
     1
 10
0.0
 20
0.0
 30
0.0
  3
*D21
  1

  0
LINE
  5
2332C
330
231A6
100
AcDbEntity
  8
寸法
 62
     0
 48
50.0
370
    -2
100
AcDbLine
 10
9385.693956914492
 20
3150.0
 30
0.0
 11
8501.943827731233
 21
3150.0
 31
0.0
  0
LINE
  5
2332D
330
231A6
100
AcDbEntity
  8
寸法
 62
     0
 48
50.0
370
    -2
100
AcDbLine
 10
9330.693956914492
 20
3100.0
 30
0.0
 11
8501.943827731233
 21
3100.0
 31
0.0
  0
LINE
  5
2332E
330
231A6
100
AcDbEntity
  8
寸法
 62
     0
 48
50.0
370
    -2
100
AcDbLine
 10
8561.943827731232
 20
3150.0
 30
0.0
 11
8561.943827731232
 21
3250.000000000001
 31
0.0
  0
LINE
  5
2332F
330
231A6
100
AcDbEntity
  8
寸法
 62
     0
 48
50.0
370
    -2
100
AcDbLine
 10
8561.943827731232
 20
3100.0
 30
0.0
 11
8561.943827731232
 21
2687.905511811023
 31
0.0
  0
LINE
  5
23330
330
231A6
100
AcDbEntity
  8
寸法
 62
     0
 48
50.0
370
    -2
100
AcDbLine
 10
8561.943827731232
 20
3150.0
 30
0.0
 11
8561.943827731232
 21
3100.0
 31
0.0
  0
INSERT
  5
23331
330
231A6
100
AcDbEntity
  8
寸法
 62
     0
 48
50.0
370
    -2
100
AcDbBlockReference
  2
_DOTSMALL
 10
8561.943827731232
 20
3150.0
 30
0.0
 41
100.0
 42
100.0
 43
100.0
 50
270.0
  0
INSERT
  5
23332
330
231A6
100
AcDbEntity
  8
寸法
 62
     0
 48
50.0
370
    -2
100
AcDbBlockReference
  2
_DOTSMALL
 10
8561.943827731232
 20
3100.0
 30
0.0
 41
100.0
 42
100.0
 43
100.0
 50
90.0
  0
MTEXT
  5
23333
330
231A6
100
AcDbEntity
  8
寸法
 62
     7
 48
50.0
100
AcDbMText
 10
8461.943827731232
 20
2793.952755905512
 30
0.0
 40
120.0
 41
0.0
 71
     5
 72
     1
  1
\A1;50
  7
STYLE1
 11
0.0000000000000001
 21
1.0
 31
0.0
 73
     1
 44
1.0
1001
ACAD
1000
MTEXTBEGIN
1070
    73
1070
     1
1070
    44
1040
1.0
1070
    74
1070
     0
1000
MTEXTEND
  0
POINT
  5
23334
330
231A6
100
AcDbEntity
  8
DEFPOINTS
 62
     0
 48
50.0
100
AcDbPoint
 10
9405.693956914493
 20
3150.0
 30
0.0
  0
POINT
  5
23335
330
231A6
100
AcDbEntity
  8
DEFPOINTS
 62
     0
 48
50.0
100
AcDbPoint
 10
9350.693956914494
 20
3100.0
 30
0.0
  0
POINT
  5
23336
330
231A6
100
AcDbEntity
  8
DEFPOINTS
 62
     0
 48
50.0
100
AcDbPoint
 10
8561.943827731232
 20
3100.0
 30
0.0
  0
ENDBLK
  5
231B3
330
231A6
100
AcDbEntity
  8
0
 48
50.0
100
AcDbBlockEnd
  0
BLOCK
  5
231BF
330
231B4
100
AcDbEntity
  8
0
 48
50.0
100
AcDbBlockBegin
  2
*D22
 70
     1
 10
0.0
 20
0.0
 30
0.0
  3
*D22
  1

  0
LINE
  5
23322
330
231B4
100
AcDbEntity
  8
寸法
 62
     0
 48
50.0
370
    -2
100
AcDbLine
 10
9330.693956914492
 20
3100.0
 30
0.0
 11
8201.943827731232
 21
3100.0
 31
0.0
  0
LINE
  5
23323
330
231B4
100
AcDbEntity
  8
寸法
 62
     0
 48
50.0
370
    -2
100
AcDbLine
 10
8329.192881019361
 20
3000.0
 30
0.0
 11
8201.943827731232
 21
3000.0
 31
0.0
  0
LINE
  5
23324
330
231B4
100
AcDbEntity
  8
寸法
 62
     0
 48
50.0
370
    -2
100
AcDbLine
 10
8261.943827731233
 20
3100.0
 30
0.0
 11
8261.943827731233
 21
3000.0
 31
0.0
  0
LINE
  5
23325
330
231B4
100
AcDbEntity
  8
寸法
 62
     0
 48
50.0
370
    -2
100
AcDbLine
 10
8261.943827731233
 20
3000.0
 30
0.0
 11
8261.943827731233
 21
2627.905511811022
 31
0.0
  0
INSERT
  5
23326
330
231B4
100
AcDbEntity
  8
寸法
 62
     0
 48
50.0
370
    -2
100
AcDbBlockReference
  2
_DOTSMALL
 10
8261.943827731233
 20
3100.0
 30
0.0
 41
100.0
 42
100.0
 43
100.0
 50
90.0
  0
INSERT
  5
23327
330
231B4
100
AcDbEntity
  8
寸法
 62
     0
 48
50.0
370
    -2
100
AcDbBlockReference
  2
_DOTSMALL
 10
8261.943827731233
 20
3000.0
 30
0.0
 41
100.0
 42
100.0
 43
100.0
 50
270.0
  0
MTEXT
  5
23328
330
231B4
100
AcDbEntity
  8
寸法
 62
     7
 48
50.0
100
AcDbMText
 10
8161.943827731233
 20
2763.952755905512
 30
0.0
 40
120.0
 41
0.0
 71
     5
 72
     1
  1
\A1;100
  7
STYLE1
 11
0.0000000000000001
 21
1.0
 31
0.0
 73
     1
 44
1.0
1001
ACAD
1000
MTEXTBEGIN
1070
    73
1070
     1
1070
    44
1040
1.0
1070
    74
1070
     0
1000
MTEXTEND
  0
POINT
  5
23329
330
231B4
100
AcDbEntity
  8
DEFPOINTS
 62
     0
 48
50.0
100
AcDbPoint
 10
9350.693956914494
 20
3100.0
 30
0.0
  0
POINT
  5
2332A
330
231B4
100
AcDbEntity
  8
DEFPOINTS
 62
     0
 48
50.0
100
AcDbPoint
 10
8349.19288101936
 20
3000.0
 30
0.0
  0
POINT
  5
2332B
330
231B4
100
AcDbEntity
  8
DEFPOINTS
 62
     0
 48
50.0
100
AcDbPoint
 10
8261.943827731233
 20
3000.0
 30
0.0
  0
ENDBLK
  5
231C0
330
231B4
100
AcDbEntity
  8
0
 48
50.0
100
AcDbBlockEnd
  0
BLOCK
  5
231CB
330
231C1
100
AcDbEntity
  8
0
 48
50.0
100
AcDbBlockBegin
  2
*D23
 70
     1
 10
0.0
 20
0.0
 30
0.0
  3
*D23
  1

  0
LINE
  5
23319
330
231C1
100
AcDbEntity
  8
寸法
 62
     0
 48
50.0
370
    -2
100
AcDbLine
 10
9385.693956914492
 20
3100.0
 30
0.0
 11
8201.943827731232
 21
3100.0
 31
0.0
  0
LINE
  5
2331A
330
231C1
100
AcDbEntity
  8
寸法
 62
     0
 48
50.0
370
    -2
100
AcDbLine
 10
9325.693956914495
 20
5475.000000000004
 30
0.0
 11
8201.943827731232
 21
5475.000000000004
 31
0.0
  0
LINE
  5
2331B
330
231C1
100
AcDbEntity
  8
寸法
 62
     0
 48
50.0
370
    -2
100
AcDbLine
 10
8261.943827731231
 20
3100.0
 30
0.0
 11
8261.943827731233
 21
5475.000000000004
 31
0.0
  0
INSERT
  5
2331C
330
231C1
100
AcDbEntity
  8
寸法
 62
     0
 48
50.0
370
    -2
100
AcDbBlockReference
  2
_DOTSMALL
 10
8261.943827731231
 20
3100.0
 30
0.0
 41
100.0
 42
100.0
 43
100.0
 50
270.0
  0
INSERT
  5
2331D
330
231C1
100
AcDbEntity
  8
寸法
 62
     0
 48
50.0
370
    -2
100
AcDbBlockReference
  2
_DOTSMALL
 10
8261.943827731233
 20
5475.000000000004
 30
0.0
 41
100.0
 42
100.0
 43
100.0
 50
90.0
  0
MTEXT
  5
2331E
330
231C1
100
AcDbEntity
  8
寸法
 62
     7
 48
50.0
100
AcDbMText
 10
8161.932016707609
 20
4287.500000000004
 30
0.0
 40
120.0
 41
0.0
 71
     5
 72
     1
  1
\A1;2375
  7
STYLE1
 11
0.0000000000000001
 21
1.0
 31
0.0
 73
     1
 44
1.0
1001
ACAD
1000
MTEXTBEGIN
1070
    73
1070
     1
1070
    44
1040
1.0
1070
    74
1070
     0
1000
MTEXTEND
  0
POINT
  5
2331F
330
231C1
100
AcDbEntity
  8
DEFPOINTS
 62
     0
 48
50.0
100
AcDbPoint
 10
9405.693956914493
 20
3100.0
 30
0.0
  0
POINT
  5
23320
330
231C1
100
AcDbEntity
  8
DEFPOINTS
 62
     0
 48
50.0
100
AcDbPoint
 10
9345.693956914495
 20
5475.000000000004
 30
0.0
  0
POINT
  5
23321
330
231C1
100
AcDbEntity
  8
DEFPOINTS
 62
     0
 48
50.0
100
AcDbPoint
 10
8261.943827731233
 20
5475.000000000004
 30
0.0
  0
ENDBLK
  5
231CC
330
231C1
100
AcDbEntity
  8
0
 48
50.0
100
AcDbBlockEnd
  0
BLOCK
  5
231D7
330
231CD
100
AcDbEntity
  8
0
 48
50.0
100
AcDbBlockBegin
  2
*D24
 70
     1
 10
0.0
 20
0.0
 30
0.0
  3
*D24
  1

  0
LINE
  5
23310
330
231CD
100
AcDbEntity
  8
寸法
 62
     0
 48
50.0
370
    -2
100
AcDbLine
 10
9385.693956914492
 20
5240.0
 30
0.0
 11
8501.943827731235
 21
5240.0
 31
0.0
  0
LINE
  5
23311
330
231CD
100
AcDbEntity
  8
寸法
 62
     0
 48
50.0
370
    -2
100
AcDbLine
 10
9385.693956914492
 20
3150.0
 30
0.0
 11
8501.943827731233
 21
3150.0
 31
0.0
  0
LINE
  5
23312
330
231CD
100
AcDbEntity
  8
寸法
 62
     0
 48
50.0
370
    -2
100
AcDbLine
 10
8561.943827731235
 20
5240.0
 30
0.0
 11
8561.943827731232
 21
3150.0
 31
0.0
  0
INSERT
  5
23313
330
231CD
100
AcDbEntity
  8
寸法
 62
     0
 48
50.0
370
    -2
100
AcDbBlockReference
  2
_DOTSMALL
 10
8561.943827731235
 20
5240.0
 30
0.0
 41
100.0
 42
100.0
 43
100.0
 50
90.0
  0
INSERT
  5
23314
330
231CD
100
AcDbEntity
  8
寸法
 62
     0
 48
50.0
370
    -2
100
AcDbBlockReference
  2
_DOTSMALL
 10
8561.943827731232
 20
3150.0
 30
0.0
 41
100.0
 42
100.0
 43
100.0
 50
270.0
  0
MTEXT
  5
23315
330
231CD
100
AcDbEntity
  8
寸法
 62
     7
 48
50.0
100
AcDbMText
 10
8461.932016707612
 20
4195.000000000001
 30
0.0
 40
120.0
 41
0.0
 71
     5
 72
     1
  1
\A1;2090
  7
STYLE1
 11
0.0000000000000001
 21
1.0
 31
0.0
 73
     1
 44
1.0
1001
ACAD
1000
MTEXTBEGIN
1070
    73
1070
     1
1070
    44
1040
1.0
1070
    74
1070
     0
1000
MTEXTEND
  0
POINT
  5
23316
330
231CD
100
AcDbEntity
  8
DEFPOINTS
 62
     0
 48
50.0
100
AcDbPoint
 10
9405.693956914493
 20
5240.0
 30
0.0
  0
POINT
  5
23317
330
231CD
100
AcDbEntity
  8
DEFPOINTS
 62
     0
 48
50.0
100
AcDbPoint
 10
9405.693956914493
 20
3150.0
 30
0.0
  0
POINT
  5
23318
330
231CD
100
AcDbEntity
  8
DEFPOINTS
 62
     0
 48
50.0
100
AcDbPoint
 10
8561.943827731232
 20
3150.0
 30
0.0
  0
ENDBLK
  5
231D8
330
231CD
100
AcDbEntity
  8
0
 48
50.0
100
AcDbBlockEnd
  0
BLOCK
  5
231E3
330
231D9
100
AcDbEntity
  8
0
 48
50.0
100
AcDbBlockBegin
  2
*D25
 70
     1
 10
0.0
 20
0.0
 30
0.0
  3
*D25
  1

  0
LINE
  5
23307
330
231D9
100
AcDbEntity
  8
寸法
 62
     0
 48
50.0
370
    -2
100
AcDbLine
 10
9385.693956914492
 20
5232.0
 30
0.0
 11
8800.78531551724
 21
5232.0
 31
0.0
  0
LINE
  5
23308
330
231D9
100
AcDbEntity
  8
寸法
 62
     0
 48
50.0
370
    -2
100
AcDbLine
 10
9385.693956914492
 20
3162.0
 30
0.0
 11
8800.785315517238
 21
3162.000000000001
 31
0.0
  0
LINE
  5
23309
330
231D9
100
AcDbEntity
  8
寸法
 62
     0
 48
50.0
370
    -2
100
AcDbLine
 10
8860.785315517238
 20
5232.0
 30
0.0
 11
8860.785315517238
 21
3162.000000000001
 31
0.0
  0
INSERT
  5
2330A
330
231D9
100
AcDbEntity
  8
寸法
 62
     0
 48
50.0
370
    -2
100
AcDbBlockReference
  2
_DOTSMALL
 10
8860.785315517238
 20
5232.0
 30
0.0
 41
100.0
 42
100.0
 43
100.0
 50
90.0
  0
INSERT
  5
2330B
330
231D9
100
AcDbEntity
  8
寸法
 62
     0
 48
50.0
370
    -2
100
AcDbBlockReference
  2
_DOTSMALL
 10
8860.785315517238
 20
3162.000000000001
 30
0.0
 41
100.0
 42
100.0
 43
100.0
 50
270.0
  0
MTEXT
  5
2330C
330
231D9
100
AcDbEntity
  8
寸法
 62
     7
 48
50.0
100
AcDbMText
 10
8760.773504493617
 20
4197.000000000001
 30
0.0
 40
120.0
 41
0.0
 71
     5
 72
     1
  1
\A1;有効開口部高サ2070
  7
STYLE1
 11
0.0000000000000001
 21
1.0
 31
0.0
 73
     1
 44
1.0
1001
ACAD
1000
MTEXTBEGIN
1070
    73
1070
     1
1070
    44
1040
1.0
1070
    74
1070
     0
1000
MTEXTEND
  0
POINT
  5
2330D
330
231D9
100
AcDbEntity
  8
DEFPOINTS
 62
     0
 48
50.0
100
AcDbPoint
 10
9405.693956914493
 20
5232.0
 30
0.0
  0
POINT
  5
2330E
330
231D9
100
AcDbEntity
  8
DEFPOINTS
 62
     0
 48
50.0
100
AcDbPoint
 10
9405.693956914493
 20
3162.0
 30
0.0
  0
POINT
  5
2330F
330
231D9
100
AcDbEntity
  8
DEFPOINTS
 62
     0
 48
50.0
100
AcDbPoint
 10
8860.785315517238
 20
3162.000000000001
 30
0.0
  0
ENDBLK
  5
231E4
330
231D9
100
AcDbEntity
  8
0
 48
50.0
100
AcDbBlockEnd
  0
BLOCK
  5
236C2
330
236B8
100
AcDbEntity
  8
0
 48
50.0
100
AcDbBlockBegin
  2
*D26
 70
     1
 10
0.0
 20
0.0
 30
0.0
  3
*D26
  1

  0
LINE
  5
23841
330
236B8
100
AcDbEntity
  8
寸法
 62
     0
 48
50.0
370
    -2
100
AcDbLine
 10
7594.896575107007
 20
2729.999999999998
 30
0.0
 11
7594.896575107007
 21
2405.241724923908
 31
0.0
  0
LINE
  5
23842
330
236B8
100
AcDbEntity
  8
寸法
 62
     0
 48
50.0
370
    -2
100
AcDbLine
 10
7344.896575107012
 20
2729.999999999999
 30
0.0
 11
7344.896575107012
 21
2405.241724923908
 31
0.0
  0
LINE
  5
23843
330
236B8
100
AcDbEntity
  8
寸法
 62
     0
 48
50.0
370
    -2
100
AcDbLine
 10
7594.896575107007
 20
2465.241724923908
 30
0.0
 11
7344.896575107012
 21
2465.241724923908
 31
0.0
  0
INSERT
  5
23844
330
236B8
100
AcDbEntity
  8
寸法
 62
     0
 48
50.0
370
    -2
100
AcDbBlockReference
  2
_DOTSMALL
 10
7594.896575107007
 20
2465.241724923908
 30
0.0
 41
100.0
 42
100.0
 43
100.0
  0
INSERT
  5
23845
330
236B8
100
AcDbEntity
  8
寸法
 62
     0
 48
50.0
370
    -2
100
AcDbBlockReference
  2
_DOTSMALL
 10
7344.896575107012
 20
2465.241724923908
 30
0.0
 41
100.0
 42
100.0
 43
100.0
 50
180.0
  0
MTEXT
  5
23846
330
236B8
100
AcDbEntity
  8
寸法
 62
     7
 48
50.0
100
AcDbMText
 10
7469.896575107011
 20
2565.25353594753
 30
0.0
 40
120.0
 41
0.0
 71
     5
 72
     1
  1
\A1;250
  7
STYLE1
 73
     1
 44
1.0
1001
ACAD
1000
MTEXTBEGIN
1070
    73
1070
     1
1070
    44
1040
1.0
1070
    74
1070
     0
1000
MTEXTEND
  0
POINT
  5
23847
330
236B8
100
AcDbEntity
  8
DEFPOINTS
 62
     0
 48
50.0
100
AcDbPoint
 10
7594.896575107007
 20
2749.999999999998
 30
0.0
  0
POINT
  5
23848
330
236B8
100
AcDbEntity
  8
DEFPOINTS
 62
     0
 48
50.0
100
AcDbPoint
 10
7344.896575107012
 20
2750.0
 30
0.0
  0
POINT
  5
23849
330
236B8
100
AcDbEntity
  8
DEFPOINTS
 62
     0
 48
50.0
100
AcDbPoint
 10
7344.896575107012
 20
2465.241724923908
 30
0.0
  0
ENDBLK
  5
236C3
330
236B8
100
AcDbEntity
  8
0
 48
50.0
100
AcDbBlockEnd
  0
BLOCK
  5
236E8
330
236DE
100
AcDbEntity
  8
0
 48
50.0
100
AcDbBlockBegin
  2
*D27
 70
     1
 10
0.0
 20
0.0
 30
0.0
  3
*D27
  1

  0
LINE
  5
23838
330
236DE
100
AcDbEntity
  8
寸法
 62
     0
 48
50.0
370
    -2
100
AcDbLine
 10
7469.896575107011
 20
5495.000000000005
 30
0.0
 11
7469.896575107011
 21
5739.142231267993
 31
0.0
  0
LINE
  5
23839
330
236DE
100
AcDbEntity
  8
寸法
 62
     0
 48
50.0
370
    -2
100
AcDbLine
 10
5259.896575106991
 20
5495.000000000007
 30
0.0
 11
5259.896575106991
 21
5739.142231267993
 31
0.0
  0
LINE
  5
2383A
330
236DE
100
AcDbEntity
  8
寸法
 62
     0
 48
50.0
370
    -2
100
AcDbLine
 10
7469.896575107011
 20
5679.142231267992
 30
0.0
 11
5259.896575106991
 21
5679.142231267992
 31
0.0
  0
INSERT
  5
2383B
330
236DE
100
AcDbEntity
  8
寸法
 62
     0
 48
50.0
370
    -2
100
AcDbBlockReference
  2
_DOTSMALL
 10
7469.896575107011
 20
5679.142231267992
 30
0.0
 41
100.0
 42
100.0
 43
100.0
  0
INSERT
  5
2383C
330
236DE
100
AcDbEntity
  8
寸法
 62
     0
 48
50.0
370
    -2
100
AcDbBlockReference
  2
_DOTSMALL
 10
5259.896575106991
 20
5679.142231267992
 30
0.0
 41
100.0
 42
100.0
 43
100.0
 50
180.0
  0
MTEXT
  5
2383D
330
236DE
100
AcDbEntity
  8
寸法
 62
     7
 48
50.0
100
AcDbMText
 10
6397.940818449586
 20
5779.154042291614
 30
0.0
 40
120.0
 41
0.0
 71
     5
 72
     1
  1
\A1;柱外寸法2210
  7
STYLE1
 73
     1
 44
1.0
1001
ACAD
1000
MTEXTBEGIN
1070
    73
1070
     1
1070
    44
1040
1.0
1070
    74
1070
     0
1000
MTEXTEND
  0
POINT
  5
2383E
330
236DE
100
AcDbEntity
  8
DEFPOINTS
 62
     0
 48
50.0
100
AcDbPoint
 10
7469.896575107011
 20
5475.000000000005
 30
0.0
  0
POINT
  5
2383F
330
236DE
100
AcDbEntity
  8
DEFPOINTS
 62
     0
 48
50.0
100
AcDbPoint
 10
5259.896575106991
 20
5475.000000000006
 30
0.0
  0
POINT
  5
23840
330
236DE
100
AcDbEntity
  8
DEFPOINTS
 62
     0
 48
50.0
100
AcDbPoint
 10
5259.896575106991
 20
5679.142231267992
 30
0.0
  0
ENDBLK
  5
236E9
330
236DE
100
AcDbEntity
  8
0
 48
50.0
100
AcDbBlockEnd
  0
BLOCK
  5
236F6
330
236EA
100
AcDbEntity
  8
0
 48
50.0
100
AcDbBlockBegin
  2
*D28
 70
     1
 10
0.0
 20
0.0
 30
0.0
  3
*D28
  1

  0
LINE
  5
2382D
330
236EA
100
AcDbEntity
  8
寸法
 62
     0
 48
50.0
370
    -2
100
AcDbLine
 10
5259.896575106991
 20
5495.000000000007
 30
0.0
 11
5259.896575106991
 21
5739.620259427272
 31
0.0
  0
LINE
  5
2382E
330
236EA
100
AcDbEntity
  8
寸法
 62
     0
 48
50.0
370
    -2
100
AcDbLine
 10
5209.896575106991
 20
5495.000000000005
 30
0.0
 11
5209.896575106991
 21
5739.620259427272
 31
0.0
  0
LINE
  5
2382F
330
236EA
100
AcDbEntity
  8
寸法
 62
     0
 48
50.0
370
    -2
100
AcDbLine
 10
5259.896575106991
 20
5679.620259427273
 30
0.0
 11
5359.896575106991
 21
5679.620259427273
 31
0.0
  0
LINE
  5
23830
330
236EA
100
AcDbEntity
  8
寸法
 62
     0
 48
50.0
370
    -2
100
AcDbLine
 10
5209.896575106991
 20
5679.620259427273
 30
0.0
 11
4790.364049638257
 21
5679.620259427273
 31
0.0
  0
LINE
  5
23831
330
236EA
100
AcDbEntity
  8
寸法
 62
     0
 48
50.0
370
    -2
100
AcDbLine
 10
5259.896575106991
 20
5679.620259427273
 30
0.0
 11
5209.896575106991
 21
5679.620259427273
 31
0.0
  0
INSERT
  5
23832
330
236EA
100
AcDbEntity
  8
寸法
 62
     0
 48
50.0
370
    -2
100
AcDbBlockReference
  2
_DOTSMALL
 10
5259.896575106991
 20
5679.620259427273
 30
0.0
 41
100.0
 42
100.0
 43
100.0
 50
180.0
  0
INSERT
  5
23833
330
236EA
100
AcDbEntity
  8
寸法
 62
     0
 48
50.0
370
    -2
100
AcDbBlockReference
  2
_DOTSMALL
 10
5209.896575106991
 20
5679.620259427273
 30
0.0
 41
100.0
 42
100.0
 43
100.0
  0
MTEXT
  5
23834
330
236EA
100
AcDbEntity
  8
寸法
 62
     7
 48
50.0
100
AcDbMText
 10
4896.411293732746
 20
5779.620259427272
 30
0.0
 40
120.0
 41
0.0
 71
     5
 72
     1
  1
\A1;50
  7
STYLE1
 73
     1
 44
1.0
1001
ACAD
1000
MTEXTBEGIN
1070
    73
1070
     1
1070
    44
1040
1.0
1070
    74
1070
     0
1000
MTEXTEND
  0
POINT
  5
23835
330
236EA
100
AcDbEntity
  8
DEFPOINTS
 62
     0
 48
50.0
100
AcDbPoint
 10
5259.896575106991
 20
5475.000000000006
 30
0.0
  0
POINT
  5
23836
330
236EA
100
AcDbEntity
  8
DEFPOINTS
 62
     0
 48
50.0
100
AcDbPoint
 10
5209.896575106991
 20
5475.000000000005
 30
0.0
  0
POINT
  5
23837
330
236EA
100
AcDbEntity
  8
DEFPOINTS
 62
     0
 48
50.0
100
AcDbPoint
 10
5209.896575106991
 20
5679.620259427273
 30
0.0
  0
ENDBLK
  5
236F7
330
236EA
100
AcDbEntity
  8
0
 48
50.0
100
AcDbBlockEnd
  0
BLOCK
  5
23704
330
236F8
100
AcDbEntity
  8
0
 48
50.0
100
AcDbBlockBegin
  2
*D29
 70
     1
 10
0.0
 20
0.0
 30
0.0
  3
*D29
  1

  0
LINE
  5
23822
330
236F8
100
AcDbEntity
  8
寸法
 62
     0
 48
50.0
370
    -2
100
AcDbLine
 10
7519.896575107009
 20
5495.000000000003
 30
0.0
 11
7519.896575107009
 21
5739.620259427272
 31
0.0
  0
LINE
  5
23823
330
236F8
100
AcDbEntity
  8
寸法
 62
     0
 48
50.0
370
    -2
100
AcDbLine
 10
7469.896575107011
 20
5495.000000000005
 30
0.0
 11
7469.896575107011
 21
5739.620259427272
 31
0.0
  0
LINE
  5
23824
330
236F8
100
AcDbEntity
  8
寸法
 62
     0
 48
50.0
370
    -2
100
AcDbLine
 10
7469.896575107011
 20
5679.620259427273
 30
0.0
 11
7369.89657510701
 21
5679.620259427273
 31
0.0
  0
LINE
  5
23825
330
236F8
100
AcDbEntity
  8
寸法
 62
     0
 48
50.0
370
    -2
100
AcDbLine
 10
7519.896575107009
 20
5679.620259427273
 30
0.0
 11
7939.429100575736
 21
5679.620259427273
 31
0.0
  0
LINE
  5
23826
330
236F8
100
AcDbEntity
  8
寸法
 62
     0
 48
50.0
370
    -2
100
AcDbLine
 10
7469.896575107011
 20
5679.620259427273
 30
0.0
 11
7519.896575107009
 21
5679.620259427273
 31
0.0
  0
INSERT
  5
23827
330
236F8
100
AcDbEntity
  8
寸法
 62
     0
 48
50.0
370
    -2
100
AcDbBlockReference
  2
_DOTSMALL
 10
7469.896575107011
 20
5679.620259427273
 30
0.0
 41
100.0
 42
100.0
 43
100.0
  0
INSERT
  5
23828
330
236F8
100
AcDbEntity
  8
寸法
 62
     0
 48
50.0
370
    -2
100
AcDbBlockReference
  2
_DOTSMALL
 10
7519.896575107009
 20
5679.620259427273
 30
0.0
 41
100.0
 42
100.0
 43
100.0
 50
180.0
  0
MTEXT
  5
23829
330
236F8
100
AcDbEntity
  8
寸法
 62
     7
 48
50.0
100
AcDbMText
 10
7833.381856481247
 20
5779.620259427272
 30
0.0
 40
120.0
 41
0.0
 71
     5
 72
     1
  1
\A1;50
  7
STYLE1
 73
     1
 44
1.0
1001
ACAD
1000
MTEXTBEGIN
1070
    73
1070
     1
1070
    44
1040
1.0
1070
    74
1070
     0
1000
MTEXTEND
  0
POINT
  5
2382A
330
236F8
100
AcDbEntity
  8
DEFPOINTS
 62
     0
 48
50.0
100
AcDbPoint
 10
7519.896575107009
 20
5475.000000000003
 30
0.0
  0
POINT
  5
2382B
330
236F8
100
AcDbEntity
  8
DEFPOINTS
 62
     0
 48
50.0
100
AcDbPoint
 10
7469.896575107011
 20
5475.000000000005
 30
0.0
  0
POINT
  5
2382C
330
236F8
100
AcDbEntity
  8
DEFPOINTS
 62
     0
 48
50.0
100
AcDbPoint
 10
7469.896575107011
 20
5679.620259427273
 30
0.0
  0
ENDBLK
  5
23705
330
236F8
100
AcDbEntity
  8
0
 48
50.0
100
AcDbBlockEnd
  0
BLOCK
  5
23710
330
23706
100
AcDbEntity
  8
0
 48
50.0
100
AcDbBlockBegin
  2
*D30
 70
     1
 10
0.0
 20
0.0
 30
0.0
  3
*D30
  1

  0
LINE
  5
23819
330
23706
100
AcDbEntity
  8
寸法
 62
     0
 48
50.0
370
    -2
100
AcDbLine
 10
5209.896575106991
 20
5495.000000000005
 30
0.0
 11
5209.896575106991
 21
5955.370389148895
 31
0.0
  0
LINE
  5
2381A
330
23706
100
AcDbEntity
  8
寸法
 62
     0
 48
50.0
370
    -2
100
AcDbLine
 10
7519.896575107009
 20
5495.000000000003
 30
0.0
 11
7519.896575107009
 21
5955.370389148895
 31
0.0
  0
LINE
  5
2381B
330
23706
100
AcDbEntity
  8
寸法
 62
     0
 48
50.0
370
    -2
100
AcDbLine
 10
5209.896575106991
 20
5895.370389148895
 30
0.0
 11
7519.896575107009
 21
5895.370389148895
 31
0.0
  0
INSERT
  5
2381C
330
23706
100
AcDbEntity
  8
寸法
 62
     0
 48
50.0
370
    -2
100
AcDbBlockReference
  2
_DOTSMALL
 10
5209.896575106991
 20
5895.370389148895
 30
0.0
 41
100.0
 42
100.0
 43
100.0
 50
180.0
  0
INSERT
  5
2381D
330
23706
100
AcDbEntity
  8
寸法
 62
     0
 48
50.0
370
    -2
100
AcDbBlockReference
  2
_DOTSMALL
 10
7519.896575107009
 20
5895.370389148895
 30
0.0
 41
100.0
 42
100.0
 43
100.0
  0
MTEXT
  5
2381E
330
23706
100
AcDbEntity
  8
寸法
 62
     7
 48
50.0
100
AcDbMText
 10
6358.975848044829
 20
5995.382200172516
 30
0.0
 40
120.0
 41
0.0
 71
     5
 72
     1
  1
\A1;2310
  7
STYLE1
 73
     1
 44
1.0
1001
ACAD
1000
MTEXTBEGIN
1070
    73
1070
     1
1070
    44
1040
1.0
1070
    74
1070
     0
1000
MTEXTEND
  0
POINT
  5
2381F
330
23706
100
AcDbEntity
  8
DEFPOINTS
 62
     0
 48
50.0
100
AcDbPoint
 10
5209.896575106991
 20
5475.000000000005
 30
0.0
  0
POINT
  5
23820
330
23706
100
AcDbEntity
  8
DEFPOINTS
 62
     0
 48
50.0
100
AcDbPoint
 10
7519.896575107009
 20
5475.000000000003
 30
0.0
  0
POINT
  5
23821
330
23706
100
AcDbEntity
  8
DEFPOINTS
 62
     0
 48
50.0
100
AcDbPoint
 10
7519.896575107009
 20
5895.370389148895
 30
0.0
  0
ENDBLK
  5
23711
330
23706
100
AcDbEntity
  8
0
 48
50.0
100
AcDbBlockEnd
  0
ENDSEC
  0
SECTION
  2
ENTITIES
  0
LINE
  5
10B57
330
747D
100
AcDbEntity
  8
補助
  6
PHANTOM
 62
   230
 48
50.0
100
AcDbLine
 10
139.9999999999995
 20
11409.6
 30
0.0
 11
16307.2
 21
11409.6
 31
0.0
  0
LINE
  5
10B59
330
747D
100
AcDbEntity
  8
仕様書枠
  6
Continuous
 48
50.0
100
AcDbLine
 10
13107.2
 20
1200.0
 30
0.0
 11
13107.2
 21
-0.0000000000000729
 31
0.0
  0
LINE
  5
10B5C
330
747D
100
AcDbEntity
  8
仕様書枠
 48
50.0
100
AcDbLine
 10
16307.2
 20
1200.0
 30
0.0
 11
16307.2
 21
-0.0000000000000909
 31
0.0
  0
LINE
  5
10B5D
330
747D
100
AcDbEntity
  8
仕様書枠
 48
50.0
100
AcDbLine
 10
140.0
 20
0.0
 30
0.0
 11
16307.2
 21
-0.0000000000000909
 31
0.0
  0
LINE
  5
10B5E
330
747D
100
AcDbEntity
  8
補助
  6
PHANTOM
 62
   230
 48
50.0
100
AcDbLine
 10
16307.2
 20
11409.6
 30
0.0
 11
16307.2
 21
1200.0
 31
0.0
  0
LINE
  5
10B6C
330
747D
100
AcDbEntity
  8
仕様書枠
 48
50.0
100
AcDbLine
 10
13107.2
 20
1200.0
 30
0.0
 11
16307.2
 21
1200.0
 31
0.0
  0
LINE
  5
10B6D
330
747D
100
AcDbEntity
  8
補助
  6
PHANTOM
 62
   230
 48
50.0
100
AcDbLine
 10
13107.2
 20
11409.6
 30
0.0
 11
13107.2
 21
4800.0
 31
0.0
  0
LINE
  5
10B6F
330
747D
100
AcDbEntity
  8
補助
  6
PHANTOM
 62
   230
 48
50.0
100
AcDbLine
 10
13107.2
 20
4800.0
 30
0.0
 11
16307.2
 21
4800.0
 31
0.0
  0
LINE
  5
10B72
330
747D
100
AcDbEntity
  8
文字
 62
     7
 48
50.0
100
AcDbLine
 10
13187.2
 20
400.0
 30
0.0
 11
16227.2
 21
400.0
 31
0.0
  0
TEXT
  5
10B73
330
747D
100
AcDbEntity
  8
文字
 62
     7
 48
50.0
100
AcDbText
 10
13162.9790565769
 20
895.0906074299405
 30
0.0
 40
200.0
  1
外 形 図
  7
STYLE2
100
AcDbText
  0
TEXT
  5
10B74
330
747D
100
AcDbEntity
  8
文字
 62
     7
 48
50.0
100
AcDbText
 10
13201.43669998441
 20
477.2740661031255
 30
0.0
 40
160.0
  1
機種名
  7
STYLE2
100
AcDbText
  0
TEXT
  5
10B75
330
747D
100
AcDbEntity
  8
文字
 62
     7
 48
50.0
100
AcDbText
 10
13209.4053442172
 20
228.5435242569016
 30
0.0
 40
100.0
  1
○有効開口寸法 ： 1278×2070(mm)
  7
STYLE2
100
AcDbText
  0
TEXT
  5
10B79
330
747D
100
AcDbEntity
  8
文字
 62
     7
 48
50.0
100
AcDbText
 10
14524.131837222
 20
1031.557706291228
 30
0.0
 40
100.0
  1
NO.19      <縮尺> S=1/40
  7
STYLE2
100
AcDbText
  0
LINE
  5
10B7B
330
747D
100
AcDbEntity
  8
仕様書枠
 48
50.0
100
AcDbLine
 10
13107.2
 20
800.0
 30
0.0
 11
14251.2
 21
800.0
 31
0.0
  0
LINE
  5
10B88
330
747D
100
AcDbEntity
  8
仕様書枠
  6
Continuous
 48
50.0
100
AcDbLine
 10
14251.2
 20
1200.0
 30
0.0
 11
14251.2
 21
800.0
 31
0.0
  0
LINE
  5
12765
330
747D
100
AcDbEntity
  8
Ｇ．Ｌ
100
AcDbLine
 10
4541.629972436509
 20
3000.0
 30
0.0
 11
11857.79572712994
 21
3000.0
 31
0.0
  0
DIMENSION
  5
14521
330
747D
100
AcDbEntity
  8
寸法
100
AcDbDimension
  2
*D1
 10
5314.896575107013
 20
9587.741902809609
 30
0.0
 11
4951.411293732741
 21
9587.741902809609
 31
0.0
 70
   160
 71
     5
 42
55.00000000003456
  3
INABA_S40G
100
AcDbAlignedDimension
 13
5259.896575106979
 23
9371.933683184627
 33
0.0
 14
5314.896575107013
 24
9371.933683184627
 34
0.0
100
AcDbRotatedDimension
1001
ACAD
1000
DSTYLE
1002
{
1002
}
  0
LINE
  5
14522
330
747D
100
AcDbEntity
  8
部品1
100
AcDbLine
 10
5734.896575106979
 20
9371.933683184597
 30
0.0
 11
5734.896575106981
 21
9343.933683184596
 31
0.0
  0
LINE
  5
14523
330
747D
100
AcDbEntity
  8
部品1
100
AcDbLine
 10
5259.896575106942
 20
9371.933683184606
 30
0.0
 11
5259.896575106995
 21
7581.933683184593
 31
0.0
  0
LINE
  5
14524
330
747D
100
AcDbEntity
  8
部品1
100
AcDbLine
 10
7414.896575107015
 20
9371.933683184723
 30
0.0
 11
7414.896575107015
 21
9343.933683184722
 31
0.0
  0
LINE
  5
14525
330
747D
100
AcDbEntity
  8
部品1
100
AcDbLine
 10
7414.896575107015
 20
9371.933683184742
 30
0.0
 11
7414.896575107015
 21
9343.933683184742
 31
0.0
  0
DIMENSION
  5
14526
330
747D
100
AcDbEntity
  8
寸法
100
AcDbDimension
  2
*D2
 10
8413.865353179311
 20
7581.933683184724
 30
0.0
 11
8413.865353179309
 21
8427.985122738435
 31
0.0
 70
   160
 71
     5
 42
1790.0
  3
INABA_S40G
100
AcDbAlignedDimension
 13
7469.896575107014
 23
9371.933683184723
 33
0.0
 14
7469.896575106976
 24
7581.933683184724
 34
0.0
 50
90.0
100
AcDbRotatedDimension
1001
ACAD
1000
DSTYLE
1002
{
1002
}
  0
LINE
  5
14527
330
747D
100
AcDbEntity
  8
部品1
100
AcDbLine
 10
7469.89657510702
 20
9371.933683184719
 30
0.0
 11
7469.896575106976
 21
7581.933683184724
 31
0.0
  0
LINE
  5
14528
330
747D
100
AcDbEntity
  8
部品1
100
AcDbLine
 10
6994.896575107013
 20
9371.933683184742
 30
0.0
 11
6994.896575107013
 21
9343.933683184742
 31
0.0
  0
LINE
  5
14529
330
747D
100
AcDbEntity
  8
部品1
100
AcDbLine
 10
6574.896575107013
 20
9371.933683184742
 30
0.0
 11
6574.896575107013
 21
9343.933683184742
 31
0.0
  0
LINE
  5
1452A
330
747D
100
AcDbEntity
  8
部品1
100
AcDbLine
 10
6154.896575107013
 20
9371.933683184742
 30
0.0
 11
6154.896575107013
 21
9343.933683184742
 31
0.0
  0
LINE
  5
1452B
330
747D
100
AcDbEntity
  8
部品1
100
AcDbLine
 10
6154.896575107013
 20
9371.933683184627
 30
0.0
 11
6154.896575107013
 21
9343.933683184626
 31
0.0
  0
LINE
  5
1452C
330
747D
100
AcDbEntity
  8
部品1
100
AcDbLine
 10
6154.896575107013
 20
9371.933683184629
 30
0.0
 11
6154.896575107013
 21
9343.933683184628
 31
0.0
  0
LINE
  5
1452D
330
747D
100
AcDbEntity
  8
部品1
100
AcDbLine
 10
5314.896575107013
 20
9371.933683184627
 30
0.0
 11
5314.896575107013
 21
9343.933683184626
 31
0.0
  0
DIMENSION
  5
1452E
330
747D
100
AcDbEntity
  8
寸法
100
AcDbDimension
  2
*D3
 10
8117.322920841425
 20
9316.933683184727
 30
0.0
 11
8117.322920841424
 21
9680.418964558963
 31
0.0
 70
   160
 71
     5
 42
54.99999999999636
  3
INABA_S40G
100
AcDbAlignedDimension
 13
7469.896575107014
 23
9371.933683184723
 33
0.0
 14
7469.896575107014
 24
9316.933683184727
 34
0.0
 50
90.0
100
AcDbRotatedDimension
1001
ACAD
1000
DSTYLE
1002
{
1002
}
  0
DIMENSION
  5
1452F
330
747D
100
AcDbEntity
  8
寸法
100
AcDbDimension
  2
*D4
 10
7796.754300969038
 20
8796.715867515835
 30
0.0
 11
7696.754300969039
 21
9021.715867515835
 31
0.0
 70
    32
 71
     5
 42
449.9999999999982
  3
INABA_S40G
100
AcDbAlignedDimension
 13
7441.396575107015
 23
9341.933683184723
 33
0.0
 14
7441.396575107015
 24
8891.933683184724
 34
0.0
 50
90.0
100
AcDbRotatedDimension
1001
ACAD
1000
DSTYLE
1002
{
1002
}
  0
DIMENSION
  5
14530
330
747D
100
AcDbEntity
  8
寸法
100
AcDbDimension
  2
*D5
 10
8117.322920841386
 20
7581.933683184724
 30
0.0
 11
8117.322920841386
 21
7204.072216279861
 31
0.0
 70
   160
 71
     5
 42
54.99999999999636
  3
INABA_S40G
100
AcDbAlignedDimension
 13
7469.896575106976
 23
7636.933683184719
 33
0.0
 14
7469.896575106976
 24
7581.933683184724
 34
0.0
 50
90.0
100
AcDbRotatedDimension
1001
ACAD
1000
DSTYLE
1002
{
1002
}
  0
DIMENSION
  5
14531
330
747D
100
AcDbEntity
  8
寸法
100
AcDbDimension
  2
*D6
 10
8117.322920841425
 20
7636.933683184719
 30
0.0
 11
8117.322920841424
 21
8435.82747373003
 31
0.0
 70
   160
  1
4X420=<>
 71
     5
 42
1680.000000000007
  3
INABA_S40G
100
AcDbAlignedDimension
 13
7469.896575107019
 23
9316.933683184727
 33
0.0
 14
7469.896575106976
 24
7636.933683184719
 34
0.0
 50
90.0
100
AcDbRotatedDimension
1001
ACAD
1000
DSTYLE
1002
{
1002
}
  0
DIMENSION
  5
14532
330
747D
100
AcDbEntity
  8
寸法
100
AcDbDimension
  2
*D7
 10
7469.896575106976
 20
6802.420311817299
 30
0.0
 11
6375.856517730952
 21
6802.420311817299
 31
0.0
 70
   160
 71
     5
 42
2209.999999999982
  3
INABA_S40G
100
AcDbAlignedDimension
 13
5259.896575106995
 23
7581.933683184593
 33
0.0
 14
7469.896575106976
 24
7581.933683184688
 34
0.0
100
AcDbRotatedDimension
1001
ACAD
1000
DSTYLE
1002
{
1002
}
  0
DIMENSION
  5
14533
330
747D
100
AcDbEntity
  8
寸法
100
AcDbDimension
  2
*D8
 10
5319.896575106994
 20
7028.736931209405
 30
0.0
 11
5947.686700450972
 21
7028.736931209405
 31
0.0
 70
   160
  1
有効開口部間口\P<>
 71
     5
 42
1278.0
  3
INABA_S40G
100
AcDbAlignedDimension
 13
6597.896575106995
 23
7581.933683184653
 33
0.0
 14
5319.896575106994
 24
7581.933683184591
 34
0.0
100
AcDbRotatedDimension
1001
ACAD
1000
DSTYLE
1002
{
1002
}
  0
LWPOLYLINE
  5
14534
330
747D
100
AcDbEntity
  8
部品1
100
AcDbPolyline
 90
        4
 70
     1
 43
0.0
 10
5983.161241992782
 20
6620.028871218329
 10
5983.161241992782
 20
6380.136549672797
 10
6746.631908221221
 20
6380.136549672797
 10
6746.631908221221
 20
6620.028871218329
  0
TEXT
  5
14535
330
747D
100
AcDbEntity
  8
部品1
100
AcDbText
 10
6073.080851821821
 20
6427.135341999806
 30
0.0
 40
135.0
  1
平面図
  7
STYLE2
100
AcDbText
  0
LINE
  5
14538
330
747D
100
AcDbEntity
  8
部品1
100
AcDbLine
 10
7441.896575106977
 20
7683.933683184726
 30
0.0
 11
5287.89657510687
 21
7683.933683184604
 31
0.0
  0
LINE
  5
1453A
330
747D
100
AcDbEntity
  8
細線
100
AcDbLine
 10
6768.896575106987
 20
7618.933683184721
 30
0.0
 11
6666.396575107008
 21
7618.933683184721
 31
0.0
  0
LINE
  5
1453B
330
747D
100
AcDbEntity
  8
細線
100
AcDbLine
 10
6753.896575106982
 20
7641.933683184721
 30
0.0
 11
6088.896575106992
 21
7641.933683184728
 31
0.0
  0
LINE
  5
1453C
330
747D
100
AcDbEntity
  8
細線
 48
50.0
100
AcDbLine
 10
7409.896575106976
 20
7597.933683184724
 30
0.0
 11
6114.896575106998
 21
7597.933683184725
 31
0.0
  0
LINE
  5
1453E
330
747D
100
AcDbEntity
  8
部品1
100
AcDbLine
 10
5288.396575107013
 20
8891.933683184575
 30
0.0
 11
6561.396575107012
 21
8891.933683184731
 31
0.0
  0
DIMENSION
  5
1453F
330
747D
100
AcDbEntity
  8
寸法
100
AcDbDimension
  2
*D9
 10
7382.703078813048
 20
8672.886572941747
 30
0.0
 11
6967.743637225282
 21
8672.886572941747
 31
0.0
 70
   160
 71
     5
 42
853.0000000000118
  3
INABA_S40G
100
AcDbAlignedDimension
 13
6588.396575107013
 23
8891.933683184731
 33
0.0
 14
7441.396575107025
 24
8891.933683184728
 34
0.0
100
AcDbRotatedDimension
1001
ACAD
1000
DSTYLE
1002
{
1002
}
  0
LINE
  5
14540
330
747D
100
AcDbEntity
  8
細線
 48
50.0
100
AcDbLine
 10
6561.396575107014
 20
9341.933683184731
 30
0.0
 11
5288.396575107013
 21
8891.933683184575
 31
0.0
  0
LINE
  5
14541
330
747D
100
AcDbEntity
  8
細線
 48
50.0
100
AcDbLine
 10
6561.396575107012
 20
8891.933683184731
 30
0.0
 11
5288.396575107014
 21
9341.933683184578
 31
0.0
  0
LINE
  5
14542
330
747D
100
AcDbEntity
  8
部品1
100
AcDbLine
 10
5287.896575107025
 20
9341.93368318458
 30
0.0
 11
6561.396575107014
 21
9341.933683184734
 31
0.0
  0
LINE
  5
14543
330
747D
100
AcDbEntity
  8
部品1
100
AcDbLine
 10
5734.896575107014
 20
9343.933683184745
 30
0.0
 11
6562.396575107012
 21
9343.933683184742
 31
0.0
  0
LINE
  5
14544
330
747D
100
AcDbEntity
  8
部品1
100
AcDbLine
 10
7469.896575106976
 20
7581.933683184724
 30
0.0
 11
5259.896575106995
 21
7581.933683184546
 31
0.0
  0
LINE
  5
14546
330
747D
100
AcDbEntity
  8
部品1
100
AcDbLine
 10
5287.896575106977
 20
7636.93368318459
 30
0.0
 11
5287.896575107025
 21
9341.93368318458
 31
0.0
  0
LINE
  5
14547
330
747D
100
AcDbEntity
  8
細線
 48
50.0
100
AcDbLine
 10
6073.896575106992
 20
7631.933683184737
 30
0.0
 11
5319.896575106991
 21
7631.933683184607
 31
0.0
  0
LINE
  5
14548
330
747D
100
AcDbEntity
  8
細線
100
AcDbLine
 10
6114.896575106994
 20
7584.933683184757
 30
0.0
 11
6014.89657510698
 21
7584.933683184742
 31
0.0
  0
LINE
  5
14549
330
747D
100
AcDbEntity
  8
細線
100
AcDbLine
 10
6099.896575106996
 20
7607.933683184754
 30
0.0
 11
5334.896575106991
 21
7607.933683184639
 31
0.0
  0
LINE
  5
1454A
330
747D
100
AcDbEntity
  8
部品1
100
AcDbLine
 10
5730.896575106995
 20
7581.933683184594
 30
0.0
 11
5679.896575106994
 21
7581.933683184594
 31
0.0
  0
LINE
  5
1454B
330
747D
100
AcDbEntity
  8
部品1
100
AcDbLine
 10
5287.896575106977
 20
7636.933683184544
 30
0.0
 11
5259.896575106992
 21
7636.933683184544
 31
0.0
  0
LINE
  5
1454C
330
747D
100
AcDbEntity
  8
部品1
100
AcDbLine
 10
5287.896575106977
 20
7636.933683184579
 30
0.0
 11
5259.896575106992
 21
7636.933683184579
 31
0.0
  0
LINE
  5
1454D
330
747D
100
AcDbEntity
  8
部品1
100
AcDbLine
 10
5287.896575106993
 20
7636.933683184605
 30
0.0
 11
5259.896575106992
 21
7636.933683184605
 31
0.0
  0
LINE
  5
1454E
330
747D
100
AcDbEntity
  8
部品1
100
AcDbLine
 10
5259.896575106992
 20
7636.933683184544
 30
0.0
 11
5259.896575106995
 21
7581.933683184546
 31
0.0
  0
LINE
  5
1454F
330
747D
100
AcDbEntity
  8
部品1
100
AcDbLine
 10
5319.896575106991
 20
7636.933683184555
 30
0.0
 11
5291.896575106991
 21
7636.933683184555
 31
0.0
  0
LINE
  5
14550
330
747D
100
AcDbEntity
  8
部品1
100
AcDbLine
 10
5310.896575106994
 20
7581.933683184558
 30
0.0
 11
5310.896575106993
 21
7588.933683184594
 31
0.0
  0
LINE
  5
14551
330
747D
100
AcDbEntity
  8
部品1
100
AcDbLine
 10
5319.896575106993
 20
7588.933683184591
 30
0.0
 11
5310.896575106993
 21
7588.933683184594
 31
0.0
  0
LINE
  5
14552
330
747D
100
AcDbEntity
  8
部品1
100
AcDbLine
 10
5319.896575106993
 20
7588.933683184591
 30
0.0
 11
5319.896575106991
 21
7636.933683184557
 31
0.0
  0
LINE
  5
14553
330
747D
100
AcDbEntity
  8
細線
100
AcDbLine
 10
5334.896575106991
 20
7614.933683184638
 30
0.0
 11
5334.896575106991
 21
7607.933683184639
 31
0.0
  0
LINE
  5
14554
330
747D
100
AcDbEntity
  8
細線
100
AcDbLine
 10
5334.896575106991
 20
7614.933683184638
 30
0.0
 11
5319.896575106992
 21
7614.933683184638
 31
0.0
  0
LINE
  5
1455D
330
747D
100
AcDbEntity
  8
部品1
100
AcDbLine
 10
5287.896575107025
 20
9343.933683184623
 30
0.0
 11
6154.896575107013
 21
9343.933683184632
 31
0.0
  0
LINE
  5
1455E
330
747D
100
AcDbEntity
  8
部品1
 48
50.0
100
AcDbLine
 10
5288.396575107014
 20
9341.933683184578
 30
0.0
 11
5288.396575107013
 21
8891.933683184575
 31
0.0
  0
LINE
  5
1455F
330
747D
100
AcDbEntity
  8
部品1
100
AcDbLine
 10
5287.896575106976
 20
8056.933683184606
 30
0.0
 11
5259.896575106975
 21
8056.933683184606
 31
0.0
  0
LINE
  5
14560
330
747D
100
AcDbEntity
  8
部品1
100
AcDbLine
 10
5287.896575106981
 20
9316.933683184599
 30
0.0
 11
5259.896575106981
 21
9316.933683184599
 31
0.0
  0
LINE
  5
14562
330
747D
100
AcDbEntity
  8
部品1
100
AcDbLine
 10
7441.896575107027
 20
9343.933683184722
 30
0.0
 11
7441.896575106977
 21
7636.933683184719
 31
0.0
  0
LINE
  5
14563
330
747D
100
AcDbEntity
  8
細線
100
AcDbLine
 10
7407.896575106976
 20
7654.93368318472
 30
0.0
 11
7348.896575106976
 21
7654.933683184722
 31
0.0
  0
LINE
  5
14564
330
747D
100
AcDbEntity
  8
細線
 48
50.0
100
AcDbLine
 10
7409.896575106976
 20
7631.933683184726
 30
0.0
 11
6768.89657510699
 21
7631.933683184728
 31
0.0
  0
LINE
  5
14565
330
747D
100
AcDbEntity
  8
細線
100
AcDbLine
 10
7441.896575106977
 20
7682.933683184717
 30
0.0
 11
6727.896575106988
 21
7682.933683184725
 31
0.0
  0
LINE
  5
14566
330
747D
100
AcDbEntity
  8
細線
100
AcDbLine
 10
6747.896575106988
 20
7646.93368318472
 30
0.0
 11
6747.896575106988
 21
7654.93368318472
 31
0.0
  0
LINE
  5
14567
330
747D
100
AcDbEntity
  8
細線
100
AcDbLine
 10
6747.896575106988
 20
7646.93368318472
 30
0.0
 11
6727.896575106988
 21
7646.93368318472
 31
0.0
  0
LINE
  5
14568
330
747D
100
AcDbEntity
  8
細線
100
AcDbLine
 10
6727.896575106988
 20
7646.93368318472
 30
0.0
 11
6727.896575106988
 21
7682.933683184725
 31
0.0
  0
LINE
  5
14569
330
747D
100
AcDbEntity
  8
細線
100
AcDbLine
 10
6768.896575106987
 20
7618.933683184721
 30
0.0
 11
6768.896575106994
 21
7648.933683184719
 31
0.0
  0
LINE
  5
1456A
330
747D
100
AcDbEntity
  8
部品1
100
AcDbLine
 10
7469.896575106976
 20
7581.933683184724
 30
0.0
 11
7418.896575106976
 21
7581.933683184724
 31
0.0
  0
LINE
  5
1456B
330
747D
100
AcDbEntity
  8
部品1
100
AcDbLine
 10
7469.896575106978
 20
7636.933683184719
 30
0.0
 11
7469.896575106976
 21
7581.933683184724
 31
0.0
  0
LINE
  5
1456C
330
747D
100
AcDbEntity
  8
部品1
100
AcDbLine
 10
7441.896575106977
 20
7636.933683184719
 30
0.0
 11
7469.896575106976
 21
7636.933683184719
 31
0.0
  0
LINE
  5
1456E
330
747D
100
AcDbEntity
  8
部品1
100
AcDbLine
 10
7409.896575106976
 20
7636.933683184719
 30
0.0
 11
7441.896575106977
 21
7636.933683184719
 31
0.0
  0
LINE
  5
1456F
330
747D
100
AcDbEntity
  8
細線
100
AcDbLine
 10
7407.896575106976
 20
7636.933683184719
 30
0.0
 11
7407.896575106976
 21
7654.93368318472
 31
0.0
  0
LINE
  5
14570
330
747D
100
AcDbEntity
  8
部品1
100
AcDbLine
 10
7418.896575106976
 20
7581.933683184721
 30
0.0
 11
7418.896575106976
 21
7588.933683184723
 31
0.0
  0
LINE
  5
14571
330
747D
100
AcDbEntity
  8
部品1
100
AcDbLine
 10
7418.896575106976
 20
7588.933683184723
 30
0.0
 11
7409.896575106976
 21
7588.933683184723
 31
0.0
  0
LINE
  5
14572
330
747D
100
AcDbEntity
  8
部品1
100
AcDbLine
 10
7409.896575106976
 20
7588.933683184723
 30
0.0
 11
7409.896575106976
 21
7636.933683184719
 31
0.0
  0
LINE
  5
14573
330
747D
100
AcDbEntity
  8
部品1
100
AcDbLine
 10
7441.896575107008
 20
7636.933683184736
 30
0.0
 11
7469.896575107009
 21
7636.933683184736
 31
0.0
  0
LINE
  5
14575
330
747D
100
AcDbEntity
  8
部品1
100
AcDbLine
 10
6588.396575107012
 20
8891.933683184731
 30
0.0
 11
7441.396575107015
 21
8891.933683184724
 31
0.0
  0
LINE
  5
14576
330
747D
100
AcDbEntity
  8
細線
 48
50.0
100
AcDbLine
 10
7441.396575107015
 20
9341.933683184723
 30
0.0
 11
6588.396575107012
 21
8891.933683184731
 31
0.0
  0
LINE
  5
14577
330
747D
100
AcDbEntity
  8
細線
 48
50.0
100
AcDbLine
 10
7441.396575107015
 20
8891.933683184724
 30
0.0
 11
6588.396575107013
 21
9341.933683184727
 31
0.0
  0
LINE
  5
14578
330
747D
100
AcDbEntity
  8
部品1
100
AcDbLine
 10
6588.396575107013
 20
9341.933683184731
 30
0.0
 11
7441.396575107015
 21
9341.933683184723
 31
0.0
  0
LINE
  5
14579
330
747D
100
AcDbEntity
  8
部品1
100
AcDbLine
 10
6587.396575107013
 20
9343.933683184742
 30
0.0
 11
7441.896575107027
 21
9343.933683184722
 31
0.0
  0
LINE
  5
1457A
330
747D
100
AcDbEntity
  8
部品1
 48
50.0
100
AcDbLine
 10
6588.396575107013
 20
9341.933683184727
 30
0.0
 11
6588.396575107013
 21
8891.933683184731
 31
0.0
  0
LINE
  5
1457B
330
747D
100
AcDbEntity
  8
部品1
 48
50.0
100
AcDbLine
 10
6561.396575107014
 20
9341.933683184731
 30
0.0
 11
6561.396575107014
 21
8891.933683184731
 31
0.0
  0
LINE
  5
1457C
330
747D
100
AcDbEntity
  8
部品1
 48
50.0
100
AcDbLine
 10
6587.396575107013
 20
9343.933683184733
 30
0.0
 11
6587.396575107013
 21
8891.933683184731
 31
0.0
  0
LINE
  5
1457D
330
747D
100
AcDbEntity
  8
部品1
 48
50.0
100
AcDbLine
 10
6562.396575107013
 20
9343.933683184738
 30
0.0
 11
6562.396575107013
 21
8891.933683184731
 31
0.0
  0
LINE
  5
1457E
330
747D
100
AcDbEntity
  8
部品1
100
AcDbLine
 10
6562.396575107013
 20
8891.933683184731
 30
0.0
 11
6587.396575107013
 21
8891.933683184731
 31
0.0
  0
LINE
  5
1457F
330
747D
100
AcDbEntity
  8
部品1
100
AcDbLine
 10
6562.396575107013
 20
9335.933683184727
 30
0.0
 11
6587.396575107013
 21
9335.93368318473
 31
0.0
  0
LINE
  5
14580
330
747D
100
AcDbEntity
  8
部品1
100
AcDbLine
 10
6603.896575107014
 20
9361.93368318473
 30
0.0
 11
6609.896575107014
 21
9361.93368318473
 31
0.0
  0
LINE
  5
14581
330
747D
100
AcDbEntity
  8
部品1
100
AcDbLine
 10
6609.896575107014
 20
9361.93368318473
 30
0.0
 11
6609.896575107014
 21
9343.933683184729
 31
0.0
  0
LINE
  5
14582
330
747D
100
AcDbEntity
  8
部品1
100
AcDbLine
 10
6539.896575107014
 20
9361.93368318473
 30
0.0
 11
6545.896575107014
 21
9361.93368318473
 31
0.0
  0
LINE
  5
14583
330
747D
100
AcDbEntity
  8
部品1
100
AcDbLine
 10
6539.896575107014
 20
9361.93368318473
 30
0.0
 11
6539.896575107014
 21
9343.933683184729
 31
0.0
  0
LINE
  5
14584
330
747D
100
AcDbEntity
  8
部品1
100
AcDbLine
 10
7441.396575107015
 20
9341.933683184723
 30
0.0
 11
7441.396575107015
 21
8891.933683184724
 31
0.0
  0
LINE
  5
14585
330
747D
100
AcDbEntity
  8
部品1
100
AcDbLine
 10
7441.896575107015
 20
8896.933683184727
 30
0.0
 11
7469.896575107014
 21
8896.933683184727
 31
0.0
  0
LINE
  5
14586
330
747D
100
AcDbEntity
  8
部品1
100
AcDbLine
 10
7441.896575107015
 20
9316.933683184727
 30
0.0
 11
7469.896575107014
 21
9316.933683184727
 31
0.0
  0
DIMENSION
  5
14587
330
747D
100
AcDbEntity
  8
寸法
100
AcDbDimension
  2
*D10
 10
7469.896575107014
 20
9587.741902809707
 30
0.0
 11
7778.381856481253
 21
9587.741902809707
 31
0.0
 70
   160
 71
     5
 42
55.0
  3
INABA_S40G
100
AcDbAlignedDimension
 13
7414.896575107015
 23
9371.933683184723
 33
0.0
 14
7469.896575107014
 24
9371.933683184723
 34
0.0
100
AcDbRotatedDimension
1001
ACAD
1000
DSTYLE
1002
{
1002
}
  0
LINE
  5
14588
330
747D
100
AcDbEntity
  8
部品1
100
AcDbLine
 10
5259.896575106942
 20
9371.933683184606
 30
0.0
 11
7469.89657510702
 21
9371.933683184719
 31
0.0
  0
DIMENSION
  5
14589
330
747D
100
AcDbEntity
  8
寸法
100
AcDbDimension
  2
*D11
 10
7414.896575107015
 20
9587.741902809609
 30
0.0
 11
6356.769737990334
 21
9587.741902809609
 31
0.0
 70
   160
  1
5X420=<>
 71
     5
 42
2100.000000000001
  3
INABA_S40G
100
AcDbAlignedDimension
 13
5314.896575107013
 23
9371.933683184627
 33
0.0
 14
7414.896575107015
 24
9371.933683184723
 34
0.0
100
AcDbRotatedDimension
1001
ACAD
1000
DSTYLE
1002
{
1002
}
  0
LINE
  5
1483A
330
747D
100
AcDbEntity
  8
寸法
 48
50.0
100
AcDbLine
 10
6043.563058493196
 20
7512.261280798174
 30
0.0
 11
6262.714998668921
 21
7512.261280798174
 31
0.0
  0
LINE
  5
1483B
330
747D
100
AcDbEntity
  8
寸法
 48
50.0
100
AcDbLine
 10
6262.714998668921
 20
7512.261280798174
 30
0.0
 11
6173.430780073499
 21
7536.184915067661
 31
0.0
  0
LINE
  5
1483C
330
747D
100
AcDbEntity
  8
寸法
 48
50.0
100
AcDbLine
 10
6173.430780073499
 20
7536.184915067661
 30
0.0
 11
6173.430780073499
 21
7482.521280485871
 31
0.0
  0
LINE
  5
1483D
330
747D
100
AcDbEntity
  8
寸法
 48
50.0
100
AcDbLine
 10
5691.69357115194
 20
7479.039324312838
 30
0.0
 11
5743.099579062044
 21
7479.039324312838
 31
0.0
  0
LINE
  5
1483E
330
747D
100
AcDbEntity
  8
寸法
 48
50.0
100
AcDbLine
 10
5743.099579062044
 20
7479.039324312838
 30
0.0
 11
5743.099579062044
 21
7510.349482965003
 31
0.0
  0
LINE
  5
1483F
330
747D
100
AcDbEntity
  8
寸法
 48
50.0
100
AcDbLine
 10
5743.099579062044
 20
7510.349482965003
 30
0.0
 11
5772.860911053468
 21
7510.349482965003
 31
0.0
  0
LINE
  5
14840
330
747D
100
AcDbEntity
  8
寸法
 48
50.0
100
AcDbLine
 10
5772.860911053468
 20
7510.349482965003
 30
0.0
 11
5717.396575106993
 21
7547.928933893615
 31
0.0
  0
LINE
  5
14841
330
747D
100
AcDbEntity
  8
寸法
 48
50.0
100
AcDbLine
 10
5661.932239160517
 20
7510.349482965003
 30
0.0
 11
5717.396575106993
 21
7547.928933893615
 31
0.0
  0
LINE
  5
14842
330
747D
100
AcDbEntity
  8
寸法
 48
50.0
100
AcDbLine
 10
5691.69357115194
 20
7510.349482965003
 30
0.0
 11
5661.932239160517
 21
7510.349482965003
 31
0.0
  0
LINE
  5
14843
330
747D
100
AcDbEntity
  8
寸法
 48
50.0
100
AcDbLine
 10
5691.69357115194
 20
7479.039324312838
 30
0.0
 11
5691.69357115194
 21
7510.349482965003
 31
0.0
  0
LINE
  5
14844
330
747D
100
AcDbEntity
  8
寸法
 48
50.0
100
AcDbLine
 10
5743.099579062044
 20
7479.039324312838
 30
0.0
 11
5691.69357115194
 21
7479.039324312838
 31
0.0
  0
TEXT
  5
149A1
330
747D
100
AcDbEntity
  8
部品1
100
AcDbText
 10
6073.686645730737
 20
1927.790927806517
 30
0.0
 40
135.0
  1
正面図
  7
STYLE2
100
AcDbText
  0
LWPOLYLINE
  5
149A2
330
747D
100
AcDbEntity
  8
部品1
100
AcDbPolyline
 90
        4
 70
     1
 43
0.0
 10
5983.161241992782
 20
2120.684457025041
 10
5983.161241992782
 20
1880.792135479508
 10
6746.631908221221
 20
1880.792135479508
 10
6746.631908221221
 20
2120.684457025041
  0
LINE
  5
14A32
330
747D
100
AcDbEntity
  8
細線
100
AcDbLine
 10
6768.896575106985
 20
7648.933683184719
 30
0.0
 11
6753.896575106984
 21
7648.933683184715
 31
0.0
  0
LINE
  5
14A33
330
747D
100
AcDbEntity
  8
細線
100
AcDbLine
 10
6753.896575106982
 20
7641.933683184721
 30
0.0
 11
6753.896575106984
 21
7648.933683184715
 31
0.0
  0
LINE
  5
14A58
330
747D
100
AcDbEntity
  8
細線
100
AcDbLine
 10
6753.896575106988
 20
7654.93368318472
 30
0.0
 11
6747.896575106988
 21
7654.93368318472
 31
0.0
  0
LINE
  5
14AA3
330
747D
100
AcDbEntity
  8
細線
 48
50.0
100
AcDbLine
 10
7407.896575106976
 20
7636.933683184719
 30
0.0
 11
7409.896575106976
 21
7636.933683184719
 31
0.0
  0
LINE
  5
14AC7
330
747D
100
AcDbEntity
  8
破線
 48
10.0
100
AcDbLine
 10
6044.396575106999
 20
7712.433683184649
 30
0.0
 11
6044.396575107003
 21
8891.933683184669
 31
0.0
  0
LINE
  5
14AC8
330
747D
100
AcDbEntity
  8
破線
 48
10.0
100
AcDbLine
 10
5994.396575107002
 20
7712.433683184645
 30
0.0
 11
5994.396575106996
 21
8891.933683184664
 31
0.0
  0
LINE
  5
14ADA
330
747D
100
AcDbEntity
  8
細線
100
AcDbLine
 10
6986.896575106979
 20
7682.933683184721
 30
0.0
 11
6986.896575106978
 21
7654.933683184724
 31
0.0
  0
LINE
  5
14ADC
330
747D
100
AcDbEntity
  8
細線
100
AcDbLine
 10
6971.896575106979
 20
7682.933683184721
 30
0.0
 11
6956.896575106977
 21
7654.933683184724
 31
0.0
  0
LINE
  5
14AE0
330
747D
100
AcDbEntity
  8
細線
100
AcDbLine
 10
6451.396575107016
 20
7618.933683184798
 30
0.0
 11
6443.89657510702
 21
7641.933683184728
 31
0.0
  0
LINE
  5
14AE1
330
747D
100
AcDbEntity
  8
細線
100
AcDbLine
 10
6391.396575107016
 20
7618.933683184808
 30
0.0
 11
6398.896575107021
 21
7641.933683184728
 31
0.0
  0
LINE
  5
14AE2
330
747D
100
AcDbEntity
  8
細線
100
AcDbLine
 10
5739.896575106912
 20
7584.933683184821
 30
0.0
 11
5747.396575106917
 21
7607.933683184739
 31
0.0
  0
LINE
  5
14AE3
330
747D
100
AcDbEntity
  8
細線
100
AcDbLine
 10
5799.896575106912
 20
7584.933683184812
 30
0.0
 11
5792.396575106916
 21
7607.933683184739
 31
0.0
  0
LINE
  5
14C0C
330
747D
100
AcDbEntity
  8
部品1
100
AcDbLine
 10
7413.396575106979
 20
7712.433683184724
 30
0.0
 11
5316.396575106873
 21
7712.433683184606
 31
0.0
  0
LINE
  5
14C0D
330
747D
100
AcDbEntity
  8
破線
 48
10.0
100
AcDbLine
 10
7389.89657510698
 20
7735.933683184724
 30
0.0
 11
6735.396575106999
 21
7735.933683184687
 31
0.0
  0
LINE
  5
14C0E
330
747D
100
AcDbEntity
  8
破線
 48
10.0
100
AcDbLine
 10
6685.396575106999
 20
7735.933683184683
 30
0.0
 11
6044.396575106999
 21
7735.933683184646
 31
0.0
  0
LINE
  5
14C1E
330
747D
100
AcDbEntity
  8
部品1
100
AcDbLine
 10
7413.39657510703
 20
8891.933683184722
 30
0.0
 11
7413.396575106978
 21
7712.433683184727
 31
0.0
  0
LINE
  5
14C1F
330
747D
100
AcDbEntity
  8
破線
 48
10.0
100
AcDbLine
 10
7389.89657510703
 20
8891.933683184728
 30
0.0
 11
7389.896575106982
 21
7735.933683184724
 31
0.0
  0
LINE
  5
14C20
330
747D
100
AcDbEntity
  8
部品1
 48
50.0
100
AcDbLine
 10
7413.396575106979
 20
7712.433683184724
 30
0.0
 11
7441.896575106977
 21
7683.933683184726
 31
0.0
  0
LINE
  5
14C31
330
747D
100
AcDbEntity
  8
部品1
100
AcDbLine
 10
5316.396575106946
 20
8891.93368318458
 30
0.0
 11
5316.396575106991
 21
7712.433683184723
 31
0.0
  0
LINE
  5
14C32
330
747D
100
AcDbEntity
  8
破線
 48
10.0
100
AcDbLine
 10
5339.896575106942
 20
8891.933683184582
 30
0.0
 11
5339.89657510699
 21
7735.933683184605
 31
0.0
  0
LINE
  5
14C33
330
747D
100
AcDbEntity
  8
部品1
 48
50.0
100
AcDbLine
 10
5316.396575106991
 20
7712.433683184724
 30
0.0
 11
5287.896575106993
 21
7683.933683184726
 31
0.0
  0
LINE
  5
14C5B
330
747D
100
AcDbEntity
  8
細線
100
AcDbLine
 10
5319.896575106993
 20
7588.933683184591
 30
0.0
 11
5319.896575106993
 21
7584.93368318464
 31
0.0
  0
DIMENSION
  5
14D62
330
747D
100
AcDbEntity
  8
寸法
100
AcDbDimension
  2
*D12
 10
6502.177919925209
 20
8670.926653290173
 30
0.0
 11
5765.319254562271
 21
8670.926653290173
 31
0.0
 70
   160
 71
     5
 42
1273.000000000015
  3
INABA_S40G
100
AcDbAlignedDimension
 13
5288.396575107013
 23
8891.933683184575
 33
0.0
 14
6561.396575107027
 24
8891.933683184621
 34
0.0
100
AcDbRotatedDimension
1001
ACAD
1000
DSTYLE
1002
{
1002
}
  0
TEXT
  5
14DEF
330
747D
100
AcDbEntity
  8
文字
 62
     7
 48
50.0
100
AcDbText
 10
14641.2525855784
 20
871.1744590657925
 30
0.0
 40
100.0
  1
～一般型・多雪地型～
  7
STYLE2
100
AcDbText
  0
TEXT
  5
15A76
330
747D
100
AcDbEntity
  8
文字
 62
     7
 48
50.0
100
AcDbText
 10
14464.69563014562
 20
483.8967129911411
 30
0.0
 40
160.0
  1
ＮＸＮ－４０Ｈ
  7
STYLE2
100
AcDbText
  0
LINE
  5
1C310
330
747D
100
AcDbEntity
  8
細線
100
AcDbLine
 10
5874.896575106982
 20
7584.933683184736
 30
0.0
 11
5872.565036816214
 21
7589.933683184721
 31
0.0
  0
LINE
  5
1C316
330
747D
100
AcDbEntity
  8
細線
100
AcDbLine
 10
5872.565036816215
 20
7589.933683184721
 30
0.0
 11
5807.228113397741
 21
7589.93368318471
 31
0.0
  0
LINE
  5
1C318
330
747D
100
AcDbEntity
  8
細線
100
AcDbLine
 10
5804.896575106987
 20
7584.933683184711
 30
0.0
 11
5734.896575106986
 21
7584.933683184701
 31
0.0
  0
LINE
  5
1C319
330
747D
100
AcDbEntity
  8
細線
100
AcDbLine
 10
5664.896575106987
 20
7584.933683184691
 30
0.0
 11
5594.896575106987
 21
7584.933683184681
 31
0.0
  0
LINE
  5
1C31B
330
747D
100
AcDbEntity
  8
細線
100
AcDbLine
 10
5524.896575106987
 20
7584.93368318467
 30
0.0
 11
5310.884268457942
 21
7584.933683184639
 31
0.0
  0
LINE
  5
1C31C
330
747D
100
AcDbEntity
  8
細線
100
AcDbLine
 10
5804.896575106987
 20
7584.933683184754
 30
0.0
 11
5807.228113397755
 21
7589.933683184739
 31
0.0
  0
LINE
  5
1C31D
330
747D
100
AcDbEntity
  8
細線
100
AcDbLine
 10
5732.565036816214
 20
7589.933683184701
 30
0.0
 11
5667.228113397739
 21
7589.933683184689
 31
0.0
  0
LINE
  5
1C31E
330
747D
100
AcDbEntity
  8
細線
100
AcDbLine
 10
5734.896575106979
 20
7584.933683184715
 30
0.0
 11
5732.565036816212
 21
7589.933683184701
 31
0.0
  0
LINE
  5
1C31F
330
747D
100
AcDbEntity
  8
細線
100
AcDbLine
 10
5664.896575106985
 20
7584.933683184734
 30
0.0
 11
5667.228113397754
 21
7589.933683184719
 31
0.0
  0
LINE
  5
1C320
330
747D
100
AcDbEntity
  8
細線
100
AcDbLine
 10
5592.565036816214
 20
7589.933683184681
 30
0.0
 11
5527.22811339774
 21
7589.933683184671
 31
0.0
  0
LINE
  5
1C321
330
747D
100
AcDbEntity
  8
細線
100
AcDbLine
 10
5594.896575106981
 20
7584.933683184695
 30
0.0
 11
5592.565036816213
 21
7589.933683184681
 31
0.0
  0
LINE
  5
1C322
330
747D
100
AcDbEntity
  8
細線
100
AcDbLine
 10
5524.896575106986
 20
7584.933683184714
 30
0.0
 11
5527.228113397754
 21
7589.9336831847
 31
0.0
  0
LINE
  5
1C333
330
747D
100
AcDbEntity
  8
細線
100
AcDbLine
 10
5476.396575106992
 20
7602.933683184663
 30
0.0
 11
5476.396575106992
 21
7584.93368318464
 31
0.0
  0
LINE
  5
1C334
330
747D
100
AcDbEntity
  8
細線
100
AcDbLine
 10
5435.396575106993
 20
7602.933683184658
 30
0.0
 11
5435.396575106993
 21
7584.93368318464
 31
0.0
  0
LINE
  5
1C335
330
747D
100
AcDbEntity
  8
細線
100
AcDbLine
 10
5476.396575106992
 20
7602.933683184663
 30
0.0
 11
5435.396575106993
 21
7602.933683184658
 31
0.0
  0
ARC
  5
1C337
330
747D
100
AcDbEntity
  8
部品1
100
AcDbCircle
 10
5437.940730984269
 20
7584.433683184662
 30
0.0
 40
1.0
100
AcDbArc
 50
270.0
 51
19.47122063447127
  0
LINE
  5
1C339
330
747D
100
AcDbEntity
  8
部品1
 48
0.01
100
AcDbLine
 10
5430.896575106986
 20
7584.933683184662
 30
0.0
 11
5430.896575106986
 21
7583.933683184662
 31
0.0
  0
LINE
  5
1C33C
330
747D
100
AcDbEntity
  8
部品1
 48
0.01
100
AcDbLine
 10
5431.396575106987
 20
7583.433683184662
 30
0.0
 11
5437.940730984269
 21
7583.433683184662
 31
0.0
  0
ARC
  5
1C33D
330
747D
100
AcDbEntity
  8
部品1
 48
0.01
100
AcDbCircle
 10
5431.396575106987
 20
7583.933683184662
 30
0.0
 40
0.5
100
AcDbArc
 50
180.0
 51
270.0
  0
ARC
  5
1C33F
330
747D
100
AcDbEntity
  8
部品1
100
AcDbCircle
 10
5463.396575106987
 20
7593.43368318466
 30
0.0
 40
26.0
100
AcDbArc
 50
180.0
 51
199.4712206344713
  0
ARC
  5
1C341
330
747D
100
AcDbEntity
  8
部品1
 48
0.01
100
AcDbCircle
 10
5439.396575106986
 20
7598.433683184662
 30
0.0
 40
2.0
100
AcDbArc
 50
90.0
 51
180.0
  0
LINE
  5
1C343
330
747D
100
AcDbEntity
  8
部品1
100
AcDbLine
 10
5437.396575106987
 20
7593.43368318466
 30
0.0
 11
5437.396575106987
 21
7598.433683184662
 31
0.0
  0
ARC
  5
1C344
330
747D
100
AcDbEntity
  8
部品1
100
AcDbCircle
 10
5455.896575106987
 20
7609.233683184662
 30
0.0
 40
16.0
100
AcDbArc
 50
218.3930440192126
 51
254.0576313943716
  0
ARC
  5
1C346
330
747D
100
AcDbEntity
  8
部品1
100
AcDbCircle
 10
5441.004966731799
 20
7597.433683184661
 30
0.0
 40
3.0
100
AcDbArc
 50
38.39304401921267
 51
90.0
  0
LINE
  5
1C347
330
747D
100
AcDbEntity
  8
部品1
 48
0.01
100
AcDbLine
 10
5439.396575106986
 20
7600.433683184661
 30
0.0
 11
5441.004966731799
 21
7600.433683184661
 31
0.0
  0
ARC
  5
1C358
330
747D
100
AcDbEntity
  8
部品1
100
AcDbCircle
 10
5455.896575106987
 20
7609.233683184662
 30
0.0
 40
16.0
100
AcDbArc
 50
285.9423686056284
 51
321.6069559807873
  0
LINE
  5
1C35E
330
747D
100
AcDbEntity
  8
部品1
100
AcDbLine
 10
5459.467289321257
 20
7593.733683184662
 30
0.0
 11
5452.325860892714
 21
7593.733683184662
 31
0.0
  0
ARC
  5
1C360
330
747D
100
AcDbEntity
  8
部品1
100
AcDbCircle
 10
5459.467289321257
 20
7596.733683184663
 30
0.0
 40
3.0
100
AcDbArc
 50
270.0
 51
285.9423686056284
  0
ARC
  5
1C362
330
747D
100
AcDbEntity
  8
部品1
100
AcDbCircle
 10
5452.325860892714
 20
7596.733683184663
 30
0.0
 40
3.0
100
AcDbArc
 50
254.0576313943716
 51
270.0
  0
LINE
  5
1C363
330
747D
100
AcDbEntity
  8
部品1
 48
0.01
100
AcDbLine
 10
5472.396575106986
 20
7600.433683184661
 30
0.0
 11
5470.788183482174
 21
7600.433683184661
 31
0.0
  0
ARC
  5
1C366
330
747D
100
AcDbEntity
  8
部品1
100
AcDbCircle
 10
5470.788183482174
 20
7597.433683184661
 30
0.0
 40
3.0
100
AcDbArc
 50
90.0
 51
141.6069559807873
  0
ARC
  5
1C368
330
747D
100
AcDbEntity
  8
部品1
 48
0.01
100
AcDbCircle
 10
5472.396575106986
 20
7598.433683184662
 30
0.0
 40
2.0
100
AcDbArc
 50
0.0
 51
90.0
  0
LINE
  5
1C369
330
747D
100
AcDbEntity
  8
部品1
100
AcDbLine
 10
5474.396575106986
 20
7593.43368318466
 30
0.0
 11
5474.396575106986
 21
7598.433683184662
 31
0.0
  0
ARC
  5
1C36C
330
747D
100
AcDbEntity
  8
部品1
100
AcDbCircle
 10
5448.396575106986
 20
7593.43368318466
 30
0.0
 40
26.0
100
AcDbArc
 50
340.5287793655287
 51
0.0
  0
ARC
  5
1C36D
330
747D
100
AcDbEntity
  8
部品1
100
AcDbCircle
 10
5473.852419229702
 20
7584.433683184662
 30
0.0
 40
1.0
100
AcDbArc
 50
160.5287793655287
 51
270.0
  0
LINE
  5
1C36F
330
747D
100
AcDbEntity
  8
部品1
 48
0.01
100
AcDbLine
 10
5480.396575106986
 20
7583.433683184662
 30
0.0
 11
5473.784069676923
 21
7583.433683184662
 31
0.0
  0
LINE
  5
1C372
330
747D
100
AcDbEntity
  8
部品1
 48
0.01
100
AcDbLine
 10
5480.896575106986
 20
7584.933683184662
 30
0.0
 11
5480.896575106986
 21
7583.933683184662
 31
0.0
  0
LINE
  5
1C373
330
747D
100
AcDbEntity
  8
部品1
 48
0.01
100
AcDbLine
 10
5480.896575106986
 20
7584.933683184662
 30
0.0
 11
5480.896575106986
 21
7583.933683184662
 31
0.0
  0
ARC
  5
1C374
330
747D
100
AcDbEntity
  8
部品1
 48
0.01
100
AcDbCircle
 10
5480.396575106986
 20
7583.933683184662
 30
0.0
 40
0.5
100
AcDbArc
 50
270.0
 51
0.0
  0
LINE
  5
1C386
330
747D
100
AcDbEntity
  8
細線
100
AcDbLine
 10
6176.396575107
 20
7618.933683184728
 30
0.0
 11
6178.728113397761
 21
7623.933683184701
 31
0.0
  0
LINE
  5
1C387
330
747D
100
AcDbEntity
  8
細線
100
AcDbLine
 10
6246.396575106988
 20
7618.933683184697
 30
0.0
 11
6244.065036816221
 21
7623.933683184683
 31
0.0
  0
LINE
  5
1C388
330
747D
100
AcDbEntity
  8
細線
100
AcDbLine
 10
6244.065036816222
 20
7623.933683184683
 30
0.0
 11
6178.728113397748
 21
7623.933683184671
 31
0.0
  0
LINE
  5
1C389
330
747D
100
AcDbEntity
  8
細線
100
AcDbLine
 10
6316.396575106993
 20
7618.933683184734
 30
0.0
 11
6318.72811339776
 21
7623.93368318472
 31
0.0
  0
LINE
  5
1C38A
330
747D
100
AcDbEntity
  8
細線
100
AcDbLine
 10
6386.396575106988
 20
7618.933683184716
 30
0.0
 11
6384.065036816219
 21
7623.933683184701
 31
0.0
  0
LINE
  5
1C38B
330
747D
100
AcDbEntity
  8
細線
100
AcDbLine
 10
6384.06503681622
 20
7623.933683184701
 30
0.0
 11
6318.728113397747
 21
7623.93368318469
 31
0.0
  0
LINE
  5
1C38C
330
747D
100
AcDbEntity
  8
細線
100
AcDbLine
 10
6456.396575106994
 20
7618.933683184756
 30
0.0
 11
6458.728113397762
 21
7623.933683184741
 31
0.0
  0
LINE
  5
1C38D
330
747D
100
AcDbEntity
  8
細線
100
AcDbLine
 10
6524.065036816222
 20
7623.933683184723
 30
0.0
 11
6458.728113397748
 21
7623.933683184711
 31
0.0
  0
LINE
  5
1C38E
330
747D
100
AcDbEntity
  8
細線
100
AcDbLine
 10
6526.396575106989
 20
7618.933683184737
 30
0.0
 11
6524.065036816222
 21
7623.933683184723
 31
0.0
  0
LINE
  5
1C3A4
330
747D
100
AcDbEntity
  8
細線
100
AcDbLine
 10
7208.896575106983
 20
7654.933683184733
 30
0.0
 11
7206.565036816215
 21
7659.933683184718
 31
0.0
  0
LINE
  5
1C3A5
330
747D
100
AcDbEntity
  8
細線
100
AcDbLine
 10
7206.565036816217
 20
7659.933683184718
 30
0.0
 11
7141.228113397743
 21
7659.933683184708
 31
0.0
  0
LINE
  5
1C3A6
330
747D
100
AcDbEntity
  8
細線
100
AcDbLine
 10
7138.896575106989
 20
7654.933683184751
 30
0.0
 11
7141.228113397755
 21
7659.933683184736
 31
0.0
  0
LINE
  5
1C3A7
330
747D
100
AcDbEntity
  8
細線
100
AcDbLine
 10
7066.565036816214
 20
7659.933683184698
 30
0.0
 11
7001.228113397741
 21
7659.933683184687
 31
0.0
  0
LINE
  5
1C3A8
330
747D
100
AcDbEntity
  8
細線
100
AcDbLine
 10
7068.896575106982
 20
7654.933683184713
 30
0.0
 11
7066.565036816213
 21
7659.933683184698
 31
0.0
  0
LINE
  5
1C3A9
330
747D
100
AcDbEntity
  8
細線
100
AcDbLine
 10
6998.896575106987
 20
7654.933683184729
 30
0.0
 11
7001.228113397754
 21
7659.933683184715
 31
0.0
  0
LINE
  5
1C3AA
330
747D
100
AcDbEntity
  8
細線
100
AcDbLine
 10
6926.565036816215
 20
7659.933683184679
 30
0.0
 11
6861.228113397742
 21
7659.933683184668
 31
0.0
  0
LINE
  5
1C3AB
330
747D
100
AcDbEntity
  8
細線
100
AcDbLine
 10
6928.896575106982
 20
7654.933683184693
 30
0.0
 11
6926.565036816214
 21
7659.933683184679
 31
0.0
  0
LINE
  5
1C3AC
330
747D
100
AcDbEntity
  8
細線
100
AcDbLine
 10
6858.896575106992
 20
7654.933683184724
 30
0.0
 11
6861.228113397754
 21
7659.933683184696
 31
0.0
  0
LINE
  5
1C3AD
330
747D
100
AcDbEntity
  8
細線
100
AcDbLine
 10
7138.896575106975
 20
7654.93368318472
 30
0.0
 11
7068.896575106975
 21
7654.93368318472
 31
0.0
  0
LINE
  5
1C3AE
330
747D
100
AcDbEntity
  8
細線
100
AcDbLine
 10
6998.896575106981
 20
7654.93368318472
 30
0.0
 11
6928.896575106969
 21
7654.933683184721
 31
0.0
  0
LINE
  5
1C3AF
330
747D
100
AcDbEntity
  8
細線
100
AcDbLine
 10
6858.896575106992
 20
7654.933683184724
 30
0.0
 11
6759.896575106989
 21
7654.93368318472
 31
0.0
  0
LINE
  5
1C3B0
330
747D
100
AcDbEntity
  8
細線
100
AcDbLine
 10
6456.396575106978
 20
7618.933683184723
 30
0.0
 11
6386.396575106985
 21
7618.933683184723
 31
0.0
  0
LINE
  5
1C3B1
330
747D
100
AcDbEntity
  8
細線
100
AcDbLine
 10
6316.396575106987
 20
7618.933683184723
 30
0.0
 11
6246.396575106974
 21
7618.933683184724
 31
0.0
  0
LINE
  5
1C3B2
330
747D
100
AcDbEntity
  8
細線
100
AcDbLine
 10
6176.396575107
 20
7618.933683184728
 30
0.0
 11
6105.896575107004
 21
7618.933683184749
 31
0.0
  0
LINE
  5
1DC7C
330
747D
100
AcDbEntity
  8
細線
100
AcDbLine
 10
5944.896575106986
 20
7584.933683184711
 30
0.0
 11
5874.896575106987
 21
7584.933683184701
 31
0.0
  0
LINE
  5
1DC7D
330
747D
100
AcDbEntity
  8
細線
100
AcDbLine
 10
5944.896575106987
 20
7584.933683184754
 30
0.0
 11
5947.228113397756
 21
7589.933683184739
 31
0.0
  0
LINE
  5
1DC7E
330
747D
100
AcDbEntity
  8
細線
100
AcDbLine
 10
6012.565036816216
 20
7589.933683184721
 30
0.0
 11
5947.228113397741
 21
7589.93368318471
 31
0.0
  0
LINE
  5
1DC7F
330
747D
100
AcDbEntity
  8
細線
100
AcDbLine
 10
6014.89657510698
 20
7584.933683184742
 30
0.0
 11
6012.565036816214
 21
7589.933683184721
 31
0.0
  0
LINE
  5
1E435
330
747D
100
AcDbEntity
  8
細線
100
AcDbLine
 10
6596.396575106981
 20
7618.933683184742
 30
0.0
 11
6526.396575106986
 21
7618.933683184742
 31
0.0
  0
LINE
  5
1E436
330
747D
100
AcDbEntity
  8
細線
100
AcDbLine
 10
6666.396575107008
 20
7618.933683184721
 30
0.0
 11
6664.065036816222
 21
7623.933683184744
 31
0.0
  0
LINE
  5
1E437
330
747D
100
AcDbEntity
  8
細線
100
AcDbLine
 10
6664.065036816224
 20
7623.933683184744
 30
0.0
 11
6598.728113397751
 21
7623.933683184732
 31
0.0
  0
LINE
  5
1E438
330
747D
100
AcDbEntity
  8
細線
100
AcDbLine
 10
6596.396575106997
 20
7618.933683184775
 30
0.0
 11
6598.728113397765
 21
7623.933683184761
 31
0.0
  0
LINE
  5
1E4B9
330
747D
100
AcDbEntity
  8
細線
100
AcDbLine
 10
7278.896575106976
 20
7654.933683184741
 30
0.0
 11
7208.896575106978
 21
7654.933683184741
 31
0.0
  0
LINE
  5
1E4BA
330
747D
100
AcDbEntity
  8
細線
100
AcDbLine
 10
7278.89657510699
 20
7654.933683184772
 30
0.0
 11
7281.228113397758
 21
7659.933683184758
 31
0.0
  0
LINE
  5
1E4BB
330
747D
100
AcDbEntity
  8
細線
100
AcDbLine
 10
7346.565036816217
 20
7659.933683184739
 30
0.0
 11
7281.228113397744
 21
7659.933683184728
 31
0.0
  0
LINE
  5
1E4BC
330
747D
100
AcDbEntity
  8
細線
100
AcDbLine
 10
7348.896575106984
 20
7654.933683184754
 30
0.0
 11
7346.565036816217
 21
7659.933683184739
 31
0.0
  0
LINE
  5
1FD6F
330
747D
100
AcDbEntity
  8
破線
 48
10.0
100
AcDbLine
 10
5994.396575107
 20
7735.933683184645
 30
0.0
 11
5339.89657510699
 21
7735.933683184605
 31
0.0
  0
LINE
  5
1FD71
330
747D
100
AcDbEntity
  8
破線
 48
10.0
100
AcDbLine
 10
6685.396575107001
 20
7712.433683184684
 30
0.0
 11
6685.396575106998
 21
8891.933683184729
 31
0.0
  0
LINE
  5
1FD72
330
747D
100
AcDbEntity
  8
破線
 48
10.0
100
AcDbLine
 10
6735.396575106998
 20
7712.433683184688
 30
0.0
 11
6735.396575107007
 21
8891.933683184729
 31
0.0
  0
TEXT
  5
20234
330
747D
100
AcDbEntity
  8
文字
 62
     7
 48
50.0
100
AcDbText
 10
13209.4053442172
 20
58.99859681021485
 30
0.0
 40
100.0
  1
○床面積 ： 3.96㎡(1.20坪) 　
  7
STYLE2
100
AcDbText
  0
TEXT
  5
20645
330
747D
100
AcDbEntity
  8
文字
 62
     7
 48
50.0
100
AcDbText
 10
13583.11819016568
 20
8720.013745883727
 30
0.0
 40
100.0
  1
アンカープレート
  7
STYLE1
100
AcDbText
  0
TEXT
  5
20646
330
747D
100
AcDbEntity
  8
文字
 62
     7
 48
50.0
100
AcDbText
 10
15022.63965474515
 20
8720.013745883722
 30
0.0
 40
100.0
  1
F12            2.3
  7
STYLE1
100
AcDbText
  0
LINE
  5
20647
330
747D
100
AcDbEntity
  8
仕様書枠
 48
50.0
100
AcDbLine
 10
16307.2
 20
10049.6
 30
0.0
 11
13127.2
 21
10049.6
 31
0.0
  0
LINE
  5
20648
330
747D
100
AcDbEntity
  8
仕様書枠
 48
50.0
100
AcDbLine
 10
16307.2
 20
11409.6
 30
0.0
 11
13127.2
 21
11409.6
 31
0.0
  0
LINE
  5
20649
330
747D
100
AcDbEntity
  8
仕様書枠
 48
50.0
100
AcDbLine
 10
16307.19999999999
 20
8349.600000000002
 30
0.0
 11
16307.2
 21
11409.6
 31
0.0
  0
LINE
  5
2064A
330
747D
100
AcDbEntity
  8
仕様書枠
 48
50.0
100
AcDbLine
 10
14785.2
 20
11409.59999999999
 30
0.0
 11
14785.2
 21
8689.600000000005
 31
0.0
  0
LINE
  5
2064B
330
747D
100
AcDbEntity
  8
仕様書枠
 48
50.0
100
AcDbLine
 10
13490.2
 20
11409.6
 30
0.0
 11
13490.20000000001
 21
8689.600000000003
 31
0.0
  0
LINE
  5
2064C
330
747D
100
AcDbEntity
  8
仕様書枠
 48
50.0
100
AcDbLine
 10
16307.2
 20
11239.6
 30
0.0
 11
13127.2
 21
11239.6
 31
0.0
  0
LINE
  5
2064D
330
747D
100
AcDbEntity
  8
仕様書枠
 48
50.0
100
AcDbLine
 10
16307.2
 20
10899.6
 30
0.0
 11
13127.2
 21
10899.6
 31
0.0
  0
LINE
  5
2064E
330
747D
100
AcDbEntity
  8
仕様書枠
 48
50.0
100
AcDbLine
 10
16307.2
 20
11069.6
 30
0.0
 11
13127.2
 21
11069.6
 31
0.0
  0
LINE
  5
2064F
330
747D
100
AcDbEntity
  8
仕様書枠
 48
50.0
100
AcDbLine
 10
16307.19999999999
 20
10559.6
 30
0.0
 11
13127.2
 21
10559.6
 31
0.0
  0
LINE
  5
20650
330
747D
100
AcDbEntity
  8
仕様書枠
 48
50.0
100
AcDbLine
 10
16307.19999999999
 20
10389.6
 30
0.0
 11
13127.2
 21
10389.6
 31
0.0
  0
LINE
  5
20651
330
747D
100
AcDbEntity
  8
仕様書枠
 48
50.0
100
AcDbLine
 10
16307.19999999999
 20
10729.6
 30
0.0
 11
13127.2
 21
10729.6
 31
0.0
  0
TEXT
  5
20652
330
747D
100
AcDbEntity
  8
文字
 62
     7
 48
50.0
100
AcDbText
 10
13197.42518560407
 20
11270.01374588372
 30
0.0
 40
100.0
  1
品番
  7
STYLE1
100
AcDbText
  0
TEXT
  5
20653
330
747D
100
AcDbEntity
  8
文字
 62
     7
 48
50.0
100
AcDbText
 10
13271.19032244792
 20
11100.01374588373
 30
0.0
 40
100.0
  1
1
  7
STYLE1
100
AcDbText
  0
TEXT
  5
20654
330
747D
100
AcDbEntity
  8
文字
 62
     7
 48
50.0
100
AcDbText
 10
13271.19032244792
 20
10930.01374588373
 30
0.0
 40
100.0
  1
2
  7
STYLE1
100
AcDbText
  0
TEXT
  5
20655
330
747D
100
AcDbEntity
  8
文字
 62
     7
 48
50.0
100
AcDbText
 10
13271.19032244792
 20
10590.01374588373
 30
0.0
 40
100.0
  1
4
  7
STYLE1
100
AcDbText
  0
TEXT
  5
20656
330
747D
100
AcDbEntity
  8
文字
 62
     7
 48
50.0
100
AcDbText
 10
13271.19032244792
 20
10760.01374588373
 30
0.0
 40
100.0
  1
3
  7
STYLE1
100
AcDbText
  0
TEXT
  5
20657
330
747D
100
AcDbEntity
  8
文字
 62
     7
 48
50.0
100
AcDbText
 10
13732.03840939434
 20
11270.01374588372
 30
0.0
 40
100.0
  1
部　　品　　名
  7
STYLE1
100
AcDbText
  0
TEXT
  5
20658
330
747D
100
AcDbEntity
  8
文字
 62
     7
 48
50.0
100
AcDbText
 10
14859.79774614482
 20
11270.01374588372
 30
0.0
 40
100.0
  1
材料（材質）　　単位mm
  7
STYLE1
100
AcDbText
  0
TEXT
  5
20659
330
747D
100
AcDbEntity
  8
文字
 62
     7
 48
50.0
100
AcDbText
 10
13583.11819016569
 20
11100.01374588373
 30
0.0
 40
100.0
  1
土台枠
  7
STYLE1
100
AcDbText
  0
TEXT
  5
2065A
330
747D
100
AcDbEntity
  8
文字
 62
     7
 48
50.0
100
AcDbText
 10
13583.1181901657
 20
10760.01374588372
 30
0.0
 40
100.0
  1
柱
  7
STYLE1
100
AcDbText
  0
TEXT
  5
2065B
330
747D
100
AcDbEntity
  8
文字
 62
     7
 48
50.0
100
AcDbText
 10
13583.1181901657
 20
10420.01374588372
 30
0.0
 40
100.0
  1
鴨居
  7
STYLE1
100
AcDbText
  0
TEXT
  5
2065C
330
747D
100
AcDbEntity
  8
文字
 62
     7
 48
50.0
100
AcDbText
 10
13583.1181901657
 20
10250.01374588373
 30
0.0
 40
100.0
  1
桁後
  7
STYLE1
100
AcDbText
  0
TEXT
  5
2065D
330
747D
100
AcDbEntity
  8
文字
 62
     7
 48
50.0
100
AcDbText
 10
13271.19032244792
 20
10420.01374588372
 30
0.0
 40
100.0
  1
5
  7
STYLE1
100
AcDbText
  0
TEXT
  5
2065E
330
747D
100
AcDbEntity
  8
文字
 62
     7
 48
50.0
100
AcDbText
 10
13583.1181901657
 20
10080.01374588372
 30
0.0
 40
100.0
  1
妻板左右
  7
STYLE1
100
AcDbText
  0
TEXT
  5
2065F
330
747D
100
AcDbEntity
  8
文字
 62
     7
 48
50.0
100
AcDbText
 10
13248.77747366447
 20
9570.013745883727
 30
0.0
 40
100.0
  1
10
  7
STYLE1
100
AcDbText
  0
TEXT
  5
20660
330
747D
100
AcDbEntity
  8
文字
 62
     7
 48
50.0
100
AcDbText
 10
13583.11819016568
 20
9400.013745883729
 30
0.0
 40
100.0
  1
壁パネル
  7
STYLE1
100
AcDbText
  0
TEXT
  5
20661
330
747D
100
AcDbEntity
  8
文字
 62
     7
 48
50.0
100
AcDbText
 10
13583.11819016569
 20
9740.013745883729
 30
0.0
 40
100.0
  1
屋根パネル
  7
STYLE1
100
AcDbText
  0
TEXT
  5
20662
330
747D
100
AcDbEntity
  8
文字
 62
     7
 48
50.0
100
AcDbText
 10
13583.1181901657
 20
9910.013745883727
 30
0.0
 40
100.0
  1
鼻隠シ前後
  7
STYLE1
100
AcDbText
  0
TEXT
  5
20663
330
747D
100
AcDbEntity
  8
文字
 62
     7
 48
50.0
100
AcDbText
 10
13271.19032244792
 20
9910.01374588373
 30
0.0
 40
100.0
  1
8
  7
STYLE1
100
AcDbText
  0
TEXT
  5
20664
330
747D
100
AcDbEntity
  8
文字
 62
     7
 48
50.0
100
AcDbText
 10
13271.19032244792
 20
9740.013745883729
 30
0.0
 40
100.0
  1
9
  7
STYLE1
100
AcDbText
  0
TEXT
  5
20665
330
747D
100
AcDbEntity
  8
文字
 62
     7
 48
50.0
100
AcDbText
 10
13271.19032244792
 20
10080.01374588373
 30
0.0
 40
100.0
  1
7
  7
STYLE1
100
AcDbText
  0
TEXT
  5
20666
330
747D
100
AcDbEntity
  8
文字
 62
     7
 48
50.0
100
AcDbText
 10
13271.19032244792
 20
10250.01374588373
 30
0.0
 40
100.0
  1
6
  7
STYLE1
100
AcDbText
  0
LINE
  5
20667
330
747D
100
AcDbEntity
  8
仕様書枠
 48
50.0
100
AcDbLine
 10
16307.19999999999
 20
9709.6
 30
0.0
 11
13127.2
 21
9709.600000000001
 31
0.0
  0
LINE
  5
20668
330
747D
100
AcDbEntity
  8
仕様書枠
 48
50.0
100
AcDbLine
 10
16307.19999999999
 20
9369.599999999998
 30
0.0
 11
13127.2
 21
9369.600000000001
 31
0.0
  0
LINE
  5
20669
330
747D
100
AcDbEntity
  8
仕様書枠
 48
50.0
100
AcDbLine
 10
16307.19999999999
 20
9539.599999999998
 30
0.0
 11
13127.2
 21
9539.6
 31
0.0
  0
LINE
  5
2066A
330
747D
100
AcDbEntity
  8
仕様書枠
 48
50.0
100
AcDbLine
 10
16307.2
 20
10219.6
 30
0.0
 11
13127.2
 21
10219.6
 31
0.0
  0
LINE
  5
2066B
330
747D
100
AcDbEntity
  8
仕様書枠
 48
50.0
100
AcDbLine
 10
16307.2
 20
9879.599999999999
 30
0.0
 11
13127.2
 21
9879.600000000001
 31
0.0
  0
TEXT
  5
2066C
330
747D
100
AcDbEntity
  8
文字
 62
     7
 48
50.0
100
AcDbText
 10
13248.77747366447
 20
9400.013745883727
 30
0.0
 40
100.0
  1
11
  7
STYLE1
100
AcDbText
  0
LINE
  5
2066D
330
747D
100
AcDbEntity
  8
仕様書枠
 48
50.0
100
AcDbLine
 10
16307.19999999999
 20
9199.599999999998
 30
0.0
 11
13127.2
 21
9199.600000000001
 31
0.0
  0
LINE
  5
2066E
330
747D
100
AcDbEntity
  8
仕様書枠
 48
50.0
100
AcDbLine
 10
16307.19999999999
 20
8859.6
 30
0.0
 11
13127.2
 21
8859.600000000002
 31
0.0
  0
TEXT
  5
2066F
330
747D
100
AcDbEntity
  8
文字
 62
     7
 48
50.0
100
AcDbText
 10
13248.77747366447
 20
9060.013745883729
 30
0.0
 40
100.0
  1
13
  7
STYLE1
100
AcDbText
  0
TEXT
  5
20670
330
747D
100
AcDbEntity
  8
文字
 62
     7
 48
50.0
100
AcDbText
 10
13248.77747366447
 20
9230.013745883729
 30
0.0
 40
100.0
  1
12
  7
STYLE1
100
AcDbText
  0
TEXT
  5
20671
330
747D
100
AcDbEntity
  8
文字
 62
     7
 48
50.0
100
AcDbText
 10
15022.63965474517
 20
11100.01374588372
 30
0.0
 40
100.0
  1
F12            1.2
  7
STYLE1
100
AcDbText
  0
TEXT
  5
20672
330
747D
100
AcDbEntity
  8
文字
 62
     7
 48
50.0
100
AcDbText
 10
15022.63965474518
 20
10760.01374588372
 30
0.0
 40
100.0
  1
F12            1.0
  7
STYLE1
100
AcDbText
  0
TEXT
  5
20673
330
747D
100
AcDbEntity
  8
文字
 62
     7
 48
50.0
100
AcDbText
 10
15022.63965474517
 20
10420.01374588372
 30
0.0
 40
100.0
  1
Y10            1.0
  7
STYLE1
100
AcDbText
  0
TEXT
  5
20674
330
747D
100
AcDbEntity
  8
文字
 62
     7
 48
50.0
100
AcDbText
 10
15022.63965474517
 20
10250.01374588372
 30
0.0
 40
100.0
  1
Y10            1.0
  7
STYLE1
100
AcDbText
  0
TEXT
  5
20675
330
747D
100
AcDbEntity
  8
文字
 62
     7
 48
50.0
100
AcDbText
 10
15022.63965474517
 20
10080.01374588372
 30
0.0
 40
100.0
  1
Y10            0.7
  7
STYLE1
100
AcDbText
  0
TEXT
  5
20676
330
747D
100
AcDbEntity
  8
文字
 62
     7
 48
50.0
100
AcDbText
 10
15022.63965474517
 20
9910.013745883725
 30
0.0
 40
100.0
  1
Y10            0.7
  7
STYLE1
100
AcDbText
  0
TEXT
  5
20677
330
747D
100
AcDbEntity
  8
文字
 62
     7
 48
50.0
100
AcDbText
 10
15022.63965474517
 20
9740.013745883725
 30
0.0
 40
100.0
  1
Y10            0.5
  7
STYLE1
100
AcDbText
  0
TEXT
  5
20678
330
747D
100
AcDbEntity
  8
文字
 62
     7
 48
50.0
100
AcDbText
 10
15022.63965474515
 20
9400.013745883725
 30
0.0
 40
100.0
  1
F12            0.7
  7
STYLE1
100
AcDbText
  0
LINE
  5
20679
330
747D
100
AcDbEntity
  8
仕様書枠
 48
50.0
100
AcDbLine
 10
16307.19999999998
 20
8689.600000000003
 30
0.0
 11
13127.19999999999
 21
8689.600000000003
 31
0.0
  0
LINE
  5
2067A
330
747D
100
AcDbEntity
  8
仕様書枠
 48
50.0
100
AcDbLine
 10
16307.19999999998
 20
8519.600000000002
 30
0.0
 11
13127.19999999999
 21
8519.600000000004
 31
0.0
  0
TEXT
  5
2067B
330
747D
100
AcDbEntity
  8
文字
 62
     7
 48
50.0
100
AcDbText
 10
13229.83081656553
 20
8550.013745883731
 30
0.0
 40
100.0
  1
F12→溶融亜鉛めっき鋼板(JIS G 3302)
  7
STYLE1
100
AcDbText
  0
TEXT
  5
2067C
330
747D
100
AcDbEntity
  8
文字
 62
     7
 48
50.0
100
AcDbText
 10
13229.83081656553
 20
8380.013745883731
 30
0.0
 40
100.0
  1
Y10→溶融亜鉛-5％アルミニウム合金めっき鋼板(JIS G 3317)
 41
0.9
  7
STYLE1
100
AcDbText
  0
LINE
  5
2067D
330
747D
100
AcDbEntity
  8
仕様書枠
 48
50.0
100
AcDbLine
 10
13127.2
 20
11409.6
 30
0.0
 11
13127.19999999999
 21
8349.600000000002
 31
0.0
  0
LINE
  5
2067E
330
747D
100
AcDbEntity
  8
仕様書枠
 48
50.0
100
AcDbLine
 10
16307.19999999999
 20
9029.6
 30
0.0
 11
13127.2
 21
9029.600000000002
 31
0.0
  0
TEXT
  5
2067F
330
747D
100
AcDbEntity
  8
文字
 62
     7
 48
50.0
100
AcDbText
 10
13583.1181901657
 20
10590.01374588373
 30
0.0
 40
100.0
  1
床パネル
 41
0.9
  7
STYLE1
100
AcDbText
  0
TEXT
  5
20680
330
747D
100
AcDbEntity
  8
文字
 62
     7
 48
50.0
100
AcDbText
 10
13583.11819016569
 20
10930.01374588372
 30
0.0
 40
100.0
  1
根太
  7
STYLE1
100
AcDbText
  0
TEXT
  5
20681
330
747D
100
AcDbEntity
  8
文字
 62
     7
 48
50.0
100
AcDbText
 10
13248.77747366447
 20
8890.013745883729
 30
0.0
 40
100.0
  1
14
  7
STYLE1
100
AcDbText
  0
TEXT
  5
20682
330
747D
100
AcDbEntity
  8
文字
 62
     7
 48
50.0
100
AcDbText
 10
15022.63965474516
 20
10930.01374588372
 30
0.0
 40
100.0
  1
F12            1.2
  7
STYLE1
100
AcDbText
  0
TEXT
  5
20683
330
747D
100
AcDbEntity
  8
文字
 62
     7
 48
50.0
100
AcDbText
 10
15022.63965474517
 20
10590.01374588372
 30
0.0
 40
100.0
  1
F12            1.0
  7
STYLE1
100
AcDbText
  0
TEXT
  5
20684
330
747D
100
AcDbEntity
  8
文字
 62
     7
 48
50.0
100
AcDbText
 10
15022.63965474515
 20
9230.013745883725
 30
0.0
 40
100.0
  1
F12            0.7
  7
STYLE1
100
AcDbText
  0
TEXT
  5
20685
330
747D
100
AcDbEntity
  8
文字
 62
     7
 48
50.0
100
AcDbText
 10
13583.11819016568
 20
9230.013745883729
 30
0.0
 40
100.0
  1
正面パネル
  7
STYLE1
100
AcDbText
  0
TEXT
  5
20686
330
747D
100
AcDbEntity
  8
文字
 62
     7
 48
50.0
100
AcDbText
 10
15022.63965474515
 20
9060.013745883725
 30
0.0
 40
100.0
  1
F12            0.8
  7
STYLE1
100
AcDbText
  0
TEXT
  5
20687
330
747D
100
AcDbEntity
  8
文字
 62
     7
 48
50.0
100
AcDbText
 10
13583.11819016568
 20
9060.013745883729
 30
0.0
 40
100.0
  1
扉
  7
STYLE1
100
AcDbText
  0
TEXT
  5
20688
330
747D
100
AcDbEntity
  8
文字
 62
     7
 48
50.0
100
AcDbText
 10
15022.63965474515
 20
8890.013745883727
 30
0.0
 40
100.0
  1
F12            0.6
  7
STYLE1
100
AcDbText
  0
TEXT
  5
20689
330
747D
100
AcDbEntity
  8
文字
 62
     7
 48
50.0
100
AcDbText
 10
13583.11819016568
 20
8890.013745883731
 30
0.0
 40
100.0
  1
棚板
  7
STYLE1
100
AcDbText
  0
LINE
  5
2068A
330
747D
100
AcDbEntity
  8
仕様書枠
 48
50.0
100
AcDbLine
 10
16307.19999999998
 20
8349.600000000002
 30
0.0
 11
13127.19999999999
 21
8349.600000000004
 31
0.0
  0
TEXT
  5
2068B
330
747D
100
AcDbEntity
  8
文字
 62
     7
 48
50.0
100
AcDbText
 10
13248.77747366447
 20
8720.013745883731
 30
0.0
 40
100.0
  1
15
  7
STYLE1
100
AcDbText
  0
TEXT
  5
2068C
330
747D
100
AcDbEntity
  8
文字
 62
     7
 48
50.0
100
AcDbText
 10
13583.11819016569
 20
9570.013745883727
 30
0.0
 40
100.0
  1
母屋中
  7
STYLE1
100
AcDbText
  0
TEXT
  5
2068D
330
747D
100
AcDbEntity
  8
文字
 62
     7
 48
50.0
100
AcDbText
 10
14798.72402257234
 20
9570.013745883725
 30
0.0
 40
100.0
  1
F12(一般型1.0/多雪地型2.3)
  7
STYLE1
100
AcDbText
  0
LINE
  5
20793
330
747D
100
AcDbEntity
  8
部品1
100
AcDbLine
 10
7441.896575107001
 20
8056.933683184727
 30
0.0
 11
7469.896575107002
 21
8056.933683184727
 31
0.0
  0
LINE
  5
20794
330
747D
100
AcDbEntity
  8
部品1
100
AcDbLine
 10
5287.896575106981
 20
8896.933683184597
 30
0.0
 11
5259.896575106981
 21
8896.933683184597
 31
0.0
  0
LINE
  5
20795
330
747D
100
AcDbEntity
  8
部品1
 48
50.0
100
AcDbLine
 10
7413.396575106983
 20
8056.933683184727
 30
0.0
 11
5316.396575106981
 21
8056.933683184814
 31
0.0
  0
LWPOLYLINE
  5
21673
330
747D
100
AcDbEntity
  8
部品1
100
AcDbPolyline
 90
        4
 70
     1
 43
0.0
 10
9928.958623800275
 20
2250.019971730181
 10
9928.958623800275
 20
2010.127650184649
 10
10692.42929002871
 20
2010.127650184649
 10
10692.42929002871
 20
2250.019971730181
  0
TEXT
  5
21674
330
747D
100
AcDbEntity
  8
部品1
100
AcDbText
 10
10018.40472522388
 20
2057.126442511658
 30
0.0
 40
135.0
  1
側面図
  7
STYLE2
100
AcDbText
  0
LINE
  5
21C30
330
747D
100
AcDbEntity
  8
部品1
100
AcDbLine
 10
5287.896575106976
 20
8476.933683184604
 30
0.0
 11
5259.896575106975
 21
8476.933683184604
 31
0.0
  0
LINE
  5
21C31
330
747D
100
AcDbEntity
  8
部品1
100
AcDbLine
 10
7441.896575107001
 20
8476.933683184727
 30
0.0
 11
7469.896575107002
 21
8476.933683184727
 31
0.0
  0
LINE
  5
21C32
330
747D
100
AcDbEntity
  8
部品1
 48
50.0
100
AcDbLine
 10
7413.396575106969
 20
8476.933683184727
 30
0.0
 11
5316.396575106969
 21
8476.933683184814
 31
0.0
  0
ARC
  5
22509
330
747D
100
AcDbEntity
  8
細線
100
AcDbCircle
 10
5769.896581606886
 20
7610.433683184712
 30
0.0
 40
6.0
100
AcDbArc
 50
204.6243183521779
 51
335.3756816478222
  0
ARC
  5
2250A
330
747D
100
AcDbEntity
  8
細線
100
AcDbCircle
 10
6421.396581606881
 20
7644.433683184729
 30
0.0
 40
6.0
100
AcDbArc
 50
204.6243183521779
 51
335.3756816478222
  0
LINE
  5
2250B
330
747D
100
AcDbEntity
  8
細線
100
AcDbLine
 10
6093.896575106977
 20
7614.933683184742
 30
0.0
 11
6093.896575106978
 21
7618.933683184742
 31
0.0
  0
LINE
  5
2250C
330
747D
100
AcDbEntity
  8
細線
100
AcDbLine
 10
6093.896575106977
 20
7614.933683184742
 30
0.0
 11
6073.896575106988
 21
7614.933683184742
 31
0.0
  0
LINE
  5
2250D
330
747D
100
AcDbEntity
  8
細線
100
AcDbLine
 10
6073.896575106988
 20
7614.933683184742
 30
0.0
 11
6073.896575106998
 21
7648.93368318475
 31
0.0
  0
LINE
  5
2250E
330
747D
100
AcDbEntity
  8
細線
100
AcDbLine
 10
6114.896575106994
 20
7584.933683184757
 30
0.0
 11
6114.896575107003
 21
7614.933683184756
 31
0.0
  0
LINE
  5
2250F
330
747D
100
AcDbEntity
  8
細線
100
AcDbLine
 10
6114.896575107002
 20
7614.933683184756
 30
0.0
 11
6099.896575106999
 21
7614.933683184753
 31
0.0
  0
LINE
  5
22510
330
747D
100
AcDbEntity
  8
細線
100
AcDbLine
 10
6099.896575106997
 20
7607.933683184753
 30
0.0
 11
6099.896575106999
 21
7614.933683184753
 31
0.0
  0
LINE
  5
22511
330
747D
100
AcDbEntity
  8
細線
100
AcDbLine
 10
6099.896575106978
 20
7618.933683184749
 30
0.0
 11
6093.896575106978
 21
7618.933683184749
 31
0.0
  0
LINE
  5
22512
330
747D
100
AcDbEntity
  8
細線
100
AcDbLine
 10
6105.896575107004
 20
7618.233683184749
 30
0.0
 11
6105.896575107004
 21
7618.933683184749
 31
0.0
  0
ARC
  5
22513
330
747D
100
AcDbEntity
  8
細線
100
AcDbCircle
 10
6103.896575107003
 20
7618.233683184749
 30
0.0
 40
2.0
100
AcDbArc
 50
270.0
 51
0.0
  0
LINE
  5
22514
330
747D
100
AcDbEntity
  8
細線
100
AcDbLine
 10
6101.896575107003
 20
7616.233683184749
 30
0.0
 11
6103.896575107004
 21
7616.233683184749
 31
0.0
  0
LINE
  5
22515
330
747D
100
AcDbEntity
  8
細線
100
AcDbLine
 10
6099.896575107004
 20
7618.233683184749
 30
0.0
 11
6099.896575107004
 21
7618.933683184749
 31
0.0
  0
ARC
  5
22516
330
747D
100
AcDbEntity
  8
細線
100
AcDbCircle
 10
6101.896575107002
 20
7618.233683184749
 30
0.0
 40
2.0
100
AcDbArc
 50
180.0
 51
270.0
  0
LINE
  5
22518
330
747D
100
AcDbEntity
  8
細線
100
AcDbLine
 10
6088.896575106992
 20
7641.933683184728
 30
0.0
 11
6088.896575106996
 21
7648.93368318475
 31
0.0
  0
ARC
  5
22519
330
747D
100
AcDbEntity
  8
細線
100
AcDbCircle
 10
6755.896575106987
 20
7654.233683184719
 30
0.0
 40
2.0
100
AcDbArc
 50
180.0
 51
270.0
  0
LINE
  5
2251A
330
747D
100
AcDbEntity
  8
細線
100
AcDbLine
 10
6753.896575106988
 20
7654.23368318472
 30
0.0
 11
6753.896575106988
 21
7654.93368318472
 31
0.0
  0
LINE
  5
2251B
330
747D
100
AcDbEntity
  8
細線
100
AcDbLine
 10
6755.896575106987
 20
7652.233683184721
 30
0.0
 11
6757.896575106989
 21
7652.233683184721
 31
0.0
  0
ARC
  5
2251C
330
747D
100
AcDbEntity
  8
細線
100
AcDbCircle
 10
6757.896575106987
 20
7654.233683184719
 30
0.0
 40
2.0
100
AcDbArc
 50
270.0
 51
0.0
  0
LINE
  5
2251D
330
747D
100
AcDbEntity
  8
細線
100
AcDbLine
 10
6759.896575106989
 20
7654.23368318472
 30
0.0
 11
6759.896575106989
 21
7654.93368318472
 31
0.0
  0
LINE
  5
22870
330
747D
100
AcDbEntity
  8
細線
100
AcDbLine
 10
6088.896575106995
 20
7648.93368318475
 30
0.0
 11
6073.896575106996
 21
7648.93368318475
 31
0.0
  0
LINE
  5
22871
330
747D
100
AcDbEntity
  8
細線
100
AcDbLine
 10
6742.896575106986
 20
7678.43368318472
 30
0.0
 11
6742.896575106986
 21
7682.933683184716
 31
0.0
  0
MTEXT
  5
2289E
330
747D
100
AcDbEntity
  8
寸法
 62
     7
 48
50.0
100
AcDbMText
 10
5946.277650217345
 20
8967.540286712514
 30
0.0
 40
96.0
 41
0.0
 71
     5
 72
     1
  1
棚 3段
  7
STYLE1
 73
     1
 44
1.0
1001
ACAD
1000
MTEXTBEGIN
1070
    73
1070
     1
1070
    44
1040
1.0
1070
    74
1070
     0
1000
MTEXTEND
  0
MTEXT
  5
2289F
330
747D
100
AcDbEntity
  8
寸法
 62
     7
 48
50.0
100
AcDbMText
 10
7036.277650217343
 20
8967.540286712585
 30
0.0
 40
96.0
 41
0.0
 71
     5
 72
     1
  1
棚 3段
  7
STYLE1
 73
     1
 44
1.0
1001
ACAD
1000
MTEXTBEGIN
1070
    73
1070
     1
1070
    44
1040
1.0
1070
    74
1070
     0
1000
MTEXTEND
  0
DIMENSION
  5
22FF7
330
747D
100
AcDbEntity
  8
寸法
 48
50.0
100
AcDbDimension
  2
*D13
 10
9308.193956914495
 20
2462.627557308341
 30
0.0
 11
9433.193956914491
 21
2462.627557308341
 31
0.0
 70
   160
 71
     5
 42
249.9999999999964
  3
INABA_S40G
100
AcDbAlignedDimension
 13
9558.193956914491
 23
2749.999999999998
 33
0.0
 14
9308.193956914495
 24
2749.999999999998
 34
0.0
100
AcDbRotatedDimension
  0
DIMENSION
  5
22FFB
330
747D
100
AcDbEntity
  8
寸法
 48
50.0
100
AcDbDimension
  2
*D14
 10
9158.693953667858
 20
3000.0
 30
0.0
 11
9158.693953667858
 21
2875.0
 31
0.0
 70
   160
 71
     5
 42
250.0000000000023
  3
INABA_S40G
100
AcDbAlignedDimension
 13
9308.193956914495
 23
2749.999999999998
 33
0.0
 14
9308.193956914495
 24
3000.0
 34
0.0
 50
90.0
100
AcDbRotatedDimension
1001
ACAD
1000
DSTYLE
1002
{
1070
   174
1070
     0
1070
   272
1070
     1
1070
   288
1070
     0
1070
   341
1005
0
1002
}
  0
LINE
  5
23003
330
747D
100
AcDbEntity
  8
部品1
 48
50.0
100
AcDbLine
 10
10150.69395691449
 20
5605.868139101279
 30
0.0
 11
10450.69395691449
 21
5589.668139101281
 31
0.0
  0
DIMENSION
  5
23004
330
747D
100
AcDbEntity
  8
寸法
 48
50.0
100
AcDbDimension
  2
*D15
 10
8785.085550146135
 20
5349.345258873322
 30
0.0
 11
8795.751025405055
 21
5720.191922115023
 31
0.0
 70
   161
 71
     5
 42
141.0000000000009
  3
INABA_S40G
100
AcDbAlignedDimension
 13
9365.089977073072
 23
5473.72274883468
 33
0.0
 14
9361.036521516448
 24
5332.781025068968
 34
0.0
1001
ACAD
1000
DSTYLE
1002
{
1070
   174
1070
     0
1070
   272
1070
     1
1070
   288
1070
     0
1070
   341
1005
0
1002
}
  0
LINE
  5
23005
330
747D
100
AcDbEntity
  8
部品1
 48
50.0
100
AcDbLine
 10
10200.69395691449
 20
3100.0
 30
0.0
 11
10200.69395691449
 21
3000.0
 31
0.0
  0
LINE
  5
23006
330
747D
100
AcDbEntity
  8
部品1
 48
50.0
100
AcDbLine
 10
10400.69395691449
 20
3100.0
 30
0.0
 11
10400.69395691449
 21
3000.0
 31
0.0
  0
LINE
  5
23007
330
747D
100
AcDbEntity
  8
細線
 48
50.0
100
AcDbLine
 10
11063.1939569145
 20
5240.0
 30
0.0
 11
11063.1939569145
 21
3150.0
 31
0.0
  0
LINE
  5
23008
330
747D
100
AcDbEntity
  8
細線
 48
50.0
100
AcDbLine
 10
11078.1939569145
 20
5240.0
 30
0.0
 11
11078.1939569145
 21
3150.0
 31
0.0
  0
LINE
  5
23009
330
747D
100
AcDbEntity
  8
細線
 48
50.0
100
AcDbLine
 10
10938.1939569145
 20
5240.0
 30
0.0
 11
10938.1939569145
 21
3150.0
 31
0.0
  0
LINE
  5
2300A
330
747D
100
AcDbEntity
  8
細線
 48
50.0
100
AcDbLine
 10
10923.1939569145
 20
5240.0
 30
0.0
 11
10923.1939569145
 21
3150.0
 31
0.0
  0
LINE
  5
2300B
330
747D
100
AcDbEntity
  8
細線
 48
50.0
100
AcDbLine
 10
10783.1939569145
 20
5240.0
 30
0.0
 11
10783.1939569145
 21
3150.0
 31
0.0
  0
LINE
  5
2300C
330
747D
100
AcDbEntity
  8
細線
 48
50.0
100
AcDbLine
 10
10798.1939569145
 20
5240.0
 30
0.0
 11
10798.1939569145
 21
3150.0
 31
0.0
  0
LINE
  5
2300D
330
747D
100
AcDbEntity
  8
部品1
100
AcDbLine
 10
10720.69395691449
 20
5240.0
 30
0.0
 11
10720.69395691449
 21
3150.0
 31
0.0
  0
LINE
  5
2300E
330
747D
100
AcDbEntity
  8
細線
 48
50.0
100
AcDbLine
 10
10378.19395691449
 20
5240.0
 30
0.0
 11
10378.19395691449
 21
3150.0
 31
0.0
  0
LINE
  5
2300F
330
747D
100
AcDbEntity
  8
細線
 48
50.0
100
AcDbLine
 10
10363.19395691449
 20
5240.0
 30
0.0
 11
10363.19395691449
 21
3150.0
 31
0.0
  0
LINE
  5
23010
330
747D
100
AcDbEntity
  8
細線
 48
50.0
100
AcDbLine
 10
10503.19395691449
 20
5240.0
 30
0.0
 11
10503.19395691449
 21
3150.0
 31
0.0
  0
LINE
  5
23011
330
747D
100
AcDbEntity
  8
細線
 48
50.0
100
AcDbLine
 10
10518.19395691449
 20
5240.0
 30
0.0
 11
10518.19395691449
 21
3150.0
 31
0.0
  0
LINE
  5
23012
330
747D
100
AcDbEntity
  8
細線
 48
50.0
100
AcDbLine
 10
10658.19395691449
 20
5240.0
 30
0.0
 11
10658.19395691449
 21
3150.0
 31
0.0
  0
LINE
  5
23013
330
747D
100
AcDbEntity
  8
細線
 48
50.0
100
AcDbLine
 10
10643.19395691449
 20
5240.0
 30
0.0
 11
10643.19395691449
 21
3150.0
 31
0.0
  0
LINE
  5
23014
330
747D
100
AcDbEntity
  8
部品1
100
AcDbLine
 10
10300.69395691449
 20
5240.0
 30
0.0
 11
10300.69395691449
 21
3150.0
 31
0.0
  0
TEXT
  5
23059
330
747D
100
AcDbEntity
  8
部品1
 48
50.0
100
AcDbText
 10
10627.78680420235
 20
5504.25090303543
 30
0.0
 40
120.0
  1
54
 50
90.0
  7
STYLE1
100
AcDbText
  0
TEXT
  5
2305A
330
747D
100
AcDbEntity
  8
部品1
 48
50.0
100
AcDbText
 10
10138.96179213822
 20
5641.752161253712
 30
0.0
 40
120.0
  1
1000
  7
STYLE1
100
AcDbText
  0
LINE
  5
2305B
330
747D
100
AcDbEntity
  8
部品1
 48
50.0
100
AcDbLine
 10
10450.69395691449
 20
5605.868139101279
 30
0.0
 11
10450.69395691449
 21
5589.668139101281
 31
0.0
  0
LINE
  5
2305C
330
747D
100
AcDbEntity
  8
部品1
 48
50.0
100
AcDbLine
 10
10150.69395691449
 20
5605.868139101279
 30
0.0
 11
10450.69395691449
 21
5605.868139101279
 31
0.0
  0
DIMENSION
  5
23092
330
747D
100
AcDbEntity
  8
寸法
 48
50.0
100
AcDbDimension
  2
*D16
 10
11275.69395691449
 20
5873.657453579305
 30
0.0
 11
11481.74120100898
 21
5873.657453579305
 31
0.0
 70
   160
 71
     5
 42
80.0
  3
INABA_S40G
100
AcDbAlignedDimension
 13
11195.69395691449
 23
5421.810679611653
 33
0.0
 14
11275.69395691449
 24
5420.000000000001
 34
0.0
100
AcDbRotatedDimension
1001
ACAD
1000
DSTYLE
1002
{
1070
   174
1070
     0
1070
   272
1070
     1
1070
   288
1070
     0
1070
   341
1005
0
1002
}
  0
ARC
  5
23093
330
747D
100
AcDbEntity
  8
部品1
100
AcDbCircle
 10
11261.32149272843
 20
5314.023757265792
 30
0.0
 40
0.7
100
AcDbArc
 50
275.0921697642621
 51
354.1866997666775
  0
ARC
  5
23094
330
747D
100
AcDbEntity
  8
部品1
100
AcDbCircle
 10
11272.18083847775
 20
5391.067012083716
 30
0.0
 40
0.7
100
AcDbArc
 50
275.0921697642621
 51
354.186699766522
  0
ARC
  5
23095
330
747D
100
AcDbEntity
  8
部品1
100
AcDbCircle
 10
11272.50924372035
 20
5387.381615226626
 30
0.0
 40
3.0
100
AcDbArc
 50
95.092169764314
 51
174.1866997665219
  0
ARC
  5
23096
330
747D
100
AcDbEntity
  8
部品1
100
AcDbCircle
 10
11261.64989797102
 20
5310.338360408702
 30
0.0
 40
3.0
100
AcDbArc
 50
95.0921697642102
 51
174.1866997665219
  0
ARC
  5
23097
330
747D
100
AcDbEntity
  8
部品1
 48
50.0
100
AcDbCircle
 10
11250.62176269592
 20
5300.74761580482
 30
0.0
 40
7.0
100
AcDbArc
 50
267.8377559870533
 51
354.186699766522
  0
ARC
  5
23098
330
747D
100
AcDbEntity
  8
部品1
 48
50.0
100
AcDbCircle
 10
11267.94385916044
 20
5411.650162946993
 30
0.0
 40
7.0
100
AcDbArc
 50
354.186699766522
 51
87.03587545293501
  0
LINE
  5
23099
330
747D
100
AcDbEntity
  8
部品1
 48
50.0
100
AcDbLine
 10
11258.66532630042
 20
5310.642222125605
 30
0.0
 11
11257.58576326068
 21
5300.038605132047
 31
0.0
  0
LINE
  5
2309A
330
747D
100
AcDbEntity
  8
部品1
 48
50.0
100
AcDbLine
 10
11269.52467204974
 20
5387.68547694353
 30
0.0
 11
11262.0178927849
 21
5313.952856198517
 31
0.0
  0
LINE
  5
2309B
330
747D
100
AcDbEntity
  8
部品1
 48
50.0
100
AcDbLine
 10
11274.90785972519
 20
5410.941152274219
 30
0.0
 11
11272.87723853422
 21
5390.996111016439
 31
0.0
  0
ARC
  5
2309C
330
747D
100
AcDbEntity
  8
部品1
100
AcDbCircle
 10
9351.731048785858
 20
5353.814158958904
 30
0.0
 40
0.7
100
AcDbArc
 50
181.0932240292375
 51
260.1877540315916
  0
ARC
  5
2309D
330
747D
100
AcDbEntity
  8
部品1
100
AcDbCircle
 10
9346.958375188249
 20
5446.679937159023
 30
0.0
 40
0.7
100
AcDbArc
 50
181.0932240292375
 51
260.1877540315916
  0
ARC
  5
2309E
330
747D
100
AcDbEntity
  8
部品1
100
AcDbCircle
 10
9346.327820785226
 20
5443.034062621626
 30
0.0
 40
3.0
100
AcDbArc
 50
1.093224029289586
 51
80.18775403159162
  0
ARC
  5
2309F
330
747D
100
AcDbEntity
  8
部品1
100
AcDbCircle
 10
9351.100494382832
 20
5350.168284421506
 30
0.0
 40
3.0
100
AcDbArc
 50
1.093224029289586
 51
80.18775403154029
  0
ARC
  5
230A0
330
747D
100
AcDbEntity
  8
部品1
 48
50.0
100
AcDbCircle
 10
9361.300626758035
 20
5339.776041039026
 30
0.0
 40
7.0
100
AcDbArc
 50
181.0932240292895
 51
267.8377559870533
  0
ARC
  5
230A1
330
747D
100
AcDbEntity
  8
部品1
 48
50.0
100
AcDbCircle
 10
9352.876968655939
 20
5466.72710057212
 30
0.0
 40
7.0
100
AcDbArc
 50
87.03587545293501
 51
181.0932240292895
  0
LINE
  5
230A2
330
747D
100
AcDbEntity
  8
部品1
 48
50.0
100
AcDbLine
 10
9354.099948309263
 20
5350.22552202469
 30
0.0
 11
9354.301900929696
 21
5339.642486631597
 31
0.0
  0
LINE
  5
230A3
330
747D
100
AcDbEntity
  8
細線
 48
50.0
100
AcDbLine
 10
9351.493855252593
 20
5353.155570143498
 30
0.0
 11
11261.49751968323
 21
5313.346251169004
 31
0.0
  0
LINE
  5
230A4
330
747D
100
AcDbEntity
  8
細線
 48
50.0
100
AcDbLine
 10
9346.733380015306
 20
5446.017081841361
 30
0.0
 11
11272.36936476047
 21
5390.392877200533
 31
0.0
  0
LINE
  5
230A5
330
747D
100
AcDbEntity
  8
部品1
 48
50.0
100
AcDbLine
 10
9349.327274711658
 20
5443.091300224809
 30
0.0
 11
9351.031176203024
 21
5353.800803518161
 31
0.0
  0
LINE
  5
230A6
330
747D
100
AcDbEntity
  8
部品1
 48
50.0
100
AcDbLine
 10
9345.8782428276
 20
5466.593546164693
 30
0.0
 11
9346.258502605413
 21
5446.666581718281
 31
0.0
  0
LINE
  5
230A7
330
747D
100
AcDbEntity
  8
細線
 48
50.0
100
AcDbLine
 10
11242.69395691449
 20
5419.966979035296
 30
0.0
 11
11237.94627402649
 21
5294.221206544552
 31
0.0
  0
LINE
  5
230A8
330
747D
100
AcDbEntity
  8
細線
 48
50.0
100
AcDbLine
 10
9378.693956914494
 20
5472.399676375405
 30
0.0
 11
9373.404855358984
 21
5332.31404374805
 31
0.0
  0
LINE
  5
230A9
330
747D
100
AcDbEntity
  8
部品1
100
AcDbLine
 10
9361.036521516448
 20
5332.781025068968
 30
0.0
 11
11250.35765745433
 21
5293.752599834761
 31
0.0
  0
LINE
  5
230AA
330
747D
100
AcDbEntity
  8
部品1
100
AcDbLine
 10
9353.238943271454
 20
5473.717735334266
 30
0.0
 11
11268.30583377595
 21
5418.640797709139
 31
0.0
  0
LINE
  5
230AB
330
747D
100
AcDbEntity
  8
細線
 48
50.0
100
AcDbLine
 10
9538.193956914494
 20
5240.0
 30
0.0
 11
9538.193956914494
 21
3150.0
 31
0.0
  0
LINE
  5
230AC
330
747D
100
AcDbEntity
  8
細線
 48
50.0
100
AcDbLine
 10
9523.193956914493
 20
5240.0
 30
0.0
 11
9523.193956914493
 21
3150.0
 31
0.0
  0
LINE
  5
230AD
330
747D
100
AcDbEntity
  8
細線
 48
50.0
100
AcDbLine
 10
9663.193956914494
 20
5240.0
 30
0.0
 11
9663.193956914494
 21
3150.0
 31
0.0
  0
LINE
  5
230AE
330
747D
100
AcDbEntity
  8
細線
 48
50.0
100
AcDbLine
 10
9678.193956914492
 20
5240.0
 30
0.0
 11
9678.193956914492
 21
3150.0
 31
0.0
  0
LINE
  5
230AF
330
747D
100
AcDbEntity
  8
細線
 48
50.0
100
AcDbLine
 10
9818.193956914493
 20
5240.0
 30
0.0
 11
9818.193956914493
 21
3150.0
 31
0.0
  0
LINE
  5
230B0
330
747D
100
AcDbEntity
  8
細線
 48
50.0
100
AcDbLine
 10
9803.193956914492
 20
5240.0
 30
0.0
 11
9803.193956914492
 21
3150.0
 31
0.0
  0
LINE
  5
230B1
330
747D
100
AcDbEntity
  8
細線
 48
50.0
100
AcDbLine
 10
10223.19395691449
 20
5240.0
 30
0.0
 11
10223.19395691449
 21
3150.0
 31
0.0
  0
LINE
  5
230B2
330
747D
100
AcDbEntity
  8
細線
 48
50.0
100
AcDbLine
 10
10238.19395691449
 20
5240.0
 30
0.0
 11
10238.19395691449
 21
3150.0
 31
0.0
  0
LINE
  5
230B3
330
747D
100
AcDbEntity
  8
細線
 48
50.0
100
AcDbLine
 10
10098.19395691449
 20
5240.0
 30
0.0
 11
10098.19395691449
 21
3150.0
 31
0.0
  0
LINE
  5
230B4
330
747D
100
AcDbEntity
  8
細線
 48
50.0
100
AcDbLine
 10
10083.19395691449
 20
5240.0
 30
0.0
 11
10083.19395691449
 21
3150.0
 31
0.0
  0
LINE
  5
230B5
330
747D
100
AcDbEntity
  8
細線
 48
50.0
100
AcDbLine
 10
9943.193956914493
 20
5240.0
 30
0.0
 11
9943.193956914493
 21
3150.0
 31
0.0
  0
LINE
  5
230B6
330
747D
100
AcDbEntity
  8
細線
 48
50.0
100
AcDbLine
 10
9958.193956914492
 20
5240.0
 30
0.0
 11
9958.193956914492
 21
3150.0
 31
0.0
  0
LINE
  5
230C0
330
747D
100
AcDbEntity
  8
部品1
100
AcDbLine
 10
9453.193956914494
 20
3100.0
 30
0.0
 11
11148.19395691449
 21
3100.0
 31
0.0
  0
LINE
  5
230C1
330
747D
100
AcDbEntity
  8
部品1
100
AcDbLine
 10
11188.19395691449
 20
3100.0
 30
0.0
 11
11195.69395691449
 21
3100.0
 31
0.0
  0
LINE
  5
230C6
330
747D
100
AcDbEntity
  8
破線
  6
HIDDEN
 48
5.0
100
AcDbLine
 10
9453.193956914494
 20
3000.0
 30
0.0
 11
9453.193956914494
 21
2995.0
 31
0.0
  0
LINE
  5
230C7
330
747D
100
AcDbEntity
  8
破線
  6
HIDDEN
 48
5.0
100
AcDbLine
 10
9413.193956914497
 20
3000.0
 30
0.0
 11
9413.193956914497
 21
2995.000000000001
 31
0.0
  0
LINE
  5
230C8
330
747D
100
AcDbEntity
  8
破線
  6
HIDDEN
 48
5.0
100
AcDbLine
 10
11188.19395691449
 20
3000.0
 30
0.0
 11
11188.19395691449
 21
2995.0
 31
0.0
  0
LINE
  5
230C9
330
747D
100
AcDbEntity
  8
破線
  6
HIDDEN
 48
5.0
100
AcDbLine
 10
11148.19395691449
 20
3000.0
 30
0.0
 11
11148.19395691449
 21
2995.0
 31
0.0
  0
ARC
  5
230CA
330
747D
100
AcDbEntity
  8
部品1
 48
50.0
100
AcDbCircle
 10
11183.19395691449
 20
3140.0
 30
0.0
 40
5.0
100
AcDbArc
 50
0.0
 51
90.0
  0
ARC
  5
230CB
330
747D
100
AcDbEntity
  8
部品1
 48
50.0
100
AcDbCircle
 10
11153.19395691449
 20
3140.0
 30
0.0
 40
5.0
100
AcDbArc
 50
90.0
 51
180.0
  0
LINE
  5
230CC
330
747D
100
AcDbEntity
  8
部品1
100
AcDbLine
 10
11183.19395691449
 20
3145.0
 30
0.0
 11
11153.19395691449
 21
3145.0
 31
0.0
  0
LINE
  5
230CD
330
747D
100
AcDbEntity
  8
部品1
 48
50.0
100
AcDbLine
 10
11188.19395691449
 20
3140.0
 30
0.0
 11
11188.19395691449
 21
3000.0
 31
0.0
  0
LINE
  5
230CE
330
747D
100
AcDbEntity
  8
部品1
 48
50.0
100
AcDbLine
 10
11148.19395691449
 20
3140.0
 30
0.0
 11
11148.19395691449
 21
3000.0
 31
0.0
  0
ARC
  5
230CF
330
747D
100
AcDbEntity
  8
部品1
 48
50.0
100
AcDbCircle
 10
9448.193956914494
 20
3140.0
 30
0.0
 40
5.0
100
AcDbArc
 50
0.0
 51
90.0
  0
ARC
  5
230D0
330
747D
100
AcDbEntity
  8
部品1
 48
50.0
100
AcDbCircle
 10
9418.193956914491
 20
3140.000000000001
 30
0.0
 40
5.0
100
AcDbArc
 50
90.0
 51
180.0
  0
LINE
  5
230D1
330
747D
100
AcDbEntity
  8
部品1
100
AcDbLine
 10
9418.193956914491
 20
3145.000000000001
 30
0.0
 11
9448.193956914494
 21
3145.0
 31
0.0
  0
LINE
  5
230D2
330
747D
100
AcDbEntity
  8
部品1
 48
50.0
100
AcDbLine
 10
9453.193956914494
 20
3140.0
 30
0.0
 11
9453.193956914491
 21
3000.0
 31
0.0
  0
LINE
  5
230D3
330
747D
100
AcDbEntity
  8
部品1
 48
50.0
100
AcDbLine
 10
9413.19395691449
 20
3140.000000000001
 30
0.0
 11
9413.193956914495
 21
3000.0
 31
0.0
  0
LINE
  5
230D4
330
747D
100
AcDbEntity
  8
破線
  6
HIDDEN
 48
5.0
100
AcDbLine
 10
9453.193956914494
 20
2995.0
 30
0.0
 11
9468.193956914495
 21
2847.3
 31
0.0
  0
LINE
  5
230D5
330
747D
100
AcDbEntity
  8
破線
  6
HIDDEN
 48
5.0
100
AcDbLine
 10
9413.193956914495
 20
2995.000000000001
 30
0.0
 11
9398.193956914491
 21
2847.3
 31
0.0
  0
LINE
  5
230D6
330
747D
100
AcDbEntity
  8
破線
  6
HIDDEN
 48
5.0
100
AcDbLine
 10
9468.193956914495
 20
2847.3
 30
0.0
 11
9468.19395691449
 21
2845.0
 31
0.0
  0
LINE
  5
230D7
330
747D
100
AcDbEntity
  8
破線
  6
HIDDEN
 48
5.0
100
AcDbLine
 10
9398.193956914491
 20
2847.3
 30
0.0
 11
9398.193956914491
 21
2845.0
 31
0.0
  0
LINE
  5
230D8
330
747D
100
AcDbEntity
  8
破線
  6
HIDDEN
 48
5.0
100
AcDbLine
 10
9398.193956914491
 20
2845.0
 30
0.0
 11
9468.19395691449
 21
2845.0
 31
0.0
  0
LINE
  5
230D9
330
747D
100
AcDbEntity
  8
破線
  6
HIDDEN
 48
5.0
100
AcDbLine
 10
11203.19395691449
 20
2847.3
 30
0.0
 11
11203.19395691449
 21
2845.0
 31
0.0
  0
LINE
  5
230DA
330
747D
100
AcDbEntity
  8
破線
  6
HIDDEN
 48
5.0
100
AcDbLine
 10
11188.19395691449
 20
2995.0
 30
0.0
 11
11203.19395691449
 21
2847.3
 31
0.0
  0
LINE
  5
230DB
330
747D
100
AcDbEntity
  8
破線
  6
HIDDEN
 48
5.0
100
AcDbLine
 10
11133.19395691449
 20
2847.3
 30
0.0
 11
11133.19395691449
 21
2845.0
 31
0.0
  0
LINE
  5
230DC
330
747D
100
AcDbEntity
  8
破線
  6
HIDDEN
 48
5.0
100
AcDbLine
 10
11148.19395691449
 20
2995.0
 30
0.0
 11
11133.19395691449
 21
2847.3
 31
0.0
  0
LINE
  5
230DD
330
747D
100
AcDbEntity
  8
破線
  6
HIDDEN
 48
5.0
100
AcDbLine
 10
11203.19395691449
 20
2845.0
 30
0.0
 11
11133.19395691449
 21
2845.0
 31
0.0
  0
DIMENSION
  5
230ED
330
747D
100
AcDbEntity
  8
寸法
 48
50.0
100
AcDbDimension
  2
*D17
 10
9345.693956914495
 20
6090.619268957919
 30
0.0
 11
10251.49970816546
 21
6090.619268957919
 31
0.0
 70
   160
 71
     5
 42
1930.0
  3
INABA_S40G
100
AcDbAlignedDimension
 13
11275.69395691449
 23
5420.000000000001
 33
0.0
 14
9345.693956914495
 24
5475.000000000004
 34
0.0
100
AcDbRotatedDimension
1001
ACAD
1000
DSTYLE
1002
{
1070
   174
1070
     0
1070
   272
1070
     1
1070
   288
1070
     0
1070
   341
1005
0
1002
}
  0
DIMENSION
  5
230EE
330
747D
100
AcDbEntity
  8
寸法
 48
50.0
100
AcDbDimension
  2
*D18
 10
9345.693956914495
 20
5873.657453579305
 30
0.0
 11
9036.056161638905
 21
5873.657453579305
 31
0.0
 70
   160
 71
     5
 42
60.0
  3
INABA_S40G
100
AcDbAlignedDimension
 13
9405.693956914495
 23
5471.001618122977
 33
0.0
 14
9345.693956914495
 24
5475.000000000004
 34
0.0
100
AcDbRotatedDimension
1001
ACAD
1000
DSTYLE
1002
{
1070
   174
1070
     0
1070
   272
1070
     1
1070
   288
1070
     0
1070
   341
1005
0
1002
}
  0
DIMENSION
  5
230EF
330
747D
100
AcDbEntity
  8
寸法
 48
50.0
100
AcDbDimension
  2
*D19
 10
9405.693956914495
 20
5874.093169339474
 30
0.0
 11
10315.28960559097
 21
5874.093169339474
 31
0.0
 70
   160
  1
柱外寸法<>
 71
     5
 42
1790.0
  3
INABA_S40G
100
AcDbAlignedDimension
 13
11195.69395691449
 23
5421.810679611653
 33
0.0
 14
9405.693956914495
 24
5471.001618122977
 34
0.0
100
AcDbRotatedDimension
1001
ACAD
1000
DSTYLE
1002
{
1070
   174
1070
     0
1070
   272
1070
     1
1070
   288
1070
     0
1070
   341
1005
0
1002
}
  0
LINE
  5
230F0
330
747D
100
AcDbEntity
  8
部品1
100
AcDbLine
 10
10995.69395691449
 20
3100.0
 30
0.0
 11
10995.69395691449
 21
3000.0
 31
0.0
  0
LINE
  5
230F1
330
747D
100
AcDbEntity
  8
部品1
100
AcDbLine
 10
9605.693956914493
 20
3100.0
 30
0.0
 11
9605.693956914493
 21
3000.0
 31
0.0
  0
DIMENSION
  5
230F3
330
747D
100
AcDbEntity
  8
寸法
100
AcDbDimension
  2
*D20
 10
11900.62111488662
 20
5420.000000000001
 30
0.0
 11
11800.609303863
 21
4260.000000000001
 31
0.0
 70
    32
 71
     5
 42
2320.000000000002
  3
INABA_S40G
100
AcDbAlignedDimension
 13
11195.69395691449
 23
3100.0
 33
0.0
 14
11275.69395691449
 24
5420.000000000001
 34
0.0
 50
90.0
100
AcDbRotatedDimension
1001
ACAD
1000
DSTYLE
1002
{
1070
   174
1070
     0
1070
   272
1070
     1
1070
   288
1070
     0
1070
   341
1005
0
1002
}
  0
LINE
  5
230F4
330
747D
100
AcDbEntity
  8
部品1
100
AcDbLine
 10
11140.69395691449
 20
5240.0
 30
0.0
 11
11140.69395691449
 21
3150.0
 31
0.0
  0
LINE
  5
230F5
330
747D
100
AcDbEntity
  8
部品1
100
AcDbLine
 10
11195.69395691449
 20
5294.881808686007
 30
0.0
 11
11195.69395691449
 21
3000.0
 31
0.0
  0
LINE
  5
230F6
330
747D
100
AcDbEntity
  8
部品1
100
AcDbLine
 10
9880.693956914493
 20
5240.0
 30
0.0
 11
9880.693956914493
 21
3150.0
 31
0.0
  0
DIMENSION
  5
230F7
330
747D
100
AcDbEntity
  8
寸法
100
AcDbDimension
  2
*D21
 10
8561.943827731232
 20
3100.0
 30
0.0
 11
8561.943827731232
 21
2793.952755905512
 31
0.0
 70
   160
 71
     5
 42
50.0
  3
INABA_S40G
100
AcDbAlignedDimension
 13
9405.693956914493
 23
3150.0
 33
0.0
 14
9350.693956914494
 24
3100.0
 34
0.0
 50
90.0
100
AcDbRotatedDimension
1001
ACAD
1000
DSTYLE
1002
{
1070
   174
1070
     0
1070
   272
1070
     1
1070
   288
1070
     0
1070
   341
1005
0
1002
}
  0
DIMENSION
  5
230F8
330
747D
100
AcDbEntity
  8
寸法
100
AcDbDimension
  2
*D22
 10
8261.943827731233
 20
3000.0
 30
0.0
 11
8261.943827731233
 21
2763.952755905512
 31
0.0
 70
   160
 71
     5
 42
100.0000000000004
  3
INABA_S40G
100
AcDbAlignedDimension
 13
9350.693956914494
 23
3100.0
 33
0.0
 14
8349.19288101936
 24
3000.0
 34
0.0
 50
90.0
100
AcDbRotatedDimension
1001
ACAD
1000
DSTYLE
1002
{
1070
   174
1070
     0
1070
   272
1070
     1
1070
   288
1070
     0
1070
   341
1005
0
1002
}
  0
DIMENSION
  5
230F9
330
747D
100
AcDbEntity
  8
寸法
100
AcDbDimension
  2
*D23
 10
8261.943827731233
 20
5475.000000000004
 30
0.0
 11
8161.932016707609
 21
4287.500000000004
 31
0.0
 70
    32
 71
     5
 42
2375.000000000004
  3
INABA_S40G
100
AcDbAlignedDimension
 13
9405.693956914493
 23
3100.0
 33
0.0
 14
9345.693956914495
 24
5475.000000000004
 34
0.0
 50
90.0
100
AcDbRotatedDimension
1001
ACAD
1000
DSTYLE
1002
{
1070
   174
1070
     0
1070
   272
1070
     1
1070
   288
1070
     0
1070
   341
1005
0
1002
}
  0
DIMENSION
  5
230FA
330
747D
100
AcDbEntity
  8
寸法
100
AcDbDimension
  2
*D24
 10
8561.943827731232
 20
3150.0
 30
0.0
 11
8461.932016707612
 21
4195.000000000001
 31
0.0
 70
    32
 71
     5
 42
2089.999999999999
  3
INABA_S40G
100
AcDbAlignedDimension
 13
9405.693956914493
 23
5240.0
 33
0.0
 14
9405.693956914493
 24
3150.0
 34
0.0
 50
90.0
100
AcDbRotatedDimension
1001
ACAD
1000
DSTYLE
1002
{
1070
   174
1070
     0
1070
   272
1070
     1
1070
   288
1070
     0
1070
   341
1005
0
1002
}
  0
DIMENSION
  5
230FB
330
747D
100
AcDbEntity
  8
寸法
100
AcDbDimension
  2
*D25
 10
8860.785315517238
 20
3162.000000000001
 30
0.0
 11
8760.773504493617
 21
4197.000000000001
 31
0.0
 70
    32
  1
有効開口部高サ<>
 71
     5
 42
2070.0
  3
INABA_S40G
100
AcDbAlignedDimension
 13
9405.693956914493
 23
5232.0
 33
0.0
 14
9405.693956914493
 24
3162.0
 34
0.0
 50
90.0
100
AcDbRotatedDimension
1001
ACAD
1000
DSTYLE
1002
{
1070
   174
1070
     0
1070
   272
1070
     1
1070
   288
1070
     0
1070
   341
1005
0
1002
}
  0
LINE
  5
230FC
330
747D
100
AcDbEntity
  8
部品1
100
AcDbLine
 10
9405.693956914493
 20
5331.858519442247
 30
0.0
 11
9405.693956914493
 21
3000.0
 31
0.0
  0
LINE
  5
230FD
330
747D
100
AcDbEntity
  8
部品1
100
AcDbLine
 10
9460.693956914493
 20
5240.0
 30
0.0
 11
9460.693956914493
 21
3150.0
 31
0.0
  0
LINE
  5
230FE
330
747D
100
AcDbEntity
  8
部品1
100
AcDbLine
 10
9405.693956914493
 20
3100.0
 30
0.0
 11
9413.193956914494
 21
3100.0
 31
0.0
  0
LINE
  5
230FF
330
747D
100
AcDbEntity
  8
部品1
100
AcDbLine
 10
9405.693956914493
 20
3150.0
 30
0.0
 11
11195.69395691449
 21
3150.0
 31
0.0
  0
LINE
  5
23100
330
747D
100
AcDbEntity
  8
部品1
100
AcDbLine
 10
9405.693956914493
 20
5240.0
 30
0.0
 11
11195.69395691449
 21
5240.0
 31
0.0
  0
LINE
  5
2357F
330
747D
100
AcDbEntity
  8
破線
 48
5.0
100
AcDbLine
 10
5374.896575106991
 20
2749.999999999984
 30
0.0
 11
5124.896575106994
 21
2749.999999999985
 31
0.0
  0
LINE
  5
23580
330
747D
100
AcDbEntity
  8
破線
 48
5.0
100
AcDbLine
 10
5124.896575106993
 20
2999.999999999986
 30
0.0
 11
5124.896575106994
 21
2749.999999999985
 31
0.0
  0
LINE
  5
23581
330
747D
100
AcDbEntity
  8
破線
 48
5.0
100
AcDbLine
 10
5374.896575106993
 20
2999.999999999986
 30
0.0
 11
5374.896575106991
 21
2749.999999999984
 31
0.0
  0
LINE
  5
23582
330
747D
100
AcDbEntity
  8
破線
 48
5.0
100
AcDbLine
 10
7594.896575107007
 20
2749.999999999998
 30
0.0
 11
7344.896575107012
 21
2750.0
 31
0.0
  0
LINE
  5
23583
330
747D
100
AcDbEntity
  8
破線
 48
5.0
100
AcDbLine
 10
7594.896575107011
 20
3000.0
 30
0.0
 11
7594.896575107007
 21
2749.999999999998
 31
0.0
  0
LINE
  5
23584
330
747D
100
AcDbEntity
  8
破線
 48
5.0
100
AcDbLine
 10
7344.896575107011
 20
3000.0
 30
0.0
 11
7344.896575107012
 21
2750.0
 31
0.0
  0
LINE
  5
23589
330
747D
100
AcDbEntity
  8
部品1
 48
50.0
100
AcDbLine
 10
6610.896575107002
 20
3100.0
 30
0.0
 11
6610.896575107002
 21
3000.0
 31
0.0
  0
LINE
  5
2358A
330
747D
100
AcDbEntity
  8
部品1
 48
50.0
100
AcDbLine
 10
6810.896575107001
 20
3100.0
 30
0.0
 11
6810.896575107001
 21
3000.0
 31
0.0
  0
LINE
  5
2358B
330
747D
100
AcDbEntity
  8
部品1
 48
50.0
100
AcDbLine
 10
5918.896575107001
 20
3100.0
 30
0.0
 11
5918.896575107001
 21
3000.0
 31
0.0
  0
LINE
  5
2358C
330
747D
100
AcDbEntity
  8
部品1
 48
50.0
100
AcDbLine
 10
6118.896575107001
 20
3100.0
 30
0.0
 11
6118.896575107001
 21
3000.0
 31
0.0
  0
DIMENSION
  5
2358D
330
747D
100
AcDbEntity
  8
寸法
 48
50.0
100
AcDbDimension
  2
*D26
 10
7344.896575107012
 20
2465.241724923908
 30
0.0
 11
7469.896575107011
 21
2465.241724923908
 31
0.0
 70
   160
 71
     5
 42
249.9999999999964
  3
INABA_S40G
100
AcDbAlignedDimension
 13
7594.896575107007
 23
2749.999999999998
 33
0.0
 14
7344.896575107012
 24
2750.0
 34
0.0
100
AcDbRotatedDimension
  0
LINE
  5
2359C
330
747D
100
AcDbEntity
  8
細線
100
AcDbLine
 10
6858.896575106975
 20
5232.0
 30
0.0
 11
6858.896575106975
 21
3156.500000000019
 31
0.0
  0
LINE
  5
2359D
330
747D
100
AcDbEntity
  8
細線
100
AcDbLine
 10
7348.896575106974
 20
5232.0
 30
0.0
 11
7348.896575106976
 21
3156.500000000019
 31
0.0
  0
LINE
  5
2359E
330
747D
100
AcDbEntity
  8
細線
100
AcDbLine
 10
6176.396575106987
 20
5232.000000000002
 30
0.0
 11
6176.396575106988
 21
3156.500000000013
 31
0.0
  0
LINE
  5
2359F
330
747D
100
AcDbEntity
  8
細線
100
AcDbLine
 10
6246.396575106985
 20
5232.000000000001
 30
0.0
 11
6246.396575106988
 21
3156.500000000013
 31
0.0
  0
LINE
  5
235A0
330
747D
100
AcDbEntity
  8
細線
100
AcDbLine
 10
5524.896575106992
 20
5232.000000000003
 30
0.0
 11
5524.896575106991
 21
3149.000000000004
 31
0.0
  0
LINE
  5
235A1
330
747D
100
AcDbEntity
  8
細線
100
AcDbLine
 10
5594.896575106993
 20
5232.000000000002
 30
0.0
 11
5594.896575106991
 21
3149.000000000004
 31
0.0
  0
LINE
  5
235A2
330
747D
100
AcDbEntity
  8
部品1
100
AcDbLine
 10
6114.896575106992
 20
5232.000000000002
 30
0.0
 11
6114.896575106991
 21
3149.000000000008
 31
0.0
  0
LINE
  5
235A3
330
747D
100
AcDbEntity
  8
部品1
100
AcDbLine
 10
5210.316236122324
 20
5467.603474604764
 30
0.0
 11
5211.44963345467
 21
5447.627346622166
 31
0.0
  0
LINE
  5
235A4
330
747D
100
AcDbEntity
  8
部品1
100
AcDbLine
 10
5222.886653776247
 20
5351.969939455106
 30
0.0
 11
5223.531559583357
 21
5340.603474604766
 31
0.0
  0
LINE
  5
235A5
330
747D
100
AcDbEntity
  8
部品1
100
AcDbLine
 10
5214.650623251401
 20
5444.169939455107
 30
0.0
 11
5219.685663979512
 21
5355.427346622164
 31
0.0
  0
ARC
  5
235A6
330
747D
100
AcDbEntity
  8
部品1
 48
50.0
100
AcDbCircle
 10
5211.655440355216
 20
5444.000000000006
 30
0.0
 40
3.0
100
AcDbArc
 50
3.24734279033473
 51
82.3418727926348
  0
ARC
  5
235A7
330
747D
100
AcDbEntity
  8
部品1
 48
50.0
100
AcDbCircle
 10
5219.891470880059
 20
5351.800000000003
 30
0.0
 40
3.0
100
AcDbArc
 50
3.24734279033473
 51
82.3418727926348
  0
ARC
  5
235A8
330
747D
100
AcDbEntity
  8
部品1
 48
50.0
100
AcDbCircle
 10
5220.384539988621
 20
5355.466999161688
 30
0.0
 40
0.7
100
AcDbArc
 50
183.2473427902827
 51
262.3418727926349
  0
ARC
  5
235A9
330
747D
100
AcDbEntity
  8
部品1
 48
50.0
100
AcDbCircle
 10
5212.148509463778
 20
5447.66699916169
 30
0.0
 40
0.7
100
AcDbArc
 50
183.2473427903867
 51
262.3418727926349
  0
ARC
  5
235AA
330
747D
100
AcDbEntity
  8
部品1
100
AcDbCircle
 10
5230.520319674456
 20
5341.000000000005
 30
0.0
 40
7.0
100
AcDbArc
 50
183.2473427903347
 51
270.0
  0
ARC
  5
235AB
330
747D
100
AcDbEntity
  8
部品1
100
AcDbCircle
 10
5217.304996213423
 20
5468.000000000005
 30
0.0
 40
7.0
100
AcDbArc
 50
90.0
 51
183.2473427903347
  0
ARC
  5
235AC
330
747D
100
AcDbEntity
  8
部品1
100
AcDbCircle
 10
7512.488154000577
 20
5468.000000000005
 30
0.0
 40
7.0
100
AcDbArc
 50
356.7526572096653
 51
90.0
  0
ARC
  5
235AD
330
747D
100
AcDbEntity
  8
部品1
100
AcDbCircle
 10
7499.272830539545
 20
5341.000000000005
 30
0.0
 40
7.0
100
AcDbArc
 50
270.0
 51
356.7526572096653
  0
ARC
  5
235AE
330
747D
100
AcDbEntity
  8
部品1
 48
50.0
100
AcDbCircle
 10
7517.644640750221
 20
5447.66699916169
 30
0.0
 40
0.7
100
AcDbArc
 50
277.6581272073652
 51
356.7526572096132
  0
ARC
  5
235AF
330
747D
100
AcDbEntity
  8
部品1
 48
50.0
100
AcDbCircle
 10
7509.40861022538
 20
5355.466999161688
 30
0.0
 40
0.7
100
AcDbArc
 50
277.6581272073652
 51
356.7526572097173
  0
ARC
  5
235B0
330
747D
100
AcDbEntity
  8
部品1
 48
50.0
100
AcDbCircle
 10
7509.90167933394
 20
5351.800000000003
 30
0.0
 40
3.0
100
AcDbArc
 50
97.65812720736519
 51
176.7526572096653
  0
ARC
  5
235B1
330
747D
100
AcDbEntity
  8
部品1
 48
50.0
100
AcDbCircle
 10
7518.137709858784
 20
5444.000000000006
 30
0.0
 40
3.0
100
AcDbArc
 50
97.65812720736519
 51
176.7526572096653
  0
LINE
  5
235B2
330
747D
100
AcDbEntity
  8
部品1
100
AcDbLine
 10
7515.142526962598
 20
5444.169939455107
 30
0.0
 11
7510.107486234487
 21
5355.427346622164
 31
0.0
  0
LINE
  5
235B3
330
747D
100
AcDbEntity
  8
部品1
100
AcDbLine
 10
7506.906496437753
 20
5351.969939455106
 30
0.0
 11
7506.261590630643
 21
5340.603474604766
 31
0.0
  0
LINE
  5
235B4
330
747D
100
AcDbEntity
  8
細線
 48
50.0
100
AcDbLine
 10
5242.896575106992
 20
5475.000000000004
 30
0.0
 11
5242.896575106992
 21
5334.000000000004
 31
0.0
  0
LINE
  5
235B5
330
747D
100
AcDbEntity
  8
細線
 48
50.0
100
AcDbLine
 10
7486.896575107009
 20
5475.000000000004
 30
0.0
 11
7486.896575107009
 21
5334.000000000004
 31
0.0
  0
LINE
  5
235B6
330
747D
100
AcDbEntity
  8
部品1
100
AcDbLine
 10
7519.476914091676
 20
5467.603474604764
 30
0.0
 11
7518.34351675933
 21
5447.627346622166
 31
0.0
  0
LINE
  5
235B7
330
747D
100
AcDbEntity
  8
細線
 48
50.0
100
AcDbLine
 10
7509.501893570207
 20
5354.773242563791
 30
0.0
 11
5220.291256643793
 21
5354.773242563791
 31
0.0
  0
LINE
  5
235B8
330
747D
100
AcDbEntity
  8
細線
 48
50.0
100
AcDbLine
 10
7517.737924095093
 20
5446.973242563473
 30
0.0
 11
5212.055226118951
 21
5446.973242563792
 31
0.0
  0
LINE
  5
235B9
330
747D
100
AcDbEntity
  8
部品1
 48
50.0
100
AcDbLine
 10
7499.272830539545
 20
5334.000000000005
 30
0.0
 11
5230.520319674456
 21
5334.000000000005
 31
0.0
  0
LINE
  5
235BA
330
747D
100
AcDbEntity
  8
部品1
 48
50.0
100
AcDbLine
 10
7512.488154000577
 20
5475.000000000004
 30
0.0
 11
5217.304996213423
 21
5475.000000000004
 31
0.0
  0
ARC
  5
235BB
330
747D
100
AcDbEntity
  8
部品1
 48
0.01
100
AcDbCircle
 10
5772.89657510699
 20
5272.5
 30
0.0
 40
2.0
100
AcDbArc
 50
270.0
 51
0.0
  0
ARC
  5
235BC
330
747D
100
AcDbEntity
  8
部品1
 48
0.01
100
AcDbCircle
 10
5772.89657510699
 20
5304.0
 30
0.0
 40
2.0
100
AcDbArc
 50
0.0
 51
90.0
  0
ARC
  5
235BD
330
747D
100
AcDbEntity
  8
部品1
 48
0.01
100
AcDbCircle
 10
5596.896575106991
 20
5272.5
 30
0.0
 40
2.0
100
AcDbArc
 50
180.0
 51
270.0
  0
ARC
  5
235BE
330
747D
100
AcDbEntity
  8
部品1
 48
0.01
100
AcDbCircle
 10
5596.896575106991
 20
5304.0
 30
0.0
 40
2.0
100
AcDbArc
 50
90.0
 51
180.0
  0
LINE
  5
235BF
330
747D
100
AcDbEntity
  8
細線
100
AcDbLine
 10
5684.896575106989
 20
5276.5
 30
0.0
 11
5758.896575106991
 21
5276.5
 31
0.0
  0
LINE
  5
235C0
330
747D
100
AcDbEntity
  8
細線
100
AcDbLine
 10
5684.896575106991
 20
5299.5
 30
0.0
 11
5610.896575106991
 21
5299.5
 31
0.0
  0
LINE
  5
235C1
330
747D
100
AcDbEntity
  8
細線
100
AcDbLine
 10
5610.896575106991
 20
5276.5
 30
0.0
 11
5684.896575106991
 21
5276.5
 31
0.0
  0
LINE
  5
235C2
330
747D
100
AcDbEntity
  8
細線
100
AcDbLine
 10
5758.896575106991
 20
5299.5
 30
0.0
 11
5684.896575106991
 21
5299.5
 31
0.0
  0
LINE
  5
235C3
330
747D
100
AcDbEntity
  8
細線
100
AcDbLine
 10
5758.896575106991
 20
5276.5
 30
0.0
 11
5758.896575106991
 21
5299.5
 31
0.0
  0
LINE
  5
235C4
330
747D
100
AcDbEntity
  8
細線
100
AcDbLine
 10
5610.896575106991
 20
5299.5
 30
0.0
 11
5610.896575106991
 21
5276.5
 31
0.0
  0
LINE
  5
235C5
330
747D
100
AcDbEntity
  8
部品1
 48
0.01
100
AcDbLine
 10
5774.89657510699
 20
5272.5
 30
0.0
 11
5774.896575106991
 21
5304.0
 31
0.0
  0
LINE
  5
235C6
330
747D
100
AcDbEntity
  8
部品1
 48
0.01
100
AcDbLine
 10
5596.896575106991
 20
5270.5
 30
0.0
 11
5772.89657510699
 21
5270.5
 31
0.0
  0
LINE
  5
235C7
330
747D
100
AcDbEntity
  8
部品1
 48
0.01
100
AcDbLine
 10
5594.896575106991
 20
5304.0
 30
0.0
 11
5594.896575106991
 21
5272.5
 31
0.0
  0
LINE
  5
235C8
330
747D
100
AcDbEntity
  8
部品1
 48
0.01
100
AcDbLine
 10
5772.89657510699
 20
5306.0
 30
0.0
 11
5596.896575106991
 21
5306.0
 31
0.0
  0
LINE
  5
235C9
330
747D
100
AcDbEntity
  8
細線
100
AcDbLine
 10
5610.896575106991
 20
5293.5
 30
0.0
 11
5684.896575106991
 21
5293.5
 31
0.0
  0
LINE
  5
235CA
330
747D
100
AcDbEntity
  8
細線
100
AcDbLine
 10
5610.896575106991
 20
5287.5
 30
0.0
 11
5684.896575106991
 21
5287.5
 31
0.0
  0
LINE
  5
235CB
330
747D
100
AcDbEntity
  8
細線
100
AcDbLine
 10
5610.89657510699
 20
5281.5
 30
0.0
 11
5684.896575106991
 21
5281.5
 31
0.0
  0
LINE
  5
235CC
330
747D
100
AcDbEntity
  8
細線
100
AcDbLine
 10
5610.896575106991
 20
5293.5
 30
0.0
 11
5679.89657510699
 21
5293.5
 31
0.0
  0
LINE
  5
235CD
330
747D
100
AcDbEntity
  8
細線
100
AcDbLine
 10
5758.89657510699
 20
5293.499999999999
 30
0.0
 11
5684.896575106991
 21
5293.5
 31
0.0
  0
LINE
  5
235CE
330
747D
100
AcDbEntity
  8
細線
100
AcDbLine
 10
5758.89657510699
 20
5281.499999999999
 30
0.0
 11
5684.896575106991
 21
5281.5
 31
0.0
  0
LINE
  5
235CF
330
747D
100
AcDbEntity
  8
細線
100
AcDbLine
 10
5758.89657510699
 20
5287.5
 30
0.0
 11
5684.896575106991
 21
5287.5
 31
0.0
  0
LINE
  5
235D0
330
747D
100
AcDbEntity
  8
細線
100
AcDbLine
 10
5684.896575106991
 20
5299.5
 30
0.0
 11
5684.896575106989
 21
5276.5
 31
0.0
  0
LINE
  5
235D1
330
747D
100
AcDbEntity
  8
細線
100
AcDbLine
 10
7044.896575107009
 20
5299.500000000001
 30
0.0
 11
7044.89657510701
 21
5276.500000000001
 31
0.0
  0
LINE
  5
235D2
330
747D
100
AcDbEntity
  8
細線
100
AcDbLine
 10
6970.896575107009
 20
5287.500000000001
 30
0.0
 11
7044.896575107009
 21
5287.500000000001
 31
0.0
  0
LINE
  5
235D3
330
747D
100
AcDbEntity
  8
細線
100
AcDbLine
 10
6970.896575107009
 20
5281.5
 30
0.0
 11
7044.896575107009
 21
5281.500000000001
 31
0.0
  0
LINE
  5
235D4
330
747D
100
AcDbEntity
  8
細線
100
AcDbLine
 10
6970.896575107009
 20
5293.5
 30
0.0
 11
7044.896575107009
 21
5293.500000000001
 31
0.0
  0
LINE
  5
235D5
330
747D
100
AcDbEntity
  8
細線
100
AcDbLine
 10
7118.896575107008
 20
5293.500000000001
 30
0.0
 11
7049.896575107009
 21
5293.500000000001
 31
0.0
  0
LINE
  5
235D6
330
747D
100
AcDbEntity
  8
細線
100
AcDbLine
 10
7118.89657510701
 20
5281.500000000001
 30
0.0
 11
7044.896575107009
 21
5281.500000000001
 31
0.0
  0
LINE
  5
235D7
330
747D
100
AcDbEntity
  8
細線
100
AcDbLine
 10
7118.896575107008
 20
5287.500000000001
 30
0.0
 11
7044.896575107009
 21
5287.500000000001
 31
0.0
  0
LINE
  5
235D8
330
747D
100
AcDbEntity
  8
細線
100
AcDbLine
 10
7118.896575107008
 20
5293.500000000001
 30
0.0
 11
7044.896575107009
 21
5293.500000000001
 31
0.0
  0
LINE
  5
235D9
330
747D
100
AcDbEntity
  8
部品1
 48
0.01
100
AcDbLine
 10
6956.896575107009
 20
5306.0
 30
0.0
 11
7132.896575107008
 21
5306.0
 31
0.0
  0
LINE
  5
235DA
330
747D
100
AcDbEntity
  8
部品1
 48
0.01
100
AcDbLine
 10
7134.89657510701
 20
5304.000000000002
 30
0.0
 11
7134.89657510701
 21
5272.5
 31
0.0
  0
LINE
  5
235DB
330
747D
100
AcDbEntity
  8
部品1
 48
0.01
100
AcDbLine
 10
7132.896575107008
 20
5270.500000000001
 30
0.0
 11
6956.896575107009
 21
5270.500000000001
 31
0.0
  0
LINE
  5
235DC
330
747D
100
AcDbEntity
  8
部品1
 48
0.01
100
AcDbLine
 10
6954.89657510701
 20
5272.5
 30
0.0
 11
6954.89657510701
 21
5304.000000000002
 31
0.0
  0
LINE
  5
235DD
330
747D
100
AcDbEntity
  8
細線
100
AcDbLine
 10
7118.896575107008
 20
5299.500000000001
 30
0.0
 11
7118.896575107008
 21
5276.500000000001
 31
0.0
  0
LINE
  5
235DE
330
747D
100
AcDbEntity
  8
細線
100
AcDbLine
 10
6970.896575107009
 20
5276.500000000001
 30
0.0
 11
6970.896575107009
 21
5299.500000000001
 31
0.0
  0
LINE
  5
235DF
330
747D
100
AcDbEntity
  8
細線
100
AcDbLine
 10
6970.896575107009
 20
5299.500000000001
 30
0.0
 11
7044.896575107009
 21
5299.500000000001
 31
0.0
  0
LINE
  5
235E0
330
747D
100
AcDbEntity
  8
細線
100
AcDbLine
 10
7118.896575107008
 20
5276.500000000001
 30
0.0
 11
7044.896575107009
 21
5276.500000000001
 31
0.0
  0
LINE
  5
235E1
330
747D
100
AcDbEntity
  8
細線
100
AcDbLine
 10
7044.896575107009
 20
5299.500000000001
 30
0.0
 11
7118.896575107008
 21
5299.500000000001
 31
0.0
  0
LINE
  5
235E2
330
747D
100
AcDbEntity
  8
細線
100
AcDbLine
 10
7044.89657510701
 20
5276.500000000001
 30
0.0
 11
6970.896575107009
 21
5276.500000000001
 31
0.0
  0
ARC
  5
235E3
330
747D
100
AcDbEntity
  8
部品1
 48
0.01
100
AcDbCircle
 10
7132.896575107008
 20
5304.000000000002
 30
0.0
 40
2.0
100
AcDbArc
 50
0.0
 51
90.0
  0
ARC
  5
235E4
330
747D
100
AcDbEntity
  8
部品1
 48
0.01
100
AcDbCircle
 10
7132.896575107008
 20
5272.5
 30
0.0
 40
2.0
100
AcDbArc
 50
270.0
 51
0.0
  0
ARC
  5
235E5
330
747D
100
AcDbEntity
  8
部品1
 48
0.01
100
AcDbCircle
 10
6956.896575107009
 20
5304.000000000002
 30
0.0
 40
2.0
100
AcDbArc
 50
90.0
 51
180.0
  0
ARC
  5
235E6
330
747D
100
AcDbEntity
  8
部品1
 48
0.01
100
AcDbCircle
 10
6956.896575107009
 20
5272.5
 30
0.0
 40
2.0
100
AcDbArc
 50
180.0
 51
270.0
  0
LINE
  5
23600
330
747D
100
AcDbEntity
  8
部品1
 48
50.0
100
AcDbLine
 10
5354.896575106991
 20
4255.500000000011
 30
0.0
 11
5407.896575106991
 21
4255.500000000012
 31
0.0
  0
LINE
  5
23604
330
747D
100
AcDbEntity
  8
細線
100
AcDbLine
 10
6928.896575106975
 20
5232.0
 30
0.0
 11
6928.896575106975
 21
3156.500000000019
 31
0.0
  0
LINE
  5
23605
330
747D
100
AcDbEntity
  8
細線
100
AcDbLine
 10
6998.896575106974
 20
5232.0
 30
0.0
 11
6998.896575106975
 21
3156.500000000019
 31
0.0
  0
LINE
  5
23606
330
747D
100
AcDbEntity
  8
細線
100
AcDbLine
 10
7068.896575106975
 20
5232.0
 30
0.0
 11
7068.896575106975
 21
3156.500000000019
 31
0.0
  0
LINE
  5
23607
330
747D
100
AcDbEntity
  8
細線
100
AcDbLine
 10
7138.896575106975
 20
5232.0
 30
0.0
 11
7138.896575106976
 21
3156.500000000019
 31
0.0
  0
LINE
  5
23608
330
747D
100
AcDbEntity
  8
細線
100
AcDbLine
 10
7208.896575106975
 20
5232.0
 30
0.0
 11
7208.896575106975
 21
3156.500000000019
 31
0.0
  0
LINE
  5
23609
330
747D
100
AcDbEntity
  8
細線
100
AcDbLine
 10
7278.896575106975
 20
5232.0
 30
0.0
 11
7278.896575106975
 21
3156.500000000019
 31
0.0
  0
LINE
  5
2360A
330
747D
100
AcDbEntity
  8
細線
100
AcDbLine
 10
6316.396575106987
 20
5232.000000000001
 30
0.0
 11
6316.396575106988
 21
3156.500000000013
 31
0.0
  0
LINE
  5
2360B
330
747D
100
AcDbEntity
  8
細線
100
AcDbLine
 10
6386.396575106985
 20
5232.000000000001
 30
0.0
 11
6386.396575106989
 21
3156.500000000013
 31
0.0
  0
LINE
  5
2360C
330
747D
100
AcDbEntity
  8
細線
100
AcDbLine
 10
6456.396575106985
 20
5232.000000000001
 30
0.0
 11
6456.396575106989
 21
3156.500000000013
 31
0.0
  0
LINE
  5
2360D
330
747D
100
AcDbEntity
  8
細線
100
AcDbLine
 10
6526.396575106986
 20
5232.000000000001
 30
0.0
 11
6526.396575106989
 21
3156.500000000013
 31
0.0
  0
LINE
  5
2360E
330
747D
100
AcDbEntity
  8
細線
100
AcDbLine
 10
6596.396575106986
 20
5232.000000000001
 30
0.0
 11
6596.396575106988
 21
3156.500000000013
 31
0.0
  0
LINE
  5
2360F
330
747D
100
AcDbEntity
  8
細線
100
AcDbLine
 10
6666.396575106986
 20
5232.000000000001
 30
0.0
 11
6666.396575106988
 21
3156.500000000013
 31
0.0
  0
LINE
  5
23610
330
747D
100
AcDbEntity
  8
細線
100
AcDbLine
 10
5438.896575106991
 20
5232.000000000003
 30
0.0
 11
5438.896575106991
 21
3149.000000000005
 31
0.0
  0
LINE
  5
23611
330
747D
100
AcDbEntity
  8
細線
100
AcDbLine
 10
5472.89657510699
 20
5232.000000000003
 30
0.0
 11
5472.896575106992
 21
3149.000000000006
 31
0.0
  0
LINE
  5
23612
330
747D
100
AcDbEntity
  8
部品1
100
AcDbLine
 10
5430.89657510699
 20
5232.000000000003
 30
0.0
 11
5430.896575106991
 21
3149.000000000005
 31
0.0
  0
LINE
  5
23613
330
747D
100
AcDbEntity
  8
部品1
100
AcDbLine
 10
5480.89657510699
 20
5232.000000000003
 30
0.0
 11
5480.896575106992
 21
3149.000000000006
 31
0.0
  0
LINE
  5
23614
330
747D
100
AcDbEntity
  8
細線
100
AcDbLine
 10
5664.896575106993
 20
5232.000000000002
 30
0.0
 11
5664.896575106991
 21
3149.000000000004
 31
0.0
  0
LINE
  5
23615
330
747D
100
AcDbEntity
  8
細線
100
AcDbLine
 10
5734.896575106993
 20
5232.000000000002
 30
0.0
 11
5734.896575106991
 21
3149.000000000004
 31
0.0
  0
LINE
  5
23616
330
747D
100
AcDbEntity
  8
細線
100
AcDbLine
 10
5804.896575106994
 20
5232.000000000002
 30
0.0
 11
5804.89657510699
 21
3149.000000000004
 31
0.0
  0
LINE
  5
23617
330
747D
100
AcDbEntity
  8
細線
100
AcDbLine
 10
5874.896575106991
 20
5232.000000000002
 30
0.0
 11
5874.896575106991
 21
3149.000000000006
 31
0.0
  0
LINE
  5
23618
330
747D
100
AcDbEntity
  8
細線
100
AcDbLine
 10
5944.896575106993
 20
5232.000000000002
 30
0.0
 11
5944.896575106991
 21
3149.000000000007
 31
0.0
  0
LINE
  5
23619
330
747D
100
AcDbEntity
  8
細線
100
AcDbLine
 10
6014.896575106993
 20
5232.000000000002
 30
0.0
 11
6014.896575106991
 21
3149.000000000008
 31
0.0
  0
LINE
  5
2361A
330
747D
100
AcDbEntity
  8
部品1
100
AcDbLine
 10
6768.896575106985
 20
5232.000000000001
 30
0.0
 11
6768.896575106989
 21
3156.500000000015
 31
0.0
  0
LINE
  5
23641
330
747D
100
AcDbEntity
  8
細線
100
AcDbLine
 10
5319.896575106991
 20
5232.000000000003
 30
0.0
 11
7409.896575107008
 21
5232.0
 31
0.0
  0
LINE
  5
23642
330
747D
100
AcDbEntity
  8
部品1
100
AcDbLine
 10
5259.896575106991
 20
3142.0
 30
0.0
 11
7469.896575107009
 21
3142.000000000021
 31
0.0
  0
LWPOLYLINE
  5
23645
330
747D
100
AcDbEntity
  8
部品1
100
AcDbPolyline
 90
        4
 70
     1
 43
0.0
 10
5983.161241992782
 20
2120.684457025041
 10
5983.161241992782
 20
1880.792135479508
 10
6746.631908221221
 20
1880.792135479508
 10
6746.631908221221
 20
2120.684457025041
  0
TEXT
  5
23646
330
747D
100
AcDbEntity
  8
部品1
100
AcDbText
 10
6073.686645730737
 20
1927.790927806517
 30
0.0
 40
135.0
  1
正面図
  7
STYLE2
100
AcDbText
  0
DIMENSION
  5
23647
330
747D
100
AcDbEntity
  8
寸法
 48
50.0
100
AcDbDimension
  2
*D27
 10
5259.896575106991
 20
5679.142231267992
 30
0.0
 11
6397.940818449586
 21
5679.142231267992
 31
0.0
 70
   160
  1
柱外寸法<>
 71
     5
 42
2210.000000000019
  3
INABA_S40G
100
AcDbAlignedDimension
 13
7469.896575107011
 23
5475.000000000005
 33
0.0
 14
5259.896575106991
 24
5475.000000000006
 34
0.0
100
AcDbRotatedDimension
  0
LINE
  5
23648
330
747D
100
AcDbEntity
  8
破線
 48
5.0
100
AcDbLine
 10
5254.896575106992
 20
3000.0
 30
0.0
 11
5254.89657510699
 21
2845.000000000001
 31
0.0
  0
LINE
  5
23649
330
747D
100
AcDbEntity
  8
破線
 48
5.0
100
AcDbLine
 10
7474.896575107009
 20
3000.0
 30
0.0
 11
7474.896575107009
 21
2845.0
 31
0.0
  0
LINE
  5
2364C
330
747D
100
AcDbEntity
  8
破線
 48
5.0
100
AcDbLine
 10
5234.896575106991
 20
2845.000000000001
 30
0.0
 11
5254.896575106993
 21
2845.000000000001
 31
0.0
  0
LINE
  5
2364D
330
747D
100
AcDbEntity
  8
部品1
100
AcDbLine
 10
5254.89657510699
 20
3145.000000000002
 30
0.0
 11
5254.896575106992
 21
3000.0
 31
0.0
  0
LINE
  5
2364E
330
747D
100
AcDbEntity
  8
破線
 48
5.0
100
AcDbLine
 10
7494.896575107009
 20
2845.0
 30
0.0
 11
7474.896575107007
 21
2845.0
 31
0.0
  0
LINE
  5
2364F
330
747D
100
AcDbEntity
  8
部品1
100
AcDbLine
 10
7474.896575107009
 20
3145.000000000001
 30
0.0
 11
7474.896575107009
 21
3000.0
 31
0.0
  0
LINE
  5
23668
330
747D
100
AcDbEntity
  8
部品1
100
AcDbLine
 10
6114.896575106991
 20
3156.500000000006
 30
0.0
 11
7409.896575107009
 21
3156.500000000022
 31
0.0
  0
DIMENSION
  5
23669
330
747D
100
AcDbEntity
  8
寸法
 48
50.0
100
AcDbDimension
  2
*D28
 10
5209.896575106991
 20
5679.620259427273
 30
0.0
 11
4896.411293732746
 21
5679.620259427273
 31
0.0
 70
   160
 71
     5
 42
49.99999999999909
  3
INABA_S40G
100
AcDbAlignedDimension
 13
5259.896575106991
 23
5475.000000000006
 33
0.0
 14
5209.896575106991
 24
5475.000000000005
 34
0.0
100
AcDbRotatedDimension
1001
ACAD
1000
DSTYLE
1002
{
1002
}
  0
DIMENSION
  5
2366A
330
747D
100
AcDbEntity
  8
寸法
 48
50.0
100
AcDbDimension
  2
*D29
 10
7469.896575107011
 20
5679.620259427273
 30
0.0
 11
7833.381856481247
 21
5679.620259427273
 31
0.0
 70
   160
 71
     5
 42
49.99999999999909
  3
INABA_S40G
100
AcDbAlignedDimension
 13
7519.896575107009
 23
5475.000000000003
 33
0.0
 14
7469.896575107011
 24
5475.000000000005
 34
0.0
100
AcDbRotatedDimension
  0
LINE
  5
2366B
330
747D
100
AcDbEntity
  8
部品1
100
AcDbLine
 10
5659.896575106991
 20
3100.0
 30
0.0
 11
5659.896575106991
 21
3000.0
 31
0.0
  0
LINE
  5
2366C
330
747D
100
AcDbEntity
  8
部品1
100
AcDbLine
 10
7069.896575107009
 20
3100.0
 30
0.0
 11
7069.896575107009
 21
3000.0
 31
0.0
  0
LINE
  5
2366D
330
747D
100
AcDbEntity
  8
部品1
100
AcDbLine
 10
7469.896575107007
 20
5334.000000000006
 30
0.0
 11
7469.896575107009
 21
3000.0
 31
0.0
  0
LINE
  5
2366E
330
747D
100
AcDbEntity
  8
部品1
100
AcDbLine
 10
5319.896575106992
 20
5240.0
 30
0.0
 11
5319.896575106991
 21
3142.000000000004
 31
0.0
  0
LINE
  5
2366F
330
747D
100
AcDbEntity
  8
部品1
100
AcDbLine
 10
7409.896575107009
 20
5240.000000000001
 30
0.0
 11
7409.896575107009
 21
3142.00000000002
 31
0.0
  0
LINE
  5
23670
330
747D
100
AcDbEntity
  8
部品1
100
AcDbLine
 10
5259.896575106992
 20
5334.000000000006
 30
0.0
 11
5259.896575106991
 21
3000.0
 31
0.0
  0
DIMENSION
  5
23671
330
747D
100
AcDbEntity
  8
寸法
 48
50.0
100
AcDbDimension
  2
*D30
 10
7519.896575107009
 20
5895.370389148895
 30
0.0
 11
6358.975848044829
 21
5895.370389148895
 31
0.0
 70
   160
 71
     5
 42
2310.000000000017
  3
INABA_S40G
100
AcDbAlignedDimension
 13
5209.896575106991
 23
5475.000000000005
 33
0.0
 14
7519.896575107009
 24
5475.000000000003
 34
0.0
100
AcDbRotatedDimension
  0
LINE
  5
23672
330
747D
100
AcDbEntity
  8
部品1
100
AcDbLine
 10
5319.896575106992
 20
3149.000000000001
 30
0.0
 11
6114.896575106991
 21
3149.000000000008
 31
0.0
  0
LINE
  5
23673
330
747D
100
AcDbEntity
  8
部品1
100
AcDbLine
 10
5259.896575106992
 20
5240.0
 30
0.0
 11
7469.896575107009
 21
5240.000000000001
 31
0.0
  0
LINE
  5
23674
330
747D
100
AcDbEntity
  8
部品1
100
AcDbLine
 10
5259.896575106991
 20
3100.0
 30
0.0
 11
7469.896575107009
 21
3100.0
 31
0.0
  0
TEXT
  5
2367A
330
747D
100
AcDbEntity
  8
部品1
100
AcDbText
 10
4599.545247166584
 20
3013.953728039225
 30
0.0
 40
125.0
  1
▽G.L
  7
STYLE2
100
AcDbText
  0
LINE
  5
23853
330
747D
100
AcDbEntity
  8
破線
 48
5.0
100
AcDbLine
 10
9308.193956914495
 20
3000.0
 30
0.0
 11
9308.193956914497
 21
2749.999999999998
 31
0.0
  0
LINE
  5
23854
330
747D
100
AcDbEntity
  8
破線
 48
5.0
100
AcDbLine
 10
9558.193956914495
 20
3000.0
 30
0.0
 11
9558.193956914491
 21
2749.999999999998
 31
0.0
  0
LINE
  5
2388C
330
747D
100
AcDbEntity
  8
破線
 48
5.0
100
AcDbLine
 10
9558.193956914491
 20
2749.999999999998
 30
0.0
 11
9308.193956914497
 21
2749.999999999998
 31
0.0
  0
LINE
  5
2389F
330
747D
100
AcDbEntity
  8
破線
 48
5.0
100
AcDbLine
 10
11293.1939569145
 20
3000.0
 30
0.0
 11
11293.19395691449
 21
2749.999999999998
 31
0.0
  0
LINE
  5
238A0
330
747D
100
AcDbEntity
  8
破線
 48
5.0
100
AcDbLine
 10
11293.19395691449
 20
2749.999999999998
 30
0.0
 11
11043.1939569145
 21
2749.999999999998
 31
0.0
  0
LINE
  5
238A1
330
747D
100
AcDbEntity
  8
破線
 48
5.0
100
AcDbLine
 10
11043.1939569145
 20
3000.0
 30
0.0
 11
11043.1939569145
 21
2749.999999999998
 31
0.0
  0
LWPOLYLINE
  5
238EE
330
747D
100
AcDbEntity
  8
部品1
 48
50.0
100
AcDbPolyline
 90
        4
 70
     1
 43
0.0
 10
5379.94657510699
 20
4170.25000000001
 10
5382.846575106992
 20
4170.25000000001
 10
5382.846575106992
 20
4179.750000000011
 10
5379.94657510699
 20
4179.750000000011
  0
CIRCLE
  5
238EF
330
747D
100
AcDbEntity
  8
部品1
 48
50.0
100
AcDbCircle
 10
5381.39657510699
 20
4175.00000000001
 30
0.0
 40
9.0
  0
ARC
  5
238F0
330
747D
100
AcDbEntity
  8
細線
 48
50.0
100
AcDbCircle
 10
5381.39657510699
 20
4175.00000000001
 30
0.0
 40
4.0
100
AcDbArc
 50
111.2538091853132
 51
248.7461908146868
  0
ARC
  5
238F1
330
747D
100
AcDbEntity
  8
細線
 48
50.0
100
AcDbCircle
 10
5381.39657510699
 20
4175.00000000001
 30
0.0
 40
17.5
100
AcDbArc
 50
306.4837370612677
 51
233.5162629387323
  0
LINE
  5
238F2
330
747D
100
AcDbEntity
  8
細線
 48
50.0
100
AcDbLine
 10
5391.396575106988
 20
4151.141039419128
 30
0.0
 11
5391.396575106991
 21
4160.12552521937
 31
0.0
  0
LINE
  5
238F3
330
747D
100
AcDbEntity
  8
細線
 48
50.0
100
AcDbLine
 10
5371.396575106991
 20
4151.14103941913
 30
0.0
 11
5371.396575106991
 21
4160.125525219366
 31
0.0
  0
ARC
  5
238F4
330
747D
100
AcDbEntity
  8
細線
 48
50.0
100
AcDbCircle
 10
5381.39657510699
 20
4175.00000000001
 30
0.0
 40
26.5
100
AcDbArc
 50
249.332683506403
 51
290.6673164933835
  0
ARC
  5
238F5
330
747D
100
AcDbEntity
  8
細線
 48
50.0
100
AcDbCircle
 10
5390.396575106984
 20
4151.141039419128
 30
0.0
 40
1.0
100
AcDbArc
 50
290.667316493597
 51
359.9999999998958
  0
ARC
  5
238F6
330
747D
100
AcDbEntity
  8
細線
 48
50.0
100
AcDbCircle
 10
5372.396575106991
 20
4151.14103941913
 30
0.0
 40
1.0
100
AcDbArc
 50
180.0
 51
249.3326835066164
  0
ARC
  5
238F7
330
747D
100
AcDbEntity
  8
細線
 48
50.0
100
AcDbCircle
 10
5370.39657510699
 20
4160.125525219366
 30
0.0
 40
1.0
100
AcDbArc
 50
0.0
 51
53.51626293873231
  0
ARC
  5
238F8
330
747D
100
AcDbEntity
  8
細線
 48
50.0
100
AcDbCircle
 10
5392.396575106994
 20
4160.12552521937
 30
0.0
 40
1.0
100
AcDbArc
 50
126.4837370615282
 51
180.0
  0
ARC
  5
238F9
330
747D
100
AcDbEntity
  8
細線
 48
50.0
100
AcDbCircle
 10
5381.39657510699
 20
4175.00000000001
 30
0.0
 40
21.5
100
AcDbArc
 50
255.8014401250294
 51
284.1985598749706
  0
ARC
  5
238FA
330
747D
100
AcDbEntity
  8
細線
 48
50.0
100
AcDbCircle
 10
5381.39657510699
 20
4175.00000000001
 30
0.0
 40
16.5
100
AcDbArc
 50
251.9694646069326
 51
288.0305353930674
  0
LINE
  5
238FB
330
747D
100
AcDbEntity
  8
細線
 48
50.0
100
AcDbLine
 10
5386.896575106991
 20
4154.447627874204
 30
0.0
 11
5386.896575106991
 21
4159.025019561541
 31
0.0
  0
LINE
  5
238FC
330
747D
100
AcDbEntity
  8
細線
 48
50.0
100
AcDbLine
 10
5375.896575106991
 20
4154.447627874204
 30
0.0
 11
5375.896575106991
 21
4159.025019561538
 31
0.0
  0
ARC
  5
238FD
330
747D
100
AcDbEntity
  8
細線
 48
50.0
100
AcDbCircle
 10
5376.196575106994
 20
4159.025019561538
 30
0.0
 40
0.3
100
AcDbArc
 50
71.96946460693259
 51
180.0
  0
ARC
  5
238FE
330
747D
100
AcDbEntity
  8
細線
 48
50.0
100
AcDbCircle
 10
5386.596575106992
 20
4159.025019561541
 30
0.0
 40
0.3
100
AcDbArc
 50
0.0
 51
108.0305353930674
  0
ARC
  5
238FF
330
747D
100
AcDbEntity
  8
細線
 48
50.0
100
AcDbCircle
 10
5386.596575106988
 20
4154.447627874204
 30
0.0
 40
0.3
100
AcDbArc
 50
284.1985598747557
 51
0.0000000001042204
  0
ARC
  5
23900
330
747D
100
AcDbEntity
  8
細線
 48
50.0
100
AcDbCircle
 10
5376.196575106994
 20
4154.447627874204
 30
0.0
 40
0.3
100
AcDbArc
 50
180.0
 51
255.8014401248145
  0
CIRCLE
  5
23901
330
747D
100
AcDbEntity
  8
細線
 48
50.0
100
AcDbCircle
 10
5381.39657510699
 20
4175.00000000001
 30
0.0
 40
12.0
  0
ARC
  5
23902
330
747D
100
AcDbEntity
  8
部品1
 48
50.0
100
AcDbCircle
 10
5381.39657510699
 20
4225.000000000011
 30
0.0
 40
8.5
100
AcDbArc
 50
114.315739171091
 51
245.684260828909
  0
CIRCLE
  5
23903
330
747D
100
AcDbEntity
  8
細線
 48
50.0
100
AcDbCircle
 10
5381.39657510699
 20
4225.000000000011
 30
0.0
 40
4.5
  0
LWPOLYLINE
  5
23904
330
747D
100
AcDbEntity
  8
部品1
 48
50.0
100
AcDbPolyline
 90
        2
 70
     0
 43
0.0
 10
5377.896575106991
 20
4243.674849396994
 10
5377.896575106991
 20
4232.745966692426
  0
CIRCLE
  5
23905
330
747D
100
AcDbEntity
  8
部品1
 48
50.0
100
AcDbCircle
 10
5381.39657510699
 20
4225.000000000011
 30
0.0
 40
19.0
  0
LWPOLYLINE
  5
23906
330
747D
100
AcDbEntity
  8
部品1
 48
50.0
100
AcDbPolyline
 90
        2
 70
     0
 43
0.0
 10
5377.896575106991
 20
4217.254033307596
 10
5377.896575106991
 20
4206.325150603028
  0
LWPOLYLINE
  5
23907
330
747D
100
AcDbEntity
  8
部品1
 48
50.0
100
AcDbPolyline
 90
        2
 70
     0
 43
0.0
 10
5384.896575106991
 20
4232.745966692426
 10
5384.896575106991
 20
4243.674849396994
  0
ARC
  5
23908
330
747D
100
AcDbEntity
  8
部品1
 48
50.0
100
AcDbCircle
 10
5381.39657510699
 20
4225.000000000011
 30
0.0
 40
8.5
100
AcDbArc
 50
294.315739171091
 51
65.68426082890896
  0
LWPOLYLINE
  5
23909
330
747D
100
AcDbEntity
  8
部品1
 48
50.0
100
AcDbPolyline
 90
        2
 70
     0
 43
0.0
 10
5384.896575106991
 20
4206.325150603028
 10
5384.896575106991
 20
4217.254033307596
  0
ARC
  5
2390A
330
747D
100
AcDbEntity
  8
細線
 48
50.0
100
AcDbCircle
 10
5381.39657510699
 20
4225.000000000011
 30
0.0
 40
16.5
100
AcDbArc
 50
332.0012352654438
 51
27.99876473455621
  0
ARC
  5
2390B
330
747D
100
AcDbEntity
  8
細線
 48
50.0
100
AcDbCircle
 10
5381.39657510699
 20
4225.000000000011
 30
0.0
 40
14.0
100
AcDbArc
 50
326.407443611277
 51
33.59255638872305
  0
LINE
  5
2390C
330
747D
100
AcDbEntity
  8
細線
 48
50.0
100
AcDbLine
 10
5366.827772822659
 20
4232.745966692426
 30
0.0
 11
5369.734671317302
 21
4232.745966692426
 31
0.0
  0
LINE
  5
2390D
330
747D
100
AcDbEntity
  8
細線
 48
50.0
100
AcDbLine
 10
5366.827772822659
 20
4217.254033307596
 30
0.0
 11
5369.734671317302
 21
4217.254033307596
 31
0.0
  0
LINE
  5
2390E
330
747D
100
AcDbEntity
  8
細線
 48
50.0
100
AcDbLine
 10
5393.05847889668
 20
4232.745966692426
 30
0.0
 11
5395.965377391326
 21
4232.745966692426
 31
0.0
  0
LINE
  5
2390F
330
747D
100
AcDbEntity
  8
細線
 48
50.0
100
AcDbLine
 10
5393.05847889668
 20
4217.254033307596
 30
0.0
 11
5395.965377391326
 21
4217.254033307596
 31
0.0
  0
ARC
  5
23910
330
747D
100
AcDbEntity
  8
細線
 48
50.0
100
AcDbCircle
 10
5381.39657510699
 20
4225.000000000011
 30
0.0
 40
14.0
100
AcDbArc
 50
146.4074436112769
 51
213.592556388723
  0
ARC
  5
23911
330
747D
100
AcDbEntity
  8
細線
 48
50.0
100
AcDbCircle
 10
5381.39657510699
 20
4225.000000000011
 30
0.0
 40
16.5
100
AcDbArc
 50
152.0012352654438
 51
207.9987647345562
  0
ARC
  5
23912
330
747D
100
AcDbEntity
  8
部品1
 48
50.0
100
AcDbCircle
 10
5354.896575106991
 20
4250.500000000011
 30
0.0
 40
5.0
100
AcDbArc
 50
90.0
 51
180.0
  0
ARC
  5
23913
330
747D
100
AcDbEntity
  8
部品1
 48
50.0
100
AcDbCircle
 10
5354.896575106991
 20
4139.500000000011
 30
0.0
 40
5.0
100
AcDbArc
 50
180.0
 51
270.0
  0
ARC
  5
23914
330
747D
100
AcDbEntity
  8
部品1
 48
50.0
100
AcDbCircle
 10
5407.896575106991
 20
4139.500000000011
 30
0.0
 40
5.0
100
AcDbArc
 50
270.0
 51
0.0
  0
ARC
  5
23915
330
747D
100
AcDbEntity
  8
部品1
 48
50.0
100
AcDbCircle
 10
5407.896575106991
 20
4250.500000000011
 30
0.0
 40
5.0
100
AcDbArc
 50
0.0
 51
90.0
  0
LINE
  5
23916
330
747D
100
AcDbEntity
  8
部品1
 48
50.0
100
AcDbLine
 10
5349.896575106991
 20
4139.500000000011
 30
0.0
 11
5349.896575106991
 21
4250.500000000011
 31
0.0
  0
LINE
  5
23917
330
747D
100
AcDbEntity
  8
部品1
 48
50.0
100
AcDbLine
 10
5407.896575106991
 20
4134.500000000011
 30
0.0
 11
5354.896575106991
 21
4134.500000000011
 31
0.0
  0
LINE
  5
23918
330
747D
100
AcDbEntity
  8
部品1
 48
50.0
100
AcDbLine
 10
5412.896575106991
 20
4250.500000000011
 30
0.0
 11
5412.896575106991
 21
4139.500000000011
 31
0.0
  0
ENDSEC
  0
SECTION
  2
OBJECTS
  0
DICTIONARY
  5
7471
330
0
100
AcDbDictionary
281
     1
  3
ACAD_COLOR
350
159B0
  3
ACAD_GROUP
350
7472
  3
ACAD_LAYOUT
350
159B1
  3
ACAD_MATERIAL
350
159AF
  3
ACAD_MLINESTYLE
350
7473
  3
ACAD_PLOTSETTINGS
350
159B2
  3
ACAD_PLOTSTYLENAME
350
159AD
  3
ACDBHEADERROUNDTRIPXREC
350
23927
  3
AcDbVariableDictionary
350
23923
  3
CONTENTDICTIONARY
350
E71C
  3
DRAWINGVARIABLESDICT
350
F3B9
  0
DICTIONARY
  5
21E20
330
7467
100
AcDbDictionary
280
     1
281
     1
  3
ACAD_LAYERSTATES
360
21E21
  0
DICTIONARY
  5
159B0
102
{ACAD_REACTORS
330
7471
102
}
330
7471
100
AcDbDictionary
281
     1
  0
DICTIONARY
  5
7472
102
{ACAD_REACTORS
330
7471
102
}
330
7471
100
AcDbDictionary
281
     1
  0
DICTIONARY
  5
159B1
102
{ACAD_REACTORS
330
7471
102
}
330
7471
100
AcDbDictionary
281
     1
  3
Model
350
159B3
  3
レイアウト1
350
159B4
  0
DICTIONARY
  5
159AF
102
{ACAD_REACTORS
330
7471
102
}
330
7471
100
AcDbDictionary
281
     1
  0
DICTIONARY
  5
7473
102
{ACAD_REACTORS
330
7471
102
}
330
7471
100
AcDbDictionary
281
     1
  3
STANDARD
350
7480
  0
DICTIONARY
  5
159B2
102
{ACAD_REACTORS
330
7471
102
}
330
7471
100
AcDbDictionary
281
     1
  0
ACDBDICTIONARYWDFLT
  5
159AD
102
{ACAD_REACTORS
330
7471
102
}
330
7471
100
AcDbDictionary
281
     1
  3
Normal
350
159AE
100
AcDbDictionaryWithDefault
340
159AE
  0
DICTIONARY
  5
23927
102
{ACAD_REACTORS
330
7471
102
}
330
7471
100
AcDbDictionary
281
     1
  3
COLORDICT
350
23929
  3
MATERIALDICT
350
23928
  0
DICTIONARY
  5
23923
102
{ACAD_REACTORS
330
7471
102
}
330
7471
100
AcDbDictionary
281
     1
  3
DIMASSOC
350
23924
  3
PROJECTNAME
350
23925
  0
DICTIONARY
  5
E71C
102
{ACAD_REACTORS
330
7471
102
}
330
7471
100
AcDbDictionary
281
     1
  0
DICTIONARY
  5
F3B9
102
{ACAD_REACTORS
330
7471
102
}
330
7471
100
AcDbDictionary
281
     1
1001
DRAWINGVARIABLESXDATA
1000
POLARMODE
1000
1
  0
DICTIONARY
  5
21E21
102
{ACAD_REACTORS
330
21E20
102
}
330
21E20
100
AcDbDictionary
281
     1
  0
LAYOUT
  5
159B3
102
{ACAD_XDICTIONARY
360
2392A
102
}
102
{ACAD_REACTORS
330
159B1
102
}
330
159B1
100
AcDbPlotSettings
  1

  2
none_device
  4
Letter_(8.50_x_11.00_Inches)
  6

 40
6.349999904632568
 41
6.349999904632568
 42
6.350006103515625
 43
6.350006103515625
 44
215.8999938964844
 45
279.3999938964844
 46
0.0
 47
0.0
 48
0.0
 49
0.0
140
0.0
141
0.0
142
1.0
143
1.0
 70
 11952
 72
     1
 73
     1
 74
     0
  7

 75
     0
147
1.0
148
-4149.571981164617
149
65.56433826894044
100
AcDbLayout
  1
Model
 70
     1
 71
     0
 10
0.0
 20
0.0
 11
12.0
 21
9.0
 12
0.0
 22
0.0
 32
0.0
 14
0.0
 24
0.0
 34
0.0
 15
0.0
 25
0.0
 35
0.0
146
0.0
 13
0.0
 23
0.0
 33
0.0
 16
1.0
 26
0.0
 36
0.0
 17
0.0
 27
1.0
 37
0.0
 76
     0
330
747D
  0
LAYOUT
  5
159B4
102
{ACAD_XDICTIONARY
360
2392C
102
}
102
{ACAD_REACTORS
330
159B1
102
}
330
159B1
100
AcDbPlotSettings
  1

  2
自動 EPSON LP-8400FX (TATENO 上)
  4

  6

 40
0.0
 41
0.0
 42
0.0
 43
0.0
 44
0.0
 45
0.0
 46
0.0
 47
0.0
 48
0.0
 49
0.0
140
0.0
141
0.0
142
1.0
143
1.0
 70
   688
 72
     0
 73
     0
 74
     5
  7
inaba.ctb
 75
    16
147
1.0
148
0.0
149
0.0
100
AcDbLayout
  1
レイアウト1
 70
     0
 71
     1
 10
0.0
 20
0.0
 11
420.0
 21
297.0
 12
0.0
 22
0.0
 32
0.0
 14
1.000000000000000E+20
 24
1.000000000000000E+20
 34
1.000000000000000E+20
 15
-1.000000000000000E+20
 25
-1.000000000000000E+20
 35
-1.000000000000000E+20
146
0.0
 13
0.0
 23
0.0
 33
0.0
 16
1.0
 26
0.0
 36
0.0
 17
0.0
 27
1.0
 37
0.0
 76
     0
330
747A
  0
MLINESTYLE
  5
7480
102
{ACAD_REACTORS
330
7473
102
}
330
7473
100
AcDbMlineStyle
  2
STANDARD
 70
     0
  3

 62
     0
 51
90.0
 52
90.0
 71
     2
 49
0.5
 62
   256
  6
BYLAYER
 49
-0.5
 62
   256
  6
BYLAYER
  0
ACDBPLACEHOLDER
  5
159AE
102
{ACAD_REACTORS
330
159AD
102
}
330
159AD
  0
XRECORD
  5
23929
102
{ACAD_REACTORS
330
23927
102
}
330
23927
100
AcDbXrecord
280
     1
340
159B0
  0
XRECORD
  5
23928
102
{ACAD_REACTORS
330
23927
102
}
330
23927
100
AcDbXrecord
280
     1
340
159AF
  0
DICTIONARYVAR
  5
23924
102
{ACAD_REACTORS
330
23923
102
}
330
23923
100
DictionaryVariables
280
     0
  1
1
  0
DICTIONARYVAR
  5
23925
102
{ACAD_REACTORS
330
23923
102
}
330
23923
100
DictionaryVariables
280
     0
  1

  0
DICTIONARY
  5
2392A
330
159B3
100
AcDbDictionary
280
     1
281
     1
  3
ACAD_XREC_ROUNDTRIP
360
2392B
  0
DICTIONARY
  5
2392C
330
159B4
100
AcDbDictionary
280
     1
281
     1
  3
ACAD_XREC_ROUNDTRIP
360
2392D
  0
XRECORD
  5
2392B
102
{ACAD_REACTORS
330
2392A
102
}
330
2392A
100
AcDbXrecord
280
     1
102
SHADEPLOT
 70
     0
102
SHADEPLOTRESLEVEL
 70
     2
102
SHADEPLOTCUSTOMDPI
 70
   300
  0
XRECORD
  5
2392D
102
{ACAD_REACTORS
330
2392C
102
}
330
2392C
100
AcDbXrecord
280
     1
102
SHADEPLOT
 70
     0
102
SHADEPLOTRESLEVEL
 70
     2
102
SHADEPLOTCUSTOMDPI
 70
   300
  0
ENDSEC
  0
EOF
