  0
SECTION
  2
HEADER
  9
$ACADVER
  1
AC1015
  9
$ACADMAINTVER
 70
    20
  9
$DWGCODEPAGE
  3
ANSI_932
  9
$INSBASE
 10
0.0
 20
0.0
 30
0.0
  9
$EXTMIN
 10
139.9999999999995
 20
-0.0000000000000909
 30
0.0
  9
$EXTMAX
 10
16307.2
 20
11409.6
 30
0.0
  9
$LIMMIN
 10
0.0
 20
0.0
  9
$LIMMAX
 10
16800.0
 20
11880.0
  9
$ORTHOMODE
 70
     0
  9
$REGENMODE
 70
     1
  9
$FILLMODE
 70
     1
  9
$QTEXTMODE
 70
     0
  9
$MIRRTEXT
 70
     1
  9
$LTSCALE
 40
20.0
  9
$ATTMODE
 70
     1
  9
$TEXTSIZE
 40
4.0
  9
$TRACEWID
 40
1.0
  9
$TEXTSTYLE
  7
STYLE1
  9
$CLAYER
  8
部品1
  9
$CELTYPE
  6
BYLAYER
  9
$CECOLOR
 62
   256
  9
$CELTSCALE
 40
50.0
  9
$DISPSILH
 70
     0
  9
$DIMSCALE
 40
40.0
  9
$DIMASZ
 40
2.5
  9
$DIMEXO
 40
0.5
  9
$DIMDLI
 40
7.0
  9
$DIMRND
 40
0.0
  9
$DIMDLE
 40
0.0
  9
$DIMEXE
 40
1.5
  9
$DIMTP
 40
0.0
  9
$DIMTM
 40
0.0
  9
$DIMTXT
 40
3.0
  9
$DIMCEN
 40
0.0
  9
$DIMTSZ
 40
0.0
  9
$DIMTOL
 70
     0
  9
$DIMLIM
 70
     0
  9
$DIMTIH
 70
     0
  9
$DIMTOH
 70
     0
  9
$DIMSE1
 70
     0
  9
$DIMSE2
 70
     0
  9
$DIMTAD
 70
     3
  9
$DIMZIN
 70
     8
  9
$DIMBLK
  1

  9
$DIMASO
 70
     1
  9
$DIMSHO
 70
     1
  9
$DIMPOST
  1

  9
$DIMAPOST
  1

  9
$DIMALT
 70
     0
  9
$DIMALTD
 70
     2
  9
$DIMALTF
 40
0.0394
  9
$DIMLFAC
 40
1.0
  9
$DIMTOFL
 70
     1
  9
$DIMTVP
 40
0.0
  9
$DIMTIX
 70
     1
  9
$DIMSOXD
 70
     0
  9
$DIMSAH
 70
     1
  9
$DIMBLK1
  1
DOTSMALL
  9
$DIMBLK2
  1
DOTSMALL
  9
$DIMSTYLE
  2
INABA_S40G
  9
$DIMCLRD
 70
     0
  9
$DIMCLRE
 70
     0
  9
$DIMCLRT
 70
     7
  9
$DIMTFAC
 40
1.0
  9
$DIMGAP
 40
1.0
  9
$DIMJUST
 70
     0
  9
$DIMSD1
 70
     0
  9
$DIMSD2
 70
     0
  9
$DIMTOLJ
 70
     1
  9
$DIMTZIN
 70
     0
  9
$DIMALTZ
 70
     0
  9
$DIMALTTZ
 70
     0
  9
$DIMUPT
 70
     0
  9
$DIMDEC
 70
     1
  9
$DIMTDEC
 70
     4
  9
$DIMALTU
 70
     2
  9
$DIMALTTD
 70
     2
  9
$DIMTXSTY
  7
STYLE1
  9
$DIMAUNIT
 70
     0
  9
$DIMADEC
 70
     0
  9
$DIMALTRND
 40
0.0
  9
$DIMAZIN
 70
     0
  9
$DIMDSEP
 70
    46
  9
$DIMATFIT
 70
     3
  9
$DIMFRAC
 70
     0
  9
$DIMLDRBLK
  1

  9
$DIMLUNIT
 70
     2
  9
$DIMLWD
 70
    -2
  9
$DIMLWE
 70
    -2
  9
$DIMTMOVE
 70
     0
  9
$LUNITS
 70
     2
  9
$LUPREC
 70
     1
  9
$SKETCHINC
 40
1.0
  9
$FILLETRAD
 40
3.0
  9
$AUNITS
 70
     0
  9
$AUPREC
 70
     0
  9
$MENU
  1
acad
  9
$ELEVATION
 40
0.0
  9
$PELEVATION
 40
0.0
  9
$THICKNESS
 40
0.0
  9
$LIMCHECK
 70
     0
  9
$CHAMFERA
 40
0.0
  9
$CHAMFERB
 40
0.0
  9
$CHAMFERC
 40
0.0
  9
$CHAMFERD
 40
0.0
  9
$SKPOLY
 70
     0
  9
$TDCREATE
 40
2451368.612993866
  9
$TDUCREATE
 40
2451368.237993866
  9
$TDUPDATE
 40
2455575.685869317
  9
$TDUUPDATE
 40
2455575.310869317
  9
$TDINDWG
 40
0.6502054745
  9
$TDUSRTIMER
 40
0.6502054745
  9
$USRTIMER
 70
     1
  9
$ANGBASE
 50
0.0
  9
$ANGDIR
 70
     0
  9
$PDMODE
 70
     3
  9
$PDSIZE
 40
2.0
  9
$PLINEWID
 40
0.0
  9
$SPLFRAME
 70
     0
  9
$SPLINETYPE
 70
     6
  9
$SPLINESEGS
 70
     8
  9
$HANDSEED
  5
19A49
  9
$SURFTAB1
 70
     6
  9
$SURFTAB2
 70
     6
  9
$SURFTYPE
 70
     6
  9
$SURFU
 70
     6
  9
$SURFV
 70
     6
  9
$UCSBASE
  2

  9
$UCSNAME
  2

  9
$UCSORG
 10
0.0
 20
0.0
 30
0.0
  9
$UCSXDIR
 10
1.0
 20
0.0
 30
0.0
  9
$UCSYDIR
 10
0.0
 20
1.0
 30
0.0
  9
$UCSORTHOREF
  2

  9
$UCSORTHOVIEW
 70
     0
  9
$UCSORGTOP
 10
0.0
 20
0.0
 30
0.0
  9
$UCSORGBOTTOM
 10
0.0
 20
0.0
 30
0.0
  9
$UCSORGLEFT
 10
0.0
 20
0.0
 30
0.0
  9
$UCSORGRIGHT
 10
0.0
 20
0.0
 30
0.0
  9
$UCSORGFRONT
 10
0.0
 20
0.0
 30
0.0
  9
$UCSORGBACK
 10
0.0
 20
0.0
 30
0.0
  9
$PUCSBASE
  2

  9
$PUCSNAME
  2

  9
$PUCSORG
 10
0.0
 20
0.0
 30
0.0
  9
$PUCSXDIR
 10
1.0
 20
0.0
 30
0.0
  9
$PUCSYDIR
 10
0.0
 20
1.0
 30
0.0
  9
$PUCSORTHOREF
  2

  9
$PUCSORTHOVIEW
 70
     0
  9
$PUCSORGTOP
 10
0.0
 20
0.0
 30
0.0
  9
$PUCSORGBOTTOM
 10
0.0
 20
0.0
 30
0.0
  9
$PUCSORGLEFT
 10
0.0
 20
0.0
 30
0.0
  9
$PUCSORGRIGHT
 10
0.0
 20
0.0
 30
0.0
  9
$PUCSORGFRONT
 10
0.0
 20
0.0
 30
0.0
  9
$PUCSORGBACK
 10
0.0
 20
0.0
 30
0.0
  9
$USERI1
 70
     0
  9
$USERI2
 70
     0
  9
$USERI3
 70
     0
  9
$USERI4
 70
     0
  9
$USERI5
 70
     0
  9
$USERR1
 40
0.0
  9
$USERR2
 40
0.0
  9
$USERR3
 40
0.0
  9
$USERR4
 40
0.0
  9
$USERR5
 40
0.0
  9
$WORLDVIEW
 70
     1
  9
$SHADEDGE
 70
     3
  9
$SHADEDIF
 70
    70
  9
$TILEMODE
 70
     1
  9
$MAXACTVP
 70
    16
  9
$PINSBASE
 10
0.0
 20
0.0
 30
0.0
  9
$PLIMCHECK
 70
     0
  9
$PEXTMIN
 10
1.000000000000000E+20
 20
1.000000000000000E+20
 30
1.000000000000000E+20
  9
$PEXTMAX
 10
-1.000000000000000E+20
 20
-1.000000000000000E+20
 30
-1.000000000000000E+20
  9
$PLIMMIN
 10
0.0
 20
0.0
  9
$PLIMMAX
 10
420.0
 20
297.0
  9
$UNITMODE
 70
     0
  9
$VISRETAIN
 70
     0
  9
$PLINEGEN
 70
     0
  9
$PSLTSCALE
 70
     0
  9
$TREEDEPTH
 70
  3020
  9
$CMLSTYLE
  2
STANDARD
  9
$CMLJUST
 70
     0
  9
$CMLSCALE
 40
1.0
  9
$PROXYGRAPHICS
 70
     1
  9
$MEASUREMENT
 70
     1
  9
$CELWEIGHT
370
    -1
  9
$ENDCAPS
280
     0
  9
$JOINSTYLE
280
     0
  9
$LWDISPLAY
290
     0
  9
$INSUNITS
 70
     0
  9
$HYPERLINKBASE
  1

  9
$STYLESHEET
  1

  9
$XEDIT
290
     1
  9
$CEPSNTYPE
380
     0
  9
$PSTYLEMODE
290
     1
  9
$FINGERPRINTGUID
  2
{6388219E-AF5D-4733-8A7B-F5508186297B}
  9
$VERSIONGUID
  2
{B809A8A7-21CC-4247-8C58-0F0EC5F7CCF4}
  9
$EXTNAMES
290
     1
  9
$PSVPSCALE
 40
0.0
  9
$OLESTARTUP
290
     0
  0
ENDSEC
  0
SECTION
  2
CLASSES
  0
CLASS
  1
ACDBDICTIONARYWDFLT
  2
AcDbDictionaryWithDefault
  3
ObjectDBX Classes
 90
        0
280
     0
281
     0
  0
CLASS
  1
DICTIONARYVAR
  2
AcDbDictionaryVar
  3
ObjectDBX Classes
 90
        0
280
     0
281
     0
  0
CLASS
  1
ACDBPLACEHOLDER
  2
AcDbPlaceHolder
  3
ObjectDBX Classes
 90
        0
280
     0
281
     0
  0
CLASS
  1
LAYOUT
  2
AcDbLayout
  3
ObjectDBX Classes
 90
        0
280
     0
281
     0
  0
ENDSEC
  0
SECTION
  2
TABLES
  0
TABLE
  2
VPORT
  5
746D
330
0
100
AcDbSymbolTable
 70
     2
  0
VPORT
  5
19A41
330
746D
100
AcDbSymbolTableRecord
100
AcDbViewportTableRecord
  2
*Active
 70
     0
 10
0.0
 20
0.0
 11
1.0
 21
1.0
 12
8223.761025238502
 22
6348.534373990247
 13
0.0
 23
0.0
 14
10.0
 24
10.0
 15
10.0
 25
10.0
 16
0.0
 26
0.0
 36
1.0
 17
0.0
 27
0.0
 37
0.0
 40
12805.99765711426
 41
1.525925925925925
 42
50.0
 43
0.0
 44
0.0
 50
0.0
 51
0.0
 71
     0
 72
     0
 73
     1
 74
     0
 75
     0
 76
     0
 77
     0
 78
     0
281
     0
 65
     1
110
0.0
120
0.0
130
0.0
111
1.0
121
0.0
131
0.0
112
0.0
122
1.0
132
0.0
 79
     0
146
0.0
  0
ENDTAB
  0
TABLE
  2
LTYPE
  5
746A
330
0
100
AcDbSymbolTable
 70
     4
  0
LTYPE
  5
7477
330
746A
100
AcDbSymbolTableRecord
100
AcDbLinetypeTableRecord
  2
BYBLOCK
 70
     0
  3

 72
    65
 73
     0
 40
0.0
  0
LTYPE
  5
7478
330
746A
100
AcDbSymbolTableRecord
100
AcDbLinetypeTableRecord
  2
BYLAYER
 70
     0
  3

 72
    65
 73
     0
 40
0.0
  0
LTYPE
  5
7479
330
746A
100
AcDbSymbolTableRecord
100
AcDbLinetypeTableRecord
  2
CONTINUOUS
 70
     0
  3
Solid line
 72
    65
 73
     0
 40
0.0
  0
LTYPE
  5
7816
330
746A
100
AcDbSymbolTableRecord
100
AcDbLinetypeTableRecord
  2
CENTER
 70
     0
  3
____ _ ____ _ ____ _ ____ _ ____ _ ____ _ ____ 
 72
    65
 73
     4
 40
2.0
 49
1.25
 74
     0
 49
-0.25
 74
     0
 49
0.25
 74
     0
 49
-0.25
 74
     0
  0
LTYPE
  5
781A
330
746A
100
AcDbSymbolTableRecord
100
AcDbLinetypeTableRecord
  2
HIDDEN
 70
     0
  3
__ __ __ __ __ __ __ __ __ __ __ __ __ __ __ __
 72
    65
 73
     2
 40
0.375
 49
0.25
 74
     0
 49
-0.125
 74
     0
  0
LTYPE
  5
781B
330
746A
100
AcDbSymbolTableRecord
100
AcDbLinetypeTableRecord
  2
PHANTOM
 70
     0
  3
______  __  __  ______  __  __  ______  __  __ 
 72
    65
 73
     6
 40
2.5
 49
1.25
 74
     0
 49
-0.25
 74
     0
 49
0.25
 74
     0
 49
-0.25
 74
     0
 49
0.25
 74
     0
 49
-0.25
 74
     0
  0
ENDTAB
  0
TABLE
  2
LAYER
  5
7467
102
{ACAD_XDICTIONARY
360
17F55
102
}
330
0
100
AcDbSymbolTable
 70
    12
  0
LAYER
  5
7474
330
7467
100
AcDbSymbolTableRecord
100
AcDbLayerTableRecord
  2
0
 70
     0
 62
     7
  6
CONTINUOUS
370
    -3
390
17DC5
  0
LAYER
  5
DEB2
330
7467
100
AcDbSymbolTableRecord
100
AcDbLayerTableRecord
  2
センター
 70
     0
 62
     3
  6
CENTER
370
    -3
390
17DC5
  0
LAYER
  5
DEB3
330
7467
100
AcDbSymbolTableRecord
100
AcDbLayerTableRecord
  2
寸法
 70
     0
 62
     4
  6
CONTINUOUS
370
    -3
390
17DC5
  0
LAYER
  5
DEB4
330
7467
100
AcDbSymbolTableRecord
100
AcDbLayerTableRecord
  2
部品1
 70
     0
 62
     7
  6
CONTINUOUS
370
    -3
390
17DC5
  0
LAYER
  5
DEB5
330
7467
100
AcDbSymbolTableRecord
100
AcDbLayerTableRecord
  2
補助
 70
     0
 62
    -1
  6
CONTINUOUS
370
    -3
390
17DC5
  0
LAYER
  5
DEB6
330
7467
100
AcDbSymbolTableRecord
100
AcDbLayerTableRecord
  2
文字
 70
     0
 62
     7
  6
CONTINUOUS
370
    -3
390
17DC5
  0
LAYER
  5
F255
330
7467
100
AcDbSymbolTableRecord
100
AcDbLayerTableRecord
  2
DEFPOINTS
 70
     0
 62
     7
  6
CONTINUOUS
290
     0
370
    -3
390
17DC5
  0
LAYER
  5
10B54
330
7467
100
AcDbSymbolTableRecord
100
AcDbLayerTableRecord
  2
仕様書枠
 70
     0
 62
   230
  6
CONTINUOUS
370
    -3
390
17DC5
  0
LAYER
  5
11729
330
7467
100
AcDbSymbolTableRecord
100
AcDbLayerTableRecord
  2
Ｇ．Ｌ
 70
     0
 62
    30
  6
CONTINUOUS
370
    -3
390
17DC5
  0
LAYER
  5
1173F
330
7467
100
AcDbSymbolTableRecord
100
AcDbLayerTableRecord
  2
細線
 70
     0
 62
     5
  6
CONTINUOUS
370
    -3
390
17DC5
  0
LAYER
  5
12CC4
330
7467
100
AcDbSymbolTableRecord
100
AcDbLayerTableRecord
  2
想像線
 70
     0
 62
     6
  6
PHANTOM
370
    -3
390
17DC5
  0
LAYER
  5
142E2
330
7467
100
AcDbSymbolTableRecord
100
AcDbLayerTableRecord
  2
破線
 70
     0
 62
     2
  6
HIDDEN
370
    -3
390
17DC5
  0
ENDTAB
  0
TABLE
  2
STYLE
  5
7468
330
0
100
AcDbSymbolTable
 70
     4
  0
STYLE
  5
7475
330
7468
100
AcDbSymbolTableRecord
100
AcDbTextStyleTableRecord
  2
STANDARD
 70
     0
 40
0.0
 41
1.0
 50
0.0
 71
     0
 42
4.0
  3
txt
  4
C:\AutoCAD LT\bigfont.shx
  0
STYLE
  5
F706
330
7468
100
AcDbSymbolTableRecord
100
AcDbTextStyleTableRecord
  2
STYLE1
 70
     0
 40
0.0
 41
1.0
 50
0.0
 71
     0
 42
4.0
  3
isocp.shx
  4
bigfont.shx
  0
STYLE
  5
103BF
330
7468
100
AcDbSymbolTableRecord
100
AcDbTextStyleTableRecord
  2
STYLE2
 70
     0
 40
0.0
 41
1.0
 50
0.0
 71
     0
 42
100.0
  3
MS PGothic.ttf
  4

1001
ACAD
1000
MS PGothic
1071
    32818
  0
STYLE
  5
17354
330
7468
100
AcDbSymbolTableRecord
100
AcDbTextStyleTableRecord
  2
STYLE3
 70
     0
 40
0.0
 41
1.0
 50
0.0
 71
     0
 42
100.0
  3

  4

1001
ACAD
1000
DFPGothic-EB
1071
    32818
  0
ENDTAB
  0
TABLE
  2
VIEW
  5
746B
330
0
100
AcDbSymbolTable
 70
     0
  0
ENDTAB
  0
TABLE
  2
UCS
  5
746C
330
0
100
AcDbSymbolTable
 70
     0
  0
ENDTAB
  0
TABLE
  2
APPID
  5
746E
330
0
100
AcDbSymbolTable
 70
     6
  0
APPID
  5
7476
330
746E
100
AcDbSymbolTableRecord
100
AcDbRegAppTableRecord
  2
ACAD
 70
     0
  0
APPID
  5
DEA9
330
746E
100
AcDbSymbolTableRecord
100
AcDbRegAppTableRecord
  2
CONTENTBLOCKICON
 70
     0
  0
APPID
  5
DEAA
330
746E
100
AcDbSymbolTableRecord
100
AcDbRegAppTableRecord
  2
CONTENTBLOCKDESCRIPTION
 70
     0
  0
APPID
  5
E71D
330
746E
100
AcDbSymbolTableRecord
100
AcDbRegAppTableRecord
  2
CONTENTTABDATA
 70
     0
  0
APPID
  5
E71E
330
746E
100
AcDbSymbolTableRecord
100
AcDbRegAppTableRecord
  2
CONTENTCURRENTTAB
 70
     0
  0
APPID
  5
F3BA
330
746E
100
AcDbSymbolTableRecord
100
AcDbRegAppTableRecord
  2
DRAWINGVARIABLESXDATA
 70
     0
  0
ENDTAB
  0
TABLE
  2
DIMSTYLE
  5
746F
330
0
100
AcDbSymbolTable
 70
     5
100
AcDbDimStyleTable
 71
     1
340
F71F
  0
DIMSTYLE
105
7484
330
746F
100
AcDbSymbolTableRecord
100
AcDbDimStyleTableRecord
  2
JIS
 70
     0
 41
2.5
 42
1.0
 43
7.0
 44
1.0
 73
     0
 74
     0
 77
     1
 78
     8
140
2.5
141
0.0
143
0.0394
147
0.0
172
     1
174
     1
175
     1
340
7475
  0
DIMSTYLE
105
F71F
102
{ACAD_REACTORS
330
18404
330
1841B
330
1841C
330
1841D
330
1841E
330
1843C
330
1843D
330
1843E
330
1843F
330
18440
330
183A7
330
188F7
330
18932
330
18933
330
18934
330
18940
330
18944
330
190B7
330
1915D
330
1915E
330
1918A
330
1918C
330
19198
330
19199
330
1919A
330
191A2
330
191A7
330
196D4
330
196DB
102
}
330
746F
100
AcDbSymbolTableRecord
100
AcDbDimStyleTableRecord
  2
INABA_S40G
 70
     0
 40
40.0
 41
2.5
 42
0.5
 43
7.0
 44
1.5
 73
     0
 74
     0
 77
     3
 78
     8
140
3.0
141
0.0
143
0.0394
147
1.0
172
     1
173
     1
174
     1
178
     7
271
     1
340
F706
341
F770
343
F770
344
F770
  0
DIMSTYLE
105
17355
330
746F
100
AcDbSymbolTableRecord
100
AcDbDimStyleTableRecord
  2
INABA_S50G
 70
     0
 41
125.0
 42
25.0
 43
7.0
 44
75.0
 73
     0
 74
     0
 77
     3
 78
     8
140
150.0
141
0.0
143
0.0394
147
25.0
172
     1
173
     1
174
     1
175
     1
178
     7
271
     1
340
F706
341
F770
343
F770
344
F770
  0
DIMSTYLE
105
17F54
102
{ACAD_REACTORS
330
1947E
330
196DA
102
}
330
746F
100
AcDbSymbolTableRecord
100
AcDbDimStyleTableRecord
  2
INABA_S40
 70
     0
 40
40.0
 41
2.5
 42
0.5
 43
7.0
 44
1.5
 73
     0
 74
     0
 77
     3
 78
     8
140
3.0
141
0.0
143
0.0394
147
1.0
172
     1
173
     1
174
     1
175
     1
178
     7
340
7475
  0
DIMSTYLE
105
199D7
330
746F
100
AcDbSymbolTableRecord
100
AcDbDimStyleTableRecord
  2
INABA_S20G
 70
     0
 40
20.0
 41
2.5
 42
0.5
 43
7.0
 44
1.5
 73
     0
 74
     0
 77
     3
 78
     8
140
3.0
141
0.0
143
0.0394
147
1.0
172
     1
173
     1
174
     1
178
     7
271
     1
340
F706
341
F770
343
F770
344
F770
  0
ENDTAB
  0
TABLE
  2
BLOCK_RECORD
  5
7466
330
0
100
AcDbSymbolTable
 70
    33
  0
BLOCK_RECORD
  5
747D
330
7466
100
AcDbSymbolTableRecord
100
AcDbBlockTableRecord
  2
*MODEL_SPACE
340
17DCA
  0
BLOCK_RECORD
  5
747A
330
7466
100
AcDbSymbolTableRecord
100
AcDbBlockTableRecord
  2
*PAPER_SPACE
340
17DCB
  0
BLOCK_RECORD
  5
F770
330
7466
100
AcDbSymbolTableRecord
100
AcDbBlockTableRecord
  2
_DOTSMALL
340
0
102
{BLKREFS
331
18E04
331
18E05
331
18E0D
331
18E0E
331
18E16
331
18E17
331
18E21
331
18E22
331
18E2A
331
18E2B
331
18E35
331
18E36
331
18E3E
331
18E3F
331
18E48
331
18E49
331
18E53
331
18E54
331
18E5C
331
18E5D
331
18E65
331
18E66
331
18E6F
331
18E70
331
18E78
331
18E79
331
18E83
331
18E84
331
18E8C
331
18E8D
331
18E95
331
18E96
331
18E9E
331
18E9F
331
19923
331
19924
331
19937
331
19938
331
1994B
331
1994C
331
19954
331
19955
331
1995F
331
19960
331
1996A
331
1996B
331
19973
331
19974
331
1997E
331
1997F
331
19987
331
19988
331
19990
331
19991
331
199A2
331
199A3
331
199C8
331
199C9
102
}
  0
BLOCK_RECORD
  5
17DD3
330
7466
100
AcDbSymbolTableRecord
100
AcDbBlockTableRecord
  2
_DOT
340
0
102
{BLKREFS
331
1992E
331
1992F
331
19940
331
19941
102
}
  0
BLOCK_RECORD
  5
1844D
330
7466
100
AcDbSymbolTableRecord
100
AcDbBlockTableRecord
  2
*D2
340
0
  0
BLOCK_RECORD
  5
18459
330
7466
100
AcDbSymbolTableRecord
100
AcDbBlockTableRecord
  2
*D3
340
0
  0
BLOCK_RECORD
  5
18465
330
7466
100
AcDbSymbolTableRecord
100
AcDbBlockTableRecord
  2
*D4
340
0
  0
BLOCK_RECORD
  5
18473
330
7466
100
AcDbSymbolTableRecord
100
AcDbBlockTableRecord
  2
*D5
340
0
  0
BLOCK_RECORD
  5
1847F
330
7466
100
AcDbSymbolTableRecord
100
AcDbBlockTableRecord
  2
*D6
340
0
  0
BLOCK_RECORD
  5
1848C
330
7466
100
AcDbSymbolTableRecord
100
AcDbBlockTableRecord
  2
*D7
340
0
  0
BLOCK_RECORD
  5
18498
330
7466
100
AcDbSymbolTableRecord
100
AcDbBlockTableRecord
  2
*D8
340
0
  0
BLOCK_RECORD
  5
184A4
330
7466
100
AcDbSymbolTableRecord
100
AcDbBlockTableRecord
  2
*D9
340
0
  0
BLOCK_RECORD
  5
184B2
330
7466
100
AcDbSymbolTableRecord
100
AcDbBlockTableRecord
  2
*D10
340
0
  0
BLOCK_RECORD
  5
184BF
330
7466
100
AcDbSymbolTableRecord
100
AcDbBlockTableRecord
  2
*D11
340
0
  0
BLOCK_RECORD
  5
185BD
330
7466
100
AcDbSymbolTableRecord
100
AcDbBlockTableRecord
  2
*D12
340
0
  0
BLOCK_RECORD
  5
18A15
330
7466
100
AcDbSymbolTableRecord
100
AcDbBlockTableRecord
  2
*D13
340
0
  0
BLOCK_RECORD
  5
18A23
330
7466
100
AcDbSymbolTableRecord
100
AcDbBlockTableRecord
  2
*D14
340
0
  0
BLOCK_RECORD
  5
18A2F
330
7466
100
AcDbSymbolTableRecord
100
AcDbBlockTableRecord
  2
*D15
340
0
  0
BLOCK_RECORD
  5
18A3D
330
7466
100
AcDbSymbolTableRecord
100
AcDbBlockTableRecord
  2
*D16
340
0
  0
BLOCK_RECORD
  5
18A49
330
7466
100
AcDbSymbolTableRecord
100
AcDbBlockTableRecord
  2
*D17
340
0
  0
BLOCK_RECORD
  5
18A55
330
7466
100
AcDbSymbolTableRecord
100
AcDbBlockTableRecord
  2
*D18
340
0
  0
BLOCK_RECORD
  5
191A8
330
7466
100
AcDbSymbolTableRecord
100
AcDbBlockTableRecord
  2
*D19
340
0
  0
BLOCK_RECORD
  5
191CE
330
7466
100
AcDbSymbolTableRecord
100
AcDbBlockTableRecord
  2
*D20
340
0
  0
BLOCK_RECORD
  5
191DA
330
7466
100
AcDbSymbolTableRecord
100
AcDbBlockTableRecord
  2
*D21
340
0
  0
BLOCK_RECORD
  5
191E6
330
7466
100
AcDbSymbolTableRecord
100
AcDbBlockTableRecord
  2
*D22
340
0
  0
BLOCK_RECORD
  5
191F2
330
7466
100
AcDbSymbolTableRecord
100
AcDbBlockTableRecord
  2
*D23
340
0
  0
BLOCK_RECORD
  5
1920C
330
7466
100
AcDbSymbolTableRecord
100
AcDbBlockTableRecord
  2
*D24
340
0
  0
BLOCK_RECORD
  5
19218
330
7466
100
AcDbSymbolTableRecord
100
AcDbBlockTableRecord
  2
*D25
340
0
  0
BLOCK_RECORD
  5
19226
330
7466
100
AcDbSymbolTableRecord
100
AcDbBlockTableRecord
  2
*D26
340
0
  0
BLOCK_RECORD
  5
19234
330
7466
100
AcDbSymbolTableRecord
100
AcDbBlockTableRecord
  2
*D27
340
0
  0
BLOCK_RECORD
  5
19240
330
7466
100
AcDbSymbolTableRecord
100
AcDbBlockTableRecord
  2
*D28
340
0
  0
BLOCK_RECORD
  5
194E2
330
7466
100
AcDbSymbolTableRecord
100
AcDbBlockTableRecord
  2
*D29
340
0
  0
BLOCK_RECORD
  5
197C9
330
7466
100
AcDbSymbolTableRecord
100
AcDbBlockTableRecord
  2
*D30
340
0
  0
BLOCK_RECORD
  5
197D5
330
7466
100
AcDbSymbolTableRecord
100
AcDbBlockTableRecord
  2
*D31
340
0
  0
BLOCK_RECORD
  5
197E3
330
7466
100
AcDbSymbolTableRecord
100
AcDbBlockTableRecord
  2
*D32
340
0
  0
ENDTAB
  0
ENDSEC
  0
SECTION
  2
BLOCKS
  0
BLOCK
  5
7489
330
747D
100
AcDbEntity
  8
0
100
AcDbBlockBegin
  2
*MODEL_SPACE
 70
     0
 10
0.0
 20
0.0
 30
0.0
  3
*MODEL_SPACE
  1

  0
ENDBLK
  5
748A
330
747D
100
AcDbEntity
  8
0
100
AcDbBlockEnd
  0
BLOCK
  5
7487
330
747A
100
AcDbEntity
 67
     1
  8
0
100
AcDbBlockBegin
  2
*PAPER_SPACE
 70
     0
 10
0.0
 20
0.0
 30
0.0
  3
*PAPER_SPACE
  1

  0
ENDBLK
  5
7488
330
747A
100
AcDbEntity
 67
     1
  8
0
100
AcDbBlockEnd
  0
BLOCK
  5
F771
330
F770
100
AcDbEntity
  8
0
 48
50.0
100
AcDbBlockBegin
  2
_DOTSMALL
 70
     0
 10
0.0
 20
0.0
 30
0.0
  3
_DOTSMALL
  1

  0
LWPOLYLINE
  5
F772
330
F770
100
AcDbEntity
  8
0
  6
ByBlock
 62
     0
 48
50.0
100
AcDbPolyline
 90
        2
 70
     1
 43
0.5
 10
-0.0625
 20
0.0
 42
1.0
 10
0.0625
 20
0.0
 42
1.0
  0
ENDBLK
  5
F776
330
F770
100
AcDbEntity
  8
0
 48
50.0
100
AcDbBlockEnd
  0
BLOCK
  5
17DD4
330
17DD3
100
AcDbEntity
  8
0
 48
50.0
100
AcDbBlockBegin
  2
_DOT
 70
     0
 10
0.0
 20
0.0
 30
0.0
  3
_DOT
  1

  0
LWPOLYLINE
  5
17DD5
330
17DD3
100
AcDbEntity
  8
0
  6
ByBlock
 62
     0
 48
50.0
100
AcDbPolyline
 90
        2
 70
     1
 43
0.5
 10
-0.25
 20
0.0
 42
1.0
 10
0.25
 20
0.0
 42
1.0
  0
LINE
  5
17DD6
330
17DD3
100
AcDbEntity
  8
0
  6
ByBlock
 62
     0
 48
50.0
100
AcDbLine
 10
-0.5
 20
0.0
 30
0.0
 11
-1.0
 21
0.0
 31
0.0
  0
ENDBLK
  5
17DD7
330
17DD3
100
AcDbEntity
  8
0
 48
50.0
100
AcDbBlockEnd
  0
BLOCK
  5
18457
330
1844D
100
AcDbEntity
  8
0
 48
50.0
100
AcDbBlockBegin
  2
*D2
 70
     1
 10
0.0
 20
0.0
 30
0.0
  3
*D2
  1

  0
LINE
  5
18E92
330
1844D
100
AcDbEntity
  8
寸法
 62
     0
 48
50.0
370
    -2
100
AcDbLine
 10
8860.216997593346
 20
2272.938397165363
 30
0.0
 11
8860.216997593346
 21
1946.891067864986
 31
0.0
  0
LINE
  5
18E93
330
1844D
100
AcDbEntity
  8
寸法
 62
     0
 48
50.0
370
    -2
100
AcDbLine
 10
8660.216997593343
 20
2272.938397165363
 30
0.0
 11
8660.216997593343
 21
1946.891067864986
 31
0.0
  0
LINE
  5
18E94
330
1844D
100
AcDbEntity
  8
寸法
 62
     0
 48
50.0
370
    -2
100
AcDbLine
 10
8860.216997593346
 20
2006.891067864986
 30
0.0
 11
8660.216997593343
 21
2006.891067864986
 31
0.0
  0
INSERT
  5
18E95
330
1844D
100
AcDbEntity
  8
寸法
 62
     0
 48
50.0
370
    -2
100
AcDbBlockReference
  2
_DOTSMALL
 10
8860.216997593346
 20
2006.891067864986
 30
0.0
 41
100.0
 42
100.0
 43
100.0
  0
INSERT
  5
18E96
330
1844D
100
AcDbEntity
  8
寸法
 62
     0
 48
50.0
370
    -2
100
AcDbBlockReference
  2
_DOTSMALL
 10
8660.216997593343
 20
2006.891067864986
 30
0.0
 41
100.0
 42
100.0
 43
100.0
 50
180.0
  0
MTEXT
  5
18E97
330
1844D
100
AcDbEntity
  8
寸法
 62
     7
 48
50.0
100
AcDbMText
 10
8760.216997593344
 20
2106.902878888609
 30
0.0
 40
120.0
 41
0.0
 71
     5
 72
     1
  1
\A1;200
  7
STYLE1
 73
     1
 44
1.0
1001
ACAD
1000
MTEXTBEGIN
1070
    73
1070
     1
1070
    44
1040
1.0
1070
    74
1070
     0
1000
MTEXTEND
  0
POINT
  5
18E98
330
1844D
100
AcDbEntity
  8
DEFPOINTS
 62
     0
 48
50.0
100
AcDbPoint
 10
8860.216997593346
 20
2292.938397165363
 30
0.0
  0
POINT
  5
18E99
330
1844D
100
AcDbEntity
  8
DEFPOINTS
 62
     0
 48
50.0
100
AcDbPoint
 10
8660.216997593343
 20
2292.938397165363
 30
0.0
  0
POINT
  5
18E9A
330
1844D
100
AcDbEntity
  8
DEFPOINTS
 62
     0
 48
50.0
100
AcDbPoint
 10
8660.216997593343
 20
2006.891067864986
 30
0.0
  0
ENDBLK
  5
18458
330
1844D
100
AcDbEntity
  8
0
 48
50.0
100
AcDbBlockEnd
  0
BLOCK
  5
18463
330
18459
100
AcDbEntity
  8
0
 48
50.0
100
AcDbBlockBegin
  2
*D3
 70
     1
 10
0.0
 20
0.0
 30
0.0
  3
*D3
  1

  0
LINE
  5
18E89
330
18459
100
AcDbEntity
  8
寸法
 62
     0
 48
50.0
370
    -2
100
AcDbLine
 10
10550.21699759334
 20
4634.749076777017
 30
0.0
 11
10550.21699759334
 21
5127.031566504837
 31
0.0
  0
LINE
  5
18E8A
330
18459
100
AcDbEntity
  8
寸法
 62
     0
 48
50.0
370
    -2
100
AcDbLine
 10
8760.216997593346
 20
4683.940015288341
 30
0.0
 11
8760.216997593346
 21
5127.031566504837
 31
0.0
  0
LINE
  5
18E8B
330
18459
100
AcDbEntity
  8
寸法
 62
     0
 48
50.0
370
    -2
100
AcDbLine
 10
10550.21699759334
 20
5067.031566504837
 30
0.0
 11
8760.216997593346
 21
5067.031566504837
 31
0.0
  0
INSERT
  5
18E8C
330
18459
100
AcDbEntity
  8
寸法
 62
     0
 48
50.0
370
    -2
100
AcDbBlockReference
  2
_DOTSMALL
 10
10550.21699759334
 20
5067.031566504837
 30
0.0
 41
100.0
 42
100.0
 43
100.0
  0
INSERT
  5
18E8D
330
18459
100
AcDbEntity
  8
寸法
 62
     0
 48
50.0
370
    -2
100
AcDbBlockReference
  2
_DOTSMALL
 10
8760.216997593346
 20
5067.031566504837
 30
0.0
 41
100.0
 42
100.0
 43
100.0
 50
180.0
  0
MTEXT
  5
18E8E
330
18459
100
AcDbEntity
  8
寸法
 62
     7
 48
50.0
100
AcDbMText
 10
9669.812646269825
 20
5167.031566504838
 30
0.0
 40
120.0
 41
0.0
 71
     5
 72
     1
  1
\A1;柱外寸法1790
  7
STYLE1
 73
     1
 44
1.0
1001
ACAD
1000
MTEXTBEGIN
1070
    73
1070
     1
1070
    44
1040
1.0
1070
    74
1070
     0
1000
MTEXTEND
  0
POINT
  5
18E8F
330
18459
100
AcDbEntity
  8
DEFPOINTS
 62
     0
 48
50.0
100
AcDbPoint
 10
10550.21699759334
 20
4614.749076777018
 30
0.0
  0
POINT
  5
18E90
330
18459
100
AcDbEntity
  8
DEFPOINTS
 62
     0
 48
50.0
100
AcDbPoint
 10
8760.216997593346
 20
4663.940015288341
 30
0.0
  0
POINT
  5
18E91
330
18459
100
AcDbEntity
  8
DEFPOINTS
 62
     0
 48
50.0
100
AcDbPoint
 10
8760.216997593346
 20
5067.031566504837
 30
0.0
  0
ENDBLK
  5
18464
330
18459
100
AcDbEntity
  8
0
 48
50.0
100
AcDbBlockEnd
  0
BLOCK
  5
18471
330
18465
100
AcDbEntity
  8
0
 48
50.0
100
AcDbBlockBegin
  2
*D4
 70
     1
 10
0.0
 20
0.0
 30
0.0
  3
*D4
  1

  0
LINE
  5
18E7E
330
18465
100
AcDbEntity
  8
寸法
 62
     0
 48
50.0
370
    -2
100
AcDbLine
 10
8760.216997593346
 20
4683.940015288341
 30
0.0
 11
8760.216997593346
 21
5127.031566504837
 31
0.0
  0
LINE
  5
18E7F
330
18465
100
AcDbEntity
  8
寸法
 62
     0
 48
50.0
370
    -2
100
AcDbLine
 10
8700.216997593347
 20
4687.938397165368
 30
0.0
 11
8700.216997593347
 21
5127.031566504837
 31
0.0
  0
LINE
  5
18E80
330
18465
100
AcDbEntity
  8
寸法
 62
     0
 48
50.0
370
    -2
100
AcDbLine
 10
8760.216997593346
 20
5067.031566504837
 30
0.0
 11
8860.216997593346
 21
5067.031566504837
 31
0.0
  0
LINE
  5
18E81
330
18465
100
AcDbEntity
  8
寸法
 62
     0
 48
50.0
370
    -2
100
AcDbLine
 10
8700.216997593347
 20
5067.031566504837
 30
0.0
 11
8280.941407042167
 21
5067.031566504837
 31
0.0
  0
LINE
  5
18E82
330
18465
100
AcDbEntity
  8
寸法
 62
     0
 48
50.0
370
    -2
100
AcDbLine
 10
8760.216997593346
 20
5067.031566504837
 30
0.0
 11
8700.216997593347
 21
5067.031566504837
 31
0.0
  0
INSERT
  5
18E83
330
18465
100
AcDbEntity
  8
寸法
 62
     0
 48
50.0
370
    -2
100
AcDbBlockReference
  2
_DOTSMALL
 10
8760.216997593346
 20
5067.031566504837
 30
0.0
 41
100.0
 42
100.0
 43
100.0
 50
180.0
  0
INSERT
  5
18E84
330
18465
100
AcDbEntity
  8
寸法
 62
     0
 48
50.0
370
    -2
100
AcDbBlockReference
  2
_DOTSMALL
 10
8700.216997593347
 20
5067.031566504837
 30
0.0
 41
100.0
 42
100.0
 43
100.0
  0
MTEXT
  5
18E85
330
18465
100
AcDbEntity
  8
寸法
 62
     7
 48
50.0
100
AcDbMText
 10
8390.579202317757
 20
5167.031566504838
 30
0.0
 40
120.0
 41
0.0
 71
     5
 72
     1
  1
\A1;60
  7
STYLE1
 73
     1
 44
1.0
1001
ACAD
1000
MTEXTBEGIN
1070
    73
1070
     1
1070
    44
1040
1.0
1070
    74
1070
     0
1000
MTEXTEND
  0
POINT
  5
18E86
330
18465
100
AcDbEntity
  8
DEFPOINTS
 62
     0
 48
50.0
100
AcDbPoint
 10
8760.216997593346
 20
4663.940015288341
 30
0.0
  0
POINT
  5
18E87
330
18465
100
AcDbEntity
  8
DEFPOINTS
 62
     0
 48
50.0
100
AcDbPoint
 10
8700.216997593347
 20
4667.938397165368
 30
0.0
  0
POINT
  5
18E88
330
18465
100
AcDbEntity
  8
DEFPOINTS
 62
     0
 48
50.0
100
AcDbPoint
 10
8700.216997593347
 20
5067.031566504837
 30
0.0
  0
ENDBLK
  5
18472
330
18465
100
AcDbEntity
  8
0
 48
50.0
100
AcDbBlockEnd
  0
BLOCK
  5
1847D
330
18473
100
AcDbEntity
  8
0
 48
50.0
100
AcDbBlockBegin
  2
*D5
 70
     1
 10
0.0
 20
0.0
 30
0.0
  3
*D5
  1

  0
LINE
  5
18E75
330
18473
100
AcDbEntity
  8
寸法
 62
     0
 48
50.0
370
    -2
100
AcDbLine
 10
10630.21699759334
 20
4632.938397165365
 30
0.0
 11
10630.21699759334
 21
5343.557666123283
 31
0.0
  0
LINE
  5
18E76
330
18473
100
AcDbEntity
  8
寸法
 62
     0
 48
50.0
370
    -2
100
AcDbLine
 10
8700.216997593347
 20
4687.938397165368
 30
0.0
 11
8700.216997593347
 21
5343.557666123283
 31
0.0
  0
LINE
  5
18E77
330
18473
100
AcDbEntity
  8
寸法
 62
     0
 48
50.0
370
    -2
100
AcDbLine
 10
10630.21699759334
 20
5283.557666123282
 30
0.0
 11
8700.216997593347
 21
5283.557666123282
 31
0.0
  0
INSERT
  5
18E78
330
18473
100
AcDbEntity
  8
寸法
 62
     0
 48
50.0
370
    -2
100
AcDbBlockReference
  2
_DOTSMALL
 10
10630.21699759334
 20
5283.557666123282
 30
0.0
 41
100.0
 42
100.0
 43
100.0
  0
INSERT
  5
18E79
330
18473
100
AcDbEntity
  8
寸法
 62
     0
 48
50.0
370
    -2
100
AcDbBlockReference
  2
_DOTSMALL
 10
8700.216997593347
 20
5283.557666123282
 30
0.0
 41
100.0
 42
100.0
 43
100.0
 50
180.0
  0
MTEXT
  5
18E7A
330
18473
100
AcDbEntity
  8
寸法
 62
     7
 48
50.0
100
AcDbMText
 10
9606.022748844315
 20
5383.557666123283
 30
0.0
 40
120.0
 41
0.0
 71
     5
 72
     1
  1
\A1;1930
  7
STYLE1
 73
     1
 44
1.0
1001
ACAD
1000
MTEXTBEGIN
1070
    73
1070
     1
1070
    44
1040
1.0
1070
    74
1070
     0
1000
MTEXTEND
  0
POINT
  5
18E7B
330
18473
100
AcDbEntity
  8
DEFPOINTS
 62
     0
 48
50.0
100
AcDbPoint
 10
10630.21699759334
 20
4612.938397165365
 30
0.0
  0
POINT
  5
18E7C
330
18473
100
AcDbEntity
  8
DEFPOINTS
 62
     0
 48
50.0
100
AcDbPoint
 10
8700.216997593347
 20
4667.938397165368
 30
0.0
  0
POINT
  5
18E7D
330
18473
100
AcDbEntity
  8
DEFPOINTS
 62
     0
 48
50.0
100
AcDbPoint
 10
8700.216997593347
 20
5283.557666123282
 30
0.0
  0
ENDBLK
  5
1847E
330
18473
100
AcDbEntity
  8
0
 48
50.0
100
AcDbBlockEnd
  0
BLOCK
  5
1848A
330
1847F
100
AcDbEntity
  8
0
 48
50.0
100
AcDbBlockBegin
  2
*D6
 70
     1
 10
0.0
 20
0.0
 30
0.0
  3
*D6
  1

  0
LINE
  5
18E6B
330
1847F
100
AcDbEntity
  8
寸法
 62
     0
 48
50.0
370
    -2
100
AcDbLine
 10
10550.21699759334
 20
4634.749076777017
 30
0.0
 11
10550.21699759334
 21
5127.031566504837
 31
0.0
  0
LINE
  5
18E6C
330
1847F
100
AcDbEntity
  8
寸法
 62
     0
 48
50.0
370
    -2
100
AcDbLine
 10
10630.21699759334
 20
4632.938397165365
 30
0.0
 11
10630.21699759334
 21
5127.031566504837
 31
0.0
  0
LINE
  5
18E6D
330
1847F
100
AcDbEntity
  8
寸法
 62
     0
 48
50.0
370
    -2
100
AcDbLine
 10
10550.21699759334
 20
5067.031566504837
 30
0.0
 11
10630.21699759334
 21
5067.031566504837
 31
0.0
  0
LINE
  5
18E6E
330
1847F
100
AcDbEntity
  8
寸法
 62
     0
 48
50.0
370
    -2
100
AcDbLine
 10
10630.21699759334
 20
5067.031566504837
 30
0.0
 11
10942.31148578232
 21
5067.031566504837
 31
0.0
  0
INSERT
  5
18E6F
330
1847F
100
AcDbEntity
  8
寸法
 62
     0
 48
50.0
370
    -2
100
AcDbBlockReference
  2
_DOTSMALL
 10
10550.21699759334
 20
5067.031566504837
 30
0.0
 41
100.0
 42
100.0
 43
100.0
 50
180.0
  0
INSERT
  5
18E70
330
1847F
100
AcDbEntity
  8
寸法
 62
     0
 48
50.0
370
    -2
100
AcDbBlockReference
  2
_DOTSMALL
 10
10630.21699759334
 20
5067.031566504837
 30
0.0
 41
100.0
 42
100.0
 43
100.0
  0
MTEXT
  5
18E71
330
1847F
100
AcDbEntity
  8
寸法
 62
     7
 48
50.0
100
AcDbMText
 10
10836.26424168783
 20
5167.031566504838
 30
0.0
 40
120.0
 41
0.0
 71
     5
 72
     1
  1
\A1;80
  7
STYLE1
 73
     1
 44
1.0
1001
ACAD
1000
MTEXTBEGIN
1070
    73
1070
     1
1070
    44
1040
1.0
1070
    74
1070
     0
1000
MTEXTEND
  0
POINT
  5
18E72
330
1847F
100
AcDbEntity
  8
DEFPOINTS
 62
     0
 48
50.0
100
AcDbPoint
 10
10550.21699759334
 20
4614.749076777018
 30
0.0
  0
POINT
  5
18E73
330
1847F
100
AcDbEntity
  8
DEFPOINTS
 62
     0
 48
50.0
100
AcDbPoint
 10
10630.21699759334
 20
4612.938397165365
 30
0.0
  0
POINT
  5
18E74
330
1847F
100
AcDbEntity
  8
DEFPOINTS
 62
     0
 48
50.0
100
AcDbPoint
 10
10630.21699759334
 20
5067.031566504837
 30
0.0
  0
ENDBLK
  5
1848B
330
1847F
100
AcDbEntity
  8
0
 48
50.0
100
AcDbBlockEnd
  0
BLOCK
  5
18496
330
1848C
100
AcDbEntity
  8
0
 48
50.0
100
AcDbBlockBegin
  2
*D7
 70
     1
 10
0.0
 20
0.0
 30
0.0
  3
*D7
  1

  0
LINE
  5
18E62
330
1848C
100
AcDbEntity
  8
寸法
 62
     0
 48
50.0
370
    -2
100
AcDbLine
 10
8740.216997593343
 20
2592.938397165364
 30
0.0
 11
7791.577615663985
 21
2592.938397165364
 31
0.0
  0
LINE
  5
18E63
330
1848C
100
AcDbEntity
  8
寸法
 62
     0
 48
50.0
370
    -2
100
AcDbLine
 10
8680.216997593344
 20
4667.938397165368
 30
0.0
 11
7791.577615663985
 21
4667.938397165368
 31
0.0
  0
LINE
  5
18E64
330
1848C
100
AcDbEntity
  8
寸法
 62
     0
 48
50.0
370
    -2
100
AcDbLine
 10
7851.577615663984
 20
2592.938397165364
 30
0.0
 11
7851.577615663984
 21
4667.938397165368
 31
0.0
  0
INSERT
  5
18E65
330
1848C
100
AcDbEntity
  8
寸法
 62
     0
 48
50.0
370
    -2
100
AcDbBlockReference
  2
_DOTSMALL
 10
7851.577615663984
 20
2592.938397165364
 30
0.0
 41
100.0
 42
100.0
 43
100.0
 50
270.0
  0
INSERT
  5
18E66
330
1848C
100
AcDbEntity
  8
寸法
 62
     0
 48
50.0
370
    -2
100
AcDbBlockReference
  2
_DOTSMALL
 10
7851.577615663984
 20
4667.938397165368
 30
0.0
 41
100.0
 42
100.0
 43
100.0
 50
90.0
  0
MTEXT
  5
18E67
330
1848C
100
AcDbEntity
  8
寸法
 62
     7
 48
50.0
100
AcDbMText
 10
7751.565804640363
 20
3587.144274658475
 30
0.0
 40
120.0
 41
0.0
 71
     5
 72
     1
  1
\A1;2075
  7
STYLE1
 11
0.0000000000000001
 21
1.0
 31
0.0
 73
     1
 44
1.0
1001
ACAD
1000
MTEXTBEGIN
1070
    73
1070
     1
1070
    44
1040
1.0
1070
    74
1070
     0
1000
MTEXTEND
  0
POINT
  5
18E68
330
1848C
100
AcDbEntity
  8
DEFPOINTS
 62
     0
 48
50.0
100
AcDbPoint
 10
8760.216997593344
 20
2592.938397165364
 30
0.0
  0
POINT
  5
18E69
330
1848C
100
AcDbEntity
  8
DEFPOINTS
 62
     0
 48
50.0
100
AcDbPoint
 10
8700.216997593342
 20
4667.938397165368
 30
0.0
  0
POINT
  5
18E6A
330
1848C
100
AcDbEntity
  8
DEFPOINTS
 62
     0
 48
50.0
100
AcDbPoint
 10
7851.577615663984
 20
4667.938397165368
 30
0.0
  0
ENDBLK
  5
18497
330
1848C
100
AcDbEntity
  8
0
 48
50.0
100
AcDbBlockEnd
  0
BLOCK
  5
184A2
330
18498
100
AcDbEntity
  8
0
 48
50.0
100
AcDbBlockBegin
  2
*D8
 70
     1
 10
0.0
 20
0.0
 30
0.0
  3
*D8
  1

  0
LINE
  5
18E59
330
18498
100
AcDbEntity
  8
寸法
 62
     0
 48
50.0
370
    -2
100
AcDbLine
 10
8740.216997593343
 20
4432.938397165364
 30
0.0
 11
8076.564288435047
 21
4432.938397165364
 31
0.0
  0
LINE
  5
18E5A
330
18498
100
AcDbEntity
  8
寸法
 62
     0
 48
50.0
370
    -2
100
AcDbLine
 10
8740.216997593343
 20
2642.938397165365
 30
0.0
 11
8076.564288435047
 21
2642.938397165365
 31
0.0
  0
LINE
  5
18E5B
330
18498
100
AcDbEntity
  8
寸法
 62
     0
 48
50.0
370
    -2
100
AcDbLine
 10
8136.564288435046
 20
4432.938397165364
 30
0.0
 11
8136.564288435046
 21
2642.938397165365
 31
0.0
  0
INSERT
  5
18E5C
330
18498
100
AcDbEntity
  8
寸法
 62
     0
 48
50.0
370
    -2
100
AcDbBlockReference
  2
_DOTSMALL
 10
8136.564288435046
 20
4432.938397165364
 30
0.0
 41
100.0
 42
100.0
 43
100.0
 50
90.0
  0
INSERT
  5
18E5D
330
18498
100
AcDbEntity
  8
寸法
 62
     0
 48
50.0
370
    -2
100
AcDbBlockReference
  2
_DOTSMALL
 10
8136.564288435046
 20
2642.938397165365
 30
0.0
 41
100.0
 42
100.0
 43
100.0
 50
270.0
  0
MTEXT
  5
18E5E
330
18498
100
AcDbEntity
  8
寸法
 62
     7
 48
50.0
100
AcDbMText
 10
8036.564288435045
 20
3533.392695707322
 30
0.0
 40
120.0
 41
0.0
 71
     5
 72
     1
  1
\A1;1790
  7
STYLE1
 11
0.0000000000000001
 21
1.0
 31
0.0
 73
     1
 44
1.0
1001
ACAD
1000
MTEXTBEGIN
1070
    73
1070
     1
1070
    44
1040
1.0
1070
    74
1070
     0
1000
MTEXTEND
  0
POINT
  5
18E5F
330
18498
100
AcDbEntity
  8
DEFPOINTS
 62
     0
 48
50.0
100
AcDbPoint
 10
8760.216997593344
 20
4432.938397165364
 30
0.0
  0
POINT
  5
18E60
330
18498
100
AcDbEntity
  8
DEFPOINTS
 62
     0
 48
50.0
100
AcDbPoint
 10
8760.216997593344
 20
2642.938397165365
 30
0.0
  0
POINT
  5
18E61
330
18498
100
AcDbEntity
  8
DEFPOINTS
 62
     0
 48
50.0
100
AcDbPoint
 10
8136.564288435046
 20
2642.938397165365
 30
0.0
  0
ENDBLK
  5
184A3
330
18498
100
AcDbEntity
  8
0
 48
50.0
100
AcDbBlockEnd
  0
BLOCK
  5
184B0
330
184A4
100
AcDbEntity
  8
0
 48
50.0
100
AcDbBlockBegin
  2
*D9
 70
     1
 10
0.0
 20
0.0
 30
0.0
  3
*D9
  1

  0
LINE
  5
18E4E
330
184A4
100
AcDbEntity
  8
寸法
 62
     0
 48
50.0
370
    -2
100
AcDbLine
 10
8740.216997593343
 20
2642.938397165365
 30
0.0
 11
8076.564288435047
 21
2642.938397165365
 31
0.0
  0
LINE
  5
18E4F
330
184A4
100
AcDbEntity
  8
寸法
 62
     0
 48
50.0
370
    -2
100
AcDbLine
 10
8685.216997593343
 20
2592.938397165364
 30
0.0
 11
8076.564288435047
 21
2592.938397165364
 31
0.0
  0
LINE
  5
18E50
330
184A4
100
AcDbEntity
  8
寸法
 62
     0
 48
50.0
370
    -2
100
AcDbLine
 10
8136.564288435046
 20
2642.938397165365
 30
0.0
 11
8136.564288435046
 21
2742.938397165364
 31
0.0
  0
LINE
  5
18E51
330
184A4
100
AcDbEntity
  8
寸法
 62
     0
 48
50.0
370
    -2
100
AcDbLine
 10
8136.564288435046
 20
2592.938397165364
 30
0.0
 11
8136.564288435046
 21
2180.843908976385
 31
0.0
  0
LINE
  5
18E52
330
184A4
100
AcDbEntity
  8
寸法
 62
     0
 48
50.0
370
    -2
100
AcDbLine
 10
8136.564288435046
 20
2642.938397165365
 30
0.0
 11
8136.564288435046
 21
2592.938397165364
 31
0.0
  0
INSERT
  5
18E53
330
184A4
100
AcDbEntity
  8
寸法
 62
     0
 48
50.0
370
    -2
100
AcDbBlockReference
  2
_DOTSMALL
 10
8136.564288435046
 20
2642.938397165365
 30
0.0
 41
100.0
 42
100.0
 43
100.0
 50
270.0
  0
INSERT
  5
18E54
330
184A4
100
AcDbEntity
  8
寸法
 62
     0
 48
50.0
370
    -2
100
AcDbBlockReference
  2
_DOTSMALL
 10
8136.564288435046
 20
2592.938397165364
 30
0.0
 41
100.0
 42
100.0
 43
100.0
 50
90.0
  0
MTEXT
  5
18E55
330
184A4
100
AcDbEntity
  8
寸法
 62
     7
 48
50.0
100
AcDbMText
 10
8036.564288435045
 20
2286.891153070874
 30
0.0
 40
120.0
 41
0.0
 71
     5
 72
     1
  1
\A1;50
  7
STYLE1
 11
0.0000000000000001
 21
1.0
 31
0.0
 73
     1
 44
1.0
1001
ACAD
1000
MTEXTBEGIN
1070
    73
1070
     1
1070
    44
1040
1.0
1070
    74
1070
     0
1000
MTEXTEND
  0
POINT
  5
18E56
330
184A4
100
AcDbEntity
  8
DEFPOINTS
 62
     0
 48
50.0
100
AcDbPoint
 10
8760.216997593344
 20
2642.938397165365
 30
0.0
  0
POINT
  5
18E57
330
184A4
100
AcDbEntity
  8
DEFPOINTS
 62
     0
 48
50.0
100
AcDbPoint
 10
8705.216997593344
 20
2592.938397165364
 30
0.0
  0
POINT
  5
18E58
330
184A4
100
AcDbEntity
  8
DEFPOINTS
 62
     0
 48
50.0
100
AcDbPoint
 10
8136.564288435046
 20
2592.938397165364
 30
0.0
  0
ENDBLK
  5
184B1
330
184A4
100
AcDbEntity
  8
0
 48
50.0
100
AcDbBlockEnd
  0
BLOCK
  5
184BD
330
184B2
100
AcDbEntity
  8
0
 48
50.0
100
AcDbBlockBegin
  2
*D10
 70
     1
 10
0.0
 20
0.0
 30
0.0
  3
*D10
  1

  0
LINE
  5
18E44
330
184B2
100
AcDbEntity
  8
寸法
 62
     0
 48
50.0
370
    -2
100
AcDbLine
 10
8685.216997593343
 20
2592.938397165364
 30
0.0
 11
7791.577615663985
 21
2592.938397165364
 31
0.0
  0
LINE
  5
18E45
330
184B2
100
AcDbEntity
  8
寸法
 62
     0
 48
50.0
370
    -2
100
AcDbLine
 10
8116.564288435046
 20
2492.938397165364
 30
0.0
 11
7791.577615663985
 21
2492.938397165364
 31
0.0
  0
LINE
  5
18E46
330
184B2
100
AcDbEntity
  8
寸法
 62
     0
 48
50.0
370
    -2
100
AcDbLine
 10
7851.577615663984
 20
2592.938397165364
 30
0.0
 11
7851.577615663984
 21
2492.938397165364
 31
0.0
  0
LINE
  5
18E47
330
184B2
100
AcDbEntity
  8
寸法
 62
     0
 48
50.0
370
    -2
100
AcDbLine
 10
7851.577615663984
 20
2492.938397165364
 30
0.0
 11
7851.577615663984
 21
2120.843908976384
 31
0.0
  0
INSERT
  5
18E48
330
184B2
100
AcDbEntity
  8
寸法
 62
     0
 48
50.0
370
    -2
100
AcDbBlockReference
  2
_DOTSMALL
 10
7851.577615663984
 20
2592.938397165364
 30
0.0
 41
100.0
 42
100.0
 43
100.0
 50
90.0
  0
INSERT
  5
18E49
330
184B2
100
AcDbEntity
  8
寸法
 62
     0
 48
50.0
370
    -2
100
AcDbBlockReference
  2
_DOTSMALL
 10
7851.577615663984
 20
2492.938397165364
 30
0.0
 41
100.0
 42
100.0
 43
100.0
 50
270.0
  0
MTEXT
  5
18E4A
330
184B2
100
AcDbEntity
  8
寸法
 62
     7
 48
50.0
100
AcDbMText
 10
7751.577615663984
 20
2256.891153070874
 30
0.0
 40
120.0
 41
0.0
 71
     5
 72
     1
  1
\A1;100
  7
STYLE1
 11
0.0000000000000001
 21
1.0
 31
0.0
 73
     1
 44
1.0
1001
ACAD
1000
MTEXTBEGIN
1070
    73
1070
     1
1070
    44
1040
1.0
1070
    74
1070
     0
1000
MTEXTEND
  0
POINT
  5
18E4B
330
184B2
100
AcDbEntity
  8
DEFPOINTS
 62
     0
 48
50.0
100
AcDbPoint
 10
8705.216997593344
 20
2592.938397165364
 30
0.0
  0
POINT
  5
18E4C
330
184B2
100
AcDbEntity
  8
DEFPOINTS
 62
     0
 48
50.0
100
AcDbPoint
 10
8136.564288435044
 20
2492.938397165364
 30
0.0
  0
POINT
  5
18E4D
330
184B2
100
AcDbEntity
  8
DEFPOINTS
 62
     0
 48
50.0
100
AcDbPoint
 10
7851.577615663984
 20
2492.938397165364
 30
0.0
  0
ENDBLK
  5
184BE
330
184B2
100
AcDbEntity
  8
0
 48
50.0
100
AcDbBlockEnd
  0
BLOCK
  5
184C9
330
184BF
100
AcDbEntity
  8
0
 48
50.0
100
AcDbBlockBegin
  2
*D11
 70
     1
 10
0.0
 20
0.0
 30
0.0
  3
*D11
  1

  0
LINE
  5
18E3B
330
184BF
100
AcDbEntity
  8
寸法
 62
     0
 48
50.0
370
    -2
100
AcDbLine
 10
10570.21699759334
 20
2592.938397165364
 30
0.0
 11
11145.38709335576
 21
2592.938397165364
 31
0.0
  0
LINE
  5
18E3C
330
184BF
100
AcDbEntity
  8
寸法
 62
     0
 48
50.0
370
    -2
100
AcDbLine
 10
10650.21699759332
 20
4612.938397165366
 30
0.0
 11
11145.38709335577
 21
4612.938397165366
 31
0.0
  0
LINE
  5
18E3D
330
184BF
100
AcDbEntity
  8
寸法
 62
     0
 48
50.0
370
    -2
100
AcDbLine
 10
11085.38709335576
 20
2592.938397165364
 30
0.0
 11
11085.38709335577
 21
4612.938397165366
 31
0.0
  0
INSERT
  5
18E3E
330
184BF
100
AcDbEntity
  8
寸法
 62
     0
 48
50.0
370
    -2
100
AcDbBlockReference
  2
_DOTSMALL
 10
11085.38709335576
 20
2592.938397165364
 30
0.0
 41
100.0
 42
100.0
 43
100.0
 50
270.0
  0
INSERT
  5
18E3F
330
184BF
100
AcDbEntity
  8
寸法
 62
     0
 48
50.0
370
    -2
100
AcDbBlockReference
  2
_DOTSMALL
 10
11085.38709335577
 20
4612.938397165366
 30
0.0
 41
100.0
 42
100.0
 43
100.0
 50
90.0
  0
MTEXT
  5
18E40
330
184BF
100
AcDbEntity
  8
寸法
 62
     7
 48
50.0
100
AcDbMText
 10
10985.37528233214
 20
3575.194724595053
 30
0.0
 40
120.0
 41
0.0
 71
     5
 72
     1
  1
\A1;2020
  7
STYLE1
 11
0.0000000000000001
 21
1.0
 31
0.0
 73
     1
 44
1.0
1001
ACAD
1000
MTEXTBEGIN
1070
    73
1070
     1
1070
    44
1040
1.0
1070
    74
1070
     0
1000
MTEXTEND
  0
POINT
  5
18E41
330
184BF
100
AcDbEntity
  8
DEFPOINTS
 62
     0
 48
50.0
100
AcDbPoint
 10
10550.21699759334
 20
2592.938397165364
 30
0.0
  0
POINT
  5
18E42
330
184BF
100
AcDbEntity
  8
DEFPOINTS
 62
     0
 48
50.0
100
AcDbPoint
 10
10630.21699759332
 20
4612.938397165366
 30
0.0
  0
POINT
  5
18E43
330
184BF
100
AcDbEntity
  8
DEFPOINTS
 62
     0
 48
50.0
100
AcDbPoint
 10
11085.38709335577
 20
4612.938397165366
 30
0.0
  0
ENDBLK
  5
184CA
330
184BF
100
AcDbEntity
  8
0
 48
50.0
100
AcDbBlockEnd
  0
BLOCK
  5
185C7
330
185BD
100
AcDbEntity
  8
0
 48
50.0
100
AcDbBlockBegin
  2
*D12
 70
     1
 10
0.0
 20
0.0
 30
0.0
  3
*D12
  1

  0
LINE
  5
18E9B
330
185BD
100
AcDbEntity
  8
寸法
 62
     0
 48
50.0
370
    -2
100
AcDbLine
 10
8768.216997593359
 20
4375.938397165364
 30
0.0
 11
8429.010968381211
 21
4375.938397165364
 31
0.0
  0
LINE
  5
18E9C
330
185BD
100
AcDbEntity
  8
寸法
 62
     0
 48
50.0
370
    -2
100
AcDbLine
 10
8768.216997593359
 20
2650.938397165365
 30
0.0
 11
8429.010968381208
 21
2650.938397165365
 31
0.0
  0
LINE
  5
18E9D
330
185BD
100
AcDbEntity
  8
寸法
 62
     0
 48
50.0
370
    -2
100
AcDbLine
 10
8489.01096838121
 20
4375.938397165364
 30
0.0
 11
8489.010968381208
 21
2650.938397165365
 31
0.0
  0
INSERT
  5
18E9E
330
185BD
100
AcDbEntity
  8
寸法
 62
     0
 48
50.0
370
    -2
100
AcDbBlockReference
  2
_DOTSMALL
 10
8489.01096838121
 20
4375.938397165364
 30
0.0
 41
100.0
 42
100.0
 43
100.0
 50
90.0
  0
INSERT
  5
18E9F
330
185BD
100
AcDbEntity
  8
寸法
 62
     0
 48
50.0
370
    -2
100
AcDbBlockReference
  2
_DOTSMALL
 10
8489.010968381208
 20
2650.938397165365
 30
0.0
 41
100.0
 42
100.0
 43
100.0
 50
270.0
  0
MTEXT
  5
18EA0
330
185BD
100
AcDbEntity
  8
寸法
 62
     7
 48
50.0
100
AcDbMText
 10
8388.999157357586
 20
3504.571416182889
 30
0.0
 40
120.0
 41
0.0
 71
     5
 72
     1
  1
\A1;有効開口部高サ1725
  7
STYLE1
 11
0.0000000000000001
 21
1.0
 31
0.0
 73
     1
 44
1.0
1001
ACAD
1000
MTEXTBEGIN
1070
    73
1070
     1
1070
    44
1040
1.0
1070
    74
1070
     0
1000
MTEXTEND
  0
POINT
  5
18EA1
330
185BD
100
AcDbEntity
  8
DEFPOINTS
 62
     0
 48
50.0
100
AcDbPoint
 10
8788.216997593359
 20
4375.938397165364
 30
0.0
  0
POINT
  5
18EA2
330
185BD
100
AcDbEntity
  8
DEFPOINTS
 62
     0
 48
50.0
100
AcDbPoint
 10
8788.216997593359
 20
2650.938397165365
 30
0.0
  0
POINT
  5
18EA3
330
185BD
100
AcDbEntity
  8
DEFPOINTS
 62
     0
 48
50.0
100
AcDbPoint
 10
8489.010968381208
 20
2650.938397165365
 30
0.0
  0
ENDBLK
  5
185C8
330
185BD
100
AcDbEntity
  8
0
 48
50.0
100
AcDbBlockEnd
  0
BLOCK
  5
18A21
330
18A15
100
AcDbEntity
  8
0
 48
50.0
100
AcDbBlockBegin
  2
*D13
 70
     1
 10
0.0
 20
0.0
 30
0.0
  3
*D13
  1

  0
LINE
  5
18E30
330
18A15
100
AcDbEntity
  8
寸法
 62
     0
 48
50.0
370
    -2
100
AcDbLine
 10
6708.119968256085
 20
4687.938397165367
 30
0.0
 11
6708.119968256085
 21
5132.558656592637
 31
0.0
  0
LINE
  5
18E31
330
18A15
100
AcDbEntity
  8
寸法
 62
     0
 48
50.0
370
    -2
100
AcDbLine
 10
6658.119968256085
 20
4687.938397165369
 30
0.0
 11
6658.119968256085
 21
5132.558656592637
 31
0.0
  0
LINE
  5
18E32
330
18A15
100
AcDbEntity
  8
寸法
 62
     0
 48
50.0
370
    -2
100
AcDbLine
 10
6658.119968256085
 20
5072.558656592637
 30
0.0
 11
6558.119968256085
 21
5072.558656592637
 31
0.0
  0
LINE
  5
18E33
330
18A15
100
AcDbEntity
  8
寸法
 62
     0
 48
50.0
370
    -2
100
AcDbLine
 10
6708.119968256085
 20
5072.558656592637
 30
0.0
 11
7127.652493724809
 21
5072.558656592637
 31
0.0
  0
LINE
  5
18E34
330
18A15
100
AcDbEntity
  8
寸法
 62
     0
 48
50.0
370
    -2
100
AcDbLine
 10
6658.119968256085
 20
5072.558656592637
 30
0.0
 11
6708.119968256085
 21
5072.558656592637
 31
0.0
  0
INSERT
  5
18E35
330
18A15
100
AcDbEntity
  8
寸法
 62
     0
 48
50.0
370
    -2
100
AcDbBlockReference
  2
_DOTSMALL
 10
6658.119968256085
 20
5072.558656592637
 30
0.0
 41
100.0
 42
100.0
 43
100.0
  0
INSERT
  5
18E36
330
18A15
100
AcDbEntity
  8
寸法
 62
     0
 48
50.0
370
    -2
100
AcDbBlockReference
  2
_DOTSMALL
 10
6708.119968256085
 20
5072.558656592637
 30
0.0
 41
100.0
 42
100.0
 43
100.0
 50
180.0
  0
MTEXT
  5
18E37
330
18A15
100
AcDbEntity
  8
寸法
 62
     7
 48
50.0
100
AcDbMText
 10
7021.605249630322
 20
5172.558656592637
 30
0.0
 40
120.0
 41
0.0
 71
     5
 72
     1
  1
\A1;50
  7
STYLE1
 73
     1
 44
1.0
1001
ACAD
1000
MTEXTBEGIN
1070
    73
1070
     1
1070
    44
1040
1.0
1070
    74
1070
     0
1000
MTEXTEND
  0
POINT
  5
18E38
330
18A15
100
AcDbEntity
  8
DEFPOINTS
 62
     0
 48
50.0
100
AcDbPoint
 10
6708.119968256085
 20
4667.938397165367
 30
0.0
  0
POINT
  5
18E39
330
18A15
100
AcDbEntity
  8
DEFPOINTS
 62
     0
 48
50.0
100
AcDbPoint
 10
6658.119968256085
 20
4667.93839716537
 30
0.0
  0
POINT
  5
18E3A
330
18A15
100
AcDbEntity
  8
DEFPOINTS
 62
     0
 48
50.0
100
AcDbPoint
 10
6658.119968256085
 20
5072.558656592637
 30
0.0
  0
ENDBLK
  5
18A22
330
18A15
100
AcDbEntity
  8
0
 48
50.0
100
AcDbBlockEnd
  0
BLOCK
  5
18A2D
330
18A23
100
AcDbEntity
  8
0
 48
50.0
100
AcDbBlockBegin
  2
*D14
 70
     1
 10
0.0
 20
0.0
 30
0.0
  3
*D14
  1

  0
LINE
  5
18E27
330
18A23
100
AcDbEntity
  8
寸法
 62
     0
 48
50.0
370
    -2
100
AcDbLine
 10
6658.119968256085
 20
4687.938397165369
 30
0.0
 11
6658.119968256085
 21
5132.558656592637
 31
0.0
  0
LINE
  5
18E28
330
18A23
100
AcDbEntity
  8
寸法
 62
     0
 48
50.0
370
    -2
100
AcDbLine
 10
4448.119968256083
 20
4687.93839716537
 30
0.0
 11
4448.119968256083
 21
5132.558656592637
 31
0.0
  0
LINE
  5
18E29
330
18A23
100
AcDbEntity
  8
寸法
 62
     0
 48
50.0
370
    -2
100
AcDbLine
 10
6658.119968256085
 20
5072.558656592637
 30
0.0
 11
4448.119968256083
 21
5072.558656592637
 31
0.0
  0
INSERT
  5
18E2A
330
18A23
100
AcDbEntity
  8
寸法
 62
     0
 48
50.0
370
    -2
100
AcDbBlockReference
  2
_DOTSMALL
 10
6658.119968256085
 20
5072.558656592637
 30
0.0
 41
100.0
 42
100.0
 43
100.0
  0
INSERT
  5
18E2B
330
18A23
100
AcDbEntity
  8
寸法
 62
     0
 48
50.0
370
    -2
100
AcDbBlockReference
  2
_DOTSMALL
 10
4448.119968256083
 20
5072.558656592637
 30
0.0
 41
100.0
 42
100.0
 43
100.0
 50
180.0
  0
MTEXT
  5
18E2C
330
18A23
100
AcDbEntity
  8
寸法
 62
     7
 48
50.0
100
AcDbMText
 10
5553.119968256083
 20
5172.570467616258
 30
0.0
 40
120.0
 41
0.0
 71
     5
 72
     1
  1
\A1;柱外寸法2210
  7
STYLE1
 73
     1
 44
1.0
1001
ACAD
1000
MTEXTBEGIN
1070
    73
1070
     1
1070
    44
1040
1.0
1070
    74
1070
     0
1000
MTEXTEND
  0
POINT
  5
18E2D
330
18A23
100
AcDbEntity
  8
DEFPOINTS
 62
     0
 48
50.0
100
AcDbPoint
 10
6658.119968256085
 20
4667.93839716537
 30
0.0
  0
POINT
  5
18E2E
330
18A23
100
AcDbEntity
  8
DEFPOINTS
 62
     0
 48
50.0
100
AcDbPoint
 10
4448.119968256083
 20
4667.938397165371
 30
0.0
  0
POINT
  5
18E2F
330
18A23
100
AcDbEntity
  8
DEFPOINTS
 62
     0
 48
50.0
100
AcDbPoint
 10
4448.119968256083
 20
5072.558656592637
 30
0.0
  0
ENDBLK
  5
18A2E
330
18A23
100
AcDbEntity
  8
0
 48
50.0
100
AcDbBlockEnd
  0
BLOCK
  5
18A3B
330
18A2F
100
AcDbEntity
  8
0
 48
50.0
100
AcDbBlockBegin
  2
*D15
 70
     1
 10
0.0
 20
0.0
 30
0.0
  3
*D15
  1

  0
LINE
  5
18E1C
330
18A2F
100
AcDbEntity
  8
寸法
 62
     0
 48
50.0
370
    -2
100
AcDbLine
 10
4448.119968256083
 20
4687.93839716537
 30
0.0
 11
4448.119968256083
 21
5132.558656592637
 31
0.0
  0
LINE
  5
18E1D
330
18A2F
100
AcDbEntity
  8
寸法
 62
     0
 48
50.0
370
    -2
100
AcDbLine
 10
4398.119968256083
 20
4687.938397165369
 30
0.0
 11
4398.119968256083
 21
5132.558656592637
 31
0.0
  0
LINE
  5
18E1E
330
18A2F
100
AcDbEntity
  8
寸法
 62
     0
 48
50.0
370
    -2
100
AcDbLine
 10
4448.119968256083
 20
5072.558656592637
 30
0.0
 11
4548.119968256084
 21
5072.558656592637
 31
0.0
  0
LINE
  5
18E1F
330
18A2F
100
AcDbEntity
  8
寸法
 62
     0
 48
50.0
370
    -2
100
AcDbLine
 10
4398.119968256083
 20
5072.558656592637
 30
0.0
 11
3978.587442787349
 21
5072.558656592637
 31
0.0
  0
LINE
  5
18E20
330
18A2F
100
AcDbEntity
  8
寸法
 62
     0
 48
50.0
370
    -2
100
AcDbLine
 10
4448.119968256083
 20
5072.558656592637
 30
0.0
 11
4398.119968256083
 21
5072.558656592637
 31
0.0
  0
INSERT
  5
18E21
330
18A2F
100
AcDbEntity
  8
寸法
 62
     0
 48
50.0
370
    -2
100
AcDbBlockReference
  2
_DOTSMALL
 10
4448.119968256083
 20
5072.558656592637
 30
0.0
 41
100.0
 42
100.0
 43
100.0
 50
180.0
  0
INSERT
  5
18E22
330
18A2F
100
AcDbEntity
  8
寸法
 62
     0
 48
50.0
370
    -2
100
AcDbBlockReference
  2
_DOTSMALL
 10
4398.119968256083
 20
5072.558656592637
 30
0.0
 41
100.0
 42
100.0
 43
100.0
  0
MTEXT
  5
18E23
330
18A2F
100
AcDbEntity
  8
寸法
 62
     7
 48
50.0
100
AcDbMText
 10
4084.634686881837
 20
5172.558656592637
 30
0.0
 40
120.0
 41
0.0
 71
     5
 72
     1
  1
\A1;50
  7
STYLE1
 73
     1
 44
1.0
1001
ACAD
1000
MTEXTBEGIN
1070
    73
1070
     1
1070
    44
1040
1.0
1070
    74
1070
     0
1000
MTEXTEND
  0
POINT
  5
18E24
330
18A2F
100
AcDbEntity
  8
DEFPOINTS
 62
     0
 48
50.0
100
AcDbPoint
 10
4448.119968256083
 20
4667.938397165371
 30
0.0
  0
POINT
  5
18E25
330
18A2F
100
AcDbEntity
  8
DEFPOINTS
 62
     0
 48
50.0
100
AcDbPoint
 10
4398.119968256083
 20
4667.93839716537
 30
0.0
  0
POINT
  5
18E26
330
18A2F
100
AcDbEntity
  8
DEFPOINTS
 62
     0
 48
50.0
100
AcDbPoint
 10
4398.119968256083
 20
5072.558656592637
 30
0.0
  0
ENDBLK
  5
18A3C
330
18A2F
100
AcDbEntity
  8
0
 48
50.0
100
AcDbBlockEnd
  0
BLOCK
  5
18A47
330
18A3D
100
AcDbEntity
  8
0
 48
50.0
100
AcDbBlockBegin
  2
*D16
 70
     1
 10
0.0
 20
0.0
 30
0.0
  3
*D16
  1

  0
LINE
  5
18E13
330
18A3D
100
AcDbEntity
  8
寸法
 62
     0
 48
50.0
370
    -2
100
AcDbLine
 10
4398.119968256083
 20
4687.938397165369
 30
0.0
 11
4398.119968256083
 21
5342.152531014088
 31
0.0
  0
LINE
  5
18E14
330
18A3D
100
AcDbEntity
  8
寸法
 62
     0
 48
50.0
370
    -2
100
AcDbLine
 10
6708.119968256085
 20
4687.938397165367
 30
0.0
 11
6708.119968256085
 21
5342.152531014088
 31
0.0
  0
LINE
  5
18E15
330
18A3D
100
AcDbEntity
  8
寸法
 62
     0
 48
50.0
370
    -2
100
AcDbLine
 10
4398.119968256083
 20
5282.152531014087
 30
0.0
 11
6708.119968256085
 21
5282.152531014087
 31
0.0
  0
INSERT
  5
18E16
330
18A3D
100
AcDbEntity
  8
寸法
 62
     0
 48
50.0
370
    -2
100
AcDbBlockReference
  2
_DOTSMALL
 10
4398.119968256083
 20
5282.152531014087
 30
0.0
 41
100.0
 42
100.0
 43
100.0
 50
180.0
  0
INSERT
  5
18E17
330
18A3D
100
AcDbEntity
  8
寸法
 62
     0
 48
50.0
370
    -2
100
AcDbBlockReference
  2
_DOTSMALL
 10
6708.119968256085
 20
5282.152531014087
 30
0.0
 41
100.0
 42
100.0
 43
100.0
  0
MTEXT
  5
18E18
330
18A3D
100
AcDbEntity
  8
寸法
 62
     7
 48
50.0
100
AcDbMText
 10
5553.119968256083
 20
5382.164342037709
 30
0.0
 40
120.0
 41
0.0
 71
     5
 72
     1
  1
\A1;2310
  7
STYLE1
 73
     1
 44
1.0
1001
ACAD
1000
MTEXTBEGIN
1070
    73
1070
     1
1070
    44
1040
1.0
1070
    74
1070
     0
1000
MTEXTEND
  0
POINT
  5
18E19
330
18A3D
100
AcDbEntity
  8
DEFPOINTS
 62
     0
 48
50.0
100
AcDbPoint
 10
4398.119968256083
 20
4667.93839716537
 30
0.0
  0
POINT
  5
18E1A
330
18A3D
100
AcDbEntity
  8
DEFPOINTS
 62
     0
 48
50.0
100
AcDbPoint
 10
6708.119968256085
 20
4667.938397165367
 30
0.0
  0
POINT
  5
18E1B
330
18A3D
100
AcDbEntity
  8
DEFPOINTS
 62
     0
 48
50.0
100
AcDbPoint
 10
6708.119968256085
 20
5282.152531014087
 30
0.0
  0
ENDBLK
  5
18A48
330
18A3D
100
AcDbEntity
  8
0
 48
50.0
100
AcDbBlockEnd
  0
BLOCK
  5
18A53
330
18A49
100
AcDbEntity
  8
0
 48
50.0
100
AcDbBlockBegin
  2
*D17
 70
     1
 10
0.0
 20
0.0
 30
0.0
  3
*D17
  1

  0
LINE
  5
18E0A
330
18A49
100
AcDbEntity
  8
寸法
 62
     0
 48
50.0
370
    -2
100
AcDbLine
 10
4575.619968256083
 20
2272.938397165363
 30
0.0
 11
4575.619968256083
 21
1946.891067864986
 31
0.0
  0
LINE
  5
18E0B
330
18A49
100
AcDbEntity
  8
寸法
 62
     0
 48
50.0
370
    -2
100
AcDbLine
 10
4375.619968256088
 20
2272.938397165364
 30
0.0
 11
4375.619968256088
 21
1946.891067864986
 31
0.0
  0
LINE
  5
18E0C
330
18A49
100
AcDbEntity
  8
寸法
 62
     0
 48
50.0
370
    -2
100
AcDbLine
 10
4575.619968256083
 20
2006.891067864986
 30
0.0
 11
4375.619968256088
 21
2006.891067864986
 31
0.0
  0
INSERT
  5
18E0D
330
18A49
100
AcDbEntity
  8
寸法
 62
     0
 48
50.0
370
    -2
100
AcDbBlockReference
  2
_DOTSMALL
 10
4575.619968256083
 20
2006.891067864986
 30
0.0
 41
100.0
 42
100.0
 43
100.0
  0
INSERT
  5
18E0E
330
18A49
100
AcDbEntity
  8
寸法
 62
     0
 48
50.0
370
    -2
100
AcDbBlockReference
  2
_DOTSMALL
 10
4375.619968256088
 20
2006.891067864986
 30
0.0
 41
100.0
 42
100.0
 43
100.0
 50
180.0
  0
MTEXT
  5
18E0F
330
18A49
100
AcDbEntity
  8
寸法
 62
     7
 48
50.0
100
AcDbMText
 10
4475.619968256085
 20
2106.902878888609
 30
0.0
 40
120.0
 41
0.0
 71
     5
 72
     1
  1
\A1;200
  7
STYLE1
 73
     1
 44
1.0
1001
ACAD
1000
MTEXTBEGIN
1070
    73
1070
     1
1070
    44
1040
1.0
1070
    74
1070
     0
1000
MTEXTEND
  0
POINT
  5
18E10
330
18A49
100
AcDbEntity
  8
DEFPOINTS
 62
     0
 48
50.0
100
AcDbPoint
 10
4575.619968256083
 20
2292.938397165363
 30
0.0
  0
POINT
  5
18E11
330
18A49
100
AcDbEntity
  8
DEFPOINTS
 62
     0
 48
50.0
100
AcDbPoint
 10
4375.619968256088
 20
2292.938397165364
 30
0.0
  0
POINT
  5
18E12
330
18A49
100
AcDbEntity
  8
DEFPOINTS
 62
     0
 48
50.0
100
AcDbPoint
 10
4375.619968256088
 20
2006.891067864986
 30
0.0
  0
ENDBLK
  5
18A54
330
18A49
100
AcDbEntity
  8
0
 48
50.0
100
AcDbBlockEnd
  0
BLOCK
  5
18A5F
330
18A55
100
AcDbEntity
  8
0
 48
50.0
100
AcDbBlockBegin
  2
*D18
 70
     1
 10
0.0
 20
0.0
 30
0.0
  3
*D18
  1

  0
LINE
  5
18E01
330
18A55
100
AcDbEntity
  8
寸法
 62
     0
 48
50.0
370
    -2
100
AcDbLine
 10
4355.619968256087
 20
2292.938397165364
 30
0.0
 11
4166.11996500945
 21
2292.938397165364
 31
0.0
  0
LINE
  5
18E02
330
18A55
100
AcDbEntity
  8
寸法
 62
     0
 48
50.0
370
    -2
100
AcDbLine
 10
4330.619968256083
 20
2492.938397165364
 30
0.0
 11
4166.11996500945
 21
2492.938397165364
 31
0.0
  0
LINE
  5
18E03
330
18A55
100
AcDbEntity
  8
寸法
 62
     0
 48
50.0
370
    -2
100
AcDbLine
 10
4226.11996500945
 20
2292.938397165364
 30
0.0
 11
4226.11996500945
 21
2492.938397165364
 31
0.0
  0
INSERT
  5
18E04
330
18A55
100
AcDbEntity
  8
寸法
 62
     0
 48
50.0
370
    -2
100
AcDbBlockReference
  2
_DOTSMALL
 10
4226.11996500945
 20
2292.938397165364
 30
0.0
 41
100.0
 42
100.0
 43
100.0
 50
270.0
  0
INSERT
  5
18E05
330
18A55
100
AcDbEntity
  8
寸法
 62
     0
 48
50.0
370
    -2
100
AcDbBlockReference
  2
_DOTSMALL
 10
4226.11996500945
 20
2492.938397165364
 30
0.0
 41
100.0
 42
100.0
 43
100.0
 50
90.0
  0
MTEXT
  5
18E06
330
18A55
100
AcDbEntity
  8
寸法
 62
     7
 48
50.0
100
AcDbMText
 10
4126.108153985827
 20
2392.938397165365
 30
0.0
 40
120.0
 41
0.0
 71
     5
 72
     1
  1
\A1;200
  7
STYLE1
 11
0.0000000000000001
 21
1.0
 31
0.0
 73
     1
 44
1.0
1001
ACAD
1000
MTEXTBEGIN
1070
    73
1070
     1
1070
    44
1040
1.0
1070
    74
1070
     0
1000
MTEXTEND
  0
POINT
  5
18E07
330
18A55
100
AcDbEntity
  8
DEFPOINTS
 62
     0
 48
50.0
100
AcDbPoint
 10
4375.619968256088
 20
2292.938397165364
 30
0.0
  0
POINT
  5
18E08
330
18A55
100
AcDbEntity
  8
DEFPOINTS
 62
     0
 48
50.0
100
AcDbPoint
 10
4350.619968256084
 20
2492.938397165364
 30
0.0
  0
POINT
  5
18E09
330
18A55
100
AcDbEntity
  8
DEFPOINTS
 62
     0
 48
50.0
100
AcDbPoint
 10
4226.11996500945
 20
2492.938397165364
 30
0.0
  0
ENDBLK
  5
18A60
330
18A55
100
AcDbEntity
  8
0
 48
50.0
100
AcDbBlockEnd
  0
BLOCK
  5
191B2
330
191A8
100
AcDbEntity
  8
0
 48
50.0
100
AcDbBlockBegin
  2
*D19
 70
     1
 10
0.0
 20
0.0
 30
0.0
  3
*D19
  1

  0
LINE
  5
1999F
330
191A8
100
AcDbEntity
  8
寸法
 62
     0
 48
50.0
370
    -2
100
AcDbLine
 10
10525.57598144203
 20
7518.969603846291
 30
0.0
 11
10631.50700330403
 21
7123.629648159642
 31
0.0
  0
LINE
  5
199A0
330
191A8
100
AcDbEntity
  8
寸法
 62
     0
 48
50.0
370
    -2
100
AcDbLine
 10
10075.57598144203
 20
7518.969603846291
 30
0.0
 11
10181.50700330403
 21
7123.629648159642
 31
0.0
  0
LINE
  5
199A1
330
191A8
100
AcDbEntity
  8
寸法
 62
     0
 48
50.0
370
    -2
100
AcDbLine
 10
10615.43005175816
 20
7183.629648159642
 30
0.0
 11
10165.43005175816
 21
7183.629648159642
 31
0.0
  0
INSERT
  5
199A2
330
191A8
100
AcDbEntity
  8
寸法
 62
     0
 48
50.0
370
    -2
100
AcDbBlockReference
  2
_DOTSMALL
 10
10615.43005175816
 20
7183.629648159642
 30
0.0
 41
100.0
 42
100.0
 43
100.0
  0
INSERT
  5
199A3
330
191A8
100
AcDbEntity
  8
寸法
 62
     0
 48
50.0
370
    -2
100
AcDbBlockReference
  2
_DOTSMALL
 10
10165.43005175816
 20
7183.629648159642
 30
0.0
 41
100.0
 42
100.0
 43
100.0
 50
180.0
  0
MTEXT
  5
199A4
330
191A8
100
AcDbEntity
  8
寸法
 62
     7
 48
50.0
100
AcDbMText
 10
10365.43365252494
 20
7283.629648159642
 30
0.0
 40
120.0
 41
0.0
 71
     5
 72
     1
  1
\A1;450
  7
STYLE1
 73
     1
 44
1.0
1001
ACAD
1000
MTEXTBEGIN
1070
    73
1070
     1
1070
    44
1040
1.0
1070
    74
1070
     0
1000
MTEXTEND
  0
POINT
  5
199A5
330
191A8
100
AcDbEntity
  8
DEFPOINTS
 62
     0
 48
50.0
100
AcDbPoint
 10
10520.21699759341
 20
7538.969603846291
 30
0.0
  0
POINT
  5
199A6
330
191A8
100
AcDbEntity
  8
DEFPOINTS
 62
     0
 48
50.0
100
AcDbPoint
 10
10070.21699759341
 20
7538.969603846291
 30
0.0
  0
POINT
  5
199A7
330
191A8
100
AcDbEntity
  8
DEFPOINTS
 62
     0
 48
50.0
100
AcDbPoint
 10
10165.43005175816
 20
7183.629648159642
 30
0.0
  0
ENDBLK
  5
191B3
330
191A8
100
AcDbEntity
  8
0
 48
50.0
100
AcDbBlockEnd
  0
BLOCK
  5
191D8
330
191CE
100
AcDbEntity
  8
0
 48
50.0
100
AcDbBlockBegin
  2
*D20
 70
     1
 10
0.0
 20
0.0
 30
0.0
  3
*D20
  1

  0
LINE
  5
199C5
330
191CE
100
AcDbEntity
  8
寸法
 62
     0
 48
50.0
370
    -2
100
AcDbLine
 10
10050.21699759343
 20
9697.328587694993
 30
0.0
 11
9806.466216902281
 21
9762.641412535641
 31
0.0
  0
LINE
  5
199C6
330
191CE
100
AcDbEntity
  8
寸法
 62
     0
 48
50.0
370
    -2
100
AcDbLine
 10
10050.21699759342
 20
8424.328587694921
 30
0.0
 11
9806.466216902281
 21
8489.641412535567
 31
0.0
  0
LINE
  5
199C7
330
191CE
100
AcDbEntity
  8
寸法
 62
     0
 48
50.0
370
    -2
100
AcDbLine
 10
9866.466216902281
 20
9746.564460989773
 30
0.0
 11
9866.466216902281
 21
8473.564460989701
 31
0.0
  0
INSERT
  5
199C8
330
191CE
100
AcDbEntity
  8
寸法
 62
     0
 48
50.0
370
    -2
100
AcDbBlockReference
  2
_DOTSMALL
 10
9866.466216902281
 20
9746.564460989773
 30
0.0
 41
100.0
 42
100.0
 43
100.0
 50
90.0
  0
INSERT
  5
199C9
330
191CE
100
AcDbEntity
  8
寸法
 62
     0
 48
50.0
370
    -2
100
AcDbBlockReference
  2
_DOTSMALL
 10
9866.466216902281
 20
8473.564460989701
 30
0.0
 41
100.0
 42
100.0
 43
100.0
 50
270.0
  0
MTEXT
  5
199CA
330
191CE
100
AcDbEntity
  8
寸法
 62
     7
 48
50.0
100
AcDbMText
 10
9766.454405878658
 20
9176.053329257884
 30
0.0
 40
120.0
 41
0.0
 71
     5
 72
     1
  1
\A1;1273
  7
STYLE1
 11
0.0000000000000001
 21
1.0
 31
0.0
 73
     1
 44
1.0
1001
ACAD
1000
MTEXTBEGIN
1070
    73
1070
     1
1070
    44
1040
1.0
1070
    74
1070
     0
1000
MTEXTEND
  0
POINT
  5
199CB
330
191CE
100
AcDbEntity
  8
DEFPOINTS
 62
     0
 48
50.0
100
AcDbPoint
 10
10070.21699759343
 20
9691.96960384637
 30
0.0
  0
POINT
  5
199CC
330
191CE
100
AcDbEntity
  8
DEFPOINTS
 62
     0
 48
50.0
100
AcDbPoint
 10
10070.21699759342
 20
8418.969603846299
 30
0.0
  0
POINT
  5
199CD
330
191CE
100
AcDbEntity
  8
DEFPOINTS
 62
     0
 48
50.0
100
AcDbPoint
 10
9866.466216902281
 20
8473.564460989701
 30
0.0
  0
ENDBLK
  5
191D9
330
191CE
100
AcDbEntity
  8
0
 48
50.0
100
AcDbBlockEnd
  0
BLOCK
  5
191E4
330
191DA
100
AcDbEntity
  8
0
 48
50.0
100
AcDbBlockBegin
  2
*D21
 70
     1
 10
0.0
 20
0.0
 30
0.0
  3
*D21
  1

  0
LINE
  5
1998D
330
191DA
100
AcDbEntity
  8
寸法
 62
     0
 48
50.0
370
    -2
100
AcDbLine
 10
10050.21699759348
 20
8397.328587694923
 30
0.0
 11
9806.466216902279
 21
8462.641412535587
 31
0.0
  0
LINE
  5
1998E
330
191DA
100
AcDbEntity
  8
寸法
 62
     0
 48
50.0
370
    -2
100
AcDbLine
 10
10050.21699759348
 20
7544.32858769491
 30
0.0
 11
9806.466216902279
 21
7609.641412535573
 31
0.0
  0
LINE
  5
1998F
330
191DA
100
AcDbEntity
  8
寸法
 62
     0
 48
50.0
370
    -2
100
AcDbLine
 10
9866.46621690228
 20
8446.564460989721
 30
0.0
 11
9866.46621690228
 21
7593.564460989707
 31
0.0
  0
INSERT
  5
19990
330
191DA
100
AcDbEntity
  8
寸法
 62
     0
 48
50.0
370
    -2
100
AcDbBlockReference
  2
_DOTSMALL
 10
9866.46621690228
 20
8446.564460989721
 30
0.0
 41
100.0
 42
100.0
 43
100.0
 50
90.0
  0
INSERT
  5
19991
330
191DA
100
AcDbEntity
  8
寸法
 62
     0
 48
50.0
370
    -2
100
AcDbBlockReference
  2
_DOTSMALL
 10
9866.46621690228
 20
7593.564460989707
 30
0.0
 41
100.0
 42
100.0
 43
100.0
 50
270.0
  0
MTEXT
  5
19992
330
191DA
100
AcDbEntity
  8
寸法
 62
     7
 48
50.0
100
AcDbMText
 10
9766.466216902278
 20
7954.771133516924
 30
0.0
 40
120.0
 41
0.0
 71
     5
 72
     1
  1
\A1;853
  7
STYLE1
 11
0.0000000000000001
 21
1.0
 31
0.0
 73
     1
 44
1.0
1001
ACAD
1000
MTEXTBEGIN
1070
    73
1070
     1
1070
    44
1040
1.0
1070
    74
1070
     0
1000
MTEXTEND
  0
POINT
  5
19993
330
191DA
100
AcDbEntity
  8
DEFPOINTS
 62
     0
 48
50.0
100
AcDbPoint
 10
10070.21699759348
 20
8391.969603846302
 30
0.0
  0
POINT
  5
19994
330
191DA
100
AcDbEntity
  8
DEFPOINTS
 62
     0
 48
50.0
100
AcDbPoint
 10
10070.21699759348
 20
7538.969603846289
 30
0.0
  0
POINT
  5
19995
330
191DA
100
AcDbEntity
  8
DEFPOINTS
 62
     0
 48
50.0
100
AcDbPoint
 10
9866.46621690228
 20
7593.564460989707
 30
0.0
  0
ENDBLK
  5
191E5
330
191DA
100
AcDbEntity
  8
0
 48
50.0
100
AcDbBlockEnd
  0
BLOCK
  5
191F0
330
191E6
100
AcDbEntity
  8
0
 48
50.0
100
AcDbBlockBegin
  2
*D22
 70
     1
 10
0.0
 20
0.0
 30
0.0
  3
*D22
  1

  0
LINE
  5
19984
330
191E6
100
AcDbEntity
  8
寸法
 62
     0
 48
50.0
370
    -2
100
AcDbLine
 10
8815.216997593369
 20
9740.46960384623
 30
0.0
 11
8815.216997593369
 21
10071.67476841031
 31
0.0
  0
LINE
  5
19985
330
191E6
100
AcDbEntity
  8
寸法
 62
     0
 48
50.0
370
    -2
100
AcDbLine
 10
10495.21699759337
 20
9740.469603846324
 30
0.0
 11
10495.21699759337
 21
10071.67476841031
 31
0.0
  0
LINE
  5
19986
330
191E6
100
AcDbEntity
  8
寸法
 62
     0
 48
50.0
370
    -2
100
AcDbLine
 10
8815.216997593369
 20
10011.67476841031
 30
0.0
 11
10495.21699759337
 21
10011.67476841031
 31
0.0
  0
INSERT
  5
19987
330
191E6
100
AcDbEntity
  8
寸法
 62
     0
 48
50.0
370
    -2
100
AcDbBlockReference
  2
_DOTSMALL
 10
8815.216997593369
 20
10011.67476841031
 30
0.0
 41
100.0
 42
100.0
 43
100.0
 50
180.0
  0
INSERT
  5
19988
330
191E6
100
AcDbEntity
  8
寸法
 62
     0
 48
50.0
370
    -2
100
AcDbBlockReference
  2
_DOTSMALL
 10
10495.21699759337
 20
10011.67476841031
 30
0.0
 41
100.0
 42
100.0
 43
100.0
  0
MTEXT
  5
19989
330
191E6
100
AcDbEntity
  8
寸法
 62
     7
 48
50.0
100
AcDbMText
 10
9655.216997593367
 20
10111.68657943393
 30
0.0
 40
120.0
 41
0.0
 71
     5
 72
     1
  1
\A1;4X420=1680
  7
STYLE1
 73
     1
 44
1.0
1001
ACAD
1000
MTEXTBEGIN
1070
    73
1070
     1
1070
    44
1040
1.0
1070
    74
1070
     0
1000
MTEXTEND
  0
POINT
  5
1998A
330
191E6
100
AcDbEntity
  8
DEFPOINTS
 62
     0
 48
50.0
100
AcDbPoint
 10
8815.216997593369
 20
9720.469603846231
 30
0.0
  0
POINT
  5
1998B
330
191E6
100
AcDbEntity
  8
DEFPOINTS
 62
     0
 48
50.0
100
AcDbPoint
 10
10495.21699759337
 20
9720.469603846325
 30
0.0
  0
POINT
  5
1998C
330
191E6
100
AcDbEntity
  8
DEFPOINTS
 62
     0
 48
50.0
100
AcDbPoint
 10
10495.21699759337
 20
10011.67476841031
 30
0.0
  0
ENDBLK
  5
191F1
330
191E6
100
AcDbEntity
  8
0
 48
50.0
100
AcDbBlockEnd
  0
BLOCK
  5
191FE
330
191F2
100
AcDbEntity
  8
0
 48
50.0
100
AcDbBlockBegin
  2
*D23
 70
     1
 10
0.0
 20
0.0
 30
0.0
  3
*D23
  1

  0
LINE
  5
19979
330
191F2
100
AcDbEntity
  8
寸法
 62
     0
 48
50.0
370
    -2
100
AcDbLine
 10
10495.21699759337
 20
9740.469603846324
 30
0.0
 11
10495.21699759337
 21
10071.67476841029
 31
0.0
  0
LINE
  5
1997A
330
191F2
100
AcDbEntity
  8
寸法
 62
     0
 48
50.0
370
    -2
100
AcDbLine
 10
10550.21699759337
 20
9740.469603846324
 30
0.0
 11
10550.21699759337
 21
10071.67476841029
 31
0.0
  0
LINE
  5
1997B
330
191F2
100
AcDbEntity
  8
寸法
 62
     0
 48
50.0
370
    -2
100
AcDbLine
 10
10495.21699759337
 20
10011.67476841029
 30
0.0
 11
10395.21699759337
 21
10011.67476841029
 31
0.0
  0
LINE
  5
1997C
330
191F2
100
AcDbEntity
  8
寸法
 62
     0
 48
50.0
370
    -2
100
AcDbLine
 10
10550.21699759337
 20
10011.67476841029
 30
0.0
 11
10967.18756034184
 21
10011.67476841029
 31
0.0
  0
LINE
  5
1997D
330
191F2
100
AcDbEntity
  8
寸法
 62
     0
 48
50.0
370
    -2
100
AcDbLine
 10
10495.21699759337
 20
10011.67476841029
 30
0.0
 11
10550.21699759337
 21
10011.67476841029
 31
0.0
  0
INSERT
  5
1997E
330
191F2
100
AcDbEntity
  8
寸法
 62
     0
 48
50.0
370
    -2
100
AcDbBlockReference
  2
_DOTSMALL
 10
10495.21699759337
 20
10011.67476841029
 30
0.0
 41
100.0
 42
100.0
 43
100.0
  0
INSERT
  5
1997F
330
191F2
100
AcDbEntity
  8
寸法
 62
     0
 48
50.0
370
    -2
100
AcDbBlockReference
  2
_DOTSMALL
 10
10550.21699759337
 20
10011.67476841029
 30
0.0
 41
100.0
 42
100.0
 43
100.0
 50
180.0
  0
MTEXT
  5
19980
330
191F2
100
AcDbEntity
  8
寸法
 62
     7
 48
50.0
100
AcDbMText
 10
10858.7022789676
 20
10111.67476841029
 30
0.0
 40
120.0
 41
0.0
 71
     5
 72
     1
  1
\A1;55
  7
STYLE1
 73
     1
 44
1.0
1001
ACAD
1000
MTEXTBEGIN
1070
    73
1070
     1
1070
    44
1040
1.0
1070
    74
1070
     0
1000
MTEXTEND
  0
POINT
  5
19981
330
191F2
100
AcDbEntity
  8
DEFPOINTS
 62
     0
 48
50.0
100
AcDbPoint
 10
10495.21699759337
 20
9720.469603846325
 30
0.0
  0
POINT
  5
19982
330
191F2
100
AcDbEntity
  8
DEFPOINTS
 62
     0
 48
50.0
100
AcDbPoint
 10
10550.21699759337
 20
9720.469603846325
 30
0.0
  0
POINT
  5
19983
330
191F2
100
AcDbEntity
  8
DEFPOINTS
 62
     0
 48
50.0
100
AcDbPoint
 10
10550.21699759337
 20
10011.67476841029
 30
0.0
  0
ENDBLK
  5
191FF
330
191F2
100
AcDbEntity
  8
0
 48
50.0
100
AcDbBlockEnd
  0
BLOCK
  5
19216
330
1920C
100
AcDbEntity
  8
0
 48
50.0
100
AcDbBlockBegin
  2
*D24
 70
     1
 10
0.0
 20
0.0
 30
0.0
  3
*D24
  1

  0
LINE
  5
19970
330
1920C
100
AcDbEntity
  8
寸法
 62
     0
 48
50.0
370
    -2
100
AcDbLine
 10
10570.21699759337
 20
9665.469603846329
 30
0.0
 11
11257.64334332778
 21
9665.469603846329
 31
0.0
  0
LINE
  5
19971
330
1920C
100
AcDbEntity
  8
寸法
 62
     0
 48
50.0
370
    -2
100
AcDbLine
 10
10570.21699759334
 20
7565.469603846311
 30
0.0
 11
11257.64334332778
 21
7565.469603846311
 31
0.0
  0
LINE
  5
19972
330
1920C
100
AcDbEntity
  8
寸法
 62
     0
 48
50.0
370
    -2
100
AcDbLine
 10
11197.64334332778
 20
9665.469603846329
 30
0.0
 11
11197.64334332778
 21
7565.469603846311
 31
0.0
  0
INSERT
  5
19973
330
1920C
100
AcDbEntity
  8
寸法
 62
     0
 48
50.0
370
    -2
100
AcDbBlockReference
  2
_DOTSMALL
 10
11197.64334332778
 20
9665.469603846329
 30
0.0
 41
100.0
 42
100.0
 43
100.0
 50
90.0
  0
INSERT
  5
19974
330
1920C
100
AcDbEntity
  8
寸法
 62
     0
 48
50.0
370
    -2
100
AcDbBlockReference
  2
_DOTSMALL
 10
11197.64334332778
 20
7565.469603846311
 30
0.0
 41
100.0
 42
100.0
 43
100.0
 50
270.0
  0
MTEXT
  5
19975
330
1920C
100
AcDbEntity
  8
寸法
 62
     7
 48
50.0
100
AcDbMText
 10
11097.63153230415
 20
8615.469603846321
 30
0.0
 40
120.0
 41
0.0
 71
     5
 72
     1
  1
\A1;5X420=2100
  7
STYLE1
 11
0.0000000000000001
 21
1.0
 31
0.0
 73
     1
 44
1.0
1001
ACAD
1000
MTEXTBEGIN
1070
    73
1070
     1
1070
    44
1040
1.0
1070
    74
1070
     0
1000
MTEXTEND
  0
POINT
  5
19976
330
1920C
100
AcDbEntity
  8
DEFPOINTS
 62
     0
 48
50.0
100
AcDbPoint
 10
10550.21699759337
 20
9665.469603846329
 30
0.0
  0
POINT
  5
19977
330
1920C
100
AcDbEntity
  8
DEFPOINTS
 62
     0
 48
50.0
100
AcDbPoint
 10
10550.21699759334
 20
7565.469603846311
 30
0.0
  0
POINT
  5
19978
330
1920C
100
AcDbEntity
  8
DEFPOINTS
 62
     0
 48
50.0
100
AcDbPoint
 10
11197.64334332778
 20
7565.469603846311
 30
0.0
  0
ENDBLK
  5
19217
330
1920C
100
AcDbEntity
  8
0
 48
50.0
100
AcDbBlockEnd
  0
BLOCK
  5
19224
330
19218
100
AcDbEntity
  8
0
 48
50.0
100
AcDbBlockBegin
  2
*D25
 70
     1
 10
0.0
 20
0.0
 30
0.0
  3
*D25
  1

  0
LINE
  5
19965
330
19218
100
AcDbEntity
  8
寸法
 62
     0
 48
50.0
370
    -2
100
AcDbLine
 10
10570.21699759334
 20
7565.469603846311
 30
0.0
 11
11257.64334332775
 21
7565.469603846311
 31
0.0
  0
LINE
  5
19966
330
19218
100
AcDbEntity
  8
寸法
 62
     0
 48
50.0
370
    -2
100
AcDbLine
 10
10570.21699759334
 20
7510.469603846316
 30
0.0
 11
11257.64334332775
 21
7510.469603846316
 31
0.0
  0
LINE
  5
19967
330
19218
100
AcDbEntity
  8
寸法
 62
     0
 48
50.0
370
    -2
100
AcDbLine
 10
11197.64334332775
 20
7565.469603846311
 30
0.0
 11
11197.64334332775
 21
7665.469603846311
 31
0.0
  0
LINE
  5
19968
330
19218
100
AcDbEntity
  8
寸法
 62
     0
 48
50.0
370
    -2
100
AcDbLine
 10
11197.64334332775
 20
7510.469603846316
 30
0.0
 11
11197.64334332775
 21
7024.122855567213
 31
0.0
  0
LINE
  5
19969
330
19218
100
AcDbEntity
  8
寸法
 62
     0
 48
50.0
370
    -2
100
AcDbLine
 10
11197.64334332775
 20
7565.469603846311
 30
0.0
 11
11197.64334332775
 21
7510.469603846316
 31
0.0
  0
INSERT
  5
1996A
330
19218
100
AcDbEntity
  8
寸法
 62
     0
 48
50.0
370
    -2
100
AcDbBlockReference
  2
_DOTSMALL
 10
11197.64334332775
 20
7565.469603846311
 30
0.0
 41
100.0
 42
100.0
 43
100.0
 50
270.0
  0
INSERT
  5
1996B
330
19218
100
AcDbEntity
  8
寸法
 62
     0
 48
50.0
370
    -2
100
AcDbBlockReference
  2
_DOTSMALL
 10
11197.64334332775
 20
7510.469603846316
 30
0.0
 41
100.0
 42
100.0
 43
100.0
 50
90.0
  0
MTEXT
  5
1996C
330
19218
100
AcDbEntity
  8
寸法
 62
     7
 48
50.0
100
AcDbMText
 10
11097.64334332775
 20
7132.608136941454
 30
0.0
 40
120.0
 41
0.0
 71
     5
 72
     1
  1
\A1;55
  7
STYLE1
 11
0.0000000000000001
 21
1.0
 31
0.0
 73
     1
 44
1.0
1001
ACAD
1000
MTEXTBEGIN
1070
    73
1070
     1
1070
    44
1040
1.0
1070
    74
1070
     0
1000
MTEXTEND
  0
POINT
  5
1996D
330
19218
100
AcDbEntity
  8
DEFPOINTS
 62
     0
 48
50.0
100
AcDbPoint
 10
10550.21699759334
 20
7565.469603846311
 30
0.0
  0
POINT
  5
1996E
330
19218
100
AcDbEntity
  8
DEFPOINTS
 62
     0
 48
50.0
100
AcDbPoint
 10
10550.21699759334
 20
7510.469603846316
 30
0.0
  0
POINT
  5
1996F
330
19218
100
AcDbEntity
  8
DEFPOINTS
 62
     0
 48
50.0
100
AcDbPoint
 10
11197.64334332775
 20
7510.469603846316
 30
0.0
  0
ENDBLK
  5
19225
330
19218
100
AcDbEntity
  8
0
 48
50.0
100
AcDbBlockEnd
  0
BLOCK
  5
19232
330
19226
100
AcDbEntity
  8
0
 48
50.0
100
AcDbBlockBegin
  2
*D26
 70
     1
 10
0.0
 20
0.0
 30
0.0
  3
*D26
  1

  0
LINE
  5
1995A
330
19226
100
AcDbEntity
  8
寸法
 62
     0
 48
50.0
370
    -2
100
AcDbLine
 10
10570.21699759337
 20
9720.469603846325
 30
0.0
 11
11257.64334332778
 21
9720.469603846325
 31
0.0
  0
LINE
  5
1995B
330
19226
100
AcDbEntity
  8
寸法
 62
     0
 48
50.0
370
    -2
100
AcDbLine
 10
10570.21699759337
 20
9665.469603846329
 30
0.0
 11
11257.64334332778
 21
9665.469603846329
 31
0.0
  0
LINE
  5
1995C
330
19226
100
AcDbEntity
  8
寸法
 62
     0
 48
50.0
370
    -2
100
AcDbLine
 10
11197.64334332778
 20
9665.469603846329
 30
0.0
 11
11197.64334332778
 21
9565.469603846329
 31
0.0
  0
LINE
  5
1995D
330
19226
100
AcDbEntity
  8
寸法
 62
     0
 48
50.0
370
    -2
100
AcDbLine
 10
11197.64334332778
 20
9720.469603846325
 30
0.0
 11
11197.64334332778
 21
10137.4401665948
 31
0.0
  0
LINE
  5
1995E
330
19226
100
AcDbEntity
  8
寸法
 62
     0
 48
50.0
370
    -2
100
AcDbLine
 10
11197.64334332778
 20
9665.469603846329
 30
0.0
 11
11197.64334332778
 21
9720.469603846325
 31
0.0
  0
INSERT
  5
1995F
330
19226
100
AcDbEntity
  8
寸法
 62
     0
 48
50.0
370
    -2
100
AcDbBlockReference
  2
_DOTSMALL
 10
11197.64334332778
 20
9665.469603846329
 30
0.0
 41
100.0
 42
100.0
 43
100.0
 50
90.0
  0
INSERT
  5
19960
330
19226
100
AcDbEntity
  8
寸法
 62
     0
 48
50.0
370
    -2
100
AcDbBlockReference
  2
_DOTSMALL
 10
11197.64334332778
 20
9720.469603846325
 30
0.0
 41
100.0
 42
100.0
 43
100.0
 50
270.0
  0
MTEXT
  5
19961
330
19226
100
AcDbEntity
  8
寸法
 62
     7
 48
50.0
100
AcDbMText
 10
11097.64334332778
 20
10028.95488522056
 30
0.0
 40
120.0
 41
0.0
 71
     5
 72
     1
  1
\A1;55
  7
STYLE1
 11
0.0000000000000001
 21
1.0
 31
0.0
 73
     1
 44
1.0
1001
ACAD
1000
MTEXTBEGIN
1070
    73
1070
     1
1070
    44
1040
1.0
1070
    74
1070
     0
1000
MTEXTEND
  0
POINT
  5
19962
330
19226
100
AcDbEntity
  8
DEFPOINTS
 62
     0
 48
50.0
100
AcDbPoint
 10
10550.21699759337
 20
9720.469603846325
 30
0.0
  0
POINT
  5
19963
330
19226
100
AcDbEntity
  8
DEFPOINTS
 62
     0
 48
50.0
100
AcDbPoint
 10
10550.21699759337
 20
9665.469603846329
 30
0.0
  0
POINT
  5
19964
330
19226
100
AcDbEntity
  8
DEFPOINTS
 62
     0
 48
50.0
100
AcDbPoint
 10
11197.64334332778
 20
9665.469603846329
 30
0.0
  0
ENDBLK
  5
19233
330
19226
100
AcDbEntity
  8
0
 48
50.0
100
AcDbBlockEnd
  0
BLOCK
  5
1923E
330
19234
100
AcDbEntity
  8
0
 48
50.0
100
AcDbBlockBegin
  2
*D27
 70
     1
 10
0.0
 20
0.0
 30
0.0
  3
*D27
  1

  0
LINE
  5
19951
330
19234
100
AcDbEntity
  8
寸法
 62
     0
 48
50.0
370
    -2
100
AcDbLine
 10
10570.21699759337
 20
9720.469603846325
 30
0.0
 11
11622.75028506741
 21
9720.469603846325
 31
0.0
  0
LINE
  5
19952
330
19234
100
AcDbEntity
  8
寸法
 62
     0
 48
50.0
370
    -2
100
AcDbLine
 10
10570.21699759334
 20
7510.469603846316
 30
0.0
 11
11622.75028506741
 21
7510.469603846316
 31
0.0
  0
LINE
  5
19953
330
19234
100
AcDbEntity
  8
寸法
 62
     0
 48
50.0
370
    -2
100
AcDbLine
 10
11562.75028506741
 20
9720.469603846325
 30
0.0
 11
11562.75028506741
 21
7510.469603846316
 31
0.0
  0
INSERT
  5
19954
330
19234
100
AcDbEntity
  8
寸法
 62
     0
 48
50.0
370
    -2
100
AcDbBlockReference
  2
_DOTSMALL
 10
11562.75028506741
 20
9720.469603846325
 30
0.0
 41
100.0
 42
100.0
 43
100.0
 50
90.0
  0
INSERT
  5
19955
330
19234
100
AcDbEntity
  8
寸法
 62
     0
 48
50.0
370
    -2
100
AcDbBlockReference
  2
_DOTSMALL
 10
11562.75028506741
 20
7510.469603846316
 30
0.0
 41
100.0
 42
100.0
 43
100.0
 50
270.0
  0
MTEXT
  5
19956
330
19234
100
AcDbEntity
  8
寸法
 62
     7
 48
50.0
100
AcDbMText
 10
11462.73847404379
 20
8615.469603846321
 30
0.0
 40
120.0
 41
0.0
 71
     5
 72
     1
  1
\A1;2210
  7
STYLE1
 11
0.0000000000000001
 21
1.0
 31
0.0
 73
     1
 44
1.0
1001
ACAD
1000
MTEXTBEGIN
1070
    73
1070
     1
1070
    44
1040
1.0
1070
    74
1070
     0
1000
MTEXTEND
  0
POINT
  5
19957
330
19234
100
AcDbEntity
  8
DEFPOINTS
 62
     0
 48
50.0
100
AcDbPoint
 10
10550.21699759337
 20
9720.469603846325
 30
0.0
  0
POINT
  5
19958
330
19234
100
AcDbEntity
  8
DEFPOINTS
 62
     0
 48
50.0
100
AcDbPoint
 10
10550.21699759334
 20
7510.469603846316
 30
0.0
  0
POINT
  5
19959
330
19234
100
AcDbEntity
  8
DEFPOINTS
 62
     0
 48
50.0
100
AcDbPoint
 10
11562.75028506741
 20
7510.469603846316
 30
0.0
  0
ENDBLK
  5
1923F
330
19234
100
AcDbEntity
  8
0
 48
50.0
100
AcDbBlockEnd
  0
BLOCK
  5
1924C
330
19240
100
AcDbEntity
  8
0
 48
50.0
100
AcDbBlockBegin
  2
*D28
 70
     1
 10
0.0
 20
0.0
 30
0.0
  3
*D28
  1

  0
LINE
  5
19946
330
19240
100
AcDbEntity
  8
寸法
 62
     0
 48
50.0
370
    -2
100
AcDbLine
 10
8760.216997593332
 20
9740.46960384623
 30
0.0
 11
8760.216997593332
 21
10071.67476841019
 31
0.0
  0
LINE
  5
19947
330
19240
100
AcDbEntity
  8
寸法
 62
     0
 48
50.0
370
    -2
100
AcDbLine
 10
8815.216997593369
 20
9740.46960384623
 30
0.0
 11
8815.216997593369
 21
10071.67476841019
 31
0.0
  0
LINE
  5
19948
330
19240
100
AcDbEntity
  8
寸法
 62
     0
 48
50.0
370
    -2
100
AcDbLine
 10
8815.216997593369
 20
10011.67476841019
 30
0.0
 11
8915.216997593368
 21
10011.67476841019
 31
0.0
  0
LINE
  5
19949
330
19240
100
AcDbEntity
  8
寸法
 62
     0
 48
50.0
370
    -2
100
AcDbLine
 10
8760.216997593332
 20
10011.67476841019
 30
0.0
 11
8343.246434844855
 21
10011.67476841019
 31
0.0
  0
LINE
  5
1994A
330
19240
100
AcDbEntity
  8
寸法
 62
     0
 48
50.0
370
    -2
100
AcDbLine
 10
8815.216997593369
 20
10011.67476841019
 30
0.0
 11
8760.216997593332
 21
10011.67476841019
 31
0.0
  0
INSERT
  5
1994B
330
19240
100
AcDbEntity
  8
寸法
 62
     0
 48
50.0
370
    -2
100
AcDbBlockReference
  2
_DOTSMALL
 10
8815.216997593369
 20
10011.67476841019
 30
0.0
 41
100.0
 42
100.0
 43
100.0
 50
180.0
  0
INSERT
  5
1994C
330
19240
100
AcDbEntity
  8
寸法
 62
     0
 48
50.0
370
    -2
100
AcDbBlockReference
  2
_DOTSMALL
 10
8760.216997593332
 20
10011.67476841019
 30
0.0
 41
100.0
 42
100.0
 43
100.0
  0
MTEXT
  5
1994D
330
19240
100
AcDbEntity
  8
寸法
 62
     7
 48
50.0
100
AcDbMText
 10
8451.731716219093
 20
10111.67476841019
 30
0.0
 40
120.0
 41
0.0
 71
     5
 72
     1
  1
\A1;55
  7
STYLE1
 73
     1
 44
1.0
1001
ACAD
1000
MTEXTBEGIN
1070
    73
1070
     1
1070
    44
1040
1.0
1070
    74
1070
     0
1000
MTEXTEND
  0
POINT
  5
1994E
330
19240
100
AcDbEntity
  8
DEFPOINTS
 62
     0
 48
50.0
100
AcDbPoint
 10
8760.216997593332
 20
9720.469603846231
 30
0.0
  0
POINT
  5
1994F
330
19240
100
AcDbEntity
  8
DEFPOINTS
 62
     0
 48
50.0
100
AcDbPoint
 10
8815.216997593369
 20
9720.469603846231
 30
0.0
  0
POINT
  5
19950
330
19240
100
AcDbEntity
  8
DEFPOINTS
 62
     0
 48
50.0
100
AcDbPoint
 10
8815.216997593369
 20
10011.67476841019
 30
0.0
  0
ENDBLK
  5
1924D
330
19240
100
AcDbEntity
  8
0
 48
50.0
100
AcDbBlockEnd
  0
BLOCK
  5
194EC
330
194E2
100
AcDbEntity
  8
0
 48
50.0
100
AcDbBlockBegin
  2
*D29
 70
     1
 10
0.0
 20
0.0
 30
0.0
  3
*D29
  1

  0
LINE
  5
1993D
330
194E2
100
AcDbEntity
  8
寸法
 62
     0
 48
50.0
370
    -2
100
AcDbLine
 10
8827.216997593332
 20
7413.469603846156
 30
0.0
 11
8827.216997593332
 21
6768.394585797931
 31
0.0
  0
LINE
  5
1993E
330
194E2
100
AcDbEntity
  8
寸法
 62
     0
 48
50.0
370
    -2
100
AcDbLine
 10
9777.216997593333
 20
7413.469603846156
 30
0.0
 11
9777.216997593333
 21
6768.394585797931
 31
0.0
  0
LINE
  5
1993F
330
194E2
100
AcDbEntity
  8
寸法
 62
     0
 48
50.0
370
    -2
100
AcDbLine
 10
8847.216997593333
 20
6808.39458579793
 30
0.0
 11
9757.216997593332
 21
6808.39458579793
 31
0.0
  0
INSERT
  5
19940
330
194E2
100
AcDbEntity
  8
寸法
 62
     0
 48
50.0
370
    -2
100
AcDbBlockReference
  2
_DOT
 10
8827.216997593332
 20
6808.39458579793
 30
0.0
 41
20.0
 42
20.0
 43
20.0
 50
180.0
  0
INSERT
  5
19941
330
194E2
100
AcDbEntity
  8
寸法
 62
     0
 48
50.0
370
    -2
100
AcDbBlockReference
  2
_DOT
 10
9777.216997593333
 20
6808.39458579793
 30
0.0
 41
20.0
 42
20.0
 43
20.0
  0
MTEXT
  5
19942
330
194E2
100
AcDbEntity
  8
寸法
 62
     7
 48
50.0
100
AcDbMText
 10
9302.216997593331
 20
7000.394585797931
 30
0.0
 40
120.0
 41
0.0
 71
     5
 72
     1
  1
\A1;有効開口部間口\P950
  7
STYLE1
 73
     1
 44
1.0
1001
ACAD
1000
MTEXTBEGIN
1070
    73
1070
     1
1070
    44
1040
1.0
1070
    74
1070
     0
1000
MTEXTEND
  0
POINT
  5
19943
330
194E2
100
AcDbEntity
  8
DEFPOINTS
 62
     0
 48
50.0
100
AcDbPoint
 10
8827.216997593332
 20
7433.469603846155
 30
0.0
  0
POINT
  5
19944
330
194E2
100
AcDbEntity
  8
DEFPOINTS
 62
     0
 48
50.0
100
AcDbPoint
 10
9777.216997593333
 20
7433.469603846155
 30
0.0
  0
POINT
  5
19945
330
194E2
100
AcDbEntity
  8
DEFPOINTS
 62
     0
 48
50.0
100
AcDbPoint
 10
9777.216997593333
 20
6808.39458579793
 30
0.0
  0
ENDBLK
  5
194ED
330
194E2
100
AcDbEntity
  8
0
 48
50.0
100
AcDbBlockEnd
  0
BLOCK
  5
197D3
330
197C9
100
AcDbEntity
  8
0
 48
50.0
100
AcDbBlockBegin
  2
*D30
 70
     1
 10
0.0
 20
0.0
 30
0.0
  3
*D30
  1

  0
LINE
  5
19934
330
197C9
100
AcDbEntity
  8
寸法
 62
     0
 48
50.0
370
    -2
100
AcDbLine
 10
8760.216997593362
 20
7490.469603846186
 30
0.0
 11
8760.216997593362
 21
6258.641813101283
 31
0.0
  0
LINE
  5
19935
330
197C9
100
AcDbEntity
  8
寸法
 62
     0
 48
50.0
370
    -2
100
AcDbLine
 10
10550.21699759334
 20
7490.469603846316
 30
0.0
 11
10550.21699759334
 21
6258.641813101283
 31
0.0
  0
LINE
  5
19936
330
197C9
100
AcDbEntity
  8
寸法
 62
     0
 48
50.0
370
    -2
100
AcDbLine
 10
8760.216997593362
 20
6318.641813101283
 30
0.0
 11
10550.21699759334
 21
6318.641813101283
 31
0.0
  0
INSERT
  5
19937
330
197C9
100
AcDbEntity
  8
寸法
 62
     0
 48
50.0
370
    -2
100
AcDbBlockReference
  2
_DOTSMALL
 10
8760.216997593362
 20
6318.641813101283
 30
0.0
 41
100.0
 42
100.0
 43
100.0
 50
180.0
  0
INSERT
  5
19938
330
197C9
100
AcDbEntity
  8
寸法
 62
     0
 48
50.0
370
    -2
100
AcDbBlockReference
  2
_DOTSMALL
 10
10550.21699759334
 20
6318.641813101283
 30
0.0
 41
100.0
 42
100.0
 43
100.0
  0
MTEXT
  5
19939
330
197C9
100
AcDbEntity
  8
寸法
 62
     7
 48
50.0
100
AcDbMText
 10
9643.363747924716
 20
6418.641813101283
 30
0.0
 40
120.0
 41
0.0
 71
     5
 72
     1
  1
\A1;1790
  7
STYLE1
 73
     1
 44
1.0
1001
ACAD
1000
MTEXTBEGIN
1070
    73
1070
     1
1070
    44
1040
1.0
1070
    74
1070
     0
1000
MTEXTEND
  0
POINT
  5
1993A
330
197C9
100
AcDbEntity
  8
DEFPOINTS
 62
     0
 48
50.0
100
AcDbPoint
 10
8760.216997593362
 20
7510.469603846186
 30
0.0
  0
POINT
  5
1993B
330
197C9
100
AcDbEntity
  8
DEFPOINTS
 62
     0
 48
50.0
100
AcDbPoint
 10
10550.21699759334
 20
7510.469603846316
 30
0.0
  0
POINT
  5
1993C
330
197C9
100
AcDbEntity
  8
DEFPOINTS
 62
     0
 48
50.0
100
AcDbPoint
 10
10550.21699759334
 20
6318.641813101283
 30
0.0
  0
ENDBLK
  5
197D4
330
197C9
100
AcDbEntity
  8
0
 48
50.0
100
AcDbBlockEnd
  0
BLOCK
  5
197E1
330
197D5
100
AcDbEntity
  8
0
 48
50.0
100
AcDbBlockBegin
  2
*D31
 70
     1
 10
0.0
 20
0.0
 30
0.0
  3
*D31
  1

  0
LINE
  5
19929
330
197D5
100
AcDbEntity
  8
寸法
 62
     0
 48
50.0
370
    -2
100
AcDbLine
 10
8740.216997593362
 20
7510.469603846186
 30
0.0
 11
8425.605751966644
 21
7510.469603846186
 31
0.0
  0
LINE
  5
1992A
330
197D5
100
AcDbEntity
  8
寸法
 62
     0
 48
50.0
370
    -2
100
AcDbLine
 10
8768.21699759334
 20
7435.469603846186
 30
0.0
 11
8425.605751966644
 21
7435.469603846186
 31
0.0
  0
LINE
  5
1992B
330
197D5
100
AcDbEntity
  8
寸法
 62
     0
 48
50.0
370
    -2
100
AcDbLine
 10
8465.605751966645
 20
7530.469603846187
 30
0.0
 11
8465.605751966645
 21
7550.469603846186
 31
0.0
  0
LINE
  5
1992C
330
197D5
100
AcDbEntity
  8
寸法
 62
     0
 48
50.0
370
    -2
100
AcDbLine
 10
8465.605751966645
 20
7415.469603846187
 30
0.0
 11
8465.605751966645
 21
7194.499041097708
 31
0.0
  0
LINE
  5
1992D
330
197D5
100
AcDbEntity
  8
寸法
 62
     0
 48
50.0
370
    -2
100
AcDbLine
 10
8465.605751966645
 20
7510.469603846186
 30
0.0
 11
8465.605751966645
 21
7435.469603846186
 31
0.0
  0
INSERT
  5
1992E
330
197D5
100
AcDbEntity
  8
寸法
 62
     0
 48
50.0
370
    -2
100
AcDbBlockReference
  2
_DOT
 10
8465.605751966645
 20
7510.469603846186
 30
0.0
 41
20.0
 42
20.0
 43
20.0
 50
270.0
  0
INSERT
  5
1992F
330
197D5
100
AcDbEntity
  8
寸法
 62
     0
 48
50.0
370
    -2
100
AcDbBlockReference
  2
_DOT
 10
8465.605751966645
 20
7435.469603846186
 30
0.0
 41
20.0
 42
20.0
 43
20.0
 50
90.0
  0
MTEXT
  5
19930
330
197D5
100
AcDbEntity
  8
寸法
 62
     7
 48
50.0
100
AcDbMText
 10
8373.605751966643
 20
7294.984322471949
 30
0.0
 40
120.0
 41
0.0
 71
     5
 72
     1
  1
\A1;75
  7
STYLE1
 11
0.0000000000000001
 21
1.0
 31
0.0
 73
     1
 44
1.0
1001
ACAD
1000
MTEXTBEGIN
1070
    73
1070
     1
1070
    44
1040
1.0
1070
    74
1070
     0
1000
MTEXTEND
  0
POINT
  5
19931
330
197D5
100
AcDbEntity
  8
DEFPOINTS
 62
     0
 48
50.0
100
AcDbPoint
 10
8760.216997593362
 20
7510.469603846186
 30
0.0
  0
POINT
  5
19932
330
197D5
100
AcDbEntity
  8
DEFPOINTS
 62
     0
 48
50.0
100
AcDbPoint
 10
8788.216997593339
 20
7435.469603846186
 30
0.0
  0
POINT
  5
19933
330
197D5
100
AcDbEntity
  8
DEFPOINTS
 62
     0
 48
50.0
100
AcDbPoint
 10
8465.605751966645
 20
7435.469603846186
 30
0.0
  0
ENDBLK
  5
197E2
330
197D5
100
AcDbEntity
  8
0
 48
50.0
100
AcDbBlockEnd
  0
BLOCK
  5
197ED
330
197E3
100
AcDbEntity
  8
0
 48
50.0
100
AcDbBlockBegin
  2
*D32
 70
     1
 10
0.0
 20
0.0
 30
0.0
  3
*D32
  1

  0
LINE
  5
19920
330
197E3
100
AcDbEntity
  8
寸法
 62
     0
 48
50.0
370
    -2
100
AcDbLine
 10
8788.216997593332
 20
7413.469603846191
 30
0.0
 11
8788.216997593332
 21
6498.399333995411
 31
0.0
  0
LINE
  5
19921
330
197E3
100
AcDbEntity
  8
寸法
 62
     0
 48
50.0
370
    -2
100
AcDbLine
 10
10522.21699759333
 20
7413.46960384619
 30
0.0
 11
10522.21699759333
 21
6498.399333995411
 31
0.0
  0
LINE
  5
19922
330
197E3
100
AcDbEntity
  8
寸法
 62
     0
 48
50.0
370
    -2
100
AcDbLine
 10
8788.216997593332
 20
6558.39933399541
 30
0.0
 11
10522.21699759333
 21
6558.39933399541
 31
0.0
  0
INSERT
  5
19923
330
197E3
100
AcDbEntity
  8
寸法
 62
     0
 48
50.0
370
    -2
100
AcDbBlockReference
  2
_DOTSMALL
 10
8788.216997593332
 20
6558.39933399541
 30
0.0
 41
100.0
 42
100.0
 43
100.0
 50
180.0
  0
INSERT
  5
19924
330
197E3
100
AcDbEntity
  8
寸法
 62
     0
 48
50.0
370
    -2
100
AcDbBlockReference
  2
_DOTSMALL
 10
10522.21699759333
 20
6558.39933399541
 30
0.0
 41
100.0
 42
100.0
 43
100.0
  0
MTEXT
  5
19925
330
197E3
100
AcDbEntity
  8
寸法
 62
     7
 48
50.0
100
AcDbMText
 10
9645.798741545155
 20
6658.399333995411
 30
0.0
 40
120.0
 41
0.0
 71
     5
 72
     1
  1
\A1;1734
  7
STYLE1
 73
     1
 44
1.0
1001
ACAD
1000
MTEXTBEGIN
1070
    73
1070
     1
1070
    44
1040
1.0
1070
    74
1070
     0
1000
MTEXTEND
  0
POINT
  5
19926
330
197E3
100
AcDbEntity
  8
DEFPOINTS
 62
     0
 48
50.0
100
AcDbPoint
 10
8788.216997593332
 20
7433.469603846191
 30
0.0
  0
POINT
  5
19927
330
197E3
100
AcDbEntity
  8
DEFPOINTS
 62
     0
 48
50.0
100
AcDbPoint
 10
10522.21699759333
 20
7433.46960384619
 30
0.0
  0
POINT
  5
19928
330
197E3
100
AcDbEntity
  8
DEFPOINTS
 62
     0
 48
50.0
100
AcDbPoint
 10
10522.21699759333
 20
6558.39933399541
 30
0.0
  0
ENDBLK
  5
197EE
330
197E3
100
AcDbEntity
  8
0
 48
50.0
100
AcDbBlockEnd
  0
ENDSEC
  0
SECTION
  2
ENTITIES
  0
LINE
  5
10B57
330
747D
100
AcDbEntity
  8
補助
  6
PHANTOM
 62
   230
 48
50.0
100
AcDbLine
 10
139.9999999999995
 20
11409.6
 30
0.0
 11
16307.2
 21
11409.6
 31
0.0
  0
LINE
  5
10B59
330
747D
100
AcDbEntity
  8
仕様書枠
  6
Continuous
 48
50.0
100
AcDbLine
 10
13107.2
 20
1200.0
 30
0.0
 11
13107.2
 21
-0.0000000000000729
 31
0.0
  0
LINE
  5
10B5C
330
747D
100
AcDbEntity
  8
仕様書枠
 48
50.0
100
AcDbLine
 10
16307.2
 20
1200.0
 30
0.0
 11
16307.2
 21
-0.0000000000000909
 31
0.0
  0
LINE
  5
10B5D
330
747D
100
AcDbEntity
  8
仕様書枠
 48
50.0
100
AcDbLine
 10
140.0
 20
0.0
 30
0.0
 11
16307.2
 21
-0.0000000000000909
 31
0.0
  0
LINE
  5
10B5E
330
747D
100
AcDbEntity
  8
補助
  6
PHANTOM
 62
   230
 48
50.0
100
AcDbLine
 10
16307.2
 20
11409.6
 30
0.0
 11
16307.2
 21
1200.0
 31
0.0
  0
LINE
  5
10B6C
330
747D
100
AcDbEntity
  8
仕様書枠
 48
50.0
100
AcDbLine
 10
13107.2
 20
1200.0
 30
0.0
 11
16307.2
 21
1200.0
 31
0.0
  0
LINE
  5
10B6D
330
747D
100
AcDbEntity
  8
補助
  6
PHANTOM
 62
   230
 48
50.0
100
AcDbLine
 10
13107.2
 20
11409.6
 30
0.0
 11
13107.2
 21
4800.0
 31
0.0
  0
LINE
  5
10B6F
330
747D
100
AcDbEntity
  8
補助
  6
PHANTOM
 62
   230
 48
50.0
100
AcDbLine
 10
13107.2
 20
4800.0
 30
0.0
 11
16307.2
 21
4800.0
 31
0.0
  0
LINE
  5
10B72
330
747D
100
AcDbEntity
  8
文字
 62
     7
 48
50.0
100
AcDbLine
 10
13187.2
 20
400.0
 30
0.0
 11
16227.2
 21
400.0
 31
0.0
  0
TEXT
  5
10B73
330
747D
100
AcDbEntity
  8
文字
 62
     7
 48
50.0
100
AcDbText
 10
13162.9790565769
 20
895.0906074299405
 30
0.0
 40
200.0
  1
外 形 図
  7
STYLE2
100
AcDbText
  0
TEXT
  5
10B74
330
747D
100
AcDbEntity
  8
文字
 62
     7
 48
50.0
100
AcDbText
 10
13201.43669998441
 20
477.2740661031255
 30
0.0
 40
160.0
  1
機種名
  7
STYLE2
100
AcDbText
  0
TEXT
  5
10B76
330
747D
100
AcDbEntity
  8
文字
 62
     7
 48
50.0
100
AcDbText
 10
13209.4053442172
 20
76.09434707649343
 30
0.0
 40
100.0
  1
○床面積 ： 4.09㎡(1.23坪) 　
  7
STYLE2
100
AcDbText
  0
TEXT
  5
10B79
330
747D
100
AcDbEntity
  8
文字
 62
     7
 48
50.0
100
AcDbText
 10
14524.131837222
 20
1031.557706291228
 30
0.0
 40
100.0
  1
NO.08     <縮尺> S=1/40
  7
STYLE2
100
AcDbText
  0
LINE
  5
10B7B
330
747D
100
AcDbEntity
  8
仕様書枠
 48
50.0
100
AcDbLine
 10
13107.2
 20
800.0
 30
0.0
 11
14251.2
 21
800.0
 31
0.0
  0
LINE
  5
10B88
330
747D
100
AcDbEntity
  8
仕様書枠
  6
Continuous
 48
50.0
100
AcDbLine
 10
14251.2
 20
1200.0
 30
0.0
 11
14251.2
 21
800.0
 31
0.0
  0
TEXT
  5
15729
330
747D
100
AcDbEntity
  8
文字
 62
     7
 48
50.0
100
AcDbText
 10
14623.97014062392
 20
869.7247441969318
 30
0.0
 40
100.0
  1
～一般型・多雪地型～
  7
STYLE2
100
AcDbText
  0
LINE
  5
18361
330
747D
100
AcDbEntity
  8
細線
100
AcDbLine
 10
10095.21703291224
 20
4375.938397165346
 30
0.0
 11
10095.21703291224
 21
2650.438397165364
 31
0.0
  0
LINE
  5
18362
330
747D
100
AcDbEntity
  8
細線
100
AcDbLine
 10
10025.21703291224
 20
4375.938397165346
 30
0.0
 11
10025.21703291224
 21
2650.438397165364
 31
0.0
  0
LINE
  5
18363
330
747D
100
AcDbEntity
  8
細線
100
AcDbLine
 10
10165.21699759334
 20
4375.938397165346
 30
0.0
 11
10165.21699759334
 21
2650.438397165364
 31
0.0
  0
LINE
  5
18364
330
747D
100
AcDbEntity
  8
細線
100
AcDbLine
 10
9507.216997593344
 20
4375.938397165357
 30
0.0
 11
9507.216997593344
 21
2650.438397165372
 31
0.0
  0
LINE
  5
18365
330
747D
100
AcDbEntity
  8
細線
100
AcDbLine
 10
9577.216997593344
 20
4375.938397165357
 30
0.0
 11
9577.216997593344
 21
2650.438397165372
 31
0.0
  0
LINE
  5
18366
330
747D
100
AcDbEntity
  8
細線
100
AcDbLine
 10
9128.216989407928
 20
4375.938397165357
 30
0.0
 11
9128.216989407928
 21
2642.938397165361
 31
0.0
  0
LINE
  5
18367
330
747D
100
AcDbEntity
  8
細線
100
AcDbLine
 10
10235.21699759334
 20
4375.938397165346
 30
0.0
 11
10235.21699759334
 21
2650.438397165364
 31
0.0
  0
LINE
  5
18368
330
747D
100
AcDbEntity
  8
細線
100
AcDbLine
 10
10305.21699759334
 20
4375.938397165346
 30
0.0
 11
10305.21699759334
 21
2650.438397165364
 31
0.0
  0
LINE
  5
18369
330
747D
100
AcDbEntity
  8
細線
100
AcDbLine
 10
10375.21699759334
 20
4375.938397165346
 30
0.0
 11
10375.21699759334
 21
2650.438397165364
 31
0.0
  0
LINE
  5
1836A
330
747D
100
AcDbEntity
  8
細線
100
AcDbLine
 10
9647.216997593343
 20
4375.938397165357
 30
0.0
 11
9647.216997593346
 21
2650.438397165372
 31
0.0
  0
LINE
  5
1836B
330
747D
100
AcDbEntity
  8
細線
100
AcDbLine
 10
9717.216997593343
 20
4375.938397165357
 30
0.0
 11
9717.216997593347
 21
2650.438397165372
 31
0.0
  0
LINE
  5
1836C
330
747D
100
AcDbEntity
  8
細線
100
AcDbLine
 10
9787.216997593343
 20
4375.938397165357
 30
0.0
 11
9787.216997593345
 21
2650.438397165372
 31
0.0
  0
LINE
  5
1836D
330
747D
100
AcDbEntity
  8
細線
100
AcDbLine
 10
9857.216997593344
 20
4375.938397165357
 30
0.0
 11
9857.216997593345
 21
2650.438397165372
 31
0.0
  0
LINE
  5
1836E
330
747D
100
AcDbEntity
  8
細線
100
AcDbLine
 10
8946.216997593344
 20
4375.938397165357
 30
0.0
 11
8946.216997593344
 21
2642.938397165365
 31
0.0
  0
LINE
  5
1836F
330
747D
100
AcDbEntity
  8
細線
100
AcDbLine
 10
8980.216997593345
 20
4375.938397165357
 30
0.0
 11
8980.216997593345
 21
2642.938397165365
 31
0.0
  0
LINE
  5
18370
330
747D
100
AcDbEntity
  8
部品1
100
AcDbLine
 10
8938.216997593345
 20
4375.938397165357
 30
0.0
 11
8938.216997593345
 21
2642.938397165365
 31
0.0
  0
LINE
  5
18371
330
747D
100
AcDbEntity
  8
部品1
100
AcDbLine
 10
8988.216997593346
 20
4375.938397165357
 30
0.0
 11
8988.216997593346
 21
2642.938397165365
 31
0.0
  0
LINE
  5
18372
330
747D
100
AcDbEntity
  8
細線
100
AcDbLine
 10
9198.216989407928
 20
4375.938397165357
 30
0.0
 11
9198.216989407928
 21
2642.938397165361
 31
0.0
  0
LINE
  5
18373
330
747D
100
AcDbEntity
  8
細線
100
AcDbLine
 10
9268.216989407926
 20
4375.938397165357
 30
0.0
 11
9268.216989407926
 21
2642.938397165361
 31
0.0
  0
LINE
  5
18374
330
747D
100
AcDbEntity
  8
細線
100
AcDbLine
 10
9338.216989407927
 20
4375.938397165357
 30
0.0
 11
9338.216989407927
 21
2642.938397165361
 31
0.0
  0
LINE
  5
18375
330
747D
100
AcDbEntity
  8
部品1
 48
50.0
100
AcDbLine
 10
9948.716997593347
 20
4375.938397165364
 30
0.0
 11
9948.716997593347
 21
2650.438397165364
 31
0.0
  0
LINE
  5
18376
330
747D
100
AcDbEntity
  8
部品1
 48
50.0
100
AcDbLine
 10
9456.716997593352
 20
4375.938397165364
 30
0.0
 11
9456.716997593346
 21
2642.938397165365
 31
0.0
  0
LINE
  5
18377
330
747D
100
AcDbEntity
  8
部品1
 48
50.0
100
AcDbLine
 10
8788.216997593341
 20
4427.938397165364
 30
0.0
 11
8788.216997593341
 21
2592.938397165364
 31
0.0
  0
LINE
  5
18378
330
747D
100
AcDbEntity
  8
細線
 48
50.0
100
AcDbLine
 10
8818.216997593344
 20
4385.438397165364
 30
0.0
 11
8818.216997593342
 21
2592.938397165364
 31
0.0
  0
LINE
  5
18379
330
747D
100
AcDbEntity
  8
部品1
 48
50.0
100
AcDbLine
 10
8818.216997593344
 20
2642.938397165365
 30
0.0
 11
8818.216997593344
 21
4375.938397165364
 31
0.0
  0
LINE
  5
1837A
330
747D
100
AcDbEntity
  8
部品1
 48
50.0
100
AcDbLine
 10
10483.21699759334
 20
2639.938397165364
 30
0.0
 11
10483.21699759334
 21
4375.938397165364
 31
0.0
  0
LINE
  5
1837B
330
747D
100
AcDbEntity
  8
細線
 48
50.0
100
AcDbLine
 10
10492.21699759334
 20
2592.938397165364
 30
0.0
 11
10492.21699759334
 21
4385.438397165364
 31
0.0
  0
LINE
  5
1837C
330
747D
100
AcDbEntity
  8
部品1
 48
50.0
100
AcDbLine
 10
10522.21699759334
 20
2592.938397165364
 30
0.0
 11
10522.21699759334
 21
4427.938397165364
 31
0.0
  0
LINE
  5
1837D
330
747D
100
AcDbEntity
  8
細線
 48
50.0
100
AcDbLine
 10
9456.716997593346
 20
2650.438397165364
 30
0.0
 11
10466.21699759334
 21
2650.438397165364
 31
0.0
  0
LINE
  5
1837E
330
747D
100
AcDbEntity
  8
細線
 48
50.0
100
AcDbLine
 10
8818.216997593344
 20
2639.938397165364
 30
0.0
 11
10492.21699759334
 21
2639.938397165364
 31
0.0
  0
LINE
  5
1837F
330
747D
100
AcDbEntity
  8
細線
 48
50.0
100
AcDbLine
 10
8818.216997593344
 20
2635.938397165364
 30
0.0
 11
10492.21699759334
 21
2635.938397165364
 31
0.0
  0
LINE
  5
18380
330
747D
100
AcDbEntity
  8
部品1
 48
50.0
100
AcDbLine
 10
8788.216997593341
 20
2592.938397165364
 30
0.0
 11
10522.21699759334
 21
2592.938397165364
 31
0.0
  0
LINE
  5
18381
330
747D
100
AcDbEntity
  8
部品1
 48
50.0
100
AcDbLine
 10
8818.216997593344
 20
2642.938397165365
 30
0.0
 11
9456.716997593346
 21
2642.938397165365
 31
0.0
  0
LINE
  5
18382
330
747D
100
AcDbEntity
  8
部品1
 48
50.0
100
AcDbLine
 10
8827.216997593344
 20
2642.938397165365
 30
0.0
 11
8827.216997593344
 21
2639.938397165364
 31
0.0
  0
LINE
  5
18383
330
747D
100
AcDbEntity
  8
細線
 48
50.0
100
AcDbLine
 10
10470.21699759334
 20
2639.938397165364
 30
0.0
 11
10466.21699759334
 21
2650.438397165364
 31
0.0
  0
LINE
  5
18384
330
747D
100
AcDbEntity
  8
部品1
 48
50.0
100
AcDbLine
 10
10522.21699759334
 20
4427.938397165364
 30
0.0
 11
8788.216997593341
 21
4427.938397165364
 31
0.0
  0
LINE
  5
18385
330
747D
100
AcDbEntity
  8
細線
 48
50.0
100
AcDbLine
 10
10522.21699759334
 20
4417.938397165364
 30
0.0
 11
8788.216997593341
 21
4417.938397165364
 31
0.0
  0
LINE
  5
18386
330
747D
100
AcDbEntity
  8
細線
 48
50.0
100
AcDbLine
 10
10492.21699759334
 20
4375.938397165364
 30
0.0
 11
8818.216997593344
 21
4375.938397165364
 31
0.0
  0
LINE
  5
18387
330
747D
100
AcDbEntity
  8
細線
 48
50.0
100
AcDbLine
 10
10492.21699759334
 20
4385.438397165364
 30
0.0
 11
8818.216997593344
 21
4385.438397165364
 31
0.0
  0
LINE
  5
18388
330
747D
100
AcDbEntity
  8
部品1
 48
50.0
100
AcDbLine
 10
8818.216997593344
 20
4383.938397165365
 30
0.0
 11
8788.216997593341
 21
4383.938397165365
 31
0.0
  0
LINE
  5
18389
330
747D
100
AcDbEntity
  8
部品1
 48
50.0
100
AcDbLine
 10
10522.21699759334
 20
4383.938397165365
 30
0.0
 11
10492.21699759334
 21
4383.938397165365
 31
0.0
  0
LINE
  5
1838D
330
747D
100
AcDbEntity
  8
部品1
 48
50.0
100
AcDbLine
 10
8862.216997593341
 20
3574.438397165364
 30
0.0
 11
8915.216997593342
 21
3574.438397165364
 31
0.0
  0
DIMENSION
  5
183A7
330
747D
100
AcDbEntity
  8
寸法
 48
50.0
100
AcDbDimension
  2
*D12
 10
8489.010968381208
 20
2650.938397165365
 30
0.0
 11
8489.010968381208
 21
3504.571416182889
 31
0.0
 70
   160
  1
有効開口部高サ<>
 71
     5
 42
1725.0
  3
INABA_S40G
100
AcDbAlignedDimension
 13
8788.216997593359
 23
4375.938397165364
 33
0.0
 14
8788.216997593359
 24
2650.938397165365
 34
0.0
 50
90.0
100
AcDbRotatedDimension
1001
ACAD
1000
DSTYLE
1002
{
1070
   341
1005
0
1002
}
  0
TEXT
  5
183A8
330
747D
100
AcDbEntity
  8
文字
 62
     7
 48
50.0
100
AcDbText
 10
14491.96323844892
 20
483.8967129911416
 30
0.0
 40
160.0
  1
ＮＸＮ－４０ＣＳＢ
  7
STYLE2
100
AcDbText
  0
TEXT
  5
183A9
330
747D
100
AcDbEntity
  8
文字
 62
     7
 48
50.0
100
AcDbText
 10
13583.11819016569
 20
8550.013745883731
 30
0.0
 40
100.0
  1
棚板
  7
STYLE1
100
AcDbText
  0
TEXT
  5
183AA
330
747D
100
AcDbEntity
  8
文字
 62
     7
 48
50.0
100
AcDbText
 10
15022.63965474516
 20
8550.013745883727
 30
0.0
 40
100.0
  1
F12            0.6
  7
STYLE1
100
AcDbText
  0
TEXT
  5
183AB
330
747D
100
AcDbEntity
  8
文字
 62
     7
 48
50.0
100
AcDbText
 10
15022.63965474515
 20
9740.013745883723
 30
0.0
 40
100.0
  1
F12            1.0
  7
STYLE1
100
AcDbText
  0
TEXT
  5
183AC
330
747D
100
AcDbEntity
  8
文字
 62
     7
 48
50.0
100
AcDbText
 10
13583.11819016569
 20
9740.013745883729
 30
0.0
 40
100.0
  1
母屋中
  7
STYLE1
100
AcDbText
  0
TEXT
  5
183AD
330
747D
100
AcDbEntity
  8
文字
 62
     7
 48
50.0
100
AcDbText
 10
13248.77747366447
 20
8720.013745883729
 30
0.0
 40
100.0
  1
15
  7
STYLE1
100
AcDbText
  0
LINE
  5
183AE
330
747D
100
AcDbEntity
  8
仕様書枠
 48
50.0
100
AcDbLine
 10
16307.19999999999
 20
8009.600000000004
 30
0.0
 11
13127.19999999999
 21
8009.600000000006
 31
0.0
  0
TEXT
  5
183AF
330
747D
100
AcDbEntity
  8
文字
 62
     7
 48
50.0
100
AcDbText
 10
13583.11819016569
 20
8720.013745883731
 30
0.0
 40
100.0
  1
扉
  7
STYLE1
100
AcDbText
  0
TEXT
  5
183B0
330
747D
100
AcDbEntity
  8
文字
 62
     7
 48
50.0
100
AcDbText
 10
15022.63965474516
 20
8720.013745883727
 30
0.0
 40
100.0
  1
F12            0.8
  7
STYLE1
100
AcDbText
  0
TEXT
  5
183B1
330
747D
100
AcDbEntity
  8
文字
 62
     7
 48
50.0
100
AcDbText
 10
13583.11819016568
 20
8890.013745883731
 30
0.0
 40
100.0
  1
正面パネル
  7
STYLE1
100
AcDbText
  0
TEXT
  5
183B2
330
747D
100
AcDbEntity
  8
文字
 62
     7
 48
50.0
100
AcDbText
 10
15022.63965474515
 20
8890.013745883727
 30
0.0
 40
100.0
  1
F12            0.7
  7
STYLE1
100
AcDbText
  0
TEXT
  5
183B3
330
747D
100
AcDbEntity
  8
文字
 62
     7
 48
50.0
100
AcDbText
 10
15022.63965474517
 20
10590.01374588372
 30
0.0
 40
100.0
  1
F12            1.0
  7
STYLE1
100
AcDbText
  0
TEXT
  5
183B4
330
747D
100
AcDbEntity
  8
文字
 62
     7
 48
50.0
100
AcDbText
 10
15022.63965474516
 20
10930.01374588372
 30
0.0
 40
100.0
  1
F12            1.2
  7
STYLE1
100
AcDbText
  0
TEXT
  5
183B5
330
747D
100
AcDbEntity
  8
文字
 62
     7
 48
50.0
100
AcDbText
 10
13248.77747366448
 20
8890.013745883727
 30
0.0
 40
100.0
  1
14
  7
STYLE1
100
AcDbText
  0
TEXT
  5
183B6
330
747D
100
AcDbEntity
  8
文字
 62
     7
 48
50.0
100
AcDbText
 10
13583.11819016569
 20
10930.01374588372
 30
0.0
 40
100.0
  1
根太
  7
STYLE1
100
AcDbText
  0
TEXT
  5
183B7
330
747D
100
AcDbEntity
  8
文字
 62
     7
 48
50.0
100
AcDbText
 10
13583.1181901657
 20
10590.01374588372
 30
0.0
 40
100.0
  1
床パネル
 41
0.9
  7
STYLE1
100
AcDbText
  0
LINE
  5
183B8
330
747D
100
AcDbEntity
  8
仕様書枠
 48
50.0
100
AcDbLine
 10
16307.19999999999
 20
9029.6
 30
0.0
 11
13127.2
 21
9029.600000000002
 31
0.0
  0
LINE
  5
183B9
330
747D
100
AcDbEntity
  8
仕様書枠
 48
50.0
100
AcDbLine
 10
13127.2
 20
11409.6
 30
0.0
 11
13127.19999999999
 21
8009.600000000006
 31
0.0
  0
TEXT
  5
183BA
330
747D
100
AcDbEntity
  8
文字
 62
     7
 48
50.0
100
AcDbText
 10
13229.83081656554
 20
8040.013745883731
 30
0.0
 40
100.0
  1
Y10→溶融亜鉛-5％アルミニウム合金めっき鋼板(JIS G 3317)
 41
0.9
  7
STYLE1
100
AcDbText
  0
TEXT
  5
183BB
330
747D
100
AcDbEntity
  8
文字
 62
     7
 48
50.0
100
AcDbText
 10
13229.83081656554
 20
8210.013745883733
 30
0.0
 40
100.0
  1
F12→溶融亜鉛めっき鋼板(JIS G 3302)
  7
STYLE1
100
AcDbText
  0
LINE
  5
183BC
330
747D
100
AcDbEntity
  8
仕様書枠
 48
50.0
100
AcDbLine
 10
16307.19999999999
 20
8179.600000000004
 30
0.0
 11
13127.19999999999
 21
8179.600000000005
 31
0.0
  0
LINE
  5
183BD
330
747D
100
AcDbEntity
  8
仕様書枠
 48
50.0
100
AcDbLine
 10
16307.19999999999
 20
8349.600000000004
 30
0.0
 11
13127.19999999999
 21
8349.600000000007
 31
0.0
  0
TEXT
  5
183BE
330
747D
100
AcDbEntity
  8
文字
 62
     7
 48
50.0
100
AcDbText
 10
15022.63965474515
 20
9570.013745883725
 30
0.0
 40
100.0
  1
F12            0.6
  7
STYLE1
100
AcDbText
  0
TEXT
  5
183BF
330
747D
100
AcDbEntity
  8
文字
 62
     7
 48
50.0
100
AcDbText
 10
15022.63965474517
 20
9910.013745883725
 30
0.0
 40
100.0
  1
Y10            0.5
  7
STYLE1
100
AcDbText
  0
TEXT
  5
183C0
330
747D
100
AcDbEntity
  8
文字
 62
     7
 48
50.0
100
AcDbText
 10
15022.63965474516
 20
10080.01374588372
 30
0.0
 40
100.0
  1
Y10            0.7
  7
STYLE1
100
AcDbText
  0
TEXT
  5
183C1
330
747D
100
AcDbEntity
  8
文字
 62
     7
 48
50.0
100
AcDbText
 10
15022.63965474516
 20
10250.01374588372
 30
0.0
 40
100.0
  1
Y10            0.7
  7
STYLE1
100
AcDbText
  0
TEXT
  5
183C2
330
747D
100
AcDbEntity
  8
文字
 62
     7
 48
50.0
100
AcDbText
 10
15022.63965474516
 20
10420.01374588372
 30
0.0
 40
100.0
  1
Y10            1.0
  7
STYLE1
100
AcDbText
  0
TEXT
  5
183C3
330
747D
100
AcDbEntity
  8
文字
 62
     7
 48
50.0
100
AcDbText
 10
15022.63965474518
 20
10760.01374588372
 30
0.0
 40
100.0
  1
F12            1.0
  7
STYLE1
100
AcDbText
  0
TEXT
  5
183C4
330
747D
100
AcDbEntity
  8
文字
 62
     7
 48
50.0
100
AcDbText
 10
15022.63965474517
 20
11100.01374588372
 30
0.0
 40
100.0
  1
F12            1.2
  7
STYLE1
100
AcDbText
  0
TEXT
  5
183C5
330
747D
100
AcDbEntity
  8
文字
 62
     7
 48
50.0
100
AcDbText
 10
13248.77747366448
 20
9230.013745883727
 30
0.0
 40
100.0
  1
12
  7
STYLE1
100
AcDbText
  0
TEXT
  5
183C6
330
747D
100
AcDbEntity
  8
文字
 62
     7
 48
50.0
100
AcDbText
 10
13248.77747366448
 20
9060.013745883727
 30
0.0
 40
100.0
  1
13
  7
STYLE1
100
AcDbText
  0
LINE
  5
183C7
330
747D
100
AcDbEntity
  8
仕様書枠
 48
50.0
100
AcDbLine
 10
16307.19999999999
 20
8859.6
 30
0.0
 11
13127.2
 21
8859.600000000002
 31
0.0
  0
LINE
  5
183C8
330
747D
100
AcDbEntity
  8
仕様書枠
 48
50.0
100
AcDbLine
 10
16307.19999999999
 20
9199.599999999998
 30
0.0
 11
13127.2
 21
9199.600000000001
 31
0.0
  0
TEXT
  5
183C9
330
747D
100
AcDbEntity
  8
文字
 62
     7
 48
50.0
100
AcDbText
 10
13248.77747366447
 20
9400.013745883727
 30
0.0
 40
100.0
  1
11
  7
STYLE1
100
AcDbText
  0
LINE
  5
183CA
330
747D
100
AcDbEntity
  8
仕様書枠
 48
50.0
100
AcDbLine
 10
16307.2
 20
9879.599999999999
 30
0.0
 11
13127.2
 21
9879.600000000001
 31
0.0
  0
LINE
  5
183CB
330
747D
100
AcDbEntity
  8
仕様書枠
 48
50.0
100
AcDbLine
 10
16307.2
 20
10219.6
 30
0.0
 11
13127.2
 21
10219.6
 31
0.0
  0
LINE
  5
183CC
330
747D
100
AcDbEntity
  8
仕様書枠
 48
50.0
100
AcDbLine
 10
16307.19999999999
 20
9539.599999999998
 30
0.0
 11
13127.2
 21
9539.6
 31
0.0
  0
LINE
  5
183CD
330
747D
100
AcDbEntity
  8
仕様書枠
 48
50.0
100
AcDbLine
 10
16307.19999999999
 20
9369.599999999998
 30
0.0
 11
13127.2
 21
9369.600000000001
 31
0.0
  0
LINE
  5
183CE
330
747D
100
AcDbEntity
  8
仕様書枠
 48
50.0
100
AcDbLine
 10
16307.19999999999
 20
9709.6
 30
0.0
 11
13127.2
 21
9709.600000000001
 31
0.0
  0
TEXT
  5
183CF
330
747D
100
AcDbEntity
  8
文字
 62
     7
 48
50.0
100
AcDbText
 10
13271.19032244792
 20
10250.01374588373
 30
0.0
 40
100.0
  1
6
  7
STYLE1
100
AcDbText
  0
TEXT
  5
183D0
330
747D
100
AcDbEntity
  8
文字
 62
     7
 48
50.0
100
AcDbText
 10
13271.19032244792
 20
10080.01374588373
 30
0.0
 40
100.0
  1
7
  7
STYLE1
100
AcDbText
  0
TEXT
  5
183D1
330
747D
100
AcDbEntity
  8
文字
 62
     7
 48
50.0
100
AcDbText
 10
13271.19032244792
 20
9740.013745883729
 30
0.0
 40
100.0
  1
9
  7
STYLE1
100
AcDbText
  0
TEXT
  5
183D2
330
747D
100
AcDbEntity
  8
文字
 62
     7
 48
50.0
100
AcDbText
 10
13271.19032244792
 20
9910.01374588373
 30
0.0
 40
100.0
  1
8
  7
STYLE1
100
AcDbText
  0
TEXT
  5
183D3
330
747D
100
AcDbEntity
  8
文字
 62
     7
 48
50.0
100
AcDbText
 10
13583.11819016569
 20
10080.01374588372
 30
0.0
 40
100.0
  1
鼻隠シ前後
  7
STYLE1
100
AcDbText
  0
TEXT
  5
183D4
330
747D
100
AcDbEntity
  8
文字
 62
     7
 48
50.0
100
AcDbText
 10
13583.11819016569
 20
9910.013745883727
 30
0.0
 40
100.0
  1
屋根パネル
  7
STYLE1
100
AcDbText
  0
TEXT
  5
183D5
330
747D
100
AcDbEntity
  8
文字
 62
     7
 48
50.0
100
AcDbText
 10
13583.11819016568
 20
9570.013745883729
 30
0.0
 40
100.0
  1
壁パネル
  7
STYLE1
100
AcDbText
  0
TEXT
  5
183D6
330
747D
100
AcDbEntity
  8
文字
 62
     7
 48
50.0
100
AcDbText
 10
13248.77747366447
 20
9570.013745883727
 30
0.0
 40
100.0
  1
10
  7
STYLE1
100
AcDbText
  0
TEXT
  5
183D7
330
747D
100
AcDbEntity
  8
文字
 62
     7
 48
50.0
100
AcDbText
 10
13583.11819016569
 20
10250.01374588373
 30
0.0
 40
100.0
  1
妻板左右
  7
STYLE1
100
AcDbText
  0
TEXT
  5
183D8
330
747D
100
AcDbEntity
  8
文字
 62
     7
 48
50.0
100
AcDbText
 10
13271.19032244792
 20
10420.01374588372
 30
0.0
 40
100.0
  1
5
  7
STYLE1
100
AcDbText
  0
TEXT
  5
183D9
330
747D
100
AcDbEntity
  8
文字
 62
     7
 48
50.0
100
AcDbText
 10
13583.11819016569
 20
10420.01374588373
 30
0.0
 40
100.0
  1
桁前後
  7
STYLE1
100
AcDbText
  0
TEXT
  5
183DA
330
747D
100
AcDbEntity
  8
文字
 62
     7
 48
50.0
100
AcDbText
 10
13583.1181901657
 20
10760.01374588372
 30
0.0
 40
100.0
  1
柱
  7
STYLE1
100
AcDbText
  0
TEXT
  5
183DB
330
747D
100
AcDbEntity
  8
文字
 62
     7
 48
50.0
100
AcDbText
 10
13583.11819016569
 20
11100.01374588372
 30
0.0
 40
100.0
  1
土台枠
  7
STYLE1
100
AcDbText
  0
TEXT
  5
183DC
330
747D
100
AcDbEntity
  8
文字
 62
     7
 48
50.0
100
AcDbText
 10
14859.79774614482
 20
11270.01374588372
 30
0.0
 40
100.0
  1
材料（材質）　　単位mm
  7
STYLE1
100
AcDbText
  0
TEXT
  5
183DD
330
747D
100
AcDbEntity
  8
文字
 62
     7
 48
50.0
100
AcDbText
 10
13732.03840939434
 20
11270.01374588372
 30
0.0
 40
100.0
  1
部　　品　　名
  7
STYLE1
100
AcDbText
  0
TEXT
  5
183DE
330
747D
100
AcDbEntity
  8
文字
 62
     7
 48
50.0
100
AcDbText
 10
13271.19032244792
 20
10760.01374588373
 30
0.0
 40
100.0
  1
3
  7
STYLE1
100
AcDbText
  0
TEXT
  5
183DF
330
747D
100
AcDbEntity
  8
文字
 62
     7
 48
50.0
100
AcDbText
 10
13271.19032244792
 20
10590.01374588373
 30
0.0
 40
100.0
  1
4
  7
STYLE1
100
AcDbText
  0
TEXT
  5
183E0
330
747D
100
AcDbEntity
  8
文字
 62
     7
 48
50.0
100
AcDbText
 10
13271.19032244792
 20
10930.01374588373
 30
0.0
 40
100.0
  1
2
  7
STYLE1
100
AcDbText
  0
TEXT
  5
183E1
330
747D
100
AcDbEntity
  8
文字
 62
     7
 48
50.0
100
AcDbText
 10
13271.19032244792
 20
11100.01374588373
 30
0.0
 40
100.0
  1
1
  7
STYLE1
100
AcDbText
  0
TEXT
  5
183E2
330
747D
100
AcDbEntity
  8
文字
 62
     7
 48
50.0
100
AcDbText
 10
13197.42518560407
 20
11270.01374588372
 30
0.0
 40
100.0
  1
品番
  7
STYLE1
100
AcDbText
  0
LINE
  5
183E3
330
747D
100
AcDbEntity
  8
仕様書枠
 48
50.0
100
AcDbLine
 10
16307.19999999999
 20
10729.59999999999
 30
0.0
 11
13127.2
 21
10729.6
 31
0.0
  0
LINE
  5
183E4
330
747D
100
AcDbEntity
  8
仕様書枠
 48
50.0
100
AcDbLine
 10
16307.19999999999
 20
10389.6
 30
0.0
 11
13127.2
 21
10389.6
 31
0.0
  0
LINE
  5
183E5
330
747D
100
AcDbEntity
  8
仕様書枠
 48
50.0
100
AcDbLine
 10
16307.19999999999
 20
10559.6
 30
0.0
 11
13127.2
 21
10559.6
 31
0.0
  0
LINE
  5
183E6
330
747D
100
AcDbEntity
  8
仕様書枠
 48
50.0
100
AcDbLine
 10
16307.2
 20
11069.59999999999
 30
0.0
 11
13127.2
 21
11069.6
 31
0.0
  0
LINE
  5
183E7
330
747D
100
AcDbEntity
  8
仕様書枠
 48
50.0
100
AcDbLine
 10
16307.2
 20
10899.6
 30
0.0
 11
13127.2
 21
10899.6
 31
0.0
  0
LINE
  5
183E8
330
747D
100
AcDbEntity
  8
仕様書枠
 48
50.0
100
AcDbLine
 10
16307.2
 20
11239.59999999999
 30
0.0
 11
13127.2
 21
11239.6
 31
0.0
  0
LINE
  5
183E9
330
747D
100
AcDbEntity
  8
仕様書枠
 48
50.0
100
AcDbLine
 10
13490.2
 20
11409.59999999999
 30
0.0
 11
13490.20000000001
 21
8349.600000000007
 31
0.0
  0
LINE
  5
183EA
330
747D
100
AcDbEntity
  8
仕様書枠
 48
50.0
100
AcDbLine
 10
14785.2
 20
11409.59999999999
 30
0.0
 11
14785.2
 21
8349.600000000004
 31
0.0
  0
LINE
  5
183EB
330
747D
100
AcDbEntity
  8
仕様書枠
 48
50.0
100
AcDbLine
 10
16307.19999999999
 20
8009.600000000004
 30
0.0
 11
16307.2
 21
11409.6
 31
0.0
  0
LINE
  5
183EC
330
747D
100
AcDbEntity
  8
仕様書枠
 48
50.0
100
AcDbLine
 10
16307.2
 20
11409.59999999999
 30
0.0
 11
13127.2
 21
11409.6
 31
0.0
  0
LINE
  5
183ED
330
747D
100
AcDbEntity
  8
仕様書枠
 48
50.0
100
AcDbLine
 10
16307.2
 20
10049.6
 30
0.0
 11
13127.2
 21
10049.6
 31
0.0
  0
TEXT
  5
183EE
330
747D
100
AcDbEntity
  8
文字
 62
     7
 48
50.0
100
AcDbText
 10
15022.63965474515
 20
8380.013745883724
 30
0.0
 40
100.0
  1
F12            2.3
  7
STYLE1
100
AcDbText
  0
TEXT
  5
183EF
330
747D
100
AcDbEntity
  8
文字
 62
     7
 48
50.0
100
AcDbText
 10
13583.11819016569
 20
8380.013745883728
 30
0.0
 40
100.0
  1
アンカープレート
  7
STYLE1
100
AcDbText
  0
LINE
  5
183F0
330
747D
100
AcDbEntity
  8
仕様書枠
 48
50.0
100
AcDbLine
 10
16307.19999999999
 20
8519.600000000004
 30
0.0
 11
13127.2
 21
8519.600000000005
 31
0.0
  0
LINE
  5
183F1
330
747D
100
AcDbEntity
  8
仕様書枠
 48
50.0
100
AcDbLine
 10
16307.19999999999
 20
8689.600000000003
 30
0.0
 11
13127.2
 21
8689.600000000005
 31
0.0
  0
TEXT
  5
183F2
330
747D
100
AcDbEntity
  8
文字
 62
     7
 48
50.0
100
AcDbText
 10
13583.11819016569
 20
9400.013745883729
 30
0.0
 40
100.0
  1
壁面扉鴨居
  7
STYLE1
100
AcDbText
  0
TEXT
  5
183F3
330
747D
100
AcDbEntity
  8
文字
 62
     7
 48
50.0
100
AcDbText
 10
13583.11819016569
 20
9230.013745883733
 30
0.0
 40
100.0
  1
壁面扉敷居
  7
STYLE1
100
AcDbText
  0
TEXT
  5
183F4
330
747D
100
AcDbEntity
  8
文字
 62
     7
 48
50.0
100
AcDbText
 10
15022.63965474515
 20
9400.013745883727
 30
0.0
 40
100.0
  1
F12            0.7
  7
STYLE1
100
AcDbText
  0
TEXT
  5
183F5
330
747D
100
AcDbEntity
  8
文字
 62
     7
 48
50.0
100
AcDbText
 10
15022.63965474517
 20
9230.013745883725
 30
0.0
 40
100.0
  1
F12            1.0
  7
STYLE1
100
AcDbText
  0
TEXT
  5
183F6
330
747D
100
AcDbEntity
  8
文字
 62
     7
 48
50.0
100
AcDbText
 10
13583.11819016569
 20
9060.013745883733
 30
0.0
 40
100.0
  1
壁面扉枠左右
  7
STYLE1
100
AcDbText
  0
TEXT
  5
183F7
330
747D
100
AcDbEntity
  8
文字
 62
     7
 48
50.0
100
AcDbText
 10
15022.63965474517
 20
9060.013745883725
 30
0.0
 40
100.0
  1
F12            1.0
  7
STYLE1
100
AcDbText
  0
TEXT
  5
183F8
330
747D
100
AcDbEntity
  8
文字
 62
     7
 48
50.0
100
AcDbText
 10
13248.77747366447
 20
8550.013745883729
 30
0.0
 40
100.0
  1
16
  7
STYLE1
100
AcDbText
  0
TEXT
  5
183F9
330
747D
100
AcDbEntity
  8
文字
 62
     7
 48
50.0
100
AcDbText
 10
13248.77747366447
 20
8380.013745883728
 30
0.0
 40
100.0
  1
17
  7
STYLE1
100
AcDbText
  0
LINE
  5
183FA
330
747D
100
AcDbEntity
  8
部品1
100
AcDbLine
 10
10036.95233070756
 20
1803.900134187955
 30
0.0
 11
9273.481664479122
 21
1803.900134187955
 31
0.0
  0
LINE
  5
183FB
330
747D
100
AcDbEntity
  8
部品1
100
AcDbLine
 10
10036.95233070756
 20
1564.007812642422
 30
0.0
 11
10036.95233070756
 21
1803.900134187955
 31
0.0
  0
LINE
  5
183FC
330
747D
100
AcDbEntity
  8
部品1
100
AcDbLine
 10
9273.481664479122
 20
1564.007812642422
 30
0.0
 11
10036.95233070756
 21
1564.007812642422
 31
0.0
  0
LINE
  5
183FD
330
747D
100
AcDbEntity
  8
部品1
100
AcDbLine
 10
9273.481664479122
 20
1803.900134187955
 30
0.0
 11
9273.481664479122
 21
1564.007812642422
 31
0.0
  0
LINE
  5
183FE
330
747D
100
AcDbEntity
  8
部品1
100
AcDbLine
 10
10522.21699759334
 20
2642.938397165384
 30
0.0
 11
10550.21699759334
 21
2642.938397165384
 31
0.0
  0
LINE
  5
183FF
330
747D
100
AcDbEntity
  8
部品1
 48
50.0
100
AcDbLine
 10
8788.216997593343
 20
2592.938397165364
 30
0.0
 11
10522.21699759334
 21
2592.938397165364
 31
0.0
  0
LINE
  5
18400
330
747D
100
AcDbEntity
  8
部品1
100
AcDbLine
 10
8815.216997593342
 20
4432.938397165359
 30
0.0
 11
8815.216997593342
 21
4427.938397165364
 31
0.0
  0
LINE
  5
18401
330
747D
100
AcDbEntity
  8
部品1
100
AcDbLine
 10
10495.21699759334
 20
4432.938397165364
 30
0.0
 11
10495.21699759334
 21
4427.938397165364
 31
0.0
  0
LINE
  5
18402
330
747D
100
AcDbEntity
  8
部品1
100
AcDbLine
 10
8760.216997593344
 20
2642.938397165368
 30
0.0
 11
8788.216997593343
 21
2642.938397165368
 31
0.0
  0
TEXT
  5
18403
330
747D
100
AcDbEntity
  8
部品1
100
AcDbText
 10
9364.007068217077
 20
1611.006604969431
 30
0.0
 40
135.0
  1
正面図
  7
STYLE2
100
AcDbText
  0
DIMENSION
  5
18404
330
747D
100
AcDbEntity
  8
寸法
 48
50.0
100
AcDbDimension
  2
*D2
 10
8660.216997593343
 20
2006.891067864986
 30
0.0
 11
8760.216997593344
 21
2006.891067864986
 31
0.0
 70
   160
 71
     5
 42
200.0000000000018
  3
INABA_S40G
100
AcDbAlignedDimension
 13
8860.216997593346
 23
2292.938397165363
 33
0.0
 14
8660.216997593343
 24
2292.938397165363
 34
0.0
100
AcDbRotatedDimension
  0
LINE
  5
18405
330
747D
100
AcDbEntity
  8
破線
 48
5.0
100
AcDbLine
 10
8755.216997593343
 20
2492.938397165364
 30
0.0
 11
8755.216997593343
 21
2337.938397165366
 31
0.0
  0
LINE
  5
18406
330
747D
100
AcDbEntity
  8
破線
 48
5.0
100
AcDbLine
 10
10555.21699759334
 20
2492.938397165364
 30
0.0
 11
10555.21699759334
 21
2337.938397165364
 31
0.0
  0
LINE
  5
18407
330
747D
100
AcDbEntity
  8
破線
 48
5.0
100
AcDbLine
 10
8860.216997593344
 20
2492.938397165366
 30
0.0
 11
8860.216997593344
 21
2292.938397165364
 31
0.0
  0
LINE
  5
18408
330
747D
100
AcDbEntity
  8
破線
 48
5.0
100
AcDbLine
 10
8735.216997593344
 20
2337.938397165366
 30
0.0
 11
8755.216997593345
 21
2337.938397165366
 31
0.0
  0
LINE
  5
18409
330
747D
100
AcDbEntity
  8
破線
 48
5.0
100
AcDbLine
 10
8660.216997593343
 20
2492.938397165366
 30
0.0
 11
8660.216997593343
 21
2292.938397165364
 31
0.0
  0
LINE
  5
1840A
330
747D
100
AcDbEntity
  8
破線
 48
5.0
100
AcDbLine
 10
8660.216997593343
 20
2292.938397165364
 30
0.0
 11
8860.216997593346
 21
2292.938397165364
 31
0.0
  0
LINE
  5
1840B
330
747D
100
AcDbEntity
  8
部品1
100
AcDbLine
 10
8755.216997593343
 20
2637.938397165366
 30
0.0
 11
8755.216997593343
 21
2492.938397165364
 31
0.0
  0
LINE
  5
1840C
330
747D
100
AcDbEntity
  8
破線
 48
5.0
100
AcDbLine
 10
10575.21699759334
 20
2337.938397165364
 30
0.0
 11
10555.21699759334
 21
2337.938397165364
 31
0.0
  0
LINE
  5
1840D
330
747D
100
AcDbEntity
  8
破線
 48
5.0
100
AcDbLine
 10
10650.21699759334
 20
2492.938397165364
 30
0.0
 11
10650.21699759334
 21
2292.938397165363
 31
0.0
  0
LINE
  5
1840E
330
747D
100
AcDbEntity
  8
破線
 48
5.0
100
AcDbLine
 10
10450.21699759334
 20
2492.938397165364
 30
0.0
 11
10450.21699759334
 21
2292.938397165363
 31
0.0
  0
LINE
  5
1840F
330
747D
100
AcDbEntity
  8
破線
 48
5.0
100
AcDbLine
 10
10650.21699759334
 20
2292.938397165363
 30
0.0
 11
10450.21699759334
 21
2292.938397165363
 31
0.0
  0
LINE
  5
18410
330
747D
100
AcDbEntity
  8
部品1
100
AcDbLine
 10
10555.21699759334
 20
2637.938397165366
 30
0.0
 11
10555.21699759334
 21
2492.938397165364
 31
0.0
  0
LINE
  5
18411
330
747D
100
AcDbEntity
  8
部品1
 48
50.0
100
AcDbLine
 10
9755.216997593343
 20
2592.938397165364
 30
0.0
 11
9755.216997593343
 21
2492.938397165364
 31
0.0
  0
LINE
  5
18412
330
747D
100
AcDbEntity
  8
部品1
 48
50.0
100
AcDbLine
 10
9355.216997593343
 20
2592.938397165364
 30
0.0
 11
9355.216997593343
 21
2492.938397165364
 31
0.0
  0
LINE
  5
18413
330
747D
100
AcDbEntity
  8
部品1
100
AcDbLine
 10
8960.216997593343
 20
2592.938397165364
 30
0.0
 11
8960.216997593343
 21
2492.938397165364
 31
0.0
  0
LINE
  5
18414
330
747D
100
AcDbEntity
  8
部品1
100
AcDbLine
 10
10350.21699759334
 20
2592.938397165364
 30
0.0
 11
10350.21699759334
 21
2492.938397165364
 31
0.0
  0
LINE
  5
18415
330
747D
100
AcDbEntity
  8
部品1
100
AcDbLine
 10
10550.21699759334
 20
4487.82020585137
 30
0.0
 11
10550.21699759334
 21
2492.938397165364
 31
0.0
  0
LINE
  5
18416
330
747D
100
AcDbEntity
  8
部品1
100
AcDbLine
 10
8760.216997593344
 20
4524.796916607611
 30
0.0
 11
8760.216997593344
 21
2492.938397165364
 31
0.0
  0
LINE
  5
18417
330
747D
100
AcDbEntity
  8
部品1
100
AcDbLine
 10
8760.216997593344
 20
4432.938397165364
 30
0.0
 11
10550.21699759334
 21
4432.938397165364
 31
0.0
  0
LINE
  5
18418
330
747D
100
AcDbEntity
  8
部品1
100
AcDbLine
 10
8760.216997593344
 20
2592.938397165364
 30
0.0
 11
10550.21699759334
 21
2592.938397165364
 31
0.0
  0
LINE
  5
18419
330
747D
100
AcDbEntity
  8
Ｇ．Ｌ
100
AcDbLine
 10
3192.457609014899
 20
2492.938397165364
 30
0.0
 11
11184.23857136209
 21
2492.938397165364
 31
0.0
  0
TEXT
  5
1841A
330
747D
100
AcDbEntity
  8
文字
 62
     7
 48
50.0
100
AcDbText
 10
13209.4053442172
 20
228.5435242569015
 30
0.0
 40
100.0
  1
○有効開口寸法 ： 950×1725(mm)
  7
STYLE2
100
AcDbText
  0
DIMENSION
  5
1841B
330
747D
100
AcDbEntity
  8
寸法
 48
50.0
100
AcDbDimension
  2
*D3
 10
8760.216997593346
 20
5067.031566504837
 30
0.0
 11
9669.812646269825
 21
5067.031566504837
 31
0.0
 70
   160
  1
柱外寸法<>
 71
     5
 42
1790.0
  3
INABA_S40G
100
AcDbAlignedDimension
 13
10550.21699759334
 23
4614.749076777018
 33
0.0
 14
8760.216997593346
 24
4663.940015288341
 34
0.0
100
AcDbRotatedDimension
1001
ACAD
1000
DSTYLE
1002
{
1070
   174
1070
     0
1070
   272
1070
     1
1070
   288
1070
     0
1070
   341
1005
0
1002
}
  0
DIMENSION
  5
1841C
330
747D
100
AcDbEntity
  8
寸法
 48
50.0
100
AcDbDimension
  2
*D4
 10
8700.216997593347
 20
5067.031566504837
 30
0.0
 11
8390.579202317757
 21
5067.031566504837
 31
0.0
 70
   160
 71
     5
 42
60.0
  3
INABA_S40G
100
AcDbAlignedDimension
 13
8760.216997593346
 23
4663.940015288341
 33
0.0
 14
8700.216997593347
 24
4667.938397165368
 34
0.0
100
AcDbRotatedDimension
1001
ACAD
1000
DSTYLE
1002
{
1070
   174
1070
     0
1070
   272
1070
     1
1070
   288
1070
     0
1070
   341
1005
0
1002
}
  0
DIMENSION
  5
1841D
330
747D
100
AcDbEntity
  8
寸法
 48
50.0
100
AcDbDimension
  2
*D5
 10
8700.216997593347
 20
5283.557666123282
 30
0.0
 11
9606.022748844315
 21
5283.557666123282
 31
0.0
 70
   160
 71
     5
 42
1930.0
  3
INABA_S40G
100
AcDbAlignedDimension
 13
10630.21699759334
 23
4612.938397165365
 33
0.0
 14
8700.216997593347
 24
4667.938397165368
 34
0.0
100
AcDbRotatedDimension
1001
ACAD
1000
DSTYLE
1002
{
1070
   174
1070
     0
1070
   272
1070
     1
1070
   288
1070
     0
1070
   341
1005
0
1002
}
  0
DIMENSION
  5
1841E
330
747D
100
AcDbEntity
  8
寸法
 48
50.0
100
AcDbDimension
  2
*D6
 10
10630.21699759334
 20
5067.031566504837
 30
0.0
 11
10836.26424168783
 21
5067.031566504837
 31
0.0
 70
   160
 71
     5
 42
80.0
  3
INABA_S40G
100
AcDbAlignedDimension
 13
10550.21699759334
 23
4614.749076777018
 33
0.0
 14
10630.21699759334
 24
4612.938397165365
 34
0.0
100
AcDbRotatedDimension
1001
ACAD
1000
DSTYLE
1002
{
1070
   174
1070
     0
1070
   272
1070
     1
1070
   288
1070
     0
1070
   341
1005
0
1002
}
  0
TEXT
  5
1841F
330
747D
100
AcDbEntity
  8
部品1
 48
50.0
100
AcDbText
 10
9493.484832817072
 20
4834.690558419077
 30
0.0
 40
120.0
  1
1000
  7
STYLE1
100
AcDbText
  0
LINE
  5
18420
330
747D
100
AcDbEntity
  8
部品1
 48
50.0
100
AcDbLine
 10
9505.216997593345
 20
4798.806536266644
 30
0.0
 11
9805.216997593346
 21
4798.806536266644
 31
0.0
  0
LINE
  5
18421
330
747D
100
AcDbEntity
  8
部品1
 48
50.0
100
AcDbLine
 10
9805.216997593346
 20
4798.806536266644
 30
0.0
 11
9805.216997593346
 21
4782.606536266644
 31
0.0
  0
TEXT
  5
18422
330
747D
100
AcDbEntity
  8
部品1
 48
50.0
100
AcDbText
 10
9982.309844881207
 20
4697.189300200794
 30
0.0
 40
120.0
  1
54
 50
90.0
  7
STYLE1
100
AcDbText
  0
LINE
  5
18423
330
747D
100
AcDbEntity
  8
部品1
 48
50.0
100
AcDbLine
 10
9505.216997593345
 20
4798.806536266644
 30
0.0
 11
9805.216997593346
 21
4782.606536266644
 31
0.0
  0
LINE
  5
18424
330
747D
100
AcDbEntity
  8
部品1
100
AcDbLine
 10
8707.761983950307
 20
4666.656132499631
 30
0.0
 11
10622.82887445481
 21
4611.579194874503
 31
0.0
  0
LINE
  5
18425
330
747D
100
AcDbEntity
  8
部品1
100
AcDbLine
 10
8715.5595621953
 20
4525.719422234331
 30
0.0
 11
10604.88069813319
 21
4486.690997000126
 31
0.0
  0
LINE
  5
18426
330
747D
100
AcDbEntity
  8
細線
 48
50.0
100
AcDbLine
 10
8701.256420694159
 20
4638.955479006727
 30
0.0
 11
10626.89240543932
 21
4583.331274365897
 31
0.0
  0
LINE
  5
18427
330
747D
100
AcDbEntity
  8
細線
 48
50.0
100
AcDbLine
 10
8706.016895931446
 20
4546.093967308862
 30
0.0
 11
10616.02056036208
 21
4506.284648334369
 31
0.0
  0
LINE
  5
18428
330
747D
100
AcDbEntity
  8
細線
 48
50.0
100
AcDbLine
 10
8733.216997593347
 20
4665.33807354077
 30
0.0
 11
8727.927896037837
 21
4525.252440913415
 31
0.0
  0
LINE
  5
18429
330
747D
100
AcDbEntity
  8
部品1
 48
50.0
100
AcDbLine
 10
8700.401283506453
 20
4659.531943330057
 30
0.0
 11
8700.781543284266
 21
4639.604978883646
 31
0.0
  0
LINE
  5
1842A
330
747D
100
AcDbEntity
  8
部品1
 48
50.0
100
AcDbLine
 10
8703.850315390509
 20
4636.029697390173
 30
0.0
 11
8705.554216881877
 21
4546.739200683525
 31
0.0
  0
LINE
  5
1842B
330
747D
100
AcDbEntity
  8
部品1
 48
50.0
100
AcDbLine
 10
8708.622988988116
 20
4543.163919190054
 30
0.0
 11
8708.824941608549
 21
4532.580883796962
 31
0.0
  0
ARC
  5
1842C
330
747D
100
AcDbEntity
  8
部品1
 48
50.0
100
AcDbCircle
 10
8707.400009334792
 20
4659.665497737485
 30
0.0
 40
7.0
100
AcDbArc
 50
87.03587545303976
 51
181.0932240292635
  0
ARC
  5
1842D
330
747D
100
AcDbEntity
  8
部品1
 48
50.0
100
AcDbCircle
 10
8715.823667436888
 20
4532.714438204389
 30
0.0
 40
7.0
100
AcDbArc
 50
181.0932240293156
 51
267.8377559869489
  0
ARC
  5
1842E
330
747D
100
AcDbEntity
  8
部品1
100
AcDbCircle
 10
8705.623535061684
 20
4543.106681586871
 30
0.0
 40
3.0
100
AcDbArc
 50
1.093224029315636
 51
80.18775403148559
  0
ARC
  5
1842F
330
747D
100
AcDbEntity
  8
部品1
100
AcDbCircle
 10
8700.850861464081
 20
4635.97245978699
 30
0.0
 40
3.0
100
AcDbArc
 50
1.093224029263536
 51
80.18775403148559
  0
ARC
  5
18430
330
747D
100
AcDbEntity
  8
部品1
100
AcDbCircle
 10
8701.481415867101
 20
4639.618334324387
 30
0.0
 40
0.7
100
AcDbArc
 50
181.0932240292114
 51
260.1877540314855
  0
ARC
  5
18431
330
747D
100
AcDbEntity
  8
部品1
100
AcDbCircle
 10
8706.25408946471
 20
4546.752556124269
 30
0.0
 40
0.7
100
AcDbArc
 50
181.0932240292114
 51
260.1877540314855
  0
LINE
  5
18432
330
747D
100
AcDbEntity
  8
細線
 48
50.0
100
AcDbLine
 10
10597.21699759334
 20
4612.90537620066
 30
0.0
 11
10592.46931470534
 21
4487.159603709915
 31
0.0
  0
LINE
  5
18433
330
747D
100
AcDbEntity
  8
部品1
 48
50.0
100
AcDbLine
 10
10629.43090040404
 20
4603.879549439581
 30
0.0
 11
10627.40027921307
 21
4583.934508181803
 31
0.0
  0
LINE
  5
18434
330
747D
100
AcDbEntity
  8
部品1
 48
50.0
100
AcDbLine
 10
10624.04771272859
 20
4580.623874108892
 30
0.0
 11
10616.54093346376
 21
4506.891253363881
 31
0.0
  0
LINE
  5
18435
330
747D
100
AcDbEntity
  8
部品1
 48
50.0
100
AcDbLine
 10
10613.18836697927
 20
4503.580619290969
 30
0.0
 11
10612.10880393953
 21
4492.97700229741
 31
0.0
  0
ARC
  5
18436
330
747D
100
AcDbEntity
  8
部品1
 48
50.0
100
AcDbCircle
 10
10622.46689983929
 20
4604.588560112357
 30
0.0
 40
7.0
100
AcDbArc
 50
354.1866997665078
 51
87.03587545303976
  0
ARC
  5
18437
330
747D
100
AcDbEntity
  8
部品1
 48
50.0
100
AcDbCircle
 10
10605.14480337477
 20
4493.686012970185
 30
0.0
 40
7.0
100
AcDbArc
 50
267.8377559869489
 51
354.1866997665596
  0
ARC
  5
18438
330
747D
100
AcDbEntity
  8
部品1
100
AcDbCircle
 10
10616.17293864988
 20
4503.276757574066
 30
0.0
 40
3.0
100
AcDbArc
 50
95.0921697642102
 51
174.1866997665596
  0
ARC
  5
18439
330
747D
100
AcDbEntity
  8
部品1
100
AcDbCircle
 10
10627.0322843992
 20
4580.32001239199
 30
0.0
 40
3.0
100
AcDbArc
 50
95.09216976441955
 51
174.1866997665596
  0
ARC
  5
1843A
330
747D
100
AcDbEntity
  8
部品1
100
AcDbCircle
 10
10626.7038791566
 20
4584.005409249079
 30
0.0
 40
0.7
100
AcDbArc
 50
275.0921697642102
 51
354.1866997665596
  0
ARC
  5
1843B
330
747D
100
AcDbEntity
  8
部品1
100
AcDbCircle
 10
10615.84453340728
 20
4506.962154431156
 30
0.0
 40
0.7
100
AcDbArc
 50
275.0921697642102
 51
354.1866997667087
  0
DIMENSION
  5
1843C
330
747D
100
AcDbEntity
  8
寸法
100
AcDbDimension
  2
*D7
 10
7851.577615663984
 20
4667.938397165368
 30
0.0
 11
7851.577615663984
 21
3587.144274658475
 31
0.0
 70
   160
 71
     5
 42
2075.000000000005
  3
INABA_S40G
100
AcDbAlignedDimension
 13
8760.216997593344
 23
2592.938397165364
 33
0.0
 14
8700.216997593342
 24
4667.938397165368
 34
0.0
 50
90.0
100
AcDbRotatedDimension
1001
ACAD
1000
DSTYLE
1002
{
1070
   174
1070
     0
1070
   272
1070
     1
1070
   288
1070
     0
1070
   341
1005
0
1002
}
  0
DIMENSION
  5
1843D
330
747D
100
AcDbEntity
  8
寸法
100
AcDbDimension
  2
*D8
 10
8136.564288435046
 20
2642.938397165365
 30
0.0
 11
8136.564288435044
 21
3533.392695707322
 31
0.0
 70
   160
 71
     5
 42
1790.0
  3
INABA_S40G
100
AcDbAlignedDimension
 13
8760.216997593344
 23
4432.938397165364
 33
0.0
 14
8760.216997593344
 24
2642.938397165365
 34
0.0
 50
90.0
100
AcDbRotatedDimension
1001
ACAD
1000
DSTYLE
1002
{
1070
   174
1070
     0
1070
   272
1070
     1
1070
   288
1070
     0
1070
   341
1005
0
1002
}
  0
DIMENSION
  5
1843E
330
747D
100
AcDbEntity
  8
寸法
100
AcDbDimension
  2
*D9
 10
8136.564288435046
 20
2592.938397165364
 30
0.0
 11
8136.564288435044
 21
2286.891153070874
 31
0.0
 70
   160
 71
     5
 42
50.0
  3
INABA_S40G
100
AcDbAlignedDimension
 13
8760.216997593344
 23
2642.938397165365
 33
0.0
 14
8705.216997593344
 24
2592.938397165364
 34
0.0
 50
90.0
100
AcDbRotatedDimension
1001
ACAD
1000
DSTYLE
1002
{
1070
   174
1070
     0
1070
   272
1070
     1
1070
   288
1070
     0
1070
   341
1005
0
1002
}
  0
DIMENSION
  5
1843F
330
747D
100
AcDbEntity
  8
寸法
100
AcDbDimension
  2
*D10
 10
7851.577615663984
 20
2492.938397165364
 30
0.0
 11
7851.577615663984
 21
2256.891153070874
 31
0.0
 70
   160
 71
     5
 42
100.0
  3
INABA_S40G
100
AcDbAlignedDimension
 13
8705.216997593344
 23
2592.938397165364
 33
0.0
 14
8136.564288435044
 24
2492.938397165364
 34
0.0
 50
90.0
100
AcDbRotatedDimension
1001
ACAD
1000
DSTYLE
1002
{
1070
   174
1070
     0
1070
   272
1070
     1
1070
   288
1070
     0
1070
   341
1005
0
1002
}
  0
DIMENSION
  5
18440
330
747D
100
AcDbEntity
  8
寸法
100
AcDbDimension
  2
*D11
 10
11085.38709335577
 20
4612.938397165366
 30
0.0
 11
11085.38709335576
 21
3575.194724595053
 31
0.0
 70
   160
 71
     5
 42
2020.000000000003
  3
INABA_S40G
100
AcDbAlignedDimension
 13
10550.21699759334
 23
2592.938397165364
 33
0.0
 14
10630.21699759332
 24
4612.938397165366
 34
0.0
 50
90.0
100
AcDbRotatedDimension
1001
ACAD
1000
DSTYLE
1002
{
1070
   174
1070
     0
1070
   272
1070
     1
1070
   288
1070
     0
1070
   341
1005
0
1002
}
  0
ARC
  5
188ED
330
747D
100
AcDbEntity
  8
部品1
100
AcDbCircle
 10
6700.711547149653
 20
4660.938397165369
 30
0.0
 40
7.0
100
AcDbArc
 50
356.7526572096623
 51
90.0
  0
ARC
  5
188EE
330
747D
100
AcDbEntity
  8
部品1
100
AcDbCircle
 10
6687.496223688619
 20
4533.93839716537
 30
0.0
 40
7.0
100
AcDbArc
 50
270.0
 51
356.7526572096623
  0
ARC
  5
188EF
330
747D
100
AcDbEntity
  8
部品1
 48
50.0
100
AcDbCircle
 10
6705.868033899299
 20
4640.605396327054
 30
0.0
 40
0.7
100
AcDbArc
 50
277.6581272073652
 51
356.7526572096103
  0
ARC
  5
188F0
330
747D
100
AcDbEntity
  8
部品1
 48
50.0
100
AcDbCircle
 10
6697.632003374454
 20
4548.405396327051
 30
0.0
 40
0.7
100
AcDbArc
 50
277.6581272073652
 51
356.7526572096623
  0
ARC
  5
188F1
330
747D
100
AcDbEntity
  8
部品1
 48
50.0
100
AcDbCircle
 10
6698.125072483015
 20
4544.738397165366
 30
0.0
 40
3.0
100
AcDbArc
 50
97.65812720736519
 51
176.7526572096623
  0
ARC
  5
188F2
330
747D
100
AcDbEntity
  8
部品1
 48
50.0
100
AcDbCircle
 10
6706.361103007859
 20
4636.93839716537
 30
0.0
 40
3.0
100
AcDbArc
 50
97.65812720736519
 51
176.7526572096623
  0
LINE
  5
188F3
330
747D
100
AcDbEntity
  8
部品1
100
AcDbLine
 10
6703.365920111673
 20
4637.108336620472
 30
0.0
 11
6698.330879383561
 21
4548.365743787527
 31
0.0
  0
LINE
  5
188F4
330
747D
100
AcDbEntity
  8
部品1
100
AcDbLine
 10
6695.129889586829
 20
4544.908336620469
 30
0.0
 11
6694.484983779718
 21
4533.541871770129
 31
0.0
  0
LINE
  5
188F5
330
747D
100
AcDbEntity
  8
細線
 48
50.0
100
AcDbLine
 10
6675.119968256085
 20
4667.938397165368
 30
0.0
 11
6675.119968256085
 21
4526.938397165369
 31
0.0
  0
LINE
  5
188F6
330
747D
100
AcDbEntity
  8
部品1
100
AcDbLine
 10
6707.700307240752
 20
4660.54187177013
 30
0.0
 11
6706.566909908406
 21
4640.565743787529
 31
0.0
  0
DIMENSION
  5
188F7
330
747D
100
AcDbEntity
  8
寸法
 48
50.0
100
AcDbDimension
  2
*D13
 10
6658.119968256085
 20
5072.558656592637
 30
0.0
 11
7021.605249630322
 21
5072.558656592637
 31
0.0
 70
   160
 71
     5
 42
50.0
  3
INABA_S40G
100
AcDbAlignedDimension
 13
6708.119968256085
 23
4667.938397165367
 33
0.0
 14
6658.119968256085
 24
4667.93839716537
 34
0.0
100
AcDbRotatedDimension
  0
ARC
  5
188F8
330
747D
100
AcDbEntity
  8
部品1
 48
0.01
100
AcDbCircle
 10
5026.119968256082
 20
4465.438397165364
 30
0.0
 40
2.0
100
AcDbArc
 50
270.0
 51
0.0
  0
ARC
  5
188F9
330
747D
100
AcDbEntity
  8
部品1
 48
0.01
100
AcDbCircle
 10
5026.119968256083
 20
4496.938397165364
 30
0.0
 40
2.0
100
AcDbArc
 50
0.0
 51
90.0
  0
ARC
  5
188FA
330
747D
100
AcDbEntity
  8
部品1
 48
0.01
100
AcDbCircle
 10
4850.119968256084
 20
4465.438397165364
 30
0.0
 40
2.0
100
AcDbArc
 50
180.0
 51
270.0
  0
ARC
  5
188FB
330
747D
100
AcDbEntity
  8
部品1
 48
0.01
100
AcDbCircle
 10
4850.119968256084
 20
4496.938397165364
 30
0.0
 40
2.0
100
AcDbArc
 50
90.0
 51
180.0
  0
LINE
  5
188FC
330
747D
100
AcDbEntity
  8
細線
100
AcDbLine
 10
4938.119968256081
 20
4469.438397165364
 30
0.0
 11
5012.119968256083
 21
4469.438397165364
 31
0.0
  0
LINE
  5
188FD
330
747D
100
AcDbEntity
  8
細線
100
AcDbLine
 10
4938.119968256084
 20
4492.438397165364
 30
0.0
 11
4864.119968256083
 21
4492.438397165364
 31
0.0
  0
LINE
  5
188FE
330
747D
100
AcDbEntity
  8
細線
100
AcDbLine
 10
4864.119968256083
 20
4469.438397165364
 30
0.0
 11
4938.119968256084
 21
4469.438397165364
 31
0.0
  0
LINE
  5
188FF
330
747D
100
AcDbEntity
  8
細線
100
AcDbLine
 10
5012.119968256083
 20
4492.438397165364
 30
0.0
 11
4938.119968256084
 21
4492.438397165364
 31
0.0
  0
LINE
  5
18900
330
747D
100
AcDbEntity
  8
細線
100
AcDbLine
 10
5012.119968256083
 20
4469.438397165364
 30
0.0
 11
5012.119968256083
 21
4492.438397165364
 31
0.0
  0
LINE
  5
18901
330
747D
100
AcDbEntity
  8
細線
100
AcDbLine
 10
4864.119968256083
 20
4492.438397165364
 30
0.0
 11
4864.119968256083
 21
4469.438397165364
 31
0.0
  0
LINE
  5
18902
330
747D
100
AcDbEntity
  8
部品1
 48
0.01
100
AcDbLine
 10
5028.119968256081
 20
4465.438397165364
 30
0.0
 11
5028.119968256084
 21
4496.938397165364
 31
0.0
  0
LINE
  5
18903
330
747D
100
AcDbEntity
  8
部品1
 48
0.01
100
AcDbLine
 10
4850.119968256084
 20
4463.438397165364
 30
0.0
 11
5026.119968256082
 21
4463.438397165364
 31
0.0
  0
LINE
  5
18904
330
747D
100
AcDbEntity
  8
部品1
 48
0.01
100
AcDbLine
 10
4848.119968256083
 20
4496.938397165364
 30
0.0
 11
4848.119968256083
 21
4465.438397165364
 31
0.0
  0
LINE
  5
18905
330
747D
100
AcDbEntity
  8
部品1
 48
0.01
100
AcDbLine
 10
5026.119968256083
 20
4498.938397165364
 30
0.0
 11
4850.119968256084
 21
4498.938397165364
 31
0.0
  0
LINE
  5
18906
330
747D
100
AcDbEntity
  8
細線
100
AcDbLine
 10
4864.119968256083
 20
4486.438397165364
 30
0.0
 11
4938.119968256084
 21
4486.438397165364
 31
0.0
  0
LINE
  5
18907
330
747D
100
AcDbEntity
  8
細線
100
AcDbLine
 10
4864.119968256083
 20
4480.438397165364
 30
0.0
 11
4938.119968256084
 21
4480.438397165364
 31
0.0
  0
LINE
  5
18908
330
747D
100
AcDbEntity
  8
細線
100
AcDbLine
 10
4864.119968256082
 20
4474.438397165363
 30
0.0
 11
4938.119968256084
 21
4474.438397165363
 31
0.0
  0
LINE
  5
18909
330
747D
100
AcDbEntity
  8
細線
100
AcDbLine
 10
4864.119968256083
 20
4486.438397165364
 30
0.0
 11
4933.119968256083
 21
4486.438397165364
 31
0.0
  0
LINE
  5
1890A
330
747D
100
AcDbEntity
  8
細線
100
AcDbLine
 10
5012.119968256082
 20
4486.438397165363
 30
0.0
 11
4938.119968256084
 21
4486.438397165364
 31
0.0
  0
LINE
  5
1890B
330
747D
100
AcDbEntity
  8
細線
100
AcDbLine
 10
5012.119968256082
 20
4474.438397165363
 30
0.0
 11
4938.119968256084
 21
4474.438397165363
 31
0.0
  0
LINE
  5
1890C
330
747D
100
AcDbEntity
  8
細線
100
AcDbLine
 10
5012.119968256082
 20
4480.438397165364
 30
0.0
 11
4938.119968256084
 21
4480.438397165364
 31
0.0
  0
LINE
  5
1890D
330
747D
100
AcDbEntity
  8
細線
100
AcDbLine
 10
4938.119968256084
 20
4492.438397165364
 30
0.0
 11
4938.119968256081
 21
4469.438397165364
 31
0.0
  0
LINE
  5
1890E
330
747D
100
AcDbEntity
  8
部品1
 48
0.01
100
AcDbLine
 10
6258.119968256083
 20
4496.938397165364
 30
0.0
 11
6258.119968256083
 21
4465.438397165364
 31
0.0
  0
LINE
  5
1890F
330
747D
100
AcDbEntity
  8
部品1
 48
0.01
100
AcDbLine
 10
6256.119968256084
 20
4463.438397165364
 30
0.0
 11
6080.119968256084
 21
4463.438397165364
 31
0.0
  0
LINE
  5
18910
330
747D
100
AcDbEntity
  8
部品1
 48
0.01
100
AcDbLine
 10
6078.119968256084
 20
4465.438397165364
 30
0.0
 11
6078.119968256084
 21
4496.938397165364
 31
0.0
  0
ARC
  5
18911
330
747D
100
AcDbEntity
  8
部品1
 48
0.01
100
AcDbCircle
 10
6256.119968256084
 20
4465.438397165364
 30
0.0
 40
2.0
100
AcDbArc
 50
270.0
 51
0.0
  0
ARC
  5
18912
330
747D
100
AcDbEntity
  8
部品1
 48
0.01
100
AcDbCircle
 10
6080.119968256084
 20
4465.438397165364
 30
0.0
 40
2.0
100
AcDbArc
 50
180.0
 51
270.0
  0
LINE
  5
18913
330
747D
100
AcDbEntity
  8
細線
100
AcDbLine
 10
6168.119968256084
 20
4492.438397165364
 30
0.0
 11
6168.119968256084
 21
4469.438397165364
 31
0.0
  0
LINE
  5
18914
330
747D
100
AcDbEntity
  8
細線
100
AcDbLine
 10
6094.119968256084
 20
4480.438397165364
 30
0.0
 11
6168.119968256084
 21
4480.438397165364
 31
0.0
  0
LINE
  5
18915
330
747D
100
AcDbEntity
  8
細線
100
AcDbLine
 10
6094.119968256084
 20
4474.438397165363
 30
0.0
 11
6168.119968256084
 21
4474.438397165363
 31
0.0
  0
LINE
  5
18916
330
747D
100
AcDbEntity
  8
細線
100
AcDbLine
 10
6094.119968256084
 20
4486.438397165363
 30
0.0
 11
6168.119968256084
 21
4486.438397165364
 31
0.0
  0
LINE
  5
18917
330
747D
100
AcDbEntity
  8
細線
100
AcDbLine
 10
6242.119968256083
 20
4486.438397165364
 30
0.0
 11
6173.119968256084
 21
4486.438397165364
 31
0.0
  0
LINE
  5
18918
330
747D
100
AcDbEntity
  8
細線
100
AcDbLine
 10
6242.119968256083
 20
4474.438397165363
 30
0.0
 11
6168.119968256084
 21
4474.438397165363
 31
0.0
  0
LINE
  5
18919
330
747D
100
AcDbEntity
  8
細線
100
AcDbLine
 10
6242.119968256083
 20
4480.438397165364
 30
0.0
 11
6168.119968256084
 21
4480.438397165364
 31
0.0
  0
LINE
  5
1891A
330
747D
100
AcDbEntity
  8
細線
100
AcDbLine
 10
6242.119968256083
 20
4486.438397165364
 30
0.0
 11
6168.119968256084
 21
4486.438397165364
 31
0.0
  0
LINE
  5
1891B
330
747D
100
AcDbEntity
  8
部品1
 48
0.01
100
AcDbLine
 10
6080.119968256084
 20
4498.938397165364
 30
0.0
 11
6256.119968256084
 21
4498.938397165364
 31
0.0
  0
LINE
  5
1891C
330
747D
100
AcDbEntity
  8
細線
100
AcDbLine
 10
6242.119968256083
 20
4492.438397165364
 30
0.0
 11
6242.119968256083
 21
4469.438397165364
 31
0.0
  0
LINE
  5
1891D
330
747D
100
AcDbEntity
  8
細線
100
AcDbLine
 10
6094.119968256084
 20
4469.438397165364
 30
0.0
 11
6094.119968256084
 21
4492.438397165364
 31
0.0
  0
LINE
  5
1891E
330
747D
100
AcDbEntity
  8
細線
100
AcDbLine
 10
6094.119968256084
 20
4492.438397165364
 30
0.0
 11
6168.119968256084
 21
4492.438397165364
 31
0.0
  0
LINE
  5
1891F
330
747D
100
AcDbEntity
  8
細線
100
AcDbLine
 10
6242.119968256083
 20
4469.438397165364
 30
0.0
 11
6168.119968256084
 21
4469.438397165364
 31
0.0
  0
LINE
  5
18920
330
747D
100
AcDbEntity
  8
細線
100
AcDbLine
 10
6168.119968256084
 20
4492.438397165364
 30
0.0
 11
6242.119968256083
 21
4492.438397165364
 31
0.0
  0
LINE
  5
18921
330
747D
100
AcDbEntity
  8
細線
100
AcDbLine
 10
6168.119968256084
 20
4469.438397165364
 30
0.0
 11
6094.119968256084
 21
4469.438397165364
 31
0.0
  0
ARC
  5
18922
330
747D
100
AcDbEntity
  8
部品1
 48
0.01
100
AcDbCircle
 10
6256.119968256084
 20
4496.938397165364
 30
0.0
 40
2.0
100
AcDbArc
 50
0.0
 51
90.0
  0
ARC
  5
18923
330
747D
100
AcDbEntity
  8
部品1
 48
0.01
100
AcDbCircle
 10
6080.119968256084
 20
4496.938397165364
 30
0.0
 40
2.0
100
AcDbArc
 50
90.0
 51
180.0
  0
LINE
  5
18924
330
747D
100
AcDbEntity
  8
部品1
100
AcDbLine
 10
4398.539629271415
 20
4660.54187177013
 30
0.0
 11
4399.673026603763
 21
4640.565743787529
 31
0.0
  0
LINE
  5
18925
330
747D
100
AcDbEntity
  8
部品1
100
AcDbLine
 10
4411.110046925339
 20
4544.908336620469
 30
0.0
 11
4411.754952732448
 21
4533.541871770129
 31
0.0
  0
LINE
  5
18926
330
747D
100
AcDbEntity
  8
部品1
100
AcDbLine
 10
4402.874016400492
 20
4637.108336620472
 30
0.0
 11
4407.909057128603
 21
4548.365743787527
 31
0.0
  0
ARC
  5
18927
330
747D
100
AcDbEntity
  8
部品1
 48
50.0
100
AcDbCircle
 10
4399.878833504308
 20
4636.93839716537
 30
0.0
 40
3.0
100
AcDbArc
 50
3.247342790337682
 51
82.3418727926348
  0
ARC
  5
18928
330
747D
100
AcDbEntity
  8
部品1
 48
50.0
100
AcDbCircle
 10
4408.11486402915
 20
4544.738397165366
 30
0.0
 40
3.0
100
AcDbArc
 50
3.247342790337682
 51
82.3418727926348
  0
ARC
  5
18929
330
747D
100
AcDbEntity
  8
部品1
 48
50.0
100
AcDbCircle
 10
4408.607933137711
 20
4548.405396327051
 30
0.0
 40
0.7
100
AcDbArc
 50
183.2473427903377
 51
262.3418727926349
  0
ARC
  5
1892A
330
747D
100
AcDbEntity
  8
部品1
 48
50.0
100
AcDbCircle
 10
4400.371902612871
 20
4640.605396327054
 30
0.0
 40
0.7
100
AcDbArc
 50
183.2473427903897
 51
262.3418727926349
  0
ARC
  5
1892B
330
747D
100
AcDbEntity
  8
部品1
100
AcDbCircle
 10
4418.743712823547
 20
4533.93839716537
 30
0.0
 40
7.0
100
AcDbArc
 50
183.2473427903377
 51
270.0
  0
ARC
  5
1892C
330
747D
100
AcDbEntity
  8
部品1
100
AcDbCircle
 10
4405.528389362515
 20
4660.938397165369
 30
0.0
 40
7.0
100
AcDbArc
 50
90.0
 51
183.2473427903377
  0
LINE
  5
1892D
330
747D
100
AcDbEntity
  8
細線
 48
50.0
100
AcDbLine
 10
4431.119968256084
 20
4667.938397165368
 30
0.0
 11
4431.119968256084
 21
4526.938397165369
 31
0.0
  0
LINE
  5
1892E
330
747D
100
AcDbEntity
  8
細線
 48
50.0
100
AcDbLine
 10
6697.844399509799
 20
4547.738397165364
 30
0.0
 11
4408.39553700235
 21
4547.73839716537
 31
0.0
  0
LINE
  5
1892F
330
747D
100
AcDbEntity
  8
細線
 48
50.0
100
AcDbLine
 10
6706.080430034646
 20
4639.938397165368
 30
0.0
 11
4400.159506477523
 21
4639.938397165367
 31
0.0
  0
LINE
  5
18930
330
747D
100
AcDbEntity
  8
部品1
 48
50.0
100
AcDbLine
 10
6687.496223688619
 20
4526.938397165372
 30
0.0
 11
4418.743712823547
 21
4526.938397165369
 31
0.0
  0
LINE
  5
18931
330
747D
100
AcDbEntity
  8
部品1
 48
50.0
100
AcDbLine
 10
6700.711547149653
 20
4667.938397165367
 30
0.0
 11
4405.528389362515
 21
4667.938397165371
 31
0.0
  0
DIMENSION
  5
18932
330
747D
100
AcDbEntity
  8
寸法
 48
50.0
100
AcDbDimension
  2
*D14
 10
4448.119968256083
 20
5072.558656592637
 30
0.0
 11
5553.119968256083
 21
5072.558656592637
 31
0.0
 70
   160
  1
柱外寸法<>
 71
     5
 42
2210.000000000002
  3
INABA_S40G
100
AcDbAlignedDimension
 13
6658.119968256085
 23
4667.93839716537
 33
0.0
 14
4448.119968256083
 24
4667.938397165371
 34
0.0
100
AcDbRotatedDimension
  0
DIMENSION
  5
18933
330
747D
100
AcDbEntity
  8
寸法
 48
50.0
100
AcDbDimension
  2
*D15
 10
4398.119968256083
 20
5072.558656592637
 30
0.0
 11
4084.634686881837
 21
5072.558656592637
 31
0.0
 70
   160
 71
     5
 42
50.0
  3
INABA_S40G
100
AcDbAlignedDimension
 13
4448.119968256083
 23
4667.938397165371
 33
0.0
 14
4398.119968256083
 24
4667.93839716537
 34
0.0
100
AcDbRotatedDimension
1001
ACAD
1000
DSTYLE
1002
{
1002
}
  0
DIMENSION
  5
18934
330
747D
100
AcDbEntity
  8
寸法
 48
50.0
100
AcDbDimension
  2
*D16
 10
6708.119968256085
 20
5282.152531014087
 30
0.0
 11
5553.119968256083
 21
5282.152531014087
 31
0.0
 70
   160
 71
     5
 42
2310.000000000002
  3
INABA_S40G
100
AcDbAlignedDimension
 13
4398.119968256083
 23
4667.93839716537
 33
0.0
 14
6708.119968256085
 24
4667.938397165367
 34
0.0
100
AcDbRotatedDimension
  0
TEXT
  5
18935
330
747D
100
AcDbEntity
  8
部品1
100
AcDbText
 10
3328.280664060603
 20
2529.045300771267
 30
0.0
 40
125.0
  1
▽G.L
  7
STYLE2
100
AcDbText
  0
LINE
  5
18936
330
747D
100
AcDbEntity
  8
部品1
100
AcDbLine
 10
4848.119968256083
 20
2592.938397165366
 30
0.0
 11
4848.119968256083
 21
2492.938397165366
 31
0.0
  0
LINE
  5
18937
330
747D
100
AcDbEntity
  8
部品1
 48
50.0
100
AcDbLine
 10
5453.119968256084
 20
2592.938397165366
 30
0.0
 11
5453.119968256084
 21
2492.938397165366
 31
0.0
  0
LINE
  5
18938
330
747D
100
AcDbEntity
  8
部品1
 48
50.0
100
AcDbLine
 10
5653.119968256084
 20
2592.938397165366
 30
0.0
 11
5653.119968256084
 21
2492.938397165366
 31
0.0
  0
LINE
  5
18939
330
747D
100
AcDbEntity
  8
部品1
100
AcDbLine
 10
6258.119968256083
 20
2592.938397165366
 30
0.0
 11
6258.119968256083
 21
2492.938397165366
 31
0.0
  0
LINE
  5
1893A
330
747D
100
AcDbEntity
  8
部品1
 48
50.0
100
AcDbLine
 10
6735.119968256087
 20
2592.938397165366
 30
0.0
 11
6650.619968256087
 21
2592.938397165366
 31
0.0
  0
LINE
  5
1893B
330
747D
100
AcDbEntity
  8
部品1
 48
50.0
100
AcDbLine
 10
6735.119968256087
 20
4417.938397165366
 30
0.0
 11
6735.119968256087
 21
2492.938397165366
 31
0.0
  0
LINE
  5
1893C
330
747D
100
AcDbEntity
  8
部品1
 48
50.0
100
AcDbLine
 10
6658.119968256087
 20
4427.938397165365
 30
0.0
 11
6735.119968256087
 21
4417.938397165366
 31
0.0
  0
LINE
  5
1893D
330
747D
100
AcDbEntity
  8
破線
 48
5.0
100
AcDbLine
 10
6530.619968256091
 20
2492.938397165366
 30
0.0
 11
6530.619968256091
 21
2292.938397165365
 31
0.0
  0
LINE
  5
1893E
330
747D
100
AcDbEntity
  8
破線
 48
5.0
100
AcDbLine
 10
6730.619968256087
 20
2292.938397165363
 30
0.0
 11
6530.619968256091
 21
2292.938397165365
 31
0.0
  0
LINE
  5
1893F
330
747D
100
AcDbEntity
  8
破線
 48
5.0
100
AcDbLine
 10
6730.619968256092
 20
2492.938397165366
 30
0.0
 11
6730.619968256087
 21
2292.938397165363
 31
0.0
  0
DIMENSION
  5
18940
330
747D
100
AcDbEntity
  8
寸法
 48
50.0
100
AcDbDimension
  2
*D17
 10
4375.619968256088
 20
2006.891067864986
 30
0.0
 11
4475.619968256085
 21
2006.891067864986
 31
0.0
 70
   160
 71
     5
 42
199.9999999999963
  3
INABA_S40G
100
AcDbAlignedDimension
 13
4575.619968256083
 23
2292.938397165363
 33
0.0
 14
4375.619968256088
 24
2292.938397165364
 34
0.0
100
AcDbRotatedDimension
  0
LINE
  5
18941
330
747D
100
AcDbEntity
  8
破線
 48
5.0
100
AcDbLine
 10
4375.619968256084
 20
2492.938397165366
 30
0.0
 11
4375.619968256088
 21
2292.938397165363
 31
0.0
  0
LINE
  5
18942
330
747D
100
AcDbEntity
  8
破線
 48
5.0
100
AcDbLine
 10
4575.619968256083
 20
2492.938397165366
 30
0.0
 11
4575.619968256083
 21
2292.938397165363
 31
0.0
  0
LINE
  5
18943
330
747D
100
AcDbEntity
  8
破線
 48
5.0
100
AcDbLine
 10
4575.619968256083
 20
2292.938397165363
 30
0.0
 11
4375.619968256088
 21
2292.938397165363
 31
0.0
  0
DIMENSION
  5
18944
330
747D
100
AcDbEntity
  8
寸法
 48
50.0
100
AcDbDimension
  2
*D18
 10
4226.11996500945
 20
2492.938397165364
 30
0.0
 11
4226.119965009449
 21
2392.938397165365
 31
0.0
 70
   160
 71
     5
 42
200.0
  3
INABA_S40G
100
AcDbAlignedDimension
 13
4375.619968256088
 23
2292.938397165364
 33
0.0
 14
4350.619968256084
 24
2492.938397165364
 34
0.0
 50
90.0
100
AcDbRotatedDimension
1001
ACAD
1000
DSTYLE
1002
{
1070
   174
1070
     0
1070
   272
1070
     1
1070
   288
1070
     0
1070
   341
1005
0
1002
}
  0
LINE
  5
18945
330
747D
100
AcDbEntity
  8
部品1
100
AcDbLine
 10
6650.619968256084
 20
2592.938397165366
 30
0.0
 11
6658.119968256087
 21
2592.938397165366
 31
0.0
  0
LINE
  5
18946
330
747D
100
AcDbEntity
  8
破線
  6
HIDDEN
 48
5.0
100
AcDbLine
 10
4495.619968256083
 20
2492.938397165366
 30
0.0
 11
4495.619968256083
 21
2487.938397165365
 31
0.0
  0
LINE
  5
18947
330
747D
100
AcDbEntity
  8
破線
  6
HIDDEN
 48
5.0
100
AcDbLine
 10
4455.61996825609
 20
2492.938397165366
 30
0.0
 11
4455.61996825609
 21
2487.938397165365
 31
0.0
  0
LINE
  5
18948
330
747D
100
AcDbEntity
  8
破線
  6
HIDDEN
 48
5.0
100
AcDbLine
 10
6650.619968256084
 20
2492.938397165366
 30
0.0
 11
6650.619968256084
 21
2487.938397165365
 31
0.0
  0
LINE
  5
18949
330
747D
100
AcDbEntity
  8
破線
  6
HIDDEN
 48
5.0
100
AcDbLine
 10
6610.619968256084
 20
2492.938397165366
 30
0.0
 11
6610.619968256084
 21
2487.938397165365
 31
0.0
  0
ARC
  5
1894A
330
747D
100
AcDbEntity
  8
部品1
 48
50.0
100
AcDbCircle
 10
6645.619968256084
 20
2632.938397165365
 30
0.0
 40
5.0
100
AcDbArc
 50
0.0
 51
90.0
  0
ARC
  5
1894B
330
747D
100
AcDbEntity
  8
部品1
 48
50.0
100
AcDbCircle
 10
6615.619968256083
 20
2632.938397165365
 30
0.0
 40
5.0
100
AcDbArc
 50
90.0
 51
180.0
  0
LINE
  5
1894C
330
747D
100
AcDbEntity
  8
部品1
100
AcDbLine
 10
6645.619968256084
 20
2637.938397165366
 30
0.0
 11
6615.619968256083
 21
2637.938397165366
 31
0.0
  0
LINE
  5
1894D
330
747D
100
AcDbEntity
  8
部品1
 48
50.0
100
AcDbLine
 10
6650.619968256084
 20
2632.938397165365
 30
0.0
 11
6650.619968256084
 21
2492.938397165366
 31
0.0
  0
LINE
  5
1894E
330
747D
100
AcDbEntity
  8
部品1
 48
50.0
100
AcDbLine
 10
6610.619968256084
 20
2632.938397165365
 30
0.0
 11
6610.619968256084
 21
2492.938397165366
 31
0.0
  0
ARC
  5
1894F
330
747D
100
AcDbEntity
  8
部品1
 48
50.0
100
AcDbCircle
 10
4490.619968256083
 20
2632.938397165365
 30
0.0
 40
5.0
100
AcDbArc
 50
0.0
 51
90.0
  0
ARC
  5
18950
330
747D
100
AcDbEntity
  8
部品1
 48
50.0
100
AcDbCircle
 10
4460.619968256083
 20
2632.938397165365
 30
0.0
 40
5.0
100
AcDbArc
 50
90.0
 51
180.0
  0
LINE
  5
18951
330
747D
100
AcDbEntity
  8
部品1
100
AcDbLine
 10
4460.619968256083
 20
2637.938397165366
 30
0.0
 11
4490.619968256083
 21
2637.938397165366
 31
0.0
  0
LINE
  5
18952
330
747D
100
AcDbEntity
  8
部品1
 48
50.0
100
AcDbLine
 10
4495.619968256083
 20
2632.938397165365
 30
0.0
 11
4495.619968256083
 21
2492.938397165366
 31
0.0
  0
LINE
  5
18953
330
747D
100
AcDbEntity
  8
部品1
 48
50.0
100
AcDbLine
 10
4455.619968256083
 20
2632.938397165365
 30
0.0
 11
4455.619968256083
 21
2492.938397165366
 31
0.0
  0
LINE
  5
18954
330
747D
100
AcDbEntity
  8
破線
  6
HIDDEN
 48
5.0
100
AcDbLine
 10
4495.619968256083
 20
2487.938397165365
 30
0.0
 11
4510.619968256083
 21
2340.238397165364
 31
0.0
  0
LINE
  5
18955
330
747D
100
AcDbEntity
  8
破線
  6
HIDDEN
 48
5.0
100
AcDbLine
 10
4455.619968256083
 20
2487.938397165365
 30
0.0
 11
4440.619968256084
 21
2340.238397165364
 31
0.0
  0
LINE
  5
18956
330
747D
100
AcDbEntity
  8
破線
  6
HIDDEN
 48
5.0
100
AcDbLine
 10
4510.619968256083
 20
2340.238397165364
 30
0.0
 11
4510.619968256083
 21
2337.938397165365
 31
0.0
  0
LINE
  5
18957
330
747D
100
AcDbEntity
  8
破線
  6
HIDDEN
 48
5.0
100
AcDbLine
 10
4440.619968256084
 20
2340.238397165364
 30
0.0
 11
4440.619968256084
 21
2337.938397165365
 31
0.0
  0
LINE
  5
18958
330
747D
100
AcDbEntity
  8
破線
  6
HIDDEN
 48
5.0
100
AcDbLine
 10
4440.619968256084
 20
2337.938397165365
 30
0.0
 11
4510.619968256083
 21
2337.938397165365
 31
0.0
  0
LINE
  5
18959
330
747D
100
AcDbEntity
  8
破線
  6
HIDDEN
 48
5.0
100
AcDbLine
 10
6665.619968256084
 20
2340.238397165364
 30
0.0
 11
6665.619968256084
 21
2337.938397165365
 31
0.0
  0
LINE
  5
1895A
330
747D
100
AcDbEntity
  8
破線
  6
HIDDEN
 48
5.0
100
AcDbLine
 10
6650.619968256084
 20
2487.938397165365
 30
0.0
 11
6665.619968256084
 21
2340.238397165364
 31
0.0
  0
LINE
  5
1895B
330
747D
100
AcDbEntity
  8
破線
  6
HIDDEN
 48
5.0
100
AcDbLine
 10
6595.619968256084
 20
2340.238397165364
 30
0.0
 11
6595.619968256084
 21
2337.938397165365
 31
0.0
  0
LINE
  5
1895C
330
747D
100
AcDbEntity
  8
破線
  6
HIDDEN
 48
5.0
100
AcDbLine
 10
6610.619968256084
 20
2487.938397165365
 30
0.0
 11
6595.619968256084
 21
2340.238397165364
 31
0.0
  0
LINE
  5
1895D
330
747D
100
AcDbEntity
  8
破線
  6
HIDDEN
 48
5.0
100
AcDbLine
 10
6665.619968256084
 20
2337.938397165365
 30
0.0
 11
6595.619968256084
 21
2337.938397165365
 31
0.0
  0
LINE
  5
1895E
330
747D
100
AcDbEntity
  8
部品1
100
AcDbLine
 10
4448.119968256083
 20
2592.938397165366
 30
0.0
 11
4455.619968256083
 21
2592.938397165366
 31
0.0
  0
LINE
  5
1895F
330
747D
100
AcDbEntity
  8
部品1
100
AcDbLine
 10
5934.855301370304
 20
1803.900134187955
 30
0.0
 11
5171.384635141863
 21
1803.900134187955
 31
0.0
  0
LINE
  5
18960
330
747D
100
AcDbEntity
  8
部品1
100
AcDbLine
 10
5934.855301370304
 20
1564.007812642422
 30
0.0
 11
5934.855301370304
 21
1803.900134187955
 31
0.0
  0
LINE
  5
18961
330
747D
100
AcDbEntity
  8
部品1
100
AcDbLine
 10
5171.384635141863
 20
1564.007812642422
 30
0.0
 11
5934.855301370304
 21
1564.007812642422
 31
0.0
  0
LINE
  5
18962
330
747D
100
AcDbEntity
  8
部品1
100
AcDbLine
 10
5171.384635141863
 20
1803.900134187955
 30
0.0
 11
5171.384635141863
 21
1564.007812642422
 31
0.0
  0
TEXT
  5
18963
330
747D
100
AcDbEntity
  8
部品1
100
AcDbText
 10
5260.830736565471
 20
1611.00660496943
 30
0.0
 40
135.0
  1
側面図
  7
STYLE2
100
AcDbText
  0
LINE
  5
18964
330
747D
100
AcDbEntity
  8
細線
 48
50.0
100
AcDbLine
 10
6525.619968256091
 20
4432.938397165365
 30
0.0
 11
6525.619968256091
 21
2642.938397165365
 31
0.0
  0
LINE
  5
18965
330
747D
100
AcDbEntity
  8
細線
 48
50.0
100
AcDbLine
 10
6540.619968256091
 20
4432.938397165365
 30
0.0
 11
6540.619968256091
 21
2642.938397165365
 31
0.0
  0
LINE
  5
18966
330
747D
100
AcDbEntity
  8
細線
 48
50.0
100
AcDbLine
 10
6400.619968256091
 20
4432.938397165365
 30
0.0
 11
6400.619968256091
 21
2642.938397165365
 31
0.0
  0
LINE
  5
18967
330
747D
100
AcDbEntity
  8
細線
 48
50.0
100
AcDbLine
 10
6385.619968256091
 20
4432.938397165365
 30
0.0
 11
6385.619968256091
 21
2642.938397165365
 31
0.0
  0
LINE
  5
18968
330
747D
100
AcDbEntity
  8
細線
 48
50.0
100
AcDbLine
 10
6245.619968256091
 20
4432.938397165365
 30
0.0
 11
6245.619968256091
 21
2642.938397165365
 31
0.0
  0
LINE
  5
18969
330
747D
100
AcDbEntity
  8
細線
 48
50.0
100
AcDbLine
 10
6260.619968256091
 20
4432.938397165365
 30
0.0
 11
6260.619968256091
 21
2642.938397165365
 31
0.0
  0
LINE
  5
1896A
330
747D
100
AcDbEntity
  8
部品1
100
AcDbLine
 10
5763.119968256084
 20
4432.938397165365
 30
0.0
 11
5763.119968256084
 21
2642.938397165365
 31
0.0
  0
LINE
  5
1896B
330
747D
100
AcDbEntity
  8
細線
 48
50.0
100
AcDbLine
 10
5420.619968256087
 20
4432.938397165365
 30
0.0
 11
5420.619968256087
 21
2642.938397165365
 31
0.0
  0
LINE
  5
1896C
330
747D
100
AcDbEntity
  8
細線
 48
50.0
100
AcDbLine
 10
5405.619968256087
 20
4432.938397165365
 30
0.0
 11
5405.619968256087
 21
2642.938397165365
 31
0.0
  0
LINE
  5
1896D
330
747D
100
AcDbEntity
  8
細線
 48
50.0
100
AcDbLine
 10
5545.619968256087
 20
4432.938397165365
 30
0.0
 11
5545.619968256087
 21
2642.938397165365
 31
0.0
  0
LINE
  5
1896E
330
747D
100
AcDbEntity
  8
細線
 48
50.0
100
AcDbLine
 10
5560.619968256087
 20
4432.938397165365
 30
0.0
 11
5560.619968256087
 21
2642.938397165365
 31
0.0
  0
LINE
  5
1896F
330
747D
100
AcDbEntity
  8
細線
 48
50.0
100
AcDbLine
 10
5700.619968256088
 20
4432.938397165365
 30
0.0
 11
5700.619968256088
 21
2642.938397165365
 31
0.0
  0
LINE
  5
18970
330
747D
100
AcDbEntity
  8
細線
 48
50.0
100
AcDbLine
 10
5685.619968256087
 20
4432.938397165365
 30
0.0
 11
5685.619968256087
 21
2642.938397165365
 31
0.0
  0
LINE
  5
18971
330
747D
100
AcDbEntity
  8
部品1
100
AcDbLine
 10
5343.119968256083
 20
4432.938397165365
 30
0.0
 11
5343.119968256083
 21
2642.938397165365
 31
0.0
  0
LINE
  5
18972
330
747D
100
AcDbEntity
  8
細線
 48
50.0
100
AcDbLine
 10
4580.619968256083
 20
4432.938397165365
 30
0.0
 11
4580.619968256083
 21
2642.938397165365
 31
0.0
  0
LINE
  5
18973
330
747D
100
AcDbEntity
  8
細線
 48
50.0
100
AcDbLine
 10
4565.619968256084
 20
4432.938397165365
 30
0.0
 11
4565.619968256084
 21
2642.938397165365
 31
0.0
  0
LINE
  5
18974
330
747D
100
AcDbEntity
  8
細線
 48
50.0
100
AcDbLine
 10
4705.619968256083
 20
4432.938397165365
 30
0.0
 11
4705.619968256083
 21
2642.938397165365
 31
0.0
  0
LINE
  5
18975
330
747D
100
AcDbEntity
  8
細線
 48
50.0
100
AcDbLine
 10
4720.619968256083
 20
4432.938397165365
 30
0.0
 11
4720.619968256083
 21
2642.938397165365
 31
0.0
  0
LINE
  5
18976
330
747D
100
AcDbEntity
  8
細線
 48
50.0
100
AcDbLine
 10
4860.619968256084
 20
4432.938397165365
 30
0.0
 11
4860.619968256084
 21
2642.938397165365
 31
0.0
  0
LINE
  5
18977
330
747D
100
AcDbEntity
  8
細線
 48
50.0
100
AcDbLine
 10
4845.619968256084
 20
4432.938397165365
 30
0.0
 11
4845.619968256084
 21
2642.938397165365
 31
0.0
  0
LINE
  5
18978
330
747D
100
AcDbEntity
  8
細線
 48
50.0
100
AcDbLine
 10
5265.619968256084
 20
4432.938397165365
 30
0.0
 11
5265.619968256084
 21
2642.938397165365
 31
0.0
  0
LINE
  5
18979
330
747D
100
AcDbEntity
  8
細線
 48
50.0
100
AcDbLine
 10
5280.619968256083
 20
4432.938397165365
 30
0.0
 11
5280.619968256083
 21
2642.938397165365
 31
0.0
  0
LINE
  5
1897A
330
747D
100
AcDbEntity
  8
細線
 48
50.0
100
AcDbLine
 10
5140.619968256084
 20
4432.938397165365
 30
0.0
 11
5140.619968256084
 21
2642.938397165365
 31
0.0
  0
LINE
  5
1897B
330
747D
100
AcDbEntity
  8
細線
 48
50.0
100
AcDbLine
 10
5125.619968256084
 20
4432.938397165365
 30
0.0
 11
5125.619968256084
 21
2642.938397165365
 31
0.0
  0
LINE
  5
1897C
330
747D
100
AcDbEntity
  8
細線
 48
50.0
100
AcDbLine
 10
4985.619968256084
 20
4432.938397165365
 30
0.0
 11
4985.619968256084
 21
2642.938397165365
 31
0.0
  0
LINE
  5
1897D
330
747D
100
AcDbEntity
  8
細線
 48
50.0
100
AcDbLine
 10
5000.619968256084
 20
4432.938397165365
 30
0.0
 11
5000.619968256084
 21
2642.938397165365
 31
0.0
  0
LINE
  5
1897E
330
747D
100
AcDbEntity
  8
部品1
100
AcDbLine
 10
4448.119968256083
 20
2592.938397165366
 30
0.0
 11
4455.619968256083
 21
2592.938397165366
 31
0.0
  0
LINE
  5
1897F
330
747D
100
AcDbEntity
  8
部品1
100
AcDbLine
 10
6603.119968256087
 20
4432.938397165365
 30
0.0
 11
6603.119968256087
 21
2642.938397165365
 31
0.0
  0
LINE
  5
18980
330
747D
100
AcDbEntity
  8
部品1
100
AcDbLine
 10
6658.119968256084
 20
4526.938397165372
 30
0.0
 11
6658.119968256087
 21
2492.938397165366
 31
0.0
  0
LINE
  5
18981
330
747D
100
AcDbEntity
  8
部品1
100
AcDbLine
 10
4923.119968256084
 20
4432.938397165365
 30
0.0
 11
4923.119968256084
 21
2642.938397165365
 31
0.0
  0
LINE
  5
18982
330
747D
100
AcDbEntity
  8
部品1
100
AcDbLine
 10
4448.119968256086
 20
4526.938397165369
 30
0.0
 11
4448.119968256083
 21
2492.938397165366
 31
0.0
  0
LINE
  5
18983
330
747D
100
AcDbEntity
  8
部品1
100
AcDbLine
 10
4503.119968256084
 20
4432.938397165365
 30
0.0
 11
4503.119968256084
 21
2642.938397165365
 31
0.0
  0
LINE
  5
18984
330
747D
100
AcDbEntity
  8
部品1
100
AcDbLine
 10
4448.119968256083
 20
2642.938397165365
 30
0.0
 11
6658.119968256087
 21
2642.938397165366
 31
0.0
  0
LINE
  5
18985
330
747D
100
AcDbEntity
  8
部品1
100
AcDbLine
 10
4448.119968256083
 20
4432.938397165365
 30
0.0
 11
6658.119968256085
 21
4432.938397165365
 31
0.0
  0
LINE
  5
18986
330
747D
100
AcDbEntity
  8
部品1
100
AcDbLine
 10
6183.119968256083
 20
4432.938397165365
 30
0.0
 11
6183.119968256083
 21
2642.938397165365
 31
0.0
  0
LINE
  5
18987
330
747D
100
AcDbEntity
  8
細線
 48
50.0
100
AcDbLine
 10
6105.619968256087
 20
4432.938397165365
 30
0.0
 11
6105.619968256087
 21
2642.938397165365
 31
0.0
  0
LINE
  5
18988
330
747D
100
AcDbEntity
  8
細線
 48
50.0
100
AcDbLine
 10
6120.619968256087
 20
4432.938397165365
 30
0.0
 11
6120.619968256087
 21
2642.938397165365
 31
0.0
  0
LINE
  5
18989
330
747D
100
AcDbEntity
  8
細線
 48
50.0
100
AcDbLine
 10
5980.619968256087
 20
4432.938397165365
 30
0.0
 11
5980.619968256087
 21
2642.938397165365
 31
0.0
  0
LINE
  5
1898A
330
747D
100
AcDbEntity
  8
細線
 48
50.0
100
AcDbLine
 10
5965.619968256087
 20
4432.938397165365
 30
0.0
 11
5965.619968256087
 21
2642.938397165365
 31
0.0
  0
LINE
  5
1898B
330
747D
100
AcDbEntity
  8
細線
 48
50.0
100
AcDbLine
 10
5825.619968256088
 20
4432.938397165365
 30
0.0
 11
5825.619968256088
 21
2642.938397165365
 31
0.0
  0
LINE
  5
1898C
330
747D
100
AcDbEntity
  8
細線
 48
50.0
100
AcDbLine
 10
5840.619968256087
 20
4432.938397165365
 30
0.0
 11
5840.619968256087
 21
2642.938397165365
 31
0.0
  0
LINE
  5
1898D
330
747D
100
AcDbEntity
  8
部品1
100
AcDbLine
 10
4495.619968256083
 20
2592.938397165366
 30
0.0
 11
6610.619968256084
 21
2592.938397165366
 31
0.0
  0
LINE
  5
1898E
330
747D
100
AcDbEntity
  8
部品1
100
AcDbLine
 10
6650.619968256084
 20
2592.938397165366
 30
0.0
 11
6658.119968256087
 21
2592.938397165366
 31
0.0
  0
LINE
  5
18CD5
330
747D
100
AcDbEntity
  8
補助
  6
PHANTOM
 62
   230
 48
50.0
100
AcDbLine
 10
140.0
 20
0.0
 30
0.0
 11
140.0
 21
11409.6
 31
0.0
  0
LINE
  5
190B2
330
747D
100
AcDbEntity
  8
破線
 48
10.0
100
AcDbLine
 10
8840.216997593339
 20
8935.969603846244
 30
0.0
 11
8840.21699759335
 21
8294.96960384624
 31
0.0
  0
LINE
  5
190B3
330
747D
100
AcDbEntity
  8
部品1
 48
50.0
100
AcDbLine
 10
9655.216997593381
 20
9663.969603846211
 30
0.0
 11
9655.21699759347
 21
7566.969603846214
 31
0.0
  0
LINE
  5
190B6
330
747D
100
AcDbEntity
  8
部品1
 48
50.0
100
AcDbLine
 10
9235.216997593381
 20
9663.969603846211
 30
0.0
 11
9235.216997593468
 21
7566.969603846214
 31
0.0
  0
DIMENSION
  5
190B7
330
747D
100
AcDbEntity
  8
寸法
100
AcDbDimension
  2
*D19
 10
10165.43005175816
 20
7183.629648159642
 30
0.0
 11
10365.43365252494
 21
7183.629648159642
 31
0.0
 70
   160
 71
     5
 42
449.9999999999963
  3
INABA_S40G
100
AcDbAlignedDimension
 13
10520.21699759341
 23
7538.969603846291
 33
0.0
 14
10070.21699759341
 24
7538.969603846291
 34
0.0
100
AcDbRotatedDimension
1001
ACAD
1000
DSTYLE
1002
{
1002
}
  0
MTEXT
  5
190B8
330
747D
100
AcDbEntity
  8
寸法
 62
     7
 48
50.0
100
AcDbMText
 10
10144.93220600949
 20
7960.986553623463
 30
0.0
 40
96.0
 41
0.0
 71
     5
 72
     1
  1
棚 2段
  7
STYLE1
 11
0.0000000000000003
 21
1.0
 31
0.0
 73
     1
 44
1.0
1001
ACAD
1000
MTEXTBEGIN
1070
    73
1070
     1
1070
    44
1040
1.0
1070
    74
1070
     0
1000
MTEXTEND
  0
MTEXT
  5
190B9
330
747D
100
AcDbEntity
  8
寸法
 62
     7
 48
50.0
100
AcDbMText
 10
10144.93220600946
 20
9050.986553623493
 30
0.0
 40
96.0
 41
0.0
 71
     5
 72
     1
  1
棚 2段
  7
STYLE1
 11
0.0000000000000003
 21
1.0
 31
0.0
 73
     1
 44
1.0
1001
ACAD
1000
MTEXTBEGIN
1070
    73
1070
     1
1070
    44
1040
1.0
1070
    74
1070
     0
1000
MTEXTEND
  0
LINE
  5
1915C
330
747D
100
AcDbEntity
  8
部品1
100
AcDbLine
 10
10522.21699759335
 20
8392.969603846292
 30
0.0
 11
10522.21699759334
 21
7538.469603846312
 31
0.0
  0
DIMENSION
  5
1915D
330
747D
100
AcDbEntity
  8
寸法
100
AcDbDimension
  2
*D20
 10
9866.466216902281
 20
8473.564460989701
 30
0.0
 11
9866.46621690228
 21
9176.053329257884
 31
0.0
 70
   160
 71
     5
 42
1273.000000000071
  3
INABA_S40G
100
AcDbAlignedDimension
 13
10070.21699759343
 23
9691.96960384637
 33
0.0
 14
10070.21699759342
 24
8418.969603846299
 34
0.0
 50
270.0
100
AcDbRotatedDimension
1001
ACAD
1000
DSTYLE
1002
{
1002
}
  0
DIMENSION
  5
1915E
330
747D
100
AcDbEntity
  8
寸法
100
AcDbDimension
  2
*D21
 10
9866.46621690228
 20
7593.564460989707
 30
0.0
 11
9866.466216902278
 21
7954.771133516924
 31
0.0
 70
   160
 71
     5
 42
853.0000000000127
  3
INABA_S40G
100
AcDbAlignedDimension
 13
10070.21699759348
 23
8391.969603846302
 33
0.0
 14
10070.21699759348
 24
7538.969603846289
 34
0.0
 50
270.0
100
AcDbRotatedDimension
1001
ACAD
1000
DSTYLE
1002
{
1002
}
  0
LINE
  5
1915F
330
747D
100
AcDbEntity
  8
部品1
100
AcDbLine
 10
10520.21699759341
 20
7538.969603846291
 30
0.0
 11
10070.21699759341
 21
7538.969603846291
 31
0.0
  0
LINE
  5
19160
330
747D
100
AcDbEntity
  8
部品1
100
AcDbLine
 10
10540.21699759342
 20
8440.469603846292
 30
0.0
 11
10522.21699759342
 21
8440.469603846292
 31
0.0
  0
LINE
  5
19161
330
747D
100
AcDbEntity
  8
部品1
100
AcDbLine
 10
10540.21699759342
 20
8440.469603846292
 30
0.0
 11
10540.21699759342
 21
8434.469603846292
 31
0.0
  0
LINE
  5
19162
330
747D
100
AcDbEntity
  8
部品1
100
AcDbLine
 10
10540.21699759342
 20
8370.469603846292
 30
0.0
 11
10522.21699759342
 21
8370.469603846292
 31
0.0
  0
LINE
  5
19163
330
747D
100
AcDbEntity
  8
部品1
100
AcDbLine
 10
10540.21699759342
 20
8376.469603846292
 30
0.0
 11
10540.21699759342
 21
8370.469603846292
 31
0.0
  0
LINE
  5
19164
330
747D
100
AcDbEntity
  8
部品1
100
AcDbLine
 10
10514.21699759341
 20
8417.969603846293
 30
0.0
 11
10514.21699759341
 21
8392.969603846292
 31
0.0
  0
LINE
  5
19165
330
747D
100
AcDbEntity
  8
部品1
100
AcDbLine
 10
10070.21699759342
 20
8417.969603846293
 30
0.0
 11
10070.21699759342
 21
8392.969603846292
 31
0.0
  0
LINE
  5
19166
330
747D
100
AcDbEntity
  8
部品1
 48
50.0
100
AcDbLine
 10
10520.21699759342
 20
8418.96960384629
 30
0.0
 11
10070.21699759342
 21
8418.96960384629
 31
0.0
  0
LINE
  5
19167
330
747D
100
AcDbEntity
  8
部品1
 48
50.0
100
AcDbLine
 10
10520.21699759341
 20
8391.969603846291
 30
0.0
 11
10070.21699759342
 21
8391.969603846291
 31
0.0
  0
LINE
  5
19168
330
747D
100
AcDbEntity
  8
部品1
 48
50.0
100
AcDbLine
 10
10522.21699759342
 20
8417.969603846293
 30
0.0
 11
10070.21699759342
 21
8417.969603846293
 31
0.0
  0
LINE
  5
19169
330
747D
100
AcDbEntity
  8
部品1
 48
50.0
100
AcDbLine
 10
10522.21699759342
 20
8392.969603846292
 30
0.0
 11
10070.21699759342
 21
8392.969603846292
 31
0.0
  0
LINE
  5
1916A
330
747D
100
AcDbEntity
  8
細線
 48
50.0
100
AcDbLine
 10
10520.21699759341
 20
7538.969603846291
 30
0.0
 11
10070.21699759342
 21
8391.969603846293
 31
0.0
  0
LINE
  5
1916B
330
747D
100
AcDbEntity
  8
部品1
100
AcDbLine
 10
10520.21699759342
 20
8391.969603846291
 30
0.0
 11
10520.21699759341
 21
7538.969603846291
 31
0.0
  0
LINE
  5
1916C
330
747D
100
AcDbEntity
  8
部品1
100
AcDbLine
 10
10070.21699759342
 20
8391.969603846293
 30
0.0
 11
10070.21699759341
 21
7538.969603846291
 31
0.0
  0
LINE
  5
1916D
330
747D
100
AcDbEntity
  8
細線
 48
50.0
100
AcDbLine
 10
10070.21699759341
 20
7538.969603846291
 30
0.0
 11
10520.21699759341
 21
8391.969603846291
 31
0.0
  0
LINE
  5
1916E
330
747D
100
AcDbEntity
  8
部品1
 48
50.0
100
AcDbLine
 10
10520.21699759342
 20
9691.969603846363
 30
0.0
 11
10070.21699759342
 21
9691.969603846363
 31
0.0
  0
LINE
  5
1916F
330
747D
100
AcDbEntity
  8
細線
 48
50.0
100
AcDbLine
 10
10070.21699759342
 20
8418.969603846294
 30
0.0
 11
10520.21699759337
 21
9691.969603846363
 31
0.0
  0
LINE
  5
19170
330
747D
100
AcDbEntity
  8
細線
 48
50.0
100
AcDbLine
 10
10520.21699759342
 20
8418.96960384629
 30
0.0
 11
10070.21699759336
 21
9691.969603846363
 31
0.0
  0
LINE
  5
19171
330
747D
100
AcDbEntity
  8
部品1
100
AcDbLine
 10
10520.21699759336
 20
9691.969603846363
 30
0.0
 11
10520.21699759342
 21
8418.96960384629
 31
0.0
  0
LINE
  5
19172
330
747D
100
AcDbEntity
  8
部品1
100
AcDbLine
 10
10070.21699759336
 20
9691.969603846363
 30
0.0
 11
10070.21699759342
 21
8418.969603846294
 31
0.0
  0
LINE
  5
19173
330
747D
100
AcDbEntity
  8
破線
 48
10.0
100
AcDbLine
 10
8840.216997593332
 20
9640.469603846435
 30
0.0
 11
10070.21699759336
 21
9640.469603846426
 31
0.0
  0
LINE
  5
19174
330
747D
100
AcDbEntity
  8
部品1
 48
50.0
100
AcDbLine
 10
8816.716997593337
 20
9663.969603846416
 30
0.0
 11
8788.216997593369
 21
9692.46960384623
 31
0.0
  0
LINE
  5
19175
330
747D
100
AcDbEntity
  8
部品1
 48
50.0
100
AcDbLine
 10
10070.21699759336
 20
9663.96960384635
 30
0.0
 11
8816.716997593351
 21
9663.969603846416
 31
0.0
  0
LINE
  5
19176
330
747D
100
AcDbEntity
  8
部品1
100
AcDbLine
 10
10522.21699759337
 20
9245.469603846329
 30
0.0
 11
10550.21699759337
 21
9245.469603846329
 31
0.0
  0
LINE
  5
19177
330
747D
100
AcDbEntity
  8
部品1
100
AcDbLine
 10
8788.216997593343
 20
9245.469603846199
 30
0.0
 11
8760.216997593344
 21
9245.469603846199
 31
0.0
  0
LINE
  5
1917C
330
747D
100
AcDbEntity
  8
部品1
100
AcDbLine
 10
10522.21699759337
 20
8405.469603846327
 30
0.0
 11
10550.21699759337
 21
8405.469603846327
 31
0.0
  0
LINE
  5
1917D
330
747D
100
AcDbEntity
  8
部品1
100
AcDbLine
 10
8788.216997593346
 20
8405.469603846198
 30
0.0
 11
8760.216997593346
 21
8405.469603846198
 31
0.0
  0
LINE
  5
1917E
330
747D
100
AcDbEntity
  8
部品1
 48
50.0
100
AcDbLine
 10
10495.21699759333
 20
7510.469603846312
 30
0.0
 11
10495.21699759333
 21
7538.46960384631
 31
0.0
  0
LINE
  5
1917F
330
747D
100
AcDbEntity
  8
部品1
 48
50.0
100
AcDbLine
 10
8815.216997593331
 20
7510.469603846155
 30
0.0
 11
8815.216997593337
 21
7538.469603846154
 31
0.0
  0
LINE
  5
19180
330
747D
100
AcDbEntity
  8
部品1
 48
50.0
100
AcDbLine
 10
10495.21699759333
 20
7510.469603846312
 30
0.0
 11
10550.21699759334
 21
7510.469603846316
 31
0.0
  0
LINE
  5
19181
330
747D
100
AcDbEntity
  8
部品1
 48
50.0
100
AcDbLine
 10
8788.216997593339
 20
7538.469603846154
 30
0.0
 11
10522.21699759334
 21
7538.469603846312
 31
0.0
  0
LINE
  5
19182
330
747D
100
AcDbEntity
  8
部品1
 48
50.0
100
AcDbLine
 10
8760.216997593362
 20
7510.469603846151
 30
0.0
 11
8815.216997593331
 21
7510.469603846157
 31
0.0
  0
LINE
  5
19183
330
747D
100
AcDbEntity
  8
部品1
100
AcDbLine
 10
8788.216997593336
 20
7565.469603846182
 30
0.0
 11
8760.216997593337
 21
7565.469603846182
 31
0.0
  0
LINE
  5
19184
330
747D
100
AcDbEntity
  8
部品1
100
AcDbLine
 10
10522.21699759337
 20
7565.469603846056
 30
0.0
 11
10550.21699759337
 21
7565.469603846056
 31
0.0
  0
LINE
  5
19185
330
747D
100
AcDbEntity
  8
部品1
 48
50.0
100
AcDbLine
 10
8816.716997593355
 20
7566.96960384631
 30
0.0
 11
8788.216997593357
 21
7538.469603846312
 31
0.0
  0
LINE
  5
19186
330
747D
100
AcDbEntity
  8
破線
 48
10.0
100
AcDbLine
 10
8840.216997593335
 20
9640.469603846433
 30
0.0
 11
8840.216997593342
 21
8985.969603846244
 31
0.0
  0
LINE
  5
19187
330
747D
100
AcDbEntity
  8
部品1
100
AcDbLine
 10
8816.716997593337
 20
9663.969603846416
 30
0.0
 11
8816.716997593358
 21
7566.969603846313
 31
0.0
  0
LINE
  5
19188
330
747D
100
AcDbEntity
  8
破線
 48
10.0
100
AcDbLine
 10
10070.21699759341
 20
7590.469603846286
 30
0.0
 11
8840.21699759335
 21
7590.469603846213
 31
0.0
  0
LINE
  5
19189
330
747D
100
AcDbEntity
  8
部品1
100
AcDbLine
 10
10070.21699759341
 20
7566.969603846286
 30
0.0
 11
8816.716997593259
 21
7566.969603846215
 31
0.0
  0
DIMENSION
  5
1918A
330
747D
100
AcDbEntity
  8
寸法
100
AcDbDimension
  2
*D22
 10
10495.21699759337
 20
10011.67476841031
 30
0.0
 11
9655.216997593367
 21
10011.67476841031
 31
0.0
 70
   160
  1
4X420=<>
 71
     5
 42
1680.0
  3
INABA_S40G
100
AcDbAlignedDimension
 13
8815.216997593369
 23
9720.469603846231
 33
0.0
 14
10495.21699759337
 24
9720.469603846325
 34
0.0
100
AcDbRotatedDimension
1001
ACAD
1000
DSTYLE
1002
{
1002
}
  0
LINE
  5
1918B
330
747D
100
AcDbEntity
  8
部品1
100
AcDbLine
 10
8760.216997593369
 20
9720.469603846231
 30
0.0
 11
10550.21699759337
 21
9720.469603846325
 31
0.0
  0
DIMENSION
  5
1918C
330
747D
100
AcDbEntity
  8
寸法
100
AcDbDimension
  2
*D23
 10
10550.21699759337
 20
10011.67476841029
 30
0.0
 11
10858.7022789676
 21
10011.67476841029
 31
0.0
 70
   160
 71
     5
 42
55.0
  3
INABA_S40G
100
AcDbAlignedDimension
 13
10495.21699759337
 23
9720.469603846325
 33
0.0
 14
10550.21699759337
 24
9720.469603846325
 34
0.0
100
AcDbRotatedDimension
1001
ACAD
1000
DSTYLE
1002
{
1002
}
  0
LINE
  5
1918D
330
747D
100
AcDbEntity
  8
部品1
100
AcDbLine
 10
10522.21699759337
 20
9665.469603846329
 30
0.0
 11
10550.21699759337
 21
9665.469603846329
 31
0.0
  0
LINE
  5
1918E
330
747D
100
AcDbEntity
  8
部品1
100
AcDbLine
 10
10522.21699759337
 20
8825.469603846327
 30
0.0
 11
10550.21699759337
 21
8825.469603846327
 31
0.0
  0
LINE
  5
1918F
330
747D
100
AcDbEntity
  8
部品1
100
AcDbLine
 10
8788.216997593369
 20
9692.469603846358
 30
0.0
 11
10522.21699759337
 21
9692.469603846326
 31
0.0
  0
LINE
  5
19190
330
747D
100
AcDbEntity
  8
部品1
100
AcDbLine
 10
10522.21699759337
 20
7985.469603846329
 30
0.0
 11
10550.21699759337
 21
7985.469603846329
 31
0.0
  0
LINE
  5
19191
330
747D
100
AcDbEntity
  8
部品1
100
AcDbLine
 10
10522.21699759337
 20
9692.469603846326
 30
0.0
 11
10522.21699759335
 21
8417.969603846295
 31
0.0
  0
LINE
  5
19192
330
747D
100
AcDbEntity
  8
部品1
100
AcDbLine
 10
8788.216997593336
 20
9665.469603846201
 30
0.0
 11
8760.216997593337
 21
9665.469603846201
 31
0.0
  0
LINE
  5
19193
330
747D
100
AcDbEntity
  8
部品1
100
AcDbLine
 10
8788.216997593343
 20
8825.469603846199
 30
0.0
 11
8760.216997593344
 21
8825.469603846199
 31
0.0
  0
LINE
  5
19194
330
747D
100
AcDbEntity
  8
部品1
100
AcDbLine
 10
8788.216997593346
 20
7985.469603846199
 30
0.0
 11
8760.216997593346
 21
7985.469603846199
 31
0.0
  0
LINE
  5
19195
330
747D
100
AcDbEntity
  8
部品1
100
AcDbLine
 10
8788.216997593341
 20
7538.469603846154
 30
0.0
 11
8788.216997593369
 21
9692.46960384623
 31
0.0
  0
DIMENSION
  5
19198
330
747D
100
AcDbEntity
  8
寸法
100
AcDbDimension
  2
*D24
 10
11197.64334332778
 20
7565.469603846311
 30
0.0
 11
11197.64334332778
 21
8615.469603846321
 31
0.0
 70
   160
  1
5X420=<>
 71
     5
 42
2100.000000000016
  3
INABA_S40G
100
AcDbAlignedDimension
 13
10550.21699759337
 23
9665.469603846329
 33
0.0
 14
10550.21699759334
 24
7565.469603846311
 34
0.0
 50
90.0
100
AcDbRotatedDimension
1001
ACAD
1000
DSTYLE
1002
{
1002
}
  0
DIMENSION
  5
19199
330
747D
100
AcDbEntity
  8
寸法
100
AcDbDimension
  2
*D25
 10
11197.64334332775
 20
7510.469603846316
 30
0.0
 11
11197.64334332775
 21
7132.608136941454
 31
0.0
 70
   160
 71
     5
 42
54.99999999999636
  3
INABA_S40G
100
AcDbAlignedDimension
 13
10550.21699759334
 23
7565.469603846311
 33
0.0
 14
10550.21699759334
 24
7510.469603846316
 34
0.0
 50
90.0
100
AcDbRotatedDimension
1001
ACAD
1000
DSTYLE
1002
{
1002
}
  0
DIMENSION
  5
1919A
330
747D
100
AcDbEntity
  8
寸法
100
AcDbDimension
  2
*D26
 10
11197.64334332778
 20
9665.469603846329
 30
0.0
 11
11197.64334332778
 21
10028.95488522056
 31
0.0
 70
   160
 71
     5
 42
54.99999999999636
  3
INABA_S40G
100
AcDbAlignedDimension
 13
10550.21699759337
 23
9720.469603846325
 33
0.0
 14
10550.21699759337
 24
9665.469603846329
 34
0.0
 50
90.0
100
AcDbRotatedDimension
1001
ACAD
1000
DSTYLE
1002
{
1002
}
  0
LINE
  5
1919B
330
747D
100
AcDbEntity
  8
部品1
100
AcDbLine
 10
8815.216997593369
 20
9720.469603846231
 30
0.0
 11
8815.216997593369
 21
9692.46960384623
 31
0.0
  0
LINE
  5
1919C
330
747D
100
AcDbEntity
  8
部品1
100
AcDbLine
 10
9235.216997593369
 20
9720.469603846231
 30
0.0
 11
9235.216997593369
 21
9692.46960384623
 31
0.0
  0
LINE
  5
1919D
330
747D
100
AcDbEntity
  8
部品1
100
AcDbLine
 10
9235.216997593369
 20
9720.469603846229
 30
0.0
 11
9235.216997593369
 21
9692.469603846229
 31
0.0
  0
LINE
  5
1919E
330
747D
100
AcDbEntity
  8
部品1
100
AcDbLine
 10
9235.216997593369
 20
9720.469603846346
 30
0.0
 11
9235.216997593369
 21
9692.469603846346
 31
0.0
  0
LINE
  5
1919F
330
747D
100
AcDbEntity
  8
部品1
100
AcDbLine
 10
9655.216997593369
 20
9720.469603846346
 30
0.0
 11
9655.216997593369
 21
9692.469603846346
 31
0.0
  0
LINE
  5
191A0
330
747D
100
AcDbEntity
  8
部品1
100
AcDbLine
 10
10075.21699759337
 20
9720.469603846346
 30
0.0
 11
10075.21699759337
 21
9692.469603846346
 31
0.0
  0
LINE
  5
191A1
330
747D
100
AcDbEntity
  8
部品1
100
AcDbLine
 10
10550.21699759337
 20
9720.469603846325
 30
0.0
 11
10550.21699759334
 21
7510.469603846316
 31
0.0
  0
DIMENSION
  5
191A2
330
747D
100
AcDbEntity
  8
寸法
100
AcDbDimension
  2
*D27
 10
11562.75028506741
 20
7510.469603846316
 30
0.0
 11
11562.75028506741
 21
8615.469603846321
 31
0.0
 70
   160
 71
     5
 42
2210.000000000008
  3
INABA_S40G
100
AcDbAlignedDimension
 13
10550.21699759337
 23
9720.469603846325
 33
0.0
 14
10550.21699759334
 24
7510.469603846316
 34
0.0
 50
90.0
100
AcDbRotatedDimension
1001
ACAD
1000
DSTYLE
1002
{
1002
}
  0
LINE
  5
191A3
330
747D
100
AcDbEntity
  8
部品1
100
AcDbLine
 10
10495.21699759337
 20
9720.469603846346
 30
0.0
 11
10495.21699759337
 21
9692.469603846346
 31
0.0
  0
LINE
  5
191A4
330
747D
100
AcDbEntity
  8
部品1
100
AcDbLine
 10
10495.21699759337
 20
9720.469603846325
 30
0.0
 11
10495.21699759337
 21
9692.469603846326
 31
0.0
  0
LINE
  5
191A5
330
747D
100
AcDbEntity
  8
部品1
100
AcDbLine
 10
8760.216997593332
 20
9720.469603846197
 30
0.0
 11
8760.216997593362
 21
7510.469603846186
 31
0.0
  0
LINE
  5
191A6
330
747D
100
AcDbEntity
  8
部品1
100
AcDbLine
 10
8815.216997593331
 20
9720.469603846197
 30
0.0
 11
8815.216997593337
 21
9692.469603846198
 31
0.0
  0
DIMENSION
  5
191A7
330
747D
100
AcDbEntity
  8
寸法
100
AcDbDimension
  2
*D28
 10
8815.216997593369
 20
10011.67476841019
 30
0.0
 11
8451.731716219093
 21
10011.67476841019
 31
0.0
 70
   160
 71
     5
 42
55.00000000003637
  3
INABA_S40G
100
AcDbAlignedDimension
 13
8760.216997593332
 23
9720.469603846231
 33
0.0
 14
8815.216997593369
 24
9720.469603846231
 34
0.0
100
AcDbRotatedDimension
1001
ACAD
1000
DSTYLE
1002
{
1002
}
  0
LINE
  5
19426
330
747D
100
AcDbEntity
  8
細線
 48
50.0
100
AcDbLine
 10
9338.216997593331
 20
7438.469778023111
 30
0.0
 11
9456.71699759333
 21
7438.469778023111
 31
0.0
  0
LINE
  5
19427
330
747D
100
AcDbEntity
  8
細線
 48
50.0
100
AcDbLine
 10
9426.716997593334
 20
7455.61977802311
 30
0.0
 11
9426.716997593334
 21
7460.469778023112
 31
0.0
  0
LINE
  5
19428
330
747D
100
AcDbEntity
  8
細線
 48
50.0
100
AcDbLine
 10
9426.716997593334
 20
7460.469778023112
 30
0.0
 11
9441.716997593333
 21
7460.469778023112
 31
0.0
  0
LINE
  5
19429
330
747D
100
AcDbEntity
  8
細線
 48
50.0
100
AcDbLine
 10
9441.716997593333
 20
7460.469778023112
 30
0.0
 11
9441.716997593337
 21
7467.469778023112
 31
0.0
  0
LINE
  5
1942A
330
747D
100
AcDbEntity
  8
細線
 48
50.0
100
AcDbLine
 10
9441.716997593337
 20
7467.469778023112
 30
0.0
 11
9456.716997593334
 21
7467.469778023112
 31
0.0
  0
LINE
  5
1942B
330
747D
100
AcDbEntity
  8
細線
 48
50.0
100
AcDbLine
 10
9456.716997593334
 20
7467.469778023112
 30
0.0
 11
9456.716997593334
 21
7438.469778023112
 31
0.0
  0
LINE
  5
1942C
330
747D
100
AcDbEntity
  8
細線
 48
50.0
100
AcDbLine
 10
9445.716997593335
 20
7489.965972288619
 30
0.0
 11
9445.716997593335
 21
7494.465972288619
 31
0.0
  0
LINE
  5
1942D
330
747D
100
AcDbEntity
  8
細線
 48
50.0
100
AcDbLine
 10
9445.716997593335
 20
7494.465972288619
 30
0.0
 11
9430.716997593334
 21
7494.465972288619
 31
0.0
  0
LINE
  5
1942E
330
747D
100
AcDbEntity
  8
細線
 48
50.0
100
AcDbLine
 10
9430.716997593334
 20
7494.465972288619
 30
0.0
 11
9430.716997593334
 21
7501.465972288618
 31
0.0
  0
LINE
  5
1942F
330
747D
100
AcDbEntity
  8
細線
 48
50.0
100
AcDbLine
 10
9430.716997593334
 20
7501.465972288618
 30
0.0
 11
9415.716997593335
 21
7501.465972288615
 31
0.0
  0
LINE
  5
19430
330
747D
100
AcDbEntity
  8
細線
 48
50.0
100
AcDbLine
 10
9415.716997593335
 20
7501.465972288615
 30
0.0
 11
9415.716997593335
 21
7463.865744185504
 31
0.0
  0
LINE
  5
19431
330
747D
100
AcDbEntity
  8
細線
 48
50.0
100
AcDbLine
 10
9415.716997593335
 20
7463.865744185504
 30
0.0
 11
9435.717004894511
 21
7463.865785735045
 31
0.0
  0
LINE
  5
19432
330
747D
100
AcDbEntity
  8
細線
 48
50.0
100
AcDbLine
 10
9435.716960025569
 20
7472.469247370854
 30
0.0
 11
9435.717004894511
 21
7463.865785735045
 31
0.0
  0
LINE
  5
19433
330
747D
100
AcDbEntity
  8
細線
 48
50.0
100
AcDbLine
 10
9435.716960025569
 20
7472.469247370854
 30
0.0
 11
9446.949649380277
 21
7472.469430324
 31
0.0
  0
ARC
  5
19434
330
747D
100
AcDbEntity
  8
細線
 48
50.0
100
AcDbCircle
 10
9453.531941687613
 20
7471.269594237613
 30
0.0
 40
1.8
100
AcDbArc
 50
270.0006665777295
 51
345.0005554812987
  0
LINE
  5
19435
330
747D
100
AcDbEntity
  8
細線
 48
50.0
100
AcDbLine
 10
9455.518375133694
 20
7471.728434694892
 30
0.0
 11
9455.270612691494
 21
7470.803736812785
 31
0.0
  0
LINE
  5
19436
330
747D
100
AcDbEntity
  8
細線
 48
50.0
100
AcDbLine
 10
9453.531962628769
 20
7469.469594237733
 30
0.0
 11
9449.902035210001
 21
7469.469552007254
 31
0.0
  0
ARC
  5
19437
330
747D
100
AcDbEntity
  8
細線
 48
50.0
100
AcDbCircle
 10
9449.902014268849
 20
7471.269552007133
 30
0.0
 40
1.8
100
AcDbArc
 50
195.0010443049394
 51
270.0006665777295
  0
LINE
  5
19438
330
747D
100
AcDbEntity
  8
細線
 48
50.0
100
AcDbLine
 10
9447.91558677659
 20
7471.728266974698
 30
0.0
 11
9448.163356273102
 21
7470.803646036116
 31
0.0
  0
ARC
  5
19439
330
747D
100
AcDbEntity
  8
細線
 48
50.0
100
AcDbCircle
 10
9446.949665667842
 20
7471.469430324134
 30
0.0
 40
1.0
100
AcDbArc
 50
15.00104430493943
 51
90.00093320877969
  0
LINE
  5
1943A
330
747D
100
AcDbEntity
  8
細線
 48
50.0
100
AcDbLine
 10
9456.484296488797
 20
7472.469625014404
 30
0.0
 11
9457.426056639702
 21
7472.469631588255
 31
0.0
  0
ARC
  5
1943B
330
747D
100
AcDbEntity
  8
細線
 48
50.0
100
AcDbCircle
 10
9456.484303469181
 20
7471.469625014432
 30
0.0
 40
1.0
100
AcDbArc
 50
90.0003999466794
 51
165.0005554812987
  0
LINE
  5
1943C
330
747D
100
AcDbEntity
  8
細線
 48
50.0
100
AcDbLine
 10
10492.71699759333
 20
7531.469603846161
 30
0.0
 11
10492.71699759333
 21
7506.469603846156
 31
0.0
  0
LINE
  5
1943D
330
747D
100
AcDbEntity
  8
細線
100
AcDbLine
 10
10483.21699759333
 20
7506.469603846155
 30
0.0
 11
10375.21699759333
 21
7506.469603846155
 31
0.0
  0
LINE
  5
1943E
330
747D
100
AcDbEntity
  8
細線
 48
50.0
100
AcDbLine
 10
9907.71700274424
 20
7498.469603846159
 30
0.0
 11
9907.717002744242
 21
7536.469603846152
 31
0.0
  0
LINE
  5
1943F
330
747D
100
AcDbEntity
  8
細線
 48
50.0
100
AcDbLine
 10
9907.717002744242
 20
7536.469603846152
 30
0.0
 11
9922.717002744242
 21
7536.469603846156
 31
0.0
  0
LINE
  5
19440
330
747D
100
AcDbEntity
  8
細線
 48
50.0
100
AcDbLine
 10
9922.717002744242
 20
7536.469603846156
 30
0.0
 11
9922.717002744242
 21
7531.469603846154
 31
0.0
  0
LINE
  5
19441
330
747D
100
AcDbEntity
  8
細線
 48
50.0
100
AcDbLine
 10
9907.71700274424
 20
7498.469603846159
 30
0.0
 11
9927.717002744241
 21
7498.469603846155
 31
0.0
  0
LINE
  5
19442
330
747D
100
AcDbEntity
  8
細線
 48
50.0
100
AcDbLine
 10
9927.717002744241
 20
7498.469603846155
 30
0.0
 11
9927.717002744241
 21
7506.469603846155
 31
0.0
  0
LINE
  5
19443
330
747D
100
AcDbEntity
  8
細線
100
AcDbLine
 10
10165.21699759333
 20
7506.469603846155
 30
0.0
 11
10095.21699759333
 21
7506.469603846155
 31
0.0
  0
LINE
  5
19444
330
747D
100
AcDbEntity
  8
細線
 48
50.0
100
AcDbLine
 10
10025.21699759333
 20
7506.469603846155
 30
0.0
 11
9940.51278231708
 21
7506.469603846155
 31
0.0
  0
LINE
  5
19445
330
747D
100
AcDbEntity
  8
細線
100
AcDbLine
 10
10305.21699759333
 20
7506.469603846155
 30
0.0
 11
10235.21699759333
 21
7506.469603846155
 31
0.0
  0
LINE
  5
19446
330
747D
100
AcDbEntity
  8
細線
100
AcDbLine
 10
10133.21699759333
 20
7506.469603846155
 30
0.0
 11
10133.21699759333
 21
7535.769603846154
 31
0.0
  0
LINE
  5
19447
330
747D
100
AcDbEntity
  8
細線
100
AcDbLine
 10
10113.21699759333
 20
7535.769603846154
 30
0.0
 11
10133.21699759333
 21
7535.769603846154
 31
0.0
  0
LINE
  5
19448
330
747D
100
AcDbEntity
  8
細線
100
AcDbLine
 10
10113.21699759333
 20
7506.469603846155
 30
0.0
 11
10113.21699759333
 21
7535.769603846154
 31
0.0
  0
LINE
  5
19449
330
747D
100
AcDbEntity
  8
細線
 48
50.0
100
AcDbLine
 10
10476.81699759333
 20
7531.469603846156
 30
0.0
 11
10466.81699759333
 21
7536.469603846156
 31
0.0
  0
LINE
  5
1944A
330
747D
100
AcDbEntity
  8
細線
 48
50.0
100
AcDbLine
 10
10492.71699759333
 20
7531.469603846161
 30
0.0
 11
10476.81699759333
 21
7531.469603846156
 31
0.0
  0
LINE
  5
1944B
330
747D
100
AcDbEntity
  8
細線
 48
50.0
100
AcDbLine
 10
10466.81699759334
 20
7536.469603846153
 30
0.0
 11
9922.717002744242
 21
7536.469603846152
 31
0.0
  0
LINE
  5
1944C
330
747D
100
AcDbEntity
  8
細線
 48
50.0
100
AcDbLine
 10
9933.717002744241
 20
7505.669603846157
 30
0.0
 11
9933.717002744241
 21
7504.169603846157
 31
0.0
  0
LINE
  5
1944D
330
747D
100
AcDbEntity
  8
細線
 48
50.0
100
AcDbLine
 10
9934.41700274424
 20
7503.469603846155
 30
0.0
 11
9939.017002744241
 21
7503.469603846155
 31
0.0
  0
LINE
  5
1944E
330
747D
100
AcDbEntity
  8
細線
 48
50.0
100
AcDbLine
 10
9939.717002744242
 20
7504.169603846157
 30
0.0
 11
9939.717009569356
 21
7505.669618737645
 31
0.0
  0
ARC
  5
1944F
330
747D
100
AcDbEntity
  8
細線
 48
50.0
100
AcDbCircle
 10
9939.017002744241
 20
7504.169603846157
 30
0.0
 40
0.7
100
AcDbArc
 50
270.0
 51
0.0
  0
ARC
  5
19450
330
747D
100
AcDbEntity
  8
細線
 48
50.0
100
AcDbCircle
 10
9934.41700274424
 20
7504.169603846157
 30
0.0
 40
0.7
100
AcDbArc
 50
180.0
 51
270.0
  0
LINE
  5
19451
330
747D
100
AcDbEntity
  8
細線
 48
50.0
100
AcDbLine
 10
9932.917004605684
 20
7506.469603846155
 30
0.0
 11
9927.717002744241
 21
7506.469603846155
 31
0.0
  0
ARC
  5
19452
330
747D
100
AcDbEntity
  8
細線
 48
50.0
100
AcDbCircle
 10
9940.517009569347
 20
7505.669615014773
 30
0.0
 40
0.8
100
AcDbArc
 50
90.00014387753465
 51
179.9997333689498
  0
ARC
  5
19453
330
747D
100
AcDbEntity
  8
細線
 48
50.0
100
AcDbCircle
 10
9932.917002744249
 20
7505.669603846157
 30
0.0
 40
0.8
100
AcDbArc
 50
359.9997333689499
 51
89.99986668437072
  0
LINE
  5
19454
330
747D
100
AcDbEntity
  8
細線
 48
50.0
100
AcDbLine
 10
9647.216962274439
 20
7472.469615708742
 30
0.0
 11
9577.216944986563
 21
7472.46961570875
 31
0.0
  0
LINE
  5
19455
330
747D
100
AcDbEntity
  8
細線
 48
50.0
100
AcDbLine
 10
9507.216997593332
 20
7472.469623896111
 30
0.0
 11
9457.426056639702
 21
7472.469631588255
 31
0.0
  0
LINE
  5
19456
330
747D
100
AcDbEntity
  8
細線
 48
50.0
100
AcDbLine
 10
9857.216989356571
 20
7472.469615708745
 30
0.0
 11
9948.716997593333
 21
7472.469615708745
 31
0.0
  0
LINE
  5
19457
330
747D
100
AcDbEntity
  8
細線
 48
50.0
100
AcDbLine
 10
9787.216997593333
 20
7472.46961295874
 30
0.0
 11
9717.217241490331
 21
7472.469618458774
 31
0.0
  0
LINE
  5
19458
330
747D
100
AcDbEntity
  8
細線
 48
50.0
100
AcDbLine
 10
9948.717007895155
 20
7501.46982188102
 30
0.0
 11
9948.716997593333
 21
7472.469615708745
 31
0.0
  0
LINE
  5
19459
330
747D
100
AcDbEntity
  8
細線
 48
50.0
100
AcDbLine
 10
9933.717009724626
 20
7501.46982188102
 30
0.0
 11
9948.717007895155
 21
7501.46982188102
 31
0.0
  0
LINE
  5
1945A
330
747D
100
AcDbEntity
  8
細線
 48
50.0
100
AcDbLine
 10
9933.71699809065
 20
7494.469821880976
 30
0.0
 11
9933.717009724626
 21
7501.46982188102
 31
0.0
  0
LINE
  5
1945B
330
747D
100
AcDbEntity
  8
細線
 48
50.0
100
AcDbLine
 10
9918.716998090651
 20
7494.469821880976
 30
0.0
 11
9933.71699809065
 21
7494.469821880976
 31
0.0
  0
LINE
  5
1945C
330
747D
100
AcDbEntity
  8
細線
 48
50.0
100
AcDbLine
 10
9918.716998090651
 20
7489.619821880977
 30
0.0
 11
9918.716998090651
 21
7494.469821880976
 31
0.0
  0
LINE
  5
1945D
330
747D
100
AcDbEntity
  8
細線
 48
50.0
100
AcDbLine
 10
9918.716998090651
 20
7493.069821880978
 30
0.0
 11
9445.716997593335
 21
7493.069821880974
 31
0.0
  0
LINE
  5
1945E
330
747D
100
AcDbEntity
  8
細線
 48
50.0
100
AcDbLine
 10
9426.716997593334
 20
7459.06977802311
 30
0.0
 11
8841.217002246924
 21
7459.06977802311
 31
0.0
  0
LINE
  5
1945F
330
747D
100
AcDbEntity
  8
細線
 48
50.0
100
AcDbLine
 10
9249.600089264026
 20
7456.740629313604
 30
0.0
 11
9255.355606846695
 21
7438.469778023111
 31
0.0
  0
LINE
  5
19460
330
747D
100
AcDbEntity
  8
細線
 48
50.0
100
AcDbLine
 10
9238.671640783593
 20
7456.7406293136
 30
0.0
 11
9249.600089264026
 21
7456.740629313604
 31
0.0
  0
ARC
  5
19461
330
747D
100
AcDbEntity
  8
細線
 48
50.0
100
AcDbCircle
 10
9233.217284726276
 20
7458.2406293136
 30
0.0
 40
5.0
100
AcDbArc
 50
204.6243183521304
 51
335.3756816478695
  0
ARC
  5
19462
330
747D
100
AcDbEntity
  8
細線
 48
50.0
100
AcDbCircle
 10
9238.671640783593
 20
7455.740629313599
 30
0.0
 40
1.0
100
AcDbArc
 50
90.0
 51
155.3756816478695
  0
ARC
  5
19463
330
747D
100
AcDbEntity
  8
細線
 48
50.0
100
AcDbCircle
 10
9227.762928668958
 20
7455.740629313599
 30
0.0
 40
1.0
100
AcDbArc
 50
24.62431835213048
 51
90.0
  0
LINE
  5
19464
330
747D
100
AcDbEntity
  8
細線
 48
50.0
100
AcDbLine
 10
9216.834480188527
 20
7456.740629313604
 30
0.0
 11
9227.762928668958
 21
7456.7406293136
 31
0.0
  0
LINE
  5
19465
330
747D
100
AcDbEntity
  8
細線
 48
50.0
100
AcDbLine
 10
9211.078962605858
 20
7438.469778023111
 30
0.0
 11
9216.834480188527
 21
7456.740629313604
 31
0.0
  0
LINE
  5
19466
330
747D
100
AcDbEntity
  8
細線
 48
50.0
100
AcDbLine
 10
9198.216997593331
 20
7438.469778023111
 30
0.0
 11
9268.216997593331
 21
7438.469778023111
 31
0.0
  0
LINE
  5
19467
330
747D
100
AcDbEntity
  8
細線
 48
50.0
100
AcDbLine
 10
8818.216997593331
 20
7438.46711236658
 30
0.0
 11
9128.21755069776
 21
7438.470999266776
 31
0.0
  0
LINE
  5
19468
330
747D
100
AcDbEntity
  8
細線
 48
50.0
100
AcDbLine
 10
8841.217002246924
 20
7467.465928430749
 30
0.0
 11
8827.216997593332
 21
7467.465928430745
 31
0.0
  0
LINE
  5
19469
330
747D
100
AcDbEntity
  8
細線
 48
50.0
100
AcDbLine
 10
8841.217002246924
 20
7459.06977802311
 30
0.0
 11
8841.217002246924
 21
7467.465928430749
 31
0.0
  0
LINE
  5
1946A
330
747D
100
AcDbEntity
  8
細線
  6
Continuous
 62
     5
100
AcDbLine
 10
9920.717002744243
 20
7491.469603846152
 30
0.0
 11
9920.717002744243
 21
7491.469603846152
 31
0.0
  0
LINE
  5
1946B
330
747D
100
AcDbEntity
  8
部品1
100
AcDbLine
 10
8818.216997593331
 20
7433.469603846155
 30
0.0
 11
10522.21699759333
 21
7433.469603846153
 31
0.0
  0
LINE
  5
1946C
330
747D
100
AcDbEntity
  8
部品1
100
AcDbLine
 10
10492.21699759333
 20
7433.469603846155
 30
0.0
 11
10522.21699759333
 21
7433.469603846155
 31
0.0
  0
LINE
  5
1946D
330
747D
100
AcDbEntity
  8
部品1
100
AcDbLine
 10
8815.216997593331
 20
7537.469603846152
 30
0.0
 11
10495.21699759333
 21
7537.469603846155
 31
0.0
  0
LINE
  5
1946E
330
747D
100
AcDbEntity
  8
部品1
100
AcDbLine
 10
8815.216997593331
 20
7537.469603846152
 30
0.0
 11
8815.216997593331
 21
7506.469603846155
 31
0.0
  0
LINE
  5
1946F
330
747D
100
AcDbEntity
  8
部品1
100
AcDbLine
 10
8827.216997593332
 20
7506.469603846155
 30
0.0
 11
8827.216997593332
 21
7442.469603846155
 31
0.0
  0
LINE
  5
19470
330
747D
100
AcDbEntity
  8
部品1
100
AcDbLine
 10
8788.216997593332
 20
7433.469603846155
 30
0.0
 11
8788.216997593332
 21
7510.469603846155
 31
0.0
  0
LINE
  5
19471
330
747D
100
AcDbEntity
  8
部品1
100
AcDbLine
 10
8818.216997593331
 20
7433.469603846155
 30
0.0
 11
8788.216997593332
 21
7433.469603846155
 31
0.0
  0
LINE
  5
19472
330
747D
100
AcDbEntity
  8
部品1
100
AcDbLine
 10
8827.216997593332
 20
7442.469603846155
 30
0.0
 11
8818.216997593331
 21
7442.469603846155
 31
0.0
  0
LINE
  5
19473
330
747D
100
AcDbEntity
  8
部品1
100
AcDbLine
 10
8818.216997593331
 20
7442.469603846155
 30
0.0
 11
8818.216997593331
 21
7433.469603846155
 31
0.0
  0
LINE
  5
19474
330
747D
100
AcDbEntity
  8
部品1
100
AcDbLine
 10
8788.216997593332
 20
7510.469603846155
 30
0.0
 11
8815.216997593331
 21
7510.469603846155
 31
0.0
  0
LINE
  5
19475
330
747D
100
AcDbEntity
  8
部品1
100
AcDbLine
 10
8827.216997593332
 20
7506.469603846155
 30
0.0
 11
8815.216997593331
 21
7506.469603846155
 31
0.0
  0
LINE
  5
19476
330
747D
100
AcDbEntity
  8
部品1
100
AcDbLine
 10
10495.21699759333
 20
7537.469603846156
 30
0.0
 11
10495.21699759333
 21
7506.469603846156
 31
0.0
  0
LINE
  5
19477
330
747D
100
AcDbEntity
  8
部品1
100
AcDbLine
 10
10483.21699759333
 20
7506.469603846156
 30
0.0
 11
10483.21699759333
 21
7442.469603846156
 31
0.0
  0
LINE
  5
19478
330
747D
100
AcDbEntity
  8
部品1
100
AcDbLine
 10
10483.21699759333
 20
7442.469603846156
 30
0.0
 11
10492.21699759333
 21
7442.469603846156
 31
0.0
  0
LINE
  5
19479
330
747D
100
AcDbEntity
  8
部品1
100
AcDbLine
 10
10492.21699759333
 20
7442.469603846156
 30
0.0
 11
10492.21699759333
 21
7433.469603846155
 31
0.0
  0
LINE
  5
1947A
330
747D
100
AcDbEntity
  8
部品1
100
AcDbLine
 10
10483.21699759333
 20
7506.469603846156
 30
0.0
 11
10495.21699759333
 21
7506.469603846156
 31
0.0
  0
LINE
  5
1947B
330
747D
100
AcDbEntity
  8
部品1
100
AcDbLine
 10
10522.21699759333
 20
7433.469603846155
 30
0.0
 11
10522.21699759333
 21
7510.469603846157
 31
0.0
  0
LINE
  5
1947D
330
747D
100
AcDbEntity
  8
部品1
100
AcDbLine
 10
10495.21699759333
 20
7510.469603846157
 30
0.0
 11
10522.21699759333
 21
7510.469603846157
 31
0.0
  0
DIMENSION
  5
1947E
330
747D
100
AcDbEntity
  8
寸法
 48
50.0
100
AcDbDimension
  2
*D29
 10
9777.216997593333
 20
6808.39458579793
 30
0.0
 11
9302.216997593331
 21
6808.39458579793
 31
0.0
 70
   160
  1
有効開口部間口\P<>
 71
     5
 42
950.0
  3
INABA_S40
100
AcDbAlignedDimension
 13
8827.216997593332
 23
7433.469603846155
 33
0.0
 14
9777.216997593333
 24
7433.469603846155
 34
0.0
100
AcDbRotatedDimension
1001
ACAD
1000
DSTYLE
1002
{
1070
    41
1040
0.5
1070
    44
1040
1.0
1070
   147
1040
0.8
1070
   271
1070
     2
1070
   272
1070
     2
1070
   289
1070
     3
1070
   340
1005
F706
1070
   343
1005
17DD3
1070
   344
1005
17DD3
1002
}
  0
LINE
  5
1947F
330
747D
100
AcDbEntity
  8
細線
100
AcDbLine
 10
8827.216997593332
 20
7442.469603846155
 30
0.0
 11
8827.216997593332
 21
7438.469603846202
 31
0.0
  0
LINE
  5
19480
330
747D
100
AcDbEntity
  8
細線
100
AcDbLine
 10
8983.716890994594
 20
7456.468673391755
 30
0.0
 11
8983.716890994594
 21
7438.468673391729
 31
0.0
  0
LINE
  5
19481
330
747D
100
AcDbEntity
  8
細線
100
AcDbLine
 10
8942.716890994594
 20
7456.468673391748
 30
0.0
 11
8942.716890994594
 21
7438.468673391729
 31
0.0
  0
LINE
  5
19482
330
747D
100
AcDbEntity
  8
細線
100
AcDbLine
 10
8983.716890994594
 20
7456.468673391755
 30
0.0
 11
8942.716890994594
 21
7456.468673391748
 31
0.0
  0
ARC
  5
19483
330
747D
100
AcDbEntity
  8
部品1
100
AcDbCircle
 10
8945.26104687187
 20
7437.968673391752
 30
0.0
 40
1.0
100
AcDbArc
 50
270.0
 51
19.47122063442214
  0
LINE
  5
19484
330
747D
100
AcDbEntity
  8
部品1
 48
0.01
100
AcDbLine
 10
8938.216890994587
 20
7438.468673391752
 30
0.0
 11
8938.216890994587
 21
7437.468673391752
 31
0.0
  0
LINE
  5
19485
330
747D
100
AcDbEntity
  8
部品1
 48
0.01
100
AcDbLine
 10
8938.716890994587
 20
7436.968673391752
 30
0.0
 11
8945.26104687187
 21
7436.968673391752
 31
0.0
  0
ARC
  5
19486
330
747D
100
AcDbEntity
  8
部品1
 48
0.01
100
AcDbCircle
 10
8938.716890994587
 20
7437.468673391752
 30
0.0
 40
0.5
100
AcDbArc
 50
180.0
 51
270.0
  0
ARC
  5
19487
330
747D
100
AcDbEntity
  8
部品1
100
AcDbCircle
 10
8970.716890994586
 20
7446.968673391751
 30
0.0
 40
26.0
100
AcDbArc
 50
180.0
 51
199.4712206344221
  0
ARC
  5
19488
330
747D
100
AcDbEntity
  8
部品1
 48
0.01
100
AcDbCircle
 10
8946.716890994586
 20
7451.968673391751
 30
0.0
 40
2.0
100
AcDbArc
 50
90.0
 51
180.0
  0
LINE
  5
19489
330
747D
100
AcDbEntity
  8
部品1
100
AcDbLine
 10
8944.716890994587
 20
7446.968673391751
 30
0.0
 11
8944.716890994587
 21
7451.968673391751
 31
0.0
  0
ARC
  5
1948A
330
747D
100
AcDbEntity
  8
部品1
100
AcDbCircle
 10
8963.216890994587
 20
7462.768673391754
 30
0.0
 40
16.0
100
AcDbArc
 50
218.3930440192126
 51
254.0576313943215
  0
ARC
  5
1948B
330
747D
100
AcDbEntity
  8
部品1
100
AcDbCircle
 10
8948.325282619398
 20
7450.968673391752
 30
0.0
 40
3.0
100
AcDbArc
 50
38.39304401921267
 51
90.0
  0
LINE
  5
1948C
330
747D
100
AcDbEntity
  8
部品1
 48
0.01
100
AcDbLine
 10
8946.716890994586
 20
7453.968673391752
 30
0.0
 11
8948.325282619398
 21
7453.968673391752
 31
0.0
  0
ARC
  5
1948D
330
747D
100
AcDbEntity
  8
部品1
100
AcDbCircle
 10
8963.216890994587
 20
7462.768673391754
 30
0.0
 40
16.0
100
AcDbArc
 50
285.9423686056786
 51
321.6069559807873
  0
LINE
  5
1948E
330
747D
100
AcDbEntity
  8
部品1
100
AcDbLine
 10
8966.787605208857
 20
7447.268673391754
 30
0.0
 11
8959.646176780315
 21
7447.268673391754
 31
0.0
  0
ARC
  5
1948F
330
747D
100
AcDbEntity
  8
部品1
100
AcDbCircle
 10
8966.787605208857
 20
7450.268673391754
 30
0.0
 40
3.0
100
AcDbArc
 50
270.0
 51
285.9423686056786
  0
ARC
  5
19490
330
747D
100
AcDbEntity
  8
部品1
100
AcDbCircle
 10
8959.646176780315
 20
7450.268673391754
 30
0.0
 40
3.0
100
AcDbArc
 50
254.0576313943215
 51
270.0
  0
LINE
  5
19491
330
747D
100
AcDbEntity
  8
部品1
 48
0.01
100
AcDbLine
 10
8979.716890994586
 20
7453.968673391752
 30
0.0
 11
8978.108499369774
 21
7453.968673391752
 31
0.0
  0
ARC
  5
19492
330
747D
100
AcDbEntity
  8
部品1
100
AcDbCircle
 10
8978.108499369774
 20
7450.968673391752
 30
0.0
 40
3.0
100
AcDbArc
 50
90.0
 51
141.6069559807873
  0
ARC
  5
19493
330
747D
100
AcDbEntity
  8
部品1
 48
0.01
100
AcDbCircle
 10
8979.716890994586
 20
7451.968673391751
 30
0.0
 40
2.0
100
AcDbArc
 50
0.0
 51
90.0
  0
LINE
  5
19494
330
747D
100
AcDbEntity
  8
部品1
100
AcDbLine
 10
8981.716890994587
 20
7446.968673391751
 30
0.0
 11
8981.716890994587
 21
7451.968673391751
 31
0.0
  0
ARC
  5
19495
330
747D
100
AcDbEntity
  8
部品1
100
AcDbCircle
 10
8955.716890994587
 20
7446.968673391751
 30
0.0
 40
26.0
100
AcDbArc
 50
340.5287793655779
 51
0.0
  0
ARC
  5
19496
330
747D
100
AcDbEntity
  8
部品1
100
AcDbCircle
 10
8981.172735117302
 20
7437.968673391752
 30
0.0
 40
1.0
100
AcDbArc
 50
160.5287793655778
 51
270.0
  0
LINE
  5
19497
330
747D
100
AcDbEntity
  8
部品1
 48
0.01
100
AcDbLine
 10
8987.716890994587
 20
7436.968673391752
 30
0.0
 11
8981.104385564524
 21
7436.968673391752
 31
0.0
  0
LINE
  5
19498
330
747D
100
AcDbEntity
  8
部品1
 48
0.01
100
AcDbLine
 10
8988.216890994587
 20
7438.468673391752
 30
0.0
 11
8988.216890994587
 21
7437.468673391752
 31
0.0
  0
LINE
  5
19499
330
747D
100
AcDbEntity
  8
部品1
 48
0.01
100
AcDbLine
 10
8988.216890994587
 20
7438.468673391752
 30
0.0
 11
8988.216890994587
 21
7437.468673391752
 31
0.0
  0
ARC
  5
1949A
330
747D
100
AcDbEntity
  8
部品1
 48
0.01
100
AcDbCircle
 10
8987.716890994587
 20
7437.468673391752
 30
0.0
 40
0.5
100
AcDbArc
 50
270.0
 51
0.0
  0
LINE
  5
1949B
330
747D
100
AcDbEntity
  8
細線
100
AcDbLine
 10
9128.216989407915
 20
7438.46979557682
 30
0.0
 11
9130.548527698682
 21
7443.469795576806
 31
0.0
  0
LINE
  5
1949C
330
747D
100
AcDbEntity
  8
細線
100
AcDbLine
 10
9198.216997593331
 20
7438.469778023111
 30
0.0
 11
9195.885451117144
 21
7443.469795576787
 31
0.0
  0
LINE
  5
1949D
330
747D
100
AcDbEntity
  8
細線
100
AcDbLine
 10
9195.885451117144
 20
7443.469795576787
 30
0.0
 11
9130.548527698669
 21
7443.469795576776
 31
0.0
  0
LINE
  5
1949E
330
747D
100
AcDbEntity
  8
細線
100
AcDbLine
 10
9335.885451117142
 20
7443.469795576787
 30
0.0
 11
9270.54852769867
 21
7443.46979557678
 31
0.0
  0
LINE
  5
1949F
330
747D
100
AcDbEntity
  8
細線
100
AcDbLine
 10
9338.216997593331
 20
7438.469778023111
 30
0.0
 11
9335.885451117142
 21
7443.469795576787
 31
0.0
  0
LINE
  5
194A0
330
747D
100
AcDbEntity
  8
細線
100
AcDbLine
 10
9268.216989407914
 20
7438.469795576823
 30
0.0
 11
9270.548527698682
 21
7443.469795576809
 31
0.0
  0
LINE
  5
194A1
330
747D
100
AcDbEntity
  8
細線
100
AcDbLine
 10
9574.88545930256
 20
7477.469623896078
 30
0.0
 11
9509.548535884084
 21
7477.469623896069
 31
0.0
  0
LINE
  5
194A2
330
747D
100
AcDbEntity
  8
細線
100
AcDbLine
 10
9577.217005778747
 20
7472.469606342402
 30
0.0
 11
9574.88545930256
 21
7477.469623896078
 31
0.0
  0
LINE
  5
194A3
330
747D
100
AcDbEntity
  8
細線
100
AcDbLine
 10
9507.216997593332
 20
7472.469623896111
 30
0.0
 11
9509.5485358841
 21
7477.469623896097
 31
0.0
  0
LINE
  5
194A4
330
747D
100
AcDbEntity
  8
細線
100
AcDbLine
 10
9647.216962274439
 20
7472.469615708742
 30
0.0
 11
9649.548500565208
 21
7477.469615708727
 31
0.0
  0
LINE
  5
194A5
330
747D
100
AcDbEntity
  8
細線
100
AcDbLine
 10
9717.216970459855
 20
7472.469598155033
 30
0.0
 11
9714.885423983666
 21
7477.469615708713
 31
0.0
  0
LINE
  5
194A6
330
747D
100
AcDbEntity
  8
細線
100
AcDbLine
 10
9714.885423983668
 20
7477.469615708713
 30
0.0
 11
9649.548500565192
 21
7477.469615708698
 31
0.0
  0
LINE
  5
194A7
330
747D
100
AcDbEntity
  8
細線
100
AcDbLine
 10
9854.885460533601
 20
7477.469595404972
 30
0.0
 11
9789.54853711513
 21
7477.469595404956
 31
0.0
  0
LINE
  5
194A8
330
747D
100
AcDbEntity
  8
細線
100
AcDbLine
 10
9857.217007009792
 20
7472.469577851291
 30
0.0
 11
9854.885460533601
 21
7477.469595404972
 31
0.0
  0
LINE
  5
194A9
330
747D
100
AcDbEntity
  8
細線
100
AcDbLine
 10
9787.216997593333
 20
7472.469592765024
 30
0.0
 11
9789.548537115143
 21
7477.469595404986
 31
0.0
  0
LINE
  5
194AA
330
747D
100
AcDbEntity
  8
細線
 48
50.0
100
AcDbLine
 10
9730.079219517882
 20
7472.469615708742
 30
0.0
 11
9735.83473710055
 21
7490.740466999236
 31
0.0
  0
LINE
  5
194AB
330
747D
100
AcDbEntity
  8
細線
 48
50.0
100
AcDbLine
 10
9735.83473710055
 20
7490.740466999236
 30
0.0
 11
9746.763185580981
 21
7490.740466999236
 31
0.0
  0
ARC
  5
194AC
330
747D
100
AcDbEntity
  8
細線
 48
50.0
100
AcDbCircle
 10
9746.763185580981
 20
7489.740466999236
 30
0.0
 40
1.0
100
AcDbArc
 50
24.62431835213048
 51
90.0
  0
ARC
  5
194AD
330
747D
100
AcDbEntity
  8
細線
 48
50.0
100
AcDbCircle
 10
9757.671897695619
 20
7489.740466999236
 30
0.0
 40
1.0
100
AcDbArc
 50
90.0
 51
155.3756816478695
  0
ARC
  5
194AE
330
747D
100
AcDbEntity
  8
細線
 48
50.0
100
AcDbCircle
 10
9752.2175416383
 20
7492.240466999236
 30
0.0
 40
5.0
100
AcDbArc
 50
204.6243183521304
 51
335.3756816478695
  0
LINE
  5
194AF
330
747D
100
AcDbEntity
  8
細線
 48
50.0
100
AcDbLine
 10
9757.671897695619
 20
7490.740466999236
 30
0.0
 11
9768.60034617605
 21
7490.740466999236
 31
0.0
  0
LINE
  5
194B0
330
747D
100
AcDbEntity
  8
細線
 48
50.0
100
AcDbLine
 10
9768.60034617605
 20
7490.740466999236
 30
0.0
 11
9774.355863758717
 21
7472.46961570875
 31
0.0
  0
LINE
  5
194B1
330
747D
100
AcDbEntity
  8
細線
100
AcDbLine
 10
10092.8854605336
 20
7511.469606486102
 30
0.0
 11
10027.54853711513
 21
7511.469606486087
 31
0.0
  0
LINE
  5
194B2
330
747D
100
AcDbEntity
  8
細線
100
AcDbLine
 10
10095.21700700979
 20
7506.469588932421
 30
0.0
 11
10092.8854605336
 21
7511.469606486102
 31
0.0
  0
LINE
  5
194B3
330
747D
100
AcDbEntity
  8
細線
100
AcDbLine
 10
10025.21699759333
 20
7506.469603846155
 30
0.0
 11
10027.54853711514
 21
7511.469606486116
 31
0.0
  0
LINE
  5
194B4
330
747D
100
AcDbEntity
  8
細線
100
AcDbLine
 10
10165.21698817687
 20
7506.46961875989
 30
0.0
 11
10167.54852769868
 21
7511.46962139985
 31
0.0
  0
LINE
  5
194B5
330
747D
100
AcDbEntity
  8
細線
100
AcDbLine
 10
10235.21699759333
 20
7506.469603846155
 30
0.0
 11
10232.88545111714
 21
7511.469621399836
 31
0.0
  0
LINE
  5
194B6
330
747D
100
AcDbEntity
  8
細線
100
AcDbLine
 10
10232.88545111714
 20
7511.469621399836
 30
0.0
 11
10167.54852769867
 21
7511.469621399822
 31
0.0
  0
LINE
  5
194B7
330
747D
100
AcDbEntity
  8
細線
100
AcDbLine
 10
10372.88545111714
 20
7511.469621399836
 30
0.0
 11
10307.54852769867
 21
7511.469621399822
 31
0.0
  0
LINE
  5
194B8
330
747D
100
AcDbEntity
  8
細線
100
AcDbLine
 10
10375.21699759333
 20
7506.469603846155
 30
0.0
 11
10372.88545111714
 21
7511.469621399836
 31
0.0
  0
LINE
  5
194B9
330
747D
100
AcDbEntity
  8
細線
100
AcDbLine
 10
10305.21698817687
 20
7506.46961875989
 30
0.0
 11
10307.54852769868
 21
7511.46962139985
 31
0.0
  0
LINE
  5
194BA
330
747D
100
AcDbEntity
  8
細線
 48
50.0
100
AcDbLine
 10
9415.716997593335
 20
7482.665858237059
 30
0.0
 11
8827.216997593332
 21
7482.665858237054
 31
0.0
  0
LINE
  5
194BB
330
747D
100
AcDbEntity
  8
細線
 48
50.0
100
AcDbLine
 10
9456.716997593334
 20
7453.260950240807
 30
0.0
 11
10483.21699759333
 21
7453.260950240803
 31
0.0
  0
LINE
  5
194BC
330
747D
100
AcDbEntity
  8
細線
 48
50.0
100
AcDbLine
 10
9948.717002744244
 20
7486.96971879488
 30
0.0
 11
10483.21699759333
 21
7486.969718794881
 31
0.0
  0
LINE
  5
194BD
330
747D
100
AcDbEntity
  8
寸法
 48
50.0
100
AcDbLine
 10
9399.71781657173
 20
7321.728311900355
 30
0.0
 11
9618.869756747454
 21
7321.728311900355
 31
0.0
  0
LINE
  5
194BE
330
747D
100
AcDbEntity
  8
寸法
 48
50.0
100
AcDbLine
 10
9618.869756747454
 20
7321.728311900355
 30
0.0
 11
9529.585538152032
 21
7345.651946169841
 31
0.0
  0
LINE
  5
194BF
330
747D
100
AcDbEntity
  8
寸法
 48
50.0
100
AcDbLine
 10
9529.585538152032
 20
7345.651946169841
 30
0.0
 11
9529.585538152032
 21
7291.988311588051
 31
0.0
  0
LINE
  5
194C0
330
747D
100
AcDbEntity
  8
寸法
 48
50.0
100
AcDbLine
 10
9199.013995965072
 20
7288.506355415018
 30
0.0
 11
9250.420003875177
 21
7288.506355415018
 31
0.0
  0
LINE
  5
194C1
330
747D
100
AcDbEntity
  8
寸法
 48
50.0
100
AcDbLine
 10
9250.420003875177
 20
7288.506355415018
 30
0.0
 11
9250.420003875177
 21
7319.816514067184
 31
0.0
  0
LINE
  5
194C2
330
747D
100
AcDbEntity
  8
寸法
 48
50.0
100
AcDbLine
 10
9250.420003875177
 20
7319.816514067184
 30
0.0
 11
9280.1813358666
 21
7319.816514067184
 31
0.0
  0
LINE
  5
194C3
330
747D
100
AcDbEntity
  8
寸法
 48
50.0
100
AcDbLine
 10
9280.1813358666
 20
7319.816514067184
 30
0.0
 11
9224.716999920124
 21
7357.395964995794
 31
0.0
  0
LINE
  5
194C4
330
747D
100
AcDbEntity
  8
寸法
 48
50.0
100
AcDbLine
 10
9169.252663973649
 20
7319.816514067184
 30
0.0
 11
9224.716999920124
 21
7357.395964995794
 31
0.0
  0
LINE
  5
194C5
330
747D
100
AcDbEntity
  8
寸法
 48
50.0
100
AcDbLine
 10
9199.013995965072
 20
7319.816514067184
 30
0.0
 11
9169.252663973649
 21
7319.816514067184
 31
0.0
  0
LINE
  5
194C6
330
747D
100
AcDbEntity
  8
寸法
 48
50.0
100
AcDbLine
 10
9199.013995965072
 20
7288.506355415018
 30
0.0
 11
9199.013995965072
 21
7319.816514067184
 31
0.0
  0
LINE
  5
194C7
330
747D
100
AcDbEntity
  8
寸法
 48
50.0
100
AcDbLine
 10
9250.420003875177
 20
7288.506355415018
 30
0.0
 11
9199.013995965072
 21
7288.506355415018
 31
0.0
  0
DIMENSION
  5
196D4
330
747D
100
AcDbEntity
  8
寸法
100
AcDbDimension
  2
*D30
 10
10550.21699759334
 20
6318.641813101283
 30
0.0
 11
9643.363747924716
 21
6318.641813101283
 31
0.0
 70
   160
 71
     5
 42
1789.999999999982
  3
INABA_S40G
100
AcDbAlignedDimension
 13
8760.216997593362
 23
7510.469603846186
 33
0.0
 14
10550.21699759334
 24
7510.469603846316
 34
0.0
100
AcDbRotatedDimension
1001
ACAD
1000
DSTYLE
1002
{
1002
}
  0
TEXT
  5
196D5
330
747D
100
AcDbEntity
  8
部品1
100
AcDbText
 10
9363.401274308179
 20
5846.499940240397
 30
0.0
 40
135.0
  1
平面図
  7
STYLE2
100
AcDbText
  0
LINE
  5
196D6
330
747D
100
AcDbEntity
  8
部品1
100
AcDbLine
 10
9273.48166447914
 20
6039.39346945892
 30
0.0
 11
9273.48166447914
 21
5799.501147913387
 31
0.0
  0
LINE
  5
196D7
330
747D
100
AcDbEntity
  8
部品1
100
AcDbLine
 10
9273.48166447914
 20
5799.501147913387
 30
0.0
 11
10036.95233070758
 21
5799.501147913387
 31
0.0
  0
LINE
  5
196D8
330
747D
100
AcDbEntity
  8
部品1
100
AcDbLine
 10
10036.95233070758
 20
5799.501147913387
 30
0.0
 11
10036.95233070758
 21
6039.39346945892
 31
0.0
  0
LINE
  5
196D9
330
747D
100
AcDbEntity
  8
部品1
100
AcDbLine
 10
10036.95233070758
 20
6039.39346945892
 30
0.0
 11
9273.48166447914
 21
6039.39346945892
 31
0.0
  0
DIMENSION
  5
196DA
330
747D
100
AcDbEntity
  8
寸法
100
AcDbDimension
  2
*D31
 10
8465.605751966645
 20
7435.469603846186
 30
0.0
 11
8465.605751966643
 21
7294.984322471949
 31
0.0
 70
   160
 71
     5
 42
75.0
  3
INABA_S40
100
AcDbAlignedDimension
 13
8760.216997593362
 23
7510.469603846186
 33
0.0
 14
8788.216997593339
 24
7435.469603846186
 34
0.0
 50
90.0
100
AcDbRotatedDimension
1001
ACAD
1000
DSTYLE
1002
{
1070
    41
1040
0.5
1070
    44
1040
1.0
1070
   147
1040
0.8
1070
   271
1070
     2
1070
   272
1070
     2
1070
   289
1070
     3
1070
   340
1005
F706
1070
   343
1005
17DD3
1070
   344
1005
17DD3
1002
}
  0
DIMENSION
  5
196DB
330
747D
100
AcDbEntity
  8
寸法
 48
50.0
100
AcDbDimension
  2
*D32
 10
10522.21699759333
 20
6558.39933399541
 30
0.0
 11
9645.798741545155
 21
6558.39933399541
 31
0.0
 70
   160
 71
     5
 42
1734.0
  3
INABA_S40G
100
AcDbAlignedDimension
 13
8788.216997593332
 23
7433.469603846191
 33
0.0
 14
10522.21699759333
 24
7433.46960384619
 34
0.0
100
AcDbRotatedDimension
1001
ACAD
1000
DSTYLE
1002
{
1070
   341
1005
0
1002
}
  0
LINE
  5
199C0
330
747D
100
AcDbEntity
  8
破線
 48
10.0
100
AcDbLine
 10
8816.71699759344
 20
8294.969603846242
 30
0.0
 11
10070.2169975935
 21
8294.969603846245
 31
0.0
  0
LINE
  5
199C1
330
747D
100
AcDbEntity
  8
破線
 48
10.0
100
AcDbLine
 10
8816.716997593442
 20
8244.969603846245
 30
0.0
 11
10070.2169975935
 21
8244.969603846241
 31
0.0
  0
LINE
  5
199C2
330
747D
100
AcDbEntity
  8
破線
 48
10.0
100
AcDbLine
 10
8816.716997593408
 20
8935.969603846245
 30
0.0
 11
10070.21699759346
 21
8935.96960384624
 31
0.0
  0
LINE
  5
199C3
330
747D
100
AcDbEntity
  8
破線
 48
10.0
100
AcDbLine
 10
8816.716997593408
 20
8985.969603846243
 30
0.0
 11
10070.21699759345
 21
8985.96960384625
 31
0.0
  0
LINE
  5
199C4
330
747D
100
AcDbEntity
  8
破線
 48
10.0
100
AcDbLine
 10
8840.21699759335
 20
8244.969603846241
 30
0.0
 11
8840.216997593357
 21
7590.469603846215
 31
0.0
  0
LWPOLYLINE
  5
19A08
330
747D
100
AcDbEntity
  8
部品1
 48
50.0
100
AcDbPolyline
 90
        4
 70
     1
 43
0.0
 10
8887.266997593341
 20
3489.188397165364
 10
8890.166997593341
 20
3489.188397165364
 10
8890.166997593341
 20
3498.688397165364
 10
8887.266997593341
 20
3498.688397165364
  0
CIRCLE
  5
19A09
330
747D
100
AcDbEntity
  8
部品1
 48
50.0
100
AcDbCircle
 10
8888.716997593341
 20
3493.938397165364
 30
0.0
 40
9.0
  0
ARC
  5
19A0A
330
747D
100
AcDbEntity
  8
細線
 48
50.0
100
AcDbCircle
 10
8888.716997593341
 20
3493.938397165364
 30
0.0
 40
4.0
100
AcDbArc
 50
111.2538091853132
 51
248.7461908146868
  0
ARC
  5
19A0B
330
747D
100
AcDbEntity
  8
細線
 48
50.0
100
AcDbCircle
 10
8888.716997593341
 20
3493.938397165364
 30
0.0
 40
17.5
100
AcDbArc
 50
306.4837370612677
 51
233.5162629387323
  0
LINE
  5
19A0C
330
747D
100
AcDbEntity
  8
細線
 48
50.0
100
AcDbLine
 10
8898.716997593338
 20
3470.079436584482
 30
0.0
 11
8898.716997593341
 21
3479.063922384723
 31
0.0
  0
LINE
  5
19A0D
330
747D
100
AcDbEntity
  8
細線
 48
50.0
100
AcDbLine
 10
8878.716997593341
 20
3470.079436584484
 30
0.0
 11
8878.716997593341
 21
3479.06392238472
 31
0.0
  0
ARC
  5
19A0E
330
747D
100
AcDbEntity
  8
細線
 48
50.0
100
AcDbCircle
 10
8888.716997593341
 20
3493.938397165364
 30
0.0
 40
26.5
100
AcDbArc
 50
249.3326835063939
 51
290.6673164933835
  0
ARC
  5
19A0F
330
747D
100
AcDbEntity
  8
細線
 48
50.0
100
AcDbCircle
 10
8897.716997593333
 20
3470.079436584482
 30
0.0
 40
1.0
100
AcDbArc
 50
290.6673164936062
 51
359.9999999998958
  0
ARC
  5
19A10
330
747D
100
AcDbEntity
  8
細線
 48
50.0
100
AcDbCircle
 10
8879.716997593341
 20
3470.079436584484
 30
0.0
 40
1.0
100
AcDbArc
 50
180.0
 51
249.3326835066164
  0
ARC
  5
19A11
330
747D
100
AcDbEntity
  8
細線
 48
50.0
100
AcDbCircle
 10
8877.716997593342
 20
3479.06392238472
 30
0.0
 40
1.0
100
AcDbArc
 50
0.0
 51
53.51626293873231
  0
ARC
  5
19A12
330
747D
100
AcDbEntity
  8
細線
 48
50.0
100
AcDbCircle
 10
8899.716997593344
 20
3479.063922384723
 30
0.0
 40
1.0
100
AcDbArc
 50
126.4837370615127
 51
180.0
  0
ARC
  5
19A13
330
747D
100
AcDbEntity
  8
細線
 48
50.0
100
AcDbCircle
 10
8888.716997593341
 20
3493.938397165364
 30
0.0
 40
21.5
100
AcDbArc
 50
255.8014401250294
 51
284.1985598749706
  0
ARC
  5
19A14
330
747D
100
AcDbEntity
  8
細線
 48
50.0
100
AcDbCircle
 10
8888.716997593341
 20
3493.938397165364
 30
0.0
 40
16.5
100
AcDbArc
 50
251.9694646069326
 51
288.0305353930674
  0
LINE
  5
19A15
330
747D
100
AcDbEntity
  8
細線
 48
50.0
100
AcDbLine
 10
8894.216997593341
 20
3473.386025039558
 30
0.0
 11
8894.216997593341
 21
3477.963416726895
 31
0.0
  0
LINE
  5
19A16
330
747D
100
AcDbEntity
  8
細線
 48
50.0
100
AcDbLine
 10
8883.216997593342
 20
3473.386025039558
 30
0.0
 11
8883.216997593342
 21
3477.963416726892
 31
0.0
  0
ARC
  5
19A17
330
747D
100
AcDbEntity
  8
細線
 48
50.0
100
AcDbCircle
 10
8883.516997593345
 20
3477.963416726892
 30
0.0
 40
0.3
100
AcDbArc
 50
71.96946460693259
 51
180.0
  0
ARC
  5
19A18
330
747D
100
AcDbEntity
  8
細線
 48
50.0
100
AcDbCircle
 10
8893.916997593342
 20
3477.963416726895
 30
0.0
 40
0.3
100
AcDbArc
 50
0.0
 51
108.0305353930674
  0
ARC
  5
19A19
330
747D
100
AcDbEntity
  8
細線
 48
50.0
100
AcDbCircle
 10
8893.916997593338
 20
3473.386025039558
 30
0.0
 40
0.3
100
AcDbArc
 50
284.1985598747622
 51
0.0000000001042204
  0
ARC
  5
19A1A
330
747D
100
AcDbEntity
  8
細線
 48
50.0
100
AcDbCircle
 10
8883.516997593345
 20
3473.386025039558
 30
0.0
 40
0.3
100
AcDbArc
 50
180.0
 51
255.8014401248081
  0
CIRCLE
  5
19A1B
330
747D
100
AcDbEntity
  8
細線
 48
50.0
100
AcDbCircle
 10
8888.716997593341
 20
3493.938397165364
 30
0.0
 40
12.0
  0
ARC
  5
19A1C
330
747D
100
AcDbEntity
  8
部品1
 48
50.0
100
AcDbCircle
 10
8888.716997593341
 20
3543.938397165364
 30
0.0
 40
8.5
100
AcDbArc
 50
114.315739171091
 51
245.684260828909
  0
CIRCLE
  5
19A1D
330
747D
100
AcDbEntity
  8
細線
 48
50.0
100
AcDbCircle
 10
8888.716997593341
 20
3543.938397165364
 30
0.0
 40
4.5
  0
LWPOLYLINE
  5
19A1E
330
747D
100
AcDbEntity
  8
部品1
 48
50.0
100
AcDbPolyline
 90
        2
 70
     0
 43
0.0
 10
8885.216997593341
 20
3562.613246562347
 10
8885.216997593341
 20
3551.68436385778
  0
CIRCLE
  5
19A1F
330
747D
100
AcDbEntity
  8
部品1
 48
50.0
100
AcDbCircle
 10
8888.716997593341
 20
3543.938397165364
 30
0.0
 40
19.0
  0
LWPOLYLINE
  5
19A20
330
747D
100
AcDbEntity
  8
部品1
 48
50.0
100
AcDbPolyline
 90
        2
 70
     0
 43
0.0
 10
8885.216997593341
 20
3536.192430472949
 10
8885.216997593341
 20
3525.263547768382
  0
LWPOLYLINE
  5
19A21
330
747D
100
AcDbEntity
  8
部品1
 48
50.0
100
AcDbPolyline
 90
        2
 70
     0
 43
0.0
 10
8892.216997593342
 20
3551.68436385778
 10
8892.216997593342
 20
3562.613246562347
  0
ARC
  5
19A22
330
747D
100
AcDbEntity
  8
部品1
 48
50.0
100
AcDbCircle
 10
8888.716997593341
 20
3543.938397165364
 30
0.0
 40
8.5
100
AcDbArc
 50
294.315739171091
 51
65.68426082890896
  0
LWPOLYLINE
  5
19A23
330
747D
100
AcDbEntity
  8
部品1
 48
50.0
100
AcDbPolyline
 90
        2
 70
     0
 43
0.0
 10
8892.216997593342
 20
3525.263547768382
 10
8892.216997593342
 20
3536.192430472949
  0
ARC
  5
19A24
330
747D
100
AcDbEntity
  8
細線
 48
50.0
100
AcDbCircle
 10
8888.716997593341
 20
3543.938397165364
 30
0.0
 40
16.5
100
AcDbArc
 50
332.0012352654438
 51
27.99876473455621
  0
ARC
  5
19A25
330
747D
100
AcDbEntity
  8
細線
 48
50.0
100
AcDbCircle
 10
8888.716997593341
 20
3543.938397165364
 30
0.0
 40
14.0
100
AcDbArc
 50
326.4074436112986
 51
33.59255638870134
  0
LINE
  5
19A26
330
747D
100
AcDbEntity
  8
細線
 48
50.0
100
AcDbLine
 10
8874.148195309009
 20
3551.68436385778
 30
0.0
 11
8877.055093803653
 21
3551.68436385778
 31
0.0
  0
LINE
  5
19A27
330
747D
100
AcDbEntity
  8
細線
 48
50.0
100
AcDbLine
 10
8874.148195309009
 20
3536.192430472949
 30
0.0
 11
8877.055093803653
 21
3536.192430472949
 31
0.0
  0
LINE
  5
19A28
330
747D
100
AcDbEntity
  8
細線
 48
50.0
100
AcDbLine
 10
8900.37890138303
 20
3551.68436385778
 30
0.0
 11
8903.285799877677
 21
3551.68436385778
 31
0.0
  0
LINE
  5
19A29
330
747D
100
AcDbEntity
  8
細線
 48
50.0
100
AcDbLine
 10
8900.37890138303
 20
3536.192430472949
 30
0.0
 11
8903.285799877677
 21
3536.192430472949
 31
0.0
  0
ARC
  5
19A2A
330
747D
100
AcDbEntity
  8
細線
 48
50.0
100
AcDbCircle
 10
8888.716997593341
 20
3543.938397165364
 30
0.0
 40
14.0
100
AcDbArc
 50
146.4074436112986
 51
213.5925563887013
  0
ARC
  5
19A2B
330
747D
100
AcDbEntity
  8
細線
 48
50.0
100
AcDbCircle
 10
8888.716997593341
 20
3543.938397165364
 30
0.0
 40
16.5
100
AcDbArc
 50
152.0012352654438
 51
207.9987647345562
  0
ARC
  5
19A2C
330
747D
100
AcDbEntity
  8
部品1
 48
50.0
100
AcDbCircle
 10
8862.216997593341
 20
3569.438397165364
 30
0.0
 40
5.0
100
AcDbArc
 50
90.0
 51
180.0
  0
ARC
  5
19A2D
330
747D
100
AcDbEntity
  8
部品1
 48
50.0
100
AcDbCircle
 10
8862.216997593341
 20
3458.438397165365
 30
0.0
 40
5.0
100
AcDbArc
 50
180.0
 51
270.0
  0
ARC
  5
19A2E
330
747D
100
AcDbEntity
  8
部品1
 48
50.0
100
AcDbCircle
 10
8915.216997593342
 20
3458.438397165365
 30
0.0
 40
5.0
100
AcDbArc
 50
270.0
 51
0.0
  0
ARC
  5
19A2F
330
747D
100
AcDbEntity
  8
部品1
 48
50.0
100
AcDbCircle
 10
8915.216997593342
 20
3569.438397165364
 30
0.0
 40
5.0
100
AcDbArc
 50
0.0
 51
90.0
  0
LINE
  5
19A31
330
747D
100
AcDbEntity
  8
部品1
 48
50.0
100
AcDbLine
 10
8857.216997593342
 20
3458.438397165365
 30
0.0
 11
8857.216997593342
 21
3569.438397165364
 31
0.0
  0
LINE
  5
19A32
330
747D
100
AcDbEntity
  8
部品1
 48
50.0
100
AcDbLine
 10
8915.216997593342
 20
3453.438397165365
 30
0.0
 11
8862.216997593341
 21
3453.438397165365
 31
0.0
  0
LINE
  5
19A33
330
747D
100
AcDbEntity
  8
部品1
 48
50.0
100
AcDbLine
 10
8920.216997593341
 20
3569.438397165364
 30
0.0
 11
8920.216997593341
 21
3458.438397165365
 31
0.0
  0
ENDSEC
  0
SECTION
  2
OBJECTS
  0
DICTIONARY
  5
7471
330
0
100
AcDbDictionary
281
     1
  3
ACAD_COLOR
350
17DC7
  3
ACAD_GROUP
350
7472
  3
ACAD_LAYOUT
350
17DC8
  3
ACAD_MATERIAL
350
17DC6
  3
ACAD_MLINESTYLE
350
7473
  3
ACAD_PLOTSETTINGS
350
17DC9
  3
ACAD_PLOTSTYLENAME
350
17DC4
  3
ACDBHEADERROUNDTRIPXREC
350
19A42
  3
AcDbVariableDictionary
350
19A3E
  3
CONTENTDICTIONARY
350
E71C
  3
DRAWINGVARIABLESDICT
350
F3B9
  0
DICTIONARY
  5
17F55
330
7467
100
AcDbDictionary
280
     1
281
     1
  3
ACAD_LAYERSTATES
360
17F56
  0
DICTIONARY
  5
17DC7
102
{ACAD_REACTORS
330
7471
102
}
330
7471
100
AcDbDictionary
281
     1
  0
DICTIONARY
  5
7472
102
{ACAD_REACTORS
330
7471
102
}
330
7471
100
AcDbDictionary
281
     1
  0
DICTIONARY
  5
17DC8
102
{ACAD_REACTORS
330
7471
102
}
330
7471
100
AcDbDictionary
281
     1
  3
Model
350
17DCA
  3
レイアウト1
350
17DCB
  0
DICTIONARY
  5
17DC6
102
{ACAD_REACTORS
330
7471
102
}
330
7471
100
AcDbDictionary
281
     1
  0
DICTIONARY
  5
7473
102
{ACAD_REACTORS
330
7471
102
}
330
7471
100
AcDbDictionary
281
     1
  3
STANDARD
350
7480
  0
DICTIONARY
  5
17DC9
102
{ACAD_REACTORS
330
7471
102
}
330
7471
100
AcDbDictionary
281
     1
  0
ACDBDICTIONARYWDFLT
  5
17DC4
102
{ACAD_REACTORS
330
7471
102
}
330
7471
100
AcDbDictionary
281
     1
  3
Normal
350
17DC5
100
AcDbDictionaryWithDefault
340
17DC5
  0
DICTIONARY
  5
19A42
102
{ACAD_REACTORS
330
7471
102
}
330
7471
100
AcDbDictionary
281
     1
  3
COLORDICT
350
19A44
  3
MATERIALDICT
350
19A43
  0
DICTIONARY
  5
19A3E
102
{ACAD_REACTORS
330
7471
102
}
330
7471
100
AcDbDictionary
281
     1
  3
DIMASSOC
350
19A3F
  3
PROJECTNAME
350
19A40
  0
DICTIONARY
  5
E71C
102
{ACAD_REACTORS
330
7471
102
}
330
7471
100
AcDbDictionary
281
     1
  0
DICTIONARY
  5
F3B9
102
{ACAD_REACTORS
330
7471
102
}
330
7471
100
AcDbDictionary
281
     1
1001
DRAWINGVARIABLESXDATA
1000
POLARMODE
1000
1
  0
DICTIONARY
  5
17F56
102
{ACAD_REACTORS
330
17F55
102
}
330
17F55
100
AcDbDictionary
281
     1
  0
LAYOUT
  5
17DCA
102
{ACAD_XDICTIONARY
360
19A45
102
}
102
{ACAD_REACTORS
330
17DC8
102
}
330
17DC8
100
AcDbPlotSettings
  1

  2
Microsoft Office Document Image Writer
  4

  6

 40
0.0
 41
0.0
 42
0.0
 43
0.0
 44
0.0
 45
0.0
 46
0.0
 47
0.0
 48
0.0
 49
0.0
140
0.0
141
0.0
142
1.0
143
1.0
 70
  1712
 72
     0
 73
     0
 74
     0
  7

 75
     0
147
1.0
148
0.0
149
0.0
100
AcDbLayout
  1
Model
 70
     1
 71
     0
 10
0.0
 20
0.0
 11
12.0
 21
9.0
 12
0.0
 22
0.0
 32
0.0
 14
0.0
 24
0.0
 34
0.0
 15
0.0
 25
0.0
 35
0.0
146
0.0
 13
0.0
 23
0.0
 33
0.0
 16
1.0
 26
0.0
 36
0.0
 17
0.0
 27
1.0
 37
0.0
 76
     0
330
747D
  0
LAYOUT
  5
17DCB
102
{ACAD_XDICTIONARY
360
19A47
102
}
102
{ACAD_REACTORS
330
17DC8
102
}
330
17DC8
100
AcDbPlotSettings
  1

  2
Microsoft Office Document Image Writer
  4

  6

 40
0.0
 41
0.0
 42
0.0
 43
0.0
 44
0.0
 45
0.0
 46
0.0
 47
0.0
 48
0.0
 49
0.0
140
0.0
141
0.0
142
1.0
143
1.0
 70
   688
 72
     0
 73
     0
 74
     5
  7

 75
    16
147
1.0
148
0.0
149
0.0
100
AcDbLayout
  1
レイアウト1
 70
     0
 71
     1
 10
0.0
 20
0.0
 11
420.0
 21
297.0
 12
0.0
 22
0.0
 32
0.0
 14
1.000000000000000E+20
 24
1.000000000000000E+20
 34
1.000000000000000E+20
 15
-1.000000000000000E+20
 25
-1.000000000000000E+20
 35
-1.000000000000000E+20
146
0.0
 13
0.0
 23
0.0
 33
0.0
 16
1.0
 26
0.0
 36
0.0
 17
0.0
 27
1.0
 37
0.0
 76
     0
330
747A
  0
MLINESTYLE
  5
7480
102
{ACAD_REACTORS
330
7473
102
}
330
7473
100
AcDbMlineStyle
  2
STANDARD
 70
     0
  3

 62
     0
 51
90.0
 52
90.0
 71
     2
 49
0.5
 62
   256
  6
BYLAYER
 49
-0.5
 62
   256
  6
BYLAYER
  0
ACDBPLACEHOLDER
  5
17DC5
102
{ACAD_REACTORS
330
17DC4
102
}
330
17DC4
  0
XRECORD
  5
19A44
102
{ACAD_REACTORS
330
19A42
102
}
330
19A42
100
AcDbXrecord
280
     1
340
17DC7
  0
XRECORD
  5
19A43
102
{ACAD_REACTORS
330
19A42
102
}
330
19A42
100
AcDbXrecord
280
     1
340
17DC6
  0
DICTIONARYVAR
  5
19A3F
102
{ACAD_REACTORS
330
19A3E
102
}
330
19A3E
100
DictionaryVariables
280
     0
  1
1
  0
DICTIONARYVAR
  5
19A40
102
{ACAD_REACTORS
330
19A3E
102
}
330
19A3E
100
DictionaryVariables
280
     0
  1

  0
DICTIONARY
  5
19A45
330
17DCA
100
AcDbDictionary
280
     1
281
     1
  3
ACAD_XREC_ROUNDTRIP
360
19A46
  0
DICTIONARY
  5
19A47
330
17DCB
100
AcDbDictionary
280
     1
281
     1
  3
ACAD_XREC_ROUNDTRIP
360
19A48
  0
XRECORD
  5
19A46
102
{ACAD_REACTORS
330
19A45
102
}
330
19A45
100
AcDbXrecord
280
     1
102
SHADEPLOT
 70
     0
102
SHADEPLOTRESLEVEL
 70
     2
102
SHADEPLOTCUSTOMDPI
 70
   300
  0
XRECORD
  5
19A48
102
{ACAD_REACTORS
330
19A47
102
}
330
19A47
100
AcDbXrecord
280
     1
102
SHADEPLOT
 70
     0
102
SHADEPLOTRESLEVEL
 70
     2
102
SHADEPLOTCUSTOMDPI
 70
   300
  0
ENDSEC
  0
EOF
