  0
SECTION
  2
HEADER
  9
$ACADVER
  1
AC1015
  9
$ACADMAINTVER
 70
    20
  9
$DWGCODEPAGE
  3
ANSI_932
  9
$INSBASE
 10
0.0
 20
0.0
 30
0.0
  9
$EXTMIN
 10
139.9999999999995
 20
-0.0000000000000909
 30
0.0
  9
$EXTMAX
 10
16307.2
 20
11409.6
 30
0.0
  9
$LIMMIN
 10
-25.79074261211281
 20
-125.8223078213959
  9
$LIMMAX
 10
16471.10331197129
 20
11496.44801950658
  9
$ORTHOMODE
 70
     0
  9
$REGENMODE
 70
     1
  9
$FILLMODE
 70
     1
  9
$QTEXTMODE
 70
     0
  9
$MIRRTEXT
 70
     1
  9
$LTSCALE
 40
20.0
  9
$ATTMODE
 70
     1
  9
$TEXTSIZE
 40
4.0
  9
$TRACEWID
 40
1.0
  9
$TEXTSTYLE
  7
STYLE1
  9
$CLAYER
  8
部品1
  9
$CELTYPE
  6
BYLAYER
  9
$CECOLOR
 62
   256
  9
$CELTSCALE
 40
50.0
  9
$DISPSILH
 70
     0
  9
$DIMSCALE
 40
40.0
  9
$DIMASZ
 40
2.5
  9
$DIMEXO
 40
0.5
  9
$DIMDLI
 40
7.0
  9
$DIMRND
 40
0.0
  9
$DIMDLE
 40
0.0
  9
$DIMEXE
 40
1.5
  9
$DIMTP
 40
0.0
  9
$DIMTM
 40
0.0
  9
$DIMTXT
 40
3.0
  9
$DIMCEN
 40
0.0
  9
$DIMTSZ
 40
0.0
  9
$DIMTOL
 70
     0
  9
$DIMLIM
 70
     0
  9
$DIMTIH
 70
     0
  9
$DIMTOH
 70
     0
  9
$DIMSE1
 70
     0
  9
$DIMSE2
 70
     0
  9
$DIMTAD
 70
     3
  9
$DIMZIN
 70
     8
  9
$DIMBLK
  1

  9
$DIMASO
 70
     1
  9
$DIMSHO
 70
     1
  9
$DIMPOST
  1

  9
$DIMAPOST
  1

  9
$DIMALT
 70
     0
  9
$DIMALTD
 70
     2
  9
$DIMALTF
 40
0.0394
  9
$DIMLFAC
 40
1.0
  9
$DIMTOFL
 70
     1
  9
$DIMTVP
 40
0.0
  9
$DIMTIX
 70
     1
  9
$DIMSOXD
 70
     0
  9
$DIMSAH
 70
     1
  9
$DIMBLK1
  1
DOTSMALL
  9
$DIMBLK2
  1
DOTSMALL
  9
$DIMSTYLE
  2
INABA_S40G
  9
$DIMCLRD
 70
     0
  9
$DIMCLRE
 70
     0
  9
$DIMCLRT
 70
     7
  9
$DIMTFAC
 40
1.0
  9
$DIMGAP
 40
1.0
  9
$DIMJUST
 70
     0
  9
$DIMSD1
 70
     0
  9
$DIMSD2
 70
     0
  9
$DIMTOLJ
 70
     1
  9
$DIMTZIN
 70
     0
  9
$DIMALTZ
 70
     0
  9
$DIMALTTZ
 70
     0
  9
$DIMUPT
 70
     1
  9
$DIMDEC
 70
     1
  9
$DIMTDEC
 70
     4
  9
$DIMALTU
 70
     2
  9
$DIMALTTD
 70
     2
  9
$DIMTXSTY
  7
STYLE1
  9
$DIMAUNIT
 70
     0
  9
$DIMADEC
 70
     0
  9
$DIMALTRND
 40
0.0
  9
$DIMAZIN
 70
     0
  9
$DIMDSEP
 70
    46
  9
$DIMATFIT
 70
     3
  9
$DIMFRAC
 70
     0
  9
$DIMLDRBLK
  1

  9
$DIMLUNIT
 70
     2
  9
$DIMLWD
 70
    -2
  9
$DIMLWE
 70
    -2
  9
$DIMTMOVE
 70
     0
  9
$LUNITS
 70
     2
  9
$LUPREC
 70
     1
  9
$SKETCHINC
 40
1.0
  9
$FILLETRAD
 40
3.0
  9
$AUNITS
 70
     0
  9
$AUPREC
 70
     0
  9
$MENU
  1
acad
  9
$ELEVATION
 40
0.0
  9
$PELEVATION
 40
0.0
  9
$THICKNESS
 40
0.0
  9
$LIMCHECK
 70
     0
  9
$CHAMFERA
 40
0.0
  9
$CHAMFERB
 40
0.0
  9
$CHAMFERC
 40
0.0
  9
$CHAMFERD
 40
0.0
  9
$SKPOLY
 70
     0
  9
$TDCREATE
 40
2451368.612993866
  9
$TDUCREATE
 40
2451368.237993866
  9
$TDUPDATE
 40
2455575.682565636
  9
$TDUUPDATE
 40
2455575.307565637
  9
$TDINDWG
 40
0.6200216551
  9
$TDUSRTIMER
 40
0.6200216551
  9
$USRTIMER
 70
     1
  9
$ANGBASE
 50
0.0
  9
$ANGDIR
 70
     0
  9
$PDMODE
 70
     3
  9
$PDSIZE
 40
2.0
  9
$PLINEWID
 40
0.0
  9
$SPLFRAME
 70
     0
  9
$SPLINETYPE
 70
     6
  9
$SPLINESEGS
 70
     8
  9
$HANDSEED
  5
18B36
  9
$SURFTAB1
 70
     6
  9
$SURFTAB2
 70
     6
  9
$SURFTYPE
 70
     6
  9
$SURFU
 70
     6
  9
$SURFV
 70
     6
  9
$UCSBASE
  2

  9
$UCSNAME
  2

  9
$UCSORG
 10
0.0
 20
0.0
 30
0.0
  9
$UCSXDIR
 10
1.0
 20
0.0
 30
0.0
  9
$UCSYDIR
 10
0.0
 20
1.0
 30
0.0
  9
$UCSORTHOREF
  2

  9
$UCSORTHOVIEW
 70
     0
  9
$UCSORGTOP
 10
0.0
 20
0.0
 30
0.0
  9
$UCSORGBOTTOM
 10
0.0
 20
0.0
 30
0.0
  9
$UCSORGLEFT
 10
0.0
 20
0.0
 30
0.0
  9
$UCSORGRIGHT
 10
0.0
 20
0.0
 30
0.0
  9
$UCSORGFRONT
 10
0.0
 20
0.0
 30
0.0
  9
$UCSORGBACK
 10
0.0
 20
0.0
 30
0.0
  9
$PUCSBASE
  2

  9
$PUCSNAME
  2

  9
$PUCSORG
 10
0.0
 20
0.0
 30
0.0
  9
$PUCSXDIR
 10
1.0
 20
0.0
 30
0.0
  9
$PUCSYDIR
 10
0.0
 20
1.0
 30
0.0
  9
$PUCSORTHOREF
  2

  9
$PUCSORTHOVIEW
 70
     0
  9
$PUCSORGTOP
 10
0.0
 20
0.0
 30
0.0
  9
$PUCSORGBOTTOM
 10
0.0
 20
0.0
 30
0.0
  9
$PUCSORGLEFT
 10
0.0
 20
0.0
 30
0.0
  9
$PUCSORGRIGHT
 10
0.0
 20
0.0
 30
0.0
  9
$PUCSORGFRONT
 10
0.0
 20
0.0
 30
0.0
  9
$PUCSORGBACK
 10
0.0
 20
0.0
 30
0.0
  9
$USERI1
 70
     0
  9
$USERI2
 70
     0
  9
$USERI3
 70
     0
  9
$USERI4
 70
     0
  9
$USERI5
 70
     0
  9
$USERR1
 40
0.0
  9
$USERR2
 40
0.0
  9
$USERR3
 40
0.0
  9
$USERR4
 40
0.0
  9
$USERR5
 40
0.0
  9
$WORLDVIEW
 70
     1
  9
$SHADEDGE
 70
     3
  9
$SHADEDIF
 70
    70
  9
$TILEMODE
 70
     1
  9
$MAXACTVP
 70
    16
  9
$PINSBASE
 10
0.0
 20
0.0
 30
0.0
  9
$PLIMCHECK
 70
     0
  9
$PEXTMIN
 10
1.000000000000000E+20
 20
1.000000000000000E+20
 30
1.000000000000000E+20
  9
$PEXTMAX
 10
-1.000000000000000E+20
 20
-1.000000000000000E+20
 30
-1.000000000000000E+20
  9
$PLIMMIN
 10
0.0
 20
0.0
  9
$PLIMMAX
 10
420.0
 20
297.0
  9
$UNITMODE
 70
     0
  9
$VISRETAIN
 70
     0
  9
$PLINEGEN
 70
     0
  9
$PSLTSCALE
 70
     0
  9
$TREEDEPTH
 70
  3020
  9
$CMLSTYLE
  2
STANDARD
  9
$CMLJUST
 70
     0
  9
$CMLSCALE
 40
1.0
  9
$PROXYGRAPHICS
 70
     1
  9
$MEASUREMENT
 70
     1
  9
$CELWEIGHT
370
    -1
  9
$ENDCAPS
280
     0
  9
$JOINSTYLE
280
     0
  9
$LWDISPLAY
290
     0
  9
$INSUNITS
 70
     0
  9
$HYPERLINKBASE
  1

  9
$STYLESHEET
  1
inaba.ctb
  9
$XEDIT
290
     1
  9
$CEPSNTYPE
380
     0
  9
$PSTYLEMODE
290
     1
  9
$FINGERPRINTGUID
  2
{A39119CB-48DF-4F16-BE7C-3AFEEC1F596B}
  9
$VERSIONGUID
  2
{793C95D5-3894-4F3F-8EE5-268EFB585342}
  9
$EXTNAMES
290
     1
  9
$PSVPSCALE
 40
0.0
  9
$OLESTARTUP
290
     0
  0
ENDSEC
  0
SECTION
  2
CLASSES
  0
CLASS
  1
ACDBDICTIONARYWDFLT
  2
AcDbDictionaryWithDefault
  3
ObjectDBX Classes
 90
        0
280
     0
281
     0
  0
CLASS
  1
DICTIONARYVAR
  2
AcDbDictionaryVar
  3
ObjectDBX Classes
 90
        0
280
     0
281
     0
  0
CLASS
  1
ACDBPLACEHOLDER
  2
AcDbPlaceHolder
  3
ObjectDBX Classes
 90
        0
280
     0
281
     0
  0
CLASS
  1
LAYOUT
  2
AcDbLayout
  3
ObjectDBX Classes
 90
        0
280
     0
281
     0
  0
ENDSEC
  0
SECTION
  2
TABLES
  0
TABLE
  2
VPORT
  5
746D
330
0
100
AcDbSymbolTable
 70
     2
  0
VPORT
  5
18B2E
330
746D
100
AcDbSymbolTableRecord
100
AcDbViewportTableRecord
  2
*Active
 70
     0
 10
0.0
 20
0.0
 11
1.0
 21
1.0
 12
8223.761025238502
 22
5704.872807327498
 13
0.0
 23
0.0
 14
10.0
 24
10.0
 15
10.0
 25
10.0
 16
0.0
 26
0.0
 36
1.0
 17
0.0
 27
0.0
 37
0.0
 40
11494.52305525973
 41
1.525925925925925
 42
50.0
 43
0.0
 44
0.0
 50
0.0
 51
0.0
 71
     0
 72
     0
 73
     1
 74
     0
 75
     0
 76
     0
 77
     0
 78
     0
281
     0
 65
     1
110
0.0
120
0.0
130
0.0
111
1.0
121
0.0
131
0.0
112
0.0
122
1.0
132
0.0
 79
     0
146
0.0
  0
ENDTAB
  0
TABLE
  2
LTYPE
  5
746A
330
0
100
AcDbSymbolTable
 70
     4
  0
LTYPE
  5
7477
330
746A
100
AcDbSymbolTableRecord
100
AcDbLinetypeTableRecord
  2
BYBLOCK
 70
     0
  3

 72
    65
 73
     0
 40
0.0
  0
LTYPE
  5
7478
330
746A
100
AcDbSymbolTableRecord
100
AcDbLinetypeTableRecord
  2
BYLAYER
 70
     0
  3

 72
    65
 73
     0
 40
0.0
  0
LTYPE
  5
7479
330
746A
100
AcDbSymbolTableRecord
100
AcDbLinetypeTableRecord
  2
CONTINUOUS
 70
     0
  3
Solid line
 72
    65
 73
     0
 40
0.0
  0
LTYPE
  5
7816
330
746A
100
AcDbSymbolTableRecord
100
AcDbLinetypeTableRecord
  2
CENTER
 70
     0
  3
____ _ ____ _ ____ _ ____ _ ____ _ ____ _ ____ 
 72
    65
 73
     4
 40
2.0
 49
1.25
 74
     0
 49
-0.25
 74
     0
 49
0.25
 74
     0
 49
-0.25
 74
     0
  0
LTYPE
  5
781A
330
746A
100
AcDbSymbolTableRecord
100
AcDbLinetypeTableRecord
  2
HIDDEN
 70
     0
  3
__ __ __ __ __ __ __ __ __ __ __ __ __ __ __ __
 72
    65
 73
     2
 40
0.375
 49
0.25
 74
     0
 49
-0.125
 74
     0
  0
LTYPE
  5
781B
330
746A
100
AcDbSymbolTableRecord
100
AcDbLinetypeTableRecord
  2
PHANTOM
 70
     0
  3
______  __  __  ______  __  __  ______  __  __ 
 72
    65
 73
     6
 40
2.5
 49
1.25
 74
     0
 49
-0.25
 74
     0
 49
0.25
 74
     0
 49
-0.25
 74
     0
 49
0.25
 74
     0
 49
-0.25
 74
     0
  0
ENDTAB
  0
TABLE
  2
LAYER
  5
7467
102
{ACAD_XDICTIONARY
360
162C7
102
}
330
0
100
AcDbSymbolTable
 70
    12
  0
LAYER
  5
7474
330
7467
100
AcDbSymbolTableRecord
100
AcDbLayerTableRecord
  2
0
 70
     0
 62
     7
  6
CONTINUOUS
370
    -3
390
1612B
  0
LAYER
  5
DEB2
330
7467
100
AcDbSymbolTableRecord
100
AcDbLayerTableRecord
  2
センター
 70
     0
 62
     3
  6
CENTER
370
    -3
390
1612B
  0
LAYER
  5
DEB3
330
7467
100
AcDbSymbolTableRecord
100
AcDbLayerTableRecord
  2
寸法
 70
     0
 62
     4
  6
CONTINUOUS
370
    -3
390
1612B
  0
LAYER
  5
DEB4
330
7467
100
AcDbSymbolTableRecord
100
AcDbLayerTableRecord
  2
部品1
 70
     0
 62
     7
  6
CONTINUOUS
370
    -3
390
1612B
  0
LAYER
  5
DEB5
330
7467
100
AcDbSymbolTableRecord
100
AcDbLayerTableRecord
  2
補助
 70
     0
 62
    -1
  6
CONTINUOUS
370
    -3
390
1612B
  0
LAYER
  5
DEB6
330
7467
100
AcDbSymbolTableRecord
100
AcDbLayerTableRecord
  2
文字
 70
     0
 62
     7
  6
CONTINUOUS
370
    -3
390
1612B
  0
LAYER
  5
F255
330
7467
100
AcDbSymbolTableRecord
100
AcDbLayerTableRecord
  2
DEFPOINTS
 70
     0
 62
     7
  6
CONTINUOUS
290
     0
370
    -3
390
1612B
  0
LAYER
  5
10B54
330
7467
100
AcDbSymbolTableRecord
100
AcDbLayerTableRecord
  2
仕様書枠
 70
     0
 62
   230
  6
CONTINUOUS
370
    -3
390
1612B
  0
LAYER
  5
11729
330
7467
100
AcDbSymbolTableRecord
100
AcDbLayerTableRecord
  2
Ｇ．Ｌ
 70
     0
 62
    30
  6
CONTINUOUS
370
    -3
390
1612B
  0
LAYER
  5
1173F
330
7467
100
AcDbSymbolTableRecord
100
AcDbLayerTableRecord
  2
細線
 70
     0
 62
     5
  6
CONTINUOUS
370
    -3
390
1612B
  0
LAYER
  5
12CC4
330
7467
100
AcDbSymbolTableRecord
100
AcDbLayerTableRecord
  2
想像線
 70
     0
 62
     6
  6
PHANTOM
370
    -3
390
1612B
  0
LAYER
  5
142E2
330
7467
100
AcDbSymbolTableRecord
100
AcDbLayerTableRecord
  2
破線
 70
     0
 62
     2
  6
HIDDEN
370
    -3
390
1612B
  0
ENDTAB
  0
TABLE
  2
STYLE
  5
7468
330
0
100
AcDbSymbolTable
 70
     4
  0
STYLE
  5
7475
330
7468
100
AcDbSymbolTableRecord
100
AcDbTextStyleTableRecord
  2
STANDARD
 70
     0
 40
0.0
 41
1.0
 50
0.0
 71
     0
 42
4.0
  3
txt
  4
C:\AutoCAD LT\bigfont.shx
  0
STYLE
  5
F706
330
7468
100
AcDbSymbolTableRecord
100
AcDbTextStyleTableRecord
  2
STYLE1
 70
     0
 40
0.0
 41
1.0
 50
0.0
 71
     0
 42
4.0
  3
isocp.shx
  4
bigfont.shx
  0
STYLE
  5
103BF
330
7468
100
AcDbSymbolTableRecord
100
AcDbTextStyleTableRecord
  2
STYLE2
 70
     0
 40
0.0
 41
1.0
 50
0.0
 71
     0
 42
100.0
  3
MS PGothic.ttf
  4

1001
ACAD
1000
MS PGothic
1071
    32818
  0
STYLE
  5
17740
330
7468
100
AcDbSymbolTableRecord
100
AcDbTextStyleTableRecord
  2
STYLE3
 70
     0
 40
0.0
 41
1.0
 50
0.0
 71
     0
 42
100.0
  3
DFPGothic-EB.ttf
  4

1001
ACAD
1000
DFPGothic-EB
1071
    32818
  0
ENDTAB
  0
TABLE
  2
VIEW
  5
746B
330
0
100
AcDbSymbolTable
 70
     0
  0
ENDTAB
  0
TABLE
  2
UCS
  5
746C
330
0
100
AcDbSymbolTable
 70
     0
  0
ENDTAB
  0
TABLE
  2
APPID
  5
746E
330
0
100
AcDbSymbolTable
 70
     6
  0
APPID
  5
7476
330
746E
100
AcDbSymbolTableRecord
100
AcDbRegAppTableRecord
  2
ACAD
 70
     0
  0
APPID
  5
DEA9
330
746E
100
AcDbSymbolTableRecord
100
AcDbRegAppTableRecord
  2
CONTENTBLOCKICON
 70
     0
  0
APPID
  5
DEAA
330
746E
100
AcDbSymbolTableRecord
100
AcDbRegAppTableRecord
  2
CONTENTBLOCKDESCRIPTION
 70
     0
  0
APPID
  5
E71D
330
746E
100
AcDbSymbolTableRecord
100
AcDbRegAppTableRecord
  2
CONTENTTABDATA
 70
     0
  0
APPID
  5
E71E
330
746E
100
AcDbSymbolTableRecord
100
AcDbRegAppTableRecord
  2
CONTENTCURRENTTAB
 70
     0
  0
APPID
  5
F3BA
330
746E
100
AcDbSymbolTableRecord
100
AcDbRegAppTableRecord
  2
DRAWINGVARIABLESXDATA
 70
     0
  0
ENDTAB
  0
TABLE
  2
DIMSTYLE
  5
746F
330
0
100
AcDbSymbolTable
 70
     5
100
AcDbDimStyleTable
 71
     0
  0
DIMSTYLE
105
7484
330
746F
100
AcDbSymbolTableRecord
100
AcDbDimStyleTableRecord
  2
JIS
 70
     0
 41
2.5
 42
1.0
 43
7.0
 44
1.0
 73
     0
 74
     0
 77
     1
 78
     8
140
2.5
141
0.0
143
0.0394
147
0.0
172
     1
174
     1
175
     1
340
7475
  0
DIMSTYLE
105
F71F
102
{ACAD_REACTORS
330
1607F
330
16080
330
14521
330
14526
330
1452E
330
14530
330
14531
330
14587
330
14589
330
1664C
330
166C3
330
166C4
330
166C5
330
16721
330
16722
330
171C4
330
171C5
330
171C6
330
171C7
330
171D5
330
17266
330
17267
330
17268
330
17269
330
17283
330
17284
330
17288
330
17DA8
330
18710
330
187F0
102
}
330
746F
100
AcDbSymbolTableRecord
100
AcDbDimStyleTableRecord
  2
INABA_S40G
 70
     0
 40
40.0
 41
2.5
 42
0.5
 43
7.0
 44
1.5
 73
     0
 74
     0
 77
     3
 78
     8
140
3.0
141
0.0
143
0.0394
147
1.0
172
     1
173
     1
174
     1
178
     7
271
     1
288
     1
340
F706
341
F770
343
F770
344
F770
  0
DIMSTYLE
105
162C6
102
{ACAD_REACTORS
330
184BD
330
18711
102
}
330
746F
100
AcDbSymbolTableRecord
100
AcDbDimStyleTableRecord
  2
INABA_S40
 70
     0
 40
40.0
 41
2.5
 42
0.5
 43
7.0
 44
1.5
 73
     0
 74
     0
 77
     3
 78
     8
140
3.0
141
0.0
143
0.0394
147
1.0
172
     1
173
     1
174
     1
175
     1
178
     7
340
7475
  0
DIMSTYLE
105
17741
330
746F
100
AcDbSymbolTableRecord
100
AcDbDimStyleTableRecord
  2
INABA_S50G
 70
     0
 41
125.0
 42
25.0
 43
7.0
 44
75.0
 73
     0
 74
     0
 77
     3
 78
     8
140
150.0
141
0.0
143
0.0394
147
25.0
172
     1
173
     1
174
     1
175
     1
178
     7
271
     1
340
F706
341
F770
343
F770
344
F770
  0
DIMSTYLE
105
18AB6
330
746F
100
AcDbSymbolTableRecord
100
AcDbDimStyleTableRecord
  2
INABA_S20G
 70
     0
 40
20.0
 41
2.5
 42
0.5
 43
7.0
 44
1.5
 73
     0
 74
     0
 77
     3
 78
     8
140
3.0
141
0.0
143
0.0394
147
1.0
172
     1
173
     1
174
     1
178
     7
271
     1
340
F706
341
F770
343
F770
344
F770
  0
ENDTAB
  0
TABLE
  2
BLOCK_RECORD
  5
7466
330
0
100
AcDbSymbolTable
 70
    34
  0
BLOCK_RECORD
  5
747D
330
7466
100
AcDbSymbolTableRecord
100
AcDbBlockTableRecord
  2
*MODEL_SPACE
340
16130
  0
BLOCK_RECORD
  5
747A
330
7466
100
AcDbSymbolTableRecord
100
AcDbBlockTableRecord
  2
*PAPER_SPACE
340
16131
  0
BLOCK_RECORD
  5
F770
330
7466
100
AcDbSymbolTableRecord
100
AcDbBlockTableRecord
  2
_DOTSMALL
340
0
102
{BLKREFS
331
17A66
331
17A67
331
17A6F
331
17A70
331
17A79
331
17A7A
331
17A84
331
17A85
331
17A8E
331
17A8F
331
17A97
331
17A98
331
17AA0
331
17AA1
331
17AAA
331
17AAB
331
17AB3
331
17AB4
331
17ABE
331
17ABF
331
17AC7
331
17AC8
331
17AD0
331
17AD1
331
17ADB
331
17ADC
331
17AE4
331
17AE5
331
17AED
331
17AEE
331
17AF8
331
17AF9
331
17B01
331
17B02
331
17B0A
331
17B0B
331
189ED
331
189EE
331
18A01
331
18A02
331
18A13
331
18A14
331
18A25
331
18A26
331
18A2E
331
18A2F
331
18A39
331
18A3A
331
18A42
331
18A43
331
18A4D
331
18A4E
331
18A58
331
18A59
331
18A61
331
18A62
331
18A6C
331
18A6D
331
18A91
331
18A92
102
}
  0
BLOCK_RECORD
  5
1458A
330
7466
100
AcDbSymbolTableRecord
100
AcDbBlockTableRecord
  2
*D1
340
0
  0
BLOCK_RECORD
  5
14598
330
7466
100
AcDbSymbolTableRecord
100
AcDbBlockTableRecord
  2
*D2
340
0
  0
BLOCK_RECORD
  5
145A4
330
7466
100
AcDbSymbolTableRecord
100
AcDbBlockTableRecord
  2
*D3
340
0
  0
BLOCK_RECORD
  5
145BE
330
7466
100
AcDbSymbolTableRecord
100
AcDbBlockTableRecord
  2
*D4
340
0
  0
BLOCK_RECORD
  5
145CC
330
7466
100
AcDbSymbolTableRecord
100
AcDbBlockTableRecord
  2
*D5
340
0
  0
BLOCK_RECORD
  5
14608
330
7466
100
AcDbSymbolTableRecord
100
AcDbBlockTableRecord
  2
*D6
340
0
  0
BLOCK_RECORD
  5
14616
330
7466
100
AcDbSymbolTableRecord
100
AcDbBlockTableRecord
  2
*D7
340
0
  0
BLOCK_RECORD
  5
1608D
330
7466
100
AcDbSymbolTableRecord
100
AcDbBlockTableRecord
  2
*D8
340
0
  0
BLOCK_RECORD
  5
16099
330
7466
100
AcDbSymbolTableRecord
100
AcDbBlockTableRecord
  2
*D9
340
0
  0
BLOCK_RECORD
  5
16138
330
7466
100
AcDbSymbolTableRecord
100
AcDbBlockTableRecord
  2
_DOT
340
0
102
{BLKREFS
331
189F8
331
189F9
331
18A0A
331
18A0B
102
}
  0
BLOCK_RECORD
  5
16956
330
7466
100
AcDbSymbolTableRecord
100
AcDbBlockTableRecord
  2
*D11
340
0
  0
BLOCK_RECORD
  5
1697C
330
7466
100
AcDbSymbolTableRecord
100
AcDbBlockTableRecord
  2
*D12
340
0
  0
BLOCK_RECORD
  5
16988
330
7466
100
AcDbSymbolTableRecord
100
AcDbBlockTableRecord
  2
*D13
340
0
  0
BLOCK_RECORD
  5
16996
330
7466
100
AcDbSymbolTableRecord
100
AcDbBlockTableRecord
  2
*D14
340
0
  0
BLOCK_RECORD
  5
169A2
330
7466
100
AcDbSymbolTableRecord
100
AcDbBlockTableRecord
  2
*D15
340
0
  0
BLOCK_RECORD
  5
169AE
330
7466
100
AcDbSymbolTableRecord
100
AcDbBlockTableRecord
  2
*D16
340
0
  0
BLOCK_RECORD
  5
172F4
330
7466
100
AcDbSymbolTableRecord
100
AcDbBlockTableRecord
  2
*D17
340
0
  0
BLOCK_RECORD
  5
17300
330
7466
100
AcDbSymbolTableRecord
100
AcDbBlockTableRecord
  2
*D18
340
0
  0
BLOCK_RECORD
  5
1730C
330
7466
100
AcDbSymbolTableRecord
100
AcDbBlockTableRecord
  2
*D19
340
0
  0
BLOCK_RECORD
  5
1731A
330
7466
100
AcDbSymbolTableRecord
100
AcDbBlockTableRecord
  2
*D20
340
0
  0
BLOCK_RECORD
  5
17326
330
7466
100
AcDbSymbolTableRecord
100
AcDbBlockTableRecord
  2
*D21
340
0
  0
BLOCK_RECORD
  5
173D9
330
7466
100
AcDbSymbolTableRecord
100
AcDbBlockTableRecord
  2
*D22
340
0
  0
BLOCK_RECORD
  5
173E5
330
7466
100
AcDbSymbolTableRecord
100
AcDbBlockTableRecord
  2
*D23
340
0
  0
BLOCK_RECORD
  5
173F1
330
7466
100
AcDbSymbolTableRecord
100
AcDbBlockTableRecord
  2
*D24
340
0
  0
BLOCK_RECORD
  5
173FE
330
7466
100
AcDbSymbolTableRecord
100
AcDbBlockTableRecord
  2
*D25
340
0
  0
BLOCK_RECORD
  5
1740C
330
7466
100
AcDbSymbolTableRecord
100
AcDbBlockTableRecord
  2
*D26
340
0
  0
BLOCK_RECORD
  5
17419
330
7466
100
AcDbSymbolTableRecord
100
AcDbBlockTableRecord
  2
*D27
340
0
  0
BLOCK_RECORD
  5
17425
330
7466
100
AcDbSymbolTableRecord
100
AcDbBlockTableRecord
  2
*D28
340
0
  0
BLOCK_RECORD
  5
17E9E
330
7466
100
AcDbSymbolTableRecord
100
AcDbBlockTableRecord
  2
*D29
340
0
  0
BLOCK_RECORD
  5
18521
330
7466
100
AcDbSymbolTableRecord
100
AcDbBlockTableRecord
  2
*D30
340
0
  0
BLOCK_RECORD
  5
18802
330
7466
100
AcDbSymbolTableRecord
100
AcDbBlockTableRecord
  2
*D31
340
0
  0
BLOCK_RECORD
  5
1880E
330
7466
100
AcDbSymbolTableRecord
100
AcDbBlockTableRecord
  2
*D32
340
0
  0
BLOCK_RECORD
  5
1885A
330
7466
100
AcDbSymbolTableRecord
100
AcDbBlockTableRecord
  2
*D33
340
0
  0
ENDTAB
  0
ENDSEC
  0
SECTION
  2
BLOCKS
  0
BLOCK
  5
7489
330
747D
100
AcDbEntity
  8
0
100
AcDbBlockBegin
  2
*MODEL_SPACE
 70
     0
 10
0.0
 20
0.0
 30
0.0
  3
*MODEL_SPACE
  1

  0
ENDBLK
  5
748A
330
747D
100
AcDbEntity
  8
0
100
AcDbBlockEnd
  0
BLOCK
  5
7487
330
747A
100
AcDbEntity
 67
     1
  8
0
100
AcDbBlockBegin
  2
*PAPER_SPACE
 70
     0
 10
0.0
 20
0.0
 30
0.0
  3
*PAPER_SPACE
  1

  0
ENDBLK
  5
7488
330
747A
100
AcDbEntity
 67
     1
  8
0
100
AcDbBlockEnd
  0
BLOCK
  5
F771
330
F770
100
AcDbEntity
  8
0
 48
50.0
100
AcDbBlockBegin
  2
_DOTSMALL
 70
     0
 10
0.0
 20
0.0
 30
0.0
  3
_DOTSMALL
  1

  0
LWPOLYLINE
  5
F772
330
F770
100
AcDbEntity
  8
0
  6
ByBlock
 62
     0
 48
50.0
100
AcDbPolyline
 90
        2
 70
     1
 43
0.5
 10
-0.0625
 20
0.0
 42
1.0
 10
0.0625
 20
0.0
 42
1.0
  0
ENDBLK
  5
F776
330
F770
100
AcDbEntity
  8
0
 48
50.0
100
AcDbBlockEnd
  0
BLOCK
  5
15CC2
330
1458A
100
AcDbEntity
  8
0
 48
50.0
100
AcDbBlockBegin
  2
*D1
 70
     1
 10
0.0
 20
0.0
 30
0.0
  3
*D1
  1

  0
LINE
  5
18A67
330
1458A
100
AcDbEntity
  8
寸法
 62
     0
 48
50.0
370
    -2
100
AcDbLine
 10
9262.453213390683
 20
10063.52754738134
 30
0.0
 11
9262.453213390683
 21
10394.7327119453
 31
0.0
  0
LINE
  5
18A68
330
1458A
100
AcDbEntity
  8
寸法
 62
     0
 48
50.0
370
    -2
100
AcDbLine
 10
9317.453213390718
 20
10063.52754738134
 30
0.0
 11
9317.453213390718
 21
10394.7327119453
 31
0.0
  0
LINE
  5
18A69
330
1458A
100
AcDbEntity
  8
寸法
 62
     0
 48
50.0
370
    -2
100
AcDbLine
 10
9317.453213390718
 20
10334.7327119453
 30
0.0
 11
9417.45321339072
 21
10334.7327119453
 31
0.0
  0
LINE
  5
18A6A
330
1458A
100
AcDbEntity
  8
寸法
 62
     0
 48
50.0
370
    -2
100
AcDbLine
 10
9262.453213390683
 20
10334.7327119453
 30
0.0
 11
8845.482650642207
 21
10334.7327119453
 31
0.0
  0
LINE
  5
18A6B
330
1458A
100
AcDbEntity
  8
寸法
 62
     0
 48
50.0
370
    -2
100
AcDbLine
 10
9317.453213390718
 20
10334.7327119453
 30
0.0
 11
9262.453213390683
 21
10334.7327119453
 31
0.0
  0
INSERT
  5
18A6C
330
1458A
100
AcDbEntity
  8
寸法
 62
     0
 48
50.0
370
    -2
100
AcDbBlockReference
  2
_DOTSMALL
 10
9317.453213390718
 20
10334.7327119453
 30
0.0
 41
100.0
 42
100.0
 43
100.0
 50
180.0
  0
INSERT
  5
18A6D
330
1458A
100
AcDbEntity
  8
寸法
 62
     0
 48
50.0
370
    -2
100
AcDbBlockReference
  2
_DOTSMALL
 10
9262.453213390683
 20
10334.7327119453
 30
0.0
 41
100.0
 42
100.0
 43
100.0
  0
MTEXT
  5
18A6E
330
1458A
100
AcDbEntity
  8
寸法
 62
     7
 48
50.0
100
AcDbMText
 10
8953.967932016444
 20
10434.7327119453
 30
0.0
 40
120.0
 41
0.0
 71
     5
 72
     1
  1
\A1;55
  7
STYLE1
 73
     1
 44
1.0
1001
ACAD
1000
MTEXTBEGIN
1070
    73
1070
     1
1070
    44
1040
1.0
1070
    74
1070
     0
1000
MTEXTEND
  0
POINT
  5
18A6F
330
1458A
100
AcDbEntity
  8
DEFPOINTS
 62
     0
 48
50.0
100
AcDbPoint
 10
9262.453213390683
 20
10043.52754738134
 30
0.0
  0
POINT
  5
18A70
330
1458A
100
AcDbEntity
  8
DEFPOINTS
 62
     0
 48
50.0
100
AcDbPoint
 10
9317.453213390718
 20
10043.52754738134
 30
0.0
  0
POINT
  5
18A71
330
1458A
100
AcDbEntity
  8
DEFPOINTS
 62
     0
 48
50.0
100
AcDbPoint
 10
9317.453213390718
 20
10334.7327119453
 30
0.0
  0
ENDBLK
  5
15CCE
330
1458A
100
AcDbEntity
  8
0
 48
50.0
100
AcDbBlockEnd
  0
BLOCK
  5
15FD4
330
14598
100
AcDbEntity
  8
0
 48
50.0
100
AcDbBlockBegin
  2
*D2
 70
     1
 10
0.0
 20
0.0
 30
0.0
  3
*D2
  1

  0
LINE
  5
18A5E
330
14598
100
AcDbEntity
  8
寸法
 62
     0
 48
50.0
370
    -2
100
AcDbLine
 10
11072.45321339072
 20
10043.52754738144
 30
0.0
 11
12060.62309097036
 21
10043.52754738144
 31
0.0
  0
LINE
  5
18A5F
330
14598
100
AcDbEntity
  8
寸法
 62
     0
 48
50.0
370
    -2
100
AcDbLine
 10
11072.45321339069
 20
7833.52754738143
 30
0.0
 11
12060.62309097036
 21
7833.52754738143
 31
0.0
  0
LINE
  5
18A60
330
14598
100
AcDbEntity
  8
寸法
 62
     0
 48
50.0
370
    -2
100
AcDbLine
 10
12000.62309097036
 20
10043.52754738144
 30
0.0
 11
12000.62309097036
 21
7833.52754738143
 31
0.0
  0
INSERT
  5
18A61
330
14598
100
AcDbEntity
  8
寸法
 62
     0
 48
50.0
370
    -2
100
AcDbBlockReference
  2
_DOTSMALL
 10
12000.62309097036
 20
10043.52754738144
 30
0.0
 41
100.0
 42
100.0
 43
100.0
 50
90.0
  0
INSERT
  5
18A62
330
14598
100
AcDbEntity
  8
寸法
 62
     0
 48
50.0
370
    -2
100
AcDbBlockReference
  2
_DOTSMALL
 10
12000.62309097036
 20
7833.52754738143
 30
0.0
 41
100.0
 42
100.0
 43
100.0
 50
270.0
  0
MTEXT
  5
18A63
330
14598
100
AcDbEntity
  8
寸法
 62
     7
 48
50.0
100
AcDbMText
 10
11900.61127994674
 20
8949.324463338687
 30
0.0
 40
120.0
 41
0.0
 71
     5
 72
     1
  1
\A1;2210
  7
STYLE1
 11
0.0000000000000001
 21
1.0
 31
0.0
 73
     1
 44
1.0
1001
ACAD
1000
MTEXTBEGIN
1070
    73
1070
     1
1070
    44
1040
1.0
1070
    74
1070
     0
1000
MTEXTEND
  0
POINT
  5
18A64
330
14598
100
AcDbEntity
  8
DEFPOINTS
 62
     0
 48
50.0
100
AcDbPoint
 10
11052.45321339072
 20
10043.52754738144
 30
0.0
  0
POINT
  5
18A65
330
14598
100
AcDbEntity
  8
DEFPOINTS
 62
     0
 48
50.0
100
AcDbPoint
 10
11052.45321339069
 20
7833.52754738143
 30
0.0
  0
POINT
  5
18A66
330
14598
100
AcDbEntity
  8
DEFPOINTS
 62
     0
 48
50.0
100
AcDbPoint
 10
12000.62309097036
 20
7833.52754738143
 30
0.0
  0
ENDBLK
  5
15FDE
330
14598
100
AcDbEntity
  8
0
 48
50.0
100
AcDbBlockEnd
  0
BLOCK
  5
1492F
330
145A4
100
AcDbEntity
  8
0
 48
50.0
100
AcDbBlockBegin
  2
*D3
 70
     1
 10
0.0
 20
0.0
 30
0.0
  3
*D3
  1

  0
LINE
  5
18A53
330
145A4
100
AcDbEntity
  8
寸法
 62
     0
 48
50.0
370
    -2
100
AcDbLine
 10
11072.45321339072
 20
10043.52754738144
 30
0.0
 11
11759.87955912513
 21
10043.52754738144
 31
0.0
  0
LINE
  5
18A54
330
145A4
100
AcDbEntity
  8
寸法
 62
     0
 48
50.0
370
    -2
100
AcDbLine
 10
11072.45321339072
 20
9988.527547381444
 30
0.0
 11
11759.87955912513
 21
9988.527547381444
 31
0.0
  0
LINE
  5
18A55
330
145A4
100
AcDbEntity
  8
寸法
 62
     0
 48
50.0
370
    -2
100
AcDbLine
 10
11699.87955912513
 20
9988.527547381444
 30
0.0
 11
11699.87955912513
 21
9888.527547381443
 31
0.0
  0
LINE
  5
18A56
330
145A4
100
AcDbEntity
  8
寸法
 62
     0
 48
50.0
370
    -2
100
AcDbLine
 10
11699.87955912513
 20
10043.52754738144
 30
0.0
 11
11699.87955912513
 21
10460.49811012991
 31
0.0
  0
LINE
  5
18A57
330
145A4
100
AcDbEntity
  8
寸法
 62
     0
 48
50.0
370
    -2
100
AcDbLine
 10
11699.87955912513
 20
9988.527547381444
 30
0.0
 11
11699.87955912513
 21
10043.52754738144
 31
0.0
  0
INSERT
  5
18A58
330
145A4
100
AcDbEntity
  8
寸法
 62
     0
 48
50.0
370
    -2
100
AcDbBlockReference
  2
_DOTSMALL
 10
11699.87955912513
 20
9988.527547381444
 30
0.0
 41
100.0
 42
100.0
 43
100.0
 50
90.0
  0
INSERT
  5
18A59
330
145A4
100
AcDbEntity
  8
寸法
 62
     0
 48
50.0
370
    -2
100
AcDbBlockReference
  2
_DOTSMALL
 10
11699.87955912513
 20
10043.52754738144
 30
0.0
 41
100.0
 42
100.0
 43
100.0
 50
270.0
  0
MTEXT
  5
18A5A
330
145A4
100
AcDbEntity
  8
寸法
 62
     7
 48
50.0
100
AcDbMText
 10
11599.87955912513
 20
10352.01282875568
 30
0.0
 40
120.0
 41
0.0
 71
     5
 72
     1
  1
\A1;55
  7
STYLE1
 11
0.0000000000000001
 21
1.0
 31
0.0
 73
     1
 44
1.0
1001
ACAD
1000
MTEXTBEGIN
1070
    73
1070
     1
1070
    44
1040
1.0
1070
    74
1070
     0
1000
MTEXTEND
  0
POINT
  5
18A5B
330
145A4
100
AcDbEntity
  8
DEFPOINTS
 62
     0
 48
50.0
100
AcDbPoint
 10
11052.45321339072
 20
10043.52754738144
 30
0.0
  0
POINT
  5
18A5C
330
145A4
100
AcDbEntity
  8
DEFPOINTS
 62
     0
 48
50.0
100
AcDbPoint
 10
11052.45321339072
 20
9988.527547381444
 30
0.0
  0
POINT
  5
18A5D
330
145A4
100
AcDbEntity
  8
DEFPOINTS
 62
     0
 48
50.0
100
AcDbPoint
 10
11699.87955912513
 20
9988.527547381444
 30
0.0
  0
ENDBLK
  5
1493B
330
145A4
100
AcDbEntity
  8
0
 48
50.0
100
AcDbBlockEnd
  0
BLOCK
  5
1496A
330
145BE
100
AcDbEntity
  8
0
 48
50.0
100
AcDbBlockBegin
  2
*D4
 70
     1
 10
0.0
 20
0.0
 30
0.0
  3
*D4
  1

  0
LINE
  5
18A48
330
145BE
100
AcDbEntity
  8
寸法
 62
     0
 48
50.0
370
    -2
100
AcDbLine
 10
11072.45321339069
 20
7888.527547381428
 30
0.0
 11
11759.8795591251
 21
7888.527547381428
 31
0.0
  0
LINE
  5
18A49
330
145BE
100
AcDbEntity
  8
寸法
 62
     0
 48
50.0
370
    -2
100
AcDbLine
 10
11072.45321339069
 20
7833.52754738143
 30
0.0
 11
11759.8795591251
 21
7833.52754738143
 31
0.0
  0
LINE
  5
18A4A
330
145BE
100
AcDbEntity
  8
寸法
 62
     0
 48
50.0
370
    -2
100
AcDbLine
 10
11699.8795591251
 20
7888.527547381428
 30
0.0
 11
11699.8795591251
 21
7988.527547381427
 31
0.0
  0
LINE
  5
18A4B
330
145BE
100
AcDbEntity
  8
寸法
 62
     0
 48
50.0
370
    -2
100
AcDbLine
 10
11699.8795591251
 20
7833.52754738143
 30
0.0
 11
11699.8795591251
 21
7347.180799102329
 31
0.0
  0
LINE
  5
18A4C
330
145BE
100
AcDbEntity
  8
寸法
 62
     0
 48
50.0
370
    -2
100
AcDbLine
 10
11699.8795591251
 20
7888.527547381428
 30
0.0
 11
11699.8795591251
 21
7833.52754738143
 31
0.0
  0
INSERT
  5
18A4D
330
145BE
100
AcDbEntity
  8
寸法
 62
     0
 48
50.0
370
    -2
100
AcDbBlockReference
  2
_DOTSMALL
 10
11699.8795591251
 20
7888.527547381428
 30
0.0
 41
100.0
 42
100.0
 43
100.0
 50
270.0
  0
INSERT
  5
18A4E
330
145BE
100
AcDbEntity
  8
寸法
 62
     0
 48
50.0
370
    -2
100
AcDbBlockReference
  2
_DOTSMALL
 10
11699.8795591251
 20
7833.52754738143
 30
0.0
 41
100.0
 42
100.0
 43
100.0
 50
90.0
  0
MTEXT
  5
18A4F
330
145BE
100
AcDbEntity
  8
寸法
 62
     7
 48
50.0
100
AcDbMText
 10
11599.8795591251
 20
7455.66608047657
 30
0.0
 40
120.0
 41
0.0
 71
     5
 72
     1
  1
\A1;55
  7
STYLE1
 11
0.0000000000000001
 21
1.0
 31
0.0
 73
     1
 44
1.0
1001
ACAD
1000
MTEXTBEGIN
1070
    73
1070
     1
1070
    44
1040
1.0
1070
    74
1070
     0
1000
MTEXTEND
  0
POINT
  5
18A50
330
145BE
100
AcDbEntity
  8
DEFPOINTS
 62
     0
 48
50.0
100
AcDbPoint
 10
11052.45321339069
 20
7888.527547381428
 30
0.0
  0
POINT
  5
18A51
330
145BE
100
AcDbEntity
  8
DEFPOINTS
 62
     0
 48
50.0
100
AcDbPoint
 10
11052.45321339069
 20
7833.52754738143
 30
0.0
  0
POINT
  5
18A52
330
145BE
100
AcDbEntity
  8
DEFPOINTS
 62
     0
 48
50.0
100
AcDbPoint
 10
11699.8795591251
 20
7833.52754738143
 30
0.0
  0
ENDBLK
  5
14976
330
145BE
100
AcDbEntity
  8
0
 48
50.0
100
AcDbBlockEnd
  0
BLOCK
  5
15FC9
330
145CC
100
AcDbEntity
  8
0
 48
50.0
100
AcDbBlockBegin
  2
*D5
 70
     1
 10
0.0
 20
0.0
 30
0.0
  3
*D5
  1

  0
LINE
  5
18A3F
330
145CC
100
AcDbEntity
  8
寸法
 62
     0
 48
50.0
370
    -2
100
AcDbLine
 10
11072.45321339072
 20
9988.527547381444
 30
0.0
 11
11759.87955912513
 21
9988.527547381444
 31
0.0
  0
LINE
  5
18A40
330
145CC
100
AcDbEntity
  8
寸法
 62
     0
 48
50.0
370
    -2
100
AcDbLine
 10
11072.45321339069
 20
7888.527547381428
 30
0.0
 11
11759.87955912513
 21
7888.527547381428
 31
0.0
  0
LINE
  5
18A41
330
145CC
100
AcDbEntity
  8
寸法
 62
     0
 48
50.0
370
    -2
100
AcDbLine
 10
11699.87955912513
 20
9988.527547381444
 30
0.0
 11
11699.87955912513
 21
7888.527547381428
 31
0.0
  0
INSERT
  5
18A42
330
145CC
100
AcDbEntity
  8
寸法
 62
     0
 48
50.0
370
    -2
100
AcDbBlockReference
  2
_DOTSMALL
 10
11699.87955912513
 20
9988.527547381444
 30
0.0
 41
100.0
 42
100.0
 43
100.0
 50
90.0
  0
INSERT
  5
18A43
330
145CC
100
AcDbEntity
  8
寸法
 62
     0
 48
50.0
370
    -2
100
AcDbBlockReference
  2
_DOTSMALL
 10
11699.87955912513
 20
7888.527547381428
 30
0.0
 41
100.0
 42
100.0
 43
100.0
 50
270.0
  0
MTEXT
  5
18A44
330
145CC
100
AcDbEntity
  8
寸法
 62
     7
 48
50.0
100
AcDbMText
 10
11599.86774810151
 20
8938.527547381436
 30
0.0
 40
120.0
 41
0.0
 71
     5
 72
     1
  1
\A1;5X420=2100
  7
STYLE1
 11
0.0000000000000001
 21
1.0
 31
0.0
 73
     1
 44
1.0
1001
ACAD
1000
MTEXTBEGIN
1070
    73
1070
     1
1070
    44
1040
1.0
1070
    74
1070
     0
1000
MTEXTEND
  0
POINT
  5
18A45
330
145CC
100
AcDbEntity
  8
DEFPOINTS
 62
     0
 48
50.0
100
AcDbPoint
 10
11052.45321339072
 20
9988.527547381444
 30
0.0
  0
POINT
  5
18A46
330
145CC
100
AcDbEntity
  8
DEFPOINTS
 62
     0
 48
50.0
100
AcDbPoint
 10
11052.45321339069
 20
7888.527547381428
 30
0.0
  0
POINT
  5
18A47
330
145CC
100
AcDbEntity
  8
DEFPOINTS
 62
     0
 48
50.0
100
AcDbPoint
 10
11699.87955912513
 20
7888.527547381428
 30
0.0
  0
ENDBLK
  5
15FD3
330
145CC
100
AcDbEntity
  8
0
 48
50.0
100
AcDbBlockEnd
  0
BLOCK
  5
15CAA
330
14608
100
AcDbEntity
  8
0
 48
50.0
100
AcDbBlockBegin
  2
*D6
 70
     1
 10
0.0
 20
0.0
 30
0.0
  3
*D6
  1

  0
LINE
  5
18A34
330
14608
100
AcDbEntity
  8
寸法
 62
     0
 48
50.0
370
    -2
100
AcDbLine
 10
10997.45321339072
 20
10063.52754738144
 30
0.0
 11
10997.45321339072
 21
10394.7327119454
 31
0.0
  0
LINE
  5
18A35
330
14608
100
AcDbEntity
  8
寸法
 62
     0
 48
50.0
370
    -2
100
AcDbLine
 10
11052.45321339072
 20
10063.52754738144
 30
0.0
 11
11052.45321339072
 21
10394.7327119454
 31
0.0
  0
LINE
  5
18A36
330
14608
100
AcDbEntity
  8
寸法
 62
     0
 48
50.0
370
    -2
100
AcDbLine
 10
10997.45321339072
 20
10334.7327119454
 30
0.0
 11
10897.45321339072
 21
10334.7327119454
 31
0.0
  0
LINE
  5
18A37
330
14608
100
AcDbEntity
  8
寸法
 62
     0
 48
50.0
370
    -2
100
AcDbLine
 10
11052.45321339072
 20
10334.7327119454
 30
0.0
 11
11469.42377613919
 21
10334.7327119454
 31
0.0
  0
LINE
  5
18A38
330
14608
100
AcDbEntity
  8
寸法
 62
     0
 48
50.0
370
    -2
100
AcDbLine
 10
10997.45321339072
 20
10334.7327119454
 30
0.0
 11
11052.45321339072
 21
10334.7327119454
 31
0.0
  0
INSERT
  5
18A39
330
14608
100
AcDbEntity
  8
寸法
 62
     0
 48
50.0
370
    -2
100
AcDbBlockReference
  2
_DOTSMALL
 10
10997.45321339072
 20
10334.7327119454
 30
0.0
 41
100.0
 42
100.0
 43
100.0
  0
INSERT
  5
18A3A
330
14608
100
AcDbEntity
  8
寸法
 62
     0
 48
50.0
370
    -2
100
AcDbBlockReference
  2
_DOTSMALL
 10
11052.45321339072
 20
10334.7327119454
 30
0.0
 41
100.0
 42
100.0
 43
100.0
 50
180.0
  0
MTEXT
  5
18A3B
330
14608
100
AcDbEntity
  8
寸法
 62
     7
 48
50.0
100
AcDbMText
 10
11360.93849476496
 20
10434.7327119454
 30
0.0
 40
120.0
 41
0.0
 71
     5
 72
     1
  1
\A1;55
  7
STYLE1
 73
     1
 44
1.0
1001
ACAD
1000
MTEXTBEGIN
1070
    73
1070
     1
1070
    44
1040
1.0
1070
    74
1070
     0
1000
MTEXTEND
  0
POINT
  5
18A3C
330
14608
100
AcDbEntity
  8
DEFPOINTS
 62
     0
 48
50.0
100
AcDbPoint
 10
10997.45321339072
 20
10043.52754738144
 30
0.0
  0
POINT
  5
18A3D
330
14608
100
AcDbEntity
  8
DEFPOINTS
 62
     0
 48
50.0
100
AcDbPoint
 10
11052.45321339072
 20
10043.52754738144
 30
0.0
  0
POINT
  5
18A3E
330
14608
100
AcDbEntity
  8
DEFPOINTS
 62
     0
 48
50.0
100
AcDbPoint
 10
11052.45321339072
 20
10334.7327119454
 30
0.0
  0
ENDBLK
  5
15CB6
330
14608
100
AcDbEntity
  8
0
 48
50.0
100
AcDbBlockEnd
  0
BLOCK
  5
15CB7
330
14616
100
AcDbEntity
  8
0
 48
50.0
100
AcDbBlockBegin
  2
*D7
 70
     1
 10
0.0
 20
0.0
 30
0.0
  3
*D7
  1

  0
LINE
  5
18A2B
330
14616
100
AcDbEntity
  8
寸法
 62
     0
 48
50.0
370
    -2
100
AcDbLine
 10
9317.453213390718
 20
10063.52754738134
 30
0.0
 11
9317.453213390718
 21
10394.73271194542
 31
0.0
  0
LINE
  5
18A2C
330
14616
100
AcDbEntity
  8
寸法
 62
     0
 48
50.0
370
    -2
100
AcDbLine
 10
10997.45321339072
 20
10063.52754738144
 30
0.0
 11
10997.45321339072
 21
10394.73271194542
 31
0.0
  0
LINE
  5
18A2D
330
14616
100
AcDbEntity
  8
寸法
 62
     0
 48
50.0
370
    -2
100
AcDbLine
 10
9317.453213390718
 20
10334.73271194542
 30
0.0
 11
10997.45321339072
 21
10334.73271194542
 31
0.0
  0
INSERT
  5
18A2E
330
14616
100
AcDbEntity
  8
寸法
 62
     0
 48
50.0
370
    -2
100
AcDbBlockReference
  2
_DOTSMALL
 10
9317.453213390718
 20
10334.73271194542
 30
0.0
 41
100.0
 42
100.0
 43
100.0
 50
180.0
  0
INSERT
  5
18A2F
330
14616
100
AcDbEntity
  8
寸法
 62
     0
 48
50.0
370
    -2
100
AcDbBlockReference
  2
_DOTSMALL
 10
10997.45321339072
 20
10334.73271194542
 30
0.0
 41
100.0
 42
100.0
 43
100.0
  0
MTEXT
  5
18A30
330
14616
100
AcDbEntity
  8
寸法
 62
     7
 48
50.0
100
AcDbMText
 10
10157.45321339072
 20
10434.74452296904
 30
0.0
 40
120.0
 41
0.0
 71
     5
 72
     1
  1
\A1;4X420=1680
  7
STYLE1
 73
     1
 44
1.0
1001
ACAD
1000
MTEXTBEGIN
1070
    73
1070
     1
1070
    44
1040
1.0
1070
    74
1070
     0
1000
MTEXTEND
  0
POINT
  5
18A31
330
14616
100
AcDbEntity
  8
DEFPOINTS
 62
     0
 48
50.0
100
AcDbPoint
 10
9317.453213390718
 20
10043.52754738134
 30
0.0
  0
POINT
  5
18A32
330
14616
100
AcDbEntity
  8
DEFPOINTS
 62
     0
 48
50.0
100
AcDbPoint
 10
10997.45321339072
 20
10043.52754738144
 30
0.0
  0
POINT
  5
18A33
330
14616
100
AcDbEntity
  8
DEFPOINTS
 62
     0
 48
50.0
100
AcDbPoint
 10
10997.45321339072
 20
10334.73271194542
 30
0.0
  0
ENDBLK
  5
15CC1
330
14616
100
AcDbEntity
  8
0
 48
50.0
100
AcDbBlockEnd
  0
BLOCK
  5
16113
330
1608D
100
AcDbEntity
  8
0
 48
50.0
100
AcDbBlockBegin
  2
*D8
 70
     1
 10
0.0
 20
0.0
 30
0.0
  3
*D8
  1

  0
LINE
  5
18A22
330
1608D
100
AcDbEntity
  8
寸法
 62
     0
 48
50.0
370
    -2
100
AcDbLine
 10
10552.45321339083
 20
8720.386531230039
 30
0.0
 11
10308.70243269963
 21
8785.699356070704
 31
0.0
  0
LINE
  5
18A23
330
1608D
100
AcDbEntity
  8
寸法
 62
     0
 48
50.0
370
    -2
100
AcDbLine
 10
10552.45321339083
 20
7867.386531230026
 30
0.0
 11
10308.70243269963
 21
7932.699356070689
 31
0.0
  0
LINE
  5
18A24
330
1608D
100
AcDbEntity
  8
寸法
 62
     0
 48
50.0
370
    -2
100
AcDbLine
 10
10368.70243269963
 20
8769.622404524836
 30
0.0
 11
10368.70243269963
 21
7916.622404524821
 31
0.0
  0
INSERT
  5
18A25
330
1608D
100
AcDbEntity
  8
寸法
 62
     0
 48
50.0
370
    -2
100
AcDbBlockReference
  2
_DOTSMALL
 10
10368.70243269963
 20
8769.622404524836
 30
0.0
 41
100.0
 42
100.0
 43
100.0
 50
90.0
  0
INSERT
  5
18A26
330
1608D
100
AcDbEntity
  8
寸法
 62
     0
 48
50.0
370
    -2
100
AcDbBlockReference
  2
_DOTSMALL
 10
10368.70243269963
 20
7916.622404524821
 30
0.0
 41
100.0
 42
100.0
 43
100.0
 50
270.0
  0
MTEXT
  5
18A27
330
1608D
100
AcDbEntity
  8
寸法
 62
     7
 48
50.0
100
AcDbMText
 10
10268.70243269963
 20
8277.829077052039
 30
0.0
 40
120.0
 41
0.0
 71
     5
 72
     1
  1
\A1;853
  7
STYLE1
 11
0.0000000000000001
 21
1.0
 31
0.0
 73
     1
 44
1.0
1001
ACAD
1000
MTEXTBEGIN
1070
    73
1070
     1
1070
    44
1040
1.0
1070
    74
1070
     0
1000
MTEXTEND
  0
POINT
  5
18A28
330
1608D
100
AcDbEntity
  8
DEFPOINTS
 62
     0
 48
50.0
100
AcDbPoint
 10
10572.45321339083
 20
8715.027547381415
 30
0.0
  0
POINT
  5
18A29
330
1608D
100
AcDbEntity
  8
DEFPOINTS
 62
     0
 48
50.0
100
AcDbPoint
 10
10572.45321339083
 20
7862.027547381403
 30
0.0
  0
POINT
  5
18A2A
330
1608D
100
AcDbEntity
  8
DEFPOINTS
 62
     0
 48
50.0
100
AcDbPoint
 10
10368.70243269963
 20
7916.622404524821
 30
0.0
  0
ENDBLK
  5
1611D
330
1608D
100
AcDbEntity
  8
0
 48
50.0
100
AcDbBlockEnd
  0
BLOCK
  5
16108
330
16099
100
AcDbEntity
  8
0
 48
50.0
100
AcDbBlockBegin
  2
*D9
 70
     1
 10
0.0
 20
0.0
 30
0.0
  3
*D9
  1

  0
LINE
  5
18A8E
330
16099
100
AcDbEntity
  8
寸法
 62
     0
 48
50.0
370
    -2
100
AcDbLine
 10
10552.45321339078
 20
10020.3865312301
 30
0.0
 11
10308.70243269963
 21
10085.69935607075
 31
0.0
  0
LINE
  5
18A8F
330
16099
100
AcDbEntity
  8
寸法
 62
     0
 48
50.0
370
    -2
100
AcDbLine
 10
10552.45321339077
 20
8747.386531230038
 30
0.0
 11
10308.70243269963
 21
8812.699356070684
 31
0.0
  0
LINE
  5
18A90
330
16099
100
AcDbEntity
  8
寸法
 62
     0
 48
50.0
370
    -2
100
AcDbLine
 10
10368.70243269963
 20
10069.62240452489
 30
0.0
 11
10368.70243269963
 21
8796.622404524816
 31
0.0
  0
INSERT
  5
18A91
330
16099
100
AcDbEntity
  8
寸法
 62
     0
 48
50.0
370
    -2
100
AcDbBlockReference
  2
_DOTSMALL
 10
10368.70243269963
 20
10069.62240452489
 30
0.0
 41
100.0
 42
100.0
 43
100.0
 50
90.0
  0
INSERT
  5
18A92
330
16099
100
AcDbEntity
  8
寸法
 62
     0
 48
50.0
370
    -2
100
AcDbBlockReference
  2
_DOTSMALL
 10
10368.70243269963
 20
8796.622404524816
 30
0.0
 41
100.0
 42
100.0
 43
100.0
 50
270.0
  0
MTEXT
  5
18A93
330
16099
100
AcDbEntity
  8
寸法
 62
     7
 48
50.0
100
AcDbMText
 10
10268.69062167601
 20
9470.292061545356
 30
0.0
 40
120.0
 41
0.0
 71
     5
 72
     1
  1
\A1;1273
  7
STYLE1
 11
0.0000000000000001
 21
1.0
 31
0.0
 73
     1
 44
1.0
1001
ACAD
1000
MTEXTBEGIN
1070
    73
1070
     1
1070
    44
1040
1.0
1070
    74
1070
     0
1000
MTEXTEND
  0
POINT
  5
18A94
330
16099
100
AcDbEntity
  8
DEFPOINTS
 62
     0
 48
50.0
100
AcDbPoint
 10
10572.45321339078
 20
10015.02754738148
 30
0.0
  0
POINT
  5
18A95
330
16099
100
AcDbEntity
  8
DEFPOINTS
 62
     0
 48
50.0
100
AcDbPoint
 10
10572.45321339077
 20
8742.027547381415
 30
0.0
  0
POINT
  5
18A96
330
16099
100
AcDbEntity
  8
DEFPOINTS
 62
     0
 48
50.0
100
AcDbPoint
 10
10368.70243269963
 20
8796.622404524816
 30
0.0
  0
ENDBLK
  5
16112
330
16099
100
AcDbEntity
  8
0
 48
50.0
100
AcDbBlockEnd
  0
BLOCK
  5
16139
330
16138
100
AcDbEntity
  8
0
 48
50.0
100
AcDbBlockBegin
  2
_DOT
 70
     0
 10
0.0
 20
0.0
 30
0.0
  3
_DOT
  1

  0
LWPOLYLINE
  5
1613A
330
16138
100
AcDbEntity
  8
0
  6
ByBlock
 62
     0
 48
50.0
100
AcDbPolyline
 90
        2
 70
     1
 43
0.5
 10
-0.25
 20
0.0
 42
1.0
 10
0.25
 20
0.0
 42
1.0
  0
LINE
  5
1613B
330
16138
100
AcDbEntity
  8
0
  6
ByBlock
 62
     0
 48
50.0
100
AcDbLine
 10
-0.5
 20
0.0
 30
0.0
 11
-1.0
 21
0.0
 31
0.0
  0
ENDBLK
  5
1613C
330
16138
100
AcDbEntity
  8
0
 48
50.0
100
AcDbBlockEnd
  0
BLOCK
  5
16960
330
16956
100
AcDbEntity
  8
0
 48
50.0
100
AcDbBlockBegin
  2
*D11
 70
     1
 10
0.0
 20
0.0
 30
0.0
  3
*D11
  1

  0
LINE
  5
17B07
330
16956
100
AcDbEntity
  8
寸法
 62
     0
 48
50.0
370
    -2
100
AcDbLine
 10
9362.453213390711
 20
2307.318191387719
 30
0.0
 11
9362.453213390711
 21
1981.270862087342
 31
0.0
  0
LINE
  5
17B08
330
16956
100
AcDbEntity
  8
寸法
 62
     0
 48
50.0
370
    -2
100
AcDbLine
 10
9162.45321339071
 20
2307.318191387719
 30
0.0
 11
9162.45321339071
 21
1981.270862087342
 31
0.0
  0
LINE
  5
17B09
330
16956
100
AcDbEntity
  8
寸法
 62
     0
 48
50.0
370
    -2
100
AcDbLine
 10
9362.453213390711
 20
2041.270862087342
 30
0.0
 11
9162.45321339071
 21
2041.270862087342
 31
0.0
  0
INSERT
  5
17B0A
330
16956
100
AcDbEntity
  8
寸法
 62
     0
 48
50.0
370
    -2
100
AcDbBlockReference
  2
_DOTSMALL
 10
9362.453213390711
 20
2041.270862087342
 30
0.0
 41
100.0
 42
100.0
 43
100.0
  0
INSERT
  5
17B0B
330
16956
100
AcDbEntity
  8
寸法
 62
     0
 48
50.0
370
    -2
100
AcDbBlockReference
  2
_DOTSMALL
 10
9162.45321339071
 20
2041.270862087342
 30
0.0
 41
100.0
 42
100.0
 43
100.0
 50
180.0
  0
MTEXT
  5
17B0C
330
16956
100
AcDbEntity
  8
寸法
 62
     7
 48
50.0
100
AcDbMText
 10
9262.45321339071
 20
2141.282673110964
 30
0.0
 40
120.0
 41
0.0
 71
     5
 72
     1
  1
\A1;200
  7
STYLE1
 73
     1
 44
1.0
1001
ACAD
1000
MTEXTBEGIN
1070
    73
1070
     1
1070
    44
1040
1.0
1070
    74
1070
     0
1000
MTEXTEND
  0
POINT
  5
17B0D
330
16956
100
AcDbEntity
  8
DEFPOINTS
 62
     0
 48
50.0
100
AcDbPoint
 10
9362.453213390711
 20
2327.318191387719
 30
0.0
  0
POINT
  5
17B0E
330
16956
100
AcDbEntity
  8
DEFPOINTS
 62
     0
 48
50.0
100
AcDbPoint
 10
9162.45321339071
 20
2327.318191387719
 30
0.0
  0
POINT
  5
17B0F
330
16956
100
AcDbEntity
  8
DEFPOINTS
 62
     0
 48
50.0
100
AcDbPoint
 10
9162.45321339071
 20
2041.270862087342
 30
0.0
  0
ENDBLK
  5
16961
330
16956
100
AcDbEntity
  8
0
 48
50.0
100
AcDbBlockEnd
  0
BLOCK
  5
16986
330
1697C
100
AcDbEntity
  8
0
 48
50.0
100
AcDbBlockBegin
  2
*D12
 70
     1
 10
0.0
 20
0.0
 30
0.0
  3
*D12
  1

  0
LINE
  5
17AFE
330
1697C
100
AcDbEntity
  8
寸法
 62
     0
 48
50.0
370
    -2
100
AcDbLine
 10
11052.45321339071
 20
4722.318191387725
 30
0.0
 11
11052.45321339071
 21
5161.411360727193
 31
0.0
  0
LINE
  5
17AFF
330
1697C
100
AcDbEntity
  8
寸法
 62
     0
 48
50.0
370
    -2
100
AcDbLine
 10
9262.45321339071
 20
4722.318191387726
 30
0.0
 11
9262.45321339071
 21
5161.411360727193
 31
0.0
  0
LINE
  5
17B00
330
1697C
100
AcDbEntity
  8
寸法
 62
     0
 48
50.0
370
    -2
100
AcDbLine
 10
11052.45321339071
 20
5101.411360727193
 30
0.0
 11
9262.45321339071
 21
5101.411360727193
 31
0.0
  0
INSERT
  5
17B01
330
1697C
100
AcDbEntity
  8
寸法
 62
     0
 48
50.0
370
    -2
100
AcDbBlockReference
  2
_DOTSMALL
 10
11052.45321339071
 20
5101.411360727193
 30
0.0
 41
100.0
 42
100.0
 43
100.0
  0
INSERT
  5
17B02
330
1697C
100
AcDbEntity
  8
寸法
 62
     0
 48
50.0
370
    -2
100
AcDbBlockReference
  2
_DOTSMALL
 10
9262.45321339071
 20
5101.411360727193
 30
0.0
 41
100.0
 42
100.0
 43
100.0
 50
180.0
  0
MTEXT
  5
17B03
330
1697C
100
AcDbEntity
  8
寸法
 62
     7
 48
50.0
100
AcDbMText
 10
10157.45321339071
 20
5201.411360727193
 30
0.0
 40
120.0
 41
0.0
 71
     5
 72
     1
  1
\A1;柱外寸法1790
  7
STYLE1
 73
     1
 44
1.0
1001
ACAD
1000
MTEXTBEGIN
1070
    73
1070
     1
1070
    44
1040
1.0
1070
    74
1070
     0
1000
MTEXTEND
  0
POINT
  5
17B04
330
1697C
100
AcDbEntity
  8
DEFPOINTS
 62
     0
 48
50.0
100
AcDbPoint
 10
11052.45321339071
 20
4702.318191387725
 30
0.0
  0
POINT
  5
17B05
330
1697C
100
AcDbEntity
  8
DEFPOINTS
 62
     0
 48
50.0
100
AcDbPoint
 10
9262.45321339071
 20
4702.318191387726
 30
0.0
  0
POINT
  5
17B06
330
1697C
100
AcDbEntity
  8
DEFPOINTS
 62
     0
 48
50.0
100
AcDbPoint
 10
9262.45321339071
 20
5101.411360727193
 30
0.0
  0
ENDBLK
  5
16987
330
1697C
100
AcDbEntity
  8
0
 48
50.0
100
AcDbBlockEnd
  0
BLOCK
  5
16994
330
16988
100
AcDbEntity
  8
0
 48
50.0
100
AcDbBlockBegin
  2
*D13
 70
     1
 10
0.0
 20
0.0
 30
0.0
  3
*D13
  1

  0
LINE
  5
17AF3
330
16988
100
AcDbEntity
  8
寸法
 62
     0
 48
50.0
370
    -2
100
AcDbLine
 10
9262.45321339071
 20
4722.318191387726
 30
0.0
 11
9262.45321339071
 21
5161.411360727193
 31
0.0
  0
LINE
  5
17AF4
330
16988
100
AcDbEntity
  8
寸法
 62
     0
 48
50.0
370
    -2
100
AcDbLine
 10
9212.453213390709
 20
4722.318191387725
 30
0.0
 11
9212.453213390709
 21
5161.411360727193
 31
0.0
  0
LINE
  5
17AF5
330
16988
100
AcDbEntity
  8
寸法
 62
     0
 48
50.0
370
    -2
100
AcDbLine
 10
9262.45321339071
 20
5101.411360727193
 30
0.0
 11
9362.453213390709
 21
5101.411360727193
 31
0.0
  0
LINE
  5
17AF6
330
16988
100
AcDbEntity
  8
寸法
 62
     0
 48
50.0
370
    -2
100
AcDbLine
 10
9212.453213390709
 20
5101.411360727193
 30
0.0
 11
8792.920687921975
 21
5101.411360727193
 31
0.0
  0
LINE
  5
17AF7
330
16988
100
AcDbEntity
  8
寸法
 62
     0
 48
50.0
370
    -2
100
AcDbLine
 10
9262.45321339071
 20
5101.411360727193
 30
0.0
 11
9212.453213390709
 21
5101.411360727193
 31
0.0
  0
INSERT
  5
17AF8
330
16988
100
AcDbEntity
  8
寸法
 62
     0
 48
50.0
370
    -2
100
AcDbBlockReference
  2
_DOTSMALL
 10
9262.45321339071
 20
5101.411360727193
 30
0.0
 41
100.0
 42
100.0
 43
100.0
 50
180.0
  0
INSERT
  5
17AF9
330
16988
100
AcDbEntity
  8
寸法
 62
     0
 48
50.0
370
    -2
100
AcDbBlockReference
  2
_DOTSMALL
 10
9212.453213390709
 20
5101.411360727193
 30
0.0
 41
100.0
 42
100.0
 43
100.0
  0
MTEXT
  5
17AFA
330
16988
100
AcDbEntity
  8
寸法
 62
     7
 48
50.0
100
AcDbMText
 10
8898.967932016461
 20
5201.411360727193
 30
0.0
 40
120.0
 41
0.0
 71
     5
 72
     1
  1
\A1;50
  7
STYLE1
 73
     1
 44
1.0
1001
ACAD
1000
MTEXTBEGIN
1070
    73
1070
     1
1070
    44
1040
1.0
1070
    74
1070
     0
1000
MTEXTEND
  0
POINT
  5
17AFB
330
16988
100
AcDbEntity
  8
DEFPOINTS
 62
     0
 48
50.0
100
AcDbPoint
 10
9262.45321339071
 20
4702.318191387726
 30
0.0
  0
POINT
  5
17AFC
330
16988
100
AcDbEntity
  8
DEFPOINTS
 62
     0
 48
50.0
100
AcDbPoint
 10
9212.453213390709
 20
4702.318191387725
 30
0.0
  0
POINT
  5
17AFD
330
16988
100
AcDbEntity
  8
DEFPOINTS
 62
     0
 48
50.0
100
AcDbPoint
 10
9212.453213390709
 20
5101.411360727193
 30
0.0
  0
ENDBLK
  5
16995
330
16988
100
AcDbEntity
  8
0
 48
50.0
100
AcDbBlockEnd
  0
BLOCK
  5
169A0
330
16996
100
AcDbEntity
  8
0
 48
50.0
100
AcDbBlockBegin
  2
*D14
 70
     1
 10
0.0
 20
0.0
 30
0.0
  3
*D14
  1

  0
LINE
  5
17AEA
330
16996
100
AcDbEntity
  8
寸法
 62
     0
 48
50.0
370
    -2
100
AcDbLine
 10
9212.453213390709
 20
4722.318191387725
 30
0.0
 11
9212.453213390709
 21
5377.937460345638
 31
0.0
  0
LINE
  5
17AEB
330
16996
100
AcDbEntity
  8
寸法
 62
     0
 48
50.0
370
    -2
100
AcDbLine
 10
11102.45321339071
 20
4722.318191387723
 30
0.0
 11
11102.45321339071
 21
5377.937460345638
 31
0.0
  0
LINE
  5
17AEC
330
16996
100
AcDbEntity
  8
寸法
 62
     0
 48
50.0
370
    -2
100
AcDbLine
 10
9212.453213390709
 20
5317.937460345638
 30
0.0
 11
11102.45321339071
 21
5317.937460345638
 31
0.0
  0
INSERT
  5
17AED
330
16996
100
AcDbEntity
  8
寸法
 62
     0
 48
50.0
370
    -2
100
AcDbBlockReference
  2
_DOTSMALL
 10
9212.453213390709
 20
5317.937460345638
 30
0.0
 41
100.0
 42
100.0
 43
100.0
 50
180.0
  0
INSERT
  5
17AEE
330
16996
100
AcDbEntity
  8
寸法
 62
     0
 48
50.0
370
    -2
100
AcDbBlockReference
  2
_DOTSMALL
 10
11102.45321339071
 20
5317.937460345638
 30
0.0
 41
100.0
 42
100.0
 43
100.0
  0
MTEXT
  5
17AEF
330
16996
100
AcDbEntity
  8
寸法
 62
     7
 48
50.0
100
AcDbMText
 10
10157.45321339071
 20
5417.937460345638
 30
0.0
 40
120.0
 41
0.0
 71
     5
 72
     1
  1
\A1;1890
  7
STYLE1
 73
     1
 44
1.0
1001
ACAD
1000
MTEXTBEGIN
1070
    73
1070
     1
1070
    44
1040
1.0
1070
    74
1070
     0
1000
MTEXTEND
  0
POINT
  5
17AF0
330
16996
100
AcDbEntity
  8
DEFPOINTS
 62
     0
 48
50.0
100
AcDbPoint
 10
9212.453213390709
 20
4702.318191387725
 30
0.0
  0
POINT
  5
17AF1
330
16996
100
AcDbEntity
  8
DEFPOINTS
 62
     0
 48
50.0
100
AcDbPoint
 10
11102.45321339071
 20
4702.318191387722
 30
0.0
  0
POINT
  5
17AF2
330
16996
100
AcDbEntity
  8
DEFPOINTS
 62
     0
 48
50.0
100
AcDbPoint
 10
11102.45321339071
 20
5317.937460345638
 30
0.0
  0
ENDBLK
  5
169A1
330
16996
100
AcDbEntity
  8
0
 48
50.0
100
AcDbBlockEnd
  0
BLOCK
  5
169AC
330
169A2
100
AcDbEntity
  8
0
 48
50.0
100
AcDbBlockBegin
  2
*D15
 70
     1
 10
0.0
 20
0.0
 30
0.0
  3
*D15
  1

  0
LINE
  5
17AE1
330
169A2
100
AcDbEntity
  8
寸法
 62
     0
 48
50.0
370
    -2
100
AcDbLine
 10
9270.453213390725
 20
4410.31819138772
 30
0.0
 11
8931.247184178575
 21
4410.31819138772
 31
0.0
  0
LINE
  5
17AE2
330
169A2
100
AcDbEntity
  8
寸法
 62
     0
 48
50.0
370
    -2
100
AcDbLine
 10
9270.453213390725
 20
2685.31819138772
 30
0.0
 11
8931.247184178573
 21
2685.31819138772
 31
0.0
  0
LINE
  5
17AE3
330
169A2
100
AcDbEntity
  8
寸法
 62
     0
 48
50.0
370
    -2
100
AcDbLine
 10
8991.247184178575
 20
4410.31819138772
 30
0.0
 11
8991.247184178574
 21
2685.31819138772
 31
0.0
  0
INSERT
  5
17AE4
330
169A2
100
AcDbEntity
  8
寸法
 62
     0
 48
50.0
370
    -2
100
AcDbBlockReference
  2
_DOTSMALL
 10
8991.247184178575
 20
4410.31819138772
 30
0.0
 41
100.0
 42
100.0
 43
100.0
 50
90.0
  0
INSERT
  5
17AE5
330
169A2
100
AcDbEntity
  8
寸法
 62
     0
 48
50.0
370
    -2
100
AcDbBlockReference
  2
_DOTSMALL
 10
8991.247184178574
 20
2685.31819138772
 30
0.0
 41
100.0
 42
100.0
 43
100.0
 50
270.0
  0
MTEXT
  5
17AE6
330
169A2
100
AcDbEntity
  8
寸法
 62
     7
 48
50.0
100
AcDbMText
 10
8891.235373154952
 20
3538.951210405245
 30
0.0
 40
120.0
 41
0.0
 71
     5
 72
     1
  1
\A1;有効開口部高サ1725
  7
STYLE1
 11
0.0000000000000001
 21
1.0
 31
0.0
 73
     1
 44
1.0
1001
ACAD
1000
MTEXTBEGIN
1070
    73
1070
     1
1070
    44
1040
1.0
1070
    74
1070
     0
1000
MTEXTEND
  0
POINT
  5
17AE7
330
169A2
100
AcDbEntity
  8
DEFPOINTS
 62
     0
 48
50.0
100
AcDbPoint
 10
9290.453213390724
 20
4410.31819138772
 30
0.0
  0
POINT
  5
17AE8
330
169A2
100
AcDbEntity
  8
DEFPOINTS
 62
     0
 48
50.0
100
AcDbPoint
 10
9290.453213390724
 20
2685.31819138772
 30
0.0
  0
POINT
  5
17AE9
330
169A2
100
AcDbEntity
  8
DEFPOINTS
 62
     0
 48
50.0
100
AcDbPoint
 10
8991.247184178574
 20
2685.31819138772
 30
0.0
  0
ENDBLK
  5
169AD
330
169A2
100
AcDbEntity
  8
0
 48
50.0
100
AcDbBlockEnd
  0
BLOCK
  5
169BA
330
169AE
100
AcDbEntity
  8
0
 48
50.0
100
AcDbBlockBegin
  2
*D16
 70
     1
 10
0.0
 20
0.0
 30
0.0
  3
*D16
  1

  0
LINE
  5
17AD6
330
169AE
100
AcDbEntity
  8
寸法
 62
     0
 48
50.0
370
    -2
100
AcDbLine
 10
11102.45321339071
 20
4722.318191387723
 30
0.0
 11
11102.45321339071
 21
5161.411360727193
 31
0.0
  0
LINE
  5
17AD7
330
169AE
100
AcDbEntity
  8
寸法
 62
     0
 48
50.0
370
    -2
100
AcDbLine
 10
11052.45321339071
 20
4722.318191387725
 30
0.0
 11
11052.45321339071
 21
5161.411360727193
 31
0.0
  0
LINE
  5
17AD8
330
169AE
100
AcDbEntity
  8
寸法
 62
     0
 48
50.0
370
    -2
100
AcDbLine
 10
11052.45321339071
 20
5101.411360727193
 30
0.0
 11
10952.45321339071
 21
5101.411360727193
 31
0.0
  0
LINE
  5
17AD9
330
169AE
100
AcDbEntity
  8
寸法
 62
     0
 48
50.0
370
    -2
100
AcDbLine
 10
11102.45321339071
 20
5101.411360727193
 30
0.0
 11
11521.98573885943
 21
5101.411360727193
 31
0.0
  0
LINE
  5
17ADA
330
169AE
100
AcDbEntity
  8
寸法
 62
     0
 48
50.0
370
    -2
100
AcDbLine
 10
11052.45321339071
 20
5101.411360727193
 30
0.0
 11
11102.45321339071
 21
5101.411360727193
 31
0.0
  0
INSERT
  5
17ADB
330
169AE
100
AcDbEntity
  8
寸法
 62
     0
 48
50.0
370
    -2
100
AcDbBlockReference
  2
_DOTSMALL
 10
11052.45321339071
 20
5101.411360727193
 30
0.0
 41
100.0
 42
100.0
 43
100.0
  0
INSERT
  5
17ADC
330
169AE
100
AcDbEntity
  8
寸法
 62
     0
 48
50.0
370
    -2
100
AcDbBlockReference
  2
_DOTSMALL
 10
11102.45321339071
 20
5101.411360727193
 30
0.0
 41
100.0
 42
100.0
 43
100.0
 50
180.0
  0
MTEXT
  5
17ADD
330
169AE
100
AcDbEntity
  8
寸法
 62
     7
 48
50.0
100
AcDbMText
 10
11415.93849476494
 20
5201.411360727193
 30
0.0
 40
120.0
 41
0.0
 71
     5
 72
     1
  1
\A1;50
  7
STYLE1
 73
     1
 44
1.0
1001
ACAD
1000
MTEXTBEGIN
1070
    73
1070
     1
1070
    44
1040
1.0
1070
    74
1070
     0
1000
MTEXTEND
  0
POINT
  5
17ADE
330
169AE
100
AcDbEntity
  8
DEFPOINTS
 62
     0
 48
50.0
100
AcDbPoint
 10
11102.45321339071
 20
4702.318191387722
 30
0.0
  0
POINT
  5
17ADF
330
169AE
100
AcDbEntity
  8
DEFPOINTS
 62
     0
 48
50.0
100
AcDbPoint
 10
11052.45321339071
 20
4702.318191387725
 30
0.0
  0
POINT
  5
17AE0
330
169AE
100
AcDbEntity
  8
DEFPOINTS
 62
     0
 48
50.0
100
AcDbPoint
 10
11052.45321339071
 20
5101.411360727193
 30
0.0
  0
ENDBLK
  5
169BB
330
169AE
100
AcDbEntity
  8
0
 48
50.0
100
AcDbBlockEnd
  0
BLOCK
  5
172FE
330
172F4
100
AcDbEntity
  8
0
 48
50.0
100
AcDbBlockBegin
  2
*D17
 70
     1
 10
0.0
 20
0.0
 30
0.0
  3
*D17
  1

  0
LINE
  5
17ACD
330
172F4
100
AcDbEntity
  8
寸法
 62
     0
 48
50.0
370
    -2
100
AcDbLine
 10
7257.356184053453
 20
2627.318191387718
 30
0.0
 11
7780.462807995039
 21
2627.318191387718
 31
0.0
  0
LINE
  5
17ACE
330
172F4
100
AcDbEntity
  8
寸法
 62
     0
 48
50.0
370
    -2
100
AcDbLine
 10
7260.356184053449
 20
4647.31819138772
 30
0.0
 11
7780.462807995039
 21
4647.31819138772
 31
0.0
  0
LINE
  5
17ACF
330
172F4
100
AcDbEntity
  8
寸法
 62
     0
 48
50.0
370
    -2
100
AcDbLine
 10
7720.46280799504
 20
2627.318191387718
 30
0.0
 11
7720.46280799504
 21
4647.31819138772
 31
0.0
  0
INSERT
  5
17AD0
330
172F4
100
AcDbEntity
  8
寸法
 62
     0
 48
50.0
370
    -2
100
AcDbBlockReference
  2
_DOTSMALL
 10
7720.46280799504
 20
2627.318191387718
 30
0.0
 41
100.0
 42
100.0
 43
100.0
 50
270.0
  0
INSERT
  5
17AD1
330
172F4
100
AcDbEntity
  8
寸法
 62
     0
 48
50.0
370
    -2
100
AcDbBlockReference
  2
_DOTSMALL
 10
7720.46280799504
 20
4647.31819138772
 30
0.0
 41
100.0
 42
100.0
 43
100.0
 50
90.0
  0
MTEXT
  5
17AD2
330
172F4
100
AcDbEntity
  8
寸法
 62
     7
 48
50.0
100
AcDbMText
 10
7620.450996971417
 20
3649.370872634656
 30
0.0
 40
120.0
 41
0.0
 71
     5
 72
     1
  1
\A1;2020
  7
STYLE1
 11
0.0000000000000001
 21
1.0
 31
0.0
 73
     1
 44
1.0
1001
ACAD
1000
MTEXTBEGIN
1070
    73
1070
     1
1070
    44
1040
1.0
1070
    74
1070
     0
1000
MTEXTEND
  0
POINT
  5
17AD3
330
172F4
100
AcDbEntity
  8
DEFPOINTS
 62
     0
 48
50.0
100
AcDbPoint
 10
7237.356184053453
 20
2627.318191387718
 30
0.0
  0
POINT
  5
17AD4
330
172F4
100
AcDbEntity
  8
DEFPOINTS
 62
     0
 48
50.0
100
AcDbPoint
 10
7240.35618405345
 20
4647.31819138772
 30
0.0
  0
POINT
  5
17AD5
330
172F4
100
AcDbEntity
  8
DEFPOINTS
 62
     0
 48
50.0
100
AcDbPoint
 10
7720.46280799504
 20
4647.31819138772
 30
0.0
  0
ENDBLK
  5
172FF
330
172F4
100
AcDbEntity
  8
0
 48
50.0
100
AcDbBlockEnd
  0
BLOCK
  5
1730A
330
17300
100
AcDbEntity
  8
0
 48
50.0
100
AcDbBlockBegin
  2
*D18
 70
     1
 10
0.0
 20
0.0
 30
0.0
  3
*D18
  1

  0
LINE
  5
17AC4
330
17300
100
AcDbEntity
  8
寸法
 62
     0
 48
50.0
370
    -2
100
AcDbLine
 10
7160.356184053449
 20
4669.128870999371
 30
0.0
 11
7160.356184053449
 21
5160.975644967023
 31
0.0
  0
LINE
  5
17AC5
330
17300
100
AcDbEntity
  8
寸法
 62
     0
 48
50.0
370
    -2
100
AcDbLine
 10
4950.35618405345
 20
4718.319809510696
 30
0.0
 11
4950.35618405345
 21
5160.975644967023
 31
0.0
  0
LINE
  5
17AC6
330
17300
100
AcDbEntity
  8
寸法
 62
     0
 48
50.0
370
    -2
100
AcDbLine
 10
7160.356184053449
 20
5100.975644967023
 30
0.0
 11
4950.35618405345
 21
5100.975644967023
 31
0.0
  0
INSERT
  5
17AC7
330
17300
100
AcDbEntity
  8
寸法
 62
     0
 48
50.0
370
    -2
100
AcDbBlockReference
  2
_DOTSMALL
 10
7160.356184053449
 20
5100.975644967023
 30
0.0
 41
100.0
 42
100.0
 43
100.0
  0
INSERT
  5
17AC8
330
17300
100
AcDbEntity
  8
寸法
 62
     0
 48
50.0
370
    -2
100
AcDbBlockReference
  2
_DOTSMALL
 10
4950.35618405345
 20
5100.975644967023
 30
0.0
 41
100.0
 42
100.0
 43
100.0
 50
180.0
  0
MTEXT
  5
17AC9
330
17300
100
AcDbEntity
  8
寸法
 62
     7
 48
50.0
100
AcDbMText
 10
6045.000921123963
 20
5200.987455990645
 30
0.0
 40
120.0
 41
0.0
 71
     5
 72
     1
  1
\A1;柱外寸法2210
  7
STYLE1
 73
     1
 44
1.0
1001
ACAD
1000
MTEXTBEGIN
1070
    73
1070
     1
1070
    44
1040
1.0
1070
    74
1070
     0
1000
MTEXTEND
  0
POINT
  5
17ACA
330
17300
100
AcDbEntity
  8
DEFPOINTS
 62
     0
 48
50.0
100
AcDbPoint
 10
7160.356184053449
 20
4649.128870999372
 30
0.0
  0
POINT
  5
17ACB
330
17300
100
AcDbEntity
  8
DEFPOINTS
 62
     0
 48
50.0
100
AcDbPoint
 10
4950.35618405345
 20
4698.319809510696
 30
0.0
  0
POINT
  5
17ACC
330
17300
100
AcDbEntity
  8
DEFPOINTS
 62
     0
 48
50.0
100
AcDbPoint
 10
4950.35618405345
 20
5100.975644967023
 30
0.0
  0
ENDBLK
  5
1730B
330
17300
100
AcDbEntity
  8
0
 48
50.0
100
AcDbBlockEnd
  0
BLOCK
  5
17318
330
1730C
100
AcDbEntity
  8
0
 48
50.0
100
AcDbBlockBegin
  2
*D19
 70
     1
 10
0.0
 20
0.0
 30
0.0
  3
*D19
  1

  0
LINE
  5
17AB9
330
1730C
100
AcDbEntity
  8
寸法
 62
     0
 48
50.0
370
    -2
100
AcDbLine
 10
4950.35618405345
 20
4718.319809510696
 30
0.0
 11
4950.35618405345
 21
5160.975644967023
 31
0.0
  0
LINE
  5
17ABA
330
1730C
100
AcDbEntity
  8
寸法
 62
     0
 48
50.0
370
    -2
100
AcDbLine
 10
4890.356184053449
 20
4722.318191387723
 30
0.0
 11
4890.356184053449
 21
5160.975644967023
 31
0.0
  0
LINE
  5
17ABB
330
1730C
100
AcDbEntity
  8
寸法
 62
     0
 48
50.0
370
    -2
100
AcDbLine
 10
4950.35618405345
 20
5100.975644967023
 30
0.0
 11
5050.356184053449
 21
5100.975644967023
 31
0.0
  0
LINE
  5
17ABC
330
1730C
100
AcDbEntity
  8
寸法
 62
     0
 48
50.0
370
    -2
100
AcDbLine
 10
4890.356184053449
 20
5100.975644967023
 30
0.0
 11
4471.080593502268
 21
5100.975644967023
 31
0.0
  0
LINE
  5
17ABD
330
1730C
100
AcDbEntity
  8
寸法
 62
     0
 48
50.0
370
    -2
100
AcDbLine
 10
4950.35618405345
 20
5100.975644967023
 30
0.0
 11
4890.356184053449
 21
5100.975644967023
 31
0.0
  0
INSERT
  5
17ABE
330
1730C
100
AcDbEntity
  8
寸法
 62
     0
 48
50.0
370
    -2
100
AcDbBlockReference
  2
_DOTSMALL
 10
4950.35618405345
 20
5100.975644967023
 30
0.0
 41
100.0
 42
100.0
 43
100.0
 50
180.0
  0
INSERT
  5
17ABF
330
1730C
100
AcDbEntity
  8
寸法
 62
     0
 48
50.0
370
    -2
100
AcDbBlockReference
  2
_DOTSMALL
 10
4890.356184053449
 20
5100.975644967023
 30
0.0
 41
100.0
 42
100.0
 43
100.0
  0
MTEXT
  5
17AC0
330
1730C
100
AcDbEntity
  8
寸法
 62
     7
 48
50.0
100
AcDbMText
 10
4580.718388777859
 20
5200.975644967023
 30
0.0
 40
120.0
 41
0.0
 71
     5
 72
     1
  1
\A1;60
  7
STYLE1
 73
     1
 44
1.0
1001
ACAD
1000
MTEXTBEGIN
1070
    73
1070
     1
1070
    44
1040
1.0
1070
    74
1070
     0
1000
MTEXTEND
  0
POINT
  5
17AC1
330
1730C
100
AcDbEntity
  8
DEFPOINTS
 62
     0
 48
50.0
100
AcDbPoint
 10
4950.35618405345
 20
4698.319809510696
 30
0.0
  0
POINT
  5
17AC2
330
1730C
100
AcDbEntity
  8
DEFPOINTS
 62
     0
 48
50.0
100
AcDbPoint
 10
4890.356184053449
 20
4702.318191387723
 30
0.0
  0
POINT
  5
17AC3
330
1730C
100
AcDbEntity
  8
DEFPOINTS
 62
     0
 48
50.0
100
AcDbPoint
 10
4890.356184053449
 20
5100.975644967023
 30
0.0
  0
ENDBLK
  5
17319
330
1730C
100
AcDbEntity
  8
0
 48
50.0
100
AcDbBlockEnd
  0
BLOCK
  5
17324
330
1731A
100
AcDbEntity
  8
0
 48
50.0
100
AcDbBlockBegin
  2
*D20
 70
     1
 10
0.0
 20
0.0
 30
0.0
  3
*D20
  1

  0
LINE
  5
17AB0
330
1731A
100
AcDbEntity
  8
寸法
 62
     0
 48
50.0
370
    -2
100
AcDbLine
 10
7240.35618405345
 20
4667.31819138772
 30
0.0
 11
7240.35618405345
 21
5380.177478641314
 31
0.0
  0
LINE
  5
17AB1
330
1731A
100
AcDbEntity
  8
寸法
 62
     0
 48
50.0
370
    -2
100
AcDbLine
 10
4890.356184053449
 20
4722.318191387723
 30
0.0
 11
4890.356184053449
 21
5380.177478641314
 31
0.0
  0
LINE
  5
17AB2
330
1731A
100
AcDbEntity
  8
寸法
 62
     0
 48
50.0
370
    -2
100
AcDbLine
 10
7240.35618405345
 20
5320.177478641315
 30
0.0
 11
4890.356184053449
 21
5320.177478641315
 31
0.0
  0
INSERT
  5
17AB3
330
1731A
100
AcDbEntity
  8
寸法
 62
     0
 48
50.0
370
    -2
100
AcDbBlockReference
  2
_DOTSMALL
 10
7240.35618405345
 20
5320.177478641315
 30
0.0
 41
100.0
 42
100.0
 43
100.0
  0
INSERT
  5
17AB4
330
1731A
100
AcDbEntity
  8
寸法
 62
     0
 48
50.0
370
    -2
100
AcDbBlockReference
  2
_DOTSMALL
 10
4890.356184053449
 20
5320.177478641315
 30
0.0
 41
100.0
 42
100.0
 43
100.0
 50
180.0
  0
MTEXT
  5
17AB5
330
1731A
100
AcDbEntity
  8
寸法
 62
     7
 48
50.0
100
AcDbMText
 10
6124.700038145919
 20
5420.189289664936
 30
0.0
 40
120.0
 41
0.0
 71
     5
 72
     1
  1
\A1;2350
  7
STYLE1
 73
     1
 44
1.0
1001
ACAD
1000
MTEXTBEGIN
1070
    73
1070
     1
1070
    44
1040
1.0
1070
    74
1070
     0
1000
MTEXTEND
  0
POINT
  5
17AB6
330
1731A
100
AcDbEntity
  8
DEFPOINTS
 62
     0
 48
50.0
100
AcDbPoint
 10
7240.35618405345
 20
4647.31819138772
 30
0.0
  0
POINT
  5
17AB7
330
1731A
100
AcDbEntity
  8
DEFPOINTS
 62
     0
 48
50.0
100
AcDbPoint
 10
4890.356184053449
 20
4702.318191387723
 30
0.0
  0
POINT
  5
17AB8
330
1731A
100
AcDbEntity
  8
DEFPOINTS
 62
     0
 48
50.0
100
AcDbPoint
 10
4890.356184053449
 20
5320.177478641315
 30
0.0
  0
ENDBLK
  5
17325
330
1731A
100
AcDbEntity
  8
0
 48
50.0
100
AcDbBlockEnd
  0
BLOCK
  5
17331
330
17326
100
AcDbEntity
  8
0
 48
50.0
100
AcDbBlockBegin
  2
*D21
 70
     1
 10
0.0
 20
0.0
 30
0.0
  3
*D21
  1

  0
LINE
  5
17AA6
330
17326
100
AcDbEntity
  8
寸法
 62
     0
 48
50.0
370
    -2
100
AcDbLine
 10
7160.356184053449
 20
4669.128870999371
 30
0.0
 11
7160.356184053449
 21
5160.975644967023
 31
0.0
  0
LINE
  5
17AA7
330
17326
100
AcDbEntity
  8
寸法
 62
     0
 48
50.0
370
    -2
100
AcDbLine
 10
7240.35618405345
 20
4667.31819138772
 30
0.0
 11
7240.35618405345
 21
5160.975644967023
 31
0.0
  0
LINE
  5
17AA8
330
17326
100
AcDbEntity
  8
寸法
 62
     0
 48
50.0
370
    -2
100
AcDbLine
 10
7160.356184053449
 20
5100.975644967023
 30
0.0
 11
7240.35618405345
 21
5100.975644967023
 31
0.0
  0
LINE
  5
17AA9
330
17326
100
AcDbEntity
  8
寸法
 62
     0
 48
50.0
370
    -2
100
AcDbLine
 10
7240.35618405345
 20
5100.975644967023
 30
0.0
 11
7552.450672242428
 21
5100.975644967023
 31
0.0
  0
INSERT
  5
17AAA
330
17326
100
AcDbEntity
  8
寸法
 62
     0
 48
50.0
370
    -2
100
AcDbBlockReference
  2
_DOTSMALL
 10
7160.356184053449
 20
5100.975644967023
 30
0.0
 41
100.0
 42
100.0
 43
100.0
 50
180.0
  0
INSERT
  5
17AAB
330
17326
100
AcDbEntity
  8
寸法
 62
     0
 48
50.0
370
    -2
100
AcDbBlockReference
  2
_DOTSMALL
 10
7240.35618405345
 20
5100.975644967023
 30
0.0
 41
100.0
 42
100.0
 43
100.0
  0
MTEXT
  5
17AAC
330
17326
100
AcDbEntity
  8
寸法
 62
     7
 48
50.0
100
AcDbMText
 10
7446.40342814794
 20
5200.975644967023
 30
0.0
 40
120.0
 41
0.0
 71
     5
 72
     1
  1
\A1;80
  7
STYLE1
 73
     1
 44
1.0
1001
ACAD
1000
MTEXTBEGIN
1070
    73
1070
     1
1070
    44
1040
1.0
1070
    74
1070
     0
1000
MTEXTEND
  0
POINT
  5
17AAD
330
17326
100
AcDbEntity
  8
DEFPOINTS
 62
     0
 48
50.0
100
AcDbPoint
 10
7160.356184053449
 20
4649.128870999372
 30
0.0
  0
POINT
  5
17AAE
330
17326
100
AcDbEntity
  8
DEFPOINTS
 62
     0
 48
50.0
100
AcDbPoint
 10
7240.35618405345
 20
4647.31819138772
 30
0.0
  0
POINT
  5
17AAF
330
17326
100
AcDbEntity
  8
DEFPOINTS
 62
     0
 48
50.0
100
AcDbPoint
 10
7240.35618405345
 20
5100.975644967023
 30
0.0
  0
ENDBLK
  5
17332
330
17326
100
AcDbEntity
  8
0
 48
50.0
100
AcDbBlockEnd
  0
BLOCK
  5
173E3
330
173D9
100
AcDbEntity
  8
0
 48
50.0
100
AcDbBlockBegin
  2
*D22
 70
     1
 10
0.0
 20
0.0
 30
0.0
  3
*D22
  1

  0
LINE
  5
17A9D
330
173D9
100
AcDbEntity
  8
寸法
 62
     0
 48
50.0
370
    -2
100
AcDbLine
 10
4930.356184053449
 20
4467.31819138772
 30
0.0
 11
4266.703474895153
 21
4467.31819138772
 31
0.0
  0
LINE
  5
17A9E
330
173D9
100
AcDbEntity
  8
寸法
 62
     0
 48
50.0
370
    -2
100
AcDbLine
 10
4930.356184053449
 20
2677.31819138772
 30
0.0
 11
4266.703474895153
 21
2677.31819138772
 31
0.0
  0
LINE
  5
17A9F
330
173D9
100
AcDbEntity
  8
寸法
 62
     0
 48
50.0
370
    -2
100
AcDbLine
 10
4326.703474895153
 20
4467.31819138772
 30
0.0
 11
4326.703474895153
 21
2677.31819138772
 31
0.0
  0
INSERT
  5
17AA0
330
173D9
100
AcDbEntity
  8
寸法
 62
     0
 48
50.0
370
    -2
100
AcDbBlockReference
  2
_DOTSMALL
 10
4326.703474895153
 20
4467.31819138772
 30
0.0
 41
100.0
 42
100.0
 43
100.0
 50
90.0
  0
INSERT
  5
17AA1
330
173D9
100
AcDbEntity
  8
寸法
 62
     0
 48
50.0
370
    -2
100
AcDbBlockReference
  2
_DOTSMALL
 10
4326.703474895153
 20
2677.31819138772
 30
0.0
 41
100.0
 42
100.0
 43
100.0
 50
270.0
  0
MTEXT
  5
17AA2
330
173D9
100
AcDbEntity
  8
寸法
 62
     7
 48
50.0
100
AcDbMText
 10
4226.703474895152
 20
3567.772489929677
 30
0.0
 40
120.0
 41
0.0
 71
     5
 72
     1
  1
\A1;1790
  7
STYLE1
 11
0.0000000000000001
 21
1.0
 31
0.0
 73
     1
 44
1.0
1001
ACAD
1000
MTEXTBEGIN
1070
    73
1070
     1
1070
    44
1040
1.0
1070
    74
1070
     0
1000
MTEXTEND
  0
POINT
  5
17AA3
330
173D9
100
AcDbEntity
  8
DEFPOINTS
 62
     0
 48
50.0
100
AcDbPoint
 10
4950.35618405345
 20
4467.31819138772
 30
0.0
  0
POINT
  5
17AA4
330
173D9
100
AcDbEntity
  8
DEFPOINTS
 62
     0
 48
50.0
100
AcDbPoint
 10
4950.35618405345
 20
2677.31819138772
 30
0.0
  0
POINT
  5
17AA5
330
173D9
100
AcDbEntity
  8
DEFPOINTS
 62
     0
 48
50.0
100
AcDbPoint
 10
4326.703474895153
 20
2677.31819138772
 30
0.0
  0
ENDBLK
  5
173E4
330
173D9
100
AcDbEntity
  8
0
 48
50.0
100
AcDbBlockEnd
  0
BLOCK
  5
173EF
330
173E5
100
AcDbEntity
  8
0
 48
50.0
100
AcDbBlockBegin
  2
*D23
 70
     1
 10
0.0
 20
0.0
 30
0.0
  3
*D23
  1

  0
LINE
  5
17A94
330
173E5
100
AcDbEntity
  8
寸法
 62
     0
 48
50.0
370
    -2
100
AcDbLine
 10
4930.356184053449
 20
2627.31819138772
 30
0.0
 11
3981.716802124091
 21
2627.31819138772
 31
0.0
  0
LINE
  5
17A95
330
173E5
100
AcDbEntity
  8
寸法
 62
     0
 48
50.0
370
    -2
100
AcDbLine
 10
4870.356184053449
 20
4702.318191387723
 30
0.0
 11
3981.716802124092
 21
4702.318191387723
 31
0.0
  0
LINE
  5
17A96
330
173E5
100
AcDbEntity
  8
寸法
 62
     0
 48
50.0
370
    -2
100
AcDbLine
 10
4041.716802124091
 20
2627.31819138772
 30
0.0
 11
4041.716802124091
 21
4702.318191387723
 31
0.0
  0
INSERT
  5
17A97
330
173E5
100
AcDbEntity
  8
寸法
 62
     0
 48
50.0
370
    -2
100
AcDbBlockReference
  2
_DOTSMALL
 10
4041.716802124091
 20
2627.31819138772
 30
0.0
 41
100.0
 42
100.0
 43
100.0
 50
270.0
  0
INSERT
  5
17A98
330
173E5
100
AcDbEntity
  8
寸法
 62
     0
 48
50.0
370
    -2
100
AcDbBlockReference
  2
_DOTSMALL
 10
4041.716802124091
 20
4702.318191387723
 30
0.0
 41
100.0
 42
100.0
 43
100.0
 50
90.0
  0
MTEXT
  5
17A99
330
173E5
100
AcDbEntity
  8
寸法
 62
     7
 48
50.0
100
AcDbMText
 10
3941.704991100468
 20
3621.52406888083
 30
0.0
 40
120.0
 41
0.0
 71
     5
 72
     1
  1
\A1;2075
  7
STYLE1
 11
0.0000000000000001
 21
1.0
 31
0.0
 73
     1
 44
1.0
1001
ACAD
1000
MTEXTBEGIN
1070
    73
1070
     1
1070
    44
1040
1.0
1070
    74
1070
     0
1000
MTEXTEND
  0
POINT
  5
17A9A
330
173E5
100
AcDbEntity
  8
DEFPOINTS
 62
     0
 48
50.0
100
AcDbPoint
 10
4950.35618405345
 20
2627.31819138772
 30
0.0
  0
POINT
  5
17A9B
330
173E5
100
AcDbEntity
  8
DEFPOINTS
 62
     0
 48
50.0
100
AcDbPoint
 10
4890.356184053449
 20
4702.318191387723
 30
0.0
  0
POINT
  5
17A9C
330
173E5
100
AcDbEntity
  8
DEFPOINTS
 62
     0
 48
50.0
100
AcDbPoint
 10
4041.716802124091
 20
4702.318191387723
 30
0.0
  0
ENDBLK
  5
173F0
330
173E5
100
AcDbEntity
  8
0
 48
50.0
100
AcDbBlockEnd
  0
BLOCK
  5
173FC
330
173F1
100
AcDbEntity
  8
0
 48
50.0
100
AcDbBlockBegin
  2
*D24
 70
     1
 10
0.0
 20
0.0
 30
0.0
  3
*D24
  1

  0
LINE
  5
17A8A
330
173F1
100
AcDbEntity
  8
寸法
 62
     0
 48
50.0
370
    -2
100
AcDbLine
 10
4875.356184053449
 20
2627.31819138772
 30
0.0
 11
3981.716802124091
 21
2627.31819138772
 31
0.0
  0
LINE
  5
17A8B
330
173F1
100
AcDbEntity
  8
寸法
 62
     0
 48
50.0
370
    -2
100
AcDbLine
 10
4306.703474895152
 20
2527.31819138772
 30
0.0
 11
3981.716802124091
 21
2527.31819138772
 31
0.0
  0
LINE
  5
17A8C
330
173F1
100
AcDbEntity
  8
寸法
 62
     0
 48
50.0
370
    -2
100
AcDbLine
 10
4041.716802124091
 20
2627.31819138772
 30
0.0
 11
4041.716802124091
 21
2527.31819138772
 31
0.0
  0
LINE
  5
17A8D
330
173F1
100
AcDbEntity
  8
寸法
 62
     0
 48
50.0
370
    -2
100
AcDbLine
 10
4041.716802124091
 20
2527.31819138772
 30
0.0
 11
4041.716802124091
 21
2155.223703198737
 31
0.0
  0
INSERT
  5
17A8E
330
173F1
100
AcDbEntity
  8
寸法
 62
     0
 48
50.0
370
    -2
100
AcDbBlockReference
  2
_DOTSMALL
 10
4041.716802124091
 20
2627.31819138772
 30
0.0
 41
100.0
 42
100.0
 43
100.0
 50
90.0
  0
INSERT
  5
17A8F
330
173F1
100
AcDbEntity
  8
寸法
 62
     0
 48
50.0
370
    -2
100
AcDbBlockReference
  2
_DOTSMALL
 10
4041.716802124091
 20
2527.31819138772
 30
0.0
 41
100.0
 42
100.0
 43
100.0
 50
270.0
  0
MTEXT
  5
17A90
330
173F1
100
AcDbEntity
  8
寸法
 62
     7
 48
50.0
100
AcDbMText
 10
3941.716802124091
 20
2291.270947293226
 30
0.0
 40
120.0
 41
0.0
 71
     5
 72
     1
  1
\A1;100
  7
STYLE1
 11
0.0000000000000001
 21
1.0
 31
0.0
 73
     1
 44
1.0
1001
ACAD
1000
MTEXTBEGIN
1070
    73
1070
     1
1070
    44
1040
1.0
1070
    74
1070
     0
1000
MTEXTEND
  0
POINT
  5
17A91
330
173F1
100
AcDbEntity
  8
DEFPOINTS
 62
     0
 48
50.0
100
AcDbPoint
 10
4895.35618405345
 20
2627.31819138772
 30
0.0
  0
POINT
  5
17A92
330
173F1
100
AcDbEntity
  8
DEFPOINTS
 62
     0
 48
50.0
100
AcDbPoint
 10
4326.703474895151
 20
2527.31819138772
 30
0.0
  0
POINT
  5
17A93
330
173F1
100
AcDbEntity
  8
DEFPOINTS
 62
     0
 48
50.0
100
AcDbPoint
 10
4041.716802124091
 20
2527.31819138772
 30
0.0
  0
ENDBLK
  5
173FD
330
173F1
100
AcDbEntity
  8
0
 48
50.0
100
AcDbBlockEnd
  0
BLOCK
  5
1740A
330
173FE
100
AcDbEntity
  8
0
 48
50.0
100
AcDbBlockBegin
  2
*D25
 70
     1
 10
0.0
 20
0.0
 30
0.0
  3
*D25
  1

  0
LINE
  5
17A7F
330
173FE
100
AcDbEntity
  8
寸法
 62
     0
 48
50.0
370
    -2
100
AcDbLine
 10
4930.356184053449
 20
2677.31819138772
 30
0.0
 11
4266.703474895153
 21
2677.31819138772
 31
0.0
  0
LINE
  5
17A80
330
173FE
100
AcDbEntity
  8
寸法
 62
     0
 48
50.0
370
    -2
100
AcDbLine
 10
4875.356184053449
 20
2627.31819138772
 30
0.0
 11
4266.703474895153
 21
2627.31819138772
 31
0.0
  0
LINE
  5
17A81
330
173FE
100
AcDbEntity
  8
寸法
 62
     0
 48
50.0
370
    -2
100
AcDbLine
 10
4326.703474895153
 20
2677.31819138772
 30
0.0
 11
4326.703474895153
 21
2777.31819138772
 31
0.0
  0
LINE
  5
17A82
330
173FE
100
AcDbEntity
  8
寸法
 62
     0
 48
50.0
370
    -2
100
AcDbLine
 10
4326.703474895153
 20
2627.31819138772
 30
0.0
 11
4326.703474895153
 21
2215.223703198737
 31
0.0
  0
LINE
  5
17A83
330
173FE
100
AcDbEntity
  8
寸法
 62
     0
 48
50.0
370
    -2
100
AcDbLine
 10
4326.703474895153
 20
2677.31819138772
 30
0.0
 11
4326.703474895153
 21
2627.31819138772
 31
0.0
  0
INSERT
  5
17A84
330
173FE
100
AcDbEntity
  8
寸法
 62
     0
 48
50.0
370
    -2
100
AcDbBlockReference
  2
_DOTSMALL
 10
4326.703474895153
 20
2677.31819138772
 30
0.0
 41
100.0
 42
100.0
 43
100.0
 50
270.0
  0
INSERT
  5
17A85
330
173FE
100
AcDbEntity
  8
寸法
 62
     0
 48
50.0
370
    -2
100
AcDbBlockReference
  2
_DOTSMALL
 10
4326.703474895153
 20
2627.31819138772
 30
0.0
 41
100.0
 42
100.0
 43
100.0
 50
90.0
  0
MTEXT
  5
17A86
330
173FE
100
AcDbEntity
  8
寸法
 62
     7
 48
50.0
100
AcDbMText
 10
4226.703474895152
 20
2321.270947293226
 30
0.0
 40
120.0
 41
0.0
 71
     5
 72
     1
  1
\A1;50
  7
STYLE1
 11
0.0000000000000001
 21
1.0
 31
0.0
 73
     1
 44
1.0
1001
ACAD
1000
MTEXTBEGIN
1070
    73
1070
     1
1070
    44
1040
1.0
1070
    74
1070
     0
1000
MTEXTEND
  0
POINT
  5
17A87
330
173FE
100
AcDbEntity
  8
DEFPOINTS
 62
     0
 48
50.0
100
AcDbPoint
 10
4950.35618405345
 20
2677.31819138772
 30
0.0
  0
POINT
  5
17A88
330
173FE
100
AcDbEntity
  8
DEFPOINTS
 62
     0
 48
50.0
100
AcDbPoint
 10
4895.35618405345
 20
2627.31819138772
 30
0.0
  0
POINT
  5
17A89
330
173FE
100
AcDbEntity
  8
DEFPOINTS
 62
     0
 48
50.0
100
AcDbPoint
 10
4326.703474895153
 20
2627.31819138772
 30
0.0
  0
ENDBLK
  5
1740B
330
173FE
100
AcDbEntity
  8
0
 48
50.0
100
AcDbBlockEnd
  0
BLOCK
  5
17417
330
1740C
100
AcDbEntity
  8
0
 48
50.0
100
AcDbBlockBegin
  2
*D26
 70
     1
 10
0.0
 20
0.0
 30
0.0
  3
*D26
  1

  0
LINE
  5
17A75
330
1740C
100
AcDbEntity
  8
寸法
 62
     0
 48
50.0
370
    -2
100
AcDbLine
 10
4889.760470344551
 20
4701.615898457381
 30
0.0
 11
4273.826031239282
 21
4719.33004873171
 31
0.0
  0
LINE
  5
17A76
330
1740C
100
AcDbEntity
  8
寸法
 62
     0
 48
50.0
370
    -2
100
AcDbLine
 10
4885.707014787925
 20
4560.674174691667
 30
0.0
 11
4269.772575682655
 21
4578.388324965995
 31
0.0
  0
LINE
  5
17A77
330
1740C
100
AcDbEntity
  8
寸法
 62
     0
 48
50.0
370
    -2
100
AcDbLine
 10
4329.747777285087
 20
4576.663450261047
 30
0.0
 11
4333.801232841714
 21
4717.605174026762
 31
0.0
  0
LINE
  5
17A78
330
1740C
100
AcDbEntity
  8
寸法
 62
     0
 48
50.0
370
    -2
100
AcDbLine
 10
4333.801232841714
 20
4717.605174026762
 30
0.0
 11
4344.150481071397
 21
5077.456383641352
 31
0.0
  0
INSERT
  5
17A79
330
1740C
100
AcDbEntity
  8
寸法
 62
     0
 48
50.0
370
    -2
100
AcDbBlockReference
  2
_DOTSMALL
 10
4329.747777285087
 20
4576.663450261047
 30
0.0
 41
100.0
 42
100.0
 43
100.0
 50
268.3526390256379
  0
INSERT
  5
17A7A
330
1740C
100
AcDbEntity
  8
寸法
 62
     0
 48
50.0
370
    -2
100
AcDbBlockReference
  2
_DOTSMALL
 10
4333.801232841714
 20
4717.605174026762
 30
0.0
 41
100.0
 42
100.0
 43
100.0
 50
88.35263902563784
  0
MTEXT
  5
17A7B
330
1740C
100
AcDbEntity
  8
寸法
 62
     7
 48
50.0
100
AcDbMText
 10
4240.454583206626
 20
4950.384904677665
 30
0.0
 40
120.0
 41
0.0
 71
     5
 72
     1
  1
\A1;141
  7
STYLE1
 11
0.0287479117491228
 21
0.9995866933738486
 31
0.0
 73
     1
 44
1.0
1001
ACAD
1000
MTEXTBEGIN
1070
    73
1070
     1
1070
    44
1040
1.0
1070
    74
1070
     0
1000
MTEXTEND
  0
POINT
  5
17A7C
330
1740C
100
AcDbEntity
  8
DEFPOINTS
 62
     0
 48
50.0
100
AcDbPoint
 10
4909.752204212029
 20
4701.040940222398
 30
0.0
  0
POINT
  5
17A7D
330
1740C
100
AcDbEntity
  8
DEFPOINTS
 62
     0
 48
50.0
100
AcDbPoint
 10
4905.698748655403
 20
4560.099216456683
 30
0.0
  0
POINT
  5
17A7E
330
1740C
100
AcDbEntity
  8
DEFPOINTS
 62
     0
 48
50.0
100
AcDbPoint
 10
4329.747777285087
 20
4576.663450261047
 30
0.0
  0
ENDBLK
  5
17418
330
1740C
100
AcDbEntity
  8
0
 48
50.0
100
AcDbBlockEnd
  0
BLOCK
  5
17423
330
17419
100
AcDbEntity
  8
0
 48
50.0
100
AcDbBlockBegin
  2
*D27
 70
     1
 10
0.0
 20
0.0
 30
0.0
  3
*D27
  1

  0
LINE
  5
17A6C
330
17419
100
AcDbEntity
  8
寸法
 62
     0
 48
50.0
370
    -2
100
AcDbLine
 10
4857.856184053453
 20
2327.318191387718
 30
0.0
 11
4668.356180806816
 21
2327.318191387718
 31
0.0
  0
LINE
  5
17A6D
330
17419
100
AcDbEntity
  8
寸法
 62
     0
 48
50.0
370
    -2
100
AcDbLine
 10
4832.85618405345
 20
2527.318191387718
 30
0.0
 11
4668.356180806816
 21
2527.318191387718
 31
0.0
  0
LINE
  5
17A6E
330
17419
100
AcDbEntity
  8
寸法
 62
     0
 48
50.0
370
    -2
100
AcDbLine
 10
4728.356180806816
 20
2327.318191387718
 30
0.0
 11
4728.356180806816
 21
2527.318191387718
 31
0.0
  0
INSERT
  5
17A6F
330
17419
100
AcDbEntity
  8
寸法
 62
     0
 48
50.0
370
    -2
100
AcDbBlockReference
  2
_DOTSMALL
 10
4728.356180806816
 20
2327.318191387718
 30
0.0
 41
100.0
 42
100.0
 43
100.0
 50
270.0
  0
INSERT
  5
17A70
330
17419
100
AcDbEntity
  8
寸法
 62
     0
 48
50.0
370
    -2
100
AcDbBlockReference
  2
_DOTSMALL
 10
4728.356180806816
 20
2527.318191387718
 30
0.0
 41
100.0
 42
100.0
 43
100.0
 50
90.0
  0
MTEXT
  5
17A71
330
17419
100
AcDbEntity
  8
寸法
 62
     7
 48
50.0
100
AcDbMText
 10
4628.344369783193
 20
2427.318191387719
 30
0.0
 40
120.0
 41
0.0
 71
     5
 72
     1
  1
\A1;200
  7
STYLE1
 11
0.0000000000000001
 21
1.0
 31
0.0
 73
     1
 44
1.0
1001
ACAD
1000
MTEXTBEGIN
1070
    73
1070
     1
1070
    44
1040
1.0
1070
    74
1070
     0
1000
MTEXTEND
  0
POINT
  5
17A72
330
17419
100
AcDbEntity
  8
DEFPOINTS
 62
     0
 48
50.0
100
AcDbPoint
 10
4877.856184053452
 20
2327.318191387718
 30
0.0
  0
POINT
  5
17A73
330
17419
100
AcDbEntity
  8
DEFPOINTS
 62
     0
 48
50.0
100
AcDbPoint
 10
4852.856184053449
 20
2527.318191387718
 30
0.0
  0
POINT
  5
17A74
330
17419
100
AcDbEntity
  8
DEFPOINTS
 62
     0
 48
50.0
100
AcDbPoint
 10
4728.356180806816
 20
2527.318191387718
 30
0.0
  0
ENDBLK
  5
17424
330
17419
100
AcDbEntity
  8
0
 48
50.0
100
AcDbBlockEnd
  0
BLOCK
  5
1742F
330
17425
100
AcDbEntity
  8
0
 48
50.0
100
AcDbBlockBegin
  2
*D28
 70
     1
 10
0.0
 20
0.0
 30
0.0
  3
*D28
  1

  0
LINE
  5
17A63
330
17425
100
AcDbEntity
  8
寸法
 62
     0
 48
50.0
370
    -2
100
AcDbLine
 10
5077.856184053449
 20
2307.318191387716
 30
0.0
 11
5077.856184053449
 21
1981.27086208734
 31
0.0
  0
LINE
  5
17A64
330
17425
100
AcDbEntity
  8
寸法
 62
     0
 48
50.0
370
    -2
100
AcDbLine
 10
4877.856184053452
 20
2307.318191387718
 30
0.0
 11
4877.856184053452
 21
1981.27086208734
 31
0.0
  0
LINE
  5
17A65
330
17425
100
AcDbEntity
  8
寸法
 62
     0
 48
50.0
370
    -2
100
AcDbLine
 10
5077.856184053449
 20
2041.27086208734
 30
0.0
 11
4877.856184053452
 21
2041.27086208734
 31
0.0
  0
INSERT
  5
17A66
330
17425
100
AcDbEntity
  8
寸法
 62
     0
 48
50.0
370
    -2
100
AcDbBlockReference
  2
_DOTSMALL
 10
5077.856184053449
 20
2041.27086208734
 30
0.0
 41
100.0
 42
100.0
 43
100.0
  0
INSERT
  5
17A67
330
17425
100
AcDbEntity
  8
寸法
 62
     0
 48
50.0
370
    -2
100
AcDbBlockReference
  2
_DOTSMALL
 10
4877.856184053452
 20
2041.27086208734
 30
0.0
 41
100.0
 42
100.0
 43
100.0
 50
180.0
  0
MTEXT
  5
17A68
330
17425
100
AcDbEntity
  8
寸法
 62
     7
 48
50.0
100
AcDbMText
 10
4977.856184053451
 20
2141.282673110962
 30
0.0
 40
120.0
 41
0.0
 71
     5
 72
     1
  1
\A1;200
  7
STYLE1
 73
     1
 44
1.0
1001
ACAD
1000
MTEXTBEGIN
1070
    73
1070
     1
1070
    44
1040
1.0
1070
    74
1070
     0
1000
MTEXTEND
  0
POINT
  5
17A69
330
17425
100
AcDbEntity
  8
DEFPOINTS
 62
     0
 48
50.0
100
AcDbPoint
 10
5077.856184053449
 20
2327.318191387716
 30
0.0
  0
POINT
  5
17A6A
330
17425
100
AcDbEntity
  8
DEFPOINTS
 62
     0
 48
50.0
100
AcDbPoint
 10
4877.856184053452
 20
2327.318191387718
 30
0.0
  0
POINT
  5
17A6B
330
17425
100
AcDbEntity
  8
DEFPOINTS
 62
     0
 48
50.0
100
AcDbPoint
 10
4877.856184053452
 20
2041.27086208734
 30
0.0
  0
ENDBLK
  5
17430
330
17425
100
AcDbEntity
  8
0
 48
50.0
100
AcDbBlockEnd
  0
BLOCK
  5
17EA8
330
17E9E
100
AcDbEntity
  8
0
 48
50.0
100
AcDbBlockBegin
  2
*D29
 70
     1
 10
0.0
 20
0.0
 30
0.0
  3
*D29
  1

  0
LINE
  5
18A10
330
17E9E
100
AcDbEntity
  8
寸法
 62
     0
 48
50.0
370
    -2
100
AcDbLine
 10
11027.81219723938
 20
7842.027547381407
 30
0.0
 11
11133.74321910138
 21
7446.687591694757
 31
0.0
  0
LINE
  5
18A11
330
17E9E
100
AcDbEntity
  8
寸法
 62
     0
 48
50.0
370
    -2
100
AcDbLine
 10
10577.81219723938
 20
7842.027547381407
 30
0.0
 11
10683.74321910138
 21
7446.687591694757
 31
0.0
  0
LINE
  5
18A12
330
17E9E
100
AcDbEntity
  8
寸法
 62
     0
 48
50.0
370
    -2
100
AcDbLine
 10
11117.66626755551
 20
7506.687591694758
 30
0.0
 11
10667.66626755552
 21
7506.687591694758
 31
0.0
  0
INSERT
  5
18A13
330
17E9E
100
AcDbEntity
  8
寸法
 62
     0
 48
50.0
370
    -2
100
AcDbBlockReference
  2
_DOTSMALL
 10
11117.66626755551
 20
7506.687591694758
 30
0.0
 41
100.0
 42
100.0
 43
100.0
  0
INSERT
  5
18A14
330
17E9E
100
AcDbEntity
  8
寸法
 62
     0
 48
50.0
370
    -2
100
AcDbBlockReference
  2
_DOTSMALL
 10
10667.66626755552
 20
7506.687591694758
 30
0.0
 41
100.0
 42
100.0
 43
100.0
 50
180.0
  0
MTEXT
  5
18A15
330
17E9E
100
AcDbEntity
  8
寸法
 62
     7
 48
50.0
100
AcDbMText
 10
10867.66986832229
 20
7606.687591694758
 30
0.0
 40
120.0
 41
0.0
 71
     5
 72
     1
  1
\A1;450
  7
STYLE1
 73
     1
 44
1.0
1001
ACAD
1000
MTEXTBEGIN
1070
    73
1070
     1
1070
    44
1040
1.0
1070
    74
1070
     0
1000
MTEXTEND
  0
POINT
  5
18A16
330
17E9E
100
AcDbEntity
  8
DEFPOINTS
 62
     0
 48
50.0
100
AcDbPoint
 10
11022.45321339076
 20
7862.027547381408
 30
0.0
  0
POINT
  5
18A17
330
17E9E
100
AcDbEntity
  8
DEFPOINTS
 62
     0
 48
50.0
100
AcDbPoint
 10
10572.45321339076
 20
7862.027547381408
 30
0.0
  0
POINT
  5
18A18
330
17E9E
100
AcDbEntity
  8
DEFPOINTS
 62
     0
 48
50.0
100
AcDbPoint
 10
10667.66626755552
 20
7506.687591694758
 30
0.0
  0
ENDBLK
  5
17EA9
330
17E9E
100
AcDbEntity
  8
0
 48
50.0
100
AcDbBlockEnd
  0
BLOCK
  5
1852B
330
18521
100
AcDbEntity
  8
0
 48
50.0
100
AcDbBlockBegin
  2
*D30
 70
     1
 10
0.0
 20
0.0
 30
0.0
  3
*D30
  1

  0
LINE
  5
18A07
330
18521
100
AcDbEntity
  8
寸法
 62
     0
 48
50.0
370
    -2
100
AcDbLine
 10
9329.453213390683
 20
7736.527547381271
 30
0.0
 11
9329.453213390683
 21
7091.452529333047
 31
0.0
  0
LINE
  5
18A08
330
18521
100
AcDbEntity
  8
寸法
 62
     0
 48
50.0
370
    -2
100
AcDbLine
 10
10279.45321339068
 20
7736.527547381271
 30
0.0
 11
10279.45321339068
 21
7091.452529333047
 31
0.0
  0
LINE
  5
18A09
330
18521
100
AcDbEntity
  8
寸法
 62
     0
 48
50.0
370
    -2
100
AcDbLine
 10
9349.453213390683
 20
7131.452529333046
 30
0.0
 11
10259.45321339068
 21
7131.452529333046
 31
0.0
  0
INSERT
  5
18A0A
330
18521
100
AcDbEntity
  8
寸法
 62
     0
 48
50.0
370
    -2
100
AcDbBlockReference
  2
_DOT
 10
9329.453213390683
 20
7131.452529333046
 30
0.0
 41
20.0
 42
20.0
 43
20.0
 50
180.0
  0
INSERT
  5
18A0B
330
18521
100
AcDbEntity
  8
寸法
 62
     0
 48
50.0
370
    -2
100
AcDbBlockReference
  2
_DOT
 10
10279.45321339068
 20
7131.452529333046
 30
0.0
 41
20.0
 42
20.0
 43
20.0
  0
MTEXT
  5
18A0C
330
18521
100
AcDbEntity
  8
寸法
 62
     7
 48
50.0
100
AcDbMText
 10
9804.453213390685
 20
7323.452529333046
 30
0.0
 40
120.0
 41
0.0
 71
     5
 72
     1
  1
\A1;有効開口部間口\P950
  7
STYLE1
 73
     1
 44
1.0
1001
ACAD
1000
MTEXTBEGIN
1070
    73
1070
     1
1070
    44
1040
1.0
1070
    74
1070
     0
1000
MTEXTEND
  0
POINT
  5
18A0D
330
18521
100
AcDbEntity
  8
DEFPOINTS
 62
     0
 48
50.0
100
AcDbPoint
 10
9329.453213390683
 20
7756.527547381271
 30
0.0
  0
POINT
  5
18A0E
330
18521
100
AcDbEntity
  8
DEFPOINTS
 62
     0
 48
50.0
100
AcDbPoint
 10
10279.45321339068
 20
7756.527547381271
 30
0.0
  0
POINT
  5
18A0F
330
18521
100
AcDbEntity
  8
DEFPOINTS
 62
     0
 48
50.0
100
AcDbPoint
 10
10279.45321339068
 20
7131.452529333046
 30
0.0
  0
ENDBLK
  5
1852C
330
18521
100
AcDbEntity
  8
0
 48
50.0
100
AcDbBlockEnd
  0
BLOCK
  5
1880C
330
18802
100
AcDbEntity
  8
0
 48
50.0
100
AcDbBlockBegin
  2
*D31
 70
     1
 10
0.0
 20
0.0
 30
0.0
  3
*D31
  1

  0
LINE
  5
189FE
330
18802
100
AcDbEntity
  8
寸法
 62
     0
 48
50.0
370
    -2
100
AcDbLine
 10
9290.453213390684
 20
7736.527547381273
 30
0.0
 11
9290.453213390684
 21
6821.457277530491
 31
0.0
  0
LINE
  5
189FF
330
18802
100
AcDbEntity
  8
寸法
 62
     0
 48
50.0
370
    -2
100
AcDbLine
 10
11024.45321339068
 20
7736.527547381271
 30
0.0
 11
11024.45321339068
 21
6821.457277530491
 31
0.0
  0
LINE
  5
18A00
330
18802
100
AcDbEntity
  8
寸法
 62
     0
 48
50.0
370
    -2
100
AcDbLine
 10
9290.453213390684
 20
6881.457277530491
 30
0.0
 11
11024.45321339068
 21
6881.457277530491
 31
0.0
  0
INSERT
  5
18A01
330
18802
100
AcDbEntity
  8
寸法
 62
     0
 48
50.0
370
    -2
100
AcDbBlockReference
  2
_DOTSMALL
 10
9290.453213390684
 20
6881.457277530491
 30
0.0
 41
100.0
 42
100.0
 43
100.0
 50
180.0
  0
INSERT
  5
18A02
330
18802
100
AcDbEntity
  8
寸法
 62
     0
 48
50.0
370
    -2
100
AcDbBlockReference
  2
_DOTSMALL
 10
11024.45321339068
 20
6881.457277530491
 30
0.0
 41
100.0
 42
100.0
 43
100.0
  0
MTEXT
  5
18A03
330
18802
100
AcDbEntity
  8
寸法
 62
     7
 48
50.0
100
AcDbMText
 10
10148.0349573425
 20
6981.457277530491
 30
0.0
 40
120.0
 41
0.0
 71
     5
 72
     1
  1
\A1;1734
  7
STYLE1
 73
     1
 44
1.0
1001
ACAD
1000
MTEXTBEGIN
1070
    73
1070
     1
1070
    44
1040
1.0
1070
    74
1070
     0
1000
MTEXTEND
  0
POINT
  5
18A04
330
18802
100
AcDbEntity
  8
DEFPOINTS
 62
     0
 48
50.0
100
AcDbPoint
 10
9290.453213390684
 20
7756.527547381273
 30
0.0
  0
POINT
  5
18A05
330
18802
100
AcDbEntity
  8
DEFPOINTS
 62
     0
 48
50.0
100
AcDbPoint
 10
11024.45321339068
 20
7756.527547381271
 30
0.0
  0
POINT
  5
18A06
330
18802
100
AcDbEntity
  8
DEFPOINTS
 62
     0
 48
50.0
100
AcDbPoint
 10
11024.45321339068
 20
6881.457277530491
 30
0.0
  0
ENDBLK
  5
1880D
330
18802
100
AcDbEntity
  8
0
 48
50.0
100
AcDbBlockEnd
  0
BLOCK
  5
1881A
330
1880E
100
AcDbEntity
  8
0
 48
50.0
100
AcDbBlockBegin
  2
*D32
 70
     1
 10
0.0
 20
0.0
 30
0.0
  3
*D32
  1

  0
LINE
  5
189F3
330
1880E
100
AcDbEntity
  8
寸法
 62
     0
 48
50.0
370
    -2
100
AcDbLine
 10
9242.453213390712
 20
7833.527547381267
 30
0.0
 11
8927.841967763995
 21
7833.527547381267
 31
0.0
  0
LINE
  5
189F4
330
1880E
100
AcDbEntity
  8
寸法
 62
     0
 48
50.0
370
    -2
100
AcDbLine
 10
9270.453213390691
 20
7758.527547381267
 30
0.0
 11
8927.841967763995
 21
7758.527547381267
 31
0.0
  0
LINE
  5
189F5
330
1880E
100
AcDbEntity
  8
寸法
 62
     0
 48
50.0
370
    -2
100
AcDbLine
 10
8967.841967763996
 20
7853.527547381268
 30
0.0
 11
8967.841967763996
 21
7873.527547381268
 31
0.0
  0
LINE
  5
189F6
330
1880E
100
AcDbEntity
  8
寸法
 62
     0
 48
50.0
370
    -2
100
AcDbLine
 10
8967.841967763996
 20
7738.527547381266
 30
0.0
 11
8967.841967763996
 21
7517.556984632789
 31
0.0
  0
LINE
  5
189F7
330
1880E
100
AcDbEntity
  8
寸法
 62
     0
 48
50.0
370
    -2
100
AcDbLine
 10
8967.841967763996
 20
7833.527547381267
 30
0.0
 11
8967.841967763996
 21
7758.527547381267
 31
0.0
  0
INSERT
  5
189F8
330
1880E
100
AcDbEntity
  8
寸法
 62
     0
 48
50.0
370
    -2
100
AcDbBlockReference
  2
_DOT
 10
8967.841967763996
 20
7833.527547381267
 30
0.0
 41
20.0
 42
20.0
 43
20.0
 50
270.0
  0
INSERT
  5
189F9
330
1880E
100
AcDbEntity
  8
寸法
 62
     0
 48
50.0
370
    -2
100
AcDbBlockReference
  2
_DOT
 10
8967.841967763996
 20
7758.527547381267
 30
0.0
 41
20.0
 42
20.0
 43
20.0
 50
90.0
  0
MTEXT
  5
189FA
330
1880E
100
AcDbEntity
  8
寸法
 62
     7
 48
50.0
100
AcDbMText
 10
8875.841967763994
 20
7618.042266007029
 30
0.0
 40
120.0
 41
0.0
 71
     5
 72
     1
  1
\A1;75
  7
STYLE1
 11
0.0000000000000001
 21
1.0
 31
0.0
 73
     1
 44
1.0
1001
ACAD
1000
MTEXTBEGIN
1070
    73
1070
     1
1070
    44
1040
1.0
1070
    74
1070
     0
1000
MTEXTEND
  0
POINT
  5
189FB
330
1880E
100
AcDbEntity
  8
DEFPOINTS
 62
     0
 48
50.0
100
AcDbPoint
 10
9262.453213390712
 20
7833.527547381267
 30
0.0
  0
POINT
  5
189FC
330
1880E
100
AcDbEntity
  8
DEFPOINTS
 62
     0
 48
50.0
100
AcDbPoint
 10
9290.453213390691
 20
7758.527547381267
 30
0.0
  0
POINT
  5
189FD
330
1880E
100
AcDbEntity
  8
DEFPOINTS
 62
     0
 48
50.0
100
AcDbPoint
 10
8967.841967763996
 20
7758.527547381267
 30
0.0
  0
ENDBLK
  5
1881B
330
1880E
100
AcDbEntity
  8
0
 48
50.0
100
AcDbBlockEnd
  0
BLOCK
  5
18864
330
1885A
100
AcDbEntity
  8
0
 48
50.0
100
AcDbBlockBegin
  2
*D33
 70
     1
 10
0.0
 20
0.0
 30
0.0
  3
*D33
  1

  0
LINE
  5
189EA
330
1885A
100
AcDbEntity
  8
寸法
 62
     0
 48
50.0
370
    -2
100
AcDbLine
 10
9262.453213390712
 20
7813.527547381267
 30
0.0
 11
9262.453213390712
 21
6581.699756636364
 31
0.0
  0
LINE
  5
189EB
330
1885A
100
AcDbEntity
  8
寸法
 62
     0
 48
50.0
370
    -2
100
AcDbLine
 10
11052.45321339069
 20
7813.527547381396
 30
0.0
 11
11052.45321339069
 21
6581.699756636364
 31
0.0
  0
LINE
  5
189EC
330
1885A
100
AcDbEntity
  8
寸法
 62
     0
 48
50.0
370
    -2
100
AcDbLine
 10
9262.453213390712
 20
6641.699756636365
 30
0.0
 11
11052.45321339069
 21
6641.699756636365
 31
0.0
  0
INSERT
  5
189ED
330
1885A
100
AcDbEntity
  8
寸法
 62
     0
 48
50.0
370
    -2
100
AcDbBlockReference
  2
_DOTSMALL
 10
9262.453213390712
 20
6641.699756636365
 30
0.0
 41
100.0
 42
100.0
 43
100.0
 50
180.0
  0
INSERT
  5
189EE
330
1885A
100
AcDbEntity
  8
寸法
 62
     0
 48
50.0
370
    -2
100
AcDbBlockReference
  2
_DOTSMALL
 10
11052.45321339069
 20
6641.699756636365
 30
0.0
 41
100.0
 42
100.0
 43
100.0
  0
MTEXT
  5
189EF
330
1885A
100
AcDbEntity
  8
寸法
 62
     7
 48
50.0
100
AcDbMText
 10
10145.59996372206
 20
6741.699756636364
 30
0.0
 40
120.0
 41
0.0
 71
     5
 72
     1
  1
\A1;1790
  7
STYLE1
 73
     1
 44
1.0
1001
ACAD
1000
MTEXTBEGIN
1070
    73
1070
     1
1070
    44
1040
1.0
1070
    74
1070
     0
1000
MTEXTEND
  0
POINT
  5
189F0
330
1885A
100
AcDbEntity
  8
DEFPOINTS
 62
     0
 48
50.0
100
AcDbPoint
 10
9262.453213390712
 20
7833.527547381267
 30
0.0
  0
POINT
  5
189F1
330
1885A
100
AcDbEntity
  8
DEFPOINTS
 62
     0
 48
50.0
100
AcDbPoint
 10
11052.45321339069
 20
7833.527547381397
 30
0.0
  0
POINT
  5
189F2
330
1885A
100
AcDbEntity
  8
DEFPOINTS
 62
     0
 48
50.0
100
AcDbPoint
 10
11052.45321339069
 20
6641.699756636365
 30
0.0
  0
ENDBLK
  5
18865
330
1885A
100
AcDbEntity
  8
0
 48
50.0
100
AcDbBlockEnd
  0
ENDSEC
  0
SECTION
  2
ENTITIES
  0
LINE
  5
10B57
330
747D
100
AcDbEntity
  8
補助
  6
PHANTOM
 62
   230
 48
50.0
100
AcDbLine
 10
139.9999999999995
 20
11409.6
 30
0.0
 11
16307.2
 21
11409.6
 31
0.0
  0
LINE
  5
10B59
330
747D
100
AcDbEntity
  8
仕様書枠
  6
Continuous
 48
50.0
100
AcDbLine
 10
13107.2
 20
1200.0
 30
0.0
 11
13107.2
 21
-0.0000000000000729
 31
0.0
  0
LINE
  5
10B5C
330
747D
100
AcDbEntity
  8
仕様書枠
 48
50.0
100
AcDbLine
 10
16307.2
 20
1200.0
 30
0.0
 11
16307.2
 21
-0.0000000000000909
 31
0.0
  0
LINE
  5
10B5D
330
747D
100
AcDbEntity
  8
仕様書枠
 48
50.0
100
AcDbLine
 10
140.0
 20
0.0
 30
0.0
 11
16307.2
 21
-0.0000000000000909
 31
0.0
  0
LINE
  5
10B5E
330
747D
100
AcDbEntity
  8
補助
  6
PHANTOM
 62
   230
 48
50.0
100
AcDbLine
 10
16307.2
 20
11409.6
 30
0.0
 11
16307.2
 21
1200.0
 31
0.0
  0
LINE
  5
10B6C
330
747D
100
AcDbEntity
  8
仕様書枠
 48
50.0
100
AcDbLine
 10
13107.2
 20
1200.0
 30
0.0
 11
16307.2
 21
1200.0
 31
0.0
  0
LINE
  5
10B6D
330
747D
100
AcDbEntity
  8
補助
  6
PHANTOM
 62
   230
 48
50.0
100
AcDbLine
 10
13107.2
 20
11409.6
 30
0.0
 11
13107.2
 21
4800.0
 31
0.0
  0
LINE
  5
10B6F
330
747D
100
AcDbEntity
  8
補助
  6
PHANTOM
 62
   230
 48
50.0
100
AcDbLine
 10
13107.2
 20
4800.0
 30
0.0
 11
16307.2
 21
4800.0
 31
0.0
  0
LINE
  5
10B72
330
747D
100
AcDbEntity
  8
文字
 62
     7
 48
50.0
100
AcDbLine
 10
13187.2
 20
400.0
 30
0.0
 11
16227.2
 21
400.0
 31
0.0
  0
TEXT
  5
10B73
330
747D
100
AcDbEntity
  8
文字
 62
     7
 48
50.0
100
AcDbText
 10
13162.9790565769
 20
895.0906074299405
 30
0.0
 40
200.0
  1
外 形 図
  7
STYLE2
100
AcDbText
  0
TEXT
  5
10B74
330
747D
100
AcDbEntity
  8
文字
 62
     7
 48
50.0
100
AcDbText
 10
13201.43669998441
 20
477.2740661031255
 30
0.0
 40
160.0
  1
機種名
  7
STYLE2
100
AcDbText
  0
TEXT
  5
10B76
330
747D
100
AcDbEntity
  8
文字
 62
     7
 48
50.0
100
AcDbText
 10
13209.4053442172
 20
76.09434707649343
 30
0.0
 40
100.0
  1
○床面積 ： 4.09㎡(1.23坪) 　
  7
STYLE2
100
AcDbText
  0
TEXT
  5
10B79
330
747D
100
AcDbEntity
  8
文字
 62
     7
 48
50.0
100
AcDbText
 10
14524.131837222
 20
1031.557706291228
 30
0.0
 40
100.0
  1
NO.08      <縮尺> S=1/40
  7
STYLE2
100
AcDbText
  0
LINE
  5
10B7B
330
747D
100
AcDbEntity
  8
仕様書枠
 48
50.0
100
AcDbLine
 10
13107.2
 20
800.0
 30
0.0
 11
14251.2
 21
800.0
 31
0.0
  0
LINE
  5
10B88
330
747D
100
AcDbEntity
  8
仕様書枠
  6
Continuous
 48
50.0
100
AcDbLine
 10
14251.2
 20
1200.0
 30
0.0
 11
14251.2
 21
800.0
 31
0.0
  0
DIMENSION
  5
14521
330
747D
100
AcDbEntity
  8
寸法
100
AcDbDimension
  2
*D1
 10
9317.453213390718
 20
10334.7327119453
 30
0.0
 11
8953.967932016444
 21
10334.7327119453
 31
0.0
 70
   160
 71
     5
 42
55.00000000003637
  3
INABA_S40G
100
AcDbAlignedDimension
 13
9262.453213390683
 23
10043.52754738134
 33
0.0
 14
9317.453213390718
 24
10043.52754738134
 34
0.0
100
AcDbRotatedDimension
1001
ACAD
1000
DSTYLE
1002
{
1002
}
  0
LINE
  5
14522
330
747D
100
AcDbEntity
  8
部品1
100
AcDbLine
 10
9317.453213390683
 20
10043.52754738131
 30
0.0
 11
9317.453213390686
 21
10015.52754738131
 31
0.0
  0
LINE
  5
14523
330
747D
100
AcDbEntity
  8
部品1
100
AcDbLine
 10
9262.453213390683
 20
10043.52754738131
 30
0.0
 11
9262.453213390712
 21
7833.527547381301
 31
0.0
  0
LINE
  5
14524
330
747D
100
AcDbEntity
  8
部品1
100
AcDbLine
 10
10997.45321339072
 20
10043.52754738144
 30
0.0
 11
10997.45321339072
 21
10015.52754738144
 31
0.0
  0
LINE
  5
14525
330
747D
100
AcDbEntity
  8
部品1
100
AcDbLine
 10
10997.45321339072
 20
10043.52754738146
 30
0.0
 11
10997.45321339072
 21
10015.52754738146
 31
0.0
  0
DIMENSION
  5
14526
330
747D
100
AcDbEntity
  8
寸法
100
AcDbDimension
  2
*D2
 10
12000.62309097036
 20
7833.52754738143
 30
0.0
 11
12000.62309097036
 21
8949.324463338687
 31
0.0
 70
   160
 71
     5
 42
2210.000000000008
  3
INABA_S40G
100
AcDbAlignedDimension
 13
11052.45321339072
 23
10043.52754738144
 33
0.0
 14
11052.45321339069
 24
7833.52754738143
 34
0.0
 50
90.0
100
AcDbRotatedDimension
1001
ACAD
1000
DSTYLE
1002
{
1002
}
  0
LINE
  5
14527
330
747D
100
AcDbEntity
  8
部品1
100
AcDbLine
 10
11052.45321339072
 20
10043.52754738144
 30
0.0
 11
11052.45321339069
 21
7833.52754738143
 31
0.0
  0
LINE
  5
14528
330
747D
100
AcDbEntity
  8
部品1
100
AcDbLine
 10
10577.45321339072
 20
10043.52754738146
 30
0.0
 11
10577.45321339072
 21
10015.52754738146
 31
0.0
  0
LINE
  5
14529
330
747D
100
AcDbEntity
  8
部品1
100
AcDbLine
 10
10157.45321339072
 20
10043.52754738146
 30
0.0
 11
10157.45321339072
 21
10015.52754738146
 31
0.0
  0
LINE
  5
1452A
330
747D
100
AcDbEntity
  8
部品1
100
AcDbLine
 10
9737.45321339072
 20
10043.52754738146
 30
0.0
 11
9737.45321339072
 21
10015.52754738146
 31
0.0
  0
LINE
  5
1452B
330
747D
100
AcDbEntity
  8
部品1
100
AcDbLine
 10
9737.45321339072
 20
10043.52754738134
 30
0.0
 11
9737.45321339072
 21
10015.52754738134
 31
0.0
  0
LINE
  5
1452C
330
747D
100
AcDbEntity
  8
部品1
100
AcDbLine
 10
9737.45321339072
 20
10043.52754738134
 30
0.0
 11
9737.45321339072
 21
10015.52754738134
 31
0.0
  0
LINE
  5
1452D
330
747D
100
AcDbEntity
  8
部品1
100
AcDbLine
 10
9317.453213390718
 20
10043.52754738134
 30
0.0
 11
9317.453213390718
 21
10015.52754738134
 31
0.0
  0
DIMENSION
  5
1452E
330
747D
100
AcDbEntity
  8
寸法
100
AcDbDimension
  2
*D3
 10
11699.87955912513
 20
9988.527547381444
 30
0.0
 11
11699.87955912513
 21
10352.01282875568
 31
0.0
 70
   160
 71
     5
 42
54.99999999999636
  3
INABA_S40G
100
AcDbAlignedDimension
 13
11052.45321339072
 23
10043.52754738144
 33
0.0
 14
11052.45321339072
 24
9988.527547381444
 34
0.0
 50
90.0
100
AcDbRotatedDimension
1001
ACAD
1000
DSTYLE
1002
{
1002
}
  0
DIMENSION
  5
14530
330
747D
100
AcDbEntity
  8
寸法
100
AcDbDimension
  2
*D4
 10
11699.8795591251
 20
7833.52754738143
 30
0.0
 11
11699.8795591251
 21
7455.66608047657
 31
0.0
 70
   160
 71
     5
 42
54.99999999999636
  3
INABA_S40G
100
AcDbAlignedDimension
 13
11052.45321339069
 23
7888.527547381428
 33
0.0
 14
11052.45321339069
 24
7833.52754738143
 34
0.0
 50
90.0
100
AcDbRotatedDimension
1001
ACAD
1000
DSTYLE
1002
{
1002
}
  0
DIMENSION
  5
14531
330
747D
100
AcDbEntity
  8
寸法
100
AcDbDimension
  2
*D5
 10
11699.87955912513
 20
7888.527547381428
 30
0.0
 11
11699.87955912513
 21
8938.527547381436
 31
0.0
 70
   160
  1
5X420=<>
 71
     5
 42
2100.000000000016
  3
INABA_S40G
100
AcDbAlignedDimension
 13
11052.45321339072
 23
9988.527547381444
 33
0.0
 14
11052.45321339069
 24
7888.527547381428
 34
0.0
 50
90.0
100
AcDbRotatedDimension
1001
ACAD
1000
DSTYLE
1002
{
1002
}
  0
LINE
  5
14546
330
747D
100
AcDbEntity
  8
部品1
100
AcDbLine
 10
9290.453213390692
 20
7861.527547381268
 30
0.0
 11
9290.453213390719
 21
10015.52754738134
 31
0.0
  0
LINE
  5
14558
330
747D
100
AcDbEntity
  8
部品1
100
AcDbLine
 10
9290.453213390698
 20
8308.527547381315
 30
0.0
 11
9262.453213390697
 21
8308.527547381315
 31
0.0
  0
LINE
  5
1455F
330
747D
100
AcDbEntity
  8
部品1
100
AcDbLine
 10
9290.453213390694
 20
9148.527547381315
 30
0.0
 11
9262.453213390694
 21
9148.527547381315
 31
0.0
  0
LINE
  5
14560
330
747D
100
AcDbEntity
  8
部品1
100
AcDbLine
 10
9290.453213390687
 20
9988.527547381316
 30
0.0
 11
9262.453213390687
 21
9988.527547381316
 31
0.0
  0
LINE
  5
14562
330
747D
100
AcDbEntity
  8
部品1
100
AcDbLine
 10
11024.45321339072
 20
10015.52754738144
 30
0.0
 11
11024.4532133907
 21
8741.027547381412
 31
0.0
  0
LINE
  5
14574
330
747D
100
AcDbEntity
  8
部品1
100
AcDbLine
 10
11024.45321339072
 20
8308.527547381443
 30
0.0
 11
11052.45321339072
 21
8308.527547381443
 31
0.0
  0
LINE
  5
14579
330
747D
100
AcDbEntity
  8
部品1
100
AcDbLine
 10
9290.453213390719
 20
10015.52754738147
 30
0.0
 11
11024.45321339072
 21
10015.52754738144
 31
0.0
  0
LINE
  5
14585
330
747D
100
AcDbEntity
  8
部品1
100
AcDbLine
 10
11024.45321339072
 20
9148.527547381444
 30
0.0
 11
11052.45321339072
 21
9148.527547381444
 31
0.0
  0
LINE
  5
14586
330
747D
100
AcDbEntity
  8
部品1
100
AcDbLine
 10
11024.45321339072
 20
9988.527547381444
 30
0.0
 11
11052.45321339072
 21
9988.527547381444
 31
0.0
  0
DIMENSION
  5
14587
330
747D
100
AcDbEntity
  8
寸法
100
AcDbDimension
  2
*D6
 10
11052.45321339072
 20
10334.7327119454
 30
0.0
 11
11360.93849476496
 21
10334.7327119454
 31
0.0
 70
   160
 71
     5
 42
55.0
  3
INABA_S40G
100
AcDbAlignedDimension
 13
10997.45321339072
 23
10043.52754738144
 33
0.0
 14
11052.45321339072
 24
10043.52754738144
 34
0.0
100
AcDbRotatedDimension
1001
ACAD
1000
DSTYLE
1002
{
1002
}
  0
LINE
  5
14588
330
747D
100
AcDbEntity
  8
部品1
100
AcDbLine
 10
9262.453213390719
 20
10043.52754738134
 30
0.0
 11
11052.45321339072
 21
10043.52754738144
 31
0.0
  0
DIMENSION
  5
14589
330
747D
100
AcDbEntity
  8
寸法
100
AcDbDimension
  2
*D7
 10
10997.45321339072
 20
10334.73271194542
 30
0.0
 11
10157.45321339072
 21
10334.73271194542
 31
0.0
 70
   160
  1
4X420=<>
 71
     5
 42
1680.0
  3
INABA_S40G
100
AcDbAlignedDimension
 13
9317.453213390718
 23
10043.52754738134
 33
0.0
 14
10997.45321339072
 24
10043.52754738144
 34
0.0
100
AcDbRotatedDimension
1001
ACAD
1000
DSTYLE
1002
{
1002
}
  0
LINE
  5
14C0C
330
747D
100
AcDbEntity
  8
部品1
100
AcDbLine
 10
10572.45321339076
 20
7890.027547381402
 30
0.0
 11
9318.953213390612
 21
7890.027547381331
 31
0.0
  0
LINE
  5
14C0E
330
747D
100
AcDbEntity
  8
破線
 48
10.0
100
AcDbLine
 10
10572.45321339076
 20
7913.527547381402
 30
0.0
 11
9342.453213390703
 21
7913.527547381329
 31
0.0
  0
LINE
  5
14C31
330
747D
100
AcDbEntity
  8
部品1
100
AcDbLine
 10
9318.95321339069
 20
9987.027547381531
 30
0.0
 11
9318.95321339071
 21
7890.027547381428
 31
0.0
  0
LINE
  5
14C32
330
747D
100
AcDbEntity
  8
破線
 48
10.0
100
AcDbLine
 10
9342.453213390685
 20
9963.52754738155
 30
0.0
 11
9342.453213390692
 21
9309.027547381358
 31
0.0
  0
LINE
  5
14C33
330
747D
100
AcDbEntity
  8
部品1
 48
50.0
100
AcDbLine
 10
9318.953213390704
 20
7890.027547381426
 30
0.0
 11
9290.453213390707
 21
7861.527547381427
 31
0.0
  0
TEXT
  5
14D2F
330
747D
100
AcDbEntity
  8
文字
 62
     7
 48
50.0
100
AcDbText
 10
14644.07818602837
 20
876.4448062548634
 30
0.0
 40
100.0
  1
～一般型・多雪地型～
  7
STYLE2
100
AcDbText
  0
LINE
  5
15046
330
747D
100
AcDbEntity
  8
部品1
100
AcDbLine
 10
11024.45321339072
 20
7888.52754738117
 30
0.0
 11
11052.45321339072
 21
7888.52754738117
 31
0.0
  0
LINE
  5
15047
330
747D
100
AcDbEntity
  8
部品1
100
AcDbLine
 10
9290.453213390687
 20
7888.527547381298
 30
0.0
 11
9262.453213390687
 21
7888.527547381298
 31
0.0
  0
LINE
  5
15048
330
747D
100
AcDbEntity
  8
部品1
 48
50.0
100
AcDbLine
 10
9262.453213390712
 20
7833.527547381267
 30
0.0
 11
9317.453213390683
 21
7833.527547381272
 31
0.0
  0
LINE
  5
15049
330
747D
100
AcDbEntity
  8
部品1
 48
50.0
100
AcDbLine
 10
9290.453213390691
 20
7861.527547381268
 30
0.0
 11
11024.45321339069
 21
7861.527547381427
 31
0.0
  0
LINE
  5
1504A
330
747D
100
AcDbEntity
  8
部品1
 48
50.0
100
AcDbLine
 10
10997.45321339068
 20
7833.527547381428
 30
0.0
 11
11052.45321339069
 21
7833.52754738143
 31
0.0
  0
LINE
  5
1513D
330
747D
100
AcDbEntity
  8
部品1
 48
50.0
100
AcDbLine
 10
9317.453213390683
 20
7833.527547381271
 30
0.0
 11
9317.453213390686
 21
7861.527547381268
 31
0.0
  0
LINE
  5
15199
330
747D
100
AcDbEntity
  8
部品1
 48
50.0
100
AcDbLine
 10
10997.45321339068
 20
7833.527547381428
 30
0.0
 11
10997.45321339068
 21
7861.527547381425
 31
0.0
  0
LINE
  5
15AAA
330
747D
100
AcDbEntity
  8
部品1
100
AcDbLine
 10
9290.453213390698
 20
8728.527547381315
 30
0.0
 11
9262.453213390697
 21
8728.527547381315
 31
0.0
  0
LINE
  5
15AAB
330
747D
100
AcDbEntity
  8
部品1
100
AcDbLine
 10
11024.45321339072
 20
8728.527547381444
 30
0.0
 11
11052.45321339072
 21
8728.527547381444
 31
0.0
  0
LINE
  5
15FDF
330
747D
100
AcDbEntity
  8
部品1
100
AcDbLine
 10
9290.453213390694
 20
9568.527547381314
 30
0.0
 11
9262.453213390694
 21
9568.527547381314
 31
0.0
  0
LINE
  5
15FE0
330
747D
100
AcDbEntity
  8
部品1
100
AcDbLine
 10
11024.45321339072
 20
9568.527547381444
 30
0.0
 11
11052.45321339072
 21
9568.527547381444
 31
0.0
  0
LINE
  5
15FE3
330
747D
100
AcDbEntity
  8
部品1
 48
50.0
100
AcDbLine
 10
10572.45321339071
 20
9987.027547381465
 30
0.0
 11
9318.953213390704
 21
9987.027547381531
 31
0.0
  0
LINE
  5
15FE5
330
747D
100
AcDbEntity
  8
部品1
 48
50.0
100
AcDbLine
 10
9318.95321339069
 20
9987.027547381531
 30
0.0
 11
9290.453213390719
 21
10015.52754738134
 31
0.0
  0
LINE
  5
15FE7
330
747D
100
AcDbEntity
  8
破線
 48
10.0
100
AcDbLine
 10
9342.453213390683
 20
9963.527547381552
 30
0.0
 11
10572.45321339072
 21
9963.52754738154
 31
0.0
  0
LINE
  5
16059
330
747D
100
AcDbEntity
  8
部品1
100
AcDbLine
 10
10572.45321339071
 20
10015.02754738148
 30
0.0
 11
10572.45321339077
 21
8742.027547381409
 31
0.0
  0
LINE
  5
1605A
330
747D
100
AcDbEntity
  8
部品1
100
AcDbLine
 10
11022.45321339071
 20
10015.02754738148
 30
0.0
 11
11022.45321339077
 21
8742.027547381407
 31
0.0
  0
LINE
  5
1605D
330
747D
100
AcDbEntity
  8
細線
 48
50.0
100
AcDbLine
 10
11022.45321339077
 20
8742.027547381407
 30
0.0
 11
10572.45321339072
 21
10015.02754738148
 31
0.0
  0
LINE
  5
1605E
330
747D
100
AcDbEntity
  8
細線
 48
50.0
100
AcDbLine
 10
10572.45321339077
 20
8742.027547381409
 30
0.0
 11
11022.45321339072
 21
10015.02754738148
 31
0.0
  0
LINE
  5
16060
330
747D
100
AcDbEntity
  8
部品1
 48
50.0
100
AcDbLine
 10
11022.45321339077
 20
10015.02754738148
 30
0.0
 11
10572.45321339077
 21
10015.02754738148
 31
0.0
  0
LINE
  5
16069
330
747D
100
AcDbEntity
  8
細線
 48
50.0
100
AcDbLine
 10
10572.45321339076
 20
7862.027547381408
 30
0.0
 11
11022.45321339076
 21
8715.027547381408
 31
0.0
  0
LINE
  5
1606A
330
747D
100
AcDbEntity
  8
部品1
100
AcDbLine
 10
10572.45321339077
 20
8715.027547381408
 30
0.0
 11
10572.45321339076
 21
7862.027547381408
 31
0.0
  0
LINE
  5
1606B
330
747D
100
AcDbEntity
  8
部品1
100
AcDbLine
 10
11022.45321339077
 20
8715.027547381408
 30
0.0
 11
11022.45321339076
 21
7862.027547381408
 31
0.0
  0
LINE
  5
1606C
330
747D
100
AcDbEntity
  8
細線
 48
50.0
100
AcDbLine
 10
11022.45321339076
 20
7862.027547381408
 30
0.0
 11
10572.45321339077
 21
8715.027547381408
 31
0.0
  0
LINE
  5
1606D
330
747D
100
AcDbEntity
  8
部品1
 48
50.0
100
AcDbLine
 10
11024.45321339077
 20
8716.027547381406
 30
0.0
 11
10572.45321339077
 21
8716.027547381406
 31
0.0
  0
LINE
  5
1606E
330
747D
100
AcDbEntity
  8
部品1
 48
50.0
100
AcDbLine
 10
11024.45321339077
 20
8741.02754738141
 30
0.0
 11
10572.45321339077
 21
8741.027547381406
 31
0.0
  0
LINE
  5
1606F
330
747D
100
AcDbEntity
  8
部品1
 48
50.0
100
AcDbLine
 10
11022.45321339076
 20
8715.027547381408
 30
0.0
 11
10572.45321339077
 21
8715.027547381408
 31
0.0
  0
LINE
  5
16070
330
747D
100
AcDbEntity
  8
部品1
 48
50.0
100
AcDbLine
 10
11022.45321339077
 20
8742.027547381407
 30
0.0
 11
10572.45321339077
 21
8742.027547381407
 31
0.0
  0
LINE
  5
16071
330
747D
100
AcDbEntity
  8
部品1
100
AcDbLine
 10
10572.45321339077
 20
8741.027547381406
 30
0.0
 11
10572.45321339077
 21
8716.027547381406
 31
0.0
  0
LINE
  5
16073
330
747D
100
AcDbEntity
  8
部品1
100
AcDbLine
 10
11016.45321339076
 20
8741.027547381406
 30
0.0
 11
11016.45321339077
 21
8716.027547381406
 31
0.0
  0
LINE
  5
16074
330
747D
100
AcDbEntity
  8
部品1
100
AcDbLine
 10
11042.45321339077
 20
8699.527547381407
 30
0.0
 11
11042.45321339077
 21
8693.527547381407
 31
0.0
  0
LINE
  5
16075
330
747D
100
AcDbEntity
  8
部品1
100
AcDbLine
 10
11042.45321339077
 20
8693.527547381407
 30
0.0
 11
11024.45321339077
 21
8693.527547381407
 31
0.0
  0
LINE
  5
16076
330
747D
100
AcDbEntity
  8
部品1
100
AcDbLine
 10
11042.45321339077
 20
8763.527547381407
 30
0.0
 11
11042.45321339077
 21
8757.527547381407
 31
0.0
  0
LINE
  5
16077
330
747D
100
AcDbEntity
  8
部品1
100
AcDbLine
 10
11042.45321339077
 20
8763.527547381407
 30
0.0
 11
11024.45321339077
 21
8763.527547381407
 31
0.0
  0
LINE
  5
16079
330
747D
100
AcDbEntity
  8
部品1
100
AcDbLine
 10
11022.45321339076
 20
7862.027547381408
 30
0.0
 11
10572.45321339076
 21
7862.027547381408
 31
0.0
  0
DIMENSION
  5
1607F
330
747D
100
AcDbEntity
  8
寸法
100
AcDbDimension
  2
*D8
 10
10368.70243269963
 20
7916.622404524821
 30
0.0
 11
10368.70243269963
 21
8277.829077052039
 31
0.0
 70
   160
 71
     5
 42
853.0000000000118
  3
INABA_S40G
100
AcDbAlignedDimension
 13
10572.45321339083
 23
8715.027547381415
 33
0.0
 14
10572.45321339083
 24
7862.027547381403
 34
0.0
 50
270.0
100
AcDbRotatedDimension
1001
ACAD
1000
DSTYLE
1002
{
1002
}
  0
DIMENSION
  5
16080
330
747D
100
AcDbEntity
  8
寸法
100
AcDbDimension
  2
*D9
 10
10368.70243269963
 20
8796.622404524816
 30
0.0
 11
10368.70243269963
 21
9470.292061545356
 31
0.0
 70
   160
 71
     5
 42
1273.000000000071
  3
INABA_S40G
100
AcDbAlignedDimension
 13
10572.45321339078
 23
10015.02754738148
 33
0.0
 14
10572.45321339077
 24
8742.027547381415
 34
0.0
 50
270.0
100
AcDbRotatedDimension
1001
ACAD
1000
DSTYLE
1002
{
1002
}
  0
LINE
  5
1611E
330
747D
100
AcDbEntity
  8
部品1
100
AcDbLine
 10
11024.4532133907
 20
8716.027547381406
 30
0.0
 11
11024.45321339069
 21
7861.527547381427
 31
0.0
  0
TEXT
  5
16601
330
747D
100
AcDbEntity
  8
文字
 62
     7
 48
50.0
100
AcDbText
 10
13209.4053442172
 20
228.543524256902
 30
0.0
 40
100.0
  1
○有効開口寸法 ： 950×1725(mm)
  7
STYLE2
100
AcDbText
  0
LINE
  5
16602
330
747D
100
AcDbEntity
  8
Ｇ．Ｌ
100
AcDbLine
 10
2966.960457779678
 20
2527.31819138772
 30
0.0
 11
11686.47478715946
 21
2527.31819138772
 31
0.0
  0
LINE
  5
16603
330
747D
100
AcDbEntity
  8
部品1
100
AcDbLine
 10
9262.45321339071
 20
2627.31819138772
 30
0.0
 11
11052.45321339071
 21
2627.31819138772
 31
0.0
  0
LINE
  5
16604
330
747D
100
AcDbEntity
  8
部品1
100
AcDbLine
 10
9262.45321339071
 20
4467.31819138772
 30
0.0
 11
11052.45321339071
 21
4467.31819138772
 31
0.0
  0
LINE
  5
16605
330
747D
100
AcDbEntity
  8
部品1
100
AcDbLine
 10
9262.453213390712
 20
4520.81819138772
 30
0.0
 11
9262.45321339071
 21
2527.31819138772
 31
0.0
  0
LINE
  5
16606
330
747D
100
AcDbEntity
  8
部品1
100
AcDbLine
 10
11052.45321339071
 20
4520.81819138772
 30
0.0
 11
11052.45321339071
 21
2527.31819138772
 31
0.0
  0
LINE
  5
16607
330
747D
100
AcDbEntity
  8
部品1
100
AcDbLine
 10
10652.45321339071
 20
2627.31819138772
 30
0.0
 11
10652.45321339071
 21
2527.31819138772
 31
0.0
  0
LINE
  5
16608
330
747D
100
AcDbEntity
  8
部品1
100
AcDbLine
 10
9662.45321339071
 20
2627.31819138772
 30
0.0
 11
9662.45321339071
 21
2527.31819138772
 31
0.0
  0
LINE
  5
16609
330
747D
100
AcDbEntity
  8
部品1
 48
50.0
100
AcDbLine
 10
10057.45321339071
 20
2627.31819138772
 30
0.0
 11
10057.45321339071
 21
2527.31819138772
 31
0.0
  0
LINE
  5
1660A
330
747D
100
AcDbEntity
  8
部品1
 48
50.0
100
AcDbLine
 10
10257.45321339071
 20
2627.31819138772
 30
0.0
 11
10257.45321339071
 21
2527.31819138772
 31
0.0
  0
LINE
  5
1660B
330
747D
100
AcDbEntity
  8
部品1
100
AcDbLine
 10
11057.45321339071
 20
2672.31819138772
 30
0.0
 11
11057.45321339071
 21
2527.31819138772
 31
0.0
  0
LINE
  5
1660C
330
747D
100
AcDbEntity
  8
破線
 48
5.0
100
AcDbLine
 10
11152.45321339071
 20
2327.31819138772
 30
0.0
 11
10952.4532133907
 21
2327.31819138772
 31
0.0
  0
LINE
  5
1660D
330
747D
100
AcDbEntity
  8
破線
 48
5.0
100
AcDbLine
 10
10952.45321339071
 20
2527.31819138772
 30
0.0
 11
10952.45321339071
 21
2327.31819138772
 31
0.0
  0
LINE
  5
1660E
330
747D
100
AcDbEntity
  8
破線
 48
5.0
100
AcDbLine
 10
11152.45321339071
 20
2527.31819138772
 30
0.0
 11
11152.45321339071
 21
2327.31819138772
 31
0.0
  0
LINE
  5
1660F
330
747D
100
AcDbEntity
  8
破線
 48
5.0
100
AcDbLine
 10
11077.45321339071
 20
2372.31819138772
 30
0.0
 11
11057.4532133907
 21
2372.31819138772
 31
0.0
  0
LINE
  5
16610
330
747D
100
AcDbEntity
  8
部品1
100
AcDbLine
 10
9257.453213390709
 20
2672.318191387722
 30
0.0
 11
9257.453213390709
 21
2527.31819138772
 31
0.0
  0
LINE
  5
16611
330
747D
100
AcDbEntity
  8
破線
 48
5.0
100
AcDbLine
 10
9162.45321339071
 20
2327.31819138772
 30
0.0
 11
9362.453213390711
 21
2327.31819138772
 31
0.0
  0
LINE
  5
16612
330
747D
100
AcDbEntity
  8
破線
 48
5.0
100
AcDbLine
 10
9162.45321339071
 20
2527.31819138772
 30
0.0
 11
9162.45321339071
 21
2327.31819138772
 31
0.0
  0
LINE
  5
16613
330
747D
100
AcDbEntity
  8
破線
 48
5.0
100
AcDbLine
 10
9237.453213390709
 20
2372.31819138772
 30
0.0
 11
9257.453213390711
 21
2372.31819138772
 31
0.0
  0
LINE
  5
16614
330
747D
100
AcDbEntity
  8
破線
 48
5.0
100
AcDbLine
 10
9362.453213390709
 20
2527.31819138772
 30
0.0
 11
9362.453213390709
 21
2327.31819138772
 31
0.0
  0
LINE
  5
1664A
330
747D
100
AcDbEntity
  8
破線
 48
5.0
100
AcDbLine
 10
11057.45321339071
 20
2527.31819138772
 30
0.0
 11
11057.45321339071
 21
2372.31819138772
 31
0.0
  0
LINE
  5
1664B
330
747D
100
AcDbEntity
  8
破線
 48
5.0
100
AcDbLine
 10
9257.453213390709
 20
2527.31819138772
 30
0.0
 11
9257.453213390709
 21
2372.31819138772
 31
0.0
  0
DIMENSION
  5
1664C
330
747D
100
AcDbEntity
  8
寸法
 48
50.0
100
AcDbDimension
  2
*D11
 10
9162.45321339071
 20
2041.270862087342
 30
0.0
 11
9262.45321339071
 21
2041.270862087342
 31
0.0
 70
   160
 71
     5
 42
200.0000000000018
  3
INABA_S40G
100
AcDbAlignedDimension
 13
9362.453213390711
 23
2327.318191387719
 33
0.0
 14
9162.45321339071
 24
2327.318191387719
 34
0.0
100
AcDbRotatedDimension
  0
TEXT
  5
1664D
330
747D
100
AcDbEntity
  8
部品1
100
AcDbText
 10
9866.243284014444
 20
1645.386399191786
 30
0.0
 40
135.0
  1
正面図
  7
STYLE2
100
AcDbText
  0
LINE
  5
1664F
330
747D
100
AcDbEntity
  8
部品1
100
AcDbLine
 10
9262.45321339071
 20
2677.318191387723
 30
0.0
 11
9290.453213390708
 21
2677.318191387723
 31
0.0
  0
LINE
  5
16661
330
747D
100
AcDbEntity
  8
部品1
100
AcDbLine
 10
10997.45321339071
 20
4467.31819138772
 30
0.0
 11
10997.45321339071
 21
4462.318191387719
 31
0.0
  0
LINE
  5
16662
330
747D
100
AcDbEntity
  8
部品1
100
AcDbLine
 10
9317.453213390706
 20
4467.318191387716
 30
0.0
 11
9317.453213390706
 21
4462.318191387719
 31
0.0
  0
LINE
  5
16665
330
747D
100
AcDbEntity
  8
部品1
 48
50.0
100
AcDbLine
 10
9290.453213390708
 20
2627.31819138772
 30
0.0
 11
11024.45321339071
 21
2627.31819138772
 31
0.0
  0
LINE
  5
16666
330
747D
100
AcDbEntity
  8
部品1
100
AcDbLine
 10
11024.45321339071
 20
2677.31819138774
 30
0.0
 11
11052.45321339071
 21
2677.31819138774
 31
0.0
  0
LINE
  5
1666B
330
747D
100
AcDbEntity
  8
部品1
100
AcDbLine
 10
9775.71788027649
 20
1838.27992841031
 30
0.0
 11
9775.71788027649
 21
1598.387606864777
 31
0.0
  0
LINE
  5
1666C
330
747D
100
AcDbEntity
  8
部品1
100
AcDbLine
 10
9775.71788027649
 20
1598.387606864777
 30
0.0
 11
10539.18854650493
 21
1598.387606864777
 31
0.0
  0
LINE
  5
1666D
330
747D
100
AcDbEntity
  8
部品1
100
AcDbLine
 10
10539.18854650493
 20
1598.387606864777
 30
0.0
 11
10539.18854650493
 21
1838.27992841031
 31
0.0
  0
LINE
  5
1666E
330
747D
100
AcDbEntity
  8
部品1
100
AcDbLine
 10
10539.18854650493
 20
1838.27992841031
 30
0.0
 11
9775.71788027649
 21
1838.27992841031
 31
0.0
  0
TEXT
  5
1666F
330
747D
100
AcDbEntity
  8
文字
 62
     7
 48
50.0
100
AcDbText
 10
13248.77747366447
 20
8380.013745883728
 30
0.0
 40
100.0
  1
17
  7
STYLE1
100
AcDbText
  0
TEXT
  5
16670
330
747D
100
AcDbEntity
  8
文字
 62
     7
 48
50.0
100
AcDbText
 10
13248.77747366447
 20
8550.013745883729
 30
0.0
 40
100.0
  1
16
  7
STYLE1
100
AcDbText
  0
TEXT
  5
16671
330
747D
100
AcDbEntity
  8
文字
 62
     7
 48
50.0
100
AcDbText
 10
15022.63965474517
 20
9060.013745883725
 30
0.0
 40
100.0
  1
F12            1.0
  7
STYLE1
100
AcDbText
  0
TEXT
  5
16672
330
747D
100
AcDbEntity
  8
文字
 62
     7
 48
50.0
100
AcDbText
 10
13583.11819016569
 20
9060.013745883733
 30
0.0
 40
100.0
  1
壁面扉枠左右
  7
STYLE1
100
AcDbText
  0
TEXT
  5
16673
330
747D
100
AcDbEntity
  8
文字
 62
     7
 48
50.0
100
AcDbText
 10
15022.63965474517
 20
9230.013745883725
 30
0.0
 40
100.0
  1
F12            1.0
  7
STYLE1
100
AcDbText
  0
TEXT
  5
16674
330
747D
100
AcDbEntity
  8
文字
 62
     7
 48
50.0
100
AcDbText
 10
15022.63965474515
 20
9400.013745883727
 30
0.0
 40
100.0
  1
F12            0.7
  7
STYLE1
100
AcDbText
  0
TEXT
  5
16675
330
747D
100
AcDbEntity
  8
文字
 62
     7
 48
50.0
100
AcDbText
 10
13583.11819016569
 20
9230.013745883733
 30
0.0
 40
100.0
  1
壁面扉敷居
  7
STYLE1
100
AcDbText
  0
TEXT
  5
16676
330
747D
100
AcDbEntity
  8
文字
 62
     7
 48
50.0
100
AcDbText
 10
13583.11819016569
 20
9400.013745883729
 30
0.0
 40
100.0
  1
壁面扉鴨居
  7
STYLE1
100
AcDbText
  0
LINE
  5
16677
330
747D
100
AcDbEntity
  8
仕様書枠
 48
50.0
100
AcDbLine
 10
16307.19999999999
 20
8689.600000000003
 30
0.0
 11
13127.2
 21
8689.600000000005
 31
0.0
  0
LINE
  5
16678
330
747D
100
AcDbEntity
  8
仕様書枠
 48
50.0
100
AcDbLine
 10
16307.19999999999
 20
8519.600000000004
 30
0.0
 11
13127.2
 21
8519.600000000005
 31
0.0
  0
TEXT
  5
16679
330
747D
100
AcDbEntity
  8
文字
 62
     7
 48
50.0
100
AcDbText
 10
13583.11819016569
 20
8380.013745883728
 30
0.0
 40
100.0
  1
アンカープレート
  7
STYLE1
100
AcDbText
  0
TEXT
  5
1667A
330
747D
100
AcDbEntity
  8
文字
 62
     7
 48
50.0
100
AcDbText
 10
15022.63965474515
 20
8380.013745883724
 30
0.0
 40
100.0
  1
F12            2.3
  7
STYLE1
100
AcDbText
  0
LINE
  5
1667B
330
747D
100
AcDbEntity
  8
仕様書枠
 48
50.0
100
AcDbLine
 10
16307.2
 20
10049.6
 30
0.0
 11
13127.2
 21
10049.6
 31
0.0
  0
LINE
  5
1667C
330
747D
100
AcDbEntity
  8
仕様書枠
 48
50.0
100
AcDbLine
 10
16307.2
 20
11409.59999999999
 30
0.0
 11
13127.2
 21
11409.6
 31
0.0
  0
LINE
  5
1667D
330
747D
100
AcDbEntity
  8
仕様書枠
 48
50.0
100
AcDbLine
 10
16307.19999999999
 20
8009.600000000004
 30
0.0
 11
16307.2
 21
11409.6
 31
0.0
  0
LINE
  5
1667E
330
747D
100
AcDbEntity
  8
仕様書枠
 48
50.0
100
AcDbLine
 10
14785.2
 20
11409.59999999999
 30
0.0
 11
14785.2
 21
8349.600000000004
 31
0.0
  0
LINE
  5
1667F
330
747D
100
AcDbEntity
  8
仕様書枠
 48
50.0
100
AcDbLine
 10
13490.2
 20
11409.59999999999
 30
0.0
 11
13490.20000000001
 21
8349.600000000007
 31
0.0
  0
LINE
  5
16680
330
747D
100
AcDbEntity
  8
仕様書枠
 48
50.0
100
AcDbLine
 10
16307.2
 20
11239.59999999999
 30
0.0
 11
13127.2
 21
11239.6
 31
0.0
  0
LINE
  5
16681
330
747D
100
AcDbEntity
  8
仕様書枠
 48
50.0
100
AcDbLine
 10
16307.2
 20
10899.6
 30
0.0
 11
13127.2
 21
10899.6
 31
0.0
  0
LINE
  5
16682
330
747D
100
AcDbEntity
  8
仕様書枠
 48
50.0
100
AcDbLine
 10
16307.2
 20
11069.59999999999
 30
0.0
 11
13127.2
 21
11069.6
 31
0.0
  0
LINE
  5
16683
330
747D
100
AcDbEntity
  8
仕様書枠
 48
50.0
100
AcDbLine
 10
16307.19999999999
 20
10559.6
 30
0.0
 11
13127.2
 21
10559.6
 31
0.0
  0
LINE
  5
16684
330
747D
100
AcDbEntity
  8
仕様書枠
 48
50.0
100
AcDbLine
 10
16307.19999999999
 20
10389.6
 30
0.0
 11
13127.2
 21
10389.6
 31
0.0
  0
LINE
  5
16685
330
747D
100
AcDbEntity
  8
仕様書枠
 48
50.0
100
AcDbLine
 10
16307.19999999999
 20
10729.59999999999
 30
0.0
 11
13127.2
 21
10729.6
 31
0.0
  0
TEXT
  5
16686
330
747D
100
AcDbEntity
  8
文字
 62
     7
 48
50.0
100
AcDbText
 10
13197.42518560407
 20
11270.01374588372
 30
0.0
 40
100.0
  1
品番
  7
STYLE1
100
AcDbText
  0
TEXT
  5
16687
330
747D
100
AcDbEntity
  8
文字
 62
     7
 48
50.0
100
AcDbText
 10
13271.19032244792
 20
11100.01374588373
 30
0.0
 40
100.0
  1
1
  7
STYLE1
100
AcDbText
  0
TEXT
  5
16688
330
747D
100
AcDbEntity
  8
文字
 62
     7
 48
50.0
100
AcDbText
 10
13271.19032244792
 20
10930.01374588373
 30
0.0
 40
100.0
  1
2
  7
STYLE1
100
AcDbText
  0
TEXT
  5
16689
330
747D
100
AcDbEntity
  8
文字
 62
     7
 48
50.0
100
AcDbText
 10
13271.19032244792
 20
10590.01374588373
 30
0.0
 40
100.0
  1
4
  7
STYLE1
100
AcDbText
  0
TEXT
  5
1668A
330
747D
100
AcDbEntity
  8
文字
 62
     7
 48
50.0
100
AcDbText
 10
13271.19032244792
 20
10760.01374588373
 30
0.0
 40
100.0
  1
3
  7
STYLE1
100
AcDbText
  0
TEXT
  5
1668B
330
747D
100
AcDbEntity
  8
文字
 62
     7
 48
50.0
100
AcDbText
 10
13732.03840939434
 20
11270.01374588372
 30
0.0
 40
100.0
  1
部　　品　　名
  7
STYLE1
100
AcDbText
  0
TEXT
  5
1668C
330
747D
100
AcDbEntity
  8
文字
 62
     7
 48
50.0
100
AcDbText
 10
14859.79774614482
 20
11270.01374588372
 30
0.0
 40
100.0
  1
材料（材質）　　単位mm
  7
STYLE1
100
AcDbText
  0
TEXT
  5
1668D
330
747D
100
AcDbEntity
  8
文字
 62
     7
 48
50.0
100
AcDbText
 10
13583.11819016569
 20
11100.01374588372
 30
0.0
 40
100.0
  1
土台枠
  7
STYLE1
100
AcDbText
  0
TEXT
  5
1668E
330
747D
100
AcDbEntity
  8
文字
 62
     7
 48
50.0
100
AcDbText
 10
13583.1181901657
 20
10760.01374588372
 30
0.0
 40
100.0
  1
柱
  7
STYLE1
100
AcDbText
  0
TEXT
  5
1668F
330
747D
100
AcDbEntity
  8
文字
 62
     7
 48
50.0
100
AcDbText
 10
13583.11819016569
 20
10420.01374588373
 30
0.0
 40
100.0
  1
桁前後
  7
STYLE1
100
AcDbText
  0
TEXT
  5
16690
330
747D
100
AcDbEntity
  8
文字
 62
     7
 48
50.0
100
AcDbText
 10
13271.19032244792
 20
10420.01374588372
 30
0.0
 40
100.0
  1
5
  7
STYLE1
100
AcDbText
  0
TEXT
  5
16691
330
747D
100
AcDbEntity
  8
文字
 62
     7
 48
50.0
100
AcDbText
 10
13583.11819016569
 20
10250.01374588373
 30
0.0
 40
100.0
  1
妻板左右
  7
STYLE1
100
AcDbText
  0
TEXT
  5
16692
330
747D
100
AcDbEntity
  8
文字
 62
     7
 48
50.0
100
AcDbText
 10
13248.77747366447
 20
9570.013745883727
 30
0.0
 40
100.0
  1
10
  7
STYLE1
100
AcDbText
  0
TEXT
  5
16693
330
747D
100
AcDbEntity
  8
文字
 62
     7
 48
50.0
100
AcDbText
 10
13583.11819016568
 20
9570.013745883729
 30
0.0
 40
100.0
  1
壁パネル
  7
STYLE1
100
AcDbText
  0
TEXT
  5
16694
330
747D
100
AcDbEntity
  8
文字
 62
     7
 48
50.0
100
AcDbText
 10
13583.11819016569
 20
9910.013745883727
 30
0.0
 40
100.0
  1
屋根パネル
  7
STYLE1
100
AcDbText
  0
TEXT
  5
16695
330
747D
100
AcDbEntity
  8
文字
 62
     7
 48
50.0
100
AcDbText
 10
13583.11819016569
 20
10080.01374588372
 30
0.0
 40
100.0
  1
鼻隠シ前後
  7
STYLE1
100
AcDbText
  0
TEXT
  5
16696
330
747D
100
AcDbEntity
  8
文字
 62
     7
 48
50.0
100
AcDbText
 10
13271.19032244792
 20
9910.01374588373
 30
0.0
 40
100.0
  1
8
  7
STYLE1
100
AcDbText
  0
TEXT
  5
16697
330
747D
100
AcDbEntity
  8
文字
 62
     7
 48
50.0
100
AcDbText
 10
13271.19032244792
 20
9740.013745883729
 30
0.0
 40
100.0
  1
9
  7
STYLE1
100
AcDbText
  0
TEXT
  5
16698
330
747D
100
AcDbEntity
  8
文字
 62
     7
 48
50.0
100
AcDbText
 10
13271.19032244792
 20
10080.01374588373
 30
0.0
 40
100.0
  1
7
  7
STYLE1
100
AcDbText
  0
TEXT
  5
16699
330
747D
100
AcDbEntity
  8
文字
 62
     7
 48
50.0
100
AcDbText
 10
13271.19032244792
 20
10250.01374588373
 30
0.0
 40
100.0
  1
6
  7
STYLE1
100
AcDbText
  0
LINE
  5
1669A
330
747D
100
AcDbEntity
  8
仕様書枠
 48
50.0
100
AcDbLine
 10
16307.19999999999
 20
9709.6
 30
0.0
 11
13127.2
 21
9709.600000000001
 31
0.0
  0
LINE
  5
1669B
330
747D
100
AcDbEntity
  8
仕様書枠
 48
50.0
100
AcDbLine
 10
16307.19999999999
 20
9369.599999999998
 30
0.0
 11
13127.2
 21
9369.600000000001
 31
0.0
  0
LINE
  5
1669C
330
747D
100
AcDbEntity
  8
仕様書枠
 48
50.0
100
AcDbLine
 10
16307.19999999999
 20
9539.599999999998
 30
0.0
 11
13127.2
 21
9539.6
 31
0.0
  0
LINE
  5
1669D
330
747D
100
AcDbEntity
  8
仕様書枠
 48
50.0
100
AcDbLine
 10
16307.2
 20
10219.6
 30
0.0
 11
13127.2
 21
10219.6
 31
0.0
  0
LINE
  5
1669E
330
747D
100
AcDbEntity
  8
仕様書枠
 48
50.0
100
AcDbLine
 10
16307.2
 20
9879.599999999999
 30
0.0
 11
13127.2
 21
9879.600000000001
 31
0.0
  0
TEXT
  5
1669F
330
747D
100
AcDbEntity
  8
文字
 62
     7
 48
50.0
100
AcDbText
 10
13248.77747366447
 20
9400.013745883727
 30
0.0
 40
100.0
  1
11
  7
STYLE1
100
AcDbText
  0
LINE
  5
166A0
330
747D
100
AcDbEntity
  8
仕様書枠
 48
50.0
100
AcDbLine
 10
16307.19999999999
 20
9199.599999999998
 30
0.0
 11
13127.2
 21
9199.600000000001
 31
0.0
  0
LINE
  5
166A1
330
747D
100
AcDbEntity
  8
仕様書枠
 48
50.0
100
AcDbLine
 10
16307.19999999999
 20
8859.6
 30
0.0
 11
13127.2
 21
8859.600000000002
 31
0.0
  0
TEXT
  5
166A2
330
747D
100
AcDbEntity
  8
文字
 62
     7
 48
50.0
100
AcDbText
 10
13248.77747366448
 20
9060.013745883727
 30
0.0
 40
100.0
  1
13
  7
STYLE1
100
AcDbText
  0
TEXT
  5
166A3
330
747D
100
AcDbEntity
  8
文字
 62
     7
 48
50.0
100
AcDbText
 10
13248.77747366448
 20
9230.013745883727
 30
0.0
 40
100.0
  1
12
  7
STYLE1
100
AcDbText
  0
TEXT
  5
166A4
330
747D
100
AcDbEntity
  8
文字
 62
     7
 48
50.0
100
AcDbText
 10
15022.63965474517
 20
11100.01374588372
 30
0.0
 40
100.0
  1
F12            1.2
  7
STYLE1
100
AcDbText
  0
TEXT
  5
166A5
330
747D
100
AcDbEntity
  8
文字
 62
     7
 48
50.0
100
AcDbText
 10
15022.63965474518
 20
10760.01374588372
 30
0.0
 40
100.0
  1
F12            1.0
  7
STYLE1
100
AcDbText
  0
TEXT
  5
166A6
330
747D
100
AcDbEntity
  8
文字
 62
     7
 48
50.0
100
AcDbText
 10
15022.63965474516
 20
10420.01374588372
 30
0.0
 40
100.0
  1
Y10            1.0
  7
STYLE1
100
AcDbText
  0
TEXT
  5
166A7
330
747D
100
AcDbEntity
  8
文字
 62
     7
 48
50.0
100
AcDbText
 10
15022.63965474516
 20
10250.01374588372
 30
0.0
 40
100.0
  1
Y10            0.7
  7
STYLE1
100
AcDbText
  0
TEXT
  5
166A8
330
747D
100
AcDbEntity
  8
文字
 62
     7
 48
50.0
100
AcDbText
 10
15022.63965474516
 20
10080.01374588372
 30
0.0
 40
100.0
  1
Y10            0.7
  7
STYLE1
100
AcDbText
  0
TEXT
  5
166A9
330
747D
100
AcDbEntity
  8
文字
 62
     7
 48
50.0
100
AcDbText
 10
15022.63965474517
 20
9910.013745883725
 30
0.0
 40
100.0
  1
Y10            0.5
  7
STYLE1
100
AcDbText
  0
TEXT
  5
166AA
330
747D
100
AcDbEntity
  8
文字
 62
     7
 48
50.0
100
AcDbText
 10
15022.63965474515
 20
9570.013745883725
 30
0.0
 40
100.0
  1
F12            0.6
  7
STYLE1
100
AcDbText
  0
LINE
  5
166AB
330
747D
100
AcDbEntity
  8
仕様書枠
 48
50.0
100
AcDbLine
 10
16307.19999999999
 20
8349.600000000004
 30
0.0
 11
13127.19999999999
 21
8349.600000000007
 31
0.0
  0
LINE
  5
166AC
330
747D
100
AcDbEntity
  8
仕様書枠
 48
50.0
100
AcDbLine
 10
16307.19999999999
 20
8179.600000000004
 30
0.0
 11
13127.19999999999
 21
8179.600000000005
 31
0.0
  0
TEXT
  5
166AD
330
747D
100
AcDbEntity
  8
文字
 62
     7
 48
50.0
100
AcDbText
 10
13229.83081656554
 20
8210.013745883733
 30
0.0
 40
100.0
  1
F12→溶融亜鉛めっき鋼板(JIS G 3302)
  7
STYLE1
100
AcDbText
  0
TEXT
  5
166AE
330
747D
100
AcDbEntity
  8
文字
 62
     7
 48
50.0
100
AcDbText
 10
13229.83081656554
 20
8040.013745883731
 30
0.0
 40
100.0
  1
Y10→溶融亜鉛-5％アルミニウム合金めっき鋼板(JIS G 3317)
 41
0.9
  7
STYLE1
100
AcDbText
  0
LINE
  5
166AF
330
747D
100
AcDbEntity
  8
仕様書枠
 48
50.0
100
AcDbLine
 10
13127.2
 20
11409.6
 30
0.0
 11
13127.19999999999
 21
8009.600000000006
 31
0.0
  0
LINE
  5
166B0
330
747D
100
AcDbEntity
  8
仕様書枠
 48
50.0
100
AcDbLine
 10
16307.19999999999
 20
9029.6
 30
0.0
 11
13127.2
 21
9029.600000000002
 31
0.0
  0
TEXT
  5
166B1
330
747D
100
AcDbEntity
  8
文字
 62
     7
 48
50.0
100
AcDbText
 10
13583.1181901657
 20
10590.01374588372
 30
0.0
 40
100.0
  1
床パネル
 41
0.9
  7
STYLE1
100
AcDbText
  0
TEXT
  5
166B2
330
747D
100
AcDbEntity
  8
文字
 62
     7
 48
50.0
100
AcDbText
 10
13583.11819016569
 20
10930.01374588372
 30
0.0
 40
100.0
  1
根太
  7
STYLE1
100
AcDbText
  0
TEXT
  5
166B3
330
747D
100
AcDbEntity
  8
文字
 62
     7
 48
50.0
100
AcDbText
 10
13248.77747366448
 20
8890.013745883727
 30
0.0
 40
100.0
  1
14
  7
STYLE1
100
AcDbText
  0
TEXT
  5
166B4
330
747D
100
AcDbEntity
  8
文字
 62
     7
 48
50.0
100
AcDbText
 10
15022.63965474516
 20
10930.01374588372
 30
0.0
 40
100.0
  1
F12            1.2
  7
STYLE1
100
AcDbText
  0
TEXT
  5
166B5
330
747D
100
AcDbEntity
  8
文字
 62
     7
 48
50.0
100
AcDbText
 10
15022.63965474517
 20
10590.01374588372
 30
0.0
 40
100.0
  1
F12            1.0
  7
STYLE1
100
AcDbText
  0
TEXT
  5
166B6
330
747D
100
AcDbEntity
  8
文字
 62
     7
 48
50.0
100
AcDbText
 10
15022.63965474515
 20
8890.013745883727
 30
0.0
 40
100.0
  1
F12            0.7
  7
STYLE1
100
AcDbText
  0
TEXT
  5
166B7
330
747D
100
AcDbEntity
  8
文字
 62
     7
 48
50.0
100
AcDbText
 10
13583.11819016568
 20
8890.013745883731
 30
0.0
 40
100.0
  1
正面パネル
  7
STYLE1
100
AcDbText
  0
TEXT
  5
166B8
330
747D
100
AcDbEntity
  8
文字
 62
     7
 48
50.0
100
AcDbText
 10
15022.63965474516
 20
8720.013745883727
 30
0.0
 40
100.0
  1
F12            0.8
  7
STYLE1
100
AcDbText
  0
TEXT
  5
166B9
330
747D
100
AcDbEntity
  8
文字
 62
     7
 48
50.0
100
AcDbText
 10
13583.11819016569
 20
8720.013745883731
 30
0.0
 40
100.0
  1
扉
  7
STYLE1
100
AcDbText
  0
LINE
  5
166BA
330
747D
100
AcDbEntity
  8
仕様書枠
 48
50.0
100
AcDbLine
 10
16307.19999999999
 20
8009.600000000004
 30
0.0
 11
13127.19999999999
 21
8009.600000000006
 31
0.0
  0
TEXT
  5
166BB
330
747D
100
AcDbEntity
  8
文字
 62
     7
 48
50.0
100
AcDbText
 10
13248.77747366447
 20
8720.013745883729
 30
0.0
 40
100.0
  1
15
  7
STYLE1
100
AcDbText
  0
TEXT
  5
166BC
330
747D
100
AcDbEntity
  8
文字
 62
     7
 48
50.0
100
AcDbText
 10
13583.11819016569
 20
9740.013745883729
 30
0.0
 40
100.0
  1
母屋中
  7
STYLE1
100
AcDbText
  0
TEXT
  5
166BD
330
747D
100
AcDbEntity
  8
文字
 62
     7
 48
50.0
100
AcDbText
 10
15022.63965474515
 20
9740.013745883723
 30
0.0
 40
100.0
  1
F12            1.0
  7
STYLE1
100
AcDbText
  0
TEXT
  5
166BE
330
747D
100
AcDbEntity
  8
文字
 62
     7
 48
50.0
100
AcDbText
 10
15022.63965474516
 20
8550.013745883727
 30
0.0
 40
100.0
  1
F12            0.6
  7
STYLE1
100
AcDbText
  0
TEXT
  5
166BF
330
747D
100
AcDbEntity
  8
文字
 62
     7
 48
50.0
100
AcDbText
 10
13583.11819016569
 20
8550.013745883731
 30
0.0
 40
100.0
  1
棚板
  7
STYLE1
100
AcDbText
  0
TEXT
  5
166C0
330
747D
100
AcDbEntity
  8
文字
 62
     7
 48
50.0
100
AcDbText
 10
14491.96323844892
 20
483.8967129911416
 30
0.0
 40
160.0
  1
ＮＸＮ－４０ＣＳＡ
  7
STYLE2
100
AcDbText
  0
DIMENSION
  5
166C3
330
747D
100
AcDbEntity
  8
寸法
 48
50.0
100
AcDbDimension
  2
*D12
 10
9262.45321339071
 20
5101.411360727193
 30
0.0
 11
10157.45321339071
 21
5101.411360727193
 31
0.0
 70
   160
  1
柱外寸法<>
 71
     5
 42
1790.0
  3
INABA_S40G
100
AcDbAlignedDimension
 13
11052.45321339071
 23
4702.318191387725
 33
0.0
 14
9262.45321339071
 24
4702.318191387726
 34
0.0
100
AcDbRotatedDimension
  0
DIMENSION
  5
166C4
330
747D
100
AcDbEntity
  8
寸法
 48
50.0
100
AcDbDimension
  2
*D13
 10
9212.453213390709
 20
5101.411360727193
 30
0.0
 11
8898.967932016461
 21
5101.411360727193
 31
0.0
 70
   160
 71
     5
 42
50.0
  3
INABA_S40G
100
AcDbAlignedDimension
 13
9262.45321339071
 23
4702.318191387726
 33
0.0
 14
9212.453213390709
 24
4702.318191387725
 34
0.0
100
AcDbRotatedDimension
1001
ACAD
1000
DSTYLE
1002
{
1002
}
  0
DIMENSION
  5
166C5
330
747D
100
AcDbEntity
  8
寸法
 48
50.0
100
AcDbDimension
  2
*D14
 10
11102.45321339071
 20
5317.937460345638
 30
0.0
 11
10157.45321339071
 21
5317.937460345638
 31
0.0
 70
   160
 71
     5
 42
1890.0
  3
INABA_S40G
100
AcDbAlignedDimension
 13
9212.453213390709
 23
4702.318191387725
 33
0.0
 14
11102.45321339071
 24
4702.318191387722
 34
0.0
100
AcDbRotatedDimension
  0
LINE
  5
166C6
330
747D
100
AcDbEntity
  8
部品1
100
AcDbLine
 10
10425.45321339072
 20
4697.318191396188
 30
0.0
 11
10425.45321339072
 21
4599.907123887617
 31
0.0
  0
LINE
  5
166C7
330
747D
100
AcDbEntity
  8
部品1
100
AcDbLine
 10
10400.45321339072
 20
4697.318191396188
 30
0.0
 11
10400.45321339072
 21
4599.907123887617
 31
0.0
  0
LINE
  5
166C8
330
747D
100
AcDbEntity
  8
部品1
 48
50.0
100
AcDbLine
 10
10398.95321339071
 20
4697.318191396192
 30
0.0
 11
10426.95321339071
 21
4697.318191396192
 31
0.0
  0
LINE
  5
166C9
330
747D
100
AcDbEntity
  8
部品1
 48
50.0
100
AcDbLine
 10
10426.95321339071
 20
4697.318191396192
 30
0.0
 11
10437.45321339071
 21
4677.918191396191
 31
0.0
  0
LINE
  5
166CA
330
747D
100
AcDbEntity
  8
部品1
 48
50.0
100
AcDbLine
 10
10398.95321339071
 20
4697.318191396192
 30
0.0
 11
10388.45321339071
 21
4677.918191396191
 31
0.0
  0
LINE
  5
166CB
330
747D
100
AcDbEntity
  8
部品1
 48
50.0
100
AcDbLine
 10
10325.95321339071
 20
4697.318191396192
 30
0.0
 11
10353.95321339071
 21
4697.318191396192
 31
0.0
  0
LINE
  5
166CC
330
747D
100
AcDbEntity
  8
部品1
100
AcDbLine
 10
10327.45321339072
 20
4697.318191396188
 30
0.0
 11
10327.45321339072
 21
4599.907123887617
 31
0.0
  0
LINE
  5
166CD
330
747D
100
AcDbEntity
  8
部品1
 48
50.0
100
AcDbLine
 10
10325.95321339071
 20
4697.318191396192
 30
0.0
 11
10315.45321339071
 21
4677.918191396191
 31
0.0
  0
LINE
  5
166CE
330
747D
100
AcDbEntity
  8
部品1
100
AcDbLine
 10
10352.45321339072
 20
4697.318191396188
 30
0.0
 11
10352.45321339072
 21
4599.907123887617
 31
0.0
  0
LINE
  5
166CF
330
747D
100
AcDbEntity
  8
部品1
 48
50.0
100
AcDbLine
 10
10353.95321339071
 20
4697.318191396192
 30
0.0
 11
10364.45321339071
 21
4677.918191396191
 31
0.0
  0
LINE
  5
166D0
330
747D
100
AcDbEntity
  8
部品1
100
AcDbLine
 10
10166.45321339072
 20
4697.318191396181
 30
0.0
 11
10166.45321339072
 21
4599.907123887617
 31
0.0
  0
LINE
  5
166D1
330
747D
100
AcDbEntity
  8
部品1
 48
50.0
100
AcDbLine
 10
10169.45321339071
 20
4697.318191396192
 30
0.0
 11
10171.95321339071
 21
4677.918191396191
 31
0.0
  0
LINE
  5
166D2
330
747D
100
AcDbEntity
  8
部品1
100
AcDbLine
 10
10148.45321339072
 20
4697.318191396181
 30
0.0
 11
10148.45321339072
 21
4599.907123887617
 31
0.0
  0
LINE
  5
166D3
330
747D
100
AcDbEntity
  8
部品1
 48
50.0
100
AcDbLine
 10
10130.24187318453
 20
4687.918191396192
 30
0.0
 11
10128.95321339071
 21
4677.918191396191
 31
0.0
  0
LINE
  5
166D4
330
747D
100
AcDbEntity
  8
部品1
 48
50.0
100
AcDbLine
 10
10130.24187318453
 20
4687.918191396192
 30
0.0
 11
10144.24187318453
 21
4687.918191396192
 31
0.0
  0
LINE
  5
166D5
330
747D
100
AcDbEntity
  8
部品1
 48
50.0
100
AcDbLine
 10
10145.45321339071
 20
4697.318191396192
 30
0.0
 11
10144.24187318453
 21
4687.918191396192
 31
0.0
  0
LINE
  5
166D6
330
747D
100
AcDbEntity
  8
部品1
 48
50.0
100
AcDbLine
 10
10169.45321339071
 20
4697.318191396192
 30
0.0
 11
10145.45321339071
 21
4697.318191396192
 31
0.0
  0
LINE
  5
166D7
330
747D
100
AcDbEntity
  8
部品1
100
AcDbLine
 10
10315.45321339071
 20
4677.918191396187
 30
0.0
 11
10171.95321339071
 21
4677.918191396187
 31
0.0
  0
LINE
  5
166D8
330
747D
100
AcDbEntity
  8
部品1
100
AcDbLine
 10
10005.45321339072
 20
4697.318191396188
 30
0.0
 11
10005.45321339072
 21
4599.907123887617
 31
0.0
  0
LINE
  5
166D9
330
747D
100
AcDbEntity
  8
部品1
 48
50.0
100
AcDbLine
 10
10006.95321339071
 20
4697.318191396192
 30
0.0
 11
10017.45321339071
 21
4677.918191396191
 31
0.0
  0
LINE
  5
166DA
330
747D
100
AcDbEntity
  8
部品1
100
AcDbLine
 10
9907.453213390724
 20
4697.318191396188
 30
0.0
 11
9907.453213390724
 21
4599.907123887617
 31
0.0
  0
LINE
  5
166DB
330
747D
100
AcDbEntity
  8
部品1
100
AcDbLine
 10
9932.453213390724
 20
4697.318191396188
 30
0.0
 11
9932.453213390724
 21
4599.907123887617
 31
0.0
  0
LINE
  5
166DC
330
747D
100
AcDbEntity
  8
部品1
100
AcDbLine
 10
9980.453213390724
 20
4697.318191396188
 30
0.0
 11
9980.453213390724
 21
4599.907123887617
 31
0.0
  0
LINE
  5
166DD
330
747D
100
AcDbEntity
  8
部品1
 48
50.0
100
AcDbLine
 10
9905.953213390716
 20
4697.318191396192
 30
0.0
 11
9895.453213390716
 21
4677.918191396191
 31
0.0
  0
LINE
  5
166DE
330
747D
100
AcDbEntity
  8
部品1
100
AcDbLine
 10
9968.453213390713
 20
4677.918191396187
 30
0.0
 11
9944.453213390715
 21
4677.918191396187
 31
0.0
  0
LINE
  5
166DF
330
747D
100
AcDbEntity
  8
部品1
 48
50.0
100
AcDbLine
 10
9933.953213390715
 20
4697.318191396192
 30
0.0
 11
9944.453213390715
 21
4677.918191396191
 31
0.0
  0
LINE
  5
166E0
330
747D
100
AcDbEntity
  8
部品1
 48
50.0
100
AcDbLine
 10
9978.953213390717
 20
4697.318191396192
 30
0.0
 11
9968.453213390716
 21
4677.918191396191
 31
0.0
  0
LINE
  5
166E1
330
747D
100
AcDbEntity
  8
部品1
 48
50.0
100
AcDbLine
 10
9905.953213390716
 20
4697.318191396192
 30
0.0
 11
9933.953213390713
 21
4697.318191396192
 31
0.0
  0
LINE
  5
166E2
330
747D
100
AcDbEntity
  8
部品1
 48
50.0
100
AcDbLine
 10
9978.953213390717
 20
4697.318191396192
 30
0.0
 11
10006.95321339071
 21
4697.318191396192
 31
0.0
  0
LINE
  5
166E3
330
747D
100
AcDbEntity
  8
部品1
100
AcDbLine
 10
9746.453213390724
 20
4697.318191396181
 30
0.0
 11
9746.453213390726
 21
4599.907123887617
 31
0.0
  0
LINE
  5
166E4
330
747D
100
AcDbEntity
  8
部品1
100
AcDbLine
 10
9728.453213390723
 20
4697.318191396181
 30
0.0
 11
9728.453213390725
 21
4599.907123887617
 31
0.0
  0
LINE
  5
166E5
330
747D
100
AcDbEntity
  8
部品1
 48
50.0
100
AcDbLine
 10
9749.453213390715
 20
4697.318191396192
 30
0.0
 11
9725.453213390716
 21
4697.318191396192
 31
0.0
  0
LINE
  5
166E6
330
747D
100
AcDbEntity
  8
部品1
 48
50.0
100
AcDbLine
 10
9725.453213390716
 20
4697.318191396192
 30
0.0
 11
9724.24187318453
 21
4687.918191396192
 31
0.0
  0
LINE
  5
166E7
330
747D
100
AcDbEntity
  8
部品1
 48
50.0
100
AcDbLine
 10
9749.453213390715
 20
4697.318191396192
 30
0.0
 11
9751.953213390716
 21
4677.918191396191
 31
0.0
  0
LINE
  5
166E8
330
747D
100
AcDbEntity
  8
部品1
100
AcDbLine
 10
9895.453213390712
 20
4677.918191396187
 30
0.0
 11
9751.953213390713
 21
4677.918191396187
 31
0.0
  0
LINE
  5
166E9
330
747D
100
AcDbEntity
  8
部品1
100
AcDbLine
 10
10128.95321339071
 20
4677.918191396187
 30
0.0
 11
10017.45321339071
 21
4677.918191396187
 31
0.0
  0
LINE
  5
166EA
330
747D
100
AcDbEntity
  8
部品1
100
AcDbLine
 10
10388.45321339071
 20
4677.918191396187
 30
0.0
 11
10364.45321339071
 21
4677.918191396187
 31
0.0
  0
LINE
  5
166EB
330
747D
100
AcDbEntity
  8
部品1
100
AcDbLine
 10
9708.953213390715
 20
4677.918191396187
 30
0.0
 11
9597.453213390716
 21
4677.918191396187
 31
0.0
  0
LINE
  5
166EC
330
747D
100
AcDbEntity
  8
部品1
100
AcDbLine
 10
9560.453213390724
 20
4697.318191396188
 30
0.0
 11
9560.453213390724
 21
4599.907123887617
 31
0.0
  0
LINE
  5
166ED
330
747D
100
AcDbEntity
  8
部品1
100
AcDbLine
 10
9585.453213390724
 20
4697.318191396188
 30
0.0
 11
9585.453213390724
 21
4599.907123887617
 31
0.0
  0
LINE
  5
166EE
330
747D
100
AcDbEntity
  8
部品1
 48
50.0
100
AcDbLine
 10
9586.953213390716
 20
4697.318191396192
 30
0.0
 11
9597.453213390716
 21
4677.918191396191
 31
0.0
  0
LINE
  5
166EF
330
747D
100
AcDbEntity
  8
部品1
 48
50.0
100
AcDbLine
 10
9558.953213390715
 20
4697.318191396192
 30
0.0
 11
9586.953213390712
 21
4697.318191396192
 31
0.0
  0
LINE
  5
166F0
330
747D
100
AcDbEntity
  8
部品1
 48
50.0
100
AcDbLine
 10
9710.241873184529
 20
4687.918191396192
 30
0.0
 11
9708.953213390715
 21
4677.918191396191
 31
0.0
  0
LINE
  5
166F1
330
747D
100
AcDbEntity
  8
部品1
100
AcDbLine
 10
9548.453213390713
 20
4677.918191396187
 30
0.0
 11
9524.453213390716
 21
4677.918191396191
 31
0.0
  0
LINE
  5
166F2
330
747D
100
AcDbEntity
  8
部品1
100
AcDbLine
 10
9512.453213390724
 20
4697.318191396188
 30
0.0
 11
9512.453213390726
 21
4599.907123887617
 31
0.0
  0
LINE
  5
166F3
330
747D
100
AcDbEntity
  8
部品1
 48
50.0
100
AcDbLine
 10
9513.953213390717
 20
4697.318191396192
 30
0.0
 11
9524.453213390716
 21
4677.918191396191
 31
0.0
  0
LINE
  5
166F4
330
747D
100
AcDbEntity
  8
部品1
100
AcDbLine
 10
9487.453213390724
 20
4697.318191396188
 30
0.0
 11
9487.45321339072
 21
4599.907123887617
 31
0.0
  0
LINE
  5
166F5
330
747D
100
AcDbEntity
  8
部品1
 48
50.0
100
AcDbLine
 10
9485.953213390716
 20
4697.318191396192
 30
0.0
 11
9475.453213390716
 21
4677.918191396191
 31
0.0
  0
LINE
  5
166F6
330
747D
100
AcDbEntity
  8
部品1
 48
50.0
100
AcDbLine
 10
9485.953213390716
 20
4697.318191396192
 30
0.0
 11
9513.953213390712
 21
4697.318191396192
 31
0.0
  0
LINE
  5
166F7
330
747D
100
AcDbEntity
  8
部品1
 48
50.0
100
AcDbLine
 10
9558.953213390715
 20
4697.318191396192
 30
0.0
 11
9548.453213390716
 21
4677.918191396191
 31
0.0
  0
LINE
  5
166F8
330
747D
100
AcDbEntity
  8
部品1
100
AcDbLine
 10
9326.453213390724
 20
4697.318191396181
 30
0.0
 11
9326.453213390724
 21
4599.907123887617
 31
0.0
  0
LINE
  5
166F9
330
747D
100
AcDbEntity
  8
部品1
100
AcDbLine
 10
9308.453213390723
 20
4697.318191396192
 30
0.0
 11
9308.453213390725
 21
4599.907123887617
 31
0.0
  0
LINE
  5
166FA
330
747D
100
AcDbEntity
  8
部品1
 48
50.0
100
AcDbLine
 10
9329.453213390717
 20
4697.318191396192
 30
0.0
 11
9331.953213390717
 21
4677.918191396191
 31
0.0
  0
LINE
  5
166FB
330
747D
100
AcDbEntity
  8
部品1
100
AcDbLine
 10
9288.953213390717
 20
4677.918191396191
 30
0.0
 11
9262.453213390717
 21
4677.918191396191
 31
0.0
  0
LINE
  5
166FC
330
747D
100
AcDbEntity
  8
部品1
 48
50.0
100
AcDbLine
 10
9290.241873184529
 20
4687.918191396192
 30
0.0
 11
9304.241873184528
 21
4687.918191396192
 31
0.0
  0
LINE
  5
166FD
330
747D
100
AcDbEntity
  8
部品1
 48
50.0
100
AcDbLine
 10
9290.241873184529
 20
4687.918191396192
 30
0.0
 11
9288.953213390717
 21
4677.918191396191
 31
0.0
  0
LINE
  5
166FE
330
747D
100
AcDbEntity
  8
部品1
 48
50.0
100
AcDbLine
 10
9305.453213390716
 20
4697.318191396192
 30
0.0
 11
9304.241873184528
 21
4687.918191396192
 31
0.0
  0
LINE
  5
166FF
330
747D
100
AcDbEntity
  8
部品1
 48
50.0
100
AcDbLine
 10
9329.453213390717
 20
4697.318191396192
 30
0.0
 11
9305.453213390716
 21
4697.318191396192
 31
0.0
  0
LINE
  5
16700
330
747D
100
AcDbEntity
  8
部品1
100
AcDbLine
 10
9475.453213390716
 20
4677.918191396187
 30
0.0
 11
9331.953213390717
 21
4677.918191396191
 31
0.0
  0
LINE
  5
16701
330
747D
100
AcDbEntity
  8
部品1
 48
50.0
100
AcDbLine
 10
9710.241873184529
 20
4687.918191396192
 30
0.0
 11
9724.24187318453
 21
4687.918191396192
 31
0.0
  0
LINE
  5
16702
330
747D
100
AcDbEntity
  8
部品1
100
AcDbLine
 10
11057.52355078384
 20
4702.318191396174
 30
0.0
 11
9236.885373771624
 21
4702.318191396193
 31
0.0
  0
LINE
  5
16703
330
747D
100
AcDbEntity
  8
部品1
100
AcDbLine
 10
10548.95321339071
 20
4677.918191396172
 30
0.0
 11
10437.45321339072
 21
4677.918191396172
 31
0.0
  0
LINE
  5
16704
330
747D
100
AcDbEntity
  8
部品1
 48
50.0
100
AcDbLine
 10
9257.382585397511
 20
4647.31819138772
 30
0.0
 11
9219.439257207927
 21
4647.31819138772
 31
0.0
  0
ARC
  5
16705
330
747D
100
AcDbEntity
  8
部品1
100
AcDbCircle
 10
9214.412355831004
 20
4619.988308708308
 30
0.0
 40
0.7
100
AcDbArc
 50
183.618629480141
 51
262.7131594833537
  0
ARC
  5
16706
330
747D
100
AcDbEntity
  8
部品1
100
AcDbCircle
 10
9213.94305970581
 20
4616.318191387719
 30
0.0
 40
3.0
100
AcDbArc
 50
3.618629480141039
 51
90.0
  0
LINE
  5
16707
330
747D
100
AcDbEntity
  8
部品1
100
AcDbLine
 10
9216.937078484614
 20
4616.507536448831
 30
0.0
 11
9221.684171496773
 21
4541.444128194049
 31
0.0
  0
ARC
  5
16708
330
747D
100
AcDbEntity
  8
部品1
100
AcDbCircle
 10
9222.382775878497
 20
4541.488308708308
 30
0.0
 40
0.7
100
AcDbArc
 50
183.618629480141
 51
262.7131594833537
  0
ARC
  5
16709
330
747D
100
AcDbEntity
  8
部品1
100
AcDbCircle
 10
9221.9134797533
 20
4537.81819138772
 30
0.0
 40
3.0
100
AcDbArc
 50
3.618629480141039
 51
90.0
  0
ARC
  5
1670A
330
747D
100
AcDbEntity
  8
部品1
100
AcDbCircle
 10
9232.565868053898
 20
4527.818191387719
 30
0.0
 40
7.0
100
AcDbArc
 50
183.618629480141
 51
270.0
  0
ARC
  5
1670B
330
747D
100
AcDbEntity
  8
部品1
100
AcDbCircle
 10
9219.439257207927
 20
4640.318191387719
 30
0.0
 40
7.0
100
AcDbArc
 50
90.0
 51
183.618629480141
  0
LINE
  5
1670C
330
747D
100
AcDbEntity
  8
部品1
100
AcDbLine
 10
9225.579824236687
 20
4527.37638624513
 30
0.0
 11
9224.907498532106
 21
4538.007536448831
 31
0.0
  0
LINE
  5
1670D
330
747D
100
AcDbEntity
  8
部品1
100
AcDbLine
 10
9213.713751449281
 20
4619.944128194048
 30
0.0
 11
9212.453213390716
 21
4639.87638624513
 31
0.0
  0
LINE
  5
1670E
330
747D
100
AcDbEntity
  8
部品1
100
AcDbLine
 10
9257.382585397511
 20
4647.31819138772
 30
0.0
 11
9219.439257207927
 21
4647.31819138772
 31
0.0
  0
ARC
  5
1670F
330
747D
100
AcDbEntity
  8
部品1
100
AcDbCircle
 10
9257.382585397511
 20
4642.31819138772
 30
0.0
 40
5.0
100
AcDbArc
 50
0.0
 51
90.0
  0
LINE
  5
16710
330
747D
100
AcDbEntity
  8
部品1
100
AcDbLine
 10
9262.38258539751
 20
4697.318191404618
 30
0.0
 11
9262.382585397508
 21
4599.914162715049
 31
0.0
  0
LINE
  5
16711
330
747D
100
AcDbEntity
  8
部品1
100
AcDbLine
 10
11082.34055872752
 20
4520.81819138772
 30
0.0
 11
9232.565868053898
 21
4520.81819138772
 31
0.0
  0
LINE
  5
16712
330
747D
100
AcDbEntity
  8
部品1
 48
50.0
100
AcDbLine
 10
9212.453213390716
 20
4639.87638624513
 30
0.0
 11
9212.453213390716
 21
4694.876386262029
 31
0.0
  0
ARC
  5
16713
330
747D
100
AcDbEntity
  8
部品1
100
AcDbCircle
 10
9257.382585397511
 20
4697.318191404618
 30
0.0
 40
5.0
100
AcDbArc
 50
0.0
 51
90.0
  0
LINE
  5
16714
330
747D
100
AcDbEntity
  8
部品1
100
AcDbLine
 10
9257.382585397511
 20
4702.318191404618
 30
0.0
 11
9219.439257207927
 21
4702.318191404618
 31
0.0
  0
ARC
  5
16715
330
747D
100
AcDbEntity
  8
部品1
100
AcDbCircle
 10
9219.439257207927
 20
4695.318191404618
 30
0.0
 40
7.0
100
AcDbArc
 50
90.0
 51
183.618629480141
  0
LINE
  5
16716
330
747D
100
AcDbEntity
  8
細線
 48
50.0
100
AcDbLine
 10
11093.23157106377
 20
4541.591433951505
 30
0.0
 11
9222.336805023235
 21
4541.591433951505
 31
0.0
  0
LINE
  5
16717
330
747D
100
AcDbEntity
  8
細線
 48
50.0
100
AcDbLine
 10
9244.942123486433
 20
4647.31819138772
 30
0.0
 11
9244.942123486433
 21
4520.81819138772
 31
0.0
  0
LINE
  5
16718
330
747D
100
AcDbEntity
  8
細線
 48
50.0
100
AcDbLine
 10
9262.382585397508
 20
4619.290024135669
 30
0.0
 11
9214.319344113562
 21
4619.290024135676
 31
0.0
  0
LINE
  5
16719
330
747D
100
AcDbEntity
  8
部品1
100
AcDbLine
 10
10568.45321339071
 20
4697.318191396181
 30
0.0
 11
10568.45321339071
 21
4599.907123887617
 31
0.0
  0
LINE
  5
1671A
330
747D
100
AcDbEntity
  8
部品1
100
AcDbLine
 10
10586.45321339071
 20
4697.318191396192
 30
0.0
 11
10586.45321339071
 21
4599.907123887617
 31
0.0
  0
LINE
  5
1671B
330
747D
100
AcDbEntity
  8
部品1
 48
50.0
100
AcDbLine
 10
10565.45321339072
 20
4697.318191396192
 30
0.0
 11
10589.45321339072
 21
4697.318191396192
 31
0.0
  0
LINE
  5
1671C
330
747D
100
AcDbEntity
  8
部品1
 48
50.0
100
AcDbLine
 10
10565.45321339072
 20
4697.318191396192
 30
0.0
 11
10564.24187318453
 21
4687.918191396192
 31
0.0
  0
LINE
  5
1671D
330
747D
100
AcDbEntity
  8
部品1
 48
50.0
100
AcDbLine
 10
10550.24187318453
 20
4687.918191396192
 30
0.0
 11
10564.24187318453
 21
4687.918191396192
 31
0.0
  0
LINE
  5
1671E
330
747D
100
AcDbEntity
  8
部品1
 48
50.0
100
AcDbLine
 10
10550.24187318453
 20
4687.918191396192
 30
0.0
 11
10548.95321339072
 21
4677.918191396191
 31
0.0
  0
LINE
  5
1671F
330
747D
100
AcDbEntity
  8
部品1
 48
50.0
100
AcDbLine
 10
10589.45321339072
 20
4697.318191396192
 30
0.0
 11
10591.95321339072
 21
4677.918191396191
 31
0.0
  0
LINE
  5
16720
330
747D
100
AcDbEntity
  8
部品1
 48
50.0
100
AcDbLine
 10
9244.942123486435
 20
4599.907123887617
 30
0.0
 11
11069.96430329498
 21
4599.907123887617
 31
0.0
  0
DIMENSION
  5
16721
330
747D
100
AcDbEntity
  8
寸法
 48
50.0
100
AcDbDimension
  2
*D15
 10
8991.247184178574
 20
2685.31819138772
 30
0.0
 11
8991.247184178574
 21
3538.951210405245
 31
0.0
 70
   160
  1
有効開口部高サ<>
 71
     5
 42
1724.999999999999
  3
INABA_S40G
100
AcDbAlignedDimension
 13
9290.453213390724
 23
4410.31819138772
 33
0.0
 14
9290.453213390724
 24
2685.31819138772
 34
0.0
 50
90.0
100
AcDbRotatedDimension
1001
ACAD
1000
DSTYLE
1002
{
1070
   341
1005
0
1002
}
  0
DIMENSION
  5
16722
330
747D
100
AcDbEntity
  8
寸法
 48
50.0
100
AcDbDimension
  2
*D16
 10
11052.45321339071
 20
5101.411360727193
 30
0.0
 11
11415.93849476494
 21
5101.411360727193
 31
0.0
 70
   160
 71
     5
 42
50.0
  3
INABA_S40G
100
AcDbAlignedDimension
 13
11102.45321339071
 23
4702.318191387722
 33
0.0
 14
11052.45321339071
 24
4702.318191387725
 34
0.0
100
AcDbRotatedDimension
  0
LINE
  5
16723
330
747D
100
AcDbEntity
  8
部品1
100
AcDbLine
 10
10988.45321339069
 20
4697.318191396181
 30
0.0
 11
10988.45321339069
 21
4599.907123887617
 31
0.0
  0
LINE
  5
16724
330
747D
100
AcDbEntity
  8
部品1
100
AcDbLine
 10
11006.45321339069
 20
4697.318191396192
 30
0.0
 11
11006.45321339069
 21
4599.907123887617
 31
0.0
  0
LINE
  5
16725
330
747D
100
AcDbEntity
  8
部品1
 48
50.0
100
AcDbLine
 10
10985.4532133907
 20
4697.318191396192
 30
0.0
 11
11009.4532133907
 21
4697.318191396192
 31
0.0
  0
LINE
  5
16726
330
747D
100
AcDbEntity
  8
部品1
 48
50.0
100
AcDbLine
 10
11057.5238413839
 20
4647.31819138772
 30
0.0
 11
11095.46716957349
 21
4647.31819138772
 31
0.0
  0
ARC
  5
16727
330
747D
100
AcDbEntity
  8
部品1
100
AcDbCircle
 10
11100.49407095041
 20
4619.988308708308
 30
0.0
 40
0.7
100
AcDbArc
 50
277.2868405166463
 51
356.3813705198589
  0
ARC
  5
16728
330
747D
100
AcDbEntity
  8
部品1
100
AcDbCircle
 10
11100.9633670756
 20
4616.318191387719
 30
0.0
 40
3.0
100
AcDbArc
 50
90.0
 51
176.3813705198589
  0
LINE
  5
16729
330
747D
100
AcDbEntity
  8
部品1
100
AcDbLine
 10
11097.9693482968
 20
4616.507536448831
 30
0.0
 11
11093.22225528464
 21
4541.444128194049
 31
0.0
  0
ARC
  5
1672A
330
747D
100
AcDbEntity
  8
部品1
100
AcDbCircle
 10
11092.52365090292
 20
4541.488308708308
 30
0.0
 40
0.7
100
AcDbArc
 50
277.2868405166463
 51
356.3813705198589
  0
ARC
  5
1672B
330
747D
100
AcDbEntity
  8
部品1
100
AcDbCircle
 10
11092.99294702811
 20
4537.81819138772
 30
0.0
 40
3.0
100
AcDbArc
 50
90.0
 51
176.3813705198589
  0
ARC
  5
1672C
330
747D
100
AcDbEntity
  8
部品1
100
AcDbCircle
 10
11082.34055872752
 20
4527.818191387719
 30
0.0
 40
7.0
100
AcDbArc
 50
270.0
 51
356.3813705198589
  0
ARC
  5
1672D
330
747D
100
AcDbEntity
  8
部品1
100
AcDbCircle
 10
11095.46716957349
 20
4640.318191387719
 30
0.0
 40
7.0
100
AcDbArc
 50
356.3813705198589
 51
90.0
  0
LINE
  5
1672E
330
747D
100
AcDbEntity
  8
部品1
100
AcDbLine
 10
11089.32660254473
 20
4527.37638624513
 30
0.0
 11
11089.99892824931
 21
4538.007536448831
 31
0.0
  0
LINE
  5
1672F
330
747D
100
AcDbEntity
  8
部品1
100
AcDbLine
 10
11101.19267533213
 20
4619.944128194048
 30
0.0
 11
11102.4532133907
 21
4639.87638624513
 31
0.0
  0
LINE
  5
16730
330
747D
100
AcDbEntity
  8
部品1
100
AcDbLine
 10
11057.5238413839
 20
4647.31819138772
 30
0.0
 11
11095.46716957349
 21
4647.31819138772
 31
0.0
  0
ARC
  5
16731
330
747D
100
AcDbEntity
  8
部品1
100
AcDbCircle
 10
11057.5238413839
 20
4642.31819138772
 30
0.0
 40
5.0
100
AcDbArc
 50
90.0
 51
180.0
  0
LINE
  5
16732
330
747D
100
AcDbEntity
  8
部品1
100
AcDbLine
 10
11052.5238413839
 20
4697.318191404618
 30
0.0
 11
11052.5238413839
 21
4599.907123887617
 31
0.0
  0
LINE
  5
16733
330
747D
100
AcDbEntity
  8
部品1
 48
50.0
100
AcDbLine
 10
11102.4532133907
 20
4639.87638624513
 30
0.0
 11
11102.4532133907
 21
4694.876386262029
 31
0.0
  0
ARC
  5
16734
330
747D
100
AcDbEntity
  8
部品1
100
AcDbCircle
 10
11057.5238413839
 20
4697.318191404618
 30
0.0
 40
5.0
100
AcDbArc
 50
90.0
 51
180.0
  0
LINE
  5
16735
330
747D
100
AcDbEntity
  8
部品1
100
AcDbLine
 10
11057.5238413839
 20
4702.318191404618
 30
0.0
 11
11095.46716957349
 21
4702.318191404618
 31
0.0
  0
ARC
  5
16736
330
747D
100
AcDbEntity
  8
部品1
100
AcDbCircle
 10
11095.46716957349
 20
4695.318191404618
 30
0.0
 40
7.0
100
AcDbArc
 50
356.3813705198589
 51
90.0
  0
LINE
  5
16737
330
747D
100
AcDbEntity
  8
細線
 48
50.0
100
AcDbLine
 10
11069.96430329498
 20
4647.31819138772
 30
0.0
 11
11069.96430329498
 21
4520.81819138772
 31
0.0
  0
LINE
  5
16738
330
747D
100
AcDbEntity
  8
細線
 48
50.0
100
AcDbLine
 10
11052.5238413839
 20
4619.290024135669
 30
0.0
 11
11100.58708266785
 21
4619.290024135676
 31
0.0
  0
LINE
  5
16739
330
747D
100
AcDbEntity
  8
部品1
 48
50.0
100
AcDbLine
 10
10985.4532133907
 20
4697.318191396192
 30
0.0
 11
10984.24187318451
 21
4687.918191396192
 31
0.0
  0
LINE
  5
1673A
330
747D
100
AcDbEntity
  8
部品1
 48
50.0
100
AcDbLine
 10
10970.24187318451
 20
4687.918191396192
 30
0.0
 11
10984.24187318451
 21
4687.918191396192
 31
0.0
  0
LINE
  5
1673B
330
747D
100
AcDbEntity
  8
部品1
 48
50.0
100
AcDbLine
 10
10970.24187318451
 20
4687.918191396192
 30
0.0
 11
10968.9532133907
 21
4677.918191396191
 31
0.0
  0
LINE
  5
1673C
330
747D
100
AcDbEntity
  8
部品1
 48
50.0
100
AcDbLine
 10
11009.4532133907
 20
4697.318191396192
 30
0.0
 11
11011.9532133907
 21
4677.918191396191
 31
0.0
  0
LINE
  5
1673D
330
747D
100
AcDbEntity
  8
部品1
100
AcDbLine
 10
11052.5238413839
 20
4677.918191396187
 30
0.0
 11
11011.95321339069
 21
4677.918191396187
 31
0.0
  0
LINE
  5
1673E
330
747D
100
AcDbEntity
  8
部品1
100
AcDbLine
 10
10808.45321339071
 20
4677.918191396191
 30
0.0
 11
10784.45321339072
 21
4677.918191396191
 31
0.0
  0
LINE
  5
1673F
330
747D
100
AcDbEntity
  8
部品1
 48
50.0
100
AcDbLine
 10
10773.95321339072
 20
4697.318191396196
 30
0.0
 11
10784.45321339072
 21
4677.918191396194
 31
0.0
  0
LINE
  5
16740
330
747D
100
AcDbEntity
  8
部品1
 48
50.0
100
AcDbLine
 10
10745.95321339071
 20
4697.318191396196
 30
0.0
 11
10735.45321339071
 21
4677.918191396194
 31
0.0
  0
LINE
  5
16741
330
747D
100
AcDbEntity
  8
部品1
 48
50.0
100
AcDbLine
 10
10745.95321339071
 20
4697.318191396196
 30
0.0
 11
10773.95321339071
 21
4697.318191396196
 31
0.0
  0
LINE
  5
16742
330
747D
100
AcDbEntity
  8
部品1
 48
50.0
100
AcDbLine
 10
10818.95321339072
 20
4697.318191396196
 30
0.0
 11
10808.45321339072
 21
4677.918191396194
 31
0.0
  0
LINE
  5
16743
330
747D
100
AcDbEntity
  8
部品1
 48
50.0
100
AcDbLine
 10
10846.95321339071
 20
4697.318191396196
 30
0.0
 11
10857.45321339071
 21
4677.918191396194
 31
0.0
  0
LINE
  5
16744
330
747D
100
AcDbEntity
  8
部品1
 48
50.0
100
AcDbLine
 10
10818.95321339072
 20
4697.318191396196
 30
0.0
 11
10846.95321339071
 21
4697.318191396196
 31
0.0
  0
LINE
  5
16745
330
747D
100
AcDbEntity
  8
部品1
100
AcDbLine
 10
10968.95321339071
 20
4677.918191396176
 30
0.0
 11
10857.45321339072
 21
4677.918191396176
 31
0.0
  0
LINE
  5
16746
330
747D
100
AcDbEntity
  8
部品1
100
AcDbLine
 10
10735.45321339071
 20
4677.918191396191
 30
0.0
 11
10591.95321339071
 21
4677.918191396191
 31
0.0
  0
LINE
  5
16747
330
747D
100
AcDbEntity
  8
部品1
100
AcDbLine
 10
10772.45321339072
 20
4697.318191396192
 30
0.0
 11
10772.45321339072
 21
4599.907123887621
 31
0.0
  0
LINE
  5
16748
330
747D
100
AcDbEntity
  8
部品1
100
AcDbLine
 10
10747.45321339072
 20
4697.318191396192
 30
0.0
 11
10747.45321339072
 21
4599.907123887621
 31
0.0
  0
LINE
  5
16749
330
747D
100
AcDbEntity
  8
部品1
100
AcDbLine
 10
10820.45321339072
 20
4697.318191396192
 30
0.0
 11
10820.45321339073
 21
4599.907123887621
 31
0.0
  0
LINE
  5
1674A
330
747D
100
AcDbEntity
  8
部品1
100
AcDbLine
 10
10845.45321339072
 20
4697.318191396192
 30
0.0
 11
10845.45321339072
 21
4599.907123887621
 31
0.0
  0
LINE
  5
16805
330
747D
100
AcDbEntity
  8
部品1
 48
50.0
100
AcDbLine
 10
9364.453213390708
 20
3608.81819138772
 30
0.0
 11
9417.453213390706
 21
3608.81819138772
 31
0.0
  0
LINE
  5
16809
330
747D
100
AcDbEntity
  8
部品1
 48
50.0
100
AcDbLine
 10
11024.45321339071
 20
4418.31819138772
 30
0.0
 11
10994.45321339071
 21
4418.31819138772
 31
0.0
  0
LINE
  5
1680A
330
747D
100
AcDbEntity
  8
部品1
 48
50.0
100
AcDbLine
 10
9320.45321339071
 20
4418.31819138772
 30
0.0
 11
9290.453213390707
 21
4418.31819138772
 31
0.0
  0
LINE
  5
1680B
330
747D
100
AcDbEntity
  8
細線
 48
50.0
100
AcDbLine
 10
10994.45321339071
 20
4419.81819138772
 30
0.0
 11
9320.45321339071
 21
4419.81819138772
 31
0.0
  0
LINE
  5
1680C
330
747D
100
AcDbEntity
  8
細線
 48
50.0
100
AcDbLine
 10
10994.45321339071
 20
4410.31819138772
 30
0.0
 11
9320.45321339071
 21
4410.31819138772
 31
0.0
  0
LINE
  5
1680D
330
747D
100
AcDbEntity
  8
細線
 48
50.0
100
AcDbLine
 10
11024.45321339071
 20
4452.318191387719
 30
0.0
 11
9290.453213390707
 21
4452.318191387719
 31
0.0
  0
LINE
  5
1680E
330
747D
100
AcDbEntity
  8
部品1
 48
50.0
100
AcDbLine
 10
11024.45321339071
 20
4462.318191387719
 30
0.0
 11
9290.453213390707
 21
4462.318191387719
 31
0.0
  0
LINE
  5
1680F
330
747D
100
AcDbEntity
  8
細線
 48
50.0
100
AcDbLine
 10
10972.45321339071
 20
2674.31819138772
 30
0.0
 11
10968.45321339071
 21
2684.81819138772
 31
0.0
  0
LINE
  5
16810
330
747D
100
AcDbEntity
  8
部品1
 48
50.0
100
AcDbLine
 10
9329.453213390708
 20
2677.31819138772
 30
0.0
 11
9329.453213390708
 21
2674.31819138772
 31
0.0
  0
LINE
  5
16811
330
747D
100
AcDbEntity
  8
部品1
 48
50.0
100
AcDbLine
 10
9320.45321339071
 20
2677.31819138772
 30
0.0
 11
9958.953213390714
 21
2677.31819138772
 31
0.0
  0
LINE
  5
16812
330
747D
100
AcDbEntity
  8
部品1
 48
50.0
100
AcDbLine
 10
9290.453213390707
 20
2627.31819138772
 30
0.0
 11
11024.45321339071
 21
2627.31819138772
 31
0.0
  0
LINE
  5
16813
330
747D
100
AcDbEntity
  8
細線
 48
50.0
100
AcDbLine
 10
9320.45321339071
 20
2670.31819138772
 30
0.0
 11
10994.45321339071
 21
2670.31819138772
 31
0.0
  0
LINE
  5
16814
330
747D
100
AcDbEntity
  8
細線
 48
50.0
100
AcDbLine
 10
9320.45321339071
 20
2674.31819138772
 30
0.0
 11
10994.45321339071
 21
2674.31819138772
 31
0.0
  0
LINE
  5
16815
330
747D
100
AcDbEntity
  8
細線
 48
50.0
100
AcDbLine
 10
9958.953213390714
 20
2684.81819138772
 30
0.0
 11
10968.45321339071
 21
2684.81819138772
 31
0.0
  0
LINE
  5
16816
330
747D
100
AcDbEntity
  8
部品1
 48
50.0
100
AcDbLine
 10
11024.45321339071
 20
2627.31819138772
 30
0.0
 11
11024.45321339071
 21
4462.318191387719
 31
0.0
  0
LINE
  5
16817
330
747D
100
AcDbEntity
  8
細線
 48
50.0
100
AcDbLine
 10
10994.45321339071
 20
2627.31819138772
 30
0.0
 11
10994.45321339071
 21
4419.81819138772
 31
0.0
  0
LINE
  5
16818
330
747D
100
AcDbEntity
  8
部品1
 48
50.0
100
AcDbLine
 10
10985.45321339071
 20
2674.31819138772
 30
0.0
 11
10985.45321339071
 21
4410.31819138772
 31
0.0
  0
LINE
  5
16819
330
747D
100
AcDbEntity
  8
部品1
 48
50.0
100
AcDbLine
 10
9320.45321339071
 20
2677.31819138772
 30
0.0
 11
9320.453213390711
 21
4410.31819138772
 31
0.0
  0
LINE
  5
1681A
330
747D
100
AcDbEntity
  8
細線
 48
50.0
100
AcDbLine
 10
9320.453213390711
 20
4419.81819138772
 30
0.0
 11
9320.453213390706
 21
2627.31819138772
 31
0.0
  0
LINE
  5
1681B
330
747D
100
AcDbEntity
  8
部品1
 48
50.0
100
AcDbLine
 10
9290.453213390707
 20
4462.318191387719
 30
0.0
 11
9290.453213390707
 21
2627.31819138772
 31
0.0
  0
LINE
  5
1681C
330
747D
100
AcDbEntity
  8
部品1
 48
50.0
100
AcDbLine
 10
9958.953213390715
 20
4410.31819138772
 30
0.0
 11
9958.953213390714
 21
2677.31819138772
 31
0.0
  0
LINE
  5
1681D
330
747D
100
AcDbEntity
  8
部品1
 48
50.0
100
AcDbLine
 10
10450.95321339071
 20
4410.31819138772
 30
0.0
 11
10450.95321339071
 21
2684.81819138772
 31
0.0
  0
LINE
  5
1681E
330
747D
100
AcDbEntity
  8
細線
100
AcDbLine
 10
9840.453205205292
 20
4410.318191387712
 30
0.0
 11
9840.453205205292
 21
2677.318191387716
 31
0.0
  0
LINE
  5
1681F
330
747D
100
AcDbEntity
  8
細線
100
AcDbLine
 10
9770.453205205292
 20
4410.318191387712
 30
0.0
 11
9770.453205205292
 21
2677.318191387716
 31
0.0
  0
LINE
  5
16820
330
747D
100
AcDbEntity
  8
細線
100
AcDbLine
 10
9700.453205205292
 20
4410.318191387712
 30
0.0
 11
9700.453205205292
 21
2677.318191387716
 31
0.0
  0
LINE
  5
16821
330
747D
100
AcDbEntity
  8
部品1
100
AcDbLine
 10
9490.453213390711
 20
4410.318191387712
 30
0.0
 11
9490.453213390711
 21
2677.31819138772
 31
0.0
  0
LINE
  5
16822
330
747D
100
AcDbEntity
  8
部品1
100
AcDbLine
 10
9440.453213390711
 20
4410.318191387712
 30
0.0
 11
9440.453213390711
 21
2677.31819138772
 31
0.0
  0
LINE
  5
16823
330
747D
100
AcDbEntity
  8
細線
100
AcDbLine
 10
9482.45321339071
 20
4410.318191387712
 30
0.0
 11
9482.45321339071
 21
2677.31819138772
 31
0.0
  0
LINE
  5
16824
330
747D
100
AcDbEntity
  8
細線
100
AcDbLine
 10
9448.453213390711
 20
4410.318191387712
 30
0.0
 11
9448.453213390711
 21
2677.31819138772
 31
0.0
  0
LINE
  5
16825
330
747D
100
AcDbEntity
  8
細線
100
AcDbLine
 10
10359.45321339071
 20
4410.318191387712
 30
0.0
 11
10359.45321339071
 21
2684.818191387727
 31
0.0
  0
LINE
  5
16826
330
747D
100
AcDbEntity
  8
細線
100
AcDbLine
 10
10289.45321339071
 20
4410.318191387712
 30
0.0
 11
10289.45321339071
 21
2684.818191387727
 31
0.0
  0
LINE
  5
16827
330
747D
100
AcDbEntity
  8
細線
100
AcDbLine
 10
10219.45321339071
 20
4410.318191387712
 30
0.0
 11
10219.45321339071
 21
2684.818191387727
 31
0.0
  0
LINE
  5
16828
330
747D
100
AcDbEntity
  8
細線
100
AcDbLine
 10
10149.45321339071
 20
4410.318191387712
 30
0.0
 11
10149.45321339071
 21
2684.818191387727
 31
0.0
  0
LINE
  5
16829
330
747D
100
AcDbEntity
  8
細線
100
AcDbLine
 10
10877.45321339071
 20
4410.318191387701
 30
0.0
 11
10877.45321339071
 21
2684.81819138772
 31
0.0
  0
LINE
  5
1682A
330
747D
100
AcDbEntity
  8
細線
100
AcDbLine
 10
10807.45321339071
 20
4410.318191387701
 30
0.0
 11
10807.45321339071
 21
2684.81819138772
 31
0.0
  0
LINE
  5
1682B
330
747D
100
AcDbEntity
  8
細線
100
AcDbLine
 10
10737.45321339071
 20
4410.318191387701
 30
0.0
 11
10737.45321339071
 21
2684.81819138772
 31
0.0
  0
LINE
  5
1682C
330
747D
100
AcDbEntity
  8
細線
100
AcDbLine
 10
9630.453205205293
 20
4410.318191387712
 30
0.0
 11
9630.453205205293
 21
2677.318191387716
 31
0.0
  0
LINE
  5
1682D
330
747D
100
AcDbEntity
  8
細線
100
AcDbLine
 10
10079.45321339071
 20
4410.318191387712
 30
0.0
 11
10079.45321339071
 21
2684.818191387727
 31
0.0
  0
LINE
  5
1682E
330
747D
100
AcDbEntity
  8
細線
100
AcDbLine
 10
10009.45321339071
 20
4410.318191387712
 30
0.0
 11
10009.45321339071
 21
2684.818191387727
 31
0.0
  0
LINE
  5
1682F
330
747D
100
AcDbEntity
  8
細線
100
AcDbLine
 10
10667.45321339071
 20
4410.318191387701
 30
0.0
 11
10667.45321339071
 21
2684.81819138772
 31
0.0
  0
LINE
  5
16830
330
747D
100
AcDbEntity
  8
細線
100
AcDbLine
 10
10527.4532487096
 20
4410.318191387701
 30
0.0
 11
10527.4532487096
 21
2684.81819138772
 31
0.0
  0
LINE
  5
16831
330
747D
100
AcDbEntity
  8
細線
100
AcDbLine
 10
10597.4532487096
 20
4410.318191387701
 30
0.0
 11
10597.4532487096
 21
2684.81819138772
 31
0.0
  0
LINE
  5
16AF4
330
747D
100
AcDbEntity
  8
補助
  6
PHANTOM
 62
   230
 48
50.0
100
AcDbLine
 10
140.0
 20
0.0
 30
0.0
 11
140.0
 21
11409.6
 31
0.0
  0
LINE
  5
17197
330
747D
100
AcDbEntity
  8
部品1
100
AcDbLine
 10
7152.856184053449
 20
2627.31819138772
 30
0.0
 11
7160.356184053454
 21
2627.31819138772
 31
0.0
  0
LINE
  5
17198
330
747D
100
AcDbEntity
  8
部品1
100
AcDbLine
 10
4997.85618405345
 20
2627.31819138772
 30
0.0
 11
7112.85618405345
 21
2627.31819138772
 31
0.0
  0
LINE
  5
17199
330
747D
100
AcDbEntity
  8
部品1
100
AcDbLine
 10
5879.901170410413
 20
4834.068673687692
 30
0.0
 11
6205.356184053449
 21
4816.55061472883
 31
0.0
  0
ARC
  5
1719A
330
747D
100
AcDbEntity
  8
部品1
100
AcDbCircle
 10
7225.983719867392
 20
4541.341948653511
 30
0.0
 40
0.7
100
AcDbArc
 50
275.0921697642079
 51
354.1866997666569
  0
ARC
  5
1719B
330
747D
100
AcDbEntity
  8
部品1
100
AcDbCircle
 10
7236.84306561671
 20
4618.385203471435
 30
0.0
 40
0.7
100
AcDbArc
 50
275.0921697642079
 51
354.1866997665532
  0
ARC
  5
1719C
330
747D
100
AcDbEntity
  8
部品1
100
AcDbCircle
 10
7237.171470859313
 20
4614.699806614345
 30
0.0
 40
3.0
100
AcDbArc
 50
95.09216976431169
 51
174.1866997665532
  0
ARC
  5
1719D
330
747D
100
AcDbEntity
  8
部品1
100
AcDbCircle
 10
7226.312125109988
 20
4537.656551796421
 30
0.0
 40
3.0
100
AcDbArc
 50
95.09216976420788
 51
174.1866997665532
  0
ARC
  5
1719E
330
747D
100
AcDbEntity
  8
部品1
 48
50.0
100
AcDbCircle
 10
7215.283989834883
 20
4528.065807192539
 30
0.0
 40
7.0
100
AcDbArc
 50
267.8377559870533
 51
354.1866997665532
  0
ARC
  5
1719F
330
747D
100
AcDbEntity
  8
部品1
 48
50.0
100
AcDbCircle
 10
7232.606086299398
 20
4638.968354334712
 30
0.0
 40
7.0
100
AcDbArc
 50
354.1866997665532
 51
87.03587545293366
  0
LINE
  5
171A0
330
747D
100
AcDbEntity
  8
部品1
 48
50.0
100
AcDbLine
 10
7223.327553439379
 20
4537.960413513324
 30
0.0
 11
7222.247990399639
 21
4527.356796519765
 31
0.0
  0
LINE
  5
171A1
330
747D
100
AcDbEntity
  8
部品1
 48
50.0
100
AcDbLine
 10
7234.186899188703
 20
4615.003668331248
 30
0.0
 11
7226.680119923866
 21
4541.271047586237
 31
0.0
  0
LINE
  5
171A2
330
747D
100
AcDbEntity
  8
部品1
 48
50.0
100
AcDbLine
 10
7239.570086864154
 20
4638.259343661937
 30
0.0
 11
7237.539465673184
 21
4618.314302404156
 31
0.0
  0
ARC
  5
171A3
330
747D
100
AcDbEntity
  8
部品1
100
AcDbCircle
 10
4896.393275924816
 20
4581.132350346623
 30
0.0
 40
0.7
100
AcDbArc
 50
181.0932240293156
 51
260.1877540315872
  0
ARC
  5
171A4
330
747D
100
AcDbEntity
  8
部品1
100
AcDbCircle
 10
4891.620602327206
 20
4673.998128546742
 30
0.0
 40
0.7
100
AcDbArc
 50
181.0932240292114
 51
260.1877540315872
  0
ARC
  5
171A5
330
747D
100
AcDbEntity
  8
部品1
100
AcDbCircle
 10
4890.990047924184
 20
4670.352254009343
 30
0.0
 40
3.0
100
AcDbArc
 50
1.093224029315636
 51
80.18775403158718
  0
ARC
  5
171A6
330
747D
100
AcDbEntity
  8
部品1
100
AcDbCircle
 10
4895.762721521791
 20
4577.486475809226
 30
0.0
 40
3.0
100
AcDbArc
 50
1.093224029315636
 51
80.18775403158718
  0
ARC
  5
171A7
330
747D
100
AcDbEntity
  8
部品1
 48
50.0
100
AcDbCircle
 10
4905.962853896991
 20
4567.094232426745
 30
0.0
 40
7.0
100
AcDbArc
 50
181.0932240293156
 51
267.8377559870533
  0
ARC
  5
171A8
330
747D
100
AcDbEntity
  8
部品1
 48
50.0
100
AcDbCircle
 10
4897.539195794895
 20
4694.045291959839
 30
0.0
 40
7.0
100
AcDbArc
 50
87.03587545293366
 51
181.0932240293156
  0
LINE
  5
171A9
330
747D
100
AcDbEntity
  8
部品1
 48
50.0
100
AcDbLine
 10
4898.76217544822
 20
4577.543713412407
 30
0.0
 11
4898.964128068652
 21
4566.960678019317
 31
0.0
  0
LINE
  5
171AA
330
747D
100
AcDbEntity
  8
細線
 48
50.0
100
AcDbLine
 10
4896.156082391549
 20
4580.473761531217
 30
0.0
 11
7226.159746822188
 21
4540.664442556725
 31
0.0
  0
LINE
  5
171AB
330
747D
100
AcDbEntity
  8
細線
 48
50.0
100
AcDbLine
 10
4891.395607154263
 20
4673.33527322908
 30
0.0
 11
7237.031591899435
 21
4617.711068588252
 31
0.0
  0
LINE
  5
171AC
330
747D
100
AcDbEntity
  8
部品1
 48
50.0
100
AcDbLine
 10
4893.989501850614
 20
4670.409491612528
 30
0.0
 11
4895.693403341978
 21
4581.118994905881
 31
0.0
  0
LINE
  5
171AD
330
747D
100
AcDbEntity
  8
部品1
 48
50.0
100
AcDbLine
 10
4890.540469966556
 20
4693.911737552411
 30
0.0
 11
4890.920729744369
 21
4673.984773106
 31
0.0
  0
LINE
  5
171AE
330
747D
100
AcDbEntity
  8
細線
 48
50.0
100
AcDbLine
 10
7207.356184053454
 20
4647.285170423016
 30
0.0
 11
7202.608501165454
 21
4521.53939793227
 31
0.0
  0
LINE
  5
171AF
330
747D
100
AcDbEntity
  8
細線
 48
50.0
100
AcDbLine
 10
4923.356184053449
 20
4699.717867763124
 30
0.0
 11
4918.067082497942
 21
4559.63223513577
 31
0.0
  0
LINE
  5
171B0
330
747D
100
AcDbEntity
  8
部品1
100
AcDbLine
 10
4905.698748655403
 20
4560.099216456685
 30
0.0
 11
7215.019884593298
 21
4521.07079122248
 31
0.0
  0
LINE
  5
171B1
330
747D
100
AcDbEntity
  8
部品1
100
AcDbLine
 10
4897.901170410412
 20
4701.035926721987
 30
0.0
 11
7232.968060914915
 21
4645.958989096858
 31
0.0
  0
LINE
  5
171B2
330
747D
100
AcDbEntity
  8
部品1
 48
50.0
100
AcDbLine
 10
5905.356184053449
 20
4832.75061472883
 30
0.0
 11
6205.356184053449
 21
4832.75061472883
 31
0.0
  0
LINE
  5
171B3
330
747D
100
AcDbEntity
  8
部品1
 48
50.0
100
AcDbLine
 10
6205.356184053449
 20
4832.75061472883
 30
0.0
 11
6205.356184053449
 21
4816.55061472883
 31
0.0
  0
TEXT
  5
171B4
330
747D
100
AcDbEntity
  8
部品1
 48
50.0
100
AcDbText
 10
5893.624019277177
 20
4868.634636881263
 30
0.0
 40
120.0
  1
1000
  7
STYLE1
100
AcDbText
  0
TEXT
  5
171B5
330
747D
100
AcDbEntity
  8
部品1
 48
50.0
100
AcDbText
 10
6371.257041942267
 20
4731.13337866298
 30
0.0
 40
120.0
  1
44
 50
90.0
  7
STYLE1
100
AcDbText
  0
LINE
  5
171B6
330
747D
100
AcDbEntity
  8
細線
 48
50.0
100
AcDbLine
 10
6342.856184053453
 20
4467.31819138772
 30
0.0
 11
6342.856184053453
 21
2677.31819138772
 31
0.0
  0
LINE
  5
171B7
330
747D
100
AcDbEntity
  8
細線
 48
50.0
100
AcDbLine
 10
6327.856184053453
 20
4467.31819138772
 30
0.0
 11
6327.856184053453
 21
2677.31819138772
 31
0.0
  0
LINE
  5
171B8
330
747D
100
AcDbEntity
  8
細線
 48
50.0
100
AcDbLine
 10
6467.856184053452
 20
4467.31819138772
 30
0.0
 11
6467.856184053452
 21
2677.31819138772
 31
0.0
  0
LINE
  5
171B9
330
747D
100
AcDbEntity
  8
細線
 48
50.0
100
AcDbLine
 10
6482.856184053453
 20
4467.31819138772
 30
0.0
 11
6482.856184053453
 21
2677.31819138772
 31
0.0
  0
LINE
  5
171BA
330
747D
100
AcDbEntity
  8
細線
 48
50.0
100
AcDbLine
 10
6622.856184053452
 20
4467.31819138772
 30
0.0
 11
6622.856184053452
 21
2677.31819138772
 31
0.0
  0
LINE
  5
171BB
330
747D
100
AcDbEntity
  8
細線
 48
50.0
100
AcDbLine
 10
6607.856184053453
 20
4467.31819138772
 30
0.0
 11
6607.856184053453
 21
2677.31819138772
 31
0.0
  0
LINE
  5
171BC
330
747D
100
AcDbEntity
  8
部品1
100
AcDbLine
 10
6685.35618405345
 20
4467.31819138772
 30
0.0
 11
6685.35618405345
 21
2677.31819138772
 31
0.0
  0
LINE
  5
171BD
330
747D
100
AcDbEntity
  8
部品1
100
AcDbLine
 10
4950.35618405345
 20
4467.31819138772
 30
0.0
 11
7160.356184053451
 21
4467.31819138772
 31
0.0
  0
LINE
  5
171BE
330
747D
100
AcDbEntity
  8
部品1
100
AcDbLine
 10
4950.35618405345
 20
2677.31819138772
 30
0.0
 11
7160.356184053454
 21
2677.31819138772
 31
0.0
  0
LINE
  5
171BF
330
747D
100
AcDbEntity
  8
部品1
100
AcDbLine
 10
5005.356184053449
 20
4467.31819138772
 30
0.0
 11
5005.356184053449
 21
2677.31819138772
 31
0.0
  0
LINE
  5
171C0
330
747D
100
AcDbEntity
  8
部品1
100
AcDbLine
 10
4950.35618405345
 20
4559.176710829966
 30
0.0
 11
4950.35618405345
 21
2527.31819138772
 31
0.0
  0
LINE
  5
171C1
330
747D
100
AcDbEntity
  8
部品1
100
AcDbLine
 10
5425.356184053449
 20
4467.31819138772
 30
0.0
 11
5425.356184053449
 21
2677.31819138772
 31
0.0
  0
LINE
  5
171C2
330
747D
100
AcDbEntity
  8
部品1
100
AcDbLine
 10
7160.356184053449
 20
4521.99462901894
 30
0.0
 11
7160.356184053454
 21
2527.31819138772
 31
0.0
  0
LINE
  5
171C3
330
747D
100
AcDbEntity
  8
部品1
100
AcDbLine
 10
7105.356184053452
 20
4467.31819138772
 30
0.0
 11
7105.356184053452
 21
2677.31819138772
 31
0.0
  0
DIMENSION
  5
171C4
330
747D
100
AcDbEntity
  8
寸法
100
AcDbDimension
  2
*D17
 10
7720.46280799504
 20
4647.31819138772
 30
0.0
 11
7720.462807995038
 21
3649.370872634656
 31
0.0
 70
   160
 71
     5
 42
2020.000000000002
  3
INABA_S40G
100
AcDbAlignedDimension
 13
7237.356184053453
 23
2627.318191387718
 33
0.0
 14
7240.35618405345
 24
4647.31819138772
 34
0.0
 50
90.0
100
AcDbRotatedDimension
1001
ACAD
1000
DSTYLE
1002
{
1070
   174
1070
     0
1070
   272
1070
     1
1070
   288
1070
     0
1070
   341
1005
0
1002
}
  0
DIMENSION
  5
171C5
330
747D
100
AcDbEntity
  8
寸法
 48
50.0
100
AcDbDimension
  2
*D18
 10
4950.35618405345
 20
5100.975644967023
 30
0.0
 11
6045.000921123963
 21
5100.975644967023
 31
0.0
 70
   160
  1
柱外寸法<>
 71
     5
 42
2210.0
  3
INABA_S40G
100
AcDbAlignedDimension
 13
7160.356184053449
 23
4649.128870999372
 33
0.0
 14
4950.35618405345
 24
4698.319809510696
 34
0.0
100
AcDbRotatedDimension
1001
ACAD
1000
DSTYLE
1002
{
1070
   174
1070
     0
1070
   272
1070
     1
1070
   288
1070
     0
1070
   341
1005
0
1002
}
  0
DIMENSION
  5
171C6
330
747D
100
AcDbEntity
  8
寸法
 48
50.0
100
AcDbDimension
  2
*D19
 10
4890.356184053449
 20
5100.975644967023
 30
0.0
 11
4580.718388777859
 21
5100.975644967023
 31
0.0
 70
   160
 71
     5
 42
60.0
  3
INABA_S40G
100
AcDbAlignedDimension
 13
4950.35618405345
 23
4698.319809510696
 33
0.0
 14
4890.356184053449
 24
4702.318191387723
 34
0.0
100
AcDbRotatedDimension
1001
ACAD
1000
DSTYLE
1002
{
1070
   174
1070
     0
1070
   272
1070
     1
1070
   288
1070
     0
1070
   341
1005
0
1002
}
  0
DIMENSION
  5
171C7
330
747D
100
AcDbEntity
  8
寸法
 48
50.0
100
AcDbDimension
  2
*D20
 10
4890.356184053449
 20
5320.177478641315
 30
0.0
 11
6124.700038145919
 21
5320.177478641315
 31
0.0
 70
   160
 71
     5
 42
2350.0
  3
INABA_S40G
100
AcDbAlignedDimension
 13
7240.35618405345
 23
4647.31819138772
 33
0.0
 14
4890.356184053449
 24
4702.318191387723
 34
0.0
100
AcDbRotatedDimension
1001
ACAD
1000
DSTYLE
1002
{
1070
   174
1070
     0
1070
   272
1070
     1
1070
   288
1070
     0
1070
   341
1005
0
1002
}
  0
LINE
  5
171C8
330
747D
100
AcDbEntity
  8
部品1
100
AcDbLine
 10
4950.35618405345
 20
2627.31819138772
 30
0.0
 11
4957.85618405345
 21
2627.31819138772
 31
0.0
  0
LINE
  5
171C9
330
747D
100
AcDbEntity
  8
細線
 48
50.0
100
AcDbLine
 10
5502.856184053449
 20
4467.31819138772
 30
0.0
 11
5502.856184053449
 21
2677.31819138772
 31
0.0
  0
LINE
  5
171CA
330
747D
100
AcDbEntity
  8
細線
 48
50.0
100
AcDbLine
 10
5487.856184053449
 20
4467.31819138772
 30
0.0
 11
5487.856184053449
 21
2677.31819138772
 31
0.0
  0
LINE
  5
171CB
330
747D
100
AcDbEntity
  8
細線
 48
50.0
100
AcDbLine
 10
5627.856184053449
 20
4467.31819138772
 30
0.0
 11
5627.856184053449
 21
2677.31819138772
 31
0.0
  0
LINE
  5
171CC
330
747D
100
AcDbEntity
  8
細線
 48
50.0
100
AcDbLine
 10
5642.856184053449
 20
4467.31819138772
 30
0.0
 11
5642.856184053449
 21
2677.31819138772
 31
0.0
  0
LINE
  5
171CD
330
747D
100
AcDbEntity
  8
細線
 48
50.0
100
AcDbLine
 10
5782.85618405345
 20
4467.31819138772
 30
0.0
 11
5782.85618405345
 21
2677.31819138772
 31
0.0
  0
LINE
  5
171CE
330
747D
100
AcDbEntity
  8
細線
 48
50.0
100
AcDbLine
 10
5767.856184053449
 20
4467.31819138772
 30
0.0
 11
5767.856184053449
 21
2677.31819138772
 31
0.0
  0
LINE
  5
171CF
330
747D
100
AcDbEntity
  8
細線
 48
50.0
100
AcDbLine
 10
5347.856184053449
 20
4467.31819138772
 30
0.0
 11
5347.856184053449
 21
2677.31819138772
 31
0.0
  0
LINE
  5
171D0
330
747D
100
AcDbEntity
  8
細線
 48
50.0
100
AcDbLine
 10
5362.856184053449
 20
4467.31819138772
 30
0.0
 11
5362.856184053449
 21
2677.31819138772
 31
0.0
  0
LINE
  5
171D1
330
747D
100
AcDbEntity
  8
細線
 48
50.0
100
AcDbLine
 10
5222.856184053449
 20
4467.31819138772
 30
0.0
 11
5222.856184053449
 21
2677.31819138772
 31
0.0
  0
LINE
  5
171D2
330
747D
100
AcDbEntity
  8
細線
 48
50.0
100
AcDbLine
 10
5207.85618405345
 20
4467.31819138772
 30
0.0
 11
5207.85618405345
 21
2677.31819138772
 31
0.0
  0
LINE
  5
171D3
330
747D
100
AcDbEntity
  8
細線
 48
50.0
100
AcDbLine
 10
5067.856184053449
 20
4467.31819138772
 30
0.0
 11
5067.856184053449
 21
2677.31819138772
 31
0.0
  0
LINE
  5
171D4
330
747D
100
AcDbEntity
  8
細線
 48
50.0
100
AcDbLine
 10
5082.85618405345
 20
4467.31819138772
 30
0.0
 11
5082.85618405345
 21
2677.31819138772
 31
0.0
  0
DIMENSION
  5
171D5
330
747D
100
AcDbEntity
  8
寸法
 48
50.0
100
AcDbDimension
  2
*D21
 10
7240.35618405345
 20
5100.975644967023
 30
0.0
 11
7446.40342814794
 21
5100.975644967023
 31
0.0
 70
   160
 71
     5
 42
80.0
  3
INABA_S40G
100
AcDbAlignedDimension
 13
7160.356184053449
 23
4649.128870999372
 33
0.0
 14
7240.35618405345
 24
4647.31819138772
 34
0.0
100
AcDbRotatedDimension
1001
ACAD
1000
DSTYLE
1002
{
1070
   174
1070
     0
1070
   272
1070
     1
1070
   288
1070
     0
1070
   341
1005
0
1002
}
  0
LINE
  5
171D6
330
747D
100
AcDbEntity
  8
部品1
100
AcDbLine
 10
5845.35618405345
 20
4467.31819138772
 30
0.0
 11
5845.35618405345
 21
2677.31819138772
 31
0.0
  0
LINE
  5
171D7
330
747D
100
AcDbEntity
  8
細線
 48
50.0
100
AcDbLine
 10
6187.856184053453
 20
4467.31819138772
 30
0.0
 11
6187.856184053453
 21
2677.31819138772
 31
0.0
  0
LINE
  5
171D8
330
747D
100
AcDbEntity
  8
細線
 48
50.0
100
AcDbLine
 10
6202.856184053453
 20
4467.31819138772
 30
0.0
 11
6202.856184053453
 21
2677.31819138772
 31
0.0
  0
LINE
  5
171D9
330
747D
100
AcDbEntity
  8
細線
 48
50.0
100
AcDbLine
 10
6062.856184053453
 20
4467.31819138772
 30
0.0
 11
6062.856184053453
 21
2677.31819138772
 31
0.0
  0
LINE
  5
171DA
330
747D
100
AcDbEntity
  8
細線
 48
50.0
100
AcDbLine
 10
6047.856184053453
 20
4467.31819138772
 30
0.0
 11
6047.856184053453
 21
2677.31819138772
 31
0.0
  0
LINE
  5
171DB
330
747D
100
AcDbEntity
  8
細線
 48
50.0
100
AcDbLine
 10
5907.856184053454
 20
4467.31819138772
 30
0.0
 11
5907.856184053454
 21
2677.31819138772
 31
0.0
  0
LINE
  5
171DC
330
747D
100
AcDbEntity
  8
細線
 48
50.0
100
AcDbLine
 10
5922.856184053453
 20
4467.31819138772
 30
0.0
 11
5922.856184053453
 21
2677.31819138772
 31
0.0
  0
LINE
  5
171DD
330
747D
100
AcDbEntity
  8
部品1
100
AcDbLine
 10
6265.356184053449
 20
4467.31819138772
 30
0.0
 11
6265.356184053449
 21
2677.31819138772
 31
0.0
  0
LINE
  5
171DE
330
747D
100
AcDbEntity
  8
細線
 48
50.0
100
AcDbLine
 10
6762.856184053458
 20
4467.31819138772
 30
0.0
 11
6762.856184053458
 21
2677.31819138772
 31
0.0
  0
LINE
  5
171DF
330
747D
100
AcDbEntity
  8
細線
 48
50.0
100
AcDbLine
 10
6747.856184053457
 20
4467.31819138772
 30
0.0
 11
6747.856184053457
 21
2677.31819138772
 31
0.0
  0
LINE
  5
171E0
330
747D
100
AcDbEntity
  8
細線
 48
50.0
100
AcDbLine
 10
6887.856184053458
 20
4467.31819138772
 30
0.0
 11
6887.856184053458
 21
2677.31819138772
 31
0.0
  0
LINE
  5
171E1
330
747D
100
AcDbEntity
  8
細線
 48
50.0
100
AcDbLine
 10
6902.856184053456
 20
4467.31819138772
 30
0.0
 11
6902.856184053456
 21
2677.31819138772
 31
0.0
  0
LINE
  5
171E2
330
747D
100
AcDbEntity
  8
細線
 48
50.0
100
AcDbLine
 10
7042.856184053457
 20
4467.31819138772
 30
0.0
 11
7042.856184053457
 21
2677.31819138772
 31
0.0
  0
LINE
  5
171E3
330
747D
100
AcDbEntity
  8
細線
 48
50.0
100
AcDbLine
 10
7027.856184053456
 20
4467.31819138772
 30
0.0
 11
7027.856184053456
 21
2677.31819138772
 31
0.0
  0
TEXT
  5
1721B
330
747D
100
AcDbEntity
  8
部品1
100
AcDbText
 10
5763.066952362837
 20
1645.386399191784
 30
0.0
 40
135.0
  1
側面図
  7
STYLE2
100
AcDbText
  0
LINE
  5
17242
330
747D
100
AcDbEntity
  8
部品1
100
AcDbLine
 10
5673.620850939229
 20
1838.279928410309
 30
0.0
 11
5673.620850939229
 21
1598.387606864777
 31
0.0
  0
LINE
  5
17243
330
747D
100
AcDbEntity
  8
部品1
100
AcDbLine
 10
5673.620850939229
 20
1598.387606864777
 30
0.0
 11
6437.09151716767
 21
1598.387606864777
 31
0.0
  0
LINE
  5
17244
330
747D
100
AcDbEntity
  8
部品1
100
AcDbLine
 10
6437.09151716767
 20
1598.387606864777
 30
0.0
 11
6437.09151716767
 21
1838.279928410309
 31
0.0
  0
LINE
  5
17245
330
747D
100
AcDbEntity
  8
部品1
100
AcDbLine
 10
6437.09151716767
 20
1838.279928410309
 30
0.0
 11
5673.620850939229
 21
1838.279928410309
 31
0.0
  0
LINE
  5
17265
330
747D
100
AcDbEntity
  8
部品1
100
AcDbLine
 10
4950.35618405345
 20
2627.31819138772
 30
0.0
 11
4957.85618405345
 21
2627.31819138772
 31
0.0
  0
DIMENSION
  5
17266
330
747D
100
AcDbEntity
  8
寸法
100
AcDbDimension
  2
*D22
 10
4326.703474895153
 20
2677.31819138772
 30
0.0
 11
4326.703474895151
 21
3567.772489929677
 31
0.0
 70
   160
 71
     5
 42
1790.0
  3
INABA_S40G
100
AcDbAlignedDimension
 13
4950.35618405345
 23
4467.31819138772
 33
0.0
 14
4950.35618405345
 24
2677.31819138772
 34
0.0
 50
90.0
100
AcDbRotatedDimension
1001
ACAD
1000
DSTYLE
1002
{
1070
   174
1070
     0
1070
   272
1070
     1
1070
   288
1070
     0
1070
   341
1005
0
1002
}
  0
DIMENSION
  5
17267
330
747D
100
AcDbEntity
  8
寸法
100
AcDbDimension
  2
*D23
 10
4041.716802124091
 20
4702.318191387723
 30
0.0
 11
4041.71680212409
 21
3621.52406888083
 31
0.0
 70
   160
 71
     5
 42
2075.000000000004
  3
INABA_S40G
100
AcDbAlignedDimension
 13
4950.35618405345
 23
2627.31819138772
 33
0.0
 14
4890.356184053449
 24
4702.318191387723
 34
0.0
 50
90.0
100
AcDbRotatedDimension
1001
ACAD
1000
DSTYLE
1002
{
1070
   174
1070
     0
1070
   272
1070
     1
1070
   288
1070
     0
1070
   341
1005
0
1002
}
  0
DIMENSION
  5
17268
330
747D
100
AcDbEntity
  8
寸法
100
AcDbDimension
  2
*D24
 10
4041.716802124091
 20
2527.31819138772
 30
0.0
 11
4041.71680212409
 21
2291.270947293226
 31
0.0
 70
   160
 71
     5
 42
100.0
  3
INABA_S40G
100
AcDbAlignedDimension
 13
4895.35618405345
 23
2627.31819138772
 33
0.0
 14
4326.703474895151
 24
2527.31819138772
 34
0.0
 50
90.0
100
AcDbRotatedDimension
1001
ACAD
1000
DSTYLE
1002
{
1070
   174
1070
     0
1070
   272
1070
     1
1070
   288
1070
     0
1070
   341
1005
0
1002
}
  0
DIMENSION
  5
17269
330
747D
100
AcDbEntity
  8
寸法
100
AcDbDimension
  2
*D25
 10
4326.703474895153
 20
2627.31819138772
 30
0.0
 11
4326.703474895151
 21
2321.270947293226
 31
0.0
 70
   160
 71
     5
 42
50.0
  3
INABA_S40G
100
AcDbAlignedDimension
 13
4950.35618405345
 23
2677.31819138772
 33
0.0
 14
4895.35618405345
 24
2627.31819138772
 34
0.0
 50
90.0
100
AcDbRotatedDimension
1001
ACAD
1000
DSTYLE
1002
{
1070
   174
1070
     0
1070
   272
1070
     1
1070
   288
1070
     0
1070
   341
1005
0
1002
}
  0
LINE
  5
1726A
330
747D
100
AcDbEntity
  8
破線
  6
HIDDEN
 48
5.0
100
AcDbLine
 10
7167.85618405345
 20
2372.31819138772
 30
0.0
 11
7097.856184053449
 21
2372.31819138772
 31
0.0
  0
LINE
  5
1726B
330
747D
100
AcDbEntity
  8
破線
  6
HIDDEN
 48
5.0
100
AcDbLine
 10
7112.85618405345
 20
2522.31819138772
 30
0.0
 11
7097.856184053449
 21
2374.618191387719
 31
0.0
  0
LINE
  5
1726C
330
747D
100
AcDbEntity
  8
破線
  6
HIDDEN
 48
5.0
100
AcDbLine
 10
7097.856184053449
 20
2374.618191387719
 30
0.0
 11
7097.856184053449
 21
2372.31819138772
 31
0.0
  0
LINE
  5
1726D
330
747D
100
AcDbEntity
  8
破線
  6
HIDDEN
 48
5.0
100
AcDbLine
 10
7152.856184053449
 20
2522.31819138772
 30
0.0
 11
7167.85618405345
 21
2374.618191387719
 31
0.0
  0
LINE
  5
1726E
330
747D
100
AcDbEntity
  8
破線
  6
HIDDEN
 48
5.0
100
AcDbLine
 10
7167.85618405345
 20
2374.618191387719
 30
0.0
 11
7167.85618405345
 21
2372.31819138772
 31
0.0
  0
LINE
  5
1726F
330
747D
100
AcDbEntity
  8
破線
  6
HIDDEN
 48
5.0
100
AcDbLine
 10
4942.856184053449
 20
2372.31819138772
 30
0.0
 11
5012.85618405345
 21
2372.31819138772
 31
0.0
  0
LINE
  5
17270
330
747D
100
AcDbEntity
  8
破線
  6
HIDDEN
 48
5.0
100
AcDbLine
 10
4942.856184053449
 20
2374.618191387719
 30
0.0
 11
4942.856184053449
 21
2372.31819138772
 31
0.0
  0
LINE
  5
17271
330
747D
100
AcDbEntity
  8
破線
  6
HIDDEN
 48
5.0
100
AcDbLine
 10
5012.85618405345
 20
2374.618191387719
 30
0.0
 11
5012.85618405345
 21
2372.31819138772
 31
0.0
  0
LINE
  5
17272
330
747D
100
AcDbEntity
  8
破線
  6
HIDDEN
 48
5.0
100
AcDbLine
 10
4957.85618405345
 20
2522.31819138772
 30
0.0
 11
4942.856184053449
 21
2374.618191387719
 31
0.0
  0
LINE
  5
17273
330
747D
100
AcDbEntity
  8
破線
  6
HIDDEN
 48
5.0
100
AcDbLine
 10
4997.85618405345
 20
2522.31819138772
 30
0.0
 11
5012.85618405345
 21
2374.618191387719
 31
0.0
  0
LINE
  5
17274
330
747D
100
AcDbEntity
  8
部品1
 48
50.0
100
AcDbLine
 10
4957.85618405345
 20
2667.31819138772
 30
0.0
 11
4957.85618405345
 21
2527.31819138772
 31
0.0
  0
LINE
  5
17275
330
747D
100
AcDbEntity
  8
部品1
 48
50.0
100
AcDbLine
 10
4997.85618405345
 20
2667.31819138772
 30
0.0
 11
4997.85618405345
 21
2527.31819138772
 31
0.0
  0
LINE
  5
17276
330
747D
100
AcDbEntity
  8
部品1
100
AcDbLine
 10
4962.85618405345
 20
2672.31819138772
 30
0.0
 11
4992.856184053449
 21
2672.31819138772
 31
0.0
  0
ARC
  5
17277
330
747D
100
AcDbEntity
  8
部品1
 48
50.0
100
AcDbCircle
 10
4962.85618405345
 20
2667.31819138772
 30
0.0
 40
5.0
100
AcDbArc
 50
90.0
 51
180.0
  0
ARC
  5
17278
330
747D
100
AcDbEntity
  8
部品1
 48
50.0
100
AcDbCircle
 10
4992.856184053449
 20
2667.31819138772
 30
0.0
 40
5.0
100
AcDbArc
 50
0.0
 51
90.0
  0
LINE
  5
17279
330
747D
100
AcDbEntity
  8
部品1
 48
50.0
100
AcDbLine
 10
7112.85618405345
 20
2667.31819138772
 30
0.0
 11
7112.85618405345
 21
2527.31819138772
 31
0.0
  0
LINE
  5
1727A
330
747D
100
AcDbEntity
  8
部品1
 48
50.0
100
AcDbLine
 10
7152.856184053449
 20
2667.31819138772
 30
0.0
 11
7152.856184053449
 21
2527.31819138772
 31
0.0
  0
LINE
  5
1727B
330
747D
100
AcDbEntity
  8
部品1
100
AcDbLine
 10
7147.856184053449
 20
2672.31819138772
 30
0.0
 11
7117.85618405345
 21
2672.31819138772
 31
0.0
  0
ARC
  5
1727C
330
747D
100
AcDbEntity
  8
部品1
 48
50.0
100
AcDbCircle
 10
7117.85618405345
 20
2667.31819138772
 30
0.0
 40
5.0
100
AcDbArc
 50
90.0
 51
180.0
  0
ARC
  5
1727D
330
747D
100
AcDbEntity
  8
部品1
 48
50.0
100
AcDbCircle
 10
7147.856184053449
 20
2667.31819138772
 30
0.0
 40
5.0
100
AcDbArc
 50
0.0
 51
90.0
  0
LINE
  5
1727E
330
747D
100
AcDbEntity
  8
破線
  6
HIDDEN
 48
5.0
100
AcDbLine
 10
7112.85618405345
 20
2527.31819138772
 30
0.0
 11
7112.85618405345
 21
2522.31819138772
 31
0.0
  0
LINE
  5
1727F
330
747D
100
AcDbEntity
  8
破線
  6
HIDDEN
 48
5.0
100
AcDbLine
 10
7152.856184053449
 20
2527.31819138772
 30
0.0
 11
7152.856184053449
 21
2522.31819138772
 31
0.0
  0
LINE
  5
17280
330
747D
100
AcDbEntity
  8
破線
  6
HIDDEN
 48
5.0
100
AcDbLine
 10
4957.856184053457
 20
2527.31819138772
 30
0.0
 11
4957.856184053457
 21
2522.31819138772
 31
0.0
  0
LINE
  5
17281
330
747D
100
AcDbEntity
  8
破線
  6
HIDDEN
 48
5.0
100
AcDbLine
 10
4997.85618405345
 20
2527.31819138772
 30
0.0
 11
4997.85618405345
 21
2522.31819138772
 31
0.0
  0
LINE
  5
17282
330
747D
100
AcDbEntity
  8
部品1
100
AcDbLine
 10
7152.856184053449
 20
2627.31819138772
 30
0.0
 11
7160.356184053454
 21
2627.31819138772
 31
0.0
  0
DIMENSION
  5
17283
330
747D
100
AcDbEntity
  8
寸法
 48
50.0
100
AcDbDimension
  2
*D26
 10
4329.747777285087
 20
4576.663450261047
 30
0.0
 11
4340.413252544011
 21
4947.510113502753
 31
0.0
 70
   161
 71
     5
 42
141.0000000000018
  3
INABA_S40G
100
AcDbAlignedDimension
 13
4909.752204212029
 23
4701.0409402224
 33
0.0
 14
4905.698748655403
 24
4560.099216456685
 34
0.0
1001
ACAD
1000
DSTYLE
1002
{
1070
   174
1070
     0
1070
   272
1070
     1
1070
   288
1070
     0
1070
   341
1005
0
1002
}
  0
DIMENSION
  5
17284
330
747D
100
AcDbEntity
  8
寸法
 48
50.0
100
AcDbDimension
  2
*D27
 10
4728.356180806816
 20
2527.318191387718
 30
0.0
 11
4728.356180806815
 21
2427.318191387719
 31
0.0
 70
   160
 71
     5
 42
200.0
  3
INABA_S40G
100
AcDbAlignedDimension
 13
4877.856184053452
 23
2327.318191387718
 33
0.0
 14
4852.856184053449
 24
2527.318191387718
 34
0.0
 50
90.0
100
AcDbRotatedDimension
1001
ACAD
1000
DSTYLE
1002
{
1070
   174
1070
     0
1070
   272
1070
     1
1070
   288
1070
     0
1070
   341
1005
0
1002
}
  0
LINE
  5
17285
330
747D
100
AcDbEntity
  8
破線
 48
5.0
100
AcDbLine
 10
5077.856184053449
 20
2327.318191387716
 30
0.0
 11
4877.856184053452
 21
2327.318191387716
 31
0.0
  0
LINE
  5
17286
330
747D
100
AcDbEntity
  8
破線
 48
5.0
100
AcDbLine
 10
5077.856184053449
 20
2527.31819138772
 30
0.0
 11
5077.856184053449
 21
2327.318191387716
 31
0.0
  0
LINE
  5
17287
330
747D
100
AcDbEntity
  8
破線
 48
5.0
100
AcDbLine
 10
4877.856184053449
 20
2527.31819138772
 30
0.0
 11
4877.856184053452
 21
2327.318191387716
 31
0.0
  0
DIMENSION
  5
17288
330
747D
100
AcDbEntity
  8
寸法
 48
50.0
100
AcDbDimension
  2
*D28
 10
4877.856184053452
 20
2041.27086208734
 30
0.0
 11
4977.856184053451
 21
2041.27086208734
 31
0.0
 70
   160
 71
     5
 42
199.9999999999963
  3
INABA_S40G
100
AcDbAlignedDimension
 13
5077.856184053449
 23
2327.318191387716
 33
0.0
 14
4877.856184053452
 24
2327.318191387718
 34
0.0
100
AcDbRotatedDimension
  0
LINE
  5
17289
330
747D
100
AcDbEntity
  8
破線
 48
5.0
100
AcDbLine
 10
7232.856184053456
 20
2527.31819138772
 30
0.0
 11
7232.856184053453
 21
2327.318191387716
 31
0.0
  0
LINE
  5
1728A
330
747D
100
AcDbEntity
  8
破線
 48
5.0
100
AcDbLine
 10
7232.856184053453
 20
2327.318191387716
 30
0.0
 11
7032.856184053456
 21
2327.31819138772
 31
0.0
  0
LINE
  5
1728B
330
747D
100
AcDbEntity
  8
破線
 48
5.0
100
AcDbLine
 10
7032.856184053456
 20
2527.31819138772
 30
0.0
 11
7032.856184053456
 21
2327.31819138772
 31
0.0
  0
LINE
  5
1728E
330
747D
100
AcDbEntity
  8
部品1
 48
50.0
100
AcDbLine
 10
7160.356184053454
 20
4462.318191387719
 30
0.0
 11
7237.356184053453
 21
4452.318191387719
 31
0.0
  0
LINE
  5
1728F
330
747D
100
AcDbEntity
  8
部品1
 48
50.0
100
AcDbLine
 10
7237.356184053453
 20
4452.318191387719
 30
0.0
 11
7237.356184053453
 21
2527.31819138772
 31
0.0
  0
LINE
  5
17290
330
747D
100
AcDbEntity
  8
部品1
 48
50.0
100
AcDbLine
 10
7237.356184053453
 20
2627.31819138772
 30
0.0
 11
7152.856184053454
 21
2627.31819138772
 31
0.0
  0
LINE
  5
17291
330
747D
100
AcDbEntity
  8
部品1
100
AcDbLine
 10
6960.356184053449
 20
2627.31819138772
 30
0.0
 11
6960.356184053449
 21
2527.31819138772
 31
0.0
  0
LINE
  5
17292
330
747D
100
AcDbEntity
  8
部品1
 48
50.0
100
AcDbLine
 10
6155.356184053449
 20
2627.31819138772
 30
0.0
 11
6155.356184053449
 21
2527.31819138772
 31
0.0
  0
LINE
  5
17293
330
747D
100
AcDbEntity
  8
部品1
 48
50.0
100
AcDbLine
 10
5955.356184053449
 20
2627.31819138772
 30
0.0
 11
5955.356184053449
 21
2527.31819138772
 31
0.0
  0
LINE
  5
17294
330
747D
100
AcDbEntity
  8
部品1
100
AcDbLine
 10
5150.35618405345
 20
2627.31819138772
 30
0.0
 11
5150.35618405345
 21
2527.31819138772
 31
0.0
  0
TEXT
  5
172E7
330
747D
100
AcDbEntity
  8
部品1
100
AcDbText
 10
3158.985829063116
 20
2563.425094993621
 30
0.0
 40
125.0
  1
▽G.L
  7
STYLE2
100
AcDbText
  0
LINE
  5
1787D
330
747D
100
AcDbEntity
  8
細線
100
AcDbLine
 10
10876.45321339068
 20
7829.527547381271
 30
0.0
 11
10874.12166691449
 21
7834.527564934951
 31
0.0
  0
MTEXT
  5
178F3
330
747D
100
AcDbEntity
  8
寸法
 62
     7
 48
50.0
100
AcDbMText
 10
10647.16842180682
 20
9374.04449715861
 30
0.0
 40
96.0
 41
0.0
 71
     5
 72
     1
  1
棚 2段
  7
STYLE1
 11
0.0000000000000003
 21
1.0
 31
0.0
 73
     1
 44
1.0
1001
ACAD
1000
MTEXTBEGIN
1070
    73
1070
     1
1070
    44
1040
1.0
1070
    74
1070
     0
1000
MTEXTEND
  0
MTEXT
  5
178F4
330
747D
100
AcDbEntity
  8
寸法
 62
     7
 48
50.0
100
AcDbMText
 10
10647.16842180684
 20
8284.044497158578
 30
0.0
 40
96.0
 41
0.0
 71
     5
 72
     1
  1
棚 2段
  7
STYLE1
 11
0.0000000000000003
 21
1.0
 31
0.0
 73
     1
 44
1.0
1001
ACAD
1000
MTEXTBEGIN
1070
    73
1070
     1
1070
    44
1040
1.0
1070
    74
1070
     0
1000
MTEXTEND
  0
DIMENSION
  5
17DA8
330
747D
100
AcDbEntity
  8
寸法
100
AcDbDimension
  2
*D29
 10
10667.66626755552
 20
7506.687591694758
 30
0.0
 11
10867.66986832229
 21
7506.687591694758
 31
0.0
 70
   160
 71
     5
 42
449.9999999999963
  3
INABA_S40G
100
AcDbAlignedDimension
 13
11022.45321339076
 23
7862.027547381408
 33
0.0
 14
10572.45321339076
 24
7862.027547381408
 34
0.0
100
AcDbRotatedDimension
1001
ACAD
1000
DSTYLE
1002
{
1002
}
  0
LINE
  5
18387
330
747D
100
AcDbEntity
  8
部品1
 48
50.0
100
AcDbLine
 10
9737.453213390732
 20
9987.027547381329
 30
0.0
 11
9737.453213390821
 21
7890.027547381329
 31
0.0
  0
LINE
  5
1838A
330
747D
100
AcDbEntity
  8
部品1
 48
50.0
100
AcDbLine
 10
10157.45321339073
 20
9987.027547381329
 30
0.0
 11
10157.45321339082
 21
7890.027547381329
 31
0.0
  0
LINE
  5
1838B
330
747D
100
AcDbEntity
  8
破線
 48
10.0
100
AcDbLine
 10
9342.453213390687
 20
9259.027547381361
 30
0.0
 11
9342.453213390703
 21
8618.027547381357
 31
0.0
  0
LINE
  5
18465
330
747D
100
AcDbEntity
  8
細線
 48
50.0
100
AcDbLine
 10
9840.453213390681
 20
7761.527721558227
 30
0.0
 11
9958.953213390682
 21
7761.527721558227
 31
0.0
  0
LINE
  5
18466
330
747D
100
AcDbEntity
  8
細線
 48
50.0
100
AcDbLine
 10
9928.953213390684
 20
7778.677721558224
 30
0.0
 11
9928.953213390684
 21
7783.527721558228
 31
0.0
  0
LINE
  5
18467
330
747D
100
AcDbEntity
  8
細線
 48
50.0
100
AcDbLine
 10
9928.953213390684
 20
7783.527721558228
 30
0.0
 11
9943.953213390685
 21
7783.527721558228
 31
0.0
  0
LINE
  5
18468
330
747D
100
AcDbEntity
  8
細線
 48
50.0
100
AcDbLine
 10
9943.953213390685
 20
7783.527721558228
 30
0.0
 11
9943.953213390686
 21
7790.527721558227
 31
0.0
  0
LINE
  5
18469
330
747D
100
AcDbEntity
  8
細線
 48
50.0
100
AcDbLine
 10
9943.953213390686
 20
7790.527721558227
 30
0.0
 11
9958.953213390685
 21
7790.527721558227
 31
0.0
  0
LINE
  5
1846A
330
747D
100
AcDbEntity
  8
細線
 48
50.0
100
AcDbLine
 10
9958.953213390685
 20
7790.527721558227
 30
0.0
 11
9958.953213390685
 21
7761.527721558228
 31
0.0
  0
LINE
  5
1846B
330
747D
100
AcDbEntity
  8
細線
 48
50.0
100
AcDbLine
 10
9947.953213390686
 20
7813.023915823734
 30
0.0
 11
9947.953213390686
 21
7817.523915823733
 31
0.0
  0
LINE
  5
1846C
330
747D
100
AcDbEntity
  8
細線
 48
50.0
100
AcDbLine
 10
9947.953213390686
 20
7817.523915823733
 30
0.0
 11
9932.953213390685
 21
7817.523915823733
 31
0.0
  0
LINE
  5
1846D
330
747D
100
AcDbEntity
  8
細線
 48
50.0
100
AcDbLine
 10
9932.953213390685
 20
7817.523915823733
 30
0.0
 11
9932.953213390685
 21
7824.523915823734
 31
0.0
  0
LINE
  5
1846E
330
747D
100
AcDbEntity
  8
細線
 48
50.0
100
AcDbLine
 10
9932.953213390685
 20
7824.523915823734
 30
0.0
 11
9917.953213390688
 21
7824.523915823729
 31
0.0
  0
LINE
  5
1846F
330
747D
100
AcDbEntity
  8
細線
 48
50.0
100
AcDbLine
 10
9917.953213390688
 20
7824.523915823729
 30
0.0
 11
9917.953213390688
 21
7786.923687720619
 31
0.0
  0
LINE
  5
18470
330
747D
100
AcDbEntity
  8
細線
 48
50.0
100
AcDbLine
 10
9917.953213390688
 20
7786.923687720619
 30
0.0
 11
9937.953220691861
 21
7786.923729270161
 31
0.0
  0
LINE
  5
18471
330
747D
100
AcDbEntity
  8
細線
 48
50.0
100
AcDbLine
 10
9937.95317582292
 20
7795.527190905969
 30
0.0
 11
9937.953220691861
 21
7786.923729270161
 31
0.0
  0
LINE
  5
18472
330
747D
100
AcDbEntity
  8
細線
 48
50.0
100
AcDbLine
 10
9937.95317582292
 20
7795.527190905969
 30
0.0
 11
9949.18586517763
 21
7795.527373859115
 31
0.0
  0
ARC
  5
18473
330
747D
100
AcDbEntity
  8
細線
 48
50.0
100
AcDbCircle
 10
9955.768157484966
 20
7794.327537772729
 30
0.0
 40
1.8
100
AcDbArc
 50
270.0006665777295
 51
345.0005554812987
  0
LINE
  5
18474
330
747D
100
AcDbEntity
  8
細線
 48
50.0
100
AcDbLine
 10
9957.754590931045
 20
7794.786378230007
 30
0.0
 11
9957.506828488845
 21
7793.861680347901
 31
0.0
  0
LINE
  5
18475
330
747D
100
AcDbEntity
  8
細線
 48
50.0
100
AcDbLine
 10
9955.76817842612
 20
7792.52753777285
 30
0.0
 11
9952.138251007353
 21
7792.527495542369
 31
0.0
  0
ARC
  5
18476
330
747D
100
AcDbEntity
  8
細線
 48
50.0
100
AcDbCircle
 10
9952.1382300662
 20
7794.327495542248
 30
0.0
 40
1.8
100
AcDbArc
 50
195.0010443049394
 51
270.0006665777295
  0
LINE
  5
18477
330
747D
100
AcDbEntity
  8
細線
 48
50.0
100
AcDbLine
 10
9950.151802573941
 20
7794.786210509812
 30
0.0
 11
9950.399572070454
 21
7793.861589571232
 31
0.0
  0
ARC
  5
18478
330
747D
100
AcDbEntity
  8
細線
 48
50.0
100
AcDbCircle
 10
9949.185881465194
 20
7794.52737385925
 30
0.0
 40
1.0
100
AcDbArc
 50
15.00104430493943
 51
90.00093320877969
  0
LINE
  5
18479
330
747D
100
AcDbEntity
  8
細線
 48
50.0
100
AcDbLine
 10
9958.720512286149
 20
7795.527568549521
 30
0.0
 11
9959.662272437054
 21
7795.52757512337
 31
0.0
  0
ARC
  5
1847A
330
747D
100
AcDbEntity
  8
細線
 48
50.0
100
AcDbCircle
 10
9958.720519266535
 20
7794.527568549546
 30
0.0
 40
1.0
100
AcDbArc
 50
90.0003999466794
 51
165.0005554812987
  0
LINE
  5
1847B
330
747D
100
AcDbEntity
  8
細線
 48
50.0
100
AcDbLine
 10
10994.95321339068
 20
7854.527547381275
 30
0.0
 11
10994.95321339068
 21
7829.527547381272
 31
0.0
  0
LINE
  5
1847C
330
747D
100
AcDbEntity
  8
細線
100
AcDbLine
 10
10985.45321339068
 20
7829.527547381271
 30
0.0
 11
10877.45321339068
 21
7829.527547381271
 31
0.0
  0
LINE
  5
1847D
330
747D
100
AcDbEntity
  8
細線
 48
50.0
100
AcDbLine
 10
10409.95321854159
 20
7821.527547381275
 30
0.0
 11
10409.95321854159
 21
7859.527547381268
 31
0.0
  0
LINE
  5
1847E
330
747D
100
AcDbEntity
  8
細線
 48
50.0
100
AcDbLine
 10
10409.95321854159
 20
7859.527547381268
 30
0.0
 11
10424.95321854159
 21
7859.52754738127
 31
0.0
  0
LINE
  5
1847F
330
747D
100
AcDbEntity
  8
細線
 48
50.0
100
AcDbLine
 10
10424.95321854159
 20
7859.52754738127
 30
0.0
 11
10424.95321854159
 21
7854.527547381271
 31
0.0
  0
LINE
  5
18480
330
747D
100
AcDbEntity
  8
細線
 48
50.0
100
AcDbLine
 10
10409.95321854159
 20
7821.527547381275
 30
0.0
 11
10429.95321854159
 21
7821.527547381271
 31
0.0
  0
LINE
  5
18481
330
747D
100
AcDbEntity
  8
細線
 48
50.0
100
AcDbLine
 10
10429.95321854159
 20
7821.527547381271
 30
0.0
 11
10429.95321854159
 21
7829.527547381271
 31
0.0
  0
LINE
  5
18482
330
747D
100
AcDbEntity
  8
細線
100
AcDbLine
 10
10667.45321339068
 20
7829.527547381271
 30
0.0
 11
10597.45321339068
 21
7829.527547381271
 31
0.0
  0
LINE
  5
18483
330
747D
100
AcDbEntity
  8
細線
 48
50.0
100
AcDbLine
 10
10527.45321339068
 20
7829.527547381269
 30
0.0
 11
10442.74899811443
 21
7829.527547381271
 31
0.0
  0
LINE
  5
18484
330
747D
100
AcDbEntity
  8
細線
100
AcDbLine
 10
10807.45321339068
 20
7829.527547381271
 30
0.0
 11
10737.45321339068
 21
7829.527547381271
 31
0.0
  0
LINE
  5
18485
330
747D
100
AcDbEntity
  8
細線
100
AcDbLine
 10
10635.45321339068
 20
7829.527547381269
 30
0.0
 11
10635.45321339068
 21
7858.827547381268
 31
0.0
  0
LINE
  5
18486
330
747D
100
AcDbEntity
  8
細線
100
AcDbLine
 10
10615.45321339068
 20
7858.827547381268
 30
0.0
 11
10635.45321339068
 21
7858.827547381268
 31
0.0
  0
LINE
  5
18487
330
747D
100
AcDbEntity
  8
細線
100
AcDbLine
 10
10615.45321339068
 20
7829.527547381269
 30
0.0
 11
10615.45321339068
 21
7858.827547381268
 31
0.0
  0
LINE
  5
18488
330
747D
100
AcDbEntity
  8
細線
 48
50.0
100
AcDbLine
 10
10979.05321339068
 20
7854.527547381272
 30
0.0
 11
10969.05321339068
 21
7859.527547381272
 31
0.0
  0
LINE
  5
18489
330
747D
100
AcDbEntity
  8
細線
 48
50.0
100
AcDbLine
 10
10994.95321339068
 20
7854.527547381275
 30
0.0
 11
10979.05321339068
 21
7854.527547381272
 31
0.0
  0
LINE
  5
1848A
330
747D
100
AcDbEntity
  8
細線
 48
50.0
100
AcDbLine
 10
10969.05321339069
 20
7859.527547381269
 30
0.0
 11
10424.95321854159
 21
7859.527547381268
 31
0.0
  0
LINE
  5
1848B
330
747D
100
AcDbEntity
  8
細線
 48
50.0
100
AcDbLine
 10
10435.95321854159
 20
7828.727547381271
 30
0.0
 11
10435.95321854159
 21
7827.227547381271
 31
0.0
  0
LINE
  5
1848C
330
747D
100
AcDbEntity
  8
細線
 48
50.0
100
AcDbLine
 10
10436.65321854159
 20
7826.527547381271
 30
0.0
 11
10441.25321854159
 21
7826.527547381271
 31
0.0
  0
LINE
  5
1848D
330
747D
100
AcDbEntity
  8
細線
 48
50.0
100
AcDbLine
 10
10441.95321854159
 20
7827.227547381271
 30
0.0
 11
10441.9532253667
 21
7828.727562272759
 31
0.0
  0
ARC
  5
1848E
330
747D
100
AcDbEntity
  8
細線
 48
50.0
100
AcDbCircle
 10
10441.25321854159
 20
7827.227547381271
 30
0.0
 40
0.7
100
AcDbArc
 50
270.0
 51
0.0
  0
ARC
  5
1848F
330
747D
100
AcDbEntity
  8
細線
 48
50.0
100
AcDbCircle
 10
10436.65321854159
 20
7827.227547381271
 30
0.0
 40
0.7
100
AcDbArc
 50
180.0
 51
270.0
  0
LINE
  5
18490
330
747D
100
AcDbEntity
  8
細線
 48
50.0
100
AcDbLine
 10
10435.15322040303
 20
7829.527547381271
 30
0.0
 11
10429.95321854159
 21
7829.527547381271
 31
0.0
  0
ARC
  5
18491
330
747D
100
AcDbEntity
  8
細線
 48
50.0
100
AcDbCircle
 10
10442.7532253667
 20
7828.727558549889
 30
0.0
 40
0.8
100
AcDbArc
 50
90.00014387753465
 51
179.9997333689498
  0
ARC
  5
18492
330
747D
100
AcDbEntity
  8
細線
 48
50.0
100
AcDbCircle
 10
10435.1532185416
 20
7828.727547381271
 30
0.0
 40
0.8
100
AcDbArc
 50
359.9997333689499
 51
89.99986668437072
  0
LINE
  5
18493
330
747D
100
AcDbEntity
  8
細線
 48
50.0
100
AcDbLine
 10
10149.45317807179
 20
7795.527559243858
 30
0.0
 11
10079.45316078391
 21
7795.527559243865
 31
0.0
  0
LINE
  5
18494
330
747D
100
AcDbEntity
  8
細線
 48
50.0
100
AcDbLine
 10
10009.45321339068
 20
7795.527567431228
 30
0.0
 11
9959.662272437054
 21
7795.52757512337
 31
0.0
  0
LINE
  5
18495
330
747D
100
AcDbEntity
  8
細線
 48
50.0
100
AcDbLine
 10
10359.45320515392
 20
7795.527559243861
 30
0.0
 11
10450.95321339068
 21
7795.527559243861
 31
0.0
  0
LINE
  5
18496
330
747D
100
AcDbEntity
  8
細線
 48
50.0
100
AcDbLine
 10
10289.45321339068
 20
7795.527556493856
 30
0.0
 11
10219.45345728768
 21
7795.527561993889
 31
0.0
  0
LINE
  5
18497
330
747D
100
AcDbEntity
  8
細線
 48
50.0
100
AcDbLine
 10
10450.9532236925
 20
7824.527765416134
 30
0.0
 11
10450.95321339068
 21
7795.527559243861
 31
0.0
  0
LINE
  5
18498
330
747D
100
AcDbEntity
  8
細線
 48
50.0
100
AcDbLine
 10
10435.95322552197
 20
7824.527765416134
 30
0.0
 11
10450.9532236925
 21
7824.527765416134
 31
0.0
  0
LINE
  5
18499
330
747D
100
AcDbEntity
  8
細線
 48
50.0
100
AcDbLine
 10
10435.953213888
 20
7817.527765416091
 30
0.0
 11
10435.95322552197
 21
7824.527765416134
 31
0.0
  0
LINE
  5
1849A
330
747D
100
AcDbEntity
  8
細線
 48
50.0
100
AcDbLine
 10
10420.953213888
 20
7817.527765416091
 30
0.0
 11
10435.953213888
 21
7817.527765416091
 31
0.0
  0
LINE
  5
1849B
330
747D
100
AcDbEntity
  8
細線
 48
50.0
100
AcDbLine
 10
10420.953213888
 20
7812.677765416093
 30
0.0
 11
10420.953213888
 21
7817.527765416091
 31
0.0
  0
LINE
  5
1849C
330
747D
100
AcDbEntity
  8
細線
 48
50.0
100
AcDbLine
 10
10420.953213888
 20
7816.127765416092
 30
0.0
 11
9947.953213390686
 21
7816.127765416088
 31
0.0
  0
LINE
  5
1849D
330
747D
100
AcDbEntity
  8
細線
 48
50.0
100
AcDbLine
 10
9928.953213390684
 20
7782.127721558225
 30
0.0
 11
9343.453218044274
 21
7782.127721558225
 31
0.0
  0
LINE
  5
1849E
330
747D
100
AcDbEntity
  8
細線
 48
50.0
100
AcDbLine
 10
9751.836305061377
 20
7779.798572848719
 30
0.0
 11
9757.591822644046
 21
7761.527721558225
 31
0.0
  0
LINE
  5
1849F
330
747D
100
AcDbEntity
  8
細線
 48
50.0
100
AcDbLine
 10
9740.907856580946
 20
7779.798572848716
 30
0.0
 11
9751.836305061377
 21
7779.798572848719
 31
0.0
  0
ARC
  5
184A0
330
747D
100
AcDbEntity
  8
細線
 48
50.0
100
AcDbCircle
 10
9735.453500523627
 20
7781.298572848716
 30
0.0
 40
5.0
100
AcDbArc
 50
204.6243183521304
 51
335.3756816478695
  0
ARC
  5
184A1
330
747D
100
AcDbEntity
  8
細線
 48
50.0
100
AcDbCircle
 10
9740.907856580946
 20
7778.798572848716
 30
0.0
 40
1.0
100
AcDbArc
 50
90.0
 51
155.3756816478695
  0
ARC
  5
184A2
330
747D
100
AcDbEntity
  8
細線
 48
50.0
100
AcDbCircle
 10
9729.999144466312
 20
7778.798572848716
 30
0.0
 40
1.0
100
AcDbArc
 50
24.62431835213048
 51
90.0
  0
LINE
  5
184A3
330
747D
100
AcDbEntity
  8
細線
 48
50.0
100
AcDbLine
 10
9719.070695985879
 20
7779.798572848719
 30
0.0
 11
9729.999144466312
 21
7779.798572848716
 31
0.0
  0
LINE
  5
184A4
330
747D
100
AcDbEntity
  8
細線
 48
50.0
100
AcDbLine
 10
9713.31517840321
 20
7761.527721558225
 30
0.0
 11
9719.070695985879
 21
7779.798572848719
 31
0.0
  0
LINE
  5
184A5
330
747D
100
AcDbEntity
  8
細線
 48
50.0
100
AcDbLine
 10
9700.453213390682
 20
7761.527721558225
 30
0.0
 11
9770.45321339068
 21
7761.527721558225
 31
0.0
  0
LINE
  5
184A6
330
747D
100
AcDbEntity
  8
細線
 48
50.0
100
AcDbLine
 10
9320.453213390683
 20
7761.525055901696
 30
0.0
 11
9630.453766495111
 21
7761.528942801891
 31
0.0
  0
LINE
  5
184A7
330
747D
100
AcDbEntity
  8
細線
 48
50.0
100
AcDbLine
 10
9343.453218044274
 20
7790.523871965864
 30
0.0
 11
9329.453213390683
 21
7790.523871965861
 31
0.0
  0
LINE
  5
184A8
330
747D
100
AcDbEntity
  8
細線
 48
50.0
100
AcDbLine
 10
9343.453218044274
 20
7782.127721558225
 30
0.0
 11
9343.453218044274
 21
7790.523871965864
 31
0.0
  0
LINE
  5
184A9
330
747D
100
AcDbEntity
  8
細線
  6
Continuous
 62
     5
100
AcDbLine
 10
10422.95321854159
 20
7814.527547381267
 30
0.0
 11
10422.95321854159
 21
7814.527547381267
 31
0.0
  0
LINE
  5
184AA
330
747D
100
AcDbEntity
  8
部品1
100
AcDbLine
 10
9320.453213390683
 20
7756.527547381271
 30
0.0
 11
11024.45321339068
 21
7756.527547381269
 31
0.0
  0
LINE
  5
184AB
330
747D
100
AcDbEntity
  8
部品1
100
AcDbLine
 10
10994.45321339068
 20
7756.527547381272
 30
0.0
 11
11024.45321339068
 21
7756.527547381272
 31
0.0
  0
LINE
  5
184AC
330
747D
100
AcDbEntity
  8
部品1
100
AcDbLine
 10
9317.453213390683
 20
7860.527547381266
 30
0.0
 11
10997.45321339068
 21
7860.527547381271
 31
0.0
  0
LINE
  5
184AD
330
747D
100
AcDbEntity
  8
部品1
100
AcDbLine
 10
9317.453213390683
 20
7860.527547381266
 30
0.0
 11
9317.453213390683
 21
7829.527547381271
 31
0.0
  0
LINE
  5
184AE
330
747D
100
AcDbEntity
  8
部品1
100
AcDbLine
 10
9329.453213390683
 20
7829.527547381271
 30
0.0
 11
9329.453213390683
 21
7765.527547381271
 31
0.0
  0
LINE
  5
184AF
330
747D
100
AcDbEntity
  8
部品1
100
AcDbLine
 10
9290.453213390684
 20
7756.527547381271
 30
0.0
 11
9290.453213390684
 21
7833.527547381271
 31
0.0
  0
LINE
  5
184B0
330
747D
100
AcDbEntity
  8
部品1
100
AcDbLine
 10
9320.453213390683
 20
7756.527547381271
 30
0.0
 11
9290.453213390684
 21
7756.527547381271
 31
0.0
  0
LINE
  5
184B1
330
747D
100
AcDbEntity
  8
部品1
100
AcDbLine
 10
9329.453213390683
 20
7765.527547381271
 30
0.0
 11
9320.453213390683
 21
7765.527547381271
 31
0.0
  0
LINE
  5
184B2
330
747D
100
AcDbEntity
  8
部品1
100
AcDbLine
 10
9320.453213390683
 20
7765.527547381271
 30
0.0
 11
9320.453213390683
 21
7756.527547381271
 31
0.0
  0
LINE
  5
184B3
330
747D
100
AcDbEntity
  8
部品1
100
AcDbLine
 10
9290.453213390684
 20
7833.527547381271
 30
0.0
 11
9317.453213390683
 21
7833.527547381271
 31
0.0
  0
LINE
  5
184B4
330
747D
100
AcDbEntity
  8
部品1
100
AcDbLine
 10
9329.453213390683
 20
7829.527547381271
 30
0.0
 11
9317.453213390683
 21
7829.527547381271
 31
0.0
  0
LINE
  5
184B5
330
747D
100
AcDbEntity
  8
部品1
100
AcDbLine
 10
10997.45321339068
 20
7860.527547381273
 30
0.0
 11
10997.45321339068
 21
7829.527547381272
 31
0.0
  0
LINE
  5
184B6
330
747D
100
AcDbEntity
  8
部品1
100
AcDbLine
 10
10985.45321339068
 20
7829.527547381272
 30
0.0
 11
10985.45321339068
 21
7765.527547381272
 31
0.0
  0
LINE
  5
184B7
330
747D
100
AcDbEntity
  8
部品1
100
AcDbLine
 10
10985.45321339068
 20
7765.527547381272
 30
0.0
 11
10994.45321339068
 21
7765.527547381272
 31
0.0
  0
LINE
  5
184B8
330
747D
100
AcDbEntity
  8
部品1
100
AcDbLine
 10
10994.45321339068
 20
7765.527547381272
 30
0.0
 11
10994.45321339068
 21
7756.527547381272
 31
0.0
  0
LINE
  5
184B9
330
747D
100
AcDbEntity
  8
部品1
100
AcDbLine
 10
10985.45321339068
 20
7829.527547381272
 30
0.0
 11
10997.45321339068
 21
7829.527547381272
 31
0.0
  0
LINE
  5
184BA
330
747D
100
AcDbEntity
  8
部品1
100
AcDbLine
 10
11024.45321339068
 20
7756.527547381272
 30
0.0
 11
11024.45321339068
 21
7833.527547381271
 31
0.0
  0
LINE
  5
184BC
330
747D
100
AcDbEntity
  8
部品1
100
AcDbLine
 10
10997.45321339068
 20
7833.527547381271
 30
0.0
 11
11024.45321339068
 21
7833.527547381271
 31
0.0
  0
DIMENSION
  5
184BD
330
747D
100
AcDbEntity
  8
寸法
 48
50.0
100
AcDbDimension
  2
*D30
 10
10279.45321339068
 20
7131.452529333046
 30
0.0
 11
9804.453213390685
 21
7131.452529333046
 31
0.0
 70
   160
  1
有効開口部間口\P<>
 71
     5
 42
950.0
  3
INABA_S40
100
AcDbAlignedDimension
 13
9329.453213390683
 23
7756.527547381271
 33
0.0
 14
10279.45321339068
 24
7756.527547381271
 34
0.0
100
AcDbRotatedDimension
1001
ACAD
1000
DSTYLE
1002
{
1070
    41
1040
0.5
1070
    44
1040
1.0
1070
   147
1040
0.8
1070
   271
1070
     2
1070
   272
1070
     2
1070
   289
1070
     3
1070
   340
1005
F706
1070
   343
1005
16138
1070
   344
1005
16138
1002
}
  0
LINE
  5
184BE
330
747D
100
AcDbEntity
  8
細線
100
AcDbLine
 10
9329.453213390683
 20
7765.527547381271
 30
0.0
 11
9329.453213390683
 21
7761.527547381319
 31
0.0
  0
LINE
  5
184BF
330
747D
100
AcDbEntity
  8
細線
100
AcDbLine
 10
9485.953106791944
 20
7779.526616926871
 30
0.0
 11
9485.953106791944
 21
7761.526616926845
 31
0.0
  0
LINE
  5
184C0
330
747D
100
AcDbEntity
  8
細線
100
AcDbLine
 10
9444.953106791945
 20
7779.526616926863
 30
0.0
 11
9444.953106791945
 21
7761.526616926845
 31
0.0
  0
LINE
  5
184C1
330
747D
100
AcDbEntity
  8
細線
100
AcDbLine
 10
9485.953106791944
 20
7779.526616926871
 30
0.0
 11
9444.953106791945
 21
7779.526616926863
 31
0.0
  0
ARC
  5
184C2
330
747D
100
AcDbEntity
  8
部品1
100
AcDbCircle
 10
9447.497262669221
 20
7761.026616926867
 30
0.0
 40
1.0
100
AcDbArc
 50
270.0
 51
19.47122063442214
  0
LINE
  5
184C3
330
747D
100
AcDbEntity
  8
部品1
 48
0.01
100
AcDbLine
 10
9440.453106791938
 20
7761.526616926868
 30
0.0
 11
9440.453106791938
 21
7760.526616926867
 31
0.0
  0
LINE
  5
184C4
330
747D
100
AcDbEntity
  8
部品1
 48
0.01
100
AcDbLine
 10
9440.953106791937
 20
7760.026616926868
 30
0.0
 11
9447.497262669221
 21
7760.026616926868
 31
0.0
  0
ARC
  5
184C5
330
747D
100
AcDbEntity
  8
部品1
 48
0.01
100
AcDbCircle
 10
9440.953106791937
 20
7760.526616926867
 30
0.0
 40
0.5
100
AcDbArc
 50
180.0
 51
270.0
  0
ARC
  5
184C6
330
747D
100
AcDbEntity
  8
部品1
100
AcDbCircle
 10
9472.953106791939
 20
7770.026616926867
 30
0.0
 40
26.0
100
AcDbArc
 50
180.0
 51
199.4712206344221
  0
ARC
  5
184C7
330
747D
100
AcDbEntity
  8
部品1
 48
0.01
100
AcDbCircle
 10
9448.953106791938
 20
7775.026616926867
 30
0.0
 40
2.0
100
AcDbArc
 50
90.0
 51
180.0
  0
LINE
  5
184C8
330
747D
100
AcDbEntity
  8
部品1
100
AcDbLine
 10
9446.953106791937
 20
7770.026616926867
 30
0.0
 11
9446.953106791937
 21
7775.026616926867
 31
0.0
  0
ARC
  5
184C9
330
747D
100
AcDbEntity
  8
部品1
100
AcDbCircle
 10
9465.453106791938
 20
7785.82661692687
 30
0.0
 40
16.0
100
AcDbArc
 50
218.3930440192126
 51
254.0576313943215
  0
ARC
  5
184CA
330
747D
100
AcDbEntity
  8
部品1
100
AcDbCircle
 10
9450.56149841675
 20
7774.026616926867
 30
0.0
 40
3.0
100
AcDbArc
 50
38.39304401921267
 51
90.0
  0
LINE
  5
184CB
330
747D
100
AcDbEntity
  8
部品1
 48
0.01
100
AcDbLine
 10
9448.953106791938
 20
7777.026616926867
 30
0.0
 11
9450.56149841675
 21
7777.026616926867
 31
0.0
  0
ARC
  5
184CC
330
747D
100
AcDbEntity
  8
部品1
100
AcDbCircle
 10
9465.453106791938
 20
7785.82661692687
 30
0.0
 40
16.0
100
AcDbArc
 50
285.9423686056786
 51
321.6069559807873
  0
LINE
  5
184CD
330
747D
100
AcDbEntity
  8
部品1
100
AcDbLine
 10
9469.023821006208
 20
7770.32661692687
 30
0.0
 11
9461.882392577667
 21
7770.32661692687
 31
0.0
  0
ARC
  5
184CE
330
747D
100
AcDbEntity
  8
部品1
100
AcDbCircle
 10
9469.023821006208
 20
7773.32661692687
 30
0.0
 40
3.0
100
AcDbArc
 50
270.0
 51
285.9423686056786
  0
ARC
  5
184CF
330
747D
100
AcDbEntity
  8
部品1
100
AcDbCircle
 10
9461.882392577667
 20
7773.32661692687
 30
0.0
 40
3.0
100
AcDbArc
 50
254.0576313943215
 51
270.0
  0
LINE
  5
184D0
330
747D
100
AcDbEntity
  8
部品1
 48
0.01
100
AcDbLine
 10
9481.953106791939
 20
7777.026616926867
 30
0.0
 11
9480.344715167126
 21
7777.026616926867
 31
0.0
  0
ARC
  5
184D1
330
747D
100
AcDbEntity
  8
部品1
100
AcDbCircle
 10
9480.344715167126
 20
7774.026616926867
 30
0.0
 40
3.0
100
AcDbArc
 50
90.0
 51
141.6069559807873
  0
ARC
  5
184D2
330
747D
100
AcDbEntity
  8
部品1
 48
0.01
100
AcDbCircle
 10
9481.953106791939
 20
7775.026616926867
 30
0.0
 40
2.0
100
AcDbArc
 50
0.0
 51
90.0
  0
LINE
  5
184D3
330
747D
100
AcDbEntity
  8
部品1
100
AcDbLine
 10
9483.953106791938
 20
7770.026616926867
 30
0.0
 11
9483.953106791938
 21
7775.026616926867
 31
0.0
  0
ARC
  5
184D4
330
747D
100
AcDbEntity
  8
部品1
100
AcDbCircle
 10
9457.953106791938
 20
7770.026616926867
 30
0.0
 40
26.0
100
AcDbArc
 50
340.5287793655779
 51
0.0
  0
ARC
  5
184D5
330
747D
100
AcDbEntity
  8
部品1
100
AcDbCircle
 10
9483.408950914656
 20
7761.026616926867
 30
0.0
 40
1.0
100
AcDbArc
 50
160.5287793655778
 51
270.0
  0
LINE
  5
184D6
330
747D
100
AcDbEntity
  8
部品1
 48
0.01
100
AcDbLine
 10
9489.953106791938
 20
7760.026616926868
 30
0.0
 11
9483.340601361875
 21
7760.026616926868
 31
0.0
  0
LINE
  5
184D7
330
747D
100
AcDbEntity
  8
部品1
 48
0.01
100
AcDbLine
 10
9490.453106791937
 20
7761.526616926868
 30
0.0
 11
9490.453106791937
 21
7760.526616926867
 31
0.0
  0
LINE
  5
184D8
330
747D
100
AcDbEntity
  8
部品1
 48
0.01
100
AcDbLine
 10
9490.453106791937
 20
7761.526616926868
 30
0.0
 11
9490.453106791937
 21
7760.526616926867
 31
0.0
  0
ARC
  5
184D9
330
747D
100
AcDbEntity
  8
部品1
 48
0.01
100
AcDbCircle
 10
9489.953106791938
 20
7760.526616926867
 30
0.0
 40
0.5
100
AcDbArc
 50
270.0
 51
0.0
  0
LINE
  5
184DA
330
747D
100
AcDbEntity
  8
細線
100
AcDbLine
 10
9630.453205205265
 20
7761.527739111935
 30
0.0
 11
9632.784743496033
 21
7766.52773911192
 31
0.0
  0
LINE
  5
184DB
330
747D
100
AcDbEntity
  8
細線
100
AcDbLine
 10
9700.453213390682
 20
7761.527721558225
 30
0.0
 11
9698.121666914495
 21
7766.527739111904
 31
0.0
  0
LINE
  5
184DC
330
747D
100
AcDbEntity
  8
細線
100
AcDbLine
 10
9698.121666914495
 20
7766.527739111904
 30
0.0
 11
9632.784743496021
 21
7766.527739111892
 31
0.0
  0
LINE
  5
184DD
330
747D
100
AcDbEntity
  8
細線
100
AcDbLine
 10
9838.121666914496
 20
7766.527739111904
 30
0.0
 11
9772.784743496021
 21
7766.527739111895
 31
0.0
  0
LINE
  5
184DE
330
747D
100
AcDbEntity
  8
細線
100
AcDbLine
 10
9840.453213390681
 20
7761.527721558225
 30
0.0
 11
9838.121666914496
 21
7766.527739111904
 31
0.0
  0
LINE
  5
184DF
330
747D
100
AcDbEntity
  8
細線
100
AcDbLine
 10
9770.453205205265
 20
7761.527739111939
 30
0.0
 11
9772.784743496034
 21
7766.527739111925
 31
0.0
  0
LINE
  5
184E0
330
747D
100
AcDbEntity
  8
細線
100
AcDbLine
 10
10077.12167509991
 20
7800.527567431195
 30
0.0
 11
10011.78475168143
 21
7800.527567431183
 31
0.0
  0
LINE
  5
184E1
330
747D
100
AcDbEntity
  8
細線
100
AcDbLine
 10
10079.4532215761
 20
7795.527549877518
 30
0.0
 11
10077.12167509991
 21
7800.527567431195
 31
0.0
  0
LINE
  5
184E2
330
747D
100
AcDbEntity
  8
細線
100
AcDbLine
 10
10009.45321339068
 20
7795.527567431228
 30
0.0
 11
10011.78475168145
 21
7800.527567431213
 31
0.0
  0
LINE
  5
184E3
330
747D
100
AcDbEntity
  8
細線
100
AcDbLine
 10
10149.45317807179
 20
7795.527559243858
 30
0.0
 11
10151.78471636255
 21
7800.527559243843
 31
0.0
  0
LINE
  5
184E4
330
747D
100
AcDbEntity
  8
細線
100
AcDbLine
 10
10219.4531862572
 20
7795.527541690147
 30
0.0
 11
10217.12163978101
 21
7800.527559243828
 31
0.0
  0
LINE
  5
184E5
330
747D
100
AcDbEntity
  8
細線
100
AcDbLine
 10
10217.12163978102
 20
7800.527559243828
 30
0.0
 11
10151.78471636254
 21
7800.527559243814
 31
0.0
  0
LINE
  5
184E6
330
747D
100
AcDbEntity
  8
細線
100
AcDbLine
 10
10357.12167633095
 20
7800.527538940086
 30
0.0
 11
10291.78475291248
 21
7800.527538940072
 31
0.0
  0
LINE
  5
184E7
330
747D
100
AcDbEntity
  8
細線
100
AcDbLine
 10
10359.45322280714
 20
7795.527521386405
 30
0.0
 11
10357.12167633095
 21
7800.527538940086
 31
0.0
  0
LINE
  5
184E8
330
747D
100
AcDbEntity
  8
細線
100
AcDbLine
 10
10289.45321339068
 20
7795.527536300141
 30
0.0
 11
10291.78475291249
 21
7800.527538940102
 31
0.0
  0
LINE
  5
184E9
330
747D
100
AcDbEntity
  8
細線
 48
50.0
100
AcDbLine
 10
10232.31543531523
 20
7795.527559243858
 30
0.0
 11
10238.0709528979
 21
7813.798410534352
 31
0.0
  0
LINE
  5
184EA
330
747D
100
AcDbEntity
  8
細線
 48
50.0
100
AcDbLine
 10
10238.0709528979
 20
7813.798410534352
 30
0.0
 11
10248.99940137833
 21
7813.798410534352
 31
0.0
  0
ARC
  5
184EB
330
747D
100
AcDbEntity
  8
細線
 48
50.0
100
AcDbCircle
 10
10248.99940137833
 20
7812.798410534352
 30
0.0
 40
1.0
100
AcDbArc
 50
24.62431835213048
 51
90.0
  0
ARC
  5
184EC
330
747D
100
AcDbEntity
  8
細線
 48
50.0
100
AcDbCircle
 10
10259.90811349297
 20
7812.798410534352
 30
0.0
 40
1.0
100
AcDbArc
 50
90.0
 51
155.3756816478695
  0
ARC
  5
184ED
330
747D
100
AcDbEntity
  8
細線
 48
50.0
100
AcDbCircle
 10
10254.45375743565
 20
7815.298410534352
 30
0.0
 40
5.0
100
AcDbArc
 50
204.6243183521304
 51
335.3756816478695
  0
LINE
  5
184EE
330
747D
100
AcDbEntity
  8
細線
 48
50.0
100
AcDbLine
 10
10259.90811349297
 20
7813.798410534352
 30
0.0
 11
10270.8365619734
 21
7813.798410534352
 31
0.0
  0
LINE
  5
184EF
330
747D
100
AcDbEntity
  8
細線
 48
50.0
100
AcDbLine
 10
10270.8365619734
 20
7813.798410534352
 30
0.0
 11
10276.59207955607
 21
7795.527559243865
 31
0.0
  0
LINE
  5
184F0
330
747D
100
AcDbEntity
  8
細線
100
AcDbLine
 10
10595.12167633095
 20
7834.527550021218
 30
0.0
 11
10529.78475291248
 21
7834.527550021203
 31
0.0
  0
LINE
  5
184F1
330
747D
100
AcDbEntity
  8
細線
100
AcDbLine
 10
10597.45322280714
 20
7829.527532467537
 30
0.0
 11
10595.12167633095
 21
7834.527550021218
 31
0.0
  0
LINE
  5
184F2
330
747D
100
AcDbEntity
  8
細線
100
AcDbLine
 10
10527.45321339068
 20
7829.527547381271
 30
0.0
 11
10529.78475291249
 21
7834.527550021232
 31
0.0
  0
LINE
  5
184F3
330
747D
100
AcDbEntity
  8
細線
100
AcDbLine
 10
10667.45320397422
 20
7829.527562295004
 30
0.0
 11
10669.78474349603
 21
7834.527564934965
 31
0.0
  0
LINE
  5
184F4
330
747D
100
AcDbEntity
  8
細線
100
AcDbLine
 10
10737.45321339068
 20
7829.527547381271
 30
0.0
 11
10735.12166691449
 21
7834.527564934951
 31
0.0
  0
LINE
  5
184F5
330
747D
100
AcDbEntity
  8
細線
100
AcDbLine
 10
10735.12166691449
 20
7834.527564934951
 30
0.0
 11
10669.78474349602
 21
7834.527564934937
 31
0.0
  0
LINE
  5
184F6
330
747D
100
AcDbEntity
  8
細線
100
AcDbLine
 10
10875.12166691449
 20
7834.527564934951
 30
0.0
 11
10809.78474349602
 21
7834.527564934937
 31
0.0
  0
LINE
  5
184F7
330
747D
100
AcDbEntity
  8
細線
100
AcDbLine
 10
10877.45321339068
 20
7829.527547381271
 30
0.0
 11
10875.12166691449
 21
7834.527564934951
 31
0.0
  0
LINE
  5
184F8
330
747D
100
AcDbEntity
  8
細線
100
AcDbLine
 10
10807.45320397422
 20
7829.527562295004
 30
0.0
 11
10809.78474349603
 21
7834.527564934965
 31
0.0
  0
LINE
  5
184F9
330
747D
100
AcDbEntity
  8
細線
 48
50.0
100
AcDbLine
 10
9917.953213390688
 20
7805.723801772174
 30
0.0
 11
9329.453213390683
 21
7805.72380177217
 31
0.0
  0
LINE
  5
184FA
330
747D
100
AcDbEntity
  8
細線
 48
50.0
100
AcDbLine
 10
9958.953213390685
 20
7776.318893775921
 30
0.0
 11
10985.45321339068
 21
7776.318893775919
 31
0.0
  0
LINE
  5
184FB
330
747D
100
AcDbEntity
  8
細線
 48
50.0
100
AcDbLine
 10
10450.95321854159
 20
7810.027662329996
 30
0.0
 11
10985.45321339068
 21
7810.027662329997
 31
0.0
  0
LINE
  5
184FC
330
747D
100
AcDbEntity
  8
寸法
 48
50.0
100
AcDbLine
 10
9901.954032369083
 20
7644.786255435471
 30
0.0
 11
10121.1059725448
 21
7644.786255435471
 31
0.0
  0
LINE
  5
184FD
330
747D
100
AcDbEntity
  8
寸法
 48
50.0
100
AcDbLine
 10
10121.1059725448
 20
7644.786255435471
 30
0.0
 11
10031.82175394938
 21
7668.709889704956
 31
0.0
  0
LINE
  5
184FE
330
747D
100
AcDbEntity
  8
寸法
 48
50.0
100
AcDbLine
 10
10031.82175394938
 20
7668.709889704956
 30
0.0
 11
10031.82175394938
 21
7615.046255123167
 31
0.0
  0
LINE
  5
184FF
330
747D
100
AcDbEntity
  8
寸法
 48
50.0
100
AcDbLine
 10
9701.250211762426
 20
7611.564298950134
 30
0.0
 11
9752.656219672529
 21
7611.564298950134
 31
0.0
  0
LINE
  5
18500
330
747D
100
AcDbEntity
  8
寸法
 48
50.0
100
AcDbLine
 10
9752.656219672529
 20
7611.564298950134
 30
0.0
 11
9752.656219672529
 21
7642.8744576023
 31
0.0
  0
LINE
  5
18501
330
747D
100
AcDbEntity
  8
寸法
 48
50.0
100
AcDbLine
 10
9752.656219672529
 20
7642.8744576023
 30
0.0
 11
9782.417551663952
 21
7642.8744576023
 31
0.0
  0
LINE
  5
18502
330
747D
100
AcDbEntity
  8
寸法
 48
50.0
100
AcDbLine
 10
9782.417551663952
 20
7642.8744576023
 30
0.0
 11
9726.953215717477
 21
7680.45390853091
 31
0.0
  0
LINE
  5
18503
330
747D
100
AcDbEntity
  8
寸法
 48
50.0
100
AcDbLine
 10
9671.488879771002
 20
7642.8744576023
 30
0.0
 11
9726.953215717477
 21
7680.45390853091
 31
0.0
  0
LINE
  5
18504
330
747D
100
AcDbEntity
  8
寸法
 48
50.0
100
AcDbLine
 10
9701.250211762426
 20
7642.8744576023
 30
0.0
 11
9671.488879771002
 21
7642.8744576023
 31
0.0
  0
LINE
  5
18505
330
747D
100
AcDbEntity
  8
寸法
 48
50.0
100
AcDbLine
 10
9701.250211762426
 20
7611.564298950134
 30
0.0
 11
9701.250211762426
 21
7642.8744576023
 31
0.0
  0
LINE
  5
18506
330
747D
100
AcDbEntity
  8
寸法
 48
50.0
100
AcDbLine
 10
9752.656219672529
 20
7611.564298950134
 30
0.0
 11
9701.250211762426
 21
7611.564298950134
 31
0.0
  0
DIMENSION
  5
18710
330
747D
100
AcDbEntity
  8
寸法
 48
50.0
100
AcDbDimension
  2
*D31
 10
11024.45321339068
 20
6881.457277530491
 30
0.0
 11
10148.0349573425
 21
6881.457277530491
 31
0.0
 70
   160
 71
     5
 42
1734.0
  3
INABA_S40G
100
AcDbAlignedDimension
 13
9290.453213390684
 23
7756.527547381273
 33
0.0
 14
11024.45321339068
 24
7756.527547381271
 34
0.0
100
AcDbRotatedDimension
1001
ACAD
1000
DSTYLE
1002
{
1070
   341
1005
0
1002
}
  0
DIMENSION
  5
18711
330
747D
100
AcDbEntity
  8
寸法
100
AcDbDimension
  2
*D32
 10
8967.841967763996
 20
7758.527547381267
 30
0.0
 11
8967.841967763993
 21
7618.042266007029
 31
0.0
 70
   160
 71
     5
 42
75.0
  3
INABA_S40
100
AcDbAlignedDimension
 13
9262.453213390712
 23
7833.527547381267
 33
0.0
 14
9290.453213390691
 24
7758.527547381267
 34
0.0
 50
90.0
100
AcDbRotatedDimension
1001
ACAD
1000
DSTYLE
1002
{
1070
    41
1040
0.5
1070
    44
1040
1.0
1070
   147
1040
0.8
1070
   271
1070
     2
1070
   272
1070
     2
1070
   289
1070
     3
1070
   340
1005
F706
1070
   343
1005
16138
1070
   344
1005
16138
1002
}
  0
LINE
  5
187B5
330
747D
100
AcDbEntity
  8
部品1
100
AcDbLine
 10
10539.18854650493
 20
6362.451412994001
 30
0.0
 11
9775.717880276493
 21
6362.451412994001
 31
0.0
  0
LINE
  5
187B6
330
747D
100
AcDbEntity
  8
部品1
100
AcDbLine
 10
10539.18854650493
 20
6122.559091448469
 30
0.0
 11
10539.18854650493
 21
6362.451412994001
 31
0.0
  0
LINE
  5
187B7
330
747D
100
AcDbEntity
  8
部品1
100
AcDbLine
 10
9775.717880276493
 20
6122.559091448469
 30
0.0
 11
10539.18854650493
 21
6122.559091448469
 31
0.0
  0
LINE
  5
187B8
330
747D
100
AcDbEntity
  8
部品1
100
AcDbLine
 10
9775.717880276493
 20
6362.451412994001
 30
0.0
 11
9775.717880276493
 21
6122.559091448469
 31
0.0
  0
TEXT
  5
187EF
330
747D
100
AcDbEntity
  8
部品1
100
AcDbText
 10
9865.63749010553
 20
6169.557883775477
 30
0.0
 40
135.0
  1
平面図
  7
STYLE2
100
AcDbText
  0
DIMENSION
  5
187F0
330
747D
100
AcDbEntity
  8
寸法
100
AcDbDimension
  2
*D33
 10
11052.45321339069
 20
6641.699756636365
 30
0.0
 11
10145.59996372206
 21
6641.699756636365
 31
0.0
 70
   160
 71
     5
 42
1789.999999999982
  3
INABA_S40G
100
AcDbAlignedDimension
 13
9262.453213390712
 23
7833.527547381267
 33
0.0
 14
11052.45321339069
 24
7833.527547381397
 34
0.0
100
AcDbRotatedDimension
1001
ACAD
1000
DSTYLE
1002
{
1002
}
  0
LINE
  5
18A8A
330
747D
100
AcDbEntity
  8
破線
 48
10.0
100
AcDbLine
 10
9318.953213390761
 20
9259.027547381363
 30
0.0
 11
10572.45321339081
 21
9259.027547381355
 31
0.0
  0
LINE
  5
18A8B
330
747D
100
AcDbEntity
  8
破線
 48
10.0
100
AcDbLine
 10
9318.953213390757
 20
9309.027547381358
 30
0.0
 11
10572.45321339081
 21
9309.027547381367
 31
0.0
  0
LINE
  5
18A8C
330
747D
100
AcDbEntity
  8
破線
 48
10.0
100
AcDbLine
 10
9318.953213390789
 20
8618.027547381357
 30
0.0
 11
10572.45321339085
 21
8618.027547381359
 31
0.0
  0
LINE
  5
18A8D
330
747D
100
AcDbEntity
  8
破線
 48
10.0
100
AcDbLine
 10
9318.953213390793
 20
8568.02754738136
 30
0.0
 11
10572.45321339085
 21
8568.027547381356
 31
0.0
  0
LINE
  5
18A98
330
747D
100
AcDbEntity
  8
破線
 48
10.0
100
AcDbLine
 10
9342.453213390703
 20
8568.02754738136
 30
0.0
 11
9342.45321339071
 21
7913.527547381331
 31
0.0
  0
LWPOLYLINE
  5
18AE7
330
747D
100
AcDbEntity
  8
部品1
 48
50.0
100
AcDbPolyline
 90
        4
 70
     1
 43
0.0
 10
9389.503213390707
 20
3523.56819138772
 10
9392.403213390707
 20
3523.56819138772
 10
9392.403213390707
 20
3533.06819138772
 10
9389.503213390707
 20
3533.06819138772
  0
CIRCLE
  5
18AE8
330
747D
100
AcDbEntity
  8
部品1
 48
50.0
100
AcDbCircle
 10
9390.953213390707
 20
3528.31819138772
 30
0.0
 40
9.0
  0
ARC
  5
18AE9
330
747D
100
AcDbEntity
  8
細線
 48
50.0
100
AcDbCircle
 10
9390.953213390707
 20
3528.31819138772
 30
0.0
 40
4.0
100
AcDbArc
 50
111.2538091853132
 51
248.7461908146868
  0
ARC
  5
18AEA
330
747D
100
AcDbEntity
  8
細線
 48
50.0
100
AcDbCircle
 10
9390.953213390707
 20
3528.31819138772
 30
0.0
 40
17.5
100
AcDbArc
 50
306.4837370612677
 51
233.5162629387323
  0
LINE
  5
18AEB
330
747D
100
AcDbEntity
  8
細線
 48
50.0
100
AcDbLine
 10
9400.953213390703
 20
3504.459230806837
 30
0.0
 11
9400.953213390707
 21
3513.443716607078
 31
0.0
  0
LINE
  5
18AEC
330
747D
100
AcDbEntity
  8
細線
 48
50.0
100
AcDbLine
 10
9380.953213390707
 20
3504.459230806839
 30
0.0
 11
9380.953213390707
 21
3513.443716607075
 31
0.0
  0
ARC
  5
18AED
330
747D
100
AcDbEntity
  8
細線
 48
50.0
100
AcDbCircle
 10
9390.953213390707
 20
3528.31819138772
 30
0.0
 40
26.5
100
AcDbArc
 50
249.3326835063939
 51
290.6673164933835
  0
ARC
  5
18AEE
330
747D
100
AcDbEntity
  8
細線
 48
50.0
100
AcDbCircle
 10
9399.9532133907
 20
3504.459230806837
 30
0.0
 40
1.0
100
AcDbArc
 50
290.6673164936062
 51
359.9999999998958
  0
ARC
  5
18AEF
330
747D
100
AcDbEntity
  8
細線
 48
50.0
100
AcDbCircle
 10
9381.953213390707
 20
3504.459230806839
 30
0.0
 40
1.0
100
AcDbArc
 50
180.0
 51
249.3326835066164
  0
ARC
  5
18AF0
330
747D
100
AcDbEntity
  8
細線
 48
50.0
100
AcDbCircle
 10
9379.953213390706
 20
3513.443716607075
 30
0.0
 40
1.0
100
AcDbArc
 50
0.0
 51
53.51626293873231
  0
ARC
  5
18AF1
330
747D
100
AcDbEntity
  8
細線
 48
50.0
100
AcDbCircle
 10
9401.95321339071
 20
3513.443716607078
 30
0.0
 40
1.0
100
AcDbArc
 50
126.4837370615127
 51
180.0
  0
ARC
  5
18AF2
330
747D
100
AcDbEntity
  8
細線
 48
50.0
100
AcDbCircle
 10
9390.953213390707
 20
3528.31819138772
 30
0.0
 40
21.5
100
AcDbArc
 50
255.8014401250294
 51
284.1985598749706
  0
ARC
  5
18AF3
330
747D
100
AcDbEntity
  8
細線
 48
50.0
100
AcDbCircle
 10
9390.953213390707
 20
3528.31819138772
 30
0.0
 40
16.5
100
AcDbArc
 50
251.9694646069326
 51
288.0305353930674
  0
LINE
  5
18AF4
330
747D
100
AcDbEntity
  8
細線
 48
50.0
100
AcDbLine
 10
9396.453213390707
 20
3507.765819261913
 30
0.0
 11
9396.453213390707
 21
3512.34321094925
 31
0.0
  0
LINE
  5
18AF5
330
747D
100
AcDbEntity
  8
細線
 48
50.0
100
AcDbLine
 10
9385.453213390707
 20
3507.765819261913
 30
0.0
 11
9385.453213390707
 21
3512.343210949248
 31
0.0
  0
ARC
  5
18AF6
330
747D
100
AcDbEntity
  8
細線
 48
50.0
100
AcDbCircle
 10
9385.75321339071
 20
3512.343210949248
 30
0.0
 40
0.3
100
AcDbArc
 50
71.96946460693259
 51
180.0
  0
ARC
  5
18AF7
330
747D
100
AcDbEntity
  8
細線
 48
50.0
100
AcDbCircle
 10
9396.153213390709
 20
3512.34321094925
 30
0.0
 40
0.3
100
AcDbArc
 50
0.0
 51
108.0305353930674
  0
ARC
  5
18AF8
330
747D
100
AcDbEntity
  8
細線
 48
50.0
100
AcDbCircle
 10
9396.153213390704
 20
3507.765819261913
 30
0.0
 40
0.3
100
AcDbArc
 50
284.1985598747622
 51
0.0000000001042204
  0
ARC
  5
18AF9
330
747D
100
AcDbEntity
  8
細線
 48
50.0
100
AcDbCircle
 10
9385.75321339071
 20
3507.765819261913
 30
0.0
 40
0.3
100
AcDbArc
 50
180.0
 51
255.8014401248081
  0
CIRCLE
  5
18AFA
330
747D
100
AcDbEntity
  8
細線
 48
50.0
100
AcDbCircle
 10
9390.953213390707
 20
3528.31819138772
 30
0.0
 40
12.0
  0
ARC
  5
18AFB
330
747D
100
AcDbEntity
  8
部品1
 48
50.0
100
AcDbCircle
 10
9390.953213390707
 20
3578.31819138772
 30
0.0
 40
8.5
100
AcDbArc
 50
114.315739171091
 51
245.684260828909
  0
CIRCLE
  5
18AFC
330
747D
100
AcDbEntity
  8
細線
 48
50.0
100
AcDbCircle
 10
9390.953213390707
 20
3578.31819138772
 30
0.0
 40
4.5
  0
LWPOLYLINE
  5
18AFD
330
747D
100
AcDbEntity
  8
部品1
 48
50.0
100
AcDbPolyline
 90
        2
 70
     0
 43
0.0
 10
9387.453213390706
 20
3596.993040784703
 10
9387.453213390706
 20
3586.064158080135
  0
CIRCLE
  5
18AFE
330
747D
100
AcDbEntity
  8
部品1
 48
50.0
100
AcDbCircle
 10
9390.953213390707
 20
3578.31819138772
 30
0.0
 40
19.0
  0
LWPOLYLINE
  5
18AFF
330
747D
100
AcDbEntity
  8
部品1
 48
50.0
100
AcDbPolyline
 90
        2
 70
     0
 43
0.0
 10
9387.453213390706
 20
3570.572224695304
 10
9387.453213390706
 20
3559.643341990737
  0
LWPOLYLINE
  5
18B00
330
747D
100
AcDbEntity
  8
部品1
 48
50.0
100
AcDbPolyline
 90
        2
 70
     0
 43
0.0
 10
9394.453213390708
 20
3586.064158080135
 10
9394.453213390708
 20
3596.993040784703
  0
ARC
  5
18B01
330
747D
100
AcDbEntity
  8
部品1
 48
50.0
100
AcDbCircle
 10
9390.953213390707
 20
3578.31819138772
 30
0.0
 40
8.5
100
AcDbArc
 50
294.315739171091
 51
65.68426082890896
  0
LWPOLYLINE
  5
18B02
330
747D
100
AcDbEntity
  8
部品1
 48
50.0
100
AcDbPolyline
 90
        2
 70
     0
 43
0.0
 10
9394.453213390708
 20
3559.643341990737
 10
9394.453213390708
 20
3570.572224695304
  0
ARC
  5
18B03
330
747D
100
AcDbEntity
  8
細線
 48
50.0
100
AcDbCircle
 10
9390.953213390707
 20
3578.31819138772
 30
0.0
 40
16.5
100
AcDbArc
 50
332.0012352654438
 51
27.99876473455621
  0
ARC
  5
18B04
330
747D
100
AcDbEntity
  8
細線
 48
50.0
100
AcDbCircle
 10
9390.953213390707
 20
3578.31819138772
 30
0.0
 40
14.0
100
AcDbArc
 50
326.4074436112986
 51
33.59255638870134
  0
LINE
  5
18B05
330
747D
100
AcDbEntity
  8
細線
 48
50.0
100
AcDbLine
 10
9376.384411106377
 20
3586.064158080135
 30
0.0
 11
9379.291309601018
 21
3586.064158080135
 31
0.0
  0
LINE
  5
18B06
330
747D
100
AcDbEntity
  8
細線
 48
50.0
100
AcDbLine
 10
9376.384411106377
 20
3570.572224695304
 30
0.0
 11
9379.291309601018
 21
3570.572224695304
 31
0.0
  0
LINE
  5
18B07
330
747D
100
AcDbEntity
  8
細線
 48
50.0
100
AcDbLine
 10
9402.615117180395
 20
3586.064158080135
 30
0.0
 11
9405.522015675042
 21
3586.064158080135
 31
0.0
  0
LINE
  5
18B08
330
747D
100
AcDbEntity
  8
細線
 48
50.0
100
AcDbLine
 10
9402.615117180395
 20
3570.572224695304
 30
0.0
 11
9405.522015675042
 21
3570.572224695304
 31
0.0
  0
ARC
  5
18B09
330
747D
100
AcDbEntity
  8
細線
 48
50.0
100
AcDbCircle
 10
9390.953213390707
 20
3578.31819138772
 30
0.0
 40
14.0
100
AcDbArc
 50
146.4074436112986
 51
213.5925563887013
  0
ARC
  5
18B0A
330
747D
100
AcDbEntity
  8
細線
 48
50.0
100
AcDbCircle
 10
9390.953213390707
 20
3578.31819138772
 30
0.0
 40
16.5
100
AcDbArc
 50
152.0012352654438
 51
207.9987647345562
  0
ARC
  5
18B0B
330
747D
100
AcDbEntity
  8
部品1
 48
50.0
100
AcDbCircle
 10
9364.453213390708
 20
3603.81819138772
 30
0.0
 40
5.0
100
AcDbArc
 50
90.0
 51
180.0
  0
ARC
  5
18B0C
330
747D
100
AcDbEntity
  8
部品1
 48
50.0
100
AcDbCircle
 10
9364.453213390708
 20
3492.81819138772
 30
0.0
 40
5.0
100
AcDbArc
 50
180.0
 51
270.0
  0
ARC
  5
18B0D
330
747D
100
AcDbEntity
  8
部品1
 48
50.0
100
AcDbCircle
 10
9417.453213390706
 20
3492.81819138772
 30
0.0
 40
5.0
100
AcDbArc
 50
270.0
 51
0.0
  0
ARC
  5
18B0E
330
747D
100
AcDbEntity
  8
部品1
 48
50.0
100
AcDbCircle
 10
9417.453213390706
 20
3603.81819138772
 30
0.0
 40
5.0
100
AcDbArc
 50
0.0
 51
90.0
  0
LINE
  5
18B10
330
747D
100
AcDbEntity
  8
部品1
 48
50.0
100
AcDbLine
 10
9359.453213390706
 20
3492.81819138772
 30
0.0
 11
9359.453213390706
 21
3603.81819138772
 31
0.0
  0
LINE
  5
18B11
330
747D
100
AcDbEntity
  8
部品1
 48
50.0
100
AcDbLine
 10
9417.453213390706
 20
3487.81819138772
 30
0.0
 11
9364.453213390708
 21
3487.81819138772
 31
0.0
  0
LINE
  5
18B12
330
747D
100
AcDbEntity
  8
部品1
 48
50.0
100
AcDbLine
 10
9422.453213390708
 20
3603.81819138772
 30
0.0
 11
9422.453213390708
 21
3492.81819138772
 31
0.0
  0
ENDSEC
  0
SECTION
  2
OBJECTS
  0
DICTIONARY
  5
7471
330
0
100
AcDbDictionary
281
     1
  3
ACAD_COLOR
350
1612D
  3
ACAD_GROUP
350
7472
  3
ACAD_LAYOUT
350
1612E
  3
ACAD_MATERIAL
350
1612C
  3
ACAD_MLINESTYLE
350
7473
  3
ACAD_PLOTSETTINGS
350
1612F
  3
ACAD_PLOTSTYLENAME
350
1612A
  3
ACDBHEADERROUNDTRIPXREC
350
18B2F
  3
AcDbVariableDictionary
350
18A9A
  3
CONTENTDICTIONARY
350
E71C
  3
DRAWINGVARIABLESDICT
350
F3B9
  0
DICTIONARY
  5
162C7
330
7467
100
AcDbDictionary
280
     1
281
     1
  3
ACAD_LAYERSTATES
360
162C8
  0
DICTIONARY
  5
1612D
102
{ACAD_REACTORS
330
7471
102
}
330
7471
100
AcDbDictionary
281
     1
  0
DICTIONARY
  5
7472
102
{ACAD_REACTORS
330
7471
102
}
330
7471
100
AcDbDictionary
281
     1
  0
DICTIONARY
  5
1612E
102
{ACAD_REACTORS
330
7471
102
}
330
7471
100
AcDbDictionary
281
     1
  3
Model
350
16130
  3
レイアウト1
350
16131
  0
DICTIONARY
  5
1612C
102
{ACAD_REACTORS
330
7471
102
}
330
7471
100
AcDbDictionary
281
     1
  0
DICTIONARY
  5
7473
102
{ACAD_REACTORS
330
7471
102
}
330
7471
100
AcDbDictionary
281
     1
  3
STANDARD
350
7480
  0
DICTIONARY
  5
1612F
102
{ACAD_REACTORS
330
7471
102
}
330
7471
100
AcDbDictionary
281
     1
  0
ACDBDICTIONARYWDFLT
  5
1612A
102
{ACAD_REACTORS
330
7471
102
}
330
7471
100
AcDbDictionary
281
     1
  3
Normal
350
1612B
100
AcDbDictionaryWithDefault
340
1612B
  0
DICTIONARY
  5
18B2F
102
{ACAD_REACTORS
330
7471
102
}
330
7471
100
AcDbDictionary
281
     1
  3
COLORDICT
350
18B31
  3
MATERIALDICT
350
18B30
  0
DICTIONARY
  5
18A9A
102
{ACAD_REACTORS
330
7471
102
}
330
7471
100
AcDbDictionary
281
     1
  3
DIMASSOC
350
18A9B
  3
PROJECTNAME
350
18A9C
  0
DICTIONARY
  5
E71C
102
{ACAD_REACTORS
330
7471
102
}
330
7471
100
AcDbDictionary
281
     1
  0
DICTIONARY
  5
F3B9
102
{ACAD_REACTORS
330
7471
102
}
330
7471
100
AcDbDictionary
281
     1
1001
DRAWINGVARIABLESXDATA
1000
POLARMODE
1000
1
  0
DICTIONARY
  5
162C8
102
{ACAD_REACTORS
330
162C7
102
}
330
162C7
100
AcDbDictionary
281
     1
  0
LAYOUT
  5
16130
102
{ACAD_XDICTIONARY
360
18B32
102
}
102
{ACAD_REACTORS
330
1612E
102
}
330
1612E
100
AcDbPlotSettings
  1

  2
クセロPDF
  4
A3
  6

 40
3.174999952316284
 41
3.174999952316284
 42
3.17498779296875
 43
3.17498779296875
 44
419.9466552734374
 45
296.9259948730469
 46
0.0
 47
0.0
 48
3.619013395666115
 49
-4.192117100517862
140
820.022926294543
141
573.2392198881443
142
1.0
143
39.99735023620806
 70
 11952
 72
     1
 73
     0
 74
     2
  7
inaba.ctb
 75
     0
147
0.0250016562120842
148
25.79074261211281
149
125.8223078213959
100
AcDbLayout
  1
Model
 70
     1
 71
     0
 10
0.0
 20
0.0
 11
12.0
 21
9.0
 12
0.0
 22
0.0
 32
0.0
 14
0.0
 24
0.0
 34
0.0
 15
0.0
 25
0.0
 35
0.0
146
0.0
 13
0.0
 23
0.0
 33
0.0
 16
1.0
 26
0.0
 36
0.0
 17
0.0
 27
1.0
 37
0.0
 76
     0
330
747D
  0
LAYOUT
  5
16131
102
{ACAD_XDICTIONARY
360
18B34
102
}
102
{ACAD_REACTORS
330
1612E
102
}
330
1612E
100
AcDbPlotSettings
  1

  2
Microsoft Office Document Image Writer
  4

  6

 40
0.0
 41
0.0
 42
0.0
 43
0.0
 44
0.0
 45
0.0
 46
0.0
 47
0.0
 48
0.0
 49
0.0
140
0.0
141
0.0
142
1.0
143
1.0
 70
   688
 72
     0
 73
     0
 74
     5
  7
inaba.ctb
 75
    16
147
1.0
148
0.0
149
0.0
100
AcDbLayout
  1
レイアウト1
 70
     0
 71
     1
 10
0.0
 20
0.0
 11
420.0
 21
297.0
 12
0.0
 22
0.0
 32
0.0
 14
1.000000000000000E+20
 24
1.000000000000000E+20
 34
1.000000000000000E+20
 15
-1.000000000000000E+20
 25
-1.000000000000000E+20
 35
-1.000000000000000E+20
146
0.0
 13
0.0
 23
0.0
 33
0.0
 16
1.0
 26
0.0
 36
0.0
 17
0.0
 27
1.0
 37
0.0
 76
     0
330
747A
  0
MLINESTYLE
  5
7480
102
{ACAD_REACTORS
330
7473
102
}
330
7473
100
AcDbMlineStyle
  2
STANDARD
 70
     0
  3

 62
     0
 51
90.0
 52
90.0
 71
     2
 49
0.5
 62
   256
  6
BYLAYER
 49
-0.5
 62
   256
  6
BYLAYER
  0
ACDBPLACEHOLDER
  5
1612B
102
{ACAD_REACTORS
330
1612A
102
}
330
1612A
  0
XRECORD
  5
18B31
102
{ACAD_REACTORS
330
18B2F
102
}
330
18B2F
100
AcDbXrecord
280
     1
340
1612D
  0
XRECORD
  5
18B30
102
{ACAD_REACTORS
330
18B2F
102
}
330
18B2F
100
AcDbXrecord
280
     1
340
1612C
  0
DICTIONARYVAR
  5
18A9B
102
{ACAD_REACTORS
330
18A9A
102
}
330
18A9A
100
DictionaryVariables
280
     0
  1
1
  0
DICTIONARYVAR
  5
18A9C
102
{ACAD_REACTORS
330
18A9A
102
}
330
18A9A
100
DictionaryVariables
280
     0
  1

  0
DICTIONARY
  5
18B32
330
16130
100
AcDbDictionary
280
     1
281
     1
  3
ACAD_XREC_ROUNDTRIP
360
18B33
  0
DICTIONARY
  5
18B34
330
16131
100
AcDbDictionary
280
     1
281
     1
  3
ACAD_XREC_ROUNDTRIP
360
18B35
  0
XRECORD
  5
18B33
102
{ACAD_REACTORS
330
18B32
102
}
330
18B32
100
AcDbXrecord
280
     1
102
SHADEPLOT
 70
     0
102
SHADEPLOTRESLEVEL
 70
     2
102
SHADEPLOTCUSTOMDPI
 70
   150
  0
XRECORD
  5
18B35
102
{ACAD_REACTORS
330
18B34
102
}
330
18B34
100
AcDbXrecord
280
     1
102
SHADEPLOT
 70
     0
102
SHADEPLOTRESLEVEL
 70
     2
102
SHADEPLOTCUSTOMDPI
 70
   300
  0
ENDSEC
  0
EOF
