  0
SECTION
  2
HEADER
  9
$ACADVER
  1
AC1015
  9
$ACADMAINTVER
 70
    20
  9
$DWGCODEPAGE
  3
ANSI_932
  9
$INSBASE
 10
0.0
 20
0.0
 30
0.0
  9
$EXTMIN
 10
139.9999999999995
 20
-0.0000000000000909
 30
0.0
  9
$EXTMAX
 10
16307.2
 20
11409.6
 30
0.0
  9
$LIMMIN
 10
-25.79074261211281
 20
-125.8223078213959
  9
$LIMMAX
 10
16471.10331197129
 20
11496.44801950658
  9
$ORTHOMODE
 70
     0
  9
$REGENMODE
 70
     1
  9
$FILLMODE
 70
     1
  9
$QTEXTMODE
 70
     0
  9
$MIRRTEXT
 70
     1
  9
$LTSCALE
 40
20.0
  9
$ATTMODE
 70
     1
  9
$TEXTSIZE
 40
4.0
  9
$TRACEWID
 40
1.0
  9
$TEXTSTYLE
  7
STYLE1
  9
$CLAYER
  8
寸法
  9
$CELTYPE
  6
BYLAYER
  9
$CECOLOR
 62
   256
  9
$CELTSCALE
 40
50.0
  9
$DISPSILH
 70
     0
  9
$DIMSCALE
 40
40.0
  9
$DIMASZ
 40
2.5
  9
$DIMEXO
 40
0.5
  9
$DIMDLI
 40
7.0
  9
$DIMRND
 40
0.0
  9
$DIMDLE
 40
0.0
  9
$DIMEXE
 40
1.5
  9
$DIMTP
 40
0.0
  9
$DIMTM
 40
0.0
  9
$DIMTXT
 40
3.0
  9
$DIMCEN
 40
0.0
  9
$DIMTSZ
 40
0.0
  9
$DIMTOL
 70
     0
  9
$DIMLIM
 70
     0
  9
$DIMTIH
 70
     0
  9
$DIMTOH
 70
     0
  9
$DIMSE1
 70
     0
  9
$DIMSE2
 70
     0
  9
$DIMTAD
 70
     3
  9
$DIMZIN
 70
     8
  9
$DIMBLK
  1

  9
$DIMASO
 70
     1
  9
$DIMSHO
 70
     1
  9
$DIMPOST
  1

  9
$DIMAPOST
  1

  9
$DIMALT
 70
     0
  9
$DIMALTD
 70
     2
  9
$DIMALTF
 40
0.0394
  9
$DIMLFAC
 40
1.0
  9
$DIMTOFL
 70
     1
  9
$DIMTVP
 40
0.0
  9
$DIMTIX
 70
     1
  9
$DIMSOXD
 70
     0
  9
$DIMSAH
 70
     1
  9
$DIMBLK1
  1
DOTSMALL
  9
$DIMBLK2
  1
DOTSMALL
  9
$DIMSTYLE
  2
INABA_S40G
  9
$DIMCLRD
 70
     0
  9
$DIMCLRE
 70
     0
  9
$DIMCLRT
 70
     7
  9
$DIMTFAC
 40
1.0
  9
$DIMGAP
 40
1.0
  9
$DIMJUST
 70
     0
  9
$DIMSD1
 70
     0
  9
$DIMSD2
 70
     0
  9
$DIMTOLJ
 70
     1
  9
$DIMTZIN
 70
     0
  9
$DIMALTZ
 70
     0
  9
$DIMALTTZ
 70
     0
  9
$DIMUPT
 70
     0
  9
$DIMDEC
 70
     1
  9
$DIMTDEC
 70
     4
  9
$DIMALTU
 70
     2
  9
$DIMALTTD
 70
     2
  9
$DIMTXSTY
  7
STYLE1
  9
$DIMAUNIT
 70
     0
  9
$DIMADEC
 70
     0
  9
$DIMALTRND
 40
0.0
  9
$DIMAZIN
 70
     0
  9
$DIMDSEP
 70
    46
  9
$DIMATFIT
 70
     3
  9
$DIMFRAC
 70
     0
  9
$DIMLDRBLK
  1

  9
$DIMLUNIT
 70
     2
  9
$DIMLWD
 70
    -2
  9
$DIMLWE
 70
    -2
  9
$DIMTMOVE
 70
     0
  9
$LUNITS
 70
     2
  9
$LUPREC
 70
     1
  9
$SKETCHINC
 40
1.0
  9
$FILLETRAD
 40
3.0
  9
$AUNITS
 70
     0
  9
$AUPREC
 70
     0
  9
$MENU
  1
acad
  9
$ELEVATION
 40
0.0
  9
$PELEVATION
 40
0.0
  9
$THICKNESS
 40
0.0
  9
$LIMCHECK
 70
     0
  9
$CHAMFERA
 40
0.0
  9
$CHAMFERB
 40
0.0
  9
$CHAMFERC
 40
0.0
  9
$CHAMFERD
 40
0.0
  9
$SKPOLY
 70
     0
  9
$TDCREATE
 40
2451368.612993866
  9
$TDUCREATE
 40
2451368.237993866
  9
$TDUPDATE
 40
2455575.682596389
  9
$TDUUPDATE
 40
2455575.307596389
  9
$TDINDWG
 40
0.4507530903
  9
$TDUSRTIMER
 40
0.4507530903
  9
$USRTIMER
 70
     1
  9
$ANGBASE
 50
0.0
  9
$ANGDIR
 70
     0
  9
$PDMODE
 70
     3
  9
$PDSIZE
 40
2.0
  9
$PLINEWID
 40
0.0
  9
$SPLFRAME
 70
     0
  9
$SPLINETYPE
 70
     6
  9
$SPLINESEGS
 70
     8
  9
$HANDSEED
  5
187C6
  9
$SURFTAB1
 70
     6
  9
$SURFTAB2
 70
     6
  9
$SURFTYPE
 70
     6
  9
$SURFU
 70
     6
  9
$SURFV
 70
     6
  9
$UCSBASE
  2

  9
$UCSNAME
  2

  9
$UCSORG
 10
0.0
 20
0.0
 30
0.0
  9
$UCSXDIR
 10
1.0
 20
0.0
 30
0.0
  9
$UCSYDIR
 10
0.0
 20
1.0
 30
0.0
  9
$UCSORTHOREF
  2

  9
$UCSORTHOVIEW
 70
     0
  9
$UCSORGTOP
 10
0.0
 20
0.0
 30
0.0
  9
$UCSORGBOTTOM
 10
0.0
 20
0.0
 30
0.0
  9
$UCSORGLEFT
 10
0.0
 20
0.0
 30
0.0
  9
$UCSORGRIGHT
 10
0.0
 20
0.0
 30
0.0
  9
$UCSORGFRONT
 10
0.0
 20
0.0
 30
0.0
  9
$UCSORGBACK
 10
0.0
 20
0.0
 30
0.0
  9
$PUCSBASE
  2

  9
$PUCSNAME
  2

  9
$PUCSORG
 10
0.0
 20
0.0
 30
0.0
  9
$PUCSXDIR
 10
1.0
 20
0.0
 30
0.0
  9
$PUCSYDIR
 10
0.0
 20
1.0
 30
0.0
  9
$PUCSORTHOREF
  2

  9
$PUCSORTHOVIEW
 70
     0
  9
$PUCSORGTOP
 10
0.0
 20
0.0
 30
0.0
  9
$PUCSORGBOTTOM
 10
0.0
 20
0.0
 30
0.0
  9
$PUCSORGLEFT
 10
0.0
 20
0.0
 30
0.0
  9
$PUCSORGRIGHT
 10
0.0
 20
0.0
 30
0.0
  9
$PUCSORGFRONT
 10
0.0
 20
0.0
 30
0.0
  9
$PUCSORGBACK
 10
0.0
 20
0.0
 30
0.0
  9
$USERI1
 70
     0
  9
$USERI2
 70
     0
  9
$USERI3
 70
     0
  9
$USERI4
 70
     0
  9
$USERI5
 70
     0
  9
$USERR1
 40
0.0
  9
$USERR2
 40
0.0
  9
$USERR3
 40
0.0
  9
$USERR4
 40
0.0
  9
$USERR5
 40
0.0
  9
$WORLDVIEW
 70
     1
  9
$SHADEDGE
 70
     3
  9
$SHADEDIF
 70
    70
  9
$TILEMODE
 70
     1
  9
$MAXACTVP
 70
    16
  9
$PINSBASE
 10
0.0
 20
0.0
 30
0.0
  9
$PLIMCHECK
 70
     0
  9
$PEXTMIN
 10
1.000000000000000E+20
 20
1.000000000000000E+20
 30
1.000000000000000E+20
  9
$PEXTMAX
 10
-1.000000000000000E+20
 20
-1.000000000000000E+20
 30
-1.000000000000000E+20
  9
$PLIMMIN
 10
0.0
 20
0.0
  9
$PLIMMAX
 10
420.0
 20
297.0
  9
$UNITMODE
 70
     0
  9
$VISRETAIN
 70
     0
  9
$PLINEGEN
 70
     0
  9
$PSLTSCALE
 70
     0
  9
$TREEDEPTH
 70
  3020
  9
$CMLSTYLE
  2
STANDARD
  9
$CMLJUST
 70
     0
  9
$CMLSCALE
 40
1.0
  9
$PROXYGRAPHICS
 70
     1
  9
$MEASUREMENT
 70
     1
  9
$CELWEIGHT
370
    -1
  9
$ENDCAPS
280
     0
  9
$JOINSTYLE
280
     0
  9
$LWDISPLAY
290
     0
  9
$INSUNITS
 70
     0
  9
$HYPERLINKBASE
  1

  9
$STYLESHEET
  1
inaba.ctb
  9
$XEDIT
290
     1
  9
$CEPSNTYPE
380
     0
  9
$PSTYLEMODE
290
     1
  9
$FINGERPRINTGUID
  2
{5D0E83B5-C2B0-47C1-B5CD-6D743F33E692}
  9
$VERSIONGUID
  2
{B8B281D3-284E-46A7-9284-BA30DB1E9DCE}
  9
$EXTNAMES
290
     1
  9
$PSVPSCALE
 40
0.0
  9
$OLESTARTUP
290
     0
  0
ENDSEC
  0
SECTION
  2
CLASSES
  0
CLASS
  1
ACDBDICTIONARYWDFLT
  2
AcDbDictionaryWithDefault
  3
ObjectDBX Classes
 90
        0
280
     0
281
     0
  0
CLASS
  1
DICTIONARYVAR
  2
AcDbDictionaryVar
  3
ObjectDBX Classes
 90
        0
280
     0
281
     0
  0
CLASS
  1
ACDBPLACEHOLDER
  2
AcDbPlaceHolder
  3
ObjectDBX Classes
 90
        0
280
     0
281
     0
  0
CLASS
  1
LAYOUT
  2
AcDbLayout
  3
ObjectDBX Classes
 90
        0
280
     0
281
     0
  0
ENDSEC
  0
SECTION
  2
TABLES
  0
TABLE
  2
VPORT
  5
746D
330
0
100
AcDbSymbolTable
 70
     2
  0
VPORT
  5
187BE
330
746D
100
AcDbSymbolTableRecord
100
AcDbViewportTableRecord
  2
*Active
 70
     0
 10
0.0
 20
0.0
 11
1.0
 21
1.0
 12
8223.761025238502
 22
5704.872807327498
 13
0.0
 23
0.0
 14
10.0
 24
10.0
 15
10.0
 25
10.0
 16
0.0
 26
0.0
 36
1.0
 17
0.0
 27
0.0
 37
0.0
 40
11494.52305525973
 41
1.525925925925925
 42
50.0
 43
0.0
 44
0.0
 50
0.0
 51
0.0
 71
     0
 72
     0
 73
     1
 74
     0
 75
     0
 76
     0
 77
     0
 78
     0
281
     0
 65
     1
110
0.0
120
0.0
130
0.0
111
1.0
121
0.0
131
0.0
112
0.0
122
1.0
132
0.0
 79
     0
146
0.0
  0
ENDTAB
  0
TABLE
  2
LTYPE
  5
746A
330
0
100
AcDbSymbolTable
 70
     4
  0
LTYPE
  5
7477
330
746A
100
AcDbSymbolTableRecord
100
AcDbLinetypeTableRecord
  2
BYBLOCK
 70
     0
  3

 72
    65
 73
     0
 40
0.0
  0
LTYPE
  5
7478
330
746A
100
AcDbSymbolTableRecord
100
AcDbLinetypeTableRecord
  2
BYLAYER
 70
     0
  3

 72
    65
 73
     0
 40
0.0
  0
LTYPE
  5
7479
330
746A
100
AcDbSymbolTableRecord
100
AcDbLinetypeTableRecord
  2
CONTINUOUS
 70
     0
  3
Solid line
 72
    65
 73
     0
 40
0.0
  0
LTYPE
  5
7816
330
746A
100
AcDbSymbolTableRecord
100
AcDbLinetypeTableRecord
  2
CENTER
 70
     0
  3
____ _ ____ _ ____ _ ____ _ ____ _ ____ _ ____ 
 72
    65
 73
     4
 40
2.0
 49
1.25
 74
     0
 49
-0.25
 74
     0
 49
0.25
 74
     0
 49
-0.25
 74
     0
  0
LTYPE
  5
781A
330
746A
100
AcDbSymbolTableRecord
100
AcDbLinetypeTableRecord
  2
HIDDEN
 70
     0
  3
__ __ __ __ __ __ __ __ __ __ __ __ __ __ __ __
 72
    65
 73
     2
 40
0.375
 49
0.25
 74
     0
 49
-0.125
 74
     0
  0
LTYPE
  5
781B
330
746A
100
AcDbSymbolTableRecord
100
AcDbLinetypeTableRecord
  2
PHANTOM
 70
     0
  3
______  __  __  ______  __  __  ______  __  __ 
 72
    65
 73
     6
 40
2.5
 49
1.25
 74
     0
 49
-0.25
 74
     0
 49
0.25
 74
     0
 49
-0.25
 74
     0
 49
0.25
 74
     0
 49
-0.25
 74
     0
  0
ENDTAB
  0
TABLE
  2
LAYER
  5
7467
102
{ACAD_XDICTIONARY
360
16839
102
}
330
0
100
AcDbSymbolTable
 70
    12
  0
LAYER
  5
7474
330
7467
100
AcDbSymbolTableRecord
100
AcDbLayerTableRecord
  2
0
 70
     0
 62
     7
  6
CONTINUOUS
370
    -3
390
166A9
  0
LAYER
  5
DEB2
330
7467
100
AcDbSymbolTableRecord
100
AcDbLayerTableRecord
  2
センター
 70
     0
 62
     3
  6
CENTER
370
    -3
390
166A9
  0
LAYER
  5
DEB3
330
7467
100
AcDbSymbolTableRecord
100
AcDbLayerTableRecord
  2
寸法
 70
     0
 62
     4
  6
CONTINUOUS
370
    -3
390
166A9
  0
LAYER
  5
DEB4
330
7467
100
AcDbSymbolTableRecord
100
AcDbLayerTableRecord
  2
部品1
 70
     0
 62
     7
  6
CONTINUOUS
370
    -3
390
166A9
  0
LAYER
  5
DEB5
330
7467
100
AcDbSymbolTableRecord
100
AcDbLayerTableRecord
  2
補助
 70
     0
 62
    -1
  6
CONTINUOUS
370
    -3
390
166A9
  0
LAYER
  5
DEB6
330
7467
100
AcDbSymbolTableRecord
100
AcDbLayerTableRecord
  2
文字
 70
     0
 62
     7
  6
CONTINUOUS
370
    -3
390
166A9
  0
LAYER
  5
F255
330
7467
100
AcDbSymbolTableRecord
100
AcDbLayerTableRecord
  2
DEFPOINTS
 70
     0
 62
     7
  6
CONTINUOUS
290
     0
370
    -3
390
166A9
  0
LAYER
  5
10B54
330
7467
100
AcDbSymbolTableRecord
100
AcDbLayerTableRecord
  2
仕様書枠
 70
     0
 62
   230
  6
CONTINUOUS
370
    -3
390
166A9
  0
LAYER
  5
11729
330
7467
100
AcDbSymbolTableRecord
100
AcDbLayerTableRecord
  2
Ｇ．Ｌ
 70
     0
 62
    30
  6
CONTINUOUS
370
    -3
390
166A9
  0
LAYER
  5
1173F
330
7467
100
AcDbSymbolTableRecord
100
AcDbLayerTableRecord
  2
細線
 70
     0
 62
     5
  6
CONTINUOUS
370
    -3
390
166A9
  0
LAYER
  5
12CC4
330
7467
100
AcDbSymbolTableRecord
100
AcDbLayerTableRecord
  2
想像線
 70
     0
 62
     6
  6
PHANTOM
370
    -3
390
166A9
  0
LAYER
  5
142E2
330
7467
100
AcDbSymbolTableRecord
100
AcDbLayerTableRecord
  2
破線
 70
     0
 62
     2
  6
HIDDEN
370
    -3
390
166A9
  0
ENDTAB
  0
TABLE
  2
STYLE
  5
7468
330
0
100
AcDbSymbolTable
 70
     4
  0
STYLE
  5
7475
330
7468
100
AcDbSymbolTableRecord
100
AcDbTextStyleTableRecord
  2
STANDARD
 70
     0
 40
0.0
 41
1.0
 50
0.0
 71
     0
 42
4.0
  3
txt
  4
C:\AutoCAD LT\bigfont.shx
  0
STYLE
  5
F706
330
7468
100
AcDbSymbolTableRecord
100
AcDbTextStyleTableRecord
  2
STYLE1
 70
     0
 40
0.0
 41
1.0
 50
0.0
 71
     0
 42
4.0
  3
isocp.shx
  4
bigfont.shx
  0
STYLE
  5
103BF
330
7468
100
AcDbSymbolTableRecord
100
AcDbTextStyleTableRecord
  2
STYLE2
 70
     0
 40
0.0
 41
1.0
 50
0.0
 71
     0
 42
100.0
  3
MS PGothic.ttf
  4

1001
ACAD
1000
MS PGothic
1071
    32818
  0
STYLE
  5
172B2
330
7468
100
AcDbSymbolTableRecord
100
AcDbTextStyleTableRecord
  2
STYLE3
 70
     0
 40
0.0
 41
1.0
 50
0.0
 71
     0
 42
100.0
  3
DFPGothic-EB.ttf
  4

1001
ACAD
1000
DFPGothic-EB
1071
    32818
  0
ENDTAB
  0
TABLE
  2
VIEW
  5
746B
330
0
100
AcDbSymbolTable
 70
     0
  0
ENDTAB
  0
TABLE
  2
UCS
  5
746C
330
0
100
AcDbSymbolTable
 70
     0
  0
ENDTAB
  0
TABLE
  2
APPID
  5
746E
330
0
100
AcDbSymbolTable
 70
     6
  0
APPID
  5
7476
330
746E
100
AcDbSymbolTableRecord
100
AcDbRegAppTableRecord
  2
ACAD
 70
     0
  0
APPID
  5
DEA9
330
746E
100
AcDbSymbolTableRecord
100
AcDbRegAppTableRecord
  2
CONTENTBLOCKICON
 70
     0
  0
APPID
  5
DEAA
330
746E
100
AcDbSymbolTableRecord
100
AcDbRegAppTableRecord
  2
CONTENTBLOCKDESCRIPTION
 70
     0
  0
APPID
  5
E71D
330
746E
100
AcDbSymbolTableRecord
100
AcDbRegAppTableRecord
  2
CONTENTTABDATA
 70
     0
  0
APPID
  5
E71E
330
746E
100
AcDbSymbolTableRecord
100
AcDbRegAppTableRecord
  2
CONTENTCURRENTTAB
 70
     0
  0
APPID
  5
F3BA
330
746E
100
AcDbSymbolTableRecord
100
AcDbRegAppTableRecord
  2
DRAWINGVARIABLESXDATA
 70
     0
  0
ENDTAB
  0
TABLE
  2
DIMSTYLE
  5
746F
330
0
100
AcDbSymbolTable
 70
     5
100
AcDbDimStyleTable
 71
     0
  0
DIMSTYLE
105
7484
330
746F
100
AcDbSymbolTableRecord
100
AcDbDimStyleTableRecord
  2
JIS
 70
     0
 41
2.5
 42
1.0
 43
7.0
 44
1.0
 73
     0
 74
     0
 77
     1
 78
     8
140
2.5
141
0.0
143
0.0394
147
0.0
172
     1
174
     1
175
     1
340
7475
  0
DIMSTYLE
105
F71F
102
{ACAD_REACTORS
330
16BB4
330
16BB8
330
16BB9
330
16BD3
330
16BD4
330
16BD5
330
16BD6
330
16BEB
330
16BF9
330
16BFA
330
16BFB
330
16BFC
330
16C98
330
16C99
330
16CF5
330
16CF6
330
16CF7
330
16D54
330
17E12
330
17EB8
330
17EB9
330
17EE5
330
17EE7
330
17EF3
330
17EF4
330
17EF5
330
17EFD
330
17F02
330
1842C
330
1850C
102
}
330
746F
100
AcDbSymbolTableRecord
100
AcDbDimStyleTableRecord
  2
INABA_S40G
 70
     0
 40
40.0
 41
2.5
 42
0.5
 43
7.0
 44
1.5
 73
     0
 74
     0
 77
     3
 78
     8
140
3.0
141
0.0
143
0.0394
147
1.0
172
     1
173
     1
174
     1
178
     7
271
     1
340
F706
341
F770
343
F770
344
F770
  0
DIMSTYLE
105
16838
102
{ACAD_REACTORS
330
181D9
330
1842D
102
}
330
746F
100
AcDbSymbolTableRecord
100
AcDbDimStyleTableRecord
  2
INABA_S40
 70
     0
 40
40.0
 41
2.5
 42
0.5
 43
7.0
 44
1.5
 73
     0
 74
     0
 77
     3
 78
     8
140
3.0
141
0.0
143
0.0394
147
1.0
172
     1
173
     1
174
     1
175
     1
178
     7
340
7475
  0
DIMSTYLE
105
180D8
330
746F
100
AcDbSymbolTableRecord
100
AcDbDimStyleTableRecord
  2
INABA_S50G
 70
     0
 41
125.0
 42
25.0
 43
7.0
 44
75.0
 73
     0
 74
     0
 77
     3
 78
     8
140
150.0
141
0.0
143
0.0394
147
25.0
172
     1
173
     1
174
     1
175
     1
178
     7
271
     1
340
F706
341
F770
343
F770
344
F770
  0
DIMSTYLE
105
18744
330
746F
100
AcDbSymbolTableRecord
100
AcDbDimStyleTableRecord
  2
INABA_S20G
 70
     0
 40
20.0
 41
2.5
 42
0.5
 43
7.0
 44
1.5
 73
     0
 74
     0
 77
     3
 78
     8
140
3.0
141
0.0
143
0.0394
147
1.0
172
     1
173
     1
174
     1
178
     7
271
     1
340
F706
341
F770
343
F770
344
F770
  0
ENDTAB
  0
TABLE
  2
BLOCK_RECORD
  5
7466
330
0
100
AcDbSymbolTable
 70
    34
  0
BLOCK_RECORD
  5
747D
330
7466
100
AcDbSymbolTableRecord
100
AcDbBlockTableRecord
  2
*MODEL_SPACE
340
166AE
  0
BLOCK_RECORD
  5
747A
330
7466
100
AcDbSymbolTableRecord
100
AcDbBlockTableRecord
  2
*PAPER_SPACE
340
166AF
  0
BLOCK_RECORD
  5
F770
330
7466
100
AcDbSymbolTableRecord
100
AcDbBlockTableRecord
  2
_DOTSMALL
340
0
102
{BLKREFS
331
177A5
331
177A6
331
177AE
331
177AF
331
177B9
331
177BA
331
177C2
331
177C3
331
177D6
331
177D7
331
177DF
331
177E0
331
177E8
331
177E9
331
177F3
331
177F4
331
177FC
331
177FD
331
17806
331
17807
331
1780F
331
17810
331
17818
331
17819
331
17822
331
17823
331
1782D
331
1782E
331
17837
331
17838
331
17840
331
17841
331
17849
331
1784A
331
17C5D
331
17C5E
331
18678
331
18679
331
1868C
331
1868D
331
186A0
331
186A1
331
186B4
331
186B5
331
186BF
331
186C0
331
186C8
331
186C9
331
186D3
331
186D4
331
186DC
331
186DD
331
186E5
331
186E6
331
186F7
331
186F8
331
18713
331
18714
331
18734
331
18735
102
}
  0
BLOCK_RECORD
  5
16736
330
7466
100
AcDbSymbolTableRecord
100
AcDbBlockTableRecord
  2
_DOT
340
0
102
{BLKREFS
331
18683
331
18684
331
18695
331
18696
102
}
  0
BLOCK_RECORD
  5
16DE5
330
7466
100
AcDbSymbolTableRecord
100
AcDbBlockTableRecord
  2
*D2
340
0
  0
BLOCK_RECORD
  5
16DF1
330
7466
100
AcDbSymbolTableRecord
100
AcDbBlockTableRecord
  2
*D3
340
0
  0
BLOCK_RECORD
  5
16DFD
330
7466
100
AcDbSymbolTableRecord
100
AcDbBlockTableRecord
  2
*D4
340
0
  0
BLOCK_RECORD
  5
16E0A
330
7466
100
AcDbSymbolTableRecord
100
AcDbBlockTableRecord
  2
*D5
340
0
  0
BLOCK_RECORD
  5
16E18
330
7466
100
AcDbSymbolTableRecord
100
AcDbBlockTableRecord
  2
*D6
340
0
  0
BLOCK_RECORD
  5
16E25
330
7466
100
AcDbSymbolTableRecord
100
AcDbBlockTableRecord
  2
*D7
340
0
  0
BLOCK_RECORD
  5
16E31
330
7466
100
AcDbSymbolTableRecord
100
AcDbBlockTableRecord
  2
*D8
340
0
  0
BLOCK_RECORD
  5
16E3D
330
7466
100
AcDbSymbolTableRecord
100
AcDbBlockTableRecord
  2
*D9
340
0
  0
BLOCK_RECORD
  5
16E4A
330
7466
100
AcDbSymbolTableRecord
100
AcDbBlockTableRecord
  2
*D10
340
0
  0
BLOCK_RECORD
  5
16E56
330
7466
100
AcDbSymbolTableRecord
100
AcDbBlockTableRecord
  2
*D11
340
0
  0
BLOCK_RECORD
  5
16E64
330
7466
100
AcDbSymbolTableRecord
100
AcDbBlockTableRecord
  2
*D12
340
0
  0
BLOCK_RECORD
  5
16E70
330
7466
100
AcDbSymbolTableRecord
100
AcDbBlockTableRecord
  2
*D13
340
0
  0
BLOCK_RECORD
  5
16E7C
330
7466
100
AcDbSymbolTableRecord
100
AcDbBlockTableRecord
  2
*D14
340
0
  0
BLOCK_RECORD
  5
16E8A
330
7466
100
AcDbSymbolTableRecord
100
AcDbBlockTableRecord
  2
*D15
340
0
  0
BLOCK_RECORD
  5
16E96
330
7466
100
AcDbSymbolTableRecord
100
AcDbBlockTableRecord
  2
*D16
340
0
  0
BLOCK_RECORD
  5
16EA2
330
7466
100
AcDbSymbolTableRecord
100
AcDbBlockTableRecord
  2
*D17
340
0
  0
BLOCK_RECORD
  5
16EB0
330
7466
100
AcDbSymbolTableRecord
100
AcDbBlockTableRecord
  2
*D18
340
0
  0
BLOCK_RECORD
  5
16EBC
330
7466
100
AcDbSymbolTableRecord
100
AcDbBlockTableRecord
  2
*D19
340
0
  0
BLOCK_RECORD
  5
17F03
330
7466
100
AcDbSymbolTableRecord
100
AcDbBlockTableRecord
  2
*D20
340
0
  0
BLOCK_RECORD
  5
17F29
330
7466
100
AcDbSymbolTableRecord
100
AcDbBlockTableRecord
  2
*D21
340
0
  0
BLOCK_RECORD
  5
17F35
330
7466
100
AcDbSymbolTableRecord
100
AcDbBlockTableRecord
  2
*D22
340
0
  0
BLOCK_RECORD
  5
17F41
330
7466
100
AcDbSymbolTableRecord
100
AcDbBlockTableRecord
  2
*D23
340
0
  0
BLOCK_RECORD
  5
17F4D
330
7466
100
AcDbSymbolTableRecord
100
AcDbBlockTableRecord
  2
*D24
340
0
  0
BLOCK_RECORD
  5
17F67
330
7466
100
AcDbSymbolTableRecord
100
AcDbBlockTableRecord
  2
*D25
340
0
  0
BLOCK_RECORD
  5
17F73
330
7466
100
AcDbSymbolTableRecord
100
AcDbBlockTableRecord
  2
*D26
340
0
  0
BLOCK_RECORD
  5
17F81
330
7466
100
AcDbSymbolTableRecord
100
AcDbBlockTableRecord
  2
*D27
340
0
  0
BLOCK_RECORD
  5
17F8F
330
7466
100
AcDbSymbolTableRecord
100
AcDbBlockTableRecord
  2
*D28
340
0
  0
BLOCK_RECORD
  5
17F9B
330
7466
100
AcDbSymbolTableRecord
100
AcDbBlockTableRecord
  2
*D29
340
0
  0
BLOCK_RECORD
  5
1823D
330
7466
100
AcDbSymbolTableRecord
100
AcDbBlockTableRecord
  2
*D30
340
0
  0
BLOCK_RECORD
  5
1851E
330
7466
100
AcDbSymbolTableRecord
100
AcDbBlockTableRecord
  2
*D31
340
0
  0
BLOCK_RECORD
  5
1852A
330
7466
100
AcDbSymbolTableRecord
100
AcDbBlockTableRecord
  2
*D32
340
0
  0
BLOCK_RECORD
  5
18576
330
7466
100
AcDbSymbolTableRecord
100
AcDbBlockTableRecord
  2
*D33
340
0
  0
ENDTAB
  0
ENDSEC
  0
SECTION
  2
BLOCKS
  0
BLOCK
  5
7489
330
747D
100
AcDbEntity
  8
0
100
AcDbBlockBegin
  2
*MODEL_SPACE
 70
     0
 10
0.0
 20
0.0
 30
0.0
  3
*MODEL_SPACE
  1

  0
ENDBLK
  5
748A
330
747D
100
AcDbEntity
  8
0
100
AcDbBlockEnd
  0
BLOCK
  5
7487
330
747A
100
AcDbEntity
 67
     1
  8
0
100
AcDbBlockBegin
  2
*PAPER_SPACE
 70
     0
 10
0.0
 20
0.0
 30
0.0
  3
*PAPER_SPACE
  1

  0
ENDBLK
  5
7488
330
747A
100
AcDbEntity
 67
     1
  8
0
100
AcDbBlockEnd
  0
BLOCK
  5
F771
330
F770
100
AcDbEntity
  8
0
 48
50.0
100
AcDbBlockBegin
  2
_DOTSMALL
 70
     0
 10
0.0
 20
0.0
 30
0.0
  3
_DOTSMALL
  1

  0
LWPOLYLINE
  5
F772
330
F770
100
AcDbEntity
  8
0
  6
ByBlock
 62
     0
 48
50.0
100
AcDbPolyline
 90
        2
 70
     1
 43
0.5
 10
-0.0625
 20
0.0
 42
1.0
 10
0.0625
 20
0.0
 42
1.0
  0
ENDBLK
  5
F776
330
F770
100
AcDbEntity
  8
0
 48
50.0
100
AcDbBlockEnd
  0
BLOCK
  5
16737
330
16736
100
AcDbEntity
  8
0
 48
50.0
100
AcDbBlockBegin
  2
_DOT
 70
     0
 10
0.0
 20
0.0
 30
0.0
  3
_DOT
  1

  0
LWPOLYLINE
  5
16738
330
16736
100
AcDbEntity
  8
0
  6
ByBlock
 62
     0
 48
50.0
100
AcDbPolyline
 90
        2
 70
     1
 43
0.5
 10
-0.25
 20
0.0
 42
1.0
 10
0.25
 20
0.0
 42
1.0
  0
LINE
  5
16739
330
16736
100
AcDbEntity
  8
0
  6
ByBlock
 62
     0
 48
50.0
100
AcDbLine
 10
-0.5
 20
0.0
 30
0.0
 11
-1.0
 21
0.0
 31
0.0
  0
ENDBLK
  5
1673A
330
16736
100
AcDbEntity
  8
0
 48
50.0
100
AcDbBlockEnd
  0
BLOCK
  5
16DEF
330
16DE5
100
AcDbEntity
  8
0
 48
50.0
100
AcDbBlockBegin
  2
*D2
 70
     1
 10
0.0
 20
0.0
 30
0.0
  3
*D2
  1

  0
LINE
  5
17846
330
16DE5
100
AcDbEntity
  8
寸法
 62
     0
 48
50.0
370
    -2
100
AcDbLine
 10
5218.811266749938
 20
2108.769359135848
 30
0.0
 11
5218.811266749938
 21
1782.722029835471
 31
0.0
  0
LINE
  5
17847
330
16DE5
100
AcDbEntity
  8
寸法
 62
     0
 48
50.0
370
    -2
100
AcDbLine
 10
5018.811266749941
 20
2108.76935913585
 30
0.0
 11
5018.811266749941
 21
1782.722029835471
 31
0.0
  0
LINE
  5
17848
330
16DE5
100
AcDbEntity
  8
寸法
 62
     0
 48
50.0
370
    -2
100
AcDbLine
 10
5218.811266749938
 20
1842.722029835471
 30
0.0
 11
5018.811266749941
 21
1842.722029835471
 31
0.0
  0
INSERT
  5
17849
330
16DE5
100
AcDbEntity
  8
寸法
 62
     0
 48
50.0
370
    -2
100
AcDbBlockReference
  2
_DOTSMALL
 10
5218.811266749938
 20
1842.722029835471
 30
0.0
 41
100.0
 42
100.0
 43
100.0
  0
INSERT
  5
1784A
330
16DE5
100
AcDbEntity
  8
寸法
 62
     0
 48
50.0
370
    -2
100
AcDbBlockReference
  2
_DOTSMALL
 10
5018.811266749941
 20
1842.722029835471
 30
0.0
 41
100.0
 42
100.0
 43
100.0
 50
180.0
  0
MTEXT
  5
1784B
330
16DE5
100
AcDbEntity
  8
寸法
 62
     7
 48
50.0
100
AcDbMText
 10
5118.811266749939
 20
1942.733840859094
 30
0.0
 40
120.0
 41
0.0
 71
     5
 72
     1
  1
\A1;200
  7
STYLE1
 73
     1
 44
1.0
1001
ACAD
1000
MTEXTBEGIN
1070
    73
1070
     1
1070
    44
1040
1.0
1070
    74
1070
     0
1000
MTEXTEND
  0
POINT
  5
1784C
330
16DE5
100
AcDbEntity
  8
DEFPOINTS
 62
     0
 48
50.0
100
AcDbPoint
 10
5218.811266749938
 20
2128.769359135848
 30
0.0
  0
POINT
  5
1784D
330
16DE5
100
AcDbEntity
  8
DEFPOINTS
 62
     0
 48
50.0
100
AcDbPoint
 10
5018.811266749941
 20
2128.76935913585
 30
0.0
  0
POINT
  5
1784E
330
16DE5
100
AcDbEntity
  8
DEFPOINTS
 62
     0
 48
50.0
100
AcDbPoint
 10
5018.811266749941
 20
1842.722029835471
 30
0.0
  0
ENDBLK
  5
16DF0
330
16DE5
100
AcDbEntity
  8
0
 48
50.0
100
AcDbBlockEnd
  0
BLOCK
  5
16DFB
330
16DF1
100
AcDbEntity
  8
0
 48
50.0
100
AcDbBlockBegin
  2
*D3
 70
     1
 10
0.0
 20
0.0
 30
0.0
  3
*D3
  1

  0
LINE
  5
1783D
330
16DF1
100
AcDbEntity
  8
寸法
 62
     0
 48
50.0
370
    -2
100
AcDbLine
 10
4998.811266749941
 20
2128.76935913585
 30
0.0
 11
4809.311263503303
 21
2128.76935913585
 31
0.0
  0
LINE
  5
1783E
330
16DF1
100
AcDbEntity
  8
寸法
 62
     0
 48
50.0
370
    -2
100
AcDbLine
 10
4973.811266749937
 20
2328.769359135849
 30
0.0
 11
4809.311263503303
 21
2328.769359135849
 31
0.0
  0
LINE
  5
1783F
330
16DF1
100
AcDbEntity
  8
寸法
 62
     0
 48
50.0
370
    -2
100
AcDbLine
 10
4869.311263503304
 20
2128.76935913585
 30
0.0
 11
4869.311263503304
 21
2328.769359135849
 31
0.0
  0
INSERT
  5
17840
330
16DF1
100
AcDbEntity
  8
寸法
 62
     0
 48
50.0
370
    -2
100
AcDbBlockReference
  2
_DOTSMALL
 10
4869.311263503304
 20
2128.76935913585
 30
0.0
 41
100.0
 42
100.0
 43
100.0
 50
270.0
  0
INSERT
  5
17841
330
16DF1
100
AcDbEntity
  8
寸法
 62
     0
 48
50.0
370
    -2
100
AcDbBlockReference
  2
_DOTSMALL
 10
4869.311263503304
 20
2328.769359135849
 30
0.0
 41
100.0
 42
100.0
 43
100.0
 50
90.0
  0
MTEXT
  5
17842
330
16DF1
100
AcDbEntity
  8
寸法
 62
     7
 48
50.0
100
AcDbMText
 10
4769.299452479681
 20
2228.76935913585
 30
0.0
 40
120.0
 41
0.0
 71
     5
 72
     1
  1
\A1;200
  7
STYLE1
 11
0.0000000000000001
 21
1.0
 31
0.0
 73
     1
 44
1.0
1001
ACAD
1000
MTEXTBEGIN
1070
    73
1070
     1
1070
    44
1040
1.0
1070
    74
1070
     0
1000
MTEXTEND
  0
POINT
  5
17843
330
16DF1
100
AcDbEntity
  8
DEFPOINTS
 62
     0
 48
50.0
100
AcDbPoint
 10
5018.811266749941
 20
2128.76935913585
 30
0.0
  0
POINT
  5
17844
330
16DF1
100
AcDbEntity
  8
DEFPOINTS
 62
     0
 48
50.0
100
AcDbPoint
 10
4993.811266749937
 20
2328.769359135849
 30
0.0
  0
POINT
  5
17845
330
16DF1
100
AcDbEntity
  8
DEFPOINTS
 62
     0
 48
50.0
100
AcDbPoint
 10
4869.311263503304
 20
2328.769359135849
 30
0.0
  0
ENDBLK
  5
16DFC
330
16DF1
100
AcDbEntity
  8
0
 48
50.0
100
AcDbBlockEnd
  0
BLOCK
  5
16E08
330
16DFD
100
AcDbEntity
  8
0
 48
50.0
100
AcDbBlockBegin
  2
*D4
 70
     1
 10
0.0
 20
0.0
 30
0.0
  3
*D4
  1

  0
LINE
  5
17833
330
16DFD
100
AcDbEntity
  8
寸法
 62
     0
 48
50.0
370
    -2
100
AcDbLine
 10
5030.715553041039
 20
4803.067066205511
 30
0.0
 11
4414.781113935768
 21
4820.78121647984
 31
0.0
  0
LINE
  5
17834
330
16DFD
100
AcDbEntity
  8
寸法
 62
     0
 48
50.0
370
    -2
100
AcDbLine
 10
5026.662097484413
 20
4662.125342439798
 30
0.0
 11
4410.727658379141
 21
4679.839492714127
 31
0.0
  0
LINE
  5
17835
330
16DFD
100
AcDbEntity
  8
寸法
 62
     0
 48
50.0
370
    -2
100
AcDbLine
 10
4470.702859981572
 20
4678.11461800918
 30
0.0
 11
4474.756315538199
 21
4819.056341774893
 31
0.0
  0
LINE
  5
17836
330
16DFD
100
AcDbEntity
  8
寸法
 62
     0
 48
50.0
370
    -2
100
AcDbLine
 10
4474.756315538199
 20
4819.056341774893
 30
0.0
 11
4485.105563767882
 21
5178.907551389485
 31
0.0
  0
INSERT
  5
17837
330
16DFD
100
AcDbEntity
  8
寸法
 62
     0
 48
50.0
370
    -2
100
AcDbBlockReference
  2
_DOTSMALL
 10
4470.702859981572
 20
4678.11461800918
 30
0.0
 41
100.0
 42
100.0
 43
100.0
 50
268.3526390256379
  0
INSERT
  5
17838
330
16DFD
100
AcDbEntity
  8
寸法
 62
     0
 48
50.0
370
    -2
100
AcDbBlockReference
  2
_DOTSMALL
 10
4474.756315538199
 20
4819.056341774893
 30
0.0
 41
100.0
 42
100.0
 43
100.0
 50
88.35263902563784
  0
MTEXT
  5
17839
330
16DFD
100
AcDbEntity
  8
寸法
 62
     7
 48
50.0
100
AcDbMText
 10
4381.409665903112
 20
5051.836072425798
 30
0.0
 40
120.0
 41
0.0
 71
     5
 72
     1
  1
\A1;141
  7
STYLE1
 11
0.0287479117491228
 21
0.9995866933738486
 31
0.0
 73
     1
 44
1.0
1001
ACAD
1000
MTEXTBEGIN
1070
    73
1070
     1
1070
    44
1040
1.0
1070
    74
1070
     0
1000
MTEXTEND
  0
POINT
  5
1783A
330
16DFD
100
AcDbEntity
  8
DEFPOINTS
 62
     0
 48
50.0
100
AcDbPoint
 10
5050.707286908516
 20
4802.49210797053
 30
0.0
  0
POINT
  5
1783B
330
16DFD
100
AcDbEntity
  8
DEFPOINTS
 62
     0
 48
50.0
100
AcDbPoint
 10
5046.653831351889
 20
4661.550384204816
 30
0.0
  0
POINT
  5
1783C
330
16DFD
100
AcDbEntity
  8
DEFPOINTS
 62
     0
 48
50.0
100
AcDbPoint
 10
4470.702859981572
 20
4678.11461800918
 30
0.0
  0
ENDBLK
  5
16E09
330
16DFD
100
AcDbEntity
  8
0
 48
50.0
100
AcDbBlockEnd
  0
BLOCK
  5
16E16
330
16E0A
100
AcDbEntity
  8
0
 48
50.0
100
AcDbBlockBegin
  2
*D5
 70
     1
 10
0.0
 20
0.0
 30
0.0
  3
*D5
  1

  0
LINE
  5
17828
330
16E0A
100
AcDbEntity
  8
寸法
 62
     0
 48
50.0
370
    -2
100
AcDbLine
 10
5071.311266749937
 20
2478.769359135851
 30
0.0
 11
4407.65855759164
 21
2478.769359135851
 31
0.0
  0
LINE
  5
17829
330
16E0A
100
AcDbEntity
  8
寸法
 62
     0
 48
50.0
370
    -2
100
AcDbLine
 10
5016.311266749937
 20
2428.769359135851
 30
0.0
 11
4407.65855759164
 21
2428.769359135851
 31
0.0
  0
LINE
  5
1782A
330
16E0A
100
AcDbEntity
  8
寸法
 62
     0
 48
50.0
370
    -2
100
AcDbLine
 10
4467.65855759164
 20
2478.769359135851
 30
0.0
 11
4467.65855759164
 21
2578.769359135851
 31
0.0
  0
LINE
  5
1782B
330
16E0A
100
AcDbEntity
  8
寸法
 62
     0
 48
50.0
370
    -2
100
AcDbLine
 10
4467.65855759164
 20
2428.769359135851
 30
0.0
 11
4467.658557591639
 21
2016.674870946868
 31
0.0
  0
LINE
  5
1782C
330
16E0A
100
AcDbEntity
  8
寸法
 62
     0
 48
50.0
370
    -2
100
AcDbLine
 10
4467.65855759164
 20
2478.769359135851
 30
0.0
 11
4467.65855759164
 21
2428.769359135851
 31
0.0
  0
INSERT
  5
1782D
330
16E0A
100
AcDbEntity
  8
寸法
 62
     0
 48
50.0
370
    -2
100
AcDbBlockReference
  2
_DOTSMALL
 10
4467.65855759164
 20
2478.769359135851
 30
0.0
 41
100.0
 42
100.0
 43
100.0
 50
270.0
  0
INSERT
  5
1782E
330
16E0A
100
AcDbEntity
  8
寸法
 62
     0
 48
50.0
370
    -2
100
AcDbBlockReference
  2
_DOTSMALL
 10
4467.65855759164
 20
2428.769359135851
 30
0.0
 41
100.0
 42
100.0
 43
100.0
 50
90.0
  0
MTEXT
  5
1782F
330
16E0A
100
AcDbEntity
  8
寸法
 62
     7
 48
50.0
100
AcDbMText
 10
4367.65855759164
 20
2122.722115041357
 30
0.0
 40
120.0
 41
0.0
 71
     5
 72
     1
  1
\A1;50
  7
STYLE1
 11
0.0000000000000001
 21
1.0
 31
0.0
 73
     1
 44
1.0
1001
ACAD
1000
MTEXTBEGIN
1070
    73
1070
     1
1070
    44
1040
1.0
1070
    74
1070
     0
1000
MTEXTEND
  0
POINT
  5
17830
330
16E0A
100
AcDbEntity
  8
DEFPOINTS
 62
     0
 48
50.0
100
AcDbPoint
 10
5091.311266749937
 20
2478.769359135851
 30
0.0
  0
POINT
  5
17831
330
16E0A
100
AcDbEntity
  8
DEFPOINTS
 62
     0
 48
50.0
100
AcDbPoint
 10
5036.311266749937
 20
2428.769359135851
 30
0.0
  0
POINT
  5
17832
330
16E0A
100
AcDbEntity
  8
DEFPOINTS
 62
     0
 48
50.0
100
AcDbPoint
 10
4467.65855759164
 20
2428.769359135851
 30
0.0
  0
ENDBLK
  5
16E17
330
16E0A
100
AcDbEntity
  8
0
 48
50.0
100
AcDbBlockEnd
  0
BLOCK
  5
16E23
330
16E18
100
AcDbEntity
  8
0
 48
50.0
100
AcDbBlockBegin
  2
*D6
 70
     1
 10
0.0
 20
0.0
 30
0.0
  3
*D6
  1

  0
LINE
  5
1781E
330
16E18
100
AcDbEntity
  8
寸法
 62
     0
 48
50.0
370
    -2
100
AcDbLine
 10
5016.311266749937
 20
2428.769359135851
 30
0.0
 11
4122.671884820579
 21
2428.769359135851
 31
0.0
  0
LINE
  5
1781F
330
16E18
100
AcDbEntity
  8
寸法
 62
     0
 48
50.0
370
    -2
100
AcDbLine
 10
4447.65855759164
 20
2328.769359135851
 30
0.0
 11
4122.671884820579
 21
2328.769359135851
 31
0.0
  0
LINE
  5
17820
330
16E18
100
AcDbEntity
  8
寸法
 62
     0
 48
50.0
370
    -2
100
AcDbLine
 10
4182.671884820579
 20
2428.769359135851
 30
0.0
 11
4182.671884820579
 21
2328.769359135851
 31
0.0
  0
LINE
  5
17821
330
16E18
100
AcDbEntity
  8
寸法
 62
     0
 48
50.0
370
    -2
100
AcDbLine
 10
4182.671884820579
 20
2328.769359135851
 30
0.0
 11
4182.671884820578
 21
1956.674870946868
 31
0.0
  0
INSERT
  5
17822
330
16E18
100
AcDbEntity
  8
寸法
 62
     0
 48
50.0
370
    -2
100
AcDbBlockReference
  2
_DOTSMALL
 10
4182.671884820579
 20
2428.769359135851
 30
0.0
 41
100.0
 42
100.0
 43
100.0
 50
90.0
  0
INSERT
  5
17823
330
16E18
100
AcDbEntity
  8
寸法
 62
     0
 48
50.0
370
    -2
100
AcDbBlockReference
  2
_DOTSMALL
 10
4182.671884820579
 20
2328.769359135851
 30
0.0
 41
100.0
 42
100.0
 43
100.0
 50
270.0
  0
MTEXT
  5
17824
330
16E18
100
AcDbEntity
  8
寸法
 62
     7
 48
50.0
100
AcDbMText
 10
4082.671884820578
 20
2092.722115041357
 30
0.0
 40
120.0
 41
0.0
 71
     5
 72
     1
  1
\A1;100
  7
STYLE1
 11
0.0000000000000001
 21
1.0
 31
0.0
 73
     1
 44
1.0
1001
ACAD
1000
MTEXTBEGIN
1070
    73
1070
     1
1070
    44
1040
1.0
1070
    74
1070
     0
1000
MTEXTEND
  0
POINT
  5
17825
330
16E18
100
AcDbEntity
  8
DEFPOINTS
 62
     0
 48
50.0
100
AcDbPoint
 10
5036.311266749937
 20
2428.769359135851
 30
0.0
  0
POINT
  5
17826
330
16E18
100
AcDbEntity
  8
DEFPOINTS
 62
     0
 48
50.0
100
AcDbPoint
 10
4467.658557591639
 20
2328.769359135851
 30
0.0
  0
POINT
  5
17827
330
16E18
100
AcDbEntity
  8
DEFPOINTS
 62
     0
 48
50.0
100
AcDbPoint
 10
4182.671884820579
 20
2328.769359135851
 30
0.0
  0
ENDBLK
  5
16E24
330
16E18
100
AcDbEntity
  8
0
 48
50.0
100
AcDbBlockEnd
  0
BLOCK
  5
16E2F
330
16E25
100
AcDbEntity
  8
0
 48
50.0
100
AcDbBlockBegin
  2
*D7
 70
     1
 10
0.0
 20
0.0
 30
0.0
  3
*D7
  1

  0
LINE
  5
17815
330
16E25
100
AcDbEntity
  8
寸法
 62
     0
 48
50.0
370
    -2
100
AcDbLine
 10
5071.311266749937
 20
2428.769359135851
 30
0.0
 11
4122.671884820579
 21
2428.769359135851
 31
0.0
  0
LINE
  5
17816
330
16E25
100
AcDbEntity
  8
寸法
 62
     0
 48
50.0
370
    -2
100
AcDbLine
 10
5011.311266749937
 20
4803.769359135855
 30
0.0
 11
4122.671884820579
 21
4803.769359135855
 31
0.0
  0
LINE
  5
17817
330
16E25
100
AcDbEntity
  8
寸法
 62
     0
 48
50.0
370
    -2
100
AcDbLine
 10
4182.671884820579
 20
2428.769359135851
 30
0.0
 11
4182.671884820579
 21
4803.769359135855
 31
0.0
  0
INSERT
  5
17818
330
16E25
100
AcDbEntity
  8
寸法
 62
     0
 48
50.0
370
    -2
100
AcDbBlockReference
  2
_DOTSMALL
 10
4182.671884820579
 20
2428.769359135851
 30
0.0
 41
100.0
 42
100.0
 43
100.0
 50
270.0
  0
INSERT
  5
17819
330
16E25
100
AcDbEntity
  8
寸法
 62
     0
 48
50.0
370
    -2
100
AcDbBlockReference
  2
_DOTSMALL
 10
4182.671884820579
 20
4803.769359135855
 30
0.0
 41
100.0
 42
100.0
 43
100.0
 50
90.0
  0
MTEXT
  5
1781A
330
16E25
100
AcDbEntity
  8
寸法
 62
     7
 48
50.0
100
AcDbMText
 10
4082.660073796956
 20
3523.769359135851
 30
0.0
 40
120.0
 41
0.0
 71
     5
 72
     1
  1
\A1;2375
  7
STYLE1
 11
0.0000000000000001
 21
1.0
 31
0.0
 73
     1
 44
1.0
1001
ACAD
1000
MTEXTBEGIN
1070
    73
1070
     1
1070
    44
1040
1.0
1070
    74
1070
     0
1000
MTEXTEND
  0
POINT
  5
1781B
330
16E25
100
AcDbEntity
  8
DEFPOINTS
 62
     0
 48
50.0
100
AcDbPoint
 10
5091.311266749937
 20
2428.769359135851
 30
0.0
  0
POINT
  5
1781C
330
16E25
100
AcDbEntity
  8
DEFPOINTS
 62
     0
 48
50.0
100
AcDbPoint
 10
5031.311266749938
 20
4803.769359135855
 30
0.0
  0
POINT
  5
1781D
330
16E25
100
AcDbEntity
  8
DEFPOINTS
 62
     0
 48
50.0
100
AcDbPoint
 10
4182.671884820579
 20
4803.769359135855
 30
0.0
  0
ENDBLK
  5
16E30
330
16E25
100
AcDbEntity
  8
0
 48
50.0
100
AcDbBlockEnd
  0
BLOCK
  5
16E3B
330
16E31
100
AcDbEntity
  8
0
 48
50.0
100
AcDbBlockBegin
  2
*D8
 70
     1
 10
0.0
 20
0.0
 30
0.0
  3
*D8
  1

  0
LINE
  5
1780C
330
16E31
100
AcDbEntity
  8
寸法
 62
     0
 48
50.0
370
    -2
100
AcDbLine
 10
5071.311266749937
 20
4568.769359135851
 30
0.0
 11
4407.658557591639
 21
4568.769359135851
 31
0.0
  0
LINE
  5
1780D
330
16E31
100
AcDbEntity
  8
寸法
 62
     0
 48
50.0
370
    -2
100
AcDbLine
 10
5071.311266749937
 20
2478.769359135851
 30
0.0
 11
4407.658557591639
 21
2478.769359135851
 31
0.0
  0
LINE
  5
1780E
330
16E31
100
AcDbEntity
  8
寸法
 62
     0
 48
50.0
370
    -2
100
AcDbLine
 10
4467.658557591639
 20
4568.769359135851
 30
0.0
 11
4467.658557591639
 21
2478.769359135851
 31
0.0
  0
INSERT
  5
1780F
330
16E31
100
AcDbEntity
  8
寸法
 62
     0
 48
50.0
370
    -2
100
AcDbBlockReference
  2
_DOTSMALL
 10
4467.658557591639
 20
4568.769359135851
 30
0.0
 41
100.0
 42
100.0
 43
100.0
 50
90.0
  0
INSERT
  5
17810
330
16E31
100
AcDbEntity
  8
寸法
 62
     0
 48
50.0
370
    -2
100
AcDbBlockReference
  2
_DOTSMALL
 10
4467.658557591639
 20
2478.769359135851
 30
0.0
 41
100.0
 42
100.0
 43
100.0
 50
270.0
  0
MTEXT
  5
17811
330
16E31
100
AcDbEntity
  8
寸法
 62
     7
 48
50.0
100
AcDbMText
 10
4367.646746568015
 20
3523.769359135851
 30
0.0
 40
120.0
 41
0.0
 71
     5
 72
     1
  1
\A1;2090
  7
STYLE1
 11
0.0000000000000001
 21
1.0
 31
0.0
 73
     1
 44
1.0
1001
ACAD
1000
MTEXTBEGIN
1070
    73
1070
     1
1070
    44
1040
1.0
1070
    74
1070
     0
1000
MTEXTEND
  0
POINT
  5
17812
330
16E31
100
AcDbEntity
  8
DEFPOINTS
 62
     0
 48
50.0
100
AcDbPoint
 10
5091.311266749937
 20
4568.769359135851
 30
0.0
  0
POINT
  5
17813
330
16E31
100
AcDbEntity
  8
DEFPOINTS
 62
     0
 48
50.0
100
AcDbPoint
 10
5091.311266749937
 20
2478.769359135851
 30
0.0
  0
POINT
  5
17814
330
16E31
100
AcDbEntity
  8
DEFPOINTS
 62
     0
 48
50.0
100
AcDbPoint
 10
4467.658557591639
 20
2478.769359135851
 30
0.0
  0
ENDBLK
  5
16E3C
330
16E31
100
AcDbEntity
  8
0
 48
50.0
100
AcDbBlockEnd
  0
BLOCK
  5
16E48
330
16E3D
100
AcDbEntity
  8
0
 48
50.0
100
AcDbBlockBegin
  2
*D9
 70
     1
 10
0.0
 20
0.0
 30
0.0
  3
*D9
  1

  0
LINE
  5
17802
330
16E3D
100
AcDbEntity
  8
寸法
 62
     0
 48
50.0
370
    -2
100
AcDbLine
 10
7301.311266749937
 20
4770.580038747502
 30
0.0
 11
7301.311266749937
 21
5262.426812715155
 31
0.0
  0
LINE
  5
17803
330
16E3D
100
AcDbEntity
  8
寸法
 62
     0
 48
50.0
370
    -2
100
AcDbLine
 10
7381.311266749936
 20
4768.769359135851
 30
0.0
 11
7381.311266749936
 21
5262.426812715155
 31
0.0
  0
LINE
  5
17804
330
16E3D
100
AcDbEntity
  8
寸法
 62
     0
 48
50.0
370
    -2
100
AcDbLine
 10
7301.311266749937
 20
5202.426812715154
 30
0.0
 11
7381.311266749936
 21
5202.426812715154
 31
0.0
  0
LINE
  5
17805
330
16E3D
100
AcDbEntity
  8
寸法
 62
     0
 48
50.0
370
    -2
100
AcDbLine
 10
7381.311266749936
 20
5202.426812715154
 30
0.0
 11
7693.405754938915
 21
5202.426812715154
 31
0.0
  0
INSERT
  5
17806
330
16E3D
100
AcDbEntity
  8
寸法
 62
     0
 48
50.0
370
    -2
100
AcDbBlockReference
  2
_DOTSMALL
 10
7301.311266749937
 20
5202.426812715154
 30
0.0
 41
100.0
 42
100.0
 43
100.0
 50
180.0
  0
INSERT
  5
17807
330
16E3D
100
AcDbEntity
  8
寸法
 62
     0
 48
50.0
370
    -2
100
AcDbBlockReference
  2
_DOTSMALL
 10
7381.311266749936
 20
5202.426812715154
 30
0.0
 41
100.0
 42
100.0
 43
100.0
  0
MTEXT
  5
17808
330
16E3D
100
AcDbEntity
  8
寸法
 62
     7
 48
50.0
100
AcDbMText
 10
7587.358510844428
 20
5302.426812715154
 30
0.0
 40
120.0
 41
0.0
 71
     5
 72
     1
  1
\A1;80
  7
STYLE1
 73
     1
 44
1.0
1001
ACAD
1000
MTEXTBEGIN
1070
    73
1070
     1
1070
    44
1040
1.0
1070
    74
1070
     0
1000
MTEXTEND
  0
POINT
  5
17809
330
16E3D
100
AcDbEntity
  8
DEFPOINTS
 62
     0
 48
50.0
100
AcDbPoint
 10
7301.311266749937
 20
4750.580038747503
 30
0.0
  0
POINT
  5
1780A
330
16E3D
100
AcDbEntity
  8
DEFPOINTS
 62
     0
 48
50.0
100
AcDbPoint
 10
7381.311266749936
 20
4748.769359135851
 30
0.0
  0
POINT
  5
1780B
330
16E3D
100
AcDbEntity
  8
DEFPOINTS
 62
     0
 48
50.0
100
AcDbPoint
 10
7381.311266749936
 20
5202.426812715154
 30
0.0
  0
ENDBLK
  5
16E49
330
16E3D
100
AcDbEntity
  8
0
 48
50.0
100
AcDbBlockEnd
  0
BLOCK
  5
16E54
330
16E4A
100
AcDbEntity
  8
0
 48
50.0
100
AcDbBlockBegin
  2
*D10
 70
     1
 10
0.0
 20
0.0
 30
0.0
  3
*D10
  1

  0
LINE
  5
177F9
330
16E4A
100
AcDbEntity
  8
寸法
 62
     0
 48
50.0
370
    -2
100
AcDbLine
 10
7381.311266749936
 20
4768.769359135851
 30
0.0
 11
7381.311266749936
 21
5481.628646389445
 31
0.0
  0
LINE
  5
177FA
330
16E4A
100
AcDbEntity
  8
寸法
 62
     0
 48
50.0
370
    -2
100
AcDbLine
 10
5031.311266749938
 20
4823.769359135855
 30
0.0
 11
5031.311266749938
 21
5481.628646389445
 31
0.0
  0
LINE
  5
177FB
330
16E4A
100
AcDbEntity
  8
寸法
 62
     0
 48
50.0
370
    -2
100
AcDbLine
 10
7381.311266749936
 20
5421.628646389446
 30
0.0
 11
5031.311266749938
 21
5421.628646389446
 31
0.0
  0
INSERT
  5
177FC
330
16E4A
100
AcDbEntity
  8
寸法
 62
     0
 48
50.0
370
    -2
100
AcDbBlockReference
  2
_DOTSMALL
 10
7381.311266749936
 20
5421.628646389446
 30
0.0
 41
100.0
 42
100.0
 43
100.0
  0
INSERT
  5
177FD
330
16E4A
100
AcDbEntity
  8
寸法
 62
     0
 48
50.0
370
    -2
100
AcDbBlockReference
  2
_DOTSMALL
 10
5031.311266749938
 20
5421.628646389446
 30
0.0
 41
100.0
 42
100.0
 43
100.0
 50
180.0
  0
MTEXT
  5
177FE
330
16E4A
100
AcDbEntity
  8
寸法
 62
     7
 48
50.0
100
AcDbMText
 10
6265.655120842406
 20
5521.640457413067
 30
0.0
 40
120.0
 41
0.0
 71
     5
 72
     1
  1
\A1;2350
  7
STYLE1
 73
     1
 44
1.0
1001
ACAD
1000
MTEXTBEGIN
1070
    73
1070
     1
1070
    44
1040
1.0
1070
    74
1070
     0
1000
MTEXTEND
  0
POINT
  5
177FF
330
16E4A
100
AcDbEntity
  8
DEFPOINTS
 62
     0
 48
50.0
100
AcDbPoint
 10
7381.311266749936
 20
4748.769359135851
 30
0.0
  0
POINT
  5
17800
330
16E4A
100
AcDbEntity
  8
DEFPOINTS
 62
     0
 48
50.0
100
AcDbPoint
 10
5031.311266749938
 20
4803.769359135855
 30
0.0
  0
POINT
  5
17801
330
16E4A
100
AcDbEntity
  8
DEFPOINTS
 62
     0
 48
50.0
100
AcDbPoint
 10
5031.311266749938
 20
5421.628646389446
 30
0.0
  0
ENDBLK
  5
16E55
330
16E4A
100
AcDbEntity
  8
0
 48
50.0
100
AcDbBlockEnd
  0
BLOCK
  5
16E62
330
16E56
100
AcDbEntity
  8
0
 48
50.0
100
AcDbBlockBegin
  2
*D11
 70
     1
 10
0.0
 20
0.0
 30
0.0
  3
*D11
  1

  0
LINE
  5
177EE
330
16E56
100
AcDbEntity
  8
寸法
 62
     0
 48
50.0
370
    -2
100
AcDbLine
 10
5091.311266749937
 20
4819.770977258827
 30
0.0
 11
5091.311266749937
 21
5262.426812715155
 31
0.0
  0
LINE
  5
177EF
330
16E56
100
AcDbEntity
  8
寸法
 62
     0
 48
50.0
370
    -2
100
AcDbLine
 10
5031.311266749938
 20
4823.769359135855
 30
0.0
 11
5031.311266749938
 21
5262.426812715155
 31
0.0
  0
LINE
  5
177F0
330
16E56
100
AcDbEntity
  8
寸法
 62
     0
 48
50.0
370
    -2
100
AcDbLine
 10
5091.311266749937
 20
5202.426812715154
 30
0.0
 11
5191.311266749938
 21
5202.426812715154
 31
0.0
  0
LINE
  5
177F1
330
16E56
100
AcDbEntity
  8
寸法
 62
     0
 48
50.0
370
    -2
100
AcDbLine
 10
5031.311266749938
 20
5202.426812715154
 30
0.0
 11
4612.035676198756
 21
5202.426812715154
 31
0.0
  0
LINE
  5
177F2
330
16E56
100
AcDbEntity
  8
寸法
 62
     0
 48
50.0
370
    -2
100
AcDbLine
 10
5091.311266749937
 20
5202.426812715154
 30
0.0
 11
5031.311266749938
 21
5202.426812715154
 31
0.0
  0
INSERT
  5
177F3
330
16E56
100
AcDbEntity
  8
寸法
 62
     0
 48
50.0
370
    -2
100
AcDbBlockReference
  2
_DOTSMALL
 10
5091.311266749937
 20
5202.426812715154
 30
0.0
 41
100.0
 42
100.0
 43
100.0
 50
180.0
  0
INSERT
  5
177F4
330
16E56
100
AcDbEntity
  8
寸法
 62
     0
 48
50.0
370
    -2
100
AcDbBlockReference
  2
_DOTSMALL
 10
5031.311266749938
 20
5202.426812715154
 30
0.0
 41
100.0
 42
100.0
 43
100.0
  0
MTEXT
  5
177F5
330
16E56
100
AcDbEntity
  8
寸法
 62
     7
 48
50.0
100
AcDbMText
 10
4721.673471474347
 20
5302.426812715154
 30
0.0
 40
120.0
 41
0.0
 71
     5
 72
     1
  1
\A1;60
  7
STYLE1
 73
     1
 44
1.0
1001
ACAD
1000
MTEXTBEGIN
1070
    73
1070
     1
1070
    44
1040
1.0
1070
    74
1070
     0
1000
MTEXTEND
  0
POINT
  5
177F6
330
16E56
100
AcDbEntity
  8
DEFPOINTS
 62
     0
 48
50.0
100
AcDbPoint
 10
5091.311266749937
 20
4799.770977258828
 30
0.0
  0
POINT
  5
177F7
330
16E56
100
AcDbEntity
  8
DEFPOINTS
 62
     0
 48
50.0
100
AcDbPoint
 10
5031.311266749938
 20
4803.769359135855
 30
0.0
  0
POINT
  5
177F8
330
16E56
100
AcDbEntity
  8
DEFPOINTS
 62
     0
 48
50.0
100
AcDbPoint
 10
5031.311266749938
 20
5202.426812715154
 30
0.0
  0
ENDBLK
  5
16E63
330
16E56
100
AcDbEntity
  8
0
 48
50.0
100
AcDbBlockEnd
  0
BLOCK
  5
16E6E
330
16E64
100
AcDbEntity
  8
0
 48
50.0
100
AcDbBlockBegin
  2
*D12
 70
     1
 10
0.0
 20
0.0
 30
0.0
  3
*D12
  1

  0
LINE
  5
177E5
330
16E64
100
AcDbEntity
  8
寸法
 62
     0
 48
50.0
370
    -2
100
AcDbLine
 10
7301.311266749937
 20
4770.580038747502
 30
0.0
 11
7301.311266749937
 21
5262.426812715155
 31
0.0
  0
LINE
  5
177E6
330
16E64
100
AcDbEntity
  8
寸法
 62
     0
 48
50.0
370
    -2
100
AcDbLine
 10
5091.311266749937
 20
4819.770977258827
 30
0.0
 11
5091.311266749937
 21
5262.426812715155
 31
0.0
  0
LINE
  5
177E7
330
16E64
100
AcDbEntity
  8
寸法
 62
     0
 48
50.0
370
    -2
100
AcDbLine
 10
7301.311266749937
 20
5202.426812715154
 30
0.0
 11
5091.311266749937
 21
5202.426812715154
 31
0.0
  0
INSERT
  5
177E8
330
16E64
100
AcDbEntity
  8
寸法
 62
     0
 48
50.0
370
    -2
100
AcDbBlockReference
  2
_DOTSMALL
 10
7301.311266749937
 20
5202.426812715154
 30
0.0
 41
100.0
 42
100.0
 43
100.0
  0
INSERT
  5
177E9
330
16E64
100
AcDbEntity
  8
寸法
 62
     0
 48
50.0
370
    -2
100
AcDbBlockReference
  2
_DOTSMALL
 10
5091.311266749937
 20
5202.426812715154
 30
0.0
 41
100.0
 42
100.0
 43
100.0
 50
180.0
  0
MTEXT
  5
177EA
330
16E64
100
AcDbEntity
  8
寸法
 62
     7
 48
50.0
100
AcDbMText
 10
6185.956003820451
 20
5302.438623738776
 30
0.0
 40
120.0
 41
0.0
 71
     5
 72
     1
  1
\A1;柱外寸法2210
  7
STYLE1
 73
     1
 44
1.0
1001
ACAD
1000
MTEXTBEGIN
1070
    73
1070
     1
1070
    44
1040
1.0
1070
    74
1070
     0
1000
MTEXTEND
  0
POINT
  5
177EB
330
16E64
100
AcDbEntity
  8
DEFPOINTS
 62
     0
 48
50.0
100
AcDbPoint
 10
7301.311266749937
 20
4750.580038747503
 30
0.0
  0
POINT
  5
177EC
330
16E64
100
AcDbEntity
  8
DEFPOINTS
 62
     0
 48
50.0
100
AcDbPoint
 10
5091.311266749937
 20
4799.770977258828
 30
0.0
  0
POINT
  5
177ED
330
16E64
100
AcDbEntity
  8
DEFPOINTS
 62
     0
 48
50.0
100
AcDbPoint
 10
5091.311266749937
 20
5202.426812715154
 30
0.0
  0
ENDBLK
  5
16E6F
330
16E64
100
AcDbEntity
  8
0
 48
50.0
100
AcDbBlockEnd
  0
BLOCK
  5
16E7A
330
16E70
100
AcDbEntity
  8
0
 48
50.0
100
AcDbBlockBegin
  2
*D13
 70
     1
 10
0.0
 20
0.0
 30
0.0
  3
*D13
  1

  0
LINE
  5
177DC
330
16E70
100
AcDbEntity
  8
寸法
 62
     0
 48
50.0
370
    -2
100
AcDbLine
 10
7398.311266749941
 20
2428.769359135849
 30
0.0
 11
7909.263683254096
 21
2428.769359135849
 31
0.0
  0
LINE
  5
177DD
330
16E70
100
AcDbEntity
  8
寸法
 62
     0
 48
50.0
370
    -2
100
AcDbLine
 10
7401.311266749937
 20
4748.769359135851
 30
0.0
 11
7909.263683254096
 21
4748.769359135851
 31
0.0
  0
LINE
  5
177DE
330
16E70
100
AcDbEntity
  8
寸法
 62
     0
 48
50.0
370
    -2
100
AcDbLine
 10
7849.263683254097
 20
2428.769359135849
 30
0.0
 11
7849.263683254097
 21
4748.769359135851
 31
0.0
  0
INSERT
  5
177DF
330
16E70
100
AcDbEntity
  8
寸法
 62
     0
 48
50.0
370
    -2
100
AcDbBlockReference
  2
_DOTSMALL
 10
7849.263683254097
 20
2428.769359135849
 30
0.0
 41
100.0
 42
100.0
 43
100.0
 50
270.0
  0
INSERT
  5
177E0
330
16E70
100
AcDbEntity
  8
寸法
 62
     0
 48
50.0
370
    -2
100
AcDbBlockReference
  2
_DOTSMALL
 10
7849.263683254097
 20
4748.769359135851
 30
0.0
 41
100.0
 42
100.0
 43
100.0
 50
90.0
  0
MTEXT
  5
177E1
330
16E70
100
AcDbEntity
  8
寸法
 62
     7
 48
50.0
100
AcDbMText
 10
7749.251872230473
 20
3549.746088347121
 30
0.0
 40
120.0
 41
0.0
 71
     5
 72
     1
  1
\A1;2320
  7
STYLE1
 11
0.0000000000000001
 21
1.0
 31
0.0
 73
     1
 44
1.0
1001
ACAD
1000
MTEXTBEGIN
1070
    73
1070
     1
1070
    44
1040
1.0
1070
    74
1070
     0
1000
MTEXTEND
  0
POINT
  5
177E2
330
16E70
100
AcDbEntity
  8
DEFPOINTS
 62
     0
 48
50.0
100
AcDbPoint
 10
7378.311266749941
 20
2428.769359135849
 30
0.0
  0
POINT
  5
177E3
330
16E70
100
AcDbEntity
  8
DEFPOINTS
 62
     0
 48
50.0
100
AcDbPoint
 10
7381.311266749936
 20
4748.769359135851
 30
0.0
  0
POINT
  5
177E4
330
16E70
100
AcDbEntity
  8
DEFPOINTS
 62
     0
 48
50.0
100
AcDbPoint
 10
7849.263683254097
 20
4748.769359135851
 30
0.0
  0
ENDBLK
  5
16E7B
330
16E70
100
AcDbEntity
  8
0
 48
50.0
100
AcDbBlockEnd
  0
BLOCK
  5
16E88
330
16E7C
100
AcDbEntity
  8
0
 48
50.0
100
AcDbBlockBegin
  2
*D14
 70
     1
 10
0.0
 20
0.0
 30
0.0
  3
*D14
  1

  0
LINE
  5
177D1
330
16E7C
100
AcDbEntity
  8
寸法
 62
     0
 48
50.0
370
    -2
100
AcDbLine
 10
11243.40829608719
 20
4823.769359135854
 30
0.0
 11
11243.40829608719
 21
5262.862528475324
 31
0.0
  0
LINE
  5
177D2
330
16E7C
100
AcDbEntity
  8
寸法
 62
     0
 48
50.0
370
    -2
100
AcDbLine
 10
11193.40829608719
 20
4823.769359135856
 30
0.0
 11
11193.40829608719
 21
5262.862528475324
 31
0.0
  0
LINE
  5
177D3
330
16E7C
100
AcDbEntity
  8
寸法
 62
     0
 48
50.0
370
    -2
100
AcDbLine
 10
11193.40829608719
 20
5202.862528475325
 30
0.0
 11
11093.40829608719
 21
5202.862528475325
 31
0.0
  0
LINE
  5
177D4
330
16E7C
100
AcDbEntity
  8
寸法
 62
     0
 48
50.0
370
    -2
100
AcDbLine
 10
11243.40829608719
 20
5202.862528475325
 30
0.0
 11
11662.94082155592
 21
5202.862528475325
 31
0.0
  0
LINE
  5
177D5
330
16E7C
100
AcDbEntity
  8
寸法
 62
     0
 48
50.0
370
    -2
100
AcDbLine
 10
11193.40829608719
 20
5202.862528475325
 30
0.0
 11
11243.40829608719
 21
5202.862528475325
 31
0.0
  0
INSERT
  5
177D6
330
16E7C
100
AcDbEntity
  8
寸法
 62
     0
 48
50.0
370
    -2
100
AcDbBlockReference
  2
_DOTSMALL
 10
11193.40829608719
 20
5202.862528475325
 30
0.0
 41
100.0
 42
100.0
 43
100.0
  0
INSERT
  5
177D7
330
16E7C
100
AcDbEntity
  8
寸法
 62
     0
 48
50.0
370
    -2
100
AcDbBlockReference
  2
_DOTSMALL
 10
11243.40829608719
 20
5202.862528475325
 30
0.0
 41
100.0
 42
100.0
 43
100.0
 50
180.0
  0
MTEXT
  5
177D8
330
16E7C
100
AcDbEntity
  8
寸法
 62
     7
 48
50.0
100
AcDbMText
 10
11556.89357746143
 20
5302.862528475325
 30
0.0
 40
120.0
 41
0.0
 71
     5
 72
     1
  1
\A1;50
  7
STYLE1
 73
     1
 44
1.0
1001
ACAD
1000
MTEXTBEGIN
1070
    73
1070
     1
1070
    44
1040
1.0
1070
    74
1070
     0
1000
MTEXTEND
  0
POINT
  5
177D9
330
16E7C
100
AcDbEntity
  8
DEFPOINTS
 62
     0
 48
50.0
100
AcDbPoint
 10
11243.40829608719
 20
4803.769359135854
 30
0.0
  0
POINT
  5
177DA
330
16E7C
100
AcDbEntity
  8
DEFPOINTS
 62
     0
 48
50.0
100
AcDbPoint
 10
11193.40829608719
 20
4803.769359135857
 30
0.0
  0
POINT
  5
177DB
330
16E7C
100
AcDbEntity
  8
DEFPOINTS
 62
     0
 48
50.0
100
AcDbPoint
 10
11193.40829608719
 20
5202.862528475325
 30
0.0
  0
ENDBLK
  5
16E89
330
16E7C
100
AcDbEntity
  8
0
 48
50.0
100
AcDbBlockEnd
  0
BLOCK
  5
16E94
330
16E8A
100
AcDbEntity
  8
0
 48
50.0
100
AcDbBlockBegin
  2
*D15
 70
     1
 10
0.0
 20
0.0
 30
0.0
  3
*D15
  1

  0
LINE
  5
17C5A
330
16E8A
100
AcDbEntity
  8
寸法
 62
     0
 48
50.0
370
    -2
100
AcDbLine
 10
9411.408296087213
 20
4511.76935913585
 30
0.0
 11
9048.201625201604
 21
4511.76935913585
 31
0.0
  0
LINE
  5
17C5B
330
16E8A
100
AcDbEntity
  8
寸法
 62
     0
 48
50.0
370
    -2
100
AcDbLine
 10
9411.408296087213
 20
2486.769359135851
 30
0.0
 11
9048.201625201604
 21
2486.769359135852
 31
0.0
  0
LINE
  5
17C5C
330
16E8A
100
AcDbEntity
  8
寸法
 62
     0
 48
50.0
370
    -2
100
AcDbLine
 10
9108.201625201607
 20
4511.76935913585
 30
0.0
 11
9108.201625201603
 21
2486.769359135852
 31
0.0
  0
INSERT
  5
17C5D
330
16E8A
100
AcDbEntity
  8
寸法
 62
     0
 48
50.0
370
    -2
100
AcDbBlockReference
  2
_DOTSMALL
 10
9108.201625201607
 20
4511.76935913585
 30
0.0
 41
100.0
 42
100.0
 43
100.0
 50
90.0
  0
INSERT
  5
17C5E
330
16E8A
100
AcDbEntity
  8
寸法
 62
     0
 48
50.0
370
    -2
100
AcDbBlockReference
  2
_DOTSMALL
 10
9108.201625201603
 20
2486.769359135852
 30
0.0
 41
100.0
 42
100.0
 43
100.0
 50
270.0
  0
MTEXT
  5
17C5F
330
16E8A
100
AcDbEntity
  8
寸法
 62
     7
 48
50.0
100
AcDbMText
 10
9008.189814177981
 20
3504.155992697889
 30
0.0
 40
120.0
 41
0.0
 71
     5
 72
     1
  1
\A1;有効開口部高サ2025
  7
STYLE1
 11
0.0000000000000001
 21
1.0
 31
0.0
 73
     1
 44
1.0
1001
ACAD
1000
MTEXTBEGIN
1070
    73
1070
     1
1070
    44
1040
1.0
1070
    74
1070
     0
1000
MTEXTEND
  0
POINT
  5
17C60
330
16E8A
100
AcDbEntity
  8
DEFPOINTS
 62
     0
 48
50.0
100
AcDbPoint
 10
9431.408296087212
 20
4511.76935913585
 30
0.0
  0
POINT
  5
17C61
330
16E8A
100
AcDbEntity
  8
DEFPOINTS
 62
     0
 48
50.0
100
AcDbPoint
 10
9431.408296087212
 20
2486.769359135851
 30
0.0
  0
POINT
  5
17C62
330
16E8A
100
AcDbEntity
  8
DEFPOINTS
 62
     0
 48
50.0
100
AcDbPoint
 10
9108.201625201603
 20
2486.769359135852
 30
0.0
  0
ENDBLK
  5
16E95
330
16E8A
100
AcDbEntity
  8
0
 48
50.0
100
AcDbBlockEnd
  0
BLOCK
  5
16EA0
330
16E96
100
AcDbEntity
  8
0
 48
50.0
100
AcDbBlockBegin
  2
*D16
 70
     1
 10
0.0
 20
0.0
 30
0.0
  3
*D16
  1

  0
LINE
  5
177BF
330
16E96
100
AcDbEntity
  8
寸法
 62
     0
 48
50.0
370
    -2
100
AcDbLine
 10
9353.408296087197
 20
4823.769359135856
 30
0.0
 11
9353.408296087197
 21
5479.38862809377
 31
0.0
  0
LINE
  5
177C0
330
16E96
100
AcDbEntity
  8
寸法
 62
     0
 48
50.0
370
    -2
100
AcDbLine
 10
11243.40829608719
 20
4823.769359135854
 30
0.0
 11
11243.40829608719
 21
5479.38862809377
 31
0.0
  0
LINE
  5
177C1
330
16E96
100
AcDbEntity
  8
寸法
 62
     0
 48
50.0
370
    -2
100
AcDbLine
 10
9353.408296087197
 20
5419.38862809377
 30
0.0
 11
11243.40829608719
 21
5419.38862809377
 31
0.0
  0
INSERT
  5
177C2
330
16E96
100
AcDbEntity
  8
寸法
 62
     0
 48
50.0
370
    -2
100
AcDbBlockReference
  2
_DOTSMALL
 10
9353.408296087197
 20
5419.38862809377
 30
0.0
 41
100.0
 42
100.0
 43
100.0
 50
180.0
  0
INSERT
  5
177C3
330
16E96
100
AcDbEntity
  8
寸法
 62
     0
 48
50.0
370
    -2
100
AcDbBlockReference
  2
_DOTSMALL
 10
11243.40829608719
 20
5419.38862809377
 30
0.0
 41
100.0
 42
100.0
 43
100.0
  0
MTEXT
  5
177C4
330
16E96
100
AcDbEntity
  8
寸法
 62
     7
 48
50.0
100
AcDbMText
 10
10298.4082960872
 20
5519.38862809377
 30
0.0
 40
120.0
 41
0.0
 71
     5
 72
     1
  1
\A1;1890
  7
STYLE1
 73
     1
 44
1.0
1001
ACAD
1000
MTEXTBEGIN
1070
    73
1070
     1
1070
    44
1040
1.0
1070
    74
1070
     0
1000
MTEXTEND
  0
POINT
  5
177C5
330
16E96
100
AcDbEntity
  8
DEFPOINTS
 62
     0
 48
50.0
100
AcDbPoint
 10
9353.408296087197
 20
4803.769359135857
 30
0.0
  0
POINT
  5
177C6
330
16E96
100
AcDbEntity
  8
DEFPOINTS
 62
     0
 48
50.0
100
AcDbPoint
 10
11243.40829608719
 20
4803.769359135854
 30
0.0
  0
POINT
  5
177C7
330
16E96
100
AcDbEntity
  8
DEFPOINTS
 62
     0
 48
50.0
100
AcDbPoint
 10
11243.40829608719
 20
5419.38862809377
 30
0.0
  0
ENDBLK
  5
16EA1
330
16E96
100
AcDbEntity
  8
0
 48
50.0
100
AcDbBlockEnd
  0
BLOCK
  5
16EAE
330
16EA2
100
AcDbEntity
  8
0
 48
50.0
100
AcDbBlockBegin
  2
*D17
 70
     1
 10
0.0
 20
0.0
 30
0.0
  3
*D17
  1

  0
LINE
  5
177B4
330
16EA2
100
AcDbEntity
  8
寸法
 62
     0
 48
50.0
370
    -2
100
AcDbLine
 10
9403.408296087198
 20
4823.769359135858
 30
0.0
 11
9403.408296087198
 21
5262.862528475324
 31
0.0
  0
LINE
  5
177B5
330
16EA2
100
AcDbEntity
  8
寸法
 62
     0
 48
50.0
370
    -2
100
AcDbLine
 10
9353.408296087197
 20
4823.769359135856
 30
0.0
 11
9353.408296087197
 21
5262.862528475324
 31
0.0
  0
LINE
  5
177B6
330
16EA2
100
AcDbEntity
  8
寸法
 62
     0
 48
50.0
370
    -2
100
AcDbLine
 10
9403.408296087198
 20
5202.862528475325
 30
0.0
 11
9503.408296087197
 21
5202.862528475325
 31
0.0
  0
LINE
  5
177B7
330
16EA2
100
AcDbEntity
  8
寸法
 62
     0
 48
50.0
370
    -2
100
AcDbLine
 10
9353.408296087197
 20
5202.862528475325
 30
0.0
 11
8933.875770618461
 21
5202.862528475325
 31
0.0
  0
LINE
  5
177B8
330
16EA2
100
AcDbEntity
  8
寸法
 62
     0
 48
50.0
370
    -2
100
AcDbLine
 10
9403.408296087198
 20
5202.862528475325
 30
0.0
 11
9353.408296087197
 21
5202.862528475325
 31
0.0
  0
INSERT
  5
177B9
330
16EA2
100
AcDbEntity
  8
寸法
 62
     0
 48
50.0
370
    -2
100
AcDbBlockReference
  2
_DOTSMALL
 10
9403.408296087198
 20
5202.862528475325
 30
0.0
 41
100.0
 42
100.0
 43
100.0
 50
180.0
  0
INSERT
  5
177BA
330
16EA2
100
AcDbEntity
  8
寸法
 62
     0
 48
50.0
370
    -2
100
AcDbBlockReference
  2
_DOTSMALL
 10
9353.408296087197
 20
5202.862528475325
 30
0.0
 41
100.0
 42
100.0
 43
100.0
  0
MTEXT
  5
177BB
330
16EA2
100
AcDbEntity
  8
寸法
 62
     7
 48
50.0
100
AcDbMText
 10
9039.92301471295
 20
5302.862528475325
 30
0.0
 40
120.0
 41
0.0
 71
     5
 72
     1
  1
\A1;50
  7
STYLE1
 73
     1
 44
1.0
1001
ACAD
1000
MTEXTBEGIN
1070
    73
1070
     1
1070
    44
1040
1.0
1070
    74
1070
     0
1000
MTEXTEND
  0
POINT
  5
177BC
330
16EA2
100
AcDbEntity
  8
DEFPOINTS
 62
     0
 48
50.0
100
AcDbPoint
 10
9403.408296087198
 20
4803.769359135857
 30
0.0
  0
POINT
  5
177BD
330
16EA2
100
AcDbEntity
  8
DEFPOINTS
 62
     0
 48
50.0
100
AcDbPoint
 10
9353.408296087197
 20
4803.769359135857
 30
0.0
  0
POINT
  5
177BE
330
16EA2
100
AcDbEntity
  8
DEFPOINTS
 62
     0
 48
50.0
100
AcDbPoint
 10
9353.408296087197
 20
5202.862528475325
 30
0.0
  0
ENDBLK
  5
16EAF
330
16EA2
100
AcDbEntity
  8
0
 48
50.0
100
AcDbBlockEnd
  0
BLOCK
  5
16EBA
330
16EB0
100
AcDbEntity
  8
0
 48
50.0
100
AcDbBlockBegin
  2
*D18
 70
     1
 10
0.0
 20
0.0
 30
0.0
  3
*D18
  1

  0
LINE
  5
177AB
330
16EB0
100
AcDbEntity
  8
寸法
 62
     0
 48
50.0
370
    -2
100
AcDbLine
 10
11193.40829608719
 20
4823.769359135856
 30
0.0
 11
11193.40829608719
 21
5262.862528475324
 31
0.0
  0
LINE
  5
177AC
330
16EB0
100
AcDbEntity
  8
寸法
 62
     0
 48
50.0
370
    -2
100
AcDbLine
 10
9403.408296087198
 20
4823.769359135858
 30
0.0
 11
9403.408296087198
 21
5262.862528475324
 31
0.0
  0
LINE
  5
177AD
330
16EB0
100
AcDbEntity
  8
寸法
 62
     0
 48
50.0
370
    -2
100
AcDbLine
 10
11193.40829608719
 20
5202.862528475325
 30
0.0
 11
9403.408296087198
 21
5202.862528475325
 31
0.0
  0
INSERT
  5
177AE
330
16EB0
100
AcDbEntity
  8
寸法
 62
     0
 48
50.0
370
    -2
100
AcDbBlockReference
  2
_DOTSMALL
 10
11193.40829608719
 20
5202.862528475325
 30
0.0
 41
100.0
 42
100.0
 43
100.0
  0
INSERT
  5
177AF
330
16EB0
100
AcDbEntity
  8
寸法
 62
     0
 48
50.0
370
    -2
100
AcDbBlockReference
  2
_DOTSMALL
 10
9403.408296087198
 20
5202.862528475325
 30
0.0
 41
100.0
 42
100.0
 43
100.0
 50
180.0
  0
MTEXT
  5
177B0
330
16EB0
100
AcDbEntity
  8
寸法
 62
     7
 48
50.0
100
AcDbMText
 10
10298.4082960872
 20
5302.862528475325
 30
0.0
 40
120.0
 41
0.0
 71
     5
 72
     1
  1
\A1;柱外寸法1790
  7
STYLE1
 73
     1
 44
1.0
1001
ACAD
1000
MTEXTBEGIN
1070
    73
1070
     1
1070
    44
1040
1.0
1070
    74
1070
     0
1000
MTEXTEND
  0
POINT
  5
177B1
330
16EB0
100
AcDbEntity
  8
DEFPOINTS
 62
     0
 48
50.0
100
AcDbPoint
 10
11193.40829608719
 20
4803.769359135857
 30
0.0
  0
POINT
  5
177B2
330
16EB0
100
AcDbEntity
  8
DEFPOINTS
 62
     0
 48
50.0
100
AcDbPoint
 10
9403.408296087198
 20
4803.769359135857
 30
0.0
  0
POINT
  5
177B3
330
16EB0
100
AcDbEntity
  8
DEFPOINTS
 62
     0
 48
50.0
100
AcDbPoint
 10
9403.408296087198
 20
5202.862528475325
 30
0.0
  0
ENDBLK
  5
16EBB
330
16EB0
100
AcDbEntity
  8
0
 48
50.0
100
AcDbBlockEnd
  0
BLOCK
  5
16EC6
330
16EBC
100
AcDbEntity
  8
0
 48
50.0
100
AcDbBlockBegin
  2
*D19
 70
     1
 10
0.0
 20
0.0
 30
0.0
  3
*D19
  1

  0
LINE
  5
177A2
330
16EBC
100
AcDbEntity
  8
寸法
 62
     0
 48
50.0
370
    -2
100
AcDbLine
 10
9503.408296087199
 20
2108.76935913585
 30
0.0
 11
9503.408296087199
 21
1782.722029835473
 31
0.0
  0
LINE
  5
177A3
330
16EBC
100
AcDbEntity
  8
寸法
 62
     0
 48
50.0
370
    -2
100
AcDbLine
 10
9303.408296087196
 20
2108.76935913585
 30
0.0
 11
9303.408296087196
 21
1782.722029835473
 31
0.0
  0
LINE
  5
177A4
330
16EBC
100
AcDbEntity
  8
寸法
 62
     0
 48
50.0
370
    -2
100
AcDbLine
 10
9503.408296087199
 20
1842.722029835473
 30
0.0
 11
9303.408296087196
 21
1842.722029835473
 31
0.0
  0
INSERT
  5
177A5
330
16EBC
100
AcDbEntity
  8
寸法
 62
     0
 48
50.0
370
    -2
100
AcDbBlockReference
  2
_DOTSMALL
 10
9503.408296087199
 20
1842.722029835473
 30
0.0
 41
100.0
 42
100.0
 43
100.0
  0
INSERT
  5
177A6
330
16EBC
100
AcDbEntity
  8
寸法
 62
     0
 48
50.0
370
    -2
100
AcDbBlockReference
  2
_DOTSMALL
 10
9303.408296087196
 20
1842.722029835473
 30
0.0
 41
100.0
 42
100.0
 43
100.0
 50
180.0
  0
MTEXT
  5
177A7
330
16EBC
100
AcDbEntity
  8
寸法
 62
     7
 48
50.0
100
AcDbMText
 10
9403.408296087198
 20
1942.733840859095
 30
0.0
 40
120.0
 41
0.0
 71
     5
 72
     1
  1
\A1;200
  7
STYLE1
 73
     1
 44
1.0
1001
ACAD
1000
MTEXTBEGIN
1070
    73
1070
     1
1070
    44
1040
1.0
1070
    74
1070
     0
1000
MTEXTEND
  0
POINT
  5
177A8
330
16EBC
100
AcDbEntity
  8
DEFPOINTS
 62
     0
 48
50.0
100
AcDbPoint
 10
9503.408296087199
 20
2128.76935913585
 30
0.0
  0
POINT
  5
177A9
330
16EBC
100
AcDbEntity
  8
DEFPOINTS
 62
     0
 48
50.0
100
AcDbPoint
 10
9303.408296087196
 20
2128.76935913585
 30
0.0
  0
POINT
  5
177AA
330
16EBC
100
AcDbEntity
  8
DEFPOINTS
 62
     0
 48
50.0
100
AcDbPoint
 10
9303.408296087196
 20
1842.722029835473
 30
0.0
  0
ENDBLK
  5
16EC7
330
16EBC
100
AcDbEntity
  8
0
 48
50.0
100
AcDbBlockEnd
  0
BLOCK
  5
17F0D
330
17F03
100
AcDbEntity
  8
0
 48
50.0
100
AcDbBlockBegin
  2
*D20
 70
     1
 10
0.0
 20
0.0
 30
0.0
  3
*D20
  1

  0
LINE
  5
186F4
330
17F03
100
AcDbEntity
  8
寸法
 62
     0
 48
50.0
370
    -2
100
AcDbLine
 10
11168.76727993583
 20
7868.856655176646
 30
0.0
 11
11274.69830179783
 21
7473.516699489995
 31
0.0
  0
LINE
  5
186F5
330
17F03
100
AcDbEntity
  8
寸法
 62
     0
 48
50.0
370
    -2
100
AcDbLine
 10
10718.76727993584
 20
7868.856655176646
 30
0.0
 11
10824.69830179783
 21
7473.516699489995
 31
0.0
  0
LINE
  5
186F6
330
17F03
100
AcDbEntity
  8
寸法
 62
     0
 48
50.0
370
    -2
100
AcDbLine
 10
11258.62135025196
 20
7533.516699489995
 30
0.0
 11
10808.62135025197
 21
7533.516699489995
 31
0.0
  0
INSERT
  5
186F7
330
17F03
100
AcDbEntity
  8
寸法
 62
     0
 48
50.0
370
    -2
100
AcDbBlockReference
  2
_DOTSMALL
 10
11258.62135025196
 20
7533.516699489995
 30
0.0
 41
100.0
 42
100.0
 43
100.0
  0
INSERT
  5
186F8
330
17F03
100
AcDbEntity
  8
寸法
 62
     0
 48
50.0
370
    -2
100
AcDbBlockReference
  2
_DOTSMALL
 10
10808.62135025197
 20
7533.516699489995
 30
0.0
 41
100.0
 42
100.0
 43
100.0
 50
180.0
  0
MTEXT
  5
186F9
330
17F03
100
AcDbEntity
  8
寸法
 62
     7
 48
50.0
100
AcDbMText
 10
11008.62495101874
 20
7633.516699489995
 30
0.0
 40
120.0
 41
0.0
 71
     5
 72
     1
  1
\A1;450
  7
STYLE1
 73
     1
 44
1.0
1001
ACAD
1000
MTEXTBEGIN
1070
    73
1070
     1
1070
    44
1040
1.0
1070
    74
1070
     0
1000
MTEXTEND
  0
POINT
  5
186FA
330
17F03
100
AcDbEntity
  8
DEFPOINTS
 62
     0
 48
50.0
100
AcDbPoint
 10
11163.40829608721
 20
7888.856655176645
 30
0.0
  0
POINT
  5
186FB
330
17F03
100
AcDbEntity
  8
DEFPOINTS
 62
     0
 48
50.0
100
AcDbPoint
 10
10713.40829608721
 20
7888.856655176645
 30
0.0
  0
POINT
  5
186FC
330
17F03
100
AcDbEntity
  8
DEFPOINTS
 62
     0
 48
50.0
100
AcDbPoint
 10
10808.62135025197
 20
7533.516699489995
 30
0.0
  0
ENDBLK
  5
17F0E
330
17F03
100
AcDbEntity
  8
0
 48
50.0
100
AcDbBlockEnd
  0
BLOCK
  5
17F33
330
17F29
100
AcDbEntity
  8
0
 48
50.0
100
AcDbBlockBegin
  2
*D21
 70
     1
 10
0.0
 20
0.0
 30
0.0
  3
*D21
  1

  0
LINE
  5
18731
330
17F29
100
AcDbEntity
  8
寸法
 62
     0
 48
50.0
370
    -2
100
AcDbLine
 10
10693.40829608723
 20
10047.21563902534
 30
0.0
 11
10449.65751539608
 21
10112.52846386599
 31
0.0
  0
LINE
  5
18732
330
17F29
100
AcDbEntity
  8
寸法
 62
     0
 48
50.0
370
    -2
100
AcDbLine
 10
10693.40829608722
 20
8774.215639025275
 30
0.0
 11
10449.65751539608
 21
8839.528463865923
 31
0.0
  0
LINE
  5
18733
330
17F29
100
AcDbEntity
  8
寸法
 62
     0
 48
50.0
370
    -2
100
AcDbLine
 10
10509.65751539608
 20
10096.45151232013
 30
0.0
 11
10509.65751539608
 21
8823.451512320055
 31
0.0
  0
INSERT
  5
18734
330
17F29
100
AcDbEntity
  8
寸法
 62
     0
 48
50.0
370
    -2
100
AcDbBlockReference
  2
_DOTSMALL
 10
10509.65751539608
 20
10096.45151232013
 30
0.0
 41
100.0
 42
100.0
 43
100.0
 50
90.0
  0
INSERT
  5
18735
330
17F29
100
AcDbEntity
  8
寸法
 62
     0
 48
50.0
370
    -2
100
AcDbBlockReference
  2
_DOTSMALL
 10
10509.65751539608
 20
8823.451512320055
 30
0.0
 41
100.0
 42
100.0
 43
100.0
 50
270.0
  0
MTEXT
  5
18736
330
17F29
100
AcDbEntity
  8
寸法
 62
     7
 48
50.0
100
AcDbMText
 10
10409.64570437246
 20
9538.127447760613
 30
0.0
 40
120.0
 41
0.0
 71
     5
 72
     1
  1
\A1;1273
  7
STYLE1
 11
0.0000000000000001
 21
1.0
 31
0.0
 73
     1
 44
1.0
1001
ACAD
1000
MTEXTBEGIN
1070
    73
1070
     1
1070
    44
1040
1.0
1070
    74
1070
     0
1000
MTEXTEND
  0
POINT
  5
18737
330
17F29
100
AcDbEntity
  8
DEFPOINTS
 62
     0
 48
50.0
100
AcDbPoint
 10
10713.40829608723
 20
10041.85665517672
 30
0.0
  0
POINT
  5
18738
330
17F29
100
AcDbEntity
  8
DEFPOINTS
 62
     0
 48
50.0
100
AcDbPoint
 10
10713.40829608722
 20
8768.856655176653
 30
0.0
  0
POINT
  5
18739
330
17F29
100
AcDbEntity
  8
DEFPOINTS
 62
     0
 48
50.0
100
AcDbPoint
 10
10509.65751539608
 20
8823.451512320055
 30
0.0
  0
ENDBLK
  5
17F34
330
17F29
100
AcDbEntity
  8
0
 48
50.0
100
AcDbBlockEnd
  0
BLOCK
  5
17F3F
330
17F35
100
AcDbEntity
  8
0
 48
50.0
100
AcDbBlockBegin
  2
*D22
 70
     1
 10
0.0
 20
0.0
 30
0.0
  3
*D22
  1

  0
LINE
  5
186E2
330
17F35
100
AcDbEntity
  8
寸法
 62
     0
 48
50.0
370
    -2
100
AcDbLine
 10
10693.40829608729
 20
8747.215639025275
 30
0.0
 11
10449.65751539608
 21
8812.528463865941
 31
0.0
  0
LINE
  5
186E3
330
17F35
100
AcDbEntity
  8
寸法
 62
     0
 48
50.0
370
    -2
100
AcDbLine
 10
10693.40829608728
 20
7894.215639025263
 30
0.0
 11
10449.65751539608
 21
7959.528463865926
 31
0.0
  0
LINE
  5
186E4
330
17F35
100
AcDbEntity
  8
寸法
 62
     0
 48
50.0
370
    -2
100
AcDbLine
 10
10509.65751539608
 20
8796.451512320073
 30
0.0
 11
10509.65751539608
 21
7943.451512320059
 31
0.0
  0
INSERT
  5
186E5
330
17F35
100
AcDbEntity
  8
寸法
 62
     0
 48
50.0
370
    -2
100
AcDbBlockReference
  2
_DOTSMALL
 10
10509.65751539608
 20
8796.451512320073
 30
0.0
 41
100.0
 42
100.0
 43
100.0
 50
90.0
  0
INSERT
  5
186E6
330
17F35
100
AcDbEntity
  8
寸法
 62
     0
 48
50.0
370
    -2
100
AcDbBlockReference
  2
_DOTSMALL
 10
10509.65751539608
 20
7943.451512320059
 30
0.0
 41
100.0
 42
100.0
 43
100.0
 50
270.0
  0
MTEXT
  5
186E7
330
17F35
100
AcDbEntity
  8
寸法
 62
     7
 48
50.0
100
AcDbMText
 10
10409.65751539608
 20
8304.658184847278
 30
0.0
 40
120.0
 41
0.0
 71
     5
 72
     1
  1
\A1;853
  7
STYLE1
 11
0.0000000000000001
 21
1.0
 31
0.0
 73
     1
 44
1.0
1001
ACAD
1000
MTEXTBEGIN
1070
    73
1070
     1
1070
    44
1040
1.0
1070
    74
1070
     0
1000
MTEXTEND
  0
POINT
  5
186E8
330
17F35
100
AcDbEntity
  8
DEFPOINTS
 62
     0
 48
50.0
100
AcDbPoint
 10
10713.40829608729
 20
8741.856655176654
 30
0.0
  0
POINT
  5
186E9
330
17F35
100
AcDbEntity
  8
DEFPOINTS
 62
     0
 48
50.0
100
AcDbPoint
 10
10713.40829608728
 20
7888.856655176642
 30
0.0
  0
POINT
  5
186EA
330
17F35
100
AcDbEntity
  8
DEFPOINTS
 62
     0
 48
50.0
100
AcDbPoint
 10
10509.65751539608
 20
7943.451512320059
 30
0.0
  0
ENDBLK
  5
17F40
330
17F35
100
AcDbEntity
  8
0
 48
50.0
100
AcDbBlockEnd
  0
BLOCK
  5
17F4B
330
17F41
100
AcDbEntity
  8
0
 48
50.0
100
AcDbBlockBegin
  2
*D23
 70
     1
 10
0.0
 20
0.0
 30
0.0
  3
*D23
  1

  0
LINE
  5
186D9
330
17F41
100
AcDbEntity
  8
寸法
 62
     0
 48
50.0
370
    -2
100
AcDbLine
 10
9458.408296087171
 20
10090.35665517658
 30
0.0
 11
9458.408296087171
 21
10421.56181974066
 31
0.0
  0
LINE
  5
186DA
330
17F41
100
AcDbEntity
  8
寸法
 62
     0
 48
50.0
370
    -2
100
AcDbLine
 10
11138.40829608717
 20
10090.35665517667
 30
0.0
 11
11138.40829608717
 21
10421.56181974066
 31
0.0
  0
LINE
  5
186DB
330
17F41
100
AcDbEntity
  8
寸法
 62
     0
 48
50.0
370
    -2
100
AcDbLine
 10
9458.408296087171
 20
10361.56181974066
 30
0.0
 11
11138.40829608717
 21
10361.56181974066
 31
0.0
  0
INSERT
  5
186DC
330
17F41
100
AcDbEntity
  8
寸法
 62
     0
 48
50.0
370
    -2
100
AcDbBlockReference
  2
_DOTSMALL
 10
9458.408296087171
 20
10361.56181974066
 30
0.0
 41
100.0
 42
100.0
 43
100.0
 50
180.0
  0
INSERT
  5
186DD
330
17F41
100
AcDbEntity
  8
寸法
 62
     0
 48
50.0
370
    -2
100
AcDbBlockReference
  2
_DOTSMALL
 10
11138.40829608717
 20
10361.56181974066
 30
0.0
 41
100.0
 42
100.0
 43
100.0
  0
MTEXT
  5
186DE
330
17F41
100
AcDbEntity
  8
寸法
 62
     7
 48
50.0
100
AcDbMText
 10
10298.40829608717
 20
10461.57363076428
 30
0.0
 40
120.0
 41
0.0
 71
     5
 72
     1
  1
\A1;4X420=1680
  7
STYLE1
 73
     1
 44
1.0
1001
ACAD
1000
MTEXTBEGIN
1070
    73
1070
     1
1070
    44
1040
1.0
1070
    74
1070
     0
1000
MTEXTEND
  0
POINT
  5
186DF
330
17F41
100
AcDbEntity
  8
DEFPOINTS
 62
     0
 48
50.0
100
AcDbPoint
 10
9458.408296087171
 20
10070.35665517658
 30
0.0
  0
POINT
  5
186E0
330
17F41
100
AcDbEntity
  8
DEFPOINTS
 62
     0
 48
50.0
100
AcDbPoint
 10
11138.40829608717
 20
10070.35665517667
 30
0.0
  0
POINT
  5
186E1
330
17F41
100
AcDbEntity
  8
DEFPOINTS
 62
     0
 48
50.0
100
AcDbPoint
 10
11138.40829608717
 20
10361.56181974066
 30
0.0
  0
ENDBLK
  5
17F4C
330
17F41
100
AcDbEntity
  8
0
 48
50.0
100
AcDbBlockEnd
  0
BLOCK
  5
17F59
330
17F4D
100
AcDbEntity
  8
0
 48
50.0
100
AcDbBlockBegin
  2
*D24
 70
     1
 10
0.0
 20
0.0
 30
0.0
  3
*D24
  1

  0
LINE
  5
186CE
330
17F4D
100
AcDbEntity
  8
寸法
 62
     0
 48
50.0
370
    -2
100
AcDbLine
 10
11138.40829608717
 20
10090.35665517667
 30
0.0
 11
11138.40829608717
 21
10421.56181974064
 31
0.0
  0
LINE
  5
186CF
330
17F4D
100
AcDbEntity
  8
寸法
 62
     0
 48
50.0
370
    -2
100
AcDbLine
 10
11193.40829608717
 20
10090.35665517667
 30
0.0
 11
11193.40829608717
 21
10421.56181974064
 31
0.0
  0
LINE
  5
186D0
330
17F4D
100
AcDbEntity
  8
寸法
 62
     0
 48
50.0
370
    -2
100
AcDbLine
 10
11138.40829608717
 20
10361.56181974064
 30
0.0
 11
11038.40829608717
 21
10361.56181974064
 31
0.0
  0
LINE
  5
186D1
330
17F4D
100
AcDbEntity
  8
寸法
 62
     0
 48
50.0
370
    -2
100
AcDbLine
 10
11193.40829608717
 20
10361.56181974064
 30
0.0
 11
11610.37885883565
 21
10361.56181974064
 31
0.0
  0
LINE
  5
186D2
330
17F4D
100
AcDbEntity
  8
寸法
 62
     0
 48
50.0
370
    -2
100
AcDbLine
 10
11138.40829608717
 20
10361.56181974064
 30
0.0
 11
11193.40829608717
 21
10361.56181974064
 31
0.0
  0
INSERT
  5
186D3
330
17F4D
100
AcDbEntity
  8
寸法
 62
     0
 48
50.0
370
    -2
100
AcDbBlockReference
  2
_DOTSMALL
 10
11138.40829608717
 20
10361.56181974064
 30
0.0
 41
100.0
 42
100.0
 43
100.0
  0
INSERT
  5
186D4
330
17F4D
100
AcDbEntity
  8
寸法
 62
     0
 48
50.0
370
    -2
100
AcDbBlockReference
  2
_DOTSMALL
 10
11193.40829608717
 20
10361.56181974064
 30
0.0
 41
100.0
 42
100.0
 43
100.0
 50
180.0
  0
MTEXT
  5
186D5
330
17F4D
100
AcDbEntity
  8
寸法
 62
     7
 48
50.0
100
AcDbMText
 10
11501.89357746141
 20
10461.56181974064
 30
0.0
 40
120.0
 41
0.0
 71
     5
 72
     1
  1
\A1;55
  7
STYLE1
 73
     1
 44
1.0
1001
ACAD
1000
MTEXTBEGIN
1070
    73
1070
     1
1070
    44
1040
1.0
1070
    74
1070
     0
1000
MTEXTEND
  0
POINT
  5
186D6
330
17F4D
100
AcDbEntity
  8
DEFPOINTS
 62
     0
 48
50.0
100
AcDbPoint
 10
11138.40829608717
 20
10070.35665517667
 30
0.0
  0
POINT
  5
186D7
330
17F4D
100
AcDbEntity
  8
DEFPOINTS
 62
     0
 48
50.0
100
AcDbPoint
 10
11193.40829608717
 20
10070.35665517667
 30
0.0
  0
POINT
  5
186D8
330
17F4D
100
AcDbEntity
  8
DEFPOINTS
 62
     0
 48
50.0
100
AcDbPoint
 10
11193.40829608717
 20
10361.56181974064
 30
0.0
  0
ENDBLK
  5
17F5A
330
17F4D
100
AcDbEntity
  8
0
 48
50.0
100
AcDbBlockEnd
  0
BLOCK
  5
17F71
330
17F67
100
AcDbEntity
  8
0
 48
50.0
100
AcDbBlockBegin
  2
*D25
 70
     1
 10
0.0
 20
0.0
 30
0.0
  3
*D25
  1

  0
LINE
  5
186C5
330
17F67
100
AcDbEntity
  8
寸法
 62
     0
 48
50.0
370
    -2
100
AcDbLine
 10
11213.40829608717
 20
10015.35665517668
 30
0.0
 11
11900.83464182158
 21
10015.35665517668
 31
0.0
  0
LINE
  5
186C6
330
17F67
100
AcDbEntity
  8
寸法
 62
     0
 48
50.0
370
    -2
100
AcDbLine
 10
11213.40829608714
 20
7915.356655176665
 30
0.0
 11
11900.83464182158
 21
7915.356655176665
 31
0.0
  0
LINE
  5
186C7
330
17F67
100
AcDbEntity
  8
寸法
 62
     0
 48
50.0
370
    -2
100
AcDbLine
 10
11840.83464182158
 20
10015.35665517668
 30
0.0
 11
11840.83464182158
 21
7915.356655176665
 31
0.0
  0
INSERT
  5
186C8
330
17F67
100
AcDbEntity
  8
寸法
 62
     0
 48
50.0
370
    -2
100
AcDbBlockReference
  2
_DOTSMALL
 10
11840.83464182158
 20
10015.35665517668
 30
0.0
 41
100.0
 42
100.0
 43
100.0
 50
90.0
  0
INSERT
  5
186C9
330
17F67
100
AcDbEntity
  8
寸法
 62
     0
 48
50.0
370
    -2
100
AcDbBlockReference
  2
_DOTSMALL
 10
11840.83464182158
 20
7915.356655176665
 30
0.0
 41
100.0
 42
100.0
 43
100.0
 50
270.0
  0
MTEXT
  5
186CA
330
17F67
100
AcDbEntity
  8
寸法
 62
     7
 48
50.0
100
AcDbMText
 10
11740.82283079796
 20
8965.356655176675
 30
0.0
 40
120.0
 41
0.0
 71
     5
 72
     1
  1
\A1;5X420=2100
  7
STYLE1
 11
0.0000000000000001
 21
1.0
 31
0.0
 73
     1
 44
1.0
1001
ACAD
1000
MTEXTBEGIN
1070
    73
1070
     1
1070
    44
1040
1.0
1070
    74
1070
     0
1000
MTEXTEND
  0
POINT
  5
186CB
330
17F67
100
AcDbEntity
  8
DEFPOINTS
 62
     0
 48
50.0
100
AcDbPoint
 10
11193.40829608717
 20
10015.35665517668
 30
0.0
  0
POINT
  5
186CC
330
17F67
100
AcDbEntity
  8
DEFPOINTS
 62
     0
 48
50.0
100
AcDbPoint
 10
11193.40829608714
 20
7915.356655176665
 30
0.0
  0
POINT
  5
186CD
330
17F67
100
AcDbEntity
  8
DEFPOINTS
 62
     0
 48
50.0
100
AcDbPoint
 10
11840.83464182158
 20
7915.356655176665
 30
0.0
  0
ENDBLK
  5
17F72
330
17F67
100
AcDbEntity
  8
0
 48
50.0
100
AcDbBlockEnd
  0
BLOCK
  5
17F7F
330
17F73
100
AcDbEntity
  8
0
 48
50.0
100
AcDbBlockBegin
  2
*D26
 70
     1
 10
0.0
 20
0.0
 30
0.0
  3
*D26
  1

  0
LINE
  5
186BA
330
17F73
100
AcDbEntity
  8
寸法
 62
     0
 48
50.0
370
    -2
100
AcDbLine
 10
11213.40829608714
 20
7915.356655176665
 30
0.0
 11
11900.83464182156
 21
7915.356655176665
 31
0.0
  0
LINE
  5
186BB
330
17F73
100
AcDbEntity
  8
寸法
 62
     0
 48
50.0
370
    -2
100
AcDbLine
 10
11213.40829608714
 20
7860.356655176669
 30
0.0
 11
11900.83464182156
 21
7860.356655176669
 31
0.0
  0
LINE
  5
186BC
330
17F73
100
AcDbEntity
  8
寸法
 62
     0
 48
50.0
370
    -2
100
AcDbLine
 10
11840.83464182156
 20
7915.356655176665
 30
0.0
 11
11840.83464182156
 21
8015.356655176665
 31
0.0
  0
LINE
  5
186BD
330
17F73
100
AcDbEntity
  8
寸法
 62
     0
 48
50.0
370
    -2
100
AcDbLine
 10
11840.83464182156
 20
7860.356655176669
 30
0.0
 11
11840.83464182156
 21
7374.009906897566
 31
0.0
  0
LINE
  5
186BE
330
17F73
100
AcDbEntity
  8
寸法
 62
     0
 48
50.0
370
    -2
100
AcDbLine
 10
11840.83464182156
 20
7915.356655176665
 30
0.0
 11
11840.83464182156
 21
7860.356655176669
 31
0.0
  0
INSERT
  5
186BF
330
17F73
100
AcDbEntity
  8
寸法
 62
     0
 48
50.0
370
    -2
100
AcDbBlockReference
  2
_DOTSMALL
 10
11840.83464182156
 20
7915.356655176665
 30
0.0
 41
100.0
 42
100.0
 43
100.0
 50
270.0
  0
INSERT
  5
186C0
330
17F73
100
AcDbEntity
  8
寸法
 62
     0
 48
50.0
370
    -2
100
AcDbBlockReference
  2
_DOTSMALL
 10
11840.83464182156
 20
7860.356655176669
 30
0.0
 41
100.0
 42
100.0
 43
100.0
 50
90.0
  0
MTEXT
  5
186C1
330
17F73
100
AcDbEntity
  8
寸法
 62
     7
 48
50.0
100
AcDbMText
 10
11740.83464182155
 20
7482.495188271808
 30
0.0
 40
120.0
 41
0.0
 71
     5
 72
     1
  1
\A1;55
  7
STYLE1
 11
0.0000000000000001
 21
1.0
 31
0.0
 73
     1
 44
1.0
1001
ACAD
1000
MTEXTBEGIN
1070
    73
1070
     1
1070
    44
1040
1.0
1070
    74
1070
     0
1000
MTEXTEND
  0
POINT
  5
186C2
330
17F73
100
AcDbEntity
  8
DEFPOINTS
 62
     0
 48
50.0
100
AcDbPoint
 10
11193.40829608714
 20
7915.356655176665
 30
0.0
  0
POINT
  5
186C3
330
17F73
100
AcDbEntity
  8
DEFPOINTS
 62
     0
 48
50.0
100
AcDbPoint
 10
11193.40829608714
 20
7860.356655176669
 30
0.0
  0
POINT
  5
186C4
330
17F73
100
AcDbEntity
  8
DEFPOINTS
 62
     0
 48
50.0
100
AcDbPoint
 10
11840.83464182156
 20
7860.356655176669
 30
0.0
  0
ENDBLK
  5
17F80
330
17F73
100
AcDbEntity
  8
0
 48
50.0
100
AcDbBlockEnd
  0
BLOCK
  5
17F8D
330
17F81
100
AcDbEntity
  8
0
 48
50.0
100
AcDbBlockBegin
  2
*D27
 70
     1
 10
0.0
 20
0.0
 30
0.0
  3
*D27
  1

  0
LINE
  5
186AF
330
17F81
100
AcDbEntity
  8
寸法
 62
     0
 48
50.0
370
    -2
100
AcDbLine
 10
11213.40829608717
 20
10070.35665517667
 30
0.0
 11
11900.83464182158
 21
10070.35665517667
 31
0.0
  0
LINE
  5
186B0
330
17F81
100
AcDbEntity
  8
寸法
 62
     0
 48
50.0
370
    -2
100
AcDbLine
 10
11213.40829608717
 20
10015.35665517668
 30
0.0
 11
11900.83464182158
 21
10015.35665517668
 31
0.0
  0
LINE
  5
186B1
330
17F81
100
AcDbEntity
  8
寸法
 62
     0
 48
50.0
370
    -2
100
AcDbLine
 10
11840.83464182158
 20
10015.35665517668
 30
0.0
 11
11840.83464182158
 21
9915.356655176681
 31
0.0
  0
LINE
  5
186B2
330
17F81
100
AcDbEntity
  8
寸法
 62
     0
 48
50.0
370
    -2
100
AcDbLine
 10
11840.83464182158
 20
10070.35665517667
 30
0.0
 11
11840.83464182158
 21
10487.32721792515
 31
0.0
  0
LINE
  5
186B3
330
17F81
100
AcDbEntity
  8
寸法
 62
     0
 48
50.0
370
    -2
100
AcDbLine
 10
11840.83464182158
 20
10015.35665517668
 30
0.0
 11
11840.83464182158
 21
10070.35665517667
 31
0.0
  0
INSERT
  5
186B4
330
17F81
100
AcDbEntity
  8
寸法
 62
     0
 48
50.0
370
    -2
100
AcDbBlockReference
  2
_DOTSMALL
 10
11840.83464182158
 20
10015.35665517668
 30
0.0
 41
100.0
 42
100.0
 43
100.0
 50
90.0
  0
INSERT
  5
186B5
330
17F81
100
AcDbEntity
  8
寸法
 62
     0
 48
50.0
370
    -2
100
AcDbBlockReference
  2
_DOTSMALL
 10
11840.83464182158
 20
10070.35665517667
 30
0.0
 41
100.0
 42
100.0
 43
100.0
 50
270.0
  0
MTEXT
  5
186B6
330
17F81
100
AcDbEntity
  8
寸法
 62
     7
 48
50.0
100
AcDbMText
 10
11740.83464182158
 20
10378.84193655091
 30
0.0
 40
120.0
 41
0.0
 71
     5
 72
     1
  1
\A1;55
  7
STYLE1
 11
0.0000000000000001
 21
1.0
 31
0.0
 73
     1
 44
1.0
1001
ACAD
1000
MTEXTBEGIN
1070
    73
1070
     1
1070
    44
1040
1.0
1070
    74
1070
     0
1000
MTEXTEND
  0
POINT
  5
186B7
330
17F81
100
AcDbEntity
  8
DEFPOINTS
 62
     0
 48
50.0
100
AcDbPoint
 10
11193.40829608717
 20
10070.35665517667
 30
0.0
  0
POINT
  5
186B8
330
17F81
100
AcDbEntity
  8
DEFPOINTS
 62
     0
 48
50.0
100
AcDbPoint
 10
11193.40829608717
 20
10015.35665517668
 30
0.0
  0
POINT
  5
186B9
330
17F81
100
AcDbEntity
  8
DEFPOINTS
 62
     0
 48
50.0
100
AcDbPoint
 10
11840.83464182158
 20
10015.35665517668
 30
0.0
  0
ENDBLK
  5
17F8E
330
17F81
100
AcDbEntity
  8
0
 48
50.0
100
AcDbBlockEnd
  0
BLOCK
  5
17F99
330
17F8F
100
AcDbEntity
  8
0
 48
50.0
100
AcDbBlockBegin
  2
*D28
 70
     1
 10
0.0
 20
0.0
 30
0.0
  3
*D28
  1

  0
LINE
  5
18710
330
17F8F
100
AcDbEntity
  8
寸法
 62
     0
 48
50.0
370
    -2
100
AcDbLine
 10
11213.40829608717
 20
10070.35665517667
 30
0.0
 11
12170.09567122949
 21
10070.35665517667
 31
0.0
  0
LINE
  5
18711
330
17F8F
100
AcDbEntity
  8
寸法
 62
     0
 48
50.0
370
    -2
100
AcDbLine
 10
11213.40829608714
 20
7860.356655176669
 30
0.0
 11
12170.09567122949
 21
7860.356655176669
 31
0.0
  0
LINE
  5
18712
330
17F8F
100
AcDbEntity
  8
寸法
 62
     0
 48
50.0
370
    -2
100
AcDbLine
 10
12110.09567122949
 20
10070.35665517667
 30
0.0
 11
12110.09567122949
 21
7860.356655176669
 31
0.0
  0
INSERT
  5
18713
330
17F8F
100
AcDbEntity
  8
寸法
 62
     0
 48
50.0
370
    -2
100
AcDbBlockReference
  2
_DOTSMALL
 10
12110.09567122949
 20
10070.35665517667
 30
0.0
 41
100.0
 42
100.0
 43
100.0
 50
90.0
  0
INSERT
  5
18714
330
17F8F
100
AcDbEntity
  8
寸法
 62
     0
 48
50.0
370
    -2
100
AcDbBlockReference
  2
_DOTSMALL
 10
12110.09567122949
 20
7860.356655176669
 30
0.0
 41
100.0
 42
100.0
 43
100.0
 50
270.0
  0
MTEXT
  5
18715
330
17F8F
100
AcDbEntity
  8
寸法
 62
     7
 48
50.0
100
AcDbMText
 10
12010.08386020586
 20
8919.05902836717
 30
0.0
 40
120.0
 41
0.0
 71
     5
 72
     1
  1
\A1;2210
  7
STYLE1
 11
0.0000000000000001
 21
1.0
 31
0.0
 73
     1
 44
1.0
1001
ACAD
1000
MTEXTBEGIN
1070
    73
1070
     1
1070
    44
1040
1.0
1070
    74
1070
     0
1000
MTEXTEND
  0
POINT
  5
18716
330
17F8F
100
AcDbEntity
  8
DEFPOINTS
 62
     0
 48
50.0
100
AcDbPoint
 10
11193.40829608717
 20
10070.35665517667
 30
0.0
  0
POINT
  5
18717
330
17F8F
100
AcDbEntity
  8
DEFPOINTS
 62
     0
 48
50.0
100
AcDbPoint
 10
11193.40829608714
 20
7860.356655176669
 30
0.0
  0
POINT
  5
18718
330
17F8F
100
AcDbEntity
  8
DEFPOINTS
 62
     0
 48
50.0
100
AcDbPoint
 10
12110.09567122949
 20
7860.356655176669
 30
0.0
  0
ENDBLK
  5
17F9A
330
17F8F
100
AcDbEntity
  8
0
 48
50.0
100
AcDbBlockEnd
  0
BLOCK
  5
17FA7
330
17F9B
100
AcDbEntity
  8
0
 48
50.0
100
AcDbBlockBegin
  2
*D29
 70
     1
 10
0.0
 20
0.0
 30
0.0
  3
*D29
  1

  0
LINE
  5
1869B
330
17F9B
100
AcDbEntity
  8
寸法
 62
     0
 48
50.0
370
    -2
100
AcDbLine
 10
9403.408296087134
 20
10090.35665517658
 30
0.0
 11
9403.408296087134
 21
10421.56181974054
 31
0.0
  0
LINE
  5
1869C
330
17F9B
100
AcDbEntity
  8
寸法
 62
     0
 48
50.0
370
    -2
100
AcDbLine
 10
9458.408296087171
 20
10090.35665517658
 30
0.0
 11
9458.408296087171
 21
10421.56181974054
 31
0.0
  0
LINE
  5
1869D
330
17F9B
100
AcDbEntity
  8
寸法
 62
     0
 48
50.0
370
    -2
100
AcDbLine
 10
9458.408296087171
 20
10361.56181974054
 30
0.0
 11
9558.40829608717
 21
10361.56181974054
 31
0.0
  0
LINE
  5
1869E
330
17F9B
100
AcDbEntity
  8
寸法
 62
     0
 48
50.0
370
    -2
100
AcDbLine
 10
9403.408296087134
 20
10361.56181974054
 30
0.0
 11
8986.437733338659
 21
10361.56181974054
 31
0.0
  0
LINE
  5
1869F
330
17F9B
100
AcDbEntity
  8
寸法
 62
     0
 48
50.0
370
    -2
100
AcDbLine
 10
9458.408296087171
 20
10361.56181974054
 30
0.0
 11
9403.408296087134
 21
10361.56181974054
 31
0.0
  0
INSERT
  5
186A0
330
17F9B
100
AcDbEntity
  8
寸法
 62
     0
 48
50.0
370
    -2
100
AcDbBlockReference
  2
_DOTSMALL
 10
9458.408296087171
 20
10361.56181974054
 30
0.0
 41
100.0
 42
100.0
 43
100.0
 50
180.0
  0
INSERT
  5
186A1
330
17F9B
100
AcDbEntity
  8
寸法
 62
     0
 48
50.0
370
    -2
100
AcDbBlockReference
  2
_DOTSMALL
 10
9403.408296087134
 20
10361.56181974054
 30
0.0
 41
100.0
 42
100.0
 43
100.0
  0
MTEXT
  5
186A2
330
17F9B
100
AcDbEntity
  8
寸法
 62
     7
 48
50.0
100
AcDbMText
 10
9094.923014712897
 20
10461.56181974054
 30
0.0
 40
120.0
 41
0.0
 71
     5
 72
     1
  1
\A1;55
  7
STYLE1
 73
     1
 44
1.0
1001
ACAD
1000
MTEXTBEGIN
1070
    73
1070
     1
1070
    44
1040
1.0
1070
    74
1070
     0
1000
MTEXTEND
  0
POINT
  5
186A3
330
17F9B
100
AcDbEntity
  8
DEFPOINTS
 62
     0
 48
50.0
100
AcDbPoint
 10
9403.408296087134
 20
10070.35665517658
 30
0.0
  0
POINT
  5
186A4
330
17F9B
100
AcDbEntity
  8
DEFPOINTS
 62
     0
 48
50.0
100
AcDbPoint
 10
9458.408296087171
 20
10070.35665517658
 30
0.0
  0
POINT
  5
186A5
330
17F9B
100
AcDbEntity
  8
DEFPOINTS
 62
     0
 48
50.0
100
AcDbPoint
 10
9458.408296087171
 20
10361.56181974054
 30
0.0
  0
ENDBLK
  5
17FA8
330
17F9B
100
AcDbEntity
  8
0
 48
50.0
100
AcDbBlockEnd
  0
BLOCK
  5
18247
330
1823D
100
AcDbEntity
  8
0
 48
50.0
100
AcDbBlockBegin
  2
*D30
 70
     1
 10
0.0
 20
0.0
 30
0.0
  3
*D30
  1

  0
LINE
  5
18692
330
1823D
100
AcDbEntity
  8
寸法
 62
     0
 48
50.0
370
    -2
100
AcDbLine
 10
9470.408296087134
 20
7763.356655176508
 30
0.0
 11
9470.408296087134
 21
7118.281637128283
 31
0.0
  0
LINE
  5
18693
330
1823D
100
AcDbEntity
  8
寸法
 62
     0
 48
50.0
370
    -2
100
AcDbLine
 10
10420.40829608713
 20
7763.356655176508
 30
0.0
 11
10420.40829608713
 21
7118.281637128283
 31
0.0
  0
LINE
  5
18694
330
1823D
100
AcDbEntity
  8
寸法
 62
     0
 48
50.0
370
    -2
100
AcDbLine
 10
9490.408296087135
 20
7158.281637128284
 30
0.0
 11
10400.40829608713
 21
7158.281637128284
 31
0.0
  0
INSERT
  5
18695
330
1823D
100
AcDbEntity
  8
寸法
 62
     0
 48
50.0
370
    -2
100
AcDbBlockReference
  2
_DOT
 10
9470.408296087134
 20
7158.281637128284
 30
0.0
 41
20.0
 42
20.0
 43
20.0
 50
180.0
  0
INSERT
  5
18696
330
1823D
100
AcDbEntity
  8
寸法
 62
     0
 48
50.0
370
    -2
100
AcDbBlockReference
  2
_DOT
 10
10420.40829608713
 20
7158.281637128284
 30
0.0
 41
20.0
 42
20.0
 43
20.0
  0
MTEXT
  5
18697
330
1823D
100
AcDbEntity
  8
寸法
 62
     7
 48
50.0
100
AcDbMText
 10
9945.408296087135
 20
7350.281637128285
 30
0.0
 40
120.0
 41
0.0
 71
     5
 72
     1
  1
\A1;有効開口部間口\P950
  7
STYLE1
 73
     1
 44
1.0
1001
ACAD
1000
MTEXTBEGIN
1070
    73
1070
     1
1070
    44
1040
1.0
1070
    74
1070
     0
1000
MTEXTEND
  0
POINT
  5
18698
330
1823D
100
AcDbEntity
  8
DEFPOINTS
 62
     0
 48
50.0
100
AcDbPoint
 10
9470.408296087134
 20
7783.356655176508
 30
0.0
  0
POINT
  5
18699
330
1823D
100
AcDbEntity
  8
DEFPOINTS
 62
     0
 48
50.0
100
AcDbPoint
 10
10420.40829608713
 20
7783.356655176508
 30
0.0
  0
POINT
  5
1869A
330
1823D
100
AcDbEntity
  8
DEFPOINTS
 62
     0
 48
50.0
100
AcDbPoint
 10
10420.40829608713
 20
7158.281637128284
 30
0.0
  0
ENDBLK
  5
18248
330
1823D
100
AcDbEntity
  8
0
 48
50.0
100
AcDbBlockEnd
  0
BLOCK
  5
18528
330
1851E
100
AcDbEntity
  8
0
 48
50.0
100
AcDbBlockBegin
  2
*D31
 70
     1
 10
0.0
 20
0.0
 30
0.0
  3
*D31
  1

  0
LINE
  5
18689
330
1851E
100
AcDbEntity
  8
寸法
 62
     0
 48
50.0
370
    -2
100
AcDbLine
 10
9431.408296087134
 20
7763.356655176545
 30
0.0
 11
9431.408296087134
 21
6848.286385325764
 31
0.0
  0
LINE
  5
1868A
330
1851E
100
AcDbEntity
  8
寸法
 62
     0
 48
50.0
370
    -2
100
AcDbLine
 10
11165.40829608713
 20
7763.356655176544
 30
0.0
 11
11165.40829608713
 21
6848.286385325764
 31
0.0
  0
LINE
  5
1868B
330
1851E
100
AcDbEntity
  8
寸法
 62
     0
 48
50.0
370
    -2
100
AcDbLine
 10
9431.408296087134
 20
6908.286385325765
 30
0.0
 11
11165.40829608713
 21
6908.286385325765
 31
0.0
  0
INSERT
  5
1868C
330
1851E
100
AcDbEntity
  8
寸法
 62
     0
 48
50.0
370
    -2
100
AcDbBlockReference
  2
_DOTSMALL
 10
9431.408296087134
 20
6908.286385325765
 30
0.0
 41
100.0
 42
100.0
 43
100.0
 50
180.0
  0
INSERT
  5
1868D
330
1851E
100
AcDbEntity
  8
寸法
 62
     0
 48
50.0
370
    -2
100
AcDbBlockReference
  2
_DOTSMALL
 10
11165.40829608713
 20
6908.286385325765
 30
0.0
 41
100.0
 42
100.0
 43
100.0
  0
MTEXT
  5
1868E
330
1851E
100
AcDbEntity
  8
寸法
 62
     7
 48
50.0
100
AcDbMText
 10
10288.99004003895
 20
7008.286385325765
 30
0.0
 40
120.0
 41
0.0
 71
     5
 72
     1
  1
\A1;1734
  7
STYLE1
 73
     1
 44
1.0
1001
ACAD
1000
MTEXTBEGIN
1070
    73
1070
     1
1070
    44
1040
1.0
1070
    74
1070
     0
1000
MTEXTEND
  0
POINT
  5
1868F
330
1851E
100
AcDbEntity
  8
DEFPOINTS
 62
     0
 48
50.0
100
AcDbPoint
 10
9431.408296087134
 20
7783.356655176546
 30
0.0
  0
POINT
  5
18690
330
1851E
100
AcDbEntity
  8
DEFPOINTS
 62
     0
 48
50.0
100
AcDbPoint
 10
11165.40829608713
 20
7783.356655176543
 30
0.0
  0
POINT
  5
18691
330
1851E
100
AcDbEntity
  8
DEFPOINTS
 62
     0
 48
50.0
100
AcDbPoint
 10
11165.40829608713
 20
6908.286385325765
 30
0.0
  0
ENDBLK
  5
18529
330
1851E
100
AcDbEntity
  8
0
 48
50.0
100
AcDbBlockEnd
  0
BLOCK
  5
18536
330
1852A
100
AcDbEntity
  8
0
 48
50.0
100
AcDbBlockBegin
  2
*D32
 70
     1
 10
0.0
 20
0.0
 30
0.0
  3
*D32
  1

  0
LINE
  5
1867E
330
1852A
100
AcDbEntity
  8
寸法
 62
     0
 48
50.0
370
    -2
100
AcDbLine
 10
9383.408296087164
 20
7860.35665517654
 30
0.0
 11
9068.797050460448
 21
7860.35665517654
 31
0.0
  0
LINE
  5
1867F
330
1852A
100
AcDbEntity
  8
寸法
 62
     0
 48
50.0
370
    -2
100
AcDbLine
 10
9411.408296087142
 20
7785.356655176539
 30
0.0
 11
9068.797050460448
 21
7785.356655176539
 31
0.0
  0
LINE
  5
18680
330
1852A
100
AcDbEntity
  8
寸法
 62
     0
 48
50.0
370
    -2
100
AcDbLine
 10
9108.797050460447
 20
7880.35665517654
 30
0.0
 11
9108.797050460447
 21
7900.35665517654
 31
0.0
  0
LINE
  5
18681
330
1852A
100
AcDbEntity
  8
寸法
 62
     0
 48
50.0
370
    -2
100
AcDbLine
 10
9108.797050460447
 20
7765.356655176539
 30
0.0
 11
9108.797050460447
 21
7544.386092428061
 31
0.0
  0
LINE
  5
18682
330
1852A
100
AcDbEntity
  8
寸法
 62
     0
 48
50.0
370
    -2
100
AcDbLine
 10
9108.797050460447
 20
7860.35665517654
 30
0.0
 11
9108.797050460447
 21
7785.356655176539
 31
0.0
  0
INSERT
  5
18683
330
1852A
100
AcDbEntity
  8
寸法
 62
     0
 48
50.0
370
    -2
100
AcDbBlockReference
  2
_DOT
 10
9108.797050460447
 20
7860.35665517654
 30
0.0
 41
20.0
 42
20.0
 43
20.0
 50
270.0
  0
INSERT
  5
18684
330
1852A
100
AcDbEntity
  8
寸法
 62
     0
 48
50.0
370
    -2
100
AcDbBlockReference
  2
_DOT
 10
9108.797050460447
 20
7785.356655176539
 30
0.0
 41
20.0
 42
20.0
 43
20.0
 50
90.0
  0
MTEXT
  5
18685
330
1852A
100
AcDbEntity
  8
寸法
 62
     7
 48
50.0
100
AcDbMText
 10
9016.797050460445
 20
7644.871373802302
 30
0.0
 40
120.0
 41
0.0
 71
     5
 72
     1
  1
\A1;75
  7
STYLE1
 11
0.0000000000000001
 21
1.0
 31
0.0
 73
     1
 44
1.0
1001
ACAD
1000
MTEXTBEGIN
1070
    73
1070
     1
1070
    44
1040
1.0
1070
    74
1070
     0
1000
MTEXTEND
  0
POINT
  5
18686
330
1852A
100
AcDbEntity
  8
DEFPOINTS
 62
     0
 48
50.0
100
AcDbPoint
 10
9403.408296087164
 20
7860.35665517654
 30
0.0
  0
POINT
  5
18687
330
1852A
100
AcDbEntity
  8
DEFPOINTS
 62
     0
 48
50.0
100
AcDbPoint
 10
9431.408296087141
 20
7785.356655176539
 30
0.0
  0
POINT
  5
18688
330
1852A
100
AcDbEntity
  8
DEFPOINTS
 62
     0
 48
50.0
100
AcDbPoint
 10
9108.797050460447
 20
7785.356655176539
 30
0.0
  0
ENDBLK
  5
18537
330
1852A
100
AcDbEntity
  8
0
 48
50.0
100
AcDbBlockEnd
  0
BLOCK
  5
18580
330
18576
100
AcDbEntity
  8
0
 48
50.0
100
AcDbBlockBegin
  2
*D33
 70
     1
 10
0.0
 20
0.0
 30
0.0
  3
*D33
  1

  0
LINE
  5
18675
330
18576
100
AcDbEntity
  8
寸法
 62
     0
 48
50.0
370
    -2
100
AcDbLine
 10
9403.408296087164
 20
7840.356655176539
 30
0.0
 11
9403.408296087164
 21
6608.528864431637
 31
0.0
  0
LINE
  5
18676
330
18576
100
AcDbEntity
  8
寸法
 62
     0
 48
50.0
370
    -2
100
AcDbLine
 10
11193.40829608714
 20
7840.356655176669
 30
0.0
 11
11193.40829608714
 21
6608.528864431637
 31
0.0
  0
LINE
  5
18677
330
18576
100
AcDbEntity
  8
寸法
 62
     0
 48
50.0
370
    -2
100
AcDbLine
 10
9403.408296087164
 20
6668.528864431637
 30
0.0
 11
11193.40829608714
 21
6668.528864431637
 31
0.0
  0
INSERT
  5
18678
330
18576
100
AcDbEntity
  8
寸法
 62
     0
 48
50.0
370
    -2
100
AcDbBlockReference
  2
_DOTSMALL
 10
9403.408296087164
 20
6668.528864431637
 30
0.0
 41
100.0
 42
100.0
 43
100.0
 50
180.0
  0
INSERT
  5
18679
330
18576
100
AcDbEntity
  8
寸法
 62
     0
 48
50.0
370
    -2
100
AcDbBlockReference
  2
_DOTSMALL
 10
11193.40829608714
 20
6668.528864431637
 30
0.0
 41
100.0
 42
100.0
 43
100.0
  0
MTEXT
  5
1867A
330
18576
100
AcDbEntity
  8
寸法
 62
     7
 48
50.0
100
AcDbMText
 10
10286.55504641852
 20
6768.528864431637
 30
0.0
 40
120.0
 41
0.0
 71
     5
 72
     1
  1
\A1;1790
  7
STYLE1
 73
     1
 44
1.0
1001
ACAD
1000
MTEXTBEGIN
1070
    73
1070
     1
1070
    44
1040
1.0
1070
    74
1070
     0
1000
MTEXTEND
  0
POINT
  5
1867B
330
18576
100
AcDbEntity
  8
DEFPOINTS
 62
     0
 48
50.0
100
AcDbPoint
 10
9403.408296087164
 20
7860.35665517654
 30
0.0
  0
POINT
  5
1867C
330
18576
100
AcDbEntity
  8
DEFPOINTS
 62
     0
 48
50.0
100
AcDbPoint
 10
11193.40829608714
 20
7860.356655176669
 30
0.0
  0
POINT
  5
1867D
330
18576
100
AcDbEntity
  8
DEFPOINTS
 62
     0
 48
50.0
100
AcDbPoint
 10
11193.40829608714
 20
6668.528864431637
 30
0.0
  0
ENDBLK
  5
18581
330
18576
100
AcDbEntity
  8
0
 48
50.0
100
AcDbBlockEnd
  0
ENDSEC
  0
SECTION
  2
ENTITIES
  0
LINE
  5
10B57
330
747D
100
AcDbEntity
  8
補助
  6
PHANTOM
 62
   230
 48
50.0
100
AcDbLine
 10
139.9999999999995
 20
11409.6
 30
0.0
 11
16307.2
 21
11409.6
 31
0.0
  0
LINE
  5
10B5D
330
747D
100
AcDbEntity
  8
仕様書枠
 48
50.0
100
AcDbLine
 10
140.0
 20
0.0
 30
0.0
 11
16307.2
 21
-0.0000000000000909
 31
0.0
  0
LINE
  5
10B5E
330
747D
100
AcDbEntity
  8
補助
  6
PHANTOM
 62
   230
 48
50.0
100
AcDbLine
 10
16307.2
 20
11409.6
 30
0.0
 11
16307.2
 21
1200.0
 31
0.0
  0
LINE
  5
10B6D
330
747D
100
AcDbEntity
  8
補助
  6
PHANTOM
 62
   230
 48
50.0
100
AcDbLine
 10
13107.2
 20
11409.6
 30
0.0
 11
13107.2
 21
4800.0
 31
0.0
  0
LINE
  5
10B6F
330
747D
100
AcDbEntity
  8
補助
  6
PHANTOM
 62
   230
 48
50.0
100
AcDbLine
 10
13107.2
 20
4800.0
 30
0.0
 11
16307.2
 21
4800.0
 31
0.0
  0
TEXT
  5
16369
330
747D
100
AcDbEntity
  8
文字
 62
     7
 48
50.0
100
AcDbText
 10
13209.4053442172
 20
76.09434707649343
 30
0.0
 40
100.0
  1
○床面積 ： 4.09㎡(1.23坪) 　
  7
STYLE2
100
AcDbText
  0
LINE
  5
1636A
330
747D
100
AcDbEntity
  8
仕様書枠
 48
50.0
100
AcDbLine
 10
13107.2
 20
800.0
 30
0.0
 11
14251.2
 21
800.0
 31
0.0
  0
TEXT
  5
1636C
330
747D
100
AcDbEntity
  8
文字
 62
     7
 48
50.0
100
AcDbText
 10
13201.43669998441
 20
477.2740661031255
 30
0.0
 40
160.0
  1
機種名
  7
STYLE2
100
AcDbText
  0
TEXT
  5
1636D
330
747D
100
AcDbEntity
  8
文字
 62
     7
 48
50.0
100
AcDbText
 10
13162.9790565769
 20
895.0906074299405
 30
0.0
 40
200.0
  1
外 形 図
  7
STYLE2
100
AcDbText
  0
LINE
  5
1636E
330
747D
100
AcDbEntity
  8
文字
 62
     7
 48
50.0
100
AcDbLine
 10
13187.2
 20
400.0
 30
0.0
 11
16227.2
 21
400.0
 31
0.0
  0
LINE
  5
1636F
330
747D
100
AcDbEntity
  8
仕様書枠
 48
50.0
100
AcDbLine
 10
13107.2
 20
1200.0
 30
0.0
 11
16307.2
 21
1200.0
 31
0.0
  0
LINE
  5
16370
330
747D
100
AcDbEntity
  8
仕様書枠
  6
Continuous
 48
50.0
100
AcDbLine
 10
13107.2
 20
1200.0
 30
0.0
 11
13107.2
 21
-0.0000000000000729
 31
0.0
  0
TEXT
  5
16372
330
747D
100
AcDbEntity
  8
文字
 62
     7
 48
50.0
100
AcDbText
 10
14524.131837222
 20
1031.557706291228
 30
0.0
 40
100.0
  1
NO.09      <縮尺> S=1/40
  7
STYLE2
100
AcDbText
  0
TEXT
  5
16373
330
747D
100
AcDbEntity
  8
文字
 62
     7
 48
50.0
100
AcDbText
 10
14644.07818602837
 20
876.4448062548634
 30
0.0
 40
100.0
  1
～一般型・多雪地型～
  7
STYLE2
100
AcDbText
  0
LINE
  5
16374
330
747D
100
AcDbEntity
  8
仕様書枠
  6
Continuous
 48
50.0
100
AcDbLine
 10
14251.2
 20
1200.0
 30
0.0
 11
14251.2
 21
800.0
 31
0.0
  0
LINE
  5
16375
330
747D
100
AcDbEntity
  8
仕様書枠
 48
50.0
100
AcDbLine
 10
16307.2
 20
1200.0
 30
0.0
 11
16307.2
 21
-0.0000000000000909
 31
0.0
  0
MTEXT
  5
16B06
330
747D
100
AcDbEntity
  8
寸法
 62
     7
 48
50.0
100
AcDbMText
 10
10788.12350450327
 20
9400.873604953847
 30
0.0
 40
96.0
 41
0.0
 71
     5
 72
     1
  1
棚 3段
  7
STYLE1
 11
0.0000000000000003
 21
1.0
 31
0.0
 73
     1
 44
1.0
1001
ACAD
1000
MTEXTBEGIN
1070
    73
1070
     1
1070
    44
1040
1.0
1070
    74
1070
     0
1000
MTEXTEND
  0
TEXT
  5
16BA9
330
747D
100
AcDbEntity
  8
部品1
100
AcDbText
 10
3299.940911759605
 20
2364.876262741753
 30
0.0
 40
125.0
  1
▽G.L
  7
STYLE2
100
AcDbText
  0
LINE
  5
16BAB
330
747D
100
AcDbEntity
  8
部品1
 48
50.0
100
AcDbLine
 10
6096.311266749937
 20
2428.769359135851
 30
0.0
 11
6096.311266749937
 21
2328.769359135851
 31
0.0
  0
LINE
  5
16BAC
330
747D
100
AcDbEntity
  8
部品1
 48
50.0
100
AcDbLine
 10
6296.311266749937
 20
2428.769359135851
 30
0.0
 11
6296.311266749937
 21
2328.769359135851
 31
0.0
  0
LINE
  5
16BAE
330
747D
100
AcDbEntity
  8
部品1
 48
50.0
100
AcDbLine
 10
7378.311266749941
 20
2428.769359135851
 30
0.0
 11
7293.811266749941
 21
2428.769359135851
 31
0.0
  0
LINE
  5
16BAF
330
747D
100
AcDbEntity
  8
部品1
 48
50.0
100
AcDbLine
 10
7378.311266749941
 20
4553.769359135851
 30
0.0
 11
7378.311266749941
 21
2328.769359135851
 31
0.0
  0
LINE
  5
16BB0
330
747D
100
AcDbEntity
  8
部品1
 48
50.0
100
AcDbLine
 10
7301.311266749941
 20
4563.769359135851
 30
0.0
 11
7378.311266749941
 21
4553.769359135851
 31
0.0
  0
LINE
  5
16BB1
330
747D
100
AcDbEntity
  8
破線
 48
5.0
100
AcDbLine
 10
7173.811266749945
 20
2328.769359135851
 30
0.0
 11
7173.811266749945
 21
2128.769359135851
 31
0.0
  0
LINE
  5
16BB2
330
747D
100
AcDbEntity
  8
破線
 48
5.0
100
AcDbLine
 10
7373.811266749941
 20
2128.769359135848
 30
0.0
 11
7173.811266749945
 21
2128.769359135851
 31
0.0
  0
LINE
  5
16BB3
330
747D
100
AcDbEntity
  8
破線
 48
5.0
100
AcDbLine
 10
7373.811266749945
 20
2328.769359135851
 30
0.0
 11
7373.811266749941
 21
2128.769359135848
 31
0.0
  0
DIMENSION
  5
16BB4
330
747D
100
AcDbEntity
  8
寸法
 48
50.0
100
AcDbDimension
  2
*D2
 10
5018.811266749941
 20
1842.722029835471
 30
0.0
 11
5118.811266749939
 21
1842.722029835471
 31
0.0
 70
   160
 71
     5
 42
199.9999999999963
  3
INABA_S40G
100
AcDbAlignedDimension
 13
5218.811266749938
 23
2128.769359135848
 33
0.0
 14
5018.811266749941
 24
2128.76935913585
 34
0.0
100
AcDbRotatedDimension
  0
LINE
  5
16BB5
330
747D
100
AcDbEntity
  8
破線
 48
5.0
100
AcDbLine
 10
5018.811266749938
 20
2328.769359135851
 30
0.0
 11
5018.811266749941
 21
2128.769359135848
 31
0.0
  0
LINE
  5
16BB6
330
747D
100
AcDbEntity
  8
破線
 48
5.0
100
AcDbLine
 10
5218.811266749938
 20
2328.769359135851
 30
0.0
 11
5218.811266749938
 21
2128.769359135848
 31
0.0
  0
LINE
  5
16BB7
330
747D
100
AcDbEntity
  8
破線
 48
5.0
100
AcDbLine
 10
5218.811266749938
 20
2128.769359135848
 30
0.0
 11
5018.811266749941
 21
2128.769359135848
 31
0.0
  0
DIMENSION
  5
16BB8
330
747D
100
AcDbEntity
  8
寸法
 48
50.0
100
AcDbDimension
  2
*D3
 10
4869.311263503304
 20
2328.769359135849
 30
0.0
 11
4869.311263503303
 21
2228.76935913585
 31
0.0
 70
   160
 71
     5
 42
200.0
  3
INABA_S40G
100
AcDbAlignedDimension
 13
5018.811266749941
 23
2128.76935913585
 33
0.0
 14
4993.811266749937
 24
2328.769359135849
 34
0.0
 50
90.0
100
AcDbRotatedDimension
1001
ACAD
1000
DSTYLE
1002
{
1070
   174
1070
     0
1070
   272
1070
     1
1070
   288
1070
     0
1070
   341
1005
0
1002
}
  0
DIMENSION
  5
16BB9
330
747D
100
AcDbEntity
  8
寸法
 48
50.0
100
AcDbDimension
  2
*D4
 10
4470.702859981572
 20
4678.11461800918
 30
0.0
 11
4481.368335240498
 21
5048.961281250885
 31
0.0
 70
   161
 71
     5
 42
141.0000000000009
  3
INABA_S40G
100
AcDbAlignedDimension
 13
5050.707286908517
 23
4802.492107970531
 33
0.0
 14
5046.65383135189
 24
4661.550384204816
 34
0.0
1001
ACAD
1000
DSTYLE
1002
{
1070
   174
1070
     0
1070
   272
1070
     1
1070
   288
1070
     0
1070
   341
1005
0
1002
}
  0
LINE
  5
16BBA
330
747D
100
AcDbEntity
  8
部品1
100
AcDbLine
 10
7293.811266749937
 20
2428.769359135851
 30
0.0
 11
7301.311266749941
 21
2428.769359135851
 31
0.0
  0
LINE
  5
16BBB
330
747D
100
AcDbEntity
  8
破線
  6
HIDDEN
 48
5.0
100
AcDbLine
 10
5138.811266749937
 20
2328.769359135851
 30
0.0
 11
5138.811266749937
 21
2323.769359135851
 31
0.0
  0
LINE
  5
16BBC
330
747D
100
AcDbEntity
  8
破線
  6
HIDDEN
 48
5.0
100
AcDbLine
 10
5098.811266749944
 20
2328.769359135851
 30
0.0
 11
5098.811266749944
 21
2323.769359135851
 31
0.0
  0
LINE
  5
16BBD
330
747D
100
AcDbEntity
  8
破線
  6
HIDDEN
 48
5.0
100
AcDbLine
 10
7293.811266749937
 20
2328.769359135851
 30
0.0
 11
7293.811266749937
 21
2323.769359135851
 31
0.0
  0
LINE
  5
16BBE
330
747D
100
AcDbEntity
  8
破線
  6
HIDDEN
 48
5.0
100
AcDbLine
 10
7253.811266749938
 20
2328.769359135851
 30
0.0
 11
7253.811266749938
 21
2323.769359135851
 31
0.0
  0
ARC
  5
16BBF
330
747D
100
AcDbEntity
  8
部品1
 48
50.0
100
AcDbCircle
 10
7288.811266749937
 20
2468.769359135851
 30
0.0
 40
5.0
100
AcDbArc
 50
0.0
 51
90.0
  0
ARC
  5
16BC0
330
747D
100
AcDbEntity
  8
部品1
 48
50.0
100
AcDbCircle
 10
7258.811266749937
 20
2468.769359135851
 30
0.0
 40
5.0
100
AcDbArc
 50
90.0
 51
180.0
  0
LINE
  5
16BC1
330
747D
100
AcDbEntity
  8
部品1
100
AcDbLine
 10
7288.811266749937
 20
2473.769359135851
 30
0.0
 11
7258.811266749937
 21
2473.769359135851
 31
0.0
  0
LINE
  5
16BC2
330
747D
100
AcDbEntity
  8
部品1
 48
50.0
100
AcDbLine
 10
7293.811266749937
 20
2468.769359135851
 30
0.0
 11
7293.811266749937
 21
2328.769359135851
 31
0.0
  0
LINE
  5
16BC3
330
747D
100
AcDbEntity
  8
部品1
 48
50.0
100
AcDbLine
 10
7253.811266749938
 20
2468.769359135851
 30
0.0
 11
7253.811266749938
 21
2328.769359135851
 31
0.0
  0
ARC
  5
16BC4
330
747D
100
AcDbEntity
  8
部品1
 48
50.0
100
AcDbCircle
 10
5133.811266749937
 20
2468.769359135851
 30
0.0
 40
5.0
100
AcDbArc
 50
0.0
 51
90.0
  0
ARC
  5
16BC5
330
747D
100
AcDbEntity
  8
部品1
 48
50.0
100
AcDbCircle
 10
5103.811266749938
 20
2468.769359135851
 30
0.0
 40
5.0
100
AcDbArc
 50
90.0
 51
180.0
  0
LINE
  5
16BC6
330
747D
100
AcDbEntity
  8
部品1
100
AcDbLine
 10
5103.811266749938
 20
2473.769359135851
 30
0.0
 11
5133.811266749937
 21
2473.769359135851
 31
0.0
  0
LINE
  5
16BC7
330
747D
100
AcDbEntity
  8
部品1
 48
50.0
100
AcDbLine
 10
5138.811266749937
 20
2468.769359135851
 30
0.0
 11
5138.811266749937
 21
2328.769359135851
 31
0.0
  0
LINE
  5
16BC8
330
747D
100
AcDbEntity
  8
部品1
 48
50.0
100
AcDbLine
 10
5098.811266749937
 20
2468.769359135851
 30
0.0
 11
5098.811266749937
 21
2328.769359135851
 31
0.0
  0
LINE
  5
16BC9
330
747D
100
AcDbEntity
  8
破線
  6
HIDDEN
 48
5.0
100
AcDbLine
 10
5138.811266749937
 20
2323.769359135851
 30
0.0
 11
5153.811266749937
 21
2176.06935913585
 31
0.0
  0
LINE
  5
16BCA
330
747D
100
AcDbEntity
  8
破線
  6
HIDDEN
 48
5.0
100
AcDbLine
 10
5098.811266749937
 20
2323.769359135851
 30
0.0
 11
5083.811266749937
 21
2176.06935913585
 31
0.0
  0
LINE
  5
16BCB
330
747D
100
AcDbEntity
  8
破線
  6
HIDDEN
 48
5.0
100
AcDbLine
 10
5153.811266749937
 20
2176.06935913585
 30
0.0
 11
5153.811266749937
 21
2173.769359135851
 31
0.0
  0
LINE
  5
16BCC
330
747D
100
AcDbEntity
  8
破線
  6
HIDDEN
 48
5.0
100
AcDbLine
 10
5083.811266749937
 20
2176.06935913585
 30
0.0
 11
5083.811266749937
 21
2173.769359135851
 31
0.0
  0
LINE
  5
16BCD
330
747D
100
AcDbEntity
  8
破線
  6
HIDDEN
 48
5.0
100
AcDbLine
 10
5083.811266749937
 20
2173.769359135851
 30
0.0
 11
5153.811266749937
 21
2173.769359135851
 31
0.0
  0
LINE
  5
16BCE
330
747D
100
AcDbEntity
  8
破線
  6
HIDDEN
 48
5.0
100
AcDbLine
 10
7308.811266749938
 20
2176.06935913585
 30
0.0
 11
7308.811266749938
 21
2173.769359135851
 31
0.0
  0
LINE
  5
16BCF
330
747D
100
AcDbEntity
  8
破線
  6
HIDDEN
 48
5.0
100
AcDbLine
 10
7293.811266749937
 20
2323.769359135851
 30
0.0
 11
7308.811266749938
 21
2176.06935913585
 31
0.0
  0
LINE
  5
16BD0
330
747D
100
AcDbEntity
  8
破線
  6
HIDDEN
 48
5.0
100
AcDbLine
 10
7238.811266749937
 20
2176.06935913585
 30
0.0
 11
7238.811266749937
 21
2173.769359135851
 31
0.0
  0
LINE
  5
16BD1
330
747D
100
AcDbEntity
  8
破線
  6
HIDDEN
 48
5.0
100
AcDbLine
 10
7253.811266749938
 20
2323.769359135851
 30
0.0
 11
7238.811266749937
 21
2176.06935913585
 31
0.0
  0
LINE
  5
16BD2
330
747D
100
AcDbEntity
  8
破線
  6
HIDDEN
 48
5.0
100
AcDbLine
 10
7308.811266749938
 20
2173.769359135851
 30
0.0
 11
7238.811266749937
 21
2173.769359135851
 31
0.0
  0
DIMENSION
  5
16BD3
330
747D
100
AcDbEntity
  8
寸法
100
AcDbDimension
  2
*D5
 10
4467.65855759164
 20
2428.769359135851
 30
0.0
 11
4467.658557591639
 21
2122.722115041357
 31
0.0
 70
   160
 71
     5
 42
50.0
  3
INABA_S40G
100
AcDbAlignedDimension
 13
5091.311266749937
 23
2478.769359135851
 33
0.0
 14
5036.311266749937
 24
2428.769359135851
 34
0.0
 50
90.0
100
AcDbRotatedDimension
1001
ACAD
1000
DSTYLE
1002
{
1070
   174
1070
     0
1070
   272
1070
     1
1070
   288
1070
     0
1070
   341
1005
0
1002
}
  0
DIMENSION
  5
16BD4
330
747D
100
AcDbEntity
  8
寸法
100
AcDbDimension
  2
*D6
 10
4182.671884820579
 20
2328.769359135851
 30
0.0
 11
4182.671884820578
 21
2092.722115041357
 31
0.0
 70
   160
 71
     5
 42
100.0
  3
INABA_S40G
100
AcDbAlignedDimension
 13
5036.311266749937
 23
2428.769359135851
 33
0.0
 14
4467.658557591639
 24
2328.769359135851
 34
0.0
 50
90.0
100
AcDbRotatedDimension
1001
ACAD
1000
DSTYLE
1002
{
1070
   174
1070
     0
1070
   272
1070
     1
1070
   288
1070
     0
1070
   341
1005
0
1002
}
  0
DIMENSION
  5
16BD5
330
747D
100
AcDbEntity
  8
寸法
100
AcDbDimension
  2
*D7
 10
4182.671884820579
 20
4803.769359135855
 30
0.0
 11
4182.671884820578
 21
3523.769359135851
 31
0.0
 70
   160
 71
     5
 42
2375.000000000003
  3
INABA_S40G
100
AcDbAlignedDimension
 13
5091.311266749937
 23
2428.769359135851
 33
0.0
 14
5031.311266749938
 24
4803.769359135855
 34
0.0
 50
90.0
100
AcDbRotatedDimension
1001
ACAD
1000
DSTYLE
1002
{
1070
   174
1070
     0
1070
   272
1070
     1
1070
   288
1070
     0
1070
   341
1005
0
1002
}
  0
DIMENSION
  5
16BD6
330
747D
100
AcDbEntity
  8
寸法
100
AcDbDimension
  2
*D8
 10
4467.658557591639
 20
2478.769359135851
 30
0.0
 11
4467.658557591637
 21
3523.769359135851
 31
0.0
 70
   160
 71
     5
 42
2090.0
  3
INABA_S40G
100
AcDbAlignedDimension
 13
5091.311266749937
 23
4568.769359135851
 33
0.0
 14
5091.311266749937
 24
2478.769359135851
 34
0.0
 50
90.0
100
AcDbRotatedDimension
1001
ACAD
1000
DSTYLE
1002
{
1070
   174
1070
     0
1070
   272
1070
     1
1070
   288
1070
     0
1070
   341
1005
0
1002
}
  0
LINE
  5
16BD7
330
747D
100
AcDbEntity
  8
部品1
100
AcDbLine
 10
5091.311266749937
 20
2428.769359135851
 30
0.0
 11
5098.811266749937
 21
2428.769359135851
 31
0.0
  0
LINE
  5
16BD8
330
747D
100
AcDbEntity
  8
部品1
100
AcDbLine
 10
6578.046599864157
 20
1639.731096158441
 30
0.0
 11
5814.575933635717
 21
1639.731096158441
 31
0.0
  0
LINE
  5
16BD9
330
747D
100
AcDbEntity
  8
部品1
100
AcDbLine
 10
6578.046599864157
 20
1399.838774612908
 30
0.0
 11
6578.046599864157
 21
1639.731096158441
 31
0.0
  0
LINE
  5
16BDA
330
747D
100
AcDbEntity
  8
部品1
100
AcDbLine
 10
5814.575933635717
 20
1399.838774612908
 30
0.0
 11
6578.046599864157
 21
1399.838774612908
 31
0.0
  0
LINE
  5
16BDB
330
747D
100
AcDbEntity
  8
部品1
100
AcDbLine
 10
5814.575933635717
 20
1639.731096158441
 30
0.0
 11
5814.575933635717
 21
1399.838774612908
 31
0.0
  0
TEXT
  5
16BDC
330
747D
100
AcDbEntity
  8
部品1
100
AcDbText
 10
5904.022035059324
 20
1446.837566939916
 30
0.0
 40
135.0
  1
側面図
  7
STYLE2
100
AcDbText
  0
LINE
  5
16BDD
330
747D
100
AcDbEntity
  8
細線
 48
50.0
100
AcDbLine
 10
7168.811266749945
 20
4568.769359135851
 30
0.0
 11
7168.811266749945
 21
2478.769359135851
 31
0.0
  0
LINE
  5
16BDE
330
747D
100
AcDbEntity
  8
細線
 48
50.0
100
AcDbLine
 10
7183.811266749945
 20
4568.769359135851
 30
0.0
 11
7183.811266749945
 21
2478.769359135851
 31
0.0
  0
LINE
  5
16BDF
330
747D
100
AcDbEntity
  8
細線
 48
50.0
100
AcDbLine
 10
7043.811266749945
 20
4568.769359135851
 30
0.0
 11
7043.811266749945
 21
2478.769359135851
 31
0.0
  0
LINE
  5
16BE0
330
747D
100
AcDbEntity
  8
細線
 48
50.0
100
AcDbLine
 10
7028.811266749944
 20
4568.769359135851
 30
0.0
 11
7028.811266749944
 21
2478.769359135851
 31
0.0
  0
LINE
  5
16BE1
330
747D
100
AcDbEntity
  8
細線
 48
50.0
100
AcDbLine
 10
6888.811266749944
 20
4568.769359135851
 30
0.0
 11
6888.811266749944
 21
2478.769359135851
 31
0.0
  0
LINE
  5
16BE2
330
747D
100
AcDbEntity
  8
細線
 48
50.0
100
AcDbLine
 10
6903.811266749944
 20
4568.769359135851
 30
0.0
 11
6903.811266749944
 21
2478.769359135851
 31
0.0
  0
LINE
  5
16BE3
330
747D
100
AcDbEntity
  8
部品1
100
AcDbLine
 10
6406.311266749937
 20
4568.769359135851
 30
0.0
 11
6406.311266749937
 21
2478.769359135851
 31
0.0
  0
LINE
  5
16BE4
330
747D
100
AcDbEntity
  8
細線
 48
50.0
100
AcDbLine
 10
6063.81126674994
 20
4568.769359135851
 30
0.0
 11
6063.81126674994
 21
2478.769359135851
 31
0.0
  0
LINE
  5
16BE5
330
747D
100
AcDbEntity
  8
細線
 48
50.0
100
AcDbLine
 10
6048.81126674994
 20
4568.769359135851
 30
0.0
 11
6048.81126674994
 21
2478.769359135851
 31
0.0
  0
LINE
  5
16BE6
330
747D
100
AcDbEntity
  8
細線
 48
50.0
100
AcDbLine
 10
6188.81126674994
 20
4568.769359135851
 30
0.0
 11
6188.81126674994
 21
2478.769359135851
 31
0.0
  0
LINE
  5
16BE7
330
747D
100
AcDbEntity
  8
細線
 48
50.0
100
AcDbLine
 10
6203.811266749941
 20
4568.769359135851
 30
0.0
 11
6203.811266749941
 21
2478.769359135851
 31
0.0
  0
LINE
  5
16BE8
330
747D
100
AcDbEntity
  8
細線
 48
50.0
100
AcDbLine
 10
6343.811266749941
 20
4568.769359135851
 30
0.0
 11
6343.811266749941
 21
2478.769359135851
 31
0.0
  0
LINE
  5
16BE9
330
747D
100
AcDbEntity
  8
細線
 48
50.0
100
AcDbLine
 10
6328.811266749941
 20
4568.769359135851
 30
0.0
 11
6328.811266749941
 21
2478.769359135851
 31
0.0
  0
LINE
  5
16BEA
330
747D
100
AcDbEntity
  8
部品1
100
AcDbLine
 10
5986.311266749937
 20
4568.769359135851
 30
0.0
 11
5986.311266749937
 21
2478.769359135851
 31
0.0
  0
DIMENSION
  5
16BEB
330
747D
100
AcDbEntity
  8
寸法
 48
50.0
100
AcDbDimension
  2
*D9
 10
7381.311266749936
 20
5202.426812715154
 30
0.0
 11
7587.358510844428
 21
5202.426812715154
 31
0.0
 70
   160
 71
     5
 42
80.0
  3
INABA_S40G
100
AcDbAlignedDimension
 13
7301.311266749937
 23
4750.580038747503
 33
0.0
 14
7381.311266749936
 24
4748.769359135851
 34
0.0
100
AcDbRotatedDimension
1001
ACAD
1000
DSTYLE
1002
{
1070
   174
1070
     0
1070
   272
1070
     1
1070
   288
1070
     0
1070
   341
1005
0
1002
}
  0
LINE
  5
16BEC
330
747D
100
AcDbEntity
  8
細線
 48
50.0
100
AcDbLine
 10
5223.811266749937
 20
4568.769359135851
 30
0.0
 11
5223.811266749937
 21
2478.769359135851
 31
0.0
  0
LINE
  5
16BED
330
747D
100
AcDbEntity
  8
細線
 48
50.0
100
AcDbLine
 10
5208.811266749937
 20
4568.769359135851
 30
0.0
 11
5208.811266749937
 21
2478.769359135851
 31
0.0
  0
LINE
  5
16BEE
330
747D
100
AcDbEntity
  8
細線
 48
50.0
100
AcDbLine
 10
5348.811266749937
 20
4568.769359135851
 30
0.0
 11
5348.811266749937
 21
2478.769359135851
 31
0.0
  0
LINE
  5
16BEF
330
747D
100
AcDbEntity
  8
細線
 48
50.0
100
AcDbLine
 10
5363.811266749937
 20
4568.769359135851
 30
0.0
 11
5363.811266749937
 21
2478.769359135851
 31
0.0
  0
LINE
  5
16BF0
330
747D
100
AcDbEntity
  8
細線
 48
50.0
100
AcDbLine
 10
5503.811266749938
 20
4568.769359135851
 30
0.0
 11
5503.811266749938
 21
2478.769359135851
 31
0.0
  0
LINE
  5
16BF1
330
747D
100
AcDbEntity
  8
細線
 48
50.0
100
AcDbLine
 10
5488.811266749937
 20
4568.769359135851
 30
0.0
 11
5488.811266749937
 21
2478.769359135851
 31
0.0
  0
LINE
  5
16BF2
330
747D
100
AcDbEntity
  8
細線
 48
50.0
100
AcDbLine
 10
5908.811266749937
 20
4568.769359135851
 30
0.0
 11
5908.811266749937
 21
2478.769359135851
 31
0.0
  0
LINE
  5
16BF3
330
747D
100
AcDbEntity
  8
細線
 48
50.0
100
AcDbLine
 10
5923.811266749937
 20
4568.769359135851
 30
0.0
 11
5923.811266749937
 21
2478.769359135851
 31
0.0
  0
LINE
  5
16BF4
330
747D
100
AcDbEntity
  8
細線
 48
50.0
100
AcDbLine
 10
5783.811266749937
 20
4568.769359135851
 30
0.0
 11
5783.811266749937
 21
2478.769359135851
 31
0.0
  0
LINE
  5
16BF5
330
747D
100
AcDbEntity
  8
細線
 48
50.0
100
AcDbLine
 10
5768.811266749938
 20
4568.769359135851
 30
0.0
 11
5768.811266749938
 21
2478.769359135851
 31
0.0
  0
LINE
  5
16BF6
330
747D
100
AcDbEntity
  8
細線
 48
50.0
100
AcDbLine
 10
5628.811266749938
 20
4568.769359135851
 30
0.0
 11
5628.811266749938
 21
2478.769359135851
 31
0.0
  0
LINE
  5
16BF7
330
747D
100
AcDbEntity
  8
細線
 48
50.0
100
AcDbLine
 10
5643.811266749938
 20
4568.769359135851
 30
0.0
 11
5643.811266749938
 21
2478.769359135851
 31
0.0
  0
LINE
  5
16BF8
330
747D
100
AcDbEntity
  8
部品1
100
AcDbLine
 10
5091.311266749937
 20
2428.769359135851
 30
0.0
 11
5098.811266749937
 21
2428.769359135851
 31
0.0
  0
DIMENSION
  5
16BF9
330
747D
100
AcDbEntity
  8
寸法
 48
50.0
100
AcDbDimension
  2
*D10
 10
5031.311266749938
 20
5421.628646389446
 30
0.0
 11
6265.655120842406
 21
5421.628646389446
 31
0.0
 70
   160
 71
     5
 42
2350.0
  3
INABA_S40G
100
AcDbAlignedDimension
 13
7381.311266749936
 23
4748.769359135851
 33
0.0
 14
5031.311266749938
 24
4803.769359135855
 34
0.0
100
AcDbRotatedDimension
1001
ACAD
1000
DSTYLE
1002
{
1070
   174
1070
     0
1070
   272
1070
     1
1070
   288
1070
     0
1070
   341
1005
0
1002
}
  0
DIMENSION
  5
16BFA
330
747D
100
AcDbEntity
  8
寸法
 48
50.0
100
AcDbDimension
  2
*D11
 10
5031.311266749938
 20
5202.426812715154
 30
0.0
 11
4721.673471474347
 21
5202.426812715154
 31
0.0
 70
   160
 71
     5
 42
60.0
  3
INABA_S40G
100
AcDbAlignedDimension
 13
5091.311266749937
 23
4799.770977258828
 33
0.0
 14
5031.311266749938
 24
4803.769359135855
 34
0.0
100
AcDbRotatedDimension
1001
ACAD
1000
DSTYLE
1002
{
1070
   174
1070
     0
1070
   272
1070
     1
1070
   288
1070
     0
1070
   341
1005
0
1002
}
  0
DIMENSION
  5
16BFB
330
747D
100
AcDbEntity
  8
寸法
 48
50.0
100
AcDbDimension
  2
*D12
 10
5091.311266749937
 20
5202.426812715154
 30
0.0
 11
6185.956003820451
 21
5202.426812715154
 31
0.0
 70
   160
  1
柱外寸法<>
 71
     5
 42
2210.0
  3
INABA_S40G
100
AcDbAlignedDimension
 13
7301.311266749937
 23
4750.580038747503
 33
0.0
 14
5091.311266749937
 24
4799.770977258828
 34
0.0
100
AcDbRotatedDimension
1001
ACAD
1000
DSTYLE
1002
{
1070
   174
1070
     0
1070
   272
1070
     1
1070
   288
1070
     0
1070
   341
1005
0
1002
}
  0
DIMENSION
  5
16BFC
330
747D
100
AcDbEntity
  8
寸法
100
AcDbDimension
  2
*D13
 10
7849.263683254097
 20
4748.769359135851
 30
0.0
 11
7849.263683254095
 21
3549.746088347121
 31
0.0
 70
   160
 71
     5
 42
2320.000000000002
  3
INABA_S40G
100
AcDbAlignedDimension
 13
7378.311266749941
 23
2428.769359135849
 33
0.0
 14
7381.311266749936
 24
4748.769359135851
 34
0.0
 50
90.0
100
AcDbRotatedDimension
1001
ACAD
1000
DSTYLE
1002
{
1070
   174
1070
     0
1070
   272
1070
     1
1070
   288
1070
     0
1070
   341
1005
0
1002
}
  0
LINE
  5
16BFD
330
747D
100
AcDbEntity
  8
部品1
100
AcDbLine
 10
7246.311266749941
 20
4568.769359135851
 30
0.0
 11
7246.311266749941
 21
2478.769359135851
 31
0.0
  0
LINE
  5
16BFE
330
747D
100
AcDbEntity
  8
部品1
100
AcDbLine
 10
7301.311266749937
 20
4623.445796767071
 30
0.0
 11
7301.311266749941
 21
2328.769359135851
 31
0.0
  0
LINE
  5
16BFF
330
747D
100
AcDbEntity
  8
部品1
100
AcDbLine
 10
5566.311266749938
 20
4568.769359135851
 30
0.0
 11
5566.311266749938
 21
2478.769359135851
 31
0.0
  0
LINE
  5
16C00
330
747D
100
AcDbEntity
  8
部品1
100
AcDbLine
 10
5091.311266749937
 20
4660.627878578098
 30
0.0
 11
5091.311266749937
 21
2328.769359135851
 31
0.0
  0
LINE
  5
16C01
330
747D
100
AcDbEntity
  8
部品1
100
AcDbLine
 10
5146.311266749937
 20
4568.769359135851
 30
0.0
 11
5146.311266749937
 21
2478.769359135851
 31
0.0
  0
LINE
  5
16C02
330
747D
100
AcDbEntity
  8
部品1
100
AcDbLine
 10
5091.311266749937
 20
2478.769359135851
 30
0.0
 11
7301.311266749941
 21
2478.769359135851
 31
0.0
  0
LINE
  5
16C03
330
747D
100
AcDbEntity
  8
部品1
100
AcDbLine
 10
5091.311266749937
 20
4568.769359135851
 30
0.0
 11
7301.311266749938
 21
4568.769359135851
 31
0.0
  0
LINE
  5
16C04
330
747D
100
AcDbEntity
  8
部品1
100
AcDbLine
 10
6826.311266749937
 20
4568.769359135851
 30
0.0
 11
6826.311266749937
 21
2478.769359135851
 31
0.0
  0
LINE
  5
16C05
330
747D
100
AcDbEntity
  8
細線
 48
50.0
100
AcDbLine
 10
6748.811266749941
 20
4568.769359135851
 30
0.0
 11
6748.811266749941
 21
2478.769359135851
 31
0.0
  0
LINE
  5
16C06
330
747D
100
AcDbEntity
  8
細線
 48
50.0
100
AcDbLine
 10
6763.811266749941
 20
4568.769359135851
 30
0.0
 11
6763.811266749941
 21
2478.769359135851
 31
0.0
  0
LINE
  5
16C07
330
747D
100
AcDbEntity
  8
細線
 48
50.0
100
AcDbLine
 10
6623.811266749941
 20
4568.769359135851
 30
0.0
 11
6623.811266749941
 21
2478.769359135851
 31
0.0
  0
LINE
  5
16C08
330
747D
100
AcDbEntity
  8
細線
 48
50.0
100
AcDbLine
 10
6608.811266749942
 20
4568.769359135851
 30
0.0
 11
6608.811266749942
 21
2478.769359135851
 31
0.0
  0
LINE
  5
16C09
330
747D
100
AcDbEntity
  8
細線
 48
50.0
100
AcDbLine
 10
6468.811266749941
 20
4568.769359135851
 30
0.0
 11
6468.811266749941
 21
2478.769359135851
 31
0.0
  0
LINE
  5
16C0A
330
747D
100
AcDbEntity
  8
細線
 48
50.0
100
AcDbLine
 10
6483.811266749942
 20
4568.769359135851
 30
0.0
 11
6483.811266749942
 21
2478.769359135851
 31
0.0
  0
TEXT
  5
16C0B
330
747D
100
AcDbEntity
  8
部品1
 48
50.0
100
AcDbText
 10
6512.212124638754
 20
4832.584546411112
 30
0.0
 40
120.0
  1
44
 50
90.0
  7
STYLE1
100
AcDbText
  0
TEXT
  5
16C0C
330
747D
100
AcDbEntity
  8
部品1
 48
50.0
100
AcDbText
 10
6034.579101973664
 20
4970.085804629395
 30
0.0
 40
120.0
  1
1000
  7
STYLE1
100
AcDbText
  0
LINE
  5
16C0D
330
747D
100
AcDbEntity
  8
部品1
 48
50.0
100
AcDbLine
 10
6346.311266749937
 20
4934.201782476961
 30
0.0
 11
6346.311266749937
 21
4918.001782476962
 31
0.0
  0
LINE
  5
16C0E
330
747D
100
AcDbEntity
  8
部品1
 48
50.0
100
AcDbLine
 10
6046.311266749937
 20
4934.201782476961
 30
0.0
 11
6346.311266749937
 21
4934.201782476961
 31
0.0
  0
LINE
  5
16C0F
330
747D
100
AcDbEntity
  8
部品1
100
AcDbLine
 10
5038.856253106899
 20
4802.487094470118
 30
0.0
 11
7373.923143611403
 21
4747.410156844989
 31
0.0
  0
LINE
  5
16C10
330
747D
100
AcDbEntity
  8
部品1
100
AcDbLine
 10
5046.65383135189
 20
4661.550384204816
 30
0.0
 11
7355.974967289785
 21
4622.521958970612
 31
0.0
  0
LINE
  5
16C11
330
747D
100
AcDbEntity
  8
細線
 48
50.0
100
AcDbLine
 10
5064.311266749937
 20
4801.169035511255
 30
0.0
 11
5059.022165194431
 21
4661.083402883901
 31
0.0
  0
LINE
  5
16C12
330
747D
100
AcDbEntity
  8
細線
 48
50.0
100
AcDbLine
 10
7348.311266749941
 20
4748.736338171148
 30
0.0
 11
7343.563583861942
 21
4622.990565680402
 31
0.0
  0
LINE
  5
16C13
330
747D
100
AcDbEntity
  8
部品1
 48
50.0
100
AcDbLine
 10
5031.495552663044
 20
4795.362905300542
 30
0.0
 11
5031.875812440856
 21
4775.435940854131
 31
0.0
  0
LINE
  5
16C14
330
747D
100
AcDbEntity
  8
部品1
 48
50.0
100
AcDbLine
 10
5034.944584547101
 20
4771.86065936066
 30
0.0
 11
5036.648486038466
 21
4682.570162654012
 31
0.0
  0
LINE
  5
16C15
330
747D
100
AcDbEntity
  8
細線
 48
50.0
100
AcDbLine
 10
5032.350689850751
 20
4774.786440977211
 30
0.0
 11
7377.986674595923
 21
4719.162236336384
 31
0.0
  0
LINE
  5
16C16
330
747D
100
AcDbEntity
  8
細線
 48
50.0
100
AcDbLine
 10
5037.111165088038
 20
4681.924929279349
 30
0.0
 11
7367.114829518675
 21
4642.115610304855
 31
0.0
  0
LINE
  5
16C17
330
747D
100
AcDbEntity
  8
部品1
 48
50.0
100
AcDbLine
 10
5039.717258144708
 20
4678.994881160539
 30
0.0
 11
5039.91921076514
 21
4668.411845767448
 31
0.0
  0
ARC
  5
16C18
330
747D
100
AcDbEntity
  8
部品1
 48
50.0
100
AcDbCircle
 10
5038.494278491384
 20
4795.496459707971
 30
0.0
 40
7.0
100
AcDbArc
 50
87.03587545283093
 51
181.0932240293156
  0
ARC
  5
16C19
330
747D
100
AcDbEntity
  8
部品1
 48
50.0
100
AcDbCircle
 10
5046.91793659348
 20
4668.545400174877
 30
0.0
 40
7.0
100
AcDbArc
 50
181.0932240293156
 51
267.8377559869492
  0
ARC
  5
16C1A
330
747D
100
AcDbEntity
  8
部品1
100
AcDbCircle
 10
5036.717804218278
 20
4678.937643557357
 30
0.0
 40
3.0
100
AcDbArc
 50
1.093224029315636
 51
80.18775403148891
  0
ARC
  5
16C1B
330
747D
100
AcDbEntity
  8
部品1
100
AcDbCircle
 10
5031.945130620672
 20
4771.803421757475
 30
0.0
 40
3.0
100
AcDbArc
 50
1.093224029315636
 51
80.18775403148891
  0
ARC
  5
16C1C
330
747D
100
AcDbEntity
  8
部品1
100
AcDbCircle
 10
5032.575685023694
 20
4775.449296294874
 30
0.0
 40
0.7
100
AcDbArc
 50
181.0932240292114
 51
260.187754031489
  0
ARC
  5
16C1D
330
747D
100
AcDbEntity
  8
部品1
100
AcDbCircle
 10
5037.348358621304
 20
4682.583518094754
 30
0.0
 40
0.7
100
AcDbArc
 50
181.0932240293156
 51
260.187754031489
  0
LINE
  5
16C1E
330
747D
100
AcDbEntity
  8
部品1
 48
50.0
100
AcDbLine
 10
7380.525169560643
 20
4739.710511410069
 30
0.0
 11
7378.494548369672
 21
4719.765470152288
 31
0.0
  0
LINE
  5
16C1F
330
747D
100
AcDbEntity
  8
部品1
 48
50.0
100
AcDbLine
 10
7375.14198188519
 20
4716.454836079379
 30
0.0
 11
7367.635202620353
 21
4642.722215334369
 31
0.0
  0
LINE
  5
16C20
330
747D
100
AcDbEntity
  8
部品1
 48
50.0
100
AcDbLine
 10
7364.282636135867
 20
4639.411581261454
 30
0.0
 11
7363.203073096127
 21
4628.807964267896
 31
0.0
  0
ARC
  5
16C21
330
747D
100
AcDbEntity
  8
部品1
 48
50.0
100
AcDbCircle
 10
7373.561168995886
 20
4740.419522082844
 30
0.0
 40
7.0
100
AcDbArc
 50
354.1866997665532
 51
87.03587545283093
  0
ARC
  5
16C22
330
747D
100
AcDbEntity
  8
部品1
 48
50.0
100
AcDbCircle
 10
7356.23907253137
 20
4629.51697494067
 30
0.0
 40
7.0
100
AcDbArc
 50
267.8377559869492
 51
354.1866997665532
  0
ARC
  5
16C23
330
747D
100
AcDbEntity
  8
部品1
100
AcDbCircle
 10
7367.267207806475
 20
4639.107719544552
 30
0.0
 40
3.0
100
AcDbArc
 50
95.0921697642102
 51
174.1866997665532
  0
ARC
  5
16C24
330
747D
100
AcDbEntity
  8
部品1
100
AcDbCircle
 10
7378.126553555802
 20
4716.150974362477
 30
0.0
 40
3.0
100
AcDbArc
 50
95.09216976421134
 51
174.1866997665532
  0
ARC
  5
16C25
330
747D
100
AcDbEntity
  8
部品1
100
AcDbCircle
 10
7377.7981483132
 20
4719.836371219566
 30
0.0
 40
0.7
100
AcDbArc
 50
275.0921697642102
 51
354.1866997665532
  0
ARC
  5
16C26
330
747D
100
AcDbEntity
  8
部品1
100
AcDbCircle
 10
7366.938802563879
 20
4642.793116401643
 30
0.0
 40
0.7
100
AcDbArc
 50
275.0921697642102
 51
354.1866997666569
  0
LINE
  5
16C27
330
747D
100
AcDbEntity
  8
部品1
100
AcDbLine
 10
6020.8562531069
 20
4935.519841435824
 30
0.0
 11
6346.311266749937
 21
4918.001782476962
 31
0.0
  0
LINE
  5
16C28
330
747D
100
AcDbEntity
  8
部品1
100
AcDbLine
 10
5138.811266749937
 20
2428.769359135851
 30
0.0
 11
7253.811266749938
 21
2428.769359135851
 31
0.0
  0
LINE
  5
16C29
330
747D
100
AcDbEntity
  8
部品1
100
AcDbLine
 10
7293.811266749937
 20
2428.769359135851
 30
0.0
 11
7301.311266749941
 21
2428.769359135851
 31
0.0
  0
LINE
  5
16C2A
330
747D
100
AcDbEntity
  8
細線
100
AcDbLine
 10
10738.40833140609
 20
4511.769359135833
 30
0.0
 11
10738.40833140609
 21
2486.269359135851
 31
0.0
  0
LINE
  5
16C2B
330
747D
100
AcDbEntity
  8
細線
100
AcDbLine
 10
10668.40833140609
 20
4511.769359135833
 30
0.0
 11
10668.40833140609
 21
2486.269359135851
 31
0.0
  0
LINE
  5
16C2C
330
747D
100
AcDbEntity
  8
細線
100
AcDbLine
 10
10808.4082960872
 20
4511.769359135833
 30
0.0
 11
10808.4082960872
 21
2486.269359135851
 31
0.0
  0
LINE
  5
16C2D
330
747D
100
AcDbEntity
  8
細線
100
AcDbLine
 10
10150.40829608719
 20
4511.769359135843
 30
0.0
 11
10150.4082960872
 21
2486.269359135859
 31
0.0
  0
LINE
  5
16C2E
330
747D
100
AcDbEntity
  8
細線
100
AcDbLine
 10
10220.4082960872
 20
4511.769359135843
 30
0.0
 11
10220.4082960872
 21
2486.269359135859
 31
0.0
  0
LINE
  5
16C2F
330
747D
100
AcDbEntity
  8
細線
100
AcDbLine
 10
9771.408287901781
 20
4511.769359135843
 30
0.0
 11
9771.408287901781
 21
2478.769359135848
 31
0.0
  0
LINE
  5
16C30
330
747D
100
AcDbEntity
  8
細線
100
AcDbLine
 10
10878.4082960872
 20
4511.769359135833
 30
0.0
 11
10878.4082960872
 21
2486.269359135851
 31
0.0
  0
LINE
  5
16C31
330
747D
100
AcDbEntity
  8
細線
100
AcDbLine
 10
10948.4082960872
 20
4511.769359135833
 30
0.0
 11
10948.4082960872
 21
2486.269359135851
 31
0.0
  0
LINE
  5
16C32
330
747D
100
AcDbEntity
  8
細線
100
AcDbLine
 10
11018.4082960872
 20
4511.769359135833
 30
0.0
 11
11018.4082960872
 21
2486.269359135851
 31
0.0
  0
LINE
  5
16C33
330
747D
100
AcDbEntity
  8
細線
100
AcDbLine
 10
10290.40829608719
 20
4511.769359135843
 30
0.0
 11
10290.4082960872
 21
2486.269359135859
 31
0.0
  0
LINE
  5
16C34
330
747D
100
AcDbEntity
  8
細線
100
AcDbLine
 10
10360.4082960872
 20
4511.769359135843
 30
0.0
 11
10360.4082960872
 21
2486.269359135859
 31
0.0
  0
LINE
  5
16C35
330
747D
100
AcDbEntity
  8
細線
100
AcDbLine
 10
10430.40829608719
 20
4511.769359135843
 30
0.0
 11
10430.4082960872
 21
2486.269359135859
 31
0.0
  0
LINE
  5
16C36
330
747D
100
AcDbEntity
  8
細線
100
AcDbLine
 10
10500.4082960872
 20
4511.769359135843
 30
0.0
 11
10500.4082960872
 21
2486.269359135859
 31
0.0
  0
LINE
  5
16C37
330
747D
100
AcDbEntity
  8
細線
100
AcDbLine
 10
9589.408296087198
 20
4511.769359135843
 30
0.0
 11
9589.408296087198
 21
2478.769359135851
 31
0.0
  0
LINE
  5
16C38
330
747D
100
AcDbEntity
  8
細線
100
AcDbLine
 10
9623.408296087198
 20
4511.769359135843
 30
0.0
 11
9623.408296087198
 21
2478.769359135851
 31
0.0
  0
LINE
  5
16C39
330
747D
100
AcDbEntity
  8
部品1
100
AcDbLine
 10
9581.408296087198
 20
4511.769359135843
 30
0.0
 11
9581.408296087198
 21
2478.769359135851
 31
0.0
  0
LINE
  5
16C3A
330
747D
100
AcDbEntity
  8
部品1
100
AcDbLine
 10
9631.408296087199
 20
4511.769359135843
 30
0.0
 11
9631.408296087199
 21
2478.769359135851
 31
0.0
  0
LINE
  5
16C3B
330
747D
100
AcDbEntity
  8
細線
100
AcDbLine
 10
9841.408287901781
 20
4511.769359135843
 30
0.0
 11
9841.408287901781
 21
2478.769359135848
 31
0.0
  0
LINE
  5
16C3C
330
747D
100
AcDbEntity
  8
細線
100
AcDbLine
 10
9911.408287901782
 20
4511.769359135843
 30
0.0
 11
9911.408287901782
 21
2478.769359135848
 31
0.0
  0
LINE
  5
16C3D
330
747D
100
AcDbEntity
  8
細線
100
AcDbLine
 10
9981.40828790178
 20
4511.769359135843
 30
0.0
 11
9981.40828790178
 21
2478.769359135848
 31
0.0
  0
LINE
  5
16C3E
330
747D
100
AcDbEntity
  8
部品1
 48
50.0
100
AcDbLine
 10
10591.9082960872
 20
4511.76935913585
 30
0.0
 11
10591.9082960872
 21
2486.269359135851
 31
0.0
  0
LINE
  5
16C3F
330
747D
100
AcDbEntity
  8
部品1
 48
50.0
100
AcDbLine
 10
10099.9082960872
 20
4511.76935913585
 30
0.0
 11
10099.9082960872
 21
2478.769359135851
 31
0.0
  0
LINE
  5
16C40
330
747D
100
AcDbEntity
  8
部品1
 48
50.0
100
AcDbLine
 10
9431.408296087194
 20
4563.769359135851
 30
0.0
 11
9431.408296087194
 21
2428.769359135851
 31
0.0
  0
LINE
  5
16C41
330
747D
100
AcDbEntity
  8
細線
 48
50.0
100
AcDbLine
 10
9461.408296087197
 20
4521.269359135851
 30
0.0
 11
9461.408296087196
 21
2428.769359135851
 31
0.0
  0
LINE
  5
16C42
330
747D
100
AcDbEntity
  8
部品1
 48
50.0
100
AcDbLine
 10
9461.408296087197
 20
2478.769359135851
 30
0.0
 11
9461.408296087197
 21
4511.76935913585
 31
0.0
  0
LINE
  5
16C43
330
747D
100
AcDbEntity
  8
部品1
 48
50.0
100
AcDbLine
 10
11126.4082960872
 20
2475.769359135851
 30
0.0
 11
11126.4082960872
 21
4511.76935913585
 31
0.0
  0
LINE
  5
16C44
330
747D
100
AcDbEntity
  8
細線
 48
50.0
100
AcDbLine
 10
11135.40829608719
 20
2428.769359135851
 30
0.0
 11
11135.40829608719
 21
4521.269359135851
 31
0.0
  0
LINE
  5
16C45
330
747D
100
AcDbEntity
  8
部品1
 48
50.0
100
AcDbLine
 10
11165.4082960872
 20
2428.769359135851
 30
0.0
 11
11165.4082960872
 21
4563.769359135851
 31
0.0
  0
LINE
  5
16C46
330
747D
100
AcDbEntity
  8
細線
 48
50.0
100
AcDbLine
 10
10099.9082960872
 20
2486.269359135851
 30
0.0
 11
11109.40829608719
 21
2486.269359135851
 31
0.0
  0
LINE
  5
16C47
330
747D
100
AcDbEntity
  8
細線
 48
50.0
100
AcDbLine
 10
9461.408296087197
 20
2475.769359135851
 30
0.0
 11
11135.40829608719
 21
2475.769359135851
 31
0.0
  0
LINE
  5
16C48
330
747D
100
AcDbEntity
  8
細線
 48
50.0
100
AcDbLine
 10
9461.408296087197
 20
2471.769359135851
 30
0.0
 11
11135.40829608719
 21
2471.769359135851
 31
0.0
  0
LINE
  5
16C49
330
747D
100
AcDbEntity
  8
部品1
 48
50.0
100
AcDbLine
 10
9431.408296087194
 20
2428.769359135851
 30
0.0
 11
11165.4082960872
 21
2428.769359135851
 31
0.0
  0
LINE
  5
16C4A
330
747D
100
AcDbEntity
  8
部品1
 48
50.0
100
AcDbLine
 10
9461.408296087197
 20
2478.769359135851
 30
0.0
 11
10099.9082960872
 21
2478.769359135851
 31
0.0
  0
LINE
  5
16C4B
330
747D
100
AcDbEntity
  8
部品1
 48
50.0
100
AcDbLine
 10
9470.408296087198
 20
2478.769359135851
 30
0.0
 11
9470.408296087198
 21
2475.769359135851
 31
0.0
  0
LINE
  5
16C4C
330
747D
100
AcDbEntity
  8
細線
 48
50.0
100
AcDbLine
 10
11113.40829608719
 20
2475.769359135851
 30
0.0
 11
11109.40829608719
 21
2486.269359135851
 31
0.0
  0
LINE
  5
16C4D
330
747D
100
AcDbEntity
  8
部品1
 48
50.0
100
AcDbLine
 10
11165.4082960872
 20
4563.769359135851
 30
0.0
 11
9431.408296087194
 21
4563.769359135851
 31
0.0
  0
LINE
  5
16C4E
330
747D
100
AcDbEntity
  8
細線
 48
50.0
100
AcDbLine
 10
11165.4082960872
 20
4553.769359135851
 30
0.0
 11
9431.408296087194
 21
4553.769359135851
 31
0.0
  0
LINE
  5
16C4F
330
747D
100
AcDbEntity
  8
細線
 48
50.0
100
AcDbLine
 10
11135.40829608719
 20
4511.76935913585
 30
0.0
 11
9461.408296087197
 21
4511.76935913585
 31
0.0
  0
LINE
  5
16C50
330
747D
100
AcDbEntity
  8
細線
 48
50.0
100
AcDbLine
 10
11135.40829608719
 20
4521.269359135851
 30
0.0
 11
9461.408296087197
 21
4521.269359135851
 31
0.0
  0
LINE
  5
16C51
330
747D
100
AcDbEntity
  8
部品1
 48
50.0
100
AcDbLine
 10
9461.408296087197
 20
4519.769359135851
 30
0.0
 11
9431.408296087194
 21
4519.769359135851
 31
0.0
  0
LINE
  5
16C52
330
747D
100
AcDbEntity
  8
部品1
 48
50.0
100
AcDbLine
 10
11165.4082960872
 20
4519.769359135851
 30
0.0
 11
11135.40829608719
 21
4519.769359135851
 31
0.0
  0
LINE
  5
16C70
330
747D
100
AcDbEntity
  8
部品1
100
AcDbLine
 10
10986.40829608721
 20
4798.769359144324
 30
0.0
 11
10986.40829608721
 21
4701.358291635751
 31
0.0
  0
LINE
  5
16C71
330
747D
100
AcDbEntity
  8
部品1
100
AcDbLine
 10
10961.40829608721
 20
4798.769359144324
 30
0.0
 11
10961.40829608721
 21
4701.358291635751
 31
0.0
  0
LINE
  5
16C72
330
747D
100
AcDbEntity
  8
部品1
100
AcDbLine
 10
10888.40829608721
 20
4798.769359144324
 30
0.0
 11
10888.40829608721
 21
4701.358291635751
 31
0.0
  0
LINE
  5
16C73
330
747D
100
AcDbEntity
  8
部品1
100
AcDbLine
 10
10913.40829608721
 20
4798.769359144324
 30
0.0
 11
10913.40829608721
 21
4701.358291635751
 31
0.0
  0
LINE
  5
16C74
330
747D
100
AcDbEntity
  8
部品1
100
AcDbLine
 10
10876.4082960872
 20
4779.369359144323
 30
0.0
 11
10732.9082960872
 21
4779.369359144323
 31
0.0
  0
LINE
  5
16C75
330
747D
100
AcDbEntity
  8
部品1
100
AcDbLine
 10
11109.9082960872
 20
4779.369359144308
 30
0.0
 11
10998.40829608721
 21
4779.369359144308
 31
0.0
  0
LINE
  5
16C76
330
747D
100
AcDbEntity
  8
部品1
 48
50.0
100
AcDbLine
 10
10959.9082960872
 20
4798.769359144327
 30
0.0
 11
10987.9082960872
 21
4798.769359144327
 31
0.0
  0
LINE
  5
16C77
330
747D
100
AcDbEntity
  8
部品1
 48
50.0
100
AcDbLine
 10
10987.9082960872
 20
4798.769359144327
 30
0.0
 11
10998.4082960872
 21
4779.369359144326
 31
0.0
  0
LINE
  5
16C78
330
747D
100
AcDbEntity
  8
部品1
 48
50.0
100
AcDbLine
 10
10959.9082960872
 20
4798.769359144327
 30
0.0
 11
10949.4082960872
 21
4779.369359144326
 31
0.0
  0
LINE
  5
16C79
330
747D
100
AcDbEntity
  8
部品1
 48
50.0
100
AcDbLine
 10
10886.9082960872
 20
4798.769359144327
 30
0.0
 11
10914.9082960872
 21
4798.769359144327
 31
0.0
  0
LINE
  5
16C7A
330
747D
100
AcDbEntity
  8
部品1
 48
50.0
100
AcDbLine
 10
10886.9082960872
 20
4798.769359144327
 30
0.0
 11
10876.4082960872
 21
4779.369359144326
 31
0.0
  0
LINE
  5
16C7B
330
747D
100
AcDbEntity
  8
部品1
 48
50.0
100
AcDbLine
 10
10914.9082960872
 20
4798.769359144327
 30
0.0
 11
10925.4082960872
 21
4779.369359144326
 31
0.0
  0
LINE
  5
16C7C
330
747D
100
AcDbEntity
  8
部品1
100
AcDbLine
 10
10949.4082960872
 20
4779.369359144323
 30
0.0
 11
10925.4082960872
 21
4779.369359144323
 31
0.0
  0
LINE
  5
16C7D
330
747D
100
AcDbEntity
  8
部品1
100
AcDbLine
 10
11193.47892408039
 20
4779.369359144318
 30
0.0
 11
11152.90829608718
 21
4779.369359144318
 31
0.0
  0
LINE
  5
16C7E
330
747D
100
AcDbEntity
  8
部品1
 48
50.0
100
AcDbLine
 10
11150.40829608719
 20
4798.769359144324
 30
0.0
 11
11152.90829608718
 21
4779.369359144323
 31
0.0
  0
LINE
  5
16C7F
330
747D
100
AcDbEntity
  8
部品1
 48
50.0
100
AcDbLine
 10
11111.196955881
 20
4789.369359144322
 30
0.0
 11
11109.90829608718
 21
4779.369359144323
 31
0.0
  0
LINE
  5
16C80
330
747D
100
AcDbEntity
  8
部品1
 48
50.0
100
AcDbLine
 10
11111.196955881
 20
4789.369359144322
 30
0.0
 11
11125.196955881
 21
4789.369359144322
 31
0.0
  0
LINE
  5
16C81
330
747D
100
AcDbEntity
  8
部品1
 48
50.0
100
AcDbLine
 10
11126.40829608718
 20
4798.769359144324
 30
0.0
 11
11125.196955881
 21
4789.369359144322
 31
0.0
  0
LINE
  5
16C82
330
747D
100
AcDbEntity
  8
細線
 48
50.0
100
AcDbLine
 10
11193.47892408039
 20
4720.7411918838
 30
0.0
 11
11241.54216536434
 21
4720.741191883808
 31
0.0
  0
LINE
  5
16C83
330
747D
100
AcDbEntity
  8
細線
 48
50.0
100
AcDbLine
 10
11210.91938599147
 20
4748.769359135851
 30
0.0
 11
11210.91938599147
 21
4622.269359135851
 31
0.0
  0
ARC
  5
16C84
330
747D
100
AcDbEntity
  8
部品1
100
AcDbCircle
 10
11236.42225226998
 20
4796.76935915275
 30
0.0
 40
7.0
100
AcDbArc
 50
356.3813705198492
 51
90.0
  0
LINE
  5
16C85
330
747D
100
AcDbEntity
  8
部品1
100
AcDbLine
 10
11198.47892408039
 20
4803.76935915275
 30
0.0
 11
11236.42225226998
 21
4803.76935915275
 31
0.0
  0
ARC
  5
16C86
330
747D
100
AcDbEntity
  8
部品1
100
AcDbCircle
 10
11198.47892408039
 20
4798.769359152749
 30
0.0
 40
5.0
100
AcDbArc
 50
90.0
 51
180.0
  0
LINE
  5
16C87
330
747D
100
AcDbEntity
  8
部品1
 48
50.0
100
AcDbLine
 10
11243.40829608718
 20
4741.327553993262
 30
0.0
 11
11243.40829608718
 21
4796.327554010161
 31
0.0
  0
LINE
  5
16C88
330
747D
100
AcDbEntity
  8
部品1
100
AcDbLine
 10
11193.47892408039
 20
4798.769359152749
 30
0.0
 11
11193.47892408039
 21
4701.358291635748
 31
0.0
  0
ARC
  5
16C89
330
747D
100
AcDbEntity
  8
部品1
100
AcDbCircle
 10
11198.47892408039
 20
4743.769359135851
 30
0.0
 40
5.0
100
AcDbArc
 50
90.0
 51
180.0
  0
LINE
  5
16C8A
330
747D
100
AcDbEntity
  8
部品1
100
AcDbLine
 10
11198.47892408039
 20
4748.769359135851
 30
0.0
 11
11236.42225226998
 21
4748.769359135851
 31
0.0
  0
LINE
  5
16C8B
330
747D
100
AcDbEntity
  8
部品1
100
AcDbLine
 10
11242.14775802862
 20
4721.39529594218
 30
0.0
 11
11243.40829608718
 21
4741.327553993262
 31
0.0
  0
LINE
  5
16C8C
330
747D
100
AcDbEntity
  8
部品1
100
AcDbLine
 10
11230.28168524122
 20
4628.827553993262
 30
0.0
 11
11230.9540109458
 21
4639.458704196963
 31
0.0
  0
ARC
  5
16C8D
330
747D
100
AcDbEntity
  8
部品1
100
AcDbCircle
 10
11236.42225226998
 20
4741.769359135851
 30
0.0
 40
7.0
100
AcDbArc
 50
356.3813705198492
 51
90.0
  0
ARC
  5
16C8E
330
747D
100
AcDbEntity
  8
部品1
100
AcDbCircle
 10
11223.295641424
 20
4629.269359135851
 30
0.0
 40
7.0
100
AcDbArc
 50
270.0
 51
356.3813705198492
  0
ARC
  5
16C8F
330
747D
100
AcDbEntity
  8
部品1
100
AcDbCircle
 10
11233.9480297246
 20
4639.269359135851
 30
0.0
 40
3.0
100
AcDbArc
 50
90.0
 51
176.3813705198492
  0
ARC
  5
16C90
330
747D
100
AcDbEntity
  8
部品1
100
AcDbCircle
 10
11233.47873359941
 20
4642.93947645644
 30
0.0
 40
0.7
100
AcDbArc
 50
277.2868405166456
 51
356.3813705198492
  0
LINE
  5
16C91
330
747D
100
AcDbEntity
  8
部品1
100
AcDbLine
 10
11238.92443099329
 20
4717.958704196962
 30
0.0
 11
11234.17733798113
 21
4642.895295942181
 31
0.0
  0
ARC
  5
16C92
330
747D
100
AcDbEntity
  8
部品1
100
AcDbCircle
 10
11241.91844977209
 20
4717.769359135851
 30
0.0
 40
3.0
100
AcDbArc
 50
90.0
 51
176.3813705198492
  0
ARC
  5
16C93
330
747D
100
AcDbEntity
  8
部品1
100
AcDbCircle
 10
11241.4491536469
 20
4721.43947645644
 30
0.0
 40
0.7
100
AcDbArc
 50
277.2868405166456
 51
356.3813705198492
  0
LINE
  5
16C94
330
747D
100
AcDbEntity
  8
部品1
 48
50.0
100
AcDbLine
 10
11198.47892408039
 20
4748.769359135851
 30
0.0
 11
11236.42225226998
 21
4748.769359135851
 31
0.0
  0
LINE
  5
16C95
330
747D
100
AcDbEntity
  8
部品1
 48
50.0
100
AcDbLine
 10
11126.40829608718
 20
4798.769359144324
 30
0.0
 11
11150.40829608719
 21
4798.769359144324
 31
0.0
  0
LINE
  5
16C96
330
747D
100
AcDbEntity
  8
部品1
100
AcDbLine
 10
11147.40829608718
 20
4798.769359144324
 30
0.0
 11
11147.40829608718
 21
4701.358291635748
 31
0.0
  0
LINE
  5
16C97
330
747D
100
AcDbEntity
  8
部品1
100
AcDbLine
 10
11129.40829608718
 20
4798.769359144313
 30
0.0
 11
11129.40829608718
 21
4701.358291635748
 31
0.0
  0
DIMENSION
  5
16C98
330
747D
100
AcDbEntity
  8
寸法
 48
50.0
100
AcDbDimension
  2
*D14
 10
11193.40829608719
 20
5202.862528475325
 30
0.0
 11
11556.89357746143
 21
5202.862528475325
 31
0.0
 70
   160
 71
     5
 42
50.0
  3
INABA_S40G
100
AcDbAlignedDimension
 13
11243.40829608719
 23
4803.769359135854
 33
0.0
 14
11193.40829608719
 24
4803.769359135857
 34
0.0
100
AcDbRotatedDimension
  0
DIMENSION
  5
16C99
330
747D
100
AcDbEntity
  8
寸法
 48
50.0
100
AcDbDimension
  2
*D15
 10
9108.201625201603
 20
2486.769359135852
 30
0.0
 11
9108.201625201603
 21
3504.155992697889
 31
0.0
 70
   160
  1
有効開口部高サ<>
 71
     5
 42
2025.0
  3
INABA_S40G
100
AcDbAlignedDimension
 13
9431.408296087212
 23
4511.76935913585
 33
0.0
 14
9431.408296087212
 24
2486.769359135851
 34
0.0
 50
90.0
100
AcDbRotatedDimension
1001
ACAD
1000
DSTYLE
1002
{
1070
   341
1005
0
1002
}
  0
LINE
  5
16C9A
330
747D
100
AcDbEntity
  8
部品1
 48
50.0
100
AcDbLine
 10
9385.897206182923
 20
4701.358291635748
 30
0.0
 11
11210.91938599147
 21
4701.358291635748
 31
0.0
  0
LINE
  5
16C9B
330
747D
100
AcDbEntity
  8
部品1
 48
50.0
100
AcDbLine
 10
10730.4082960872
 20
4798.769359144324
 30
0.0
 11
10732.9082960872
 21
4779.369359144323
 31
0.0
  0
LINE
  5
16C9C
330
747D
100
AcDbEntity
  8
部品1
 48
50.0
100
AcDbLine
 10
10691.19695588102
 20
4789.369359144322
 30
0.0
 11
10689.9082960872
 21
4779.369359144323
 31
0.0
  0
LINE
  5
16C9D
330
747D
100
AcDbEntity
  8
部品1
 48
50.0
100
AcDbLine
 10
10691.19695588102
 20
4789.369359144322
 30
0.0
 11
10705.19695588102
 21
4789.369359144322
 31
0.0
  0
LINE
  5
16C9E
330
747D
100
AcDbEntity
  8
部品1
 48
50.0
100
AcDbLine
 10
10706.4082960872
 20
4798.769359144324
 30
0.0
 11
10705.19695588102
 21
4789.369359144322
 31
0.0
  0
LINE
  5
16C9F
330
747D
100
AcDbEntity
  8
部品1
 48
50.0
100
AcDbLine
 10
10706.4082960872
 20
4798.769359144324
 30
0.0
 11
10730.4082960872
 21
4798.769359144324
 31
0.0
  0
LINE
  5
16CA0
330
747D
100
AcDbEntity
  8
部品1
100
AcDbLine
 10
10727.4082960872
 20
4798.769359144324
 30
0.0
 11
10727.4082960872
 21
4701.358291635748
 31
0.0
  0
LINE
  5
16CA1
330
747D
100
AcDbEntity
  8
部品1
100
AcDbLine
 10
10709.4082960872
 20
4798.769359144313
 30
0.0
 11
10709.4082960872
 21
4701.358291635748
 31
0.0
  0
LINE
  5
16CA2
330
747D
100
AcDbEntity
  8
細線
 48
50.0
100
AcDbLine
 10
9403.337668093996
 20
4720.7411918838
 30
0.0
 11
9355.274426810051
 21
4720.741191883808
 31
0.0
  0
LINE
  5
16CA3
330
747D
100
AcDbEntity
  8
細線
 48
50.0
100
AcDbLine
 10
9385.897206182921
 20
4748.769359135851
 30
0.0
 11
9385.897206182921
 21
4622.269359135851
 31
0.0
  0
LINE
  5
16CA4
330
747D
100
AcDbEntity
  8
細線
 48
50.0
100
AcDbLine
 10
11234.18665376026
 20
4643.042601699637
 30
0.0
 11
9363.291887719723
 21
4643.042601699637
 31
0.0
  0
ARC
  5
16CA5
330
747D
100
AcDbEntity
  8
部品1
100
AcDbCircle
 10
9360.394339904415
 20
4796.76935915275
 30
0.0
 40
7.0
100
AcDbArc
 50
90.0
 51
183.6186294801508
  0
LINE
  5
16CA6
330
747D
100
AcDbEntity
  8
部品1
100
AcDbLine
 10
9398.337668093999
 20
4803.76935915275
 30
0.0
 11
9360.394339904415
 21
4803.76935915275
 31
0.0
  0
ARC
  5
16CA7
330
747D
100
AcDbEntity
  8
部品1
100
AcDbCircle
 10
9398.337668093999
 20
4798.769359152749
 30
0.0
 40
5.0
100
AcDbArc
 50
0.0
 51
90.0
  0
LINE
  5
16CA8
330
747D
100
AcDbEntity
  8
部品1
 48
50.0
100
AcDbLine
 10
9353.408296087204
 20
4741.327553993262
 30
0.0
 11
9353.408296087204
 21
4796.327554010161
 31
0.0
  0
LINE
  5
16CA9
330
747D
100
AcDbEntity
  8
部品1
100
AcDbLine
 10
11223.295641424
 20
4622.269359135851
 30
0.0
 11
9373.520950750387
 21
4622.269359135851
 31
0.0
  0
LINE
  5
16CAA
330
747D
100
AcDbEntity
  8
部品1
100
AcDbLine
 10
9403.337668093998
 20
4798.769359152749
 30
0.0
 11
9403.337668093996
 21
4701.365330463181
 31
0.0
  0
ARC
  5
16CAB
330
747D
100
AcDbEntity
  8
部品1
100
AcDbCircle
 10
9398.337668093999
 20
4743.769359135851
 30
0.0
 40
5.0
100
AcDbArc
 50
0.0
 51
90.0
  0
LINE
  5
16CAC
330
747D
100
AcDbEntity
  8
部品1
100
AcDbLine
 10
9398.337668093999
 20
4748.769359135851
 30
0.0
 11
9360.394339904415
 21
4748.769359135851
 31
0.0
  0
LINE
  5
16CAD
330
747D
100
AcDbEntity
  8
部品1
100
AcDbLine
 10
9354.668834145771
 20
4721.39529594218
 30
0.0
 11
9353.408296087204
 21
4741.327553993262
 31
0.0
  0
LINE
  5
16CAE
330
747D
100
AcDbEntity
  8
部品1
100
AcDbLine
 10
9366.534906933175
 20
4628.827553993262
 30
0.0
 11
9365.862581228594
 21
4639.458704196963
 31
0.0
  0
ARC
  5
16CAF
330
747D
100
AcDbEntity
  8
部品1
100
AcDbCircle
 10
9360.394339904415
 20
4741.769359135851
 30
0.0
 40
7.0
100
AcDbArc
 50
90.0
 51
183.6186294801508
  0
ARC
  5
16CB0
330
747D
100
AcDbEntity
  8
部品1
100
AcDbCircle
 10
9373.520950750387
 20
4629.269359135851
 30
0.0
 40
7.0
100
AcDbArc
 50
183.6186294801508
 51
270.0
  0
ARC
  5
16CB1
330
747D
100
AcDbEntity
  8
部品1
100
AcDbCircle
 10
9362.868562449788
 20
4639.269359135851
 30
0.0
 40
3.0
100
AcDbArc
 50
3.61862948015079
 51
90.0
  0
ARC
  5
16CB2
330
747D
100
AcDbEntity
  8
部品1
100
AcDbCircle
 10
9363.337858574984
 20
4642.93947645644
 30
0.0
 40
0.7
100
AcDbArc
 50
183.6186294801508
 51
262.7131594833544
  0
LINE
  5
16CB3
330
747D
100
AcDbEntity
  8
部品1
100
AcDbLine
 10
9357.892161181103
 20
4717.958704196962
 30
0.0
 11
9362.639254193261
 21
4642.895295942181
 31
0.0
  0
ARC
  5
16CB4
330
747D
100
AcDbEntity
  8
部品1
100
AcDbCircle
 10
9354.898142402296
 20
4717.769359135851
 30
0.0
 40
3.0
100
AcDbArc
 50
3.61862948015079
 51
90.0
  0
ARC
  5
16CB5
330
747D
100
AcDbEntity
  8
部品1
100
AcDbCircle
 10
9355.367438527492
 20
4721.43947645644
 30
0.0
 40
0.7
100
AcDbArc
 50
183.6186294801508
 51
262.7131594833544
  0
LINE
  5
16CB6
330
747D
100
AcDbEntity
  8
部品1
 48
50.0
100
AcDbLine
 10
9398.337668093999
 20
4748.769359135851
 30
0.0
 11
9360.394339904415
 21
4748.769359135851
 31
0.0
  0
LINE
  5
16CB7
330
747D
100
AcDbEntity
  8
部品1
100
AcDbLine
 10
10689.9082960872
 20
4779.369359144304
 30
0.0
 11
10578.40829608721
 21
4779.369359144304
 31
0.0
  0
LINE
  5
16CB8
330
747D
100
AcDbEntity
  8
部品1
100
AcDbLine
 10
11198.47863348033
 20
4803.769359144306
 30
0.0
 11
9377.840456468112
 21
4803.769359144324
 31
0.0
  0
LINE
  5
16CB9
330
747D
100
AcDbEntity
  8
部品1
 48
50.0
100
AcDbLine
 10
9851.196955881016
 20
4789.369359144322
 30
0.0
 11
9865.196955881017
 21
4789.369359144322
 31
0.0
  0
LINE
  5
16CBA
330
747D
100
AcDbEntity
  8
部品1
100
AcDbLine
 10
9616.408296087204
 20
4779.369359144318
 30
0.0
 11
9472.908296087203
 21
4779.369359144323
 31
0.0
  0
LINE
  5
16CBB
330
747D
100
AcDbEntity
  8
部品1
 48
50.0
100
AcDbLine
 10
9470.408296087205
 20
4798.769359144324
 30
0.0
 11
9446.408296087204
 21
4798.769359144324
 31
0.0
  0
LINE
  5
16CBC
330
747D
100
AcDbEntity
  8
部品1
 48
50.0
100
AcDbLine
 10
9446.408296087204
 20
4798.769359144324
 30
0.0
 11
9445.196955881016
 21
4789.369359144322
 31
0.0
  0
LINE
  5
16CBD
330
747D
100
AcDbEntity
  8
部品1
 48
50.0
100
AcDbLine
 10
9431.196955881016
 20
4789.369359144322
 30
0.0
 11
9429.908296087203
 21
4779.369359144323
 31
0.0
  0
LINE
  5
16CBE
330
747D
100
AcDbEntity
  8
部品1
 48
50.0
100
AcDbLine
 10
9431.196955881016
 20
4789.369359144322
 30
0.0
 11
9445.196955881016
 21
4789.369359144322
 31
0.0
  0
LINE
  5
16CBF
330
747D
100
AcDbEntity
  8
部品1
100
AcDbLine
 10
9429.908296087203
 20
4779.369359144323
 30
0.0
 11
9403.408296087205
 21
4779.369359144323
 31
0.0
  0
LINE
  5
16CC0
330
747D
100
AcDbEntity
  8
部品1
 48
50.0
100
AcDbLine
 10
9470.408296087205
 20
4798.769359144324
 30
0.0
 11
9472.908296087203
 21
4779.369359144323
 31
0.0
  0
LINE
  5
16CC1
330
747D
100
AcDbEntity
  8
部品1
100
AcDbLine
 10
9449.408296087211
 20
4798.769359144324
 30
0.0
 11
9449.408296087213
 21
4701.358291635748
 31
0.0
  0
LINE
  5
16CC2
330
747D
100
AcDbEntity
  8
部品1
100
AcDbLine
 10
9467.408296087212
 20
4798.769359144313
 30
0.0
 11
9467.408296087212
 21
4701.358291635748
 31
0.0
  0
LINE
  5
16CC3
330
747D
100
AcDbEntity
  8
部品1
 48
50.0
100
AcDbLine
 10
9699.908296087205
 20
4798.769359144324
 30
0.0
 11
9689.408296087204
 21
4779.369359144323
 31
0.0
  0
LINE
  5
16CC4
330
747D
100
AcDbEntity
  8
部品1
 48
50.0
100
AcDbLine
 10
9626.908296087204
 20
4798.769359144324
 30
0.0
 11
9654.908296087199
 21
4798.769359144324
 31
0.0
  0
LINE
  5
16CC5
330
747D
100
AcDbEntity
  8
部品1
 48
50.0
100
AcDbLine
 10
9626.908296087204
 20
4798.769359144324
 30
0.0
 11
9616.408296087204
 21
4779.369359144323
 31
0.0
  0
LINE
  5
16CC6
330
747D
100
AcDbEntity
  8
部品1
100
AcDbLine
 10
9628.408296087211
 20
4798.76935914432
 30
0.0
 11
9628.40829608721
 21
4701.358291635748
 31
0.0
  0
LINE
  5
16CC7
330
747D
100
AcDbEntity
  8
部品1
 48
50.0
100
AcDbLine
 10
9654.908296087205
 20
4798.769359144324
 30
0.0
 11
9665.408296087205
 21
4779.369359144323
 31
0.0
  0
LINE
  5
16CC8
330
747D
100
AcDbEntity
  8
部品1
100
AcDbLine
 10
9653.408296087212
 20
4798.76935914432
 30
0.0
 11
9653.408296087214
 21
4701.358291635748
 31
0.0
  0
LINE
  5
16CC9
330
747D
100
AcDbEntity
  8
部品1
100
AcDbLine
 10
9689.408296087201
 20
4779.369359144318
 30
0.0
 11
9665.408296087205
 21
4779.369359144323
 31
0.0
  0
LINE
  5
16CCA
330
747D
100
AcDbEntity
  8
部品1
 48
50.0
100
AcDbLine
 10
9851.196955881016
 20
4789.369359144322
 30
0.0
 11
9849.908296087205
 21
4779.369359144323
 31
0.0
  0
LINE
  5
16CCB
330
747D
100
AcDbEntity
  8
部品1
 48
50.0
100
AcDbLine
 10
9699.908296087205
 20
4798.769359144324
 30
0.0
 11
9727.9082960872
 21
4798.769359144324
 31
0.0
  0
LINE
  5
16CCC
330
747D
100
AcDbEntity
  8
部品1
 48
50.0
100
AcDbLine
 10
9727.908296087205
 20
4798.769359144324
 30
0.0
 11
9738.408296087204
 21
4779.369359144323
 31
0.0
  0
LINE
  5
16CCD
330
747D
100
AcDbEntity
  8
部品1
100
AcDbLine
 10
9726.408296087212
 20
4798.76935914432
 30
0.0
 11
9726.408296087212
 21
4701.358291635748
 31
0.0
  0
LINE
  5
16CCE
330
747D
100
AcDbEntity
  8
部品1
100
AcDbLine
 10
9701.408296087212
 20
4798.76935914432
 30
0.0
 11
9701.408296087212
 21
4701.358291635748
 31
0.0
  0
LINE
  5
16CCF
330
747D
100
AcDbEntity
  8
部品1
100
AcDbLine
 10
9849.908296087205
 20
4779.369359144318
 30
0.0
 11
9738.408296087204
 21
4779.369359144318
 31
0.0
  0
LINE
  5
16CD0
330
747D
100
AcDbEntity
  8
部品1
100
AcDbLine
 10
10529.4082960872
 20
4779.369359144318
 30
0.0
 11
10505.4082960872
 21
4779.369359144318
 31
0.0
  0
LINE
  5
16CD1
330
747D
100
AcDbEntity
  8
部品1
100
AcDbLine
 10
10269.9082960872
 20
4779.369359144318
 30
0.0
 11
10158.4082960872
 21
4779.369359144318
 31
0.0
  0
LINE
  5
16CD2
330
747D
100
AcDbEntity
  8
部品1
100
AcDbLine
 10
10036.4082960872
 20
4779.369359144318
 30
0.0
 11
9892.908296087201
 21
4779.369359144318
 31
0.0
  0
LINE
  5
16CD3
330
747D
100
AcDbEntity
  8
部品1
 48
50.0
100
AcDbLine
 10
9890.408296087205
 20
4798.769359144324
 30
0.0
 11
9892.908296087204
 21
4779.369359144323
 31
0.0
  0
LINE
  5
16CD4
330
747D
100
AcDbEntity
  8
部品1
 48
50.0
100
AcDbLine
 10
9866.408296087204
 20
4798.769359144324
 30
0.0
 11
9865.196955881017
 21
4789.369359144322
 31
0.0
  0
LINE
  5
16CD5
330
747D
100
AcDbEntity
  8
部品1
 48
50.0
100
AcDbLine
 10
9890.408296087205
 20
4798.769359144324
 30
0.0
 11
9866.408296087204
 21
4798.769359144324
 31
0.0
  0
LINE
  5
16CD6
330
747D
100
AcDbEntity
  8
部品1
100
AcDbLine
 10
9869.408296087211
 20
4798.769359144313
 30
0.0
 11
9869.408296087215
 21
4701.358291635748
 31
0.0
  0
LINE
  5
16CD7
330
747D
100
AcDbEntity
  8
部品1
100
AcDbLine
 10
9887.408296087212
 20
4798.769359144313
 30
0.0
 11
9887.408296087214
 21
4701.358291635748
 31
0.0
  0
LINE
  5
16CD8
330
747D
100
AcDbEntity
  8
部品1
 48
50.0
100
AcDbLine
 10
10119.9082960872
 20
4798.769359144324
 30
0.0
 11
10147.9082960872
 21
4798.769359144324
 31
0.0
  0
LINE
  5
16CD9
330
747D
100
AcDbEntity
  8
部品1
 48
50.0
100
AcDbLine
 10
10046.9082960872
 20
4798.769359144324
 30
0.0
 11
10074.9082960872
 21
4798.769359144324
 31
0.0
  0
LINE
  5
16CDA
330
747D
100
AcDbEntity
  8
部品1
 48
50.0
100
AcDbLine
 10
10119.9082960872
 20
4798.769359144324
 30
0.0
 11
10109.4082960872
 21
4779.369359144323
 31
0.0
  0
LINE
  5
16CDB
330
747D
100
AcDbEntity
  8
部品1
 48
50.0
100
AcDbLine
 10
10074.9082960872
 20
4798.769359144324
 30
0.0
 11
10085.4082960872
 21
4779.369359144323
 31
0.0
  0
LINE
  5
16CDC
330
747D
100
AcDbEntity
  8
部品1
100
AcDbLine
 10
10109.4082960872
 20
4779.369359144318
 30
0.0
 11
10085.4082960872
 21
4779.369359144318
 31
0.0
  0
LINE
  5
16CDD
330
747D
100
AcDbEntity
  8
部品1
 48
50.0
100
AcDbLine
 10
10046.9082960872
 20
4798.769359144324
 30
0.0
 11
10036.4082960872
 21
4779.369359144323
 31
0.0
  0
LINE
  5
16CDE
330
747D
100
AcDbEntity
  8
部品1
100
AcDbLine
 10
10121.40829608721
 20
4798.76935914432
 30
0.0
 11
10121.40829608721
 21
4701.358291635748
 31
0.0
  0
LINE
  5
16CDF
330
747D
100
AcDbEntity
  8
部品1
100
AcDbLine
 10
10073.40829608721
 20
4798.76935914432
 30
0.0
 11
10073.40829608721
 21
4701.358291635748
 31
0.0
  0
LINE
  5
16CE0
330
747D
100
AcDbEntity
  8
部品1
100
AcDbLine
 10
10048.40829608721
 20
4798.76935914432
 30
0.0
 11
10048.40829608721
 21
4701.358291635748
 31
0.0
  0
LINE
  5
16CE1
330
747D
100
AcDbEntity
  8
部品1
 48
50.0
100
AcDbLine
 10
10147.9082960872
 20
4798.769359144324
 30
0.0
 11
10158.4082960872
 21
4779.369359144323
 31
0.0
  0
LINE
  5
16CE2
330
747D
100
AcDbEntity
  8
部品1
100
AcDbLine
 10
10146.40829608721
 20
4798.76935914432
 30
0.0
 11
10146.40829608721
 21
4701.358291635748
 31
0.0
  0
LINE
  5
16CE3
330
747D
100
AcDbEntity
  8
部品1
100
AcDbLine
 10
10456.4082960872
 20
4779.369359144318
 30
0.0
 11
10312.9082960872
 21
4779.369359144318
 31
0.0
  0
LINE
  5
16CE4
330
747D
100
AcDbEntity
  8
部品1
 48
50.0
100
AcDbLine
 10
10310.4082960872
 20
4798.769359144324
 30
0.0
 11
10286.4082960872
 21
4798.769359144324
 31
0.0
  0
LINE
  5
16CE5
330
747D
100
AcDbEntity
  8
部品1
 48
50.0
100
AcDbLine
 10
10286.4082960872
 20
4798.769359144324
 30
0.0
 11
10285.19695588101
 21
4789.369359144322
 31
0.0
  0
LINE
  5
16CE6
330
747D
100
AcDbEntity
  8
部品1
 48
50.0
100
AcDbLine
 10
10271.19695588101
 20
4789.369359144322
 30
0.0
 11
10285.19695588101
 21
4789.369359144322
 31
0.0
  0
LINE
  5
16CE7
330
747D
100
AcDbEntity
  8
部品1
 48
50.0
100
AcDbLine
 10
10271.19695588101
 20
4789.369359144322
 30
0.0
 11
10269.9082960872
 21
4779.369359144323
 31
0.0
  0
LINE
  5
16CE8
330
747D
100
AcDbEntity
  8
部品1
100
AcDbLine
 10
10289.40829608721
 20
4798.769359144313
 30
0.0
 11
10289.40829608721
 21
4701.358291635748
 31
0.0
  0
LINE
  5
16CE9
330
747D
100
AcDbEntity
  8
部品1
 48
50.0
100
AcDbLine
 10
10310.4082960872
 20
4798.769359144324
 30
0.0
 11
10312.9082960872
 21
4779.369359144323
 31
0.0
  0
LINE
  5
16CEA
330
747D
100
AcDbEntity
  8
部品1
100
AcDbLine
 10
10307.40829608721
 20
4798.769359144313
 30
0.0
 11
10307.40829608721
 21
4701.358291635748
 31
0.0
  0
LINE
  5
16CEB
330
747D
100
AcDbEntity
  8
部品1
 48
50.0
100
AcDbLine
 10
10494.9082960872
 20
4798.769359144324
 30
0.0
 11
10505.4082960872
 21
4779.369359144323
 31
0.0
  0
LINE
  5
16CEC
330
747D
100
AcDbEntity
  8
部品1
100
AcDbLine
 10
10493.40829608721
 20
4798.76935914432
 30
0.0
 11
10493.40829608721
 21
4701.358291635748
 31
0.0
  0
LINE
  5
16CED
330
747D
100
AcDbEntity
  8
部品1
 48
50.0
100
AcDbLine
 10
10466.9082960872
 20
4798.769359144324
 30
0.0
 11
10456.4082960872
 21
4779.369359144323
 31
0.0
  0
LINE
  5
16CEE
330
747D
100
AcDbEntity
  8
部品1
100
AcDbLine
 10
10468.40829608721
 20
4798.76935914432
 30
0.0
 11
10468.40829608721
 21
4701.358291635748
 31
0.0
  0
LINE
  5
16CEF
330
747D
100
AcDbEntity
  8
部品1
 48
50.0
100
AcDbLine
 10
10466.9082960872
 20
4798.769359144324
 30
0.0
 11
10494.9082960872
 21
4798.769359144324
 31
0.0
  0
LINE
  5
16CF0
330
747D
100
AcDbEntity
  8
部品1
 48
50.0
100
AcDbLine
 10
10539.9082960872
 20
4798.769359144324
 30
0.0
 11
10529.4082960872
 21
4779.369359144323
 31
0.0
  0
LINE
  5
16CF1
330
747D
100
AcDbEntity
  8
部品1
 48
50.0
100
AcDbLine
 10
10567.9082960872
 20
4798.769359144324
 30
0.0
 11
10578.4082960872
 21
4779.369359144323
 31
0.0
  0
LINE
  5
16CF2
330
747D
100
AcDbEntity
  8
部品1
 48
50.0
100
AcDbLine
 10
10539.9082960872
 20
4798.769359144324
 30
0.0
 11
10567.9082960872
 21
4798.769359144324
 31
0.0
  0
LINE
  5
16CF3
330
747D
100
AcDbEntity
  8
部品1
100
AcDbLine
 10
10541.40829608721
 20
4798.76935914432
 30
0.0
 11
10541.40829608721
 21
4701.358291635748
 31
0.0
  0
LINE
  5
16CF4
330
747D
100
AcDbEntity
  8
部品1
100
AcDbLine
 10
10566.40829608721
 20
4798.76935914432
 30
0.0
 11
10566.40829608721
 21
4701.358291635748
 31
0.0
  0
DIMENSION
  5
16CF5
330
747D
100
AcDbEntity
  8
寸法
 48
50.0
100
AcDbDimension
  2
*D16
 10
11243.40829608719
 20
5419.38862809377
 30
0.0
 11
10298.4082960872
 21
5419.38862809377
 31
0.0
 70
   160
 71
     5
 42
1890.0
  3
INABA_S40G
100
AcDbAlignedDimension
 13
9353.408296087197
 23
4803.769359135857
 33
0.0
 14
11243.40829608719
 24
4803.769359135854
 34
0.0
100
AcDbRotatedDimension
  0
DIMENSION
  5
16CF6
330
747D
100
AcDbEntity
  8
寸法
 48
50.0
100
AcDbDimension
  2
*D17
 10
9353.408296087197
 20
5202.862528475325
 30
0.0
 11
9039.92301471295
 21
5202.862528475325
 31
0.0
 70
   160
 71
     5
 42
50.0
  3
INABA_S40G
100
AcDbAlignedDimension
 13
9403.408296087198
 23
4803.769359135857
 33
0.0
 14
9353.408296087197
 24
4803.769359135857
 34
0.0
100
AcDbRotatedDimension
1001
ACAD
1000
DSTYLE
1002
{
1002
}
  0
DIMENSION
  5
16CF7
330
747D
100
AcDbEntity
  8
寸法
 48
50.0
100
AcDbDimension
  2
*D18
 10
9403.408296087198
 20
5202.862528475325
 30
0.0
 11
10298.4082960872
 21
5202.862528475325
 31
0.0
 70
   160
  1
柱外寸法<>
 71
     5
 42
1790.0
  3
INABA_S40G
100
AcDbAlignedDimension
 13
11193.40829608719
 23
4803.769359135857
 33
0.0
 14
9403.408296087198
 24
4803.769359135857
 34
0.0
100
AcDbRotatedDimension
  0
TEXT
  5
16CF8
330
747D
100
AcDbEntity
  8
文字
 62
     7
 48
50.0
100
AcDbText
 10
14491.96323844892
 20
483.8967129911416
 30
0.0
 40
160.0
  1
ＮＸＮ－４０ＣＨＡ
  7
STYLE2
100
AcDbText
  0
TEXT
  5
16CF9
330
747D
100
AcDbEntity
  8
文字
 62
     7
 48
50.0
100
AcDbText
 10
13583.11819016569
 20
8550.013745883731
 30
0.0
 40
100.0
  1
棚板
  7
STYLE1
100
AcDbText
  0
TEXT
  5
16CFA
330
747D
100
AcDbEntity
  8
文字
 62
     7
 48
50.0
100
AcDbText
 10
15022.63965474516
 20
8550.013745883727
 30
0.0
 40
100.0
  1
F12            0.6
  7
STYLE1
100
AcDbText
  0
TEXT
  5
16CFC
330
747D
100
AcDbEntity
  8
文字
 62
     7
 48
50.0
100
AcDbText
 10
13583.11819016569
 20
9740.013745883729
 30
0.0
 40
100.0
  1
母屋中
  7
STYLE1
100
AcDbText
  0
TEXT
  5
16CFD
330
747D
100
AcDbEntity
  8
文字
 62
     7
 48
50.0
100
AcDbText
 10
13248.77747366447
 20
8720.013745883729
 30
0.0
 40
100.0
  1
15
  7
STYLE1
100
AcDbText
  0
LINE
  5
16CFE
330
747D
100
AcDbEntity
  8
仕様書枠
 48
50.0
100
AcDbLine
 10
16307.19999999999
 20
8009.600000000004
 30
0.0
 11
13127.19999999999
 21
8009.600000000006
 31
0.0
  0
TEXT
  5
16CFF
330
747D
100
AcDbEntity
  8
文字
 62
     7
 48
50.0
100
AcDbText
 10
13583.11819016569
 20
8720.013745883731
 30
0.0
 40
100.0
  1
扉
  7
STYLE1
100
AcDbText
  0
TEXT
  5
16D00
330
747D
100
AcDbEntity
  8
文字
 62
     7
 48
50.0
100
AcDbText
 10
15022.63965474516
 20
8720.013745883727
 30
0.0
 40
100.0
  1
F12            0.8
  7
STYLE1
100
AcDbText
  0
TEXT
  5
16D01
330
747D
100
AcDbEntity
  8
文字
 62
     7
 48
50.0
100
AcDbText
 10
13583.11819016568
 20
8890.013745883731
 30
0.0
 40
100.0
  1
正面パネル
  7
STYLE1
100
AcDbText
  0
TEXT
  5
16D02
330
747D
100
AcDbEntity
  8
文字
 62
     7
 48
50.0
100
AcDbText
 10
15022.63965474515
 20
8890.013745883727
 30
0.0
 40
100.0
  1
F12            0.7
  7
STYLE1
100
AcDbText
  0
TEXT
  5
16D03
330
747D
100
AcDbEntity
  8
文字
 62
     7
 48
50.0
100
AcDbText
 10
15022.63965474517
 20
10590.01374588372
 30
0.0
 40
100.0
  1
F12            1.0
  7
STYLE1
100
AcDbText
  0
TEXT
  5
16D04
330
747D
100
AcDbEntity
  8
文字
 62
     7
 48
50.0
100
AcDbText
 10
15022.63965474516
 20
10930.01374588372
 30
0.0
 40
100.0
  1
F12            1.2
  7
STYLE1
100
AcDbText
  0
TEXT
  5
16D05
330
747D
100
AcDbEntity
  8
文字
 62
     7
 48
50.0
100
AcDbText
 10
13248.77747366448
 20
8890.013745883727
 30
0.0
 40
100.0
  1
14
  7
STYLE1
100
AcDbText
  0
TEXT
  5
16D06
330
747D
100
AcDbEntity
  8
文字
 62
     7
 48
50.0
100
AcDbText
 10
13583.11819016569
 20
10930.01374588372
 30
0.0
 40
100.0
  1
根太
  7
STYLE1
100
AcDbText
  0
TEXT
  5
16D07
330
747D
100
AcDbEntity
  8
文字
 62
     7
 48
50.0
100
AcDbText
 10
13583.1181901657
 20
10590.01374588372
 30
0.0
 40
100.0
  1
床パネル
 41
0.9
  7
STYLE1
100
AcDbText
  0
LINE
  5
16D08
330
747D
100
AcDbEntity
  8
仕様書枠
 48
50.0
100
AcDbLine
 10
16307.19999999999
 20
9029.6
 30
0.0
 11
13127.2
 21
9029.600000000002
 31
0.0
  0
LINE
  5
16D09
330
747D
100
AcDbEntity
  8
仕様書枠
 48
50.0
100
AcDbLine
 10
13127.2
 20
11409.6
 30
0.0
 11
13127.19999999999
 21
8009.600000000006
 31
0.0
  0
TEXT
  5
16D0A
330
747D
100
AcDbEntity
  8
文字
 62
     7
 48
50.0
100
AcDbText
 10
13229.83081656554
 20
8040.013745883731
 30
0.0
 40
100.0
  1
Y10→溶融亜鉛-5％アルミニウム合金めっき鋼板(JIS G 3317)
 41
0.9
  7
STYLE1
100
AcDbText
  0
TEXT
  5
16D0B
330
747D
100
AcDbEntity
  8
文字
 62
     7
 48
50.0
100
AcDbText
 10
13229.83081656554
 20
8210.013745883733
 30
0.0
 40
100.0
  1
F12→溶融亜鉛めっき鋼板(JIS G 3302)
  7
STYLE1
100
AcDbText
  0
LINE
  5
16D0C
330
747D
100
AcDbEntity
  8
仕様書枠
 48
50.0
100
AcDbLine
 10
16307.19999999999
 20
8179.600000000004
 30
0.0
 11
13127.19999999999
 21
8179.600000000005
 31
0.0
  0
LINE
  5
16D0D
330
747D
100
AcDbEntity
  8
仕様書枠
 48
50.0
100
AcDbLine
 10
16307.19999999999
 20
8349.600000000004
 30
0.0
 11
13127.19999999999
 21
8349.600000000007
 31
0.0
  0
TEXT
  5
16D0E
330
747D
100
AcDbEntity
  8
文字
 62
     7
 48
50.0
100
AcDbText
 10
15022.63965474515
 20
9570.013745883725
 30
0.0
 40
100.0
  1
F12            0.7
  7
STYLE1
100
AcDbText
  0
TEXT
  5
16D0F
330
747D
100
AcDbEntity
  8
文字
 62
     7
 48
50.0
100
AcDbText
 10
15022.63965474517
 20
9910.013745883725
 30
0.0
 40
100.0
  1
Y10            0.5
  7
STYLE1
100
AcDbText
  0
TEXT
  5
16D10
330
747D
100
AcDbEntity
  8
文字
 62
     7
 48
50.0
100
AcDbText
 10
15022.63965474516
 20
10080.01374588372
 30
0.0
 40
100.0
  1
Y10            0.7
  7
STYLE1
100
AcDbText
  0
TEXT
  5
16D11
330
747D
100
AcDbEntity
  8
文字
 62
     7
 48
50.0
100
AcDbText
 10
15022.63965474516
 20
10250.01374588372
 30
0.0
 40
100.0
  1
Y10            0.7
  7
STYLE1
100
AcDbText
  0
TEXT
  5
16D12
330
747D
100
AcDbEntity
  8
文字
 62
     7
 48
50.0
100
AcDbText
 10
15022.63965474516
 20
10420.01374588372
 30
0.0
 40
100.0
  1
Y10            1.0
  7
STYLE1
100
AcDbText
  0
TEXT
  5
16D13
330
747D
100
AcDbEntity
  8
文字
 62
     7
 48
50.0
100
AcDbText
 10
15022.63965474518
 20
10760.01374588372
 30
0.0
 40
100.0
  1
F12            1.0
  7
STYLE1
100
AcDbText
  0
TEXT
  5
16D14
330
747D
100
AcDbEntity
  8
文字
 62
     7
 48
50.0
100
AcDbText
 10
15022.63965474517
 20
11100.01374588372
 30
0.0
 40
100.0
  1
F12            1.2
  7
STYLE1
100
AcDbText
  0
TEXT
  5
16D15
330
747D
100
AcDbEntity
  8
文字
 62
     7
 48
50.0
100
AcDbText
 10
13248.77747366448
 20
9230.013745883727
 30
0.0
 40
100.0
  1
12
  7
STYLE1
100
AcDbText
  0
TEXT
  5
16D16
330
747D
100
AcDbEntity
  8
文字
 62
     7
 48
50.0
100
AcDbText
 10
13248.77747366448
 20
9060.013745883727
 30
0.0
 40
100.0
  1
13
  7
STYLE1
100
AcDbText
  0
LINE
  5
16D17
330
747D
100
AcDbEntity
  8
仕様書枠
 48
50.0
100
AcDbLine
 10
16307.19999999999
 20
8859.6
 30
0.0
 11
13127.2
 21
8859.600000000002
 31
0.0
  0
LINE
  5
16D18
330
747D
100
AcDbEntity
  8
仕様書枠
 48
50.0
100
AcDbLine
 10
16307.19999999999
 20
9199.599999999998
 30
0.0
 11
13127.2
 21
9199.600000000001
 31
0.0
  0
TEXT
  5
16D19
330
747D
100
AcDbEntity
  8
文字
 62
     7
 48
50.0
100
AcDbText
 10
13248.77747366447
 20
9400.013745883727
 30
0.0
 40
100.0
  1
11
  7
STYLE1
100
AcDbText
  0
LINE
  5
16D1A
330
747D
100
AcDbEntity
  8
仕様書枠
 48
50.0
100
AcDbLine
 10
16307.2
 20
9879.599999999999
 30
0.0
 11
13127.2
 21
9879.600000000001
 31
0.0
  0
LINE
  5
16D1B
330
747D
100
AcDbEntity
  8
仕様書枠
 48
50.0
100
AcDbLine
 10
16307.2
 20
10219.6
 30
0.0
 11
13127.2
 21
10219.6
 31
0.0
  0
LINE
  5
16D1C
330
747D
100
AcDbEntity
  8
仕様書枠
 48
50.0
100
AcDbLine
 10
16307.19999999999
 20
9539.599999999998
 30
0.0
 11
13127.2
 21
9539.6
 31
0.0
  0
LINE
  5
16D1D
330
747D
100
AcDbEntity
  8
仕様書枠
 48
50.0
100
AcDbLine
 10
16307.19999999999
 20
9369.599999999998
 30
0.0
 11
13127.2
 21
9369.600000000001
 31
0.0
  0
LINE
  5
16D1E
330
747D
100
AcDbEntity
  8
仕様書枠
 48
50.0
100
AcDbLine
 10
16307.19999999999
 20
9709.6
 30
0.0
 11
13127.2
 21
9709.600000000001
 31
0.0
  0
TEXT
  5
16D1F
330
747D
100
AcDbEntity
  8
文字
 62
     7
 48
50.0
100
AcDbText
 10
13271.19032244792
 20
10250.01374588373
 30
0.0
 40
100.0
  1
6
  7
STYLE1
100
AcDbText
  0
TEXT
  5
16D20
330
747D
100
AcDbEntity
  8
文字
 62
     7
 48
50.0
100
AcDbText
 10
13271.19032244792
 20
10080.01374588373
 30
0.0
 40
100.0
  1
7
  7
STYLE1
100
AcDbText
  0
TEXT
  5
16D21
330
747D
100
AcDbEntity
  8
文字
 62
     7
 48
50.0
100
AcDbText
 10
13271.19032244792
 20
9740.013745883729
 30
0.0
 40
100.0
  1
9
  7
STYLE1
100
AcDbText
  0
TEXT
  5
16D22
330
747D
100
AcDbEntity
  8
文字
 62
     7
 48
50.0
100
AcDbText
 10
13271.19032244792
 20
9910.01374588373
 30
0.0
 40
100.0
  1
8
  7
STYLE1
100
AcDbText
  0
TEXT
  5
16D23
330
747D
100
AcDbEntity
  8
文字
 62
     7
 48
50.0
100
AcDbText
 10
13583.11819016569
 20
10080.01374588372
 30
0.0
 40
100.0
  1
鼻隠シ前後
  7
STYLE1
100
AcDbText
  0
TEXT
  5
16D24
330
747D
100
AcDbEntity
  8
文字
 62
     7
 48
50.0
100
AcDbText
 10
13583.11819016569
 20
9910.013745883727
 30
0.0
 40
100.0
  1
屋根パネル
  7
STYLE1
100
AcDbText
  0
TEXT
  5
16D25
330
747D
100
AcDbEntity
  8
文字
 62
     7
 48
50.0
100
AcDbText
 10
13583.11819016568
 20
9570.013745883729
 30
0.0
 40
100.0
  1
壁パネル
  7
STYLE1
100
AcDbText
  0
TEXT
  5
16D26
330
747D
100
AcDbEntity
  8
文字
 62
     7
 48
50.0
100
AcDbText
 10
13248.77747366447
 20
9570.013745883727
 30
0.0
 40
100.0
  1
10
  7
STYLE1
100
AcDbText
  0
TEXT
  5
16D27
330
747D
100
AcDbEntity
  8
文字
 62
     7
 48
50.0
100
AcDbText
 10
13583.11819016569
 20
10250.01374588373
 30
0.0
 40
100.0
  1
妻板左右
  7
STYLE1
100
AcDbText
  0
TEXT
  5
16D28
330
747D
100
AcDbEntity
  8
文字
 62
     7
 48
50.0
100
AcDbText
 10
13271.19032244792
 20
10420.01374588372
 30
0.0
 40
100.0
  1
5
  7
STYLE1
100
AcDbText
  0
TEXT
  5
16D29
330
747D
100
AcDbEntity
  8
文字
 62
     7
 48
50.0
100
AcDbText
 10
13583.11819016569
 20
10420.01374588373
 30
0.0
 40
100.0
  1
桁前後
  7
STYLE1
100
AcDbText
  0
TEXT
  5
16D2A
330
747D
100
AcDbEntity
  8
文字
 62
     7
 48
50.0
100
AcDbText
 10
13583.1181901657
 20
10760.01374588372
 30
0.0
 40
100.0
  1
柱
  7
STYLE1
100
AcDbText
  0
TEXT
  5
16D2B
330
747D
100
AcDbEntity
  8
文字
 62
     7
 48
50.0
100
AcDbText
 10
13583.11819016569
 20
11100.01374588372
 30
0.0
 40
100.0
  1
土台枠
  7
STYLE1
100
AcDbText
  0
TEXT
  5
16D2C
330
747D
100
AcDbEntity
  8
文字
 62
     7
 48
50.0
100
AcDbText
 10
14859.79774614482
 20
11270.01374588372
 30
0.0
 40
100.0
  1
材料（材質）　　単位mm
  7
STYLE1
100
AcDbText
  0
TEXT
  5
16D2D
330
747D
100
AcDbEntity
  8
文字
 62
     7
 48
50.0
100
AcDbText
 10
13732.03840939434
 20
11270.01374588372
 30
0.0
 40
100.0
  1
部　　品　　名
  7
STYLE1
100
AcDbText
  0
TEXT
  5
16D2E
330
747D
100
AcDbEntity
  8
文字
 62
     7
 48
50.0
100
AcDbText
 10
13271.19032244792
 20
10760.01374588373
 30
0.0
 40
100.0
  1
3
  7
STYLE1
100
AcDbText
  0
TEXT
  5
16D2F
330
747D
100
AcDbEntity
  8
文字
 62
     7
 48
50.0
100
AcDbText
 10
13271.19032244792
 20
10590.01374588373
 30
0.0
 40
100.0
  1
4
  7
STYLE1
100
AcDbText
  0
TEXT
  5
16D30
330
747D
100
AcDbEntity
  8
文字
 62
     7
 48
50.0
100
AcDbText
 10
13271.19032244792
 20
10930.01374588373
 30
0.0
 40
100.0
  1
2
  7
STYLE1
100
AcDbText
  0
TEXT
  5
16D31
330
747D
100
AcDbEntity
  8
文字
 62
     7
 48
50.0
100
AcDbText
 10
13271.19032244792
 20
11100.01374588373
 30
0.0
 40
100.0
  1
1
  7
STYLE1
100
AcDbText
  0
TEXT
  5
16D32
330
747D
100
AcDbEntity
  8
文字
 62
     7
 48
50.0
100
AcDbText
 10
13197.42518560407
 20
11270.01374588372
 30
0.0
 40
100.0
  1
品番
  7
STYLE1
100
AcDbText
  0
LINE
  5
16D33
330
747D
100
AcDbEntity
  8
仕様書枠
 48
50.0
100
AcDbLine
 10
16307.19999999999
 20
10729.59999999999
 30
0.0
 11
13127.2
 21
10729.6
 31
0.0
  0
LINE
  5
16D34
330
747D
100
AcDbEntity
  8
仕様書枠
 48
50.0
100
AcDbLine
 10
16307.19999999999
 20
10389.6
 30
0.0
 11
13127.2
 21
10389.6
 31
0.0
  0
LINE
  5
16D35
330
747D
100
AcDbEntity
  8
仕様書枠
 48
50.0
100
AcDbLine
 10
16307.19999999999
 20
10559.6
 30
0.0
 11
13127.2
 21
10559.6
 31
0.0
  0
LINE
  5
16D36
330
747D
100
AcDbEntity
  8
仕様書枠
 48
50.0
100
AcDbLine
 10
16307.2
 20
11069.59999999999
 30
0.0
 11
13127.2
 21
11069.6
 31
0.0
  0
LINE
  5
16D37
330
747D
100
AcDbEntity
  8
仕様書枠
 48
50.0
100
AcDbLine
 10
16307.2
 20
10899.6
 30
0.0
 11
13127.2
 21
10899.6
 31
0.0
  0
LINE
  5
16D38
330
747D
100
AcDbEntity
  8
仕様書枠
 48
50.0
100
AcDbLine
 10
16307.2
 20
11239.59999999999
 30
0.0
 11
13127.2
 21
11239.6
 31
0.0
  0
LINE
  5
16D39
330
747D
100
AcDbEntity
  8
仕様書枠
 48
50.0
100
AcDbLine
 10
13490.2
 20
11409.59999999999
 30
0.0
 11
13490.20000000001
 21
8349.600000000007
 31
0.0
  0
LINE
  5
16D3A
330
747D
100
AcDbEntity
  8
仕様書枠
 48
50.0
100
AcDbLine
 10
14785.2
 20
11409.59999999999
 30
0.0
 11
14785.2
 21
8349.600000000004
 31
0.0
  0
LINE
  5
16D3B
330
747D
100
AcDbEntity
  8
仕様書枠
 48
50.0
100
AcDbLine
 10
16307.19999999999
 20
8009.600000000004
 30
0.0
 11
16307.2
 21
11409.6
 31
0.0
  0
LINE
  5
16D3C
330
747D
100
AcDbEntity
  8
仕様書枠
 48
50.0
100
AcDbLine
 10
16307.2
 20
11409.59999999999
 30
0.0
 11
13127.2
 21
11409.6
 31
0.0
  0
LINE
  5
16D3D
330
747D
100
AcDbEntity
  8
仕様書枠
 48
50.0
100
AcDbLine
 10
16307.2
 20
10049.6
 30
0.0
 11
13127.2
 21
10049.6
 31
0.0
  0
TEXT
  5
16D3E
330
747D
100
AcDbEntity
  8
文字
 62
     7
 48
50.0
100
AcDbText
 10
15022.63965474515
 20
8380.013745883724
 30
0.0
 40
100.0
  1
F12            2.3
  7
STYLE1
100
AcDbText
  0
TEXT
  5
16D3F
330
747D
100
AcDbEntity
  8
文字
 62
     7
 48
50.0
100
AcDbText
 10
13583.11819016569
 20
8380.013745883728
 30
0.0
 40
100.0
  1
アンカープレート
  7
STYLE1
100
AcDbText
  0
LINE
  5
16D40
330
747D
100
AcDbEntity
  8
仕様書枠
 48
50.0
100
AcDbLine
 10
16307.19999999999
 20
8519.600000000004
 30
0.0
 11
13127.2
 21
8519.600000000005
 31
0.0
  0
LINE
  5
16D41
330
747D
100
AcDbEntity
  8
仕様書枠
 48
50.0
100
AcDbLine
 10
16307.19999999999
 20
8689.600000000003
 30
0.0
 11
13127.2
 21
8689.600000000005
 31
0.0
  0
TEXT
  5
16D42
330
747D
100
AcDbEntity
  8
文字
 62
     7
 48
50.0
100
AcDbText
 10
13583.11819016569
 20
9400.013745883729
 30
0.0
 40
100.0
  1
壁面扉鴨居
  7
STYLE1
100
AcDbText
  0
TEXT
  5
16D43
330
747D
100
AcDbEntity
  8
文字
 62
     7
 48
50.0
100
AcDbText
 10
13583.11819016569
 20
9230.013745883733
 30
0.0
 40
100.0
  1
壁面扉敷居
  7
STYLE1
100
AcDbText
  0
TEXT
  5
16D44
330
747D
100
AcDbEntity
  8
文字
 62
     7
 48
50.0
100
AcDbText
 10
15022.63965474515
 20
9400.013745883727
 30
0.0
 40
100.0
  1
F12            0.7
  7
STYLE1
100
AcDbText
  0
TEXT
  5
16D45
330
747D
100
AcDbEntity
  8
文字
 62
     7
 48
50.0
100
AcDbText
 10
15022.63965474517
 20
9230.013745883725
 30
0.0
 40
100.0
  1
F12            1.0
  7
STYLE1
100
AcDbText
  0
TEXT
  5
16D46
330
747D
100
AcDbEntity
  8
文字
 62
     7
 48
50.0
100
AcDbText
 10
13583.11819016569
 20
9060.013745883733
 30
0.0
 40
100.0
  1
壁面扉枠左右
  7
STYLE1
100
AcDbText
  0
TEXT
  5
16D47
330
747D
100
AcDbEntity
  8
文字
 62
     7
 48
50.0
100
AcDbText
 10
15022.63965474517
 20
9060.013745883725
 30
0.0
 40
100.0
  1
F12            1.0
  7
STYLE1
100
AcDbText
  0
TEXT
  5
16D48
330
747D
100
AcDbEntity
  8
文字
 62
     7
 48
50.0
100
AcDbText
 10
13248.77747366447
 20
8550.013745883729
 30
0.0
 40
100.0
  1
16
  7
STYLE1
100
AcDbText
  0
TEXT
  5
16D49
330
747D
100
AcDbEntity
  8
文字
 62
     7
 48
50.0
100
AcDbText
 10
13248.77747366447
 20
8380.013745883728
 30
0.0
 40
100.0
  1
17
  7
STYLE1
100
AcDbText
  0
LINE
  5
16D4A
330
747D
100
AcDbEntity
  8
部品1
100
AcDbLine
 10
10680.14362920141
 20
1639.731096158441
 30
0.0
 11
9916.672962972976
 21
1639.731096158441
 31
0.0
  0
LINE
  5
16D4B
330
747D
100
AcDbEntity
  8
部品1
100
AcDbLine
 10
10680.14362920141
 20
1399.838774612908
 30
0.0
 11
10680.14362920141
 21
1639.731096158441
 31
0.0
  0
LINE
  5
16D4C
330
747D
100
AcDbEntity
  8
部品1
100
AcDbLine
 10
9916.672962972976
 20
1399.838774612908
 30
0.0
 11
10680.14362920141
 21
1399.838774612908
 31
0.0
  0
LINE
  5
16D4D
330
747D
100
AcDbEntity
  8
部品1
100
AcDbLine
 10
9916.672962972976
 20
1639.731096158441
 30
0.0
 11
9916.672962972976
 21
1399.838774612908
 31
0.0
  0
LINE
  5
16D4E
330
747D
100
AcDbEntity
  8
部品1
100
AcDbLine
 10
11165.4082960872
 20
2478.769359135871
 30
0.0
 11
11193.40829608719
 21
2478.769359135871
 31
0.0
  0
LINE
  5
16D4F
330
747D
100
AcDbEntity
  8
部品1
 48
50.0
100
AcDbLine
 10
9431.408296087196
 20
2428.769359135851
 30
0.0
 11
11165.4082960872
 21
2428.769359135851
 31
0.0
  0
LINE
  5
16D50
330
747D
100
AcDbEntity
  8
部品1
100
AcDbLine
 10
9458.408296087196
 20
4568.769359135847
 30
0.0
 11
9458.408296087196
 21
4563.769359135851
 31
0.0
  0
LINE
  5
16D51
330
747D
100
AcDbEntity
  8
部品1
100
AcDbLine
 10
11138.40829608719
 20
4568.769359135851
 30
0.0
 11
11138.40829608719
 21
4563.769359135851
 31
0.0
  0
LINE
  5
16D52
330
747D
100
AcDbEntity
  8
部品1
100
AcDbLine
 10
9403.408296087198
 20
2478.769359135855
 30
0.0
 11
9431.408296087196
 21
2478.769359135855
 31
0.0
  0
TEXT
  5
16D53
330
747D
100
AcDbEntity
  8
部品1
100
AcDbText
 10
10007.19836671093
 20
1446.837566939917
 30
0.0
 40
135.0
  1
正面図
  7
STYLE2
100
AcDbText
  0
DIMENSION
  5
16D54
330
747D
100
AcDbEntity
  8
寸法
 48
50.0
100
AcDbDimension
  2
*D19
 10
9303.408296087196
 20
1842.722029835473
 30
0.0
 11
9403.408296087198
 21
1842.722029835473
 31
0.0
 70
   160
 71
     5
 42
200.0000000000018
  3
INABA_S40G
100
AcDbAlignedDimension
 13
9503.408296087199
 23
2128.76935913585
 33
0.0
 14
9303.408296087196
 24
2128.76935913585
 34
0.0
100
AcDbRotatedDimension
  0
LINE
  5
16D55
330
747D
100
AcDbEntity
  8
破線
 48
5.0
100
AcDbLine
 10
9398.408296087197
 20
2328.769359135851
 30
0.0
 11
9398.408296087197
 21
2173.769359135851
 31
0.0
  0
LINE
  5
16D56
330
747D
100
AcDbEntity
  8
破線
 48
5.0
100
AcDbLine
 10
11198.40829608719
 20
2328.769359135851
 30
0.0
 11
11198.40829608719
 21
2173.769359135851
 31
0.0
  0
LINE
  5
16D57
330
747D
100
AcDbEntity
  8
破線
 48
5.0
100
AcDbLine
 10
9503.408296087197
 20
2328.769359135851
 30
0.0
 11
9503.408296087197
 21
2128.769359135851
 31
0.0
  0
LINE
  5
16D58
330
747D
100
AcDbEntity
  8
破線
 48
5.0
100
AcDbLine
 10
9378.408296087197
 20
2173.769359135851
 30
0.0
 11
9398.408296087199
 21
2173.769359135851
 31
0.0
  0
LINE
  5
16D59
330
747D
100
AcDbEntity
  8
破線
 48
5.0
100
AcDbLine
 10
9303.408296087196
 20
2328.769359135851
 30
0.0
 11
9303.408296087196
 21
2128.769359135851
 31
0.0
  0
LINE
  5
16D5A
330
747D
100
AcDbEntity
  8
破線
 48
5.0
100
AcDbLine
 10
9303.408296087196
 20
2128.769359135851
 30
0.0
 11
9503.408296087199
 21
2128.769359135851
 31
0.0
  0
LINE
  5
16D5B
330
747D
100
AcDbEntity
  8
部品1
100
AcDbLine
 10
9398.408296087197
 20
2473.769359135853
 30
0.0
 11
9398.408296087197
 21
2328.769359135851
 31
0.0
  0
LINE
  5
16D5C
330
747D
100
AcDbEntity
  8
破線
 48
5.0
100
AcDbLine
 10
11218.40829608719
 20
2173.769359135851
 30
0.0
 11
11198.40829608719
 21
2173.769359135851
 31
0.0
  0
LINE
  5
16D5D
330
747D
100
AcDbEntity
  8
破線
 48
5.0
100
AcDbLine
 10
11293.40829608719
 20
2328.769359135851
 30
0.0
 11
11293.40829608719
 21
2128.769359135851
 31
0.0
  0
LINE
  5
16D5E
330
747D
100
AcDbEntity
  8
破線
 48
5.0
100
AcDbLine
 10
11093.40829608719
 20
2328.769359135851
 30
0.0
 11
11093.40829608719
 21
2128.769359135851
 31
0.0
  0
LINE
  5
16D5F
330
747D
100
AcDbEntity
  8
破線
 48
5.0
100
AcDbLine
 10
11293.40829608719
 20
2128.769359135851
 30
0.0
 11
11093.40829608719
 21
2128.769359135851
 31
0.0
  0
LINE
  5
16D60
330
747D
100
AcDbEntity
  8
部品1
100
AcDbLine
 10
11198.40829608719
 20
2473.769359135851
 30
0.0
 11
11198.40829608719
 21
2328.769359135851
 31
0.0
  0
LINE
  5
16D61
330
747D
100
AcDbEntity
  8
部品1
 48
50.0
100
AcDbLine
 10
10398.40829608719
 20
2428.769359135851
 30
0.0
 11
10398.40829608719
 21
2328.769359135851
 31
0.0
  0
LINE
  5
16D62
330
747D
100
AcDbEntity
  8
部品1
 48
50.0
100
AcDbLine
 10
10198.4082960872
 20
2428.769359135851
 30
0.0
 11
10198.4082960872
 21
2328.769359135851
 31
0.0
  0
LINE
  5
16D63
330
747D
100
AcDbEntity
  8
部品1
100
AcDbLine
 10
9803.408296087198
 20
2428.769359135851
 30
0.0
 11
9803.408296087198
 21
2328.769359135851
 31
0.0
  0
LINE
  5
16D64
330
747D
100
AcDbEntity
  8
部品1
100
AcDbLine
 10
10793.40829608719
 20
2428.769359135851
 30
0.0
 11
10793.40829608719
 21
2328.769359135851
 31
0.0
  0
LINE
  5
16D65
330
747D
100
AcDbEntity
  8
部品1
100
AcDbLine
 10
11193.4082960872
 20
4622.269359135851
 30
0.0
 11
11193.40829608719
 21
2328.769359135851
 31
0.0
  0
LINE
  5
16D66
330
747D
100
AcDbEntity
  8
部品1
100
AcDbLine
 10
9403.408296087198
 20
4622.269359135851
 30
0.0
 11
9403.408296087198
 21
2328.769359135851
 31
0.0
  0
LINE
  5
16D67
330
747D
100
AcDbEntity
  8
部品1
100
AcDbLine
 10
9403.408296087198
 20
4568.769359135851
 30
0.0
 11
11193.40829608719
 21
4568.769359135851
 31
0.0
  0
LINE
  5
16D68
330
747D
100
AcDbEntity
  8
部品1
100
AcDbLine
 10
9403.408296087198
 20
2428.769359135851
 30
0.0
 11
11193.40829608719
 21
2428.769359135851
 31
0.0
  0
LINE
  5
16D69
330
747D
100
AcDbEntity
  8
Ｇ．Ｌ
100
AcDbLine
 10
3107.915540476166
 20
2328.769359135851
 30
0.0
 11
11827.42986985595
 21
2328.769359135851
 31
0.0
  0
TEXT
  5
16D6A
330
747D
100
AcDbEntity
  8
文字
 62
     7
 48
50.0
100
AcDbText
 10
13209.4053442172
 20
228.543524256902
 30
0.0
 40
100.0
  1
○有効開口寸法 ： 950×2025(mm)
  7
STYLE2
100
AcDbText
  0
LINE
  5
1706B
330
747D
100
AcDbEntity
  8
補助
  6
PHANTOM
 62
   230
 48
50.0
100
AcDbLine
 10
140.0
 20
0.0
 30
0.0
 11
139.9999999999995
 21
11409.6
 31
0.0
  0
TEXT
  5
1730E
330
747D
100
AcDbEntity
  8
文字
 62
     7
 48
50.0
100
AcDbText
 10
14798.72402257234
 20
9740.013745883725
 30
0.0
 40
100.0
  1
F12(一般型1.0/多雪地型2.3)
  7
STYLE1
100
AcDbText
  0
MTEXT
  5
17607
330
747D
100
AcDbEntity
  8
寸法
 62
     7
 48
50.0
100
AcDbMText
 10
10788.12350450329
 20
8310.87360495381
 30
0.0
 40
96.0
 41
0.0
 71
     5
 72
     1
  1
棚 3段
  7
STYLE1
 11
0.0000000000000003
 21
1.0
 31
0.0
 73
     1
 44
1.0
1001
ACAD
1000
MTEXTBEGIN
1070
    73
1070
     1
1070
    44
1040
1.0
1070
    74
1070
     0
1000
MTEXTEND
  0
LINE
  5
176FE
330
747D
100
AcDbEntity
  8
部品1
 48
50.0
100
AcDbLine
 10
9505.408296087198
 20
3560.269359135844
 30
0.0
 11
9558.408296087199
 21
3560.269359135844
 31
0.0
  0
LINE
  5
17718
330
747D
100
AcDbEntity
  8
部品1
100
AcDbLine
 10
7101.311266749938
 20
2428.769359135851
 30
0.0
 11
7101.311266749938
 21
2328.769359135851
 31
0.0
  0
LINE
  5
17719
330
747D
100
AcDbEntity
  8
部品1
100
AcDbLine
 10
5291.311266749939
 20
2428.769359135851
 30
0.0
 11
5291.311266749939
 21
2328.769359135851
 31
0.0
  0
LINE
  5
17E0D
330
747D
100
AcDbEntity
  8
破線
 48
10.0
100
AcDbLine
 10
9483.408296087143
 20
9285.856655176598
 30
0.0
 11
9483.408296087151
 21
8644.856655176594
 31
0.0
  0
LINE
  5
17E0E
330
747D
100
AcDbEntity
  8
部品1
 48
50.0
100
AcDbLine
 10
10298.40829608718
 20
10013.85665517656
 30
0.0
 11
10298.40829608727
 21
7916.856655176568
 31
0.0
  0
LINE
  5
17E11
330
747D
100
AcDbEntity
  8
部品1
 48
50.0
100
AcDbLine
 10
9878.408296087185
 20
10013.85665517656
 30
0.0
 11
9878.408296087272
 21
7916.856655176568
 31
0.0
  0
DIMENSION
  5
17E12
330
747D
100
AcDbEntity
  8
寸法
100
AcDbDimension
  2
*D20
 10
10808.62135025197
 20
7533.516699489995
 30
0.0
 11
11008.62495101874
 21
7533.516699489995
 31
0.0
 70
   160
 71
     5
 42
449.9999999999963
  3
INABA_S40G
100
AcDbAlignedDimension
 13
11163.40829608721
 23
7888.856655176645
 33
0.0
 14
10713.40829608721
 24
7888.856655176645
 34
0.0
100
AcDbRotatedDimension
1001
ACAD
1000
DSTYLE
1002
{
1002
}
  0
LINE
  5
17EB7
330
747D
100
AcDbEntity
  8
部品1
100
AcDbLine
 10
11165.40829608715
 20
8742.856655176645
 30
0.0
 11
11165.40829608714
 21
7888.356655176664
 31
0.0
  0
DIMENSION
  5
17EB8
330
747D
100
AcDbEntity
  8
寸法
100
AcDbDimension
  2
*D21
 10
10509.65751539608
 20
8823.451512320055
 30
0.0
 11
10509.65751539608
 21
9538.127447760613
 31
0.0
 70
   160
 71
     5
 42
1273.000000000071
  3
INABA_S40G
100
AcDbAlignedDimension
 13
10713.40829608723
 23
10041.85665517672
 33
0.0
 14
10713.40829608722
 24
8768.856655176653
 34
0.0
 50
270.0
100
AcDbRotatedDimension
1001
ACAD
1000
DSTYLE
1002
{
1002
}
  0
DIMENSION
  5
17EB9
330
747D
100
AcDbEntity
  8
寸法
100
AcDbDimension
  2
*D22
 10
10509.65751539608
 20
7943.451512320059
 30
0.0
 11
10509.65751539608
 21
8304.658184847278
 31
0.0
 70
   160
 71
     5
 42
853.0000000000118
  3
INABA_S40G
100
AcDbAlignedDimension
 13
10713.40829608729
 23
8741.856655176654
 33
0.0
 14
10713.40829608728
 24
7888.856655176642
 34
0.0
 50
270.0
100
AcDbRotatedDimension
1001
ACAD
1000
DSTYLE
1002
{
1002
}
  0
LINE
  5
17EBA
330
747D
100
AcDbEntity
  8
部品1
100
AcDbLine
 10
11163.40829608721
 20
7888.856655176645
 30
0.0
 11
10713.40829608721
 21
7888.856655176645
 31
0.0
  0
LINE
  5
17EBB
330
747D
100
AcDbEntity
  8
部品1
100
AcDbLine
 10
11183.40829608722
 20
8790.356655176646
 30
0.0
 11
11165.40829608722
 21
8790.356655176646
 31
0.0
  0
LINE
  5
17EBC
330
747D
100
AcDbEntity
  8
部品1
100
AcDbLine
 10
11183.40829608722
 20
8790.356655176646
 30
0.0
 11
11183.40829608722
 21
8784.356655176646
 31
0.0
  0
LINE
  5
17EBD
330
747D
100
AcDbEntity
  8
部品1
100
AcDbLine
 10
11183.40829608722
 20
8720.356655176646
 30
0.0
 11
11165.40829608722
 21
8720.356655176646
 31
0.0
  0
LINE
  5
17EBE
330
747D
100
AcDbEntity
  8
部品1
100
AcDbLine
 10
11183.40829608722
 20
8726.356655176646
 30
0.0
 11
11183.40829608722
 21
8720.356655176646
 31
0.0
  0
LINE
  5
17EBF
330
747D
100
AcDbEntity
  8
部品1
100
AcDbLine
 10
11157.40829608721
 20
8767.856655176645
 30
0.0
 11
11157.40829608722
 21
8742.856655176645
 31
0.0
  0
LINE
  5
17EC0
330
747D
100
AcDbEntity
  8
部品1
100
AcDbLine
 10
10713.40829608722
 20
8767.856655176645
 30
0.0
 11
10713.40829608722
 21
8742.856655176645
 31
0.0
  0
LINE
  5
17EC1
330
747D
100
AcDbEntity
  8
部品1
 48
50.0
100
AcDbLine
 10
11163.40829608722
 20
8768.856655176646
 30
0.0
 11
10713.40829608722
 21
8768.856655176646
 31
0.0
  0
LINE
  5
17EC2
330
747D
100
AcDbEntity
  8
部品1
 48
50.0
100
AcDbLine
 10
11163.40829608721
 20
8741.856655176645
 30
0.0
 11
10713.40829608722
 21
8741.856655176645
 31
0.0
  0
LINE
  5
17EC3
330
747D
100
AcDbEntity
  8
部品1
 48
50.0
100
AcDbLine
 10
11165.40829608722
 20
8767.856655176649
 30
0.0
 11
10713.40829608722
 21
8767.856655176645
 31
0.0
  0
LINE
  5
17EC4
330
747D
100
AcDbEntity
  8
部品1
 48
50.0
100
AcDbLine
 10
11165.40829608722
 20
8742.856655176645
 30
0.0
 11
10713.40829608722
 21
8742.856655176645
 31
0.0
  0
LINE
  5
17EC5
330
747D
100
AcDbEntity
  8
細線
 48
50.0
100
AcDbLine
 10
11163.40829608721
 20
7888.856655176645
 30
0.0
 11
10713.40829608722
 21
8741.856655176647
 31
0.0
  0
LINE
  5
17EC6
330
747D
100
AcDbEntity
  8
部品1
100
AcDbLine
 10
11163.40829608722
 20
8741.856655176645
 30
0.0
 11
11163.40829608721
 21
7888.856655176645
 31
0.0
  0
LINE
  5
17EC7
330
747D
100
AcDbEntity
  8
部品1
100
AcDbLine
 10
10713.40829608722
 20
8741.856655176647
 30
0.0
 11
10713.40829608721
 21
7888.856655176645
 31
0.0
  0
LINE
  5
17EC8
330
747D
100
AcDbEntity
  8
細線
 48
50.0
100
AcDbLine
 10
10713.40829608721
 20
7888.856655176645
 30
0.0
 11
11163.40829608721
 21
8741.856655176645
 31
0.0
  0
LINE
  5
17EC9
330
747D
100
AcDbEntity
  8
部品1
 48
50.0
100
AcDbLine
 10
11163.40829608722
 20
10041.85665517671
 30
0.0
 11
10713.40829608722
 21
10041.85665517671
 31
0.0
  0
LINE
  5
17ECA
330
747D
100
AcDbEntity
  8
細線
 48
50.0
100
AcDbLine
 10
10713.40829608722
 20
8768.856655176646
 30
0.0
 11
11163.40829608717
 21
10041.85665517671
 31
0.0
  0
LINE
  5
17ECB
330
747D
100
AcDbEntity
  8
細線
 48
50.0
100
AcDbLine
 10
11163.40829608722
 20
8768.856655176646
 30
0.0
 11
10713.40829608717
 21
10041.85665517671
 31
0.0
  0
LINE
  5
17ECC
330
747D
100
AcDbEntity
  8
部品1
100
AcDbLine
 10
11163.40829608716
 20
10041.85665517671
 30
0.0
 11
11163.40829608722
 21
8768.856655176646
 31
0.0
  0
LINE
  5
17ECD
330
747D
100
AcDbEntity
  8
部品1
100
AcDbLine
 10
10713.40829608716
 20
10041.85665517671
 30
0.0
 11
10713.40829608722
 21
8768.856655176646
 31
0.0
  0
LINE
  5
17ECE
330
747D
100
AcDbEntity
  8
破線
 48
10.0
100
AcDbLine
 10
9483.408296087134
 20
9990.356655176789
 30
0.0
 11
10713.40829608717
 21
9990.356655176778
 31
0.0
  0
LINE
  5
17ECF
330
747D
100
AcDbEntity
  8
部品1
 48
50.0
100
AcDbLine
 10
9459.908296087141
 20
10013.85665517677
 30
0.0
 11
9431.408296087171
 21
10042.35665517658
 31
0.0
  0
LINE
  5
17ED0
330
747D
100
AcDbEntity
  8
部品1
 48
50.0
100
AcDbLine
 10
10713.40829608717
 20
10013.8566551767
 30
0.0
 11
9459.908296087155
 21
10013.85665517677
 31
0.0
  0
LINE
  5
17ED1
330
747D
100
AcDbEntity
  8
部品1
100
AcDbLine
 10
11165.40829608717
 20
9595.356655176681
 30
0.0
 11
11193.40829608717
 21
9595.356655176681
 31
0.0
  0
LINE
  5
17ED2
330
747D
100
AcDbEntity
  8
部品1
100
AcDbLine
 10
9431.408296087147
 20
9595.356655176553
 30
0.0
 11
9403.408296087146
 21
9595.356655176553
 31
0.0
  0
LINE
  5
17ED7
330
747D
100
AcDbEntity
  8
部品1
100
AcDbLine
 10
11165.40829608717
 20
8755.356655176681
 30
0.0
 11
11193.40829608717
 21
8755.356655176681
 31
0.0
  0
LINE
  5
17ED8
330
747D
100
AcDbEntity
  8
部品1
100
AcDbLine
 10
9431.408296087148
 20
8755.356655176553
 30
0.0
 11
9403.408296087148
 21
8755.356655176553
 31
0.0
  0
LINE
  5
17ED9
330
747D
100
AcDbEntity
  8
部品1
 48
50.0
100
AcDbLine
 10
11138.40829608713
 20
7860.356655176666
 30
0.0
 11
11138.40829608713
 21
7888.356655176663
 31
0.0
  0
LINE
  5
17EDA
330
747D
100
AcDbEntity
  8
部品1
 48
50.0
100
AcDbLine
 10
9458.408296087133
 20
7860.356655176508
 30
0.0
 11
9458.408296087139
 21
7888.356655176507
 31
0.0
  0
LINE
  5
17EDB
330
747D
100
AcDbEntity
  8
部品1
 48
50.0
100
AcDbLine
 10
11138.40829608713
 20
7860.356655176666
 30
0.0
 11
11193.40829608714
 21
7860.356655176669
 31
0.0
  0
LINE
  5
17EDC
330
747D
100
AcDbEntity
  8
部品1
 48
50.0
100
AcDbLine
 10
9431.408296087141
 20
7888.356655176507
 30
0.0
 11
11165.40829608714
 21
7888.356655176664
 31
0.0
  0
LINE
  5
17EDD
330
747D
100
AcDbEntity
  8
部品1
 48
50.0
100
AcDbLine
 10
9403.408296087164
 20
7860.356655176506
 30
0.0
 11
9458.408296087133
 21
7860.356655176511
 31
0.0
  0
LINE
  5
17EDE
330
747D
100
AcDbEntity
  8
部品1
100
AcDbLine
 10
9431.408296087139
 20
7915.356655176537
 30
0.0
 11
9403.408296087139
 21
7915.356655176537
 31
0.0
  0
LINE
  5
17EDF
330
747D
100
AcDbEntity
  8
部品1
100
AcDbLine
 10
11165.40829608717
 20
7915.356655176409
 30
0.0
 11
11193.40829608717
 21
7915.356655176409
 31
0.0
  0
LINE
  5
17EE0
330
747D
100
AcDbEntity
  8
部品1
 48
50.0
100
AcDbLine
 10
9459.908296087156
 20
7916.856655176663
 30
0.0
 11
9431.408296087159
 21
7888.356655176664
 31
0.0
  0
LINE
  5
17EE1
330
747D
100
AcDbEntity
  8
破線
 48
10.0
100
AcDbLine
 10
9483.408296087137
 20
9990.356655176789
 30
0.0
 11
9483.408296087144
 21
9335.856655176595
 31
0.0
  0
LINE
  5
17EE2
330
747D
100
AcDbEntity
  8
部品1
100
AcDbLine
 10
9459.908296087141
 20
10013.85665517677
 30
0.0
 11
9459.90829608716
 21
7916.856655176667
 31
0.0
  0
LINE
  5
17EE3
330
747D
100
AcDbEntity
  8
破線
 48
10.0
100
AcDbLine
 10
10713.40829608721
 20
7940.35665517664
 30
0.0
 11
9483.408296087153
 21
7940.356655176568
 31
0.0
  0
LINE
  5
17EE4
330
747D
100
AcDbEntity
  8
部品1
100
AcDbLine
 10
10713.40829608721
 20
7916.856655176641
 30
0.0
 11
9459.908296087062
 21
7916.85665517657
 31
0.0
  0
DIMENSION
  5
17EE5
330
747D
100
AcDbEntity
  8
寸法
100
AcDbDimension
  2
*D23
 10
11138.40829608717
 20
10361.56181974066
 30
0.0
 11
10298.40829608717
 21
10361.56181974066
 31
0.0
 70
   160
  1
4X420=<>
 71
     5
 42
1680.0
  3
INABA_S40G
100
AcDbAlignedDimension
 13
9458.408296087171
 23
10070.35665517658
 33
0.0
 14
11138.40829608717
 24
10070.35665517667
 34
0.0
100
AcDbRotatedDimension
1001
ACAD
1000
DSTYLE
1002
{
1002
}
  0
LINE
  5
17EE6
330
747D
100
AcDbEntity
  8
部品1
100
AcDbLine
 10
9403.408296087171
 20
10070.35665517658
 30
0.0
 11
11193.40829608717
 21
10070.35665517667
 31
0.0
  0
DIMENSION
  5
17EE7
330
747D
100
AcDbEntity
  8
寸法
100
AcDbDimension
  2
*D24
 10
11193.40829608717
 20
10361.56181974064
 30
0.0
 11
11501.89357746141
 21
10361.56181974064
 31
0.0
 70
   160
 71
     5
 42
55.0
  3
INABA_S40G
100
AcDbAlignedDimension
 13
11138.40829608717
 23
10070.35665517667
 33
0.0
 14
11193.40829608717
 24
10070.35665517667
 34
0.0
100
AcDbRotatedDimension
1001
ACAD
1000
DSTYLE
1002
{
1002
}
  0
LINE
  5
17EE8
330
747D
100
AcDbEntity
  8
部品1
100
AcDbLine
 10
11165.40829608717
 20
10015.35665517668
 30
0.0
 11
11193.40829608717
 21
10015.35665517668
 31
0.0
  0
LINE
  5
17EE9
330
747D
100
AcDbEntity
  8
部品1
100
AcDbLine
 10
11165.40829608717
 20
9175.356655176683
 30
0.0
 11
11193.40829608717
 21
9175.356655176683
 31
0.0
  0
LINE
  5
17EEA
330
747D
100
AcDbEntity
  8
部品1
100
AcDbLine
 10
9431.408296087171
 20
10042.35665517671
 30
0.0
 11
11165.40829608717
 21
10042.35665517668
 31
0.0
  0
LINE
  5
17EEB
330
747D
100
AcDbEntity
  8
部品1
100
AcDbLine
 10
11165.40829608717
 20
8335.356655176681
 30
0.0
 11
11193.40829608717
 21
8335.356655176681
 31
0.0
  0
LINE
  5
17EEC
330
747D
100
AcDbEntity
  8
部品1
100
AcDbLine
 10
11165.40829608717
 20
10042.35665517668
 30
0.0
 11
11165.40829608715
 21
8767.856655176649
 31
0.0
  0
LINE
  5
17EED
330
747D
100
AcDbEntity
  8
部品1
100
AcDbLine
 10
9431.408296087139
 20
10015.35665517655
 30
0.0
 11
9403.408296087139
 21
10015.35665517655
 31
0.0
  0
LINE
  5
17EEE
330
747D
100
AcDbEntity
  8
部品1
100
AcDbLine
 10
9431.408296087147
 20
9175.356655176553
 30
0.0
 11
9403.408296087146
 21
9175.356655176553
 31
0.0
  0
LINE
  5
17EEF
330
747D
100
AcDbEntity
  8
部品1
100
AcDbLine
 10
9431.408296087148
 20
8335.356655176552
 30
0.0
 11
9403.408296087148
 21
8335.356655176552
 31
0.0
  0
LINE
  5
17EF0
330
747D
100
AcDbEntity
  8
部品1
100
AcDbLine
 10
9431.408296087145
 20
7888.356655176507
 30
0.0
 11
9431.408296087171
 21
10042.35665517658
 31
0.0
  0
DIMENSION
  5
17EF3
330
747D
100
AcDbEntity
  8
寸法
100
AcDbDimension
  2
*D25
 10
11840.83464182158
 20
7915.356655176665
 30
0.0
 11
11840.83464182158
 21
8965.356655176675
 31
0.0
 70
   160
  1
5X420=<>
 71
     5
 42
2100.000000000016
  3
INABA_S40G
100
AcDbAlignedDimension
 13
11193.40829608717
 23
10015.35665517668
 33
0.0
 14
11193.40829608714
 24
7915.356655176665
 34
0.0
 50
90.0
100
AcDbRotatedDimension
1001
ACAD
1000
DSTYLE
1002
{
1002
}
  0
DIMENSION
  5
17EF4
330
747D
100
AcDbEntity
  8
寸法
100
AcDbDimension
  2
*D26
 10
11840.83464182156
 20
7860.356655176669
 30
0.0
 11
11840.83464182155
 21
7482.495188271808
 31
0.0
 70
   160
 71
     5
 42
54.99999999999636
  3
INABA_S40G
100
AcDbAlignedDimension
 13
11193.40829608714
 23
7915.356655176665
 33
0.0
 14
11193.40829608714
 24
7860.356655176669
 34
0.0
 50
90.0
100
AcDbRotatedDimension
1001
ACAD
1000
DSTYLE
1002
{
1002
}
  0
DIMENSION
  5
17EF5
330
747D
100
AcDbEntity
  8
寸法
100
AcDbDimension
  2
*D27
 10
11840.83464182158
 20
10015.35665517668
 30
0.0
 11
11840.83464182158
 21
10378.84193655091
 31
0.0
 70
   160
 71
     5
 42
54.99999999999636
  3
INABA_S40G
100
AcDbAlignedDimension
 13
11193.40829608717
 23
10070.35665517667
 33
0.0
 14
11193.40829608717
 24
10015.35665517668
 34
0.0
 50
90.0
100
AcDbRotatedDimension
1001
ACAD
1000
DSTYLE
1002
{
1002
}
  0
LINE
  5
17EF6
330
747D
100
AcDbEntity
  8
部品1
100
AcDbLine
 10
9458.408296087171
 20
10070.35665517658
 30
0.0
 11
9458.408296087171
 21
10042.35665517658
 31
0.0
  0
LINE
  5
17EF7
330
747D
100
AcDbEntity
  8
部品1
100
AcDbLine
 10
9878.408296087172
 20
10070.35665517658
 30
0.0
 11
9878.408296087172
 21
10042.35665517658
 31
0.0
  0
LINE
  5
17EF8
330
747D
100
AcDbEntity
  8
部品1
100
AcDbLine
 10
9878.408296087172
 20
10070.35665517658
 30
0.0
 11
9878.408296087172
 21
10042.35665517658
 31
0.0
  0
LINE
  5
17EF9
330
747D
100
AcDbEntity
  8
部品1
100
AcDbLine
 10
9878.408296087172
 20
10070.35665517669
 30
0.0
 11
9878.408296087172
 21
10042.3566551767
 31
0.0
  0
LINE
  5
17EFA
330
747D
100
AcDbEntity
  8
部品1
100
AcDbLine
 10
10298.40829608717
 20
10070.35665517669
 30
0.0
 11
10298.40829608717
 21
10042.3566551767
 31
0.0
  0
LINE
  5
17EFB
330
747D
100
AcDbEntity
  8
部品1
100
AcDbLine
 10
10718.40829608717
 20
10070.35665517669
 30
0.0
 11
10718.40829608717
 21
10042.3566551767
 31
0.0
  0
LINE
  5
17EFC
330
747D
100
AcDbEntity
  8
部品1
100
AcDbLine
 10
11193.40829608717
 20
10070.35665517667
 30
0.0
 11
11193.40829608714
 21
7860.356655176669
 31
0.0
  0
DIMENSION
  5
17EFD
330
747D
100
AcDbEntity
  8
寸法
100
AcDbDimension
  2
*D28
 10
12110.09567122949
 20
7860.356655176669
 30
0.0
 11
12110.09567122948
 21
8919.05902836717
 31
0.0
 70
   160
 71
     5
 42
2210.000000000008
  3
INABA_S40G
100
AcDbAlignedDimension
 13
11193.40829608717
 23
10070.35665517667
 33
0.0
 14
11193.40829608714
 24
7860.356655176669
 34
0.0
 50
90.0
100
AcDbRotatedDimension
1001
ACAD
1000
DSTYLE
1002
{
1002
}
  0
LINE
  5
17EFE
330
747D
100
AcDbEntity
  8
部品1
100
AcDbLine
 10
11138.40829608717
 20
10070.35665517669
 30
0.0
 11
11138.40829608717
 21
10042.3566551767
 31
0.0
  0
LINE
  5
17EFF
330
747D
100
AcDbEntity
  8
部品1
100
AcDbLine
 10
11138.40829608717
 20
10070.35665517667
 30
0.0
 11
11138.40829608717
 21
10042.35665517668
 31
0.0
  0
LINE
  5
17F00
330
747D
100
AcDbEntity
  8
部品1
100
AcDbLine
 10
9403.408296087134
 20
10070.35665517655
 30
0.0
 11
9403.408296087164
 21
7860.35665517654
 31
0.0
  0
LINE
  5
17F01
330
747D
100
AcDbEntity
  8
部品1
100
AcDbLine
 10
9458.408296087133
 20
10070.35665517655
 30
0.0
 11
9458.408296087139
 21
10042.35665517655
 31
0.0
  0
DIMENSION
  5
17F02
330
747D
100
AcDbEntity
  8
寸法
100
AcDbDimension
  2
*D29
 10
9458.408296087171
 20
10361.56181974054
 30
0.0
 11
9094.923014712897
 21
10361.56181974054
 31
0.0
 70
   160
 71
     5
 42
55.00000000003637
  3
INABA_S40G
100
AcDbAlignedDimension
 13
9403.408296087134
 23
10070.35665517658
 33
0.0
 14
9458.408296087171
 24
10070.35665517658
 34
0.0
100
AcDbRotatedDimension
1001
ACAD
1000
DSTYLE
1002
{
1002
}
  0
LINE
  5
18181
330
747D
100
AcDbEntity
  8
細線
 48
50.0
100
AcDbLine
 10
9981.408296087133
 20
7788.356829353465
 30
0.0
 11
10099.90829608713
 21
7788.356829353465
 31
0.0
  0
LINE
  5
18182
330
747D
100
AcDbEntity
  8
細線
 48
50.0
100
AcDbLine
 10
10069.90829608713
 20
7805.506829353463
 30
0.0
 11
10069.90829608713
 21
7810.356829353465
 31
0.0
  0
LINE
  5
18183
330
747D
100
AcDbEntity
  8
細線
 48
50.0
100
AcDbLine
 10
10069.90829608713
 20
7810.356829353465
 30
0.0
 11
10084.90829608713
 21
7810.356829353465
 31
0.0
  0
LINE
  5
18184
330
747D
100
AcDbEntity
  8
細線
 48
50.0
100
AcDbLine
 10
10084.90829608713
 20
7810.356829353465
 30
0.0
 11
10084.90829608714
 21
7817.356829353466
 31
0.0
  0
LINE
  5
18185
330
747D
100
AcDbEntity
  8
細線
 48
50.0
100
AcDbLine
 10
10084.90829608714
 20
7817.356829353466
 30
0.0
 11
10099.90829608713
 21
7817.356829353466
 31
0.0
  0
LINE
  5
18186
330
747D
100
AcDbEntity
  8
細線
 48
50.0
100
AcDbLine
 10
10099.90829608713
 20
7817.356829353466
 30
0.0
 11
10099.90829608713
 21
7788.356829353465
 31
0.0
  0
LINE
  5
18187
330
747D
100
AcDbEntity
  8
細線
 48
50.0
100
AcDbLine
 10
10088.90829608714
 20
7839.853023618971
 30
0.0
 11
10088.90829608714
 21
7844.353023618971
 31
0.0
  0
LINE
  5
18188
330
747D
100
AcDbEntity
  8
細線
 48
50.0
100
AcDbLine
 10
10088.90829608714
 20
7844.353023618971
 30
0.0
 11
10073.90829608713
 21
7844.353023618971
 31
0.0
  0
LINE
  5
18189
330
747D
100
AcDbEntity
  8
細線
 48
50.0
100
AcDbLine
 10
10073.90829608713
 20
7844.353023618971
 30
0.0
 11
10073.90829608713
 21
7851.353023618973
 31
0.0
  0
LINE
  5
1818A
330
747D
100
AcDbEntity
  8
細線
 48
50.0
100
AcDbLine
 10
10073.90829608713
 20
7851.353023618973
 30
0.0
 11
10058.90829608714
 21
7851.353023618968
 31
0.0
  0
LINE
  5
1818B
330
747D
100
AcDbEntity
  8
細線
 48
50.0
100
AcDbLine
 10
10058.90829608714
 20
7851.353023618968
 30
0.0
 11
10058.90829608714
 21
7813.752795515857
 31
0.0
  0
LINE
  5
1818C
330
747D
100
AcDbEntity
  8
細線
 48
50.0
100
AcDbLine
 10
10058.90829608714
 20
7813.752795515857
 30
0.0
 11
10078.90830338831
 21
7813.7528370654
 31
0.0
  0
LINE
  5
1818D
330
747D
100
AcDbEntity
  8
細線
 48
50.0
100
AcDbLine
 10
10078.90825851937
 20
7822.356298701207
 30
0.0
 11
10078.90830338831
 21
7813.7528370654
 31
0.0
  0
LINE
  5
1818E
330
747D
100
AcDbEntity
  8
細線
 48
50.0
100
AcDbLine
 10
10078.90825851937
 20
7822.356298701207
 30
0.0
 11
10090.14094787408
 21
7822.356481654354
 31
0.0
  0
ARC
  5
1818F
330
747D
100
AcDbEntity
  8
細線
 48
50.0
100
AcDbCircle
 10
10096.72324018141
 20
7821.156645567967
 30
0.0
 40
1.8
100
AcDbArc
 50
270.0006665777295
 51
345.0005554812987
  0
LINE
  5
18190
330
747D
100
AcDbEntity
  8
細線
 48
50.0
100
AcDbLine
 10
10098.70967362749
 20
7821.615486025246
 30
0.0
 11
10098.46191118529
 21
7820.690788143139
 31
0.0
  0
LINE
  5
18191
330
747D
100
AcDbEntity
  8
細線
 48
50.0
100
AcDbLine
 10
10096.72326112257
 20
7819.356645568088
 30
0.0
 11
10093.0933337038
 21
7819.356603337607
 31
0.0
  0
ARC
  5
18192
330
747D
100
AcDbEntity
  8
細線
 48
50.0
100
AcDbCircle
 10
10093.09331276265
 20
7821.156603337486
 30
0.0
 40
1.8
100
AcDbArc
 50
195.0010443049394
 51
270.0006665777295
  0
LINE
  5
18193
330
747D
100
AcDbEntity
  8
細線
 48
50.0
100
AcDbLine
 10
10091.10688527039
 20
7821.615318305051
 30
0.0
 11
10091.3546547669
 21
7820.690697366469
 31
0.0
  0
ARC
  5
18194
330
747D
100
AcDbEntity
  8
細線
 48
50.0
100
AcDbCircle
 10
10090.14096416164
 20
7821.356481654489
 30
0.0
 40
1.0
100
AcDbArc
 50
15.00104430493943
 51
90.00093320877969
  0
LINE
  5
18195
330
747D
100
AcDbEntity
  8
細線
 48
50.0
100
AcDbLine
 10
10099.6755949826
 20
7822.356676344759
 30
0.0
 11
10100.6173551335
 21
7822.356682918608
 31
0.0
  0
ARC
  5
18196
330
747D
100
AcDbEntity
  8
細線
 48
50.0
100
AcDbCircle
 10
10099.67560196298
 20
7821.356676344784
 30
0.0
 40
1.0
100
AcDbArc
 50
90.0003999466794
 51
165.0005554812987
  0
LINE
  5
18197
330
747D
100
AcDbEntity
  8
細線
 48
50.0
100
AcDbLine
 10
11135.90829608713
 20
7881.356655176514
 30
0.0
 11
11135.90829608713
 21
7856.356655176511
 31
0.0
  0
LINE
  5
18198
330
747D
100
AcDbEntity
  8
細線
100
AcDbLine
 10
11126.40829608713
 20
7856.356655176509
 30
0.0
 11
11018.40829608713
 21
7856.356655176509
 31
0.0
  0
LINE
  5
18199
330
747D
100
AcDbEntity
  8
細線
 48
50.0
100
AcDbLine
 10
10550.90830123804
 20
7848.356655176512
 30
0.0
 11
10550.90830123804
 21
7886.356655176506
 31
0.0
  0
LINE
  5
1819A
330
747D
100
AcDbEntity
  8
細線
 48
50.0
100
AcDbLine
 10
10550.90830123804
 20
7886.356655176506
 30
0.0
 11
10565.90830123804
 21
7886.356655176509
 31
0.0
  0
LINE
  5
1819B
330
747D
100
AcDbEntity
  8
細線
 48
50.0
100
AcDbLine
 10
10565.90830123804
 20
7886.356655176509
 30
0.0
 11
10565.90830123804
 21
7881.356655176509
 31
0.0
  0
LINE
  5
1819C
330
747D
100
AcDbEntity
  8
細線
 48
50.0
100
AcDbLine
 10
10550.90830123804
 20
7848.356655176512
 30
0.0
 11
10570.90830123804
 21
7848.356655176509
 31
0.0
  0
LINE
  5
1819D
330
747D
100
AcDbEntity
  8
細線
 48
50.0
100
AcDbLine
 10
10570.90830123804
 20
7848.356655176509
 30
0.0
 11
10570.90830123804
 21
7856.356655176509
 31
0.0
  0
LINE
  5
1819E
330
747D
100
AcDbEntity
  8
細線
100
AcDbLine
 10
10808.40829608713
 20
7856.356655176509
 30
0.0
 11
10738.40829608713
 21
7856.356655176509
 31
0.0
  0
LINE
  5
1819F
330
747D
100
AcDbEntity
  8
細線
 48
50.0
100
AcDbLine
 10
10668.40829608713
 20
7856.356655176508
 30
0.0
 11
10583.70408081088
 21
7856.356655176509
 31
0.0
  0
LINE
  5
181A0
330
747D
100
AcDbEntity
  8
細線
100
AcDbLine
 10
10948.40829608713
 20
7856.356655176509
 30
0.0
 11
10878.40829608713
 21
7856.356655176509
 31
0.0
  0
LINE
  5
181A1
330
747D
100
AcDbEntity
  8
細線
100
AcDbLine
 10
10776.40829608713
 20
7856.356655176508
 30
0.0
 11
10776.40829608713
 21
7885.656655176507
 31
0.0
  0
LINE
  5
181A2
330
747D
100
AcDbEntity
  8
細線
100
AcDbLine
 10
10756.40829608713
 20
7885.656655176507
 30
0.0
 11
10776.40829608713
 21
7885.656655176507
 31
0.0
  0
LINE
  5
181A3
330
747D
100
AcDbEntity
  8
細線
100
AcDbLine
 10
10756.40829608713
 20
7856.356655176508
 30
0.0
 11
10756.40829608713
 21
7885.656655176507
 31
0.0
  0
LINE
  5
181A4
330
747D
100
AcDbEntity
  8
細線
 48
50.0
100
AcDbLine
 10
11120.00829608713
 20
7881.35665517651
 30
0.0
 11
11110.00829608713
 21
7886.35665517651
 31
0.0
  0
LINE
  5
181A5
330
747D
100
AcDbEntity
  8
細線
 48
50.0
100
AcDbLine
 10
11135.90829608713
 20
7881.356655176514
 30
0.0
 11
11120.00829608714
 21
7881.35665517651
 31
0.0
  0
LINE
  5
181A6
330
747D
100
AcDbEntity
  8
細線
 48
50.0
100
AcDbLine
 10
11110.00829608714
 20
7886.356655176507
 30
0.0
 11
10565.90830123804
 21
7886.356655176506
 31
0.0
  0
LINE
  5
181A7
330
747D
100
AcDbEntity
  8
細線
 48
50.0
100
AcDbLine
 10
10576.90830123804
 20
7855.55665517651
 30
0.0
 11
10576.90830123804
 21
7854.05665517651
 31
0.0
  0
LINE
  5
181A8
330
747D
100
AcDbEntity
  8
細線
 48
50.0
100
AcDbLine
 10
10577.60830123804
 20
7853.356655176509
 30
0.0
 11
10582.20830123804
 21
7853.356655176509
 31
0.0
  0
LINE
  5
181A9
330
747D
100
AcDbEntity
  8
細線
 48
50.0
100
AcDbLine
 10
10582.90830123804
 20
7854.05665517651
 30
0.0
 11
10582.90830806315
 21
7855.556670067997
 31
0.0
  0
ARC
  5
181AA
330
747D
100
AcDbEntity
  8
細線
 48
50.0
100
AcDbCircle
 10
10582.20830123804
 20
7854.05665517651
 30
0.0
 40
0.7
100
AcDbArc
 50
270.0
 51
0.0
  0
ARC
  5
181AB
330
747D
100
AcDbEntity
  8
細線
 48
50.0
100
AcDbCircle
 10
10577.60830123804
 20
7854.05665517651
 30
0.0
 40
0.7
100
AcDbArc
 50
180.0
 51
270.0
  0
LINE
  5
181AC
330
747D
100
AcDbEntity
  8
細線
 48
50.0
100
AcDbLine
 10
10576.10830309948
 20
7856.356655176509
 30
0.0
 11
10570.90830123804
 21
7856.356655176509
 31
0.0
  0
ARC
  5
181AD
330
747D
100
AcDbEntity
  8
細線
 48
50.0
100
AcDbCircle
 10
10583.70830806315
 20
7855.556666345126
 30
0.0
 40
0.8
100
AcDbArc
 50
90.00014387753465
 51
179.9997333689498
  0
ARC
  5
181AE
330
747D
100
AcDbEntity
  8
細線
 48
50.0
100
AcDbCircle
 10
10576.10830123805
 20
7855.55665517651
 30
0.0
 40
0.8
100
AcDbArc
 50
359.9997333689499
 51
89.99986668437072
  0
LINE
  5
181AF
330
747D
100
AcDbEntity
  8
細線
 48
50.0
100
AcDbLine
 10
10290.40826076824
 20
7822.356667039095
 30
0.0
 11
10220.40824348036
 21
7822.356667039104
 31
0.0
  0
LINE
  5
181B0
330
747D
100
AcDbEntity
  8
細線
 48
50.0
100
AcDbLine
 10
10150.40829608713
 20
7822.356675226465
 30
0.0
 11
10100.6173551335
 21
7822.356682918608
 31
0.0
  0
LINE
  5
181B1
330
747D
100
AcDbEntity
  8
細線
 48
50.0
100
AcDbLine
 10
10500.40828785037
 20
7822.356667039099
 30
0.0
 11
10591.90829608713
 21
7822.356667039099
 31
0.0
  0
LINE
  5
181B2
330
747D
100
AcDbEntity
  8
細線
 48
50.0
100
AcDbLine
 10
10430.40829608713
 20
7822.356664289094
 30
0.0
 11
10360.40853998413
 21
7822.356669789127
 31
0.0
  0
LINE
  5
181B3
330
747D
100
AcDbEntity
  8
細線
 48
50.0
100
AcDbLine
 10
10591.90830638895
 20
7851.356873211372
 30
0.0
 11
10591.90829608713
 21
7822.356667039099
 31
0.0
  0
LINE
  5
181B4
330
747D
100
AcDbEntity
  8
細線
 48
50.0
100
AcDbLine
 10
10576.90830821843
 20
7851.356873211372
 30
0.0
 11
10591.90830638895
 21
7851.356873211372
 31
0.0
  0
LINE
  5
181B5
330
747D
100
AcDbEntity
  8
細線
 48
50.0
100
AcDbLine
 10
10576.90829658445
 20
7844.356873211329
 30
0.0
 11
10576.90830821843
 21
7851.356873211372
 31
0.0
  0
LINE
  5
181B6
330
747D
100
AcDbEntity
  8
細線
 48
50.0
100
AcDbLine
 10
10561.90829658445
 20
7844.356873211329
 30
0.0
 11
10576.90829658445
 21
7844.356873211329
 31
0.0
  0
LINE
  5
181B7
330
747D
100
AcDbEntity
  8
細線
 48
50.0
100
AcDbLine
 10
10561.90829658445
 20
7839.50687321133
 30
0.0
 11
10561.90829658445
 21
7844.356873211329
 31
0.0
  0
LINE
  5
181B8
330
747D
100
AcDbEntity
  8
細線
 48
50.0
100
AcDbLine
 10
10561.90829658445
 20
7842.956873211331
 30
0.0
 11
10088.90829608714
 21
7842.956873211327
 31
0.0
  0
LINE
  5
181B9
330
747D
100
AcDbEntity
  8
細線
 48
50.0
100
AcDbLine
 10
10069.90829608713
 20
7808.956829353462
 30
0.0
 11
9484.408300740726
 21
7808.956829353462
 31
0.0
  0
LINE
  5
181BA
330
747D
100
AcDbEntity
  8
細線
 48
50.0
100
AcDbLine
 10
9892.79138775783
 20
7806.627680643957
 30
0.0
 11
9898.546905340499
 21
7788.356829353464
 31
0.0
  0
LINE
  5
181BB
330
747D
100
AcDbEntity
  8
細線
 48
50.0
100
AcDbLine
 10
9881.862939277397
 20
7806.627680643953
 30
0.0
 11
9892.79138775783
 21
7806.627680643957
 31
0.0
  0
ARC
  5
181BC
330
747D
100
AcDbEntity
  8
細線
 48
50.0
100
AcDbCircle
 10
9876.408583220078
 20
7808.127680643953
 30
0.0
 40
5.0
100
AcDbArc
 50
204.6243183521304
 51
335.3756816478695
  0
ARC
  5
181BD
330
747D
100
AcDbEntity
  8
細線
 48
50.0
100
AcDbCircle
 10
9881.862939277397
 20
7805.627680643954
 30
0.0
 40
1.0
100
AcDbArc
 50
90.0
 51
155.3756816478695
  0
ARC
  5
181BE
330
747D
100
AcDbEntity
  8
細線
 48
50.0
100
AcDbCircle
 10
9870.954227162762
 20
7805.627680643954
 30
0.0
 40
1.0
100
AcDbArc
 50
24.62431835213048
 51
90.0
  0
LINE
  5
181BF
330
747D
100
AcDbEntity
  8
細線
 48
50.0
100
AcDbLine
 10
9860.025778682329
 20
7806.627680643957
 30
0.0
 11
9870.954227162762
 21
7806.627680643953
 31
0.0
  0
LINE
  5
181C0
330
747D
100
AcDbEntity
  8
細線
 48
50.0
100
AcDbLine
 10
9854.27026109966
 20
7788.356829353464
 30
0.0
 11
9860.025778682329
 21
7806.627680643957
 31
0.0
  0
LINE
  5
181C1
330
747D
100
AcDbEntity
  8
細線
 48
50.0
100
AcDbLine
 10
9841.408296087132
 20
7788.356829353464
 30
0.0
 11
9911.408296087133
 21
7788.356829353464
 31
0.0
  0
LINE
  5
181C2
330
747D
100
AcDbEntity
  8
細線
 48
50.0
100
AcDbLine
 10
9461.408296087133
 20
7788.354163696933
 30
0.0
 11
9771.408849191564
 21
7788.358050597129
 31
0.0
  0
LINE
  5
181C3
330
747D
100
AcDbEntity
  8
細線
 48
50.0
100
AcDbLine
 10
9484.408300740726
 20
7817.352979761102
 30
0.0
 11
9470.408296087134
 21
7817.3529797611
 31
0.0
  0
LINE
  5
181C4
330
747D
100
AcDbEntity
  8
細線
 48
50.0
100
AcDbLine
 10
9484.408300740726
 20
7808.956829353462
 30
0.0
 11
9484.408300740726
 21
7817.352979761102
 31
0.0
  0
LINE
  5
181C5
330
747D
100
AcDbEntity
  8
細線
  6
Continuous
 62
     5
100
AcDbLine
 10
10563.90830123804
 20
7841.356655176506
 30
0.0
 11
10563.90830123804
 21
7841.356655176506
 31
0.0
  0
LINE
  5
181C6
330
747D
100
AcDbEntity
  8
部品1
100
AcDbLine
 10
9461.408296087133
 20
7783.356655176508
 30
0.0
 11
11165.40829608713
 21
7783.356655176508
 31
0.0
  0
LINE
  5
181C7
330
747D
100
AcDbEntity
  8
部品1
100
AcDbLine
 10
11135.40829608713
 20
7783.35665517651
 30
0.0
 11
11165.40829608713
 21
7783.35665517651
 31
0.0
  0
LINE
  5
181C8
330
747D
100
AcDbEntity
  8
部品1
100
AcDbLine
 10
9458.408296087133
 20
7887.356655176505
 30
0.0
 11
11138.40829608713
 21
7887.356655176509
 31
0.0
  0
LINE
  5
181C9
330
747D
100
AcDbEntity
  8
部品1
100
AcDbLine
 10
9458.408296087133
 20
7887.356655176505
 30
0.0
 11
9458.408296087133
 21
7856.356655176509
 31
0.0
  0
LINE
  5
181CA
330
747D
100
AcDbEntity
  8
部品1
100
AcDbLine
 10
9470.408296087134
 20
7856.356655176509
 30
0.0
 11
9470.408296087134
 21
7792.356655176509
 31
0.0
  0
LINE
  5
181CB
330
747D
100
AcDbEntity
  8
部品1
100
AcDbLine
 10
9431.408296087134
 20
7783.356655176508
 30
0.0
 11
9431.408296087134
 21
7860.356655176508
 31
0.0
  0
LINE
  5
181CC
330
747D
100
AcDbEntity
  8
部品1
100
AcDbLine
 10
9461.408296087133
 20
7783.356655176508
 30
0.0
 11
9431.408296087134
 21
7783.356655176508
 31
0.0
  0
LINE
  5
181CD
330
747D
100
AcDbEntity
  8
部品1
100
AcDbLine
 10
9470.408296087134
 20
7792.356655176509
 30
0.0
 11
9461.408296087133
 21
7792.356655176509
 31
0.0
  0
LINE
  5
181CE
330
747D
100
AcDbEntity
  8
部品1
100
AcDbLine
 10
9461.408296087133
 20
7792.356655176509
 30
0.0
 11
9461.408296087133
 21
7783.356655176508
 31
0.0
  0
LINE
  5
181CF
330
747D
100
AcDbEntity
  8
部品1
100
AcDbLine
 10
9431.408296087134
 20
7860.356655176508
 30
0.0
 11
9458.408296087133
 21
7860.356655176508
 31
0.0
  0
LINE
  5
181D0
330
747D
100
AcDbEntity
  8
部品1
100
AcDbLine
 10
9470.408296087134
 20
7856.356655176509
 30
0.0
 11
9458.408296087133
 21
7856.356655176509
 31
0.0
  0
LINE
  5
181D1
330
747D
100
AcDbEntity
  8
部品1
100
AcDbLine
 10
11138.40829608713
 20
7887.356655176509
 30
0.0
 11
11138.40829608713
 21
7856.356655176511
 31
0.0
  0
LINE
  5
181D2
330
747D
100
AcDbEntity
  8
部品1
100
AcDbLine
 10
11126.40829608713
 20
7856.356655176511
 30
0.0
 11
11126.40829608713
 21
7792.356655176511
 31
0.0
  0
LINE
  5
181D3
330
747D
100
AcDbEntity
  8
部品1
100
AcDbLine
 10
11126.40829608713
 20
7792.356655176511
 30
0.0
 11
11135.40829608713
 21
7792.356655176511
 31
0.0
  0
LINE
  5
181D4
330
747D
100
AcDbEntity
  8
部品1
100
AcDbLine
 10
11135.40829608713
 20
7792.356655176511
 30
0.0
 11
11135.40829608713
 21
7783.35665517651
 31
0.0
  0
LINE
  5
181D5
330
747D
100
AcDbEntity
  8
部品1
100
AcDbLine
 10
11126.40829608713
 20
7856.356655176511
 30
0.0
 11
11138.40829608713
 21
7856.356655176511
 31
0.0
  0
LINE
  5
181D6
330
747D
100
AcDbEntity
  8
部品1
100
AcDbLine
 10
11165.40829608713
 20
7783.35665517651
 30
0.0
 11
11165.40829608713
 21
7860.356655176509
 31
0.0
  0
LINE
  5
181D8
330
747D
100
AcDbEntity
  8
部品1
100
AcDbLine
 10
11138.40829608713
 20
7860.356655176509
 30
0.0
 11
11165.40829608713
 21
7860.356655176509
 31
0.0
  0
DIMENSION
  5
181D9
330
747D
100
AcDbEntity
  8
寸法
 48
50.0
100
AcDbDimension
  2
*D30
 10
10420.40829608713
 20
7158.281637128284
 30
0.0
 11
9945.408296087135
 21
7158.281637128284
 31
0.0
 70
   160
  1
有効開口部間口\P<>
 71
     5
 42
950.0
  3
INABA_S40
100
AcDbAlignedDimension
 13
9470.408296087134
 23
7783.356655176508
 33
0.0
 14
10420.40829608713
 24
7783.356655176508
 34
0.0
100
AcDbRotatedDimension
1001
ACAD
1000
DSTYLE
1002
{
1070
    41
1040
0.5
1070
    44
1040
1.0
1070
   147
1040
0.8
1070
   271
1070
     2
1070
   272
1070
     2
1070
   289
1070
     3
1070
   340
1005
F706
1070
   343
1005
16736
1070
   344
1005
16736
1002
}
  0
LINE
  5
181DA
330
747D
100
AcDbEntity
  8
細線
100
AcDbLine
 10
9470.408296087134
 20
7792.356655176509
 30
0.0
 11
9470.408296087134
 21
7788.356655176556
 31
0.0
  0
LINE
  5
181DB
330
747D
100
AcDbEntity
  8
細線
100
AcDbLine
 10
9626.908189488396
 20
7806.355724722108
 30
0.0
 11
9626.908189488396
 21
7788.355724722084
 31
0.0
  0
LINE
  5
181DC
330
747D
100
AcDbEntity
  8
細線
100
AcDbLine
 10
9585.908189488398
 20
7806.355724722101
 30
0.0
 11
9585.908189488398
 21
7788.355724722084
 31
0.0
  0
LINE
  5
181DD
330
747D
100
AcDbEntity
  8
細線
100
AcDbLine
 10
9626.908189488396
 20
7806.355724722108
 30
0.0
 11
9585.908189488398
 21
7806.355724722101
 31
0.0
  0
ARC
  5
181DE
330
747D
100
AcDbEntity
  8
部品1
100
AcDbCircle
 10
9588.452345365672
 20
7787.855724722105
 30
0.0
 40
1.0
100
AcDbArc
 50
270.0
 51
19.47122063442214
  0
LINE
  5
181DF
330
747D
100
AcDbEntity
  8
部品1
 48
0.01
100
AcDbLine
 10
9581.40818948839
 20
7788.355724722105
 30
0.0
 11
9581.40818948839
 21
7787.355724722106
 31
0.0
  0
LINE
  5
181E0
330
747D
100
AcDbEntity
  8
部品1
 48
0.01
100
AcDbLine
 10
9581.908189488389
 20
7786.855724722105
 30
0.0
 11
9588.452345365672
 21
7786.855724722105
 31
0.0
  0
ARC
  5
181E1
330
747D
100
AcDbEntity
  8
部品1
 48
0.01
100
AcDbCircle
 10
9581.908189488389
 20
7787.355724722106
 30
0.0
 40
0.5
100
AcDbArc
 50
180.0
 51
270.0
  0
ARC
  5
181E2
330
747D
100
AcDbEntity
  8
部品1
100
AcDbCircle
 10
9613.908189488391
 20
7796.855724722106
 30
0.0
 40
26.0
100
AcDbArc
 50
180.0
 51
199.4712206344221
  0
ARC
  5
181E3
330
747D
100
AcDbEntity
  8
部品1
 48
0.01
100
AcDbCircle
 10
9589.908189488388
 20
7801.855724722106
 30
0.0
 40
2.0
100
AcDbArc
 50
90.0
 51
180.0
  0
LINE
  5
181E4
330
747D
100
AcDbEntity
  8
部品1
100
AcDbLine
 10
9587.908189488389
 20
7796.855724722106
 30
0.0
 11
9587.908189488389
 21
7801.855724722106
 31
0.0
  0
ARC
  5
181E5
330
747D
100
AcDbEntity
  8
部品1
100
AcDbCircle
 10
9606.408189488391
 20
7812.655724722109
 30
0.0
 40
16.0
100
AcDbArc
 50
218.3930440192126
 51
254.0576313943215
  0
ARC
  5
181E6
330
747D
100
AcDbEntity
  8
部品1
100
AcDbCircle
 10
9591.516581113202
 20
7800.855724722104
 30
0.0
 40
3.0
100
AcDbArc
 50
38.39304401921267
 51
90.0
  0
LINE
  5
181E7
330
747D
100
AcDbEntity
  8
部品1
 48
0.01
100
AcDbLine
 10
9589.908189488388
 20
7803.855724722104
 30
0.0
 11
9591.516581113202
 21
7803.855724722104
 31
0.0
  0
ARC
  5
181E8
330
747D
100
AcDbEntity
  8
部品1
100
AcDbCircle
 10
9606.408189488391
 20
7812.655724722109
 30
0.0
 40
16.0
100
AcDbArc
 50
285.9423686056786
 51
321.6069559807873
  0
LINE
  5
181E9
330
747D
100
AcDbEntity
  8
部品1
100
AcDbLine
 10
9609.978903702661
 20
7797.155724722109
 30
0.0
 11
9602.837475274119
 21
7797.155724722109
 31
0.0
  0
ARC
  5
181EA
330
747D
100
AcDbEntity
  8
部品1
100
AcDbCircle
 10
9609.978903702661
 20
7800.155724722109
 30
0.0
 40
3.0
100
AcDbArc
 50
270.0
 51
285.9423686056786
  0
ARC
  5
181EB
330
747D
100
AcDbEntity
  8
部品1
100
AcDbCircle
 10
9602.837475274119
 20
7800.155724722109
 30
0.0
 40
3.0
100
AcDbArc
 50
254.0576313943215
 51
270.0
  0
LINE
  5
181EC
330
747D
100
AcDbEntity
  8
部品1
 48
0.01
100
AcDbLine
 10
9622.90818948839
 20
7803.855724722104
 30
0.0
 11
9621.299797863578
 21
7803.855724722104
 31
0.0
  0
ARC
  5
181ED
330
747D
100
AcDbEntity
  8
部品1
100
AcDbCircle
 10
9621.299797863578
 20
7800.855724722104
 30
0.0
 40
3.0
100
AcDbArc
 50
90.0
 51
141.6069559807873
  0
ARC
  5
181EE
330
747D
100
AcDbEntity
  8
部品1
 48
0.01
100
AcDbCircle
 10
9622.90818948839
 20
7801.855724722106
 30
0.0
 40
2.0
100
AcDbArc
 50
0.0
 51
90.0
  0
LINE
  5
181EF
330
747D
100
AcDbEntity
  8
部品1
100
AcDbLine
 10
9624.90818948839
 20
7796.855724722106
 30
0.0
 11
9624.90818948839
 21
7801.855724722106
 31
0.0
  0
ARC
  5
181F0
330
747D
100
AcDbEntity
  8
部品1
100
AcDbCircle
 10
9598.908189488389
 20
7796.855724722106
 30
0.0
 40
26.0
100
AcDbArc
 50
340.5287793655779
 51
0.0
  0
ARC
  5
181F1
330
747D
100
AcDbEntity
  8
部品1
100
AcDbCircle
 10
9624.364033611106
 20
7787.855724722105
 30
0.0
 40
1.0
100
AcDbArc
 50
160.5287793655778
 51
270.0
  0
LINE
  5
181F2
330
747D
100
AcDbEntity
  8
部品1
 48
0.01
100
AcDbLine
 10
9630.908189488389
 20
7786.855724722105
 30
0.0
 11
9624.295684058326
 21
7786.855724722105
 31
0.0
  0
LINE
  5
181F3
330
747D
100
AcDbEntity
  8
部品1
 48
0.01
100
AcDbLine
 10
9631.408189488389
 20
7788.355724722105
 30
0.0
 11
9631.408189488389
 21
7787.355724722106
 31
0.0
  0
LINE
  5
181F4
330
747D
100
AcDbEntity
  8
部品1
 48
0.01
100
AcDbLine
 10
9631.408189488389
 20
7788.355724722105
 30
0.0
 11
9631.408189488389
 21
7787.355724722106
 31
0.0
  0
ARC
  5
181F5
330
747D
100
AcDbEntity
  8
部品1
 48
0.01
100
AcDbCircle
 10
9630.908189488389
 20
7787.355724722106
 30
0.0
 40
0.5
100
AcDbArc
 50
270.0
 51
0.0
  0
LINE
  5
181F6
330
747D
100
AcDbEntity
  8
細線
100
AcDbLine
 10
9771.408287901717
 20
7788.356846907174
 30
0.0
 11
9773.739826192485
 21
7793.356846907158
 31
0.0
  0
LINE
  5
181F7
330
747D
100
AcDbEntity
  8
細線
100
AcDbLine
 10
9841.408296087132
 20
7788.356829353464
 30
0.0
 11
9839.076749610946
 21
7793.356846907141
 31
0.0
  0
LINE
  5
181F8
330
747D
100
AcDbEntity
  8
細線
100
AcDbLine
 10
9839.076749610946
 20
7793.356846907141
 30
0.0
 11
9773.739826192473
 21
7793.35684690713
 31
0.0
  0
LINE
  5
181F9
330
747D
100
AcDbEntity
  8
細線
100
AcDbLine
 10
9979.076749610946
 20
7793.356846907141
 30
0.0
 11
9913.739826192472
 21
7793.356846907133
 31
0.0
  0
LINE
  5
181FA
330
747D
100
AcDbEntity
  8
細線
100
AcDbLine
 10
9981.408296087133
 20
7788.356829353464
 30
0.0
 11
9979.076749610946
 21
7793.356846907141
 31
0.0
  0
LINE
  5
181FB
330
747D
100
AcDbEntity
  8
細線
100
AcDbLine
 10
9911.408287901718
 20
7788.356846907177
 30
0.0
 11
9913.739826192484
 21
7793.356846907163
 31
0.0
  0
LINE
  5
181FC
330
747D
100
AcDbEntity
  8
細線
100
AcDbLine
 10
10218.07675779636
 20
7827.356675226432
 30
0.0
 11
10152.73983437789
 21
7827.356675226422
 31
0.0
  0
LINE
  5
181FD
330
747D
100
AcDbEntity
  8
細線
100
AcDbLine
 10
10220.40830427255
 20
7822.356657672755
 30
0.0
 11
10218.07675779636
 21
7827.356675226432
 31
0.0
  0
LINE
  5
181FE
330
747D
100
AcDbEntity
  8
細線
100
AcDbLine
 10
10150.40829608713
 20
7822.356675226465
 30
0.0
 11
10152.7398343779
 21
7827.35667522645
 31
0.0
  0
LINE
  5
181FF
330
747D
100
AcDbEntity
  8
細線
100
AcDbLine
 10
10290.40826076824
 20
7822.356667039095
 30
0.0
 11
10292.73979905901
 21
7827.35666703908
 31
0.0
  0
LINE
  5
18200
330
747D
100
AcDbEntity
  8
細線
100
AcDbLine
 10
10360.40826895366
 20
7822.356649485385
 30
0.0
 11
10358.07672247747
 21
7827.356667039066
 31
0.0
  0
LINE
  5
18201
330
747D
100
AcDbEntity
  8
細線
100
AcDbLine
 10
10358.07672247747
 20
7827.356667039066
 30
0.0
 11
10292.73979905899
 21
7827.356667039052
 31
0.0
  0
LINE
  5
18202
330
747D
100
AcDbEntity
  8
細線
100
AcDbLine
 10
10498.0767590274
 20
7827.356646735324
 30
0.0
 11
10432.73983560893
 21
7827.35664673531
 31
0.0
  0
LINE
  5
18203
330
747D
100
AcDbEntity
  8
細線
100
AcDbLine
 10
10500.40830550359
 20
7822.356629181644
 30
0.0
 11
10498.0767590274
 21
7827.356646735324
 31
0.0
  0
LINE
  5
18204
330
747D
100
AcDbEntity
  8
細線
100
AcDbLine
 10
10430.40829608713
 20
7822.356644095378
 30
0.0
 11
10432.73983560894
 21
7827.356646735339
 31
0.0
  0
LINE
  5
18205
330
747D
100
AcDbEntity
  8
細線
 48
50.0
100
AcDbLine
 10
10373.27051801168
 20
7822.356667039095
 30
0.0
 11
10379.02603559435
 21
7840.627518329589
 31
0.0
  0
LINE
  5
18206
330
747D
100
AcDbEntity
  8
細線
 48
50.0
100
AcDbLine
 10
10379.02603559435
 20
7840.627518329589
 30
0.0
 11
10389.95448407478
 21
7840.627518329589
 31
0.0
  0
ARC
  5
18207
330
747D
100
AcDbEntity
  8
細線
 48
50.0
100
AcDbCircle
 10
10389.95448407478
 20
7839.62751832959
 30
0.0
 40
1.0
100
AcDbArc
 50
24.62431835213048
 51
90.0
  0
ARC
  5
18208
330
747D
100
AcDbEntity
  8
細線
 48
50.0
100
AcDbCircle
 10
10400.86319618942
 20
7839.62751832959
 30
0.0
 40
1.0
100
AcDbArc
 50
90.0
 51
155.3756816478695
  0
ARC
  5
18209
330
747D
100
AcDbEntity
  8
細線
 48
50.0
100
AcDbCircle
 10
10395.4088401321
 20
7842.127518329589
 30
0.0
 40
5.0
100
AcDbArc
 50
204.6243183521304
 51
335.3756816478695
  0
LINE
  5
1820A
330
747D
100
AcDbEntity
  8
細線
 48
50.0
100
AcDbLine
 10
10400.86319618942
 20
7840.627518329589
 30
0.0
 11
10411.79164466985
 21
7840.627518329589
 31
0.0
  0
LINE
  5
1820B
330
747D
100
AcDbEntity
  8
細線
 48
50.0
100
AcDbLine
 10
10411.79164466985
 20
7840.627518329589
 30
0.0
 11
10417.54716225252
 21
7822.356667039104
 31
0.0
  0
LINE
  5
1820C
330
747D
100
AcDbEntity
  8
細線
100
AcDbLine
 10
10736.0767590274
 20
7861.356657816455
 30
0.0
 11
10670.73983560893
 21
7861.356657816441
 31
0.0
  0
LINE
  5
1820D
330
747D
100
AcDbEntity
  8
細線
100
AcDbLine
 10
10738.40830550359
 20
7856.356640262776
 30
0.0
 11
10736.0767590274
 21
7861.356657816455
 31
0.0
  0
LINE
  5
1820E
330
747D
100
AcDbEntity
  8
細線
100
AcDbLine
 10
10668.40829608713
 20
7856.356655176509
 30
0.0
 11
10670.73983560894
 21
7861.356657816471
 31
0.0
  0
LINE
  5
1820F
330
747D
100
AcDbEntity
  8
細線
100
AcDbLine
 10
10808.40828667067
 20
7856.356670090242
 30
0.0
 11
10810.73982619248
 21
7861.356672730204
 31
0.0
  0
LINE
  5
18210
330
747D
100
AcDbEntity
  8
細線
100
AcDbLine
 10
10878.40829608713
 20
7856.356655176509
 30
0.0
 11
10876.07674961094
 21
7861.35667273019
 31
0.0
  0
LINE
  5
18211
330
747D
100
AcDbEntity
  8
細線
100
AcDbLine
 10
10876.07674961094
 20
7861.35667273019
 30
0.0
 11
10810.73982619247
 21
7861.356672730174
 31
0.0
  0
LINE
  5
18212
330
747D
100
AcDbEntity
  8
細線
100
AcDbLine
 10
11016.07674961094
 20
7861.35667273019
 30
0.0
 11
10950.73982619247
 21
7861.356672730174
 31
0.0
  0
LINE
  5
18213
330
747D
100
AcDbEntity
  8
細線
100
AcDbLine
 10
11018.40829608713
 20
7856.356655176509
 30
0.0
 11
11016.07674961094
 21
7861.35667273019
 31
0.0
  0
LINE
  5
18214
330
747D
100
AcDbEntity
  8
細線
100
AcDbLine
 10
10948.40828667067
 20
7856.356670090242
 30
0.0
 11
10950.73982619248
 21
7861.356672730204
 31
0.0
  0
LINE
  5
18215
330
747D
100
AcDbEntity
  8
細線
 48
50.0
100
AcDbLine
 10
10058.90829608714
 20
7832.552909567413
 30
0.0
 11
9470.408296087134
 21
7832.552909567408
 31
0.0
  0
LINE
  5
18216
330
747D
100
AcDbEntity
  8
細線
 48
50.0
100
AcDbLine
 10
10099.90829608713
 20
7803.148001571159
 30
0.0
 11
11126.40829608713
 21
7803.148001571158
 31
0.0
  0
LINE
  5
18217
330
747D
100
AcDbEntity
  8
細線
 48
50.0
100
AcDbLine
 10
10591.90830123804
 20
7836.856770125234
 30
0.0
 11
11126.40829608713
 21
7836.856770125234
 31
0.0
  0
LINE
  5
18218
330
747D
100
AcDbEntity
  8
寸法
 48
50.0
100
AcDbLine
 10
10042.90911506553
 20
7671.615363230708
 30
0.0
 11
10262.06105524125
 21
7671.615363230708
 31
0.0
  0
LINE
  5
18219
330
747D
100
AcDbEntity
  8
寸法
 48
50.0
100
AcDbLine
 10
10262.06105524125
 20
7671.615363230708
 30
0.0
 11
10172.77683664583
 21
7695.538997500195
 31
0.0
  0
LINE
  5
1821A
330
747D
100
AcDbEntity
  8
寸法
 48
50.0
100
AcDbLine
 10
10172.77683664583
 20
7695.538997500195
 30
0.0
 11
10172.77683664583
 21
7641.875362918405
 31
0.0
  0
LINE
  5
1821B
330
747D
100
AcDbEntity
  8
寸法
 48
50.0
100
AcDbLine
 10
9842.205294458876
 20
7638.393406745372
 30
0.0
 11
9893.611302368981
 21
7638.393406745372
 31
0.0
  0
LINE
  5
1821C
330
747D
100
AcDbEntity
  8
寸法
 48
50.0
100
AcDbLine
 10
9893.611302368981
 20
7638.393406745372
 30
0.0
 11
9893.611302368981
 21
7669.703565397537
 31
0.0
  0
LINE
  5
1821D
330
747D
100
AcDbEntity
  8
寸法
 48
50.0
100
AcDbLine
 10
9893.611302368981
 20
7669.703565397537
 30
0.0
 11
9923.372634360404
 21
7669.703565397537
 31
0.0
  0
LINE
  5
1821E
330
747D
100
AcDbEntity
  8
寸法
 48
50.0
100
AcDbLine
 10
9923.372634360404
 20
7669.703565397537
 30
0.0
 11
9867.908298413929
 21
7707.283016326148
 31
0.0
  0
LINE
  5
1821F
330
747D
100
AcDbEntity
  8
寸法
 48
50.0
100
AcDbLine
 10
9812.443962467453
 20
7669.703565397537
 30
0.0
 11
9867.908298413929
 21
7707.283016326148
 31
0.0
  0
LINE
  5
18220
330
747D
100
AcDbEntity
  8
寸法
 48
50.0
100
AcDbLine
 10
9842.205294458876
 20
7669.703565397537
 30
0.0
 11
9812.443962467453
 21
7669.703565397537
 31
0.0
  0
LINE
  5
18221
330
747D
100
AcDbEntity
  8
寸法
 48
50.0
100
AcDbLine
 10
9842.205294458876
 20
7638.393406745372
 30
0.0
 11
9842.205294458876
 21
7669.703565397537
 31
0.0
  0
LINE
  5
18222
330
747D
100
AcDbEntity
  8
寸法
 48
50.0
100
AcDbLine
 10
9893.611302368981
 20
7638.393406745372
 30
0.0
 11
9842.205294458876
 21
7638.393406745372
 31
0.0
  0
DIMENSION
  5
1842C
330
747D
100
AcDbEntity
  8
寸法
 48
50.0
100
AcDbDimension
  2
*D31
 10
11165.40829608713
 20
6908.286385325765
 30
0.0
 11
10288.99004003895
 21
6908.286385325765
 31
0.0
 70
   160
 71
     5
 42
1734.0
  3
INABA_S40G
100
AcDbAlignedDimension
 13
9431.408296087134
 23
7783.356655176546
 33
0.0
 14
11165.40829608713
 24
7783.356655176543
 34
0.0
100
AcDbRotatedDimension
1001
ACAD
1000
DSTYLE
1002
{
1070
   341
1005
0
1002
}
  0
DIMENSION
  5
1842D
330
747D
100
AcDbEntity
  8
寸法
100
AcDbDimension
  2
*D32
 10
9108.797050460447
 20
7785.356655176539
 30
0.0
 11
9108.797050460445
 21
7644.871373802302
 31
0.0
 70
   160
 71
     5
 42
75.0
  3
INABA_S40
100
AcDbAlignedDimension
 13
9403.408296087164
 23
7860.35665517654
 33
0.0
 14
9431.408296087141
 24
7785.356655176539
 34
0.0
 50
90.0
100
AcDbRotatedDimension
1001
ACAD
1000
DSTYLE
1002
{
1070
    41
1040
0.5
1070
    44
1040
1.0
1070
   147
1040
0.8
1070
   271
1070
     2
1070
   272
1070
     2
1070
   289
1070
     3
1070
   340
1005
F706
1070
   343
1005
16736
1070
   344
1005
16736
1002
}
  0
LINE
  5
184D1
330
747D
100
AcDbEntity
  8
部品1
100
AcDbLine
 10
10680.14362920138
 20
6389.280520789274
 30
0.0
 11
9916.672962972944
 21
6389.280520789274
 31
0.0
  0
LINE
  5
184D2
330
747D
100
AcDbEntity
  8
部品1
100
AcDbLine
 10
10680.14362920138
 20
6149.388199243741
 30
0.0
 11
10680.14362920138
 21
6389.280520789274
 31
0.0
  0
LINE
  5
184D3
330
747D
100
AcDbEntity
  8
部品1
100
AcDbLine
 10
9916.672962972944
 20
6149.388199243741
 30
0.0
 11
10680.14362920138
 21
6149.388199243741
 31
0.0
  0
LINE
  5
184D4
330
747D
100
AcDbEntity
  8
部品1
100
AcDbLine
 10
9916.672962972944
 20
6389.280520789274
 30
0.0
 11
9916.672962972944
 21
6149.388199243741
 31
0.0
  0
TEXT
  5
1850B
330
747D
100
AcDbEntity
  8
部品1
100
AcDbText
 10
10006.59257280198
 20
6196.386991570751
 30
0.0
 40
135.0
  1
平面図
  7
STYLE2
100
AcDbText
  0
DIMENSION
  5
1850C
330
747D
100
AcDbEntity
  8
寸法
100
AcDbDimension
  2
*D33
 10
11193.40829608714
 20
6668.528864431637
 30
0.0
 11
10286.55504641852
 21
6668.528864431637
 31
0.0
 70
   160
 71
     5
 42
1789.999999999982
  3
INABA_S40G
100
AcDbAlignedDimension
 13
9403.408296087164
 23
7860.35665517654
 33
0.0
 14
11193.40829608714
 24
7860.356655176669
 34
0.0
100
AcDbRotatedDimension
1001
ACAD
1000
DSTYLE
1002
{
1002
}
  0
LINE
  5
1872C
330
747D
100
AcDbEntity
  8
破線
 48
10.0
100
AcDbLine
 10
9459.908296087244
 20
8594.856655176597
 30
0.0
 11
10713.40829608731
 21
8594.856655176592
 31
0.0
  0
LINE
  5
1872D
330
747D
100
AcDbEntity
  8
破線
 48
10.0
100
AcDbLine
 10
9459.908296087242
 20
8644.856655176594
 30
0.0
 11
10713.40829608731
 21
8644.856655176596
 31
0.0
  0
LINE
  5
1872E
330
747D
100
AcDbEntity
  8
破線
 48
10.0
100
AcDbLine
 10
9459.90829608721
 20
9335.856655176595
 30
0.0
 11
10713.40829608726
 21
9335.856655176602
 31
0.0
  0
LINE
  5
1872F
330
747D
100
AcDbEntity
  8
破線
 48
10.0
100
AcDbLine
 10
9459.908296087212
 20
9285.856655176598
 30
0.0
 11
10713.40829608726
 21
9285.856655176592
 31
0.0
  0
LINE
  5
1873A
330
747D
100
AcDbEntity
  8
破線
 48
10.0
100
AcDbLine
 10
9483.408296087151
 20
8594.856655176597
 30
0.0
 11
9483.40829608716
 21
7940.356655176569
 31
0.0
  0
LWPOLYLINE
  5
18775
330
747D
100
AcDbEntity
  8
部品1
 48
50.0
100
AcDbPolyline
 90
        4
 70
     1
 43
0.0
 10
9530.458296087198
 20
3475.019359135845
 10
9533.358296087198
 20
3475.019359135845
 10
9533.358296087198
 20
3484.519359135845
 10
9530.458296087198
 20
3484.519359135845
  0
CIRCLE
  5
18776
330
747D
100
AcDbEntity
  8
部品1
 48
50.0
100
AcDbCircle
 10
9531.908296087198
 20
3479.769359135845
 30
0.0
 40
9.0
  0
ARC
  5
18777
330
747D
100
AcDbEntity
  8
細線
 48
50.0
100
AcDbCircle
 10
9531.908296087198
 20
3479.769359135845
 30
0.0
 40
4.0
100
AcDbArc
 50
111.2538091853132
 51
248.7461908146868
  0
ARC
  5
18778
330
747D
100
AcDbEntity
  8
細線
 48
50.0
100
AcDbCircle
 10
9531.908296087198
 20
3479.769359135845
 30
0.0
 40
17.5
100
AcDbArc
 50
306.4837370612677
 51
233.5162629387323
  0
LINE
  5
18779
330
747D
100
AcDbEntity
  8
細線
 48
50.0
100
AcDbLine
 10
9541.908296087195
 20
3455.910398554962
 30
0.0
 11
9541.908296087198
 21
3464.894884355203
 31
0.0
  0
LINE
  5
1877A
330
747D
100
AcDbEntity
  8
細線
 48
50.0
100
AcDbLine
 10
9521.908296087199
 20
3455.910398554964
 30
0.0
 11
9521.908296087199
 21
3464.8948843552
 31
0.0
  0
ARC
  5
1877B
330
747D
100
AcDbEntity
  8
細線
 48
50.0
100
AcDbCircle
 10
9531.908296087198
 20
3479.769359135845
 30
0.0
 40
26.5
100
AcDbArc
 50
249.3326835063939
 51
290.6673164933835
  0
ARC
  5
1877C
330
747D
100
AcDbEntity
  8
細線
 48
50.0
100
AcDbCircle
 10
9540.908296087192
 20
3455.910398554962
 30
0.0
 40
1.0
100
AcDbArc
 50
290.6673164936062
 51
359.9999999998958
  0
ARC
  5
1877D
330
747D
100
AcDbEntity
  8
細線
 48
50.0
100
AcDbCircle
 10
9522.9082960872
 20
3455.910398554964
 30
0.0
 40
1.0
100
AcDbArc
 50
180.0
 51
249.3326835066164
  0
ARC
  5
1877E
330
747D
100
AcDbEntity
  8
細線
 48
50.0
100
AcDbCircle
 10
9520.908296087197
 20
3464.8948843552
 30
0.0
 40
1.0
100
AcDbArc
 50
0.0
 51
53.51626293873231
  0
ARC
  5
1877F
330
747D
100
AcDbEntity
  8
細線
 48
50.0
100
AcDbCircle
 10
9542.908296087203
 20
3464.894884355203
 30
0.0
 40
1.0
100
AcDbArc
 50
126.4837370615127
 51
180.0
  0
ARC
  5
18780
330
747D
100
AcDbEntity
  8
細線
 48
50.0
100
AcDbCircle
 10
9531.908296087198
 20
3479.769359135845
 30
0.0
 40
21.5
100
AcDbArc
 50
255.8014401250294
 51
284.1985598749706
  0
ARC
  5
18781
330
747D
100
AcDbEntity
  8
細線
 48
50.0
100
AcDbCircle
 10
9531.908296087198
 20
3479.769359135845
 30
0.0
 40
16.5
100
AcDbArc
 50
251.9694646069326
 51
288.0305353930674
  0
LINE
  5
18782
330
747D
100
AcDbEntity
  8
細線
 48
50.0
100
AcDbLine
 10
9537.408296087198
 20
3459.216987010038
 30
0.0
 11
9537.408296087198
 21
3463.794378697375
 31
0.0
  0
LINE
  5
18783
330
747D
100
AcDbEntity
  8
細線
 48
50.0
100
AcDbLine
 10
9526.408296087199
 20
3459.216987010038
 30
0.0
 11
9526.408296087199
 21
3463.794378697373
 31
0.0
  0
ARC
  5
18784
330
747D
100
AcDbEntity
  8
細線
 48
50.0
100
AcDbCircle
 10
9526.708296087202
 20
3463.794378697373
 30
0.0
 40
0.3
100
AcDbArc
 50
71.96946460693259
 51
180.0
  0
ARC
  5
18785
330
747D
100
AcDbEntity
  8
細線
 48
50.0
100
AcDbCircle
 10
9537.108296087199
 20
3463.794378697375
 30
0.0
 40
0.3
100
AcDbArc
 50
0.0
 51
108.0305353930674
  0
ARC
  5
18786
330
747D
100
AcDbEntity
  8
細線
 48
50.0
100
AcDbCircle
 10
9537.108296087195
 20
3459.216987010038
 30
0.0
 40
0.3
100
AcDbArc
 50
284.1985598747622
 51
0.0000000001042204
  0
ARC
  5
18787
330
747D
100
AcDbEntity
  8
細線
 48
50.0
100
AcDbCircle
 10
9526.708296087202
 20
3459.216987010038
 30
0.0
 40
0.3
100
AcDbArc
 50
180.0
 51
255.8014401248081
  0
CIRCLE
  5
18788
330
747D
100
AcDbEntity
  8
細線
 48
50.0
100
AcDbCircle
 10
9531.908296087198
 20
3479.769359135845
 30
0.0
 40
12.0
  0
ARC
  5
18789
330
747D
100
AcDbEntity
  8
部品1
 48
50.0
100
AcDbCircle
 10
9531.908296087198
 20
3529.769359135844
 30
0.0
 40
8.5
100
AcDbArc
 50
114.315739171091
 51
245.684260828909
  0
CIRCLE
  5
1878A
330
747D
100
AcDbEntity
  8
細線
 48
50.0
100
AcDbCircle
 10
9531.908296087198
 20
3529.769359135844
 30
0.0
 40
4.5
  0
LWPOLYLINE
  5
1878B
330
747D
100
AcDbEntity
  8
部品1
 48
50.0
100
AcDbPolyline
 90
        2
 70
     0
 43
0.0
 10
9528.408296087198
 20
3548.444208532828
 10
9528.408296087198
 20
3537.51532582826
  0
CIRCLE
  5
1878C
330
747D
100
AcDbEntity
  8
部品1
 48
50.0
100
AcDbCircle
 10
9531.908296087198
 20
3529.769359135844
 30
0.0
 40
19.0
  0
LWPOLYLINE
  5
1878D
330
747D
100
AcDbEntity
  8
部品1
 48
50.0
100
AcDbPolyline
 90
        2
 70
     0
 43
0.0
 10
9528.408296087198
 20
3522.02339244343
 10
9528.408296087198
 20
3511.094509738863
  0
LWPOLYLINE
  5
1878E
330
747D
100
AcDbEntity
  8
部品1
 48
50.0
100
AcDbPolyline
 90
        2
 70
     0
 43
0.0
 10
9535.408296087199
 20
3537.51532582826
 10
9535.408296087199
 20
3548.444208532828
  0
ARC
  5
1878F
330
747D
100
AcDbEntity
  8
部品1
 48
50.0
100
AcDbCircle
 10
9531.908296087198
 20
3529.769359135844
 30
0.0
 40
8.5
100
AcDbArc
 50
294.315739171091
 51
65.68426082890896
  0
LWPOLYLINE
  5
18790
330
747D
100
AcDbEntity
  8
部品1
 48
50.0
100
AcDbPolyline
 90
        2
 70
     0
 43
0.0
 10
9535.408296087199
 20
3511.094509738863
 10
9535.408296087199
 20
3522.02339244343
  0
ARC
  5
18791
330
747D
100
AcDbEntity
  8
細線
 48
50.0
100
AcDbCircle
 10
9531.908296087198
 20
3529.769359135844
 30
0.0
 40
16.5
100
AcDbArc
 50
332.0012352654438
 51
27.99876473455621
  0
ARC
  5
18792
330
747D
100
AcDbEntity
  8
細線
 48
50.0
100
AcDbCircle
 10
9531.908296087198
 20
3529.769359135844
 30
0.0
 40
14.0
100
AcDbArc
 50
326.4074436112986
 51
33.59255638870134
  0
LINE
  5
18793
330
747D
100
AcDbEntity
  8
細線
 48
50.0
100
AcDbLine
 10
9517.339493802866
 20
3537.51532582826
 30
0.0
 11
9520.24639229751
 21
3537.51532582826
 31
0.0
  0
LINE
  5
18794
330
747D
100
AcDbEntity
  8
細線
 48
50.0
100
AcDbLine
 10
9517.339493802866
 20
3522.02339244343
 30
0.0
 11
9520.24639229751
 21
3522.02339244343
 31
0.0
  0
LINE
  5
18795
330
747D
100
AcDbEntity
  8
細線
 48
50.0
100
AcDbLine
 10
9543.570199876887
 20
3537.51532582826
 30
0.0
 11
9546.477098371534
 21
3537.51532582826
 31
0.0
  0
LINE
  5
18796
330
747D
100
AcDbEntity
  8
細線
 48
50.0
100
AcDbLine
 10
9543.570199876887
 20
3522.02339244343
 30
0.0
 11
9546.477098371534
 21
3522.02339244343
 31
0.0
  0
ARC
  5
18797
330
747D
100
AcDbEntity
  8
細線
 48
50.0
100
AcDbCircle
 10
9531.908296087198
 20
3529.769359135844
 30
0.0
 40
14.0
100
AcDbArc
 50
146.4074436112986
 51
213.5925563887013
  0
ARC
  5
18798
330
747D
100
AcDbEntity
  8
細線
 48
50.0
100
AcDbCircle
 10
9531.908296087198
 20
3529.769359135844
 30
0.0
 40
16.5
100
AcDbArc
 50
152.0012352654438
 51
207.9987647345562
  0
ARC
  5
18799
330
747D
100
AcDbEntity
  8
部品1
 48
50.0
100
AcDbCircle
 10
9505.408296087198
 20
3555.269359135845
 30
0.0
 40
5.0
100
AcDbArc
 50
90.0
 51
180.0
  0
ARC
  5
1879A
330
747D
100
AcDbEntity
  8
部品1
 48
50.0
100
AcDbCircle
 10
9505.408296087198
 20
3444.269359135845
 30
0.0
 40
5.0
100
AcDbArc
 50
180.0
 51
270.0
  0
ARC
  5
1879B
330
747D
100
AcDbEntity
  8
部品1
 48
50.0
100
AcDbCircle
 10
9558.408296087199
 20
3444.269359135845
 30
0.0
 40
5.0
100
AcDbArc
 50
270.0
 51
0.0
  0
ARC
  5
1879C
330
747D
100
AcDbEntity
  8
部品1
 48
50.0
100
AcDbCircle
 10
9558.408296087199
 20
3555.269359135845
 30
0.0
 40
5.0
100
AcDbArc
 50
0.0
 51
90.0
  0
LINE
  5
1879E
330
747D
100
AcDbEntity
  8
部品1
 48
50.0
100
AcDbLine
 10
9500.408296087199
 20
3444.269359135845
 30
0.0
 11
9500.408296087199
 21
3555.269359135845
 31
0.0
  0
LINE
  5
1879F
330
747D
100
AcDbEntity
  8
部品1
 48
50.0
100
AcDbLine
 10
9558.408296087199
 20
3439.269359135845
 30
0.0
 11
9505.408296087198
 21
3439.269359135845
 31
0.0
  0
LINE
  5
187A0
330
747D
100
AcDbEntity
  8
部品1
 48
50.0
100
AcDbLine
 10
9563.408296087198
 20
3555.269359135845
 30
0.0
 11
9563.408296087198
 21
3444.269359135845
 31
0.0
  0
ENDSEC
  0
SECTION
  2
OBJECTS
  0
DICTIONARY
  5
7471
330
0
100
AcDbDictionary
281
     1
  3
ACAD_COLOR
350
166AB
  3
ACAD_GROUP
350
7472
  3
ACAD_LAYOUT
350
166AC
  3
ACAD_MATERIAL
350
166AA
  3
ACAD_MLINESTYLE
350
7473
  3
ACAD_PLOTSETTINGS
350
166AD
  3
ACAD_PLOTSTYLENAME
350
166A8
  3
ACDBHEADERROUNDTRIPXREC
350
187BF
  3
AcDbVariableDictionary
350
187BB
  3
CONTENTDICTIONARY
350
E71C
  3
DRAWINGVARIABLESDICT
350
F3B9
  0
DICTIONARY
  5
16839
330
7467
100
AcDbDictionary
280
     1
281
     1
  3
ACAD_LAYERSTATES
360
1683A
  0
DICTIONARY
  5
166AB
102
{ACAD_REACTORS
330
7471
102
}
330
7471
100
AcDbDictionary
281
     1
  0
DICTIONARY
  5
7472
102
{ACAD_REACTORS
330
7471
102
}
330
7471
100
AcDbDictionary
281
     1
  0
DICTIONARY
  5
166AC
102
{ACAD_REACTORS
330
7471
102
}
330
7471
100
AcDbDictionary
281
     1
  3
Model
350
166AE
  3
レイアウト1
350
166AF
  0
DICTIONARY
  5
166AA
102
{ACAD_REACTORS
330
7471
102
}
330
7471
100
AcDbDictionary
281
     1
  0
DICTIONARY
  5
7473
102
{ACAD_REACTORS
330
7471
102
}
330
7471
100
AcDbDictionary
281
     1
  3
STANDARD
350
7480
  0
DICTIONARY
  5
166AD
102
{ACAD_REACTORS
330
7471
102
}
330
7471
100
AcDbDictionary
281
     1
  0
ACDBDICTIONARYWDFLT
  5
166A8
102
{ACAD_REACTORS
330
7471
102
}
330
7471
100
AcDbDictionary
281
     1
  3
Normal
350
166A9
100
AcDbDictionaryWithDefault
340
166A9
  0
DICTIONARY
  5
187BF
102
{ACAD_REACTORS
330
7471
102
}
330
7471
100
AcDbDictionary
281
     1
  3
COLORDICT
350
187C1
  3
MATERIALDICT
350
187C0
  0
DICTIONARY
  5
187BB
102
{ACAD_REACTORS
330
7471
102
}
330
7471
100
AcDbDictionary
281
     1
  3
DIMASSOC
350
187BC
  3
PROJECTNAME
350
187BD
  0
DICTIONARY
  5
E71C
102
{ACAD_REACTORS
330
7471
102
}
330
7471
100
AcDbDictionary
281
     1
  0
DICTIONARY
  5
F3B9
102
{ACAD_REACTORS
330
7471
102
}
330
7471
100
AcDbDictionary
281
     1
1001
DRAWINGVARIABLESXDATA
1000
POLARMODE
1000
1
  0
DICTIONARY
  5
1683A
102
{ACAD_REACTORS
330
16839
102
}
330
16839
100
AcDbDictionary
281
     1
  0
LAYOUT
  5
166AE
102
{ACAD_XDICTIONARY
360
187C2
102
}
102
{ACAD_REACTORS
330
166AC
102
}
330
166AC
100
AcDbPlotSettings
  1

  2
クセロPDF
  4
A3
  6

 40
3.174999952316284
 41
3.174999952316284
 42
3.17498779296875
 43
3.17498779296875
 44
419.9466552734374
 45
296.9259948730469
 46
0.0
 47
0.0
 48
3.619013395666115
 49
-4.192117100517862
140
820.022926294543
141
573.2392198881443
142
1.0
143
39.99735023620806
 70
 11952
 72
     1
 73
     0
 74
     2
  7
inaba.ctb
 75
     0
147
0.0250016562120842
148
25.79074261211281
149
125.8223078213959
100
AcDbLayout
  1
Model
 70
     1
 71
     0
 10
0.0
 20
0.0
 11
12.0
 21
9.0
 12
0.0
 22
0.0
 32
0.0
 14
0.0
 24
0.0
 34
0.0
 15
0.0
 25
0.0
 35
0.0
146
0.0
 13
0.0
 23
0.0
 33
0.0
 16
1.0
 26
0.0
 36
0.0
 17
0.0
 27
1.0
 37
0.0
 76
     0
330
747D
  0
LAYOUT
  5
166AF
102
{ACAD_XDICTIONARY
360
187C4
102
}
102
{ACAD_REACTORS
330
166AC
102
}
330
166AC
100
AcDbPlotSettings
  1

  2
Microsoft Office Document Image Writer
  4

  6

 40
0.0
 41
0.0
 42
0.0
 43
0.0
 44
0.0
 45
0.0
 46
0.0
 47
0.0
 48
0.0
 49
0.0
140
0.0
141
0.0
142
1.0
143
1.0
 70
   688
 72
     0
 73
     0
 74
     5
  7

 75
    16
147
1.0
148
0.0
149
0.0
100
AcDbLayout
  1
レイアウト1
 70
     0
 71
     1
 10
0.0
 20
0.0
 11
420.0
 21
297.0
 12
0.0
 22
0.0
 32
0.0
 14
1.000000000000000E+20
 24
1.000000000000000E+20
 34
1.000000000000000E+20
 15
-1.000000000000000E+20
 25
-1.000000000000000E+20
 35
-1.000000000000000E+20
146
0.0
 13
0.0
 23
0.0
 33
0.0
 16
1.0
 26
0.0
 36
0.0
 17
0.0
 27
1.0
 37
0.0
 76
     0
330
747A
  0
MLINESTYLE
  5
7480
102
{ACAD_REACTORS
330
7473
102
}
330
7473
100
AcDbMlineStyle
  2
STANDARD
 70
     0
  3

 62
     0
 51
90.0
 52
90.0
 71
     2
 49
0.5
 62
   256
  6
BYLAYER
 49
-0.5
 62
   256
  6
BYLAYER
  0
ACDBPLACEHOLDER
  5
166A9
102
{ACAD_REACTORS
330
166A8
102
}
330
166A8
  0
XRECORD
  5
187C1
102
{ACAD_REACTORS
330
187BF
102
}
330
187BF
100
AcDbXrecord
280
     1
340
166AB
  0
XRECORD
  5
187C0
102
{ACAD_REACTORS
330
187BF
102
}
330
187BF
100
AcDbXrecord
280
     1
340
166AA
  0
DICTIONARYVAR
  5
187BC
102
{ACAD_REACTORS
330
187BB
102
}
330
187BB
100
DictionaryVariables
280
     0
  1
1
  0
DICTIONARYVAR
  5
187BD
102
{ACAD_REACTORS
330
187BB
102
}
330
187BB
100
DictionaryVariables
280
     0
  1

  0
DICTIONARY
  5
187C2
330
166AE
100
AcDbDictionary
280
     1
281
     1
  3
ACAD_XREC_ROUNDTRIP
360
187C3
  0
DICTIONARY
  5
187C4
330
166AF
100
AcDbDictionary
280
     1
281
     1
  3
ACAD_XREC_ROUNDTRIP
360
187C5
  0
XRECORD
  5
187C3
102
{ACAD_REACTORS
330
187C2
102
}
330
187C2
100
AcDbXrecord
280
     1
102
SHADEPLOT
 70
     0
102
SHADEPLOTRESLEVEL
 70
     2
102
SHADEPLOTCUSTOMDPI
 70
   150
  0
XRECORD
  5
187C5
102
{ACAD_REACTORS
330
187C4
102
}
330
187C4
100
AcDbXrecord
280
     1
102
SHADEPLOT
 70
     0
102
SHADEPLOTRESLEVEL
 70
     2
102
SHADEPLOTCUSTOMDPI
 70
   300
  0
ENDSEC
  0
EOF
