  0
SECTION
  2
HEADER
  9
$ACADVER
  1
AC1015
  9
$ACADMAINTVER
 70
    20
  9
$DWGCODEPAGE
  3
ANSI_932
  9
$INSBASE
 10
0.0
 20
0.0
 30
0.0
  9
$EXTMIN
 10
139.9999999999995
 20
-0.0000000000000909
 30
0.0
  9
$EXTMAX
 10
16307.2
 20
11409.6
 30
0.0
  9
$LIMMIN
 10
-25.79074261211281
 20
-125.8223078213959
  9
$LIMMAX
 10
16471.10331197129
 20
11496.44801950658
  9
$ORTHOMODE
 70
     0
  9
$REGENMODE
 70
     1
  9
$FILLMODE
 70
     1
  9
$QTEXTMODE
 70
     0
  9
$MIRRTEXT
 70
     1
  9
$LTSCALE
 40
20.0
  9
$ATTMODE
 70
     1
  9
$TEXTSIZE
 40
4.0
  9
$TRACEWID
 40
1.0
  9
$TEXTSTYLE
  7
STYLE1
  9
$CLAYER
  8
部品1
  9
$CELTYPE
  6
BYLAYER
  9
$CECOLOR
 62
   256
  9
$CELTSCALE
 40
50.0
  9
$DISPSILH
 70
     0
  9
$DIMSCALE
 40
40.0
  9
$DIMASZ
 40
2.5
  9
$DIMEXO
 40
0.5
  9
$DIMDLI
 40
7.0
  9
$DIMRND
 40
0.0
  9
$DIMDLE
 40
0.0
  9
$DIMEXE
 40
1.5
  9
$DIMTP
 40
0.0
  9
$DIMTM
 40
0.0
  9
$DIMTXT
 40
3.0
  9
$DIMCEN
 40
0.0
  9
$DIMTSZ
 40
0.0
  9
$DIMTOL
 70
     0
  9
$DIMLIM
 70
     0
  9
$DIMTIH
 70
     0
  9
$DIMTOH
 70
     0
  9
$DIMSE1
 70
     0
  9
$DIMSE2
 70
     0
  9
$DIMTAD
 70
     3
  9
$DIMZIN
 70
     8
  9
$DIMBLK
  1

  9
$DIMASO
 70
     1
  9
$DIMSHO
 70
     1
  9
$DIMPOST
  1

  9
$DIMAPOST
  1

  9
$DIMALT
 70
     0
  9
$DIMALTD
 70
     2
  9
$DIMALTF
 40
0.0394
  9
$DIMLFAC
 40
1.0
  9
$DIMTOFL
 70
     1
  9
$DIMTVP
 40
0.0
  9
$DIMTIX
 70
     1
  9
$DIMSOXD
 70
     0
  9
$DIMSAH
 70
     1
  9
$DIMBLK1
  1
DOTSMALL
  9
$DIMBLK2
  1
DOTSMALL
  9
$DIMSTYLE
  2
INABA_S40G
  9
$DIMCLRD
 70
     0
  9
$DIMCLRE
 70
     0
  9
$DIMCLRT
 70
     7
  9
$DIMTFAC
 40
1.0
  9
$DIMGAP
 40
1.0
  9
$DIMJUST
 70
     0
  9
$DIMSD1
 70
     0
  9
$DIMSD2
 70
     0
  9
$DIMTOLJ
 70
     1
  9
$DIMTZIN
 70
     0
  9
$DIMALTZ
 70
     0
  9
$DIMALTTZ
 70
     0
  9
$DIMUPT
 70
     0
  9
$DIMDEC
 70
     1
  9
$DIMTDEC
 70
     4
  9
$DIMALTU
 70
     2
  9
$DIMALTTD
 70
     2
  9
$DIMTXSTY
  7
STYLE1
  9
$DIMAUNIT
 70
     0
  9
$DIMADEC
 70
     0
  9
$DIMALTRND
 40
0.0
  9
$DIMAZIN
 70
     0
  9
$DIMDSEP
 70
    46
  9
$DIMATFIT
 70
     3
  9
$DIMFRAC
 70
     0
  9
$DIMLDRBLK
  1

  9
$DIMLUNIT
 70
     2
  9
$DIMLWD
 70
    -2
  9
$DIMLWE
 70
    -2
  9
$DIMTMOVE
 70
     0
  9
$LUNITS
 70
     2
  9
$LUPREC
 70
     1
  9
$SKETCHINC
 40
1.0
  9
$FILLETRAD
 40
3.0
  9
$AUNITS
 70
     0
  9
$AUPREC
 70
     0
  9
$MENU
  1
acad
  9
$ELEVATION
 40
0.0
  9
$PELEVATION
 40
0.0
  9
$THICKNESS
 40
0.0
  9
$LIMCHECK
 70
     0
  9
$CHAMFERA
 40
0.0
  9
$CHAMFERB
 40
0.0
  9
$CHAMFERC
 40
0.0
  9
$CHAMFERD
 40
0.0
  9
$SKPOLY
 70
     0
  9
$TDCREATE
 40
2451368.612993866
  9
$TDUCREATE
 40
2451368.237993866
  9
$TDUPDATE
 40
2455575.682864398
  9
$TDUUPDATE
 40
2455575.307864398
  9
$TDINDWG
 40
0.4458707986
  9
$TDUSRTIMER
 40
0.4458707986
  9
$USRTIMER
 70
     1
  9
$ANGBASE
 50
0.0
  9
$ANGDIR
 70
     0
  9
$PDMODE
 70
     3
  9
$PDSIZE
 40
2.0
  9
$PLINEWID
 40
0.0
  9
$SPLFRAME
 70
     0
  9
$SPLINETYPE
 70
     6
  9
$SPLINESEGS
 70
     8
  9
$HANDSEED
  5
185F3
  9
$SURFTAB1
 70
     6
  9
$SURFTAB2
 70
     6
  9
$SURFTYPE
 70
     6
  9
$SURFU
 70
     6
  9
$SURFV
 70
     6
  9
$UCSBASE
  2

  9
$UCSNAME
  2

  9
$UCSORG
 10
0.0
 20
0.0
 30
0.0
  9
$UCSXDIR
 10
1.0
 20
0.0
 30
0.0
  9
$UCSYDIR
 10
0.0
 20
1.0
 30
0.0
  9
$UCSORTHOREF
  2

  9
$UCSORTHOVIEW
 70
     0
  9
$UCSORGTOP
 10
0.0
 20
0.0
 30
0.0
  9
$UCSORGBOTTOM
 10
0.0
 20
0.0
 30
0.0
  9
$UCSORGLEFT
 10
0.0
 20
0.0
 30
0.0
  9
$UCSORGRIGHT
 10
0.0
 20
0.0
 30
0.0
  9
$UCSORGFRONT
 10
0.0
 20
0.0
 30
0.0
  9
$UCSORGBACK
 10
0.0
 20
0.0
 30
0.0
  9
$PUCSBASE
  2

  9
$PUCSNAME
  2

  9
$PUCSORG
 10
0.0
 20
0.0
 30
0.0
  9
$PUCSXDIR
 10
1.0
 20
0.0
 30
0.0
  9
$PUCSYDIR
 10
0.0
 20
1.0
 30
0.0
  9
$PUCSORTHOREF
  2

  9
$PUCSORTHOVIEW
 70
     0
  9
$PUCSORGTOP
 10
0.0
 20
0.0
 30
0.0
  9
$PUCSORGBOTTOM
 10
0.0
 20
0.0
 30
0.0
  9
$PUCSORGLEFT
 10
0.0
 20
0.0
 30
0.0
  9
$PUCSORGRIGHT
 10
0.0
 20
0.0
 30
0.0
  9
$PUCSORGFRONT
 10
0.0
 20
0.0
 30
0.0
  9
$PUCSORGBACK
 10
0.0
 20
0.0
 30
0.0
  9
$USERI1
 70
     0
  9
$USERI2
 70
     0
  9
$USERI3
 70
     0
  9
$USERI4
 70
     0
  9
$USERI5
 70
     0
  9
$USERR1
 40
0.0
  9
$USERR2
 40
0.0
  9
$USERR3
 40
0.0
  9
$USERR4
 40
0.0
  9
$USERR5
 40
0.0
  9
$WORLDVIEW
 70
     1
  9
$SHADEDGE
 70
     3
  9
$SHADEDIF
 70
    70
  9
$TILEMODE
 70
     1
  9
$MAXACTVP
 70
    16
  9
$PINSBASE
 10
0.0
 20
0.0
 30
0.0
  9
$PLIMCHECK
 70
     0
  9
$PEXTMIN
 10
1.000000000000000E+20
 20
1.000000000000000E+20
 30
1.000000000000000E+20
  9
$PEXTMAX
 10
-1.000000000000000E+20
 20
-1.000000000000000E+20
 30
-1.000000000000000E+20
  9
$PLIMMIN
 10
0.0
 20
0.0
  9
$PLIMMAX
 10
420.0
 20
297.0
  9
$UNITMODE
 70
     0
  9
$VISRETAIN
 70
     0
  9
$PLINEGEN
 70
     0
  9
$PSLTSCALE
 70
     0
  9
$TREEDEPTH
 70
  3020
  9
$CMLSTYLE
  2
STANDARD
  9
$CMLJUST
 70
     0
  9
$CMLSCALE
 40
1.0
  9
$PROXYGRAPHICS
 70
     1
  9
$MEASUREMENT
 70
     1
  9
$CELWEIGHT
370
    -1
  9
$ENDCAPS
280
     0
  9
$JOINSTYLE
280
     0
  9
$LWDISPLAY
290
     0
  9
$INSUNITS
 70
     0
  9
$HYPERLINKBASE
  1

  9
$STYLESHEET
  1
inaba.ctb
  9
$XEDIT
290
     1
  9
$CEPSNTYPE
380
     0
  9
$PSTYLEMODE
290
     1
  9
$FINGERPRINTGUID
  2
{2D3E5D44-9188-402E-9E5D-39DB7C57C6B0}
  9
$VERSIONGUID
  2
{846164E1-0713-4F4A-9C32-8DF65EAF001A}
  9
$EXTNAMES
290
     1
  9
$PSVPSCALE
 40
0.0
  9
$OLESTARTUP
290
     0
  0
ENDSEC
  0
SECTION
  2
CLASSES
  0
CLASS
  1
ACDBDICTIONARYWDFLT
  2
AcDbDictionaryWithDefault
  3
ObjectDBX Classes
 90
        0
280
     0
281
     0
  0
CLASS
  1
DICTIONARYVAR
  2
AcDbDictionaryVar
  3
ObjectDBX Classes
 90
        0
280
     0
281
     0
  0
CLASS
  1
ACDBPLACEHOLDER
  2
AcDbPlaceHolder
  3
ObjectDBX Classes
 90
        0
280
     0
281
     0
  0
CLASS
  1
LAYOUT
  2
AcDbLayout
  3
ObjectDBX Classes
 90
        0
280
     0
281
     0
  0
ENDSEC
  0
SECTION
  2
TABLES
  0
TABLE
  2
VPORT
  5
746D
330
0
100
AcDbSymbolTable
 70
     2
  0
VPORT
  5
185EB
330
746D
100
AcDbSymbolTableRecord
100
AcDbViewportTableRecord
  2
*Active
 70
     0
 10
0.0
 20
0.0
 11
1.0
 21
1.0
 12
8223.761025238504
 22
5704.608037261908
 13
0.0
 23
0.0
 14
10.0
 24
10.0
 15
10.0
 25
10.0
 16
0.0
 26
0.0
 36
1.0
 17
0.0
 27
0.0
 37
0.0
 40
11495.08541324274
 41
1.525925925925925
 42
50.0
 43
0.0
 44
0.0
 50
0.0
 51
0.0
 71
     0
 72
     0
 73
     1
 74
     0
 75
     0
 76
     0
 77
     0
 78
     0
281
     0
 65
     1
110
0.0
120
0.0
130
0.0
111
1.0
121
0.0
131
0.0
112
0.0
122
1.0
132
0.0
 79
     0
146
0.0
  0
ENDTAB
  0
TABLE
  2
LTYPE
  5
746A
330
0
100
AcDbSymbolTable
 70
     4
  0
LTYPE
  5
7477
330
746A
100
AcDbSymbolTableRecord
100
AcDbLinetypeTableRecord
  2
BYBLOCK
 70
     0
  3

 72
    65
 73
     0
 40
0.0
  0
LTYPE
  5
7478
330
746A
100
AcDbSymbolTableRecord
100
AcDbLinetypeTableRecord
  2
BYLAYER
 70
     0
  3

 72
    65
 73
     0
 40
0.0
  0
LTYPE
  5
7479
330
746A
100
AcDbSymbolTableRecord
100
AcDbLinetypeTableRecord
  2
CONTINUOUS
 70
     0
  3
Solid line
 72
    65
 73
     0
 40
0.0
  0
LTYPE
  5
7816
330
746A
100
AcDbSymbolTableRecord
100
AcDbLinetypeTableRecord
  2
CENTER
 70
     0
  3
____ _ ____ _ ____ _ ____ _ ____ _ ____ _ ____ 
 72
    65
 73
     4
 40
2.0
 49
1.25
 74
     0
 49
-0.25
 74
     0
 49
0.25
 74
     0
 49
-0.25
 74
     0
  0
LTYPE
  5
781A
330
746A
100
AcDbSymbolTableRecord
100
AcDbLinetypeTableRecord
  2
HIDDEN
 70
     0
  3
__ __ __ __ __ __ __ __ __ __ __ __ __ __ __ __
 72
    65
 73
     2
 40
0.375
 49
0.25
 74
     0
 49
-0.125
 74
     0
  0
LTYPE
  5
781B
330
746A
100
AcDbSymbolTableRecord
100
AcDbLinetypeTableRecord
  2
PHANTOM
 70
     0
  3
______  __  __  ______  __  __  ______  __  __ 
 72
    65
 73
     6
 40
2.5
 49
1.25
 74
     0
 49
-0.25
 74
     0
 49
0.25
 74
     0
 49
-0.25
 74
     0
 49
0.25
 74
     0
 49
-0.25
 74
     0
  0
ENDTAB
  0
TABLE
  2
LAYER
  5
7467
102
{ACAD_XDICTIONARY
360
16B6E
102
}
330
0
100
AcDbSymbolTable
 70
    12
  0
LAYER
  5
7474
330
7467
100
AcDbSymbolTableRecord
100
AcDbLayerTableRecord
  2
0
 70
     0
 62
     7
  6
CONTINUOUS
370
    -3
390
169D2
  0
LAYER
  5
DEB2
330
7467
100
AcDbSymbolTableRecord
100
AcDbLayerTableRecord
  2
センター
 70
     0
 62
     3
  6
CENTER
370
    -3
390
169D2
  0
LAYER
  5
DEB3
330
7467
100
AcDbSymbolTableRecord
100
AcDbLayerTableRecord
  2
寸法
 70
     0
 62
     4
  6
CONTINUOUS
370
    -3
390
169D2
  0
LAYER
  5
DEB4
330
7467
100
AcDbSymbolTableRecord
100
AcDbLayerTableRecord
  2
部品1
 70
     0
 62
     7
  6
CONTINUOUS
370
    -3
390
169D2
  0
LAYER
  5
DEB5
330
7467
100
AcDbSymbolTableRecord
100
AcDbLayerTableRecord
  2
補助
 70
     0
 62
    -1
  6
CONTINUOUS
370
    -3
390
169D2
  0
LAYER
  5
DEB6
330
7467
100
AcDbSymbolTableRecord
100
AcDbLayerTableRecord
  2
文字
 70
     0
 62
     7
  6
CONTINUOUS
370
    -3
390
169D2
  0
LAYER
  5
F255
330
7467
100
AcDbSymbolTableRecord
100
AcDbLayerTableRecord
  2
DEFPOINTS
 70
     0
 62
     7
  6
CONTINUOUS
290
     0
370
    -3
390
169D2
  0
LAYER
  5
10B54
330
7467
100
AcDbSymbolTableRecord
100
AcDbLayerTableRecord
  2
仕様書枠
 70
     0
 62
   230
  6
CONTINUOUS
370
    -3
390
169D2
  0
LAYER
  5
11729
330
7467
100
AcDbSymbolTableRecord
100
AcDbLayerTableRecord
  2
Ｇ．Ｌ
 70
     0
 62
    30
  6
CONTINUOUS
370
    -3
390
169D2
  0
LAYER
  5
1173F
330
7467
100
AcDbSymbolTableRecord
100
AcDbLayerTableRecord
  2
細線
 70
     0
 62
     5
  6
CONTINUOUS
370
    -3
390
169D2
  0
LAYER
  5
12CC4
330
7467
100
AcDbSymbolTableRecord
100
AcDbLayerTableRecord
  2
想像線
 70
     0
 62
     6
  6
PHANTOM
370
    -3
390
169D2
  0
LAYER
  5
142E2
330
7467
100
AcDbSymbolTableRecord
100
AcDbLayerTableRecord
  2
破線
 70
     0
 62
     2
  6
HIDDEN
370
    -3
390
169D2
  0
ENDTAB
  0
TABLE
  2
STYLE
  5
7468
330
0
100
AcDbSymbolTable
 70
     4
  0
STYLE
  5
7475
330
7468
100
AcDbSymbolTableRecord
100
AcDbTextStyleTableRecord
  2
STANDARD
 70
     0
 40
0.0
 41
1.0
 50
0.0
 71
     0
 42
4.0
  3
txt
  4
C:\AutoCAD LT\bigfont.shx
  0
STYLE
  5
F706
330
7468
100
AcDbSymbolTableRecord
100
AcDbTextStyleTableRecord
  2
STYLE1
 70
     0
 40
0.0
 41
1.0
 50
0.0
 71
     0
 42
4.0
  3
isocp.shx
  4
bigfont.shx
  0
STYLE
  5
103BF
330
7468
100
AcDbSymbolTableRecord
100
AcDbTextStyleTableRecord
  2
STYLE2
 70
     0
 40
0.0
 41
1.0
 50
0.0
 71
     0
 42
100.0
  3
MS PGothic.ttf
  4

1001
ACAD
1000
MS PGothic
1071
    32818
  0
STYLE
  5
17550
330
7468
100
AcDbSymbolTableRecord
100
AcDbTextStyleTableRecord
  2
STYLE3
 70
     0
 40
0.0
 41
1.0
 50
0.0
 71
     0
 42
100.0
  3
DFPGothic-EB.ttf
  4

1001
ACAD
1000
DFPGothic-EB
1071
    32818
  0
ENDTAB
  0
TABLE
  2
VIEW
  5
746B
330
0
100
AcDbSymbolTable
 70
     0
  0
ENDTAB
  0
TABLE
  2
UCS
  5
746C
330
0
100
AcDbSymbolTable
 70
     0
  0
ENDTAB
  0
TABLE
  2
APPID
  5
746E
330
0
100
AcDbSymbolTable
 70
     6
  0
APPID
  5
7476
330
746E
100
AcDbSymbolTableRecord
100
AcDbRegAppTableRecord
  2
ACAD
 70
     0
  0
APPID
  5
DEA9
330
746E
100
AcDbSymbolTableRecord
100
AcDbRegAppTableRecord
  2
CONTENTBLOCKICON
 70
     0
  0
APPID
  5
DEAA
330
746E
100
AcDbSymbolTableRecord
100
AcDbRegAppTableRecord
  2
CONTENTBLOCKDESCRIPTION
 70
     0
  0
APPID
  5
E71D
330
746E
100
AcDbSymbolTableRecord
100
AcDbRegAppTableRecord
  2
CONTENTTABDATA
 70
     0
  0
APPID
  5
E71E
330
746E
100
AcDbSymbolTableRecord
100
AcDbRegAppTableRecord
  2
CONTENTCURRENTTAB
 70
     0
  0
APPID
  5
F3BA
330
746E
100
AcDbSymbolTableRecord
100
AcDbRegAppTableRecord
  2
DRAWINGVARIABLESXDATA
 70
     0
  0
ENDTAB
  0
TABLE
  2
DIMSTYLE
  5
746F
330
0
100
AcDbSymbolTable
 70
     5
100
AcDbDimStyleTable
 71
     1
340
F71F
  0
DIMSTYLE
105
7484
330
746F
100
AcDbSymbolTableRecord
100
AcDbDimStyleTableRecord
  2
JIS
 70
     0
 41
2.5
 42
1.0
 43
7.0
 44
1.0
 73
     0
 74
     0
 77
     1
 78
     8
140
2.5
141
0.0
143
0.0394
147
0.0
172
     1
174
     1
175
     1
340
7475
  0
DIMSTYLE
105
F71F
102
{ACAD_REACTORS
330
164B4
330
164B5
330
167C7
330
167C8
330
167C9
330
167CA
330
167CD
330
167CE
330
16846
330
16847
330
1684B
330
1685C
330
1685D
330
16EB4
330
16EB5
330
16EB6
330
16EB7
330
16EC3
330
16EC6
330
16EC7
330
16EC8
330
16F07
330
16F08
330
16F15
330
16F19
330
177DD
330
177DC
330
177DB
330
178B8
330
184F3
102
}
330
746F
100
AcDbSymbolTableRecord
100
AcDbDimStyleTableRecord
  2
INABA_S40G
 70
     0
 40
40.0
 41
2.5
 42
0.5
 43
7.0
 44
1.5
 73
     0
 74
     0
 77
     3
 78
     8
140
3.0
141
0.0
143
0.0394
147
1.0
172
     1
173
     1
174
     1
178
     7
271
     1
340
F706
341
F770
343
F770
344
F770
  0
DIMSTYLE
105
16B6D
102
{ACAD_REACTORS
330
17F06
330
18198
102
}
330
746F
100
AcDbSymbolTableRecord
100
AcDbDimStyleTableRecord
  2
INABA_S40
 70
     0
 40
40.0
 41
2.5
 42
0.5
 43
7.0
 44
1.5
 73
     0
 74
     0
 77
     3
 78
     8
140
3.0
141
0.0
143
0.0394
147
1.0
172
     1
173
     1
174
     1
175
     1
178
     7
340
7475
  0
DIMSTYLE
105
17551
330
746F
100
AcDbSymbolTableRecord
100
AcDbDimStyleTableRecord
  2
INABA_S50G
 70
     0
 41
125.0
 42
25.0
 43
7.0
 44
75.0
 73
     0
 74
     0
 77
     3
 78
     8
140
150.0
141
0.0
143
0.0394
147
25.0
172
     1
173
     1
174
     1
175
     1
178
     7
271
     1
340
F706
341
F770
343
F770
344
F770
  0
DIMSTYLE
105
18571
330
746F
100
AcDbSymbolTableRecord
100
AcDbDimStyleTableRecord
  2
INABA_S20G
 70
     0
 40
20.0
 41
2.5
 42
0.5
 43
7.0
 44
1.5
 73
     0
 74
     0
 77
     3
 78
     8
140
3.0
141
0.0
143
0.0394
147
1.0
172
     1
173
     1
174
     1
178
     7
271
     1
340
F706
341
F770
343
F770
344
F770
  0
ENDTAB
  0
TABLE
  2
BLOCK_RECORD
  5
7466
330
0
100
AcDbSymbolTable
 70
    34
  0
BLOCK_RECORD
  5
747D
330
7466
100
AcDbSymbolTableRecord
100
AcDbBlockTableRecord
  2
*MODEL_SPACE
340
169D7
  0
BLOCK_RECORD
  5
747A
330
7466
100
AcDbSymbolTableRecord
100
AcDbBlockTableRecord
  2
*PAPER_SPACE
340
169D8
  0
BLOCK_RECORD
  5
F770
330
7466
100
AcDbSymbolTableRecord
100
AcDbBlockTableRecord
  2
_DOTSMALL
340
0
102
{BLKREFS
331
1662F
331
16630
331
178A9
331
178AA
331
178E7
331
178E8
331
1791D
331
1791E
331
17926
331
17927
331
17939
331
1793A
331
179C8
331
179C9
331
179DB
331
179DC
331
179E5
331
179E6
331
179EE
331
179EF
331
179F9
331
179FA
331
17A02
331
17A03
331
17A0B
331
17A0C
331
17A14
331
17A15
331
17A1D
331
17A1E
331
17A27
331
17A28
331
17A32
331
17A33
331
17B4C
331
17B4D
331
1847B
331
1847C
331
18484
331
18485
331
1848F
331
18490
331
18498
331
18499
331
184AA
331
184AB
331
184BC
331
184BD
331
184C7
331
184C8
331
184D0
331
184D1
331
184DB
331
184DC
331
1853D
331
1853E
331
1854F
331
18550
331
18561
331
18562
102
}
  0
BLOCK_RECORD
  5
165D4
330
7466
100
AcDbSymbolTableRecord
100
AcDbBlockTableRecord
  2
*D1
340
0
  0
BLOCK_RECORD
  5
165E0
330
7466
100
AcDbSymbolTableRecord
100
AcDbBlockTableRecord
  2
*D2
340
0
  0
BLOCK_RECORD
  5
16871
330
7466
100
AcDbSymbolTableRecord
100
AcDbBlockTableRecord
  2
*D3
340
0
  0
BLOCK_RECORD
  5
1687F
330
7466
100
AcDbSymbolTableRecord
100
AcDbBlockTableRecord
  2
*D4
340
0
  0
BLOCK_RECORD
  5
1688B
330
7466
100
AcDbSymbolTableRecord
100
AcDbBlockTableRecord
  2
*D5
340
0
  0
BLOCK_RECORD
  5
16899
330
7466
100
AcDbSymbolTableRecord
100
AcDbBlockTableRecord
  2
*D6
340
0
  0
BLOCK_RECORD
  5
168A5
330
7466
100
AcDbSymbolTableRecord
100
AcDbBlockTableRecord
  2
*D7
340
0
  0
BLOCK_RECORD
  5
168B1
330
7466
100
AcDbSymbolTableRecord
100
AcDbBlockTableRecord
  2
*D8
340
0
  0
BLOCK_RECORD
  5
168C9
330
7466
100
AcDbSymbolTableRecord
100
AcDbBlockTableRecord
  2
*D9
340
0
  0
BLOCK_RECORD
  5
168D5
330
7466
100
AcDbSymbolTableRecord
100
AcDbBlockTableRecord
  2
*D10
340
0
  0
BLOCK_RECORD
  5
168E1
330
7466
100
AcDbSymbolTableRecord
100
AcDbBlockTableRecord
  2
*D11
340
0
  0
BLOCK_RECORD
  5
168EF
330
7466
100
AcDbSymbolTableRecord
100
AcDbBlockTableRecord
  2
*D12
340
0
  0
BLOCK_RECORD
  5
168FB
330
7466
100
AcDbSymbolTableRecord
100
AcDbBlockTableRecord
  2
*D13
340
0
  0
BLOCK_RECORD
  5
16A83
330
7466
100
AcDbSymbolTableRecord
100
AcDbBlockTableRecord
  2
_DOT
340
0
102
{BLKREFS
331
18465
331
18466
331
1852B
331
1852C
102
}
  0
BLOCK_RECORD
  5
17148
330
7466
100
AcDbSymbolTableRecord
100
AcDbBlockTableRecord
  2
*D15
340
0
  0
BLOCK_RECORD
  5
17156
330
7466
100
AcDbSymbolTableRecord
100
AcDbBlockTableRecord
  2
*D16
340
0
  0
BLOCK_RECORD
  5
17163
330
7466
100
AcDbSymbolTableRecord
100
AcDbBlockTableRecord
  2
*D17
340
0
  0
BLOCK_RECORD
  5
1716F
330
7466
100
AcDbSymbolTableRecord
100
AcDbBlockTableRecord
  2
*D18
340
0
  0
BLOCK_RECORD
  5
1717B
330
7466
100
AcDbSymbolTableRecord
100
AcDbBlockTableRecord
  2
*D19
340
0
  0
BLOCK_RECORD
  5
17187
330
7466
100
AcDbSymbolTableRecord
100
AcDbBlockTableRecord
  2
*D20
340
0
  0
BLOCK_RECORD
  5
17193
330
7466
100
AcDbSymbolTableRecord
100
AcDbBlockTableRecord
  2
*D21
340
0
  0
BLOCK_RECORD
  5
171A1
330
7466
100
AcDbSymbolTableRecord
100
AcDbBlockTableRecord
  2
*D22
340
0
  0
BLOCK_RECORD
  5
171AD
330
7466
100
AcDbSymbolTableRecord
100
AcDbBlockTableRecord
  2
*D23
340
0
  0
BLOCK_RECORD
  5
171BA
330
7466
100
AcDbSymbolTableRecord
100
AcDbBlockTableRecord
  2
*D24
340
0
  0
BLOCK_RECORD
  5
171C7
330
7466
100
AcDbSymbolTableRecord
100
AcDbBlockTableRecord
  2
*D25
340
0
  0
BLOCK_RECORD
  5
171D3
330
7466
100
AcDbSymbolTableRecord
100
AcDbBlockTableRecord
  2
*D26
340
0
  0
BLOCK_RECORD
  5
17875
330
7466
100
AcDbSymbolTableRecord
100
AcDbBlockTableRecord
  2
*D27
340
0
  0
BLOCK_RECORD
  5
17881
330
7466
100
AcDbSymbolTableRecord
100
AcDbBlockTableRecord
  2
*D28
340
0
  0
BLOCK_RECORD
  5
1788F
330
7466
100
AcDbSymbolTableRecord
100
AcDbBlockTableRecord
  2
*D29
340
0
  0
BLOCK_RECORD
  5
178D4
330
7466
100
AcDbSymbolTableRecord
100
AcDbBlockTableRecord
  2
*D30
340
0
  0
BLOCK_RECORD
  5
17F71
330
7466
100
AcDbSymbolTableRecord
100
AcDbBlockTableRecord
  2
*D31
340
0
  0
BLOCK_RECORD
  5
182AC
330
7466
100
AcDbSymbolTableRecord
100
AcDbBlockTableRecord
  2
*D32
340
0
  0
BLOCK_RECORD
  5
184F4
330
7466
100
AcDbSymbolTableRecord
100
AcDbBlockTableRecord
  2
*D33
340
0
  0
ENDTAB
  0
ENDSEC
  0
SECTION
  2
BLOCKS
  0
BLOCK
  5
7489
330
747D
100
AcDbEntity
  8
0
100
AcDbBlockBegin
  2
*MODEL_SPACE
 70
     0
 10
0.0
 20
0.0
 30
0.0
  3
*MODEL_SPACE
  1

  0
ENDBLK
  5
748A
330
747D
100
AcDbEntity
  8
0
100
AcDbBlockEnd
  0
BLOCK
  5
7487
330
747A
100
AcDbEntity
 67
     1
  8
0
100
AcDbBlockBegin
  2
*PAPER_SPACE
 70
     0
 10
0.0
 20
0.0
 30
0.0
  3
*PAPER_SPACE
  1

  0
ENDBLK
  5
7488
330
747A
100
AcDbEntity
 67
     1
  8
0
100
AcDbBlockEnd
  0
BLOCK
  5
F771
330
F770
100
AcDbEntity
  8
0
 48
50.0
100
AcDbBlockBegin
  2
_DOTSMALL
 70
     0
 10
0.0
 20
0.0
 30
0.0
  3
_DOTSMALL
  1

  0
LWPOLYLINE
  5
F772
330
F770
100
AcDbEntity
  8
0
  6
ByBlock
 62
     0
 48
50.0
100
AcDbPolyline
 90
        2
 70
     1
 43
0.5
 10
-0.0625
 20
0.0
 42
1.0
 10
0.0625
 20
0.0
 42
1.0
  0
ENDBLK
  5
F776
330
F770
100
AcDbEntity
  8
0
 48
50.0
100
AcDbBlockEnd
  0
BLOCK
  5
16671
330
165D4
100
AcDbEntity
  8
0
 48
50.0
100
AcDbBlockBegin
  2
*D1
 70
     1
 10
0.0
 20
0.0
 30
0.0
  3
*D1
  1

  0
LINE
  5
17936
330
165D4
100
AcDbEntity
  8
寸法
 62
     0
 48
50.0
370
    -2
100
AcDbLine
 10
8839.761265317413
 20
4480.931598713261
 30
0.0
 11
8018.377893098406
 21
4480.931598713261
 31
0.0
  0
LINE
  5
17937
330
165D4
100
AcDbEntity
  8
寸法
 62
     0
 48
50.0
370
    -2
100
AcDbLine
 10
8839.761265317413
 20
2755.931598713261
 30
0.0
 11
8018.377893098406
 21
2755.931598713261
 31
0.0
  0
LINE
  5
17938
330
165D4
100
AcDbEntity
  8
寸法
 62
     0
 48
50.0
370
    -2
100
AcDbLine
 10
8078.377893098405
 20
4480.931598713261
 30
0.0
 11
8078.377893098405
 21
2755.931598713261
 31
0.0
  0
INSERT
  5
17939
330
165D4
100
AcDbEntity
  8
寸法
 62
     0
 48
50.0
370
    -2
100
AcDbBlockReference
  2
_DOTSMALL
 10
8078.377893098405
 20
4480.931598713261
 30
0.0
 41
100.0
 42
100.0
 43
100.0
 50
90.0
  0
INSERT
  5
1793A
330
165D4
100
AcDbEntity
  8
寸法
 62
     0
 48
50.0
370
    -2
100
AcDbBlockReference
  2
_DOTSMALL
 10
8078.377893098405
 20
2755.931598713261
 30
0.0
 41
100.0
 42
100.0
 43
100.0
 50
270.0
  0
MTEXT
  5
1793B
330
165D4
100
AcDbEntity
  8
寸法
 62
     7
 48
50.0
100
AcDbMText
 10
7978.366082074782
 20
3612.880542915001
 30
0.0
 40
120.0
 41
0.0
 71
     5
 72
     1
  1
\A1;有効開口部高サ1725
  7
STYLE1
 11
0.0000000000000001
 21
1.0
 31
0.0
 73
     1
 44
1.0
1001
ACAD
1000
MTEXTBEGIN
1070
    73
1070
     1
1070
    44
1040
1.0
1070
    74
1070
     0
1000
MTEXTEND
  0
POINT
  5
1793C
330
165D4
100
AcDbEntity
  8
DEFPOINTS
 62
     0
 48
50.0
100
AcDbPoint
 10
8859.761265317413
 20
4480.931598713261
 30
0.0
  0
POINT
  5
1793D
330
165D4
100
AcDbEntity
  8
DEFPOINTS
 62
     0
 48
50.0
100
AcDbPoint
 10
8859.761265317413
 20
2755.931598713261
 30
0.0
  0
POINT
  5
1793E
330
165D4
100
AcDbEntity
  8
DEFPOINTS
 62
     0
 48
50.0
100
AcDbPoint
 10
8078.377893098405
 20
2755.931598713261
 30
0.0
  0
ENDBLK
  5
1667B
330
165D4
100
AcDbEntity
  8
0
 48
50.0
100
AcDbBlockEnd
  0
BLOCK
  5
1662B
330
165E0
100
AcDbEntity
  8
0
 48
50.0
100
AcDbBlockBegin
  2
*D2
 70
     1
 10
0.0
 20
0.0
 30
0.0
  3
*D2
  1

  0
LINE
  5
1662C
330
165E0
100
AcDbEntity
  8
0
  6
ByBlock
 62
     0
 48
50.0
100
AcDbLine
 10
8655.05459310402
 20
-4455.865518673578
 30
0.0
 11
8655.05459310402
 21
-4781.912847973956
 31
0.0
  0
LINE
  5
1662D
330
165E0
100
AcDbEntity
  8
0
  6
ByBlock
 62
     0
 48
50.0
100
AcDbLine
 10
8455.054593104017
 20
-4455.865518673578
 30
0.0
 11
8455.054593104017
 21
-4781.912847973956
 31
0.0
  0
LINE
  5
1662E
330
165E0
100
AcDbEntity
  8
0
  6
ByBlock
 62
     0
 48
50.0
100
AcDbLine
 10
8655.05459310402
 20
-4721.912847973956
 30
0.0
 11
8455.054593104017
 21
-4721.912847973956
 31
0.0
  0
INSERT
  5
1662F
330
165E0
100
AcDbEntity
  8
0
  6
ByBlock
 62
     0
 48
50.0
100
AcDbBlockReference
  2
_DOTSMALL
 10
8655.05459310402
 20
-4721.912847973956
 30
0.0
 41
100.0
 42
100.0
 43
100.0
  0
INSERT
  5
16630
330
165E0
100
AcDbEntity
  8
0
  6
ByBlock
 62
     0
 48
50.0
100
AcDbBlockReference
  2
_DOTSMALL
 10
8455.054593104017
 20
-4721.912847973956
 30
0.0
 41
100.0
 42
100.0
 43
100.0
 50
180.0
  0
MTEXT
  5
16631
330
165E0
100
AcDbEntity
  8
0
  6
ByBlock
 62
     7
 48
50.0
100
AcDbMText
 10
8555.054593104017
 20
-4621.901036950333
 30
0.0
 40
120.0
 41
0.0
 71
     5
 72
     1
  1
\A1;200
  7
STYLE1
 73
     1
 44
1.0
1001
ACAD
1000
MTEXTBEGIN
1070
    73
1070
     1
1070
    44
1040
1.0
1070
    74
1070
     0
1000
MTEXTEND
  0
POINT
  5
16632
330
165E0
100
AcDbEntity
  8
DEFPOINTS
  6
ByBlock
 62
     0
 48
50.0
100
AcDbPoint
 10
8655.05459310402
 20
-4435.865518673578
 30
0.0
  0
POINT
  5
16633
330
165E0
100
AcDbEntity
  8
DEFPOINTS
  6
ByBlock
 62
     0
 48
50.0
100
AcDbPoint
 10
8455.054593104017
 20
-4435.865518673578
 30
0.0
  0
POINT
  5
16634
330
165E0
100
AcDbEntity
  8
DEFPOINTS
  6
ByBlock
 62
     0
 48
50.0
100
AcDbPoint
 10
8455.054593104017
 20
-4721.912847973956
 30
0.0
  0
ENDBLK
  5
16635
330
165E0
100
AcDbEntity
  8
0
 48
50.0
100
AcDbBlockEnd
  0
BLOCK
  5
16916
330
16871
100
AcDbEntity
  8
0
 48
50.0
100
AcDbBlockBegin
  2
*D3
 70
     1
 10
0.0
 20
0.0
 30
0.0
  3
*D3
  1

  0
LINE
  5
184D6
330
16871
100
AcDbEntity
  8
寸法
 62
     0
 48
50.0
370
    -2
100
AcDbLine
 10
8411.761265317386
 20
9087.558842188366
 30
0.0
 11
8411.761265317386
 21
9427.558842188366
 31
0.0
  0
LINE
  5
184D7
330
16871
100
AcDbEntity
  8
寸法
 62
     0
 48
50.0
370
    -2
100
AcDbLine
 10
8466.761265317421
 20
9087.558842188366
 30
0.0
 11
8466.761265317421
 21
9427.558842188366
 31
0.0
  0
LINE
  5
184D8
330
16871
100
AcDbEntity
  8
寸法
 62
     0
 48
50.0
370
    -2
100
AcDbLine
 10
8466.761265317421
 20
9367.558842188365
 30
0.0
 11
8566.761265317422
 21
9367.558842188365
 31
0.0
  0
LINE
  5
184D9
330
16871
100
AcDbEntity
  8
寸法
 62
     0
 48
50.0
370
    -2
100
AcDbLine
 10
8411.761265317386
 20
9367.558842188365
 30
0.0
 11
7994.790702568909
 21
9367.558842188365
 31
0.0
  0
LINE
  5
184DA
330
16871
100
AcDbEntity
  8
寸法
 62
     0
 48
50.0
370
    -2
100
AcDbLine
 10
8466.761265317421
 20
9367.558842188365
 30
0.0
 11
8411.761265317386
 21
9367.558842188365
 31
0.0
  0
INSERT
  5
184DB
330
16871
100
AcDbEntity
  8
寸法
 62
     0
 48
50.0
370
    -2
100
AcDbBlockReference
  2
_DOTSMALL
 10
8466.761265317421
 20
9367.558842188365
 30
0.0
 41
100.0
 42
100.0
 43
100.0
 50
180.0
  0
INSERT
  5
184DC
330
16871
100
AcDbEntity
  8
寸法
 62
     0
 48
50.0
370
    -2
100
AcDbBlockReference
  2
_DOTSMALL
 10
8411.761265317386
 20
9367.558842188365
 30
0.0
 41
100.0
 42
100.0
 43
100.0
  0
MTEXT
  5
184DD
330
16871
100
AcDbEntity
  8
寸法
 62
     7
 48
50.0
100
AcDbMText
 10
8103.275983943147
 20
9467.558842188365
 30
0.0
 40
120.0
 41
0.0
 71
     5
 72
     1
  1
\A1;55
  7
STYLE1
 73
     1
 44
1.0
1001
ACAD
1000
MTEXTBEGIN
1070
    73
1070
     1
1070
    44
1040
1.0
1070
    74
1070
     0
1000
MTEXTEND
  0
POINT
  5
184DE
330
16871
100
AcDbEntity
  8
DEFPOINTS
 62
     0
 48
50.0
100
AcDbPoint
 10
8411.761265317386
 20
9067.558842188367
 30
0.0
  0
POINT
  5
184DF
330
16871
100
AcDbEntity
  8
DEFPOINTS
 62
     0
 48
50.0
100
AcDbPoint
 10
8466.761265317421
 20
9067.558842188367
 30
0.0
  0
POINT
  5
184E0
330
16871
100
AcDbEntity
  8
DEFPOINTS
 62
     0
 48
50.0
100
AcDbPoint
 10
8466.761265317421
 20
9367.558842188365
 30
0.0
  0
ENDBLK
  5
16922
330
16871
100
AcDbEntity
  8
0
 48
50.0
100
AcDbBlockEnd
  0
BLOCK
  5
16923
330
1687F
100
AcDbEntity
  8
0
 48
50.0
100
AcDbBlockBegin
  2
*D4
 70
     1
 10
0.0
 20
0.0
 30
0.0
  3
*D4
  1

  0
LINE
  5
184CD
330
1687F
100
AcDbEntity
  8
寸法
 62
     0
 48
50.0
370
    -2
100
AcDbLine
 10
8433.90228146873
 20
8567.558842188413
 30
0.0
 11
8337.450381935486
 21
8207.595452643815
 31
0.0
  0
LINE
  5
184CE
330
1687F
100
AcDbEntity
  8
寸法
 62
     0
 48
50.0
370
    -2
100
AcDbLine
 10
9706.902281468799
 20
8567.558842188406
 30
0.0
 11
9610.450381935557
 21
8207.595452643815
 31
0.0
  0
LINE
  5
184CF
330
1687F
100
AcDbEntity
  8
寸法
 62
     0
 48
50.0
370
    -2
100
AcDbLine
 10
8353.527333481352
 20
8267.595452643815
 30
0.0
 11
9626.527333481423
 21
8267.595452643815
 31
0.0
  0
INSERT
  5
184D0
330
1687F
100
AcDbEntity
  8
寸法
 62
     0
 48
50.0
370
    -2
100
AcDbBlockReference
  2
_DOTSMALL
 10
8353.527333481352
 20
8267.595452643815
 30
0.0
 41
100.0
 42
100.0
 43
100.0
 50
180.0
  0
INSERT
  5
184D1
330
1687F
100
AcDbEntity
  8
寸法
 62
     0
 48
50.0
370
    -2
100
AcDbBlockReference
  2
_DOTSMALL
 10
9626.527333481423
 20
8267.595452643815
 30
0.0
 41
100.0
 42
100.0
 43
100.0
  0
MTEXT
  5
184D2
330
1687F
100
AcDbEntity
  8
寸法
 62
     7
 48
50.0
100
AcDbMText
 10
8990.027333481389
 20
8367.607263667435
 30
0.0
 40
120.0
 41
0.0
 71
     5
 72
     1
  1
\A1;1273
  7
STYLE1
 73
     1
 44
1.0
1001
ACAD
1000
MTEXTBEGIN
1070
    73
1070
     1
1070
    44
1040
1.0
1070
    74
1070
     0
1000
MTEXTEND
  0
POINT
  5
184D3
330
1687F
100
AcDbEntity
  8
DEFPOINTS
 62
     0
 48
50.0
100
AcDbPoint
 10
8439.261265317353
 20
8587.558842188412
 30
0.0
  0
POINT
  5
184D4
330
1687F
100
AcDbEntity
  8
DEFPOINTS
 62
     0
 48
50.0
100
AcDbPoint
 10
9712.261265317422
 20
8587.558842188405
 30
0.0
  0
POINT
  5
184D5
330
1687F
100
AcDbEntity
  8
DEFPOINTS
 62
     0
 48
50.0
100
AcDbPoint
 10
9626.527333481423
 20
8267.595452643815
 30
0.0
  0
ENDBLK
  5
1692D
330
1687F
100
AcDbEntity
  8
0
 48
50.0
100
AcDbBlockEnd
  0
BLOCK
  5
1692E
330
1688B
100
AcDbEntity
  8
0
 48
50.0
100
AcDbBlockBegin
  2
*D5
 70
     1
 10
0.0
 20
0.0
 30
0.0
  3
*D5
  1

  0
LINE
  5
184C2
330
1688B
100
AcDbEntity
  8
寸法
 62
     0
 48
50.0
370
    -2
100
AcDbLine
 10
10986.76126531742
 20
9087.55884218846
 30
0.0
 11
10986.76126531742
 21
9427.558842188366
 31
0.0
  0
LINE
  5
184C3
330
1688B
100
AcDbEntity
  8
寸法
 62
     0
 48
50.0
370
    -2
100
AcDbLine
 10
11041.76126531742
 20
9087.55884218846
 30
0.0
 11
11041.76126531742
 21
9427.558842188366
 31
0.0
  0
LINE
  5
184C4
330
1688B
100
AcDbEntity
  8
寸法
 62
     0
 48
50.0
370
    -2
100
AcDbLine
 10
10986.76126531742
 20
9367.558842188365
 30
0.0
 11
10886.76126531742
 21
9367.558842188365
 31
0.0
  0
LINE
  5
184C5
330
1688B
100
AcDbEntity
  8
寸法
 62
     0
 48
50.0
370
    -2
100
AcDbLine
 10
11041.76126531742
 20
9367.558842188365
 30
0.0
 11
11458.7318280659
 21
9367.558842188365
 31
0.0
  0
LINE
  5
184C6
330
1688B
100
AcDbEntity
  8
寸法
 62
     0
 48
50.0
370
    -2
100
AcDbLine
 10
10986.76126531742
 20
9367.558842188365
 30
0.0
 11
11041.76126531742
 21
9367.558842188365
 31
0.0
  0
INSERT
  5
184C7
330
1688B
100
AcDbEntity
  8
寸法
 62
     0
 48
50.0
370
    -2
100
AcDbBlockReference
  2
_DOTSMALL
 10
10986.76126531742
 20
9367.558842188365
 30
0.0
 41
100.0
 42
100.0
 43
100.0
  0
INSERT
  5
184C8
330
1688B
100
AcDbEntity
  8
寸法
 62
     0
 48
50.0
370
    -2
100
AcDbBlockReference
  2
_DOTSMALL
 10
11041.76126531742
 20
9367.558842188365
 30
0.0
 41
100.0
 42
100.0
 43
100.0
 50
180.0
  0
MTEXT
  5
184C9
330
1688B
100
AcDbEntity
  8
寸法
 62
     7
 48
50.0
100
AcDbMText
 10
11350.24654669166
 20
9467.558842188365
 30
0.0
 40
120.0
 41
0.0
 71
     5
 72
     1
  1
\A1;55
  7
STYLE1
 73
     1
 44
1.0
1001
ACAD
1000
MTEXTBEGIN
1070
    73
1070
     1
1070
    44
1040
1.0
1070
    74
1070
     0
1000
MTEXTEND
  0
POINT
  5
184CA
330
1688B
100
AcDbEntity
  8
DEFPOINTS
 62
     0
 48
50.0
100
AcDbPoint
 10
10986.76126531742
 20
9067.558842188461
 30
0.0
  0
POINT
  5
184CB
330
1688B
100
AcDbEntity
  8
DEFPOINTS
 62
     0
 48
50.0
100
AcDbPoint
 10
11041.76126531742
 20
9067.558842188461
 30
0.0
  0
POINT
  5
184CC
330
1688B
100
AcDbEntity
  8
DEFPOINTS
 62
     0
 48
50.0
100
AcDbPoint
 10
11041.76126531742
 20
9367.558842188365
 30
0.0
  0
ENDBLK
  5
1693A
330
1688B
100
AcDbEntity
  8
0
 48
50.0
100
AcDbBlockEnd
  0
BLOCK
  5
1693B
330
16899
100
AcDbEntity
  8
0
 48
50.0
100
AcDbBlockBegin
  2
*D6
 70
     1
 10
0.0
 20
0.0
 30
0.0
  3
*D6
  1

  0
LINE
  5
184B9
330
16899
100
AcDbEntity
  8
寸法
 62
     0
 48
50.0
370
    -2
100
AcDbLine
 10
8466.761265317421
 20
9087.558842188366
 30
0.0
 11
8466.761265317421
 21
9427.558842188366
 31
0.0
  0
LINE
  5
184BA
330
16899
100
AcDbEntity
  8
寸法
 62
     0
 48
50.0
370
    -2
100
AcDbLine
 10
10986.76126531742
 20
9087.55884218846
 30
0.0
 11
10986.76126531742
 21
9427.558842188366
 31
0.0
  0
LINE
  5
184BB
330
16899
100
AcDbEntity
  8
寸法
 62
     0
 48
50.0
370
    -2
100
AcDbLine
 10
8466.761265317421
 20
9367.558842188365
 30
0.0
 11
10986.76126531742
 21
9367.558842188365
 31
0.0
  0
INSERT
  5
184BC
330
16899
100
AcDbEntity
  8
寸法
 62
     0
 48
50.0
370
    -2
100
AcDbBlockReference
  2
_DOTSMALL
 10
8466.761265317421
 20
9367.558842188365
 30
0.0
 41
100.0
 42
100.0
 43
100.0
 50
180.0
  0
INSERT
  5
184BD
330
16899
100
AcDbEntity
  8
寸法
 62
     0
 48
50.0
370
    -2
100
AcDbBlockReference
  2
_DOTSMALL
 10
10986.76126531742
 20
9367.558842188365
 30
0.0
 41
100.0
 42
100.0
 43
100.0
  0
MTEXT
  5
184BE
330
16899
100
AcDbEntity
  8
寸法
 62
     7
 48
50.0
100
AcDbMText
 10
9726.761265317419
 20
9467.570653211987
 30
0.0
 40
120.0
 41
0.0
 71
     5
 72
     1
  1
\A1;6X420=2520
  7
STYLE1
 73
     1
 44
1.0
1001
ACAD
1000
MTEXTBEGIN
1070
    73
1070
     1
1070
    44
1040
1.0
1070
    74
1070
     0
1000
MTEXTEND
  0
POINT
  5
184BF
330
16899
100
AcDbEntity
  8
DEFPOINTS
 62
     0
 48
50.0
100
AcDbPoint
 10
8466.761265317421
 20
9067.558842188367
 30
0.0
  0
POINT
  5
184C0
330
16899
100
AcDbEntity
  8
DEFPOINTS
 62
     0
 48
50.0
100
AcDbPoint
 10
10986.76126531742
 20
9067.558842188461
 30
0.0
  0
POINT
  5
184C1
330
16899
100
AcDbEntity
  8
DEFPOINTS
 62
     0
 48
50.0
100
AcDbPoint
 10
10986.76126531742
 20
9367.558842188365
 30
0.0
  0
ENDBLK
  5
16945
330
16899
100
AcDbEntity
  8
0
 48
50.0
100
AcDbBlockEnd
  0
BLOCK
  5
16946
330
168A5
100
AcDbEntity
  8
0
 48
50.0
100
AcDbBlockBegin
  2
*D7
 70
     1
 10
0.0
 20
0.0
 30
0.0
  3
*D7
  1

  0
LINE
  5
1855E
330
168A5
100
AcDbEntity
  8
寸法
 62
     0
 48
50.0
370
    -2
100
AcDbLine
 10
8411.761265317414
 20
7677.558842188287
 30
0.0
 11
8411.761265317414
 21
6356.361884907317
 31
0.0
  0
LINE
  5
1855F
330
168A5
100
AcDbEntity
  8
寸法
 62
     0
 48
50.0
370
    -2
100
AcDbLine
 10
11041.7612653174
 20
7677.55884218845
 30
0.0
 11
11041.7612653174
 21
6356.361884907317
 31
0.0
  0
LINE
  5
18560
330
168A5
100
AcDbEntity
  8
寸法
 62
     0
 48
50.0
370
    -2
100
AcDbLine
 10
8411.761265317414
 20
6416.361884907317
 30
0.0
 11
11041.7612653174
 21
6416.361884907317
 31
0.0
  0
INSERT
  5
18561
330
168A5
100
AcDbEntity
  8
寸法
 62
     0
 48
50.0
370
    -2
100
AcDbBlockReference
  2
_DOTSMALL
 10
8411.761265317414
 20
6416.361884907317
 30
0.0
 41
100.0
 42
100.0
 43
100.0
 50
180.0
  0
INSERT
  5
18562
330
168A5
100
AcDbEntity
  8
寸法
 62
     0
 48
50.0
370
    -2
100
AcDbBlockReference
  2
_DOTSMALL
 10
11041.7612653174
 20
6416.361884907317
 30
0.0
 41
100.0
 42
100.0
 43
100.0
  0
MTEXT
  5
18563
330
168A5
100
AcDbEntity
  8
寸法
 62
     7
 48
50.0
100
AcDbMText
 10
9711.200610019936
 20
6516.373695930939
 30
0.0
 40
120.0
 41
0.0
 71
     5
 72
     1
  1
\A1;2630
  7
STYLE1
 73
     1
 44
1.0
1001
ACAD
1000
MTEXTBEGIN
1070
    73
1070
     1
1070
    44
1040
1.0
1070
    74
1070
     0
1000
MTEXTEND
  0
POINT
  5
18564
330
168A5
100
AcDbEntity
  8
DEFPOINTS
 62
     0
 48
50.0
100
AcDbPoint
 10
8411.761265317414
 20
7697.558842188287
 30
0.0
  0
POINT
  5
18565
330
168A5
100
AcDbEntity
  8
DEFPOINTS
 62
     0
 48
50.0
100
AcDbPoint
 10
11041.7612653174
 20
7697.558842188451
 30
0.0
  0
POINT
  5
18566
330
168A5
100
AcDbEntity
  8
DEFPOINTS
 62
     0
 48
50.0
100
AcDbPoint
 10
11041.7612653174
 20
6416.361884907317
 30
0.0
  0
ENDBLK
  5
16950
330
168A5
100
AcDbEntity
  8
0
 48
50.0
100
AcDbBlockEnd
  0
BLOCK
  5
16951
330
168B1
100
AcDbEntity
  8
0
 48
50.0
100
AcDbBlockBegin
  2
*D8
 70
     1
 10
0.0
 20
0.0
 30
0.0
  3
*D8
  1

  0
LINE
  5
184A7
330
168B1
100
AcDbEntity
  8
寸法
 62
     0
 48
50.0
370
    -2
100
AcDbLine
 10
9733.9022814688
 20
8567.558842188471
 30
0.0
 11
9637.450381935538
 21
8207.595452643815
 31
0.0
  0
LINE
  5
184A8
330
168B1
100
AcDbEntity
  8
寸法
 62
     0
 48
50.0
370
    -2
100
AcDbLine
 10
11006.90228146881
 20
8567.558842188464
 30
0.0
 11
10910.45038193555
 21
8207.595452643815
 31
0.0
  0
LINE
  5
184A9
330
168B1
100
AcDbEntity
  8
寸法
 62
     0
 48
50.0
370
    -2
100
AcDbLine
 10
9653.527333481406
 20
8267.595452643815
 30
0.0
 11
10926.52733348142
 21
8267.595452643815
 31
0.0
  0
INSERT
  5
184AA
330
168B1
100
AcDbEntity
  8
寸法
 62
     0
 48
50.0
370
    -2
100
AcDbBlockReference
  2
_DOTSMALL
 10
9653.527333481406
 20
8267.595452643815
 30
0.0
 41
100.0
 42
100.0
 43
100.0
 50
180.0
  0
INSERT
  5
184AB
330
168B1
100
AcDbEntity
  8
寸法
 62
     0
 48
50.0
370
    -2
100
AcDbBlockReference
  2
_DOTSMALL
 10
10926.52733348142
 20
8267.595452643815
 30
0.0
 41
100.0
 42
100.0
 43
100.0
  0
MTEXT
  5
184AC
330
168B1
100
AcDbEntity
  8
寸法
 62
     7
 48
50.0
100
AcDbMText
 10
10359.64917263143
 20
8367.607263667435
 30
0.0
 40
120.0
 41
0.0
 71
     5
 72
     1
  1
\A1;1273
  7
STYLE1
 73
     1
 44
1.0
1001
ACAD
1000
MTEXTBEGIN
1070
    73
1070
     1
1070
    44
1040
1.0
1070
    74
1070
     0
1000
MTEXTEND
  0
POINT
  5
184AD
330
168B1
100
AcDbEntity
  8
DEFPOINTS
 62
     0
 48
50.0
100
AcDbPoint
 10
9739.261265317423
 20
8587.558842188471
 30
0.0
  0
POINT
  5
184AE
330
168B1
100
AcDbEntity
  8
DEFPOINTS
 62
     0
 48
50.0
100
AcDbPoint
 10
11012.26126531743
 20
8587.558842188464
 30
0.0
  0
POINT
  5
184AF
330
168B1
100
AcDbEntity
  8
DEFPOINTS
 62
     0
 48
50.0
100
AcDbPoint
 10
10926.52733348142
 20
8267.595452643815
 30
0.0
  0
ENDBLK
  5
1695B
330
168B1
100
AcDbEntity
  8
0
 48
50.0
100
AcDbBlockEnd
  0
BLOCK
  5
16967
330
168C9
100
AcDbEntity
  8
0
 48
50.0
100
AcDbBlockBegin
  2
*D9
 70
     1
 10
0.0
 20
0.0
 30
0.0
  3
*D9
  1

  0
LINE
  5
1853A
330
168C9
100
AcDbEntity
  8
寸法
 62
     0
 48
50.0
370
    -2
100
AcDbLine
 10
11061.76126531742
 20
9067.558842188461
 30
0.0
 11
12068.32684175308
 21
9067.558842188461
 31
0.0
  0
LINE
  5
1853B
330
168C9
100
AcDbEntity
  8
寸法
 62
     0
 48
50.0
370
    -2
100
AcDbLine
 10
11061.7612653174
 20
7697.558842188451
 30
0.0
 11
12068.32684175308
 21
7697.558842188451
 31
0.0
  0
LINE
  5
1853C
330
168C9
100
AcDbEntity
  8
寸法
 62
     0
 48
50.0
370
    -2
100
AcDbLine
 10
12008.32684175308
 20
9067.558842188461
 30
0.0
 11
12008.32684175308
 21
7697.558842188451
 31
0.0
  0
INSERT
  5
1853D
330
168C9
100
AcDbEntity
  8
寸法
 62
     0
 48
50.0
370
    -2
100
AcDbBlockReference
  2
_DOTSMALL
 10
12008.32684175308
 20
9067.558842188461
 30
0.0
 41
100.0
 42
100.0
 43
100.0
 50
90.0
  0
INSERT
  5
1853E
330
168C9
100
AcDbEntity
  8
寸法
 62
     0
 48
50.0
370
    -2
100
AcDbBlockReference
  2
_DOTSMALL
 10
12008.32684175308
 20
7697.558842188451
 30
0.0
 41
100.0
 42
100.0
 43
100.0
 50
270.0
  0
MTEXT
  5
1853F
330
168C9
100
AcDbEntity
  8
寸法
 62
     7
 48
50.0
100
AcDbMText
 10
11908.32684175308
 20
8390.423263104008
 30
0.0
 40
120.0
 41
0.0
 71
     5
 72
     1
  1
\A1;1370
  7
STYLE1
 11
0.0000000000000001
 21
1.0
 31
0.0
 73
     1
 44
1.0
1001
ACAD
1000
MTEXTBEGIN
1070
    73
1070
     1
1070
    44
1040
1.0
1070
    74
1070
     0
1000
MTEXTEND
  0
POINT
  5
18540
330
168C9
100
AcDbEntity
  8
DEFPOINTS
 62
     0
 48
50.0
100
AcDbPoint
 10
11041.76126531742
 20
9067.558842188461
 30
0.0
  0
POINT
  5
18541
330
168C9
100
AcDbEntity
  8
DEFPOINTS
 62
     0
 48
50.0
100
AcDbPoint
 10
11041.7612653174
 20
7697.558842188451
 30
0.0
  0
POINT
  5
18542
330
168C9
100
AcDbEntity
  8
DEFPOINTS
 62
     0
 48
50.0
100
AcDbPoint
 10
12008.32684175308
 20
7697.558842188451
 30
0.0
  0
ENDBLK
  5
16971
330
168C9
100
AcDbEntity
  8
0
 48
50.0
100
AcDbBlockEnd
  0
BLOCK
  5
16972
330
168D5
100
AcDbEntity
  8
0
 48
50.0
100
AcDbBlockBegin
  2
*D10
 70
     1
 10
0.0
 20
0.0
 30
0.0
  3
*D10
  1

  0
LINE
  5
18495
330
168D5
100
AcDbEntity
  8
寸法
 62
     0
 48
50.0
370
    -2
100
AcDbLine
 10
11061.76126531742
 20
9012.558842188465
 30
0.0
 11
11801.76126531741
 21
9012.558842188465
 31
0.0
  0
LINE
  5
18496
330
168D5
100
AcDbEntity
  8
寸法
 62
     0
 48
50.0
370
    -2
100
AcDbLine
 10
11061.7612653174
 20
7752.558842188446
 30
0.0
 11
11801.76126531741
 21
7752.558842188446
 31
0.0
  0
LINE
  5
18497
330
168D5
100
AcDbEntity
  8
寸法
 62
     0
 48
50.0
370
    -2
100
AcDbLine
 10
11741.76126531741
 20
9012.558842188465
 30
0.0
 11
11741.76126531741
 21
7752.558842188446
 31
0.0
  0
INSERT
  5
18498
330
168D5
100
AcDbEntity
  8
寸法
 62
     0
 48
50.0
370
    -2
100
AcDbBlockReference
  2
_DOTSMALL
 10
11741.76126531741
 20
9012.558842188465
 30
0.0
 41
100.0
 42
100.0
 43
100.0
 50
90.0
  0
INSERT
  5
18499
330
168D5
100
AcDbEntity
  8
寸法
 62
     0
 48
50.0
370
    -2
100
AcDbBlockReference
  2
_DOTSMALL
 10
11741.76126531741
 20
7752.558842188446
 30
0.0
 41
100.0
 42
100.0
 43
100.0
 50
270.0
  0
MTEXT
  5
1849A
330
168D5
100
AcDbEntity
  8
寸法
 62
     7
 48
50.0
100
AcDbMText
 10
11641.74945429379
 20
8382.558842188457
 30
0.0
 40
120.0
 41
0.0
 71
     5
 72
     1
  1
\A1;3X420=1260
  7
STYLE1
 11
0.0000000000000001
 21
1.0
 31
0.0
 73
     1
 44
1.0
1001
ACAD
1000
MTEXTBEGIN
1070
    73
1070
     1
1070
    44
1040
1.0
1070
    74
1070
     0
1000
MTEXTEND
  0
POINT
  5
1849B
330
168D5
100
AcDbEntity
  8
DEFPOINTS
 62
     0
 48
50.0
100
AcDbPoint
 10
11041.76126531742
 20
9012.558842188465
 30
0.0
  0
POINT
  5
1849C
330
168D5
100
AcDbEntity
  8
DEFPOINTS
 62
     0
 48
50.0
100
AcDbPoint
 10
11041.7612653174
 20
7752.558842188446
 30
0.0
  0
POINT
  5
1849D
330
168D5
100
AcDbEntity
  8
DEFPOINTS
 62
     0
 48
50.0
100
AcDbPoint
 10
11741.76126531741
 20
7752.558842188446
 30
0.0
  0
ENDBLK
  5
1697C
330
168D5
100
AcDbEntity
  8
0
 48
50.0
100
AcDbBlockEnd
  0
BLOCK
  5
1697D
330
168E1
100
AcDbEntity
  8
0
 48
50.0
100
AcDbBlockBegin
  2
*D11
 70
     1
 10
0.0
 20
0.0
 30
0.0
  3
*D11
  1

  0
LINE
  5
1848A
330
168E1
100
AcDbEntity
  8
寸法
 62
     0
 48
50.0
370
    -2
100
AcDbLine
 10
11061.7612653174
 20
7752.558842188446
 30
0.0
 11
11801.7612653174
 21
7752.558842188446
 31
0.0
  0
LINE
  5
1848B
330
168E1
100
AcDbEntity
  8
寸法
 62
     0
 48
50.0
370
    -2
100
AcDbLine
 10
11061.7612653174
 20
7697.558842188451
 30
0.0
 11
11801.7612653174
 21
7697.558842188451
 31
0.0
  0
LINE
  5
1848C
330
168E1
100
AcDbEntity
  8
寸法
 62
     0
 48
50.0
370
    -2
100
AcDbLine
 10
11741.7612653174
 20
7752.558842188446
 30
0.0
 11
11741.7612653174
 21
7852.558842188447
 31
0.0
  0
LINE
  5
1848D
330
168E1
100
AcDbEntity
  8
寸法
 62
     0
 48
50.0
370
    -2
100
AcDbLine
 10
11741.7612653174
 20
7697.558842188451
 30
0.0
 11
11741.7612653174
 21
7280.588279439959
 31
0.0
  0
LINE
  5
1848E
330
168E1
100
AcDbEntity
  8
寸法
 62
     0
 48
50.0
370
    -2
100
AcDbLine
 10
11741.7612653174
 20
7752.558842188446
 30
0.0
 11
11741.7612653174
 21
7697.558842188451
 31
0.0
  0
INSERT
  5
1848F
330
168E1
100
AcDbEntity
  8
寸法
 62
     0
 48
50.0
370
    -2
100
AcDbBlockReference
  2
_DOTSMALL
 10
11741.7612653174
 20
7752.558842188446
 30
0.0
 41
100.0
 42
100.0
 43
100.0
 50
270.0
  0
INSERT
  5
18490
330
168E1
100
AcDbEntity
  8
寸法
 62
     0
 48
50.0
370
    -2
100
AcDbBlockReference
  2
_DOTSMALL
 10
11741.7612653174
 20
7697.558842188451
 30
0.0
 41
100.0
 42
100.0
 43
100.0
 50
90.0
  0
MTEXT
  5
18491
330
168E1
100
AcDbEntity
  8
寸法
 62
     7
 48
50.0
100
AcDbMText
 10
11641.76126531739
 20
7389.0735608142
 30
0.0
 40
120.0
 41
0.0
 71
     5
 72
     1
  1
\A1;55
  7
STYLE1
 11
0.0000000000000001
 21
1.0
 31
0.0
 73
     1
 44
1.0
1001
ACAD
1000
MTEXTBEGIN
1070
    73
1070
     1
1070
    44
1040
1.0
1070
    74
1070
     0
1000
MTEXTEND
  0
POINT
  5
18492
330
168E1
100
AcDbEntity
  8
DEFPOINTS
 62
     0
 48
50.0
100
AcDbPoint
 10
11041.7612653174
 20
7752.558842188446
 30
0.0
  0
POINT
  5
18493
330
168E1
100
AcDbEntity
  8
DEFPOINTS
 62
     0
 48
50.0
100
AcDbPoint
 10
11041.7612653174
 20
7697.558842188451
 30
0.0
  0
POINT
  5
18494
330
168E1
100
AcDbEntity
  8
DEFPOINTS
 62
     0
 48
50.0
100
AcDbPoint
 10
11741.7612653174
 20
7697.558842188451
 30
0.0
  0
ENDBLK
  5
16989
330
168E1
100
AcDbEntity
  8
0
 48
50.0
100
AcDbBlockEnd
  0
BLOCK
  5
1698A
330
168EF
100
AcDbEntity
  8
0
 48
50.0
100
AcDbBlockBegin
  2
*D12
 70
     1
 10
0.0
 20
0.0
 30
0.0
  3
*D12
  1

  0
LINE
  5
18481
330
168EF
100
AcDbEntity
  8
寸法
 62
     0
 48
50.0
370
    -2
100
AcDbLine
 10
11033.26126531742
 20
9032.199858339838
 30
0.0
 11
11501.76126531741
 21
8906.665661685858
 31
0.0
  0
LINE
  5
18482
330
168EF
100
AcDbEntity
  8
寸法
 62
     0
 48
50.0
370
    -2
100
AcDbLine
 10
11033.26126531742
 20
8582.199858339842
 30
0.0
 11
11501.76126531741
 21
8456.665661685862
 31
0.0
  0
LINE
  5
18483
330
168EF
100
AcDbEntity
  8
寸法
 62
     0
 48
50.0
370
    -2
100
AcDbLine
 10
11441.76126531741
 20
8922.742613231724
 30
0.0
 11
11441.76126531741
 21
8472.742613231728
 31
0.0
  0
INSERT
  5
18484
330
168EF
100
AcDbEntity
  8
寸法
 62
     0
 48
50.0
370
    -2
100
AcDbBlockReference
  2
_DOTSMALL
 10
11441.76126531741
 20
8922.742613231724
 30
0.0
 41
100.0
 42
100.0
 43
100.0
 50
90.0
  0
INSERT
  5
18485
330
168EF
100
AcDbEntity
  8
寸法
 62
     0
 48
50.0
370
    -2
100
AcDbBlockReference
  2
_DOTSMALL
 10
11441.76126531741
 20
8472.742613231728
 30
0.0
 41
100.0
 42
100.0
 43
100.0
 50
270.0
  0
MTEXT
  5
18486
330
168EF
100
AcDbEntity
  8
寸法
 62
     7
 48
50.0
100
AcDbMText
 10
11341.76126531741
 20
8697.742613231728
 30
0.0
 40
120.0
 41
0.0
 71
     5
 72
     1
  1
\A1;450
  7
STYLE1
 11
0.0000000000000001
 21
1.0
 31
0.0
 73
     1
 44
1.0
1001
ACAD
1000
MTEXTBEGIN
1070
    73
1070
     1
1070
    44
1040
1.0
1070
    74
1070
     0
1000
MTEXTEND
  0
POINT
  5
18487
330
168EF
100
AcDbEntity
  8
DEFPOINTS
 62
     0
 48
50.0
100
AcDbPoint
 10
11013.26126531742
 20
9037.55884218846
 30
0.0
  0
POINT
  5
18488
330
168EF
100
AcDbEntity
  8
DEFPOINTS
 62
     0
 48
50.0
100
AcDbPoint
 10
11013.26126531742
 20
8587.558842188464
 30
0.0
  0
POINT
  5
18489
330
168EF
100
AcDbEntity
  8
DEFPOINTS
 62
     0
 48
50.0
100
AcDbPoint
 10
11441.76126531741
 20
8472.742613231728
 30
0.0
  0
ENDBLK
  5
16994
330
168EF
100
AcDbEntity
  8
0
 48
50.0
100
AcDbBlockEnd
  0
BLOCK
  5
16995
330
168FB
100
AcDbEntity
  8
0
 48
50.0
100
AcDbBlockBegin
  2
*D13
 70
     1
 10
0.0
 20
0.0
 30
0.0
  3
*D13
  1

  0
LINE
  5
18476
330
168FB
100
AcDbEntity
  8
寸法
 62
     0
 48
50.0
370
    -2
100
AcDbLine
 10
11061.76126531742
 20
9067.558842188461
 30
0.0
 11
11801.76126531741
 21
9067.558842188461
 31
0.0
  0
LINE
  5
18477
330
168FB
100
AcDbEntity
  8
寸法
 62
     0
 48
50.0
370
    -2
100
AcDbLine
 10
11061.76126531742
 20
9012.558842188465
 30
0.0
 11
11801.76126531741
 21
9012.558842188465
 31
0.0
  0
LINE
  5
18478
330
168FB
100
AcDbEntity
  8
寸法
 62
     0
 48
50.0
370
    -2
100
AcDbLine
 10
11741.76126531741
 20
9012.558842188465
 30
0.0
 11
11741.76126531741
 21
8912.558842188465
 31
0.0
  0
LINE
  5
18479
330
168FB
100
AcDbEntity
  8
寸法
 62
     0
 48
50.0
370
    -2
100
AcDbLine
 10
11741.76126531741
 20
9067.558842188461
 30
0.0
 11
11741.76126531741
 21
9484.529404936937
 31
0.0
  0
LINE
  5
1847A
330
168FB
100
AcDbEntity
  8
寸法
 62
     0
 48
50.0
370
    -2
100
AcDbLine
 10
11741.76126531741
 20
9012.558842188465
 30
0.0
 11
11741.76126531741
 21
9067.558842188461
 31
0.0
  0
INSERT
  5
1847B
330
168FB
100
AcDbEntity
  8
寸法
 62
     0
 48
50.0
370
    -2
100
AcDbBlockReference
  2
_DOTSMALL
 10
11741.76126531741
 20
9012.558842188465
 30
0.0
 41
100.0
 42
100.0
 43
100.0
 50
90.0
  0
INSERT
  5
1847C
330
168FB
100
AcDbEntity
  8
寸法
 62
     0
 48
50.0
370
    -2
100
AcDbBlockReference
  2
_DOTSMALL
 10
11741.76126531741
 20
9067.558842188461
 30
0.0
 41
100.0
 42
100.0
 43
100.0
 50
270.0
  0
MTEXT
  5
1847D
330
168FB
100
AcDbEntity
  8
寸法
 62
     7
 48
50.0
100
AcDbMText
 10
11641.76126531741
 20
9376.044123562699
 30
0.0
 40
120.0
 41
0.0
 71
     5
 72
     1
  1
\A1;55
  7
STYLE1
 11
0.0000000000000001
 21
1.0
 31
0.0
 73
     1
 44
1.0
1001
ACAD
1000
MTEXTBEGIN
1070
    73
1070
     1
1070
    44
1040
1.0
1070
    74
1070
     0
1000
MTEXTEND
  0
POINT
  5
1847E
330
168FB
100
AcDbEntity
  8
DEFPOINTS
 62
     0
 48
50.0
100
AcDbPoint
 10
11041.76126531742
 20
9067.558842188461
 30
0.0
  0
POINT
  5
1847F
330
168FB
100
AcDbEntity
  8
DEFPOINTS
 62
     0
 48
50.0
100
AcDbPoint
 10
11041.76126531742
 20
9012.558842188465
 30
0.0
  0
POINT
  5
18480
330
168FB
100
AcDbEntity
  8
DEFPOINTS
 62
     0
 48
50.0
100
AcDbPoint
 10
11741.76126531741
 20
9012.558842188465
 30
0.0
  0
ENDBLK
  5
169A1
330
168FB
100
AcDbEntity
  8
0
 48
50.0
100
AcDbBlockEnd
  0
BLOCK
  5
16A84
330
16A83
100
AcDbEntity
  8
0
 48
50.0
100
AcDbBlockBegin
  2
_DOT
 70
     0
 10
0.0
 20
0.0
 30
0.0
  3
_DOT
  1

  0
LWPOLYLINE
  5
16A85
330
16A83
100
AcDbEntity
  8
0
  6
ByBlock
 62
     0
 48
50.0
100
AcDbPolyline
 90
        2
 70
     1
 43
0.5
 10
-0.25
 20
0.0
 42
1.0
 10
0.25
 20
0.0
 42
1.0
  0
LINE
  5
16A86
330
16A83
100
AcDbEntity
  8
0
  6
ByBlock
 62
     0
 48
50.0
100
AcDbLine
 10
-0.5
 20
0.0
 30
0.0
 11
-1.0
 21
0.0
 31
0.0
  0
ENDBLK
  5
16A87
330
16A83
100
AcDbEntity
  8
0
 48
50.0
100
AcDbBlockEnd
  0
BLOCK
  5
17154
330
17148
100
AcDbEntity
  8
0
 48
50.0
100
AcDbBlockBegin
  2
*D15
 70
     1
 10
0.0
 20
0.0
 30
0.0
  3
*D15
  1

  0
LINE
  5
17A2D
330
17148
100
AcDbEntity
  8
寸法
 62
     0
 48
50.0
370
    -2
100
AcDbLine
 10
5163.23863521961
 20
2747.931598713261
 30
0.0
 11
4499.585926061312
 21
2747.931598713261
 31
0.0
  0
LINE
  5
17A2E
330
17148
100
AcDbEntity
  8
寸法
 62
     0
 48
50.0
370
    -2
100
AcDbLine
 10
5108.238635219611
 20
2697.931598713261
 30
0.0
 11
4499.585926061312
 21
2697.931598713261
 31
0.0
  0
LINE
  5
17A2F
330
17148
100
AcDbEntity
  8
寸法
 62
     0
 48
50.0
370
    -2
100
AcDbLine
 10
4559.585926061312
 20
2747.931598713261
 30
0.0
 11
4559.585926061312
 21
2847.931598713261
 31
0.0
  0
LINE
  5
17A30
330
17148
100
AcDbEntity
  8
寸法
 62
     0
 48
50.0
370
    -2
100
AcDbLine
 10
4559.585926061312
 20
2697.931598713261
 30
0.0
 11
4559.585926061312
 21
2285.83711052428
 31
0.0
  0
LINE
  5
17A31
330
17148
100
AcDbEntity
  8
寸法
 62
     0
 48
50.0
370
    -2
100
AcDbLine
 10
4559.585926061312
 20
2747.931598713261
 30
0.0
 11
4559.585926061312
 21
2697.931598713261
 31
0.0
  0
INSERT
  5
17A32
330
17148
100
AcDbEntity
  8
寸法
 62
     0
 48
50.0
370
    -2
100
AcDbBlockReference
  2
_DOTSMALL
 10
4559.585926061312
 20
2747.931598713261
 30
0.0
 41
100.0
 42
100.0
 43
100.0
 50
270.0
  0
INSERT
  5
17A33
330
17148
100
AcDbEntity
  8
寸法
 62
     0
 48
50.0
370
    -2
100
AcDbBlockReference
  2
_DOTSMALL
 10
4559.585926061312
 20
2697.931598713261
 30
0.0
 41
100.0
 42
100.0
 43
100.0
 50
90.0
  0
MTEXT
  5
17A34
330
17148
100
AcDbEntity
  8
寸法
 62
     7
 48
50.0
100
AcDbMText
 10
4459.585926061311
 20
2391.884354618768
 30
0.0
 40
120.0
 41
0.0
 71
     5
 72
     1
  1
\A1;50
  7
STYLE1
 11
0.0000000000000001
 21
1.0
 31
0.0
 73
     1
 44
1.0
1001
ACAD
1000
MTEXTBEGIN
1070
    73
1070
     1
1070
    44
1040
1.0
1070
    74
1070
     0
1000
MTEXTEND
  0
POINT
  5
17A35
330
17148
100
AcDbEntity
  8
DEFPOINTS
 62
     0
 48
50.0
100
AcDbPoint
 10
5183.238635219611
 20
2747.931598713261
 30
0.0
  0
POINT
  5
17A36
330
17148
100
AcDbEntity
  8
DEFPOINTS
 62
     0
 48
50.0
100
AcDbPoint
 10
5128.238635219611
 20
2697.931598713261
 30
0.0
  0
POINT
  5
17A37
330
17148
100
AcDbEntity
  8
DEFPOINTS
 62
     0
 48
50.0
100
AcDbPoint
 10
4559.585926061312
 20
2697.931598713261
 30
0.0
  0
ENDBLK
  5
17155
330
17148
100
AcDbEntity
  8
0
 48
50.0
100
AcDbBlockEnd
  0
BLOCK
  5
17161
330
17156
100
AcDbEntity
  8
0
 48
50.0
100
AcDbBlockBegin
  2
*D16
 70
     1
 10
0.0
 20
0.0
 30
0.0
  3
*D16
  1

  0
LINE
  5
17A23
330
17156
100
AcDbEntity
  8
寸法
 62
     0
 48
50.0
370
    -2
100
AcDbLine
 10
5108.238635219611
 20
2697.931598713261
 30
0.0
 11
4214.599253290251
 21
2697.931598713261
 31
0.0
  0
LINE
  5
17A24
330
17156
100
AcDbEntity
  8
寸法
 62
     0
 48
50.0
370
    -2
100
AcDbLine
 10
4539.585926061311
 20
2597.931598713261
 30
0.0
 11
4214.599253290251
 21
2597.931598713261
 31
0.0
  0
LINE
  5
17A25
330
17156
100
AcDbEntity
  8
寸法
 62
     0
 48
50.0
370
    -2
100
AcDbLine
 10
4274.599253290251
 20
2697.931598713261
 30
0.0
 11
4274.599253290251
 21
2597.931598713261
 31
0.0
  0
LINE
  5
17A26
330
17156
100
AcDbEntity
  8
寸法
 62
     0
 48
50.0
370
    -2
100
AcDbLine
 10
4274.599253290251
 20
2597.931598713261
 30
0.0
 11
4274.599253290251
 21
2225.837110524279
 31
0.0
  0
INSERT
  5
17A27
330
17156
100
AcDbEntity
  8
寸法
 62
     0
 48
50.0
370
    -2
100
AcDbBlockReference
  2
_DOTSMALL
 10
4274.599253290251
 20
2697.931598713261
 30
0.0
 41
100.0
 42
100.0
 43
100.0
 50
90.0
  0
INSERT
  5
17A28
330
17156
100
AcDbEntity
  8
寸法
 62
     0
 48
50.0
370
    -2
100
AcDbBlockReference
  2
_DOTSMALL
 10
4274.599253290251
 20
2597.931598713261
 30
0.0
 41
100.0
 42
100.0
 43
100.0
 50
270.0
  0
MTEXT
  5
17A29
330
17156
100
AcDbEntity
  8
寸法
 62
     7
 48
50.0
100
AcDbMText
 10
4174.599253290249
 20
2361.884354618768
 30
0.0
 40
120.0
 41
0.0
 71
     5
 72
     1
  1
\A1;100
  7
STYLE1
 11
0.0000000000000001
 21
1.0
 31
0.0
 73
     1
 44
1.0
1001
ACAD
1000
MTEXTBEGIN
1070
    73
1070
     1
1070
    44
1040
1.0
1070
    74
1070
     0
1000
MTEXTEND
  0
POINT
  5
17A2A
330
17156
100
AcDbEntity
  8
DEFPOINTS
 62
     0
 48
50.0
100
AcDbPoint
 10
5128.238635219611
 20
2697.931598713261
 30
0.0
  0
POINT
  5
17A2B
330
17156
100
AcDbEntity
  8
DEFPOINTS
 62
     0
 48
50.0
100
AcDbPoint
 10
4559.585926061312
 20
2597.931598713261
 30
0.0
  0
POINT
  5
17A2C
330
17156
100
AcDbEntity
  8
DEFPOINTS
 62
     0
 48
50.0
100
AcDbPoint
 10
4274.599253290251
 20
2597.931598713261
 30
0.0
  0
ENDBLK
  5
17162
330
17156
100
AcDbEntity
  8
0
 48
50.0
100
AcDbBlockEnd
  0
BLOCK
  5
1716D
330
17163
100
AcDbEntity
  8
0
 48
50.0
100
AcDbBlockBegin
  2
*D17
 70
     1
 10
0.0
 20
0.0
 30
0.0
  3
*D17
  1

  0
LINE
  5
17A1A
330
17163
100
AcDbEntity
  8
寸法
 62
     0
 48
50.0
370
    -2
100
AcDbLine
 10
5163.23863521961
 20
2697.931598713261
 30
0.0
 11
4214.599253290251
 21
2697.931598713261
 31
0.0
  0
LINE
  5
17A1B
330
17163
100
AcDbEntity
  8
寸法
 62
     0
 48
50.0
370
    -2
100
AcDbLine
 10
5103.238635219611
 20
4772.931598713265
 30
0.0
 11
4214.599253290251
 21
4772.931598713265
 31
0.0
  0
LINE
  5
17A1C
330
17163
100
AcDbEntity
  8
寸法
 62
     0
 48
50.0
370
    -2
100
AcDbLine
 10
4274.599253290251
 20
2697.931598713261
 30
0.0
 11
4274.599253290251
 21
4772.931598713265
 31
0.0
  0
INSERT
  5
17A1D
330
17163
100
AcDbEntity
  8
寸法
 62
     0
 48
50.0
370
    -2
100
AcDbBlockReference
  2
_DOTSMALL
 10
4274.599253290251
 20
2697.931598713261
 30
0.0
 41
100.0
 42
100.0
 43
100.0
 50
270.0
  0
INSERT
  5
17A1E
330
17163
100
AcDbEntity
  8
寸法
 62
     0
 48
50.0
370
    -2
100
AcDbBlockReference
  2
_DOTSMALL
 10
4274.599253290251
 20
4772.931598713265
 30
0.0
 41
100.0
 42
100.0
 43
100.0
 50
90.0
  0
MTEXT
  5
17A1F
330
17163
100
AcDbEntity
  8
寸法
 62
     7
 48
50.0
100
AcDbMText
 10
4174.587442266628
 20
3692.137476206371
 30
0.0
 40
120.0
 41
0.0
 71
     5
 72
     1
  1
\A1;2075
  7
STYLE1
 11
0.0000000000000001
 21
1.0
 31
0.0
 73
     1
 44
1.0
1001
ACAD
1000
MTEXTBEGIN
1070
    73
1070
     1
1070
    44
1040
1.0
1070
    74
1070
     0
1000
MTEXTEND
  0
POINT
  5
17A20
330
17163
100
AcDbEntity
  8
DEFPOINTS
 62
     0
 48
50.0
100
AcDbPoint
 10
5183.238635219611
 20
2697.931598713261
 30
0.0
  0
POINT
  5
17A21
330
17163
100
AcDbEntity
  8
DEFPOINTS
 62
     0
 48
50.0
100
AcDbPoint
 10
5123.23863521961
 20
4772.931598713265
 30
0.0
  0
POINT
  5
17A22
330
17163
100
AcDbEntity
  8
DEFPOINTS
 62
     0
 48
50.0
100
AcDbPoint
 10
4274.599253290251
 20
4772.931598713265
 30
0.0
  0
ENDBLK
  5
1716E
330
17163
100
AcDbEntity
  8
0
 48
50.0
100
AcDbBlockEnd
  0
BLOCK
  5
17179
330
1716F
100
AcDbEntity
  8
0
 48
50.0
100
AcDbBlockBegin
  2
*D18
 70
     1
 10
0.0
 20
0.0
 30
0.0
  3
*D18
  1

  0
LINE
  5
17A11
330
1716F
100
AcDbEntity
  8
寸法
 62
     0
 48
50.0
370
    -2
100
AcDbLine
 10
5163.23863521961
 20
4537.93159871326
 30
0.0
 11
4499.585926061312
 21
4537.93159871326
 31
0.0
  0
LINE
  5
17A12
330
1716F
100
AcDbEntity
  8
寸法
 62
     0
 48
50.0
370
    -2
100
AcDbLine
 10
5163.23863521961
 20
2747.931598713261
 30
0.0
 11
4499.585926061312
 21
2747.931598713261
 31
0.0
  0
LINE
  5
17A13
330
1716F
100
AcDbEntity
  8
寸法
 62
     0
 48
50.0
370
    -2
100
AcDbLine
 10
4559.585926061312
 20
4537.93159871326
 30
0.0
 11
4559.585926061312
 21
2747.931598713261
 31
0.0
  0
INSERT
  5
17A14
330
1716F
100
AcDbEntity
  8
寸法
 62
     0
 48
50.0
370
    -2
100
AcDbBlockReference
  2
_DOTSMALL
 10
4559.585926061312
 20
4537.93159871326
 30
0.0
 41
100.0
 42
100.0
 43
100.0
 50
90.0
  0
INSERT
  5
17A15
330
1716F
100
AcDbEntity
  8
寸法
 62
     0
 48
50.0
370
    -2
100
AcDbBlockReference
  2
_DOTSMALL
 10
4559.585926061312
 20
2747.931598713261
 30
0.0
 41
100.0
 42
100.0
 43
100.0
 50
270.0
  0
MTEXT
  5
17A16
330
1716F
100
AcDbEntity
  8
寸法
 62
     7
 48
50.0
100
AcDbMText
 10
4459.585926061311
 20
3638.385897255218
 30
0.0
 40
120.0
 41
0.0
 71
     5
 72
     1
  1
\A1;1790
  7
STYLE1
 11
0.0000000000000001
 21
1.0
 31
0.0
 73
     1
 44
1.0
1001
ACAD
1000
MTEXTBEGIN
1070
    73
1070
     1
1070
    44
1040
1.0
1070
    74
1070
     0
1000
MTEXTEND
  0
POINT
  5
17A17
330
1716F
100
AcDbEntity
  8
DEFPOINTS
 62
     0
 48
50.0
100
AcDbPoint
 10
5183.238635219611
 20
4537.93159871326
 30
0.0
  0
POINT
  5
17A18
330
1716F
100
AcDbEntity
  8
DEFPOINTS
 62
     0
 48
50.0
100
AcDbPoint
 10
5183.238635219611
 20
2747.931598713261
 30
0.0
  0
POINT
  5
17A19
330
1716F
100
AcDbEntity
  8
DEFPOINTS
 62
     0
 48
50.0
100
AcDbPoint
 10
4559.585926061312
 20
2747.931598713261
 30
0.0
  0
ENDBLK
  5
1717A
330
1716F
100
AcDbEntity
  8
0
 48
50.0
100
AcDbBlockEnd
  0
BLOCK
  5
17185
330
1717B
100
AcDbEntity
  8
0
 48
50.0
100
AcDbBlockBegin
  2
*D19
 70
     1
 10
0.0
 20
0.0
 30
0.0
  3
*D19
  1

  0
LINE
  5
17A08
330
1717B
100
AcDbEntity
  8
寸法
 62
     0
 48
50.0
370
    -2
100
AcDbLine
 10
6650.238635219614
 20
2697.931598713261
 30
0.0
 11
7166.859644800256
 21
2697.931598713261
 31
0.0
  0
LINE
  5
17A09
330
1717B
100
AcDbEntity
  8
寸法
 62
     0
 48
50.0
370
    -2
100
AcDbLine
 10
6653.238635219612
 20
4717.931598713263
 30
0.0
 11
7166.859644800256
 21
4717.931598713263
 31
0.0
  0
LINE
  5
17A0A
330
1717B
100
AcDbEntity
  8
寸法
 62
     0
 48
50.0
370
    -2
100
AcDbLine
 10
7106.859644800255
 20
2697.931598713261
 30
0.0
 11
7106.859644800255
 21
4717.931598713263
 31
0.0
  0
INSERT
  5
17A0B
330
1717B
100
AcDbEntity
  8
寸法
 62
     0
 48
50.0
370
    -2
100
AcDbBlockReference
  2
_DOTSMALL
 10
7106.859644800255
 20
2697.931598713261
 30
0.0
 41
100.0
 42
100.0
 43
100.0
 50
270.0
  0
INSERT
  5
17A0C
330
1717B
100
AcDbEntity
  8
寸法
 62
     0
 48
50.0
370
    -2
100
AcDbBlockReference
  2
_DOTSMALL
 10
7106.859644800255
 20
4717.931598713263
 30
0.0
 41
100.0
 42
100.0
 43
100.0
 50
90.0
  0
MTEXT
  5
17A0D
330
1717B
100
AcDbEntity
  8
寸法
 62
     7
 48
50.0
100
AcDbMText
 10
7006.847833776634
 20
3716.887133405384
 30
0.0
 40
120.0
 41
0.0
 71
     5
 72
     1
  1
\A1;2020
  7
STYLE1
 11
0.0000000000000001
 21
1.0
 31
0.0
 73
     1
 44
1.0
1001
ACAD
1000
MTEXTBEGIN
1070
    73
1070
     1
1070
    44
1040
1.0
1070
    74
1070
     0
1000
MTEXTEND
  0
POINT
  5
17A0E
330
1717B
100
AcDbEntity
  8
DEFPOINTS
 62
     0
 48
50.0
100
AcDbPoint
 10
6630.238635219615
 20
2697.931598713261
 30
0.0
  0
POINT
  5
17A0F
330
1717B
100
AcDbEntity
  8
DEFPOINTS
 62
     0
 48
50.0
100
AcDbPoint
 10
6633.238635219611
 20
4717.931598713263
 30
0.0
  0
POINT
  5
17A10
330
1717B
100
AcDbEntity
  8
DEFPOINTS
 62
     0
 48
50.0
100
AcDbPoint
 10
7106.859644800255
 20
4717.931598713263
 30
0.0
  0
ENDBLK
  5
17186
330
1717B
100
AcDbEntity
  8
0
 48
50.0
100
AcDbBlockEnd
  0
BLOCK
  5
17191
330
17187
100
AcDbEntity
  8
0
 48
50.0
100
AcDbBlockBegin
  2
*D20
 70
     1
 10
0.0
 20
0.0
 30
0.0
  3
*D20
  1

  0
LINE
  5
179FF
330
17187
100
AcDbEntity
  8
寸法
 62
     0
 48
50.0
370
    -2
100
AcDbLine
 10
6553.238635219611
 20
4739.742278324914
 30
0.0
 11
6553.238635219611
 21
5231.589052292566
 31
0.0
  0
LINE
  5
17A00
330
17187
100
AcDbEntity
  8
寸法
 62
     0
 48
50.0
370
    -2
100
AcDbLine
 10
5183.238635219611
 20
4788.933216836237
 30
0.0
 11
5183.238635219611
 21
5231.589052292566
 31
0.0
  0
LINE
  5
17A01
330
17187
100
AcDbEntity
  8
寸法
 62
     0
 48
50.0
370
    -2
100
AcDbLine
 10
6553.238635219611
 20
5171.589052292565
 30
0.0
 11
5183.238635219611
 21
5171.589052292565
 31
0.0
  0
INSERT
  5
17A02
330
17187
100
AcDbEntity
  8
寸法
 62
     0
 48
50.0
370
    -2
100
AcDbBlockReference
  2
_DOTSMALL
 10
6553.238635219611
 20
5171.589052292565
 30
0.0
 41
100.0
 42
100.0
 43
100.0
  0
INSERT
  5
17A03
330
17187
100
AcDbEntity
  8
寸法
 62
     0
 48
50.0
370
    -2
100
AcDbBlockReference
  2
_DOTSMALL
 10
5183.238635219611
 20
5171.589052292565
 30
0.0
 41
100.0
 42
100.0
 43
100.0
 50
180.0
  0
MTEXT
  5
17A04
330
17187
100
AcDbEntity
  8
寸法
 62
     7
 48
50.0
100
AcDbMText
 10
5833.057668110157
 20
5271.589052292565
 30
0.0
 40
120.0
 41
0.0
 71
     5
 72
     1
  1
\A1;柱外寸法1370
  7
STYLE1
 73
     1
 44
1.0
1001
ACAD
1000
MTEXTBEGIN
1070
    73
1070
     1
1070
    44
1040
1.0
1070
    74
1070
     0
1000
MTEXTEND
  0
POINT
  5
17A05
330
17187
100
AcDbEntity
  8
DEFPOINTS
 62
     0
 48
50.0
100
AcDbPoint
 10
6553.238635219611
 20
4719.742278324915
 30
0.0
  0
POINT
  5
17A06
330
17187
100
AcDbEntity
  8
DEFPOINTS
 62
     0
 48
50.0
100
AcDbPoint
 10
5183.238635219611
 20
4768.933216836238
 30
0.0
  0
POINT
  5
17A07
330
17187
100
AcDbEntity
  8
DEFPOINTS
 62
     0
 48
50.0
100
AcDbPoint
 10
5183.238635219611
 20
5171.589052292565
 30
0.0
  0
ENDBLK
  5
17192
330
17187
100
AcDbEntity
  8
0
 48
50.0
100
AcDbBlockEnd
  0
BLOCK
  5
1719F
330
17193
100
AcDbEntity
  8
0
 48
50.0
100
AcDbBlockBegin
  2
*D21
 70
     1
 10
0.0
 20
0.0
 30
0.0
  3
*D21
  1

  0
LINE
  5
179F4
330
17193
100
AcDbEntity
  8
寸法
 62
     0
 48
50.0
370
    -2
100
AcDbLine
 10
5183.238635219611
 20
4788.933216836237
 30
0.0
 11
5183.238635219611
 21
5231.589052292566
 31
0.0
  0
LINE
  5
179F5
330
17193
100
AcDbEntity
  8
寸法
 62
     0
 48
50.0
370
    -2
100
AcDbLine
 10
5123.23863521961
 20
4792.931598713265
 30
0.0
 11
5123.23863521961
 21
5231.589052292566
 31
0.0
  0
LINE
  5
179F6
330
17193
100
AcDbEntity
  8
寸法
 62
     0
 48
50.0
370
    -2
100
AcDbLine
 10
5183.238635219611
 20
5171.589052292565
 30
0.0
 11
5283.238635219611
 21
5171.589052292565
 31
0.0
  0
LINE
  5
179F7
330
17193
100
AcDbEntity
  8
寸法
 62
     0
 48
50.0
370
    -2
100
AcDbLine
 10
5123.23863521961
 20
5171.589052292565
 30
0.0
 11
4703.963044668427
 21
5171.589052292565
 31
0.0
  0
LINE
  5
179F8
330
17193
100
AcDbEntity
  8
寸法
 62
     0
 48
50.0
370
    -2
100
AcDbLine
 10
5183.238635219611
 20
5171.589052292565
 30
0.0
 11
5123.23863521961
 21
5171.589052292565
 31
0.0
  0
INSERT
  5
179F9
330
17193
100
AcDbEntity
  8
寸法
 62
     0
 48
50.0
370
    -2
100
AcDbBlockReference
  2
_DOTSMALL
 10
5183.238635219611
 20
5171.589052292565
 30
0.0
 41
100.0
 42
100.0
 43
100.0
 50
180.0
  0
INSERT
  5
179FA
330
17193
100
AcDbEntity
  8
寸法
 62
     0
 48
50.0
370
    -2
100
AcDbBlockReference
  2
_DOTSMALL
 10
5123.23863521961
 20
5171.589052292565
 30
0.0
 41
100.0
 42
100.0
 43
100.0
  0
MTEXT
  5
179FB
330
17193
100
AcDbEntity
  8
寸法
 62
     7
 48
50.0
100
AcDbMText
 10
4813.600839944019
 20
5271.589052292565
 30
0.0
 40
120.0
 41
0.0
 71
     5
 72
     1
  1
\A1;60
  7
STYLE1
 73
     1
 44
1.0
1001
ACAD
1000
MTEXTBEGIN
1070
    73
1070
     1
1070
    44
1040
1.0
1070
    74
1070
     0
1000
MTEXTEND
  0
POINT
  5
179FC
330
17193
100
AcDbEntity
  8
DEFPOINTS
 62
     0
 48
50.0
100
AcDbPoint
 10
5183.238635219611
 20
4768.933216836238
 30
0.0
  0
POINT
  5
179FD
330
17193
100
AcDbEntity
  8
DEFPOINTS
 62
     0
 48
50.0
100
AcDbPoint
 10
5123.23863521961
 20
4772.931598713266
 30
0.0
  0
POINT
  5
179FE
330
17193
100
AcDbEntity
  8
DEFPOINTS
 62
     0
 48
50.0
100
AcDbPoint
 10
5123.23863521961
 20
5171.589052292565
 30
0.0
  0
ENDBLK
  5
171A0
330
17193
100
AcDbEntity
  8
0
 48
50.0
100
AcDbBlockEnd
  0
BLOCK
  5
171AB
330
171A1
100
AcDbEntity
  8
0
 48
50.0
100
AcDbBlockBegin
  2
*D22
 70
     1
 10
0.0
 20
0.0
 30
0.0
  3
*D22
  1

  0
LINE
  5
179EB
330
171A1
100
AcDbEntity
  8
寸法
 62
     0
 48
50.0
370
    -2
100
AcDbLine
 10
6633.238635219611
 20
4737.931598713262
 30
0.0
 11
6633.238635219611
 21
5439.763373484529
 31
0.0
  0
LINE
  5
179EC
330
171A1
100
AcDbEntity
  8
寸法
 62
     0
 48
50.0
370
    -2
100
AcDbLine
 10
5123.23863521961
 20
4792.931598713265
 30
0.0
 11
5123.23863521961
 21
5439.763373484529
 31
0.0
  0
LINE
  5
179ED
330
171A1
100
AcDbEntity
  8
寸法
 62
     0
 48
50.0
370
    -2
100
AcDbLine
 10
6633.238635219611
 20
5379.76337348453
 30
0.0
 11
5123.23863521961
 21
5379.76337348453
 31
0.0
  0
INSERT
  5
179EE
330
171A1
100
AcDbEntity
  8
寸法
 62
     0
 48
50.0
370
    -2
100
AcDbBlockReference
  2
_DOTSMALL
 10
6633.238635219611
 20
5379.76337348453
 30
0.0
 41
100.0
 42
100.0
 43
100.0
  0
INSERT
  5
179EF
330
171A1
100
AcDbEntity
  8
寸法
 62
     0
 48
50.0
370
    -2
100
AcDbBlockReference
  2
_DOTSMALL
 10
5123.23863521961
 20
5379.76337348453
 30
0.0
 41
100.0
 42
100.0
 43
100.0
 50
180.0
  0
MTEXT
  5
179F0
330
171A1
100
AcDbEntity
  8
寸法
 62
     7
 48
50.0
100
AcDbMText
 10
5850.363464921434
 20
5479.76337348453
 30
0.0
 40
120.0
 41
0.0
 71
     5
 72
     1
  1
\A1;1510
  7
STYLE1
 73
     1
 44
1.0
1001
ACAD
1000
MTEXTBEGIN
1070
    73
1070
     1
1070
    44
1040
1.0
1070
    74
1070
     0
1000
MTEXTEND
  0
POINT
  5
179F1
330
171A1
100
AcDbEntity
  8
DEFPOINTS
 62
     0
 48
50.0
100
AcDbPoint
 10
6633.238635219611
 20
4717.931598713263
 30
0.0
  0
POINT
  5
179F2
330
171A1
100
AcDbEntity
  8
DEFPOINTS
 62
     0
 48
50.0
100
AcDbPoint
 10
5123.23863521961
 20
4772.931598713266
 30
0.0
  0
POINT
  5
179F3
330
171A1
100
AcDbEntity
  8
DEFPOINTS
 62
     0
 48
50.0
100
AcDbPoint
 10
5123.23863521961
 20
5379.76337348453
 30
0.0
  0
ENDBLK
  5
171AC
330
171A1
100
AcDbEntity
  8
0
 48
50.0
100
AcDbBlockEnd
  0
BLOCK
  5
171B8
330
171AD
100
AcDbEntity
  8
0
 48
50.0
100
AcDbBlockBegin
  2
*D23
 70
     1
 10
0.0
 20
0.0
 30
0.0
  3
*D23
  1

  0
LINE
  5
179E1
330
171AD
100
AcDbEntity
  8
寸法
 62
     0
 48
50.0
370
    -2
100
AcDbLine
 10
6553.238635219611
 20
4739.742278324914
 30
0.0
 11
6553.238635219611
 21
5231.589052292566
 31
0.0
  0
LINE
  5
179E2
330
171AD
100
AcDbEntity
  8
寸法
 62
     0
 48
50.0
370
    -2
100
AcDbLine
 10
6633.238635219611
 20
4737.931598713262
 30
0.0
 11
6633.238635219611
 21
5231.589052292566
 31
0.0
  0
LINE
  5
179E3
330
171AD
100
AcDbEntity
  8
寸法
 62
     0
 48
50.0
370
    -2
100
AcDbLine
 10
6553.238635219611
 20
5171.589052292565
 30
0.0
 11
6633.238635219611
 21
5171.589052292565
 31
0.0
  0
LINE
  5
179E4
330
171AD
100
AcDbEntity
  8
寸法
 62
     0
 48
50.0
370
    -2
100
AcDbLine
 10
6633.238635219611
 20
5171.589052292565
 30
0.0
 11
6945.333123408587
 21
5171.589052292565
 31
0.0
  0
INSERT
  5
179E5
330
171AD
100
AcDbEntity
  8
寸法
 62
     0
 48
50.0
370
    -2
100
AcDbBlockReference
  2
_DOTSMALL
 10
6553.238635219611
 20
5171.589052292565
 30
0.0
 41
100.0
 42
100.0
 43
100.0
 50
180.0
  0
INSERT
  5
179E6
330
171AD
100
AcDbEntity
  8
寸法
 62
     0
 48
50.0
370
    -2
100
AcDbBlockReference
  2
_DOTSMALL
 10
6633.238635219611
 20
5171.589052292565
 30
0.0
 41
100.0
 42
100.0
 43
100.0
  0
MTEXT
  5
179E7
330
171AD
100
AcDbEntity
  8
寸法
 62
     7
 48
50.0
100
AcDbMText
 10
6839.2858793141
 20
5271.589052292565
 30
0.0
 40
120.0
 41
0.0
 71
     5
 72
     1
  1
\A1;80
  7
STYLE1
 73
     1
 44
1.0
1001
ACAD
1000
MTEXTBEGIN
1070
    73
1070
     1
1070
    44
1040
1.0
1070
    74
1070
     0
1000
MTEXTEND
  0
POINT
  5
179E8
330
171AD
100
AcDbEntity
  8
DEFPOINTS
 62
     0
 48
50.0
100
AcDbPoint
 10
6553.238635219611
 20
4719.742278324915
 30
0.0
  0
POINT
  5
179E9
330
171AD
100
AcDbEntity
  8
DEFPOINTS
 62
     0
 48
50.0
100
AcDbPoint
 10
6633.238635219611
 20
4717.931598713263
 30
0.0
  0
POINT
  5
179EA
330
171AD
100
AcDbEntity
  8
DEFPOINTS
 62
     0
 48
50.0
100
AcDbPoint
 10
6633.238635219611
 20
5171.589052292565
 30
0.0
  0
ENDBLK
  5
171B9
330
171AD
100
AcDbEntity
  8
0
 48
50.0
100
AcDbBlockEnd
  0
BLOCK
  5
171C5
330
171BA
100
AcDbEntity
  8
0
 48
50.0
100
AcDbBlockBegin
  2
*D24
 70
     1
 10
0.0
 20
0.0
 30
0.0
  3
*D24
  1

  0
LINE
  5
179D7
330
171BA
100
AcDbEntity
  8
寸法
 62
     0
 48
50.0
370
    -2
100
AcDbLine
 10
5118.595439907113
 20
4631.467210186738
 30
0.0
 11
4465.695269613095
 21
4656.118241426717
 31
0.0
  0
LINE
  5
179D8
330
171BA
100
AcDbEntity
  8
寸法
 62
     0
 48
50.0
370
    -2
100
AcDbLine
 10
5123.915274059067
 20
4772.366817583621
 30
0.0
 11
4471.015103764887
 21
4797.017848823605
 31
0.0
  0
LINE
  5
179D9
330
171BA
100
AcDbEntity
  8
寸法
 62
     0
 48
50.0
370
    -2
100
AcDbLine
 10
4525.652549356451
 20
4653.854482213188
 30
0.0
 11
4530.972383508244
 21
4794.754089610075
 31
0.0
  0
LINE
  5
179DA
330
171BA
100
AcDbEntity
  8
寸法
 62
     0
 48
50.0
370
    -2
100
AcDbLine
 10
4530.972383508244
 20
4794.754089610075
 30
0.0
 11
4544.554938789444
 21
5154.497768070912
 31
0.0
  0
INSERT
  5
179DB
330
171BA
100
AcDbEntity
  8
寸法
 62
     0
 48
50.0
370
    -2
100
AcDbBlockReference
  2
_DOTSMALL
 10
4525.652549356451
 20
4653.854482213188
 30
0.0
 41
100.0
 42
100.0
 43
100.0
 50
267.8377559871574
  0
INSERT
  5
179DC
330
171BA
100
AcDbEntity
  8
寸法
 62
     0
 48
50.0
370
    -2
100
AcDbBlockReference
  2
_DOTSMALL
 10
4530.972383508244
 20
4794.754089610075
 30
0.0
 41
100.0
 42
100.0
 43
100.0
 50
87.83775598715742
  0
MTEXT
  5
179DD
330
171BA
100
AcDbEntity
  8
寸法
 62
     7
 48
50.0
100
AcDbMText
 10
4439.721327587869
 20
5028.363260649521
 30
0.0
 40
120.0
 41
0.0
 71
     5
 72
     1
  1
\A1;141
  7
STYLE1
 11
0.0377293202254805
 21
0.9992879957226159
 31
0.0
 73
     1
 44
1.0
1001
ACAD
1000
MTEXTBEGIN
1070
    73
1070
     1
1070
    44
1040
1.0
1070
    74
1070
     0
1000
MTEXTEND
  0
POINT
  5
179DE
330
171BA
100
AcDbEntity
  8
DEFPOINTS
 62
     0
 48
50.0
100
AcDbPoint
 10
5138.581199821564
 20
4630.712623782229
 30
0.0
  0
POINT
  5
179DF
330
171BA
100
AcDbEntity
  8
DEFPOINTS
 62
     0
 48
50.0
100
AcDbPoint
 10
5143.901033973519
 20
4771.612231179111
 30
0.0
  0
POINT
  5
179E0
330
171BA
100
AcDbEntity
  8
DEFPOINTS
 62
     0
 48
50.0
100
AcDbPoint
 10
4530.972383508244
 20
4794.754089610075
 30
0.0
  0
ENDBLK
  5
171C6
330
171BA
100
AcDbEntity
  8
0
 48
50.0
100
AcDbBlockEnd
  0
BLOCK
  5
171D1
330
171C7
100
AcDbEntity
  8
0
 48
50.0
100
AcDbBlockBegin
  2
*D25
 70
     1
 10
0.0
 20
0.0
 30
0.0
  3
*D25
  1

  0
LINE
  5
17B48
330
171C7
100
AcDbEntity
  8
寸法
 62
     0
 48
50.0
370
    -2
100
AcDbLine
 10
5090.738635219612
 20
2397.93159871326
 30
0.0
 11
4901.238631972976
 21
2397.93159871326
 31
0.0
  0
LINE
  5
17B49
330
171C7
100
AcDbEntity
  8
寸法
 62
     0
 48
50.0
370
    -2
100
AcDbLine
 10
5065.738635219611
 20
2597.931598713261
 30
0.0
 11
4901.238631972976
 21
2597.931598713261
 31
0.0
  0
LINE
  5
17B4A
330
171C7
100
AcDbEntity
  8
寸法
 62
     0
 48
50.0
370
    -2
100
AcDbLine
 10
4961.238631972975
 20
2397.93159871326
 30
0.0
 11
4961.238631972975
 21
2597.931598713261
 31
0.0
  0
MTEXT
  5
17B4B
330
171C7
100
AcDbEntity
  8
寸法
 62
     7
 48
50.0
100
AcDbMText
 10
4831.438902822803
 20
2473.140053517051
 30
0.0
 40
120.0
 41
0.0
 71
     5
 72
     1
  1
\A1;200
  7
STYLE1
 11
0.0000000000000001
 21
1.0
 31
0.0
 73
     1
 44
1.0
1001
ACAD
1000
MTEXTBEGIN
1070
    73
1070
     1
1070
    44
1040
1.0
1070
    74
1070
     0
1000
MTEXTEND
  0
INSERT
  5
17B4C
330
171C7
100
AcDbEntity
  8
寸法
 62
     0
 48
50.0
370
    -2
100
AcDbBlockReference
  2
_DOTSMALL
 10
4961.238631972975
 20
2397.93159871326
 30
0.0
 41
100.0
 42
100.0
 43
100.0
 50
270.0
  0
INSERT
  5
17B4D
330
171C7
100
AcDbEntity
  8
寸法
 62
     0
 48
50.0
370
    -2
100
AcDbBlockReference
  2
_DOTSMALL
 10
4961.238631972975
 20
2597.931598713261
 30
0.0
 41
100.0
 42
100.0
 43
100.0
 50
90.0
  0
POINT
  5
17B4E
330
171C7
100
AcDbEntity
  8
DEFPOINTS
 62
     0
 48
50.0
100
AcDbPoint
 10
5110.738635219613
 20
2397.93159871326
 30
0.0
  0
POINT
  5
17B4F
330
171C7
100
AcDbEntity
  8
DEFPOINTS
 62
     0
 48
50.0
100
AcDbPoint
 10
5085.738635219611
 20
2597.931598713261
 30
0.0
  0
POINT
  5
17B50
330
171C7
100
AcDbEntity
  8
DEFPOINTS
 62
     0
 48
50.0
100
AcDbPoint
 10
4961.238631972975
 20
2597.931598713261
 30
0.0
  0
ENDBLK
  5
171D2
330
171C7
100
AcDbEntity
  8
0
 48
50.0
100
AcDbBlockEnd
  0
BLOCK
  5
171DD
330
171D3
100
AcDbEntity
  8
0
 48
50.0
100
AcDbBlockBegin
  2
*D26
 70
     1
 10
0.0
 20
0.0
 30
0.0
  3
*D26
  1

  0
LINE
  5
179C5
330
171D3
100
AcDbEntity
  8
寸法
 62
     0
 48
50.0
370
    -2
100
AcDbLine
 10
5310.738635219609
 20
2377.931598713259
 30
0.0
 11
5310.738635219609
 21
2051.884269412883
 31
0.0
  0
LINE
  5
179C6
330
171D3
100
AcDbEntity
  8
寸法
 62
     0
 48
50.0
370
    -2
100
AcDbLine
 10
5110.738635219613
 20
2377.93159871326
 30
0.0
 11
5110.738635219613
 21
2051.884269412883
 31
0.0
  0
LINE
  5
179C7
330
171D3
100
AcDbEntity
  8
寸法
 62
     0
 48
50.0
370
    -2
100
AcDbLine
 10
5310.738635219609
 20
2111.884269412883
 30
0.0
 11
5110.738635219613
 21
2111.884269412883
 31
0.0
  0
INSERT
  5
179C8
330
171D3
100
AcDbEntity
  8
寸法
 62
     0
 48
50.0
370
    -2
100
AcDbBlockReference
  2
_DOTSMALL
 10
5310.738635219609
 20
2111.884269412883
 30
0.0
 41
100.0
 42
100.0
 43
100.0
  0
INSERT
  5
179C9
330
171D3
100
AcDbEntity
  8
寸法
 62
     0
 48
50.0
370
    -2
100
AcDbBlockReference
  2
_DOTSMALL
 10
5110.738635219613
 20
2111.884269412883
 30
0.0
 41
100.0
 42
100.0
 43
100.0
 50
180.0
  0
MTEXT
  5
179CA
330
171D3
100
AcDbEntity
  8
寸法
 62
     7
 48
50.0
100
AcDbMText
 10
5210.738635219611
 20
2211.896080436505
 30
0.0
 40
120.0
 41
0.0
 71
     5
 72
     1
  1
\A1;200
  7
STYLE1
 73
     1
 44
1.0
1001
ACAD
1000
MTEXTBEGIN
1070
    73
1070
     1
1070
    44
1040
1.0
1070
    74
1070
     0
1000
MTEXTEND
  0
POINT
  5
179CB
330
171D3
100
AcDbEntity
  8
DEFPOINTS
 62
     0
 48
50.0
100
AcDbPoint
 10
5310.738635219609
 20
2397.931598713259
 30
0.0
  0
POINT
  5
179CC
330
171D3
100
AcDbEntity
  8
DEFPOINTS
 62
     0
 48
50.0
100
AcDbPoint
 10
5110.738635219613
 20
2397.93159871326
 30
0.0
  0
POINT
  5
179CD
330
171D3
100
AcDbEntity
  8
DEFPOINTS
 62
     0
 48
50.0
100
AcDbPoint
 10
5110.738635219613
 20
2111.884269412883
 30
0.0
  0
ENDBLK
  5
171DE
330
171D3
100
AcDbEntity
  8
0
 48
50.0
100
AcDbBlockEnd
  0
BLOCK
  5
1787F
330
17875
100
AcDbEntity
  8
0
 48
50.0
100
AcDbBlockBegin
  2
*D27
 70
     1
 10
0.0
 20
0.0
 30
0.0
  3
*D27
  1

  0
LINE
  5
1791A
330
17875
100
AcDbEntity
  8
寸法
 62
     0
 48
50.0
370
    -2
100
AcDbLine
 10
8361.76126531741
 20
4792.931598713266
 30
0.0
 11
8361.76126531741
 21
5448.55086767118
 31
0.0
  0
LINE
  5
1791B
330
17875
100
AcDbEntity
  8
寸法
 62
     0
 48
50.0
370
    -2
100
AcDbLine
 10
11091.76126531741
 20
4792.931598713264
 30
0.0
 11
11091.76126531741
 21
5448.55086767118
 31
0.0
  0
LINE
  5
1791C
330
17875
100
AcDbEntity
  8
寸法
 62
     0
 48
50.0
370
    -2
100
AcDbLine
 10
8361.76126531741
 20
5388.55086767118
 30
0.0
 11
11091.76126531741
 21
5388.55086767118
 31
0.0
  0
INSERT
  5
1791D
330
17875
100
AcDbEntity
  8
寸法
 62
     0
 48
50.0
370
    -2
100
AcDbBlockReference
  2
_DOTSMALL
 10
8361.76126531741
 20
5388.55086767118
 30
0.0
 41
100.0
 42
100.0
 43
100.0
 50
180.0
  0
INSERT
  5
1791E
330
17875
100
AcDbEntity
  8
寸法
 62
     0
 48
50.0
370
    -2
100
AcDbBlockReference
  2
_DOTSMALL
 10
11091.76126531741
 20
5388.55086767118
 30
0.0
 41
100.0
 42
100.0
 43
100.0
  0
MTEXT
  5
1791F
330
17875
100
AcDbEntity
  8
寸法
 62
     7
 48
50.0
100
AcDbMText
 10
9726.761265317412
 20
5488.562678694801
 30
0.0
 40
120.0
 41
0.0
 71
     5
 72
     1
  1
\A1;2730
  7
STYLE1
 73
     1
 44
1.0
1001
ACAD
1000
MTEXTBEGIN
1070
    73
1070
     1
1070
    44
1040
1.0
1070
    74
1070
     0
1000
MTEXTEND
  0
POINT
  5
17920
330
17875
100
AcDbEntity
  8
DEFPOINTS
 62
     0
 48
50.0
100
AcDbPoint
 10
8361.76126531741
 20
4772.931598713267
 30
0.0
  0
POINT
  5
17921
330
17875
100
AcDbEntity
  8
DEFPOINTS
 62
     0
 48
50.0
100
AcDbPoint
 10
11091.76126531741
 20
4772.931598713264
 30
0.0
  0
POINT
  5
17922
330
17875
100
AcDbEntity
  8
DEFPOINTS
 62
     0
 48
50.0
100
AcDbPoint
 10
11091.76126531741
 20
5388.55086767118
 30
0.0
  0
ENDBLK
  5
17880
330
17875
100
AcDbEntity
  8
0
 48
50.0
100
AcDbBlockEnd
  0
BLOCK
  5
1788D
330
17881
100
AcDbEntity
  8
0
 48
50.0
100
AcDbBlockBegin
  2
*D28
 70
     1
 10
0.0
 20
0.0
 30
0.0
  3
*D28
  1

  0
LINE
  5
178A4
330
17881
100
AcDbEntity
  8
寸法
 62
     0
 48
50.0
370
    -2
100
AcDbLine
 10
8411.76126531741
 20
4792.931598713267
 30
0.0
 11
8411.76126531741
 21
5232.024768052735
 31
0.0
  0
LINE
  5
178A5
330
17881
100
AcDbEntity
  8
寸法
 62
     0
 48
50.0
370
    -2
100
AcDbLine
 10
8361.76126531741
 20
4792.931598713266
 30
0.0
 11
8361.76126531741
 21
5232.024768052735
 31
0.0
  0
LINE
  5
178A6
330
17881
100
AcDbEntity
  8
寸法
 62
     0
 48
50.0
370
    -2
100
AcDbLine
 10
8411.76126531741
 20
5172.024768052734
 30
0.0
 11
8511.76126531741
 21
5172.024768052734
 31
0.0
  0
LINE
  5
178A7
330
17881
100
AcDbEntity
  8
寸法
 62
     0
 48
50.0
370
    -2
100
AcDbLine
 10
8361.76126531741
 20
5172.024768052734
 30
0.0
 11
7942.228739848676
 21
5172.024768052734
 31
0.0
  0
LINE
  5
178A8
330
17881
100
AcDbEntity
  8
寸法
 62
     0
 48
50.0
370
    -2
100
AcDbLine
 10
8411.76126531741
 20
5172.024768052734
 30
0.0
 11
8361.76126531741
 21
5172.024768052734
 31
0.0
  0
INSERT
  5
178A9
330
17881
100
AcDbEntity
  8
寸法
 62
     0
 48
50.0
370
    -2
100
AcDbBlockReference
  2
_DOTSMALL
 10
8411.76126531741
 20
5172.024768052734
 30
0.0
 41
100.0
 42
100.0
 43
100.0
 50
180.0
  0
INSERT
  5
178AA
330
17881
100
AcDbEntity
  8
寸法
 62
     0
 48
50.0
370
    -2
100
AcDbBlockReference
  2
_DOTSMALL
 10
8361.76126531741
 20
5172.024768052734
 30
0.0
 41
100.0
 42
100.0
 43
100.0
  0
MTEXT
  5
178AB
330
17881
100
AcDbEntity
  8
寸法
 62
     7
 48
50.0
100
AcDbMText
 10
8048.275983943163
 20
5272.024768052734
 30
0.0
 40
120.0
 41
0.0
 71
     5
 72
     1
  1
\A1;50
  7
STYLE1
 73
     1
 44
1.0
1001
ACAD
1000
MTEXTBEGIN
1070
    73
1070
     1
1070
    44
1040
1.0
1070
    74
1070
     0
1000
MTEXTEND
  0
POINT
  5
178AC
330
17881
100
AcDbEntity
  8
DEFPOINTS
 62
     0
 48
50.0
100
AcDbPoint
 10
8411.76126531741
 20
4772.931598713268
 30
0.0
  0
POINT
  5
178AD
330
17881
100
AcDbEntity
  8
DEFPOINTS
 62
     0
 48
50.0
100
AcDbPoint
 10
8361.76126531741
 20
4772.931598713267
 30
0.0
  0
POINT
  5
178AE
330
17881
100
AcDbEntity
  8
DEFPOINTS
 62
     0
 48
50.0
100
AcDbPoint
 10
8361.76126531741
 20
5172.024768052734
 30
0.0
  0
ENDBLK
  5
1788E
330
17881
100
AcDbEntity
  8
0
 48
50.0
100
AcDbBlockEnd
  0
BLOCK
  5
17899
330
1788F
100
AcDbEntity
  8
0
 48
50.0
100
AcDbBlockBegin
  2
*D29
 70
     1
 10
0.0
 20
0.0
 30
0.0
  3
*D29
  1

  0
LINE
  5
17923
330
1788F
100
AcDbEntity
  8
寸法
 62
     0
 48
50.0
370
    -2
100
AcDbLine
 10
11041.76126531741
 20
4792.931598713266
 30
0.0
 11
11041.76126531741
 21
5232.024768052734
 31
0.0
  0
LINE
  5
17924
330
1788F
100
AcDbEntity
  8
寸法
 62
     0
 48
50.0
370
    -2
100
AcDbLine
 10
8411.76126531741
 20
4792.931598713267
 30
0.0
 11
8411.76126531741
 21
5232.024768052734
 31
0.0
  0
LINE
  5
17925
330
1788F
100
AcDbEntity
  8
寸法
 62
     0
 48
50.0
370
    -2
100
AcDbLine
 10
11041.76126531741
 20
5172.024768052733
 30
0.0
 11
8411.76126531741
 21
5172.024768052733
 31
0.0
  0
INSERT
  5
17926
330
1788F
100
AcDbEntity
  8
寸法
 62
     0
 48
50.0
370
    -2
100
AcDbBlockReference
  2
_DOTSMALL
 10
11041.76126531741
 20
5172.024768052733
 30
0.0
 41
100.0
 42
100.0
 43
100.0
  0
INSERT
  5
17927
330
1788F
100
AcDbEntity
  8
寸法
 62
     0
 48
50.0
370
    -2
100
AcDbBlockReference
  2
_DOTSMALL
 10
8411.76126531741
 20
5172.024768052733
 30
0.0
 41
100.0
 42
100.0
 43
100.0
 50
180.0
  0
MTEXT
  5
17928
330
1788F
100
AcDbEntity
  8
寸法
 62
     7
 48
50.0
100
AcDbMText
 10
9726.76126531741
 20
5272.036579076355
 30
0.0
 40
120.0
 41
0.0
 71
     5
 72
     1
  1
\A1;柱外寸法2630
  7
STYLE1
 73
     1
 44
1.0
1001
ACAD
1000
MTEXTBEGIN
1070
    73
1070
     1
1070
    44
1040
1.0
1070
    74
1070
     0
1000
MTEXTEND
  0
POINT
  5
17929
330
1788F
100
AcDbEntity
  8
DEFPOINTS
 62
     0
 48
50.0
100
AcDbPoint
 10
11041.76126531741
 20
4772.931598713267
 30
0.0
  0
POINT
  5
1792A
330
1788F
100
AcDbEntity
  8
DEFPOINTS
 62
     0
 48
50.0
100
AcDbPoint
 10
8411.76126531741
 20
4772.931598713268
 30
0.0
  0
POINT
  5
1792B
330
1788F
100
AcDbEntity
  8
DEFPOINTS
 62
     0
 48
50.0
100
AcDbPoint
 10
8411.76126531741
 20
5172.024768052733
 30
0.0
  0
ENDBLK
  5
1789A
330
1788F
100
AcDbEntity
  8
0
 48
50.0
100
AcDbBlockEnd
  0
BLOCK
  5
178E0
330
178D4
100
AcDbEntity
  8
0
 48
50.0
100
AcDbBlockBegin
  2
*D30
 70
     1
 10
0.0
 20
0.0
 30
0.0
  3
*D30
  1

  0
LINE
  5
178E2
330
178D4
100
AcDbEntity
  8
寸法
 62
     0
 48
50.0
370
    -2
100
AcDbLine
 10
11091.76126531741
 20
4792.931598713264
 30
0.0
 11
11091.76126531741
 21
5232.024768052735
 31
0.0
  0
LINE
  5
178E3
330
178D4
100
AcDbEntity
  8
寸法
 62
     0
 48
50.0
370
    -2
100
AcDbLine
 10
11041.76126531741
 20
4792.931598713266
 30
0.0
 11
11041.76126531741
 21
5232.024768052735
 31
0.0
  0
LINE
  5
178E4
330
178D4
100
AcDbEntity
  8
寸法
 62
     0
 48
50.0
370
    -2
100
AcDbLine
 10
11041.76126531741
 20
5172.024768052734
 30
0.0
 11
10941.76126531741
 21
5172.024768052734
 31
0.0
  0
LINE
  5
178E5
330
178D4
100
AcDbEntity
  8
寸法
 62
     0
 48
50.0
370
    -2
100
AcDbLine
 10
11091.76126531741
 20
5172.024768052734
 30
0.0
 11
11511.29379078613
 21
5172.024768052734
 31
0.0
  0
LINE
  5
178E6
330
178D4
100
AcDbEntity
  8
寸法
 62
     0
 48
50.0
370
    -2
100
AcDbLine
 10
11041.76126531741
 20
5172.024768052734
 30
0.0
 11
11091.76126531741
 21
5172.024768052734
 31
0.0
  0
INSERT
  5
178E7
330
178D4
100
AcDbEntity
  8
寸法
 62
     0
 48
50.0
370
    -2
100
AcDbBlockReference
  2
_DOTSMALL
 10
11041.76126531741
 20
5172.024768052734
 30
0.0
 41
100.0
 42
100.0
 43
100.0
  0
INSERT
  5
178E8
330
178D4
100
AcDbEntity
  8
寸法
 62
     0
 48
50.0
370
    -2
100
AcDbBlockReference
  2
_DOTSMALL
 10
11091.76126531741
 20
5172.024768052734
 30
0.0
 41
100.0
 42
100.0
 43
100.0
 50
180.0
  0
MTEXT
  5
178E9
330
178D4
100
AcDbEntity
  8
寸法
 62
     7
 48
50.0
100
AcDbMText
 10
11405.24654669164
 20
5272.024768052734
 30
0.0
 40
120.0
 41
0.0
 71
     5
 72
     1
  1
\A1;50
  7
STYLE1
 73
     1
 44
1.0
1001
ACAD
1000
MTEXTBEGIN
1070
    73
1070
     1
1070
    44
1040
1.0
1070
    74
1070
     0
1000
MTEXTEND
  0
POINT
  5
178EA
330
178D4
100
AcDbEntity
  8
DEFPOINTS
 62
     0
 48
50.0
100
AcDbPoint
 10
11091.76126531741
 20
4772.931598713264
 30
0.0
  0
POINT
  5
178EB
330
178D4
100
AcDbEntity
  8
DEFPOINTS
 62
     0
 48
50.0
100
AcDbPoint
 10
11041.76126531741
 20
4772.931598713267
 30
0.0
  0
POINT
  5
178EC
330
178D4
100
AcDbEntity
  8
DEFPOINTS
 62
     0
 48
50.0
100
AcDbPoint
 10
11041.76126531741
 20
5172.024768052734
 30
0.0
  0
ENDBLK
  5
178E1
330
178D4
100
AcDbEntity
  8
0
 48
50.0
100
AcDbBlockEnd
  0
BLOCK
  5
17F7B
330
17F71
100
AcDbEntity
  8
0
 48
50.0
100
AcDbBlockBegin
  2
*D31
 70
     1
 10
0.0
 20
0.0
 30
0.0
  3
*D31
  1

  0
LINE
  5
18462
330
17F71
100
AcDbEntity
  8
寸法
 62
     0
 48
50.0
370
    -2
100
AcDbLine
 10
8898.761265317389
 20
7600.558842188322
 30
0.0
 11
8898.761265317389
 21
6907.835836850769
 31
0.0
  0
LINE
  5
18463
330
17F71
100
AcDbEntity
  8
寸法
 62
     0
 48
50.0
370
    -2
100
AcDbLine
 10
10164.76126531739
 20
7600.558842188322
 30
0.0
 11
10164.76126531739
 21
6907.835836850769
 31
0.0
  0
LINE
  5
18464
330
17F71
100
AcDbEntity
  8
寸法
 62
     0
 48
50.0
370
    -2
100
AcDbLine
 10
8918.761265317391
 20
6947.835836850768
 30
0.0
 11
10144.76126531739
 21
6947.835836850768
 31
0.0
  0
INSERT
  5
18465
330
17F71
100
AcDbEntity
  8
寸法
 62
     0
 48
50.0
370
    -2
100
AcDbBlockReference
  2
_DOT
 10
8898.761265317389
 20
6947.835836850768
 30
0.0
 41
20.0
 42
20.0
 43
20.0
 50
180.0
  0
INSERT
  5
18466
330
17F71
100
AcDbEntity
  8
寸法
 62
     0
 48
50.0
370
    -2
100
AcDbBlockReference
  2
_DOT
 10
10164.76126531739
 20
6947.835836850768
 30
0.0
 41
20.0
 42
20.0
 43
20.0
  0
MTEXT
  5
18467
330
17F71
100
AcDbEntity
  8
寸法
 62
     7
 48
50.0
100
AcDbMText
 10
9544.413579827617
 20
7139.84764787439
 30
0.0
 40
120.0
 41
0.0
 71
     5
 72
     1
  1
\A1;有効開口部間口\P1266
  7
STYLE1
 73
     1
 44
1.0
1001
ACAD
1000
MTEXTBEGIN
1070
    73
1070
     1
1070
    44
1040
1.0
1070
    74
1070
     0
1000
MTEXTEND
  0
POINT
  5
18468
330
17F71
100
AcDbEntity
  8
DEFPOINTS
 62
     0
 48
50.0
100
AcDbPoint
 10
8898.761265317389
 20
7620.558842188322
 30
0.0
  0
POINT
  5
18469
330
17F71
100
AcDbEntity
  8
DEFPOINTS
 62
     0
 48
50.0
100
AcDbPoint
 10
10164.76126531739
 20
7620.558842188322
 30
0.0
  0
POINT
  5
1846A
330
17F71
100
AcDbEntity
  8
DEFPOINTS
 62
     0
 48
50.0
100
AcDbPoint
 10
10164.76126531739
 20
6947.835836850768
 30
0.0
  0
ENDBLK
  5
17F7C
330
17F71
100
AcDbEntity
  8
0
 48
50.0
100
AcDbBlockEnd
  0
BLOCK
  5
182B8
330
182AC
100
AcDbEntity
  8
0
 48
50.0
100
AcDbBlockBegin
  2
*D32
 70
     1
 10
0.0
 20
0.0
 30
0.0
  3
*D32
  1

  0
LINE
  5
18526
330
182AC
100
AcDbEntity
  8
寸法
 62
     0
 48
50.0
370
    -2
100
AcDbLine
 10
8391.761265317414
 20
7697.55884218832
 30
0.0
 11
8077.150019690696
 21
7697.55884218832
 31
0.0
  0
LINE
  5
18527
330
182AC
100
AcDbEntity
  8
寸法
 62
     0
 48
50.0
370
    -2
100
AcDbLine
 10
8839.76126531739
 20
7622.55884218832
 30
0.0
 11
8077.150019690696
 21
7622.55884218832
 31
0.0
  0
LINE
  5
18528
330
182AC
100
AcDbEntity
  8
寸法
 62
     0
 48
50.0
370
    -2
100
AcDbLine
 10
8117.150019690697
 20
7717.558842188319
 30
0.0
 11
8117.150019690697
 21
7737.558842188319
 31
0.0
  0
LINE
  5
18529
330
182AC
100
AcDbEntity
  8
寸法
 62
     0
 48
50.0
370
    -2
100
AcDbLine
 10
8117.150019690697
 20
7602.55884218832
 30
0.0
 11
8117.150019690697
 21
7381.588279439842
 31
0.0
  0
LINE
  5
1852A
330
182AC
100
AcDbEntity
  8
寸法
 62
     0
 48
50.0
370
    -2
100
AcDbLine
 10
8117.150019690697
 20
7697.55884218832
 30
0.0
 11
8117.150019690697
 21
7622.55884218832
 31
0.0
  0
INSERT
  5
1852B
330
182AC
100
AcDbEntity
  8
寸法
 62
     0
 48
50.0
370
    -2
100
AcDbBlockReference
  2
_DOT
 10
8117.150019690697
 20
7697.55884218832
 30
0.0
 41
20.0
 42
20.0
 43
20.0
 50
270.0
  0
INSERT
  5
1852C
330
182AC
100
AcDbEntity
  8
寸法
 62
     0
 48
50.0
370
    -2
100
AcDbBlockReference
  2
_DOT
 10
8117.150019690697
 20
7622.55884218832
 30
0.0
 41
20.0
 42
20.0
 43
20.0
 50
90.0
  0
MTEXT
  5
1852D
330
182AC
100
AcDbEntity
  8
寸法
 62
     7
 48
50.0
100
AcDbMText
 10
8025.150019690697
 20
7482.073560814081
 30
0.0
 40
120.0
 41
0.0
 71
     5
 72
     1
  1
\A1;75
  7
STYLE1
 11
0.0000000000000001
 21
1.0
 31
0.0
 73
     1
 44
1.0
1001
ACAD
1000
MTEXTBEGIN
1070
    73
1070
     1
1070
    44
1040
1.0
1070
    74
1070
     0
1000
MTEXTEND
  0
POINT
  5
1852E
330
182AC
100
AcDbEntity
  8
DEFPOINTS
 62
     0
 48
50.0
100
AcDbPoint
 10
8411.761265317414
 20
7697.55884218832
 30
0.0
  0
POINT
  5
1852F
330
182AC
100
AcDbEntity
  8
DEFPOINTS
 62
     0
 48
50.0
100
AcDbPoint
 10
8859.76126531739
 20
7622.55884218832
 30
0.0
  0
POINT
  5
18530
330
182AC
100
AcDbEntity
  8
DEFPOINTS
 62
     0
 48
50.0
100
AcDbPoint
 10
8117.150019690697
 20
7622.55884218832
 30
0.0
  0
ENDBLK
  5
182B9
330
182AC
100
AcDbEntity
  8
0
 48
50.0
100
AcDbBlockEnd
  0
BLOCK
  5
184FE
330
184F4
100
AcDbEntity
  8
0
 48
50.0
100
AcDbBlockBegin
  2
*D33
 70
     1
 10
0.0
 20
0.0
 30
0.0
  3
*D33
  1

  0
LINE
  5
1854C
330
184F4
100
AcDbEntity
  8
寸法
 62
     0
 48
50.0
370
    -2
100
AcDbLine
 10
8859.76126531739
 20
7600.558842188322
 30
0.0
 11
8859.76126531739
 21
6622.703472798995
 31
0.0
  0
LINE
  5
1854D
330
184F4
100
AcDbEntity
  8
寸法
 62
     0
 48
50.0
370
    -2
100
AcDbLine
 10
11013.76126531739
 20
7600.558842188322
 30
0.0
 11
11013.76126531739
 21
6622.703472798995
 31
0.0
  0
LINE
  5
1854E
330
184F4
100
AcDbEntity
  8
寸法
 62
     0
 48
50.0
370
    -2
100
AcDbLine
 10
8859.76126531739
 20
6682.703472798995
 30
0.0
 11
11013.76126531739
 21
6682.703472798995
 31
0.0
  0
INSERT
  5
1854F
330
184F4
100
AcDbEntity
  8
寸法
 62
     0
 48
50.0
370
    -2
100
AcDbBlockReference
  2
_DOTSMALL
 10
8859.76126531739
 20
6682.703472798995
 30
0.0
 41
100.0
 42
100.0
 43
100.0
 50
180.0
  0
INSERT
  5
18550
330
184F4
100
AcDbEntity
  8
寸法
 62
     0
 48
50.0
370
    -2
100
AcDbBlockReference
  2
_DOTSMALL
 10
11013.76126531739
 20
6682.703472798995
 30
0.0
 41
100.0
 42
100.0
 43
100.0
  0
MTEXT
  5
18551
330
184F4
100
AcDbEntity
  8
寸法
 62
     7
 48
50.0
100
AcDbMText
 10
9938.561236587833
 20
6782.715283822617
 30
0.0
 40
120.0
 41
0.0
 71
     5
 72
     1
  1
\A1;2154
  7
STYLE1
 73
     1
 44
1.0
1001
ACAD
1000
MTEXTBEGIN
1070
    73
1070
     1
1070
    44
1040
1.0
1070
    74
1070
     0
1000
MTEXTEND
  0
POINT
  5
18552
330
184F4
100
AcDbEntity
  8
DEFPOINTS
 62
     0
 48
50.0
100
AcDbPoint
 10
8859.76126531739
 20
7620.558842188322
 30
0.0
  0
POINT
  5
18553
330
184F4
100
AcDbEntity
  8
DEFPOINTS
 62
     0
 48
50.0
100
AcDbPoint
 10
11013.76126531739
 20
7620.558842188322
 30
0.0
  0
POINT
  5
18554
330
184F4
100
AcDbEntity
  8
DEFPOINTS
 62
     0
 48
50.0
100
AcDbPoint
 10
11013.76126531739
 20
6682.703472798995
 30
0.0
  0
ENDBLK
  5
184FF
330
184F4
100
AcDbEntity
  8
0
 48
50.0
100
AcDbBlockEnd
  0
ENDSEC
  0
SECTION
  2
ENTITIES
  0
LINE
  5
10B57
330
747D
100
AcDbEntity
  8
補助
  6
PHANTOM
 62
   230
 48
50.0
100
AcDbLine
 10
139.9999999999995
 20
11409.6
 30
0.0
 11
16307.2
 21
11409.6
 31
0.0
  0
LINE
  5
10B59
330
747D
100
AcDbEntity
  8
仕様書枠
  6
Continuous
 48
50.0
100
AcDbLine
 10
13107.2
 20
1200.0
 30
0.0
 11
13107.2
 21
-0.0000000000000729
 31
0.0
  0
LINE
  5
10B5C
330
747D
100
AcDbEntity
  8
仕様書枠
 48
50.0
100
AcDbLine
 10
16307.2
 20
1200.0
 30
0.0
 11
16307.2
 21
-0.0000000000000909
 31
0.0
  0
LINE
  5
10B5D
330
747D
100
AcDbEntity
  8
仕様書枠
 48
50.0
100
AcDbLine
 10
140.0
 20
0.0
 30
0.0
 11
16307.2
 21
-0.0000000000000909
 31
0.0
  0
LINE
  5
10B5E
330
747D
100
AcDbEntity
  8
補助
  6
PHANTOM
 62
   230
 48
50.0
100
AcDbLine
 10
16307.2
 20
11409.6
 30
0.0
 11
16307.2
 21
1200.0
 31
0.0
  0
LINE
  5
10B6C
330
747D
100
AcDbEntity
  8
仕様書枠
 48
50.0
100
AcDbLine
 10
13107.2
 20
1200.0
 30
0.0
 11
16307.2
 21
1200.0
 31
0.0
  0
LINE
  5
10B6D
330
747D
100
AcDbEntity
  8
補助
  6
PHANTOM
 62
   230
 48
50.0
100
AcDbLine
 10
13107.2
 20
11409.6
 30
0.0
 11
13107.2
 21
4800.0
 31
0.0
  0
LINE
  5
10B6F
330
747D
100
AcDbEntity
  8
補助
  6
PHANTOM
 62
   230
 48
50.0
100
AcDbLine
 10
13107.2
 20
4800.0
 30
0.0
 11
16307.2
 21
4800.0
 31
0.0
  0
LINE
  5
10B72
330
747D
100
AcDbEntity
  8
文字
 62
     7
 48
50.0
100
AcDbLine
 10
13187.2
 20
400.0
 30
0.0
 11
16227.2
 21
400.0
 31
0.0
  0
TEXT
  5
10B73
330
747D
100
AcDbEntity
  8
文字
 62
     7
 48
50.0
100
AcDbText
 10
13162.9790565769
 20
895.0906074299405
 30
0.0
 40
200.0
  1
外 形 図
  7
STYLE2
100
AcDbText
  0
TEXT
  5
10B74
330
747D
100
AcDbEntity
  8
文字
 62
     7
 48
50.0
100
AcDbText
 10
13201.43669998441
 20
477.2740661031255
 30
0.0
 40
160.0
  1
機種名
  7
STYLE2
100
AcDbText
  0
TEXT
  5
10B76
330
747D
100
AcDbEntity
  8
文字
 62
     7
 48
50.0
100
AcDbText
 10
13209.4053442172
 20
76.09434707649343
 30
0.0
 40
100.0
  1
○床面積 ： 3.77㎡(1.14坪) 　
  7
STYLE2
100
AcDbText
  0
TEXT
  5
10B79
330
747D
100
AcDbEntity
  8
文字
 62
     7
 48
50.0
100
AcDbText
 10
14524.131837222
 20
1031.557706291228
 30
0.0
 40
100.0
  1
NO.18      <縮尺> S=1/40
  7
STYLE2
100
AcDbText
  0
LINE
  5
10B7B
330
747D
100
AcDbEntity
  8
仕様書枠
 48
50.0
100
AcDbLine
 10
13107.2
 20
800.0
 30
0.0
 11
14251.2
 21
800.0
 31
0.0
  0
LINE
  5
10B88
330
747D
100
AcDbEntity
  8
仕様書枠
  6
Continuous
 48
50.0
100
AcDbLine
 10
14251.2
 20
1200.0
 30
0.0
 11
14251.2
 21
800.0
 31
0.0
  0
LINE
  5
12765
330
747D
100
AcDbEntity
  8
Ｇ．Ｌ
100
AcDbLine
 10
3284.347335579514
 20
2597.931598713261
 30
0.0
 11
11691.27381834625
 21
2597.931598713262
 31
0.0
  0
TEXT
  5
127AA
330
747D
100
AcDbEntity
  8
部品1
100
AcDbText
 10
3307.13577716104
 20
2634.038502319163
 30
0.0
 40
125.0
  1
▽G.L
  7
STYLE2
100
AcDbText
  0
TEXT
  5
149A1
330
747D
100
AcDbEntity
  8
部品1
100
AcDbText
 10
9435.551335941147
 20
1525.722526519778
 30
0.0
 40
135.0
  1
正面図
  7
STYLE2
100
AcDbText
  0
TEXT
  5
149A3
330
747D
100
AcDbEntity
  8
部品1
100
AcDbText
 10
5585.949403528999
 20
1525.722526519778
 30
0.0
 40
135.0
  1
側面図
  7
STYLE2
100
AcDbText
  0
TEXT
  5
14E88
330
747D
100
AcDbEntity
  8
部品1
100
AcDbText
 10
9434.945542032229
 20
6054.114895801837
 30
0.0
 40
135.0
  1
平面図
  7
STYLE2
100
AcDbText
  0
TEXT
  5
154D3
330
747D
100
AcDbEntity
  8
文字
 62
     7
 48
50.0
100
AcDbText
 10
14643.63059855437
 20
863.0097378581719
 30
0.0
 40
100.0
  1
～一般型・多雪地型～
  7
STYLE2
100
AcDbText
  0
LINE
  5
162FC
330
747D
100
AcDbEntity
  8
部品1
100
AcDbLine
 10
9345.025932203192
 20
6247.00842502036
 30
0.0
 11
9345.025932203192
 21
6007.116103474828
 31
0.0
  0
LINE
  5
162FD
330
747D
100
AcDbEntity
  8
部品1
100
AcDbLine
 10
9345.025932203192
 20
6007.116103474828
 30
0.0
 11
10108.49659843163
 21
6007.116103474828
 31
0.0
  0
LINE
  5
162FE
330
747D
100
AcDbEntity
  8
部品1
100
AcDbLine
 10
10108.49659843163
 20
6007.116103474828
 30
0.0
 11
10108.49659843163
 21
6247.00842502036
 31
0.0
  0
LINE
  5
162FF
330
747D
100
AcDbEntity
  8
部品1
100
AcDbLine
 10
10108.49659843163
 20
6247.00842502036
 30
0.0
 11
9345.025932203192
 21
6247.00842502036
 31
0.0
  0
LINE
  5
16300
330
747D
100
AcDbEntity
  8
部品1
100
AcDbLine
 10
9345.025932203192
 20
1718.616055738302
 30
0.0
 11
9345.025932203192
 21
1478.723734192769
 31
0.0
  0
LINE
  5
16301
330
747D
100
AcDbEntity
  8
部品1
100
AcDbLine
 10
9345.025932203192
 20
1478.723734192769
 30
0.0
 11
10108.49659843163
 21
1478.723734192769
 31
0.0
  0
LINE
  5
16302
330
747D
100
AcDbEntity
  8
部品1
100
AcDbLine
 10
10108.49659843163
 20
1478.723734192769
 30
0.0
 11
10108.49659843163
 21
1718.616055738302
 31
0.0
  0
LINE
  5
16303
330
747D
100
AcDbEntity
  8
部品1
100
AcDbLine
 10
10108.49659843163
 20
1718.616055738302
 30
0.0
 11
9345.025932203192
 21
1718.616055738302
 31
0.0
  0
LINE
  5
16304
330
747D
100
AcDbEntity
  8
部品1
100
AcDbLine
 10
5496.503302105391
 20
1718.616055738302
 30
0.0
 11
5496.503302105391
 21
1478.723734192769
 31
0.0
  0
LINE
  5
16305
330
747D
100
AcDbEntity
  8
部品1
100
AcDbLine
 10
5496.503302105391
 20
1478.723734192769
 30
0.0
 11
6259.973968333831
 21
1478.723734192769
 31
0.0
  0
LINE
  5
16306
330
747D
100
AcDbEntity
  8
部品1
100
AcDbLine
 10
6259.973968333831
 20
1478.723734192769
 30
0.0
 11
6259.973968333831
 21
1718.616055738302
 31
0.0
  0
LINE
  5
16307
330
747D
100
AcDbEntity
  8
部品1
100
AcDbLine
 10
6259.973968333831
 20
1718.616055738302
 30
0.0
 11
5496.503302105391
 21
1718.616055738302
 31
0.0
  0
DIMENSION
  5
164B4
330
747D
100
AcDbEntity
  8
寸法
 48
50.0
100
AcDbDimension
  2
*D1
 10
8078.377893098405
 20
2755.931598713261
 30
0.0
 11
8078.377893098403
 21
3612.880542915001
 31
0.0
 70
   160
  1
有効開口部高サ<>
 71
     5
 42
1724.999999999999
  3
INABA_S40G
100
AcDbAlignedDimension
 13
8859.761265317413
 23
4480.931598713261
 33
0.0
 14
8859.761265317413
 24
2755.931598713261
 34
0.0
 50
90.0
100
AcDbRotatedDimension
  0
DIMENSION
  5
164B5
330
747D
100
AcDbEntity
  8
寸法
 48
50.0
100
AcDbDimension
  2
*D2
 10
8311.761265317411
 20
2111.884269412883
 30
0.0
 11
8411.76126531741
 21
2111.884269412883
 31
0.0
 12
-143.2933277866068
 22
6833.79711738684
 32
0.0
 70
   160
 71
     5
 42
-1.0
  3
INABA_S40G
100
AcDbAlignedDimension
 13
8511.761265317414
 23
2397.931598713261
 33
0.0
 14
8311.761265317411
 24
2397.931598713261
 34
0.0
100
AcDbRotatedDimension
  0
LINE
  5
164B6
330
747D
100
AcDbEntity
  8
破線
 48
5.0
100
AcDbLine
 10
8311.761265317411
 20
2397.931598713261
 30
0.0
 11
8511.761265317414
 21
2397.931598713261
 31
0.0
  0
LINE
  5
164BA
330
747D
100
AcDbEntity
  8
破線
 48
5.0
100
AcDbLine
 10
8311.761265317411
 20
2597.931598713262
 30
0.0
 11
8311.761265317411
 21
2397.931598713261
 31
0.0
  0
LINE
  5
164C0
330
747D
100
AcDbEntity
  8
部品1
100
AcDbLine
 10
8411.76126531741
 20
4537.931598713261
 30
0.0
 11
11041.76126531741
 21
4537.931598713261
 31
0.0
  0
LINE
  5
164C3
330
747D
100
AcDbEntity
  8
部品1
 48
50.0
100
AcDbLine
 10
8859.761265317413
 20
2697.931598713262
 30
0.0
 11
11013.76126531741
 21
2697.931598713262
 31
0.0
  0
LINE
  5
164C8
330
747D
100
AcDbEntity
  8
部品1
 48
50.0
100
AcDbLine
 10
8439.761265317413
 20
2697.931598713262
 30
0.0
 11
11013.76126531741
 21
2697.931598713262
 31
0.0
  0
LINE
  5
164CA
330
747D
100
AcDbEntity
  8
破線
 48
5.0
100
AcDbLine
 10
11141.76126531741
 20
2397.931598713261
 30
0.0
 11
10941.76126531741
 21
2397.931598713261
 31
0.0
  0
LINE
  5
164CC
330
747D
100
AcDbEntity
  8
部品1
100
AcDbLine
 10
8411.76126531741
 20
4537.931598713261
 30
0.0
 11
11041.76126531741
 21
4537.931598713261
 31
0.0
  0
LINE
  5
164CD
330
747D
100
AcDbEntity
  8
部品1
100
AcDbLine
 10
8411.76126531741
 20
2697.931598713262
 30
0.0
 11
11041.76126531741
 21
2697.931598713262
 31
0.0
  0
LINE
  5
164DF
330
747D
100
AcDbEntity
  8
部品1
 48
50.0
100
AcDbLine
 10
8466.761265317414
 20
2747.931598713281
 30
0.0
 11
8466.761265317414
 21
4537.931598713261
 31
0.0
  0
LINE
  5
164E0
330
747D
100
AcDbEntity
  8
部品1
100
AcDbLine
 10
8411.761265317409
 20
4591.431598713262
 30
0.0
 11
8411.76126531741
 21
2597.931598713262
 31
0.0
  0
LINE
  5
164E3
330
747D
100
AcDbEntity
  8
部品1
100
AcDbLine
 10
8406.761265317411
 20
2742.931598713263
 30
0.0
 11
8406.761265317411
 21
2597.931598713262
 31
0.0
  0
LINE
  5
164E4
330
747D
100
AcDbEntity
  8
破線
 48
5.0
100
AcDbLine
 10
8406.761265317411
 20
2597.931598713262
 30
0.0
 11
8406.761265317411
 21
2442.931598713262
 31
0.0
  0
LINE
  5
164E5
330
747D
100
AcDbEntity
  8
破線
 48
5.0
100
AcDbLine
 10
8511.76126531741
 20
2597.931598713262
 30
0.0
 11
8511.76126531741
 21
2397.931598713261
 31
0.0
  0
LINE
  5
164E6
330
747D
100
AcDbEntity
  8
破線
 48
5.0
100
AcDbLine
 10
8386.76126531741
 20
2442.931598713262
 30
0.0
 11
8406.761265317411
 21
2442.931598713262
 31
0.0
  0
LINE
  5
164E7
330
747D
100
AcDbEntity
  8
部品1
100
AcDbLine
 10
8811.761265317411
 20
2697.931598713262
 30
0.0
 11
8811.761265317411
 21
2597.931598713262
 31
0.0
  0
LINE
  5
164E8
330
747D
100
AcDbEntity
  8
部品1
100
AcDbLine
 10
8411.76126531741
 20
2747.931598713281
 30
0.0
 11
8859.761265317413
 21
2747.931598713281
 31
0.0
  0
LINE
  5
164EA
330
747D
100
AcDbEntity
  8
部品1
 48
50.0
100
AcDbLine
 10
9211.761265317411
 20
2697.931598713262
 30
0.0
 11
9211.761265317411
 21
2597.931598713262
 31
0.0
  0
LINE
  5
164EB
330
747D
100
AcDbEntity
  8
部品1
 48
50.0
100
AcDbLine
 10
9411.76126531741
 20
2697.931598713262
 30
0.0
 11
9411.76126531741
 21
2597.931598713262
 31
0.0
  0
LINE
  5
1650E
330
747D
100
AcDbEntity
  8
部品1
 48
50.0
100
AcDbLine
 10
10041.76126531741
 20
2697.931598713262
 30
0.0
 11
10041.76126531741
 21
2597.931598713262
 31
0.0
  0
LINE
  5
1650F
330
747D
100
AcDbEntity
  8
部品1
 48
50.0
100
AcDbLine
 10
10241.76126531741
 20
2697.931598713262
 30
0.0
 11
10241.76126531741
 21
2597.931598713262
 31
0.0
  0
LINE
  5
16510
330
747D
100
AcDbEntity
  8
部品1
100
AcDbLine
 10
10641.76126531741
 20
2697.931598713262
 30
0.0
 11
10641.76126531741
 21
2597.931598713262
 31
0.0
  0
LINE
  5
16511
330
747D
100
AcDbEntity
  8
破線
 48
5.0
100
AcDbLine
 10
10941.76126531741
 20
2597.931598713262
 30
0.0
 11
10941.76126531741
 21
2397.931598713261
 31
0.0
  0
LINE
  5
1653D
330
747D
100
AcDbEntity
  8
部品1
 48
50.0
100
AcDbLine
 10
8886.761265317414
 20
4532.93159871326
 30
0.0
 11
8886.761265317414
 21
4537.931598713261
 31
0.0
  0
LINE
  5
165AD
330
747D
100
AcDbEntity
  8
部品1
100
AcDbLine
 10
11041.76126531741
 20
4591.431598713262
 30
0.0
 11
11041.76126531741
 21
2597.931598713262
 31
0.0
  0
LINE
  5
165AE
330
747D
100
AcDbEntity
  8
部品1
100
AcDbLine
 10
11046.76126531741
 20
2742.931598713262
 30
0.0
 11
11046.76126531741
 21
2597.931598713262
 31
0.0
  0
LINE
  5
165AF
330
747D
100
AcDbEntity
  8
破線
 48
5.0
100
AcDbLine
 10
11046.76126531741
 20
2597.931598713262
 30
0.0
 11
11046.76126531741
 21
2442.931598713262
 31
0.0
  0
LINE
  5
165B0
330
747D
100
AcDbEntity
  8
破線
 48
5.0
100
AcDbLine
 10
11141.76126531741
 20
2597.931598713262
 30
0.0
 11
11141.76126531741
 21
2397.931598713261
 31
0.0
  0
LINE
  5
165B1
330
747D
100
AcDbEntity
  8
破線
 48
5.0
100
AcDbLine
 10
11066.76126531741
 20
2442.931598713262
 30
0.0
 11
11046.76126531741
 21
2442.931598713262
 31
0.0
  0
LINE
  5
165B2
330
747D
100
AcDbEntity
  8
部品1
100
AcDbLine
 10
11013.76126531741
 20
2747.931598713281
 30
0.0
 11
11041.76126531741
 21
2747.931598713281
 31
0.0
  0
LINE
  5
165CB
330
747D
100
AcDbEntity
  8
部品1
 48
50.0
100
AcDbLine
 10
10986.76126531741
 20
4532.93159871326
 30
0.0
 11
10986.76126531741
 21
4537.931598713261
 31
0.0
  0
DIMENSION
  5
167C7
330
747D
100
AcDbEntity
  8
寸法
100
AcDbDimension
  2
*D3
 10
8466.761265317421
 20
9367.558842188365
 30
0.0
 11
8103.275983943147
 21
9367.558842188365
 31
0.0
 70
   160
 71
     5
 42
55.00000000003637
  3
INABA_S40G
100
AcDbAlignedDimension
 13
8411.761265317386
 23
9067.558842188367
 33
0.0
 14
8466.761265317421
 24
9067.558842188367
 34
0.0
100
AcDbRotatedDimension
1001
ACAD
1000
DSTYLE
1002
{
1002
}
  0
DIMENSION
  5
167C8
330
747D
100
AcDbEntity
  8
寸法
100
AcDbDimension
  2
*D4
 10
9626.527333481423
 20
8267.595452643815
 30
0.0
 11
8990.027333481389
 21
8267.595452643815
 31
0.0
 70
   160
 71
     5
 42
1273.000000000069
  3
INABA_S40G
100
AcDbAlignedDimension
 13
8439.261265317353
 23
8587.558842188412
 33
0.0
 14
9712.261265317422
 24
8587.558842188405
 34
0.0
100
AcDbRotatedDimension
1001
ACAD
1000
DSTYLE
1002
{
1002
}
  0
DIMENSION
  5
167C9
330
747D
100
AcDbEntity
  8
寸法
100
AcDbDimension
  2
*D5
 10
11041.76126531742
 20
9367.558842188365
 30
0.0
 11
11350.24654669166
 21
9367.558842188365
 31
0.0
 70
   160
 71
     5
 42
55.0
  3
INABA_S40G
100
AcDbAlignedDimension
 13
10986.76126531742
 23
9067.558842188461
 33
0.0
 14
11041.76126531742
 24
9067.558842188461
 34
0.0
100
AcDbRotatedDimension
1001
ACAD
1000
DSTYLE
1002
{
1002
}
  0
DIMENSION
  5
167CA
330
747D
100
AcDbEntity
  8
寸法
100
AcDbDimension
  2
*D6
 10
10986.76126531742
 20
9367.558842188365
 30
0.0
 11
9726.761265317419
 21
9367.558842188365
 31
0.0
 70
   160
  1
6X420=<>
 71
     5
 42
2520.0
  3
INABA_S40G
100
AcDbAlignedDimension
 13
8466.761265317421
 23
9067.558842188367
 33
0.0
 14
10986.76126531742
 24
9067.558842188461
 34
0.0
100
AcDbRotatedDimension
1001
ACAD
1000
DSTYLE
1002
{
1002
}
  0
LINE
  5
167CB
330
747D
100
AcDbEntity
  8
部品1
100
AcDbLine
 10
10985.26126531742
 20
7754.058842188451
 30
0.0
 11
8468.261265317314
 21
7754.058842188332
 31
0.0
  0
LINE
  5
167CC
330
747D
100
AcDbEntity
  8
部品1
100
AcDbLine
 10
8411.761265317421
 20
9067.558842188367
 30
0.0
 11
11041.76126531742
 21
9067.558842188461
 31
0.0
  0
DIMENSION
  5
167CD
330
747D
100
AcDbEntity
  8
寸法
100
AcDbDimension
  2
*D7
 10
11041.7612653174
 20
6416.361884907317
 30
0.0
 11
9711.200610019936
 21
6416.361884907317
 31
0.0
 70
   160
 71
     5
 42
2629.999999999982
  3
INABA_S40G
100
AcDbAlignedDimension
 13
8411.761265317414
 23
7697.558842188287
 33
0.0
 14
11041.7612653174
 24
7697.558842188451
 34
0.0
100
AcDbRotatedDimension
1001
ACAD
1000
DSTYLE
1002
{
1002
}
  0
DIMENSION
  5
167CE
330
747D
100
AcDbEntity
  8
寸法
100
AcDbDimension
  2
*D8
 10
10926.52733348142
 20
8267.595452643815
 30
0.0
 11
10359.64917263143
 21
8267.595452643815
 31
0.0
 70
   160
 71
     5
 42
1273.000000000011
  3
INABA_S40G
100
AcDbAlignedDimension
 13
9739.261265317423
 23
8587.558842188471
 33
0.0
 14
11012.26126531743
 24
8587.558842188464
 34
0.0
100
AcDbRotatedDimension
1001
ACAD
1000
DSTYLE
1002
{
1002
}
  0
LINE
  5
167CF
330
747D
100
AcDbEntity
  8
細線
 48
50.0
100
AcDbLine
 10
11013.26126531742
 20
9037.55884218846
 30
0.0
 11
9740.261265317421
 21
8587.558842188471
 31
0.0
  0
LINE
  5
167D0
330
747D
100
AcDbEntity
  8
部品1
100
AcDbLine
 10
9740.261265317421
 20
9037.558842188467
 30
0.0
 11
11013.26126531742
 21
9037.55884218846
 31
0.0
  0
LINE
  5
167D1
330
747D
100
AcDbEntity
  8
部品1
100
AcDbLine
 10
9740.261265317421
 20
8587.558842188471
 30
0.0
 11
11013.26126531742
 21
8587.558842188464
 31
0.0
  0
LINE
  5
167D2
330
747D
100
AcDbEntity
  8
細線
 48
50.0
100
AcDbLine
 10
11013.26126531742
 20
8587.558842188464
 30
0.0
 11
9740.261265317421
 21
9037.558842188465
 31
0.0
  0
LINE
  5
167D3
330
747D
100
AcDbEntity
  8
部品1
100
AcDbLine
 10
9739.261265317423
 20
9039.558842188478
 30
0.0
 11
11013.76126531742
 21
9039.55884218846
 31
0.0
  0
LINE
  5
167D4
330
747D
100
AcDbEntity
  8
部品1
100
AcDbLine
 10
10985.2612653174
 20
8172.558842188434
 30
0.0
 11
8468.261265317407
 21
8172.558842188335
 31
0.0
  0
LINE
  5
167D5
330
747D
100
AcDbEntity
  8
部品1
 48
50.0
100
AcDbLine
 10
8439.761265317414
 20
7725.558842188433
 30
0.0
 11
11013.76126531743
 21
7725.558842188438
 31
0.0
  0
LINE
  5
167DB
330
747D
100
AcDbEntity
  8
破線
 48
10.0
100
AcDbLine
 10
10961.76126531741
 20
8587.558842188464
 30
0.0
 11
10961.76126531742
 21
7777.558842188449
 31
0.0
  0
LINE
  5
167DC
330
747D
100
AcDbEntity
  8
破線
 48
10.0
100
AcDbLine
 10
8491.761265317396
 20
8587.558842188464
 30
0.0
 11
8491.761265317412
 21
7777.558842188333
 31
0.0
  0
LINE
  5
167DD
330
747D
100
AcDbEntity
  8
部品1
100
AcDbLine
 10
8439.761265317397
 20
7725.558842188412
 30
0.0
 11
8439.761265317414
 21
8592.558842188337
 31
0.0
  0
LINE
  5
167DE
330
747D
100
AcDbEntity
  8
部品1
100
AcDbLine
 10
8411.761265317386
 20
9067.558842188333
 30
0.0
 11
8411.761265317414
 21
7697.558842188321
 31
0.0
  0
LINE
  5
167DF
330
747D
100
AcDbEntity
  8
破線
 48
10.0
100
AcDbLine
 10
9286.261265317399
 20
7754.058842188361
 30
0.0
 11
9286.261265317397
 21
8587.558842188471
 31
0.0
  0
LINE
  5
167E0
330
747D
100
AcDbEntity
  8
破線
 48
10.0
100
AcDbLine
 10
9336.261265317396
 20
7754.058842188365
 30
0.0
 11
9336.261265317396
 21
8587.558842188471
 31
0.0
  0
LINE
  5
167E1
330
747D
100
AcDbEntity
  8
部品1
100
AcDbLine
 10
8468.2612653174
 20
8587.558842188412
 30
0.0
 11
8468.261265317412
 21
7754.058842188427
 31
0.0
  0
LINE
  5
167E2
330
747D
100
AcDbEntity
  8
破線
 48
10.0
100
AcDbLine
 10
10167.26126531739
 20
7754.058842188365
 30
0.0
 11
10167.26126531739
 21
8587.558842188471
 31
0.0
  0
LINE
  5
167E3
330
747D
100
AcDbEntity
  8
破線
 48
10.0
100
AcDbLine
 10
10117.2612653174
 20
7754.058842188361
 30
0.0
 11
10117.26126531739
 21
8587.558842188471
 31
0.0
  0
LINE
  5
167E5
330
747D
100
AcDbEntity
  8
破線
 48
10.0
100
AcDbLine
 10
10117.2612653174
 20
7777.558842188368
 30
0.0
 11
9336.261265317396
 21
7777.558842188343
 31
0.0
  0
LINE
  5
167EA
330
747D
100
AcDbEntity
  8
破線
 48
10.0
100
AcDbLine
 10
9286.261265317399
 20
7777.558842188317
 30
0.0
 11
8491.761265317407
 21
7777.558842188333
 31
0.0
  0
LINE
  5
167F5
330
747D
100
AcDbEntity
  8
部品1
100
AcDbLine
 10
8886.761265317389
 20
7697.558842188321
 30
0.0
 11
8411.761265317414
 21
7697.558842188321
 31
0.0
  0
LINE
  5
167F6
330
747D
100
AcDbEntity
  8
部品1
100
AcDbLine
 10
8411.761265317414
 20
7752.558842188284
 30
0.0
 11
8411.761265317414
 21
7697.558842188287
 31
0.0
  0
LINE
  5
167F7
330
747D
100
AcDbEntity
  8
部品1
100
AcDbLine
 10
8439.761265317413
 20
7752.558842188334
 30
0.0
 11
8411.761265317414
 21
7752.558842188334
 31
0.0
  0
LINE
  5
167F8
330
747D
100
AcDbEntity
  8
部品1
100
AcDbLine
 10
8439.761265317397
 20
7752.55884218832
 30
0.0
 11
8411.761265317414
 21
7752.55884218832
 31
0.0
  0
LINE
  5
167F9
330
747D
100
AcDbEntity
  8
部品1
100
AcDbLine
 10
8439.761265317397
 20
7752.558842188284
 30
0.0
 11
8411.761265317414
 21
7752.558842188284
 31
0.0
  0
LINE
  5
167FA
330
747D
100
AcDbEntity
  8
部品1
100
AcDbLine
 10
8466.761265317389
 20
7697.558842188453
 30
0.0
 11
8466.761265317389
 21
7725.558842188452
 31
0.0
  0
LINE
  5
167FB
330
747D
100
AcDbEntity
  8
部品1
 48
50.0
100
AcDbLine
 10
8468.261265317412
 20
7754.058842188429
 30
0.0
 11
8439.761265317411
 21
7725.558842188431
 31
0.0
  0
LINE
  5
167FC
330
747D
100
AcDbEntity
  8
部品1
100
AcDbLine
 10
8886.761265317389
 20
7697.558842188453
 30
0.0
 11
8886.761265317389
 21
7725.558842188452
 31
0.0
  0
LINE
  5
16818
330
747D
100
AcDbEntity
  8
破線
 48
10.0
100
AcDbLine
 10
10961.76126531742
 20
7777.558842188451
 30
0.0
 11
10167.26126531739
 21
7777.558842188271
 31
0.0
  0
LINE
  5
1682B
330
747D
100
AcDbEntity
  8
細線
 48
50.0
100
AcDbLine
 10
9713.26126531742
 20
8587.558842188471
 30
0.0
 11
8440.261265317351
 21
9037.558842188413
 31
0.0
  0
LINE
  5
1682C
330
747D
100
AcDbEntity
  8
細線
 48
50.0
100
AcDbLine
 10
9713.261265317422
 20
9037.558842188467
 30
0.0
 11
8440.261265317353
 21
8587.558842188412
 31
0.0
  0
LINE
  5
1682D
330
747D
100
AcDbEntity
  8
部品1
100
AcDbLine
 10
8439.761265317423
 20
9039.558842188478
 30
0.0
 11
9714.261265317418
 21
9039.558842188482
 31
0.0
  0
LINE
  5
1682E
330
747D
100
AcDbEntity
  8
部品1
100
AcDbLine
 10
8440.261265317353
 20
9037.558842188413
 30
0.0
 11
9713.261265317422
 21
9037.558842188472
 31
0.0
  0
LINE
  5
1682F
330
747D
100
AcDbEntity
  8
部品1
100
AcDbLine
 10
8440.261265317353
 20
8587.558842188412
 30
0.0
 11
9713.26126531742
 21
8587.558842188471
 31
0.0
  0
LINE
  5
16830
330
747D
100
AcDbEntity
  8
部品1
 48
50.0
100
AcDbLine
 10
8440.261265317353
 20
9037.558842188467
 30
0.0
 11
8440.261265317353
 21
8587.558842188471
 31
0.0
  0
LINE
  5
16831
330
747D
100
AcDbEntity
  8
部品1
100
AcDbLine
 10
8439.761265317411
 20
8587.058842188337
 30
0.0
 11
8439.761265317422
 21
9039.558842188366
 31
0.0
  0
LINE
  5
16832
330
747D
100
AcDbEntity
  8
部品1
100
AcDbLine
 10
8439.761265317397
 20
8172.558842188335
 30
0.0
 11
8411.761265317396
 21
8172.558842188335
 31
0.0
  0
LINE
  5
16833
330
747D
100
AcDbEntity
  8
部品1
100
AcDbLine
 10
8439.761265317397
 20
8592.558842188337
 30
0.0
 11
8411.761265317396
 21
8592.558842188337
 31
0.0
  0
LINE
  5
16834
330
747D
100
AcDbEntity
  8
部品1
100
AcDbLine
 10
8439.76126531739
 20
9012.558842188337
 30
0.0
 11
8411.761265317389
 21
9012.558842188337
 31
0.0
  0
LINE
  5
16835
330
747D
100
AcDbEntity
  8
部品1
100
AcDbLine
 10
8466.761265317421
 20
9067.558842188367
 30
0.0
 11
8466.761265317421
 21
9039.558842188366
 31
0.0
  0
LINE
  5
16836
330
747D
100
AcDbEntity
  8
部品1
100
AcDbLine
 10
8466.761265317385
 20
9067.558842188333
 30
0.0
 11
8466.761265317389
 21
9039.558842188332
 31
0.0
  0
LINE
  5
16837
330
747D
100
AcDbEntity
  8
部品1
100
AcDbLine
 10
8886.761265317385
 20
9067.558842188333
 30
0.0
 11
8886.761265317389
 21
9039.558842188332
 31
0.0
  0
LINE
  5
16838
330
747D
100
AcDbEntity
  8
部品1
100
AcDbLine
 10
9306.761265317385
 20
9067.558842188333
 30
0.0
 11
9306.761265317389
 21
9039.558842188332
 31
0.0
  0
LINE
  5
16839
330
747D
100
AcDbEntity
  8
部品1
 48
50.0
100
AcDbLine
 10
9713.261265317422
 20
9037.558842188467
 30
0.0
 11
9713.261265317422
 21
8587.558842188471
 31
0.0
  0
LINE
  5
1683A
330
747D
100
AcDbEntity
  8
部品1
 48
50.0
100
AcDbLine
 10
9740.261265317421
 20
9037.558842188465
 30
0.0
 11
9740.261265317421
 21
8587.558842188471
 31
0.0
  0
LINE
  5
1683B
330
747D
100
AcDbEntity
  8
部品1
 48
50.0
100
AcDbLine
 10
9714.26126531742
 20
9039.558842188474
 30
0.0
 11
9714.261265317423
 21
8587.558842188471
 31
0.0
  0
LINE
  5
1683C
330
747D
100
AcDbEntity
  8
部品1
 48
50.0
100
AcDbLine
 10
9739.261265317423
 20
9039.558842188471
 30
0.0
 11
9739.261265317423
 21
8587.558842188471
 31
0.0
  0
LINE
  5
1683D
330
747D
100
AcDbEntity
  8
部品1
100
AcDbLine
 10
9714.261265317423
 20
8587.558842188471
 30
0.0
 11
9739.261265317423
 21
8587.558842188471
 31
0.0
  0
LINE
  5
1683E
330
747D
100
AcDbEntity
  8
部品1
100
AcDbLine
 10
9714.261265317423
 20
9031.558842188465
 30
0.0
 11
9739.261265317423
 21
9031.558842188468
 31
0.0
  0
LINE
  5
1683F
330
747D
100
AcDbEntity
  8
部品1
100
AcDbLine
 10
9691.761265317422
 20
9057.558842188468
 30
0.0
 11
9691.761265317422
 21
9039.558842188467
 31
0.0
  0
LINE
  5
16840
330
747D
100
AcDbEntity
  8
部品1
100
AcDbLine
 10
9691.761265317422
 20
9057.558842188468
 30
0.0
 11
9697.761265317422
 21
9057.558842188468
 31
0.0
  0
LINE
  5
16841
330
747D
100
AcDbEntity
  8
部品1
100
AcDbLine
 10
9761.761265317423
 20
9057.558842188468
 30
0.0
 11
9761.761265317423
 21
9039.558842188467
 31
0.0
  0
LINE
  5
16842
330
747D
100
AcDbEntity
  8
部品1
100
AcDbLine
 10
9755.761265317422
 20
9057.558842188468
 30
0.0
 11
9761.761265317423
 21
9057.558842188468
 31
0.0
  0
LINE
  5
16843
330
747D
100
AcDbEntity
  8
部品1
100
AcDbLine
 10
9726.761265317385
 20
9067.558842188333
 30
0.0
 11
9726.76126531739
 21
9039.558842188332
 31
0.0
  0
LINE
  5
16844
330
747D
100
AcDbEntity
  8
部品1
100
AcDbLine
 10
10146.76126531738
 20
9067.558842188333
 30
0.0
 11
10146.76126531739
 21
9039.558842188332
 31
0.0
  0
LINE
  5
16845
330
747D
100
AcDbEntity
  8
部品1
100
AcDbLine
 10
10566.76126531738
 20
9067.558842188333
 30
0.0
 11
10566.76126531739
 21
9039.558842188332
 31
0.0
  0
DIMENSION
  5
16846
330
747D
100
AcDbEntity
  8
寸法
100
AcDbDimension
  2
*D9
 10
12008.32684175308
 20
7697.558842188451
 30
0.0
 11
12008.32684175308
 21
8390.423263104008
 31
0.0
 70
   160
 71
     5
 42
1370.000000000009
  3
INABA_S40G
100
AcDbAlignedDimension
 13
11041.76126531742
 23
9067.558842188461
 33
0.0
 14
11041.7612653174
 24
7697.558842188451
 34
0.0
 50
90.0
100
AcDbRotatedDimension
1001
ACAD
1000
DSTYLE
1002
{
1002
}
  0
DIMENSION
  5
16847
330
747D
100
AcDbEntity
  8
寸法
100
AcDbDimension
  2
*D10
 10
11741.76126531741
 20
7752.558842188446
 30
0.0
 11
11741.76126531741
 21
8382.558842188457
 31
0.0
 70
   160
  1
3X420=<>
 71
     5
 42
1260.000000000016
  3
INABA_S40G
100
AcDbAlignedDimension
 13
11041.76126531742
 23
9012.558842188465
 33
0.0
 14
11041.7612653174
 24
7752.558842188446
 34
0.0
 50
90.0
100
AcDbRotatedDimension
1001
ACAD
1000
DSTYLE
1002
{
1002
}
  0
LINE
  5
16848
330
747D
100
AcDbEntity
  8
部品1
100
AcDbLine
 10
11041.76126531742
 20
9067.558842188461
 30
0.0
 11
11041.7612653174
 21
7697.558842188451
 31
0.0
  0
LINE
  5
16849
330
747D
100
AcDbEntity
  8
部品1
100
AcDbLine
 10
10985.26126531741
 20
8587.55884218846
 30
0.0
 11
10985.26126531742
 21
7754.058842188451
 31
0.0
  0
LINE
  5
1684A
330
747D
100
AcDbEntity
  8
部品1
100
AcDbLine
 10
11013.76126531741
 20
8592.558842188465
 30
0.0
 11
11013.7612653174
 21
7725.558842188452
 31
0.0
  0
DIMENSION
  5
1684B
330
747D
100
AcDbEntity
  8
寸法
100
AcDbDimension
  2
*D11
 10
11741.7612653174
 20
7697.558842188451
 30
0.0
 11
11741.76126531739
 21
7389.0735608142
 31
0.0
 70
   160
 71
     5
 42
54.99999999999636
  3
INABA_S40G
100
AcDbAlignedDimension
 13
11041.7612653174
 23
7752.558842188446
 33
0.0
 14
11041.7612653174
 24
7697.558842188451
 34
0.0
 50
90.0
100
AcDbRotatedDimension
1001
ACAD
1000
DSTYLE
1002
{
1002
}
  0
LINE
  5
16850
330
747D
100
AcDbEntity
  8
部品1
100
AcDbLine
 10
11041.7612653174
 20
7697.558842188451
 30
0.0
 11
10986.76126531742
 21
7697.558842188438
 31
0.0
  0
LINE
  5
16851
330
747D
100
AcDbEntity
  8
部品1
100
AcDbLine
 10
11013.7612653174
 20
7752.558842188446
 30
0.0
 11
11041.7612653174
 21
7752.558842188446
 31
0.0
  0
LINE
  5
16852
330
747D
100
AcDbEntity
  8
部品1
100
AcDbLine
 10
11041.7612653174
 20
7697.558842188451
 30
0.0
 11
10990.76126531739
 21
7697.558842188451
 31
0.0
  0
LINE
  5
16853
330
747D
100
AcDbEntity
  8
部品1
 48
50.0
100
AcDbLine
 10
10985.26126531742
 20
7754.058842188451
 30
0.0
 11
11013.76126531742
 21
7725.558842188452
 31
0.0
  0
LINE
  5
16854
330
747D
100
AcDbEntity
  8
部品1
100
AcDbLine
 10
11041.7612653174
 20
7752.558842188446
 30
0.0
 11
11041.7612653174
 21
7697.558842188451
 31
0.0
  0
LINE
  5
16855
330
747D
100
AcDbEntity
  8
部品1
100
AcDbLine
 10
11013.76126531742
 20
7752.558842188449
 30
0.0
 11
11041.76126531742
 21
7752.558842188449
 31
0.0
  0
LINE
  5
16856
330
747D
100
AcDbEntity
  8
部品1
 48
50.0
100
AcDbLine
 10
10986.76126531742
 20
7697.558842188438
 30
0.0
 11
10986.76126531742
 21
7725.558842188438
 31
0.0
  0
LINE
  5
1685A
330
747D
100
AcDbEntity
  8
部品1
100
AcDbLine
 10
11013.76126531742
 20
9039.55884218846
 30
0.0
 11
11013.76126531741
 21
8587.058842188337
 31
0.0
  0
LINE
  5
1685B
330
747D
100
AcDbEntity
  8
部品1
100
AcDbLine
 10
11013.26126531742
 20
9037.55884218846
 30
0.0
 11
11013.26126531742
 21
8587.558842188464
 31
0.0
  0
DIMENSION
  5
1685C
330
747D
100
AcDbEntity
  8
寸法
100
AcDbDimension
  2
*D12
 10
11441.76126531741
 20
8472.742613231728
 30
0.0
 11
11441.76126531741
 21
8697.742613231728
 31
0.0
 70
   160
 71
     5
 42
449.9999999999963
  3
INABA_S40G
100
AcDbAlignedDimension
 13
11013.26126531742
 23
9037.55884218846
 33
0.0
 14
11013.26126531742
 24
8587.558842188464
 34
0.0
 50
90.0
100
AcDbRotatedDimension
1001
ACAD
1000
DSTYLE
1002
{
1002
}
  0
DIMENSION
  5
1685D
330
747D
100
AcDbEntity
  8
寸法
100
AcDbDimension
  2
*D13
 10
11741.76126531741
 20
9012.558842188465
 30
0.0
 11
11741.76126531741
 21
9376.044123562699
 31
0.0
 70
   160
 71
     5
 42
54.99999999999636
  3
INABA_S40G
100
AcDbAlignedDimension
 13
11041.76126531742
 23
9067.558842188461
 33
0.0
 14
11041.76126531742
 24
9012.558842188465
 34
0.0
 50
90.0
100
AcDbRotatedDimension
1001
ACAD
1000
DSTYLE
1002
{
1002
}
  0
LINE
  5
1685E
330
747D
100
AcDbEntity
  8
部品1
100
AcDbLine
 10
11013.76126531742
 20
8172.558842188463
 30
0.0
 11
11041.76126531742
 21
8172.558842188463
 31
0.0
  0
LINE
  5
1685F
330
747D
100
AcDbEntity
  8
部品1
100
AcDbLine
 10
11013.76126531742
 20
8592.558842188465
 30
0.0
 11
11041.76126531742
 21
8592.558842188465
 31
0.0
  0
LINE
  5
16860
330
747D
100
AcDbEntity
  8
部品1
100
AcDbLine
 10
11013.76126531742
 20
9012.558842188465
 30
0.0
 11
11041.76126531742
 21
9012.558842188465
 31
0.0
  0
LINE
  5
16861
330
747D
100
AcDbEntity
  8
部品1
100
AcDbLine
 10
10986.76126531742
 20
9067.558842188482
 30
0.0
 11
10986.76126531742
 21
9039.558842188482
 31
0.0
  0
LINE
  5
16862
330
747D
100
AcDbEntity
  8
部品1
100
AcDbLine
 10
10986.76126531742
 20
9067.558842188461
 30
0.0
 11
10986.76126531742
 21
9039.55884218846
 31
0.0
  0
TEXT
  5
16E61
330
747D
100
AcDbEntity
  8
文字
 62
     7
 48
50.0
100
AcDbText
 10
13583.11819016569
 20
8550.013745883731
 30
0.0
 40
100.0
  1
棚板
  7
STYLE1
100
AcDbText
  0
TEXT
  5
16E62
330
747D
100
AcDbEntity
  8
文字
 62
     7
 48
50.0
100
AcDbText
 10
15022.63965474516
 20
8550.013745883727
 30
0.0
 40
100.0
  1
F12            0.6
  7
STYLE1
100
AcDbText
  0
TEXT
  5
16E63
330
747D
100
AcDbEntity
  8
文字
 62
     7
 48
50.0
100
AcDbText
 10
13583.11819016569
 20
9740.013745883729
 30
0.0
 40
100.0
  1
母屋中
  7
STYLE1
100
AcDbText
  0
TEXT
  5
16E64
330
747D
100
AcDbEntity
  8
文字
 62
     7
 48
50.0
100
AcDbText
 10
13248.77747366447
 20
8720.013745883729
 30
0.0
 40
100.0
  1
15
  7
STYLE1
100
AcDbText
  0
LINE
  5
16E65
330
747D
100
AcDbEntity
  8
仕様書枠
 48
50.0
100
AcDbLine
 10
16307.19999999999
 20
8009.600000000004
 30
0.0
 11
13127.19999999999
 21
8009.600000000006
 31
0.0
  0
TEXT
  5
16E66
330
747D
100
AcDbEntity
  8
文字
 62
     7
 48
50.0
100
AcDbText
 10
13583.11819016569
 20
8720.013745883731
 30
0.0
 40
100.0
  1
扉
  7
STYLE1
100
AcDbText
  0
TEXT
  5
16E67
330
747D
100
AcDbEntity
  8
文字
 62
     7
 48
50.0
100
AcDbText
 10
15022.63965474516
 20
8720.013745883727
 30
0.0
 40
100.0
  1
F12            0.8
  7
STYLE1
100
AcDbText
  0
TEXT
  5
16E68
330
747D
100
AcDbEntity
  8
文字
 62
     7
 48
50.0
100
AcDbText
 10
13583.11819016568
 20
8890.013745883731
 30
0.0
 40
100.0
  1
正面パネル
  7
STYLE1
100
AcDbText
  0
TEXT
  5
16E69
330
747D
100
AcDbEntity
  8
文字
 62
     7
 48
50.0
100
AcDbText
 10
15022.63965474515
 20
8890.013745883727
 30
0.0
 40
100.0
  1
F12            0.7
  7
STYLE1
100
AcDbText
  0
TEXT
  5
16E6A
330
747D
100
AcDbEntity
  8
文字
 62
     7
 48
50.0
100
AcDbText
 10
15022.63965474517
 20
10590.01374588372
 30
0.0
 40
100.0
  1
F12            1.0
  7
STYLE1
100
AcDbText
  0
TEXT
  5
16E6B
330
747D
100
AcDbEntity
  8
文字
 62
     7
 48
50.0
100
AcDbText
 10
15022.63965474516
 20
10930.01374588372
 30
0.0
 40
100.0
  1
F12            1.2
  7
STYLE1
100
AcDbText
  0
TEXT
  5
16E6C
330
747D
100
AcDbEntity
  8
文字
 62
     7
 48
50.0
100
AcDbText
 10
13248.77747366448
 20
8890.013745883727
 30
0.0
 40
100.0
  1
14
  7
STYLE1
100
AcDbText
  0
TEXT
  5
16E6D
330
747D
100
AcDbEntity
  8
文字
 62
     7
 48
50.0
100
AcDbText
 10
13583.11819016569
 20
10930.01374588372
 30
0.0
 40
100.0
  1
根太
  7
STYLE1
100
AcDbText
  0
TEXT
  5
16E6E
330
747D
100
AcDbEntity
  8
文字
 62
     7
 48
50.0
100
AcDbText
 10
13583.1181901657
 20
10590.01374588372
 30
0.0
 40
100.0
  1
床パネル
 41
0.9
  7
STYLE1
100
AcDbText
  0
LINE
  5
16E6F
330
747D
100
AcDbEntity
  8
仕様書枠
 48
50.0
100
AcDbLine
 10
16307.19999999999
 20
9029.6
 30
0.0
 11
13127.2
 21
9029.600000000002
 31
0.0
  0
LINE
  5
16E70
330
747D
100
AcDbEntity
  8
仕様書枠
 48
50.0
100
AcDbLine
 10
13127.2
 20
11409.6
 30
0.0
 11
13127.19999999999
 21
8009.600000000006
 31
0.0
  0
TEXT
  5
16E71
330
747D
100
AcDbEntity
  8
文字
 62
     7
 48
50.0
100
AcDbText
 10
13229.83081656554
 20
8040.013745883731
 30
0.0
 40
100.0
  1
Y10→溶融亜鉛-5％アルミニウム合金めっき鋼板(JIS G 3317)
 41
0.9
  7
STYLE1
100
AcDbText
  0
TEXT
  5
16E72
330
747D
100
AcDbEntity
  8
文字
 62
     7
 48
50.0
100
AcDbText
 10
13229.83081656554
 20
8210.013745883733
 30
0.0
 40
100.0
  1
F12→溶融亜鉛めっき鋼板(JIS G 3302)
  7
STYLE1
100
AcDbText
  0
LINE
  5
16E73
330
747D
100
AcDbEntity
  8
仕様書枠
 48
50.0
100
AcDbLine
 10
16307.19999999999
 20
8179.600000000004
 30
0.0
 11
13127.19999999999
 21
8179.600000000005
 31
0.0
  0
LINE
  5
16E74
330
747D
100
AcDbEntity
  8
仕様書枠
 48
50.0
100
AcDbLine
 10
16307.19999999999
 20
8349.600000000004
 30
0.0
 11
13127.19999999999
 21
8349.600000000007
 31
0.0
  0
TEXT
  5
16E75
330
747D
100
AcDbEntity
  8
文字
 62
     7
 48
50.0
100
AcDbText
 10
15022.63965474515
 20
9570.013745883725
 30
0.0
 40
100.0
  1
F12            0.6
  7
STYLE1
100
AcDbText
  0
TEXT
  5
16E76
330
747D
100
AcDbEntity
  8
文字
 62
     7
 48
50.0
100
AcDbText
 10
15022.63965474517
 20
9910.013745883725
 30
0.0
 40
100.0
  1
Y10            0.5
  7
STYLE1
100
AcDbText
  0
TEXT
  5
16E77
330
747D
100
AcDbEntity
  8
文字
 62
     7
 48
50.0
100
AcDbText
 10
15022.63965474516
 20
10080.01374588372
 30
0.0
 40
100.0
  1
Y10            0.7
  7
STYLE1
100
AcDbText
  0
TEXT
  5
16E78
330
747D
100
AcDbEntity
  8
文字
 62
     7
 48
50.0
100
AcDbText
 10
15022.63965474516
 20
10250.01374588372
 30
0.0
 40
100.0
  1
Y10            0.7
  7
STYLE1
100
AcDbText
  0
TEXT
  5
16E79
330
747D
100
AcDbEntity
  8
文字
 62
     7
 48
50.0
100
AcDbText
 10
15022.63965474516
 20
10420.01374588372
 30
0.0
 40
100.0
  1
Y10            1.0
  7
STYLE1
100
AcDbText
  0
TEXT
  5
16E7A
330
747D
100
AcDbEntity
  8
文字
 62
     7
 48
50.0
100
AcDbText
 10
15022.63965474518
 20
10760.01374588372
 30
0.0
 40
100.0
  1
F12            1.0
  7
STYLE1
100
AcDbText
  0
TEXT
  5
16E7B
330
747D
100
AcDbEntity
  8
文字
 62
     7
 48
50.0
100
AcDbText
 10
15022.63965474517
 20
11100.01374588372
 30
0.0
 40
100.0
  1
F12            1.2
  7
STYLE1
100
AcDbText
  0
TEXT
  5
16E7C
330
747D
100
AcDbEntity
  8
文字
 62
     7
 48
50.0
100
AcDbText
 10
13248.77747366448
 20
9230.013745883727
 30
0.0
 40
100.0
  1
12
  7
STYLE1
100
AcDbText
  0
TEXT
  5
16E7D
330
747D
100
AcDbEntity
  8
文字
 62
     7
 48
50.0
100
AcDbText
 10
13248.77747366448
 20
9060.013745883727
 30
0.0
 40
100.0
  1
13
  7
STYLE1
100
AcDbText
  0
LINE
  5
16E7E
330
747D
100
AcDbEntity
  8
仕様書枠
 48
50.0
100
AcDbLine
 10
16307.19999999999
 20
8859.6
 30
0.0
 11
13127.2
 21
8859.600000000002
 31
0.0
  0
LINE
  5
16E7F
330
747D
100
AcDbEntity
  8
仕様書枠
 48
50.0
100
AcDbLine
 10
16307.19999999999
 20
9199.599999999998
 30
0.0
 11
13127.2
 21
9199.600000000001
 31
0.0
  0
TEXT
  5
16E80
330
747D
100
AcDbEntity
  8
文字
 62
     7
 48
50.0
100
AcDbText
 10
13248.77747366447
 20
9400.013745883727
 30
0.0
 40
100.0
  1
11
  7
STYLE1
100
AcDbText
  0
LINE
  5
16E81
330
747D
100
AcDbEntity
  8
仕様書枠
 48
50.0
100
AcDbLine
 10
16307.2
 20
9879.599999999999
 30
0.0
 11
13127.2
 21
9879.600000000001
 31
0.0
  0
LINE
  5
16E82
330
747D
100
AcDbEntity
  8
仕様書枠
 48
50.0
100
AcDbLine
 10
16307.2
 20
10219.6
 30
0.0
 11
13127.2
 21
10219.6
 31
0.0
  0
LINE
  5
16E83
330
747D
100
AcDbEntity
  8
仕様書枠
 48
50.0
100
AcDbLine
 10
16307.19999999999
 20
9539.599999999998
 30
0.0
 11
13127.2
 21
9539.6
 31
0.0
  0
LINE
  5
16E84
330
747D
100
AcDbEntity
  8
仕様書枠
 48
50.0
100
AcDbLine
 10
16307.19999999999
 20
9369.599999999998
 30
0.0
 11
13127.2
 21
9369.600000000001
 31
0.0
  0
LINE
  5
16E85
330
747D
100
AcDbEntity
  8
仕様書枠
 48
50.0
100
AcDbLine
 10
16307.19999999999
 20
9709.6
 30
0.0
 11
13127.2
 21
9709.600000000001
 31
0.0
  0
TEXT
  5
16E86
330
747D
100
AcDbEntity
  8
文字
 62
     7
 48
50.0
100
AcDbText
 10
13271.19032244792
 20
10250.01374588373
 30
0.0
 40
100.0
  1
6
  7
STYLE1
100
AcDbText
  0
TEXT
  5
16E87
330
747D
100
AcDbEntity
  8
文字
 62
     7
 48
50.0
100
AcDbText
 10
13271.19032244792
 20
10080.01374588373
 30
0.0
 40
100.0
  1
7
  7
STYLE1
100
AcDbText
  0
TEXT
  5
16E88
330
747D
100
AcDbEntity
  8
文字
 62
     7
 48
50.0
100
AcDbText
 10
13271.19032244792
 20
9740.013745883729
 30
0.0
 40
100.0
  1
9
  7
STYLE1
100
AcDbText
  0
TEXT
  5
16E89
330
747D
100
AcDbEntity
  8
文字
 62
     7
 48
50.0
100
AcDbText
 10
13271.19032244792
 20
9910.01374588373
 30
0.0
 40
100.0
  1
8
  7
STYLE1
100
AcDbText
  0
TEXT
  5
16E8A
330
747D
100
AcDbEntity
  8
文字
 62
     7
 48
50.0
100
AcDbText
 10
13583.11819016569
 20
10080.01374588372
 30
0.0
 40
100.0
  1
鼻隠シ前後
  7
STYLE1
100
AcDbText
  0
TEXT
  5
16E8B
330
747D
100
AcDbEntity
  8
文字
 62
     7
 48
50.0
100
AcDbText
 10
13583.11819016569
 20
9910.013745883727
 30
0.0
 40
100.0
  1
屋根パネル
  7
STYLE1
100
AcDbText
  0
TEXT
  5
16E8C
330
747D
100
AcDbEntity
  8
文字
 62
     7
 48
50.0
100
AcDbText
 10
13583.11819016568
 20
9570.013745883729
 30
0.0
 40
100.0
  1
壁パネル
  7
STYLE1
100
AcDbText
  0
TEXT
  5
16E8D
330
747D
100
AcDbEntity
  8
文字
 62
     7
 48
50.0
100
AcDbText
 10
13248.77747366447
 20
9570.013745883727
 30
0.0
 40
100.0
  1
10
  7
STYLE1
100
AcDbText
  0
TEXT
  5
16E8E
330
747D
100
AcDbEntity
  8
文字
 62
     7
 48
50.0
100
AcDbText
 10
13583.11819016569
 20
10250.01374588373
 30
0.0
 40
100.0
  1
妻板左右
  7
STYLE1
100
AcDbText
  0
TEXT
  5
16E8F
330
747D
100
AcDbEntity
  8
文字
 62
     7
 48
50.0
100
AcDbText
 10
13271.19032244792
 20
10420.01374588372
 30
0.0
 40
100.0
  1
5
  7
STYLE1
100
AcDbText
  0
TEXT
  5
16E90
330
747D
100
AcDbEntity
  8
文字
 62
     7
 48
50.0
100
AcDbText
 10
13583.11819016569
 20
10420.01374588373
 30
0.0
 40
100.0
  1
桁前後
  7
STYLE1
100
AcDbText
  0
TEXT
  5
16E91
330
747D
100
AcDbEntity
  8
文字
 62
     7
 48
50.0
100
AcDbText
 10
13583.1181901657
 20
10760.01374588372
 30
0.0
 40
100.0
  1
柱
  7
STYLE1
100
AcDbText
  0
TEXT
  5
16E92
330
747D
100
AcDbEntity
  8
文字
 62
     7
 48
50.0
100
AcDbText
 10
13583.11819016569
 20
11100.01374588372
 30
0.0
 40
100.0
  1
土台枠
  7
STYLE1
100
AcDbText
  0
TEXT
  5
16E93
330
747D
100
AcDbEntity
  8
文字
 62
     7
 48
50.0
100
AcDbText
 10
14859.79774614482
 20
11270.01374588372
 30
0.0
 40
100.0
  1
材料（材質）　　単位mm
  7
STYLE1
100
AcDbText
  0
TEXT
  5
16E94
330
747D
100
AcDbEntity
  8
文字
 62
     7
 48
50.0
100
AcDbText
 10
13732.03840939434
 20
11270.01374588372
 30
0.0
 40
100.0
  1
部　　品　　名
  7
STYLE1
100
AcDbText
  0
TEXT
  5
16E95
330
747D
100
AcDbEntity
  8
文字
 62
     7
 48
50.0
100
AcDbText
 10
13271.19032244792
 20
10760.01374588373
 30
0.0
 40
100.0
  1
3
  7
STYLE1
100
AcDbText
  0
TEXT
  5
16E96
330
747D
100
AcDbEntity
  8
文字
 62
     7
 48
50.0
100
AcDbText
 10
13271.19032244792
 20
10590.01374588373
 30
0.0
 40
100.0
  1
4
  7
STYLE1
100
AcDbText
  0
TEXT
  5
16E97
330
747D
100
AcDbEntity
  8
文字
 62
     7
 48
50.0
100
AcDbText
 10
13271.19032244792
 20
10930.01374588373
 30
0.0
 40
100.0
  1
2
  7
STYLE1
100
AcDbText
  0
TEXT
  5
16E98
330
747D
100
AcDbEntity
  8
文字
 62
     7
 48
50.0
100
AcDbText
 10
13271.19032244792
 20
11100.01374588373
 30
0.0
 40
100.0
  1
1
  7
STYLE1
100
AcDbText
  0
TEXT
  5
16E99
330
747D
100
AcDbEntity
  8
文字
 62
     7
 48
50.0
100
AcDbText
 10
13197.42518560407
 20
11270.01374588372
 30
0.0
 40
100.0
  1
品番
  7
STYLE1
100
AcDbText
  0
LINE
  5
16E9A
330
747D
100
AcDbEntity
  8
仕様書枠
 48
50.0
100
AcDbLine
 10
16307.19999999999
 20
10729.59999999999
 30
0.0
 11
13127.2
 21
10729.6
 31
0.0
  0
LINE
  5
16E9B
330
747D
100
AcDbEntity
  8
仕様書枠
 48
50.0
100
AcDbLine
 10
16307.19999999999
 20
10389.6
 30
0.0
 11
13127.2
 21
10389.6
 31
0.0
  0
LINE
  5
16E9C
330
747D
100
AcDbEntity
  8
仕様書枠
 48
50.0
100
AcDbLine
 10
16307.19999999999
 20
10559.6
 30
0.0
 11
13127.2
 21
10559.6
 31
0.0
  0
LINE
  5
16E9D
330
747D
100
AcDbEntity
  8
仕様書枠
 48
50.0
100
AcDbLine
 10
16307.2
 20
11069.59999999999
 30
0.0
 11
13127.2
 21
11069.6
 31
0.0
  0
LINE
  5
16E9E
330
747D
100
AcDbEntity
  8
仕様書枠
 48
50.0
100
AcDbLine
 10
16307.2
 20
10899.6
 30
0.0
 11
13127.2
 21
10899.6
 31
0.0
  0
LINE
  5
16E9F
330
747D
100
AcDbEntity
  8
仕様書枠
 48
50.0
100
AcDbLine
 10
16307.2
 20
11239.59999999999
 30
0.0
 11
13127.2
 21
11239.6
 31
0.0
  0
LINE
  5
16EA0
330
747D
100
AcDbEntity
  8
仕様書枠
 48
50.0
100
AcDbLine
 10
13490.2
 20
11409.59999999999
 30
0.0
 11
13490.20000000001
 21
8349.600000000007
 31
0.0
  0
LINE
  5
16EA1
330
747D
100
AcDbEntity
  8
仕様書枠
 48
50.0
100
AcDbLine
 10
14785.2
 20
11409.59999999999
 30
0.0
 11
14785.2
 21
8349.600000000004
 31
0.0
  0
LINE
  5
16EA2
330
747D
100
AcDbEntity
  8
仕様書枠
 48
50.0
100
AcDbLine
 10
16307.19999999999
 20
8009.600000000004
 30
0.0
 11
16307.2
 21
11409.6
 31
0.0
  0
LINE
  5
16EA3
330
747D
100
AcDbEntity
  8
仕様書枠
 48
50.0
100
AcDbLine
 10
16307.2
 20
11409.59999999999
 30
0.0
 11
13127.2
 21
11409.6
 31
0.0
  0
LINE
  5
16EA4
330
747D
100
AcDbEntity
  8
仕様書枠
 48
50.0
100
AcDbLine
 10
16307.2
 20
10049.6
 30
0.0
 11
13127.2
 21
10049.6
 31
0.0
  0
TEXT
  5
16EA5
330
747D
100
AcDbEntity
  8
文字
 62
     7
 48
50.0
100
AcDbText
 10
15022.63965474515
 20
8380.013745883724
 30
0.0
 40
100.0
  1
F12            2.3
  7
STYLE1
100
AcDbText
  0
TEXT
  5
16EA6
330
747D
100
AcDbEntity
  8
文字
 62
     7
 48
50.0
100
AcDbText
 10
13583.11819016569
 20
8380.013745883728
 30
0.0
 40
100.0
  1
アンカープレート
  7
STYLE1
100
AcDbText
  0
LINE
  5
16EA7
330
747D
100
AcDbEntity
  8
仕様書枠
 48
50.0
100
AcDbLine
 10
16307.19999999999
 20
8519.600000000004
 30
0.0
 11
13127.2
 21
8519.600000000005
 31
0.0
  0
LINE
  5
16EA8
330
747D
100
AcDbEntity
  8
仕様書枠
 48
50.0
100
AcDbLine
 10
16307.19999999999
 20
8689.600000000003
 30
0.0
 11
13127.2
 21
8689.600000000005
 31
0.0
  0
TEXT
  5
16EA9
330
747D
100
AcDbEntity
  8
文字
 62
     7
 48
50.0
100
AcDbText
 10
13583.11819016569
 20
9400.013745883729
 30
0.0
 40
100.0
  1
壁面扉鴨居
  7
STYLE1
100
AcDbText
  0
TEXT
  5
16EAA
330
747D
100
AcDbEntity
  8
文字
 62
     7
 48
50.0
100
AcDbText
 10
13583.11819016569
 20
9230.013745883733
 30
0.0
 40
100.0
  1
壁面扉敷居
  7
STYLE1
100
AcDbText
  0
TEXT
  5
16EAB
330
747D
100
AcDbEntity
  8
文字
 62
     7
 48
50.0
100
AcDbText
 10
15022.63965474515
 20
9400.013745883727
 30
0.0
 40
100.0
  1
F12            0.7
  7
STYLE1
100
AcDbText
  0
TEXT
  5
16EAC
330
747D
100
AcDbEntity
  8
文字
 62
     7
 48
50.0
100
AcDbText
 10
15022.63965474517
 20
9230.013745883725
 30
0.0
 40
100.0
  1
F12            1.0
  7
STYLE1
100
AcDbText
  0
TEXT
  5
16EAD
330
747D
100
AcDbEntity
  8
文字
 62
     7
 48
50.0
100
AcDbText
 10
13583.11819016569
 20
9060.013745883733
 30
0.0
 40
100.0
  1
壁面扉枠左右
  7
STYLE1
100
AcDbText
  0
TEXT
  5
16EAE
330
747D
100
AcDbEntity
  8
文字
 62
     7
 48
50.0
100
AcDbText
 10
15022.63965474517
 20
9060.013745883725
 30
0.0
 40
100.0
  1
F12            1.0
  7
STYLE1
100
AcDbText
  0
TEXT
  5
16EAF
330
747D
100
AcDbEntity
  8
文字
 62
     7
 48
50.0
100
AcDbText
 10
13248.77747366447
 20
8550.013745883729
 30
0.0
 40
100.0
  1
16
  7
STYLE1
100
AcDbText
  0
TEXT
  5
16EB0
330
747D
100
AcDbEntity
  8
文字
 62
     7
 48
50.0
100
AcDbText
 10
13248.77747366447
 20
8380.013745883728
 30
0.0
 40
100.0
  1
17
  7
STYLE1
100
AcDbText
  0
TEXT
  5
16EB1
330
747D
100
AcDbEntity
  8
文字
 62
     7
 48
50.0
100
AcDbText
 10
14798.72402257234
 20
9740.013745883725
 30
0.0
 40
100.0
  1
F12(一般型1.2/多雪地型2.3)
  7
STYLE1
100
AcDbText
  0
LINE
  5
16EB2
330
747D
100
AcDbEntity
  8
部品1
 48
50.0
100
AcDbLine
 10
5968.238635219615
 20
2697.931598713262
 30
0.0
 11
5968.238635219613
 21
2597.931598713262
 31
0.0
  0
LINE
  5
16EB3
330
747D
100
AcDbEntity
  8
部品1
 48
50.0
100
AcDbLine
 10
5768.238635219613
 20
2697.931598713262
 30
0.0
 11
5768.238635219613
 21
2597.931598713262
 31
0.0
  0
DIMENSION
  5
16EB4
330
747D
100
AcDbEntity
  8
寸法
100
AcDbDimension
  2
*D15
 10
4559.585926061312
 20
2697.931598713261
 30
0.0
 11
4559.585926061312
 21
2391.884354618768
 31
0.0
 70
   160
 71
     5
 42
50.0
  3
INABA_S40G
100
AcDbAlignedDimension
 13
5183.238635219611
 23
2747.931598713261
 33
0.0
 14
5128.238635219611
 24
2697.931598713261
 34
0.0
 50
90.0
100
AcDbRotatedDimension
1001
ACAD
1000
DSTYLE
1002
{
1070
   174
1070
     0
1070
   272
1070
     1
1070
   288
1070
     0
1070
   341
1005
0
1002
}
  0
DIMENSION
  5
16EB5
330
747D
100
AcDbEntity
  8
寸法
100
AcDbDimension
  2
*D16
 10
4274.599253290251
 20
2597.931598713261
 30
0.0
 11
4274.59925329025
 21
2361.884354618768
 31
0.0
 70
   160
 71
     5
 42
100.0000000000004
  3
INABA_S40G
100
AcDbAlignedDimension
 13
5128.238635219611
 23
2697.931598713261
 33
0.0
 14
4559.585926061312
 24
2597.931598713261
 34
0.0
 50
90.0
100
AcDbRotatedDimension
1001
ACAD
1000
DSTYLE
1002
{
1070
   174
1070
     0
1070
   272
1070
     1
1070
   288
1070
     0
1070
   341
1005
0
1002
}
  0
DIMENSION
  5
16EB6
330
747D
100
AcDbEntity
  8
寸法
100
AcDbDimension
  2
*D17
 10
4274.599253290251
 20
4772.931598713265
 30
0.0
 11
4274.59925329025
 21
3692.137476206371
 31
0.0
 70
   160
 71
     5
 42
2075.000000000004
  3
INABA_S40G
100
AcDbAlignedDimension
 13
5183.238635219611
 23
2697.931598713261
 33
0.0
 14
5123.23863521961
 24
4772.931598713265
 34
0.0
 50
90.0
100
AcDbRotatedDimension
1001
ACAD
1000
DSTYLE
1002
{
1070
   174
1070
     0
1070
   272
1070
     1
1070
   288
1070
     0
1070
   341
1005
0
1002
}
  0
DIMENSION
  5
16EB7
330
747D
100
AcDbEntity
  8
寸法
100
AcDbDimension
  2
*D18
 10
4559.585926061312
 20
2747.931598713261
 30
0.0
 11
4559.585926061312
 21
3638.385897255218
 31
0.0
 70
   160
 71
     5
 42
1789.999999999999
  3
INABA_S40G
100
AcDbAlignedDimension
 13
5183.238635219611
 23
4537.93159871326
 33
0.0
 14
5183.238635219611
 24
2747.931598713261
 34
0.0
 50
90.0
100
AcDbRotatedDimension
1001
ACAD
1000
DSTYLE
1002
{
1070
   174
1070
     0
1070
   272
1070
     1
1070
   288
1070
     0
1070
   341
1005
0
1002
}
  0
LINE
  5
16EB8
330
747D
100
AcDbEntity
  8
部品1
 48
50.0
100
AcDbLine
 10
6630.238635219615
 20
2697.931598713262
 30
0.0
 11
6553.238635219613
 21
2697.931598713262
 31
0.0
  0
LINE
  5
16EB9
330
747D
100
AcDbEntity
  8
部品1
 48
50.0
100
AcDbLine
 10
6630.238635219615
 20
4522.931598713261
 30
0.0
 11
6630.238635219615
 21
2597.931598713262
 31
0.0
  0
LINE
  5
16EBA
330
747D
100
AcDbEntity
  8
部品1
 48
50.0
100
AcDbLine
 10
6553.238635219614
 20
4532.931598713261
 30
0.0
 11
6630.238635219615
 21
4522.931598713261
 31
0.0
  0
LINE
  5
16EBB
330
747D
100
AcDbEntity
  8
部品1
100
AcDbLine
 10
5183.238635219609
 20
4537.931598713261
 30
0.0
 11
6553.238635219613
 21
4537.931598713261
 31
0.0
  0
LINE
  5
16EBC
330
747D
100
AcDbEntity
  8
部品1
100
AcDbLine
 10
5183.238635219609
 20
2747.931598713261
 30
0.0
 11
6553.238635219614
 21
2747.931598713261
 31
0.0
  0
LINE
  5
16EBD
330
747D
100
AcDbEntity
  8
部品1
100
AcDbLine
 10
5183.238635219609
 20
2697.931598713262
 30
0.0
 11
5190.738635219609
 21
2697.931598713262
 31
0.0
  0
LINE
  5
16EBE
330
747D
100
AcDbEntity
  8
部品1
100
AcDbLine
 10
5238.238635219609
 20
4537.931598713261
 30
0.0
 11
5238.238635219609
 21
2747.931598713261
 31
0.0
  0
LINE
  5
16EBF
330
747D
100
AcDbEntity
  8
部品1
100
AcDbLine
 10
5183.238635219614
 20
4629.508492653704
 30
0.0
 11
5183.238635219609
 21
2597.931598713262
 31
0.0
  0
LINE
  5
16EC0
330
747D
100
AcDbEntity
  8
部品1
100
AcDbLine
 10
5658.238635219609
 20
4537.931598713261
 30
0.0
 11
5658.238635219609
 21
2747.931598713261
 31
0.0
  0
LINE
  5
16EC1
330
747D
100
AcDbEntity
  8
部品1
100
AcDbLine
 10
6553.238635219608
 20
4592.568179548514
 30
0.0
 11
6553.238635219613
 21
2597.931598713262
 31
0.0
  0
LINE
  5
16EC2
330
747D
100
AcDbEntity
  8
部品1
100
AcDbLine
 10
6498.238635219613
 20
4537.931598713261
 30
0.0
 11
6498.238635219613
 21
2747.931598713261
 31
0.0
  0
DIMENSION
  5
16EC3
330
747D
100
AcDbEntity
  8
寸法
100
AcDbDimension
  2
*D19
 10
7106.859644800255
 20
4717.931598713263
 30
0.0
 11
7106.859644800255
 21
3716.887133405384
 31
0.0
 70
   160
 71
     5
 42
2020.000000000003
  3
INABA_S40G
100
AcDbAlignedDimension
 13
6630.238635219615
 23
2697.931598713261
 33
0.0
 14
6633.238635219611
 24
4717.931598713263
 34
0.0
 50
90.0
100
AcDbRotatedDimension
1001
ACAD
1000
DSTYLE
1002
{
1070
   174
1070
     0
1070
   272
1070
     1
1070
   288
1070
     0
1070
   341
1005
0
1002
}
  0
LINE
  5
16EC4
330
747D
100
AcDbEntity
  8
部品1
100
AcDbLine
 10
5383.238635219608
 20
2697.931598713262
 30
0.0
 11
5383.238635219608
 21
2597.931598713262
 31
0.0
  0
LINE
  5
16EC5
330
747D
100
AcDbEntity
  8
部品1
100
AcDbLine
 10
6353.238635219613
 20
2697.931598713262
 30
0.0
 11
6353.238635219613
 21
2597.931598713262
 31
0.0
  0
DIMENSION
  5
16EC6
330
747D
100
AcDbEntity
  8
寸法
 48
50.0
100
AcDbDimension
  2
*D20
 10
5183.238635219611
 20
5171.589052292565
 30
0.0
 11
5833.057668110157
 21
5171.589052292565
 31
0.0
 70
   160
  1
柱外寸法<>
 71
     5
 42
1370.0
  3
INABA_S40G
100
AcDbAlignedDimension
 13
6553.238635219611
 23
4719.742278324915
 33
0.0
 14
5183.238635219611
 24
4768.933216836238
 34
0.0
100
AcDbRotatedDimension
1001
ACAD
1000
DSTYLE
1002
{
1070
   174
1070
     0
1070
   272
1070
     1
1070
   288
1070
     0
1070
   341
1005
0
1002
}
  0
DIMENSION
  5
16EC7
330
747D
100
AcDbEntity
  8
寸法
 48
50.0
100
AcDbDimension
  2
*D21
 10
5123.23863521961
 20
5171.589052292565
 30
0.0
 11
4813.600839944019
 21
5171.589052292565
 31
0.0
 70
   160
 71
     5
 42
60.0
  3
INABA_S40G
100
AcDbAlignedDimension
 13
5183.238635219611
 23
4768.933216836238
 33
0.0
 14
5123.23863521961
 24
4772.931598713266
 34
0.0
100
AcDbRotatedDimension
1001
ACAD
1000
DSTYLE
1002
{
1070
   174
1070
     0
1070
   272
1070
     1
1070
   288
1070
     0
1070
   341
1005
0
1002
}
  0
DIMENSION
  5
16EC8
330
747D
100
AcDbEntity
  8
寸法
 48
50.0
100
AcDbDimension
  2
*D22
 10
5123.23863521961
 20
5379.76337348453
 30
0.0
 11
5850.363464921434
 21
5379.76337348453
 31
0.0
 70
   160
 71
     5
 42
1510.0
  3
INABA_S40G
100
AcDbAlignedDimension
 13
6633.238635219611
 23
4717.931598713263
 33
0.0
 14
5123.23863521961
 24
4772.931598713266
 34
0.0
100
AcDbRotatedDimension
1001
ACAD
1000
DSTYLE
1002
{
1070
   174
1070
     0
1070
   272
1070
     1
1070
   288
1070
     0
1070
   341
1005
0
1002
}
  0
LINE
  5
16EC9
330
747D
100
AcDbEntity
  8
破線
  6
HIDDEN
 48
5.0
100
AcDbLine
 10
6560.738635219611
 20
2442.931598713262
 30
0.0
 11
6490.738635219611
 21
2442.931598713262
 31
0.0
  0
LINE
  5
16ECA
330
747D
100
AcDbEntity
  8
破線
  6
HIDDEN
 48
5.0
100
AcDbLine
 10
6505.738635219607
 20
2592.931598713262
 30
0.0
 11
6490.738635219611
 21
2445.231598713261
 31
0.0
  0
LINE
  5
16ECB
330
747D
100
AcDbEntity
  8
破線
  6
HIDDEN
 48
5.0
100
AcDbLine
 10
6490.738635219611
 20
2445.231598713261
 30
0.0
 11
6490.738635219611
 21
2442.931598713262
 31
0.0
  0
LINE
  5
16ECC
330
747D
100
AcDbEntity
  8
破線
  6
HIDDEN
 48
5.0
100
AcDbLine
 10
6545.738635219611
 20
2592.931598713262
 30
0.0
 11
6560.738635219611
 21
2445.231598713261
 31
0.0
  0
LINE
  5
16ECD
330
747D
100
AcDbEntity
  8
破線
  6
HIDDEN
 48
5.0
100
AcDbLine
 10
6560.738635219611
 20
2445.231598713261
 30
0.0
 11
6560.738635219611
 21
2442.931598713262
 31
0.0
  0
LINE
  5
16ECE
330
747D
100
AcDbEntity
  8
破線
  6
HIDDEN
 48
5.0
100
AcDbLine
 10
5175.738635219607
 20
2442.931598713262
 30
0.0
 11
5245.738635219607
 21
2442.931598713262
 31
0.0
  0
LINE
  5
16ECF
330
747D
100
AcDbEntity
  8
破線
  6
HIDDEN
 48
5.0
100
AcDbLine
 10
5175.738635219607
 20
2445.231598713261
 30
0.0
 11
5175.738635219607
 21
2442.931598713262
 31
0.0
  0
LINE
  5
16ED0
330
747D
100
AcDbEntity
  8
破線
  6
HIDDEN
 48
5.0
100
AcDbLine
 10
5245.738635219611
 20
2445.231598713261
 30
0.0
 11
5245.738635219607
 21
2442.931598713262
 31
0.0
  0
LINE
  5
16ED1
330
747D
100
AcDbEntity
  8
破線
  6
HIDDEN
 48
5.0
100
AcDbLine
 10
5190.738635219611
 20
2592.931598713262
 30
0.0
 11
5175.738635219607
 21
2445.231598713261
 31
0.0
  0
LINE
  5
16ED2
330
747D
100
AcDbEntity
  8
破線
  6
HIDDEN
 48
5.0
100
AcDbLine
 10
5230.738635219611
 20
2592.931598713262
 30
0.0
 11
5245.738635219611
 21
2445.231598713261
 31
0.0
  0
LINE
  5
16ED3
330
747D
100
AcDbEntity
  8
部品1
 48
50.0
100
AcDbLine
 10
5190.738635219607
 20
2737.931598713262
 30
0.0
 11
5190.738635219611
 21
2597.931598713262
 31
0.0
  0
LINE
  5
16ED4
330
747D
100
AcDbEntity
  8
部品1
 48
50.0
100
AcDbLine
 10
5230.738635219611
 20
2737.931598713262
 30
0.0
 11
5230.738635219608
 21
2597.931598713262
 31
0.0
  0
LINE
  5
16ED5
330
747D
100
AcDbEntity
  8
部品1
100
AcDbLine
 10
5195.738635219607
 20
2742.931598713262
 30
0.0
 11
5225.73863521961
 21
2742.931598713262
 31
0.0
  0
ARC
  5
16ED6
330
747D
100
AcDbEntity
  8
部品1
 48
50.0
100
AcDbCircle
 10
5195.738635219607
 20
2737.931598713262
 30
0.0
 40
5.0
100
AcDbArc
 50
90.0
 51
180.0
  0
ARC
  5
16ED7
330
747D
100
AcDbEntity
  8
部品1
 48
50.0
100
AcDbCircle
 10
5225.73863521961
 20
2737.931598713262
 30
0.0
 40
5.0
100
AcDbArc
 50
0.0
 51
90.0
  0
LINE
  5
16ED8
330
747D
100
AcDbEntity
  8
部品1
 48
50.0
100
AcDbLine
 10
6505.738635219607
 20
2737.931598713262
 30
0.0
 11
6505.738635219611
 21
2597.931598713262
 31
0.0
  0
LINE
  5
16ED9
330
747D
100
AcDbEntity
  8
部品1
 48
50.0
100
AcDbLine
 10
6545.738635219611
 20
2737.931598713262
 30
0.0
 11
6545.738635219606
 21
2597.931598713262
 31
0.0
  0
LINE
  5
16EDA
330
747D
100
AcDbEntity
  8
部品1
100
AcDbLine
 10
6540.738635219611
 20
2742.931598713262
 30
0.0
 11
6510.738635219607
 21
2742.931598713262
 31
0.0
  0
ARC
  5
16EDB
330
747D
100
AcDbEntity
  8
部品1
 48
50.0
100
AcDbCircle
 10
6510.738635219607
 20
2737.931598713262
 30
0.0
 40
5.0
100
AcDbArc
 50
90.0
 51
180.0
  0
ARC
  5
16EDC
330
747D
100
AcDbEntity
  8
部品1
 48
50.0
100
AcDbCircle
 10
6540.738635219611
 20
2737.931598713262
 30
0.0
 40
5.0
100
AcDbArc
 50
0.0
 51
90.0
  0
LINE
  5
16EDD
330
747D
100
AcDbEntity
  8
破線
  6
HIDDEN
 48
5.0
100
AcDbLine
 10
6505.738635219611
 20
2597.931598713262
 30
0.0
 11
6505.738635219611
 21
2592.931598713262
 31
0.0
  0
LINE
  5
16EDE
330
747D
100
AcDbEntity
  8
破線
  6
HIDDEN
 48
5.0
100
AcDbLine
 10
6545.738635219606
 20
2597.931598713262
 30
0.0
 11
6545.738635219606
 21
2592.931598713262
 31
0.0
  0
LINE
  5
16EDF
330
747D
100
AcDbEntity
  8
破線
  6
HIDDEN
 48
5.0
100
AcDbLine
 10
5190.738635219615
 20
2597.931598713262
 30
0.0
 11
5190.738635219615
 21
2592.931598713262
 31
0.0
  0
LINE
  5
16EE0
330
747D
100
AcDbEntity
  8
破線
  6
HIDDEN
 48
5.0
100
AcDbLine
 10
5230.738635219611
 20
2597.931598713262
 30
0.0
 11
5230.738635219611
 21
2592.931598713262
 31
0.0
  0
LINE
  5
16EE1
330
747D
100
AcDbEntity
  8
部品1
100
AcDbLine
 10
6545.738635219611
 20
2697.931598713262
 30
0.0
 11
6553.238635219613
 21
2697.931598713262
 31
0.0
  0
LINE
  5
16EE2
330
747D
100
AcDbEntity
  8
部品1
100
AcDbLine
 10
5230.738635219611
 20
2697.931598713262
 30
0.0
 11
6505.738635219609
 21
2697.931598713262
 31
0.0
  0
LINE
  5
16EE3
330
747D
100
AcDbEntity
  8
細線
 48
50.0
100
AcDbLine
 10
5735.738635219609
 20
4537.931598713261
 30
0.0
 11
5735.738635219609
 21
2747.931598713261
 31
0.0
  0
LINE
  5
16EE4
330
747D
100
AcDbEntity
  8
細線
 48
50.0
100
AcDbLine
 10
5720.738635219609
 20
4537.931598713261
 30
0.0
 11
5720.738635219609
 21
2747.931598713261
 31
0.0
  0
LINE
  5
16EE5
330
747D
100
AcDbEntity
  8
細線
 48
50.0
100
AcDbLine
 10
5860.738635219609
 20
4537.931598713261
 30
0.0
 11
5860.738635219609
 21
2747.931598713261
 31
0.0
  0
LINE
  5
16EE6
330
747D
100
AcDbEntity
  8
細線
 48
50.0
100
AcDbLine
 10
5875.738635219609
 20
4537.931598713261
 30
0.0
 11
5875.738635219609
 21
2747.931598713261
 31
0.0
  0
LINE
  5
16EE7
330
747D
100
AcDbEntity
  8
細線
 48
50.0
100
AcDbLine
 10
6015.738635219609
 20
4537.931598713261
 30
0.0
 11
6015.738635219609
 21
2747.931598713261
 31
0.0
  0
LINE
  5
16EE8
330
747D
100
AcDbEntity
  8
細線
 48
50.0
100
AcDbLine
 10
6000.738635219609
 20
4537.931598713261
 30
0.0
 11
6000.738635219609
 21
2747.931598713261
 31
0.0
  0
LINE
  5
16EE9
330
747D
100
AcDbEntity
  8
細線
 48
50.0
100
AcDbLine
 10
5580.738635219609
 20
4537.931598713261
 30
0.0
 11
5580.738635219609
 21
2747.931598713261
 31
0.0
  0
LINE
  5
16EEA
330
747D
100
AcDbEntity
  8
細線
 48
50.0
100
AcDbLine
 10
5595.738635219609
 20
4537.931598713261
 30
0.0
 11
5595.738635219609
 21
2747.931598713261
 31
0.0
  0
LINE
  5
16EEB
330
747D
100
AcDbEntity
  8
細線
 48
50.0
100
AcDbLine
 10
5455.738635219609
 20
4537.931598713261
 30
0.0
 11
5455.738635219609
 21
2747.931598713261
 31
0.0
  0
LINE
  5
16EEC
330
747D
100
AcDbEntity
  8
細線
 48
50.0
100
AcDbLine
 10
5440.738635219609
 20
4537.931598713261
 30
0.0
 11
5440.738635219609
 21
2747.931598713261
 31
0.0
  0
LINE
  5
16EED
330
747D
100
AcDbEntity
  8
細線
 48
50.0
100
AcDbLine
 10
5300.738635219609
 20
4537.931598713261
 30
0.0
 11
5300.738635219609
 21
2747.931598713261
 31
0.0
  0
LINE
  5
16EEE
330
747D
100
AcDbEntity
  8
細線
 48
50.0
100
AcDbLine
 10
5315.738635219609
 20
4537.931598713261
 30
0.0
 11
5315.738635219609
 21
2747.931598713261
 31
0.0
  0
LINE
  5
16EEF
330
747D
100
AcDbEntity
  8
部品1
100
AcDbLine
 10
5130.783621576572
 20
4771.649334047528
 30
0.0
 11
6625.850512081072
 21
4715.982440040825
 31
0.0
  0
LINE
  5
16EF0
330
747D
100
AcDbEntity
  8
部品1
100
AcDbLine
 10
5138.581199821564
 20
4630.712623782229
 30
0.0
 11
6607.902335759454
 21
4591.094242166447
 31
0.0
  0
LINE
  5
16EF1
330
747D
100
AcDbEntity
  8
細線
 48
50.0
100
AcDbLine
 10
5156.238635219611
 20
4770.331275088665
 30
0.0
 11
5150.9495336641
 21
4630.245642461312
 31
0.0
  0
LINE
  5
16EF2
330
747D
100
AcDbEntity
  8
細線
 48
50.0
100
AcDbLine
 10
6600.238635219611
 20
4717.308621366983
 30
0.0
 11
6595.49095233161
 21
4591.562848876238
 31
0.0
  0
LINE
  5
16EF3
330
747D
100
AcDbEntity
  8
部品1
 48
50.0
100
AcDbLine
 10
5123.422921132718
 20
4764.525144877954
 30
0.0
 11
5123.803180910529
 21
4744.598180431541
 31
0.0
  0
LINE
  5
16EF4
330
747D
100
AcDbEntity
  8
部品1
 48
50.0
100
AcDbLine
 10
5126.871953016774
 20
4741.02289893807
 30
0.0
 11
5128.57585450814
 21
4651.732402231424
 31
0.0
  0
LINE
  5
16EF5
330
747D
100
AcDbEntity
  8
細線
 48
50.0
100
AcDbLine
 10
5124.278058320423
 20
4743.948680554622
 30
0.0
 11
6629.914043065591
 21
4687.734519532219
 31
0.0
  0
LINE
  5
16EF6
330
747D
100
AcDbEntity
  8
細線
 48
50.0
100
AcDbLine
 10
5129.038533557709
 20
4651.08716885676
 30
0.0
 11
6619.042197988346
 21
4610.687893500691
 31
0.0
  0
LINE
  5
16EF7
330
747D
100
AcDbEntity
  8
部品1
 48
50.0
100
AcDbLine
 10
5131.644626614381
 20
4648.157120737951
 30
0.0
 11
5131.846579234814
 21
4637.574085344859
 31
0.0
  0
ARC
  5
16EF8
330
747D
100
AcDbEntity
  8
部品1
 48
50.0
100
AcDbCircle
 10
5130.421646961056
 20
4764.658699285381
 30
0.0
 40
7.0
100
AcDbArc
 50
87.03587545303909
 51
181.0932240292635
  0
ARC
  5
16EF9
330
747D
100
AcDbEntity
  8
部品1
 48
50.0
100
AcDbCircle
 10
5138.845305063152
 20
4637.707639752287
 30
0.0
 40
7.0
100
AcDbArc
 50
181.0932240293156
 51
267.8377559869492
  0
ARC
  5
16EFA
330
747D
100
AcDbEntity
  8
部品1
100
AcDbCircle
 10
5128.645172687948
 20
4648.099883134768
 30
0.0
 40
3.0
100
AcDbArc
 50
1.093224029315636
 51
80.18775403148449
  0
ARC
  5
16EFB
330
747D
100
AcDbEntity
  8
部品1
100
AcDbCircle
 10
5123.872499090344
 20
4740.965661334887
 30
0.0
 40
3.0
100
AcDbArc
 50
1.093224029263536
 51
80.18775403148449
  0
ARC
  5
16EFC
330
747D
100
AcDbEntity
  8
部品1
100
AcDbCircle
 10
5124.503053493366
 20
4744.611535872286
 30
0.0
 40
0.7
100
AcDbArc
 50
181.0932240292114
 51
260.1877540314845
  0
ARC
  5
16EFD
330
747D
100
AcDbEntity
  8
部品1
100
AcDbCircle
 10
5129.275727090974
 20
4651.745757672165
 30
0.0
 40
0.7
100
AcDbArc
 50
181.0932240292114
 51
260.1877540314845
  0
LINE
  5
16EFE
330
747D
100
AcDbEntity
  8
部品1
 48
50.0
100
AcDbLine
 10
6632.45253803031
 20
4708.282794605904
 30
0.0
 11
6630.42191683934
 21
4688.337753348124
 31
0.0
  0
LINE
  5
16EFF
330
747D
100
AcDbEntity
  8
部品1
 48
50.0
100
AcDbLine
 10
6627.069350354858
 20
4685.027119275215
 30
0.0
 11
6619.562571090021
 21
4611.294498530203
 31
0.0
  0
LINE
  5
16F00
330
747D
100
AcDbEntity
  8
部品1
 48
50.0
100
AcDbLine
 10
6616.210004605536
 20
4607.983864457292
 30
0.0
 11
6615.130441565795
 21
4597.380247463735
 31
0.0
  0
ARC
  5
16F01
330
747D
100
AcDbEntity
  8
部品1
 48
50.0
100
AcDbCircle
 10
6625.488537465556
 20
4708.99180527868
 30
0.0
 40
7.0
100
AcDbArc
 50
354.1866997665013
 51
87.03587545303909
  0
ARC
  5
16F02
330
747D
100
AcDbEntity
  8
部品1
 48
50.0
100
AcDbCircle
 10
6608.16644100104
 20
4598.089258136507
 30
0.0
 40
7.0
100
AcDbArc
 50
267.8377559869492
 51
354.1866997665532
  0
ARC
  5
16F03
330
747D
100
AcDbEntity
  8
部品1
100
AcDbCircle
 10
6619.194576276143
 20
4607.680002740387
 30
0.0
 40
3.0
100
AcDbArc
 50
95.0921697642102
 51
174.1866997665532
  0
ARC
  5
16F04
330
747D
100
AcDbEntity
  8
部品1
100
AcDbCircle
 10
6630.053922025469
 20
4684.723257558313
 30
0.0
 40
3.0
100
AcDbArc
 50
95.09216976442012
 51
174.1866997665532
  0
ARC
  5
16F05
330
747D
100
AcDbEntity
  8
部品1
100
AcDbCircle
 10
6629.725516782866
 20
4688.408654415401
 30
0.0
 40
0.7
100
AcDbArc
 50
275.0921697642102
 51
354.1866997665532
  0
ARC
  5
16F06
330
747D
100
AcDbEntity
  8
部品1
100
AcDbCircle
 10
6618.866171033547
 20
4611.365399597478
 30
0.0
 40
0.7
100
AcDbArc
 50
275.0921697642102
 51
354.1866997667087
  0
DIMENSION
  5
16F07
330
747D
100
AcDbEntity
  8
寸法
 48
50.0
100
AcDbDimension
  2
*D23
 10
6633.238635219611
 20
5171.589052292565
 30
0.0
 11
6839.2858793141
 21
5171.589052292565
 31
0.0
 70
   160
 71
     5
 42
80.0
  3
INABA_S40G
100
AcDbAlignedDimension
 13
6553.238635219611
 23
4719.742278324915
 33
0.0
 14
6633.238635219611
 24
4717.931598713263
 34
0.0
100
AcDbRotatedDimension
1001
ACAD
1000
DSTYLE
1002
{
1070
   174
1070
     0
1070
   272
1070
     1
1070
   288
1070
     0
1070
   341
1005
0
1002
}
  0
DIMENSION
  5
16F08
330
747D
100
AcDbEntity
  8
寸法
 48
50.0
100
AcDbDimension
  2
*D24
 10
4530.972383508244
 20
4794.754089610075
 30
0.0
 11
4539.650127160131
 21
5024.590328626973
 31
0.0
 70
   160
 71
     5
 42
141.0
  3
INABA_S40G
100
AcDbAlignedDimension
 13
5138.581199821564
 23
4630.712623782229
 33
0.0
 14
5143.901033973519
 24
4771.612231179111
 34
0.0
 50
87.83775598715742
100
AcDbRotatedDimension
1001
ACAD
1000
DSTYLE
1002
{
1070
   174
1070
     0
1070
   272
1070
     1
1070
   288
1070
     0
1070
   341
1005
0
1002
}
  0
LINE
  5
16F09
330
747D
100
AcDbEntity
  8
部品1
 48
50.0
100
AcDbLine
 10
5728.238635219611
 20
4903.799737814541
 30
0.0
 11
6028.238635219612
 21
4903.799737814541
 31
0.0
  0
LINE
  5
16F0A
330
747D
100
AcDbEntity
  8
部品1
 48
50.0
100
AcDbLine
 10
6028.238635219612
 20
4903.799737814541
 30
0.0
 11
6028.238635219612
 21
4882.199737814542
 31
0.0
  0
TEXT
  5
16F0B
330
747D
100
AcDbEntity
  8
部品1
 48
50.0
100
AcDbText
 10
5716.506470443338
 20
4939.683759966975
 30
0.0
 40
120.0
  1
1000
  7
STYLE1
100
AcDbText
  0
TEXT
  5
16F0C
330
747D
100
AcDbEntity
  8
部品1
 48
50.0
100
AcDbText
 10
6205.331482507471
 20
4802.182501748692
 30
0.0
 40
120.0
  1
71
 50
90.0
  7
STYLE1
100
AcDbText
  0
LINE
  5
16F0D
330
747D
100
AcDbEntity
  8
部品1
100
AcDbLine
 10
6078.238635219609
 20
4537.931598713261
 30
0.0
 11
6078.238635219609
 21
2747.931598713261
 31
0.0
  0
LINE
  5
16F0E
330
747D
100
AcDbEntity
  8
細線
 48
50.0
100
AcDbLine
 10
6420.738635219612
 20
4537.931598713261
 30
0.0
 11
6420.738635219612
 21
2747.931598713261
 31
0.0
  0
LINE
  5
16F0F
330
747D
100
AcDbEntity
  8
細線
 48
50.0
100
AcDbLine
 10
6435.738635219613
 20
4537.931598713261
 30
0.0
 11
6435.738635219613
 21
2747.931598713261
 31
0.0
  0
LINE
  5
16F10
330
747D
100
AcDbEntity
  8
細線
 48
50.0
100
AcDbLine
 10
6295.738635219613
 20
4537.931598713261
 30
0.0
 11
6295.738635219613
 21
2747.931598713261
 31
0.0
  0
LINE
  5
16F11
330
747D
100
AcDbEntity
  8
細線
 48
50.0
100
AcDbLine
 10
6280.738635219613
 20
4537.931598713261
 30
0.0
 11
6280.738635219613
 21
2747.931598713261
 31
0.0
  0
LINE
  5
16F12
330
747D
100
AcDbEntity
  8
細線
 48
50.0
100
AcDbLine
 10
6140.738635219612
 20
4537.931598713261
 30
0.0
 11
6140.738635219612
 21
2747.931598713261
 31
0.0
  0
LINE
  5
16F13
330
747D
100
AcDbEntity
  8
細線
 48
50.0
100
AcDbLine
 10
6155.738635219613
 20
4537.931598713261
 30
0.0
 11
6155.738635219613
 21
2747.931598713261
 31
0.0
  0
LINE
  5
16F14
330
747D
100
AcDbEntity
  8
部品1
 48
50.0
100
AcDbLine
 10
5728.238635219611
 20
4903.799737814541
 30
0.0
 11
6028.238635219612
 21
4882.199737814542
 31
0.0
  0
DIMENSION
  5
16F15
330
747D
100
AcDbEntity
  8
寸法
 48
50.0
100
AcDbDimension
  2
*D25
 10
4961.238631972975
 20
2597.931598713261
 30
0.0
 11
4831.438902822803
 21
2473.140053517051
 31
0.0
 70
   160
 71
     5
 42
200.0000000000009
  3
INABA_S40G
100
AcDbAlignedDimension
 13
5110.738635219613
 23
2397.93159871326
 33
0.0
 14
5085.738635219611
 24
2597.931598713261
 34
0.0
 50
90.0
100
AcDbRotatedDimension
1001
ACAD
1000
DSTYLE
1002
{
1070
   174
1070
     0
1070
   272
1070
     1
1070
   279
1070
     2
1070
   341
1005
0
1002
}
  0
LINE
  5
16F16
330
747D
100
AcDbEntity
  8
破線
 48
5.0
100
AcDbLine
 10
5310.738635219609
 20
2397.93159871326
 30
0.0
 11
5110.738635219613
 21
2397.93159871326
 31
0.0
  0
LINE
  5
16F17
330
747D
100
AcDbEntity
  8
破線
 48
5.0
100
AcDbLine
 10
5310.73863521961
 20
2597.931598713262
 30
0.0
 11
5310.738635219609
 21
2397.93159871326
 31
0.0
  0
LINE
  5
16F18
330
747D
100
AcDbEntity
  8
破線
 48
5.0
100
AcDbLine
 10
5110.738635219611
 20
2597.931598713262
 30
0.0
 11
5110.738635219613
 21
2397.93159871326
 31
0.0
  0
DIMENSION
  5
16F19
330
747D
100
AcDbEntity
  8
寸法
 48
50.0
100
AcDbDimension
  2
*D26
 10
5110.738635219613
 20
2111.884269412883
 30
0.0
 11
5210.738635219611
 21
2111.884269412883
 31
0.0
 70
   160
 71
     5
 42
199.9999999999963
  3
INABA_S40G
100
AcDbAlignedDimension
 13
5310.738635219609
 23
2397.931598713259
 33
0.0
 14
5110.738635219613
 24
2397.93159871326
 34
0.0
100
AcDbRotatedDimension
  0
LINE
  5
16F1A
330
747D
100
AcDbEntity
  8
破線
 48
5.0
100
AcDbLine
 10
6625.738635219615
 20
2597.931598713262
 30
0.0
 11
6625.738635219612
 21
2397.93159871326
 31
0.0
  0
LINE
  5
16F1B
330
747D
100
AcDbEntity
  8
破線
 48
5.0
100
AcDbLine
 10
6625.738635219612
 20
2397.93159871326
 30
0.0
 11
6425.738635219616
 21
2397.931598713261
 31
0.0
  0
LINE
  5
16F1C
330
747D
100
AcDbEntity
  8
破線
 48
5.0
100
AcDbLine
 10
6425.738635219615
 20
2597.931598713262
 30
0.0
 11
6425.738635219616
 21
2397.931598713261
 31
0.0
  0
TEXT
  5
170BE
330
747D
100
AcDbEntity
  8
文字
 62
     7
 48
50.0
100
AcDbText
 10
14491.96323844892
 20
483.8967129911416
 30
0.0
 40
160.0
  1
ＮＸＮ－３６ＳＡ
  7
STYLE2
100
AcDbText
  0
TEXT
  5
17132
330
747D
100
AcDbEntity
  8
文字
 62
     7
 48
50.0
100
AcDbText
 10
13209.4053442172
 20
228.5435242569015
 30
0.0
 40
100.0
  1
○有効開口寸法 ： 1266×1725(mm)
  7
STYLE2
100
AcDbText
  0
LINE
  5
173EF
330
747D
100
AcDbEntity
  8
補助
  6
PHANTOM
 62
   230
 48
50.0
100
AcDbLine
 10
140.0
 20
0.0
 30
0.0
 11
140.0
 21
11409.6
 31
0.0
  0
MTEXT
  5
1751C
330
747D
100
AcDbEntity
  8
寸法
 62
     7
 48
50.0
100
AcDbMText
 10
9091.863802410527
 20
8653.793660385748
 30
0.0
 40
96.0
 41
0.0
 71
     5
 72
     1
  1
棚 2段
  7
STYLE1
 73
     1
 44
1.0
1001
ACAD
1000
MTEXTBEGIN
1070
    73
1070
     1
1070
    44
1040
1.0
1070
    74
1070
     0
1000
MTEXTEND
  0
MTEXT
  5
1751D
330
747D
100
AcDbEntity
  8
寸法
 62
     7
 48
50.0
100
AcDbMText
 10
10391.86380241056
 20
8653.793660385771
 30
0.0
 40
96.0
 41
0.0
 71
     5
 72
     1
  1
棚 2段
  7
STYLE1
 73
     1
 44
1.0
1001
ACAD
1000
MTEXTBEGIN
1070
    73
1070
     1
1070
    44
1040
1.0
1070
    74
1070
     0
1000
MTEXTEND
  0
LINE
  5
1765E
330
747D
100
AcDbEntity
  8
部品1
 48
50.0
100
AcDbLine
 10
8933.761265317412
 20
3679.431598713261
 30
0.0
 11
8986.761265317413
 21
3679.431598713261
 31
0.0
  0
LINE
  5
17678
330
747D
100
AcDbEntity
  8
部品1
 48
50.0
100
AcDbLine
 10
11013.76126531741
 20
4532.931598713261
 30
0.0
 11
8859.761265317413
 21
4532.931598713261
 31
0.0
  0
LINE
  5
17679
330
747D
100
AcDbEntity
  8
細線
 48
50.0
100
AcDbLine
 10
11013.76126531741
 20
4522.931598713261
 30
0.0
 11
8859.761265317413
 21
4522.931598713261
 31
0.0
  0
LINE
  5
1767A
330
747D
100
AcDbEntity
  8
細線
 48
50.0
100
AcDbLine
 10
10983.76126531741
 20
4480.931598713261
 30
0.0
 11
8889.761265317414
 21
4480.931598713261
 31
0.0
  0
LINE
  5
1767B
330
747D
100
AcDbEntity
  8
細線
 48
50.0
100
AcDbLine
 10
10983.76126531741
 20
4490.431598713261
 30
0.0
 11
8889.761265317414
 21
4490.431598713261
 31
0.0
  0
LINE
  5
1767C
330
747D
100
AcDbEntity
  8
部品1
 48
50.0
100
AcDbLine
 10
8859.761265317413
 20
2697.931598713262
 30
0.0
 11
11013.76126531741
 21
2697.931598713262
 31
0.0
  0
LINE
  5
1767D
330
747D
100
AcDbEntity
  8
細線
 48
50.0
100
AcDbLine
 10
8889.761265317414
 20
2740.931598713262
 30
0.0
 11
10983.76126531741
 21
2740.931598713262
 31
0.0
  0
LINE
  5
1767E
330
747D
100
AcDbEntity
  8
細線
 48
50.0
100
AcDbLine
 10
8889.761265317414
 20
2744.931598713261
 30
0.0
 11
10983.76126531741
 21
2744.931598713261
 31
0.0
  0
LINE
  5
1767F
330
747D
100
AcDbEntity
  8
細線
 48
50.0
100
AcDbLine
 10
9693.761265317412
 20
2755.431598713262
 30
0.0
 11
10957.76126531741
 21
2755.431598713262
 31
0.0
  0
LINE
  5
17680
330
747D
100
AcDbEntity
  8
部品1
 48
50.0
100
AcDbLine
 10
8889.761265317414
 20
2747.931598713261
 30
0.0
 11
8889.761265317414
 21
4480.931598713261
 31
0.0
  0
LINE
  5
17681
330
747D
100
AcDbEntity
  8
細線
 48
50.0
100
AcDbLine
 10
8889.761265317414
 20
4490.431598713261
 30
0.0
 11
8889.761265317414
 21
2697.931598713262
 31
0.0
  0
LINE
  5
17682
330
747D
100
AcDbEntity
  8
部品1
 48
50.0
100
AcDbLine
 10
8859.761265317413
 20
4532.931598713261
 30
0.0
 11
8859.761265317413
 21
2697.931598713262
 31
0.0
  0
LINE
  5
17684
330
747D
100
AcDbEntity
  8
部品1
 48
50.0
100
AcDbLine
 10
9693.761265317412
 20
4480.931598738028
 30
0.0
 11
9693.761265317412
 21
2747.931598738029
 31
0.0
  0
LINE
  5
17685
330
747D
100
AcDbEntity
  8
部品1
 48
50.0
100
AcDbLine
 10
8889.761265317414
 20
2747.931598713261
 30
0.0
 11
9693.761265317411
 21
2747.931598713258
 31
0.0
  0
LINE
  5
17686
330
747D
100
AcDbEntity
  8
部品1
 48
50.0
100
AcDbLine
 10
8898.761265317412
 20
2747.931598713261
 30
0.0
 11
8898.761265317412
 21
2744.931598713261
 31
0.0
  0
LINE
  5
17688
330
747D
100
AcDbEntity
  8
部品1
 48
50.0
100
AcDbLine
 10
8889.761265317414
 20
4488.931598713261
 30
0.0
 11
8859.761265317413
 21
4488.931598713261
 31
0.0
  0
LINE
  5
17689
330
747D
100
AcDbEntity
  8
部品1
 48
50.0
100
AcDbLine
 10
10974.76126531741
 20
2744.931598713261
 30
0.0
 11
10974.76126531741
 21
4480.931598713261
 31
0.0
  0
LINE
  5
1768A
330
747D
100
AcDbEntity
  8
細線
 48
50.0
100
AcDbLine
 10
10983.76126531741
 20
2697.931598713262
 30
0.0
 11
10983.76126531741
 21
4490.431598713261
 31
0.0
  0
LINE
  5
1768B
330
747D
100
AcDbEntity
  8
部品1
 48
50.0
100
AcDbLine
 10
11013.76126531741
 20
2697.931598713262
 30
0.0
 11
11013.76126531741
 21
4532.931598713261
 31
0.0
  0
LINE
  5
1768C
330
747D
100
AcDbEntity
  8
部品1
 48
50.0
100
AcDbLine
 10
10347.76125562227
 20
4480.931598750408
 30
0.0
 11
10347.76125562227
 21
2755.431598750409
 31
0.0
  0
LINE
  5
1768D
330
747D
100
AcDbEntity
  8
細線
 48
50.0
100
AcDbLine
 10
10961.76126531741
 20
2744.931598713261
 30
0.0
 11
10957.76126531741
 21
2755.431598713262
 31
0.0
  0
LINE
  5
1768F
330
747D
100
AcDbEntity
  8
部品1
 48
50.0
100
AcDbLine
 10
11013.76126531741
 20
4488.931598713261
 30
0.0
 11
10983.76126531741
 21
4488.931598713261
 31
0.0
  0
LINE
  5
17691
330
747D
100
AcDbEntity
  8
細線
100
AcDbLine
 10
10470.51126531741
 20
4480.931598713261
 30
0.0
 11
10470.51126531741
 21
2755.43159871328
 31
0.0
  0
LINE
  5
17692
330
747D
100
AcDbEntity
  8
細線
100
AcDbLine
 10
9755.261275067656
 20
4480.931598713261
 30
0.0
 11
9755.261275067656
 21
2755.431598713272
 31
0.0
  0
LINE
  5
17693
330
747D
100
AcDbEntity
  8
細線
100
AcDbLine
 10
9825.261275067656
 20
4480.931598713261
 30
0.0
 11
9825.261275067656
 21
2755.431598713272
 31
0.0
  0
LINE
  5
17694
330
747D
100
AcDbEntity
  8
細線
100
AcDbLine
 10
9103.761265317414
 20
4480.931598713261
 30
0.0
 11
9103.761265317409
 21
2747.931598713265
 31
0.0
  0
LINE
  5
17695
330
747D
100
AcDbEntity
  8
細線
100
AcDbLine
 10
9173.761265317413
 20
4480.931598713261
 30
0.0
 11
9173.761265317409
 21
2747.931598713265
 31
0.0
  0
LINE
  5
17696
330
747D
100
AcDbEntity
  8
細線
100
AcDbLine
 10
10540.51126531741
 20
4480.931598713261
 30
0.0
 11
10540.51126531741
 21
2755.43159871328
 31
0.0
  0
LINE
  5
17697
330
747D
100
AcDbEntity
  8
細線
100
AcDbLine
 10
10610.51126531741
 20
4480.931598713261
 30
0.0
 11
10610.51126531741
 21
2755.43159871328
 31
0.0
  0
LINE
  5
17698
330
747D
100
AcDbEntity
  8
細線
100
AcDbLine
 10
10680.51126531741
 20
4480.931598713261
 30
0.0
 11
10680.51126531741
 21
2755.43159871328
 31
0.0
  0
LINE
  5
17699
330
747D
100
AcDbEntity
  8
細線
100
AcDbLine
 10
10750.51126531741
 20
4480.931598713261
 30
0.0
 11
10750.51126531741
 21
2755.43159871328
 31
0.0
  0
LINE
  5
1769A
330
747D
100
AcDbEntity
  8
細線
100
AcDbLine
 10
10820.51126531741
 20
4480.931598713261
 30
0.0
 11
10820.51126531741
 21
2755.43159871328
 31
0.0
  0
LINE
  5
1769B
330
747D
100
AcDbEntity
  8
細線
100
AcDbLine
 10
9895.261275067657
 20
4480.931598713261
 30
0.0
 11
9895.261275067657
 21
2755.431598713272
 31
0.0
  0
LINE
  5
1769C
330
747D
100
AcDbEntity
  8
細線
100
AcDbLine
 10
9965.261275067657
 20
4480.931598713261
 30
0.0
 11
9965.261275067657
 21
2755.431598713272
 31
0.0
  0
LINE
  5
1769D
330
747D
100
AcDbEntity
  8
細線
100
AcDbLine
 10
10035.26127506765
 20
4480.931598713261
 30
0.0
 11
10035.26127506765
 21
2755.431598713272
 31
0.0
  0
LINE
  5
1769E
330
747D
100
AcDbEntity
  8
細線
100
AcDbLine
 10
10105.26127506765
 20
4480.931598713261
 30
0.0
 11
10105.26127506765
 21
2755.431598713272
 31
0.0
  0
LINE
  5
1769F
330
747D
100
AcDbEntity
  8
細線
100
AcDbLine
 10
10175.26127506765
 20
4480.931598713261
 30
0.0
 11
10175.26127506765
 21
2755.431598713272
 31
0.0
  0
LINE
  5
176A0
330
747D
100
AcDbEntity
  8
細線
100
AcDbLine
 10
10245.26127506765
 20
4480.931598713261
 30
0.0
 11
10245.26127506765
 21
2755.431598713272
 31
0.0
  0
LINE
  5
176A1
330
747D
100
AcDbEntity
  8
細線
100
AcDbLine
 10
9017.761265317409
 20
4480.931598713261
 30
0.0
 11
9017.761265317414
 21
2747.931598713265
 31
0.0
  0
LINE
  5
176A2
330
747D
100
AcDbEntity
  8
細線
100
AcDbLine
 10
9051.761265317409
 20
4480.931598713261
 30
0.0
 11
9051.761265317413
 21
2747.931598713265
 31
0.0
  0
LINE
  5
176A3
330
747D
100
AcDbEntity
  8
部品1
100
AcDbLine
 10
9009.761265317409
 20
4480.931598713261
 30
0.0
 11
9009.761265317413
 21
2747.931598713265
 31
0.0
  0
LINE
  5
176A4
330
747D
100
AcDbEntity
  8
部品1
100
AcDbLine
 10
9059.76126531741
 20
4480.931598713261
 30
0.0
 11
9059.761265317412
 21
2747.931598713265
 31
0.0
  0
LINE
  5
176A5
330
747D
100
AcDbEntity
  8
細線
100
AcDbLine
 10
9243.761265317413
 20
4480.931598713261
 30
0.0
 11
9243.761265317409
 21
2747.931598713265
 31
0.0
  0
LINE
  5
176A6
330
747D
100
AcDbEntity
  8
細線
100
AcDbLine
 10
9313.761265317413
 20
4480.931598713261
 30
0.0
 11
9313.761265317408
 21
2747.931598713265
 31
0.0
  0
LINE
  5
176A7
330
747D
100
AcDbEntity
  8
細線
100
AcDbLine
 10
9383.761265317414
 20
4480.931598713261
 30
0.0
 11
9383.761265317408
 21
2747.931598713265
 31
0.0
  0
LINE
  5
176A8
330
747D
100
AcDbEntity
  8
細線
100
AcDbLine
 10
9453.761265317414
 20
4480.931598713261
 30
0.0
 11
9453.761265317409
 21
2747.931598713265
 31
0.0
  0
LINE
  5
176A9
330
747D
100
AcDbEntity
  8
細線
100
AcDbLine
 10
9523.761265317412
 20
4480.931598713261
 30
0.0
 11
9523.761265317409
 21
2747.931598713269
 31
0.0
  0
LINE
  5
176AA
330
747D
100
AcDbEntity
  8
細線
100
AcDbLine
 10
9593.761265317413
 20
4480.931598713261
 30
0.0
 11
9593.761265317409
 21
2747.931598713269
 31
0.0
  0
LINE
  5
176AB
330
747D
100
AcDbEntity
  8
部品1
100
AcDbLine
 10
10347.76125562226
 20
4480.931598750412
 30
0.0
 11
10347.76125562227
 21
2755.431598750427
 31
0.0
  0
LINE
  5
176AC
330
747D
100
AcDbEntity
  8
部品1
 48
50.0
100
AcDbLine
 10
9693.761265317412
 20
4480.931598738028
 30
0.0
 11
9693.761265317411
 21
2747.931598713258
 31
0.0
  0
DIMENSION
  5
177DB
330
747D
100
AcDbEntity
  8
寸法
 48
50.0
100
AcDbDimension
  2
*D29
 10
8411.76126531741
 20
5172.024768052733
 30
0.0
 11
9726.76126531741
 21
5172.024768052733
 31
0.0
 70
   160
  1
柱外寸法<>
 71
     5
 42
2629.999999999999
  3
INABA_S40G
100
AcDbAlignedDimension
 13
11041.76126531741
 23
4772.931598713267
 33
0.0
 14
8411.76126531741
 24
4772.931598713268
 34
0.0
100
AcDbRotatedDimension
  0
DIMENSION
  5
177DC
330
747D
100
AcDbEntity
  8
寸法
 48
50.0
100
AcDbDimension
  2
*D28
 10
8361.76126531741
 20
5172.024768052734
 30
0.0
 11
8048.275983943163
 21
5172.024768052734
 31
0.0
 70
   160
 71
     5
 42
50.0
  3
INABA_S40G
100
AcDbAlignedDimension
 13
8411.76126531741
 23
4772.931598713268
 33
0.0
 14
8361.76126531741
 24
4772.931598713267
 34
0.0
100
AcDbRotatedDimension
1001
ACAD
1000
DSTYLE
1002
{
1002
}
  0
DIMENSION
  5
177DD
330
747D
100
AcDbEntity
  8
寸法
 48
50.0
100
AcDbDimension
  2
*D27
 10
11091.76126531741
 20
5388.55086767118
 30
0.0
 11
9726.761265317412
 21
5388.55086767118
 31
0.0
 70
   160
 71
     5
 42
2729.999999999999
  3
INABA_S40G
100
AcDbAlignedDimension
 13
8361.76126531741
 23
4772.931598713267
 33
0.0
 14
11091.76126531741
 24
4772.931598713264
 34
0.0
100
AcDbRotatedDimension
  0
LINE
  5
177DE
330
747D
100
AcDbEntity
  8
部品1
100
AcDbLine
 10
9574.761265317425
 20
4767.93159872173
 30
0.0
 11
9574.761265317427
 21
4670.520531213158
 31
0.0
  0
LINE
  5
177DF
330
747D
100
AcDbEntity
  8
部品1
100
AcDbLine
 10
9549.761265317426
 20
4767.93159872173
 30
0.0
 11
9549.761265317426
 21
4670.520531213158
 31
0.0
  0
LINE
  5
177E0
330
747D
100
AcDbEntity
  8
部品1
 48
50.0
100
AcDbLine
 10
9548.261265317419
 20
4767.931598721734
 30
0.0
 11
9576.261265317414
 21
4767.931598721734
 31
0.0
  0
LINE
  5
177E1
330
747D
100
AcDbEntity
  8
部品1
 48
50.0
100
AcDbLine
 10
9576.261265317418
 20
4767.931598721734
 30
0.0
 11
9586.761265317418
 21
4748.531598721732
 31
0.0
  0
LINE
  5
177E2
330
747D
100
AcDbEntity
  8
部品1
 48
50.0
100
AcDbLine
 10
9548.261265317419
 20
4767.931598721734
 30
0.0
 11
9537.761265317419
 21
4748.531598721732
 31
0.0
  0
LINE
  5
177E3
330
747D
100
AcDbEntity
  8
部品1
 48
50.0
100
AcDbLine
 10
9475.261265317419
 20
4767.931598721734
 30
0.0
 11
9503.261265317416
 21
4767.931598721734
 31
0.0
  0
LINE
  5
177E4
330
747D
100
AcDbEntity
  8
部品1
100
AcDbLine
 10
9476.761265317426
 20
4767.93159872173
 30
0.0
 11
9476.761265317426
 21
4670.520531213158
 31
0.0
  0
LINE
  5
177E5
330
747D
100
AcDbEntity
  8
部品1
 48
50.0
100
AcDbLine
 10
9475.261265317419
 20
4767.931598721734
 30
0.0
 11
9464.761265317418
 21
4748.531598721732
 31
0.0
  0
LINE
  5
177E6
330
747D
100
AcDbEntity
  8
部品1
100
AcDbLine
 10
9501.761265317425
 20
4767.93159872173
 30
0.0
 11
9501.761265317425
 21
4670.520531213158
 31
0.0
  0
LINE
  5
177E7
330
747D
100
AcDbEntity
  8
部品1
 48
50.0
100
AcDbLine
 10
9503.261265317417
 20
4767.931598721734
 30
0.0
 11
9513.761265317418
 21
4748.531598721732
 31
0.0
  0
LINE
  5
177E8
330
747D
100
AcDbEntity
  8
部品1
100
AcDbLine
 10
9315.761265317425
 20
4767.931598721723
 30
0.0
 11
9315.761265317426
 21
4670.520531213158
 31
0.0
  0
LINE
  5
177E9
330
747D
100
AcDbEntity
  8
部品1
 48
50.0
100
AcDbLine
 10
9318.761265317418
 20
4767.931598721734
 30
0.0
 11
9321.261265317419
 21
4748.531598721732
 31
0.0
  0
LINE
  5
177EA
330
747D
100
AcDbEntity
  8
部品1
100
AcDbLine
 10
9297.761265317426
 20
4767.931598721723
 30
0.0
 11
9297.761265317427
 21
4670.520531213158
 31
0.0
  0
LINE
  5
177EB
330
747D
100
AcDbEntity
  8
部品1
 48
50.0
100
AcDbLine
 10
9279.549925111231
 20
4758.531598721733
 30
0.0
 11
9278.261265317418
 21
4748.531598721732
 31
0.0
  0
LINE
  5
177EC
330
747D
100
AcDbEntity
  8
部品1
 48
50.0
100
AcDbLine
 10
9279.549925111231
 20
4758.531598721733
 30
0.0
 11
9293.54992511123
 21
4758.531598721733
 31
0.0
  0
LINE
  5
177ED
330
747D
100
AcDbEntity
  8
部品1
 48
50.0
100
AcDbLine
 10
9294.761265317418
 20
4767.931598721734
 30
0.0
 11
9293.54992511123
 21
4758.531598721733
 31
0.0
  0
LINE
  5
177EE
330
747D
100
AcDbEntity
  8
部品1
 48
50.0
100
AcDbLine
 10
9318.761265317418
 20
4767.931598721734
 30
0.0
 11
9294.761265317418
 21
4767.931598721734
 31
0.0
  0
LINE
  5
177EF
330
747D
100
AcDbEntity
  8
部品1
100
AcDbLine
 10
9464.761265317415
 20
4748.531598721728
 30
0.0
 11
9321.261265317415
 21
4748.531598721728
 31
0.0
  0
LINE
  5
177F0
330
747D
100
AcDbEntity
  8
部品1
100
AcDbLine
 10
9154.761265317425
 20
4767.93159872173
 30
0.0
 11
9154.761265317427
 21
4670.520531213158
 31
0.0
  0
LINE
  5
177F1
330
747D
100
AcDbEntity
  8
部品1
 48
50.0
100
AcDbLine
 10
9156.261265317418
 20
4767.931598721734
 30
0.0
 11
9166.761265317418
 21
4748.531598721732
 31
0.0
  0
LINE
  5
177F2
330
747D
100
AcDbEntity
  8
部品1
100
AcDbLine
 10
9056.761265317424
 20
4767.93159872173
 30
0.0
 11
9056.761265317424
 21
4670.520531213158
 31
0.0
  0
LINE
  5
177F3
330
747D
100
AcDbEntity
  8
部品1
100
AcDbLine
 10
9081.761265317425
 20
4767.93159872173
 30
0.0
 11
9081.761265317425
 21
4670.520531213158
 31
0.0
  0
LINE
  5
177F4
330
747D
100
AcDbEntity
  8
部品1
100
AcDbLine
 10
9129.761265317425
 20
4767.93159872173
 30
0.0
 11
9129.761265317425
 21
4670.520531213158
 31
0.0
  0
LINE
  5
177F5
330
747D
100
AcDbEntity
  8
部品1
 48
50.0
100
AcDbLine
 10
9055.261265317417
 20
4767.931598721734
 30
0.0
 11
9044.761265317418
 21
4748.531598721732
 31
0.0
  0
LINE
  5
177F6
330
747D
100
AcDbEntity
  8
部品1
100
AcDbLine
 10
9117.761265317415
 20
4748.531598721728
 30
0.0
 11
9093.761265317418
 21
4748.531598721728
 31
0.0
  0
LINE
  5
177F7
330
747D
100
AcDbEntity
  8
部品1
 48
50.0
100
AcDbLine
 10
9083.261265317418
 20
4767.931598721734
 30
0.0
 11
9093.761265317418
 21
4748.531598721732
 31
0.0
  0
LINE
  5
177F8
330
747D
100
AcDbEntity
  8
部品1
 48
50.0
100
AcDbLine
 10
9128.261265317417
 20
4767.931598721734
 30
0.0
 11
9117.761265317417
 21
4748.531598721732
 31
0.0
  0
LINE
  5
177F9
330
747D
100
AcDbEntity
  8
部品1
 48
50.0
100
AcDbLine
 10
9055.261265317417
 20
4767.931598721734
 30
0.0
 11
9083.261265317416
 21
4767.931598721734
 31
0.0
  0
LINE
  5
177FA
330
747D
100
AcDbEntity
  8
部品1
 48
50.0
100
AcDbLine
 10
9128.261265317417
 20
4767.931598721734
 30
0.0
 11
9156.261265317414
 21
4767.931598721734
 31
0.0
  0
LINE
  5
177FB
330
747D
100
AcDbEntity
  8
部品1
100
AcDbLine
 10
8895.761265317425
 20
4767.931598721723
 30
0.0
 11
8895.761265317428
 21
4670.520531213158
 31
0.0
  0
LINE
  5
177FC
330
747D
100
AcDbEntity
  8
部品1
100
AcDbLine
 10
8877.761265317426
 20
4767.931598721723
 30
0.0
 11
8877.761265317428
 21
4670.520531213158
 31
0.0
  0
LINE
  5
177FD
330
747D
100
AcDbEntity
  8
部品1
 48
50.0
100
AcDbLine
 10
8898.761265317418
 20
4767.931598721734
 30
0.0
 11
8874.761265317419
 21
4767.931598721734
 31
0.0
  0
LINE
  5
177FE
330
747D
100
AcDbEntity
  8
部品1
 48
50.0
100
AcDbLine
 10
8874.761265317419
 20
4767.931598721734
 30
0.0
 11
8873.54992511123
 21
4758.531598721733
 31
0.0
  0
LINE
  5
177FF
330
747D
100
AcDbEntity
  8
部品1
 48
50.0
100
AcDbLine
 10
8898.761265317418
 20
4767.931598721734
 30
0.0
 11
8901.261265317419
 21
4748.531598721732
 31
0.0
  0
LINE
  5
17800
330
747D
100
AcDbEntity
  8
部品1
100
AcDbLine
 10
9044.761265317415
 20
4748.531598721728
 30
0.0
 11
8901.261265317414
 21
4748.531598721728
 31
0.0
  0
LINE
  5
17801
330
747D
100
AcDbEntity
  8
部品1
100
AcDbLine
 10
9278.261265317418
 20
4748.531598721728
 30
0.0
 11
9166.761265317418
 21
4748.531598721728
 31
0.0
  0
LINE
  5
17802
330
747D
100
AcDbEntity
  8
部品1
100
AcDbLine
 10
9537.761265317415
 20
4748.531598721728
 30
0.0
 11
9513.761265317418
 21
4748.531598721728
 31
0.0
  0
LINE
  5
17803
330
747D
100
AcDbEntity
  8
部品1
100
AcDbLine
 10
8858.261265317418
 20
4748.531598721728
 30
0.0
 11
8746.761265317418
 21
4748.531598721728
 31
0.0
  0
LINE
  5
17804
330
747D
100
AcDbEntity
  8
部品1
100
AcDbLine
 10
8709.761265317425
 20
4767.93159872173
 30
0.0
 11
8709.761265317425
 21
4670.520531213158
 31
0.0
  0
LINE
  5
17805
330
747D
100
AcDbEntity
  8
部品1
100
AcDbLine
 10
8734.761265317425
 20
4767.93159872173
 30
0.0
 11
8734.761265317425
 21
4670.520531213158
 31
0.0
  0
LINE
  5
17806
330
747D
100
AcDbEntity
  8
部品1
 48
50.0
100
AcDbLine
 10
8736.261265317418
 20
4767.931598721734
 30
0.0
 11
8746.761265317418
 21
4748.531598721732
 31
0.0
  0
LINE
  5
17807
330
747D
100
AcDbEntity
  8
部品1
 48
50.0
100
AcDbLine
 10
8708.261265317418
 20
4767.931598721734
 30
0.0
 11
8736.261265317414
 21
4767.931598721734
 31
0.0
  0
LINE
  5
17808
330
747D
100
AcDbEntity
  8
部品1
 48
50.0
100
AcDbLine
 10
8859.549925111229
 20
4758.531598721733
 30
0.0
 11
8858.261265317418
 21
4748.531598721732
 31
0.0
  0
LINE
  5
17809
330
747D
100
AcDbEntity
  8
部品1
100
AcDbLine
 10
8697.761265317415
 20
4748.531598721728
 30
0.0
 11
8673.761265317418
 21
4748.531598721732
 31
0.0
  0
LINE
  5
1780A
330
747D
100
AcDbEntity
  8
部品1
100
AcDbLine
 10
8661.761265317426
 20
4767.93159872173
 30
0.0
 11
8661.761265317428
 21
4670.520531213158
 31
0.0
  0
LINE
  5
1780B
330
747D
100
AcDbEntity
  8
部品1
 48
50.0
100
AcDbLine
 10
8663.261265317418
 20
4767.931598721734
 30
0.0
 11
8673.761265317418
 21
4748.531598721732
 31
0.0
  0
LINE
  5
1780C
330
747D
100
AcDbEntity
  8
部品1
100
AcDbLine
 10
8636.761265317426
 20
4767.93159872173
 30
0.0
 11
8636.761265317423
 21
4670.520531213158
 31
0.0
  0
LINE
  5
1780D
330
747D
100
AcDbEntity
  8
部品1
 48
50.0
100
AcDbLine
 10
8635.261265317419
 20
4767.931598721734
 30
0.0
 11
8624.761265317419
 21
4748.531598721732
 31
0.0
  0
LINE
  5
1780E
330
747D
100
AcDbEntity
  8
部品1
 48
50.0
100
AcDbLine
 10
8635.261265317419
 20
4767.931598721734
 30
0.0
 11
8663.261265317414
 21
4767.931598721734
 31
0.0
  0
LINE
  5
1780F
330
747D
100
AcDbEntity
  8
部品1
 48
50.0
100
AcDbLine
 10
8708.261265317418
 20
4767.931598721734
 30
0.0
 11
8697.761265317419
 21
4748.531598721732
 31
0.0
  0
LINE
  5
17810
330
747D
100
AcDbEntity
  8
部品1
100
AcDbLine
 10
8475.761265317427
 20
4767.931598721723
 30
0.0
 11
8475.761265317427
 21
4670.520531213158
 31
0.0
  0
LINE
  5
17811
330
747D
100
AcDbEntity
  8
部品1
100
AcDbLine
 10
8457.761265317426
 20
4767.931598721734
 30
0.0
 11
8457.761265317428
 21
4670.520531213158
 31
0.0
  0
LINE
  5
17812
330
747D
100
AcDbEntity
  8
部品1
 48
50.0
100
AcDbLine
 10
8478.761265317418
 20
4767.931598721734
 30
0.0
 11
8481.261265317419
 21
4748.531598721732
 31
0.0
  0
LINE
  5
17813
330
747D
100
AcDbEntity
  8
部品1
100
AcDbLine
 10
8438.261265317418
 20
4748.531598721732
 30
0.0
 11
8411.761265317419
 21
4748.531598721732
 31
0.0
  0
LINE
  5
17814
330
747D
100
AcDbEntity
  8
部品1
 48
50.0
100
AcDbLine
 10
8439.549925111231
 20
4758.531598721733
 30
0.0
 11
8453.54992511123
 21
4758.531598721733
 31
0.0
  0
LINE
  5
17815
330
747D
100
AcDbEntity
  8
部品1
 48
50.0
100
AcDbLine
 10
8439.549925111231
 20
4758.531598721733
 30
0.0
 11
8438.261265317418
 21
4748.531598721732
 31
0.0
  0
LINE
  5
17816
330
747D
100
AcDbEntity
  8
部品1
 48
50.0
100
AcDbLine
 10
8454.761265317419
 20
4767.931598721734
 30
0.0
 11
8453.54992511123
 21
4758.531598721733
 31
0.0
  0
LINE
  5
17817
330
747D
100
AcDbEntity
  8
部品1
 48
50.0
100
AcDbLine
 10
8478.761265317418
 20
4767.931598721734
 30
0.0
 11
8454.761265317419
 21
4767.931598721734
 31
0.0
  0
LINE
  5
17818
330
747D
100
AcDbEntity
  8
部品1
100
AcDbLine
 10
8624.761265317419
 20
4748.531598721728
 30
0.0
 11
8481.261265317419
 21
4748.531598721732
 31
0.0
  0
LINE
  5
17819
330
747D
100
AcDbEntity
  8
部品1
 48
50.0
100
AcDbLine
 10
8859.549925111229
 20
4758.531598721733
 30
0.0
 11
8873.54992511123
 21
4758.531598721733
 31
0.0
  0
LINE
  5
1781A
330
747D
100
AcDbEntity
  8
部品1
100
AcDbLine
 10
11046.83160261204
 20
4772.93159872171
 30
0.0
 11
8386.193425698326
 21
4772.931598721734
 31
0.0
  0
LINE
  5
1781B
330
747D
100
AcDbEntity
  8
部品1
100
AcDbLine
 10
9698.261265317414
 20
4748.531598721714
 30
0.0
 11
9586.761265317425
 21
4748.531598721714
 31
0.0
  0
LINE
  5
1781C
330
747D
100
AcDbEntity
  8
部品1
 48
50.0
100
AcDbLine
 10
8406.690637324214
 20
4717.931598713261
 30
0.0
 11
8368.747309134629
 21
4717.931598713261
 31
0.0
  0
ARC
  5
1781D
330
747D
100
AcDbEntity
  8
部品1
100
AcDbCircle
 10
8363.720407757707
 20
4690.60171603385
 30
0.0
 40
0.7
100
AcDbArc
 50
183.6186294801377
 51
262.7131594833544
  0
ARC
  5
1781E
330
747D
100
AcDbEntity
  8
部品1
100
AcDbCircle
 10
8363.251111632513
 20
4686.931598713261
 30
0.0
 40
3.0
100
AcDbArc
 50
3.618629480137788
 51
90.0
  0
LINE
  5
1781F
330
747D
100
AcDbEntity
  8
部品1
100
AcDbLine
 10
8366.245130411316
 20
4687.120943774373
 30
0.0
 11
8370.992223423476
 21
4612.05753551959
 31
0.0
  0
ARC
  5
17820
330
747D
100
AcDbEntity
  8
部品1
100
AcDbCircle
 10
8371.690827805197
 20
4612.10171603385
 30
0.0
 40
0.7
100
AcDbArc
 50
183.6186294801377
 51
262.7131594833544
  0
ARC
  5
17821
330
747D
100
AcDbEntity
  8
部品1
100
AcDbCircle
 10
8371.221531680003
 20
4608.431598713261
 30
0.0
 40
3.0
100
AcDbArc
 50
3.618629480137788
 51
90.0
  0
ARC
  5
17822
330
747D
100
AcDbEntity
  8
部品1
100
AcDbCircle
 10
8381.8739199806
 20
4598.43159871326
 30
0.0
 40
7.0
100
AcDbArc
 50
183.6186294801377
 51
270.0
  0
ARC
  5
17823
330
747D
100
AcDbEntity
  8
部品1
100
AcDbCircle
 10
8368.747309134629
 20
4710.931598713261
 30
0.0
 40
7.0
100
AcDbArc
 50
90.0
 51
183.6186294801377
  0
LINE
  5
17824
330
747D
100
AcDbEntity
  8
部品1
100
AcDbLine
 10
8374.88787616339
 20
4597.989793570672
 30
0.0
 11
8374.215550458808
 21
4608.620943774372
 31
0.0
  0
LINE
  5
17825
330
747D
100
AcDbEntity
  8
部品1
100
AcDbLine
 10
8363.021803375984
 20
4690.55753551959
 30
0.0
 11
8361.761265317419
 21
4710.489793570672
 31
0.0
  0
LINE
  5
17826
330
747D
100
AcDbEntity
  8
部品1
100
AcDbLine
 10
8406.690637324214
 20
4717.931598713261
 30
0.0
 11
8368.747309134629
 21
4717.931598713261
 31
0.0
  0
ARC
  5
17827
330
747D
100
AcDbEntity
  8
部品1
100
AcDbCircle
 10
8406.690637324214
 20
4712.931598713261
 30
0.0
 40
5.0
100
AcDbArc
 50
0.0
 51
90.0
  0
LINE
  5
17828
330
747D
100
AcDbEntity
  8
部品1
100
AcDbLine
 10
8411.690637324213
 20
4767.93159873016
 30
0.0
 11
8411.690637324211
 21
4670.527570040591
 31
0.0
  0
LINE
  5
17829
330
747D
100
AcDbEntity
  8
部品1
100
AcDbLine
 10
11071.64861065422
 20
4591.431598713262
 30
0.0
 11
8381.8739199806
 21
4591.431598713262
 31
0.0
  0
LINE
  5
1782A
330
747D
100
AcDbEntity
  8
部品1
 48
50.0
100
AcDbLine
 10
8361.761265317419
 20
4710.489793570672
 30
0.0
 11
8361.761265317419
 21
4765.489793587571
 31
0.0
  0
ARC
  5
1782B
330
747D
100
AcDbEntity
  8
部品1
100
AcDbCircle
 10
8406.690637324214
 20
4767.93159873016
 30
0.0
 40
5.0
100
AcDbArc
 50
0.0
 51
90.0
  0
LINE
  5
1782C
330
747D
100
AcDbEntity
  8
部品1
100
AcDbLine
 10
8406.690637324214
 20
4772.931598730159
 30
0.0
 11
8368.747309134629
 21
4772.931598730159
 31
0.0
  0
ARC
  5
1782D
330
747D
100
AcDbEntity
  8
部品1
100
AcDbCircle
 10
8368.747309134629
 20
4765.931598730159
 30
0.0
 40
7.0
100
AcDbArc
 50
90.0
 51
183.6186294801377
  0
LINE
  5
1782E
330
747D
100
AcDbEntity
  8
細線
 48
50.0
100
AcDbLine
 10
11082.53962299047
 20
4612.204841277043
 30
0.0
 11
8371.644856949938
 21
4612.204841277047
 31
0.0
  0
LINE
  5
1782F
330
747D
100
AcDbEntity
  8
細線
 48
50.0
100
AcDbLine
 10
8394.250175413136
 20
4717.931598713261
 30
0.0
 11
8394.250175413136
 21
4591.431598713262
 31
0.0
  0
LINE
  5
17830
330
747D
100
AcDbEntity
  8
細線
 48
50.0
100
AcDbLine
 10
8411.690637324211
 20
4689.90343146121
 30
0.0
 11
8363.627396040264
 21
4689.903431461218
 31
0.0
  0
LINE
  5
17831
330
747D
100
AcDbEntity
  8
部品1
100
AcDbLine
 10
9717.761265317413
 20
4767.931598721723
 30
0.0
 11
9717.761265317413
 21
4670.520531213158
 31
0.0
  0
LINE
  5
17832
330
747D
100
AcDbEntity
  8
部品1
100
AcDbLine
 10
9735.761265317414
 20
4767.931598721734
 30
0.0
 11
9735.761265317414
 21
4670.520531213158
 31
0.0
  0
LINE
  5
17833
330
747D
100
AcDbEntity
  8
部品1
 48
50.0
100
AcDbLine
 10
9714.76126531742
 20
4767.931598721734
 30
0.0
 11
9738.761265317421
 21
4767.931598721734
 31
0.0
  0
LINE
  5
17834
330
747D
100
AcDbEntity
  8
部品1
 48
50.0
100
AcDbLine
 10
9714.76126531742
 20
4767.931598721734
 30
0.0
 11
9713.549925111236
 21
4758.531598721733
 31
0.0
  0
LINE
  5
17835
330
747D
100
AcDbEntity
  8
部品1
 48
50.0
100
AcDbLine
 10
9699.549925111234
 20
4758.531598721733
 30
0.0
 11
9713.549925111236
 21
4758.531598721733
 31
0.0
  0
LINE
  5
17836
330
747D
100
AcDbEntity
  8
部品1
 48
50.0
100
AcDbLine
 10
9699.549925111234
 20
4758.531598721733
 30
0.0
 11
9698.26126531742
 21
4748.531598721732
 31
0.0
  0
LINE
  5
17837
330
747D
100
AcDbEntity
  8
部品1
 48
50.0
100
AcDbLine
 10
9738.761265317421
 20
4767.931598721734
 30
0.0
 11
9741.261265317421
 21
4748.531598721732
 31
0.0
  0
LINE
  5
17838
330
747D
100
AcDbEntity
  8
部品1
 48
50.0
100
AcDbLine
 10
8394.250175413137
 20
4670.520531213158
 30
0.0
 11
11059.27235522168
 21
4670.520531213161
 31
0.0
  0
LINE
  5
17839
330
747D
100
AcDbEntity
  8
部品1
100
AcDbLine
 10
9957.761265317417
 20
4748.531598721732
 30
0.0
 11
9933.761265317421
 21
4748.531598721732
 31
0.0
  0
LINE
  5
1783A
330
747D
100
AcDbEntity
  8
部品1
 48
50.0
100
AcDbLine
 10
9923.261265317421
 20
4767.931598721737
 30
0.0
 11
9933.761265317421
 21
4748.531598721736
 31
0.0
  0
LINE
  5
1783B
330
747D
100
AcDbEntity
  8
部品1
 48
50.0
100
AcDbLine
 10
9895.261265317421
 20
4767.931598721737
 30
0.0
 11
9884.761265317422
 21
4748.531598721736
 31
0.0
  0
LINE
  5
1783C
330
747D
100
AcDbEntity
  8
部品1
 48
50.0
100
AcDbLine
 10
9895.261265317421
 20
4767.931598721737
 30
0.0
 11
9923.261265317417
 21
4767.931598721737
 31
0.0
  0
LINE
  5
1783D
330
747D
100
AcDbEntity
  8
部品1
 48
50.0
100
AcDbLine
 10
9968.261265317421
 20
4767.931598721737
 30
0.0
 11
9957.761265317421
 21
4748.531598721736
 31
0.0
  0
LINE
  5
1783E
330
747D
100
AcDbEntity
  8
部品1
 48
50.0
100
AcDbLine
 10
9996.261265317421
 20
4767.931598721737
 30
0.0
 11
10006.76126531742
 21
4748.531598721736
 31
0.0
  0
LINE
  5
1783F
330
747D
100
AcDbEntity
  8
部品1
 48
50.0
100
AcDbLine
 10
9968.261265317421
 20
4767.931598721737
 30
0.0
 11
9996.261265317416
 21
4767.931598721737
 31
0.0
  0
LINE
  5
17840
330
747D
100
AcDbEntity
  8
部品1
100
AcDbLine
 10
10118.26126531741
 20
4748.531598721718
 30
0.0
 11
10006.76126531742
 21
4748.531598721718
 31
0.0
  0
LINE
  5
17841
330
747D
100
AcDbEntity
  8
部品1
100
AcDbLine
 10
9884.761265317417
 20
4748.531598721732
 30
0.0
 11
9741.261265317417
 21
4748.531598721732
 31
0.0
  0
LINE
  5
17842
330
747D
100
AcDbEntity
  8
部品1
100
AcDbLine
 10
9921.761265317428
 20
4767.931598721734
 30
0.0
 11
9921.761265317428
 21
4670.520531213162
 31
0.0
  0
LINE
  5
17843
330
747D
100
AcDbEntity
  8
部品1
100
AcDbLine
 10
9896.761265317428
 20
4767.931598721734
 30
0.0
 11
9896.761265317428
 21
4670.520531213162
 31
0.0
  0
LINE
  5
17844
330
747D
100
AcDbEntity
  8
部品1
100
AcDbLine
 10
9969.761265317428
 20
4767.931598721734
 30
0.0
 11
9969.76126531743
 21
4670.520531213162
 31
0.0
  0
LINE
  5
17845
330
747D
100
AcDbEntity
  8
部品1
100
AcDbLine
 10
9994.761265317428
 20
4767.931598721734
 30
0.0
 11
9994.761265317428
 21
4670.520531213162
 31
0.0
  0
LINE
  5
17861
330
747D
100
AcDbEntity
  8
部品1
100
AcDbLine
 10
10538.26126531742
 20
4748.531598721721
 30
0.0
 11
10426.76126531743
 21
4748.531598721721
 31
0.0
  0
LINE
  5
17862
330
747D
100
AcDbEntity
  8
部品1
100
AcDbLine
 10
10414.76126531743
 20
4767.931598721737
 30
0.0
 11
10414.76126531743
 21
4670.520531213166
 31
0.0
  0
LINE
  5
17863
330
747D
100
AcDbEntity
  8
部品1
100
AcDbLine
 10
10389.76126531743
 20
4767.931598721737
 30
0.0
 11
10389.76126531743
 21
4670.520531213166
 31
0.0
  0
LINE
  5
17864
330
747D
100
AcDbEntity
  8
部品1
100
AcDbLine
 10
10316.76126531743
 20
4767.931598721737
 30
0.0
 11
10316.76126531743
 21
4670.520531213166
 31
0.0
  0
LINE
  5
17865
330
747D
100
AcDbEntity
  8
部品1
100
AcDbLine
 10
10341.76126531743
 20
4767.931598721737
 30
0.0
 11
10341.76126531743
 21
4670.520531213166
 31
0.0
  0
LINE
  5
17866
330
747D
100
AcDbEntity
  8
部品1
 48
50.0
100
AcDbLine
 10
10388.26126531742
 20
4767.931598721741
 30
0.0
 11
10416.26126531742
 21
4767.931598721741
 31
0.0
  0
LINE
  5
17867
330
747D
100
AcDbEntity
  8
部品1
 48
50.0
100
AcDbLine
 10
10416.26126531742
 20
4767.931598721741
 30
0.0
 11
10426.76126531742
 21
4748.531598721739
 31
0.0
  0
LINE
  5
17868
330
747D
100
AcDbEntity
  8
部品1
 48
50.0
100
AcDbLine
 10
10388.26126531742
 20
4767.931598721741
 30
0.0
 11
10377.76126531742
 21
4748.531598721739
 31
0.0
  0
LINE
  5
17869
330
747D
100
AcDbEntity
  8
部品1
 48
50.0
100
AcDbLine
 10
10315.26126531742
 20
4767.931598721741
 30
0.0
 11
10343.26126531742
 21
4767.931598721741
 31
0.0
  0
LINE
  5
1786A
330
747D
100
AcDbEntity
  8
部品1
 48
50.0
100
AcDbLine
 10
10315.26126531742
 20
4767.931598721741
 30
0.0
 11
10304.76126531742
 21
4748.531598721739
 31
0.0
  0
LINE
  5
1786B
330
747D
100
AcDbEntity
  8
部品1
 48
50.0
100
AcDbLine
 10
10343.26126531742
 20
4767.931598721741
 30
0.0
 11
10353.76126531742
 21
4748.531598721739
 31
0.0
  0
LINE
  5
1786C
330
747D
100
AcDbEntity
  8
部品1
100
AcDbLine
 10
10377.76126531742
 20
4748.531598721736
 30
0.0
 11
10353.76126531742
 21
4748.531598721736
 31
0.0
  0
LINE
  5
1786D
330
747D
100
AcDbEntity
  8
部品1
100
AcDbLine
 10
10304.76126531742
 20
4748.531598721736
 30
0.0
 11
10161.26126531742
 21
4748.531598721736
 31
0.0
  0
LINE
  5
1786E
330
747D
100
AcDbEntity
  8
部品1
 48
50.0
100
AcDbLine
 10
10158.76126531742
 20
4767.931598721737
 30
0.0
 11
10161.26126531742
 21
4748.531598721736
 31
0.0
  0
LINE
  5
1786F
330
747D
100
AcDbEntity
  8
部品1
 48
50.0
100
AcDbLine
 10
10119.54992511123
 20
4758.531598721736
 30
0.0
 11
10118.26126531742
 21
4748.531598721736
 31
0.0
  0
LINE
  5
17870
330
747D
100
AcDbEntity
  8
部品1
 48
50.0
100
AcDbLine
 10
10119.54992511123
 20
4758.531598721736
 30
0.0
 11
10133.54992511123
 21
4758.531598721736
 31
0.0
  0
LINE
  5
17871
330
747D
100
AcDbEntity
  8
部品1
 48
50.0
100
AcDbLine
 10
10134.76126531742
 20
4767.931598721737
 30
0.0
 11
10133.54992511123
 21
4758.531598721736
 31
0.0
  0
LINE
  5
17872
330
747D
100
AcDbEntity
  8
部品1
 48
50.0
100
AcDbLine
 10
10134.76126531742
 20
4767.931598721737
 30
0.0
 11
10158.76126531742
 21
4767.931598721737
 31
0.0
  0
LINE
  5
17873
330
747D
100
AcDbEntity
  8
部品1
100
AcDbLine
 10
10155.76126531741
 20
4767.931598721737
 30
0.0
 11
10155.76126531741
 21
4670.520531213162
 31
0.0
  0
LINE
  5
17874
330
747D
100
AcDbEntity
  8
部品1
100
AcDbLine
 10
10137.76126531741
 20
4767.931598721727
 30
0.0
 11
10137.76126531741
 21
4670.520531213162
 31
0.0
  0
DIMENSION
  5
178B8
330
747D
100
AcDbEntity
  8
寸法
 48
50.0
100
AcDbDimension
  2
*D30
 10
11041.76126531741
 20
5172.024768052734
 30
0.0
 11
11405.24654669164
 21
5172.024768052734
 31
0.0
 70
   160
 71
     5
 42
50.0
  3
INABA_S40G
100
AcDbAlignedDimension
 13
11091.76126531741
 23
4772.931598713264
 33
0.0
 14
11041.76126531741
 24
4772.931598713267
 34
0.0
100
AcDbRotatedDimension
  0
LINE
  5
178B9
330
747D
100
AcDbEntity
  8
部品1
100
AcDbLine
 10
10977.76126531739
 20
4767.931598721723
 30
0.0
 11
10977.76126531739
 21
4670.520531213158
 31
0.0
  0
LINE
  5
178BA
330
747D
100
AcDbEntity
  8
部品1
100
AcDbLine
 10
10995.76126531739
 20
4767.931598721734
 30
0.0
 11
10995.76126531739
 21
4670.520531213158
 31
0.0
  0
LINE
  5
178BB
330
747D
100
AcDbEntity
  8
部品1
 48
50.0
100
AcDbLine
 10
10974.7612653174
 20
4767.931598721734
 30
0.0
 11
10998.7612653174
 21
4767.931598721734
 31
0.0
  0
LINE
  5
178BC
330
747D
100
AcDbEntity
  8
部品1
 48
50.0
100
AcDbLine
 10
11046.83189331061
 20
4717.931598713261
 30
0.0
 11
11084.77522150019
 21
4717.931598713261
 31
0.0
  0
ARC
  5
178BD
330
747D
100
AcDbEntity
  8
部品1
100
AcDbCircle
 10
11089.80212287711
 20
4690.60171603385
 30
0.0
 40
0.7
100
AcDbArc
 50
277.2868405166456
 51
356.3813705198622
  0
ARC
  5
178BE
330
747D
100
AcDbEntity
  8
部品1
100
AcDbCircle
 10
11090.2714190023
 20
4686.931598713261
 30
0.0
 40
3.0
100
AcDbArc
 50
90.0
 51
176.3813705198622
  0
LINE
  5
178BF
330
747D
100
AcDbEntity
  8
部品1
100
AcDbLine
 10
11087.2774002235
 20
4687.120943774373
 30
0.0
 11
11082.53030721134
 21
4612.05753551959
 31
0.0
  0
ARC
  5
178C0
330
747D
100
AcDbEntity
  8
部品1
100
AcDbCircle
 10
11081.83170282962
 20
4612.10171603385
 30
0.0
 40
0.7
100
AcDbArc
 50
277.2868405166456
 51
356.3813705198622
  0
ARC
  5
178C1
330
747D
100
AcDbEntity
  8
部品1
100
AcDbCircle
 10
11082.30099895481
 20
4608.431598713261
 30
0.0
 40
3.0
100
AcDbArc
 50
90.0
 51
176.3813705198622
  0
ARC
  5
178C2
330
747D
100
AcDbEntity
  8
部品1
100
AcDbCircle
 10
11071.64861065422
 20
4598.43159871326
 30
0.0
 40
7.0
100
AcDbArc
 50
270.0
 51
356.3813705198622
  0
ARC
  5
178C3
330
747D
100
AcDbEntity
  8
部品1
100
AcDbCircle
 10
11084.77522150019
 20
4710.931598713261
 30
0.0
 40
7.0
100
AcDbArc
 50
356.3813705198622
 51
90.0
  0
LINE
  5
178C4
330
747D
100
AcDbEntity
  8
部品1
100
AcDbLine
 10
11078.63465447143
 20
4597.989793570672
 30
0.0
 11
11079.30698017601
 21
4608.620943774372
 31
0.0
  0
LINE
  5
178C5
330
747D
100
AcDbEntity
  8
部品1
100
AcDbLine
 10
11090.50072725883
 20
4690.55753551959
 30
0.0
 11
11091.7612653174
 21
4710.489793570672
 31
0.0
  0
LINE
  5
178C6
330
747D
100
AcDbEntity
  8
部品1
100
AcDbLine
 10
11046.83189331061
 20
4717.931598713261
 30
0.0
 11
11084.77522150019
 21
4717.931598713261
 31
0.0
  0
ARC
  5
178C7
330
747D
100
AcDbEntity
  8
部品1
100
AcDbCircle
 10
11046.83189331061
 20
4712.931598713261
 30
0.0
 40
5.0
100
AcDbArc
 50
90.0
 51
180.0
  0
LINE
  5
178C8
330
747D
100
AcDbEntity
  8
部品1
100
AcDbLine
 10
11041.8318933106
 20
4767.93159873016
 30
0.0
 11
11041.8318933106
 21
4670.520531213158
 31
0.0
  0
LINE
  5
178C9
330
747D
100
AcDbEntity
  8
部品1
 48
50.0
100
AcDbLine
 10
11091.7612653174
 20
4710.489793570672
 30
0.0
 11
11091.7612653174
 21
4765.489793587571
 31
0.0
  0
ARC
  5
178CA
330
747D
100
AcDbEntity
  8
部品1
100
AcDbCircle
 10
11046.83189331061
 20
4767.93159873016
 30
0.0
 40
5.0
100
AcDbArc
 50
90.0
 51
180.0
  0
LINE
  5
178CB
330
747D
100
AcDbEntity
  8
部品1
100
AcDbLine
 10
11046.83189331061
 20
4772.931598730159
 30
0.0
 11
11084.77522150019
 21
4772.931598730159
 31
0.0
  0
ARC
  5
178CC
330
747D
100
AcDbEntity
  8
部品1
100
AcDbCircle
 10
11084.77522150019
 20
4765.931598730159
 30
0.0
 40
7.0
100
AcDbArc
 50
356.3813705198622
 51
90.0
  0
LINE
  5
178CD
330
747D
100
AcDbEntity
  8
細線
 48
50.0
100
AcDbLine
 10
11059.27235522168
 20
4717.931598713261
 30
0.0
 11
11059.27235522168
 21
4591.431598713262
 31
0.0
  0
LINE
  5
178CE
330
747D
100
AcDbEntity
  8
細線
 48
50.0
100
AcDbLine
 10
11041.8318933106
 20
4689.90343146121
 30
0.0
 11
11089.89513459455
 21
4689.903431461218
 31
0.0
  0
LINE
  5
178CF
330
747D
100
AcDbEntity
  8
部品1
 48
50.0
100
AcDbLine
 10
10974.7612653174
 20
4767.931598721734
 30
0.0
 11
10973.54992511121
 21
4758.531598721733
 31
0.0
  0
LINE
  5
178D0
330
747D
100
AcDbEntity
  8
部品1
 48
50.0
100
AcDbLine
 10
10959.54992511121
 20
4758.531598721733
 30
0.0
 11
10973.54992511121
 21
4758.531598721733
 31
0.0
  0
LINE
  5
178D1
330
747D
100
AcDbEntity
  8
部品1
 48
50.0
100
AcDbLine
 10
10959.54992511121
 20
4758.531598721733
 30
0.0
 11
10958.2612653174
 21
4748.531598721732
 31
0.0
  0
LINE
  5
178D2
330
747D
100
AcDbEntity
  8
部品1
 48
50.0
100
AcDbLine
 10
10998.7612653174
 20
4767.931598721734
 30
0.0
 11
11001.2612653174
 21
4748.531598721732
 31
0.0
  0
LINE
  5
178D3
330
747D
100
AcDbEntity
  8
部品1
100
AcDbLine
 10
11041.8318933106
 20
4748.531598721728
 30
0.0
 11
11001.2612653174
 21
4748.531598721728
 31
0.0
  0
LINE
  5
178FF
330
747D
100
AcDbEntity
  8
部品1
100
AcDbLine
 10
10557.7612653174
 20
4767.931598721737
 30
0.0
 11
10557.7612653174
 21
4670.520531213173
 31
0.0
  0
LINE
  5
17900
330
747D
100
AcDbEntity
  8
部品1
100
AcDbLine
 10
10575.76126531739
 20
4767.931598721748
 30
0.0
 11
10575.76126531739
 21
4670.520531213173
 31
0.0
  0
LINE
  5
17901
330
747D
100
AcDbEntity
  8
部品1
 48
50.0
100
AcDbLine
 10
10554.7612653174
 20
4767.931598721748
 30
0.0
 11
10578.7612653174
 21
4767.931598721748
 31
0.0
  0
LINE
  5
17902
330
747D
100
AcDbEntity
  8
部品1
 48
50.0
100
AcDbLine
 10
10554.7612653174
 20
4767.931598721748
 30
0.0
 11
10553.54992511122
 21
4758.531598721748
 31
0.0
  0
LINE
  5
17903
330
747D
100
AcDbEntity
  8
部品1
 48
50.0
100
AcDbLine
 10
10539.54992511122
 20
4758.531598721748
 30
0.0
 11
10553.54992511122
 21
4758.531598721748
 31
0.0
  0
LINE
  5
17904
330
747D
100
AcDbEntity
  8
部品1
 48
50.0
100
AcDbLine
 10
10539.54992511122
 20
4758.531598721748
 30
0.0
 11
10538.2612653174
 21
4748.531598721747
 31
0.0
  0
LINE
  5
17905
330
747D
100
AcDbEntity
  8
部品1
 48
50.0
100
AcDbLine
 10
10578.7612653174
 20
4767.931598721748
 30
0.0
 11
10581.2612653174
 21
4748.531598721747
 31
0.0
  0
LINE
  5
17906
330
747D
100
AcDbEntity
  8
部品1
100
AcDbLine
 10
10724.7612653174
 20
4748.531598721747
 30
0.0
 11
10581.2612653174
 21
4748.531598721747
 31
0.0
  0
LINE
  5
17907
330
747D
100
AcDbEntity
  8
部品1
100
AcDbLine
 10
10797.7612653174
 20
4748.531598721747
 30
0.0
 11
10773.7612653174
 21
4748.531598721747
 31
0.0
  0
LINE
  5
17908
330
747D
100
AcDbEntity
  8
部品1
 48
50.0
100
AcDbLine
 10
10763.2612653174
 20
4767.931598721752
 30
0.0
 11
10773.7612653174
 21
4748.531598721751
 31
0.0
  0
LINE
  5
17909
330
747D
100
AcDbEntity
  8
部品1
 48
50.0
100
AcDbLine
 10
10735.2612653174
 20
4767.931598721752
 30
0.0
 11
10724.7612653174
 21
4748.531598721751
 31
0.0
  0
LINE
  5
1790A
330
747D
100
AcDbEntity
  8
部品1
 48
50.0
100
AcDbLine
 10
10735.2612653174
 20
4767.931598721752
 30
0.0
 11
10763.2612653174
 21
4767.931598721752
 31
0.0
  0
LINE
  5
1790B
330
747D
100
AcDbEntity
  8
部品1
 48
50.0
100
AcDbLine
 10
10808.2612653174
 20
4767.931598721752
 30
0.0
 11
10797.7612653174
 21
4748.531598721751
 31
0.0
  0
LINE
  5
1790C
330
747D
100
AcDbEntity
  8
部品1
 48
50.0
100
AcDbLine
 10
10836.2612653174
 20
4767.931598721752
 30
0.0
 11
10846.7612653174
 21
4748.531598721751
 31
0.0
  0
LINE
  5
1790D
330
747D
100
AcDbEntity
  8
部品1
 48
50.0
100
AcDbLine
 10
10808.2612653174
 20
4767.931598721752
 30
0.0
 11
10836.2612653174
 21
4767.931598721752
 31
0.0
  0
LINE
  5
1790E
330
747D
100
AcDbEntity
  8
部品1
100
AcDbLine
 10
10761.76126531741
 20
4767.931598721748
 30
0.0
 11
10761.76126531741
 21
4670.520531213177
 31
0.0
  0
LINE
  5
1790F
330
747D
100
AcDbEntity
  8
部品1
100
AcDbLine
 10
10736.76126531741
 20
4767.931598721748
 30
0.0
 11
10736.76126531741
 21
4670.520531213177
 31
0.0
  0
LINE
  5
17910
330
747D
100
AcDbEntity
  8
部品1
100
AcDbLine
 10
10809.76126531741
 20
4767.931598721748
 30
0.0
 11
10809.76126531741
 21
4670.520531213177
 31
0.0
  0
LINE
  5
17911
330
747D
100
AcDbEntity
  8
部品1
100
AcDbLine
 10
10834.76126531741
 20
4767.931598721748
 30
0.0
 11
10834.76126531741
 21
4670.520531213177
 31
0.0
  0
LINE
  5
17912
330
747D
100
AcDbEntity
  8
部品1
100
AcDbLine
 10
10958.2612653174
 20
4748.531598721732
 30
0.0
 11
10846.76126531741
 21
4748.531598721732
 31
0.0
  0
LINE
  5
17913
330
747D
100
AcDbEntity
  8
細線
 48
50.0
100
AcDbLine
 10
8544.261265317413
 20
4537.931598713261
 30
0.0
 11
8544.261265317413
 21
2747.931598713261
 31
0.0
  0
LINE
  5
17914
330
747D
100
AcDbEntity
  8
細線
 48
50.0
100
AcDbLine
 10
8529.261265317414
 20
4537.931598713261
 30
0.0
 11
8529.261265317414
 21
2747.931598713261
 31
0.0
  0
LINE
  5
17915
330
747D
100
AcDbEntity
  8
細線
 48
50.0
100
AcDbLine
 10
8669.261265317413
 20
4537.931598713261
 30
0.0
 11
8669.261265317413
 21
2747.931598713261
 31
0.0
  0
LINE
  5
17916
330
747D
100
AcDbEntity
  8
細線
 48
50.0
100
AcDbLine
 10
8684.261265317413
 20
4537.931598713261
 30
0.0
 11
8684.261265317413
 21
2747.931598713261
 31
0.0
  0
LINE
  5
17917
330
747D
100
AcDbEntity
  8
細線
 48
50.0
100
AcDbLine
 10
8824.261265317414
 20
4537.931598713261
 30
0.0
 11
8824.261265317414
 21
2747.931598713261
 31
0.0
  0
LINE
  5
17918
330
747D
100
AcDbEntity
  8
細線
 48
50.0
100
AcDbLine
 10
8809.261265317413
 20
4537.931598713261
 30
0.0
 11
8809.261265317413
 21
2747.931598713261
 31
0.0
  0
LINE
  5
17EB4
330
747D
100
AcDbEntity
  8
寸法
 48
50.0
100
AcDbLine
 10
9321.964271599233
 20
7475.595593757184
 30
0.0
 11
9270.55826368913
 21
7475.595593757184
 31
0.0
  0
LINE
  5
17EB5
330
747D
100
AcDbEntity
  8
寸法
 48
50.0
100
AcDbLine
 10
9270.55826368913
 20
7475.595593757184
 30
0.0
 11
9270.55826368913
 21
7506.905752409351
 31
0.0
  0
LINE
  5
17EB6
330
747D
100
AcDbEntity
  8
寸法
 48
50.0
100
AcDbLine
 10
9270.55826368913
 20
7506.905752409351
 30
0.0
 11
9240.796931697706
 21
7506.905752409351
 31
0.0
  0
LINE
  5
17EB7
330
747D
100
AcDbEntity
  8
寸法
 48
50.0
100
AcDbLine
 10
9240.796931697706
 20
7506.905752409351
 30
0.0
 11
9296.261267644181
 21
7544.48520333796
 31
0.0
  0
LINE
  5
17EB8
330
747D
100
AcDbEntity
  8
寸法
 48
50.0
100
AcDbLine
 10
9351.725603590658
 20
7506.905752409351
 30
0.0
 11
9296.261267644181
 21
7544.48520333796
 31
0.0
  0
LINE
  5
17EB9
330
747D
100
AcDbEntity
  8
寸法
 48
50.0
100
AcDbLine
 10
9321.964271599233
 20
7506.905752409351
 30
0.0
 11
9351.725603590658
 21
7506.905752409351
 31
0.0
  0
LINE
  5
17EBA
330
747D
100
AcDbEntity
  8
寸法
 48
50.0
100
AcDbLine
 10
9321.964271599233
 20
7475.595593757184
 30
0.0
 11
9321.964271599233
 21
7506.905752409351
 31
0.0
  0
LINE
  5
17EBB
330
747D
100
AcDbEntity
  8
寸法
 48
50.0
100
AcDbLine
 10
9270.55826368913
 20
7475.595593757184
 30
0.0
 11
9321.964271599233
 21
7475.595593757184
 31
0.0
  0
LINE
  5
17EBC
330
747D
100
AcDbEntity
  8
寸法
 48
50.0
100
AcDbLine
 10
9601.129805876091
 20
7532.741184512007
 30
0.0
 11
9601.129805876091
 21
7479.077549930217
 31
0.0
  0
LINE
  5
17EBD
330
747D
100
AcDbEntity
  8
寸法
 48
50.0
100
AcDbLine
 10
9690.414024471513
 20
7508.817550242522
 30
0.0
 11
9601.129805876091
 21
7532.741184512007
 31
0.0
  0
LINE
  5
17EBE
330
747D
100
AcDbEntity
  8
寸法
 48
50.0
100
AcDbLine
 10
9471.262084295787
 20
7508.817550242522
 30
0.0
 11
9690.414024471513
 21
7508.817550242522
 31
0.0
  0
LINE
  5
17EBF
330
747D
100
AcDbEntity
  8
細線
 48
50.0
100
AcDbLine
 10
10347.76126531739
 20
7674.058957137046
 30
0.0
 11
10974.76126531739
 21
7674.058957137046
 31
0.0
  0
LINE
  5
17EC0
330
747D
100
AcDbEntity
  8
細線
 48
50.0
100
AcDbLine
 10
9693.761269970979
 20
7640.350188582971
 30
0.0
 11
10974.76126531739
 21
7640.350188582971
 31
0.0
  0
LINE
  5
17EC1
330
747D
100
AcDbEntity
  8
細線
 48
50.0
100
AcDbLine
 10
9652.761269970984
 20
7669.755096579224
 30
0.0
 11
8898.761265317389
 21
7669.75509657922
 31
0.0
  0
LINE
  5
17EC2
330
747D
100
AcDbEntity
  8
細線
100
AcDbLine
 10
10750.51125590093
 20
7693.558857102056
 30
0.0
 11
10752.84279542274
 21
7698.558859742016
 31
0.0
  0
LINE
  5
17EC3
330
747D
100
AcDbEntity
  8
細線
100
AcDbLine
 10
10820.51126531739
 20
7693.558842188321
 30
0.0
 11
10818.1797188412
 21
7698.558859742002
 31
0.0
  0
LINE
  5
17EC4
330
747D
100
AcDbEntity
  8
細線
100
AcDbLine
 10
10818.1797188412
 20
7698.558859742002
 30
0.0
 11
10752.84279542273
 21
7698.558859741988
 31
0.0
  0
LINE
  5
17EC5
330
747D
100
AcDbEntity
  8
細線
100
AcDbLine
 10
10678.1797188412
 20
7698.558859742002
 30
0.0
 11
10612.84279542273
 21
7698.558859741988
 31
0.0
  0
LINE
  5
17EC6
330
747D
100
AcDbEntity
  8
細線
100
AcDbLine
 10
10680.51126531739
 20
7693.558842188321
 30
0.0
 11
10678.1797188412
 21
7698.558859742002
 31
0.0
  0
LINE
  5
17EC7
330
747D
100
AcDbEntity
  8
細線
100
AcDbLine
 10
10610.51125590093
 20
7693.558857102056
 30
0.0
 11
10612.84279542274
 21
7698.558859742016
 31
0.0
  0
LINE
  5
17EC8
330
747D
100
AcDbEntity
  8
細線
100
AcDbLine
 10
10470.51126531739
 20
7693.558842188321
 30
0.0
 11
10472.8428048392
 21
7698.558844828283
 31
0.0
  0
LINE
  5
17EC9
330
747D
100
AcDbEntity
  8
細線
100
AcDbLine
 10
10540.51127473385
 20
7693.558827274587
 30
0.0
 11
10538.17972825766
 21
7698.558844828268
 31
0.0
  0
LINE
  5
17ECA
330
747D
100
AcDbEntity
  8
細線
100
AcDbLine
 10
10538.17972825766
 20
7698.558844828268
 30
0.0
 11
10472.84280483919
 21
7698.558844828254
 31
0.0
  0
LINE
  5
17ECB
330
747D
100
AcDbEntity
  8
細線
100
AcDbLine
 10
10242.92974950649
 20
7664.55888152565
 30
0.0
 11
10177.59282608802
 21
7664.558881525635
 31
0.0
  0
LINE
  5
17ECC
330
747D
100
AcDbEntity
  8
細線
100
AcDbLine
 10
10245.26129598268
 20
7659.55886397197
 30
0.0
 11
10242.92974950649
 21
7664.55888152565
 31
0.0
  0
LINE
  5
17ECD
330
747D
100
AcDbEntity
  8
細線
100
AcDbLine
 10
10175.26128656622
 20
7659.558878885703
 30
0.0
 11
10177.59282608803
 21
7664.558881525664
 31
0.0
  0
LINE
  5
17ECE
330
747D
100
AcDbEntity
  8
細線
 48
50.0
100
AcDbLine
 10
10016.6446445654
 20
7677.829705341402
 30
0.0
 11
10022.40016214807
 21
7659.558854050915
 31
0.0
  0
LINE
  5
17ECF
330
747D
100
AcDbEntity
  8
細線
 48
50.0
100
AcDbLine
 10
10005.71619608497
 20
7677.829705341402
 30
0.0
 11
10016.6446445654
 21
7677.829705341402
 31
0.0
  0
ARC
  5
17ED0
330
747D
100
AcDbEntity
  8
細線
 48
50.0
100
AcDbCircle
 10
10000.26184002765
 20
7679.329705341402
 30
0.0
 40
5.0
100
AcDbArc
 50
204.6243183521304
 51
335.3756816478695
  0
ARC
  5
17ED1
330
747D
100
AcDbEntity
  8
細線
 48
50.0
100
AcDbCircle
 10
10005.71619608497
 20
7676.829705341401
 30
0.0
 40
1.0
100
AcDbArc
 50
90.0
 51
155.3756816478695
  0
ARC
  5
17ED2
330
747D
100
AcDbEntity
  8
細線
 48
50.0
100
AcDbCircle
 10
9994.807483970337
 20
7676.829705341401
 30
0.0
 40
1.0
100
AcDbArc
 50
24.62431835213048
 51
90.0
  0
LINE
  5
17ED3
330
747D
100
AcDbEntity
  8
細線
 48
50.0
100
AcDbLine
 10
9983.879035489904
 20
7677.829705341402
 30
0.0
 11
9994.807483970337
 21
7677.829705341402
 31
0.0
  0
LINE
  5
17ED4
330
747D
100
AcDbEntity
  8
細線
 48
50.0
100
AcDbLine
 10
9978.123517907235
 20
7659.558854050908
 30
0.0
 11
9983.879035489904
 21
7677.829705341402
 31
0.0
  0
LINE
  5
17ED5
330
747D
100
AcDbEntity
  8
細線
100
AcDbLine
 10
10035.26128779727
 20
7659.558851416711
 30
0.0
 11
10037.59282731908
 21
7664.558854056673
 31
0.0
  0
LINE
  5
17ED6
330
747D
100
AcDbEntity
  8
細線
100
AcDbLine
 10
10105.26129721373
 20
7659.558836502978
 30
0.0
 11
10102.92975073753
 21
7664.558854056659
 31
0.0
  0
LINE
  5
17ED7
330
747D
100
AcDbEntity
  8
細線
100
AcDbLine
 10
10102.92975073753
 20
7664.558854056659
 30
0.0
 11
10037.59282731906
 21
7664.558854056643
 31
0.0
  0
LINE
  5
17ED8
330
747D
100
AcDbEntity
  8
細線
100
AcDbLine
 10
9962.92972237302
 20
7664.55885405088
 30
0.0
 11
9897.592798954546
 21
7664.558854050864
 31
0.0
  0
LINE
  5
17ED9
330
747D
100
AcDbEntity
  8
細線
100
AcDbLine
 10
9965.261268849209
 20
7659.558836497199
 30
0.0
 11
9962.92972237302
 21
7664.55885405088
 31
0.0
  0
LINE
  5
17EDA
330
747D
100
AcDbEntity
  8
細線
100
AcDbLine
 10
9895.261260663794
 20
7659.558854050908
 30
0.0
 11
9897.59279895456
 21
7664.558854050894
 31
0.0
  0
LINE
  5
17EDB
330
747D
100
AcDbEntity
  8
細線
100
AcDbLine
 10
9755.261295982684
 20
7659.558862238277
 30
0.0
 11
9757.592834273452
 21
7664.558862238263
 31
0.0
  0
LINE
  5
17EDC
330
747D
100
AcDbEntity
  8
細線
100
AcDbLine
 10
9825.261304168101
 20
7659.558844684568
 30
0.0
 11
9822.929757691913
 21
7664.558862238244
 31
0.0
  0
LINE
  5
17EDD
330
747D
100
AcDbEntity
  8
細線
100
AcDbLine
 10
9822.929757691913
 20
7664.558862238244
 30
0.0
 11
9757.592834273438
 21
7664.558862238234
 31
0.0
  0
LINE
  5
17EDE
330
747D
100
AcDbEntity
  8
細線
100
AcDbLine
 10
9383.761261785563
 20
7625.559033918991
 30
0.0
 11
9386.092800076331
 21
7630.559033918976
 31
0.0
  0
LINE
  5
17EDF
330
747D
100
AcDbEntity
  8
細線
100
AcDbLine
 10
9453.76126997098
 20
7625.559016365277
 30
0.0
 11
9451.429723494792
 21
7630.559033918953
 31
0.0
  0
LINE
  5
17EE0
330
747D
100
AcDbEntity
  8
細線
100
AcDbLine
 10
9451.429723494792
 20
7630.559033918953
 30
0.0
 11
9386.092800076319
 21
7630.559033918946
 31
0.0
  0
LINE
  5
17EE1
330
747D
100
AcDbEntity
  8
細線
100
AcDbLine
 10
9591.429723494792
 20
7630.559033918953
 30
0.0
 11
9526.09280007632
 21
7630.559033918946
 31
0.0
  0
LINE
  5
17EE2
330
747D
100
AcDbEntity
  8
細線
100
AcDbLine
 10
9593.761269970979
 20
7625.559016365277
 30
0.0
 11
9591.429723494792
 21
7630.559033918953
 31
0.0
  0
LINE
  5
17EE3
330
747D
100
AcDbEntity
  8
細線
100
AcDbLine
 10
9523.761261785564
 20
7625.559033918991
 30
0.0
 11
9526.092800076332
 21
7630.559033918976
 31
0.0
  0
LINE
  5
17EE4
330
747D
100
AcDbEntity
  8
細線
100
AcDbLine
 10
9311.429723494791
 20
7630.559033918953
 30
0.0
 11
9246.09280007632
 21
7630.559033918943
 31
0.0
  0
LINE
  5
17EE5
330
747D
100
AcDbEntity
  8
細線
100
AcDbLine
 10
9313.76126997098
 20
7625.559016365277
 30
0.0
 11
9311.429723494791
 21
7630.559033918953
 31
0.0
  0
LINE
  5
17EE6
330
747D
100
AcDbEntity
  8
細線
100
AcDbLine
 10
9243.761261785563
 20
7625.559033918986
 30
0.0
 11
9246.092800076331
 21
7630.559033918972
 31
0.0
  0
LINE
  5
17EE7
330
747D
100
AcDbEntity
  8
細線
100
AcDbLine
 10
9103.761269970979
 20
7625.559033918991
 30
0.0
 11
9106.092808261747
 21
7630.559033918976
 31
0.0
  0
LINE
  5
17EE8
330
747D
100
AcDbEntity
  8
細線
100
AcDbLine
 10
9173.761278156396
 20
7625.559016365277
 30
0.0
 11
9171.429731680207
 21
7630.559033918953
 31
0.0
  0
LINE
  5
17EE9
330
747D
100
AcDbEntity
  8
細線
100
AcDbLine
 10
9171.429731680207
 20
7630.559033918953
 30
0.0
 11
9106.092808261735
 21
7630.559033918946
 31
0.0
  0
ARC
  5
17EEA
330
747D
100
AcDbEntity
  8
部品1
 48
0.01
100
AcDbCircle
 10
9059.261158718644
 20
7624.557911733917
 30
0.0
 40
0.5
100
AcDbArc
 50
270.0
 51
0.0
  0
LINE
  5
17EEB
330
747D
100
AcDbEntity
  8
部品1
 48
0.01
100
AcDbLine
 10
9059.761158718643
 20
7625.557911733918
 30
0.0
 11
9059.761158718643
 21
7624.557911733917
 31
0.0
  0
LINE
  5
17EEC
330
747D
100
AcDbEntity
  8
部品1
 48
0.01
100
AcDbLine
 10
9059.761158718643
 20
7625.557911733918
 30
0.0
 11
9059.761158718643
 21
7624.557911733917
 31
0.0
  0
LINE
  5
17EED
330
747D
100
AcDbEntity
  8
部品1
 48
0.01
100
AcDbLine
 10
9059.261158718644
 20
7624.057911733918
 30
0.0
 11
9052.64865328858
 21
7624.057911733918
 31
0.0
  0
ARC
  5
17EEE
330
747D
100
AcDbEntity
  8
部品1
100
AcDbCircle
 10
9052.71700284136
 20
7625.057911733917
 30
0.0
 40
1.0
100
AcDbArc
 50
160.5287793655778
 51
270.0
  0
ARC
  5
17EEF
330
747D
100
AcDbEntity
  8
部品1
100
AcDbCircle
 10
9027.261158718644
 20
7634.057911733918
 30
0.0
 40
26.0
100
AcDbArc
 50
340.5287793655779
 51
0.0
  0
LINE
  5
17EF0
330
747D
100
AcDbEntity
  8
部品1
100
AcDbLine
 10
9053.261158718644
 20
7634.057911733918
 30
0.0
 11
9053.261158718644
 21
7639.057911733917
 31
0.0
  0
ARC
  5
17EF1
330
747D
100
AcDbEntity
  8
部品1
 48
0.01
100
AcDbCircle
 10
9051.261158718643
 20
7639.057911733917
 30
0.0
 40
2.0
100
AcDbArc
 50
0.0
 51
90.0
  0
ARC
  5
17EF2
330
747D
100
AcDbEntity
  8
部品1
100
AcDbCircle
 10
9049.652767093833
 20
7638.057911733918
 30
0.0
 40
3.0
100
AcDbArc
 50
90.0
 51
141.6069559807873
  0
LINE
  5
17EF3
330
747D
100
AcDbEntity
  8
部品1
 48
0.01
100
AcDbLine
 10
9051.261158718643
 20
7641.057911733918
 30
0.0
 11
9049.652767093833
 21
7641.057911733918
 31
0.0
  0
ARC
  5
17EF4
330
747D
100
AcDbEntity
  8
部品1
100
AcDbCircle
 10
9031.190444504373
 20
7637.35791173392
 30
0.0
 40
3.0
100
AcDbArc
 50
254.0576313943215
 51
270.0
  0
ARC
  5
17EF5
330
747D
100
AcDbEntity
  8
部品1
100
AcDbCircle
 10
9038.331872932914
 20
7637.35791173392
 30
0.0
 40
3.0
100
AcDbArc
 50
270.0
 51
285.9423686056786
  0
LINE
  5
17EF6
330
747D
100
AcDbEntity
  8
部品1
100
AcDbLine
 10
9038.331872932914
 20
7634.35791173392
 30
0.0
 11
9031.190444504373
 21
7634.35791173392
 31
0.0
  0
ARC
  5
17EF7
330
747D
100
AcDbEntity
  8
部品1
100
AcDbCircle
 10
9034.761158718643
 20
7649.857911733921
 30
0.0
 40
16.0
100
AcDbArc
 50
285.9423686056786
 51
321.6069559807873
  0
LINE
  5
17EF8
330
747D
100
AcDbEntity
  8
部品1
 48
0.01
100
AcDbLine
 10
9018.261158718644
 20
7641.057911733918
 30
0.0
 11
9019.869550343454
 21
7641.057911733918
 31
0.0
  0
ARC
  5
17EF9
330
747D
100
AcDbEntity
  8
部品1
100
AcDbCircle
 10
9019.869550343454
 20
7638.057911733918
 30
0.0
 40
3.0
100
AcDbArc
 50
38.39304401921267
 51
90.0
  0
ARC
  5
17EFA
330
747D
100
AcDbEntity
  8
部品1
100
AcDbCircle
 10
9034.761158718643
 20
7649.857911733921
 30
0.0
 40
16.0
100
AcDbArc
 50
218.3930440192126
 51
254.0576313943215
  0
LINE
  5
17EFB
330
747D
100
AcDbEntity
  8
部品1
100
AcDbLine
 10
9016.261158718645
 20
7634.057911733918
 30
0.0
 11
9016.261158718645
 21
7639.057911733917
 31
0.0
  0
ARC
  5
17EFC
330
747D
100
AcDbEntity
  8
部品1
 48
0.01
100
AcDbCircle
 10
9018.261158718644
 20
7639.057911733917
 30
0.0
 40
2.0
100
AcDbArc
 50
90.0
 51
180.0
  0
ARC
  5
17EFD
330
747D
100
AcDbEntity
  8
部品1
100
AcDbCircle
 10
9042.261158718643
 20
7634.057911733918
 30
0.0
 40
26.0
100
AcDbArc
 50
180.0
 51
199.4712206344221
  0
ARC
  5
17EFE
330
747D
100
AcDbEntity
  8
部品1
 48
0.01
100
AcDbCircle
 10
9010.261158718645
 20
7624.557911733917
 30
0.0
 40
0.5
100
AcDbArc
 50
180.0
 51
270.0
  0
LINE
  5
17EFF
330
747D
100
AcDbEntity
  8
部品1
 48
0.01
100
AcDbLine
 10
9010.261158718645
 20
7624.057911733918
 30
0.0
 11
9016.805314595927
 21
7624.057911733918
 31
0.0
  0
LINE
  5
17F00
330
747D
100
AcDbEntity
  8
部品1
 48
0.01
100
AcDbLine
 10
9009.761158718644
 20
7625.557911733918
 30
0.0
 11
9009.761158718644
 21
7624.557911733917
 31
0.0
  0
ARC
  5
17F01
330
747D
100
AcDbEntity
  8
部品1
100
AcDbCircle
 10
9016.805314595927
 20
7625.057911733917
 30
0.0
 40
1.0
100
AcDbArc
 50
270.0
 51
19.47122063442214
  0
LINE
  5
17F02
330
747D
100
AcDbEntity
  8
細線
100
AcDbLine
 10
9055.261158718652
 20
7643.557911733921
 30
0.0
 11
9014.261158718651
 21
7643.557911733914
 31
0.0
  0
LINE
  5
17F03
330
747D
100
AcDbEntity
  8
細線
100
AcDbLine
 10
9014.261158718651
 20
7643.557911733914
 30
0.0
 11
9014.261158718651
 21
7625.557911733896
 31
0.0
  0
LINE
  5
17F04
330
747D
100
AcDbEntity
  8
細線
100
AcDbLine
 10
9055.261158718652
 20
7643.557911733921
 30
0.0
 11
9055.261158718652
 21
7625.557911733896
 31
0.0
  0
LINE
  5
17F05
330
747D
100
AcDbEntity
  8
細線
100
AcDbLine
 10
8898.761265317389
 20
7629.558842188321
 30
0.0
 11
8898.761265317389
 21
7625.558842188368
 31
0.0
  0
DIMENSION
  5
17F06
330
747D
100
AcDbEntity
  8
寸法
 48
50.0
100
AcDbDimension
  2
*D31
 10
10164.76126531739
 20
6947.835836850768
 30
0.0
 11
9544.413579827617
 21
6947.835836850768
 31
0.0
 70
   160
  1
有効開口部間口\P<>
 71
     5
 42
1266.0
  3
INABA_S40
100
AcDbAlignedDimension
 13
8898.761265317389
 23
7620.558842188322
 33
0.0
 14
10164.76126531739
 24
7620.558842188322
 34
0.0
100
AcDbRotatedDimension
1001
ACAD
1000
DSTYLE
1002
{
1070
    41
1040
0.5
1070
    44
1040
1.0
1070
   147
1040
0.8
1070
   271
1070
     2
1070
   272
1070
     2
1070
   289
1070
     3
1070
   340
1005
F706
1070
   343
1005
16A83
1070
   344
1005
16A83
1002
}
  0
LINE
  5
17F07
330
747D
100
AcDbEntity
  8
部品1
100
AcDbLine
 10
10986.76126531739
 20
7697.558842188321
 30
0.0
 11
11013.76126531739
 21
7697.558842188321
 31
0.0
  0
LINE
  5
17F09
330
747D
100
AcDbEntity
  8
部品1
100
AcDbLine
 10
11013.76126531739
 20
7620.558842188322
 30
0.0
 11
11013.76126531739
 21
7697.558842188321
 31
0.0
  0
LINE
  5
17F0A
330
747D
100
AcDbEntity
  8
部品1
100
AcDbLine
 10
10974.76126531739
 20
7693.558842188321
 30
0.0
 11
10986.76126531739
 21
7693.558842188321
 31
0.0
  0
LINE
  5
17F0B
330
747D
100
AcDbEntity
  8
部品1
100
AcDbLine
 10
10983.76126531739
 20
7629.558842188321
 30
0.0
 11
10983.76126531739
 21
7620.558842188322
 31
0.0
  0
LINE
  5
17F0C
330
747D
100
AcDbEntity
  8
部品1
100
AcDbLine
 10
10974.76126531739
 20
7629.558842188321
 30
0.0
 11
10983.76126531739
 21
7629.558842188321
 31
0.0
  0
LINE
  5
17F0D
330
747D
100
AcDbEntity
  8
部品1
100
AcDbLine
 10
10974.76126531739
 20
7693.558842188321
 30
0.0
 11
10974.76126531739
 21
7629.558842188321
 31
0.0
  0
LINE
  5
17F0E
330
747D
100
AcDbEntity
  8
部品1
100
AcDbLine
 10
10986.76126531739
 20
7724.558842188321
 30
0.0
 11
10986.76126531739
 21
7693.558842188321
 31
0.0
  0
LINE
  5
17F0F
330
747D
100
AcDbEntity
  8
部品1
100
AcDbLine
 10
8898.761265317389
 20
7693.558842188321
 30
0.0
 11
8886.761265317389
 21
7693.558842188321
 31
0.0
  0
LINE
  5
17F10
330
747D
100
AcDbEntity
  8
部品1
100
AcDbLine
 10
8859.76126531739
 20
7697.558842188321
 30
0.0
 11
8886.761265317389
 21
7697.558842188321
 31
0.0
  0
LINE
  5
17F11
330
747D
100
AcDbEntity
  8
部品1
100
AcDbLine
 10
8889.761265317389
 20
7629.558842188321
 30
0.0
 11
8889.761265317389
 21
7620.558842188322
 31
0.0
  0
LINE
  5
17F12
330
747D
100
AcDbEntity
  8
部品1
100
AcDbLine
 10
8898.761265317389
 20
7629.558842188321
 30
0.0
 11
8889.761265317389
 21
7629.558842188321
 31
0.0
  0
LINE
  5
17F13
330
747D
100
AcDbEntity
  8
部品1
100
AcDbLine
 10
8889.761265317389
 20
7620.558842188322
 30
0.0
 11
8859.76126531739
 21
7620.558842188322
 31
0.0
  0
LINE
  5
17F14
330
747D
100
AcDbEntity
  8
部品1
100
AcDbLine
 10
8859.76126531739
 20
7620.558842188322
 30
0.0
 11
8859.76126531739
 21
7697.558842188321
 31
0.0
  0
LINE
  5
17F15
330
747D
100
AcDbEntity
  8
部品1
100
AcDbLine
 10
8898.761265317389
 20
7693.558842188321
 30
0.0
 11
8898.761265317389
 21
7629.558842188321
 31
0.0
  0
LINE
  5
17F16
330
747D
100
AcDbEntity
  8
部品1
100
AcDbLine
 10
8886.761265317389
 20
7724.558842188319
 30
0.0
 11
8886.761265317389
 21
7693.558842188321
 31
0.0
  0
LINE
  5
17F17
330
747D
100
AcDbEntity
  8
部品1
100
AcDbLine
 10
8886.761265317389
 20
7724.558842188319
 30
0.0
 11
10986.76126531739
 21
7724.558842188321
 31
0.0
  0
LINE
  5
17F18
330
747D
100
AcDbEntity
  8
部品1
100
AcDbLine
 10
10983.76126531739
 20
7620.558842188322
 30
0.0
 11
11013.76126531739
 21
7620.558842188322
 31
0.0
  0
LINE
  5
17F19
330
747D
100
AcDbEntity
  8
部品1
100
AcDbLine
 10
8889.761265317389
 20
7620.558842188322
 30
0.0
 11
10986.76126531739
 21
7620.558842188322
 31
0.0
  0
LINE
  5
17F1A
330
747D
100
AcDbEntity
  8
細線
  6
Continuous
 62
     5
100
AcDbLine
 10
10265.76126531739
 20
7659.558842188317
 30
0.0
 11
10265.76126531739
 21
7659.558842188317
 31
0.0
  0
LINE
  5
17F1B
330
747D
100
AcDbEntity
  8
細線
  6
Continuous
 62
     5
100
AcDbLine
 10
10258.26130063628
 20
7659.558852109374
 30
0.0
 11
10258.26130063628
 21
7659.558852109374
 31
0.0
  0
LINE
  5
17F1C
330
747D
100
AcDbEntity
  8
細線
  6
Continuous
 62
     5
100
AcDbLine
 10
10252.26130063628
 20
7659.558852109374
 30
0.0
 11
10252.26130063628
 21
7659.558852109374
 31
0.0
  0
LINE
  5
17F1D
330
747D
100
AcDbEntity
  8
細線
  6
Continuous
 62
     5
100
AcDbLine
 10
10319.76126531739
 20
7678.558842188317
 30
0.0
 11
10319.76126531739
 21
7678.558842188317
 31
0.0
  0
LINE
  5
17F1E
330
747D
100
AcDbEntity
  8
細線
 48
50.0
100
AcDbLine
 10
8912.761269970983
 20
7646.159016365276
 30
0.0
 11
8912.761269970983
 21
7654.555166772915
 31
0.0
  0
LINE
  5
17F1F
330
747D
100
AcDbEntity
  8
細線
 48
50.0
100
AcDbLine
 10
8912.761269970983
 20
7654.555166772915
 30
0.0
 11
8898.761265317389
 21
7654.555166772912
 31
0.0
  0
LINE
  5
17F20
330
747D
100
AcDbEntity
  8
細線
 48
50.0
100
AcDbLine
 10
9663.761269970979
 20
7642.709016365275
 30
0.0
 11
9663.761269970979
 21
7647.559016365277
 31
0.0
  0
LINE
  5
17F21
330
747D
100
AcDbEntity
  8
細線
 48
50.0
100
AcDbLine
 10
9663.761269970979
 20
7647.559016365277
 30
0.0
 11
9678.76126997098
 21
7647.559016365277
 31
0.0
  0
LINE
  5
17F22
330
747D
100
AcDbEntity
  8
細線
 48
50.0
100
AcDbLine
 10
9678.76126997098
 20
7647.559016365277
 30
0.0
 11
9678.761269970983
 21
7654.559016365277
 31
0.0
  0
LINE
  5
17F23
330
747D
100
AcDbEntity
  8
細線
 48
50.0
100
AcDbLine
 10
9678.761269970983
 20
7654.559016365277
 30
0.0
 11
9693.761269970979
 21
7654.559016365277
 31
0.0
  0
LINE
  5
17F24
330
747D
100
AcDbEntity
  8
細線
 48
50.0
100
AcDbLine
 10
9693.761269970979
 20
7654.559016365277
 30
0.0
 11
9693.761269970979
 21
7625.559016365277
 31
0.0
  0
LINE
  5
17F25
330
747D
100
AcDbEntity
  8
細線
 48
50.0
100
AcDbLine
 10
8889.761265317389
 20
7625.556350708746
 30
0.0
 11
9103.761269970979
 21
7625.559033918991
 31
0.0
  0
LINE
  5
17F26
330
747D
100
AcDbEntity
  8
細線
 48
50.0
100
AcDbLine
 10
9593.761269970979
 20
7625.559016365277
 30
0.0
 11
9693.761269970979
 21
7625.559016365277
 31
0.0
  0
LINE
  5
17F27
330
747D
100
AcDbEntity
  8
細線
 48
50.0
100
AcDbLine
 10
9313.76126997098
 20
7625.559016365277
 30
0.0
 11
9383.76126997098
 21
7625.559016365277
 31
0.0
  0
LINE
  5
17F28
330
747D
100
AcDbEntity
  8
細線
 48
50.0
100
AcDbLine
 10
9326.623234983507
 20
7625.559016365277
 30
0.0
 11
9332.378752566176
 21
7643.829867655771
 31
0.0
  0
LINE
  5
17F29
330
747D
100
AcDbEntity
  8
細線
 48
50.0
100
AcDbLine
 10
9332.378752566176
 20
7643.829867655771
 30
0.0
 11
9343.307201046609
 21
7643.829867655766
 31
0.0
  0
ARC
  5
17F2A
330
747D
100
AcDbEntity
  8
細線
 48
50.0
100
AcDbCircle
 10
9343.307201046609
 20
7642.829867655767
 30
0.0
 40
1.0
100
AcDbArc
 50
24.62431835213048
 51
90.0
  0
ARC
  5
17F2B
330
747D
100
AcDbEntity
  8
細線
 48
50.0
100
AcDbCircle
 10
9354.215913161242
 20
7642.829867655767
 30
0.0
 40
1.0
100
AcDbArc
 50
90.0
 51
155.3756816478695
  0
ARC
  5
17F2C
330
747D
100
AcDbEntity
  8
細線
 48
50.0
100
AcDbCircle
 10
9348.761557103925
 20
7645.329867655767
 30
0.0
 40
5.0
100
AcDbArc
 50
204.6243183521304
 51
335.3756816478695
  0
LINE
  5
17F2D
330
747D
100
AcDbEntity
  8
細線
 48
50.0
100
AcDbLine
 10
9354.215913161242
 20
7643.829867655766
 30
0.0
 11
9365.144361641677
 21
7643.829867655771
 31
0.0
  0
LINE
  5
17F2E
330
747D
100
AcDbEntity
  8
細線
 48
50.0
100
AcDbLine
 10
9365.144361641677
 20
7643.829867655771
 30
0.0
 11
9370.899879224344
 21
7625.559016365277
 31
0.0
  0
LINE
  5
17F2F
330
747D
100
AcDbEntity
  8
細線
 48
50.0
100
AcDbLine
 10
9663.761269970979
 20
7646.159016365276
 30
0.0
 11
8912.761269970983
 21
7646.159016365276
 31
0.0
  0
LINE
  5
17F30
330
747D
100
AcDbEntity
  8
細線
 48
50.0
100
AcDbLine
 10
9523.761269970979
 20
7625.559016365277
 30
0.0
 11
9453.76126997098
 21
7625.559016365277
 31
0.0
  0
LINE
  5
17F31
330
747D
100
AcDbEntity
  8
細線
100
AcDbLine
 10
9243.761269970979
 20
7625.559016365277
 30
0.0
 11
9173.761278156396
 21
7625.559016365277
 31
0.0
  0
LINE
  5
17F32
330
747D
100
AcDbEntity
  8
細線
 48
50.0
100
AcDbLine
 10
10317.7612606638
 20
7680.159060223144
 30
0.0
 11
9682.761269970979
 21
7680.159060223139
 31
0.0
  0
LINE
  5
17F33
330
747D
100
AcDbEntity
  8
細線
 48
50.0
100
AcDbLine
 10
9682.761269970979
 20
7677.055210630783
 30
0.0
 11
9682.761269970979
 21
7681.555210630783
 31
0.0
  0
LINE
  5
17F34
330
747D
100
AcDbEntity
  8
細線
 48
50.0
100
AcDbLine
 10
9682.761269970979
 20
7681.555210630783
 30
0.0
 11
9667.761269970981
 21
7681.555210630783
 31
0.0
  0
LINE
  5
17F35
330
747D
100
AcDbEntity
  8
細線
 48
50.0
100
AcDbLine
 10
9667.761269970981
 20
7681.555210630783
 30
0.0
 11
9667.761269970981
 21
7688.555210630783
 31
0.0
  0
LINE
  5
17F36
330
747D
100
AcDbEntity
  8
細線
 48
50.0
100
AcDbLine
 10
9667.761269970981
 20
7688.555210630783
 30
0.0
 11
9652.761269970984
 21
7688.55521063078
 31
0.0
  0
LINE
  5
17F37
330
747D
100
AcDbEntity
  8
細線
 48
50.0
100
AcDbLine
 10
9652.761269970984
 20
7688.55521063078
 30
0.0
 11
9652.761269970984
 21
7650.954982527669
 31
0.0
  0
LINE
  5
17F38
330
747D
100
AcDbEntity
  8
細線
 48
50.0
100
AcDbLine
 10
9652.761269970984
 20
7650.954982527669
 30
0.0
 11
9672.761277272156
 21
7650.95502407721
 31
0.0
  0
LINE
  5
17F39
330
747D
100
AcDbEntity
  8
細線
 48
50.0
100
AcDbLine
 10
9672.761232403212
 20
7659.558485713019
 30
0.0
 11
9672.761277272156
 21
7650.95502407721
 31
0.0
  0
LINE
  5
17F3A
330
747D
100
AcDbEntity
  8
細線
 48
50.0
100
AcDbLine
 10
10317.7612606638
 20
7676.709060223143
 30
0.0
 11
10317.7612606638
 21
7681.559060223141
 31
0.0
  0
LINE
  5
17F3B
330
747D
100
AcDbEntity
  8
細線
 48
50.0
100
AcDbLine
 10
10317.7612606638
 20
7681.559060223141
 30
0.0
 11
10332.7612606638
 21
7681.559060223141
 31
0.0
  0
LINE
  5
17F3C
330
747D
100
AcDbEntity
  8
細線
 48
50.0
100
AcDbLine
 10
10332.7612606638
 20
7681.559060223141
 30
0.0
 11
10332.76127229777
 21
7688.559060223186
 31
0.0
  0
LINE
  5
17F3D
330
747D
100
AcDbEntity
  8
細線
 48
50.0
100
AcDbLine
 10
10332.76127229777
 20
7688.559060223186
 30
0.0
 11
10347.7612704683
 21
7688.559060223186
 31
0.0
  0
LINE
  5
17F3E
330
747D
100
AcDbEntity
  8
細線
 48
50.0
100
AcDbLine
 10
10347.7612704683
 20
7688.559060223186
 30
0.0
 11
10347.76126016648
 21
7659.558854050911
 31
0.0
  0
LINE
  5
17F3F
330
747D
100
AcDbEntity
  8
細線
 48
50.0
100
AcDbLine
 10
10035.26128779727
 20
7659.558862238277
 30
0.0
 11
9965.261539879683
 21
7659.55885680094
 31
0.0
  0
LINE
  5
17F40
330
747D
100
AcDbEntity
  8
細線
 48
50.0
100
AcDbLine
 10
9672.761232403212
 20
7659.558485713019
 30
0.0
 11
9683.993921757924
 21
7659.558668666166
 31
0.0
  0
ARC
  5
17F41
330
747D
100
AcDbEntity
  8
細線
 48
50.0
100
AcDbCircle
 10
9690.576214065259
 20
7658.358832579778
 30
0.0
 40
1.8
100
AcDbArc
 50
270.0006665777295
 51
345.0005554812987
  0
LINE
  5
17F42
330
747D
100
AcDbEntity
  8
細線
 48
50.0
100
AcDbLine
 10
9692.562647511339
 20
7658.817673037058
 30
0.0
 11
9692.314885069141
 21
7657.89297515495
 31
0.0
  0
LINE
  5
17F43
330
747D
100
AcDbEntity
  8
細線
 48
50.0
100
AcDbLine
 10
9690.576235006416
 20
7656.5588325799
 30
0.0
 11
9686.946307587646
 21
7656.558790349419
 31
0.0
  0
ARC
  5
17F44
330
747D
100
AcDbEntity
  8
細線
 48
50.0
100
AcDbCircle
 10
9686.946286646493
 20
7658.358790349298
 30
0.0
 40
1.8
100
AcDbArc
 50
195.0010443049394
 51
270.0006665777295
  0
LINE
  5
17F45
330
747D
100
AcDbEntity
  8
細線
 48
50.0
100
AcDbLine
 10
9684.959859154234
 20
7658.817505316863
 30
0.0
 11
9685.207628650747
 21
7657.892884378281
 31
0.0
  0
ARC
  5
17F46
330
747D
100
AcDbEntity
  8
細線
 48
50.0
100
AcDbCircle
 10
9683.993938045485
 20
7658.558668666301
 30
0.0
 40
1.0
100
AcDbArc
 50
15.00104430493943
 51
90.00093320877969
  0
LINE
  5
17F47
330
747D
100
AcDbEntity
  8
細線
 48
50.0
100
AcDbLine
 10
9693.52856886644
 20
7659.558863356571
 30
0.0
 11
9694.470329017347
 21
7659.55886993042
 31
0.0
  0
ARC
  5
17F48
330
747D
100
AcDbEntity
  8
細線
 48
50.0
100
AcDbCircle
 10
9693.528575846826
 20
7658.558863356596
 30
0.0
 40
1.0
100
AcDbArc
 50
90.0003999466794
 51
165.0005554812987
  0
LINE
  5
17F49
330
747D
100
AcDbEntity
  8
細線
 48
50.0
100
AcDbLine
 10
10245.26126066379
 20
7659.558854050911
 30
0.0
 11
10347.76126016648
 21
7659.558854050911
 31
0.0
  0
LINE
  5
17F4A
330
747D
100
AcDbEntity
  8
細線
 48
50.0
100
AcDbLine
 10
9755.261295982684
 20
7659.558862238277
 30
0.0
 11
9694.161234755764
 21
7659.55886993042
 31
0.0
  0
LINE
  5
17F4B
330
747D
100
AcDbEntity
  8
細線
 48
50.0
100
AcDbLine
 10
10175.26129598268
 20
7659.55889907936
 30
0.0
 11
10105.2612890283
 21
7659.558854056692
 31
0.0
  0
LINE
  5
17F4C
330
747D
100
AcDbEntity
  8
細線
 48
50.0
100
AcDbLine
 10
9895.261260663794
 20
7659.558854050908
 30
0.0
 11
9825.261243375917
 21
7659.558854050915
 31
0.0
  0
ARC
  5
17F4D
330
747D
100
AcDbEntity
  8
細線
 48
50.0
100
AcDbCircle
 10
10331.9612653174
 20
7692.758842188322
 30
0.0
 40
0.8
100
AcDbArc
 50
359.9997333689499
 51
89.99986668437072
  0
ARC
  5
17F4E
330
747D
100
AcDbEntity
  8
細線
 48
50.0
100
AcDbCircle
 10
10339.56127214249
 20
7692.758853356939
 30
0.0
 40
0.8
100
AcDbArc
 50
90.00014387753465
 51
179.9997333689498
  0
LINE
  5
17F4F
330
747D
100
AcDbEntity
  8
細線
 48
50.0
100
AcDbLine
 10
10331.96126717883
 20
7693.558842188321
 30
0.0
 11
10326.76126531739
 21
7693.558842188321
 31
0.0
  0
ARC
  5
17F50
330
747D
100
AcDbEntity
  8
細線
 48
50.0
100
AcDbCircle
 10
10333.46126531739
 20
7691.258842188323
 30
0.0
 40
0.7
100
AcDbArc
 50
180.0
 51
270.0
  0
ARC
  5
17F51
330
747D
100
AcDbEntity
  8
細線
 48
50.0
100
AcDbCircle
 10
10338.06126531739
 20
7691.258842188323
 30
0.0
 40
0.7
100
AcDbArc
 50
270.0
 51
0.0
  0
LINE
  5
17F52
330
747D
100
AcDbEntity
  8
細線
 48
50.0
100
AcDbLine
 10
10338.76126531739
 20
7691.258842188323
 30
0.0
 11
10338.7612721425
 21
7692.758857079809
 31
0.0
  0
LINE
  5
17F53
330
747D
100
AcDbEntity
  8
細線
 48
50.0
100
AcDbLine
 10
10333.46126531739
 20
7690.558842188321
 30
0.0
 11
10338.06126531739
 21
7690.558842188321
 31
0.0
  0
LINE
  5
17F54
330
747D
100
AcDbEntity
  8
細線
 48
50.0
100
AcDbLine
 10
10332.76126531739
 20
7692.758842188322
 30
0.0
 11
10332.76126531739
 21
7691.258842188323
 31
0.0
  0
LINE
  5
17F55
330
747D
100
AcDbEntity
  8
細線
 48
50.0
100
AcDbLine
 10
10958.36126531739
 20
7723.558842188321
 30
0.0
 11
10321.76126531739
 21
7723.558842188317
 31
0.0
  0
LINE
  5
17F56
330
747D
100
AcDbEntity
  8
細線
 48
50.0
100
AcDbLine
 10
10984.26126531739
 20
7718.558842188325
 30
0.0
 11
10968.36126531739
 21
7718.558842188321
 31
0.0
  0
LINE
  5
17F57
330
747D
100
AcDbEntity
  8
細線
 48
50.0
100
AcDbLine
 10
10968.36126531739
 20
7718.558842188321
 30
0.0
 11
10958.36126531739
 21
7723.558842188321
 31
0.0
  0
LINE
  5
17F58
330
747D
100
AcDbEntity
  8
細線
100
AcDbLine
 10
10569.26126531739
 20
7693.558842188321
 30
0.0
 11
10569.26126531739
 21
7722.85884218832
 31
0.0
  0
LINE
  5
17F59
330
747D
100
AcDbEntity
  8
細線
100
AcDbLine
 10
10569.26126531739
 20
7722.85884218832
 30
0.0
 11
10589.26126531739
 21
7722.85884218832
 31
0.0
  0
LINE
  5
17F5A
330
747D
100
AcDbEntity
  8
細線
100
AcDbLine
 10
10589.26126531739
 20
7693.558842188321
 30
0.0
 11
10589.26126531739
 21
7722.85884218832
 31
0.0
  0
LINE
  5
17F5B
330
747D
100
AcDbEntity
  8
細線
100
AcDbLine
 10
10750.51126531739
 20
7693.558842188321
 30
0.0
 11
10680.51126531739
 21
7693.558842188321
 31
0.0
  0
LINE
  5
17F5C
330
747D
100
AcDbEntity
  8
細線
 48
50.0
100
AcDbLine
 10
10470.51126531739
 20
7693.558842188321
 30
0.0
 11
10339.55704489023
 21
7693.558842188321
 31
0.0
  0
LINE
  5
17F5D
330
747D
100
AcDbEntity
  8
細線
100
AcDbLine
 10
10610.51126531739
 20
7693.558842188321
 30
0.0
 11
10540.51126531739
 21
7693.558842188321
 31
0.0
  0
LINE
  5
17F5E
330
747D
100
AcDbEntity
  8
細線
 48
50.0
100
AcDbLine
 10
10326.76126531739
 20
7685.558842188321
 30
0.0
 11
10326.76126531739
 21
7693.558842188321
 31
0.0
  0
LINE
  5
17F5F
330
747D
100
AcDbEntity
  8
細線
 48
50.0
100
AcDbLine
 10
10306.76126531739
 20
7685.558842188325
 30
0.0
 11
10326.76126531739
 21
7685.558842188321
 31
0.0
  0
LINE
  5
17F60
330
747D
100
AcDbEntity
  8
細線
 48
50.0
100
AcDbLine
 10
10321.76126531739
 20
7723.558842188321
 30
0.0
 11
10321.76126531739
 21
7718.558842188321
 31
0.0
  0
LINE
  5
17F61
330
747D
100
AcDbEntity
  8
細線
 48
50.0
100
AcDbLine
 10
10306.76126531739
 20
7723.558842188317
 30
0.0
 11
10321.76126531739
 21
7723.558842188321
 31
0.0
  0
LINE
  5
17F62
330
747D
100
AcDbEntity
  8
細線
 48
50.0
100
AcDbLine
 10
10306.76126531739
 20
7685.558842188325
 30
0.0
 11
10306.76126531739
 21
7723.558842188317
 31
0.0
  0
LINE
  5
17F63
330
747D
100
AcDbEntity
  8
細線
100
AcDbLine
 10
10974.76126531739
 20
7693.558842188321
 30
0.0
 11
10820.51126531739
 21
7693.558842188321
 31
0.0
  0
LINE
  5
17F64
330
747D
100
AcDbEntity
  8
細線
 48
50.0
100
AcDbLine
 10
10984.26126531739
 20
7718.558842188325
 30
0.0
 11
10984.26126531739
 21
7693.558842188321
 31
0.0
  0
DIMENSION
  5
18198
330
747D
100
AcDbEntity
  8
寸法
100
AcDbDimension
  2
*D32
 10
8117.150019690697
 20
7622.55884218832
 30
0.0
 11
8117.150019690695
 21
7482.073560814081
 31
0.0
 70
   160
 71
     5
 42
75.0
  3
INABA_S40
100
AcDbAlignedDimension
 13
8411.761265317414
 23
7697.55884218832
 33
0.0
 14
8859.76126531739
 24
7622.55884218832
 34
0.0
 50
90.0
100
AcDbRotatedDimension
1001
ACAD
1000
DSTYLE
1002
{
1070
    41
1040
0.5
1070
    44
1040
1.0
1070
   147
1040
0.8
1070
   271
1070
     2
1070
   272
1070
     2
1070
   289
1070
     3
1070
   340
1005
F706
1070
   343
1005
16A83
1070
   344
1005
16A83
1002
}
  0
DIMENSION
  5
184F3
330
747D
100
AcDbEntity
  8
寸法
 48
50.0
100
AcDbDimension
  2
*D33
 10
11013.76126531739
 20
6682.703472798995
 30
0.0
 11
9938.561236587833
 21
6682.703472798995
 31
0.0
 70
   160
 71
     5
 42
2154.0
  3
INABA_S40G
100
AcDbAlignedDimension
 13
8859.76126531739
 23
7620.558842188322
 33
0.0
 14
11013.76126531739
 24
7620.558842188322
 34
0.0
100
AcDbRotatedDimension
1001
ACAD
1000
DSTYLE
1002
{
1070
   341
1005
0
1002
}
  0
LWPOLYLINE
  5
185A2
330
747D
100
AcDbEntity
  8
部品1
 48
50.0
100
AcDbPolyline
 90
        4
 70
     1
 43
0.0
 10
8958.811265317413
 20
3594.181598713261
 10
8961.711265317413
 20
3594.181598713261
 10
8961.711265317413
 20
3603.681598713261
 10
8958.811265317413
 20
3603.681598713261
  0
CIRCLE
  5
185A3
330
747D
100
AcDbEntity
  8
部品1
 48
50.0
100
AcDbCircle
 10
8960.261265317413
 20
3598.931598713261
 30
0.0
 40
9.0
  0
ARC
  5
185A4
330
747D
100
AcDbEntity
  8
細線
 48
50.0
100
AcDbCircle
 10
8960.261265317413
 20
3598.931598713261
 30
0.0
 40
4.0
100
AcDbArc
 50
111.2538091853132
 51
248.7461908146868
  0
ARC
  5
185A5
330
747D
100
AcDbEntity
  8
細線
 48
50.0
100
AcDbCircle
 10
8960.261265317413
 20
3598.931598713261
 30
0.0
 40
17.5
100
AcDbArc
 50
306.4837370612677
 51
233.5162629387323
  0
LINE
  5
185A6
330
747D
100
AcDbEntity
  8
細線
 48
50.0
100
AcDbLine
 10
8970.261265317409
 20
3575.072638132379
 30
0.0
 11
8970.261265317413
 21
3584.05712393262
 31
0.0
  0
LINE
  5
185A7
330
747D
100
AcDbEntity
  8
細線
 48
50.0
100
AcDbLine
 10
8950.261265317413
 20
3575.07263813238
 30
0.0
 11
8950.261265317413
 21
3584.057123932617
 31
0.0
  0
ARC
  5
185A8
330
747D
100
AcDbEntity
  8
細線
 48
50.0
100
AcDbCircle
 10
8960.261265317413
 20
3598.931598713261
 30
0.0
 40
26.5
100
AcDbArc
 50
249.3326835063939
 51
290.6673164933835
  0
ARC
  5
185A9
330
747D
100
AcDbEntity
  8
細線
 48
50.0
100
AcDbCircle
 10
8969.261265317404
 20
3575.072638132379
 30
0.0
 40
1.0
100
AcDbArc
 50
290.6673164936062
 51
359.9999999998958
  0
ARC
  5
185AA
330
747D
100
AcDbEntity
  8
細線
 48
50.0
100
AcDbCircle
 10
8951.261265317413
 20
3575.07263813238
 30
0.0
 40
1.0
100
AcDbArc
 50
180.0
 51
249.3326835066164
  0
ARC
  5
185AB
330
747D
100
AcDbEntity
  8
細線
 48
50.0
100
AcDbCircle
 10
8949.261265317414
 20
3584.057123932617
 30
0.0
 40
1.0
100
AcDbArc
 50
0.0
 51
53.51626293873231
  0
ARC
  5
185AC
330
747D
100
AcDbEntity
  8
細線
 48
50.0
100
AcDbCircle
 10
8971.261265317416
 20
3584.05712393262
 30
0.0
 40
1.0
100
AcDbArc
 50
126.4837370615127
 51
180.0
  0
ARC
  5
185AD
330
747D
100
AcDbEntity
  8
細線
 48
50.0
100
AcDbCircle
 10
8960.261265317413
 20
3598.931598713261
 30
0.0
 40
21.5
100
AcDbArc
 50
255.8014401250294
 51
284.1985598749706
  0
ARC
  5
185AE
330
747D
100
AcDbEntity
  8
細線
 48
50.0
100
AcDbCircle
 10
8960.261265317413
 20
3598.931598713261
 30
0.0
 40
16.5
100
AcDbArc
 50
251.9694646069326
 51
288.0305353930674
  0
LINE
  5
185AF
330
747D
100
AcDbEntity
  8
細線
 48
50.0
100
AcDbLine
 10
8965.761265317413
 20
3578.379226587454
 30
0.0
 11
8965.761265317413
 21
3582.956618274791
 31
0.0
  0
LINE
  5
185B0
330
747D
100
AcDbEntity
  8
細線
 48
50.0
100
AcDbLine
 10
8954.761265317413
 20
3578.379226587454
 30
0.0
 11
8954.761265317413
 21
3582.95661827479
 31
0.0
  0
ARC
  5
185B1
330
747D
100
AcDbEntity
  8
細線
 48
50.0
100
AcDbCircle
 10
8955.061265317416
 20
3582.95661827479
 30
0.0
 40
0.3
100
AcDbArc
 50
71.96946460693259
 51
180.0
  0
ARC
  5
185B2
330
747D
100
AcDbEntity
  8
細線
 48
50.0
100
AcDbCircle
 10
8965.461265317413
 20
3582.956618274791
 30
0.0
 40
0.3
100
AcDbArc
 50
0.0
 51
108.0305353930674
  0
ARC
  5
185B3
330
747D
100
AcDbEntity
  8
細線
 48
50.0
100
AcDbCircle
 10
8965.46126531741
 20
3578.379226587454
 30
0.0
 40
0.3
100
AcDbArc
 50
284.1985598747622
 51
0.0000000001042204
  0
ARC
  5
185B4
330
747D
100
AcDbEntity
  8
細線
 48
50.0
100
AcDbCircle
 10
8955.061265317416
 20
3578.379226587454
 30
0.0
 40
0.3
100
AcDbArc
 50
180.0
 51
255.8014401248081
  0
CIRCLE
  5
185B5
330
747D
100
AcDbEntity
  8
細線
 48
50.0
100
AcDbCircle
 10
8960.261265317413
 20
3598.931598713261
 30
0.0
 40
12.0
  0
ARC
  5
185B6
330
747D
100
AcDbEntity
  8
部品1
 48
50.0
100
AcDbCircle
 10
8960.261265317413
 20
3648.931598713261
 30
0.0
 40
8.5
100
AcDbArc
 50
114.315739171091
 51
245.684260828909
  0
CIRCLE
  5
185B7
330
747D
100
AcDbEntity
  8
細線
 48
50.0
100
AcDbCircle
 10
8960.261265317413
 20
3648.931598713261
 30
0.0
 40
4.5
  0
LWPOLYLINE
  5
185B8
330
747D
100
AcDbEntity
  8
部品1
 48
50.0
100
AcDbPolyline
 90
        2
 70
     0
 43
0.0
 10
8956.761265317412
 20
3667.606448110245
 10
8956.761265317412
 20
3656.677565405676
  0
CIRCLE
  5
185B9
330
747D
100
AcDbEntity
  8
部品1
 48
50.0
100
AcDbCircle
 10
8960.261265317413
 20
3648.931598713261
 30
0.0
 40
19.0
  0
LWPOLYLINE
  5
185BA
330
747D
100
AcDbEntity
  8
部品1
 48
50.0
100
AcDbPolyline
 90
        2
 70
     0
 43
0.0
 10
8956.761265317412
 20
3641.185632020846
 10
8956.761265317412
 20
3630.256749316279
  0
LWPOLYLINE
  5
185BB
330
747D
100
AcDbEntity
  8
部品1
 48
50.0
100
AcDbPolyline
 90
        2
 70
     0
 43
0.0
 10
8963.761265317414
 20
3656.677565405676
 10
8963.761265317414
 20
3667.606448110245
  0
ARC
  5
185BC
330
747D
100
AcDbEntity
  8
部品1
 48
50.0
100
AcDbCircle
 10
8960.261265317413
 20
3648.931598713261
 30
0.0
 40
8.5
100
AcDbArc
 50
294.315739171091
 51
65.68426082890896
  0
LWPOLYLINE
  5
185BD
330
747D
100
AcDbEntity
  8
部品1
 48
50.0
100
AcDbPolyline
 90
        2
 70
     0
 43
0.0
 10
8963.761265317414
 20
3630.256749316279
 10
8963.761265317414
 20
3641.185632020846
  0
ARC
  5
185BE
330
747D
100
AcDbEntity
  8
細線
 48
50.0
100
AcDbCircle
 10
8960.261265317413
 20
3648.931598713261
 30
0.0
 40
16.5
100
AcDbArc
 50
332.0012352654438
 51
27.99876473455621
  0
ARC
  5
185BF
330
747D
100
AcDbEntity
  8
細線
 48
50.0
100
AcDbCircle
 10
8960.261265317413
 20
3648.931598713261
 30
0.0
 40
14.0
100
AcDbArc
 50
326.4074436112986
 51
33.59255638870134
  0
LINE
  5
185C0
330
747D
100
AcDbEntity
  8
細線
 48
50.0
100
AcDbLine
 10
8945.692463033081
 20
3656.677565405676
 30
0.0
 11
8948.599361527724
 21
3656.677565405676
 31
0.0
  0
LINE
  5
185C1
330
747D
100
AcDbEntity
  8
細線
 48
50.0
100
AcDbLine
 10
8945.692463033081
 20
3641.185632020846
 30
0.0
 11
8948.599361527724
 21
3641.185632020846
 31
0.0
  0
LINE
  5
185C2
330
747D
100
AcDbEntity
  8
細線
 48
50.0
100
AcDbLine
 10
8971.923169107101
 20
3656.677565405676
 30
0.0
 11
8974.830067601748
 21
3656.677565405676
 31
0.0
  0
LINE
  5
185C3
330
747D
100
AcDbEntity
  8
細線
 48
50.0
100
AcDbLine
 10
8971.923169107101
 20
3641.185632020846
 30
0.0
 11
8974.830067601748
 21
3641.185632020846
 31
0.0
  0
ARC
  5
185C4
330
747D
100
AcDbEntity
  8
細線
 48
50.0
100
AcDbCircle
 10
8960.261265317413
 20
3648.931598713261
 30
0.0
 40
14.0
100
AcDbArc
 50
146.4074436112986
 51
213.5925563887013
  0
ARC
  5
185C5
330
747D
100
AcDbEntity
  8
細線
 48
50.0
100
AcDbCircle
 10
8960.261265317413
 20
3648.931598713261
 30
0.0
 40
16.5
100
AcDbArc
 50
152.0012352654438
 51
207.9987647345562
  0
ARC
  5
185C6
330
747D
100
AcDbEntity
  8
部品1
 48
50.0
100
AcDbCircle
 10
8933.761265317412
 20
3674.431598713262
 30
0.0
 40
5.0
100
AcDbArc
 50
90.0
 51
180.0
  0
ARC
  5
185C7
330
747D
100
AcDbEntity
  8
部品1
 48
50.0
100
AcDbCircle
 10
8933.761265317412
 20
3563.431598713262
 30
0.0
 40
5.0
100
AcDbArc
 50
180.0
 51
270.0
  0
ARC
  5
185C8
330
747D
100
AcDbEntity
  8
部品1
 48
50.0
100
AcDbCircle
 10
8986.761265317413
 20
3563.431598713262
 30
0.0
 40
5.0
100
AcDbArc
 50
270.0
 51
0.0
  0
ARC
  5
185C9
330
747D
100
AcDbEntity
  8
部品1
 48
50.0
100
AcDbCircle
 10
8986.761265317413
 20
3674.431598713262
 30
0.0
 40
5.0
100
AcDbArc
 50
0.0
 51
90.0
  0
LINE
  5
185CB
330
747D
100
AcDbEntity
  8
部品1
 48
50.0
100
AcDbLine
 10
8928.761265317413
 20
3563.431598713262
 30
0.0
 11
8928.761265317413
 21
3674.431598713262
 31
0.0
  0
LINE
  5
185CC
330
747D
100
AcDbEntity
  8
部品1
 48
50.0
100
AcDbLine
 10
8986.761265317413
 20
3558.431598713261
 30
0.0
 11
8933.761265317412
 21
3558.431598713261
 31
0.0
  0
LINE
  5
185CD
330
747D
100
AcDbEntity
  8
部品1
 48
50.0
100
AcDbLine
 10
8991.761265317412
 20
3674.431598713262
 30
0.0
 11
8991.761265317412
 21
3563.431598713262
 31
0.0
  0
ENDSEC
  0
SECTION
  2
OBJECTS
  0
DICTIONARY
  5
7471
330
0
100
AcDbDictionary
281
     1
  3
ACAD_COLOR
350
169D4
  3
ACAD_GROUP
350
7472
  3
ACAD_LAYOUT
350
169D5
  3
ACAD_MATERIAL
350
169D3
  3
ACAD_MLINESTYLE
350
7473
  3
ACAD_PLOTSETTINGS
350
169D6
  3
ACAD_PLOTSTYLENAME
350
169D1
  3
ACDBHEADERROUNDTRIPXREC
350
185EC
  3
AcDbVariableDictionary
350
185E8
  3
CONTENTDICTIONARY
350
E71C
  3
DRAWINGVARIABLESDICT
350
F3B9
  0
DICTIONARY
  5
16B6E
330
7467
100
AcDbDictionary
280
     1
281
     1
  3
ACAD_LAYERSTATES
360
16B6F
  0
DICTIONARY
  5
169D4
102
{ACAD_REACTORS
330
7471
102
}
330
7471
100
AcDbDictionary
281
     1
  0
DICTIONARY
  5
7472
102
{ACAD_REACTORS
330
7471
102
}
330
7471
100
AcDbDictionary
281
     1
  0
DICTIONARY
  5
169D5
102
{ACAD_REACTORS
330
7471
102
}
330
7471
100
AcDbDictionary
281
     1
  3
Model
350
169D7
  3
レイアウト1
350
169D8
  0
DICTIONARY
  5
169D3
102
{ACAD_REACTORS
330
7471
102
}
330
7471
100
AcDbDictionary
281
     1
  0
DICTIONARY
  5
7473
102
{ACAD_REACTORS
330
7471
102
}
330
7471
100
AcDbDictionary
281
     1
  3
STANDARD
350
7480
  0
DICTIONARY
  5
169D6
102
{ACAD_REACTORS
330
7471
102
}
330
7471
100
AcDbDictionary
281
     1
  0
ACDBDICTIONARYWDFLT
  5
169D1
102
{ACAD_REACTORS
330
7471
102
}
330
7471
100
AcDbDictionary
281
     1
  3
Normal
350
169D2
100
AcDbDictionaryWithDefault
340
169D2
  0
DICTIONARY
  5
185EC
102
{ACAD_REACTORS
330
7471
102
}
330
7471
100
AcDbDictionary
281
     1
  3
COLORDICT
350
185EE
  3
MATERIALDICT
350
185ED
  0
DICTIONARY
  5
185E8
102
{ACAD_REACTORS
330
7471
102
}
330
7471
100
AcDbDictionary
281
     1
  3
DIMASSOC
350
185E9
  3
PROJECTNAME
350
185EA
  0
DICTIONARY
  5
E71C
102
{ACAD_REACTORS
330
7471
102
}
330
7471
100
AcDbDictionary
281
     1
  0
DICTIONARY
  5
F3B9
102
{ACAD_REACTORS
330
7471
102
}
330
7471
100
AcDbDictionary
281
     1
1001
DRAWINGVARIABLESXDATA
1000
POLARMODE
1000
1
  0
DICTIONARY
  5
16B6F
102
{ACAD_REACTORS
330
16B6E
102
}
330
16B6E
100
AcDbDictionary
281
     1
  0
LAYOUT
  5
169D7
102
{ACAD_XDICTIONARY
360
185EF
102
}
102
{ACAD_REACTORS
330
169D5
102
}
330
169D5
100
AcDbPlotSettings
  1

  2
クセロPDF
  4
A3
  6

 40
3.174999952316284
 41
3.174999952316284
 42
3.17498779296875
 43
3.17498779296875
 44
419.9466552734374
 45
296.9259948730469
 46
0.0
 47
0.0
 48
3.619013395666115
 49
-4.192117100517862
140
820.022926294543
141
573.2392198881443
142
1.0
143
39.99735023620806
 70
 11952
 72
     1
 73
     0
 74
     2
  7
inaba.ctb
 75
     0
147
0.0250016562120842
148
25.79074261211281
149
125.8223078213959
100
AcDbLayout
  1
Model
 70
     1
 71
     0
 10
0.0
 20
0.0
 11
12.0
 21
9.0
 12
0.0
 22
0.0
 32
0.0
 14
0.0
 24
0.0
 34
0.0
 15
0.0
 25
0.0
 35
0.0
146
0.0
 13
0.0
 23
0.0
 33
0.0
 16
1.0
 26
0.0
 36
0.0
 17
0.0
 27
1.0
 37
0.0
 76
     0
330
747D
  0
LAYOUT
  5
169D8
102
{ACAD_XDICTIONARY
360
185F1
102
}
102
{ACAD_REACTORS
330
169D5
102
}
330
169D5
100
AcDbPlotSettings
  1

  2
Microsoft Office Document Image Writer
  4

  6

 40
0.0
 41
0.0
 42
0.0
 43
0.0
 44
0.0
 45
0.0
 46
0.0
 47
0.0
 48
0.0
 49
0.0
140
0.0
141
0.0
142
1.0
143
1.0
 70
   688
 72
     0
 73
     0
 74
     5
  7

 75
    16
147
1.0
148
0.0
149
0.0
100
AcDbLayout
  1
レイアウト1
 70
     0
 71
     1
 10
0.0
 20
0.0
 11
420.0
 21
297.0
 12
0.0
 22
0.0
 32
0.0
 14
1.000000000000000E+20
 24
1.000000000000000E+20
 34
1.000000000000000E+20
 15
-1.000000000000000E+20
 25
-1.000000000000000E+20
 35
-1.000000000000000E+20
146
0.0
 13
0.0
 23
0.0
 33
0.0
 16
1.0
 26
0.0
 36
0.0
 17
0.0
 27
1.0
 37
0.0
 76
     0
330
747A
  0
MLINESTYLE
  5
7480
102
{ACAD_REACTORS
330
7473
102
}
330
7473
100
AcDbMlineStyle
  2
STANDARD
 70
     0
  3

 62
     0
 51
90.0
 52
90.0
 71
     2
 49
0.5
 62
   256
  6
BYLAYER
 49
-0.5
 62
   256
  6
BYLAYER
  0
ACDBPLACEHOLDER
  5
169D2
102
{ACAD_REACTORS
330
169D1
102
}
330
169D1
  0
XRECORD
  5
185EE
102
{ACAD_REACTORS
330
185EC
102
}
330
185EC
100
AcDbXrecord
280
     1
340
169D4
  0
XRECORD
  5
185ED
102
{ACAD_REACTORS
330
185EC
102
}
330
185EC
100
AcDbXrecord
280
     1
340
169D3
  0
DICTIONARYVAR
  5
185E9
102
{ACAD_REACTORS
330
185E8
102
}
330
185E8
100
DictionaryVariables
280
     0
  1
1
  0
DICTIONARYVAR
  5
185EA
102
{ACAD_REACTORS
330
185E8
102
}
330
185E8
100
DictionaryVariables
280
     0
  1

  0
DICTIONARY
  5
185EF
330
169D7
100
AcDbDictionary
280
     1
281
     1
  3
ACAD_XREC_ROUNDTRIP
360
185F0
  0
DICTIONARY
  5
185F1
330
169D8
100
AcDbDictionary
280
     1
281
     1
  3
ACAD_XREC_ROUNDTRIP
360
185F2
  0
XRECORD
  5
185F0
102
{ACAD_REACTORS
330
185EF
102
}
330
185EF
100
AcDbXrecord
280
     1
102
SHADEPLOT
 70
     0
102
SHADEPLOTRESLEVEL
 70
     2
102
SHADEPLOTCUSTOMDPI
 70
   150
  0
XRECORD
  5
185F2
102
{ACAD_REACTORS
330
185F1
102
}
330
185F1
100
AcDbXrecord
280
     1
102
SHADEPLOT
 70
     0
102
SHADEPLOTRESLEVEL
 70
     2
102
SHADEPLOTCUSTOMDPI
 70
   300
  0
ENDSEC
  0
EOF
