  0
SECTION
  2
HEADER
  9
$ACADVER
  1
AC1015
  9
$ACADMAINTVER
 70
    20
  9
$DWGCODEPAGE
  3
ANSI_932
  9
$INSBASE
 10
0.0
 20
0.0
 30
0.0
  9
$EXTMIN
 10
139.9999999999995
 20
-0.0000000000000909
 30
0.0
  9
$EXTMAX
 10
16307.2
 20
11409.6
 30
0.0
  9
$LIMMIN
 10
0.0
 20
0.0
  9
$LIMMAX
 10
16800.0
 20
11880.0
  9
$ORTHOMODE
 70
     0
  9
$REGENMODE
 70
     1
  9
$FILLMODE
 70
     1
  9
$QTEXTMODE
 70
     0
  9
$MIRRTEXT
 70
     1
  9
$LTSCALE
 40
20.0
  9
$ATTMODE
 70
     1
  9
$TEXTSIZE
 40
4.0
  9
$TRACEWID
 40
1.0
  9
$TEXTSTYLE
  7
STYLE1
  9
$CLAYER
  8
寸法
  9
$CELTYPE
  6
BYLAYER
  9
$CECOLOR
 62
   256
  9
$CELTSCALE
 40
50.0
  9
$DISPSILH
 70
     0
  9
$DIMSCALE
 40
40.0
  9
$DIMASZ
 40
2.5
  9
$DIMEXO
 40
0.5
  9
$DIMDLI
 40
7.0
  9
$DIMRND
 40
0.0
  9
$DIMDLE
 40
0.0
  9
$DIMEXE
 40
1.5
  9
$DIMTP
 40
0.0
  9
$DIMTM
 40
0.0
  9
$DIMTXT
 40
3.0
  9
$DIMCEN
 40
0.0
  9
$DIMTSZ
 40
0.0
  9
$DIMTOL
 70
     0
  9
$DIMLIM
 70
     0
  9
$DIMTIH
 70
     0
  9
$DIMTOH
 70
     0
  9
$DIMSE1
 70
     0
  9
$DIMSE2
 70
     0
  9
$DIMTAD
 70
     3
  9
$DIMZIN
 70
     8
  9
$DIMBLK
  1

  9
$DIMASO
 70
     1
  9
$DIMSHO
 70
     1
  9
$DIMPOST
  1

  9
$DIMAPOST
  1

  9
$DIMALT
 70
     0
  9
$DIMALTD
 70
     2
  9
$DIMALTF
 40
0.0394
  9
$DIMLFAC
 40
1.0
  9
$DIMTOFL
 70
     1
  9
$DIMTVP
 40
0.0
  9
$DIMTIX
 70
     1
  9
$DIMSOXD
 70
     0
  9
$DIMSAH
 70
     1
  9
$DIMBLK1
  1
DOTSMALL
  9
$DIMBLK2
  1
DOTSMALL
  9
$DIMSTYLE
  2
INABA_S40G
  9
$DIMCLRD
 70
     0
  9
$DIMCLRE
 70
     0
  9
$DIMCLRT
 70
     7
  9
$DIMTFAC
 40
1.0
  9
$DIMGAP
 40
1.0
  9
$DIMJUST
 70
     0
  9
$DIMSD1
 70
     0
  9
$DIMSD2
 70
     0
  9
$DIMTOLJ
 70
     1
  9
$DIMTZIN
 70
     0
  9
$DIMALTZ
 70
     0
  9
$DIMALTTZ
 70
     0
  9
$DIMUPT
 70
     1
  9
$DIMDEC
 70
     1
  9
$DIMTDEC
 70
     4
  9
$DIMALTU
 70
     2
  9
$DIMALTTD
 70
     2
  9
$DIMTXSTY
  7
STYLE1
  9
$DIMAUNIT
 70
     0
  9
$DIMADEC
 70
     0
  9
$DIMALTRND
 40
0.0
  9
$DIMAZIN
 70
     0
  9
$DIMDSEP
 70
    46
  9
$DIMATFIT
 70
     3
  9
$DIMFRAC
 70
     0
  9
$DIMLDRBLK
  1

  9
$DIMLUNIT
 70
     2
  9
$DIMLWD
 70
    -2
  9
$DIMLWE
 70
    -2
  9
$DIMTMOVE
 70
     0
  9
$LUNITS
 70
     2
  9
$LUPREC
 70
     1
  9
$SKETCHINC
 40
1.0
  9
$FILLETRAD
 40
3.0
  9
$AUNITS
 70
     0
  9
$AUPREC
 70
     0
  9
$MENU
  1
acad
  9
$ELEVATION
 40
0.0
  9
$PELEVATION
 40
0.0
  9
$THICKNESS
 40
0.0
  9
$LIMCHECK
 70
     0
  9
$CHAMFERA
 40
0.0
  9
$CHAMFERB
 40
0.0
  9
$CHAMFERC
 40
0.0
  9
$CHAMFERD
 40
0.0
  9
$SKPOLY
 70
     0
  9
$TDCREATE
 40
2451368.612993866
  9
$TDUCREATE
 40
2451368.237993866
  9
$TDUPDATE
 40
2455575.686208217
  9
$TDUUPDATE
 40
2455575.311208217
  9
$TDINDWG
 40
0.6653278356
  9
$TDUSRTIMER
 40
0.6653278356
  9
$USRTIMER
 70
     1
  9
$ANGBASE
 50
0.0
  9
$ANGDIR
 70
     0
  9
$PDMODE
 70
     3
  9
$PDSIZE
 40
2.0
  9
$PLINEWID
 40
0.0
  9
$SPLFRAME
 70
     0
  9
$SPLINETYPE
 70
     6
  9
$SPLINESEGS
 70
     8
  9
$HANDSEED
  5
19DCC
  9
$SURFTAB1
 70
     6
  9
$SURFTAB2
 70
     6
  9
$SURFTYPE
 70
     6
  9
$SURFU
 70
     6
  9
$SURFV
 70
     6
  9
$UCSBASE
  2

  9
$UCSNAME
  2

  9
$UCSORG
 10
0.0
 20
0.0
 30
0.0
  9
$UCSXDIR
 10
1.0
 20
0.0
 30
0.0
  9
$UCSYDIR
 10
0.0
 20
1.0
 30
0.0
  9
$UCSORTHOREF
  2

  9
$UCSORTHOVIEW
 70
     0
  9
$UCSORGTOP
 10
0.0
 20
0.0
 30
0.0
  9
$UCSORGBOTTOM
 10
0.0
 20
0.0
 30
0.0
  9
$UCSORGLEFT
 10
0.0
 20
0.0
 30
0.0
  9
$UCSORGRIGHT
 10
0.0
 20
0.0
 30
0.0
  9
$UCSORGFRONT
 10
0.0
 20
0.0
 30
0.0
  9
$UCSORGBACK
 10
0.0
 20
0.0
 30
0.0
  9
$PUCSBASE
  2

  9
$PUCSNAME
  2

  9
$PUCSORG
 10
0.0
 20
0.0
 30
0.0
  9
$PUCSXDIR
 10
1.0
 20
0.0
 30
0.0
  9
$PUCSYDIR
 10
0.0
 20
1.0
 30
0.0
  9
$PUCSORTHOREF
  2

  9
$PUCSORTHOVIEW
 70
     0
  9
$PUCSORGTOP
 10
0.0
 20
0.0
 30
0.0
  9
$PUCSORGBOTTOM
 10
0.0
 20
0.0
 30
0.0
  9
$PUCSORGLEFT
 10
0.0
 20
0.0
 30
0.0
  9
$PUCSORGRIGHT
 10
0.0
 20
0.0
 30
0.0
  9
$PUCSORGFRONT
 10
0.0
 20
0.0
 30
0.0
  9
$PUCSORGBACK
 10
0.0
 20
0.0
 30
0.0
  9
$USERI1
 70
     0
  9
$USERI2
 70
     0
  9
$USERI3
 70
     0
  9
$USERI4
 70
     0
  9
$USERI5
 70
     0
  9
$USERR1
 40
0.0
  9
$USERR2
 40
0.0
  9
$USERR3
 40
0.0
  9
$USERR4
 40
0.0
  9
$USERR5
 40
0.0
  9
$WORLDVIEW
 70
     1
  9
$SHADEDGE
 70
     3
  9
$SHADEDIF
 70
    70
  9
$TILEMODE
 70
     1
  9
$MAXACTVP
 70
    16
  9
$PINSBASE
 10
0.0
 20
0.0
 30
0.0
  9
$PLIMCHECK
 70
     0
  9
$PEXTMIN
 10
1.000000000000000E+20
 20
1.000000000000000E+20
 30
1.000000000000000E+20
  9
$PEXTMAX
 10
-1.000000000000000E+20
 20
-1.000000000000000E+20
 30
-1.000000000000000E+20
  9
$PLIMMIN
 10
0.0
 20
0.0
  9
$PLIMMAX
 10
420.0
 20
297.0
  9
$UNITMODE
 70
     0
  9
$VISRETAIN
 70
     0
  9
$PLINEGEN
 70
     0
  9
$PSLTSCALE
 70
     0
  9
$TREEDEPTH
 70
  3020
  9
$CMLSTYLE
  2
STANDARD
  9
$CMLJUST
 70
     0
  9
$CMLSCALE
 40
1.0
  9
$PROXYGRAPHICS
 70
     1
  9
$MEASUREMENT
 70
     1
  9
$CELWEIGHT
370
    -1
  9
$ENDCAPS
280
     0
  9
$JOINSTYLE
280
     0
  9
$LWDISPLAY
290
     0
  9
$INSUNITS
 70
     0
  9
$HYPERLINKBASE
  1

  9
$STYLESHEET
  1

  9
$XEDIT
290
     1
  9
$CEPSNTYPE
380
     0
  9
$PSTYLEMODE
290
     1
  9
$FINGERPRINTGUID
  2
{79028EFB-BF46-42D3-8AB5-62F32E367A47}
  9
$VERSIONGUID
  2
{AC174B1B-58BF-40FD-8751-20E26DD21C3D}
  9
$EXTNAMES
290
     1
  9
$PSVPSCALE
 40
0.0
  9
$OLESTARTUP
290
     0
  0
ENDSEC
  0
SECTION
  2
CLASSES
  0
CLASS
  1
ACDBDICTIONARYWDFLT
  2
AcDbDictionaryWithDefault
  3
ObjectDBX Classes
 90
        0
280
     0
281
     0
  0
CLASS
  1
DICTIONARYVAR
  2
AcDbDictionaryVar
  3
ObjectDBX Classes
 90
        0
280
     0
281
     0
  0
CLASS
  1
ACDBPLACEHOLDER
  2
AcDbPlaceHolder
  3
ObjectDBX Classes
 90
        0
280
     0
281
     0
  0
CLASS
  1
LAYOUT
  2
AcDbLayout
  3
ObjectDBX Classes
 90
        0
280
     0
281
     0
  0
ENDSEC
  0
SECTION
  2
TABLES
  0
TABLE
  2
VPORT
  5
746D
330
0
100
AcDbSymbolTable
 70
     2
  0
VPORT
  5
19DC4
330
746D
100
AcDbSymbolTableRecord
100
AcDbViewportTableRecord
  2
*Active
 70
     0
 10
0.0
 20
0.0
 11
1.0
 21
1.0
 12
8223.761025238502
 22
6348.703162895247
 13
0.0
 23
0.0
 14
10.0
 24
10.0
 15
10.0
 25
10.0
 16
0.0
 26
0.0
 36
1.0
 17
0.0
 27
0.0
 37
0.0
 40
12805.60689082044
 41
1.525925925925925
 42
50.0
 43
0.0
 44
0.0
 50
0.0
 51
0.0
 71
     0
 72
     0
 73
     1
 74
     0
 75
     0
 76
     0
 77
     0
 78
     0
281
     0
 65
     1
110
0.0
120
0.0
130
0.0
111
1.0
121
0.0
131
0.0
112
0.0
122
1.0
132
0.0
 79
     0
146
0.0
  0
ENDTAB
  0
TABLE
  2
LTYPE
  5
746A
330
0
100
AcDbSymbolTable
 70
     4
  0
LTYPE
  5
7477
330
746A
100
AcDbSymbolTableRecord
100
AcDbLinetypeTableRecord
  2
BYBLOCK
 70
     0
  3

 72
    65
 73
     0
 40
0.0
  0
LTYPE
  5
7478
330
746A
100
AcDbSymbolTableRecord
100
AcDbLinetypeTableRecord
  2
BYLAYER
 70
     0
  3

 72
    65
 73
     0
 40
0.0
  0
LTYPE
  5
7479
330
746A
100
AcDbSymbolTableRecord
100
AcDbLinetypeTableRecord
  2
CONTINUOUS
 70
     0
  3
Solid line
 72
    65
 73
     0
 40
0.0
  0
LTYPE
  5
7816
330
746A
100
AcDbSymbolTableRecord
100
AcDbLinetypeTableRecord
  2
CENTER
 70
     0
  3
____ _ ____ _ ____ _ ____ _ ____ _ ____ _ ____ 
 72
    65
 73
     4
 40
2.0
 49
1.25
 74
     0
 49
-0.25
 74
     0
 49
0.25
 74
     0
 49
-0.25
 74
     0
  0
LTYPE
  5
781A
330
746A
100
AcDbSymbolTableRecord
100
AcDbLinetypeTableRecord
  2
HIDDEN
 70
     0
  3
__ __ __ __ __ __ __ __ __ __ __ __ __ __ __ __
 72
    65
 73
     2
 40
0.375
 49
0.25
 74
     0
 49
-0.125
 74
     0
  0
LTYPE
  5
781B
330
746A
100
AcDbSymbolTableRecord
100
AcDbLinetypeTableRecord
  2
PHANTOM
 70
     0
  3
______  __  __  ______  __  __  ______  __  __ 
 72
    65
 73
     6
 40
2.5
 49
1.25
 74
     0
 49
-0.25
 74
     0
 49
0.25
 74
     0
 49
-0.25
 74
     0
 49
0.25
 74
     0
 49
-0.25
 74
     0
  0
ENDTAB
  0
TABLE
  2
LAYER
  5
7467
102
{ACAD_XDICTIONARY
360
189C6
102
}
330
0
100
AcDbSymbolTable
 70
    12
  0
LAYER
  5
7474
330
7467
100
AcDbSymbolTableRecord
100
AcDbLayerTableRecord
  2
0
 70
     0
 62
     7
  6
CONTINUOUS
370
    -3
390
1882A
  0
LAYER
  5
DEB2
330
7467
100
AcDbSymbolTableRecord
100
AcDbLayerTableRecord
  2
センター
 70
     0
 62
     3
  6
CENTER
370
    -3
390
1882A
  0
LAYER
  5
DEB3
330
7467
100
AcDbSymbolTableRecord
100
AcDbLayerTableRecord
  2
寸法
 70
     0
 62
     4
  6
CONTINUOUS
370
    -3
390
1882A
  0
LAYER
  5
DEB4
330
7467
100
AcDbSymbolTableRecord
100
AcDbLayerTableRecord
  2
部品1
 70
     0
 62
     7
  6
CONTINUOUS
370
    -3
390
1882A
  0
LAYER
  5
DEB5
330
7467
100
AcDbSymbolTableRecord
100
AcDbLayerTableRecord
  2
補助
 70
     0
 62
    -1
  6
CONTINUOUS
370
    -3
390
1882A
  0
LAYER
  5
DEB6
330
7467
100
AcDbSymbolTableRecord
100
AcDbLayerTableRecord
  2
文字
 70
     0
 62
     7
  6
CONTINUOUS
370
    -3
390
1882A
  0
LAYER
  5
F255
330
7467
100
AcDbSymbolTableRecord
100
AcDbLayerTableRecord
  2
DEFPOINTS
 70
     0
 62
     7
  6
CONTINUOUS
290
     0
370
    -3
390
1882A
  0
LAYER
  5
10B54
330
7467
100
AcDbSymbolTableRecord
100
AcDbLayerTableRecord
  2
仕様書枠
 70
     0
 62
   230
  6
CONTINUOUS
370
    -3
390
1882A
  0
LAYER
  5
11729
330
7467
100
AcDbSymbolTableRecord
100
AcDbLayerTableRecord
  2
Ｇ．Ｌ
 70
     0
 62
    30
  6
CONTINUOUS
370
    -3
390
1882A
  0
LAYER
  5
1173F
330
7467
100
AcDbSymbolTableRecord
100
AcDbLayerTableRecord
  2
細線
 70
     0
 62
     5
  6
CONTINUOUS
370
    -3
390
1882A
  0
LAYER
  5
12CC4
330
7467
100
AcDbSymbolTableRecord
100
AcDbLayerTableRecord
  2
想像線
 70
     0
 62
     6
  6
PHANTOM
370
    -3
390
1882A
  0
LAYER
  5
142E2
330
7467
100
AcDbSymbolTableRecord
100
AcDbLayerTableRecord
  2
破線
 70
     0
 62
     2
  6
HIDDEN
370
    -3
390
1882A
  0
ENDTAB
  0
TABLE
  2
STYLE
  5
7468
330
0
100
AcDbSymbolTable
 70
     4
  0
STYLE
  5
7475
330
7468
100
AcDbSymbolTableRecord
100
AcDbTextStyleTableRecord
  2
STANDARD
 70
     0
 40
0.0
 41
1.0
 50
0.0
 71
     0
 42
4.0
  3
txt
  4
C:\AutoCAD LT\bigfont.shx
  0
STYLE
  5
F706
330
7468
100
AcDbSymbolTableRecord
100
AcDbTextStyleTableRecord
  2
STYLE1
 70
     0
 40
0.0
 41
1.0
 50
0.0
 71
     0
 42
4.0
  3
isocp.shx
  4
bigfont.shx
  0
STYLE
  5
103BF
330
7468
100
AcDbSymbolTableRecord
100
AcDbTextStyleTableRecord
  2
STYLE2
 70
     0
 40
0.0
 41
1.0
 50
0.0
 71
     0
 42
100.0
  3
MS PGothic.ttf
  4

1001
ACAD
1000
MS PGothic
1071
    32818
  0
STYLE
  5
1942D
330
7468
100
AcDbSymbolTableRecord
100
AcDbTextStyleTableRecord
  2
STYLE3
 70
     0
 40
0.0
 41
1.0
 50
0.0
 71
     0
 42
100.0
  3

  4

1001
ACAD
1000
DFPGothic-EB
1071
    32818
  0
ENDTAB
  0
TABLE
  2
VIEW
  5
746B
330
0
100
AcDbSymbolTable
 70
     0
  0
ENDTAB
  0
TABLE
  2
UCS
  5
746C
330
0
100
AcDbSymbolTable
 70
     0
  0
ENDTAB
  0
TABLE
  2
APPID
  5
746E
330
0
100
AcDbSymbolTable
 70
     6
  0
APPID
  5
7476
330
746E
100
AcDbSymbolTableRecord
100
AcDbRegAppTableRecord
  2
ACAD
 70
     0
  0
APPID
  5
DEA9
330
746E
100
AcDbSymbolTableRecord
100
AcDbRegAppTableRecord
  2
CONTENTBLOCKICON
 70
     0
  0
APPID
  5
DEAA
330
746E
100
AcDbSymbolTableRecord
100
AcDbRegAppTableRecord
  2
CONTENTBLOCKDESCRIPTION
 70
     0
  0
APPID
  5
E71D
330
746E
100
AcDbSymbolTableRecord
100
AcDbRegAppTableRecord
  2
CONTENTTABDATA
 70
     0
  0
APPID
  5
E71E
330
746E
100
AcDbSymbolTableRecord
100
AcDbRegAppTableRecord
  2
CONTENTCURRENTTAB
 70
     0
  0
APPID
  5
F3BA
330
746E
100
AcDbSymbolTableRecord
100
AcDbRegAppTableRecord
  2
DRAWINGVARIABLESXDATA
 70
     0
  0
ENDTAB
  0
TABLE
  2
DIMSTYLE
  5
746F
330
0
100
AcDbSymbolTable
 70
     5
100
AcDbDimStyleTable
 71
     0
  0
DIMSTYLE
105
7484
330
746F
100
AcDbSymbolTableRecord
100
AcDbDimStyleTableRecord
  2
JIS
 70
     0
 41
2.5
 42
1.0
 43
7.0
 44
1.0
 73
     0
 74
     0
 77
     1
 78
     8
140
2.5
141
0.0
143
0.0394
147
0.0
172
     1
174
     1
175
     1
340
7475
  0
DIMSTYLE
105
F71F
102
{ACAD_REACTORS
330
18C6B
330
18C6C
330
18C6D
330
18C6E
330
18C8C
330
18C8D
330
18C8E
330
18C8F
330
18C90
330
18C91
330
18CBC
330
18CBD
330
18CBE
330
18CBF
330
18CC3
330
18CFA
330
18CFB
330
18CFF
330
18D0A
330
18D0B
330
18E29
330
18E64
330
18E65
330
18E66
330
18EBC
330
18EC0
330
18EFD
330
19510
330
19A65
330
19B22
102
}
330
746F
100
AcDbSymbolTableRecord
100
AcDbDimStyleTableRecord
  2
INABA_S40G
 70
     0
 40
40.0
 41
2.5
 42
0.5
 43
7.0
 44
1.5
 73
     0
 74
     0
 77
     3
 78
     8
140
3.0
141
0.0
143
0.0394
147
1.0
172
     1
173
     1
174
     1
178
     7
271
     1
288
     1
340
F706
341
F770
343
F770
344
F770
  0
DIMSTYLE
105
189C5
102
{ACAD_REACTORS
330
197D0
330
19A66
102
}
330
746F
100
AcDbSymbolTableRecord
100
AcDbDimStyleTableRecord
  2
INABA_S40
 70
     0
 40
40.0
 41
2.5
 42
0.5
 43
7.0
 44
1.5
 73
     0
 74
     0
 77
     3
 78
     8
140
3.0
141
0.0
143
0.0394
147
1.0
172
     1
173
     1
174
     1
175
     1
178
     7
340
7475
  0
DIMSTYLE
105
1942E
330
746F
100
AcDbSymbolTableRecord
100
AcDbDimStyleTableRecord
  2
INABA_S50G
 70
     0
 41
125.0
 42
25.0
 43
7.0
 44
75.0
 73
     0
 74
     0
 77
     3
 78
     8
140
150.0
141
0.0
143
0.0394
147
25.0
172
     1
173
     1
174
     1
175
     1
178
     7
271
     1
340
F706
341
F770
343
F770
344
F770
  0
DIMSTYLE
105
19D5A
330
746F
100
AcDbSymbolTableRecord
100
AcDbDimStyleTableRecord
  2
INABA_S20G
 70
     0
 40
20.0
 41
2.5
 42
0.5
 43
7.0
 44
1.5
 73
     0
 74
     0
 77
     3
 78
     8
140
3.0
141
0.0
143
0.0394
147
1.0
172
     1
173
     1
174
     1
178
     7
271
     1
340
F706
341
F770
343
F770
344
F770
  0
ENDTAB
  0
TABLE
  2
BLOCK_RECORD
  5
7466
330
0
100
AcDbSymbolTable
 70
    34
  0
BLOCK_RECORD
  5
747D
330
7466
100
AcDbSymbolTableRecord
100
AcDbBlockTableRecord
  2
*MODEL_SPACE
340
1882F
  0
BLOCK_RECORD
  5
747A
330
7466
100
AcDbSymbolTableRecord
100
AcDbBlockTableRecord
  2
*PAPER_SPACE
340
18830
  0
BLOCK_RECORD
  5
F770
330
7466
100
AcDbSymbolTableRecord
100
AcDbBlockTableRecord
  2
_DOTSMALL
340
0
102
{BLKREFS
331
1956E
331
1956F
331
19577
331
19578
331
19580
331
19581
331
19589
331
1958A
331
19592
331
19593
331
1959D
331
1959E
331
195A6
331
195A7
331
195B1
331
195B2
331
19639
331
1963A
331
19643
331
19644
331
1964C
331
1964D
331
19655
331
19656
331
19660
331
19661
331
1966A
331
1966B
331
19674
331
19675
331
1967D
331
1967E
331
19686
331
19687
331
19691
331
19692
331
19CCC
331
19CCD
331
19CE0
331
19CE1
331
19CF4
331
19CF5
331
19CFD
331
19CFE
331
19D08
331
19D09
331
19D11
331
19D12
331
19D1A
331
19D1B
331
19D23
331
19D24
331
19D2C
331
19D2D
331
19D37
331
19D38
331
19D40
331
19D41
331
19D4B
331
19D4C
102
}
  0
BLOCK_RECORD
  5
18837
330
7466
100
AcDbSymbolTableRecord
100
AcDbBlockTableRecord
  2
_DOT
340
0
102
{BLKREFS
331
19CD7
331
19CD8
331
19CE9
331
19CEA
102
}
  0
BLOCK_RECORD
  5
18F0A
330
7466
100
AcDbSymbolTableRecord
100
AcDbBlockTableRecord
  2
*D2
340
0
  0
BLOCK_RECORD
  5
18F18
330
7466
100
AcDbSymbolTableRecord
100
AcDbBlockTableRecord
  2
*D3
340
0
  0
BLOCK_RECORD
  5
18F24
330
7466
100
AcDbSymbolTableRecord
100
AcDbBlockTableRecord
  2
*D4
340
0
  0
BLOCK_RECORD
  5
18F30
330
7466
100
AcDbSymbolTableRecord
100
AcDbBlockTableRecord
  2
*D5
340
0
  0
BLOCK_RECORD
  5
18F3D
330
7466
100
AcDbSymbolTableRecord
100
AcDbBlockTableRecord
  2
*D6
340
0
  0
BLOCK_RECORD
  5
18F4A
330
7466
100
AcDbSymbolTableRecord
100
AcDbBlockTableRecord
  2
*D7
340
0
  0
BLOCK_RECORD
  5
18F58
330
7466
100
AcDbSymbolTableRecord
100
AcDbBlockTableRecord
  2
*D8
340
0
  0
BLOCK_RECORD
  5
18F64
330
7466
100
AcDbSymbolTableRecord
100
AcDbBlockTableRecord
  2
*D9
340
0
  0
BLOCK_RECORD
  5
18F70
330
7466
100
AcDbSymbolTableRecord
100
AcDbBlockTableRecord
  2
*D10
340
0
  0
BLOCK_RECORD
  5
18F7D
330
7466
100
AcDbSymbolTableRecord
100
AcDbBlockTableRecord
  2
*D11
340
0
  0
BLOCK_RECORD
  5
18F95
330
7466
100
AcDbSymbolTableRecord
100
AcDbBlockTableRecord
  2
*D12
340
0
  0
BLOCK_RECORD
  5
18FA3
330
7466
100
AcDbSymbolTableRecord
100
AcDbBlockTableRecord
  2
*D13
340
0
  0
BLOCK_RECORD
  5
18FAF
330
7466
100
AcDbSymbolTableRecord
100
AcDbBlockTableRecord
  2
*D14
340
0
  0
BLOCK_RECORD
  5
18FBD
330
7466
100
AcDbSymbolTableRecord
100
AcDbBlockTableRecord
  2
*D15
340
0
  0
BLOCK_RECORD
  5
18FD5
330
7466
100
AcDbSymbolTableRecord
100
AcDbBlockTableRecord
  2
*D16
340
0
  0
BLOCK_RECORD
  5
18FE1
330
7466
100
AcDbSymbolTableRecord
100
AcDbBlockTableRecord
  2
*D17
340
0
  0
BLOCK_RECORD
  5
18FED
330
7466
100
AcDbSymbolTableRecord
100
AcDbBlockTableRecord
  2
*D18
340
0
  0
BLOCK_RECORD
  5
18FF9
330
7466
100
AcDbSymbolTableRecord
100
AcDbBlockTableRecord
  2
*D19
340
0
  0
BLOCK_RECORD
  5
19007
330
7466
100
AcDbSymbolTableRecord
100
AcDbBlockTableRecord
  2
*D20
340
0
  0
BLOCK_RECORD
  5
19013
330
7466
100
AcDbSymbolTableRecord
100
AcDbBlockTableRecord
  2
*D21
340
0
  0
BLOCK_RECORD
  5
1903B
330
7466
100
AcDbSymbolTableRecord
100
AcDbBlockTableRecord
  2
*D22
340
0
  0
BLOCK_RECORD
  5
19049
330
7466
100
AcDbSymbolTableRecord
100
AcDbBlockTableRecord
  2
*D23
340
0
  0
BLOCK_RECORD
  5
19055
330
7466
100
AcDbSymbolTableRecord
100
AcDbBlockTableRecord
  2
*D24
340
0
  0
BLOCK_RECORD
  5
19063
330
7466
100
AcDbSymbolTableRecord
100
AcDbBlockTableRecord
  2
*D25
340
0
  0
BLOCK_RECORD
  5
1906F
330
7466
100
AcDbSymbolTableRecord
100
AcDbBlockTableRecord
  2
*D26
340
0
  0
BLOCK_RECORD
  5
1907B
330
7466
100
AcDbSymbolTableRecord
100
AcDbBlockTableRecord
  2
*D27
340
0
  0
BLOCK_RECORD
  5
19087
330
7466
100
AcDbSymbolTableRecord
100
AcDbBlockTableRecord
  2
*D28
340
0
  0
BLOCK_RECORD
  5
19511
330
7466
100
AcDbSymbolTableRecord
100
AcDbBlockTableRecord
  2
*D29
340
0
  0
BLOCK_RECORD
  5
1983B
330
7466
100
AcDbSymbolTableRecord
100
AcDbBlockTableRecord
  2
*D30
340
0
  0
BLOCK_RECORD
  5
19B72
330
7466
100
AcDbSymbolTableRecord
100
AcDbBlockTableRecord
  2
*D31
340
0
  0
BLOCK_RECORD
  5
19B7E
330
7466
100
AcDbSymbolTableRecord
100
AcDbBlockTableRecord
  2
*D32
340
0
  0
BLOCK_RECORD
  5
19BCC
330
7466
100
AcDbSymbolTableRecord
100
AcDbBlockTableRecord
  2
*D33
340
0
  0
ENDTAB
  0
ENDSEC
  0
SECTION
  2
BLOCKS
  0
BLOCK
  5
7489
330
747D
100
AcDbEntity
  8
0
100
AcDbBlockBegin
  2
*MODEL_SPACE
 70
     0
 10
0.0
 20
0.0
 30
0.0
  3
*MODEL_SPACE
  1

  0
ENDBLK
  5
748A
330
747D
100
AcDbEntity
  8
0
100
AcDbBlockEnd
  0
BLOCK
  5
7487
330
747A
100
AcDbEntity
 67
     1
  8
0
100
AcDbBlockBegin
  2
*PAPER_SPACE
 70
     0
 10
0.0
 20
0.0
 30
0.0
  3
*PAPER_SPACE
  1

  0
ENDBLK
  5
7488
330
747A
100
AcDbEntity
 67
     1
  8
0
100
AcDbBlockEnd
  0
BLOCK
  5
F771
330
F770
100
AcDbEntity
  8
0
 48
50.0
100
AcDbBlockBegin
  2
_DOTSMALL
 70
     0
 10
0.0
 20
0.0
 30
0.0
  3
_DOTSMALL
  1

  0
LWPOLYLINE
  5
F772
330
F770
100
AcDbEntity
  8
0
  6
ByBlock
 62
     0
 48
50.0
100
AcDbPolyline
 90
        2
 70
     1
 43
0.5
 10
-0.0625
 20
0.0
 42
1.0
 10
0.0625
 20
0.0
 42
1.0
  0
ENDBLK
  5
F776
330
F770
100
AcDbEntity
  8
0
 48
50.0
100
AcDbBlockEnd
  0
BLOCK
  5
18838
330
18837
100
AcDbEntity
  8
0
 48
50.0
100
AcDbBlockBegin
  2
_DOT
 70
     0
 10
0.0
 20
0.0
 30
0.0
  3
_DOT
  1

  0
LWPOLYLINE
  5
18839
330
18837
100
AcDbEntity
  8
0
  6
ByBlock
 62
     0
 48
50.0
100
AcDbPolyline
 90
        2
 70
     1
 43
0.5
 10
-0.25
 20
0.0
 42
1.0
 10
0.25
 20
0.0
 42
1.0
  0
LINE
  5
1883A
330
18837
100
AcDbEntity
  8
0
  6
ByBlock
 62
     0
 48
50.0
100
AcDbLine
 10
-0.5
 20
0.0
 30
0.0
 11
-1.0
 21
0.0
 31
0.0
  0
ENDBLK
  5
1883B
330
18837
100
AcDbEntity
  8
0
 48
50.0
100
AcDbBlockEnd
  0
BLOCK
  5
18F16
330
18F0A
100
AcDbEntity
  8
0
 48
50.0
100
AcDbBlockBegin
  2
*D2
 70
     1
 10
0.0
 20
0.0
 30
0.0
  3
*D2
  1

  0
LINE
  5
1968C
330
18F0A
100
AcDbEntity
  8
寸法
 62
     0
 48
50.0
370
    -2
100
AcDbLine
 10
8499.2180187177
 20
5421.885860171229
 30
0.0
 11
8499.2180187177
 21
5864.541695627557
 31
0.0
  0
LINE
  5
1968D
330
18F0A
100
AcDbEntity
  8
寸法
 62
     0
 48
50.0
370
    -2
100
AcDbLine
 10
8439.218018717701
 20
5425.884242048257
 30
0.0
 11
8439.218018717701
 21
5864.541695627557
 31
0.0
  0
LINE
  5
1968E
330
18F0A
100
AcDbEntity
  8
寸法
 62
     0
 48
50.0
370
    -2
100
AcDbLine
 10
8499.2180187177
 20
5804.541695627556
 30
0.0
 11
8599.218018717699
 21
5804.541695627556
 31
0.0
  0
LINE
  5
1968F
330
18F0A
100
AcDbEntity
  8
寸法
 62
     0
 48
50.0
370
    -2
100
AcDbLine
 10
8439.218018717701
 20
5804.541695627556
 30
0.0
 11
8019.942428166519
 21
5804.541695627556
 31
0.0
  0
LINE
  5
19690
330
18F0A
100
AcDbEntity
  8
寸法
 62
     0
 48
50.0
370
    -2
100
AcDbLine
 10
8499.2180187177
 20
5804.541695627556
 30
0.0
 11
8439.218018717701
 21
5804.541695627556
 31
0.0
  0
INSERT
  5
19691
330
18F0A
100
AcDbEntity
  8
寸法
 62
     0
 48
50.0
370
    -2
100
AcDbBlockReference
  2
_DOTSMALL
 10
8499.2180187177
 20
5804.541695627556
 30
0.0
 41
100.0
 42
100.0
 43
100.0
 50
180.0
  0
INSERT
  5
19692
330
18F0A
100
AcDbEntity
  8
寸法
 62
     0
 48
50.0
370
    -2
100
AcDbBlockReference
  2
_DOTSMALL
 10
8439.218018717701
 20
5804.541695627556
 30
0.0
 41
100.0
 42
100.0
 43
100.0
  0
MTEXT
  5
19693
330
18F0A
100
AcDbEntity
  8
寸法
 62
     7
 48
50.0
100
AcDbMText
 10
8129.580223442109
 20
5904.541695627557
 30
0.0
 40
120.0
 41
0.0
 71
     5
 72
     1
  1
\A1;60
  7
STYLE1
 73
     1
 44
1.0
1001
ACAD
1000
MTEXTBEGIN
1070
    73
1070
     1
1070
    44
1040
1.0
1070
    74
1070
     0
1000
MTEXTEND
  0
POINT
  5
19694
330
18F0A
100
AcDbEntity
  8
DEFPOINTS
 62
     0
 48
50.0
100
AcDbPoint
 10
8499.2180187177
 20
5401.885860171229
 30
0.0
  0
POINT
  5
19695
330
18F0A
100
AcDbEntity
  8
DEFPOINTS
 62
     0
 48
50.0
100
AcDbPoint
 10
8439.218018717701
 20
5405.884242048257
 30
0.0
  0
POINT
  5
19696
330
18F0A
100
AcDbEntity
  8
DEFPOINTS
 62
     0
 48
50.0
100
AcDbPoint
 10
8439.218018717701
 20
5804.541695627556
 30
0.0
  0
ENDBLK
  5
18F17
330
18F0A
100
AcDbEntity
  8
0
 48
50.0
100
AcDbBlockEnd
  0
BLOCK
  5
18F22
330
18F18
100
AcDbEntity
  8
0
 48
50.0
100
AcDbBlockBegin
  2
*D3
 70
     1
 10
0.0
 20
0.0
 30
0.0
  3
*D3
  1

  0
LINE
  5
19683
330
18F18
100
AcDbEntity
  8
寸法
 62
     0
 48
50.0
370
    -2
100
AcDbLine
 10
11129.2180187177
 20
5372.694921659906
 30
0.0
 11
11129.2180187177
 21
5864.541695627558
 31
0.0
  0
LINE
  5
19684
330
18F18
100
AcDbEntity
  8
寸法
 62
     0
 48
50.0
370
    -2
100
AcDbLine
 10
8499.2180187177
 20
5421.885860171229
 30
0.0
 11
8499.2180187177
 21
5864.541695627558
 31
0.0
  0
LINE
  5
19685
330
18F18
100
AcDbEntity
  8
寸法
 62
     0
 48
50.0
370
    -2
100
AcDbLine
 10
11129.2180187177
 20
5804.541695627557
 30
0.0
 11
8499.2180187177
 21
5804.541695627557
 31
0.0
  0
INSERT
  5
19686
330
18F18
100
AcDbEntity
  8
寸法
 62
     0
 48
50.0
370
    -2
100
AcDbBlockReference
  2
_DOTSMALL
 10
11129.2180187177
 20
5804.541695627557
 30
0.0
 41
100.0
 42
100.0
 43
100.0
  0
INSERT
  5
19687
330
18F18
100
AcDbEntity
  8
寸法
 62
     0
 48
50.0
370
    -2
100
AcDbBlockReference
  2
_DOTSMALL
 10
8499.2180187177
 20
5804.541695627557
 30
0.0
 41
100.0
 42
100.0
 43
100.0
 50
180.0
  0
MTEXT
  5
19688
330
18F18
100
AcDbEntity
  8
寸法
 62
     7
 48
50.0
100
AcDbMText
 10
9853.988209746894
 20
5904.553506651179
 30
0.0
 40
120.0
 41
0.0
 71
     5
 72
     1
  1
\A1;柱外寸法2630
  7
STYLE1
 73
     1
 44
1.0
1001
ACAD
1000
MTEXTBEGIN
1070
    73
1070
     1
1070
    44
1040
1.0
1070
    74
1070
     0
1000
MTEXTEND
  0
POINT
  5
19689
330
18F18
100
AcDbEntity
  8
DEFPOINTS
 62
     0
 48
50.0
100
AcDbPoint
 10
11129.2180187177
 20
5352.694921659907
 30
0.0
  0
POINT
  5
1968A
330
18F18
100
AcDbEntity
  8
DEFPOINTS
 62
     0
 48
50.0
100
AcDbPoint
 10
8499.2180187177
 20
5401.885860171229
 30
0.0
  0
POINT
  5
1968B
330
18F18
100
AcDbEntity
  8
DEFPOINTS
 62
     0
 48
50.0
100
AcDbPoint
 10
8499.2180187177
 20
5804.541695627557
 30
0.0
  0
ENDBLK
  5
18F23
330
18F18
100
AcDbEntity
  8
0
 48
50.0
100
AcDbBlockEnd
  0
BLOCK
  5
18F2E
330
18F24
100
AcDbEntity
  8
0
 48
50.0
100
AcDbBlockBegin
  2
*D4
 70
     1
 10
0.0
 20
0.0
 30
0.0
  3
*D4
  1

  0
LINE
  5
1967A
330
18F24
100
AcDbEntity
  8
寸法
 62
     0
 48
50.0
370
    -2
100
AcDbLine
 10
11209.2180187177
 20
5370.884242048254
 30
0.0
 11
11209.2180187177
 21
6084.752382359175
 31
0.0
  0
LINE
  5
1967B
330
18F24
100
AcDbEntity
  8
寸法
 62
     0
 48
50.0
370
    -2
100
AcDbLine
 10
8439.218018717701
 20
5425.884242048257
 30
0.0
 11
8439.218018717701
 21
6084.752382359175
 31
0.0
  0
LINE
  5
1967C
330
18F24
100
AcDbEntity
  8
寸法
 62
     0
 48
50.0
370
    -2
100
AcDbLine
 10
11209.2180187177
 20
6024.752382359174
 30
0.0
 11
8439.218018717701
 21
6024.752382359174
 31
0.0
  0
INSERT
  5
1967D
330
18F24
100
AcDbEntity
  8
寸法
 62
     0
 48
50.0
370
    -2
100
AcDbBlockReference
  2
_DOTSMALL
 10
11209.2180187177
 20
6024.752382359174
 30
0.0
 41
100.0
 42
100.0
 43
100.0
  0
INSERT
  5
1967E
330
18F24
100
AcDbEntity
  8
寸法
 62
     0
 48
50.0
370
    -2
100
AcDbBlockReference
  2
_DOTSMALL
 10
8439.218018717701
 20
6024.752382359174
 30
0.0
 41
100.0
 42
100.0
 43
100.0
 50
180.0
  0
MTEXT
  5
1967F
330
18F24
100
AcDbEntity
  8
寸法
 62
     7
 48
50.0
100
AcDbMText
 10
9842.576943605076
 20
6124.764193382796
 30
0.0
 40
120.0
 41
0.0
 71
     5
 72
     1
  1
\A1;2770
  7
STYLE1
 73
     1
 44
1.0
1001
ACAD
1000
MTEXTBEGIN
1070
    73
1070
     1
1070
    44
1040
1.0
1070
    74
1070
     0
1000
MTEXTEND
  0
POINT
  5
19680
330
18F24
100
AcDbEntity
  8
DEFPOINTS
 62
     0
 48
50.0
100
AcDbPoint
 10
11209.2180187177
 20
5350.884242048254
 30
0.0
  0
POINT
  5
19681
330
18F24
100
AcDbEntity
  8
DEFPOINTS
 62
     0
 48
50.0
100
AcDbPoint
 10
8439.218018717701
 20
5405.884242048257
 30
0.0
  0
POINT
  5
19682
330
18F24
100
AcDbEntity
  8
DEFPOINTS
 62
     0
 48
50.0
100
AcDbPoint
 10
8439.218018717701
 20
6024.752382359174
 30
0.0
  0
ENDBLK
  5
18F2F
330
18F24
100
AcDbEntity
  8
0
 48
50.0
100
AcDbBlockEnd
  0
BLOCK
  5
18F3B
330
18F30
100
AcDbEntity
  8
0
 48
50.0
100
AcDbBlockBegin
  2
*D5
 70
     1
 10
0.0
 20
0.0
 30
0.0
  3
*D5
  1

  0
LINE
  5
19670
330
18F30
100
AcDbEntity
  8
寸法
 62
     0
 48
50.0
370
    -2
100
AcDbLine
 10
11129.2180187177
 20
5372.694921659906
 30
0.0
 11
11129.2180187177
 21
5864.541695627558
 31
0.0
  0
LINE
  5
19671
330
18F30
100
AcDbEntity
  8
寸法
 62
     0
 48
50.0
370
    -2
100
AcDbLine
 10
11209.2180187177
 20
5370.884242048254
 30
0.0
 11
11209.2180187177
 21
5864.541695627558
 31
0.0
  0
LINE
  5
19672
330
18F30
100
AcDbEntity
  8
寸法
 62
     0
 48
50.0
370
    -2
100
AcDbLine
 10
11129.2180187177
 20
5804.541695627557
 30
0.0
 11
11209.2180187177
 21
5804.541695627557
 31
0.0
  0
LINE
  5
19673
330
18F30
100
AcDbEntity
  8
寸法
 62
     0
 48
50.0
370
    -2
100
AcDbLine
 10
11209.2180187177
 20
5804.541695627557
 30
0.0
 11
11521.31250690668
 21
5804.541695627557
 31
0.0
  0
INSERT
  5
19674
330
18F30
100
AcDbEntity
  8
寸法
 62
     0
 48
50.0
370
    -2
100
AcDbBlockReference
  2
_DOTSMALL
 10
11129.2180187177
 20
5804.541695627557
 30
0.0
 41
100.0
 42
100.0
 43
100.0
 50
180.0
  0
INSERT
  5
19675
330
18F30
100
AcDbEntity
  8
寸法
 62
     0
 48
50.0
370
    -2
100
AcDbBlockReference
  2
_DOTSMALL
 10
11209.2180187177
 20
5804.541695627557
 30
0.0
 41
100.0
 42
100.0
 43
100.0
  0
MTEXT
  5
19676
330
18F30
100
AcDbEntity
  8
寸法
 62
     7
 48
50.0
100
AcDbMText
 10
11415.26526281219
 20
5904.541695627557
 30
0.0
 40
120.0
 41
0.0
 71
     5
 72
     1
  1
\A1;80
  7
STYLE1
 73
     1
 44
1.0
1001
ACAD
1000
MTEXTBEGIN
1070
    73
1070
     1
1070
    44
1040
1.0
1070
    74
1070
     0
1000
MTEXTEND
  0
POINT
  5
19677
330
18F30
100
AcDbEntity
  8
DEFPOINTS
 62
     0
 48
50.0
100
AcDbPoint
 10
11129.2180187177
 20
5352.694921659907
 30
0.0
  0
POINT
  5
19678
330
18F30
100
AcDbEntity
  8
DEFPOINTS
 62
     0
 48
50.0
100
AcDbPoint
 10
11209.2180187177
 20
5350.884242048254
 30
0.0
  0
POINT
  5
19679
330
18F30
100
AcDbEntity
  8
DEFPOINTS
 62
     0
 48
50.0
100
AcDbPoint
 10
11209.2180187177
 20
5804.541695627557
 30
0.0
  0
ENDBLK
  5
18F3C
330
18F30
100
AcDbEntity
  8
0
 48
50.0
100
AcDbBlockEnd
  0
BLOCK
  5
18F48
330
18F3D
100
AcDbEntity
  8
0
 48
50.0
100
AcDbBlockBegin
  2
*D6
 70
     1
 10
0.0
 20
0.0
 30
0.0
  3
*D6
  1

  0
LINE
  5
19666
330
18F3D
100
AcDbEntity
  8
寸法
 62
     0
 48
50.0
370
    -2
100
AcDbLine
 10
8424.218018717697
 20
3030.884242048252
 30
0.0
 11
7530.578636788338
 21
3030.884242048252
 31
0.0
  0
LINE
  5
19667
330
18F3D
100
AcDbEntity
  8
寸法
 62
     0
 48
50.0
370
    -2
100
AcDbLine
 10
7855.565309559399
 20
2930.884242048252
 30
0.0
 11
7530.578636788338
 21
2930.884242048252
 31
0.0
  0
LINE
  5
19668
330
18F3D
100
AcDbEntity
  8
寸法
 62
     0
 48
50.0
370
    -2
100
AcDbLine
 10
7590.578636788338
 20
3030.884242048252
 30
0.0
 11
7590.578636788338
 21
2930.884242048252
 31
0.0
  0
LINE
  5
19669
330
18F3D
100
AcDbEntity
  8
寸法
 62
     0
 48
50.0
370
    -2
100
AcDbLine
 10
7590.578636788338
 20
2930.884242048252
 30
0.0
 11
7590.578636788338
 21
2558.789753859273
 31
0.0
  0
INSERT
  5
1966A
330
18F3D
100
AcDbEntity
  8
寸法
 62
     0
 48
50.0
370
    -2
100
AcDbBlockReference
  2
_DOTSMALL
 10
7590.578636788338
 20
3030.884242048252
 30
0.0
 41
100.0
 42
100.0
 43
100.0
 50
90.0
  0
INSERT
  5
1966B
330
18F3D
100
AcDbEntity
  8
寸法
 62
     0
 48
50.0
370
    -2
100
AcDbBlockReference
  2
_DOTSMALL
 10
7590.578636788338
 20
2930.884242048252
 30
0.0
 41
100.0
 42
100.0
 43
100.0
 50
270.0
  0
MTEXT
  5
1966C
330
18F3D
100
AcDbEntity
  8
寸法
 62
     7
 48
50.0
100
AcDbMText
 10
7490.578636788338
 20
2694.836997953762
 30
0.0
 40
120.0
 41
0.0
 71
     5
 72
     1
  1
\A1;100
  7
STYLE1
 11
0.0000000000000001
 21
1.0
 31
0.0
 73
     1
 44
1.0
1001
ACAD
1000
MTEXTBEGIN
1070
    73
1070
     1
1070
    44
1040
1.0
1070
    74
1070
     0
1000
MTEXTEND
  0
POINT
  5
1966D
330
18F3D
100
AcDbEntity
  8
DEFPOINTS
 62
     0
 48
50.0
100
AcDbPoint
 10
8444.218018717696
 20
3030.884242048252
 30
0.0
  0
POINT
  5
1966E
330
18F3D
100
AcDbEntity
  8
DEFPOINTS
 62
     0
 48
50.0
100
AcDbPoint
 10
7875.565309559398
 20
2930.884242048252
 30
0.0
  0
POINT
  5
1966F
330
18F3D
100
AcDbEntity
  8
DEFPOINTS
 62
     0
 48
50.0
100
AcDbPoint
 10
7590.578636788338
 20
2930.884242048252
 30
0.0
  0
ENDBLK
  5
18F49
330
18F3D
100
AcDbEntity
  8
0
 48
50.0
100
AcDbBlockEnd
  0
BLOCK
  5
18F56
330
18F4A
100
AcDbEntity
  8
0
 48
50.0
100
AcDbBlockBegin
  2
*D7
 70
     1
 10
0.0
 20
0.0
 30
0.0
  3
*D7
  1

  0
LINE
  5
1965B
330
18F4A
100
AcDbEntity
  8
寸法
 62
     0
 48
50.0
370
    -2
100
AcDbLine
 10
8479.218018717697
 20
3080.884242048253
 30
0.0
 11
7815.5653095594
 21
3080.884242048253
 31
0.0
  0
LINE
  5
1965C
330
18F4A
100
AcDbEntity
  8
寸法
 62
     0
 48
50.0
370
    -2
100
AcDbLine
 10
8424.218018717697
 20
3030.884242048252
 30
0.0
 11
7815.5653095594
 21
3030.884242048252
 31
0.0
  0
LINE
  5
1965D
330
18F4A
100
AcDbEntity
  8
寸法
 62
     0
 48
50.0
370
    -2
100
AcDbLine
 10
7875.5653095594
 20
3080.884242048253
 30
0.0
 11
7875.5653095594
 21
3180.884242048252
 31
0.0
  0
LINE
  5
1965E
330
18F4A
100
AcDbEntity
  8
寸法
 62
     0
 48
50.0
370
    -2
100
AcDbLine
 10
7875.5653095594
 20
3030.884242048252
 30
0.0
 11
7875.5653095594
 21
2618.789753859273
 31
0.0
  0
LINE
  5
1965F
330
18F4A
100
AcDbEntity
  8
寸法
 62
     0
 48
50.0
370
    -2
100
AcDbLine
 10
7875.5653095594
 20
3080.884242048253
 30
0.0
 11
7875.5653095594
 21
3030.884242048252
 31
0.0
  0
INSERT
  5
19660
330
18F4A
100
AcDbEntity
  8
寸法
 62
     0
 48
50.0
370
    -2
100
AcDbBlockReference
  2
_DOTSMALL
 10
7875.5653095594
 20
3080.884242048253
 30
0.0
 41
100.0
 42
100.0
 43
100.0
 50
270.0
  0
INSERT
  5
19661
330
18F4A
100
AcDbEntity
  8
寸法
 62
     0
 48
50.0
370
    -2
100
AcDbBlockReference
  2
_DOTSMALL
 10
7875.5653095594
 20
3030.884242048252
 30
0.0
 41
100.0
 42
100.0
 43
100.0
 50
90.0
  0
MTEXT
  5
19662
330
18F4A
100
AcDbEntity
  8
寸法
 62
     7
 48
50.0
100
AcDbMText
 10
7775.565309559398
 20
2724.836997953762
 30
0.0
 40
120.0
 41
0.0
 71
     5
 72
     1
  1
\A1;50
  7
STYLE1
 11
0.0000000000000001
 21
1.0
 31
0.0
 73
     1
 44
1.0
1001
ACAD
1000
MTEXTBEGIN
1070
    73
1070
     1
1070
    44
1040
1.0
1070
    74
1070
     0
1000
MTEXTEND
  0
POINT
  5
19663
330
18F4A
100
AcDbEntity
  8
DEFPOINTS
 62
     0
 48
50.0
100
AcDbPoint
 10
8499.218018717696
 20
3080.884242048253
 30
0.0
  0
POINT
  5
19664
330
18F4A
100
AcDbEntity
  8
DEFPOINTS
 62
     0
 48
50.0
100
AcDbPoint
 10
8444.218018717696
 20
3030.884242048252
 30
0.0
  0
POINT
  5
19665
330
18F4A
100
AcDbEntity
  8
DEFPOINTS
 62
     0
 48
50.0
100
AcDbPoint
 10
7875.5653095594
 20
3030.884242048252
 30
0.0
  0
ENDBLK
  5
18F57
330
18F4A
100
AcDbEntity
  8
0
 48
50.0
100
AcDbBlockEnd
  0
BLOCK
  5
18F62
330
18F58
100
AcDbEntity
  8
0
 48
50.0
100
AcDbBlockBegin
  2
*D8
 70
     1
 10
0.0
 20
0.0
 30
0.0
  3
*D8
  1

  0
LINE
  5
19652
330
18F58
100
AcDbEntity
  8
寸法
 62
     0
 48
50.0
370
    -2
100
AcDbLine
 10
8479.218018717697
 20
5170.884242048252
 30
0.0
 11
7815.5653095594
 21
5170.884242048252
 31
0.0
  0
LINE
  5
19653
330
18F58
100
AcDbEntity
  8
寸法
 62
     0
 48
50.0
370
    -2
100
AcDbLine
 10
8479.218018717697
 20
3080.884242048253
 30
0.0
 11
7815.5653095594
 21
3080.884242048253
 31
0.0
  0
LINE
  5
19654
330
18F58
100
AcDbEntity
  8
寸法
 62
     0
 48
50.0
370
    -2
100
AcDbLine
 10
7875.565309559402
 20
5170.884242048252
 30
0.0
 11
7875.565309559402
 21
3080.884242048253
 31
0.0
  0
INSERT
  5
19655
330
18F58
100
AcDbEntity
  8
寸法
 62
     0
 48
50.0
370
    -2
100
AcDbBlockReference
  2
_DOTSMALL
 10
7875.565309559402
 20
5170.884242048252
 30
0.0
 41
100.0
 42
100.0
 43
100.0
 50
90.0
  0
INSERT
  5
19656
330
18F58
100
AcDbEntity
  8
寸法
 62
     0
 48
50.0
370
    -2
100
AcDbBlockReference
  2
_DOTSMALL
 10
7875.565309559402
 20
3080.884242048253
 30
0.0
 41
100.0
 42
100.0
 43
100.0
 50
270.0
  0
MTEXT
  5
19657
330
18F58
100
AcDbEntity
  8
寸法
 62
     7
 48
50.0
100
AcDbMText
 10
7775.553498535778
 20
4101.384242048252
 30
0.0
 40
120.0
 41
0.0
 71
     5
 72
     1
  1
\A1;2090
  7
STYLE1
 11
0.0000000000000001
 21
1.0
 31
0.0
 73
     1
 44
1.0
1001
ACAD
1000
MTEXTBEGIN
1070
    73
1070
     1
1070
    44
1040
1.0
1070
    74
1070
     0
1000
MTEXTEND
  0
POINT
  5
19658
330
18F58
100
AcDbEntity
  8
DEFPOINTS
 62
     0
 48
50.0
100
AcDbPoint
 10
8499.218018717696
 20
5170.884242048252
 30
0.0
  0
POINT
  5
19659
330
18F58
100
AcDbEntity
  8
DEFPOINTS
 62
     0
 48
50.0
100
AcDbPoint
 10
8499.218018717696
 20
3080.884242048253
 30
0.0
  0
POINT
  5
1965A
330
18F58
100
AcDbEntity
  8
DEFPOINTS
 62
     0
 48
50.0
100
AcDbPoint
 10
7875.565309559402
 20
3080.884242048253
 30
0.0
  0
ENDBLK
  5
18F63
330
18F58
100
AcDbEntity
  8
0
 48
50.0
100
AcDbBlockEnd
  0
BLOCK
  5
18F6E
330
18F64
100
AcDbEntity
  8
0
 48
50.0
100
AcDbBlockBegin
  2
*D9
 70
     1
 10
0.0
 20
0.0
 30
0.0
  3
*D9
  1

  0
LINE
  5
19649
330
18F64
100
AcDbEntity
  8
寸法
 62
     0
 48
50.0
370
    -2
100
AcDbLine
 10
8479.218018717697
 20
3030.884242048252
 30
0.0
 11
7530.57863678834
 21
3030.884242048252
 31
0.0
  0
LINE
  5
1964A
330
18F64
100
AcDbEntity
  8
寸法
 62
     0
 48
50.0
370
    -2
100
AcDbLine
 10
8419.218018717696
 20
5405.884242048258
 30
0.0
 11
7530.57863678834
 21
5405.884242048258
 31
0.0
  0
LINE
  5
1964B
330
18F64
100
AcDbEntity
  8
寸法
 62
     0
 48
50.0
370
    -2
100
AcDbLine
 10
7590.57863678834
 20
3030.884242048252
 30
0.0
 11
7590.57863678834
 21
5405.884242048258
 31
0.0
  0
INSERT
  5
1964C
330
18F64
100
AcDbEntity
  8
寸法
 62
     0
 48
50.0
370
    -2
100
AcDbBlockReference
  2
_DOTSMALL
 10
7590.57863678834
 20
3030.884242048252
 30
0.0
 41
100.0
 42
100.0
 43
100.0
 50
270.0
  0
INSERT
  5
1964D
330
18F64
100
AcDbEntity
  8
寸法
 62
     0
 48
50.0
370
    -2
100
AcDbBlockReference
  2
_DOTSMALL
 10
7590.57863678834
 20
5405.884242048258
 30
0.0
 41
100.0
 42
100.0
 43
100.0
 50
90.0
  0
MTEXT
  5
1964E
330
18F64
100
AcDbEntity
  8
寸法
 62
     7
 48
50.0
100
AcDbMText
 10
7490.566825764716
 20
4101.384242048252
 30
0.0
 40
120.0
 41
0.0
 71
     5
 72
     1
  1
\A1;2375
  7
STYLE1
 11
0.0000000000000001
 21
1.0
 31
0.0
 73
     1
 44
1.0
1001
ACAD
1000
MTEXTBEGIN
1070
    73
1070
     1
1070
    44
1040
1.0
1070
    74
1070
     0
1000
MTEXTEND
  0
POINT
  5
1964F
330
18F64
100
AcDbEntity
  8
DEFPOINTS
 62
     0
 48
50.0
100
AcDbPoint
 10
8499.218018717696
 20
3030.884242048252
 30
0.0
  0
POINT
  5
19650
330
18F64
100
AcDbEntity
  8
DEFPOINTS
 62
     0
 48
50.0
100
AcDbPoint
 10
8439.218018717696
 20
5405.884242048258
 30
0.0
  0
POINT
  5
19651
330
18F64
100
AcDbEntity
  8
DEFPOINTS
 62
     0
 48
50.0
100
AcDbPoint
 10
7590.57863678834
 20
5405.884242048258
 30
0.0
  0
ENDBLK
  5
18F6F
330
18F64
100
AcDbEntity
  8
0
 48
50.0
100
AcDbBlockEnd
  0
BLOCK
  5
18F7B
330
18F70
100
AcDbEntity
  8
0
 48
50.0
100
AcDbBlockBegin
  2
*D10
 70
     1
 10
0.0
 20
0.0
 30
0.0
  3
*D10
  1

  0
LINE
  5
1963F
330
18F70
100
AcDbEntity
  8
寸法
 62
     0
 48
50.0
370
    -2
100
AcDbLine
 10
8438.622305008797
 20
5405.181949117913
 30
0.0
 11
7822.687865903525
 21
5422.896099392243
 31
0.0
  0
LINE
  5
19640
330
18F70
100
AcDbEntity
  8
寸法
 62
     0
 48
50.0
370
    -2
100
AcDbLine
 10
8434.568849452171
 20
5264.240225352199
 30
0.0
 11
7818.634410346899
 21
5281.954375626527
 31
0.0
  0
LINE
  5
19641
330
18F70
100
AcDbEntity
  8
寸法
 62
     0
 48
50.0
370
    -2
100
AcDbLine
 10
7878.609611949329
 20
5280.22950092158
 30
0.0
 11
7882.663067505956
 21
5421.171224687295
 31
0.0
  0
LINE
  5
19642
330
18F70
100
AcDbEntity
  8
寸法
 62
     0
 48
50.0
370
    -2
100
AcDbLine
 10
7882.663067505956
 20
5421.171224687295
 30
0.0
 11
7893.01231573564
 21
5781.022434301884
 31
0.0
  0
INSERT
  5
19643
330
18F70
100
AcDbEntity
  8
寸法
 62
     0
 48
50.0
370
    -2
100
AcDbBlockReference
  2
_DOTSMALL
 10
7878.609611949329
 20
5280.22950092158
 30
0.0
 41
100.0
 42
100.0
 43
100.0
 50
268.3526390256379
  0
INSERT
  5
19644
330
18F70
100
AcDbEntity
  8
寸法
 62
     0
 48
50.0
370
    -2
100
AcDbBlockReference
  2
_DOTSMALL
 10
7882.663067505956
 20
5421.171224687295
 30
0.0
 41
100.0
 42
100.0
 43
100.0
 50
88.35263902563784
  0
MTEXT
  5
19645
330
18F70
100
AcDbEntity
  8
寸法
 62
     7
 48
50.0
100
AcDbMText
 10
7789.31641787087
 20
5653.950955338197
 30
0.0
 40
120.0
 41
0.0
 71
     5
 72
     1
  1
\A1;141
  7
STYLE1
 11
0.0287479117491228
 21
0.9995866933738486
 31
0.0
 73
     1
 44
1.0
1001
ACAD
1000
MTEXTBEGIN
1070
    73
1070
     1
1070
    44
1040
1.0
1070
    74
1070
     0
1000
MTEXTEND
  0
POINT
  5
19646
330
18F70
100
AcDbEntity
  8
DEFPOINTS
 62
     0
 48
50.0
100
AcDbPoint
 10
8458.614038876275
 20
5404.606990882932
 30
0.0
  0
POINT
  5
19647
330
18F70
100
AcDbEntity
  8
DEFPOINTS
 62
     0
 48
50.0
100
AcDbPoint
 10
8454.560583319647
 20
5263.665267117217
 30
0.0
  0
POINT
  5
19648
330
18F70
100
AcDbEntity
  8
DEFPOINTS
 62
     0
 48
50.0
100
AcDbPoint
 10
7878.609611949329
 20
5280.22950092158
 30
0.0
  0
ENDBLK
  5
18F7C
330
18F70
100
AcDbEntity
  8
0
 48
50.0
100
AcDbBlockEnd
  0
BLOCK
  5
18F87
330
18F7D
100
AcDbEntity
  8
0
 48
50.0
100
AcDbBlockBegin
  2
*D11
 70
     1
 10
0.0
 20
0.0
 30
0.0
  3
*D11
  1

  0
LINE
  5
19636
330
18F7D
100
AcDbEntity
  8
寸法
 62
     0
 48
50.0
370
    -2
100
AcDbLine
 10
8927.218018717699
 20
5113.884242048253
 30
0.0
 11
8145.993212246683
 21
5113.884242048253
 31
0.0
  0
LINE
  5
19637
330
18F7D
100
AcDbEntity
  8
寸法
 62
     0
 48
50.0
370
    -2
100
AcDbLine
 10
8927.218018717699
 20
3088.884242048252
 30
0.0
 11
8145.993212246683
 21
3088.884242048252
 31
0.0
  0
LINE
  5
19638
330
18F7D
100
AcDbEntity
  8
寸法
 62
     0
 48
50.0
370
    -2
100
AcDbLine
 10
8205.993212246683
 20
5113.884242048253
 30
0.0
 11
8205.993212246681
 21
3088.884242048252
 31
0.0
  0
INSERT
  5
19639
330
18F7D
100
AcDbEntity
  8
寸法
 62
     0
 48
50.0
370
    -2
100
AcDbBlockReference
  2
_DOTSMALL
 10
8205.993212246683
 20
5113.884242048253
 30
0.0
 41
100.0
 42
100.0
 43
100.0
 50
90.0
  0
INSERT
  5
1963A
330
18F7D
100
AcDbEntity
  8
寸法
 62
     0
 48
50.0
370
    -2
100
AcDbBlockReference
  2
_DOTSMALL
 10
8205.993212246681
 20
3088.884242048252
 30
0.0
 41
100.0
 42
100.0
 43
100.0
 50
270.0
  0
MTEXT
  5
1963B
330
18F7D
100
AcDbEntity
  8
寸法
 62
     7
 48
50.0
100
AcDbMText
 10
8105.981401223059
 20
4101.384242048252
 30
0.0
 40
120.0
 41
0.0
 71
     5
 72
     1
  1
\A1;有効開口部高サ2025
  7
STYLE1
 11
0.0000000000000001
 21
1.0
 31
0.0
 73
     1
 44
1.0
1001
ACAD
1000
MTEXTBEGIN
1070
    73
1070
     1
1070
    44
1040
1.0
1070
    74
1070
     0
1000
MTEXTEND
  0
POINT
  5
1963C
330
18F7D
100
AcDbEntity
  8
DEFPOINTS
 62
     0
 48
50.0
100
AcDbPoint
 10
8947.218018717698
 20
5113.884242048253
 30
0.0
  0
POINT
  5
1963D
330
18F7D
100
AcDbEntity
  8
DEFPOINTS
 62
     0
 48
50.0
100
AcDbPoint
 10
8947.218018717698
 20
3088.884242048252
 30
0.0
  0
POINT
  5
1963E
330
18F7D
100
AcDbEntity
  8
DEFPOINTS
 62
     0
 48
50.0
100
AcDbPoint
 10
8205.993212246681
 20
3088.884242048252
 30
0.0
  0
ENDBLK
  5
18F88
330
18F7D
100
AcDbEntity
  8
0
 48
50.0
100
AcDbBlockEnd
  0
BLOCK
  5
18FA1
330
18F95
100
AcDbEntity
  8
0
 48
50.0
100
AcDbBlockBegin
  2
*D12
 70
     1
 10
0.0
 20
0.0
 30
0.0
  3
*D12
  1

  0
LINE
  5
19D46
330
18F95
100
AcDbEntity
  8
寸法
 62
     0
 48
50.0
370
    -2
100
AcDbLine
 10
8499.218018717671
 20
9678.155500301954
 30
0.0
 11
8499.218018717671
 21
10018.15550030195
 31
0.0
  0
LINE
  5
19D47
330
18F95
100
AcDbEntity
  8
寸法
 62
     0
 48
50.0
370
    -2
100
AcDbLine
 10
8554.218018717708
 20
9678.155500301954
 30
0.0
 11
8554.218018717708
 21
10018.15550030195
 31
0.0
  0
LINE
  5
19D48
330
18F95
100
AcDbEntity
  8
寸法
 62
     0
 48
50.0
370
    -2
100
AcDbLine
 10
8554.218018717708
 20
9958.155500301955
 30
0.0
 11
8654.218018717708
 21
9958.155500301955
 31
0.0
  0
LINE
  5
19D49
330
18F95
100
AcDbEntity
  8
寸法
 62
     0
 48
50.0
370
    -2
100
AcDbLine
 10
8499.218018717671
 20
9958.155500301955
 30
0.0
 11
8082.247455969193
 21
9958.155500301955
 31
0.0
  0
LINE
  5
19D4A
330
18F95
100
AcDbEntity
  8
寸法
 62
     0
 48
50.0
370
    -2
100
AcDbLine
 10
8554.218018717708
 20
9958.155500301955
 30
0.0
 11
8499.218018717671
 21
9958.155500301955
 31
0.0
  0
INSERT
  5
19D4B
330
18F95
100
AcDbEntity
  8
寸法
 62
     0
 48
50.0
370
    -2
100
AcDbBlockReference
  2
_DOTSMALL
 10
8554.218018717708
 20
9958.155500301955
 30
0.0
 41
100.0
 42
100.0
 43
100.0
 50
180.0
  0
INSERT
  5
19D4C
330
18F95
100
AcDbEntity
  8
寸法
 62
     0
 48
50.0
370
    -2
100
AcDbBlockReference
  2
_DOTSMALL
 10
8499.218018717671
 20
9958.155500301955
 30
0.0
 41
100.0
 42
100.0
 43
100.0
  0
MTEXT
  5
19D4D
330
18F95
100
AcDbEntity
  8
寸法
 62
     7
 48
50.0
100
AcDbMText
 10
8190.732737343433
 20
10058.15550030195
 30
0.0
 40
120.0
 41
0.0
 71
     5
 72
     1
  1
\A1;55
  7
STYLE1
 73
     1
 44
1.0
1001
ACAD
1000
MTEXTBEGIN
1070
    73
1070
     1
1070
    44
1040
1.0
1070
    74
1070
     0
1000
MTEXTEND
  0
POINT
  5
19D4E
330
18F95
100
AcDbEntity
  8
DEFPOINTS
 62
     0
 48
50.0
100
AcDbPoint
 10
8499.218018717671
 20
9658.155500301955
 30
0.0
  0
POINT
  5
19D4F
330
18F95
100
AcDbEntity
  8
DEFPOINTS
 62
     0
 48
50.0
100
AcDbPoint
 10
8554.218018717708
 20
9658.155500301955
 30
0.0
  0
POINT
  5
19D50
330
18F95
100
AcDbEntity
  8
DEFPOINTS
 62
     0
 48
50.0
100
AcDbPoint
 10
8554.218018717708
 20
9958.155500301955
 30
0.0
  0
ENDBLK
  5
18FA2
330
18F95
100
AcDbEntity
  8
0
 48
50.0
100
AcDbBlockEnd
  0
BLOCK
  5
18FAD
330
18FA3
100
AcDbEntity
  8
0
 48
50.0
100
AcDbBlockBegin
  2
*D13
 70
     1
 10
0.0
 20
0.0
 30
0.0
  3
*D13
  1

  0
LINE
  5
19D3D
330
18FA3
100
AcDbEntity
  8
寸法
 62
     0
 48
50.0
370
    -2
100
AcDbLine
 10
8521.359034869016
 20
9158.155500302003
 30
0.0
 11
8424.90713533577
 21
8798.192110757403
 31
0.0
  0
LINE
  5
19D3E
330
18FA3
100
AcDbEntity
  8
寸法
 62
     0
 48
50.0
370
    -2
100
AcDbLine
 10
9794.359034869085
 20
9158.155500301994
 30
0.0
 11
9697.907135335842
 21
8798.192110757403
 31
0.0
  0
LINE
  5
19D3F
330
18FA3
100
AcDbEntity
  8
寸法
 62
     0
 48
50.0
370
    -2
100
AcDbLine
 10
8440.984086881638
 20
8858.192110757402
 30
0.0
 11
9713.984086881708
 21
8858.192110757402
 31
0.0
  0
INSERT
  5
19D40
330
18FA3
100
AcDbEntity
  8
寸法
 62
     0
 48
50.0
370
    -2
100
AcDbBlockReference
  2
_DOTSMALL
 10
8440.984086881638
 20
8858.192110757402
 30
0.0
 41
100.0
 42
100.0
 43
100.0
 50
180.0
  0
INSERT
  5
19D41
330
18FA3
100
AcDbEntity
  8
寸法
 62
     0
 48
50.0
370
    -2
100
AcDbBlockReference
  2
_DOTSMALL
 10
9713.984086881708
 20
8858.192110757402
 30
0.0
 41
100.0
 42
100.0
 43
100.0
  0
MTEXT
  5
19D42
330
18FA3
100
AcDbEntity
  8
寸法
 62
     7
 48
50.0
100
AcDbMText
 10
9077.484086881673
 20
8958.203921781024
 30
0.0
 40
120.0
 41
0.0
 71
     5
 72
     1
  1
\A1;1273
  7
STYLE1
 73
     1
 44
1.0
1001
ACAD
1000
MTEXTBEGIN
1070
    73
1070
     1
1070
    44
1040
1.0
1070
    74
1070
     0
1000
MTEXTEND
  0
POINT
  5
19D43
330
18FA3
100
AcDbEntity
  8
DEFPOINTS
 62
     0
 48
50.0
100
AcDbPoint
 10
8526.718018717637
 20
9178.155500302002
 30
0.0
  0
POINT
  5
19D44
330
18FA3
100
AcDbEntity
  8
DEFPOINTS
 62
     0
 48
50.0
100
AcDbPoint
 10
9799.718018717708
 20
9178.155500301995
 30
0.0
  0
POINT
  5
19D45
330
18FA3
100
AcDbEntity
  8
DEFPOINTS
 62
     0
 48
50.0
100
AcDbPoint
 10
9713.984086881708
 20
8858.192110757402
 30
0.0
  0
ENDBLK
  5
18FAE
330
18FA3
100
AcDbEntity
  8
0
 48
50.0
100
AcDbBlockEnd
  0
BLOCK
  5
18FBB
330
18FAF
100
AcDbEntity
  8
0
 48
50.0
100
AcDbBlockBegin
  2
*D14
 70
     1
 10
0.0
 20
0.0
 30
0.0
  3
*D14
  1

  0
LINE
  5
19D32
330
18FAF
100
AcDbEntity
  8
寸法
 62
     0
 48
50.0
370
    -2
100
AcDbLine
 10
11074.2180187177
 20
9678.15550030205
 30
0.0
 11
11074.2180187177
 21
10018.15550030195
 31
0.0
  0
LINE
  5
19D33
330
18FAF
100
AcDbEntity
  8
寸法
 62
     0
 48
50.0
370
    -2
100
AcDbLine
 10
11129.21801871771
 20
9678.15550030205
 30
0.0
 11
11129.21801871771
 21
10018.15550030195
 31
0.0
  0
LINE
  5
19D34
330
18FAF
100
AcDbEntity
  8
寸法
 62
     0
 48
50.0
370
    -2
100
AcDbLine
 10
11074.2180187177
 20
9958.155500301955
 30
0.0
 11
10974.2180187177
 21
9958.155500301955
 31
0.0
  0
LINE
  5
19D35
330
18FAF
100
AcDbEntity
  8
寸法
 62
     0
 48
50.0
370
    -2
100
AcDbLine
 10
11129.21801871771
 20
9958.155500301955
 30
0.0
 11
11546.18858146618
 21
9958.155500301955
 31
0.0
  0
LINE
  5
19D36
330
18FAF
100
AcDbEntity
  8
寸法
 62
     0
 48
50.0
370
    -2
100
AcDbLine
 10
11074.2180187177
 20
9958.155500301955
 30
0.0
 11
11129.21801871771
 21
9958.155500301955
 31
0.0
  0
INSERT
  5
19D37
330
18FAF
100
AcDbEntity
  8
寸法
 62
     0
 48
50.0
370
    -2
100
AcDbBlockReference
  2
_DOTSMALL
 10
11074.2180187177
 20
9958.155500301955
 30
0.0
 41
100.0
 42
100.0
 43
100.0
  0
INSERT
  5
19D38
330
18FAF
100
AcDbEntity
  8
寸法
 62
     0
 48
50.0
370
    -2
100
AcDbBlockReference
  2
_DOTSMALL
 10
11129.21801871771
 20
9958.155500301955
 30
0.0
 41
100.0
 42
100.0
 43
100.0
 50
180.0
  0
MTEXT
  5
19D39
330
18FAF
100
AcDbEntity
  8
寸法
 62
     7
 48
50.0
100
AcDbMText
 10
11437.70330009195
 20
10058.15550030195
 30
0.0
 40
120.0
 41
0.0
 71
     5
 72
     1
  1
\A1;55
  7
STYLE1
 73
     1
 44
1.0
1001
ACAD
1000
MTEXTBEGIN
1070
    73
1070
     1
1070
    44
1040
1.0
1070
    74
1070
     0
1000
MTEXTEND
  0
POINT
  5
19D3A
330
18FAF
100
AcDbEntity
  8
DEFPOINTS
 62
     0
 48
50.0
100
AcDbPoint
 10
11074.2180187177
 20
9658.155500302051
 30
0.0
  0
POINT
  5
19D3B
330
18FAF
100
AcDbEntity
  8
DEFPOINTS
 62
     0
 48
50.0
100
AcDbPoint
 10
11129.21801871771
 20
9658.155500302051
 30
0.0
  0
POINT
  5
19D3C
330
18FAF
100
AcDbEntity
  8
DEFPOINTS
 62
     0
 48
50.0
100
AcDbPoint
 10
11129.21801871771
 20
9958.155500301955
 30
0.0
  0
ENDBLK
  5
18FBC
330
18FAF
100
AcDbEntity
  8
0
 48
50.0
100
AcDbBlockEnd
  0
BLOCK
  5
18FC7
330
18FBD
100
AcDbEntity
  8
0
 48
50.0
100
AcDbBlockBegin
  2
*D15
 70
     1
 10
0.0
 20
0.0
 30
0.0
  3
*D15
  1

  0
LINE
  5
19D29
330
18FBD
100
AcDbEntity
  8
寸法
 62
     0
 48
50.0
370
    -2
100
AcDbLine
 10
8554.218018717708
 20
9678.155500301954
 30
0.0
 11
8554.218018717708
 21
10018.15550030195
 31
0.0
  0
LINE
  5
19D2A
330
18FBD
100
AcDbEntity
  8
寸法
 62
     0
 48
50.0
370
    -2
100
AcDbLine
 10
11074.2180187177
 20
9678.15550030205
 30
0.0
 11
11074.2180187177
 21
10018.15550030195
 31
0.0
  0
LINE
  5
19D2B
330
18FBD
100
AcDbEntity
  8
寸法
 62
     0
 48
50.0
370
    -2
100
AcDbLine
 10
8554.218018717708
 20
9958.155500301955
 30
0.0
 11
11074.2180187177
 21
9958.155500301955
 31
0.0
  0
INSERT
  5
19D2C
330
18FBD
100
AcDbEntity
  8
寸法
 62
     0
 48
50.0
370
    -2
100
AcDbBlockReference
  2
_DOTSMALL
 10
8554.218018717708
 20
9958.155500301955
 30
0.0
 41
100.0
 42
100.0
 43
100.0
 50
180.0
  0
INSERT
  5
19D2D
330
18FBD
100
AcDbEntity
  8
寸法
 62
     0
 48
50.0
370
    -2
100
AcDbBlockReference
  2
_DOTSMALL
 10
11074.2180187177
 20
9958.155500301955
 30
0.0
 41
100.0
 42
100.0
 43
100.0
  0
MTEXT
  5
19D2E
330
18FBD
100
AcDbEntity
  8
寸法
 62
     7
 48
50.0
100
AcDbMText
 10
9814.218018717703
 20
10058.16731132557
 30
0.0
 40
120.0
 41
0.0
 71
     5
 72
     1
  1
\A1;6X420=2520
  7
STYLE1
 73
     1
 44
1.0
1001
ACAD
1000
MTEXTBEGIN
1070
    73
1070
     1
1070
    44
1040
1.0
1070
    74
1070
     0
1000
MTEXTEND
  0
POINT
  5
19D2F
330
18FBD
100
AcDbEntity
  8
DEFPOINTS
 62
     0
 48
50.0
100
AcDbPoint
 10
8554.218018717708
 20
9658.155500301955
 30
0.0
  0
POINT
  5
19D30
330
18FBD
100
AcDbEntity
  8
DEFPOINTS
 62
     0
 48
50.0
100
AcDbPoint
 10
11074.2180187177
 20
9658.155500302051
 30
0.0
  0
POINT
  5
19D31
330
18FBD
100
AcDbEntity
  8
DEFPOINTS
 62
     0
 48
50.0
100
AcDbPoint
 10
11074.2180187177
 20
9958.155500301955
 30
0.0
  0
ENDBLK
  5
18FC8
330
18FBD
100
AcDbEntity
  8
0
 48
50.0
100
AcDbBlockEnd
  0
BLOCK
  5
18FDF
330
18FD5
100
AcDbEntity
  8
0
 48
50.0
100
AcDbBlockBegin
  2
*D16
 70
     1
 10
0.0
 20
0.0
 30
0.0
  3
*D16
  1

  0
LINE
  5
19D20
330
18FD5
100
AcDbEntity
  8
寸法
 62
     0
 48
50.0
370
    -2
100
AcDbLine
 10
9821.359034869086
 20
9158.155500302061
 30
0.0
 11
9724.907135335824
 21
8798.192110757403
 31
0.0
  0
LINE
  5
19D21
330
18FD5
100
AcDbEntity
  8
寸法
 62
     0
 48
50.0
370
    -2
100
AcDbLine
 10
11094.35903486909
 20
9158.155500302052
 30
0.0
 11
10997.90713533583
 21
8798.192110757403
 31
0.0
  0
LINE
  5
19D22
330
18FD5
100
AcDbEntity
  8
寸法
 62
     0
 48
50.0
370
    -2
100
AcDbLine
 10
9740.98408688169
 20
8858.192110757402
 30
0.0
 11
11013.9840868817
 21
8858.192110757402
 31
0.0
  0
INSERT
  5
19D23
330
18FD5
100
AcDbEntity
  8
寸法
 62
     0
 48
50.0
370
    -2
100
AcDbBlockReference
  2
_DOTSMALL
 10
9740.98408688169
 20
8858.192110757402
 30
0.0
 41
100.0
 42
100.0
 43
100.0
 50
180.0
  0
INSERT
  5
19D24
330
18FD5
100
AcDbEntity
  8
寸法
 62
     0
 48
50.0
370
    -2
100
AcDbBlockReference
  2
_DOTSMALL
 10
11013.9840868817
 20
8858.192110757402
 30
0.0
 41
100.0
 42
100.0
 43
100.0
  0
MTEXT
  5
19D25
330
18FD5
100
AcDbEntity
  8
寸法
 62
     7
 48
50.0
100
AcDbMText
 10
10447.10592603172
 20
8958.203921781024
 30
0.0
 40
120.0
 41
0.0
 71
     5
 72
     1
  1
\A1;1273
  7
STYLE1
 73
     1
 44
1.0
1001
ACAD
1000
MTEXTBEGIN
1070
    73
1070
     1
1070
    44
1040
1.0
1070
    74
1070
     0
1000
MTEXTEND
  0
POINT
  5
19D26
330
18FD5
100
AcDbEntity
  8
DEFPOINTS
 62
     0
 48
50.0
100
AcDbPoint
 10
9826.718018717707
 20
9178.155500302059
 30
0.0
  0
POINT
  5
19D27
330
18FD5
100
AcDbEntity
  8
DEFPOINTS
 62
     0
 48
50.0
100
AcDbPoint
 10
11099.71801871772
 20
9178.155500302052
 30
0.0
  0
POINT
  5
19D28
330
18FD5
100
AcDbEntity
  8
DEFPOINTS
 62
     0
 48
50.0
100
AcDbPoint
 10
11013.9840868817
 20
8858.192110757402
 30
0.0
  0
ENDBLK
  5
18FE0
330
18FD5
100
AcDbEntity
  8
0
 48
50.0
100
AcDbBlockEnd
  0
BLOCK
  5
18FEB
330
18FE1
100
AcDbEntity
  8
0
 48
50.0
100
AcDbBlockBegin
  2
*D17
 70
     1
 10
0.0
 20
0.0
 30
0.0
  3
*D17
  1

  0
LINE
  5
19D17
330
18FE1
100
AcDbEntity
  8
寸法
 62
     0
 48
50.0
370
    -2
100
AcDbLine
 10
11149.21801871771
 20
9658.155500302051
 30
0.0
 11
12189.21801871771
 21
9658.155500302051
 31
0.0
  0
LINE
  5
19D18
330
18FE1
100
AcDbEntity
  8
寸法
 62
     0
 48
50.0
370
    -2
100
AcDbLine
 10
11149.21801871768
 20
8288.155500302041
 30
0.0
 11
12189.21801871771
 21
8288.155500302041
 31
0.0
  0
LINE
  5
19D19
330
18FE1
100
AcDbEntity
  8
寸法
 62
     0
 48
50.0
370
    -2
100
AcDbLine
 10
12129.21801871771
 20
9658.155500302051
 30
0.0
 11
12129.21801871771
 21
8288.155500302041
 31
0.0
  0
INSERT
  5
19D1A
330
18FE1
100
AcDbEntity
  8
寸法
 62
     0
 48
50.0
370
    -2
100
AcDbBlockReference
  2
_DOTSMALL
 10
12129.21801871771
 20
9658.155500302051
 30
0.0
 41
100.0
 42
100.0
 43
100.0
 50
90.0
  0
INSERT
  5
19D1B
330
18FE1
100
AcDbEntity
  8
寸法
 62
     0
 48
50.0
370
    -2
100
AcDbBlockReference
  2
_DOTSMALL
 10
12129.21801871771
 20
8288.155500302041
 30
0.0
 41
100.0
 42
100.0
 43
100.0
 50
270.0
  0
MTEXT
  5
19D1C
330
18FE1
100
AcDbEntity
  8
寸法
 62
     7
 48
50.0
100
AcDbMText
 10
12029.21801871771
 20
8973.155500302045
 30
0.0
 40
120.0
 41
0.0
 71
     5
 72
     1
  1
\A1;1370
  7
STYLE1
 11
0.0000000000000001
 21
1.0
 31
0.0
 73
     1
 44
1.0
1001
ACAD
1000
MTEXTBEGIN
1070
    73
1070
     1
1070
    44
1040
1.0
1070
    74
1070
     0
1000
MTEXTEND
  0
POINT
  5
19D1D
330
18FE1
100
AcDbEntity
  8
DEFPOINTS
 62
     0
 48
50.0
100
AcDbPoint
 10
11129.21801871771
 20
9658.155500302051
 30
0.0
  0
POINT
  5
19D1E
330
18FE1
100
AcDbEntity
  8
DEFPOINTS
 62
     0
 48
50.0
100
AcDbPoint
 10
11129.21801871768
 20
8288.155500302041
 30
0.0
  0
POINT
  5
19D1F
330
18FE1
100
AcDbEntity
  8
DEFPOINTS
 62
     0
 48
50.0
100
AcDbPoint
 10
12129.21801871771
 20
8288.155500302041
 30
0.0
  0
ENDBLK
  5
18FEC
330
18FE1
100
AcDbEntity
  8
0
 48
50.0
100
AcDbBlockEnd
  0
BLOCK
  5
18FF7
330
18FED
100
AcDbEntity
  8
0
 48
50.0
100
AcDbBlockBegin
  2
*D18
 70
     1
 10
0.0
 20
0.0
 30
0.0
  3
*D18
  1

  0
LINE
  5
19D0E
330
18FED
100
AcDbEntity
  8
寸法
 62
     0
 48
50.0
370
    -2
100
AcDbLine
 10
11149.21801871771
 20
9603.155500302053
 30
0.0
 11
11889.21801871769
 21
9603.155500302053
 31
0.0
  0
LINE
  5
19D0F
330
18FED
100
AcDbEntity
  8
寸法
 62
     0
 48
50.0
370
    -2
100
AcDbLine
 10
11149.21801871768
 20
8343.155500302037
 30
0.0
 11
11889.21801871769
 21
8343.155500302037
 31
0.0
  0
LINE
  5
19D10
330
18FED
100
AcDbEntity
  8
寸法
 62
     0
 48
50.0
370
    -2
100
AcDbLine
 10
11829.2180187177
 20
9603.155500302053
 30
0.0
 11
11829.2180187177
 21
8343.155500302037
 31
0.0
  0
INSERT
  5
19D11
330
18FED
100
AcDbEntity
  8
寸法
 62
     0
 48
50.0
370
    -2
100
AcDbBlockReference
  2
_DOTSMALL
 10
11829.2180187177
 20
9603.155500302053
 30
0.0
 41
100.0
 42
100.0
 43
100.0
 50
90.0
  0
INSERT
  5
19D12
330
18FED
100
AcDbEntity
  8
寸法
 62
     0
 48
50.0
370
    -2
100
AcDbBlockReference
  2
_DOTSMALL
 10
11829.2180187177
 20
8343.155500302037
 30
0.0
 41
100.0
 42
100.0
 43
100.0
 50
270.0
  0
MTEXT
  5
19D13
330
18FED
100
AcDbEntity
  8
寸法
 62
     7
 48
50.0
100
AcDbMText
 10
11729.20620769407
 20
8973.155500302045
 30
0.0
 40
120.0
 41
0.0
 71
     5
 72
     1
  1
\A1;3X420=1260
  7
STYLE1
 11
0.0000000000000001
 21
1.0
 31
0.0
 73
     1
 44
1.0
1001
ACAD
1000
MTEXTBEGIN
1070
    73
1070
     1
1070
    44
1040
1.0
1070
    74
1070
     0
1000
MTEXTEND
  0
POINT
  5
19D14
330
18FED
100
AcDbEntity
  8
DEFPOINTS
 62
     0
 48
50.0
100
AcDbPoint
 10
11129.21801871771
 20
9603.155500302053
 30
0.0
  0
POINT
  5
19D15
330
18FED
100
AcDbEntity
  8
DEFPOINTS
 62
     0
 48
50.0
100
AcDbPoint
 10
11129.21801871768
 20
8343.155500302037
 30
0.0
  0
POINT
  5
19D16
330
18FED
100
AcDbEntity
  8
DEFPOINTS
 62
     0
 48
50.0
100
AcDbPoint
 10
11829.2180187177
 20
8343.155500302037
 30
0.0
  0
ENDBLK
  5
18FF8
330
18FED
100
AcDbEntity
  8
0
 48
50.0
100
AcDbBlockEnd
  0
BLOCK
  5
19005
330
18FF9
100
AcDbEntity
  8
0
 48
50.0
100
AcDbBlockBegin
  2
*D19
 70
     1
 10
0.0
 20
0.0
 30
0.0
  3
*D19
  1

  0
LINE
  5
19D03
330
18FF9
100
AcDbEntity
  8
寸法
 62
     0
 48
50.0
370
    -2
100
AcDbLine
 10
11149.21801871768
 20
8343.155500302037
 30
0.0
 11
11889.21801871768
 21
8343.155500302037
 31
0.0
  0
LINE
  5
19D04
330
18FF9
100
AcDbEntity
  8
寸法
 62
     0
 48
50.0
370
    -2
100
AcDbLine
 10
11149.21801871768
 20
8288.155500302041
 30
0.0
 11
11889.21801871768
 21
8288.155500302041
 31
0.0
  0
LINE
  5
19D05
330
18FF9
100
AcDbEntity
  8
寸法
 62
     0
 48
50.0
370
    -2
100
AcDbLine
 10
11829.21801871768
 20
8343.155500302037
 30
0.0
 11
11829.21801871768
 21
8443.155500302037
 31
0.0
  0
LINE
  5
19D06
330
18FF9
100
AcDbEntity
  8
寸法
 62
     0
 48
50.0
370
    -2
100
AcDbLine
 10
11829.21801871768
 20
8288.155500302041
 30
0.0
 11
11829.21801871768
 21
7871.184937553548
 31
0.0
  0
LINE
  5
19D07
330
18FF9
100
AcDbEntity
  8
寸法
 62
     0
 48
50.0
370
    -2
100
AcDbLine
 10
11829.21801871768
 20
8343.155500302037
 30
0.0
 11
11829.21801871768
 21
8288.155500302041
 31
0.0
  0
INSERT
  5
19D08
330
18FF9
100
AcDbEntity
  8
寸法
 62
     0
 48
50.0
370
    -2
100
AcDbBlockReference
  2
_DOTSMALL
 10
11829.21801871768
 20
8343.155500302037
 30
0.0
 41
100.0
 42
100.0
 43
100.0
 50
270.0
  0
INSERT
  5
19D09
330
18FF9
100
AcDbEntity
  8
寸法
 62
     0
 48
50.0
370
    -2
100
AcDbBlockReference
  2
_DOTSMALL
 10
11829.21801871768
 20
8288.155500302041
 30
0.0
 41
100.0
 42
100.0
 43
100.0
 50
90.0
  0
MTEXT
  5
19D0A
330
18FF9
100
AcDbEntity
  8
寸法
 62
     7
 48
50.0
100
AcDbMText
 10
11729.21801871768
 20
7979.670218927788
 30
0.0
 40
120.0
 41
0.0
 71
     5
 72
     1
  1
\A1;55
  7
STYLE1
 11
0.0000000000000001
 21
1.0
 31
0.0
 73
     1
 44
1.0
1001
ACAD
1000
MTEXTBEGIN
1070
    73
1070
     1
1070
    44
1040
1.0
1070
    74
1070
     0
1000
MTEXTEND
  0
POINT
  5
19D0B
330
18FF9
100
AcDbEntity
  8
DEFPOINTS
 62
     0
 48
50.0
100
AcDbPoint
 10
11129.21801871768
 20
8343.155500302037
 30
0.0
  0
POINT
  5
19D0C
330
18FF9
100
AcDbEntity
  8
DEFPOINTS
 62
     0
 48
50.0
100
AcDbPoint
 10
11129.21801871768
 20
8288.155500302041
 30
0.0
  0
POINT
  5
19D0D
330
18FF9
100
AcDbEntity
  8
DEFPOINTS
 62
     0
 48
50.0
100
AcDbPoint
 10
11829.21801871768
 20
8288.155500302041
 30
0.0
  0
ENDBLK
  5
19006
330
18FF9
100
AcDbEntity
  8
0
 48
50.0
100
AcDbBlockEnd
  0
BLOCK
  5
19011
330
19007
100
AcDbEntity
  8
0
 48
50.0
100
AcDbBlockBegin
  2
*D20
 70
     1
 10
0.0
 20
0.0
 30
0.0
  3
*D20
  1

  0
LINE
  5
19CFA
330
19007
100
AcDbEntity
  8
寸法
 62
     0
 48
50.0
370
    -2
100
AcDbLine
 10
11120.71801871771
 20
9622.796516453426
 30
0.0
 11
11589.2180187177
 21
9497.262319799448
 31
0.0
  0
LINE
  5
19CFB
330
19007
100
AcDbEntity
  8
寸法
 62
     0
 48
50.0
370
    -2
100
AcDbLine
 10
11120.71801871771
 20
9172.796516453431
 30
0.0
 11
11589.2180187177
 21
9047.26231979945
 31
0.0
  0
LINE
  5
19CFC
330
19007
100
AcDbEntity
  8
寸法
 62
     0
 48
50.0
370
    -2
100
AcDbLine
 10
11529.2180187177
 20
9513.339271345314
 30
0.0
 11
11529.2180187177
 21
9063.339271345318
 31
0.0
  0
INSERT
  5
19CFD
330
19007
100
AcDbEntity
  8
寸法
 62
     0
 48
50.0
370
    -2
100
AcDbBlockReference
  2
_DOTSMALL
 10
11529.2180187177
 20
9513.339271345314
 30
0.0
 41
100.0
 42
100.0
 43
100.0
 50
90.0
  0
INSERT
  5
19CFE
330
19007
100
AcDbEntity
  8
寸法
 62
     0
 48
50.0
370
    -2
100
AcDbBlockReference
  2
_DOTSMALL
 10
11529.2180187177
 20
9063.339271345318
 30
0.0
 41
100.0
 42
100.0
 43
100.0
 50
270.0
  0
MTEXT
  5
19CFF
330
19007
100
AcDbEntity
  8
寸法
 62
     7
 48
50.0
100
AcDbMText
 10
11429.2180187177
 20
9288.339271345316
 30
0.0
 40
120.0
 41
0.0
 71
     5
 72
     1
  1
\A1;450
  7
STYLE1
 11
0.0000000000000001
 21
1.0
 31
0.0
 73
     1
 44
1.0
1001
ACAD
1000
MTEXTBEGIN
1070
    73
1070
     1
1070
    44
1040
1.0
1070
    74
1070
     0
1000
MTEXTEND
  0
POINT
  5
19D00
330
19007
100
AcDbEntity
  8
DEFPOINTS
 62
     0
 48
50.0
100
AcDbPoint
 10
11100.71801871771
 20
9628.15550030205
 30
0.0
  0
POINT
  5
19D01
330
19007
100
AcDbEntity
  8
DEFPOINTS
 62
     0
 48
50.0
100
AcDbPoint
 10
11100.71801871771
 20
9178.155500302052
 30
0.0
  0
POINT
  5
19D02
330
19007
100
AcDbEntity
  8
DEFPOINTS
 62
     0
 48
50.0
100
AcDbPoint
 10
11529.2180187177
 20
9063.339271345318
 30
0.0
  0
ENDBLK
  5
19012
330
19007
100
AcDbEntity
  8
0
 48
50.0
100
AcDbBlockEnd
  0
BLOCK
  5
1901F
330
19013
100
AcDbEntity
  8
0
 48
50.0
100
AcDbBlockBegin
  2
*D21
 70
     1
 10
0.0
 20
0.0
 30
0.0
  3
*D21
  1

  0
LINE
  5
19CEF
330
19013
100
AcDbEntity
  8
寸法
 62
     0
 48
50.0
370
    -2
100
AcDbLine
 10
11149.21801871771
 20
9658.155500302051
 30
0.0
 11
11889.21801871769
 21
9658.155500302051
 31
0.0
  0
LINE
  5
19CF0
330
19013
100
AcDbEntity
  8
寸法
 62
     0
 48
50.0
370
    -2
100
AcDbLine
 10
11149.21801871771
 20
9603.155500302053
 30
0.0
 11
11889.21801871769
 21
9603.155500302053
 31
0.0
  0
LINE
  5
19CF1
330
19013
100
AcDbEntity
  8
寸法
 62
     0
 48
50.0
370
    -2
100
AcDbLine
 10
11829.2180187177
 20
9603.155500302053
 30
0.0
 11
11829.2180187177
 21
9503.155500302053
 31
0.0
  0
LINE
  5
19CF2
330
19013
100
AcDbEntity
  8
寸法
 62
     0
 48
50.0
370
    -2
100
AcDbLine
 10
11829.2180187177
 20
9658.155500302051
 30
0.0
 11
11829.2180187177
 21
10075.12606305052
 31
0.0
  0
LINE
  5
19CF3
330
19013
100
AcDbEntity
  8
寸法
 62
     0
 48
50.0
370
    -2
100
AcDbLine
 10
11829.2180187177
 20
9603.155500302053
 30
0.0
 11
11829.2180187177
 21
9658.155500302051
 31
0.0
  0
INSERT
  5
19CF4
330
19013
100
AcDbEntity
  8
寸法
 62
     0
 48
50.0
370
    -2
100
AcDbBlockReference
  2
_DOTSMALL
 10
11829.2180187177
 20
9603.155500302053
 30
0.0
 41
100.0
 42
100.0
 43
100.0
 50
90.0
  0
INSERT
  5
19CF5
330
19013
100
AcDbEntity
  8
寸法
 62
     0
 48
50.0
370
    -2
100
AcDbBlockReference
  2
_DOTSMALL
 10
11829.2180187177
 20
9658.155500302051
 30
0.0
 41
100.0
 42
100.0
 43
100.0
 50
270.0
  0
MTEXT
  5
19CF6
330
19013
100
AcDbEntity
  8
寸法
 62
     7
 48
50.0
100
AcDbMText
 10
11729.21801871769
 20
9966.640781676289
 30
0.0
 40
120.0
 41
0.0
 71
     5
 72
     1
  1
\A1;55
  7
STYLE1
 11
0.0000000000000001
 21
1.0
 31
0.0
 73
     1
 44
1.0
1001
ACAD
1000
MTEXTBEGIN
1070
    73
1070
     1
1070
    44
1040
1.0
1070
    74
1070
     0
1000
MTEXTEND
  0
POINT
  5
19CF7
330
19013
100
AcDbEntity
  8
DEFPOINTS
 62
     0
 48
50.0
100
AcDbPoint
 10
11129.21801871771
 20
9658.155500302051
 30
0.0
  0
POINT
  5
19CF8
330
19013
100
AcDbEntity
  8
DEFPOINTS
 62
     0
 48
50.0
100
AcDbPoint
 10
11129.21801871771
 20
9603.155500302053
 30
0.0
  0
POINT
  5
19CF9
330
19013
100
AcDbEntity
  8
DEFPOINTS
 62
     0
 48
50.0
100
AcDbPoint
 10
11829.2180187177
 20
9603.155500302053
 30
0.0
  0
ENDBLK
  5
19020
330
19013
100
AcDbEntity
  8
0
 48
50.0
100
AcDbBlockEnd
  0
BLOCK
  5
19047
330
1903B
100
AcDbEntity
  8
0
 48
50.0
100
AcDbBlockBegin
  2
*D22
 70
     1
 10
0.0
 20
0.0
 30
0.0
  3
*D22
  1

  0
LINE
  5
195AC
330
1903B
100
AcDbEntity
  8
寸法
 62
     0
 48
50.0
370
    -2
100
AcDbLine
 10
6127.060617777133
 20
5425.884242048255
 30
0.0
 11
6127.060617777133
 21
5870.504501475523
 31
0.0
  0
LINE
  5
195AD
330
1903B
100
AcDbEntity
  8
寸法
 62
     0
 48
50.0
370
    -2
100
AcDbLine
 10
6077.060617777133
 20
5425.884242048258
 30
0.0
 11
6077.060617777133
 21
5870.504501475523
 31
0.0
  0
LINE
  5
195AE
330
1903B
100
AcDbEntity
  8
寸法
 62
     0
 48
50.0
370
    -2
100
AcDbLine
 10
6077.060617777133
 20
5810.504501475524
 30
0.0
 11
5977.060617777134
 21
5810.504501475524
 31
0.0
  0
LINE
  5
195AF
330
1903B
100
AcDbEntity
  8
寸法
 62
     0
 48
50.0
370
    -2
100
AcDbLine
 10
6127.060617777133
 20
5810.504501475524
 30
0.0
 11
6546.593143245857
 21
5810.504501475524
 31
0.0
  0
LINE
  5
195B0
330
1903B
100
AcDbEntity
  8
寸法
 62
     0
 48
50.0
370
    -2
100
AcDbLine
 10
6077.060617777133
 20
5810.504501475524
 30
0.0
 11
6127.060617777133
 21
5810.504501475524
 31
0.0
  0
INSERT
  5
195B1
330
1903B
100
AcDbEntity
  8
寸法
 62
     0
 48
50.0
370
    -2
100
AcDbBlockReference
  2
_DOTSMALL
 10
6077.060617777133
 20
5810.504501475524
 30
0.0
 41
100.0
 42
100.0
 43
100.0
  0
INSERT
  5
195B2
330
1903B
100
AcDbEntity
  8
寸法
 62
     0
 48
50.0
370
    -2
100
AcDbBlockReference
  2
_DOTSMALL
 10
6127.060617777133
 20
5810.504501475524
 30
0.0
 41
100.0
 42
100.0
 43
100.0
 50
180.0
  0
MTEXT
  5
195B3
330
1903B
100
AcDbEntity
  8
寸法
 62
     7
 48
50.0
100
AcDbMText
 10
6440.54589915137
 20
5910.504501475523
 30
0.0
 40
120.0
 41
0.0
 71
     5
 72
     1
  1
\A1;50
  7
STYLE1
 73
     1
 44
1.0
1001
ACAD
1000
MTEXTBEGIN
1070
    73
1070
     1
1070
    44
1040
1.0
1070
    74
1070
     0
1000
MTEXTEND
  0
POINT
  5
195B4
330
1903B
100
AcDbEntity
  8
DEFPOINTS
 62
     0
 48
50.0
100
AcDbPoint
 10
6127.060617777133
 20
5405.884242048254
 30
0.0
  0
POINT
  5
195B5
330
1903B
100
AcDbEntity
  8
DEFPOINTS
 62
     0
 48
50.0
100
AcDbPoint
 10
6077.060617777133
 20
5405.884242048258
 30
0.0
  0
POINT
  5
195B6
330
1903B
100
AcDbEntity
  8
DEFPOINTS
 62
     0
 48
50.0
100
AcDbPoint
 10
6077.060617777133
 20
5810.504501475524
 30
0.0
  0
ENDBLK
  5
19048
330
1903B
100
AcDbEntity
  8
0
 48
50.0
100
AcDbBlockEnd
  0
BLOCK
  5
19053
330
19049
100
AcDbEntity
  8
0
 48
50.0
100
AcDbBlockBegin
  2
*D23
 70
     1
 10
0.0
 20
0.0
 30
0.0
  3
*D23
  1

  0
LINE
  5
195A3
330
19049
100
AcDbEntity
  8
寸法
 62
     0
 48
50.0
370
    -2
100
AcDbLine
 10
6077.060617777133
 20
5425.884242048258
 30
0.0
 11
6077.060617777133
 21
5870.504501475523
 31
0.0
  0
LINE
  5
195A4
330
19049
100
AcDbEntity
  8
寸法
 62
     0
 48
50.0
370
    -2
100
AcDbLine
 10
4707.06061777714
 20
5425.884242048258
 30
0.0
 11
4707.06061777714
 21
5870.504501475523
 31
0.0
  0
LINE
  5
195A5
330
19049
100
AcDbEntity
  8
寸法
 62
     0
 48
50.0
370
    -2
100
AcDbLine
 10
6077.060617777133
 20
5810.504501475524
 30
0.0
 11
4707.06061777714
 21
5810.504501475524
 31
0.0
  0
INSERT
  5
195A6
330
19049
100
AcDbEntity
  8
寸法
 62
     0
 48
50.0
370
    -2
100
AcDbBlockReference
  2
_DOTSMALL
 10
6077.060617777133
 20
5810.504501475524
 30
0.0
 41
100.0
 42
100.0
 43
100.0
  0
INSERT
  5
195A7
330
19049
100
AcDbEntity
  8
寸法
 62
     0
 48
50.0
370
    -2
100
AcDbBlockReference
  2
_DOTSMALL
 10
4707.06061777714
 20
5810.504501475524
 30
0.0
 41
100.0
 42
100.0
 43
100.0
 50
180.0
  0
MTEXT
  5
195A8
330
19049
100
AcDbEntity
  8
寸法
 62
     7
 48
50.0
100
AcDbMText
 10
5392.060617777136
 20
5910.504501475523
 30
0.0
 40
120.0
 41
0.0
 71
     5
 72
     1
  1
\A1;柱外寸法1370
  7
STYLE1
 73
     1
 44
1.0
1001
ACAD
1000
MTEXTBEGIN
1070
    73
1070
     1
1070
    44
1040
1.0
1070
    74
1070
     0
1000
MTEXTEND
  0
POINT
  5
195A9
330
19049
100
AcDbEntity
  8
DEFPOINTS
 62
     0
 48
50.0
100
AcDbPoint
 10
6077.060617777133
 20
5405.884242048258
 30
0.0
  0
POINT
  5
195AA
330
19049
100
AcDbEntity
  8
DEFPOINTS
 62
     0
 48
50.0
100
AcDbPoint
 10
4707.06061777714
 20
5405.884242048258
 30
0.0
  0
POINT
  5
195AB
330
19049
100
AcDbEntity
  8
DEFPOINTS
 62
     0
 48
50.0
100
AcDbPoint
 10
4707.06061777714
 20
5810.504501475524
 30
0.0
  0
ENDBLK
  5
19054
330
19049
100
AcDbEntity
  8
0
 48
50.0
100
AcDbBlockEnd
  0
BLOCK
  5
19061
330
19055
100
AcDbEntity
  8
0
 48
50.0
100
AcDbBlockBegin
  2
*D24
 70
     1
 10
0.0
 20
0.0
 30
0.0
  3
*D24
  1

  0
LINE
  5
19598
330
19055
100
AcDbEntity
  8
寸法
 62
     0
 48
50.0
370
    -2
100
AcDbLine
 10
4707.06061777714
 20
5425.884242048258
 30
0.0
 11
4707.06061777714
 21
5870.504501475523
 31
0.0
  0
LINE
  5
19599
330
19055
100
AcDbEntity
  8
寸法
 62
     0
 48
50.0
370
    -2
100
AcDbLine
 10
4657.06061777714
 20
5425.884242048258
 30
0.0
 11
4657.06061777714
 21
5870.504501475523
 31
0.0
  0
LINE
  5
1959A
330
19055
100
AcDbEntity
  8
寸法
 62
     0
 48
50.0
370
    -2
100
AcDbLine
 10
4707.06061777714
 20
5810.504501475524
 30
0.0
 11
4807.060617777141
 21
5810.504501475524
 31
0.0
  0
LINE
  5
1959B
330
19055
100
AcDbEntity
  8
寸法
 62
     0
 48
50.0
370
    -2
100
AcDbLine
 10
4657.06061777714
 20
5810.504501475524
 30
0.0
 11
4237.528092308405
 21
5810.504501475524
 31
0.0
  0
LINE
  5
1959C
330
19055
100
AcDbEntity
  8
寸法
 62
     0
 48
50.0
370
    -2
100
AcDbLine
 10
4707.06061777714
 20
5810.504501475524
 30
0.0
 11
4657.06061777714
 21
5810.504501475524
 31
0.0
  0
INSERT
  5
1959D
330
19055
100
AcDbEntity
  8
寸法
 62
     0
 48
50.0
370
    -2
100
AcDbBlockReference
  2
_DOTSMALL
 10
4707.06061777714
 20
5810.504501475524
 30
0.0
 41
100.0
 42
100.0
 43
100.0
 50
180.0
  0
INSERT
  5
1959E
330
19055
100
AcDbEntity
  8
寸法
 62
     0
 48
50.0
370
    -2
100
AcDbBlockReference
  2
_DOTSMALL
 10
4657.06061777714
 20
5810.504501475524
 30
0.0
 41
100.0
 42
100.0
 43
100.0
  0
MTEXT
  5
1959F
330
19055
100
AcDbEntity
  8
寸法
 62
     7
 48
50.0
100
AcDbMText
 10
4343.575336402893
 20
5910.504501475523
 30
0.0
 40
120.0
 41
0.0
 71
     5
 72
     1
  1
\A1;50
  7
STYLE1
 73
     1
 44
1.0
1001
ACAD
1000
MTEXTBEGIN
1070
    73
1070
     1
1070
    44
1040
1.0
1070
    74
1070
     0
1000
MTEXTEND
  0
POINT
  5
195A0
330
19055
100
AcDbEntity
  8
DEFPOINTS
 62
     0
 48
50.0
100
AcDbPoint
 10
4707.06061777714
 20
5405.884242048258
 30
0.0
  0
POINT
  5
195A1
330
19055
100
AcDbEntity
  8
DEFPOINTS
 62
     0
 48
50.0
100
AcDbPoint
 10
4657.06061777714
 20
5405.884242048258
 30
0.0
  0
POINT
  5
195A2
330
19055
100
AcDbEntity
  8
DEFPOINTS
 62
     0
 48
50.0
100
AcDbPoint
 10
4657.06061777714
 20
5810.504501475524
 30
0.0
  0
ENDBLK
  5
19062
330
19055
100
AcDbEntity
  8
0
 48
50.0
100
AcDbBlockEnd
  0
BLOCK
  5
1906D
330
19063
100
AcDbEntity
  8
0
 48
50.0
100
AcDbBlockBegin
  2
*D25
 70
     1
 10
0.0
 20
0.0
 30
0.0
  3
*D25
  1

  0
LINE
  5
1958F
330
19063
100
AcDbEntity
  8
寸法
 62
     0
 48
50.0
370
    -2
100
AcDbLine
 10
4657.06061777714
 20
5425.884242048258
 30
0.0
 11
4657.06061777714
 21
6113.670613382542
 31
0.0
  0
LINE
  5
19590
330
19063
100
AcDbEntity
  8
寸法
 62
     0
 48
50.0
370
    -2
100
AcDbLine
 10
6127.060617777133
 20
5425.884242048255
 30
0.0
 11
6127.060617777133
 21
6113.670613382542
 31
0.0
  0
LINE
  5
19591
330
19063
100
AcDbEntity
  8
寸法
 62
     0
 48
50.0
370
    -2
100
AcDbLine
 10
4657.06061777714
 20
6053.670613382543
 30
0.0
 11
6127.060617777133
 21
6053.670613382543
 31
0.0
  0
INSERT
  5
19592
330
19063
100
AcDbEntity
  8
寸法
 62
     0
 48
50.0
370
    -2
100
AcDbBlockReference
  2
_DOTSMALL
 10
4657.06061777714
 20
6053.670613382543
 30
0.0
 41
100.0
 42
100.0
 43
100.0
 50
180.0
  0
INSERT
  5
19593
330
19063
100
AcDbEntity
  8
寸法
 62
     0
 48
50.0
370
    -2
100
AcDbBlockReference
  2
_DOTSMALL
 10
6127.060617777133
 20
6053.670613382543
 30
0.0
 41
100.0
 42
100.0
 43
100.0
  0
MTEXT
  5
19594
330
19063
100
AcDbEntity
  8
寸法
 62
     7
 48
50.0
100
AcDbMText
 10
5369.694831575813
 20
6153.670613382542
 30
0.0
 40
120.0
 41
0.0
 71
     5
 72
     1
  1
\A1;1470
  7
STYLE1
 73
     1
 44
1.0
1001
ACAD
1000
MTEXTBEGIN
1070
    73
1070
     1
1070
    44
1040
1.0
1070
    74
1070
     0
1000
MTEXTEND
  0
POINT
  5
19595
330
19063
100
AcDbEntity
  8
DEFPOINTS
 62
     0
 48
50.0
100
AcDbPoint
 10
4657.06061777714
 20
5405.884242048258
 30
0.0
  0
POINT
  5
19596
330
19063
100
AcDbEntity
  8
DEFPOINTS
 62
     0
 48
50.0
100
AcDbPoint
 10
6127.060617777133
 20
5405.884242048254
 30
0.0
  0
POINT
  5
19597
330
19063
100
AcDbEntity
  8
DEFPOINTS
 62
     0
 48
50.0
100
AcDbPoint
 10
6127.060617777133
 20
6053.670613382543
 30
0.0
  0
ENDBLK
  5
1906E
330
19063
100
AcDbEntity
  8
0
 48
50.0
100
AcDbBlockEnd
  0
BLOCK
  5
19079
330
1906F
100
AcDbEntity
  8
0
 48
50.0
100
AcDbBlockBegin
  2
*D26
 70
     1
 10
0.0
 20
0.0
 30
0.0
  3
*D26
  1

  0
LINE
  5
19586
330
1906F
100
AcDbEntity
  8
寸法
 62
     0
 48
50.0
370
    -2
100
AcDbLine
 10
4859.560617777137
 20
2660.884242048253
 30
0.0
 11
4859.560617777137
 21
2333.601096737388
 31
0.0
  0
LINE
  5
19587
330
1906F
100
AcDbEntity
  8
寸法
 62
     0
 48
50.0
370
    -2
100
AcDbLine
 10
4609.560617777137
 20
2660.884242048253
 30
0.0
 11
4609.560617777137
 21
2333.601096737388
 31
0.0
  0
LINE
  5
19588
330
1906F
100
AcDbEntity
  8
寸法
 62
     0
 48
50.0
370
    -2
100
AcDbLine
 10
4859.560617777137
 20
2393.601096737388
 30
0.0
 11
4609.560617777137
 21
2393.601096737388
 31
0.0
  0
INSERT
  5
19589
330
1906F
100
AcDbEntity
  8
寸法
 62
     0
 48
50.0
370
    -2
100
AcDbBlockReference
  2
_DOTSMALL
 10
4859.560617777137
 20
2393.601096737388
 30
0.0
 41
100.0
 42
100.0
 43
100.0
  0
INSERT
  5
1958A
330
1906F
100
AcDbEntity
  8
寸法
 62
     0
 48
50.0
370
    -2
100
AcDbBlockReference
  2
_DOTSMALL
 10
4609.560617777137
 20
2393.601096737388
 30
0.0
 41
100.0
 42
100.0
 43
100.0
 50
180.0
  0
MTEXT
  5
1958B
330
1906F
100
AcDbEntity
  8
寸法
 62
     7
 48
50.0
100
AcDbMText
 10
4734.560617777137
 20
2493.61290776101
 30
0.0
 40
120.0
 41
0.0
 71
     5
 72
     1
  1
\A1;250
  7
STYLE1
 73
     1
 44
1.0
1001
ACAD
1000
MTEXTBEGIN
1070
    73
1070
     1
1070
    44
1040
1.0
1070
    74
1070
     0
1000
MTEXTEND
  0
POINT
  5
1958C
330
1906F
100
AcDbEntity
  8
DEFPOINTS
 62
     0
 48
50.0
100
AcDbPoint
 10
4859.560617777137
 20
2680.884242048252
 30
0.0
  0
POINT
  5
1958D
330
1906F
100
AcDbEntity
  8
DEFPOINTS
 62
     0
 48
50.0
100
AcDbPoint
 10
4609.560617777137
 20
2680.884242048252
 30
0.0
  0
POINT
  5
1958E
330
1906F
100
AcDbEntity
  8
DEFPOINTS
 62
     0
 48
50.0
100
AcDbPoint
 10
4609.560617777137
 20
2393.601096737388
 30
0.0
  0
ENDBLK
  5
1907A
330
1906F
100
AcDbEntity
  8
0
 48
50.0
100
AcDbBlockEnd
  0
BLOCK
  5
19085
330
1907B
100
AcDbEntity
  8
0
 48
50.0
100
AcDbBlockBegin
  2
*D27
 70
     1
 10
0.0
 20
0.0
 30
0.0
  3
*D27
  1

  0
LINE
  5
1957D
330
1907B
100
AcDbEntity
  8
寸法
 62
     0
 48
50.0
370
    -2
100
AcDbLine
 10
4589.560617777137
 20
2680.884242048252
 30
0.0
 11
4420.045635064191
 21
2680.884242048252
 31
0.0
  0
LINE
  5
1957E
330
1907B
100
AcDbEntity
  8
寸法
 62
     0
 48
50.0
370
    -2
100
AcDbLine
 10
4589.560617777133
 20
2930.884242048252
 30
0.0
 11
4420.045635064191
 21
2930.884242048252
 31
0.0
  0
LINE
  5
1957F
330
1907B
100
AcDbEntity
  8
寸法
 62
     0
 48
50.0
370
    -2
100
AcDbLine
 10
4480.045635064191
 20
2680.884242048252
 30
0.0
 11
4480.045635064191
 21
2930.884242048252
 31
0.0
  0
INSERT
  5
19580
330
1907B
100
AcDbEntity
  8
寸法
 62
     0
 48
50.0
370
    -2
100
AcDbBlockReference
  2
_DOTSMALL
 10
4480.045635064191
 20
2680.884242048252
 30
0.0
 41
100.0
 42
100.0
 43
100.0
 50
270.0
  0
INSERT
  5
19581
330
1907B
100
AcDbEntity
  8
寸法
 62
     0
 48
50.0
370
    -2
100
AcDbBlockReference
  2
_DOTSMALL
 10
4480.045635064191
 20
2930.884242048252
 30
0.0
 41
100.0
 42
100.0
 43
100.0
 50
90.0
  0
MTEXT
  5
19582
330
1907B
100
AcDbEntity
  8
寸法
 62
     7
 48
50.0
100
AcDbMText
 10
4380.033824040569
 20
2805.884242048253
 30
0.0
 40
120.0
 41
0.0
 71
     5
 72
     1
  1
\A1;250
  7
STYLE1
 11
0.0000000000000001
 21
1.0
 31
0.0
 73
     1
 44
1.0
1001
ACAD
1000
MTEXTBEGIN
1070
    73
1070
     1
1070
    44
1040
1.0
1070
    74
1070
     0
1000
MTEXTEND
  0
POINT
  5
19583
330
1907B
100
AcDbEntity
  8
DEFPOINTS
 62
     0
 48
50.0
100
AcDbPoint
 10
4609.560617777137
 20
2680.884242048252
 30
0.0
  0
POINT
  5
19584
330
1907B
100
AcDbEntity
  8
DEFPOINTS
 62
     0
 48
50.0
100
AcDbPoint
 10
4609.560617777133
 20
2930.884242048252
 30
0.0
  0
POINT
  5
19585
330
1907B
100
AcDbEntity
  8
DEFPOINTS
 62
     0
 48
50.0
100
AcDbPoint
 10
4480.045635064191
 20
2930.884242048252
 30
0.0
  0
ENDBLK
  5
19086
330
1907B
100
AcDbEntity
  8
0
 48
50.0
100
AcDbBlockEnd
  0
BLOCK
  5
19091
330
19087
100
AcDbEntity
  8
0
 48
50.0
100
AcDbBlockBegin
  2
*D28
 70
     1
 10
0.0
 20
0.0
 30
0.0
  3
*D28
  1

  0
LINE
  5
19574
330
19087
100
AcDbEntity
  8
寸法
 62
     0
 48
50.0
370
    -2
100
AcDbLine
 10
11149.21801871769
 20
3030.884242048252
 30
0.0
 11
11708.90424248721
 21
3030.884242048252
 31
0.0
  0
LINE
  5
19575
330
19087
100
AcDbEntity
  8
寸法
 62
     0
 48
50.0
370
    -2
100
AcDbLine
 10
11229.21801871768
 20
5350.884242048254
 30
0.0
 11
11708.90424248722
 21
5350.884242048254
 31
0.0
  0
LINE
  5
19576
330
19087
100
AcDbEntity
  8
寸法
 62
     0
 48
50.0
370
    -2
100
AcDbLine
 10
11648.90424248721
 20
3030.884242048252
 30
0.0
 11
11648.90424248722
 21
5350.884242048254
 31
0.0
  0
INSERT
  5
19577
330
19087
100
AcDbEntity
  8
寸法
 62
     0
 48
50.0
370
    -2
100
AcDbBlockReference
  2
_DOTSMALL
 10
11648.90424248721
 20
3030.884242048252
 30
0.0
 41
100.0
 42
100.0
 43
100.0
 50
270.0
  0
INSERT
  5
19578
330
19087
100
AcDbEntity
  8
寸法
 62
     0
 48
50.0
370
    -2
100
AcDbBlockReference
  2
_DOTSMALL
 10
11648.90424248722
 20
5350.884242048254
 30
0.0
 41
100.0
 42
100.0
 43
100.0
 50
90.0
  0
MTEXT
  5
19579
330
19087
100
AcDbEntity
  8
寸法
 62
     7
 48
50.0
100
AcDbMText
 10
11548.89243146359
 20
4186.216972871582
 30
0.0
 40
120.0
 41
0.0
 71
     5
 72
     1
  1
\A1;2320
  7
STYLE1
 11
0.0000000000000001
 21
1.0
 31
0.0
 73
     1
 44
1.0
1001
ACAD
1000
MTEXTBEGIN
1070
    73
1070
     1
1070
    44
1040
1.0
1070
    74
1070
     0
1000
MTEXTEND
  0
POINT
  5
1957A
330
19087
100
AcDbEntity
  8
DEFPOINTS
 62
     0
 48
50.0
100
AcDbPoint
 10
11129.21801871769
 20
3030.884242048252
 30
0.0
  0
POINT
  5
1957B
330
19087
100
AcDbEntity
  8
DEFPOINTS
 62
     0
 48
50.0
100
AcDbPoint
 10
11209.21801871768
 20
5350.884242048254
 30
0.0
  0
POINT
  5
1957C
330
19087
100
AcDbEntity
  8
DEFPOINTS
 62
     0
 48
50.0
100
AcDbPoint
 10
11648.90424248722
 20
5350.884242048254
 30
0.0
  0
ENDBLK
  5
19092
330
19087
100
AcDbEntity
  8
0
 48
50.0
100
AcDbBlockEnd
  0
BLOCK
  5
1951B
330
19511
100
AcDbEntity
  8
0
 48
50.0
100
AcDbBlockBegin
  2
*D29
 70
     1
 10
0.0
 20
0.0
 30
0.0
  3
*D29
  1

  0
LINE
  5
1956B
330
19511
100
AcDbEntity
  8
寸法
 62
     0
 48
50.0
370
    -2
100
AcDbLine
 10
8624.218018717696
 20
2660.884242048254
 30
0.0
 11
8624.218018717696
 21
2334.793857809041
 31
0.0
  0
LINE
  5
1956C
330
19511
100
AcDbEntity
  8
寸法
 62
     0
 48
50.0
370
    -2
100
AcDbLine
 10
8374.218018717696
 20
2660.884242048252
 30
0.0
 11
8374.218018717696
 21
2334.793857809041
 31
0.0
  0
LINE
  5
1956D
330
19511
100
AcDbEntity
  8
寸法
 62
     0
 48
50.0
370
    -2
100
AcDbLine
 10
8624.218018717696
 20
2394.79385780904
 30
0.0
 11
8374.218018717696
 21
2394.79385780904
 31
0.0
  0
INSERT
  5
1956E
330
19511
100
AcDbEntity
  8
寸法
 62
     0
 48
50.0
370
    -2
100
AcDbBlockReference
  2
_DOTSMALL
 10
8624.218018717696
 20
2394.79385780904
 30
0.0
 41
100.0
 42
100.0
 43
100.0
  0
INSERT
  5
1956F
330
19511
100
AcDbEntity
  8
寸法
 62
     0
 48
50.0
370
    -2
100
AcDbBlockReference
  2
_DOTSMALL
 10
8374.218018717696
 20
2394.79385780904
 30
0.0
 41
100.0
 42
100.0
 43
100.0
 50
180.0
  0
MTEXT
  5
19570
330
19511
100
AcDbEntity
  8
寸法
 62
     7
 48
50.0
100
AcDbMText
 10
8499.218018717696
 20
2494.805668832662
 30
0.0
 40
120.0
 41
0.0
 71
     5
 72
     1
  1
\A1;250
  7
STYLE1
 73
     1
 44
1.0
1001
ACAD
1000
MTEXTBEGIN
1070
    73
1070
     1
1070
    44
1040
1.0
1070
    74
1070
     0
1000
MTEXTEND
  0
POINT
  5
19571
330
19511
100
AcDbEntity
  8
DEFPOINTS
 62
     0
 48
50.0
100
AcDbPoint
 10
8624.218018717696
 20
2680.884242048254
 30
0.0
  0
POINT
  5
19572
330
19511
100
AcDbEntity
  8
DEFPOINTS
 62
     0
 48
50.0
100
AcDbPoint
 10
8374.218018717696
 20
2680.884242048252
 30
0.0
  0
POINT
  5
19573
330
19511
100
AcDbEntity
  8
DEFPOINTS
 62
     0
 48
50.0
100
AcDbPoint
 10
8374.218018717696
 20
2394.79385780904
 30
0.0
  0
ENDBLK
  5
1951C
330
19511
100
AcDbEntity
  8
0
 48
50.0
100
AcDbBlockEnd
  0
BLOCK
  5
19845
330
1983B
100
AcDbEntity
  8
0
 48
50.0
100
AcDbBlockBegin
  2
*D30
 70
     1
 10
0.0
 20
0.0
 30
0.0
  3
*D30
  1

  0
LINE
  5
19CE6
330
1983B
100
AcDbEntity
  8
寸法
 62
     0
 48
50.0
370
    -2
100
AcDbLine
 10
8986.218018717675
 20
8191.155500301908
 30
0.0
 11
8986.218018717675
 21
7522.367423696356
 31
0.0
  0
LINE
  5
19CE7
330
1983B
100
AcDbEntity
  8
寸法
 62
     0
 48
50.0
370
    -2
100
AcDbLine
 10
10252.21801871767
 20
8191.155500301908
 30
0.0
 11
10252.21801871767
 21
7522.367423696356
 31
0.0
  0
LINE
  5
19CE8
330
1983B
100
AcDbEntity
  8
寸法
 62
     0
 48
50.0
370
    -2
100
AcDbLine
 10
9006.218018717675
 20
7562.367423696357
 30
0.0
 11
10232.21801871767
 21
7562.367423696357
 31
0.0
  0
INSERT
  5
19CE9
330
1983B
100
AcDbEntity
  8
寸法
 62
     0
 48
50.0
370
    -2
100
AcDbBlockReference
  2
_DOT
 10
8986.218018717675
 20
7562.367423696357
 30
0.0
 41
20.0
 42
20.0
 43
20.0
 50
180.0
  0
INSERT
  5
19CEA
330
1983B
100
AcDbEntity
  8
寸法
 62
     0
 48
50.0
370
    -2
100
AcDbBlockReference
  2
_DOT
 10
10252.21801871767
 20
7562.367423696357
 30
0.0
 41
20.0
 42
20.0
 43
20.0
  0
MTEXT
  5
19CEB
330
1983B
100
AcDbEntity
  8
寸法
 62
     7
 48
50.0
100
AcDbMText
 10
9638.349169780632
 20
7754.379234719978
 30
0.0
 40
120.0
 41
0.0
 71
     5
 72
     1
  1
\A1;有効開口部間口\P1266
  7
STYLE1
 73
     1
 44
1.0
1001
ACAD
1000
MTEXTBEGIN
1070
    73
1070
     1
1070
    44
1040
1.0
1070
    74
1070
     0
1000
MTEXTEND
  0
POINT
  5
19CEC
330
1983B
100
AcDbEntity
  8
DEFPOINTS
 62
     0
 48
50.0
100
AcDbPoint
 10
8986.218018717675
 20
8211.155500301909
 30
0.0
  0
POINT
  5
19CED
330
1983B
100
AcDbEntity
  8
DEFPOINTS
 62
     0
 48
50.0
100
AcDbPoint
 10
10252.21801871767
 20
8211.155500301909
 30
0.0
  0
POINT
  5
19CEE
330
1983B
100
AcDbEntity
  8
DEFPOINTS
 62
     0
 48
50.0
100
AcDbPoint
 10
10252.21801871767
 20
7562.367423696357
 30
0.0
  0
ENDBLK
  5
19846
330
1983B
100
AcDbEntity
  8
0
 48
50.0
100
AcDbBlockEnd
  0
BLOCK
  5
19B7C
330
19B72
100
AcDbEntity
  8
0
 48
50.0
100
AcDbBlockBegin
  2
*D31
 70
     1
 10
0.0
 20
0.0
 30
0.0
  3
*D31
  1

  0
LINE
  5
19CDD
330
19B72
100
AcDbEntity
  8
寸法
 62
     0
 48
50.0
370
    -2
100
AcDbLine
 10
8947.218018717675
 20
8191.155500301908
 30
0.0
 11
8947.218018717675
 21
7231.025784874143
 31
0.0
  0
LINE
  5
19CDE
330
19B72
100
AcDbEntity
  8
寸法
 62
     0
 48
50.0
370
    -2
100
AcDbLine
 10
11101.21801871767
 20
8191.155500301908
 30
0.0
 11
11101.21801871767
 21
7231.025784874143
 31
0.0
  0
LINE
  5
19CDF
330
19B72
100
AcDbEntity
  8
寸法
 62
     0
 48
50.0
370
    -2
100
AcDbLine
 10
8947.218018717675
 20
7291.025784874142
 30
0.0
 11
11101.21801871767
 21
7291.025784874142
 31
0.0
  0
INSERT
  5
19CE0
330
19B72
100
AcDbEntity
  8
寸法
 62
     0
 48
50.0
370
    -2
100
AcDbBlockReference
  2
_DOTSMALL
 10
8947.218018717675
 20
7291.025784874142
 30
0.0
 41
100.0
 42
100.0
 43
100.0
 50
180.0
  0
INSERT
  5
19CE1
330
19B72
100
AcDbEntity
  8
寸法
 62
     0
 48
50.0
370
    -2
100
AcDbBlockReference
  2
_DOTSMALL
 10
11101.21801871767
 20
7291.025784874142
 30
0.0
 41
100.0
 42
100.0
 43
100.0
  0
MTEXT
  5
19CE2
330
19B72
100
AcDbEntity
  8
寸法
 62
     7
 48
50.0
100
AcDbMText
 10
10046.35077546498
 20
7391.037595897763
 30
0.0
 40
120.0
 41
0.0
 71
     5
 72
     1
  1
\A1;2154
  7
STYLE1
 73
     1
 44
1.0
1001
ACAD
1000
MTEXTBEGIN
1070
    73
1070
     1
1070
    44
1040
1.0
1070
    74
1070
     0
1000
MTEXTEND
  0
POINT
  5
19CE3
330
19B72
100
AcDbEntity
  8
DEFPOINTS
 62
     0
 48
50.0
100
AcDbPoint
 10
8947.218018717675
 20
8211.155500301909
 30
0.0
  0
POINT
  5
19CE4
330
19B72
100
AcDbEntity
  8
DEFPOINTS
 62
     0
 48
50.0
100
AcDbPoint
 10
11101.21801871767
 20
8211.155500301909
 30
0.0
  0
POINT
  5
19CE5
330
19B72
100
AcDbEntity
  8
DEFPOINTS
 62
     0
 48
50.0
100
AcDbPoint
 10
11101.21801871767
 20
7291.025784874142
 30
0.0
  0
ENDBLK
  5
19B7D
330
19B72
100
AcDbEntity
  8
0
 48
50.0
100
AcDbBlockEnd
  0
BLOCK
  5
19B8A
330
19B7E
100
AcDbEntity
  8
0
 48
50.0
100
AcDbBlockBegin
  2
*D32
 70
     1
 10
0.0
 20
0.0
 30
0.0
  3
*D32
  1

  0
LINE
  5
19CD2
330
19B7E
100
AcDbEntity
  8
寸法
 62
     0
 48
50.0
370
    -2
100
AcDbLine
 10
8479.2180187177
 20
8288.155500301876
 30
0.0
 11
8164.606773090984
 21
8288.155500301876
 31
0.0
  0
LINE
  5
19CD3
330
19B7E
100
AcDbEntity
  8
寸法
 62
     0
 48
50.0
370
    -2
100
AcDbLine
 10
8927.218018717674
 20
8213.155500301876
 30
0.0
 11
8164.606773090984
 21
8213.155500301876
 31
0.0
  0
LINE
  5
19CD4
330
19B7E
100
AcDbEntity
  8
寸法
 62
     0
 48
50.0
370
    -2
100
AcDbLine
 10
8204.606773090985
 20
8308.155500301877
 30
0.0
 11
8204.606773090985
 21
8328.155500301877
 31
0.0
  0
LINE
  5
19CD5
330
19B7E
100
AcDbEntity
  8
寸法
 62
     0
 48
50.0
370
    -2
100
AcDbLine
 10
8204.606773090985
 20
8193.155500301877
 30
0.0
 11
8204.606773090985
 21
7972.184937553397
 31
0.0
  0
LINE
  5
19CD6
330
19B7E
100
AcDbEntity
  8
寸法
 62
     0
 48
50.0
370
    -2
100
AcDbLine
 10
8204.606773090985
 20
8288.155500301876
 30
0.0
 11
8204.606773090985
 21
8213.155500301876
 31
0.0
  0
INSERT
  5
19CD7
330
19B7E
100
AcDbEntity
  8
寸法
 62
     0
 48
50.0
370
    -2
100
AcDbBlockReference
  2
_DOT
 10
8204.606773090985
 20
8288.155500301876
 30
0.0
 41
20.0
 42
20.0
 43
20.0
 50
270.0
  0
INSERT
  5
19CD8
330
19B7E
100
AcDbEntity
  8
寸法
 62
     0
 48
50.0
370
    -2
100
AcDbBlockReference
  2
_DOT
 10
8204.606773090985
 20
8213.155500301876
 30
0.0
 41
20.0
 42
20.0
 43
20.0
 50
90.0
  0
MTEXT
  5
19CD9
330
19B7E
100
AcDbEntity
  8
寸法
 62
     7
 48
50.0
100
AcDbMText
 10
8112.606773090982
 20
8072.670218927637
 30
0.0
 40
120.0
 41
0.0
 71
     5
 72
     1
  1
\A1;75
  7
STYLE1
 11
0.0000000000000001
 21
1.0
 31
0.0
 73
     1
 44
1.0
1001
ACAD
1000
MTEXTBEGIN
1070
    73
1070
     1
1070
    44
1040
1.0
1070
    74
1070
     0
1000
MTEXTEND
  0
POINT
  5
19CDA
330
19B7E
100
AcDbEntity
  8
DEFPOINTS
 62
     0
 48
50.0
100
AcDbPoint
 10
8499.2180187177
 20
8288.155500301876
 30
0.0
  0
POINT
  5
19CDB
330
19B7E
100
AcDbEntity
  8
DEFPOINTS
 62
     0
 48
50.0
100
AcDbPoint
 10
8947.218018717675
 20
8213.155500301876
 30
0.0
  0
POINT
  5
19CDC
330
19B7E
100
AcDbEntity
  8
DEFPOINTS
 62
     0
 48
50.0
100
AcDbPoint
 10
8204.606773090985
 20
8213.155500301876
 30
0.0
  0
ENDBLK
  5
19B8B
330
19B7E
100
AcDbEntity
  8
0
 48
50.0
100
AcDbBlockEnd
  0
BLOCK
  5
19BD6
330
19BCC
100
AcDbEntity
  8
0
 48
50.0
100
AcDbBlockBegin
  2
*D33
 70
     1
 10
0.0
 20
0.0
 30
0.0
  3
*D33
  1

  0
LINE
  5
19CC9
330
19BCC
100
AcDbEntity
  8
寸法
 62
     0
 48
50.0
370
    -2
100
AcDbLine
 10
8499.2180187177
 20
8268.155500301878
 30
0.0
 11
8499.2180187177
 21
6971.767983239129
 31
0.0
  0
LINE
  5
19CCA
330
19BCC
100
AcDbEntity
  8
寸法
 62
     0
 48
50.0
370
    -2
100
AcDbLine
 10
11129.21801871768
 20
8268.155500302041
 30
0.0
 11
11129.21801871768
 21
6971.767983239129
 31
0.0
  0
LINE
  5
19CCB
330
19BCC
100
AcDbEntity
  8
寸法
 62
     0
 48
50.0
370
    -2
100
AcDbLine
 10
8499.2180187177
 20
7031.767983239129
 30
0.0
 11
11129.21801871768
 21
7031.767983239129
 31
0.0
  0
INSERT
  5
19CCC
330
19BCC
100
AcDbEntity
  8
寸法
 62
     0
 48
50.0
370
    -2
100
AcDbBlockReference
  2
_DOTSMALL
 10
8499.2180187177
 20
7031.767983239129
 30
0.0
 41
100.0
 42
100.0
 43
100.0
 50
180.0
  0
INSERT
  5
19CCD
330
19BCC
100
AcDbEntity
  8
寸法
 62
     0
 48
50.0
370
    -2
100
AcDbBlockReference
  2
_DOTSMALL
 10
11129.21801871768
 20
7031.767983239129
 30
0.0
 41
100.0
 42
100.0
 43
100.0
  0
MTEXT
  5
19CCE
330
19BCC
100
AcDbEntity
  8
寸法
 62
     7
 48
50.0
100
AcDbMText
 10
9832.01980735385
 20
7131.779794262751
 30
0.0
 40
120.0
 41
0.0
 71
     5
 72
     1
  1
\A1;2630
  7
STYLE1
 73
     1
 44
1.0
1001
ACAD
1000
MTEXTBEGIN
1070
    73
1070
     1
1070
    44
1040
1.0
1070
    74
1070
     0
1000
MTEXTEND
  0
POINT
  5
19CCF
330
19BCC
100
AcDbEntity
  8
DEFPOINTS
 62
     0
 48
50.0
100
AcDbPoint
 10
8499.2180187177
 20
8288.155500301876
 30
0.0
  0
POINT
  5
19CD0
330
19BCC
100
AcDbEntity
  8
DEFPOINTS
 62
     0
 48
50.0
100
AcDbPoint
 10
11129.21801871768
 20
8288.155500302041
 30
0.0
  0
POINT
  5
19CD1
330
19BCC
100
AcDbEntity
  8
DEFPOINTS
 62
     0
 48
50.0
100
AcDbPoint
 10
11129.21801871768
 20
7031.767983239129
 30
0.0
  0
ENDBLK
  5
19BD7
330
19BCC
100
AcDbEntity
  8
0
 48
50.0
100
AcDbBlockEnd
  0
ENDSEC
  0
SECTION
  2
ENTITIES
  0
LINE
  5
10B57
330
747D
100
AcDbEntity
  8
補助
  6
PHANTOM
 62
   230
 48
50.0
100
AcDbLine
 10
139.9999999999995
 20
11409.6
 30
0.0
 11
16307.2
 21
11409.6
 31
0.0
  0
LINE
  5
10B59
330
747D
100
AcDbEntity
  8
仕様書枠
  6
Continuous
 48
50.0
100
AcDbLine
 10
13107.2
 20
1200.0
 30
0.0
 11
13107.2
 21
-0.0000000000000729
 31
0.0
  0
LINE
  5
10B5C
330
747D
100
AcDbEntity
  8
仕様書枠
 48
50.0
100
AcDbLine
 10
16307.2
 20
1200.0
 30
0.0
 11
16307.2
 21
-0.0000000000000909
 31
0.0
  0
LINE
  5
10B5D
330
747D
100
AcDbEntity
  8
仕様書枠
 48
50.0
100
AcDbLine
 10
140.0
 20
0.0
 30
0.0
 11
16307.2
 21
-0.0000000000000909
 31
0.0
  0
LINE
  5
10B5E
330
747D
100
AcDbEntity
  8
補助
  6
PHANTOM
 62
   230
 48
50.0
100
AcDbLine
 10
16307.2
 20
11409.6
 30
0.0
 11
16307.2
 21
1200.0
 31
0.0
  0
LINE
  5
10B6C
330
747D
100
AcDbEntity
  8
仕様書枠
 48
50.0
100
AcDbLine
 10
13107.2
 20
1200.0
 30
0.0
 11
16307.2
 21
1200.0
 31
0.0
  0
LINE
  5
10B6D
330
747D
100
AcDbEntity
  8
補助
  6
PHANTOM
 62
   230
 48
50.0
100
AcDbLine
 10
13107.2
 20
11409.6
 30
0.0
 11
13107.2
 21
4800.0
 31
0.0
  0
LINE
  5
10B6F
330
747D
100
AcDbEntity
  8
補助
  6
PHANTOM
 62
   230
 48
50.0
100
AcDbLine
 10
13107.2
 20
4800.0
 30
0.0
 11
16307.2
 21
4800.0
 31
0.0
  0
LINE
  5
10B72
330
747D
100
AcDbEntity
  8
文字
 62
     7
 48
50.0
100
AcDbLine
 10
13187.2
 20
400.0
 30
0.0
 11
16227.2
 21
400.0
 31
0.0
  0
TEXT
  5
10B73
330
747D
100
AcDbEntity
  8
文字
 62
     7
 48
50.0
100
AcDbText
 10
13162.9790565769
 20
895.0906074299405
 30
0.0
 40
200.0
  1
外 形 図
  7
STYLE2
100
AcDbText
  0
TEXT
  5
10B74
330
747D
100
AcDbEntity
  8
文字
 62
     7
 48
50.0
100
AcDbText
 10
13201.43669998441
 20
477.2740661031255
 30
0.0
 40
160.0
  1
機種名
  7
STYLE2
100
AcDbText
  0
TEXT
  5
10B76
330
747D
100
AcDbEntity
  8
文字
 62
     7
 48
50.0
100
AcDbText
 10
13209.4053442172
 20
76.09434707649343
 30
0.0
 40
100.0
  1
○床面積 ： 3.77㎡(1.14坪) 　
  7
STYLE2
100
AcDbText
  0
TEXT
  5
10B79
330
747D
100
AcDbEntity
  8
文字
 62
     7
 48
50.0
100
AcDbText
 10
14524.131837222
 20
1031.557706291228
 30
0.0
 40
100.0
  1
NO.19      <縮尺> S=1/40
  7
STYLE2
100
AcDbText
  0
LINE
  5
10B7B
330
747D
100
AcDbEntity
  8
仕様書枠
 48
50.0
100
AcDbLine
 10
13107.2
 20
800.0
 30
0.0
 11
14251.2
 21
800.0
 31
0.0
  0
LINE
  5
10B88
330
747D
100
AcDbEntity
  8
仕様書枠
  6
Continuous
 48
50.0
100
AcDbLine
 10
14251.2
 20
1200.0
 30
0.0
 11
14251.2
 21
800.0
 31
0.0
  0
TEXT
  5
14D2F
330
747D
100
AcDbEntity
  8
文字
 62
     7
 48
50.0
100
AcDbText
 10
14644.07818602837
 20
876.4448062548634
 30
0.0
 40
100.0
  1
～一般型・多雪地型～
  7
STYLE2
100
AcDbText
  0
DIMENSION
  5
18C6B
330
747D
100
AcDbEntity
  8
寸法
 48
50.0
100
AcDbDimension
  2
*D2
 10
8439.218018717701
 20
5804.541695627556
 30
0.0
 11
8129.580223442109
 21
5804.541695627556
 31
0.0
 70
   160
 71
     5
 42
60.0
  3
INABA_S40G
100
AcDbAlignedDimension
 13
8499.2180187177
 23
5401.885860171229
 33
0.0
 14
8439.218018717701
 24
5405.884242048257
 34
0.0
100
AcDbRotatedDimension
1001
ACAD
1000
DSTYLE
1002
{
1070
   174
1070
     0
1070
   272
1070
     1
1070
   288
1070
     0
1070
   341
1005
0
1002
}
  0
DIMENSION
  5
18C6C
330
747D
100
AcDbEntity
  8
寸法
 48
50.0
100
AcDbDimension
  2
*D3
 10
8499.2180187177
 20
5804.541695627557
 30
0.0
 11
9853.988209746894
 21
5804.541695627557
 31
0.0
 70
   160
  1
柱外寸法<>
 71
     5
 42
2630.0
  3
INABA_S40G
100
AcDbAlignedDimension
 13
11129.2180187177
 23
5352.694921659907
 33
0.0
 14
8499.2180187177
 24
5401.885860171229
 34
0.0
100
AcDbRotatedDimension
1001
ACAD
1000
DSTYLE
1002
{
1070
   174
1070
     0
1070
   272
1070
     1
1070
   288
1070
     0
1070
   341
1005
0
1002
}
  0
DIMENSION
  5
18C6D
330
747D
100
AcDbEntity
  8
寸法
 48
50.0
100
AcDbDimension
  2
*D4
 10
8439.218018717701
 20
6024.752382359174
 30
0.0
 11
9842.576943605076
 21
6024.752382359174
 31
0.0
 70
   160
 71
     5
 42
2770.0
  3
INABA_S40G
100
AcDbAlignedDimension
 13
11209.2180187177
 23
5350.884242048254
 33
0.0
 14
8439.218018717701
 24
5405.884242048257
 34
0.0
100
AcDbRotatedDimension
1001
ACAD
1000
DSTYLE
1002
{
1070
   174
1070
     0
1070
   272
1070
     1
1070
   288
1070
     0
1070
   341
1005
0
1002
}
  0
DIMENSION
  5
18C6E
330
747D
100
AcDbEntity
  8
寸法
 48
50.0
100
AcDbDimension
  2
*D5
 10
11209.2180187177
 20
5804.541695627557
 30
0.0
 11
11415.26526281219
 21
5804.541695627557
 31
0.0
 70
   160
 71
     5
 42
80.0
  3
INABA_S40G
100
AcDbAlignedDimension
 13
11129.2180187177
 23
5352.694921659907
 33
0.0
 14
11209.2180187177
 24
5350.884242048254
 34
0.0
100
AcDbRotatedDimension
1001
ACAD
1000
DSTYLE
1002
{
1070
   174
1070
     0
1070
   272
1070
     1
1070
   288
1070
     0
1070
   341
1005
0
1002
}
  0
ARC
  5
18C6F
330
747D
100
AcDbEntity
  8
部品1
100
AcDbCircle
 10
11194.84555453164
 20
5244.907999314046
 30
0.0
 40
0.7
100
AcDbArc
 50
275.0921697642102
 51
354.1866997667606
  0
ARC
  5
18C70
330
747D
100
AcDbEntity
  8
部品1
100
AcDbCircle
 10
11205.70490028096
 20
5321.95125413197
 30
0.0
 40
0.7
100
AcDbArc
 50
275.0921697642102
 51
354.1866997665532
  0
ARC
  5
18C71
330
747D
100
AcDbEntity
  8
部品1
100
AcDbCircle
 10
11206.03330552356
 20
5318.26585727488
 30
0.0
 40
3.0
100
AcDbArc
 50
95.0921697642102
 51
174.1866997665532
  0
ARC
  5
18C72
330
747D
100
AcDbEntity
  8
部品1
100
AcDbCircle
 10
11195.17395977424
 20
5241.222602456955
 30
0.0
 40
3.0
100
AcDbArc
 50
95.0921697642102
 51
174.1866997665532
  0
ARC
  5
18C73
330
747D
100
AcDbEntity
  8
部品1
 48
50.0
100
AcDbCircle
 10
11184.14582449913
 20
5231.631857853074
 30
0.0
 40
7.0
100
AcDbArc
 50
267.8377559869492
 51
354.1866997665532
  0
ARC
  5
18C74
330
747D
100
AcDbEntity
  8
部品1
 48
50.0
100
AcDbCircle
 10
11201.46792096365
 20
5342.534404995247
 30
0.0
 40
7.0
100
AcDbArc
 50
354.1866997665532
 51
87.03587545283093
  0
LINE
  5
18C75
330
747D
100
AcDbEntity
  8
部品1
 48
50.0
100
AcDbLine
 10
11192.18938810363
 20
5241.526464173858
 30
0.0
 11
11191.10982506389
 21
5230.9228471803
 31
0.0
  0
LINE
  5
18C76
330
747D
100
AcDbEntity
  8
部品1
 48
50.0
100
AcDbLine
 10
11203.04873385295
 20
5318.569718991783
 30
0.0
 11
11195.54195458811
 21
5244.837098246772
 31
0.0
  0
LINE
  5
18C77
330
747D
100
AcDbEntity
  8
部品1
 48
50.0
100
AcDbLine
 10
11208.4319215284
 20
5341.825394322472
 30
0.0
 11
11206.40130033743
 21
5321.880353064691
 31
0.0
  0
LINE
  5
18C78
330
747D
100
AcDbEntity
  8
細線
 48
50.0
100
AcDbLine
 10
11176.18730191139
 20
5350.037664527722
 30
0.0
 11
11171.4703358297
 21
5225.105448592805
 31
0.0
  0
ARC
  5
18C79
330
747D
100
AcDbEntity
  8
部品1
100
AcDbCircle
 10
8445.255110589068
 20
5284.698401007157
 30
0.0
 40
0.7
100
AcDbArc
 50
181.0932240292114
 51
260.1877540314845
  0
ARC
  5
18C7A
330
747D
100
AcDbEntity
  8
部品1
100
AcDbCircle
 10
8440.482436991457
 20
5377.564179207275
 30
0.0
 40
0.7
100
AcDbArc
 50
181.0932240292114
 51
260.1877540314845
  0
ARC
  5
18C7B
330
747D
100
AcDbEntity
  8
部品1
100
AcDbCircle
 10
8439.851882588435
 20
5373.918304669878
 30
0.0
 40
3.0
100
AcDbArc
 50
1.093224029315636
 51
80.18775403169875
  0
ARC
  5
18C7C
330
747D
100
AcDbEntity
  8
部品1
100
AcDbCircle
 10
8444.624556186042
 20
5281.052526469759
 30
0.0
 40
3.0
100
AcDbArc
 50
1.093224029315636
 51
80.18775403169875
  0
ARC
  5
18C7D
330
747D
100
AcDbEntity
  8
部品1
 48
50.0
100
AcDbCircle
 10
8454.824688561243
 20
5270.660283087278
 30
0.0
 40
7.0
100
AcDbArc
 50
181.0932240293156
 51
267.8377559869492
  0
ARC
  5
18C7E
330
747D
100
AcDbEntity
  8
部品1
 48
50.0
100
AcDbCircle
 10
8446.401030459147
 20
5397.611342620374
 30
0.0
 40
7.0
100
AcDbArc
 50
87.03587545283093
 51
181.0932240293156
  0
LINE
  5
18C7F
330
747D
100
AcDbEntity
  8
部品1
 48
50.0
100
AcDbLine
 10
8447.624010112471
 20
5281.109764072942
 30
0.0
 11
8447.825962732903
 21
5270.52672867985
 31
0.0
  0
LINE
  5
18C80
330
747D
100
AcDbEntity
  8
部品1
 48
50.0
100
AcDbLine
 10
8442.851336514864
 20
5373.975542273061
 30
0.0
 11
8444.555238006229
 21
5284.685045566414
 31
0.0
  0
LINE
  5
18C81
330
747D
100
AcDbEntity
  8
部品1
 48
50.0
100
AcDbLine
 10
8439.402304630807
 20
5397.477788212945
 30
0.0
 11
8439.782564408618
 21
5377.550823766535
 31
0.0
  0
LINE
  5
18C82
330
747D
100
AcDbEntity
  8
細線
 48
50.0
100
AcDbLine
 10
8472.2180187177
 20
5403.283918423658
 30
0.0
 11
8466.928917162192
 21
5263.198285796303
 31
0.0
  0
LINE
  5
18C83
330
747D
100
AcDbEntity
  8
細線
 48
50.0
100
AcDbLine
 10
8445.0179170558
 20
5284.03981219175
 30
0.0
 11
11195.02158148644
 21
5244.230493217258
 31
0.0
  0
LINE
  5
18C84
330
747D
100
AcDbEntity
  8
細線
 48
50.0
100
AcDbLine
 10
8440.257441818515
 20
5376.901323889615
 30
0.0
 11
11205.89342656368
 21
5321.277119248786
 31
0.0
  0
LINE
  5
18C85
330
747D
100
AcDbEntity
  8
部品1
100
AcDbLine
 10
8454.560583319652
 20
5263.66526711722
 30
0.0
 11
11183.88171925755
 21
5224.636841883014
 31
0.0
  0
LINE
  5
18C86
330
747D
100
AcDbEntity
  8
部品1
100
AcDbLine
 10
8446.763005074663
 20
5404.601977382519
 30
0.0
 11
11201.82989557917
 21
5349.525039757391
 31
0.0
  0
LINE
  5
18C87
330
747D
100
AcDbEntity
  8
部品1
100
AcDbLine
 10
9674.443149146942
 20
5531.088630011271
 30
0.0
 11
9999.898162789978
 21
5513.570571052409
 31
0.0
  0
LINE
  5
18C88
330
747D
100
AcDbEntity
  8
部品1
 48
50.0
100
AcDbLine
 10
9699.898162789978
 20
5529.770571052409
 30
0.0
 11
9999.898162789978
 21
5529.770571052409
 31
0.0
  0
LINE
  5
18C89
330
747D
100
AcDbEntity
  8
部品1
 48
50.0
100
AcDbLine
 10
9999.898162789978
 20
5529.770571052409
 30
0.0
 11
9999.898162789978
 21
5513.570571052409
 31
0.0
  0
TEXT
  5
18C8A
330
747D
100
AcDbEntity
  8
部品1
 48
50.0
100
AcDbText
 10
9688.165998013705
 20
5565.654593204843
 30
0.0
 40
120.0
  1
1000
  7
STYLE1
100
AcDbText
  0
TEXT
  5
18C8B
330
747D
100
AcDbEntity
  8
部品1
 48
50.0
100
AcDbText
 10
10165.79902067879
 20
5428.153334986561
 30
0.0
 40
120.0
  1
37
 50
90.0
  7
STYLE1
100
AcDbText
  0
DIMENSION
  5
18C8C
330
747D
100
AcDbEntity
  8
寸法
100
AcDbDimension
  2
*D6
 10
7590.578636788338
 20
2930.884242048252
 30
0.0
 11
7590.578636788338
 21
2694.836997953762
 31
0.0
 70
   160
 71
     5
 42
100.0
  3
INABA_S40G
100
AcDbAlignedDimension
 13
8444.218018717696
 23
3030.884242048252
 33
0.0
 14
7875.565309559398
 24
2930.884242048252
 34
0.0
 50
90.0
100
AcDbRotatedDimension
1001
ACAD
1000
DSTYLE
1002
{
1070
   174
1070
     0
1070
   272
1070
     1
1070
   288
1070
     0
1070
   341
1005
0
1002
}
  0
DIMENSION
  5
18C8D
330
747D
100
AcDbEntity
  8
寸法
100
AcDbDimension
  2
*D7
 10
7875.5653095594
 20
3030.884242048252
 30
0.0
 11
7875.565309559398
 21
2724.836997953762
 31
0.0
 70
   160
 71
     5
 42
50.0
  3
INABA_S40G
100
AcDbAlignedDimension
 13
8499.218018717696
 23
3080.884242048253
 33
0.0
 14
8444.218018717696
 24
3030.884242048252
 34
0.0
 50
90.0
100
AcDbRotatedDimension
1001
ACAD
1000
DSTYLE
1002
{
1070
   174
1070
     0
1070
   272
1070
     1
1070
   288
1070
     0
1070
   341
1005
0
1002
}
  0
DIMENSION
  5
18C8E
330
747D
100
AcDbEntity
  8
寸法
100
AcDbDimension
  2
*D8
 10
7875.565309559402
 20
3080.884242048253
 30
0.0
 11
7875.5653095594
 21
4101.384242048252
 31
0.0
 70
   160
 71
     5
 42
2090.0
  3
INABA_S40G
100
AcDbAlignedDimension
 13
8499.218018717696
 23
5170.884242048252
 33
0.0
 14
8499.218018717696
 24
3080.884242048253
 34
0.0
 50
90.0
100
AcDbRotatedDimension
1001
ACAD
1000
DSTYLE
1002
{
1070
   174
1070
     0
1070
   272
1070
     1
1070
   288
1070
     0
1070
   341
1005
0
1002
}
  0
DIMENSION
  5
18C8F
330
747D
100
AcDbEntity
  8
寸法
100
AcDbDimension
  2
*D9
 10
7590.57863678834
 20
5405.884242048258
 30
0.0
 11
7590.578636788338
 21
4101.384242048252
 31
0.0
 70
   160
 71
     5
 42
2375.000000000005
  3
INABA_S40G
100
AcDbAlignedDimension
 13
8499.218018717696
 23
3030.884242048252
 33
0.0
 14
8439.218018717696
 24
5405.884242048258
 34
0.0
 50
90.0
100
AcDbRotatedDimension
1001
ACAD
1000
DSTYLE
1002
{
1070
   174
1070
     0
1070
   272
1070
     1
1070
   288
1070
     0
1070
   341
1005
0
1002
}
  0
DIMENSION
  5
18C90
330
747D
100
AcDbEntity
  8
寸法
 48
50.0
100
AcDbDimension
  2
*D10
 10
7878.609611949329
 20
5280.22950092158
 30
0.0
 11
7889.275087208254
 21
5651.076164163285
 31
0.0
 70
   161
 71
     5
 42
141.0000000000027
  3
INABA_S40G
100
AcDbAlignedDimension
 13
8458.614038876275
 23
5404.606990882932
 33
0.0
 14
8454.560583319651
 24
5263.665267117218
 34
0.0
1001
ACAD
1000
DSTYLE
1002
{
1070
   174
1070
     0
1070
   272
1070
     1
1070
   288
1070
     0
1070
   341
1005
0
1002
}
  0
DIMENSION
  5
18C91
330
747D
100
AcDbEntity
  8
寸法
 48
50.0
100
AcDbDimension
  2
*D11
 10
8205.993212246681
 20
3088.884242048252
 30
0.0
 11
8205.993212246681
 21
4101.384242048252
 31
0.0
 70
   160
  1
有効開口部高サ<>
 71
     5
 42
2025.000000000001
  3
INABA_S40G
100
AcDbAlignedDimension
 13
8947.218018717698
 23
5113.884242048253
 33
0.0
 14
8947.218018717698
 24
3088.884242048252
 34
0.0
 50
90.0
100
AcDbRotatedDimension
  0
LINE
  5
18C92
330
747D
100
AcDbEntity
  8
Ｇ．Ｌ
100
AcDbLine
 10
3371.8040889798
 20
2930.884242048252
 30
0.0
 11
11778.73057174654
 21
2930.884242048252
 31
0.0
  0
TEXT
  5
18C93
330
747D
100
AcDbEntity
  8
部品1
100
AcDbText
 10
9523.008089341432
 20
1858.67516985477
 30
0.0
 40
135.0
  1
正面図
  7
STYLE2
100
AcDbText
  0
LINE
  5
18C99
330
747D
100
AcDbEntity
  8
部品1
100
AcDbLine
 10
9432.482685603478
 20
2051.568699073293
 30
0.0
 11
9432.482685603478
 21
1811.67637752776
 31
0.0
  0
LINE
  5
18C9A
330
747D
100
AcDbEntity
  8
部品1
100
AcDbLine
 10
9432.482685603478
 20
1811.67637752776
 30
0.0
 11
10195.95335183191
 21
1811.67637752776
 31
0.0
  0
LINE
  5
18C9B
330
747D
100
AcDbEntity
  8
部品1
100
AcDbLine
 10
10195.95335183191
 20
1811.67637752776
 30
0.0
 11
10195.95335183191
 21
2051.568699073293
 31
0.0
  0
LINE
  5
18C9C
330
747D
100
AcDbEntity
  8
部品1
100
AcDbLine
 10
10195.95335183191
 20
2051.568699073293
 30
0.0
 11
9432.482685603478
 21
2051.568699073293
 31
0.0
  0
LINE
  5
18CA0
330
747D
100
AcDbEntity
  8
部品1
100
AcDbLine
 10
8499.218018717696
 20
5170.884242048252
 30
0.0
 11
11129.21801871769
 21
5170.884242048252
 31
0.0
  0
LINE
  5
18CA1
330
747D
100
AcDbEntity
  8
部品1
 48
50.0
100
AcDbLine
 10
8947.218018717698
 20
3030.884242048252
 30
0.0
 11
11101.2180187177
 21
3030.884242048252
 31
0.0
  0
LINE
  5
18CA2
330
747D
100
AcDbEntity
  8
部品1
 48
50.0
100
AcDbLine
 10
8527.218018717698
 20
3030.884242048252
 30
0.0
 11
11101.2180187177
 21
3030.884242048252
 31
0.0
  0
LINE
  5
18CA4
330
747D
100
AcDbEntity
  8
部品1
100
AcDbLine
 10
8499.218018717696
 20
5170.884242048252
 30
0.0
 11
11129.21801871769
 21
5170.884242048252
 31
0.0
  0
LINE
  5
18CA5
330
747D
100
AcDbEntity
  8
部品1
100
AcDbLine
 10
8499.218018717696
 20
3030.884242048252
 30
0.0
 11
11129.21801871769
 21
3030.884242048252
 31
0.0
  0
LINE
  5
18CA6
330
747D
100
AcDbEntity
  8
部品1
 48
50.0
100
AcDbLine
 10
8554.218018717698
 20
3080.884242048273
 30
0.0
 11
8554.218018717698
 21
5170.884242048252
 31
0.0
  0
LINE
  5
18CA7
330
747D
100
AcDbEntity
  8
部品1
100
AcDbLine
 10
8499.218018717696
 20
5263.02667997713
 30
0.0
 11
8499.218018717696
 21
2930.884242048252
 31
0.0
  0
LINE
  5
18CA8
330
747D
100
AcDbEntity
  8
部品1
100
AcDbLine
 10
8494.218018717695
 20
3075.884242048255
 30
0.0
 11
8494.218018717695
 21
2930.884242048252
 31
0.0
  0
LINE
  5
18CA9
330
747D
100
AcDbEntity
  8
破線
 48
5.0
100
AcDbLine
 10
8494.218018717695
 20
2930.884242048252
 30
0.0
 11
8494.218018717695
 21
2775.884242048253
 31
0.0
  0
LINE
  5
18CAB
330
747D
100
AcDbEntity
  8
破線
 48
5.0
100
AcDbLine
 10
8474.218018717698
 20
2775.884242048253
 30
0.0
 11
8494.218018717699
 21
2775.884242048253
 31
0.0
  0
LINE
  5
18CAC
330
747D
100
AcDbEntity
  8
部品1
100
AcDbLine
 10
8899.218018717697
 20
3030.884242048252
 30
0.0
 11
8899.218018717697
 21
2930.884242048252
 31
0.0
  0
LINE
  5
18CAD
330
747D
100
AcDbEntity
  8
部品1
100
AcDbLine
 10
8499.218018717696
 20
3080.884242048273
 30
0.0
 11
8947.218018717698
 21
3080.884242048273
 31
0.0
  0
LINE
  5
18CAE
330
747D
100
AcDbEntity
  8
部品1
 48
50.0
100
AcDbLine
 10
9299.218018717697
 20
3030.884242048252
 30
0.0
 11
9299.218018717697
 21
2930.884242048252
 31
0.0
  0
LINE
  5
18CAF
330
747D
100
AcDbEntity
  8
部品1
 48
50.0
100
AcDbLine
 10
9499.218018717696
 20
3030.884242048252
 30
0.0
 11
9499.218018717696
 21
2930.884242048252
 31
0.0
  0
LINE
  5
18CB0
330
747D
100
AcDbEntity
  8
部品1
 48
50.0
100
AcDbLine
 10
10129.21801871769
 20
3030.884242048252
 30
0.0
 11
10129.21801871769
 21
2930.884242048252
 31
0.0
  0
LINE
  5
18CB1
330
747D
100
AcDbEntity
  8
部品1
 48
50.0
100
AcDbLine
 10
10329.21801871769
 20
3030.884242048252
 30
0.0
 11
10329.21801871769
 21
2930.884242048252
 31
0.0
  0
LINE
  5
18CB2
330
747D
100
AcDbEntity
  8
部品1
100
AcDbLine
 10
10729.21801871769
 20
3030.884242048252
 30
0.0
 11
10729.21801871769
 21
2930.884242048252
 31
0.0
  0
LINE
  5
18CB4
330
747D
100
AcDbEntity
  8
部品1
 48
50.0
100
AcDbLine
 10
8974.218018717698
 20
5165.88424204825
 30
0.0
 11
8974.218018717698
 21
5170.884242048252
 31
0.0
  0
LINE
  5
18CB5
330
747D
100
AcDbEntity
  8
部品1
100
AcDbLine
 10
11129.2180187177
 20
5225.418515435991
 30
0.0
 11
11129.21801871769
 21
2930.884242048252
 31
0.0
  0
LINE
  5
18CB6
330
747D
100
AcDbEntity
  8
部品1
100
AcDbLine
 10
11134.21801871769
 20
3075.884242048253
 30
0.0
 11
11134.21801871769
 21
2930.884242048252
 31
0.0
  0
LINE
  5
18CB7
330
747D
100
AcDbEntity
  8
破線
 48
5.0
100
AcDbLine
 10
11134.21801871769
 20
2930.884242048252
 30
0.0
 11
11134.21801871769
 21
2775.884242048253
 31
0.0
  0
LINE
  5
18CB9
330
747D
100
AcDbEntity
  8
破線
 48
5.0
100
AcDbLine
 10
11154.21801871769
 20
2775.884242048253
 30
0.0
 11
11134.21801871769
 21
2775.884242048253
 31
0.0
  0
LINE
  5
18CBA
330
747D
100
AcDbEntity
  8
部品1
100
AcDbLine
 10
11101.2180187177
 20
3080.884242048273
 30
0.0
 11
11129.21801871769
 21
3080.884242048273
 31
0.0
  0
LINE
  5
18CBB
330
747D
100
AcDbEntity
  8
部品1
 48
50.0
100
AcDbLine
 10
11074.2180187177
 20
5165.88424204825
 30
0.0
 11
11074.2180187177
 21
5170.884242048252
 31
0.0
  0
DIMENSION
  5
18CBC
330
747D
100
AcDbEntity
  8
寸法
100
AcDbDimension
  2
*D12
 10
8554.218018717708
 20
9958.155500301955
 30
0.0
 11
8190.732737343433
 21
9958.155500301955
 31
0.0
 70
   160
 71
     5
 42
55.00000000003637
  3
INABA_S40G
100
AcDbAlignedDimension
 13
8499.218018717671
 23
9658.155500301955
 33
0.0
 14
8554.218018717708
 24
9658.155500301955
 34
0.0
100
AcDbRotatedDimension
1001
ACAD
1000
DSTYLE
1002
{
1002
}
  0
DIMENSION
  5
18CBD
330
747D
100
AcDbEntity
  8
寸法
100
AcDbDimension
  2
*D13
 10
9713.984086881708
 20
8858.192110757402
 30
0.0
 11
9077.484086881673
 21
8858.192110757402
 31
0.0
 70
   160
 71
     5
 42
1273.000000000069
  3
INABA_S40G
100
AcDbAlignedDimension
 13
8526.718018717637
 23
9178.155500302002
 33
0.0
 14
9799.718018717708
 24
9178.155500301995
 34
0.0
100
AcDbRotatedDimension
1001
ACAD
1000
DSTYLE
1002
{
1002
}
  0
DIMENSION
  5
18CBE
330
747D
100
AcDbEntity
  8
寸法
100
AcDbDimension
  2
*D14
 10
11129.21801871771
 20
9958.155500301955
 30
0.0
 11
11437.70330009195
 21
9958.155500301955
 31
0.0
 70
   160
 71
     5
 42
55.0
  3
INABA_S40G
100
AcDbAlignedDimension
 13
11074.2180187177
 23
9658.155500302051
 33
0.0
 14
11129.21801871771
 24
9658.155500302051
 34
0.0
100
AcDbRotatedDimension
1001
ACAD
1000
DSTYLE
1002
{
1002
}
  0
DIMENSION
  5
18CBF
330
747D
100
AcDbEntity
  8
寸法
100
AcDbDimension
  2
*D15
 10
11074.2180187177
 20
9958.155500301955
 30
0.0
 11
9814.218018717703
 21
9958.155500301955
 31
0.0
 70
   160
  1
6X420=<>
 71
     5
 42
2520.0
  3
INABA_S40G
100
AcDbAlignedDimension
 13
8554.218018717708
 23
9658.155500301955
 33
0.0
 14
11074.2180187177
 24
9658.155500302051
 34
0.0
100
AcDbRotatedDimension
1001
ACAD
1000
DSTYLE
1002
{
1002
}
  0
LINE
  5
18CC0
330
747D
100
AcDbEntity
  8
部品1
100
AcDbLine
 10
11072.71801871771
 20
8344.655500302041
 30
0.0
 11
8555.7180187176
 21
8344.65550030192
 31
0.0
  0
LINE
  5
18CC1
330
747D
100
AcDbEntity
  8
部品1
100
AcDbLine
 10
8499.218018717707
 20
9658.155500301955
 30
0.0
 11
11129.21801871771
 21
9658.155500302051
 31
0.0
  0
DIMENSION
  5
18CC3
330
747D
100
AcDbEntity
  8
寸法
100
AcDbDimension
  2
*D16
 10
11013.9840868817
 20
8858.192110757402
 30
0.0
 11
10447.10592603172
 21
8858.192110757402
 31
0.0
 70
   160
 71
     5
 42
1273.000000000011
  3
INABA_S40G
100
AcDbAlignedDimension
 13
9826.718018717707
 23
9178.155500302059
 33
0.0
 14
11099.71801871772
 24
9178.155500302052
 34
0.0
100
AcDbRotatedDimension
1001
ACAD
1000
DSTYLE
1002
{
1002
}
  0
LINE
  5
18CC4
330
747D
100
AcDbEntity
  8
細線
 48
50.0
100
AcDbLine
 10
11100.71801871771
 20
9628.15550030205
 30
0.0
 11
9827.718018717705
 21
9178.155500302059
 31
0.0
  0
LINE
  5
18CC5
330
747D
100
AcDbEntity
  8
部品1
100
AcDbLine
 10
9827.718018717709
 20
9628.155500302057
 30
0.0
 11
11100.71801871771
 21
9628.15550030205
 31
0.0
  0
LINE
  5
18CC6
330
747D
100
AcDbEntity
  8
部品1
100
AcDbLine
 10
9827.718018717705
 20
9178.155500302059
 30
0.0
 11
11100.71801871771
 21
9178.155500302052
 31
0.0
  0
LINE
  5
18CC7
330
747D
100
AcDbEntity
  8
細線
 48
50.0
100
AcDbLine
 10
11100.71801871771
 20
9178.155500302052
 30
0.0
 11
9827.718018717709
 21
9628.155500302053
 31
0.0
  0
LINE
  5
18CC8
330
747D
100
AcDbEntity
  8
部品1
100
AcDbLine
 10
9826.718018717707
 20
9630.155500302068
 30
0.0
 11
11101.2180187177
 21
9630.15550030205
 31
0.0
  0
LINE
  5
18CC9
330
747D
100
AcDbEntity
  8
部品1
100
AcDbLine
 10
11072.71801871769
 20
8763.155500302024
 30
0.0
 11
8555.718018717691
 21
8763.155500301925
 31
0.0
  0
LINE
  5
18CCA
330
747D
100
AcDbEntity
  8
部品1
 48
50.0
100
AcDbLine
 10
8527.2180187177
 20
8316.155500302022
 30
0.0
 11
11101.21801871772
 21
8316.155500302025
 31
0.0
  0
LINE
  5
18CCB
330
747D
100
AcDbEntity
  8
破線
 48
10.0
100
AcDbLine
 10
11049.2180187177
 20
9178.155500302052
 30
0.0
 11
11049.21801871771
 21
8368.155500302036
 31
0.0
  0
LINE
  5
18CCC
330
747D
100
AcDbEntity
  8
破線
 48
10.0
100
AcDbLine
 10
8579.218018717682
 20
9178.155500302052
 30
0.0
 11
8579.218018717696
 21
8368.15550030192
 31
0.0
  0
LINE
  5
18CCD
330
747D
100
AcDbEntity
  8
部品1
100
AcDbLine
 10
8527.218018717681
 20
8316.155500302
 30
0.0
 11
8527.2180187177
 21
9183.155500301927
 31
0.0
  0
LINE
  5
18CCE
330
747D
100
AcDbEntity
  8
部品1
100
AcDbLine
 10
8499.218018717671
 20
9658.155500301923
 30
0.0
 11
8499.2180187177
 21
8288.155500301909
 31
0.0
  0
LINE
  5
18CCF
330
747D
100
AcDbEntity
  8
破線
 48
10.0
100
AcDbLine
 10
9373.718018717687
 20
8344.65550030195
 30
0.0
 11
9373.718018717681
 21
9178.155500302059
 31
0.0
  0
LINE
  5
18CD0
330
747D
100
AcDbEntity
  8
破線
 48
10.0
100
AcDbLine
 10
9423.718018717682
 20
8344.655500301952
 30
0.0
 11
9423.718018717682
 21
9178.155500302059
 31
0.0
  0
LINE
  5
18CD1
330
747D
100
AcDbEntity
  8
部品1
100
AcDbLine
 10
8555.718018717684
 20
9178.155500302002
 30
0.0
 11
8555.718018717696
 21
8344.655500302016
 31
0.0
  0
LINE
  5
18CD2
330
747D
100
AcDbEntity
  8
破線
 48
10.0
100
AcDbLine
 10
10254.71801871768
 20
8344.655500301952
 30
0.0
 11
10254.71801871768
 21
9178.155500302059
 31
0.0
  0
LINE
  5
18CD3
330
747D
100
AcDbEntity
  8
破線
 48
10.0
100
AcDbLine
 10
10204.71801871768
 20
8344.65550030195
 30
0.0
 11
10204.71801871768
 21
9178.155500302059
 31
0.0
  0
LINE
  5
18CD4
330
747D
100
AcDbEntity
  8
破線
 48
10.0
100
AcDbLine
 10
10204.71801871768
 20
8368.155500301957
 30
0.0
 11
9423.718018717682
 21
8368.155500301931
 31
0.0
  0
LINE
  5
18CD5
330
747D
100
AcDbEntity
  8
破線
 48
10.0
100
AcDbLine
 10
9373.718018717687
 20
8368.155500301906
 30
0.0
 11
8579.218018717693
 21
8368.15550030192
 31
0.0
  0
LINE
  5
18CD6
330
747D
100
AcDbEntity
  8
部品1
100
AcDbLine
 10
8974.218018717674
 20
8288.155500301909
 30
0.0
 11
8499.2180187177
 21
8288.155500301909
 31
0.0
  0
LINE
  5
18CD7
330
747D
100
AcDbEntity
  8
部品1
100
AcDbLine
 10
8499.218018717698
 20
8343.155500301874
 30
0.0
 11
8499.2180187177
 21
8288.155500301876
 31
0.0
  0
LINE
  5
18CD8
330
747D
100
AcDbEntity
  8
部品1
100
AcDbLine
 10
8527.218018717698
 20
8343.155500301923
 30
0.0
 11
8499.218018717698
 21
8343.155500301923
 31
0.0
  0
LINE
  5
18CD9
330
747D
100
AcDbEntity
  8
部品1
100
AcDbLine
 10
8527.218018717681
 20
8343.155500301909
 30
0.0
 11
8499.218018717698
 21
8343.155500301909
 31
0.0
  0
LINE
  5
18CDA
330
747D
100
AcDbEntity
  8
部品1
100
AcDbLine
 10
8527.218018717681
 20
8343.155500301874
 30
0.0
 11
8499.218018717698
 21
8343.155500301874
 31
0.0
  0
LINE
  5
18CDB
330
747D
100
AcDbEntity
  8
部品1
100
AcDbLine
 10
8554.218018717675
 20
8288.155500302041
 30
0.0
 11
8554.218018717675
 21
8316.155500302041
 31
0.0
  0
LINE
  5
18CDC
330
747D
100
AcDbEntity
  8
部品1
 48
50.0
100
AcDbLine
 10
8555.718018717696
 20
8344.655500302017
 30
0.0
 11
8527.218018717697
 21
8316.155500302018
 31
0.0
  0
LINE
  5
18CDD
330
747D
100
AcDbEntity
  8
部品1
100
AcDbLine
 10
8974.218018717674
 20
8288.155500302041
 30
0.0
 11
8974.218018717674
 21
8316.155500302041
 31
0.0
  0
LINE
  5
18CDE
330
747D
100
AcDbEntity
  8
破線
 48
10.0
100
AcDbLine
 10
11049.21801871771
 20
8368.155500302041
 30
0.0
 11
10254.71801871768
 21
8368.155500301861
 31
0.0
  0
LINE
  5
18CDF
330
747D
100
AcDbEntity
  8
細線
 48
50.0
100
AcDbLine
 10
9800.718018717706
 20
9178.155500302059
 30
0.0
 11
8527.718018717637
 21
9628.155500302002
 31
0.0
  0
LINE
  5
18CE0
330
747D
100
AcDbEntity
  8
細線
 48
50.0
100
AcDbLine
 10
9800.718018717708
 20
9628.155500302057
 30
0.0
 11
8527.718018717639
 21
9178.155500302002
 31
0.0
  0
LINE
  5
18CE1
330
747D
100
AcDbEntity
  8
部品1
100
AcDbLine
 10
8527.218018717709
 20
9630.155500302068
 30
0.0
 11
9801.718018717703
 21
9630.155500302072
 31
0.0
  0
LINE
  5
18CE2
330
747D
100
AcDbEntity
  8
部品1
100
AcDbLine
 10
8527.718018717639
 20
9628.155500302002
 30
0.0
 11
9800.718018717708
 21
9628.15550030206
 31
0.0
  0
LINE
  5
18CE3
330
747D
100
AcDbEntity
  8
部品1
100
AcDbLine
 10
8527.718018717639
 20
9178.155500302002
 30
0.0
 11
9800.718018717706
 21
9178.155500302059
 31
0.0
  0
LINE
  5
18CE4
330
747D
100
AcDbEntity
  8
部品1
 48
50.0
100
AcDbLine
 10
8527.718018717639
 20
9628.155500302057
 30
0.0
 11
8527.718018717639
 21
9178.155500302059
 31
0.0
  0
LINE
  5
18CE5
330
747D
100
AcDbEntity
  8
部品1
100
AcDbLine
 10
8527.218018717697
 20
9177.655500301925
 30
0.0
 11
8527.218018717707
 21
9630.155500301954
 31
0.0
  0
LINE
  5
18CE6
330
747D
100
AcDbEntity
  8
部品1
100
AcDbLine
 10
8527.218018717681
 20
8763.155500301925
 30
0.0
 11
8499.218018717682
 21
8763.155500301925
 31
0.0
  0
LINE
  5
18CE7
330
747D
100
AcDbEntity
  8
部品1
100
AcDbLine
 10
8527.218018717681
 20
9183.155500301927
 30
0.0
 11
8499.218018717682
 21
9183.155500301927
 31
0.0
  0
LINE
  5
18CE8
330
747D
100
AcDbEntity
  8
部品1
100
AcDbLine
 10
8527.218018717674
 20
9603.155500301927
 30
0.0
 11
8499.218018717675
 21
9603.155500301927
 31
0.0
  0
LINE
  5
18CE9
330
747D
100
AcDbEntity
  8
部品1
100
AcDbLine
 10
8554.218018717708
 20
9658.155500301955
 30
0.0
 11
8554.218018717708
 21
9630.155500301954
 31
0.0
  0
LINE
  5
18CEA
330
747D
100
AcDbEntity
  8
部品1
100
AcDbLine
 10
8554.218018717671
 20
9658.155500301923
 30
0.0
 11
8554.218018717675
 21
9630.155500301922
 31
0.0
  0
LINE
  5
18CEB
330
747D
100
AcDbEntity
  8
部品1
100
AcDbLine
 10
8974.218018717671
 20
9658.155500301923
 30
0.0
 11
8974.218018717674
 21
9630.155500301922
 31
0.0
  0
LINE
  5
18CEC
330
747D
100
AcDbEntity
  8
部品1
100
AcDbLine
 10
9394.218018717671
 20
9658.155500301923
 30
0.0
 11
9394.218018717674
 21
9630.155500301922
 31
0.0
  0
LINE
  5
18CED
330
747D
100
AcDbEntity
  8
部品1
 48
50.0
100
AcDbLine
 10
9800.718018717708
 20
9628.155500302057
 30
0.0
 11
9800.718018717708
 21
9178.155500302059
 31
0.0
  0
LINE
  5
18CEE
330
747D
100
AcDbEntity
  8
部品1
 48
50.0
100
AcDbLine
 10
9827.718018717709
 20
9628.155500302053
 30
0.0
 11
9827.718018717709
 21
9178.155500302059
 31
0.0
  0
LINE
  5
18CEF
330
747D
100
AcDbEntity
  8
部品1
 48
50.0
100
AcDbLine
 10
9801.718018717707
 20
9630.155500302064
 30
0.0
 11
9801.718018717707
 21
9178.155500302059
 31
0.0
  0
LINE
  5
18CF0
330
747D
100
AcDbEntity
  8
部品1
 48
50.0
100
AcDbLine
 10
9826.718018717707
 20
9630.155500302061
 30
0.0
 11
9826.718018717707
 21
9178.155500302059
 31
0.0
  0
LINE
  5
18CF1
330
747D
100
AcDbEntity
  8
部品1
100
AcDbLine
 10
9801.718018717707
 20
9178.155500302059
 30
0.0
 11
9826.718018717707
 21
9178.155500302059
 31
0.0
  0
LINE
  5
18CF2
330
747D
100
AcDbEntity
  8
部品1
100
AcDbLine
 10
9801.718018717707
 20
9622.155500302053
 30
0.0
 11
9826.718018717707
 21
9622.155500302056
 31
0.0
  0
LINE
  5
18CF3
330
747D
100
AcDbEntity
  8
部品1
100
AcDbLine
 10
9779.218018717708
 20
9648.155500302058
 30
0.0
 11
9779.218018717708
 21
9630.155500302057
 31
0.0
  0
LINE
  5
18CF4
330
747D
100
AcDbEntity
  8
部品1
100
AcDbLine
 10
9779.218018717708
 20
9648.155500302058
 30
0.0
 11
9785.218018717706
 21
9648.155500302058
 31
0.0
  0
LINE
  5
18CF5
330
747D
100
AcDbEntity
  8
部品1
100
AcDbLine
 10
9849.218018717706
 20
9648.155500302058
 30
0.0
 11
9849.218018717706
 21
9630.155500302057
 31
0.0
  0
LINE
  5
18CF6
330
747D
100
AcDbEntity
  8
部品1
100
AcDbLine
 10
9843.218018717708
 20
9648.155500302058
 30
0.0
 11
9849.218018717706
 21
9648.155500302058
 31
0.0
  0
LINE
  5
18CF7
330
747D
100
AcDbEntity
  8
部品1
100
AcDbLine
 10
9814.218018717671
 20
9658.155500301923
 30
0.0
 11
9814.218018717674
 21
9630.155500301922
 31
0.0
  0
LINE
  5
18CF8
330
747D
100
AcDbEntity
  8
部品1
100
AcDbLine
 10
10234.21801871767
 20
9658.155500301923
 30
0.0
 11
10234.21801871767
 21
9630.155500301922
 31
0.0
  0
LINE
  5
18CF9
330
747D
100
AcDbEntity
  8
部品1
100
AcDbLine
 10
10654.21801871767
 20
9658.155500301923
 30
0.0
 11
10654.21801871767
 21
9630.155500301922
 31
0.0
  0
DIMENSION
  5
18CFA
330
747D
100
AcDbEntity
  8
寸法
100
AcDbDimension
  2
*D17
 10
12129.21801871771
 20
8288.155500302041
 30
0.0
 11
12129.21801871771
 21
8973.155500302045
 31
0.0
 70
   160
 71
     5
 42
1370.000000000009
  3
INABA_S40G
100
AcDbAlignedDimension
 13
11129.21801871771
 23
9658.155500302051
 33
0.0
 14
11129.21801871768
 24
8288.155500302041
 34
0.0
 50
90.0
100
AcDbRotatedDimension
1001
ACAD
1000
DSTYLE
1002
{
1002
}
  0
DIMENSION
  5
18CFB
330
747D
100
AcDbEntity
  8
寸法
100
AcDbDimension
  2
*D18
 10
11829.2180187177
 20
8343.155500302037
 30
0.0
 11
11829.21801871769
 21
8973.155500302045
 31
0.0
 70
   160
  1
3X420=<>
 71
     5
 42
1260.000000000016
  3
INABA_S40G
100
AcDbAlignedDimension
 13
11129.21801871771
 23
9603.155500302053
 33
0.0
 14
11129.21801871768
 24
8343.155500302037
 34
0.0
 50
90.0
100
AcDbRotatedDimension
1001
ACAD
1000
DSTYLE
1002
{
1002
}
  0
LINE
  5
18CFC
330
747D
100
AcDbEntity
  8
部品1
100
AcDbLine
 10
11129.21801871771
 20
9658.155500302051
 30
0.0
 11
11129.21801871768
 21
8288.155500302041
 31
0.0
  0
LINE
  5
18CFD
330
747D
100
AcDbEntity
  8
部品1
100
AcDbLine
 10
11072.7180187177
 20
9178.15550030205
 30
0.0
 11
11072.71801871771
 21
8344.655500302041
 31
0.0
  0
LINE
  5
18CFE
330
747D
100
AcDbEntity
  8
部品1
100
AcDbLine
 10
11101.2180187177
 20
9183.155500302053
 30
0.0
 11
11101.21801871768
 21
8316.155500302041
 31
0.0
  0
DIMENSION
  5
18CFF
330
747D
100
AcDbEntity
  8
寸法
100
AcDbDimension
  2
*D19
 10
11829.21801871768
 20
8288.155500302041
 30
0.0
 11
11829.21801871768
 21
7979.670218927788
 31
0.0
 70
   160
 71
     5
 42
54.99999999999636
  3
INABA_S40G
100
AcDbAlignedDimension
 13
11129.21801871768
 23
8343.155500302037
 33
0.0
 14
11129.21801871768
 24
8288.155500302041
 34
0.0
 50
90.0
100
AcDbRotatedDimension
1001
ACAD
1000
DSTYLE
1002
{
1002
}
  0
LINE
  5
18D00
330
747D
100
AcDbEntity
  8
部品1
100
AcDbLine
 10
11129.21801871768
 20
8288.155500302041
 30
0.0
 11
11074.2180187177
 21
8288.155500302025
 31
0.0
  0
LINE
  5
18D01
330
747D
100
AcDbEntity
  8
部品1
100
AcDbLine
 10
11101.21801871768
 20
8343.155500302037
 30
0.0
 11
11129.21801871768
 21
8343.155500302037
 31
0.0
  0
LINE
  5
18D02
330
747D
100
AcDbEntity
  8
部品1
100
AcDbLine
 10
11129.21801871768
 20
8288.155500302041
 30
0.0
 11
11078.21801871768
 21
8288.155500302041
 31
0.0
  0
LINE
  5
18D03
330
747D
100
AcDbEntity
  8
部品1
 48
50.0
100
AcDbLine
 10
11072.71801871771
 20
8344.655500302041
 30
0.0
 11
11101.2180187177
 21
8316.155500302041
 31
0.0
  0
LINE
  5
18D04
330
747D
100
AcDbEntity
  8
部品1
100
AcDbLine
 10
11129.21801871768
 20
8343.155500302037
 30
0.0
 11
11129.21801871768
 21
8288.155500302041
 31
0.0
  0
LINE
  5
18D05
330
747D
100
AcDbEntity
  8
部品1
100
AcDbLine
 10
11101.2180187177
 20
8343.155500302037
 30
0.0
 11
11129.21801871771
 21
8343.155500302037
 31
0.0
  0
LINE
  5
18D06
330
747D
100
AcDbEntity
  8
部品1
 48
50.0
100
AcDbLine
 10
11074.2180187177
 20
8288.155500302025
 30
0.0
 11
11074.2180187177
 21
8316.155500302025
 31
0.0
  0
LINE
  5
18D08
330
747D
100
AcDbEntity
  8
部品1
100
AcDbLine
 10
11101.2180187177
 20
9630.15550030205
 30
0.0
 11
11101.2180187177
 21
9177.655500301925
 31
0.0
  0
LINE
  5
18D09
330
747D
100
AcDbEntity
  8
部品1
100
AcDbLine
 10
11100.71801871771
 20
9628.15550030205
 30
0.0
 11
11100.71801871771
 21
9178.155500302052
 31
0.0
  0
DIMENSION
  5
18D0A
330
747D
100
AcDbEntity
  8
寸法
100
AcDbDimension
  2
*D20
 10
11529.2180187177
 20
9063.339271345318
 30
0.0
 11
11529.2180187177
 21
9288.339271345316
 31
0.0
 70
   160
 71
     5
 42
449.9999999999963
  3
INABA_S40G
100
AcDbAlignedDimension
 13
11100.71801871771
 23
9628.15550030205
 33
0.0
 14
11100.71801871771
 24
9178.155500302052
 34
0.0
 50
90.0
100
AcDbRotatedDimension
1001
ACAD
1000
DSTYLE
1002
{
1002
}
  0
DIMENSION
  5
18D0B
330
747D
100
AcDbEntity
  8
寸法
100
AcDbDimension
  2
*D21
 10
11829.2180187177
 20
9603.155500302053
 30
0.0
 11
11829.21801871769
 21
9966.640781676289
 31
0.0
 70
   160
 71
     5
 42
54.99999999999636
  3
INABA_S40G
100
AcDbAlignedDimension
 13
11129.21801871771
 23
9658.155500302051
 33
0.0
 14
11129.21801871771
 24
9603.155500302053
 34
0.0
 50
90.0
100
AcDbRotatedDimension
1001
ACAD
1000
DSTYLE
1002
{
1002
}
  0
LINE
  5
18D0C
330
747D
100
AcDbEntity
  8
部品1
100
AcDbLine
 10
11101.2180187177
 20
8763.155500302051
 30
0.0
 11
11129.21801871771
 21
8763.155500302051
 31
0.0
  0
LINE
  5
18D0D
330
747D
100
AcDbEntity
  8
部品1
100
AcDbLine
 10
11101.2180187177
 20
9183.155500302053
 30
0.0
 11
11129.21801871771
 21
9183.155500302053
 31
0.0
  0
LINE
  5
18D0E
330
747D
100
AcDbEntity
  8
部品1
100
AcDbLine
 10
11101.2180187177
 20
9603.155500302053
 30
0.0
 11
11129.21801871771
 21
9603.155500302053
 31
0.0
  0
LINE
  5
18D0F
330
747D
100
AcDbEntity
  8
部品1
100
AcDbLine
 10
11074.2180187177
 20
9658.155500302072
 30
0.0
 11
11074.2180187177
 21
9630.155500302072
 31
0.0
  0
LINE
  5
18D10
330
747D
100
AcDbEntity
  8
部品1
100
AcDbLine
 10
11074.2180187177
 20
9658.155500302051
 30
0.0
 11
11074.2180187177
 21
9630.15550030205
 31
0.0
  0
MTEXT
  5
18D11
330
747D
100
AcDbEntity
  8
寸法
 62
     7
 48
50.0
100
AcDbMText
 10
9179.320555810811
 20
9244.390318499336
 30
0.0
 40
96.0
 41
0.0
 71
     5
 72
     1
  1
棚 3段
  7
STYLE1
 73
     1
 44
1.0
1001
ACAD
1000
MTEXTBEGIN
1070
    73
1070
     1
1070
    44
1040
1.0
1070
    74
1070
     0
1000
MTEXTEND
  0
LINE
  5
18D30
330
747D
100
AcDbEntity
  8
部品1
 48
50.0
100
AcDbLine
 10
11101.2180187177
 20
5165.884242048253
 30
0.0
 11
8947.218018717698
 21
5165.884242048253
 31
0.0
  0
LINE
  5
18D31
330
747D
100
AcDbEntity
  8
細線
 48
50.0
100
AcDbLine
 10
11101.2180187177
 20
5155.884242048252
 30
0.0
 11
8947.218018717698
 21
5155.884242048252
 31
0.0
  0
LINE
  5
18D32
330
747D
100
AcDbEntity
  8
細線
 48
50.0
100
AcDbLine
 10
11071.2180187177
 20
5113.884242048253
 30
0.0
 11
8977.218018717698
 21
5113.884242048253
 31
0.0
  0
LINE
  5
18D33
330
747D
100
AcDbEntity
  8
細線
 48
50.0
100
AcDbLine
 10
11071.2180187177
 20
5123.384242048253
 30
0.0
 11
8977.218018717698
 21
5123.384242048253
 31
0.0
  0
LINE
  5
18D34
330
747D
100
AcDbEntity
  8
部品1
 48
50.0
100
AcDbLine
 10
8947.218018717698
 20
3030.884242048252
 30
0.0
 11
11101.2180187177
 21
3030.884242048252
 31
0.0
  0
LINE
  5
18D35
330
747D
100
AcDbEntity
  8
細線
 48
50.0
100
AcDbLine
 10
8977.218018717698
 20
3073.884242048253
 30
0.0
 11
11071.2180187177
 21
3073.884242048253
 31
0.0
  0
LINE
  5
18D36
330
747D
100
AcDbEntity
  8
細線
 48
50.0
100
AcDbLine
 10
8977.218018717698
 20
3077.884242048253
 30
0.0
 11
11071.2180187177
 21
3077.884242048253
 31
0.0
  0
LINE
  5
18D37
330
747D
100
AcDbEntity
  8
細線
 48
50.0
100
AcDbLine
 10
9781.218018717696
 20
3088.384242048253
 30
0.0
 11
11045.2180187177
 21
3088.384242048253
 31
0.0
  0
LINE
  5
18D38
330
747D
100
AcDbEntity
  8
部品1
 48
50.0
100
AcDbLine
 10
8977.218018717698
 20
3080.884242048253
 30
0.0
 11
8977.218018717698
 21
5113.884242048253
 31
0.0
  0
LINE
  5
18D39
330
747D
100
AcDbEntity
  8
細線
 48
50.0
100
AcDbLine
 10
8977.218018717698
 20
5123.384242048253
 30
0.0
 11
8977.218018717698
 21
3030.884242048252
 31
0.0
  0
LINE
  5
18D3A
330
747D
100
AcDbEntity
  8
部品1
 48
50.0
100
AcDbLine
 10
8947.218018717698
 20
5165.884242048253
 30
0.0
 11
8947.218018717698
 21
3030.884242048252
 31
0.0
  0
LINE
  5
18D3B
330
747D
100
AcDbEntity
  8
部品1
 48
50.0
100
AcDbLine
 10
9781.218018717696
 20
5113.884242073019
 30
0.0
 11
9781.218018717696
 21
3080.88424207302
 31
0.0
  0
LINE
  5
18D3C
330
747D
100
AcDbEntity
  8
部品1
 48
50.0
100
AcDbLine
 10
8977.218018717698
 20
3080.884242048253
 30
0.0
 11
9781.218018717694
 21
3080.884242048249
 31
0.0
  0
LINE
  5
18D3D
330
747D
100
AcDbEntity
  8
部品1
 48
50.0
100
AcDbLine
 10
8986.218018717698
 20
3080.884242048253
 30
0.0
 11
8986.218018717698
 21
3077.884242048253
 31
0.0
  0
LINE
  5
18D3E
330
747D
100
AcDbEntity
  8
部品1
 48
50.0
100
AcDbLine
 10
8977.218018717698
 20
5121.884242048253
 30
0.0
 11
8947.218018717698
 21
5121.884242048253
 31
0.0
  0
LINE
  5
18D3F
330
747D
100
AcDbEntity
  8
部品1
 48
50.0
100
AcDbLine
 10
11062.21801871769
 20
3077.884242048253
 30
0.0
 11
11062.21801871769
 21
5113.884242048253
 31
0.0
  0
LINE
  5
18D40
330
747D
100
AcDbEntity
  8
細線
 48
50.0
100
AcDbLine
 10
11071.2180187177
 20
3030.884242048252
 30
0.0
 11
11071.2180187177
 21
5123.384242048253
 31
0.0
  0
LINE
  5
18D41
330
747D
100
AcDbEntity
  8
部品1
 48
50.0
100
AcDbLine
 10
11101.2180187177
 20
3030.884242048252
 30
0.0
 11
11101.2180187177
 21
5165.884242048253
 31
0.0
  0
LINE
  5
18D42
330
747D
100
AcDbEntity
  8
部品1
 48
50.0
100
AcDbLine
 10
10435.21800902256
 20
5113.8842420854
 30
0.0
 11
10435.21800902256
 21
3088.3842420854
 31
0.0
  0
LINE
  5
18D43
330
747D
100
AcDbEntity
  8
細線
 48
50.0
100
AcDbLine
 10
11049.2180187177
 20
3077.884242048253
 30
0.0
 11
11045.2180187177
 21
3088.384242048253
 31
0.0
  0
LINE
  5
18D44
330
747D
100
AcDbEntity
  8
部品1
 48
50.0
100
AcDbLine
 10
11101.2180187177
 20
5121.884242048253
 30
0.0
 11
11071.2180187177
 21
5121.884242048253
 31
0.0
  0
LINE
  5
18D45
330
747D
100
AcDbEntity
  8
細線
100
AcDbLine
 10
10557.9680187177
 20
5113.884242048253
 30
0.0
 11
10557.9680187177
 21
3088.384242048271
 31
0.0
  0
LINE
  5
18D46
330
747D
100
AcDbEntity
  8
細線
100
AcDbLine
 10
9842.718028467942
 20
5113.884242048253
 30
0.0
 11
9842.718028467942
 21
3088.384242048264
 31
0.0
  0
LINE
  5
18D47
330
747D
100
AcDbEntity
  8
細線
100
AcDbLine
 10
9912.718028467942
 20
5113.884242048253
 30
0.0
 11
9912.718028467942
 21
3088.384242048264
 31
0.0
  0
LINE
  5
18D48
330
747D
100
AcDbEntity
  8
細線
100
AcDbLine
 10
9191.218018717698
 20
5113.884242048253
 30
0.0
 11
9191.218018717695
 21
3080.884242048256
 31
0.0
  0
LINE
  5
18D49
330
747D
100
AcDbEntity
  8
細線
100
AcDbLine
 10
9261.218018717698
 20
5113.884242048253
 30
0.0
 11
9261.218018717695
 21
3080.884242048256
 31
0.0
  0
LINE
  5
18D4A
330
747D
100
AcDbEntity
  8
細線
100
AcDbLine
 10
10627.9680187177
 20
5113.884242048253
 30
0.0
 11
10627.9680187177
 21
3088.384242048271
 31
0.0
  0
LINE
  5
18D4B
330
747D
100
AcDbEntity
  8
細線
100
AcDbLine
 10
10697.9680187177
 20
5113.884242048253
 30
0.0
 11
10697.9680187177
 21
3088.384242048271
 31
0.0
  0
LINE
  5
18D4C
330
747D
100
AcDbEntity
  8
細線
100
AcDbLine
 10
10767.9680187177
 20
5113.884242048253
 30
0.0
 11
10767.9680187177
 21
3088.384242048271
 31
0.0
  0
LINE
  5
18D4D
330
747D
100
AcDbEntity
  8
細線
100
AcDbLine
 10
10837.9680187177
 20
5113.884242048253
 30
0.0
 11
10837.9680187177
 21
3088.384242048271
 31
0.0
  0
LINE
  5
18D4E
330
747D
100
AcDbEntity
  8
細線
100
AcDbLine
 10
10907.9680187177
 20
5113.884242048253
 30
0.0
 11
10907.9680187177
 21
3088.384242048271
 31
0.0
  0
LINE
  5
18D4F
330
747D
100
AcDbEntity
  8
細線
100
AcDbLine
 10
9982.718028467942
 20
5113.884242048253
 30
0.0
 11
9982.718028467942
 21
3088.384242048264
 31
0.0
  0
LINE
  5
18D50
330
747D
100
AcDbEntity
  8
細線
100
AcDbLine
 10
10052.71802846794
 20
5113.884242048253
 30
0.0
 11
10052.71802846794
 21
3088.384242048264
 31
0.0
  0
LINE
  5
18D51
330
747D
100
AcDbEntity
  8
細線
100
AcDbLine
 10
10122.71802846794
 20
5113.884242048253
 30
0.0
 11
10122.71802846794
 21
3088.384242048264
 31
0.0
  0
LINE
  5
18D52
330
747D
100
AcDbEntity
  8
細線
100
AcDbLine
 10
10192.71802846794
 20
5113.884242048253
 30
0.0
 11
10192.71802846794
 21
3088.384242048264
 31
0.0
  0
LINE
  5
18D53
330
747D
100
AcDbEntity
  8
細線
100
AcDbLine
 10
10262.71802846794
 20
5113.884242048253
 30
0.0
 11
10262.71802846794
 21
3088.384242048264
 31
0.0
  0
LINE
  5
18D54
330
747D
100
AcDbEntity
  8
細線
100
AcDbLine
 10
10332.71802846794
 20
5113.884242048253
 30
0.0
 11
10332.71802846794
 21
3088.384242048264
 31
0.0
  0
LINE
  5
18D55
330
747D
100
AcDbEntity
  8
細線
100
AcDbLine
 10
9105.218018717694
 20
5113.884242048253
 30
0.0
 11
9105.218018717698
 21
3080.884242048256
 31
0.0
  0
LINE
  5
18D56
330
747D
100
AcDbEntity
  8
細線
100
AcDbLine
 10
9139.218018717695
 20
5113.884242048253
 30
0.0
 11
9139.218018717699
 21
3080.884242048256
 31
0.0
  0
LINE
  5
18D57
330
747D
100
AcDbEntity
  8
部品1
100
AcDbLine
 10
9097.218018717695
 20
5113.884242048253
 30
0.0
 11
9097.218018717699
 21
3080.884242048256
 31
0.0
  0
LINE
  5
18D58
330
747D
100
AcDbEntity
  8
部品1
100
AcDbLine
 10
9147.218018717694
 20
5113.884242048253
 30
0.0
 11
9147.218018717699
 21
3080.884242048256
 31
0.0
  0
LINE
  5
18D59
330
747D
100
AcDbEntity
  8
細線
100
AcDbLine
 10
9331.218018717697
 20
5113.884242048253
 30
0.0
 11
9331.218018717695
 21
3080.884242048256
 31
0.0
  0
LINE
  5
18D5A
330
747D
100
AcDbEntity
  8
細線
100
AcDbLine
 10
9401.218018717697
 20
5113.884242048253
 30
0.0
 11
9401.218018717695
 21
3080.884242048256
 31
0.0
  0
LINE
  5
18D5B
330
747D
100
AcDbEntity
  8
細線
100
AcDbLine
 10
9471.218018717697
 20
5113.884242048253
 30
0.0
 11
9471.218018717694
 21
3080.884242048256
 31
0.0
  0
LINE
  5
18D5C
330
747D
100
AcDbEntity
  8
細線
100
AcDbLine
 10
9541.218018717698
 20
5113.884242048253
 30
0.0
 11
9541.218018717694
 21
3080.884242048256
 31
0.0
  0
LINE
  5
18D5D
330
747D
100
AcDbEntity
  8
細線
100
AcDbLine
 10
9611.2180187177
 20
5113.884242048253
 30
0.0
 11
9611.218018717694
 21
3080.88424204826
 31
0.0
  0
LINE
  5
18D5E
330
747D
100
AcDbEntity
  8
細線
100
AcDbLine
 10
9681.218018717698
 20
5113.884242048253
 30
0.0
 11
9681.218018717695
 21
3080.88424204826
 31
0.0
  0
LINE
  5
18D5F
330
747D
100
AcDbEntity
  8
部品1
100
AcDbLine
 10
10435.21800902255
 20
5113.884242085403
 30
0.0
 11
10435.21800902255
 21
3088.384242085418
 31
0.0
  0
LINE
  5
18D60
330
747D
100
AcDbEntity
  8
部品1
 48
50.0
100
AcDbLine
 10
9781.218018717696
 20
5113.884242073019
 30
0.0
 11
9781.218018717694
 21
3080.884242048249
 31
0.0
  0
LINE
  5
18E11
330
747D
100
AcDbEntity
  8
細線
 48
50.0
100
AcDbLine
 10
8631.718018717698
 20
5170.884242048252
 30
0.0
 11
8631.718018717698
 21
3080.884242048253
 31
0.0
  0
LINE
  5
18E12
330
747D
100
AcDbEntity
  8
細線
 48
50.0
100
AcDbLine
 10
8616.718018717698
 20
5170.884242048252
 30
0.0
 11
8616.718018717698
 21
3080.884242048253
 31
0.0
  0
LINE
  5
18E13
330
747D
100
AcDbEntity
  8
細線
 48
50.0
100
AcDbLine
 10
8756.718018717698
 20
5170.884242048252
 30
0.0
 11
8756.718018717698
 21
3080.884242048253
 31
0.0
  0
LINE
  5
18E14
330
747D
100
AcDbEntity
  8
細線
 48
50.0
100
AcDbLine
 10
8771.718018717697
 20
5170.884242048252
 30
0.0
 11
8771.718018717697
 21
3080.884242048253
 31
0.0
  0
LINE
  5
18E15
330
747D
100
AcDbEntity
  8
細線
 48
50.0
100
AcDbLine
 10
8911.718018717698
 20
5170.884242048252
 30
0.0
 11
8911.718018717698
 21
3080.884242048253
 31
0.0
  0
LINE
  5
18E16
330
747D
100
AcDbEntity
  8
細線
 48
50.0
100
AcDbLine
 10
8896.718018717697
 20
5170.884242048252
 30
0.0
 11
8896.718018717697
 21
3080.884242048253
 31
0.0
  0
LINE
  5
18E18
330
747D
100
AcDbEntity
  8
部品1
100
AcDbLine
 10
5773.795950891355
 20
2051.568699073293
 30
0.0
 11
5010.325284662918
 21
2051.568699073293
 31
0.0
  0
LINE
  5
18E19
330
747D
100
AcDbEntity
  8
部品1
100
AcDbLine
 10
5773.795950891355
 20
1811.67637752776
 30
0.0
 11
5773.795950891355
 21
2051.568699073293
 31
0.0
  0
LINE
  5
18E1A
330
747D
100
AcDbEntity
  8
部品1
100
AcDbLine
 10
5010.325284662918
 20
1811.67637752776
 30
0.0
 11
5773.795950891355
 21
1811.67637752776
 31
0.0
  0
LINE
  5
18E1B
330
747D
100
AcDbEntity
  8
部品1
100
AcDbLine
 10
5010.325284662918
 20
2051.568699073293
 30
0.0
 11
5010.325284662918
 21
1811.67637752776
 31
0.0
  0
TEXT
  5
18E1C
330
747D
100
AcDbEntity
  8
部品1
100
AcDbText
 10
5099.771386086526
 20
1858.67516985477
 30
0.0
 40
135.0
  1
側面図
  7
STYLE2
100
AcDbText
  0
TEXT
  5
18E1D
330
747D
100
AcDbEntity
  8
文字
 62
     7
 48
50.0
100
AcDbText
 10
14491.96323844892
 20
483.8967129911416
 30
0.0
 40
160.0
  1
ＮＸＮ－３６ＨＢ
  7
STYLE2
100
AcDbText
  0
TEXT
  5
18E1E
330
747D
100
AcDbEntity
  8
文字
 62
     7
 48
50.0
100
AcDbText
 10
13209.4053442172
 20
228.5435242569015
 30
0.0
 40
100.0
  1
○有効開口寸法 ： 1266×2025(mm)
  7
STYLE2
100
AcDbText
  0
ARC
  5
18E1F
330
747D
100
AcDbEntity
  8
部品1
100
AcDbCircle
 10
6119.6521966707
 20
5398.884242048256
 30
0.0
 40
7.0
100
AcDbArc
 50
356.7526572096623
 51
90.0
  0
ARC
  5
18E20
330
747D
100
AcDbEntity
  8
部品1
100
AcDbCircle
 10
6106.436873209666
 20
5271.884242048258
 30
0.0
 40
7.0
100
AcDbArc
 50
270.0
 51
356.7526572096623
  0
ARC
  5
18E21
330
747D
100
AcDbEntity
  8
部品1
 48
50.0
100
AcDbCircle
 10
6124.808683420346
 20
5378.551241209941
 30
0.0
 40
0.7
100
AcDbArc
 50
277.6581272073652
 51
356.7526572095583
  0
ARC
  5
18E22
330
747D
100
AcDbEntity
  8
部品1
 48
50.0
100
AcDbCircle
 10
6116.572652895502
 20
5286.351241209938
 30
0.0
 40
0.7
100
AcDbArc
 50
277.6581272073652
 51
356.7526572096623
  0
ARC
  5
18E23
330
747D
100
AcDbEntity
  8
部品1
 48
50.0
100
AcDbCircle
 10
6117.065722004063
 20
5282.684242048254
 30
0.0
 40
3.0
100
AcDbArc
 50
97.65812720736519
 51
176.7526572096623
  0
ARC
  5
18E24
330
747D
100
AcDbEntity
  8
部品1
 48
50.0
100
AcDbCircle
 10
6125.301752528907
 20
5374.884242048258
 30
0.0
 40
3.0
100
AcDbArc
 50
97.65812720736519
 51
176.7526572096623
  0
LINE
  5
18E25
330
747D
100
AcDbEntity
  8
部品1
100
AcDbLine
 10
6122.306569632721
 20
5375.054181503359
 30
0.0
 11
6117.27152890461
 21
5286.311588670415
 31
0.0
  0
LINE
  5
18E26
330
747D
100
AcDbEntity
  8
部品1
100
AcDbLine
 10
6114.070539107878
 20
5282.854181503356
 30
0.0
 11
6113.425633300765
 21
5271.487716653017
 31
0.0
  0
LINE
  5
18E27
330
747D
100
AcDbEntity
  8
細線
 48
50.0
100
AcDbLine
 10
6094.060617777134
 20
5405.884242048256
 30
0.0
 11
6094.060617777134
 21
5264.884242048256
 31
0.0
  0
LINE
  5
18E28
330
747D
100
AcDbEntity
  8
部品1
100
AcDbLine
 10
6126.640956761799
 20
5398.487716653017
 30
0.0
 11
6125.507559429454
 21
5378.511588670416
 31
0.0
  0
DIMENSION
  5
18E29
330
747D
100
AcDbEntity
  8
寸法
 48
50.0
100
AcDbDimension
  2
*D22
 10
6077.060617777133
 20
5810.504501475524
 30
0.0
 11
6440.54589915137
 21
5810.504501475524
 31
0.0
 70
   160
 71
     5
 42
50.0
  3
INABA_S40G
100
AcDbAlignedDimension
 13
6127.060617777133
 23
5405.884242048254
 33
0.0
 14
6077.060617777133
 24
5405.884242048258
 34
0.0
100
AcDbRotatedDimension
  0
LINE
  5
18E2A
330
747D
100
AcDbEntity
  8
部品1
 48
0.01
100
AcDbLine
 10
5792.060617777137
 20
5234.88424204825
 30
0.0
 11
5792.060617777137
 21
5203.384242048251
 31
0.0
  0
LINE
  5
18E2B
330
747D
100
AcDbEntity
  8
部品1
 48
0.01
100
AcDbLine
 10
5790.060617777137
 20
5201.38424204825
 30
0.0
 11
5614.060617777137
 21
5201.38424204825
 31
0.0
  0
LINE
  5
18E2C
330
747D
100
AcDbEntity
  8
部品1
 48
0.01
100
AcDbLine
 10
5612.060617777137
 20
5203.384242048251
 30
0.0
 11
5612.060617777137
 21
5234.88424204825
 31
0.0
  0
ARC
  5
18E2D
330
747D
100
AcDbEntity
  8
部品1
 48
0.01
100
AcDbCircle
 10
5790.060617777137
 20
5203.384242048251
 30
0.0
 40
2.0
100
AcDbArc
 50
270.0
 51
0.0
  0
ARC
  5
18E2E
330
747D
100
AcDbEntity
  8
部品1
 48
0.01
100
AcDbCircle
 10
5614.060617777137
 20
5203.384242048251
 30
0.0
 40
2.0
100
AcDbArc
 50
180.0
 51
270.0
  0
LINE
  5
18E2F
330
747D
100
AcDbEntity
  8
細線
100
AcDbLine
 10
5702.060617777137
 20
5230.384242048251
 30
0.0
 11
5702.060617777137
 21
5207.384242048251
 31
0.0
  0
LINE
  5
18E30
330
747D
100
AcDbEntity
  8
細線
100
AcDbLine
 10
5628.060617777137
 20
5218.384242048251
 30
0.0
 11
5702.060617777137
 21
5218.384242048251
 31
0.0
  0
LINE
  5
18E31
330
747D
100
AcDbEntity
  8
細線
100
AcDbLine
 10
5628.060617777137
 20
5212.38424204825
 30
0.0
 11
5702.060617777137
 21
5212.38424204825
 31
0.0
  0
LINE
  5
18E32
330
747D
100
AcDbEntity
  8
細線
100
AcDbLine
 10
5628.060617777137
 20
5224.384242048251
 30
0.0
 11
5702.060617777137
 21
5224.384242048251
 31
0.0
  0
LINE
  5
18E33
330
747D
100
AcDbEntity
  8
細線
100
AcDbLine
 10
5776.060617777137
 20
5224.384242048251
 30
0.0
 11
5707.060617777137
 21
5224.384242048251
 31
0.0
  0
LINE
  5
18E34
330
747D
100
AcDbEntity
  8
細線
100
AcDbLine
 10
5776.060617777137
 20
5212.38424204825
 30
0.0
 11
5702.060617777137
 21
5212.38424204825
 31
0.0
  0
LINE
  5
18E35
330
747D
100
AcDbEntity
  8
細線
100
AcDbLine
 10
5776.060617777137
 20
5218.384242048251
 30
0.0
 11
5702.060617777137
 21
5218.384242048251
 31
0.0
  0
LINE
  5
18E36
330
747D
100
AcDbEntity
  8
細線
100
AcDbLine
 10
5776.060617777137
 20
5224.384242048251
 30
0.0
 11
5702.060617777137
 21
5224.384242048251
 31
0.0
  0
LINE
  5
18E37
330
747D
100
AcDbEntity
  8
部品1
 48
0.01
100
AcDbLine
 10
5614.060617777137
 20
5236.884242048251
 30
0.0
 11
5790.060617777137
 21
5236.884242048251
 31
0.0
  0
LINE
  5
18E38
330
747D
100
AcDbEntity
  8
細線
100
AcDbLine
 10
5776.060617777137
 20
5230.384242048251
 30
0.0
 11
5776.060617777137
 21
5207.384242048251
 31
0.0
  0
LINE
  5
18E39
330
747D
100
AcDbEntity
  8
細線
100
AcDbLine
 10
5628.060617777137
 20
5207.384242048251
 30
0.0
 11
5628.060617777137
 21
5230.384242048251
 31
0.0
  0
LINE
  5
18E3A
330
747D
100
AcDbEntity
  8
細線
100
AcDbLine
 10
5628.060617777137
 20
5230.384242048251
 30
0.0
 11
5702.060617777137
 21
5230.384242048251
 31
0.0
  0
LINE
  5
18E3B
330
747D
100
AcDbEntity
  8
細線
100
AcDbLine
 10
5776.060617777137
 20
5207.384242048251
 30
0.0
 11
5702.060617777137
 21
5207.384242048251
 31
0.0
  0
LINE
  5
18E3C
330
747D
100
AcDbEntity
  8
細線
100
AcDbLine
 10
5702.060617777137
 20
5230.384242048251
 30
0.0
 11
5776.060617777137
 21
5230.384242048251
 31
0.0
  0
LINE
  5
18E3D
330
747D
100
AcDbEntity
  8
細線
100
AcDbLine
 10
5702.060617777137
 20
5207.384242048251
 30
0.0
 11
5628.060617777137
 21
5207.384242048251
 31
0.0
  0
ARC
  5
18E3E
330
747D
100
AcDbEntity
  8
部品1
 48
0.01
100
AcDbCircle
 10
5790.060617777137
 20
5234.88424204825
 30
0.0
 40
2.0
100
AcDbArc
 50
0.0
 51
90.0
  0
ARC
  5
18E3F
330
747D
100
AcDbEntity
  8
部品1
 48
0.01
100
AcDbCircle
 10
5614.060617777137
 20
5234.88424204825
 30
0.0
 40
2.0
100
AcDbArc
 50
90.0
 51
180.0
  0
ARC
  5
18E40
330
747D
100
AcDbEntity
  8
部品1
 48
0.01
100
AcDbCircle
 10
5170.060617777133
 20
5203.384242048251
 30
0.0
 40
2.0
100
AcDbArc
 50
270.0
 51
0.0
  0
ARC
  5
18E41
330
747D
100
AcDbEntity
  8
部品1
 48
0.01
100
AcDbCircle
 10
5170.060617777137
 20
5234.88424204825
 30
0.0
 40
2.0
100
AcDbArc
 50
0.0
 51
90.0
  0
ARC
  5
18E42
330
747D
100
AcDbEntity
  8
部品1
 48
0.01
100
AcDbCircle
 10
4994.060617777137
 20
5203.384242048251
 30
0.0
 40
2.0
100
AcDbArc
 50
180.0
 51
270.0
  0
ARC
  5
18E43
330
747D
100
AcDbEntity
  8
部品1
 48
0.01
100
AcDbCircle
 10
4994.060617777137
 20
5234.88424204825
 30
0.0
 40
2.0
100
AcDbArc
 50
90.0
 51
180.0
  0
LINE
  5
18E44
330
747D
100
AcDbEntity
  8
細線
100
AcDbLine
 10
5082.060617777133
 20
5207.384242048251
 30
0.0
 11
5156.060617777137
 21
5207.384242048251
 31
0.0
  0
LINE
  5
18E45
330
747D
100
AcDbEntity
  8
細線
100
AcDbLine
 10
5082.060617777137
 20
5230.384242048251
 30
0.0
 11
5008.060617777137
 21
5230.384242048251
 31
0.0
  0
LINE
  5
18E46
330
747D
100
AcDbEntity
  8
細線
100
AcDbLine
 10
5008.060617777137
 20
5207.384242048251
 30
0.0
 11
5082.060617777137
 21
5207.384242048251
 31
0.0
  0
LINE
  5
18E47
330
747D
100
AcDbEntity
  8
細線
100
AcDbLine
 10
5156.060617777137
 20
5230.384242048251
 30
0.0
 11
5082.060617777137
 21
5230.384242048251
 31
0.0
  0
LINE
  5
18E48
330
747D
100
AcDbEntity
  8
細線
100
AcDbLine
 10
5156.060617777137
 20
5207.384242048251
 30
0.0
 11
5156.060617777137
 21
5230.384242048251
 31
0.0
  0
LINE
  5
18E49
330
747D
100
AcDbEntity
  8
細線
100
AcDbLine
 10
5008.060617777137
 20
5230.384242048251
 30
0.0
 11
5008.060617777137
 21
5207.384242048251
 31
0.0
  0
LINE
  5
18E4A
330
747D
100
AcDbEntity
  8
部品1
 48
0.01
100
AcDbLine
 10
5172.060617777134
 20
5203.384242048251
 30
0.0
 11
5172.060617777137
 21
5234.88424204825
 31
0.0
  0
LINE
  5
18E4B
330
747D
100
AcDbEntity
  8
部品1
 48
0.01
100
AcDbLine
 10
4994.060617777137
 20
5201.38424204825
 30
0.0
 11
5170.060617777133
 21
5201.38424204825
 31
0.0
  0
LINE
  5
18E4C
330
747D
100
AcDbEntity
  8
部品1
 48
0.01
100
AcDbLine
 10
4992.060617777137
 20
5234.88424204825
 30
0.0
 11
4992.060617777137
 21
5203.384242048251
 31
0.0
  0
LINE
  5
18E4D
330
747D
100
AcDbEntity
  8
部品1
 48
0.01
100
AcDbLine
 10
5170.060617777137
 20
5236.884242048251
 30
0.0
 11
4994.060617777137
 21
5236.884242048251
 31
0.0
  0
LINE
  5
18E4E
330
747D
100
AcDbEntity
  8
細線
100
AcDbLine
 10
5008.060617777137
 20
5224.384242048251
 30
0.0
 11
5082.060617777137
 21
5224.384242048251
 31
0.0
  0
LINE
  5
18E4F
330
747D
100
AcDbEntity
  8
細線
100
AcDbLine
 10
5008.060617777137
 20
5218.384242048251
 30
0.0
 11
5082.060617777137
 21
5218.384242048251
 31
0.0
  0
LINE
  5
18E50
330
747D
100
AcDbEntity
  8
細線
100
AcDbLine
 10
5008.060617777133
 20
5212.38424204825
 30
0.0
 11
5082.060617777137
 21
5212.38424204825
 31
0.0
  0
LINE
  5
18E51
330
747D
100
AcDbEntity
  8
細線
100
AcDbLine
 10
5008.060617777137
 20
5224.384242048251
 30
0.0
 11
5077.060617777137
 21
5224.384242048251
 31
0.0
  0
LINE
  5
18E52
330
747D
100
AcDbEntity
  8
細線
100
AcDbLine
 10
5156.060617777133
 20
5224.384242048251
 30
0.0
 11
5082.060617777137
 21
5224.384242048251
 31
0.0
  0
LINE
  5
18E53
330
747D
100
AcDbEntity
  8
細線
100
AcDbLine
 10
5156.060617777133
 20
5212.38424204825
 30
0.0
 11
5082.060617777137
 21
5212.38424204825
 31
0.0
  0
LINE
  5
18E54
330
747D
100
AcDbEntity
  8
細線
100
AcDbLine
 10
5156.060617777133
 20
5218.384242048251
 30
0.0
 11
5082.060617777137
 21
5218.384242048251
 31
0.0
  0
LINE
  5
18E55
330
747D
100
AcDbEntity
  8
細線
100
AcDbLine
 10
5082.060617777137
 20
5230.384242048251
 30
0.0
 11
5082.060617777133
 21
5207.384242048251
 31
0.0
  0
LINE
  5
18E56
330
747D
100
AcDbEntity
  8
細線
 48
50.0
100
AcDbLine
 10
6116.785049030855
 20
5285.684242048255
 30
0.0
 11
4667.336186523403
 21
5285.684242048257
 31
0.0
  0
LINE
  5
18E57
330
747D
100
AcDbEntity
  8
細線
 48
50.0
100
AcDbLine
 10
6125.021079555692
 20
5377.884242048256
 30
0.0
 11
4659.100155998574
 21
5377.884242048254
 31
0.0
  0
LINE
  5
18E58
330
747D
100
AcDbEntity
  8
部品1
 48
50.0
100
AcDbLine
 10
6106.436873209666
 20
5264.884242048258
 30
0.0
 11
4677.684362344604
 21
5264.884242048256
 31
0.0
  0
LINE
  5
18E59
330
747D
100
AcDbEntity
  8
部品1
 48
50.0
100
AcDbLine
 10
6119.6521966707
 20
5405.884242048256
 30
0.0
 11
4664.469038883566
 21
5405.884242048258
 31
0.0
  0
LINE
  5
18E5A
330
747D
100
AcDbEntity
  8
部品1
100
AcDbLine
 10
4657.480278792471
 20
5398.487716653017
 30
0.0
 11
4658.61367612482
 21
5378.511588670416
 31
0.0
  0
LINE
  5
18E5B
330
747D
100
AcDbEntity
  8
部品1
100
AcDbLine
 10
4670.050696446393
 20
5282.854181503356
 30
0.0
 11
4670.695602253501
 21
5271.487716653017
 31
0.0
  0
LINE
  5
18E5C
330
747D
100
AcDbEntity
  8
部品1
100
AcDbLine
 10
4661.814665921549
 20
5375.054181503359
 30
0.0
 11
4666.849706649656
 21
5286.311588670415
 31
0.0
  0
ARC
  5
18E5D
330
747D
100
AcDbEntity
  8
部品1
 48
50.0
100
AcDbCircle
 10
4658.819483025363
 20
5374.884242048258
 30
0.0
 40
3.0
100
AcDbArc
 50
3.247342790337682
 51
82.3418727926348
  0
ARC
  5
18E5E
330
747D
100
AcDbEntity
  8
部品1
 48
50.0
100
AcDbCircle
 10
4667.055513550207
 20
5282.684242048254
 30
0.0
 40
3.0
100
AcDbArc
 50
3.247342790337682
 51
82.3418727926348
  0
ARC
  5
18E5F
330
747D
100
AcDbEntity
  8
部品1
 48
50.0
100
AcDbCircle
 10
4667.548582658768
 20
5286.351241209938
 30
0.0
 40
0.7
100
AcDbArc
 50
183.2473427903377
 51
262.3418727926349
  0
ARC
  5
18E60
330
747D
100
AcDbEntity
  8
部品1
 48
50.0
100
AcDbCircle
 10
4659.312552133925
 20
5378.551241209941
 30
0.0
 40
0.7
100
AcDbArc
 50
183.2473427904417
 51
262.3418727926349
  0
ARC
  5
18E61
330
747D
100
AcDbEntity
  8
部品1
100
AcDbCircle
 10
4677.684362344604
 20
5271.884242048258
 30
0.0
 40
7.0
100
AcDbArc
 50
183.2473427903377
 51
270.0
  0
ARC
  5
18E62
330
747D
100
AcDbEntity
  8
部品1
100
AcDbCircle
 10
4664.469038883566
 20
5398.884242048256
 30
0.0
 40
7.0
100
AcDbArc
 50
90.0
 51
183.2473427903377
  0
LINE
  5
18E63
330
747D
100
AcDbEntity
  8
細線
 48
50.0
100
AcDbLine
 10
4690.060617777141
 20
5405.884242048256
 30
0.0
 11
4690.060617777141
 21
5264.884242048256
 31
0.0
  0
DIMENSION
  5
18E64
330
747D
100
AcDbEntity
  8
寸法
 48
50.0
100
AcDbDimension
  2
*D23
 10
4707.06061777714
 20
5810.504501475524
 30
0.0
 11
5392.060617777136
 21
5810.504501475524
 31
0.0
 70
   160
  1
柱外寸法<>
 71
     5
 42
1369.999999999993
  3
INABA_S40G
100
AcDbAlignedDimension
 13
6077.060617777133
 23
5405.884242048258
 33
0.0
 14
4707.06061777714
 24
5405.884242048258
 34
0.0
100
AcDbRotatedDimension
  0
DIMENSION
  5
18E65
330
747D
100
AcDbEntity
  8
寸法
 48
50.0
100
AcDbDimension
  2
*D24
 10
4657.06061777714
 20
5810.504501475524
 30
0.0
 11
4343.575336402893
 21
5810.504501475524
 31
0.0
 70
   160
 71
     5
 42
50.0
  3
INABA_S40G
100
AcDbAlignedDimension
 13
4707.06061777714
 23
5405.884242048258
 33
0.0
 14
4657.06061777714
 24
5405.884242048258
 34
0.0
100
AcDbRotatedDimension
1001
ACAD
1000
DSTYLE
1002
{
1002
}
  0
DIMENSION
  5
18E66
330
747D
100
AcDbEntity
  8
寸法
 48
50.0
100
AcDbDimension
  2
*D25
 10
6127.060617777133
 20
6053.670613382543
 30
0.0
 11
5369.694831575813
 21
6053.670613382543
 31
0.0
 70
   160
 71
     5
 42
1469.999999999993
  3
INABA_S40G
100
AcDbAlignedDimension
 13
4657.06061777714
 23
5405.884242048258
 33
0.0
 14
6127.060617777133
 24
5405.884242048254
 34
0.0
100
AcDbRotatedDimension
  0
TEXT
  5
18E67
330
747D
100
AcDbEntity
  8
部品1
100
AcDbText
 10
3407.117355527826
 20
2966.991145654154
 30
0.0
 40
125.0
  1
▽G.L
  7
STYLE2
100
AcDbText
  0
TEXT
  5
18E68
330
747D
100
AcDbEntity
  8
文字
 62
     7
 48
50.0
100
AcDbText
 10
13248.77747366447
 20
8380.013745883728
 30
0.0
 40
100.0
  1
17
  7
STYLE1
100
AcDbText
  0
TEXT
  5
18E69
330
747D
100
AcDbEntity
  8
文字
 62
     7
 48
50.0
100
AcDbText
 10
13248.77747366447
 20
8550.013745883729
 30
0.0
 40
100.0
  1
16
  7
STYLE1
100
AcDbText
  0
TEXT
  5
18E6A
330
747D
100
AcDbEntity
  8
文字
 62
     7
 48
50.0
100
AcDbText
 10
15022.63965474517
 20
9060.013745883729
 30
0.0
 40
100.0
  1
F12            1.0
  7
STYLE1
100
AcDbText
  0
TEXT
  5
18E6B
330
747D
100
AcDbEntity
  8
文字
 62
     7
 48
50.0
100
AcDbText
 10
13583.11819016569
 20
9060.013745883736
 30
0.0
 40
100.0
  1
壁面扉枠左右
  7
STYLE1
100
AcDbText
  0
TEXT
  5
18E6C
330
747D
100
AcDbEntity
  8
文字
 62
     7
 48
50.0
100
AcDbText
 10
15022.63965474517
 20
9230.013745883729
 30
0.0
 40
100.0
  1
F12            1.0
  7
STYLE1
100
AcDbText
  0
TEXT
  5
18E6D
330
747D
100
AcDbEntity
  8
文字
 62
     7
 48
50.0
100
AcDbText
 10
15022.63965474515
 20
9400.013745883729
 30
0.0
 40
100.0
  1
F12            0.7
  7
STYLE1
100
AcDbText
  0
TEXT
  5
18E6E
330
747D
100
AcDbEntity
  8
文字
 62
     7
 48
50.0
100
AcDbText
 10
13583.11819016569
 20
9230.013745883736
 30
0.0
 40
100.0
  1
壁面扉敷居
  7
STYLE1
100
AcDbText
  0
TEXT
  5
18E6F
330
747D
100
AcDbEntity
  8
文字
 62
     7
 48
50.0
100
AcDbText
 10
13583.11819016569
 20
9400.013745883729
 30
0.0
 40
100.0
  1
壁面扉鴨居
  7
STYLE1
100
AcDbText
  0
LINE
  5
18E70
330
747D
100
AcDbEntity
  8
仕様書枠
 48
50.0
100
AcDbLine
 10
16307.19999999999
 20
8689.600000000007
 30
0.0
 11
13127.2
 21
8689.600000000007
 31
0.0
  0
LINE
  5
18E71
330
747D
100
AcDbEntity
  8
仕様書枠
 48
50.0
100
AcDbLine
 10
16307.19999999999
 20
8519.600000000009
 30
0.0
 11
13127.2
 21
8519.600000000009
 31
0.0
  0
TEXT
  5
18E72
330
747D
100
AcDbEntity
  8
文字
 62
     7
 48
50.0
100
AcDbText
 10
13583.11819016569
 20
8380.013745883728
 30
0.0
 40
100.0
  1
アンカープレート
  7
STYLE1
100
AcDbText
  0
TEXT
  5
18E73
330
747D
100
AcDbEntity
  8
文字
 62
     7
 48
50.0
100
AcDbText
 10
15022.63965474515
 20
8380.013745883726
 30
0.0
 40
100.0
  1
F12            2.3
  7
STYLE1
100
AcDbText
  0
LINE
  5
18E74
330
747D
100
AcDbEntity
  8
仕様書枠
 48
50.0
100
AcDbLine
 10
16307.2
 20
10049.6
 30
0.0
 11
13127.2
 21
10049.6
 31
0.0
  0
LINE
  5
18E75
330
747D
100
AcDbEntity
  8
仕様書枠
 48
50.0
100
AcDbLine
 10
16307.2
 20
11409.6
 30
0.0
 11
13127.2
 21
11409.6
 31
0.0
  0
LINE
  5
18E76
330
747D
100
AcDbEntity
  8
仕様書枠
 48
50.0
100
AcDbLine
 10
16307.19999999999
 20
8009.600000000007
 30
0.0
 11
16307.2
 21
11409.6
 31
0.0
  0
LINE
  5
18E77
330
747D
100
AcDbEntity
  8
仕様書枠
 48
50.0
100
AcDbLine
 10
14785.2
 20
11409.6
 30
0.0
 11
14785.2
 21
8349.600000000007
 31
0.0
  0
LINE
  5
18E78
330
747D
100
AcDbEntity
  8
仕様書枠
 48
50.0
100
AcDbLine
 10
13490.2
 20
11409.6
 30
0.0
 11
13490.20000000001
 21
8349.600000000007
 31
0.0
  0
LINE
  5
18E79
330
747D
100
AcDbEntity
  8
仕様書枠
 48
50.0
100
AcDbLine
 10
16307.2
 20
11239.6
 30
0.0
 11
13127.2
 21
11239.6
 31
0.0
  0
LINE
  5
18E7A
330
747D
100
AcDbEntity
  8
仕様書枠
 48
50.0
100
AcDbLine
 10
16307.2
 20
10899.6
 30
0.0
 11
13127.2
 21
10899.6
 31
0.0
  0
LINE
  5
18E7B
330
747D
100
AcDbEntity
  8
仕様書枠
 48
50.0
100
AcDbLine
 10
16307.2
 20
11069.6
 30
0.0
 11
13127.2
 21
11069.6
 31
0.0
  0
LINE
  5
18E7C
330
747D
100
AcDbEntity
  8
仕様書枠
 48
50.0
100
AcDbLine
 10
16307.19999999999
 20
10559.6
 30
0.0
 11
13127.2
 21
10559.6
 31
0.0
  0
LINE
  5
18E7D
330
747D
100
AcDbEntity
  8
仕様書枠
 48
50.0
100
AcDbLine
 10
16307.19999999999
 20
10389.6
 30
0.0
 11
13127.2
 21
10389.6
 31
0.0
  0
LINE
  5
18E7E
330
747D
100
AcDbEntity
  8
仕様書枠
 48
50.0
100
AcDbLine
 10
16307.19999999999
 20
10729.6
 30
0.0
 11
13127.2
 21
10729.6
 31
0.0
  0
TEXT
  5
18E7F
330
747D
100
AcDbEntity
  8
文字
 62
     7
 48
50.0
100
AcDbText
 10
13197.42518560407
 20
11270.01374588373
 30
0.0
 40
100.0
  1
品番
  7
STYLE1
100
AcDbText
  0
TEXT
  5
18E80
330
747D
100
AcDbEntity
  8
文字
 62
     7
 48
50.0
100
AcDbText
 10
13271.19032244792
 20
11100.01374588373
 30
0.0
 40
100.0
  1
1
  7
STYLE1
100
AcDbText
  0
TEXT
  5
18E81
330
747D
100
AcDbEntity
  8
文字
 62
     7
 48
50.0
100
AcDbText
 10
13271.19032244792
 20
10930.01374588373
 30
0.0
 40
100.0
  1
2
  7
STYLE1
100
AcDbText
  0
TEXT
  5
18E82
330
747D
100
AcDbEntity
  8
文字
 62
     7
 48
50.0
100
AcDbText
 10
13271.19032244792
 20
10590.01374588373
 30
0.0
 40
100.0
  1
4
  7
STYLE1
100
AcDbText
  0
TEXT
  5
18E83
330
747D
100
AcDbEntity
  8
文字
 62
     7
 48
50.0
100
AcDbText
 10
13271.19032244792
 20
10760.01374588373
 30
0.0
 40
100.0
  1
3
  7
STYLE1
100
AcDbText
  0
TEXT
  5
18E84
330
747D
100
AcDbEntity
  8
文字
 62
     7
 48
50.0
100
AcDbText
 10
13732.03840939434
 20
11270.01374588373
 30
0.0
 40
100.0
  1
部　　品　　名
  7
STYLE1
100
AcDbText
  0
TEXT
  5
18E85
330
747D
100
AcDbEntity
  8
文字
 62
     7
 48
50.0
100
AcDbText
 10
14859.79774614482
 20
11270.01374588373
 30
0.0
 40
100.0
  1
材料（材質）　　単位mm
  7
STYLE1
100
AcDbText
  0
TEXT
  5
18E86
330
747D
100
AcDbEntity
  8
文字
 62
     7
 48
50.0
100
AcDbText
 10
13583.11819016569
 20
11100.01374588373
 30
0.0
 40
100.0
  1
土台枠
  7
STYLE1
100
AcDbText
  0
TEXT
  5
18E87
330
747D
100
AcDbEntity
  8
文字
 62
     7
 48
50.0
100
AcDbText
 10
13583.1181901657
 20
10760.01374588373
 30
0.0
 40
100.0
  1
柱
  7
STYLE1
100
AcDbText
  0
TEXT
  5
18E88
330
747D
100
AcDbEntity
  8
文字
 62
     7
 48
50.0
100
AcDbText
 10
13583.11819016569
 20
10420.01374588373
 30
0.0
 40
100.0
  1
桁前後
  7
STYLE1
100
AcDbText
  0
TEXT
  5
18E89
330
747D
100
AcDbEntity
  8
文字
 62
     7
 48
50.0
100
AcDbText
 10
13271.19032244792
 20
10420.01374588373
 30
0.0
 40
100.0
  1
5
  7
STYLE1
100
AcDbText
  0
TEXT
  5
18E8A
330
747D
100
AcDbEntity
  8
文字
 62
     7
 48
50.0
100
AcDbText
 10
13583.11819016569
 20
10250.01374588373
 30
0.0
 40
100.0
  1
妻板左右
  7
STYLE1
100
AcDbText
  0
TEXT
  5
18E8B
330
747D
100
AcDbEntity
  8
文字
 62
     7
 48
50.0
100
AcDbText
 10
13248.77747366447
 20
9570.013745883729
 30
0.0
 40
100.0
  1
10
  7
STYLE1
100
AcDbText
  0
TEXT
  5
18E8C
330
747D
100
AcDbEntity
  8
文字
 62
     7
 48
50.0
100
AcDbText
 10
13583.11819016568
 20
9570.013745883729
 30
0.0
 40
100.0
  1
壁パネル
  7
STYLE1
100
AcDbText
  0
TEXT
  5
18E8D
330
747D
100
AcDbEntity
  8
文字
 62
     7
 48
50.0
100
AcDbText
 10
13583.11819016569
 20
9910.01374588373
 30
0.0
 40
100.0
  1
屋根パネル
  7
STYLE1
100
AcDbText
  0
TEXT
  5
18E8E
330
747D
100
AcDbEntity
  8
文字
 62
     7
 48
50.0
100
AcDbText
 10
13583.11819016569
 20
10080.01374588373
 30
0.0
 40
100.0
  1
鼻隠シ前後
  7
STYLE1
100
AcDbText
  0
TEXT
  5
18E8F
330
747D
100
AcDbEntity
  8
文字
 62
     7
 48
50.0
100
AcDbText
 10
13271.19032244792
 20
9910.01374588373
 30
0.0
 40
100.0
  1
8
  7
STYLE1
100
AcDbText
  0
TEXT
  5
18E90
330
747D
100
AcDbEntity
  8
文字
 62
     7
 48
50.0
100
AcDbText
 10
13271.19032244792
 20
9740.013745883729
 30
0.0
 40
100.0
  1
9
  7
STYLE1
100
AcDbText
  0
TEXT
  5
18E91
330
747D
100
AcDbEntity
  8
文字
 62
     7
 48
50.0
100
AcDbText
 10
13271.19032244792
 20
10080.01374588373
 30
0.0
 40
100.0
  1
7
  7
STYLE1
100
AcDbText
  0
TEXT
  5
18E92
330
747D
100
AcDbEntity
  8
文字
 62
     7
 48
50.0
100
AcDbText
 10
13271.19032244792
 20
10250.01374588373
 30
0.0
 40
100.0
  1
6
  7
STYLE1
100
AcDbText
  0
LINE
  5
18E93
330
747D
100
AcDbEntity
  8
仕様書枠
 48
50.0
100
AcDbLine
 10
16307.19999999999
 20
9709.600000000001
 30
0.0
 11
13127.2
 21
9709.600000000001
 31
0.0
  0
LINE
  5
18E94
330
747D
100
AcDbEntity
  8
仕様書枠
 48
50.0
100
AcDbLine
 10
16307.19999999999
 20
9369.600000000001
 30
0.0
 11
13127.2
 21
9369.600000000001
 31
0.0
  0
LINE
  5
18E95
330
747D
100
AcDbEntity
  8
仕様書枠
 48
50.0
100
AcDbLine
 10
16307.19999999999
 20
9539.6
 30
0.0
 11
13127.2
 21
9539.6
 31
0.0
  0
LINE
  5
18E96
330
747D
100
AcDbEntity
  8
仕様書枠
 48
50.0
100
AcDbLine
 10
16307.2
 20
10219.6
 30
0.0
 11
13127.2
 21
10219.6
 31
0.0
  0
LINE
  5
18E97
330
747D
100
AcDbEntity
  8
仕様書枠
 48
50.0
100
AcDbLine
 10
16307.2
 20
9879.600000000001
 30
0.0
 11
13127.2
 21
9879.600000000001
 31
0.0
  0
TEXT
  5
18E98
330
747D
100
AcDbEntity
  8
文字
 62
     7
 48
50.0
100
AcDbText
 10
13248.77747366447
 20
9400.013745883729
 30
0.0
 40
100.0
  1
11
  7
STYLE1
100
AcDbText
  0
LINE
  5
18E99
330
747D
100
AcDbEntity
  8
仕様書枠
 48
50.0
100
AcDbLine
 10
16307.19999999999
 20
9199.600000000001
 30
0.0
 11
13127.2
 21
9199.600000000001
 31
0.0
  0
LINE
  5
18E9A
330
747D
100
AcDbEntity
  8
仕様書枠
 48
50.0
100
AcDbLine
 10
16307.19999999999
 20
8859.6
 30
0.0
 11
13127.2
 21
8859.600000000005
 31
0.0
  0
TEXT
  5
18E9B
330
747D
100
AcDbEntity
  8
文字
 62
     7
 48
50.0
100
AcDbText
 10
13248.77747366448
 20
9060.013745883729
 30
0.0
 40
100.0
  1
13
  7
STYLE1
100
AcDbText
  0
TEXT
  5
18E9C
330
747D
100
AcDbEntity
  8
文字
 62
     7
 48
50.0
100
AcDbText
 10
13248.77747366448
 20
9230.013745883729
 30
0.0
 40
100.0
  1
12
  7
STYLE1
100
AcDbText
  0
TEXT
  5
18E9D
330
747D
100
AcDbEntity
  8
文字
 62
     7
 48
50.0
100
AcDbText
 10
15022.63965474517
 20
11100.01374588373
 30
0.0
 40
100.0
  1
F12            1.2
  7
STYLE1
100
AcDbText
  0
TEXT
  5
18E9E
330
747D
100
AcDbEntity
  8
文字
 62
     7
 48
50.0
100
AcDbText
 10
15022.63965474518
 20
10760.01374588373
 30
0.0
 40
100.0
  1
F12            1.0
  7
STYLE1
100
AcDbText
  0
TEXT
  5
18E9F
330
747D
100
AcDbEntity
  8
文字
 62
     7
 48
50.0
100
AcDbText
 10
15022.63965474516
 20
10420.01374588373
 30
0.0
 40
100.0
  1
Y10            1.0
  7
STYLE1
100
AcDbText
  0
TEXT
  5
18EA0
330
747D
100
AcDbEntity
  8
文字
 62
     7
 48
50.0
100
AcDbText
 10
15022.63965474516
 20
10250.01374588373
 30
0.0
 40
100.0
  1
Y10            0.7
  7
STYLE1
100
AcDbText
  0
TEXT
  5
18EA1
330
747D
100
AcDbEntity
  8
文字
 62
     7
 48
50.0
100
AcDbText
 10
15022.63965474516
 20
10080.01374588373
 30
0.0
 40
100.0
  1
Y10            0.7
  7
STYLE1
100
AcDbText
  0
TEXT
  5
18EA2
330
747D
100
AcDbEntity
  8
文字
 62
     7
 48
50.0
100
AcDbText
 10
15022.63965474517
 20
9910.01374588373
 30
0.0
 40
100.0
  1
Y10            0.5
  7
STYLE1
100
AcDbText
  0
TEXT
  5
18EA3
330
747D
100
AcDbEntity
  8
文字
 62
     7
 48
50.0
100
AcDbText
 10
15022.63965474515
 20
9570.013745883729
 30
0.0
 40
100.0
  1
F12            0.7
  7
STYLE1
100
AcDbText
  0
LINE
  5
18EA4
330
747D
100
AcDbEntity
  8
仕様書枠
 48
50.0
100
AcDbLine
 10
16307.19999999999
 20
8349.600000000007
 30
0.0
 11
13127.19999999999
 21
8349.600000000007
 31
0.0
  0
LINE
  5
18EA5
330
747D
100
AcDbEntity
  8
仕様書枠
 48
50.0
100
AcDbLine
 10
16307.19999999999
 20
8179.600000000007
 30
0.0
 11
13127.19999999999
 21
8179.600000000007
 31
0.0
  0
TEXT
  5
18EA6
330
747D
100
AcDbEntity
  8
文字
 62
     7
 48
50.0
100
AcDbText
 10
13229.83081656554
 20
8210.013745883737
 30
0.0
 40
100.0
  1
F12→溶融亜鉛めっき鋼板(JIS G 3302)
  7
STYLE1
100
AcDbText
  0
TEXT
  5
18EA7
330
747D
100
AcDbEntity
  8
文字
 62
     7
 48
50.0
100
AcDbText
 10
13229.83081656554
 20
8040.013745883737
 30
0.0
 40
100.0
  1
Y10→溶融亜鉛-5％アルミニウム合金めっき鋼板(JIS G 3317)
 41
0.9
  7
STYLE1
100
AcDbText
  0
LINE
  5
18EA8
330
747D
100
AcDbEntity
  8
仕様書枠
 48
50.0
100
AcDbLine
 10
13127.2
 20
11409.6
 30
0.0
 11
13127.19999999999
 21
8009.600000000007
 31
0.0
  0
LINE
  5
18EA9
330
747D
100
AcDbEntity
  8
仕様書枠
 48
50.0
100
AcDbLine
 10
16307.19999999999
 20
9029.6
 30
0.0
 11
13127.2
 21
9029.600000000003
 31
0.0
  0
TEXT
  5
18EAA
330
747D
100
AcDbEntity
  8
文字
 62
     7
 48
50.0
100
AcDbText
 10
13583.1181901657
 20
10590.01374588373
 30
0.0
 40
100.0
  1
床パネル
 41
0.9
  7
STYLE1
100
AcDbText
  0
TEXT
  5
18EAB
330
747D
100
AcDbEntity
  8
文字
 62
     7
 48
50.0
100
AcDbText
 10
13583.11819016569
 20
10930.01374588373
 30
0.0
 40
100.0
  1
根太
  7
STYLE1
100
AcDbText
  0
TEXT
  5
18EAC
330
747D
100
AcDbEntity
  8
文字
 62
     7
 48
50.0
100
AcDbText
 10
13248.77747366448
 20
8890.013745883729
 30
0.0
 40
100.0
  1
14
  7
STYLE1
100
AcDbText
  0
TEXT
  5
18EAD
330
747D
100
AcDbEntity
  8
文字
 62
     7
 48
50.0
100
AcDbText
 10
15022.63965474516
 20
10930.01374588373
 30
0.0
 40
100.0
  1
F12            1.2
  7
STYLE1
100
AcDbText
  0
TEXT
  5
18EAE
330
747D
100
AcDbEntity
  8
文字
 62
     7
 48
50.0
100
AcDbText
 10
15022.63965474517
 20
10590.01374588373
 30
0.0
 40
100.0
  1
F12            1.0
  7
STYLE1
100
AcDbText
  0
TEXT
  5
18EAF
330
747D
100
AcDbEntity
  8
文字
 62
     7
 48
50.0
100
AcDbText
 10
15022.63965474515
 20
8890.013745883729
 30
0.0
 40
100.0
  1
F12            0.7
  7
STYLE1
100
AcDbText
  0
TEXT
  5
18EB0
330
747D
100
AcDbEntity
  8
文字
 62
     7
 48
50.0
100
AcDbText
 10
13583.11819016568
 20
8890.013745883733
 30
0.0
 40
100.0
  1
正面パネル
  7
STYLE1
100
AcDbText
  0
TEXT
  5
18EB1
330
747D
100
AcDbEntity
  8
文字
 62
     7
 48
50.0
100
AcDbText
 10
15022.63965474516
 20
8720.013745883729
 30
0.0
 40
100.0
  1
F12            0.8
  7
STYLE1
100
AcDbText
  0
TEXT
  5
18EB2
330
747D
100
AcDbEntity
  8
文字
 62
     7
 48
50.0
100
AcDbText
 10
13583.11819016569
 20
8720.013745883733
 30
0.0
 40
100.0
  1
扉
  7
STYLE1
100
AcDbText
  0
LINE
  5
18EB3
330
747D
100
AcDbEntity
  8
仕様書枠
 48
50.0
100
AcDbLine
 10
16307.19999999999
 20
8009.600000000007
 30
0.0
 11
13127.19999999999
 21
8009.600000000007
 31
0.0
  0
TEXT
  5
18EB4
330
747D
100
AcDbEntity
  8
文字
 62
     7
 48
50.0
100
AcDbText
 10
13248.77747366447
 20
8720.013745883729
 30
0.0
 40
100.0
  1
15
  7
STYLE1
100
AcDbText
  0
TEXT
  5
18EB5
330
747D
100
AcDbEntity
  8
文字
 62
     7
 48
50.0
100
AcDbText
 10
13583.11819016569
 20
9740.013745883729
 30
0.0
 40
100.0
  1
母屋中
  7
STYLE1
100
AcDbText
  0
TEXT
  5
18EB6
330
747D
100
AcDbEntity
  8
文字
 62
     7
 48
50.0
100
AcDbText
 10
15022.63965474515
 20
9740.013745883725
 30
0.0
 40
100.0
  1
F12            1.0
  7
STYLE1
100
AcDbText
  0
TEXT
  5
18EB7
330
747D
100
AcDbEntity
  8
文字
 62
     7
 48
50.0
100
AcDbText
 10
15022.63965474516
 20
8550.013745883729
 30
0.0
 40
100.0
  1
F12            0.6
  7
STYLE1
100
AcDbText
  0
TEXT
  5
18EB8
330
747D
100
AcDbEntity
  8
文字
 62
     7
 48
50.0
100
AcDbText
 10
13583.11819016569
 20
8550.013745883733
 30
0.0
 40
100.0
  1
棚板
  7
STYLE1
100
AcDbText
  0
DIMENSION
  5
18EBC
330
747D
100
AcDbEntity
  8
寸法
 48
50.0
100
AcDbDimension
  2
*D26
 10
4609.560617777137
 20
2393.601096737388
 30
0.0
 11
4734.560617777137
 21
2393.601096737388
 31
0.0
 70
   160
 71
     5
 42
250.0
  3
INABA_S40G
100
AcDbAlignedDimension
 13
4859.560617777137
 23
2680.884242048252
 33
0.0
 14
4609.560617777137
 24
2680.884242048252
 34
0.0
100
AcDbRotatedDimension
  0
DIMENSION
  5
18EC0
330
747D
100
AcDbEntity
  8
寸法
 48
50.0
100
AcDbDimension
  2
*D27
 10
4480.045635064191
 20
2930.884242048252
 30
0.0
 11
4480.045635064191
 21
2805.884242048253
 31
0.0
 70
   160
 71
     5
 42
250.0
  3
INABA_S40G
100
AcDbAlignedDimension
 13
4609.560617777137
 23
2680.884242048252
 33
0.0
 14
4609.560617777133
 24
2930.884242048252
 34
0.0
 50
90.0
100
AcDbRotatedDimension
1001
ACAD
1000
DSTYLE
1002
{
1070
   174
1070
     0
1070
   272
1070
     1
1070
   288
1070
     0
1070
   341
1005
0
1002
}
  0
LINE
  5
18EC1
330
747D
100
AcDbEntity
  8
細線
 48
50.0
100
AcDbLine
 10
5679.560617777137
 20
5170.884242048252
 30
0.0
 11
5679.560617777137
 21
3080.884242048253
 31
0.0
  0
LINE
  5
18EC2
330
747D
100
AcDbEntity
  8
細線
 48
50.0
100
AcDbLine
 10
5664.560617777137
 20
5170.884242048252
 30
0.0
 11
5664.560617777137
 21
3080.884242048253
 31
0.0
  0
LINE
  5
18EC3
330
747D
100
AcDbEntity
  8
細線
 48
50.0
100
AcDbLine
 10
5804.560617777137
 20
5170.884242048252
 30
0.0
 11
5804.560617777137
 21
3080.884242048253
 31
0.0
  0
LINE
  5
18EC4
330
747D
100
AcDbEntity
  8
細線
 48
50.0
100
AcDbLine
 10
5819.560617777137
 20
5170.884242048252
 30
0.0
 11
5819.560617777137
 21
3080.884242048253
 31
0.0
  0
LINE
  5
18EC5
330
747D
100
AcDbEntity
  8
細線
 48
50.0
100
AcDbLine
 10
5959.560617777137
 20
5170.884242048252
 30
0.0
 11
5959.560617777137
 21
3080.884242048253
 31
0.0
  0
LINE
  5
18EC6
330
747D
100
AcDbEntity
  8
細線
 48
50.0
100
AcDbLine
 10
5944.560617777137
 20
5170.884242048252
 30
0.0
 11
5944.560617777137
 21
3080.884242048253
 31
0.0
  0
LINE
  5
18EC7
330
747D
100
AcDbEntity
  8
部品1
100
AcDbLine
 10
5602.060617777134
 20
5170.884242048252
 30
0.0
 11
5602.060617777134
 21
3080.884242048253
 31
0.0
  0
LINE
  5
18EC8
330
747D
100
AcDbEntity
  8
細線
 48
50.0
100
AcDbLine
 10
4839.560617777133
 20
5170.884242048252
 30
0.0
 11
4839.560617777133
 21
3080.884242048253
 31
0.0
  0
LINE
  5
18EC9
330
747D
100
AcDbEntity
  8
細線
 48
50.0
100
AcDbLine
 10
4824.560617777134
 20
5170.884242048252
 30
0.0
 11
4824.560617777134
 21
3080.884242048253
 31
0.0
  0
LINE
  5
18ECA
330
747D
100
AcDbEntity
  8
細線
 48
50.0
100
AcDbLine
 10
4964.560617777133
 20
5170.884242048252
 30
0.0
 11
4964.560617777133
 21
3080.884242048253
 31
0.0
  0
LINE
  5
18ECB
330
747D
100
AcDbEntity
  8
細線
 48
50.0
100
AcDbLine
 10
4979.560617777133
 20
5170.884242048252
 30
0.0
 11
4979.560617777133
 21
3080.884242048253
 31
0.0
  0
LINE
  5
18ECC
330
747D
100
AcDbEntity
  8
細線
 48
50.0
100
AcDbLine
 10
5119.560617777133
 20
5170.884242048252
 30
0.0
 11
5119.560617777133
 21
3080.884242048253
 31
0.0
  0
LINE
  5
18ECD
330
747D
100
AcDbEntity
  8
細線
 48
50.0
100
AcDbLine
 10
5104.560617777133
 20
5170.884242048252
 30
0.0
 11
5104.560617777133
 21
3080.884242048253
 31
0.0
  0
LINE
  5
18ECE
330
747D
100
AcDbEntity
  8
細線
 48
50.0
100
AcDbLine
 10
5524.560617777133
 20
5170.884242048252
 30
0.0
 11
5524.560617777133
 21
3080.884242048253
 31
0.0
  0
LINE
  5
18ECF
330
747D
100
AcDbEntity
  8
細線
 48
50.0
100
AcDbLine
 10
5539.560617777134
 20
5170.884242048252
 30
0.0
 11
5539.560617777134
 21
3080.884242048253
 31
0.0
  0
LINE
  5
18ED0
330
747D
100
AcDbEntity
  8
細線
 48
50.0
100
AcDbLine
 10
5399.560617777133
 20
5170.884242048252
 30
0.0
 11
5399.560617777133
 21
3080.884242048253
 31
0.0
  0
LINE
  5
18ED1
330
747D
100
AcDbEntity
  8
細線
 48
50.0
100
AcDbLine
 10
5384.560617777133
 20
5170.884242048252
 30
0.0
 11
5384.560617777133
 21
3080.884242048253
 31
0.0
  0
LINE
  5
18ED2
330
747D
100
AcDbEntity
  8
細線
 48
50.0
100
AcDbLine
 10
5244.560617777133
 20
5170.884242048252
 30
0.0
 11
5244.560617777133
 21
3080.884242048253
 31
0.0
  0
LINE
  5
18ED3
330
747D
100
AcDbEntity
  8
細線
 48
50.0
100
AcDbLine
 10
5259.560617777133
 20
5170.884242048252
 30
0.0
 11
5259.560617777133
 21
3080.884242048253
 31
0.0
  0
LINE
  5
18ED4
330
747D
100
AcDbEntity
  8
部品1
100
AcDbLine
 10
4754.560617777133
 20
3030.884242048252
 30
0.0
 11
6029.560617777133
 21
3030.884242048252
 31
0.0
  0
LINE
  5
18ED5
330
747D
100
AcDbEntity
  8
部品1
100
AcDbLine
 10
6069.560617777133
 20
3030.884242048252
 30
0.0
 11
6077.060617777137
 21
3030.884242048252
 31
0.0
  0
LINE
  5
18ED6
330
747D
100
AcDbEntity
  8
破線
  6
HIDDEN
 48
5.0
100
AcDbLine
 10
4754.560617777133
 20
2930.884242048252
 30
0.0
 11
4754.560617777133
 21
2925.884242048253
 31
0.0
  0
LINE
  5
18ED7
330
747D
100
AcDbEntity
  8
破線
  6
HIDDEN
 48
5.0
100
AcDbLine
 10
4714.560617777141
 20
2930.884242048252
 30
0.0
 11
4714.560617777141
 21
2925.884242048253
 31
0.0
  0
LINE
  5
18ED8
330
747D
100
AcDbEntity
  8
破線
  6
HIDDEN
 48
5.0
100
AcDbLine
 10
6069.560617777133
 20
2930.884242048252
 30
0.0
 11
6069.560617777133
 21
2925.884242048253
 31
0.0
  0
LINE
  5
18ED9
330
747D
100
AcDbEntity
  8
破線
  6
HIDDEN
 48
5.0
100
AcDbLine
 10
6029.560617777133
 20
2930.884242048252
 30
0.0
 11
6029.560617777133
 21
2925.884242048253
 31
0.0
  0
ARC
  5
18EDA
330
747D
100
AcDbEntity
  8
部品1
 48
50.0
100
AcDbCircle
 10
6064.560617777133
 20
3070.884242048253
 30
0.0
 40
5.0
100
AcDbArc
 50
0.0
 51
90.0
  0
ARC
  5
18EDB
330
747D
100
AcDbEntity
  8
部品1
 48
50.0
100
AcDbCircle
 10
6034.560617777134
 20
3070.884242048253
 30
0.0
 40
5.0
100
AcDbArc
 50
90.0
 51
180.0
  0
LINE
  5
18EDC
330
747D
100
AcDbEntity
  8
部品1
100
AcDbLine
 10
6064.560617777133
 20
3075.884242048253
 30
0.0
 11
6034.560617777134
 21
3075.884242048253
 31
0.0
  0
LINE
  5
18EDD
330
747D
100
AcDbEntity
  8
部品1
 48
50.0
100
AcDbLine
 10
6069.560617777133
 20
3070.884242048253
 30
0.0
 11
6069.560617777133
 21
2930.884242048252
 31
0.0
  0
LINE
  5
18EDE
330
747D
100
AcDbEntity
  8
部品1
 48
50.0
100
AcDbLine
 10
6029.560617777133
 20
3070.884242048253
 30
0.0
 11
6029.560617777133
 21
2930.884242048252
 31
0.0
  0
ARC
  5
18EDF
330
747D
100
AcDbEntity
  8
部品1
 48
50.0
100
AcDbCircle
 10
4749.560617777134
 20
3070.884242048253
 30
0.0
 40
5.0
100
AcDbArc
 50
0.0
 51
90.0
  0
ARC
  5
18EE0
330
747D
100
AcDbEntity
  8
部品1
 48
50.0
100
AcDbCircle
 10
4719.560617777132
 20
3070.884242048253
 30
0.0
 40
5.0
100
AcDbArc
 50
90.0
 51
180.0
  0
LINE
  5
18EE1
330
747D
100
AcDbEntity
  8
部品1
100
AcDbLine
 10
4719.560617777132
 20
3075.884242048253
 30
0.0
 11
4749.560617777134
 21
3075.884242048253
 31
0.0
  0
LINE
  5
18EE2
330
747D
100
AcDbEntity
  8
部品1
 48
50.0
100
AcDbLine
 10
4754.560617777133
 20
3070.884242048253
 30
0.0
 11
4754.560617777133
 21
2930.884242048252
 31
0.0
  0
LINE
  5
18EE3
330
747D
100
AcDbEntity
  8
部品1
 48
50.0
100
AcDbLine
 10
4714.560617777133
 20
3070.884242048253
 30
0.0
 11
4714.560617777133
 21
2930.884242048252
 31
0.0
  0
LINE
  5
18EE4
330
747D
100
AcDbEntity
  8
破線
  6
HIDDEN
 48
5.0
100
AcDbLine
 10
4754.560617777133
 20
2925.884242048253
 30
0.0
 11
4769.560617777133
 21
2778.184242048252
 31
0.0
  0
LINE
  5
18EE5
330
747D
100
AcDbEntity
  8
破線
  6
HIDDEN
 48
5.0
100
AcDbLine
 10
4714.560617777133
 20
2925.884242048253
 30
0.0
 11
4699.560617777133
 21
2778.184242048252
 31
0.0
  0
LINE
  5
18EE6
330
747D
100
AcDbEntity
  8
破線
  6
HIDDEN
 48
5.0
100
AcDbLine
 10
4769.560617777133
 20
2778.184242048252
 30
0.0
 11
4769.560617777133
 21
2775.884242048253
 31
0.0
  0
LINE
  5
18EE7
330
747D
100
AcDbEntity
  8
破線
  6
HIDDEN
 48
5.0
100
AcDbLine
 10
4699.560617777133
 20
2778.184242048252
 30
0.0
 11
4699.560617777133
 21
2775.884242048253
 31
0.0
  0
LINE
  5
18EE8
330
747D
100
AcDbEntity
  8
破線
  6
HIDDEN
 48
5.0
100
AcDbLine
 10
4699.560617777133
 20
2775.884242048253
 30
0.0
 11
4769.560617777133
 21
2775.884242048253
 31
0.0
  0
LINE
  5
18EE9
330
747D
100
AcDbEntity
  8
破線
  6
HIDDEN
 48
5.0
100
AcDbLine
 10
6084.560617777134
 20
2778.184242048254
 30
0.0
 11
6084.560617777134
 21
2775.884242048253
 31
0.0
  0
LINE
  5
18EEA
330
747D
100
AcDbEntity
  8
破線
  6
HIDDEN
 48
5.0
100
AcDbLine
 10
6069.560617777133
 20
2925.884242048253
 30
0.0
 11
6084.560617777134
 21
2778.184242048254
 31
0.0
  0
LINE
  5
18EEB
330
747D
100
AcDbEntity
  8
破線
  6
HIDDEN
 48
5.0
100
AcDbLine
 10
6014.560617777133
 20
2778.184242048254
 30
0.0
 11
6014.560617777133
 21
2775.884242048253
 31
0.0
  0
LINE
  5
18EEC
330
747D
100
AcDbEntity
  8
破線
  6
HIDDEN
 48
5.0
100
AcDbLine
 10
6029.560617777133
 20
2925.884242048253
 30
0.0
 11
6014.560617777133
 21
2778.184242048254
 31
0.0
  0
LINE
  5
18EED
330
747D
100
AcDbEntity
  8
破線
  6
HIDDEN
 48
5.0
100
AcDbLine
 10
6084.560617777134
 20
2775.884242048253
 30
0.0
 11
6014.560617777133
 21
2775.884242048253
 31
0.0
  0
LINE
  5
18EEE
330
747D
100
AcDbEntity
  8
部品1
100
AcDbLine
 10
5877.060617777137
 20
3030.884242048252
 30
0.0
 11
5877.060617777137
 21
2930.884242048252
 31
0.0
  0
LINE
  5
18EEF
330
747D
100
AcDbEntity
  8
部品1
100
AcDbLine
 10
4907.060617777133
 20
3030.884242048252
 30
0.0
 11
4907.060617777133
 21
2930.884242048252
 31
0.0
  0
LINE
  5
18EF0
330
747D
100
AcDbEntity
  8
部品1
100
AcDbLine
 10
6022.060617777137
 20
5170.884242048252
 30
0.0
 11
6022.060617777137
 21
3080.884242048253
 31
0.0
  0
LINE
  5
18EF1
330
747D
100
AcDbEntity
  8
部品1
100
AcDbLine
 10
6077.060617777133
 20
5264.884242048258
 30
0.0
 11
6077.060617777137
 21
2930.884242048252
 31
0.0
  0
LINE
  5
18EF2
330
747D
100
AcDbEntity
  8
部品1
100
AcDbLine
 10
5182.060617777133
 20
5170.884242048252
 30
0.0
 11
5182.060617777133
 21
3080.884242048253
 31
0.0
  0
LINE
  5
18EF3
330
747D
100
AcDbEntity
  8
部品1
100
AcDbLine
 10
4707.06061777714
 20
5264.884242048256
 30
0.0
 11
4707.060617777133
 21
2930.884242048252
 31
0.0
  0
LINE
  5
18EF4
330
747D
100
AcDbEntity
  8
部品1
100
AcDbLine
 10
4762.060617777133
 20
5170.884242048252
 30
0.0
 11
4762.060617777133
 21
3080.884242048253
 31
0.0
  0
LINE
  5
18EF5
330
747D
100
AcDbEntity
  8
部品1
100
AcDbLine
 10
4707.060617777133
 20
3030.884242048252
 30
0.0
 11
4714.560617777133
 21
3030.884242048252
 31
0.0
  0
LINE
  5
18EF6
330
747D
100
AcDbEntity
  8
部品1
100
AcDbLine
 10
4707.060617777133
 20
3080.884242048253
 30
0.0
 11
6077.06061777714
 21
3080.884242048253
 31
0.0
  0
LINE
  5
18EF7
330
747D
100
AcDbEntity
  8
部品1
100
AcDbLine
 10
4707.060617777133
 20
5170.884242048252
 30
0.0
 11
6077.060617777137
 21
5170.884242048252
 31
0.0
  0
LINE
  5
18EF8
330
747D
100
AcDbEntity
  8
部品1
 48
50.0
100
AcDbLine
 10
6077.06061777714
 20
5165.88424204825
 30
0.0
 11
6154.06061777714
 21
5155.884242048251
 31
0.0
  0
LINE
  5
18EF9
330
747D
100
AcDbEntity
  8
部品1
 48
50.0
100
AcDbLine
 10
6154.06061777714
 20
5155.884242048251
 30
0.0
 11
6154.06061777714
 21
2930.88424204825
 31
0.0
  0
LINE
  5
18EFA
330
747D
100
AcDbEntity
  8
部品1
 48
50.0
100
AcDbLine
 10
6154.06061777714
 20
3030.884242048251
 30
0.0
 11
6077.060617777137
 21
3030.884242048252
 31
0.0
  0
LINE
  5
18EFB
330
747D
100
AcDbEntity
  8
部品1
 48
50.0
100
AcDbLine
 10
5292.060617777137
 20
3030.884242048252
 30
0.0
 11
5292.060617777137
 21
2930.884242048252
 31
0.0
  0
LINE
  5
18EFC
330
747D
100
AcDbEntity
  8
部品1
 48
50.0
100
AcDbLine
 10
5492.06061777714
 20
3030.884242048252
 30
0.0
 11
5492.060617777137
 21
2930.884242048252
 31
0.0
  0
DIMENSION
  5
18EFD
330
747D
100
AcDbEntity
  8
寸法
100
AcDbDimension
  2
*D28
 10
11648.90424248722
 20
5350.884242048254
 30
0.0
 11
11648.90424248721
 21
4186.216972871582
 31
0.0
 70
   160
 71
     5
 42
2320.000000000002
  3
INABA_S40G
100
AcDbAlignedDimension
 13
11129.21801871769
 23
3030.884242048252
 33
0.0
 14
11209.21801871768
 24
5350.884242048254
 34
0.0
 50
90.0
100
AcDbRotatedDimension
1001
ACAD
1000
DSTYLE
1002
{
1070
   174
1070
     0
1070
   272
1070
     1
1070
   288
1070
     0
1070
   341
1005
0
1002
}
  0
LINE
  5
192EB
330
747D
100
AcDbEntity
  8
補助
  6
PHANTOM
 62
   230
 48
50.0
100
AcDbLine
 10
140.0
 20
0.0
 30
0.0
 11
139.9999999999995
 21
11409.6
 31
0.0
  0
MTEXT
  5
192F6
330
747D
100
AcDbEntity
  8
寸法
 62
     7
 48
50.0
100
AcDbMText
 10
10479.32055581084
 20
9244.390318499361
 30
0.0
 40
96.0
 41
0.0
 71
     5
 72
     1
  1
棚 3段
  7
STYLE1
 73
     1
 44
1.0
1001
ACAD
1000
MTEXTBEGIN
1070
    73
1070
     1
1070
    44
1040
1.0
1070
    74
1070
     0
1000
MTEXTEND
  0
LINE
  5
19506
330
747D
100
AcDbEntity
  8
部品1
 48
50.0
100
AcDbLine
 10
9021.218018717698
 20
4162.384242048254
 30
0.0
 11
9074.218018717699
 21
4162.384242048254
 31
0.0
  0
LINE
  5
1950A
330
747D
100
AcDbEntity
  8
破線
 48
5.0
100
AcDbLine
 10
11004.21801871769
 20
2930.884242048252
 30
0.0
 11
11004.21801871769
 21
2680.884242048252
 31
0.0
  0
LINE
  5
1950B
330
747D
100
AcDbEntity
  8
破線
 48
5.0
100
AcDbLine
 10
11254.21801871769
 20
2930.884242048252
 30
0.0
 11
11254.21801871769
 21
2680.884242048252
 31
0.0
  0
LINE
  5
1950C
330
747D
100
AcDbEntity
  8
破線
 48
5.0
100
AcDbLine
 10
11254.21801871769
 20
2680.884242048252
 30
0.0
 11
11004.21801871769
 21
2680.884242048252
 31
0.0
  0
LINE
  5
1950D
330
747D
100
AcDbEntity
  8
破線
 48
5.0
100
AcDbLine
 10
8374.218018717696
 20
2680.884242048252
 30
0.0
 11
8624.218018717698
 21
2680.884242048252
 31
0.0
  0
LINE
  5
1950E
330
747D
100
AcDbEntity
  8
破線
 48
5.0
100
AcDbLine
 10
8374.218018717696
 20
2930.884242048252
 30
0.0
 11
8374.218018717696
 21
2680.884242048252
 31
0.0
  0
LINE
  5
1950F
330
747D
100
AcDbEntity
  8
破線
 48
5.0
100
AcDbLine
 10
8624.218018717696
 20
2930.884242048252
 30
0.0
 11
8624.218018717696
 21
2680.884242048252
 31
0.0
  0
DIMENSION
  5
19510
330
747D
100
AcDbEntity
  8
寸法
 48
50.0
100
AcDbDimension
  2
*D29
 10
8374.218018717696
 20
2394.79385780904
 30
0.0
 11
8499.218018717696
 21
2394.79385780904
 31
0.0
 70
   160
 71
     5
 42
250.0
  3
INABA_S40G
100
AcDbAlignedDimension
 13
8624.218018717696
 23
2680.884242048254
 33
0.0
 14
8374.218018717696
 24
2680.884242048252
 34
0.0
100
AcDbRotatedDimension
1001
ACAD
1000
DSTYLE
1002
{
1002
}
  0
LINE
  5
19526
330
747D
100
AcDbEntity
  8
破線
  6
HIDDEN
 48
5.0
100
AcDbLine
 10
4859.560617777137
 20
2930.884242048252
 30
0.0
 11
4859.560617777137
 21
2680.884242048252
 31
0.0
  0
LINE
  5
19527
330
747D
100
AcDbEntity
  8
破線
  6
HIDDEN
 48
5.0
100
AcDbLine
 10
4609.560617777137
 20
2680.884242048252
 30
0.0
 11
4859.560617777137
 21
2680.884242048252
 31
0.0
  0
LINE
  5
19528
330
747D
100
AcDbEntity
  8
破線
  6
HIDDEN
 48
5.0
100
AcDbLine
 10
4609.560617777137
 20
2930.884242048252
 30
0.0
 11
4609.560617777137
 21
2680.884242048252
 31
0.0
  0
LINE
  5
19529
330
747D
100
AcDbEntity
  8
破線
  6
HIDDEN
 48
5.0
100
AcDbLine
 10
6174.560617777137
 20
2930.884242048252
 30
0.0
 11
6174.560617777137
 21
2680.884242048252
 31
0.0
  0
LINE
  5
1952A
330
747D
100
AcDbEntity
  8
破線
  6
HIDDEN
 48
5.0
100
AcDbLine
 10
5924.560617777137
 20
2930.884242048252
 30
0.0
 11
5924.560617777137
 21
2680.884242048252
 31
0.0
  0
LINE
  5
1952B
330
747D
100
AcDbEntity
  8
破線
  6
HIDDEN
 48
5.0
100
AcDbLine
 10
6174.560617777137
 20
2680.884242048252
 30
0.0
 11
5924.560617777137
 21
2680.884242048252
 31
0.0
  0
LINE
  5
1977E
330
747D
100
AcDbEntity
  8
寸法
 48
50.0
100
AcDbLine
 10
9409.42102499952
 20
8066.192251870772
 30
0.0
 11
9358.015017089416
 21
8066.192251870772
 31
0.0
  0
LINE
  5
1977F
330
747D
100
AcDbEntity
  8
寸法
 48
50.0
100
AcDbLine
 10
9358.015017089416
 20
8066.192251870772
 30
0.0
 11
9358.015017089416
 21
8097.50241052294
 31
0.0
  0
LINE
  5
19780
330
747D
100
AcDbEntity
  8
寸法
 48
50.0
100
AcDbLine
 10
9358.015017089416
 20
8097.50241052294
 30
0.0
 11
9328.253685097992
 21
8097.50241052294
 31
0.0
  0
LINE
  5
19781
330
747D
100
AcDbEntity
  8
寸法
 48
50.0
100
AcDbLine
 10
9328.253685097992
 20
8097.50241052294
 30
0.0
 11
9383.718021044467
 21
8135.081861451549
 31
0.0
  0
LINE
  5
19782
330
747D
100
AcDbEntity
  8
寸法
 48
50.0
100
AcDbLine
 10
9439.182356990944
 20
8097.50241052294
 30
0.0
 11
9383.718021044467
 21
8135.081861451549
 31
0.0
  0
LINE
  5
19783
330
747D
100
AcDbEntity
  8
寸法
 48
50.0
100
AcDbLine
 10
9409.42102499952
 20
8097.50241052294
 30
0.0
 11
9439.182356990944
 21
8097.50241052294
 31
0.0
  0
LINE
  5
19784
330
747D
100
AcDbEntity
  8
寸法
 48
50.0
100
AcDbLine
 10
9409.42102499952
 20
8066.192251870772
 30
0.0
 11
9409.42102499952
 21
8097.50241052294
 31
0.0
  0
LINE
  5
19785
330
747D
100
AcDbEntity
  8
寸法
 48
50.0
100
AcDbLine
 10
9358.015017089416
 20
8066.192251870772
 30
0.0
 11
9409.42102499952
 21
8066.192251870772
 31
0.0
  0
LINE
  5
19786
330
747D
100
AcDbEntity
  8
寸法
 48
50.0
100
AcDbLine
 10
9688.586559276377
 20
8123.337842625595
 30
0.0
 11
9688.586559276377
 21
8069.674208043805
 31
0.0
  0
LINE
  5
19787
330
747D
100
AcDbEntity
  8
寸法
 48
50.0
100
AcDbLine
 10
9777.870777871799
 20
8099.414208356108
 30
0.0
 11
9688.586559276377
 21
8123.337842625595
 31
0.0
  0
LINE
  5
19788
330
747D
100
AcDbEntity
  8
寸法
 48
50.0
100
AcDbLine
 10
9558.718837696074
 20
8099.414208356108
 30
0.0
 11
9777.870777871799
 21
8099.414208356108
 31
0.0
  0
LINE
  5
19789
330
747D
100
AcDbEntity
  8
細線
 48
50.0
100
AcDbLine
 10
10435.21801871768
 20
8264.655615250635
 30
0.0
 11
11062.21801871767
 21
8264.655615250635
 31
0.0
  0
LINE
  5
1978A
330
747D
100
AcDbEntity
  8
細線
 48
50.0
100
AcDbLine
 10
9781.218023371264
 20
8230.946846696559
 30
0.0
 11
11062.21801871767
 21
8230.946846696559
 31
0.0
  0
LINE
  5
1978B
330
747D
100
AcDbEntity
  8
細線
 48
50.0
100
AcDbLine
 10
9740.218023371269
 20
8260.351754692813
 30
0.0
 11
8986.218018717675
 21
8260.351754692809
 31
0.0
  0
LINE
  5
1978C
330
747D
100
AcDbEntity
  8
細線
100
AcDbLine
 10
10837.96800930121
 20
8284.155515215642
 30
0.0
 11
10840.29954882302
 21
8289.155517855604
 31
0.0
  0
LINE
  5
1978D
330
747D
100
AcDbEntity
  8
細線
100
AcDbLine
 10
10907.96801871767
 20
8284.15550030191
 30
0.0
 11
10905.63647224149
 21
8289.15551785559
 31
0.0
  0
LINE
  5
1978E
330
747D
100
AcDbEntity
  8
細線
100
AcDbLine
 10
10905.63647224149
 20
8289.15551785559
 30
0.0
 11
10840.29954882301
 21
8289.155517855576
 31
0.0
  0
LINE
  5
1978F
330
747D
100
AcDbEntity
  8
細線
100
AcDbLine
 10
10765.63647224149
 20
8289.15551785559
 30
0.0
 11
10700.29954882301
 21
8289.155517855576
 31
0.0
  0
LINE
  5
19790
330
747D
100
AcDbEntity
  8
細線
100
AcDbLine
 10
10767.96801871767
 20
8284.15550030191
 30
0.0
 11
10765.63647224149
 21
8289.15551785559
 31
0.0
  0
LINE
  5
19791
330
747D
100
AcDbEntity
  8
細線
100
AcDbLine
 10
10697.96800930121
 20
8284.155515215642
 30
0.0
 11
10700.29954882302
 21
8289.155517855604
 31
0.0
  0
LINE
  5
19792
330
747D
100
AcDbEntity
  8
細線
100
AcDbLine
 10
10557.96801871767
 20
8284.15550030191
 30
0.0
 11
10560.29955823948
 21
8289.155502941872
 31
0.0
  0
LINE
  5
19793
330
747D
100
AcDbEntity
  8
細線
100
AcDbLine
 10
10627.96802813413
 20
8284.155485388176
 30
0.0
 11
10625.63648165794
 21
8289.155502941856
 31
0.0
  0
LINE
  5
19794
330
747D
100
AcDbEntity
  8
細線
100
AcDbLine
 10
10625.63648165795
 20
8289.155502941856
 30
0.0
 11
10560.29955823947
 21
8289.155502941842
 31
0.0
  0
LINE
  5
19795
330
747D
100
AcDbEntity
  8
細線
100
AcDbLine
 10
10330.38650290678
 20
8255.155539639238
 30
0.0
 11
10265.04957948831
 21
8255.155539639224
 31
0.0
  0
LINE
  5
19796
330
747D
100
AcDbEntity
  8
細線
100
AcDbLine
 10
10332.71804938297
 20
8250.155522085558
 30
0.0
 11
10330.38650290678
 21
8255.155539639238
 31
0.0
  0
LINE
  5
19797
330
747D
100
AcDbEntity
  8
細線
100
AcDbLine
 10
10262.71803996651
 20
8250.155536999292
 30
0.0
 11
10265.04957948832
 21
8255.155539639252
 31
0.0
  0
LINE
  5
19798
330
747D
100
AcDbEntity
  8
細線
 48
50.0
100
AcDbLine
 10
10104.10139796569
 20
8268.42636345499
 30
0.0
 11
10109.85691554835
 21
8250.155512164504
 31
0.0
  0
LINE
  5
19799
330
747D
100
AcDbEntity
  8
細線
 48
50.0
100
AcDbLine
 10
10093.17294948526
 20
8268.42636345499
 30
0.0
 11
10104.10139796569
 21
8268.42636345499
 31
0.0
  0
ARC
  5
1979A
330
747D
100
AcDbEntity
  8
細線
 48
50.0
100
AcDbCircle
 10
10087.71859342793
 20
8269.92636345499
 30
0.0
 40
5.0
100
AcDbArc
 50
204.6243183521304
 51
335.3756816478695
  0
ARC
  5
1979B
330
747D
100
AcDbEntity
  8
細線
 48
50.0
100
AcDbCircle
 10
10093.17294948526
 20
8267.42636345499
 30
0.0
 40
1.0
100
AcDbArc
 50
90.0
 51
155.3756816478695
  0
ARC
  5
1979C
330
747D
100
AcDbEntity
  8
細線
 48
50.0
100
AcDbCircle
 10
10082.26423737062
 20
8267.42636345499
 30
0.0
 40
1.0
100
AcDbArc
 50
24.62431835213048
 51
90.0
  0
LINE
  5
1979D
330
747D
100
AcDbEntity
  8
細線
 48
50.0
100
AcDbLine
 10
10071.33578889018
 20
8268.42636345499
 30
0.0
 11
10082.26423737062
 21
8268.42636345499
 31
0.0
  0
LINE
  5
1979E
330
747D
100
AcDbEntity
  8
細線
 48
50.0
100
AcDbLine
 10
10065.58027130752
 20
8250.155512164495
 30
0.0
 11
10071.33578889018
 21
8268.42636345499
 31
0.0
  0
LINE
  5
1979F
330
747D
100
AcDbEntity
  8
細線
100
AcDbLine
 10
10122.71804119755
 20
8250.155509530301
 30
0.0
 11
10125.04958071936
 21
8255.155512170261
 31
0.0
  0
LINE
  5
197A0
330
747D
100
AcDbEntity
  8
細線
100
AcDbLine
 10
10192.71805061401
 20
8250.155494616567
 30
0.0
 11
10190.38650413782
 21
8255.155512170247
 31
0.0
  0
LINE
  5
197A1
330
747D
100
AcDbEntity
  8
細線
100
AcDbLine
 10
10190.38650413782
 20
8255.155512170247
 30
0.0
 11
10125.04958071935
 21
8255.155512170233
 31
0.0
  0
LINE
  5
197A2
330
747D
100
AcDbEntity
  8
細線
100
AcDbLine
 10
10050.3864757733
 20
8255.155512164467
 30
0.0
 11
9985.04955235483
 21
8255.155512164453
 31
0.0
  0
LINE
  5
197A3
330
747D
100
AcDbEntity
  8
細線
100
AcDbLine
 10
10052.71802224949
 20
8250.155494610785
 30
0.0
 11
10050.3864757733
 21
8255.155512164467
 31
0.0
  0
LINE
  5
197A4
330
747D
100
AcDbEntity
  8
細線
100
AcDbLine
 10
9982.718014064078
 20
8250.155512164495
 30
0.0
 11
9985.049552354846
 21
8255.155512164481
 31
0.0
  0
LINE
  5
197A5
330
747D
100
AcDbEntity
  8
細線
100
AcDbLine
 10
9842.71804938297
 20
8250.155520351865
 30
0.0
 11
9845.049587673736
 21
8255.155520351852
 31
0.0
  0
LINE
  5
197A6
330
747D
100
AcDbEntity
  8
細線
100
AcDbLine
 10
9912.718057568385
 20
8250.155502798156
 30
0.0
 11
9910.386511092198
 21
8255.155520351832
 31
0.0
  0
LINE
  5
197A7
330
747D
100
AcDbEntity
  8
細線
100
AcDbLine
 10
9910.386511092198
 20
8255.155520351832
 30
0.0
 11
9845.049587673722
 21
8255.155520351822
 31
0.0
  0
LINE
  5
197A8
330
747D
100
AcDbEntity
  8
細線
100
AcDbLine
 10
9471.218015185849
 20
8216.155692032577
 30
0.0
 11
9473.549553476615
 21
8221.155692032564
 31
0.0
  0
LINE
  5
197A9
330
747D
100
AcDbEntity
  8
細線
100
AcDbLine
 10
9541.218023371264
 20
8216.155674478866
 30
0.0
 11
9538.886476895077
 21
8221.155692032542
 31
0.0
  0
LINE
  5
197AA
330
747D
100
AcDbEntity
  8
細線
100
AcDbLine
 10
9538.886476895077
 20
8221.155692032542
 30
0.0
 11
9473.549553476606
 21
8221.155692032535
 31
0.0
  0
LINE
  5
197AB
330
747D
100
AcDbEntity
  8
細線
100
AcDbLine
 10
9678.886476895078
 20
8221.155692032542
 30
0.0
 11
9613.549553476605
 21
8221.155692032535
 31
0.0
  0
LINE
  5
197AC
330
747D
100
AcDbEntity
  8
細線
100
AcDbLine
 10
9681.218023371265
 20
8216.155674478866
 30
0.0
 11
9678.886476895078
 21
8221.155692032542
 31
0.0
  0
LINE
  5
197AD
330
747D
100
AcDbEntity
  8
細線
100
AcDbLine
 10
9611.218015185848
 20
8216.155692032577
 30
0.0
 11
9613.549553476616
 21
8221.155692032564
 31
0.0
  0
LINE
  5
197AE
330
747D
100
AcDbEntity
  8
細線
100
AcDbLine
 10
9398.886476895077
 20
8221.155692032542
 30
0.0
 11
9333.549553476606
 21
8221.15569203253
 31
0.0
  0
LINE
  5
197AF
330
747D
100
AcDbEntity
  8
細線
100
AcDbLine
 10
9401.218023371264
 20
8216.155674478866
 30
0.0
 11
9398.886476895077
 21
8221.155692032542
 31
0.0
  0
LINE
  5
197B0
330
747D
100
AcDbEntity
  8
細線
100
AcDbLine
 10
9331.218015185848
 20
8216.155692032575
 30
0.0
 11
9333.549553476617
 21
8221.15569203256
 31
0.0
  0
LINE
  5
197B1
330
747D
100
AcDbEntity
  8
細線
100
AcDbLine
 10
9191.218023371265
 20
8216.155692032577
 30
0.0
 11
9193.549561662031
 21
8221.155692032564
 31
0.0
  0
LINE
  5
197B2
330
747D
100
AcDbEntity
  8
細線
100
AcDbLine
 10
9261.21803155668
 20
8216.155674478866
 30
0.0
 11
9258.886485080493
 21
8221.155692032542
 31
0.0
  0
LINE
  5
197B3
330
747D
100
AcDbEntity
  8
細線
100
AcDbLine
 10
9258.886485080493
 20
8221.155692032542
 30
0.0
 11
9193.549561662022
 21
8221.155692032535
 31
0.0
  0
ARC
  5
197B4
330
747D
100
AcDbEntity
  8
部品1
 48
0.01
100
AcDbCircle
 10
9146.717912118928
 20
8215.154569847506
 30
0.0
 40
0.5
100
AcDbArc
 50
270.0
 51
0.0
  0
LINE
  5
197B5
330
747D
100
AcDbEntity
  8
部品1
 48
0.01
100
AcDbLine
 10
9147.21791211893
 20
8216.154569847505
 30
0.0
 11
9147.21791211893
 21
8215.154569847506
 31
0.0
  0
LINE
  5
197B6
330
747D
100
AcDbEntity
  8
部品1
 48
0.01
100
AcDbLine
 10
9147.21791211893
 20
8216.154569847505
 30
0.0
 11
9147.21791211893
 21
8215.154569847506
 31
0.0
  0
LINE
  5
197B7
330
747D
100
AcDbEntity
  8
部品1
 48
0.01
100
AcDbLine
 10
9146.717912118928
 20
8214.654569847505
 30
0.0
 11
9140.105406688865
 21
8214.654569847505
 31
0.0
  0
ARC
  5
197B8
330
747D
100
AcDbEntity
  8
部品1
100
AcDbCircle
 10
9140.173756241646
 20
8215.654569847506
 30
0.0
 40
1.0
100
AcDbArc
 50
160.5287793655778
 51
270.0
  0
ARC
  5
197B9
330
747D
100
AcDbEntity
  8
部品1
100
AcDbCircle
 10
9114.71791211893
 20
8224.654569847507
 30
0.0
 40
26.0
100
AcDbArc
 50
340.5287793655779
 51
0.0
  0
LINE
  5
197BA
330
747D
100
AcDbEntity
  8
部品1
100
AcDbLine
 10
9140.717912118928
 20
8224.654569847507
 30
0.0
 11
9140.717912118928
 21
8229.654569847506
 31
0.0
  0
ARC
  5
197BB
330
747D
100
AcDbEntity
  8
部品1
 48
0.01
100
AcDbCircle
 10
9138.717912118929
 20
8229.654569847506
 30
0.0
 40
2.0
100
AcDbArc
 50
0.0
 51
90.0
  0
ARC
  5
197BC
330
747D
100
AcDbEntity
  8
部品1
100
AcDbCircle
 10
9137.109520494119
 20
8228.654569847504
 30
0.0
 40
3.0
100
AcDbArc
 50
90.0
 51
141.6069559807873
  0
LINE
  5
197BD
330
747D
100
AcDbEntity
  8
部品1
 48
0.01
100
AcDbLine
 10
9138.717912118929
 20
8231.654569847504
 30
0.0
 11
9137.109520494119
 21
8231.654569847504
 31
0.0
  0
ARC
  5
197BE
330
747D
100
AcDbEntity
  8
部品1
100
AcDbCircle
 10
9118.647197904659
 20
8227.95456984751
 30
0.0
 40
3.0
100
AcDbArc
 50
254.0576313943215
 51
270.0
  0
ARC
  5
197BF
330
747D
100
AcDbEntity
  8
部品1
100
AcDbCircle
 10
9125.7886263332
 20
8227.95456984751
 30
0.0
 40
3.0
100
AcDbArc
 50
270.0
 51
285.9423686056786
  0
LINE
  5
197C0
330
747D
100
AcDbEntity
  8
部品1
100
AcDbLine
 10
9125.7886263332
 20
8224.954569847509
 30
0.0
 11
9118.647197904659
 21
8224.954569847509
 31
0.0
  0
ARC
  5
197C1
330
747D
100
AcDbEntity
  8
部品1
100
AcDbCircle
 10
9122.21791211893
 20
8240.454569847509
 30
0.0
 40
16.0
100
AcDbArc
 50
285.9423686056786
 51
321.6069559807873
  0
LINE
  5
197C2
330
747D
100
AcDbEntity
  8
部品1
 48
0.01
100
AcDbLine
 10
9105.71791211893
 20
8231.654569847504
 30
0.0
 11
9107.326303743739
 21
8231.654569847504
 31
0.0
  0
ARC
  5
197C3
330
747D
100
AcDbEntity
  8
部品1
100
AcDbCircle
 10
9107.326303743739
 20
8228.654569847504
 30
0.0
 40
3.0
100
AcDbArc
 50
38.39304401921267
 51
90.0
  0
ARC
  5
197C4
330
747D
100
AcDbEntity
  8
部品1
100
AcDbCircle
 10
9122.21791211893
 20
8240.454569847509
 30
0.0
 40
16.0
100
AcDbArc
 50
218.3930440192126
 51
254.0576313943215
  0
LINE
  5
197C5
330
747D
100
AcDbEntity
  8
部品1
100
AcDbLine
 10
9103.717912118929
 20
8224.654569847507
 30
0.0
 11
9103.717912118929
 21
8229.654569847506
 31
0.0
  0
ARC
  5
197C6
330
747D
100
AcDbEntity
  8
部品1
 48
0.01
100
AcDbCircle
 10
9105.71791211893
 20
8229.654569847506
 30
0.0
 40
2.0
100
AcDbArc
 50
90.0
 51
180.0
  0
ARC
  5
197C7
330
747D
100
AcDbEntity
  8
部品1
100
AcDbCircle
 10
9129.717912118929
 20
8224.654569847507
 30
0.0
 40
26.0
100
AcDbArc
 50
180.0
 51
199.4712206344221
  0
ARC
  5
197C8
330
747D
100
AcDbEntity
  8
部品1
 48
0.01
100
AcDbCircle
 10
9097.717912118929
 20
8215.154569847506
 30
0.0
 40
0.5
100
AcDbArc
 50
180.0
 51
270.0
  0
LINE
  5
197C9
330
747D
100
AcDbEntity
  8
部品1
 48
0.01
100
AcDbLine
 10
9097.717912118929
 20
8214.654569847505
 30
0.0
 11
9104.262067996213
 21
8214.654569847505
 31
0.0
  0
LINE
  5
197CA
330
747D
100
AcDbEntity
  8
部品1
 48
0.01
100
AcDbLine
 10
9097.21791211893
 20
8216.154569847505
 30
0.0
 11
9097.21791211893
 21
8215.154569847506
 31
0.0
  0
ARC
  5
197CB
330
747D
100
AcDbEntity
  8
部品1
100
AcDbCircle
 10
9104.262067996213
 20
8215.654569847506
 30
0.0
 40
1.0
100
AcDbArc
 50
270.0
 51
19.47122063442214
  0
LINE
  5
197CC
330
747D
100
AcDbEntity
  8
細線
100
AcDbLine
 10
9142.717912118937
 20
8234.154569847509
 30
0.0
 11
9101.717912118937
 21
8234.154569847502
 31
0.0
  0
LINE
  5
197CD
330
747D
100
AcDbEntity
  8
細線
100
AcDbLine
 10
9101.717912118937
 20
8234.154569847502
 30
0.0
 11
9101.717912118937
 21
8216.154569847484
 31
0.0
  0
LINE
  5
197CE
330
747D
100
AcDbEntity
  8
細線
100
AcDbLine
 10
9142.717912118937
 20
8234.154569847509
 30
0.0
 11
9142.717912118937
 21
8216.154569847484
 31
0.0
  0
LINE
  5
197CF
330
747D
100
AcDbEntity
  8
細線
100
AcDbLine
 10
8986.218018717675
 20
8220.15550030191
 30
0.0
 11
8986.218018717675
 21
8216.155500301956
 31
0.0
  0
DIMENSION
  5
197D0
330
747D
100
AcDbEntity
  8
寸法
 48
50.0
100
AcDbDimension
  2
*D30
 10
10252.21801871767
 20
7562.367423696357
 30
0.0
 11
9638.349169780632
 21
7562.367423696357
 31
0.0
 70
   160
  1
有効開口部間口\P<>
 71
     5
 42
1266.0
  3
INABA_S40
100
AcDbAlignedDimension
 13
8986.218018717675
 23
8211.155500301909
 33
0.0
 14
10252.21801871767
 24
8211.155500301909
 34
0.0
100
AcDbRotatedDimension
1001
ACAD
1000
DSTYLE
1002
{
1070
    41
1040
0.5
1070
    44
1040
1.0
1070
   147
1040
0.8
1070
   271
1070
     2
1070
   272
1070
     2
1070
   289
1070
     3
1070
   340
1005
F706
1070
   343
1005
18837
1070
   344
1005
18837
1002
}
  0
LINE
  5
197D1
330
747D
100
AcDbEntity
  8
部品1
100
AcDbLine
 10
11074.21801871767
 20
8288.155500301909
 30
0.0
 11
11101.21801871767
 21
8288.155500301909
 31
0.0
  0
LINE
  5
197D3
330
747D
100
AcDbEntity
  8
部品1
100
AcDbLine
 10
11101.21801871767
 20
8211.155500301909
 30
0.0
 11
11101.21801871767
 21
8288.155500301909
 31
0.0
  0
LINE
  5
197D4
330
747D
100
AcDbEntity
  8
部品1
100
AcDbLine
 10
11062.21801871767
 20
8284.15550030191
 30
0.0
 11
11074.21801871767
 21
8284.15550030191
 31
0.0
  0
LINE
  5
197D5
330
747D
100
AcDbEntity
  8
部品1
100
AcDbLine
 10
11071.21801871767
 20
8220.15550030191
 30
0.0
 11
11071.21801871767
 21
8211.155500301909
 31
0.0
  0
LINE
  5
197D6
330
747D
100
AcDbEntity
  8
部品1
100
AcDbLine
 10
11062.21801871767
 20
8220.15550030191
 30
0.0
 11
11071.21801871767
 21
8220.15550030191
 31
0.0
  0
LINE
  5
197D7
330
747D
100
AcDbEntity
  8
部品1
100
AcDbLine
 10
11062.21801871767
 20
8284.15550030191
 30
0.0
 11
11062.21801871767
 21
8220.15550030191
 31
0.0
  0
LINE
  5
197D8
330
747D
100
AcDbEntity
  8
部品1
100
AcDbLine
 10
11074.21801871767
 20
8315.15550030191
 30
0.0
 11
11074.21801871767
 21
8284.15550030191
 31
0.0
  0
LINE
  5
197D9
330
747D
100
AcDbEntity
  8
部品1
100
AcDbLine
 10
8986.218018717675
 20
8284.15550030191
 30
0.0
 11
8974.218018717674
 21
8284.15550030191
 31
0.0
  0
LINE
  5
197DA
330
747D
100
AcDbEntity
  8
部品1
100
AcDbLine
 10
8947.218018717675
 20
8288.155500301909
 30
0.0
 11
8974.218018717674
 21
8288.155500301909
 31
0.0
  0
LINE
  5
197DB
330
747D
100
AcDbEntity
  8
部品1
100
AcDbLine
 10
8977.218018717675
 20
8220.15550030191
 30
0.0
 11
8977.218018717675
 21
8211.155500301909
 31
0.0
  0
LINE
  5
197DC
330
747D
100
AcDbEntity
  8
部品1
100
AcDbLine
 10
8986.218018717675
 20
8220.15550030191
 30
0.0
 11
8977.218018717675
 21
8220.15550030191
 31
0.0
  0
LINE
  5
197DD
330
747D
100
AcDbEntity
  8
部品1
100
AcDbLine
 10
8977.218018717675
 20
8211.155500301909
 30
0.0
 11
8947.218018717675
 21
8211.155500301909
 31
0.0
  0
LINE
  5
197DE
330
747D
100
AcDbEntity
  8
部品1
100
AcDbLine
 10
8947.218018717675
 20
8211.155500301909
 30
0.0
 11
8947.218018717675
 21
8288.155500301909
 31
0.0
  0
LINE
  5
197DF
330
747D
100
AcDbEntity
  8
部品1
100
AcDbLine
 10
8986.218018717675
 20
8284.15550030191
 30
0.0
 11
8986.218018717675
 21
8220.15550030191
 31
0.0
  0
LINE
  5
197E0
330
747D
100
AcDbEntity
  8
部品1
100
AcDbLine
 10
8974.218018717674
 20
8315.155500301905
 30
0.0
 11
8974.218018717674
 21
8284.15550030191
 31
0.0
  0
LINE
  5
197E1
330
747D
100
AcDbEntity
  8
部品1
100
AcDbLine
 10
8974.218018717674
 20
8315.155500301905
 30
0.0
 11
11074.21801871767
 21
8315.15550030191
 31
0.0
  0
LINE
  5
197E2
330
747D
100
AcDbEntity
  8
部品1
100
AcDbLine
 10
11071.21801871767
 20
8211.155500301909
 30
0.0
 11
11101.21801871767
 21
8211.155500301909
 31
0.0
  0
LINE
  5
197E3
330
747D
100
AcDbEntity
  8
部品1
100
AcDbLine
 10
8977.218018717675
 20
8211.155500301909
 30
0.0
 11
11074.21801871767
 21
8211.155500301909
 31
0.0
  0
LINE
  5
197E4
330
747D
100
AcDbEntity
  8
細線
  6
Continuous
 62
     5
100
AcDbLine
 10
10353.21801871768
 20
8250.155500301906
 30
0.0
 11
10353.21801871768
 21
8250.155500301906
 31
0.0
  0
LINE
  5
197E5
330
747D
100
AcDbEntity
  8
細線
  6
Continuous
 62
     5
100
AcDbLine
 10
10345.71805403657
 20
8250.155510222963
 30
0.0
 11
10345.71805403657
 21
8250.155510222963
 31
0.0
  0
LINE
  5
197E6
330
747D
100
AcDbEntity
  8
細線
  6
Continuous
 62
     5
100
AcDbLine
 10
10339.71805403657
 20
8250.155510222963
 30
0.0
 11
10339.71805403657
 21
8250.155510222963
 31
0.0
  0
LINE
  5
197E7
330
747D
100
AcDbEntity
  8
細線
  6
Continuous
 62
     5
100
AcDbLine
 10
10407.21801871768
 20
8269.155500301906
 30
0.0
 11
10407.21801871768
 21
8269.155500301906
 31
0.0
  0
LINE
  5
197E8
330
747D
100
AcDbEntity
  8
細線
 48
50.0
100
AcDbLine
 10
9000.218023371267
 20
8236.755674478864
 30
0.0
 11
9000.218023371267
 21
8245.151824886503
 31
0.0
  0
LINE
  5
197E9
330
747D
100
AcDbEntity
  8
細線
 48
50.0
100
AcDbLine
 10
9000.218023371267
 20
8245.151824886503
 30
0.0
 11
8986.218018717675
 21
8245.1518248865
 31
0.0
  0
LINE
  5
197EA
330
747D
100
AcDbEntity
  8
細線
 48
50.0
100
AcDbLine
 10
9751.218023371265
 20
8233.305674478863
 30
0.0
 11
9751.218023371265
 21
8238.155674478866
 31
0.0
  0
LINE
  5
197EB
330
747D
100
AcDbEntity
  8
細線
 48
50.0
100
AcDbLine
 10
9751.218023371265
 20
8238.155674478866
 30
0.0
 11
9766.218023371266
 21
8238.155674478866
 31
0.0
  0
LINE
  5
197EC
330
747D
100
AcDbEntity
  8
細線
 48
50.0
100
AcDbLine
 10
9766.218023371266
 20
8238.155674478866
 30
0.0
 11
9766.218023371267
 21
8245.155674478864
 31
0.0
  0
LINE
  5
197ED
330
747D
100
AcDbEntity
  8
細線
 48
50.0
100
AcDbLine
 10
9766.218023371267
 20
8245.155674478864
 30
0.0
 11
9781.218023371264
 21
8245.155674478864
 31
0.0
  0
LINE
  5
197EE
330
747D
100
AcDbEntity
  8
細線
 48
50.0
100
AcDbLine
 10
9781.218023371264
 20
8245.155674478864
 30
0.0
 11
9781.218023371264
 21
8216.155674478866
 31
0.0
  0
LINE
  5
197EF
330
747D
100
AcDbEntity
  8
細線
 48
50.0
100
AcDbLine
 10
8977.218018717675
 20
8216.153008822333
 30
0.0
 11
9191.218023371265
 21
8216.155692032577
 31
0.0
  0
LINE
  5
197F0
330
747D
100
AcDbEntity
  8
細線
 48
50.0
100
AcDbLine
 10
9681.218023371265
 20
8216.155674478866
 30
0.0
 11
9781.218023371264
 21
8216.155674478866
 31
0.0
  0
LINE
  5
197F1
330
747D
100
AcDbEntity
  8
細線
 48
50.0
100
AcDbLine
 10
9401.218023371264
 20
8216.155674478866
 30
0.0
 11
9471.218023371264
 21
8216.155674478866
 31
0.0
  0
LINE
  5
197F2
330
747D
100
AcDbEntity
  8
細線
 48
50.0
100
AcDbLine
 10
9414.079988383795
 20
8216.155674478866
 30
0.0
 11
9419.83550596646
 21
8234.426525769359
 31
0.0
  0
LINE
  5
197F3
330
747D
100
AcDbEntity
  8
細線
 48
50.0
100
AcDbLine
 10
9419.83550596646
 20
8234.426525769359
 30
0.0
 11
9430.763954446895
 21
8234.426525769356
 31
0.0
  0
ARC
  5
197F4
330
747D
100
AcDbEntity
  8
細線
 48
50.0
100
AcDbCircle
 10
9430.763954446895
 20
8233.426525769356
 30
0.0
 40
1.0
100
AcDbArc
 50
24.62431835213048
 51
90.0
  0
ARC
  5
197F5
330
747D
100
AcDbEntity
  8
細線
 48
50.0
100
AcDbCircle
 10
9441.672666561528
 20
8233.426525769356
 30
0.0
 40
1.0
100
AcDbArc
 50
90.0
 51
155.3756816478695
  0
ARC
  5
197F6
330
747D
100
AcDbEntity
  8
細線
 48
50.0
100
AcDbCircle
 10
9436.218310504209
 20
8235.926525769356
 30
0.0
 40
5.0
100
AcDbArc
 50
204.6243183521304
 51
335.3756816478695
  0
LINE
  5
197F7
330
747D
100
AcDbEntity
  8
細線
 48
50.0
100
AcDbLine
 10
9441.672666561528
 20
8234.426525769356
 30
0.0
 11
9452.601115041963
 21
8234.426525769359
 31
0.0
  0
LINE
  5
197F8
330
747D
100
AcDbEntity
  8
細線
 48
50.0
100
AcDbLine
 10
9452.601115041963
 20
8234.426525769359
 30
0.0
 11
9458.35663262463
 21
8216.155674478866
 31
0.0
  0
LINE
  5
197F9
330
747D
100
AcDbEntity
  8
細線
 48
50.0
100
AcDbLine
 10
9751.218023371265
 20
8236.755674478864
 30
0.0
 11
9000.218023371267
 21
8236.755674478864
 31
0.0
  0
LINE
  5
197FA
330
747D
100
AcDbEntity
  8
細線
 48
50.0
100
AcDbLine
 10
9611.218023371264
 20
8216.155674478866
 30
0.0
 11
9541.218023371264
 21
8216.155674478866
 31
0.0
  0
LINE
  5
197FB
330
747D
100
AcDbEntity
  8
細線
100
AcDbLine
 10
9331.218023371263
 20
8216.155674478866
 30
0.0
 11
9261.21803155668
 21
8216.155674478866
 31
0.0
  0
LINE
  5
197FC
330
747D
100
AcDbEntity
  8
細線
 48
50.0
100
AcDbLine
 10
10405.21801406409
 20
8270.755718336731
 30
0.0
 11
9770.218023371263
 21
8270.755718336728
 31
0.0
  0
LINE
  5
197FD
330
747D
100
AcDbEntity
  8
細線
 48
50.0
100
AcDbLine
 10
9770.218023371263
 20
8267.651868744371
 30
0.0
 11
9770.218023371263
 21
8272.151868744371
 31
0.0
  0
LINE
  5
197FE
330
747D
100
AcDbEntity
  8
細線
 48
50.0
100
AcDbLine
 10
9770.218023371263
 20
8272.151868744371
 30
0.0
 11
9755.218023371265
 21
8272.151868744371
 31
0.0
  0
LINE
  5
197FF
330
747D
100
AcDbEntity
  8
細線
 48
50.0
100
AcDbLine
 10
9755.218023371265
 20
8272.151868744371
 30
0.0
 11
9755.218023371265
 21
8279.151868744371
 31
0.0
  0
LINE
  5
19800
330
747D
100
AcDbEntity
  8
細線
 48
50.0
100
AcDbLine
 10
9755.218023371265
 20
8279.151868744371
 30
0.0
 11
9740.218023371269
 21
8279.151868744369
 31
0.0
  0
LINE
  5
19801
330
747D
100
AcDbEntity
  8
細線
 48
50.0
100
AcDbLine
 10
9740.218023371269
 20
8279.151868744369
 30
0.0
 11
9740.218023371269
 21
8241.551640641258
 31
0.0
  0
LINE
  5
19802
330
747D
100
AcDbEntity
  8
細線
 48
50.0
100
AcDbLine
 10
9740.218023371269
 20
8241.551640641258
 30
0.0
 11
9760.21803067244
 21
8241.551682190799
 31
0.0
  0
LINE
  5
19803
330
747D
100
AcDbEntity
  8
細線
 48
50.0
100
AcDbLine
 10
9760.2179858035
 20
8250.155143826608
 30
0.0
 11
9760.21803067244
 21
8241.551682190799
 31
0.0
  0
LINE
  5
19804
330
747D
100
AcDbEntity
  8
細線
 48
50.0
100
AcDbLine
 10
10405.21801406409
 20
8267.30571833673
 30
0.0
 11
10405.21801406409
 21
8272.15571833673
 31
0.0
  0
LINE
  5
19805
330
747D
100
AcDbEntity
  8
細線
 48
50.0
100
AcDbLine
 10
10405.21801406409
 20
8272.15571833673
 30
0.0
 11
10420.21801406408
 21
8272.15571833673
 31
0.0
  0
LINE
  5
19806
330
747D
100
AcDbEntity
  8
細線
 48
50.0
100
AcDbLine
 10
10420.21801406408
 20
8272.15571833673
 30
0.0
 11
10420.21802569806
 21
8279.155718336772
 31
0.0
  0
LINE
  5
19807
330
747D
100
AcDbEntity
  8
細線
 48
50.0
100
AcDbLine
 10
10420.21802569806
 20
8279.155718336772
 30
0.0
 11
10435.21802386859
 21
8279.155718336772
 31
0.0
  0
LINE
  5
19808
330
747D
100
AcDbEntity
  8
細線
 48
50.0
100
AcDbLine
 10
10435.21802386859
 20
8279.155718336772
 30
0.0
 11
10435.21801356677
 21
8250.1555121645
 31
0.0
  0
LINE
  5
19809
330
747D
100
AcDbEntity
  8
細線
 48
50.0
100
AcDbLine
 10
10122.71804119755
 20
8250.155520351865
 30
0.0
 11
10052.71829327997
 21
8250.155514914528
 31
0.0
  0
LINE
  5
1980A
330
747D
100
AcDbEntity
  8
細線
 48
50.0
100
AcDbLine
 10
9760.2179858035
 20
8250.155143826608
 30
0.0
 11
9771.450675158209
 21
8250.155326779752
 31
0.0
  0
ARC
  5
1980B
330
747D
100
AcDbEntity
  8
細線
 48
50.0
100
AcDbCircle
 10
9778.032967465545
 20
8248.955490693367
 30
0.0
 40
1.8
100
AcDbArc
 50
270.0006665777295
 51
345.0005554812987
  0
LINE
  5
1980C
330
747D
100
AcDbEntity
  8
細線
 48
50.0
100
AcDbLine
 10
9780.019400911625
 20
8249.414331150644
 30
0.0
 11
9779.771638469426
 21
8248.489633268539
 31
0.0
  0
LINE
  5
1980D
330
747D
100
AcDbEntity
  8
細線
 48
50.0
100
AcDbLine
 10
9778.0329884067
 20
8247.155490693486
 30
0.0
 11
9774.40306098793
 21
8247.155448463008
 31
0.0
  0
ARC
  5
1980E
330
747D
100
AcDbEntity
  8
細線
 48
50.0
100
AcDbCircle
 10
9774.403040046777
 20
8248.955448462886
 30
0.0
 40
1.8
100
AcDbArc
 50
195.0010443049394
 51
270.0006665777295
  0
LINE
  5
1980F
330
747D
100
AcDbEntity
  8
細線
 48
50.0
100
AcDbLine
 10
9772.41661255452
 20
8249.414163430451
 30
0.0
 11
9772.664382051033
 21
8248.489542491869
 31
0.0
  0
ARC
  5
19810
330
747D
100
AcDbEntity
  8
細線
 48
50.0
100
AcDbCircle
 10
9771.450691445771
 20
8249.155326779888
 30
0.0
 40
1.0
100
AcDbArc
 50
15.00104430493943
 51
90.00093320877969
  0
LINE
  5
19811
330
747D
100
AcDbEntity
  8
細線
 48
50.0
100
AcDbLine
 10
9780.985322266726
 20
8250.155521470158
 30
0.0
 11
9781.927082417631
 21
8250.155528044009
 31
0.0
  0
ARC
  5
19812
330
747D
100
AcDbEntity
  8
細線
 48
50.0
100
AcDbCircle
 10
9780.985329247114
 20
8249.155521470184
 30
0.0
 40
1.0
100
AcDbArc
 50
90.0003999466794
 51
165.0005554812987
  0
LINE
  5
19813
330
747D
100
AcDbEntity
  8
細線
 48
50.0
100
AcDbLine
 10
10332.71801406407
 20
8250.1555121645
 30
0.0
 11
10435.21801356677
 21
8250.1555121645
 31
0.0
  0
LINE
  5
19814
330
747D
100
AcDbEntity
  8
細線
 48
50.0
100
AcDbLine
 10
9842.71804938297
 20
8250.155520351865
 30
0.0
 11
9781.61798815605
 21
8250.155528044009
 31
0.0
  0
LINE
  5
19815
330
747D
100
AcDbEntity
  8
細線
 48
50.0
100
AcDbLine
 10
10262.71804938297
 20
8250.15555719295
 30
0.0
 11
10192.71804242858
 21
8250.15551217028
 31
0.0
  0
LINE
  5
19816
330
747D
100
AcDbEntity
  8
細線
 48
50.0
100
AcDbLine
 10
9982.718014064078
 20
8250.155512164495
 30
0.0
 11
9912.717996776201
 21
8250.155512164504
 31
0.0
  0
ARC
  5
19817
330
747D
100
AcDbEntity
  8
細線
 48
50.0
100
AcDbCircle
 10
10419.41801871768
 20
8283.35550030191
 30
0.0
 40
0.8
100
AcDbArc
 50
359.9997333689499
 51
89.99986668437072
  0
ARC
  5
19818
330
747D
100
AcDbEntity
  8
細線
 48
50.0
100
AcDbCircle
 10
10427.01802554278
 20
8283.355511470528
 30
0.0
 40
0.8
100
AcDbArc
 50
90.00014387753465
 51
179.9997333689498
  0
LINE
  5
19819
330
747D
100
AcDbEntity
  8
細線
 48
50.0
100
AcDbLine
 10
10419.41802057912
 20
8284.15550030191
 30
0.0
 11
10414.21801871767
 21
8284.15550030191
 31
0.0
  0
ARC
  5
1981A
330
747D
100
AcDbEntity
  8
細線
 48
50.0
100
AcDbCircle
 10
10420.91801871767
 20
8281.85550030191
 30
0.0
 40
0.7
100
AcDbArc
 50
180.0
 51
270.0
  0
ARC
  5
1981B
330
747D
100
AcDbEntity
  8
細線
 48
50.0
100
AcDbCircle
 10
10425.51801871768
 20
8281.85550030191
 30
0.0
 40
0.7
100
AcDbArc
 50
270.0
 51
0.0
  0
LINE
  5
1981C
330
747D
100
AcDbEntity
  8
細線
 48
50.0
100
AcDbLine
 10
10426.21801871767
 20
8281.85550030191
 30
0.0
 11
10426.21802554279
 21
8283.355515193397
 31
0.0
  0
LINE
  5
1981D
330
747D
100
AcDbEntity
  8
細線
 48
50.0
100
AcDbLine
 10
10420.91801871767
 20
8281.15550030191
 30
0.0
 11
10425.51801871768
 21
8281.15550030191
 31
0.0
  0
LINE
  5
1981E
330
747D
100
AcDbEntity
  8
細線
 48
50.0
100
AcDbLine
 10
10420.21801871767
 20
8283.35550030191
 30
0.0
 11
10420.21801871767
 21
8281.85550030191
 31
0.0
  0
LINE
  5
1981F
330
747D
100
AcDbEntity
  8
細線
 48
50.0
100
AcDbLine
 10
11045.81801871768
 20
8314.155500301909
 30
0.0
 11
10409.21801871767
 21
8314.155500301906
 31
0.0
  0
LINE
  5
19820
330
747D
100
AcDbEntity
  8
細線
 48
50.0
100
AcDbLine
 10
11071.71801871767
 20
8309.155500301914
 30
0.0
 11
11055.81801871768
 21
8309.15550030191
 31
0.0
  0
LINE
  5
19821
330
747D
100
AcDbEntity
  8
細線
 48
50.0
100
AcDbLine
 10
11055.81801871768
 20
8309.15550030191
 30
0.0
 11
11045.81801871768
 21
8314.155500301909
 31
0.0
  0
LINE
  5
19822
330
747D
100
AcDbEntity
  8
細線
100
AcDbLine
 10
10656.71801871767
 20
8284.15550030191
 30
0.0
 11
10656.71801871767
 21
8313.455500301909
 31
0.0
  0
LINE
  5
19823
330
747D
100
AcDbEntity
  8
細線
100
AcDbLine
 10
10656.71801871767
 20
8313.455500301909
 30
0.0
 11
10676.71801871767
 21
8313.455500301909
 31
0.0
  0
LINE
  5
19824
330
747D
100
AcDbEntity
  8
細線
100
AcDbLine
 10
10676.71801871767
 20
8284.15550030191
 30
0.0
 11
10676.71801871767
 21
8313.455500301909
 31
0.0
  0
LINE
  5
19825
330
747D
100
AcDbEntity
  8
細線
100
AcDbLine
 10
10837.96801871767
 20
8284.15550030191
 30
0.0
 11
10767.96801871767
 21
8284.15550030191
 31
0.0
  0
LINE
  5
19826
330
747D
100
AcDbEntity
  8
細線
 48
50.0
100
AcDbLine
 10
10557.96801871767
 20
8284.15550030191
 30
0.0
 11
10427.01379829052
 21
8284.15550030191
 31
0.0
  0
LINE
  5
19827
330
747D
100
AcDbEntity
  8
細線
100
AcDbLine
 10
10697.96801871767
 20
8284.15550030191
 30
0.0
 11
10627.96801871767
 21
8284.15550030191
 31
0.0
  0
LINE
  5
19828
330
747D
100
AcDbEntity
  8
細線
 48
50.0
100
AcDbLine
 10
10414.21801871767
 20
8276.155500301909
 30
0.0
 11
10414.21801871767
 21
8284.15550030191
 31
0.0
  0
LINE
  5
19829
330
747D
100
AcDbEntity
  8
細線
 48
50.0
100
AcDbLine
 10
10394.21801871767
 20
8276.155500301912
 30
0.0
 11
10414.21801871767
 21
8276.155500301909
 31
0.0
  0
LINE
  5
1982A
330
747D
100
AcDbEntity
  8
細線
 48
50.0
100
AcDbLine
 10
10409.21801871767
 20
8314.155500301909
 30
0.0
 11
10409.21801871767
 21
8309.15550030191
 31
0.0
  0
LINE
  5
1982B
330
747D
100
AcDbEntity
  8
細線
 48
50.0
100
AcDbLine
 10
10394.21801871767
 20
8314.155500301906
 30
0.0
 11
10409.21801871767
 21
8314.155500301909
 31
0.0
  0
LINE
  5
1982C
330
747D
100
AcDbEntity
  8
細線
 48
50.0
100
AcDbLine
 10
10394.21801871767
 20
8276.155500301912
 30
0.0
 11
10394.21801871767
 21
8314.155500301906
 31
0.0
  0
LINE
  5
1982D
330
747D
100
AcDbEntity
  8
細線
100
AcDbLine
 10
11062.21801871767
 20
8284.15550030191
 30
0.0
 11
10907.96801871767
 21
8284.15550030191
 31
0.0
  0
LINE
  5
1982E
330
747D
100
AcDbEntity
  8
細線
 48
50.0
100
AcDbLine
 10
11071.71801871767
 20
8309.155500301914
 30
0.0
 11
11071.71801871767
 21
8284.15550030191
 31
0.0
  0
DIMENSION
  5
19A65
330
747D
100
AcDbEntity
  8
寸法
 48
50.0
100
AcDbDimension
  2
*D31
 10
11101.21801871767
 20
7291.025784874142
 30
0.0
 11
10046.35077546498
 21
7291.025784874142
 31
0.0
 70
   160
 71
     5
 42
2154.0
  3
INABA_S40G
100
AcDbAlignedDimension
 13
8947.218018717675
 23
8211.155500301909
 33
0.0
 14
11101.21801871767
 24
8211.155500301909
 34
0.0
100
AcDbRotatedDimension
1001
ACAD
1000
DSTYLE
1002
{
1070
   341
1005
0
1002
}
  0
DIMENSION
  5
19A66
330
747D
100
AcDbEntity
  8
寸法
100
AcDbDimension
  2
*D32
 10
8204.606773090985
 20
8213.155500301876
 30
0.0
 11
8204.606773090983
 21
8072.670218927637
 31
0.0
 70
   160
 71
     5
 42
75.0
  3
INABA_S40
100
AcDbAlignedDimension
 13
8499.2180187177
 23
8288.155500301876
 33
0.0
 14
8947.218018717675
 24
8213.155500301876
 34
0.0
 50
90.0
100
AcDbRotatedDimension
1001
ACAD
1000
DSTYLE
1002
{
1070
    41
1040
0.5
1070
    44
1040
1.0
1070
   147
1040
0.8
1070
   271
1070
     2
1070
   272
1070
     2
1070
   289
1070
     3
1070
   340
1005
F706
1070
   343
1005
18837
1070
   344
1005
18837
1002
}
  0
TEXT
  5
19B17
330
747D
100
AcDbEntity
  8
部品1
100
AcDbText
 10
9522.402295432515
 20
6647.525302090435
 30
0.0
 40
135.0
  1
平面図
  7
STYLE2
100
AcDbText
  0
LINE
  5
19B18
330
747D
100
AcDbEntity
  8
部品1
100
AcDbLine
 10
9432.482685603478
 20
6840.418831308958
 30
0.0
 11
9432.482685603478
 21
6600.526509763425
 31
0.0
  0
LINE
  5
19B19
330
747D
100
AcDbEntity
  8
部品1
100
AcDbLine
 10
9432.482685603478
 20
6600.526509763425
 30
0.0
 11
10195.95335183191
 21
6600.526509763425
 31
0.0
  0
LINE
  5
19B1A
330
747D
100
AcDbEntity
  8
部品1
100
AcDbLine
 10
10195.95335183191
 20
6600.526509763425
 30
0.0
 11
10195.95335183191
 21
6840.418831308958
 31
0.0
  0
LINE
  5
19B1B
330
747D
100
AcDbEntity
  8
部品1
100
AcDbLine
 10
10195.95335183191
 20
6840.418831308958
 30
0.0
 11
9432.482685603478
 21
6840.418831308958
 31
0.0
  0
DIMENSION
  5
19B22
330
747D
100
AcDbEntity
  8
寸法
100
AcDbDimension
  2
*D33
 10
11129.21801871768
 20
7031.767983239129
 30
0.0
 11
9832.01980735385
 21
7031.767983239129
 31
0.0
 70
   160
 71
     5
 42
2629.999999999982
  3
INABA_S40G
100
AcDbAlignedDimension
 13
8499.2180187177
 23
8288.155500301876
 33
0.0
 14
11129.21801871768
 24
8288.155500302041
 34
0.0
100
AcDbRotatedDimension
1001
ACAD
1000
DSTYLE
1002
{
1002
}
  0
LWPOLYLINE
  5
19D8B
330
747D
100
AcDbEntity
  8
部品1
 48
50.0
100
AcDbPolyline
 90
        4
 70
     1
 43
0.0
 10
9046.268018717697
 20
4077.134242048254
 10
9049.168018717699
 20
4077.134242048254
 10
9049.168018717699
 20
4086.634242048254
 10
9046.268018717697
 20
4086.634242048254
  0
CIRCLE
  5
19D8C
330
747D
100
AcDbEntity
  8
部品1
 48
50.0
100
AcDbCircle
 10
9047.718018717699
 20
4081.884242048254
 30
0.0
 40
9.0
  0
ARC
  5
19D8D
330
747D
100
AcDbEntity
  8
細線
 48
50.0
100
AcDbCircle
 10
9047.718018717699
 20
4081.884242048254
 30
0.0
 40
4.0
100
AcDbArc
 50
111.2538091853132
 51
248.7461908146868
  0
ARC
  5
19D8E
330
747D
100
AcDbEntity
  8
細線
 48
50.0
100
AcDbCircle
 10
9047.718018717699
 20
4081.884242048254
 30
0.0
 40
17.5
100
AcDbArc
 50
306.4837370612677
 51
233.5162629387323
  0
LINE
  5
19D8F
330
747D
100
AcDbEntity
  8
細線
 48
50.0
100
AcDbLine
 10
9057.718018717695
 20
4058.025281467371
 30
0.0
 11
9057.718018717698
 21
4067.009767267612
 31
0.0
  0
LINE
  5
19D90
330
747D
100
AcDbEntity
  8
細線
 48
50.0
100
AcDbLine
 10
9037.718018717699
 20
4058.025281467373
 30
0.0
 11
9037.718018717699
 21
4067.009767267609
 31
0.0
  0
ARC
  5
19D91
330
747D
100
AcDbEntity
  8
細線
 48
50.0
100
AcDbCircle
 10
9047.718018717699
 20
4081.884242048254
 30
0.0
 40
26.5
100
AcDbArc
 50
249.332683506403
 51
290.6673164933835
  0
ARC
  5
19D92
330
747D
100
AcDbEntity
  8
細線
 48
50.0
100
AcDbCircle
 10
9056.718018717692
 20
4058.025281467371
 30
0.0
 40
1.0
100
AcDbArc
 50
290.667316493597
 51
359.9999999998958
  0
ARC
  5
19D93
330
747D
100
AcDbEntity
  8
細線
 48
50.0
100
AcDbCircle
 10
9038.718018717698
 20
4058.025281467373
 30
0.0
 40
1.0
100
AcDbArc
 50
180.0
 51
249.3326835066164
  0
ARC
  5
19D94
330
747D
100
AcDbEntity
  8
細線
 48
50.0
100
AcDbCircle
 10
9036.718018717698
 20
4067.009767267609
 30
0.0
 40
1.0
100
AcDbArc
 50
0.0
 51
53.51626293873231
  0
ARC
  5
19D95
330
747D
100
AcDbEntity
  8
細線
 48
50.0
100
AcDbCircle
 10
9058.718018717703
 20
4067.009767267612
 30
0.0
 40
1.0
100
AcDbArc
 50
126.4837370615282
 51
180.0
  0
ARC
  5
19D96
330
747D
100
AcDbEntity
  8
細線
 48
50.0
100
AcDbCircle
 10
9047.718018717699
 20
4081.884242048254
 30
0.0
 40
21.5
100
AcDbArc
 50
255.8014401250294
 51
284.1985598749706
  0
ARC
  5
19D97
330
747D
100
AcDbEntity
  8
細線
 48
50.0
100
AcDbCircle
 10
9047.718018717699
 20
4081.884242048254
 30
0.0
 40
16.5
100
AcDbArc
 50
251.9694646069326
 51
288.0305353930674
  0
LINE
  5
19D98
330
747D
100
AcDbEntity
  8
細線
 48
50.0
100
AcDbLine
 10
9053.218018717698
 20
4061.331869922446
 30
0.0
 11
9053.218018717698
 21
4065.909261609784
 31
0.0
  0
LINE
  5
19D99
330
747D
100
AcDbEntity
  8
細線
 48
50.0
100
AcDbLine
 10
9042.218018717697
 20
4061.331869922446
 30
0.0
 11
9042.218018717697
 21
4065.909261609782
 31
0.0
  0
ARC
  5
19D9A
330
747D
100
AcDbEntity
  8
細線
 48
50.0
100
AcDbCircle
 10
9042.518018717702
 20
4065.909261609782
 30
0.0
 40
0.3
100
AcDbArc
 50
71.96946460693259
 51
180.0
  0
ARC
  5
19D9B
330
747D
100
AcDbEntity
  8
細線
 48
50.0
100
AcDbCircle
 10
9052.918018717699
 20
4065.909261609784
 30
0.0
 40
0.3
100
AcDbArc
 50
0.0
 51
108.0305353930674
  0
ARC
  5
19D9C
330
747D
100
AcDbEntity
  8
細線
 48
50.0
100
AcDbCircle
 10
9052.918018717695
 20
4061.331869922446
 30
0.0
 40
0.3
100
AcDbArc
 50
284.1985598747557
 51
0.0000000001042204
  0
ARC
  5
19D9D
330
747D
100
AcDbEntity
  8
細線
 48
50.0
100
AcDbCircle
 10
9042.518018717702
 20
4061.331869922446
 30
0.0
 40
0.3
100
AcDbArc
 50
180.0
 51
255.8014401248145
  0
CIRCLE
  5
19D9E
330
747D
100
AcDbEntity
  8
細線
 48
50.0
100
AcDbCircle
 10
9047.718018717699
 20
4081.884242048254
 30
0.0
 40
12.0
  0
ARC
  5
19D9F
330
747D
100
AcDbEntity
  8
部品1
 48
50.0
100
AcDbCircle
 10
9047.718018717699
 20
4131.884242048254
 30
0.0
 40
8.5
100
AcDbArc
 50
114.315739171091
 51
245.684260828909
  0
CIRCLE
  5
19DA0
330
747D
100
AcDbEntity
  8
細線
 48
50.0
100
AcDbCircle
 10
9047.718018717699
 20
4131.884242048254
 30
0.0
 40
4.5
  0
LWPOLYLINE
  5
19DA1
330
747D
100
AcDbEntity
  8
部品1
 48
50.0
100
AcDbPolyline
 90
        2
 70
     0
 43
0.0
 10
9044.218018717698
 20
4150.559091445237
 10
9044.218018717698
 20
4139.630208740669
  0
CIRCLE
  5
19DA2
330
747D
100
AcDbEntity
  8
部品1
 48
50.0
100
AcDbCircle
 10
9047.718018717699
 20
4131.884242048254
 30
0.0
 40
19.0
  0
LWPOLYLINE
  5
19DA3
330
747D
100
AcDbEntity
  8
部品1
 48
50.0
100
AcDbPolyline
 90
        2
 70
     0
 43
0.0
 10
9044.218018717698
 20
4124.138275355838
 10
9044.218018717698
 20
4113.209392651271
  0
LWPOLYLINE
  5
19DA4
330
747D
100
AcDbEntity
  8
部品1
 48
50.0
100
AcDbPolyline
 90
        2
 70
     0
 43
0.0
 10
9051.218018717698
 20
4139.630208740669
 10
9051.218018717698
 20
4150.559091445237
  0
ARC
  5
19DA5
330
747D
100
AcDbEntity
  8
部品1
 48
50.0
100
AcDbCircle
 10
9047.718018717699
 20
4131.884242048254
 30
0.0
 40
8.5
100
AcDbArc
 50
294.315739171091
 51
65.68426082890896
  0
LWPOLYLINE
  5
19DA6
330
747D
100
AcDbEntity
  8
部品1
 48
50.0
100
AcDbPolyline
 90
        2
 70
     0
 43
0.0
 10
9051.218018717698
 20
4113.209392651271
 10
9051.218018717698
 20
4124.138275355838
  0
ARC
  5
19DA7
330
747D
100
AcDbEntity
  8
細線
 48
50.0
100
AcDbCircle
 10
9047.718018717699
 20
4131.884242048254
 30
0.0
 40
16.5
100
AcDbArc
 50
332.0012352654438
 51
27.99876473455621
  0
ARC
  5
19DA8
330
747D
100
AcDbEntity
  8
細線
 48
50.0
100
AcDbCircle
 10
9047.718018717699
 20
4131.884242048254
 30
0.0
 40
14.0
100
AcDbArc
 50
326.407443611277
 51
33.59255638872305
  0
LINE
  5
19DA9
330
747D
100
AcDbEntity
  8
細線
 48
50.0
100
AcDbLine
 10
9033.149216433367
 20
4139.630208740669
 30
0.0
 11
9036.056114928008
 21
4139.630208740669
 31
0.0
  0
LINE
  5
19DAA
330
747D
100
AcDbEntity
  8
細線
 48
50.0
100
AcDbLine
 10
9033.149216433367
 20
4124.138275355838
 30
0.0
 11
9036.056114928008
 21
4124.138275355838
 31
0.0
  0
LINE
  5
19DAB
330
747D
100
AcDbEntity
  8
細線
 48
50.0
100
AcDbLine
 10
9059.379922507387
 20
4139.630208740669
 30
0.0
 11
9062.286821002032
 21
4139.630208740669
 31
0.0
  0
LINE
  5
19DAC
330
747D
100
AcDbEntity
  8
細線
 48
50.0
100
AcDbLine
 10
9059.379922507387
 20
4124.138275355838
 30
0.0
 11
9062.286821002032
 21
4124.138275355838
 31
0.0
  0
ARC
  5
19DAD
330
747D
100
AcDbEntity
  8
細線
 48
50.0
100
AcDbCircle
 10
9047.718018717699
 20
4131.884242048254
 30
0.0
 40
14.0
100
AcDbArc
 50
146.4074436112769
 51
213.592556388723
  0
ARC
  5
19DAE
330
747D
100
AcDbEntity
  8
細線
 48
50.0
100
AcDbCircle
 10
9047.718018717699
 20
4131.884242048254
 30
0.0
 40
16.5
100
AcDbArc
 50
152.0012352654438
 51
207.9987647345562
  0
ARC
  5
19DAF
330
747D
100
AcDbEntity
  8
部品1
 48
50.0
100
AcDbCircle
 10
9021.218018717698
 20
4157.384242048254
 30
0.0
 40
5.0
100
AcDbArc
 50
90.0
 51
180.0
  0
ARC
  5
19DB0
330
747D
100
AcDbEntity
  8
部品1
 48
50.0
100
AcDbCircle
 10
9021.218018717698
 20
4046.384242048254
 30
0.0
 40
5.0
100
AcDbArc
 50
180.0
 51
270.0
  0
ARC
  5
19DB1
330
747D
100
AcDbEntity
  8
部品1
 48
50.0
100
AcDbCircle
 10
9074.218018717699
 20
4046.384242048254
 30
0.0
 40
5.0
100
AcDbArc
 50
270.0
 51
0.0
  0
ARC
  5
19DB2
330
747D
100
AcDbEntity
  8
部品1
 48
50.0
100
AcDbCircle
 10
9074.218018717699
 20
4157.384242048254
 30
0.0
 40
5.0
100
AcDbArc
 50
0.0
 51
90.0
  0
LINE
  5
19DB4
330
747D
100
AcDbEntity
  8
部品1
 48
50.0
100
AcDbLine
 10
9016.218018717699
 20
4046.384242048254
 30
0.0
 11
9016.218018717699
 21
4157.384242048254
 31
0.0
  0
LINE
  5
19DB5
330
747D
100
AcDbEntity
  8
部品1
 48
50.0
100
AcDbLine
 10
9074.218018717699
 20
4041.384242048255
 30
0.0
 11
9021.218018717698
 21
4041.384242048255
 31
0.0
  0
LINE
  5
19DB6
330
747D
100
AcDbEntity
  8
部品1
 48
50.0
100
AcDbLine
 10
9079.218018717698
 20
4157.384242048254
 30
0.0
 11
9079.218018717698
 21
4046.384242048254
 31
0.0
  0
ENDSEC
  0
SECTION
  2
OBJECTS
  0
DICTIONARY
  5
7471
330
0
100
AcDbDictionary
281
     1
  3
ACAD_COLOR
350
1882C
  3
ACAD_GROUP
350
7472
  3
ACAD_LAYOUT
350
1882D
  3
ACAD_MATERIAL
350
1882B
  3
ACAD_MLINESTYLE
350
7473
  3
ACAD_PLOTSETTINGS
350
1882E
  3
ACAD_PLOTSTYLENAME
350
18829
  3
ACDBHEADERROUNDTRIPXREC
350
19DC5
  3
AcDbVariableDictionary
350
19DC1
  3
CONTENTDICTIONARY
350
E71C
  3
DRAWINGVARIABLESDICT
350
F3B9
  0
DICTIONARY
  5
189C6
330
7467
100
AcDbDictionary
280
     1
281
     1
  3
ACAD_LAYERSTATES
360
189C7
  0
DICTIONARY
  5
1882C
102
{ACAD_REACTORS
330
7471
102
}
330
7471
100
AcDbDictionary
281
     1
  0
DICTIONARY
  5
7472
102
{ACAD_REACTORS
330
7471
102
}
330
7471
100
AcDbDictionary
281
     1
  0
DICTIONARY
  5
1882D
102
{ACAD_REACTORS
330
7471
102
}
330
7471
100
AcDbDictionary
281
     1
  3
Model
350
1882F
  3
レイアウト1
350
18830
  0
DICTIONARY
  5
1882B
102
{ACAD_REACTORS
330
7471
102
}
330
7471
100
AcDbDictionary
281
     1
  0
DICTIONARY
  5
7473
102
{ACAD_REACTORS
330
7471
102
}
330
7471
100
AcDbDictionary
281
     1
  3
STANDARD
350
7480
  0
DICTIONARY
  5
1882E
102
{ACAD_REACTORS
330
7471
102
}
330
7471
100
AcDbDictionary
281
     1
  0
ACDBDICTIONARYWDFLT
  5
18829
102
{ACAD_REACTORS
330
7471
102
}
330
7471
100
AcDbDictionary
281
     1
  3
Normal
350
1882A
100
AcDbDictionaryWithDefault
340
1882A
  0
DICTIONARY
  5
19DC5
102
{ACAD_REACTORS
330
7471
102
}
330
7471
100
AcDbDictionary
281
     1
  3
COLORDICT
350
19DC7
  3
MATERIALDICT
350
19DC6
  0
DICTIONARY
  5
19DC1
102
{ACAD_REACTORS
330
7471
102
}
330
7471
100
AcDbDictionary
281
     1
  3
DIMASSOC
350
19DC2
  3
PROJECTNAME
350
19DC3
  0
DICTIONARY
  5
E71C
102
{ACAD_REACTORS
330
7471
102
}
330
7471
100
AcDbDictionary
281
     1
  0
DICTIONARY
  5
F3B9
102
{ACAD_REACTORS
330
7471
102
}
330
7471
100
AcDbDictionary
281
     1
1001
DRAWINGVARIABLESXDATA
1000
POLARMODE
1000
1
  0
DICTIONARY
  5
189C7
102
{ACAD_REACTORS
330
189C6
102
}
330
189C6
100
AcDbDictionary
281
     1
  0
LAYOUT
  5
1882F
102
{ACAD_XDICTIONARY
360
19DC8
102
}
102
{ACAD_REACTORS
330
1882D
102
}
330
1882D
100
AcDbPlotSettings
  1

  2
Microsoft Office Document Image Writer
  4

  6

 40
0.0
 41
0.0
 42
0.0
 43
0.0
 44
0.0
 45
0.0
 46
0.0
 47
0.0
 48
0.0
 49
0.0
140
0.0
141
0.0
142
1.0
143
1.0
 70
  1712
 72
     0
 73
     0
 74
     0
  7

 75
     0
147
1.0
148
0.0
149
0.0
100
AcDbLayout
  1
Model
 70
     1
 71
     0
 10
0.0
 20
0.0
 11
12.0
 21
9.0
 12
0.0
 22
0.0
 32
0.0
 14
0.0
 24
0.0
 34
0.0
 15
0.0
 25
0.0
 35
0.0
146
0.0
 13
0.0
 23
0.0
 33
0.0
 16
1.0
 26
0.0
 36
0.0
 17
0.0
 27
1.0
 37
0.0
 76
     0
330
747D
  0
LAYOUT
  5
18830
102
{ACAD_XDICTIONARY
360
19DCA
102
}
102
{ACAD_REACTORS
330
1882D
102
}
330
1882D
100
AcDbPlotSettings
  1

  2
Microsoft Office Document Image Writer
  4

  6

 40
0.0
 41
0.0
 42
0.0
 43
0.0
 44
0.0
 45
0.0
 46
0.0
 47
0.0
 48
0.0
 49
0.0
140
0.0
141
0.0
142
1.0
143
1.0
 70
   688
 72
     0
 73
     0
 74
     5
  7

 75
    16
147
1.0
148
0.0
149
0.0
100
AcDbLayout
  1
レイアウト1
 70
     0
 71
     1
 10
0.0
 20
0.0
 11
420.0
 21
297.0
 12
0.0
 22
0.0
 32
0.0
 14
1.000000000000000E+20
 24
1.000000000000000E+20
 34
1.000000000000000E+20
 15
-1.000000000000000E+20
 25
-1.000000000000000E+20
 35
-1.000000000000000E+20
146
0.0
 13
0.0
 23
0.0
 33
0.0
 16
1.0
 26
0.0
 36
0.0
 17
0.0
 27
1.0
 37
0.0
 76
     0
330
747A
  0
MLINESTYLE
  5
7480
102
{ACAD_REACTORS
330
7473
102
}
330
7473
100
AcDbMlineStyle
  2
STANDARD
 70
     0
  3

 62
     0
 51
90.0
 52
90.0
 71
     2
 49
0.5
 62
   256
  6
BYLAYER
 49
-0.5
 62
   256
  6
BYLAYER
  0
ACDBPLACEHOLDER
  5
1882A
102
{ACAD_REACTORS
330
18829
102
}
330
18829
  0
XRECORD
  5
19DC7
102
{ACAD_REACTORS
330
19DC5
102
}
330
19DC5
100
AcDbXrecord
280
     1
340
1882C
  0
XRECORD
  5
19DC6
102
{ACAD_REACTORS
330
19DC5
102
}
330
19DC5
100
AcDbXrecord
280
     1
340
1882B
  0
DICTIONARYVAR
  5
19DC2
102
{ACAD_REACTORS
330
19DC1
102
}
330
19DC1
100
DictionaryVariables
280
     0
  1
1
  0
DICTIONARYVAR
  5
19DC3
102
{ACAD_REACTORS
330
19DC1
102
}
330
19DC1
100
DictionaryVariables
280
     0
  1

  0
DICTIONARY
  5
19DC8
330
1882F
100
AcDbDictionary
280
     1
281
     1
  3
ACAD_XREC_ROUNDTRIP
360
19DC9
  0
DICTIONARY
  5
19DCA
330
18830
100
AcDbDictionary
280
     1
281
     1
  3
ACAD_XREC_ROUNDTRIP
360
19DCB
  0
XRECORD
  5
19DC9
102
{ACAD_REACTORS
330
19DC8
102
}
330
19DC8
100
AcDbXrecord
280
     1
102
SHADEPLOT
 70
     0
102
SHADEPLOTRESLEVEL
 70
     2
102
SHADEPLOTCUSTOMDPI
 70
   300
  0
XRECORD
  5
19DCB
102
{ACAD_REACTORS
330
19DCA
102
}
330
19DCA
100
AcDbXrecord
280
     1
102
SHADEPLOT
 70
     0
102
SHADEPLOTRESLEVEL
 70
     2
102
SHADEPLOTCUSTOMDPI
 70
   300
  0
ENDSEC
  0
EOF
