  0
SECTION
  2
HEADER
  9
$ACADVER
  1
AC1015
  9
$ACADMAINTVER
 70
    20
  9
$DWGCODEPAGE
  3
ANSI_932
  9
$INSBASE
 10
0.0
 20
0.0
 30
0.0
  9
$EXTMIN
 10
139.9999999999995
 20
-0.0000000000000909
 30
0.0
  9
$EXTMAX
 10
16307.2
 20
11409.6
 30
0.0
  9
$LIMMIN
 10
-25.79074261211281
 20
-125.8223078213959
  9
$LIMMAX
 10
16471.10331197129
 20
11496.44801950658
  9
$ORTHOMODE
 70
     0
  9
$REGENMODE
 70
     1
  9
$FILLMODE
 70
     1
  9
$QTEXTMODE
 70
     0
  9
$MIRRTEXT
 70
     1
  9
$LTSCALE
 40
20.0
  9
$ATTMODE
 70
     1
  9
$TEXTSIZE
 40
4.0
  9
$TRACEWID
 40
1.0
  9
$TEXTSTYLE
  7
STYLE1
  9
$CLAYER
  8
部品1
  9
$CELTYPE
  6
BYLAYER
  9
$CECOLOR
 62
   256
  9
$CELTSCALE
 40
50.0
  9
$DISPSILH
 70
     0
  9
$DIMSCALE
 40
40.0
  9
$DIMASZ
 40
2.5
  9
$DIMEXO
 40
0.5
  9
$DIMDLI
 40
7.0
  9
$DIMRND
 40
0.0
  9
$DIMDLE
 40
0.0
  9
$DIMEXE
 40
1.5
  9
$DIMTP
 40
0.0
  9
$DIMTM
 40
0.0
  9
$DIMTXT
 40
3.0
  9
$DIMCEN
 40
0.0
  9
$DIMTSZ
 40
0.0
  9
$DIMTOL
 70
     0
  9
$DIMLIM
 70
     0
  9
$DIMTIH
 70
     0
  9
$DIMTOH
 70
     0
  9
$DIMSE1
 70
     0
  9
$DIMSE2
 70
     0
  9
$DIMTAD
 70
     3
  9
$DIMZIN
 70
     8
  9
$DIMBLK
  1

  9
$DIMASO
 70
     1
  9
$DIMSHO
 70
     1
  9
$DIMPOST
  1

  9
$DIMAPOST
  1

  9
$DIMALT
 70
     0
  9
$DIMALTD
 70
     2
  9
$DIMALTF
 40
0.0394
  9
$DIMLFAC
 40
1.0
  9
$DIMTOFL
 70
     1
  9
$DIMTVP
 40
0.0
  9
$DIMTIX
 70
     1
  9
$DIMSOXD
 70
     0
  9
$DIMSAH
 70
     1
  9
$DIMBLK1
  1
DOTSMALL
  9
$DIMBLK2
  1
DOTSMALL
  9
$DIMSTYLE
  2
INABA_S40G
  9
$DIMCLRD
 70
     0
  9
$DIMCLRE
 70
     0
  9
$DIMCLRT
 70
     7
  9
$DIMTFAC
 40
1.0
  9
$DIMGAP
 40
1.0
  9
$DIMJUST
 70
     0
  9
$DIMSD1
 70
     0
  9
$DIMSD2
 70
     0
  9
$DIMTOLJ
 70
     1
  9
$DIMTZIN
 70
     0
  9
$DIMALTZ
 70
     0
  9
$DIMALTTZ
 70
     0
  9
$DIMUPT
 70
     0
  9
$DIMDEC
 70
     1
  9
$DIMTDEC
 70
     4
  9
$DIMALTU
 70
     2
  9
$DIMALTTD
 70
     2
  9
$DIMTXSTY
  7
STYLE1
  9
$DIMAUNIT
 70
     0
  9
$DIMADEC
 70
     0
  9
$DIMALTRND
 40
0.0
  9
$DIMAZIN
 70
     0
  9
$DIMDSEP
 70
    46
  9
$DIMATFIT
 70
     3
  9
$DIMFRAC
 70
     0
  9
$DIMLDRBLK
  1

  9
$DIMLUNIT
 70
     2
  9
$DIMLWD
 70
    -2
  9
$DIMLWE
 70
    -2
  9
$DIMTMOVE
 70
     0
  9
$LUNITS
 70
     2
  9
$LUPREC
 70
     1
  9
$SKETCHINC
 40
1.0
  9
$FILLETRAD
 40
3.0
  9
$AUNITS
 70
     0
  9
$AUPREC
 70
     0
  9
$MENU
  1
acad
  9
$ELEVATION
 40
0.0
  9
$PELEVATION
 40
0.0
  9
$THICKNESS
 40
0.0
  9
$LIMCHECK
 70
     0
  9
$CHAMFERA
 40
0.0
  9
$CHAMFERB
 40
0.0
  9
$CHAMFERC
 40
0.0
  9
$CHAMFERD
 40
0.0
  9
$SKPOLY
 70
     0
  9
$TDCREATE
 40
2451368.612993866
  9
$TDUCREATE
 40
2451368.237993866
  9
$TDUPDATE
 40
2455575.682894595
  9
$TDUUPDATE
 40
2455575.307894595
  9
$TDINDWG
 40
0.4505554282
  9
$TDUSRTIMER
 40
0.4505554282
  9
$USRTIMER
 70
     1
  9
$ANGBASE
 50
0.0
  9
$ANGDIR
 70
     0
  9
$PDMODE
 70
     3
  9
$PDSIZE
 40
2.0
  9
$PLINEWID
 40
0.0
  9
$SPLFRAME
 70
     0
  9
$SPLINETYPE
 70
     6
  9
$SPLINESEGS
 70
     8
  9
$HANDSEED
  5
18809
  9
$SURFTAB1
 70
     6
  9
$SURFTAB2
 70
     6
  9
$SURFTYPE
 70
     6
  9
$SURFU
 70
     6
  9
$SURFV
 70
     6
  9
$UCSBASE
  2

  9
$UCSNAME
  2

  9
$UCSORG
 10
0.0
 20
0.0
 30
0.0
  9
$UCSXDIR
 10
1.0
 20
0.0
 30
0.0
  9
$UCSYDIR
 10
0.0
 20
1.0
 30
0.0
  9
$UCSORTHOREF
  2

  9
$UCSORTHOVIEW
 70
     0
  9
$UCSORGTOP
 10
0.0
 20
0.0
 30
0.0
  9
$UCSORGBOTTOM
 10
0.0
 20
0.0
 30
0.0
  9
$UCSORGLEFT
 10
0.0
 20
0.0
 30
0.0
  9
$UCSORGRIGHT
 10
0.0
 20
0.0
 30
0.0
  9
$UCSORGFRONT
 10
0.0
 20
0.0
 30
0.0
  9
$UCSORGBACK
 10
0.0
 20
0.0
 30
0.0
  9
$PUCSBASE
  2

  9
$PUCSNAME
  2

  9
$PUCSORG
 10
0.0
 20
0.0
 30
0.0
  9
$PUCSXDIR
 10
1.0
 20
0.0
 30
0.0
  9
$PUCSYDIR
 10
0.0
 20
1.0
 30
0.0
  9
$PUCSORTHOREF
  2

  9
$PUCSORTHOVIEW
 70
     0
  9
$PUCSORGTOP
 10
0.0
 20
0.0
 30
0.0
  9
$PUCSORGBOTTOM
 10
0.0
 20
0.0
 30
0.0
  9
$PUCSORGLEFT
 10
0.0
 20
0.0
 30
0.0
  9
$PUCSORGRIGHT
 10
0.0
 20
0.0
 30
0.0
  9
$PUCSORGFRONT
 10
0.0
 20
0.0
 30
0.0
  9
$PUCSORGBACK
 10
0.0
 20
0.0
 30
0.0
  9
$USERI1
 70
     0
  9
$USERI2
 70
     0
  9
$USERI3
 70
     0
  9
$USERI4
 70
     0
  9
$USERI5
 70
     0
  9
$USERR1
 40
0.0
  9
$USERR2
 40
0.0
  9
$USERR3
 40
0.0
  9
$USERR4
 40
0.0
  9
$USERR5
 40
0.0
  9
$WORLDVIEW
 70
     1
  9
$SHADEDGE
 70
     3
  9
$SHADEDIF
 70
    70
  9
$TILEMODE
 70
     1
  9
$MAXACTVP
 70
    16
  9
$PINSBASE
 10
0.0
 20
0.0
 30
0.0
  9
$PLIMCHECK
 70
     0
  9
$PEXTMIN
 10
1.000000000000000E+20
 20
1.000000000000000E+20
 30
1.000000000000000E+20
  9
$PEXTMAX
 10
-1.000000000000000E+20
 20
-1.000000000000000E+20
 30
-1.000000000000000E+20
  9
$PLIMMIN
 10
0.0
 20
0.0
  9
$PLIMMAX
 10
420.0
 20
297.0
  9
$UNITMODE
 70
     0
  9
$VISRETAIN
 70
     0
  9
$PLINEGEN
 70
     0
  9
$PSLTSCALE
 70
     0
  9
$TREEDEPTH
 70
  3020
  9
$CMLSTYLE
  2
STANDARD
  9
$CMLJUST
 70
     0
  9
$CMLSCALE
 40
1.0
  9
$PROXYGRAPHICS
 70
     1
  9
$MEASUREMENT
 70
     1
  9
$CELWEIGHT
370
    -1
  9
$ENDCAPS
280
     0
  9
$JOINSTYLE
280
     0
  9
$LWDISPLAY
290
     0
  9
$INSUNITS
 70
     0
  9
$HYPERLINKBASE
  1

  9
$STYLESHEET
  1
inaba.ctb
  9
$XEDIT
290
     1
  9
$CEPSNTYPE
380
     0
  9
$PSTYLEMODE
290
     1
  9
$FINGERPRINTGUID
  2
{E6597006-D051-4DD1-A1D8-B920AADA3C51}
  9
$VERSIONGUID
  2
{F4DCC77E-228A-4C7E-95A5-0589AFC89B2A}
  9
$EXTNAMES
290
     1
  9
$PSVPSCALE
 40
0.0
  9
$OLESTARTUP
290
     0
  0
ENDSEC
  0
SECTION
  2
CLASSES
  0
CLASS
  1
ACDBDICTIONARYWDFLT
  2
AcDbDictionaryWithDefault
  3
ObjectDBX Classes
 90
        0
280
     0
281
     0
  0
CLASS
  1
DICTIONARYVAR
  2
AcDbDictionaryVar
  3
ObjectDBX Classes
 90
        0
280
     0
281
     0
  0
CLASS
  1
ACDBPLACEHOLDER
  2
AcDbPlaceHolder
  3
ObjectDBX Classes
 90
        0
280
     0
281
     0
  0
CLASS
  1
LAYOUT
  2
AcDbLayout
  3
ObjectDBX Classes
 90
        0
280
     0
281
     0
  0
ENDSEC
  0
SECTION
  2
TABLES
  0
TABLE
  2
VPORT
  5
746D
330
0
100
AcDbSymbolTable
 70
     2
  0
VPORT
  5
18801
330
746D
100
AcDbSymbolTableRecord
100
AcDbViewportTableRecord
  2
*Active
 70
     0
 10
0.0
 20
0.0
 11
1.0
 21
1.0
 12
8223.761025238504
 22
5704.608037261908
 13
0.0
 23
0.0
 14
10.0
 24
10.0
 15
10.0
 25
10.0
 16
0.0
 26
0.0
 36
1.0
 17
0.0
 27
0.0
 37
0.0
 40
11495.08541324274
 41
1.525925925925925
 42
50.0
 43
0.0
 44
0.0
 50
0.0
 51
0.0
 71
     0
 72
     0
 73
     1
 74
     0
 75
     0
 76
     0
 77
     0
 78
     0
281
     0
 65
     1
110
0.0
120
0.0
130
0.0
111
1.0
121
0.0
131
0.0
112
0.0
122
1.0
132
0.0
 79
     0
146
0.0
  0
ENDTAB
  0
TABLE
  2
LTYPE
  5
746A
330
0
100
AcDbSymbolTable
 70
     4
  0
LTYPE
  5
7477
330
746A
100
AcDbSymbolTableRecord
100
AcDbLinetypeTableRecord
  2
BYBLOCK
 70
     0
  3

 72
    65
 73
     0
 40
0.0
  0
LTYPE
  5
7478
330
746A
100
AcDbSymbolTableRecord
100
AcDbLinetypeTableRecord
  2
BYLAYER
 70
     0
  3

 72
    65
 73
     0
 40
0.0
  0
LTYPE
  5
7479
330
746A
100
AcDbSymbolTableRecord
100
AcDbLinetypeTableRecord
  2
CONTINUOUS
 70
     0
  3
Solid line
 72
    65
 73
     0
 40
0.0
  0
LTYPE
  5
7816
330
746A
100
AcDbSymbolTableRecord
100
AcDbLinetypeTableRecord
  2
CENTER
 70
     0
  3
____ _ ____ _ ____ _ ____ _ ____ _ ____ _ ____ 
 72
    65
 73
     4
 40
2.0
 49
1.25
 74
     0
 49
-0.25
 74
     0
 49
0.25
 74
     0
 49
-0.25
 74
     0
  0
LTYPE
  5
781A
330
746A
100
AcDbSymbolTableRecord
100
AcDbLinetypeTableRecord
  2
HIDDEN
 70
     0
  3
__ __ __ __ __ __ __ __ __ __ __ __ __ __ __ __
 72
    65
 73
     2
 40
0.375
 49
0.25
 74
     0
 49
-0.125
 74
     0
  0
LTYPE
  5
781B
330
746A
100
AcDbSymbolTableRecord
100
AcDbLinetypeTableRecord
  2
PHANTOM
 70
     0
  3
______  __  __  ______  __  __  ______  __  __ 
 72
    65
 73
     6
 40
2.5
 49
1.25
 74
     0
 49
-0.25
 74
     0
 49
0.25
 74
     0
 49
-0.25
 74
     0
 49
0.25
 74
     0
 49
-0.25
 74
     0
  0
ENDTAB
  0
TABLE
  2
LAYER
  5
7467
102
{ACAD_XDICTIONARY
360
16F65
102
}
330
0
100
AcDbSymbolTable
 70
    12
  0
LAYER
  5
7474
330
7467
100
AcDbSymbolTableRecord
100
AcDbLayerTableRecord
  2
0
 70
     0
 62
     7
  6
CONTINUOUS
370
    -3
390
16DDD
  0
LAYER
  5
DEB2
330
7467
100
AcDbSymbolTableRecord
100
AcDbLayerTableRecord
  2
センター
 70
     0
 62
     3
  6
CENTER
370
    -3
390
16DDD
  0
LAYER
  5
DEB3
330
7467
100
AcDbSymbolTableRecord
100
AcDbLayerTableRecord
  2
寸法
 70
     0
 62
     4
  6
CONTINUOUS
370
    -3
390
16DDD
  0
LAYER
  5
DEB4
330
7467
100
AcDbSymbolTableRecord
100
AcDbLayerTableRecord
  2
部品1
 70
     0
 62
     7
  6
CONTINUOUS
370
    -3
390
16DDD
  0
LAYER
  5
DEB5
330
7467
100
AcDbSymbolTableRecord
100
AcDbLayerTableRecord
  2
補助
 70
     0
 62
    -1
  6
CONTINUOUS
370
    -3
390
16DDD
  0
LAYER
  5
DEB6
330
7467
100
AcDbSymbolTableRecord
100
AcDbLayerTableRecord
  2
文字
 70
     0
 62
     7
  6
CONTINUOUS
370
    -3
390
16DDD
  0
LAYER
  5
F255
330
7467
100
AcDbSymbolTableRecord
100
AcDbLayerTableRecord
  2
DEFPOINTS
 70
     0
 62
     7
  6
CONTINUOUS
290
     0
370
    -3
390
16DDD
  0
LAYER
  5
10B54
330
7467
100
AcDbSymbolTableRecord
100
AcDbLayerTableRecord
  2
仕様書枠
 70
     0
 62
   230
  6
CONTINUOUS
370
    -3
390
16DDD
  0
LAYER
  5
11729
330
7467
100
AcDbSymbolTableRecord
100
AcDbLayerTableRecord
  2
Ｇ．Ｌ
 70
     0
 62
    30
  6
CONTINUOUS
370
    -3
390
16DDD
  0
LAYER
  5
1173F
330
7467
100
AcDbSymbolTableRecord
100
AcDbLayerTableRecord
  2
細線
 70
     0
 62
     5
  6
CONTINUOUS
370
    -3
390
16DDD
  0
LAYER
  5
12CC4
330
7467
100
AcDbSymbolTableRecord
100
AcDbLayerTableRecord
  2
想像線
 70
     0
 62
     6
  6
PHANTOM
370
    -3
390
16DDD
  0
LAYER
  5
142E2
330
7467
100
AcDbSymbolTableRecord
100
AcDbLayerTableRecord
  2
破線
 70
     0
 62
     2
  6
HIDDEN
370
    -3
390
16DDD
  0
ENDTAB
  0
TABLE
  2
STYLE
  5
7468
330
0
100
AcDbSymbolTable
 70
     4
  0
STYLE
  5
7475
330
7468
100
AcDbSymbolTableRecord
100
AcDbTextStyleTableRecord
  2
STANDARD
 70
     0
 40
0.0
 41
1.0
 50
0.0
 71
     0
 42
4.0
  3
txt
  4
C:\AutoCAD LT\bigfont.shx
  0
STYLE
  5
F706
330
7468
100
AcDbSymbolTableRecord
100
AcDbTextStyleTableRecord
  2
STYLE1
 70
     0
 40
0.0
 41
1.0
 50
0.0
 71
     0
 42
4.0
  3
isocp.shx
  4
bigfont.shx
  0
STYLE
  5
103BF
330
7468
100
AcDbSymbolTableRecord
100
AcDbTextStyleTableRecord
  2
STYLE2
 70
     0
 40
0.0
 41
1.0
 50
0.0
 71
     0
 42
100.0
  3
MS PGothic.ttf
  4

1001
ACAD
1000
MS PGothic
1071
    32818
  0
STYLE
  5
180F1
330
7468
100
AcDbSymbolTableRecord
100
AcDbTextStyleTableRecord
  2
STYLE3
 70
     0
 40
0.0
 41
1.0
 50
0.0
 71
     0
 42
100.0
  3
DFPGothic-EB.ttf
  4

1001
ACAD
1000
DFPGothic-EB
1071
    32818
  0
ENDTAB
  0
TABLE
  2
VIEW
  5
746B
330
0
100
AcDbSymbolTable
 70
     0
  0
ENDTAB
  0
TABLE
  2
UCS
  5
746C
330
0
100
AcDbSymbolTable
 70
     0
  0
ENDTAB
  0
TABLE
  2
APPID
  5
746E
330
0
100
AcDbSymbolTable
 70
     6
  0
APPID
  5
7476
330
746E
100
AcDbSymbolTableRecord
100
AcDbRegAppTableRecord
  2
ACAD
 70
     0
  0
APPID
  5
DEA9
330
746E
100
AcDbSymbolTableRecord
100
AcDbRegAppTableRecord
  2
CONTENTBLOCKICON
 70
     0
  0
APPID
  5
DEAA
330
746E
100
AcDbSymbolTableRecord
100
AcDbRegAppTableRecord
  2
CONTENTBLOCKDESCRIPTION
 70
     0
  0
APPID
  5
E71D
330
746E
100
AcDbSymbolTableRecord
100
AcDbRegAppTableRecord
  2
CONTENTTABDATA
 70
     0
  0
APPID
  5
E71E
330
746E
100
AcDbSymbolTableRecord
100
AcDbRegAppTableRecord
  2
CONTENTCURRENTTAB
 70
     0
  0
APPID
  5
F3BA
330
746E
100
AcDbSymbolTableRecord
100
AcDbRegAppTableRecord
  2
DRAWINGVARIABLESXDATA
 70
     0
  0
ENDTAB
  0
TABLE
  2
DIMSTYLE
  5
746F
330
0
100
AcDbSymbolTable
 70
     5
100
AcDbDimStyleTable
 71
     0
  0
DIMSTYLE
105
7484
330
746F
100
AcDbSymbolTableRecord
100
AcDbDimStyleTableRecord
  2
JIS
 70
     0
 41
2.5
 42
1.0
 43
7.0
 44
1.0
 73
     0
 74
     0
 77
     1
 78
     8
140
2.5
141
0.0
143
0.0394
147
0.0
172
     1
174
     1
175
     1
340
7475
  0
DIMSTYLE
105
F71F
102
{ACAD_REACTORS
330
172A5
330
17322
330
17323
330
17324
330
1742A
330
1742E
330
1743B
330
1743C
330
1747B
330
1747C
330
1747D
330
17480
330
1748C
330
1748D
330
1748E
330
1748F
330
174E8
330
174E9
330
174F4
330
174F8
330
174F9
330
17530
330
17534
330
17535
330
17536
330
17537
330
17556
330
17557
330
18492
330
18593
102
}
330
746F
100
AcDbSymbolTableRecord
100
AcDbDimStyleTableRecord
  2
INABA_S40G
 70
     0
 40
40.0
 41
2.5
 42
0.5
 43
7.0
 44
1.5
 73
     0
 74
     0
 77
     3
 78
     8
140
3.0
141
0.0
143
0.0394
147
1.0
172
     1
173
     1
174
     1
178
     7
271
     1
340
F706
341
F770
343
F770
344
F770
  0
DIMSTYLE
105
17960
102
{ACAD_REACTORS
330
181FD
330
18493
102
}
330
746F
100
AcDbSymbolTableRecord
100
AcDbDimStyleTableRecord
  2
INABA_S40
 70
     0
 40
40.0
 41
2.5
 42
0.5
 43
7.0
 44
1.5
 73
     0
 74
     0
 77
     3
 78
     8
140
3.0
141
0.0
143
0.0394
147
1.0
172
     1
173
     1
174
     1
175
     1
178
     7
340
7475
  0
DIMSTYLE
105
180F2
330
746F
100
AcDbSymbolTableRecord
100
AcDbDimStyleTableRecord
  2
INABA_S50G
 70
     0
 41
125.0
 42
25.0
 43
7.0
 44
75.0
 73
     0
 74
     0
 77
     3
 78
     8
140
150.0
141
0.0
143
0.0394
147
25.0
172
     1
173
     1
174
     1
175
     1
178
     7
271
     1
340
F706
341
F770
343
F770
344
F770
  0
DIMSTYLE
105
18787
330
746F
100
AcDbSymbolTableRecord
100
AcDbDimStyleTableRecord
  2
INABA_S20G
 70
     0
 40
20.0
 41
2.5
 42
0.5
 43
7.0
 44
1.5
 73
     0
 74
     0
 77
     3
 78
     8
140
3.0
141
0.0
143
0.0394
147
1.0
172
     1
173
     1
174
     1
178
     7
271
     1
340
F706
341
F770
343
F770
344
F770
  0
ENDTAB
  0
TABLE
  2
BLOCK_RECORD
  5
7466
330
0
100
AcDbSymbolTable
 70
    34
  0
BLOCK_RECORD
  5
747D
330
7466
100
AcDbSymbolTableRecord
100
AcDbBlockTableRecord
  2
*MODEL_SPACE
340
16DE2
  0
BLOCK_RECORD
  5
747A
330
7466
100
AcDbSymbolTableRecord
100
AcDbBlockTableRecord
  2
*PAPER_SPACE
340
16DE3
  0
BLOCK_RECORD
  5
F770
330
7466
100
AcDbSymbolTableRecord
100
AcDbBlockTableRecord
  2
_DOTSMALL
340
0
102
{BLKREFS
331
17F9A
331
17F9B
331
17FA3
331
17FA4
331
18019
331
1801A
331
18023
331
18024
331
1802C
331
1802D
331
18035
331
18036
331
1803E
331
1803F
331
18047
331
18048
331
18052
331
18053
331
1805B
331
1805C
331
18065
331
18066
331
1806F
331
18070
331
18079
331
1807A
331
18081
331
18082
331
18093
331
18094
331
1809E
331
1809F
331
180A7
331
180A8
331
180B2
331
180B3
331
186F9
331
186FA
331
1870D
331
1870E
331
18721
331
18722
331
1872A
331
1872B
331
18735
331
18736
331
1873E
331
1873F
331
18747
331
18748
331
18750
331
18751
331
18759
331
1875A
331
18764
331
18765
331
1876D
331
1876E
331
18778
331
18779
102
}
  0
BLOCK_RECORD
  5
17575
330
7466
100
AcDbSymbolTableRecord
100
AcDbBlockTableRecord
  2
*D1
340
0
  0
BLOCK_RECORD
  5
17583
330
7466
100
AcDbSymbolTableRecord
100
AcDbBlockTableRecord
  2
*D2
340
0
  0
BLOCK_RECORD
  5
1758F
330
7466
100
AcDbSymbolTableRecord
100
AcDbBlockTableRecord
  2
*D3
340
0
  0
BLOCK_RECORD
  5
1759D
330
7466
100
AcDbSymbolTableRecord
100
AcDbBlockTableRecord
  2
*D4
340
0
  0
BLOCK_RECORD
  5
175B5
330
7466
100
AcDbSymbolTableRecord
100
AcDbBlockTableRecord
  2
*D5
340
0
  0
BLOCK_RECORD
  5
175C1
330
7466
100
AcDbSymbolTableRecord
100
AcDbBlockTableRecord
  2
*D6
340
0
  0
BLOCK_RECORD
  5
175CD
330
7466
100
AcDbSymbolTableRecord
100
AcDbBlockTableRecord
  2
*D7
340
0
  0
BLOCK_RECORD
  5
175DA
330
7466
100
AcDbSymbolTableRecord
100
AcDbBlockTableRecord
  2
*D8
340
0
  0
BLOCK_RECORD
  5
175E7
330
7466
100
AcDbSymbolTableRecord
100
AcDbBlockTableRecord
  2
*D9
340
0
  0
BLOCK_RECORD
  5
175F3
330
7466
100
AcDbSymbolTableRecord
100
AcDbBlockTableRecord
  2
*D10
340
0
  0
BLOCK_RECORD
  5
17601
330
7466
100
AcDbSymbolTableRecord
100
AcDbBlockTableRecord
  2
*D11
340
0
  0
BLOCK_RECORD
  5
1760D
330
7466
100
AcDbSymbolTableRecord
100
AcDbBlockTableRecord
  2
*D12
340
0
  0
BLOCK_RECORD
  5
17619
330
7466
100
AcDbSymbolTableRecord
100
AcDbBlockTableRecord
  2
*D13
340
0
  0
BLOCK_RECORD
  5
17625
330
7466
100
AcDbSymbolTableRecord
100
AcDbBlockTableRecord
  2
*D14
340
0
  0
BLOCK_RECORD
  5
17631
330
7466
100
AcDbSymbolTableRecord
100
AcDbBlockTableRecord
  2
*D15
340
0
  0
BLOCK_RECORD
  5
1763E
330
7466
100
AcDbSymbolTableRecord
100
AcDbBlockTableRecord
  2
*D16
340
0
  0
BLOCK_RECORD
  5
1764C
330
7466
100
AcDbSymbolTableRecord
100
AcDbBlockTableRecord
  2
*D17
340
0
  0
BLOCK_RECORD
  5
1765A
330
7466
100
AcDbSymbolTableRecord
100
AcDbBlockTableRecord
  2
*D18
340
0
  0
BLOCK_RECORD
  5
17666
330
7466
100
AcDbSymbolTableRecord
100
AcDbBlockTableRecord
  2
*D19
340
0
  0
BLOCK_RECORD
  5
17674
330
7466
100
AcDbSymbolTableRecord
100
AcDbBlockTableRecord
  2
*D20
340
0
  0
BLOCK_RECORD
  5
17680
330
7466
100
AcDbSymbolTableRecord
100
AcDbBlockTableRecord
  2
*D21
340
0
  0
BLOCK_RECORD
  5
1768C
330
7466
100
AcDbSymbolTableRecord
100
AcDbBlockTableRecord
  2
*D22
340
0
  0
BLOCK_RECORD
  5
176A4
330
7466
100
AcDbSymbolTableRecord
100
AcDbBlockTableRecord
  2
*D23
340
0
  0
BLOCK_RECORD
  5
176B0
330
7466
100
AcDbSymbolTableRecord
100
AcDbBlockTableRecord
  2
*D24
340
0
  0
BLOCK_RECORD
  5
176BE
330
7466
100
AcDbSymbolTableRecord
100
AcDbBlockTableRecord
  2
*D25
340
0
  0
BLOCK_RECORD
  5
176CA
330
7466
100
AcDbSymbolTableRecord
100
AcDbBlockTableRecord
  2
*D26
340
0
  0
BLOCK_RECORD
  5
176D8
330
7466
100
AcDbSymbolTableRecord
100
AcDbBlockTableRecord
  2
*D27
340
0
  0
BLOCK_RECORD
  5
176E4
330
7466
100
AcDbSymbolTableRecord
100
AcDbBlockTableRecord
  2
*D28
340
0
  0
BLOCK_RECORD
  5
17933
330
7466
100
AcDbSymbolTableRecord
100
AcDbBlockTableRecord
  2
_DOT
340
0
102
{BLKREFS
331
18704
331
18705
331
18716
331
18717
102
}
  0
BLOCK_RECORD
  5
18268
330
7466
100
AcDbSymbolTableRecord
100
AcDbBlockTableRecord
  2
*D30
340
0
  0
BLOCK_RECORD
  5
1859F
330
7466
100
AcDbSymbolTableRecord
100
AcDbBlockTableRecord
  2
*D31
340
0
  0
BLOCK_RECORD
  5
185AB
330
7466
100
AcDbSymbolTableRecord
100
AcDbBlockTableRecord
  2
*D32
340
0
  0
BLOCK_RECORD
  5
18611
330
7466
100
AcDbSymbolTableRecord
100
AcDbBlockTableRecord
  2
*D33
340
0
  0
ENDTAB
  0
ENDSEC
  0
SECTION
  2
BLOCKS
  0
BLOCK
  5
7489
330
747D
100
AcDbEntity
  8
0
100
AcDbBlockBegin
  2
*MODEL_SPACE
 70
     0
 10
0.0
 20
0.0
 30
0.0
  3
*MODEL_SPACE
  1

  0
ENDBLK
  5
748A
330
747D
100
AcDbEntity
  8
0
100
AcDbBlockEnd
  0
BLOCK
  5
7487
330
747A
100
AcDbEntity
 67
     1
  8
0
100
AcDbBlockBegin
  2
*PAPER_SPACE
 70
     0
 10
0.0
 20
0.0
 30
0.0
  3
*PAPER_SPACE
  1

  0
ENDBLK
  5
7488
330
747A
100
AcDbEntity
 67
     1
  8
0
100
AcDbBlockEnd
  0
BLOCK
  5
F771
330
F770
100
AcDbEntity
  8
0
 48
50.0
100
AcDbBlockBegin
  2
_DOTSMALL
 70
     0
 10
0.0
 20
0.0
 30
0.0
  3
_DOTSMALL
  1

  0
LWPOLYLINE
  5
F772
330
F770
100
AcDbEntity
  8
0
  6
ByBlock
 62
     0
 48
50.0
100
AcDbPolyline
 90
        2
 70
     1
 43
0.5
 10
-0.0625
 20
0.0
 42
1.0
 10
0.0625
 20
0.0
 42
1.0
  0
ENDBLK
  5
F776
330
F770
100
AcDbEntity
  8
0
 48
50.0
100
AcDbBlockEnd
  0
BLOCK
  5
17581
330
17575
100
AcDbEntity
  8
0
 48
50.0
100
AcDbBlockBegin
  2
*D1
 70
     1
 10
0.0
 20
0.0
 30
0.0
  3
*D1
  1

  0
LINE
  5
180AD
330
17575
100
AcDbEntity
  8
寸法
 62
     0
 48
50.0
370
    -2
100
AcDbLine
 10
11153.29845316948
 20
5308.51051205283
 30
0.0
 11
11153.29845316948
 21
5747.603681392301
 31
0.0
  0
LINE
  5
180AE
330
17575
100
AcDbEntity
  8
寸法
 62
     0
 48
50.0
370
    -2
100
AcDbLine
 10
11103.29845316948
 20
5308.510512052833
 30
0.0
 11
11103.29845316948
 21
5747.603681392301
 31
0.0
  0
LINE
  5
180AF
330
17575
100
AcDbEntity
  8
寸法
 62
     0
 48
50.0
370
    -2
100
AcDbLine
 10
11103.29845316948
 20
5687.6036813923
 30
0.0
 11
11003.29845316948
 21
5687.6036813923
 31
0.0
  0
LINE
  5
180B0
330
17575
100
AcDbEntity
  8
寸法
 62
     0
 48
50.0
370
    -2
100
AcDbLine
 10
11153.29845316948
 20
5687.6036813923
 30
0.0
 11
11572.8309786382
 21
5687.6036813923
 31
0.0
  0
LINE
  5
180B1
330
17575
100
AcDbEntity
  8
寸法
 62
     0
 48
50.0
370
    -2
100
AcDbLine
 10
11103.29845316948
 20
5687.6036813923
 30
0.0
 11
11153.29845316948
 21
5687.6036813923
 31
0.0
  0
INSERT
  5
180B2
330
17575
100
AcDbEntity
  8
寸法
 62
     0
 48
50.0
370
    -2
100
AcDbBlockReference
  2
_DOTSMALL
 10
11103.29845316948
 20
5687.6036813923
 30
0.0
 41
100.0
 42
100.0
 43
100.0
  0
INSERT
  5
180B3
330
17575
100
AcDbEntity
  8
寸法
 62
     0
 48
50.0
370
    -2
100
AcDbBlockReference
  2
_DOTSMALL
 10
11153.29845316948
 20
5687.6036813923
 30
0.0
 41
100.0
 42
100.0
 43
100.0
 50
180.0
  0
MTEXT
  5
180B4
330
17575
100
AcDbEntity
  8
寸法
 62
     7
 48
50.0
100
AcDbMText
 10
11466.78373454371
 20
5787.603681392301
 30
0.0
 40
120.0
 41
0.0
 71
     5
 72
     1
  1
\A1;50
  7
STYLE1
 73
     1
 44
1.0
1001
ACAD
1000
MTEXTBEGIN
1070
    73
1070
     1
1070
    44
1040
1.0
1070
    74
1070
     0
1000
MTEXTEND
  0
POINT
  5
180B5
330
17575
100
AcDbEntity
  8
DEFPOINTS
 62
     0
 48
50.0
100
AcDbPoint
 10
11153.29845316948
 20
5288.51051205283
 30
0.0
  0
POINT
  5
180B6
330
17575
100
AcDbEntity
  8
DEFPOINTS
 62
     0
 48
50.0
100
AcDbPoint
 10
11103.29845316948
 20
5288.510512052834
 30
0.0
  0
POINT
  5
180B7
330
17575
100
AcDbEntity
  8
DEFPOINTS
 62
     0
 48
50.0
100
AcDbPoint
 10
11103.29845316948
 20
5687.6036813923
 30
0.0
  0
ENDBLK
  5
17582
330
17575
100
AcDbEntity
  8
0
 48
50.0
100
AcDbBlockEnd
  0
BLOCK
  5
1758D
330
17583
100
AcDbEntity
  8
0
 48
50.0
100
AcDbBlockBegin
  2
*D2
 70
     1
 10
0.0
 20
0.0
 30
0.0
  3
*D2
  1

  0
LINE
  5
180A4
330
17583
100
AcDbEntity
  8
寸法
 62
     0
 48
50.0
370
    -2
100
AcDbLine
 10
8423.298453169483
 20
5308.510512052833
 30
0.0
 11
8423.298453169483
 21
5964.129781010746
 31
0.0
  0
LINE
  5
180A5
330
17583
100
AcDbEntity
  8
寸法
 62
     0
 48
50.0
370
    -2
100
AcDbLine
 10
11153.29845316948
 20
5308.51051205283
 30
0.0
 11
11153.29845316948
 21
5964.129781010746
 31
0.0
  0
LINE
  5
180A6
330
17583
100
AcDbEntity
  8
寸法
 62
     0
 48
50.0
370
    -2
100
AcDbLine
 10
8423.298453169483
 20
5904.129781010746
 30
0.0
 11
11153.29845316948
 21
5904.129781010746
 31
0.0
  0
INSERT
  5
180A7
330
17583
100
AcDbEntity
  8
寸法
 62
     0
 48
50.0
370
    -2
100
AcDbBlockReference
  2
_DOTSMALL
 10
8423.298453169483
 20
5904.129781010746
 30
0.0
 41
100.0
 42
100.0
 43
100.0
 50
180.0
  0
INSERT
  5
180A8
330
17583
100
AcDbEntity
  8
寸法
 62
     0
 48
50.0
370
    -2
100
AcDbBlockReference
  2
_DOTSMALL
 10
11153.29845316948
 20
5904.129781010746
 30
0.0
 41
100.0
 42
100.0
 43
100.0
  0
MTEXT
  5
180A9
330
17583
100
AcDbEntity
  8
寸法
 62
     7
 48
50.0
100
AcDbMText
 10
9788.298453169481
 20
6004.141592034368
 30
0.0
 40
120.0
 41
0.0
 71
     5
 72
     1
  1
\A1;2730
  7
STYLE1
 73
     1
 44
1.0
1001
ACAD
1000
MTEXTBEGIN
1070
    73
1070
     1
1070
    44
1040
1.0
1070
    74
1070
     0
1000
MTEXTEND
  0
POINT
  5
180AA
330
17583
100
AcDbEntity
  8
DEFPOINTS
 62
     0
 48
50.0
100
AcDbPoint
 10
8423.298453169483
 20
5288.510512052834
 30
0.0
  0
POINT
  5
180AB
330
17583
100
AcDbEntity
  8
DEFPOINTS
 62
     0
 48
50.0
100
AcDbPoint
 10
11153.29845316948
 20
5288.51051205283
 30
0.0
  0
POINT
  5
180AC
330
17583
100
AcDbEntity
  8
DEFPOINTS
 62
     0
 48
50.0
100
AcDbPoint
 10
11153.29845316948
 20
5904.129781010746
 30
0.0
  0
ENDBLK
  5
1758E
330
17583
100
AcDbEntity
  8
0
 48
50.0
100
AcDbBlockEnd
  0
BLOCK
  5
1759B
330
1758F
100
AcDbEntity
  8
0
 48
50.0
100
AcDbBlockBegin
  2
*D3
 70
     1
 10
0.0
 20
0.0
 30
0.0
  3
*D3
  1

  0
LINE
  5
18099
330
1758F
100
AcDbEntity
  8
寸法
 62
     0
 48
50.0
370
    -2
100
AcDbLine
 10
8473.298453169482
 20
5308.510512052833
 30
0.0
 11
8473.298453169482
 21
5747.603681392301
 31
0.0
  0
LINE
  5
1809A
330
1758F
100
AcDbEntity
  8
寸法
 62
     0
 48
50.0
370
    -2
100
AcDbLine
 10
8423.298453169483
 20
5308.510512052833
 30
0.0
 11
8423.298453169483
 21
5747.603681392301
 31
0.0
  0
LINE
  5
1809B
330
1758F
100
AcDbEntity
  8
寸法
 62
     0
 48
50.0
370
    -2
100
AcDbLine
 10
8473.298453169482
 20
5687.6036813923
 30
0.0
 11
8573.298453169483
 21
5687.6036813923
 31
0.0
  0
LINE
  5
1809C
330
1758F
100
AcDbEntity
  8
寸法
 62
     0
 48
50.0
370
    -2
100
AcDbLine
 10
8423.298453169483
 20
5687.6036813923
 30
0.0
 11
8003.765927700747
 21
5687.6036813923
 31
0.0
  0
LINE
  5
1809D
330
1758F
100
AcDbEntity
  8
寸法
 62
     0
 48
50.0
370
    -2
100
AcDbLine
 10
8473.298453169482
 20
5687.6036813923
 30
0.0
 11
8423.298453169483
 21
5687.6036813923
 31
0.0
  0
INSERT
  5
1809E
330
1758F
100
AcDbEntity
  8
寸法
 62
     0
 48
50.0
370
    -2
100
AcDbBlockReference
  2
_DOTSMALL
 10
8473.298453169482
 20
5687.6036813923
 30
0.0
 41
100.0
 42
100.0
 43
100.0
 50
180.0
  0
INSERT
  5
1809F
330
1758F
100
AcDbEntity
  8
寸法
 62
     0
 48
50.0
370
    -2
100
AcDbBlockReference
  2
_DOTSMALL
 10
8423.298453169483
 20
5687.6036813923
 30
0.0
 41
100.0
 42
100.0
 43
100.0
  0
MTEXT
  5
180A0
330
1758F
100
AcDbEntity
  8
寸法
 62
     7
 48
50.0
100
AcDbMText
 10
8109.813171795234
 20
5787.603681392301
 30
0.0
 40
120.0
 41
0.0
 71
     5
 72
     1
  1
\A1;50
  7
STYLE1
 73
     1
 44
1.0
1001
ACAD
1000
MTEXTBEGIN
1070
    73
1070
     1
1070
    44
1040
1.0
1070
    74
1070
     0
1000
MTEXTEND
  0
POINT
  5
180A1
330
1758F
100
AcDbEntity
  8
DEFPOINTS
 62
     0
 48
50.0
100
AcDbPoint
 10
8473.298453169482
 20
5288.510512052834
 30
0.0
  0
POINT
  5
180A2
330
1758F
100
AcDbEntity
  8
DEFPOINTS
 62
     0
 48
50.0
100
AcDbPoint
 10
8423.298453169483
 20
5288.510512052834
 30
0.0
  0
POINT
  5
180A3
330
1758F
100
AcDbEntity
  8
DEFPOINTS
 62
     0
 48
50.0
100
AcDbPoint
 10
8423.298453169483
 20
5687.6036813923
 30
0.0
  0
ENDBLK
  5
1759C
330
1758F
100
AcDbEntity
  8
0
 48
50.0
100
AcDbBlockEnd
  0
BLOCK
  5
175A7
330
1759D
100
AcDbEntity
  8
0
 48
50.0
100
AcDbBlockBegin
  2
*D4
 70
     1
 10
0.0
 20
0.0
 30
0.0
  3
*D4
  1

  0
LINE
  5
18090
330
1759D
100
AcDbEntity
  8
寸法
 62
     0
 48
50.0
370
    -2
100
AcDbLine
 10
11103.29845316948
 20
5308.510512052833
 30
0.0
 11
11103.29845316948
 21
5747.6036813923
 31
0.0
  0
LINE
  5
18091
330
1759D
100
AcDbEntity
  8
寸法
 62
     0
 48
50.0
370
    -2
100
AcDbLine
 10
8473.298453169482
 20
5308.510512052833
 30
0.0
 11
8473.298453169482
 21
5747.6036813923
 31
0.0
  0
LINE
  5
18092
330
1759D
100
AcDbEntity
  8
寸法
 62
     0
 48
50.0
370
    -2
100
AcDbLine
 10
11103.29845316948
 20
5687.6036813923
 30
0.0
 11
8473.298453169482
 21
5687.6036813923
 31
0.0
  0
INSERT
  5
18093
330
1759D
100
AcDbEntity
  8
寸法
 62
     0
 48
50.0
370
    -2
100
AcDbBlockReference
  2
_DOTSMALL
 10
11103.29845316948
 20
5687.6036813923
 30
0.0
 41
100.0
 42
100.0
 43
100.0
  0
INSERT
  5
18094
330
1759D
100
AcDbEntity
  8
寸法
 62
     0
 48
50.0
370
    -2
100
AcDbBlockReference
  2
_DOTSMALL
 10
8473.298453169482
 20
5687.6036813923
 30
0.0
 41
100.0
 42
100.0
 43
100.0
 50
180.0
  0
MTEXT
  5
18095
330
1759D
100
AcDbEntity
  8
寸法
 62
     7
 48
50.0
100
AcDbMText
 10
9788.298453169481
 20
5787.615492415921
 30
0.0
 40
120.0
 41
0.0
 71
     5
 72
     1
  1
\A1;柱外寸法2630
  7
STYLE1
 73
     1
 44
1.0
1001
ACAD
1000
MTEXTBEGIN
1070
    73
1070
     1
1070
    44
1040
1.0
1070
    74
1070
     0
1000
MTEXTEND
  0
POINT
  5
18096
330
1759D
100
AcDbEntity
  8
DEFPOINTS
 62
     0
 48
50.0
100
AcDbPoint
 10
11103.29845316948
 20
5288.510512052834
 30
0.0
  0
POINT
  5
18097
330
1759D
100
AcDbEntity
  8
DEFPOINTS
 62
     0
 48
50.0
100
AcDbPoint
 10
8473.298453169482
 20
5288.510512052834
 30
0.0
  0
POINT
  5
18098
330
1759D
100
AcDbEntity
  8
DEFPOINTS
 62
     0
 48
50.0
100
AcDbPoint
 10
8473.298453169482
 20
5687.6036813923
 30
0.0
  0
ENDBLK
  5
175A8
330
1759D
100
AcDbEntity
  8
0
 48
50.0
100
AcDbBlockEnd
  0
BLOCK
  5
175BF
330
175B5
100
AcDbEntity
  8
0
 48
50.0
100
AcDbBlockBegin
  2
*D5
 70
     1
 10
0.0
 20
0.0
 30
0.0
  3
*D5
  1

  0
LINE
  5
1807E
330
175B5
100
AcDbEntity
  8
寸法
 62
     0
 48
50.0
370
    -2
100
AcDbLine
 10
5372.275823071679
 20
2593.510512052826
 30
0.0
 11
5372.275823071679
 21
2267.46318275245
 31
0.0
  0
LINE
  5
1807F
330
175B5
100
AcDbEntity
  8
寸法
 62
     0
 48
50.0
370
    -2
100
AcDbLine
 10
5172.275823071682
 20
2593.510512052827
 30
0.0
 11
5172.275823071682
 21
2267.46318275245
 31
0.0
  0
LINE
  5
18080
330
175B5
100
AcDbEntity
  8
寸法
 62
     0
 48
50.0
370
    -2
100
AcDbLine
 10
5372.275823071679
 20
2327.463182752449
 30
0.0
 11
5172.275823071682
 21
2327.463182752449
 31
0.0
  0
INSERT
  5
18081
330
175B5
100
AcDbEntity
  8
寸法
 62
     0
 48
50.0
370
    -2
100
AcDbBlockReference
  2
_DOTSMALL
 10
5372.275823071679
 20
2327.463182752449
 30
0.0
 41
100.0
 42
100.0
 43
100.0
  0
INSERT
  5
18082
330
175B5
100
AcDbEntity
  8
寸法
 62
     0
 48
50.0
370
    -2
100
AcDbBlockReference
  2
_DOTSMALL
 10
5172.275823071682
 20
2327.463182752449
 30
0.0
 41
100.0
 42
100.0
 43
100.0
 50
180.0
  0
MTEXT
  5
18083
330
175B5
100
AcDbEntity
  8
寸法
 62
     7
 48
50.0
100
AcDbMText
 10
5272.27582307168
 20
2427.474993776072
 30
0.0
 40
120.0
 41
0.0
 71
     5
 72
     1
  1
\A1;200
  7
STYLE1
 73
     1
 44
1.0
1001
ACAD
1000
MTEXTBEGIN
1070
    73
1070
     1
1070
    44
1040
1.0
1070
    74
1070
     0
1000
MTEXTEND
  0
POINT
  5
18084
330
175B5
100
AcDbEntity
  8
DEFPOINTS
 62
     0
 48
50.0
100
AcDbPoint
 10
5372.275823071679
 20
2613.510512052826
 30
0.0
  0
POINT
  5
18085
330
175B5
100
AcDbEntity
  8
DEFPOINTS
 62
     0
 48
50.0
100
AcDbPoint
 10
5172.275823071682
 20
2613.510512052827
 30
0.0
  0
POINT
  5
18086
330
175B5
100
AcDbEntity
  8
DEFPOINTS
 62
     0
 48
50.0
100
AcDbPoint
 10
5172.275823071682
 20
2327.463182752449
 30
0.0
  0
ENDBLK
  5
175C0
330
175B5
100
AcDbEntity
  8
0
 48
50.0
100
AcDbBlockEnd
  0
BLOCK
  5
175CB
330
175C1
100
AcDbEntity
  8
0
 48
50.0
100
AcDbBlockBegin
  2
*D6
 70
     1
 10
0.0
 20
0.0
 30
0.0
  3
*D6
  1

  0
LINE
  5
18075
330
175C1
100
AcDbEntity
  8
寸法
 62
     0
 48
50.0
370
    -2
100
AcDbLine
 10
5152.275823071683
 20
2613.510512052827
 30
0.0
 11
4962.775819825047
 21
2613.510512052827
 31
0.0
  0
LINE
  5
18076
330
175C1
100
AcDbEntity
  8
寸法
 62
     0
 48
50.0
370
    -2
100
AcDbLine
 10
5127.275823071682
 20
2813.510512052828
 30
0.0
 11
4962.775819825047
 21
2813.510512052828
 31
0.0
  0
LINE
  5
18077
330
175C1
100
AcDbEntity
  8
寸法
 62
     0
 48
50.0
370
    -2
100
AcDbLine
 10
5022.775819825047
 20
2613.510512052827
 30
0.0
 11
5022.775819825047
 21
2813.510512052828
 31
0.0
  0
MTEXT
  5
18078
330
175C1
100
AcDbEntity
  8
寸法
 62
     7
 48
50.0
100
AcDbMText
 10
4892.976090674874
 20
2688.718966856618
 30
0.0
 40
120.0
 41
0.0
 71
     5
 72
     1
  1
\A1;200
  7
STYLE1
 11
0.0000000000000001
 21
1.0
 31
0.0
 73
     1
 44
1.0
1001
ACAD
1000
MTEXTBEGIN
1070
    73
1070
     1
1070
    44
1040
1.0
1070
    74
1070
     0
1000
MTEXTEND
  0
INSERT
  5
18079
330
175C1
100
AcDbEntity
  8
寸法
 62
     0
 48
50.0
370
    -2
100
AcDbBlockReference
  2
_DOTSMALL
 10
5022.775819825047
 20
2613.510512052827
 30
0.0
 41
100.0
 42
100.0
 43
100.0
 50
270.0
  0
INSERT
  5
1807A
330
175C1
100
AcDbEntity
  8
寸法
 62
     0
 48
50.0
370
    -2
100
AcDbBlockReference
  2
_DOTSMALL
 10
5022.775819825047
 20
2813.510512052828
 30
0.0
 41
100.0
 42
100.0
 43
100.0
 50
90.0
  0
POINT
  5
1807B
330
175C1
100
AcDbEntity
  8
DEFPOINTS
 62
     0
 48
50.0
100
AcDbPoint
 10
5172.275823071682
 20
2613.510512052827
 30
0.0
  0
POINT
  5
1807C
330
175C1
100
AcDbEntity
  8
DEFPOINTS
 62
     0
 48
50.0
100
AcDbPoint
 10
5147.275823071683
 20
2813.510512052828
 30
0.0
  0
POINT
  5
1807D
330
175C1
100
AcDbEntity
  8
DEFPOINTS
 62
     0
 48
50.0
100
AcDbPoint
 10
5022.775819825047
 20
2813.510512052828
 30
0.0
  0
ENDBLK
  5
175CC
330
175C1
100
AcDbEntity
  8
0
 48
50.0
100
AcDbBlockEnd
  0
BLOCK
  5
175D8
330
175CD
100
AcDbEntity
  8
0
 48
50.0
100
AcDbBlockBegin
  2
*D7
 70
     1
 10
0.0
 20
0.0
 30
0.0
  3
*D7
  1

  0
LINE
  5
1806B
330
175CD
100
AcDbEntity
  8
寸法
 62
     0
 48
50.0
370
    -2
100
AcDbLine
 10
5180.132627759184
 20
5147.046123526305
 30
0.0
 11
4527.232457465165
 21
5171.697154766284
 31
0.0
  0
LINE
  5
1806C
330
175CD
100
AcDbEntity
  8
寸法
 62
     0
 48
50.0
370
    -2
100
AcDbLine
 10
5185.452461911137
 20
5287.945730923189
 30
0.0
 11
4532.552291616958
 21
5312.596762163173
 31
0.0
  0
LINE
  5
1806D
330
175CD
100
AcDbEntity
  8
寸法
 62
     0
 48
50.0
370
    -2
100
AcDbLine
 10
4587.189737208523
 20
5169.433395552754
 30
0.0
 11
4592.509571360316
 21
5310.333002949644
 31
0.0
  0
LINE
  5
1806E
330
175CD
100
AcDbEntity
  8
寸法
 62
     0
 48
50.0
370
    -2
100
AcDbLine
 10
4592.509571360316
 20
5310.333002949644
 30
0.0
 11
4606.092126641514
 21
5670.076681410481
 31
0.0
  0
INSERT
  5
1806F
330
175CD
100
AcDbEntity
  8
寸法
 62
     0
 48
50.0
370
    -2
100
AcDbBlockReference
  2
_DOTSMALL
 10
4587.189737208523
 20
5169.433395552754
 30
0.0
 41
100.0
 42
100.0
 43
100.0
 50
267.8377559871574
  0
INSERT
  5
18070
330
175CD
100
AcDbEntity
  8
寸法
 62
     0
 48
50.0
370
    -2
100
AcDbBlockReference
  2
_DOTSMALL
 10
4592.509571360316
 20
5310.333002949644
 30
0.0
 41
100.0
 42
100.0
 43
100.0
 50
87.83775598715743
  0
MTEXT
  5
18071
330
175CD
100
AcDbEntity
  8
寸法
 62
     7
 48
50.0
100
AcDbMText
 10
4501.258515439941
 20
5543.942173989089
 30
0.0
 40
120.0
 41
0.0
 71
     5
 72
     1
  1
\A1;141
  7
STYLE1
 11
0.03772932022548
 21
0.9992879957226159
 31
0.0
 73
     1
 44
1.0
1001
ACAD
1000
MTEXTBEGIN
1070
    73
1070
     1
1070
    44
1040
1.0
1070
    74
1070
     0
1000
MTEXTEND
  0
POINT
  5
18072
330
175CD
100
AcDbEntity
  8
DEFPOINTS
 62
     0
 48
50.0
100
AcDbPoint
 10
5200.118387673636
 20
5146.291537121795
 30
0.0
  0
POINT
  5
18073
330
175CD
100
AcDbEntity
  8
DEFPOINTS
 62
     0
 48
50.0
100
AcDbPoint
 10
5205.438221825589
 20
5287.191144518679
 30
0.0
  0
POINT
  5
18074
330
175CD
100
AcDbEntity
  8
DEFPOINTS
 62
     0
 48
50.0
100
AcDbPoint
 10
4592.509571360316
 20
5310.333002949644
 30
0.0
  0
ENDBLK
  5
175D9
330
175CD
100
AcDbEntity
  8
0
 48
50.0
100
AcDbBlockEnd
  0
BLOCK
  5
175E5
330
175DA
100
AcDbEntity
  8
0
 48
50.0
100
AcDbBlockBegin
  2
*D8
 70
     1
 10
0.0
 20
0.0
 30
0.0
  3
*D8
  1

  0
LINE
  5
18061
330
175DA
100
AcDbEntity
  8
寸法
 62
     0
 48
50.0
370
    -2
100
AcDbLine
 10
6614.775823071683
 20
5255.321191664481
 30
0.0
 11
6614.775823071683
 21
5747.167965632132
 31
0.0
  0
LINE
  5
18062
330
175DA
100
AcDbEntity
  8
寸法
 62
     0
 48
50.0
370
    -2
100
AcDbLine
 10
6694.775823071683
 20
5253.510512052828
 30
0.0
 11
6694.775823071683
 21
5747.167965632132
 31
0.0
  0
LINE
  5
18063
330
175DA
100
AcDbEntity
  8
寸法
 62
     0
 48
50.0
370
    -2
100
AcDbLine
 10
6614.775823071683
 20
5687.167965632132
 30
0.0
 11
6694.775823071683
 21
5687.167965632132
 31
0.0
  0
LINE
  5
18064
330
175DA
100
AcDbEntity
  8
寸法
 62
     0
 48
50.0
370
    -2
100
AcDbLine
 10
6694.775823071683
 20
5687.167965632132
 30
0.0
 11
7006.87031126066
 21
5687.167965632132
 31
0.0
  0
INSERT
  5
18065
330
175DA
100
AcDbEntity
  8
寸法
 62
     0
 48
50.0
370
    -2
100
AcDbBlockReference
  2
_DOTSMALL
 10
6614.775823071683
 20
5687.167965632132
 30
0.0
 41
100.0
 42
100.0
 43
100.0
 50
180.0
  0
INSERT
  5
18066
330
175DA
100
AcDbEntity
  8
寸法
 62
     0
 48
50.0
370
    -2
100
AcDbBlockReference
  2
_DOTSMALL
 10
6694.775823071683
 20
5687.167965632132
 30
0.0
 41
100.0
 42
100.0
 43
100.0
  0
MTEXT
  5
18067
330
175DA
100
AcDbEntity
  8
寸法
 62
     7
 48
50.0
100
AcDbMText
 10
6900.823067166172
 20
5787.167965632132
 30
0.0
 40
120.0
 41
0.0
 71
     5
 72
     1
  1
\A1;80
  7
STYLE1
 73
     1
 44
1.0
1001
ACAD
1000
MTEXTBEGIN
1070
    73
1070
     1
1070
    44
1040
1.0
1070
    74
1070
     0
1000
MTEXTEND
  0
POINT
  5
18068
330
175DA
100
AcDbEntity
  8
DEFPOINTS
 62
     0
 48
50.0
100
AcDbPoint
 10
6614.775823071683
 20
5235.321191664482
 30
0.0
  0
POINT
  5
18069
330
175DA
100
AcDbEntity
  8
DEFPOINTS
 62
     0
 48
50.0
100
AcDbPoint
 10
6694.775823071683
 20
5233.510512052829
 30
0.0
  0
POINT
  5
1806A
330
175DA
100
AcDbEntity
  8
DEFPOINTS
 62
     0
 48
50.0
100
AcDbPoint
 10
6694.775823071683
 20
5687.167965632132
 30
0.0
  0
ENDBLK
  5
175E6
330
175DA
100
AcDbEntity
  8
0
 48
50.0
100
AcDbBlockEnd
  0
BLOCK
  5
175F1
330
175E7
100
AcDbEntity
  8
0
 48
50.0
100
AcDbBlockBegin
  2
*D9
 70
     1
 10
0.0
 20
0.0
 30
0.0
  3
*D9
  1

  0
LINE
  5
18058
330
175E7
100
AcDbEntity
  8
寸法
 62
     0
 48
50.0
370
    -2
100
AcDbLine
 10
6694.775823071683
 20
5253.510512052828
 30
0.0
 11
6694.775823071683
 21
5955.342286824095
 31
0.0
  0
LINE
  5
18059
330
175E7
100
AcDbEntity
  8
寸法
 62
     0
 48
50.0
370
    -2
100
AcDbLine
 10
5184.775823071682
 20
5308.510512052833
 30
0.0
 11
5184.775823071682
 21
5955.342286824095
 31
0.0
  0
LINE
  5
1805A
330
175E7
100
AcDbEntity
  8
寸法
 62
     0
 48
50.0
370
    -2
100
AcDbLine
 10
6694.775823071683
 20
5895.342286824096
 30
0.0
 11
5184.775823071682
 21
5895.342286824096
 31
0.0
  0
INSERT
  5
1805B
330
175E7
100
AcDbEntity
  8
寸法
 62
     0
 48
50.0
370
    -2
100
AcDbBlockReference
  2
_DOTSMALL
 10
6694.775823071683
 20
5895.342286824096
 30
0.0
 41
100.0
 42
100.0
 43
100.0
  0
INSERT
  5
1805C
330
175E7
100
AcDbEntity
  8
寸法
 62
     0
 48
50.0
370
    -2
100
AcDbBlockReference
  2
_DOTSMALL
 10
5184.775823071682
 20
5895.342286824096
 30
0.0
 41
100.0
 42
100.0
 43
100.0
 50
180.0
  0
MTEXT
  5
1805D
330
175E7
100
AcDbEntity
  8
寸法
 62
     7
 48
50.0
100
AcDbMText
 10
5911.900652773503
 20
5995.342286824096
 30
0.0
 40
120.0
 41
0.0
 71
     5
 72
     1
  1
\A1;1510
  7
STYLE1
 73
     1
 44
1.0
1001
ACAD
1000
MTEXTBEGIN
1070
    73
1070
     1
1070
    44
1040
1.0
1070
    74
1070
     0
1000
MTEXTEND
  0
POINT
  5
1805E
330
175E7
100
AcDbEntity
  8
DEFPOINTS
 62
     0
 48
50.0
100
AcDbPoint
 10
6694.775823071683
 20
5233.510512052829
 30
0.0
  0
POINT
  5
1805F
330
175E7
100
AcDbEntity
  8
DEFPOINTS
 62
     0
 48
50.0
100
AcDbPoint
 10
5184.775823071682
 20
5288.510512052832
 30
0.0
  0
POINT
  5
18060
330
175E7
100
AcDbEntity
  8
DEFPOINTS
 62
     0
 48
50.0
100
AcDbPoint
 10
5184.775823071682
 20
5895.342286824096
 30
0.0
  0
ENDBLK
  5
175F2
330
175E7
100
AcDbEntity
  8
0
 48
50.0
100
AcDbBlockEnd
  0
BLOCK
  5
175FF
330
175F3
100
AcDbEntity
  8
0
 48
50.0
100
AcDbBlockBegin
  2
*D10
 70
     1
 10
0.0
 20
0.0
 30
0.0
  3
*D10
  1

  0
LINE
  5
1804D
330
175F3
100
AcDbEntity
  8
寸法
 62
     0
 48
50.0
370
    -2
100
AcDbLine
 10
5244.775823071683
 20
5304.512130175805
 30
0.0
 11
5244.775823071683
 21
5747.167965632132
 31
0.0
  0
LINE
  5
1804E
330
175F3
100
AcDbEntity
  8
寸法
 62
     0
 48
50.0
370
    -2
100
AcDbLine
 10
5184.775823071682
 20
5308.510512052833
 30
0.0
 11
5184.775823071682
 21
5747.167965632132
 31
0.0
  0
LINE
  5
1804F
330
175F3
100
AcDbEntity
  8
寸法
 62
     0
 48
50.0
370
    -2
100
AcDbLine
 10
5244.775823071683
 20
5687.167965632132
 30
0.0
 11
5344.775823071683
 21
5687.167965632132
 31
0.0
  0
LINE
  5
18050
330
175F3
100
AcDbEntity
  8
寸法
 62
     0
 48
50.0
370
    -2
100
AcDbLine
 10
5184.775823071682
 20
5687.167965632132
 30
0.0
 11
4765.500232520497
 21
5687.167965632132
 31
0.0
  0
LINE
  5
18051
330
175F3
100
AcDbEntity
  8
寸法
 62
     0
 48
50.0
370
    -2
100
AcDbLine
 10
5244.775823071683
 20
5687.167965632132
 30
0.0
 11
5184.775823071682
 21
5687.167965632132
 31
0.0
  0
INSERT
  5
18052
330
175F3
100
AcDbEntity
  8
寸法
 62
     0
 48
50.0
370
    -2
100
AcDbBlockReference
  2
_DOTSMALL
 10
5244.775823071683
 20
5687.167965632132
 30
0.0
 41
100.0
 42
100.0
 43
100.0
 50
180.0
  0
INSERT
  5
18053
330
175F3
100
AcDbEntity
  8
寸法
 62
     0
 48
50.0
370
    -2
100
AcDbBlockReference
  2
_DOTSMALL
 10
5184.775823071682
 20
5687.167965632132
 30
0.0
 41
100.0
 42
100.0
 43
100.0
  0
MTEXT
  5
18054
330
175F3
100
AcDbEntity
  8
寸法
 62
     7
 48
50.0
100
AcDbMText
 10
4875.138027796089
 20
5787.167965632132
 30
0.0
 40
120.0
 41
0.0
 71
     5
 72
     1
  1
\A1;60
  7
STYLE1
 73
     1
 44
1.0
1001
ACAD
1000
MTEXTBEGIN
1070
    73
1070
     1
1070
    44
1040
1.0
1070
    74
1070
     0
1000
MTEXTEND
  0
POINT
  5
18055
330
175F3
100
AcDbEntity
  8
DEFPOINTS
 62
     0
 48
50.0
100
AcDbPoint
 10
5244.775823071683
 20
5284.512130175805
 30
0.0
  0
POINT
  5
18056
330
175F3
100
AcDbEntity
  8
DEFPOINTS
 62
     0
 48
50.0
100
AcDbPoint
 10
5184.775823071682
 20
5288.510512052832
 30
0.0
  0
POINT
  5
18057
330
175F3
100
AcDbEntity
  8
DEFPOINTS
 62
     0
 48
50.0
100
AcDbPoint
 10
5184.775823071682
 20
5687.167965632132
 30
0.0
  0
ENDBLK
  5
17600
330
175F3
100
AcDbEntity
  8
0
 48
50.0
100
AcDbBlockEnd
  0
BLOCK
  5
1760B
330
17601
100
AcDbEntity
  8
0
 48
50.0
100
AcDbBlockBegin
  2
*D11
 70
     1
 10
0.0
 20
0.0
 30
0.0
  3
*D11
  1

  0
LINE
  5
18044
330
17601
100
AcDbEntity
  8
寸法
 62
     0
 48
50.0
370
    -2
100
AcDbLine
 10
6614.775823071683
 20
5255.321191664481
 30
0.0
 11
6614.775823071683
 21
5747.167965632132
 31
0.0
  0
LINE
  5
18045
330
17601
100
AcDbEntity
  8
寸法
 62
     0
 48
50.0
370
    -2
100
AcDbLine
 10
5244.775823071683
 20
5304.512130175805
 30
0.0
 11
5244.775823071683
 21
5747.167965632132
 31
0.0
  0
LINE
  5
18046
330
17601
100
AcDbEntity
  8
寸法
 62
     0
 48
50.0
370
    -2
100
AcDbLine
 10
6614.775823071683
 20
5687.167965632132
 30
0.0
 11
5244.775823071683
 21
5687.167965632132
 31
0.0
  0
INSERT
  5
18047
330
17601
100
AcDbEntity
  8
寸法
 62
     0
 48
50.0
370
    -2
100
AcDbBlockReference
  2
_DOTSMALL
 10
6614.775823071683
 20
5687.167965632132
 30
0.0
 41
100.0
 42
100.0
 43
100.0
  0
INSERT
  5
18048
330
17601
100
AcDbEntity
  8
寸法
 62
     0
 48
50.0
370
    -2
100
AcDbBlockReference
  2
_DOTSMALL
 10
5244.775823071683
 20
5687.167965632132
 30
0.0
 41
100.0
 42
100.0
 43
100.0
 50
180.0
  0
MTEXT
  5
18049
330
17601
100
AcDbEntity
  8
寸法
 62
     7
 48
50.0
100
AcDbMText
 10
5894.594855962226
 20
5787.167965632132
 30
0.0
 40
120.0
 41
0.0
 71
     5
 72
     1
  1
\A1;柱外寸法1370
  7
STYLE1
 73
     1
 44
1.0
1001
ACAD
1000
MTEXTBEGIN
1070
    73
1070
     1
1070
    44
1040
1.0
1070
    74
1070
     0
1000
MTEXTEND
  0
POINT
  5
1804A
330
17601
100
AcDbEntity
  8
DEFPOINTS
 62
     0
 48
50.0
100
AcDbPoint
 10
6614.775823071683
 20
5235.321191664482
 30
0.0
  0
POINT
  5
1804B
330
17601
100
AcDbEntity
  8
DEFPOINTS
 62
     0
 48
50.0
100
AcDbPoint
 10
5244.775823071683
 20
5284.512130175805
 30
0.0
  0
POINT
  5
1804C
330
17601
100
AcDbEntity
  8
DEFPOINTS
 62
     0
 48
50.0
100
AcDbPoint
 10
5244.775823071683
 20
5687.167965632132
 30
0.0
  0
ENDBLK
  5
1760C
330
17601
100
AcDbEntity
  8
0
 48
50.0
100
AcDbBlockEnd
  0
BLOCK
  5
17617
330
1760D
100
AcDbEntity
  8
0
 48
50.0
100
AcDbBlockBegin
  2
*D12
 70
     1
 10
0.0
 20
0.0
 30
0.0
  3
*D12
  1

  0
LINE
  5
1803B
330
1760D
100
AcDbEntity
  8
寸法
 62
     0
 48
50.0
370
    -2
100
AcDbLine
 10
6711.775823071686
 20
2913.510512052827
 30
0.0
 11
7225.256992370735
 21
2913.510512052827
 31
0.0
  0
LINE
  5
1803C
330
1760D
100
AcDbEntity
  8
寸法
 62
     0
 48
50.0
370
    -2
100
AcDbLine
 10
6714.775823071683
 20
5233.510512052829
 30
0.0
 11
7225.256992370735
 21
5233.510512052829
 31
0.0
  0
LINE
  5
1803D
330
1760D
100
AcDbEntity
  8
寸法
 62
     0
 48
50.0
370
    -2
100
AcDbLine
 10
7165.256992370735
 20
2913.510512052827
 30
0.0
 11
7165.256992370735
 21
5233.510512052829
 31
0.0
  0
INSERT
  5
1803E
330
1760D
100
AcDbEntity
  8
寸法
 62
     0
 48
50.0
370
    -2
100
AcDbBlockReference
  2
_DOTSMALL
 10
7165.256992370735
 20
2913.510512052827
 30
0.0
 41
100.0
 42
100.0
 43
100.0
 50
270.0
  0
INSERT
  5
1803F
330
1760D
100
AcDbEntity
  8
寸法
 62
     0
 48
50.0
370
    -2
100
AcDbBlockReference
  2
_DOTSMALL
 10
7165.256992370735
 20
5233.510512052829
 30
0.0
 41
100.0
 42
100.0
 43
100.0
 50
90.0
  0
MTEXT
  5
18040
330
1760D
100
AcDbEntity
  8
寸法
 62
     7
 48
50.0
100
AcDbMText
 10
7065.245181347113
 20
4080.286168096267
 30
0.0
 40
120.0
 41
0.0
 71
     5
 72
     1
  1
\A1;2320
  7
STYLE1
 11
0.0000000000000001
 21
1.0
 31
0.0
 73
     1
 44
1.0
1001
ACAD
1000
MTEXTBEGIN
1070
    73
1070
     1
1070
    44
1040
1.0
1070
    74
1070
     0
1000
MTEXTEND
  0
POINT
  5
18041
330
1760D
100
AcDbEntity
  8
DEFPOINTS
 62
     0
 48
50.0
100
AcDbPoint
 10
6691.775823071687
 20
2913.510512052827
 30
0.0
  0
POINT
  5
18042
330
1760D
100
AcDbEntity
  8
DEFPOINTS
 62
     0
 48
50.0
100
AcDbPoint
 10
6694.775823071683
 20
5233.510512052829
 30
0.0
  0
POINT
  5
18043
330
1760D
100
AcDbEntity
  8
DEFPOINTS
 62
     0
 48
50.0
100
AcDbPoint
 10
7165.256992370735
 20
5233.510512052829
 30
0.0
  0
ENDBLK
  5
17618
330
1760D
100
AcDbEntity
  8
0
 48
50.0
100
AcDbBlockEnd
  0
BLOCK
  5
17623
330
17619
100
AcDbEntity
  8
0
 48
50.0
100
AcDbBlockBegin
  2
*D13
 70
     1
 10
0.0
 20
0.0
 30
0.0
  3
*D13
  1

  0
LINE
  5
18032
330
17619
100
AcDbEntity
  8
寸法
 62
     0
 48
50.0
370
    -2
100
AcDbLine
 10
5224.775823071682
 20
5053.510512052827
 30
0.0
 11
4561.123113913382
 21
5053.510512052827
 31
0.0
  0
LINE
  5
18033
330
17619
100
AcDbEntity
  8
寸法
 62
     0
 48
50.0
370
    -2
100
AcDbLine
 10
5224.775823071682
 20
2963.510512052827
 30
0.0
 11
4561.123113913382
 21
2963.510512052828
 31
0.0
  0
LINE
  5
18034
330
17619
100
AcDbEntity
  8
寸法
 62
     0
 48
50.0
370
    -2
100
AcDbLine
 10
4621.123113913382
 20
5053.510512052827
 30
0.0
 11
4621.123113913382
 21
2963.510512052828
 31
0.0
  0
INSERT
  5
18035
330
17619
100
AcDbEntity
  8
寸法
 62
     0
 48
50.0
370
    -2
100
AcDbBlockReference
  2
_DOTSMALL
 10
4621.123113913382
 20
5053.510512052827
 30
0.0
 41
100.0
 42
100.0
 43
100.0
 50
90.0
  0
INSERT
  5
18036
330
17619
100
AcDbEntity
  8
寸法
 62
     0
 48
50.0
370
    -2
100
AcDbBlockReference
  2
_DOTSMALL
 10
4621.123113913382
 20
2963.510512052828
 30
0.0
 41
100.0
 42
100.0
 43
100.0
 50
270.0
  0
MTEXT
  5
18037
330
17619
100
AcDbEntity
  8
寸法
 62
     7
 48
50.0
100
AcDbMText
 10
4521.111302889759
 20
4008.510512052827
 30
0.0
 40
120.0
 41
0.0
 71
     5
 72
     1
  1
\A1;2090
  7
STYLE1
 11
0.0000000000000001
 21
1.0
 31
0.0
 73
     1
 44
1.0
1001
ACAD
1000
MTEXTBEGIN
1070
    73
1070
     1
1070
    44
1040
1.0
1070
    74
1070
     0
1000
MTEXTEND
  0
POINT
  5
18038
330
17619
100
AcDbEntity
  8
DEFPOINTS
 62
     0
 48
50.0
100
AcDbPoint
 10
5244.775823071683
 20
5053.510512052827
 30
0.0
  0
POINT
  5
18039
330
17619
100
AcDbEntity
  8
DEFPOINTS
 62
     0
 48
50.0
100
AcDbPoint
 10
5244.775823071683
 20
2963.510512052827
 30
0.0
  0
POINT
  5
1803A
330
17619
100
AcDbEntity
  8
DEFPOINTS
 62
     0
 48
50.0
100
AcDbPoint
 10
4621.123113913382
 20
2963.510512052828
 30
0.0
  0
ENDBLK
  5
17624
330
17619
100
AcDbEntity
  8
0
 48
50.0
100
AcDbBlockEnd
  0
BLOCK
  5
1762F
330
17625
100
AcDbEntity
  8
0
 48
50.0
100
AcDbBlockBegin
  2
*D14
 70
     1
 10
0.0
 20
0.0
 30
0.0
  3
*D14
  1

  0
LINE
  5
18029
330
17625
100
AcDbEntity
  8
寸法
 62
     0
 48
50.0
370
    -2
100
AcDbLine
 10
5224.775823071682
 20
2913.510512052827
 30
0.0
 11
4276.136441142321
 21
2913.510512052827
 31
0.0
  0
LINE
  5
1802A
330
17625
100
AcDbEntity
  8
寸法
 62
     0
 48
50.0
370
    -2
100
AcDbLine
 10
5164.775823071682
 20
5288.510512052831
 30
0.0
 11
4276.136441142321
 21
5288.510512052831
 31
0.0
  0
LINE
  5
1802B
330
17625
100
AcDbEntity
  8
寸法
 62
     0
 48
50.0
370
    -2
100
AcDbLine
 10
4336.136441142321
 20
2913.510512052827
 30
0.0
 11
4336.136441142321
 21
5288.510512052831
 31
0.0
  0
INSERT
  5
1802C
330
17625
100
AcDbEntity
  8
寸法
 62
     0
 48
50.0
370
    -2
100
AcDbBlockReference
  2
_DOTSMALL
 10
4336.136441142321
 20
2913.510512052827
 30
0.0
 41
100.0
 42
100.0
 43
100.0
 50
270.0
  0
INSERT
  5
1802D
330
17625
100
AcDbEntity
  8
寸法
 62
     0
 48
50.0
370
    -2
100
AcDbBlockReference
  2
_DOTSMALL
 10
4336.136441142321
 20
5288.510512052831
 30
0.0
 41
100.0
 42
100.0
 43
100.0
 50
90.0
  0
MTEXT
  5
1802E
330
17625
100
AcDbEntity
  8
寸法
 62
     7
 48
50.0
100
AcDbMText
 10
4236.124630118698
 20
4008.510512052827
 30
0.0
 40
120.0
 41
0.0
 71
     5
 72
     1
  1
\A1;2375
  7
STYLE1
 11
0.0000000000000001
 21
1.0
 31
0.0
 73
     1
 44
1.0
1001
ACAD
1000
MTEXTBEGIN
1070
    73
1070
     1
1070
    44
1040
1.0
1070
    74
1070
     0
1000
MTEXTEND
  0
POINT
  5
1802F
330
17625
100
AcDbEntity
  8
DEFPOINTS
 62
     0
 48
50.0
100
AcDbPoint
 10
5244.775823071683
 20
2913.510512052827
 30
0.0
  0
POINT
  5
18030
330
17625
100
AcDbEntity
  8
DEFPOINTS
 62
     0
 48
50.0
100
AcDbPoint
 10
5184.775823071682
 20
5288.510512052831
 30
0.0
  0
POINT
  5
18031
330
17625
100
AcDbEntity
  8
DEFPOINTS
 62
     0
 48
50.0
100
AcDbPoint
 10
4336.136441142321
 20
5288.510512052831
 30
0.0
  0
ENDBLK
  5
17630
330
17625
100
AcDbEntity
  8
0
 48
50.0
100
AcDbBlockEnd
  0
BLOCK
  5
1763C
330
17631
100
AcDbEntity
  8
0
 48
50.0
100
AcDbBlockBegin
  2
*D15
 70
     1
 10
0.0
 20
0.0
 30
0.0
  3
*D15
  1

  0
LINE
  5
1801F
330
17631
100
AcDbEntity
  8
寸法
 62
     0
 48
50.0
370
    -2
100
AcDbLine
 10
5169.775823071683
 20
2913.510512052827
 30
0.0
 11
4276.136441142321
 21
2913.510512052827
 31
0.0
  0
LINE
  5
18020
330
17631
100
AcDbEntity
  8
寸法
 62
     0
 48
50.0
370
    -2
100
AcDbLine
 10
4601.123113913382
 20
2813.510512052827
 30
0.0
 11
4276.136441142321
 21
2813.510512052827
 31
0.0
  0
LINE
  5
18021
330
17631
100
AcDbEntity
  8
寸法
 62
     0
 48
50.0
370
    -2
100
AcDbLine
 10
4336.136441142321
 20
2913.510512052827
 30
0.0
 11
4336.136441142321
 21
2813.510512052827
 31
0.0
  0
LINE
  5
18022
330
17631
100
AcDbEntity
  8
寸法
 62
     0
 48
50.0
370
    -2
100
AcDbLine
 10
4336.136441142321
 20
2813.510512052827
 30
0.0
 11
4336.136441142321
 21
2441.416023863846
 31
0.0
  0
INSERT
  5
18023
330
17631
100
AcDbEntity
  8
寸法
 62
     0
 48
50.0
370
    -2
100
AcDbBlockReference
  2
_DOTSMALL
 10
4336.136441142321
 20
2913.510512052827
 30
0.0
 41
100.0
 42
100.0
 43
100.0
 50
90.0
  0
INSERT
  5
18024
330
17631
100
AcDbEntity
  8
寸法
 62
     0
 48
50.0
370
    -2
100
AcDbBlockReference
  2
_DOTSMALL
 10
4336.136441142321
 20
2813.510512052827
 30
0.0
 41
100.0
 42
100.0
 43
100.0
 50
270.0
  0
MTEXT
  5
18025
330
17631
100
AcDbEntity
  8
寸法
 62
     7
 48
50.0
100
AcDbMText
 10
4236.13644114232
 20
2577.463267958335
 30
0.0
 40
120.0
 41
0.0
 71
     5
 72
     1
  1
\A1;100
  7
STYLE1
 11
0.0000000000000001
 21
1.0
 31
0.0
 73
     1
 44
1.0
1001
ACAD
1000
MTEXTBEGIN
1070
    73
1070
     1
1070
    44
1040
1.0
1070
    74
1070
     0
1000
MTEXTEND
  0
POINT
  5
18026
330
17631
100
AcDbEntity
  8
DEFPOINTS
 62
     0
 48
50.0
100
AcDbPoint
 10
5189.775823071682
 20
2913.510512052827
 30
0.0
  0
POINT
  5
18027
330
17631
100
AcDbEntity
  8
DEFPOINTS
 62
     0
 48
50.0
100
AcDbPoint
 10
4621.123113913381
 20
2813.510512052827
 30
0.0
  0
POINT
  5
18028
330
17631
100
AcDbEntity
  8
DEFPOINTS
 62
     0
 48
50.0
100
AcDbPoint
 10
4336.136441142321
 20
2813.510512052827
 30
0.0
  0
ENDBLK
  5
1763D
330
17631
100
AcDbEntity
  8
0
 48
50.0
100
AcDbBlockEnd
  0
BLOCK
  5
1764A
330
1763E
100
AcDbEntity
  8
0
 48
50.0
100
AcDbBlockBegin
  2
*D16
 70
     1
 10
0.0
 20
0.0
 30
0.0
  3
*D16
  1

  0
LINE
  5
18014
330
1763E
100
AcDbEntity
  8
寸法
 62
     0
 48
50.0
370
    -2
100
AcDbLine
 10
5224.775823071682
 20
2963.510512052827
 30
0.0
 11
4561.123113913382
 21
2963.510512052828
 31
0.0
  0
LINE
  5
18015
330
1763E
100
AcDbEntity
  8
寸法
 62
     0
 48
50.0
370
    -2
100
AcDbLine
 10
5169.775823071683
 20
2913.510512052827
 30
0.0
 11
4561.123113913382
 21
2913.510512052827
 31
0.0
  0
LINE
  5
18016
330
1763E
100
AcDbEntity
  8
寸法
 62
     0
 48
50.0
370
    -2
100
AcDbLine
 10
4621.123113913382
 20
2963.510512052828
 30
0.0
 11
4621.123113913382
 21
3063.510512052828
 31
0.0
  0
LINE
  5
18017
330
1763E
100
AcDbEntity
  8
寸法
 62
     0
 48
50.0
370
    -2
100
AcDbLine
 10
4621.123113913382
 20
2913.510512052827
 30
0.0
 11
4621.123113913382
 21
2501.416023863846
 31
0.0
  0
LINE
  5
18018
330
1763E
100
AcDbEntity
  8
寸法
 62
     0
 48
50.0
370
    -2
100
AcDbLine
 10
4621.123113913382
 20
2963.510512052828
 30
0.0
 11
4621.123113913382
 21
2913.510512052827
 31
0.0
  0
INSERT
  5
18019
330
1763E
100
AcDbEntity
  8
寸法
 62
     0
 48
50.0
370
    -2
100
AcDbBlockReference
  2
_DOTSMALL
 10
4621.123113913382
 20
2963.510512052828
 30
0.0
 41
100.0
 42
100.0
 43
100.0
 50
270.0
  0
INSERT
  5
1801A
330
1763E
100
AcDbEntity
  8
寸法
 62
     0
 48
50.0
370
    -2
100
AcDbBlockReference
  2
_DOTSMALL
 10
4621.123113913382
 20
2913.510512052827
 30
0.0
 41
100.0
 42
100.0
 43
100.0
 50
90.0
  0
MTEXT
  5
1801B
330
1763E
100
AcDbEntity
  8
寸法
 62
     7
 48
50.0
100
AcDbMText
 10
4521.123113913382
 20
2607.463267958335
 30
0.0
 40
120.0
 41
0.0
 71
     5
 72
     1
  1
\A1;50
  7
STYLE1
 11
0.0000000000000001
 21
1.0
 31
0.0
 73
     1
 44
1.0
1001
ACAD
1000
MTEXTBEGIN
1070
    73
1070
     1
1070
    44
1040
1.0
1070
    74
1070
     0
1000
MTEXTEND
  0
POINT
  5
1801C
330
1763E
100
AcDbEntity
  8
DEFPOINTS
 62
     0
 48
50.0
100
AcDbPoint
 10
5244.775823071683
 20
2963.510512052827
 30
0.0
  0
POINT
  5
1801D
330
1763E
100
AcDbEntity
  8
DEFPOINTS
 62
     0
 48
50.0
100
AcDbPoint
 10
5189.775823071682
 20
2913.510512052827
 30
0.0
  0
POINT
  5
1801E
330
1763E
100
AcDbEntity
  8
DEFPOINTS
 62
     0
 48
50.0
100
AcDbPoint
 10
4621.123113913382
 20
2913.510512052827
 30
0.0
  0
ENDBLK
  5
1764B
330
1763E
100
AcDbEntity
  8
0
 48
50.0
100
AcDbBlockEnd
  0
BLOCK
  5
17658
330
1764C
100
AcDbEntity
  8
0
 48
50.0
100
AcDbBlockBegin
  2
*D17
 70
     1
 10
0.0
 20
0.0
 30
0.0
  3
*D17
  1

  0
LINE
  5
18773
330
1764C
100
AcDbEntity
  8
寸法
 62
     0
 48
50.0
370
    -2
100
AcDbLine
 10
11123.29845316949
 20
9542.014558484334
 30
0.0
 11
11863.29845316948
 21
9542.014558484334
 31
0.0
  0
LINE
  5
18774
330
1764C
100
AcDbEntity
  8
寸法
 62
     0
 48
50.0
370
    -2
100
AcDbLine
 10
11123.29845316949
 20
9487.014558484338
 30
0.0
 11
11863.29845316948
 21
9487.014558484338
 31
0.0
  0
LINE
  5
18775
330
1764C
100
AcDbEntity
  8
寸法
 62
     0
 48
50.0
370
    -2
100
AcDbLine
 10
11803.29845316948
 20
9487.014558484338
 30
0.0
 11
11803.29845316948
 21
9387.014558484336
 31
0.0
  0
LINE
  5
18776
330
1764C
100
AcDbEntity
  8
寸法
 62
     0
 48
50.0
370
    -2
100
AcDbLine
 10
11803.29845316948
 20
9542.014558484334
 30
0.0
 11
11803.29845316948
 21
9958.98512123281
 31
0.0
  0
LINE
  5
18777
330
1764C
100
AcDbEntity
  8
寸法
 62
     0
 48
50.0
370
    -2
100
AcDbLine
 10
11803.29845316948
 20
9487.014558484338
 30
0.0
 11
11803.29845316948
 21
9542.014558484334
 31
0.0
  0
INSERT
  5
18778
330
1764C
100
AcDbEntity
  8
寸法
 62
     0
 48
50.0
370
    -2
100
AcDbBlockReference
  2
_DOTSMALL
 10
11803.29845316948
 20
9487.014558484338
 30
0.0
 41
100.0
 42
100.0
 43
100.0
 50
90.0
  0
INSERT
  5
18779
330
1764C
100
AcDbEntity
  8
寸法
 62
     0
 48
50.0
370
    -2
100
AcDbBlockReference
  2
_DOTSMALL
 10
11803.29845316948
 20
9542.014558484334
 30
0.0
 41
100.0
 42
100.0
 43
100.0
 50
270.0
  0
MTEXT
  5
1877A
330
1764C
100
AcDbEntity
  8
寸法
 62
     7
 48
50.0
100
AcDbMText
 10
11703.29845316948
 20
9850.499839858574
 30
0.0
 40
120.0
 41
0.0
 71
     5
 72
     1
  1
\A1;55
  7
STYLE1
 11
0.0000000000000001
 21
1.0
 31
0.0
 73
     1
 44
1.0
1001
ACAD
1000
MTEXTBEGIN
1070
    73
1070
     1
1070
    44
1040
1.0
1070
    74
1070
     0
1000
MTEXTEND
  0
POINT
  5
1877B
330
1764C
100
AcDbEntity
  8
DEFPOINTS
 62
     0
 48
50.0
100
AcDbPoint
 10
11103.29845316949
 20
9542.014558484334
 30
0.0
  0
POINT
  5
1877C
330
1764C
100
AcDbEntity
  8
DEFPOINTS
 62
     0
 48
50.0
100
AcDbPoint
 10
11103.29845316949
 20
9487.014558484338
 30
0.0
  0
POINT
  5
1877D
330
1764C
100
AcDbEntity
  8
DEFPOINTS
 62
     0
 48
50.0
100
AcDbPoint
 10
11803.29845316948
 20
9487.014558484338
 30
0.0
  0
ENDBLK
  5
17659
330
1764C
100
AcDbEntity
  8
0
 48
50.0
100
AcDbBlockEnd
  0
BLOCK
  5
17664
330
1765A
100
AcDbEntity
  8
0
 48
50.0
100
AcDbBlockBegin
  2
*D18
 70
     1
 10
0.0
 20
0.0
 30
0.0
  3
*D18
  1

  0
LINE
  5
1876A
330
1765A
100
AcDbEntity
  8
寸法
 62
     0
 48
50.0
370
    -2
100
AcDbLine
 10
11094.79845316949
 20
9506.655574635713
 30
0.0
 11
11563.29845316949
 21
9381.121377981733
 31
0.0
  0
LINE
  5
1876B
330
1765A
100
AcDbEntity
  8
寸法
 62
     0
 48
50.0
370
    -2
100
AcDbLine
 10
11094.79845316949
 20
9056.655574635716
 30
0.0
 11
11563.29845316949
 21
8931.121377981735
 31
0.0
  0
LINE
  5
1876C
330
1765A
100
AcDbEntity
  8
寸法
 62
     0
 48
50.0
370
    -2
100
AcDbLine
 10
11503.29845316949
 20
9397.198329527599
 30
0.0
 11
11503.29845316949
 21
8947.198329527601
 31
0.0
  0
INSERT
  5
1876D
330
1765A
100
AcDbEntity
  8
寸法
 62
     0
 48
50.0
370
    -2
100
AcDbBlockReference
  2
_DOTSMALL
 10
11503.29845316949
 20
9397.198329527599
 30
0.0
 41
100.0
 42
100.0
 43
100.0
 50
90.0
  0
INSERT
  5
1876E
330
1765A
100
AcDbEntity
  8
寸法
 62
     0
 48
50.0
370
    -2
100
AcDbBlockReference
  2
_DOTSMALL
 10
11503.29845316949
 20
8947.198329527601
 30
0.0
 41
100.0
 42
100.0
 43
100.0
 50
270.0
  0
MTEXT
  5
1876F
330
1765A
100
AcDbEntity
  8
寸法
 62
     7
 48
50.0
100
AcDbMText
 10
11403.29845316948
 20
9172.198329527601
 30
0.0
 40
120.0
 41
0.0
 71
     5
 72
     1
  1
\A1;450
  7
STYLE1
 11
0.0000000000000001
 21
1.0
 31
0.0
 73
     1
 44
1.0
1001
ACAD
1000
MTEXTBEGIN
1070
    73
1070
     1
1070
    44
1040
1.0
1070
    74
1070
     0
1000
MTEXTEND
  0
POINT
  5
18770
330
1765A
100
AcDbEntity
  8
DEFPOINTS
 62
     0
 48
50.0
100
AcDbPoint
 10
11074.79845316949
 20
9512.014558484334
 30
0.0
  0
POINT
  5
18771
330
1765A
100
AcDbEntity
  8
DEFPOINTS
 62
     0
 48
50.0
100
AcDbPoint
 10
11074.79845316949
 20
9062.014558484337
 30
0.0
  0
POINT
  5
18772
330
1765A
100
AcDbEntity
  8
DEFPOINTS
 62
     0
 48
50.0
100
AcDbPoint
 10
11503.29845316949
 20
8947.198329527601
 30
0.0
  0
ENDBLK
  5
17665
330
1765A
100
AcDbEntity
  8
0
 48
50.0
100
AcDbBlockEnd
  0
BLOCK
  5
17672
330
17666
100
AcDbEntity
  8
0
 48
50.0
100
AcDbBlockBegin
  2
*D19
 70
     1
 10
0.0
 20
0.0
 30
0.0
  3
*D19
  1

  0
LINE
  5
1875F
330
17666
100
AcDbEntity
  8
寸法
 62
     0
 48
50.0
370
    -2
100
AcDbLine
 10
11123.29845316947
 20
8227.014558484318
 30
0.0
 11
11863.29845316947
 21
8227.014558484318
 31
0.0
  0
LINE
  5
18760
330
17666
100
AcDbEntity
  8
寸法
 62
     0
 48
50.0
370
    -2
100
AcDbLine
 10
11123.29845316947
 20
8172.014558484324
 30
0.0
 11
11863.29845316947
 21
8172.014558484324
 31
0.0
  0
LINE
  5
18761
330
17666
100
AcDbEntity
  8
寸法
 62
     0
 48
50.0
370
    -2
100
AcDbLine
 10
11803.29845316947
 20
8227.014558484318
 30
0.0
 11
11803.29845316947
 21
8327.01455848432
 31
0.0
  0
LINE
  5
18762
330
17666
100
AcDbEntity
  8
寸法
 62
     0
 48
50.0
370
    -2
100
AcDbLine
 10
11803.29845316947
 20
8172.014558484324
 30
0.0
 11
11803.29845316947
 21
7755.043995735832
 31
0.0
  0
LINE
  5
18763
330
17666
100
AcDbEntity
  8
寸法
 62
     0
 48
50.0
370
    -2
100
AcDbLine
 10
11803.29845316947
 20
8227.014558484318
 30
0.0
 11
11803.29845316947
 21
8172.014558484324
 31
0.0
  0
INSERT
  5
18764
330
17666
100
AcDbEntity
  8
寸法
 62
     0
 48
50.0
370
    -2
100
AcDbBlockReference
  2
_DOTSMALL
 10
11803.29845316947
 20
8227.014558484318
 30
0.0
 41
100.0
 42
100.0
 43
100.0
 50
270.0
  0
INSERT
  5
18765
330
17666
100
AcDbEntity
  8
寸法
 62
     0
 48
50.0
370
    -2
100
AcDbBlockReference
  2
_DOTSMALL
 10
11803.29845316947
 20
8172.014558484324
 30
0.0
 41
100.0
 42
100.0
 43
100.0
 50
90.0
  0
MTEXT
  5
18766
330
17666
100
AcDbEntity
  8
寸法
 62
     7
 48
50.0
100
AcDbMText
 10
11703.29845316947
 20
7863.529277110074
 30
0.0
 40
120.0
 41
0.0
 71
     5
 72
     1
  1
\A1;55
  7
STYLE1
 11
0.0000000000000001
 21
1.0
 31
0.0
 73
     1
 44
1.0
1001
ACAD
1000
MTEXTBEGIN
1070
    73
1070
     1
1070
    44
1040
1.0
1070
    74
1070
     0
1000
MTEXTEND
  0
POINT
  5
18767
330
17666
100
AcDbEntity
  8
DEFPOINTS
 62
     0
 48
50.0
100
AcDbPoint
 10
11103.29845316947
 20
8227.014558484318
 30
0.0
  0
POINT
  5
18768
330
17666
100
AcDbEntity
  8
DEFPOINTS
 62
     0
 48
50.0
100
AcDbPoint
 10
11103.29845316947
 20
8172.014558484324
 30
0.0
  0
POINT
  5
18769
330
17666
100
AcDbEntity
  8
DEFPOINTS
 62
     0
 48
50.0
100
AcDbPoint
 10
11803.29845316947
 20
8172.014558484324
 30
0.0
  0
ENDBLK
  5
17673
330
17666
100
AcDbEntity
  8
0
 48
50.0
100
AcDbBlockEnd
  0
BLOCK
  5
1767E
330
17674
100
AcDbEntity
  8
0
 48
50.0
100
AcDbBlockBegin
  2
*D20
 70
     1
 10
0.0
 20
0.0
 30
0.0
  3
*D20
  1

  0
LINE
  5
18756
330
17674
100
AcDbEntity
  8
寸法
 62
     0
 48
50.0
370
    -2
100
AcDbLine
 10
11123.29845316949
 20
9487.014558484338
 30
0.0
 11
11863.29845316948
 21
9487.014558484338
 31
0.0
  0
LINE
  5
18757
330
17674
100
AcDbEntity
  8
寸法
 62
     0
 48
50.0
370
    -2
100
AcDbLine
 10
11123.29845316947
 20
8227.014558484318
 30
0.0
 11
11863.29845316948
 21
8227.014558484318
 31
0.0
  0
LINE
  5
18758
330
17674
100
AcDbEntity
  8
寸法
 62
     0
 48
50.0
370
    -2
100
AcDbLine
 10
11803.29845316948
 20
9487.014558484338
 30
0.0
 11
11803.29845316948
 21
8227.014558484318
 31
0.0
  0
INSERT
  5
18759
330
17674
100
AcDbEntity
  8
寸法
 62
     0
 48
50.0
370
    -2
100
AcDbBlockReference
  2
_DOTSMALL
 10
11803.29845316948
 20
9487.014558484338
 30
0.0
 41
100.0
 42
100.0
 43
100.0
 50
90.0
  0
INSERT
  5
1875A
330
17674
100
AcDbEntity
  8
寸法
 62
     0
 48
50.0
370
    -2
100
AcDbBlockReference
  2
_DOTSMALL
 10
11803.29845316948
 20
8227.014558484318
 30
0.0
 41
100.0
 42
100.0
 43
100.0
 50
270.0
  0
MTEXT
  5
1875B
330
17674
100
AcDbEntity
  8
寸法
 62
     7
 48
50.0
100
AcDbMText
 10
11703.28664214586
 20
8857.01455848433
 30
0.0
 40
120.0
 41
0.0
 71
     5
 72
     1
  1
\A1;3X420=1260
  7
STYLE1
 11
0.0000000000000001
 21
1.0
 31
0.0
 73
     1
 44
1.0
1001
ACAD
1000
MTEXTBEGIN
1070
    73
1070
     1
1070
    44
1040
1.0
1070
    74
1070
     0
1000
MTEXTEND
  0
POINT
  5
1875C
330
17674
100
AcDbEntity
  8
DEFPOINTS
 62
     0
 48
50.0
100
AcDbPoint
 10
11103.29845316949
 20
9487.014558484338
 30
0.0
  0
POINT
  5
1875D
330
17674
100
AcDbEntity
  8
DEFPOINTS
 62
     0
 48
50.0
100
AcDbPoint
 10
11103.29845316947
 20
8227.014558484318
 30
0.0
  0
POINT
  5
1875E
330
17674
100
AcDbEntity
  8
DEFPOINTS
 62
     0
 48
50.0
100
AcDbPoint
 10
11803.29845316948
 20
8227.014558484318
 30
0.0
  0
ENDBLK
  5
1767F
330
17674
100
AcDbEntity
  8
0
 48
50.0
100
AcDbBlockEnd
  0
BLOCK
  5
1768A
330
17680
100
AcDbEntity
  8
0
 48
50.0
100
AcDbBlockBegin
  2
*D21
 70
     1
 10
0.0
 20
0.0
 30
0.0
  3
*D21
  1

  0
LINE
  5
1874D
330
17680
100
AcDbEntity
  8
寸法
 62
     0
 48
50.0
370
    -2
100
AcDbLine
 10
11123.29845316949
 20
9542.014558484334
 30
0.0
 11
12163.29845316949
 21
9542.014558484334
 31
0.0
  0
LINE
  5
1874E
330
17680
100
AcDbEntity
  8
寸法
 62
     0
 48
50.0
370
    -2
100
AcDbLine
 10
11123.29845316947
 20
8172.014558484324
 30
0.0
 11
12163.29845316949
 21
8172.014558484324
 31
0.0
  0
LINE
  5
1874F
330
17680
100
AcDbEntity
  8
寸法
 62
     0
 48
50.0
370
    -2
100
AcDbLine
 10
12103.29845316949
 20
9542.014558484334
 30
0.0
 11
12103.29845316949
 21
8172.014558484324
 31
0.0
  0
INSERT
  5
18750
330
17680
100
AcDbEntity
  8
寸法
 62
     0
 48
50.0
370
    -2
100
AcDbBlockReference
  2
_DOTSMALL
 10
12103.29845316949
 20
9542.014558484334
 30
0.0
 41
100.0
 42
100.0
 43
100.0
 50
90.0
  0
INSERT
  5
18751
330
17680
100
AcDbEntity
  8
寸法
 62
     0
 48
50.0
370
    -2
100
AcDbBlockReference
  2
_DOTSMALL
 10
12103.29845316949
 20
8172.014558484324
 30
0.0
 41
100.0
 42
100.0
 43
100.0
 50
270.0
  0
MTEXT
  5
18752
330
17680
100
AcDbEntity
  8
寸法
 62
     7
 48
50.0
100
AcDbMText
 10
12003.29845316949
 20
8857.01455848433
 30
0.0
 40
120.0
 41
0.0
 71
     5
 72
     1
  1
\A1;1370
  7
STYLE1
 11
0.0000000000000001
 21
1.0
 31
0.0
 73
     1
 44
1.0
1001
ACAD
1000
MTEXTBEGIN
1070
    73
1070
     1
1070
    44
1040
1.0
1070
    74
1070
     0
1000
MTEXTEND
  0
POINT
  5
18753
330
17680
100
AcDbEntity
  8
DEFPOINTS
 62
     0
 48
50.0
100
AcDbPoint
 10
11103.29845316949
 20
9542.014558484334
 30
0.0
  0
POINT
  5
18754
330
17680
100
AcDbEntity
  8
DEFPOINTS
 62
     0
 48
50.0
100
AcDbPoint
 10
11103.29845316947
 20
8172.014558484324
 30
0.0
  0
POINT
  5
18755
330
17680
100
AcDbEntity
  8
DEFPOINTS
 62
     0
 48
50.0
100
AcDbPoint
 10
12103.29845316949
 20
8172.014558484324
 30
0.0
  0
ENDBLK
  5
1768B
330
17680
100
AcDbEntity
  8
0
 48
50.0
100
AcDbBlockEnd
  0
BLOCK
  5
17696
330
1768C
100
AcDbEntity
  8
0
 48
50.0
100
AcDbBlockBegin
  2
*D22
 70
     1
 10
0.0
 20
0.0
 30
0.0
  3
*D22
  1

  0
LINE
  5
18744
330
1768C
100
AcDbEntity
  8
寸法
 62
     0
 48
50.0
370
    -2
100
AcDbLine
 10
9795.439469320871
 20
9042.014558484344
 30
0.0
 11
9698.987569787609
 21
8682.051168939688
 31
0.0
  0
LINE
  5
18745
330
1768C
100
AcDbEntity
  8
寸法
 62
     0
 48
50.0
370
    -2
100
AcDbLine
 10
11068.43946932088
 20
9042.014558484337
 30
0.0
 11
10971.98756978762
 21
8682.051168939688
 31
0.0
  0
LINE
  5
18746
330
1768C
100
AcDbEntity
  8
寸法
 62
     0
 48
50.0
370
    -2
100
AcDbLine
 10
9715.064521333477
 20
8742.051168939688
 30
0.0
 11
10988.06452133349
 21
8742.051168939688
 31
0.0
  0
INSERT
  5
18747
330
1768C
100
AcDbEntity
  8
寸法
 62
     0
 48
50.0
370
    -2
100
AcDbBlockReference
  2
_DOTSMALL
 10
9715.064521333477
 20
8742.051168939688
 30
0.0
 41
100.0
 42
100.0
 43
100.0
 50
180.0
  0
INSERT
  5
18748
330
1768C
100
AcDbEntity
  8
寸法
 62
     0
 48
50.0
370
    -2
100
AcDbBlockReference
  2
_DOTSMALL
 10
10988.06452133349
 20
8742.051168939688
 30
0.0
 41
100.0
 42
100.0
 43
100.0
  0
MTEXT
  5
18749
330
1768C
100
AcDbEntity
  8
寸法
 62
     7
 48
50.0
100
AcDbMText
 10
10421.1863604835
 20
8842.06297996331
 30
0.0
 40
120.0
 41
0.0
 71
     5
 72
     1
  1
\A1;1273
  7
STYLE1
 73
     1
 44
1.0
1001
ACAD
1000
MTEXTBEGIN
1070
    73
1070
     1
1070
    44
1040
1.0
1070
    74
1070
     0
1000
MTEXTEND
  0
POINT
  5
1874A
330
1768C
100
AcDbEntity
  8
DEFPOINTS
 62
     0
 48
50.0
100
AcDbPoint
 10
9800.798453169493
 20
9062.014558484346
 30
0.0
  0
POINT
  5
1874B
330
1768C
100
AcDbEntity
  8
DEFPOINTS
 62
     0
 48
50.0
100
AcDbPoint
 10
11073.7984531695
 20
9062.014558484337
 30
0.0
  0
POINT
  5
1874C
330
1768C
100
AcDbEntity
  8
DEFPOINTS
 62
     0
 48
50.0
100
AcDbPoint
 10
10988.06452133349
 20
8742.051168939688
 30
0.0
  0
ENDBLK
  5
17697
330
1768C
100
AcDbEntity
  8
0
 48
50.0
100
AcDbBlockEnd
  0
BLOCK
  5
176AE
330
176A4
100
AcDbEntity
  8
0
 48
50.0
100
AcDbBlockBegin
  2
*D23
 70
     1
 10
0.0
 20
0.0
 30
0.0
  3
*D23
  1

  0
LINE
  5
1873B
330
176A4
100
AcDbEntity
  8
寸法
 62
     0
 48
50.0
370
    -2
100
AcDbLine
 10
8528.298453169494
 20
9562.014558484239
 30
0.0
 11
8528.298453169494
 21
9902.014558484239
 31
0.0
  0
LINE
  5
1873C
330
176A4
100
AcDbEntity
  8
寸法
 62
     0
 48
50.0
370
    -2
100
AcDbLine
 10
11048.29845316949
 20
9562.014558484333
 30
0.0
 11
11048.29845316949
 21
9902.014558484239
 31
0.0
  0
LINE
  5
1873D
330
176A4
100
AcDbEntity
  8
寸法
 62
     0
 48
50.0
370
    -2
100
AcDbLine
 10
8528.298453169494
 20
9842.01455848424
 30
0.0
 11
11048.29845316949
 21
9842.01455848424
 31
0.0
  0
INSERT
  5
1873E
330
176A4
100
AcDbEntity
  8
寸法
 62
     0
 48
50.0
370
    -2
100
AcDbBlockReference
  2
_DOTSMALL
 10
8528.298453169494
 20
9842.01455848424
 30
0.0
 41
100.0
 42
100.0
 43
100.0
 50
180.0
  0
INSERT
  5
1873F
330
176A4
100
AcDbEntity
  8
寸法
 62
     0
 48
50.0
370
    -2
100
AcDbBlockReference
  2
_DOTSMALL
 10
11048.29845316949
 20
9842.01455848424
 30
0.0
 41
100.0
 42
100.0
 43
100.0
  0
MTEXT
  5
18740
330
176A4
100
AcDbEntity
  8
寸法
 62
     7
 48
50.0
100
AcDbMText
 10
9788.298453169488
 20
9942.026369507862
 30
0.0
 40
120.0
 41
0.0
 71
     5
 72
     1
  1
\A1;6X420=2520
  7
STYLE1
 73
     1
 44
1.0
1001
ACAD
1000
MTEXTBEGIN
1070
    73
1070
     1
1070
    44
1040
1.0
1070
    74
1070
     0
1000
MTEXTEND
  0
POINT
  5
18741
330
176A4
100
AcDbEntity
  8
DEFPOINTS
 62
     0
 48
50.0
100
AcDbPoint
 10
8528.298453169494
 20
9542.01455848424
 30
0.0
  0
POINT
  5
18742
330
176A4
100
AcDbEntity
  8
DEFPOINTS
 62
     0
 48
50.0
100
AcDbPoint
 10
11048.29845316949
 20
9542.014558484334
 30
0.0
  0
POINT
  5
18743
330
176A4
100
AcDbEntity
  8
DEFPOINTS
 62
     0
 48
50.0
100
AcDbPoint
 10
11048.29845316949
 20
9842.01455848424
 30
0.0
  0
ENDBLK
  5
176AF
330
176A4
100
AcDbEntity
  8
0
 48
50.0
100
AcDbBlockEnd
  0
BLOCK
  5
176BC
330
176B0
100
AcDbEntity
  8
0
 48
50.0
100
AcDbBlockBegin
  2
*D24
 70
     1
 10
0.0
 20
0.0
 30
0.0
  3
*D24
  1

  0
LINE
  5
18730
330
176B0
100
AcDbEntity
  8
寸法
 62
     0
 48
50.0
370
    -2
100
AcDbLine
 10
11048.29845316949
 20
9562.014558484333
 30
0.0
 11
11048.29845316949
 21
9902.014558484239
 31
0.0
  0
LINE
  5
18731
330
176B0
100
AcDbEntity
  8
寸法
 62
     0
 48
50.0
370
    -2
100
AcDbLine
 10
11103.29845316949
 20
9562.014558484333
 30
0.0
 11
11103.29845316949
 21
9902.014558484239
 31
0.0
  0
LINE
  5
18732
330
176B0
100
AcDbEntity
  8
寸法
 62
     0
 48
50.0
370
    -2
100
AcDbLine
 10
11048.29845316949
 20
9842.01455848424
 30
0.0
 11
10948.29845316949
 21
9842.01455848424
 31
0.0
  0
LINE
  5
18733
330
176B0
100
AcDbEntity
  8
寸法
 62
     0
 48
50.0
370
    -2
100
AcDbLine
 10
11103.29845316949
 20
9842.01455848424
 30
0.0
 11
11520.26901591797
 21
9842.01455848424
 31
0.0
  0
LINE
  5
18734
330
176B0
100
AcDbEntity
  8
寸法
 62
     0
 48
50.0
370
    -2
100
AcDbLine
 10
11048.29845316949
 20
9842.01455848424
 30
0.0
 11
11103.29845316949
 21
9842.01455848424
 31
0.0
  0
INSERT
  5
18735
330
176B0
100
AcDbEntity
  8
寸法
 62
     0
 48
50.0
370
    -2
100
AcDbBlockReference
  2
_DOTSMALL
 10
11048.29845316949
 20
9842.01455848424
 30
0.0
 41
100.0
 42
100.0
 43
100.0
  0
INSERT
  5
18736
330
176B0
100
AcDbEntity
  8
寸法
 62
     0
 48
50.0
370
    -2
100
AcDbBlockReference
  2
_DOTSMALL
 10
11103.29845316949
 20
9842.01455848424
 30
0.0
 41
100.0
 42
100.0
 43
100.0
 50
180.0
  0
MTEXT
  5
18737
330
176B0
100
AcDbEntity
  8
寸法
 62
     7
 48
50.0
100
AcDbMText
 10
11411.78373454373
 20
9942.01455848424
 30
0.0
 40
120.0
 41
0.0
 71
     5
 72
     1
  1
\A1;55
  7
STYLE1
 73
     1
 44
1.0
1001
ACAD
1000
MTEXTBEGIN
1070
    73
1070
     1
1070
    44
1040
1.0
1070
    74
1070
     0
1000
MTEXTEND
  0
POINT
  5
18738
330
176B0
100
AcDbEntity
  8
DEFPOINTS
 62
     0
 48
50.0
100
AcDbPoint
 10
11048.29845316949
 20
9542.014558484334
 30
0.0
  0
POINT
  5
18739
330
176B0
100
AcDbEntity
  8
DEFPOINTS
 62
     0
 48
50.0
100
AcDbPoint
 10
11103.29845316949
 20
9542.014558484334
 30
0.0
  0
POINT
  5
1873A
330
176B0
100
AcDbEntity
  8
DEFPOINTS
 62
     0
 48
50.0
100
AcDbPoint
 10
11103.29845316949
 20
9842.01455848424
 30
0.0
  0
ENDBLK
  5
176BD
330
176B0
100
AcDbEntity
  8
0
 48
50.0
100
AcDbBlockEnd
  0
BLOCK
  5
176C8
330
176BE
100
AcDbEntity
  8
0
 48
50.0
100
AcDbBlockBegin
  2
*D25
 70
     1
 10
0.0
 20
0.0
 30
0.0
  3
*D25
  1

  0
LINE
  5
18727
330
176BE
100
AcDbEntity
  8
寸法
 62
     0
 48
50.0
370
    -2
100
AcDbLine
 10
8495.439469320801
 20
9042.014558484288
 30
0.0
 11
8398.987569787555
 21
8682.051168939688
 31
0.0
  0
LINE
  5
18728
330
176BE
100
AcDbEntity
  8
寸法
 62
     0
 48
50.0
370
    -2
100
AcDbLine
 10
9768.43946932087
 20
9042.014558484281
 30
0.0
 11
9671.987569787628
 21
8682.051168939688
 31
0.0
  0
LINE
  5
18729
330
176BE
100
AcDbEntity
  8
寸法
 62
     0
 48
50.0
370
    -2
100
AcDbLine
 10
8415.064521333423
 20
8742.051168939688
 30
0.0
 11
9688.064521333494
 21
8742.051168939688
 31
0.0
  0
INSERT
  5
1872A
330
176BE
100
AcDbEntity
  8
寸法
 62
     0
 48
50.0
370
    -2
100
AcDbBlockReference
  2
_DOTSMALL
 10
8415.064521333423
 20
8742.051168939688
 30
0.0
 41
100.0
 42
100.0
 43
100.0
 50
180.0
  0
INSERT
  5
1872B
330
176BE
100
AcDbEntity
  8
寸法
 62
     0
 48
50.0
370
    -2
100
AcDbBlockReference
  2
_DOTSMALL
 10
9688.064521333494
 20
8742.051168939688
 30
0.0
 41
100.0
 42
100.0
 43
100.0
  0
MTEXT
  5
1872C
330
176BE
100
AcDbEntity
  8
寸法
 62
     7
 48
50.0
100
AcDbMText
 10
9051.564521333459
 20
8842.06297996331
 30
0.0
 40
120.0
 41
0.0
 71
     5
 72
     1
  1
\A1;1273
  7
STYLE1
 73
     1
 44
1.0
1001
ACAD
1000
MTEXTBEGIN
1070
    73
1070
     1
1070
    44
1040
1.0
1070
    74
1070
     0
1000
MTEXTEND
  0
POINT
  5
1872D
330
176BE
100
AcDbEntity
  8
DEFPOINTS
 62
     0
 48
50.0
100
AcDbPoint
 10
8500.798453169423
 20
9062.014558484287
 30
0.0
  0
POINT
  5
1872E
330
176BE
100
AcDbEntity
  8
DEFPOINTS
 62
     0
 48
50.0
100
AcDbPoint
 10
9773.798453169494
 20
9062.01455848428
 30
0.0
  0
POINT
  5
1872F
330
176BE
100
AcDbEntity
  8
DEFPOINTS
 62
     0
 48
50.0
100
AcDbPoint
 10
9688.064521333494
 20
8742.051168939688
 30
0.0
  0
ENDBLK
  5
176C9
330
176BE
100
AcDbEntity
  8
0
 48
50.0
100
AcDbBlockEnd
  0
BLOCK
  5
176D6
330
176CA
100
AcDbEntity
  8
0
 48
50.0
100
AcDbBlockBegin
  2
*D26
 70
     1
 10
0.0
 20
0.0
 30
0.0
  3
*D26
  1

  0
LINE
  5
1871C
330
176CA
100
AcDbEntity
  8
寸法
 62
     0
 48
50.0
370
    -2
100
AcDbLine
 10
8473.298453169457
 20
9562.014558484239
 30
0.0
 11
8473.298453169457
 21
9902.014558484239
 31
0.0
  0
LINE
  5
1871D
330
176CA
100
AcDbEntity
  8
寸法
 62
     0
 48
50.0
370
    -2
100
AcDbLine
 10
8528.298453169494
 20
9562.014558484239
 30
0.0
 11
8528.298453169494
 21
9902.014558484239
 31
0.0
  0
LINE
  5
1871E
330
176CA
100
AcDbEntity
  8
寸法
 62
     0
 48
50.0
370
    -2
100
AcDbLine
 10
8528.298453169494
 20
9842.01455848424
 30
0.0
 11
8628.298453169493
 21
9842.01455848424
 31
0.0
  0
LINE
  5
1871F
330
176CA
100
AcDbEntity
  8
寸法
 62
     0
 48
50.0
370
    -2
100
AcDbLine
 10
8473.298453169457
 20
9842.01455848424
 30
0.0
 11
8056.327890420979
 21
9842.01455848424
 31
0.0
  0
LINE
  5
18720
330
176CA
100
AcDbEntity
  8
寸法
 62
     0
 48
50.0
370
    -2
100
AcDbLine
 10
8528.298453169494
 20
9842.01455848424
 30
0.0
 11
8473.298453169457
 21
9842.01455848424
 31
0.0
  0
INSERT
  5
18721
330
176CA
100
AcDbEntity
  8
寸法
 62
     0
 48
50.0
370
    -2
100
AcDbBlockReference
  2
_DOTSMALL
 10
8528.298453169494
 20
9842.01455848424
 30
0.0
 41
100.0
 42
100.0
 43
100.0
 50
180.0
  0
INSERT
  5
18722
330
176CA
100
AcDbEntity
  8
寸法
 62
     0
 48
50.0
370
    -2
100
AcDbBlockReference
  2
_DOTSMALL
 10
8473.298453169457
 20
9842.01455848424
 30
0.0
 41
100.0
 42
100.0
 43
100.0
  0
MTEXT
  5
18723
330
176CA
100
AcDbEntity
  8
寸法
 62
     7
 48
50.0
100
AcDbMText
 10
8164.813171795218
 20
9942.01455848424
 30
0.0
 40
120.0
 41
0.0
 71
     5
 72
     1
  1
\A1;55
  7
STYLE1
 73
     1
 44
1.0
1001
ACAD
1000
MTEXTBEGIN
1070
    73
1070
     1
1070
    44
1040
1.0
1070
    74
1070
     0
1000
MTEXTEND
  0
POINT
  5
18724
330
176CA
100
AcDbEntity
  8
DEFPOINTS
 62
     0
 48
50.0
100
AcDbPoint
 10
8473.298453169457
 20
9542.01455848424
 30
0.0
  0
POINT
  5
18725
330
176CA
100
AcDbEntity
  8
DEFPOINTS
 62
     0
 48
50.0
100
AcDbPoint
 10
8528.298453169494
 20
9542.01455848424
 30
0.0
  0
POINT
  5
18726
330
176CA
100
AcDbEntity
  8
DEFPOINTS
 62
     0
 48
50.0
100
AcDbPoint
 10
8528.298453169494
 20
9842.01455848424
 30
0.0
  0
ENDBLK
  5
176D7
330
176CA
100
AcDbEntity
  8
0
 48
50.0
100
AcDbBlockEnd
  0
BLOCK
  5
176E2
330
176D8
100
AcDbEntity
  8
0
 48
50.0
100
AcDbBlockBegin
  2
*D27
 70
     1
 10
0.0
 20
0.0
 30
0.0
  3
*D27
  1

  0
LINE
  5
17FA0
330
176D8
100
AcDbEntity
  8
寸法
 62
     0
 48
50.0
370
    -2
100
AcDbLine
 10
8573.298453169483
 20
2593.510512052828
 30
0.0
 11
8573.298453169483
 21
2267.46318275245
 31
0.0
  0
LINE
  5
17FA1
330
176D8
100
AcDbEntity
  8
寸法
 62
     0
 48
50.0
370
    -2
100
AcDbLine
 10
8373.298453169482
 20
2593.510512052828
 30
0.0
 11
8373.298453169482
 21
2267.46318275245
 31
0.0
  0
LINE
  5
17FA2
330
176D8
100
AcDbEntity
  8
寸法
 62
     0
 48
50.0
370
    -2
100
AcDbLine
 10
8573.298453169483
 20
2327.46318275245
 30
0.0
 11
8373.298453169482
 21
2327.46318275245
 31
0.0
  0
INSERT
  5
17FA3
330
176D8
100
AcDbEntity
  8
寸法
 62
     0
 48
50.0
370
    -2
100
AcDbBlockReference
  2
_DOTSMALL
 10
8573.298453169483
 20
2327.46318275245
 30
0.0
 41
100.0
 42
100.0
 43
100.0
  0
INSERT
  5
17FA4
330
176D8
100
AcDbEntity
  8
寸法
 62
     0
 48
50.0
370
    -2
100
AcDbBlockReference
  2
_DOTSMALL
 10
8373.298453169482
 20
2327.46318275245
 30
0.0
 41
100.0
 42
100.0
 43
100.0
 50
180.0
  0
MTEXT
  5
17FA5
330
176D8
100
AcDbEntity
  8
寸法
 62
     7
 48
50.0
100
AcDbMText
 10
8473.298453169482
 20
2427.474993776072
 30
0.0
 40
120.0
 41
0.0
 71
     5
 72
     1
  1
\A1;200
  7
STYLE1
 73
     1
 44
1.0
1001
ACAD
1000
MTEXTBEGIN
1070
    73
1070
     1
1070
    44
1040
1.0
1070
    74
1070
     0
1000
MTEXTEND
  0
POINT
  5
17FA6
330
176D8
100
AcDbEntity
  8
DEFPOINTS
 62
     0
 48
50.0
100
AcDbPoint
 10
8573.298453169483
 20
2613.510512052828
 30
0.0
  0
POINT
  5
17FA7
330
176D8
100
AcDbEntity
  8
DEFPOINTS
 62
     0
 48
50.0
100
AcDbPoint
 10
8373.298453169482
 20
2613.510512052828
 30
0.0
  0
POINT
  5
17FA8
330
176D8
100
AcDbEntity
  8
DEFPOINTS
 62
     0
 48
50.0
100
AcDbPoint
 10
8373.298453169482
 20
2327.46318275245
 30
0.0
  0
ENDBLK
  5
176E3
330
176D8
100
AcDbEntity
  8
0
 48
50.0
100
AcDbBlockEnd
  0
BLOCK
  5
176EE
330
176E4
100
AcDbEntity
  8
0
 48
50.0
100
AcDbBlockBegin
  2
*D28
 70
     1
 10
0.0
 20
0.0
 30
0.0
  3
*D28
  1

  0
LINE
  5
17F97
330
176E4
100
AcDbEntity
  8
寸法
 62
     0
 48
50.0
370
    -2
100
AcDbLine
 10
8901.298453169484
 20
4996.510512052827
 30
0.0
 11
8077.227074217233
 21
4996.510512052827
 31
0.0
  0
LINE
  5
17F98
330
176E4
100
AcDbEntity
  8
寸法
 62
     0
 48
50.0
370
    -2
100
AcDbLine
 10
8901.298453169484
 20
2971.510512052828
 30
0.0
 11
8077.227074217233
 21
2971.510512052828
 31
0.0
  0
LINE
  5
17F99
330
176E4
100
AcDbEntity
  8
寸法
 62
     0
 48
50.0
370
    -2
100
AcDbLine
 10
8137.227074217234
 20
4996.510512052827
 30
0.0
 11
8137.227074217234
 21
2971.510512052828
 31
0.0
  0
INSERT
  5
17F9A
330
176E4
100
AcDbEntity
  8
寸法
 62
     0
 48
50.0
370
    -2
100
AcDbBlockReference
  2
_DOTSMALL
 10
8137.227074217234
 20
4996.510512052827
 30
0.0
 41
100.0
 42
100.0
 43
100.0
 50
90.0
  0
INSERT
  5
17F9B
330
176E4
100
AcDbEntity
  8
寸法
 62
     0
 48
50.0
370
    -2
100
AcDbBlockReference
  2
_DOTSMALL
 10
8137.227074217234
 20
2971.510512052828
 30
0.0
 41
100.0
 42
100.0
 43
100.0
 50
270.0
  0
MTEXT
  5
17F9C
330
176E4
100
AcDbEntity
  8
寸法
 62
     7
 48
50.0
100
AcDbMText
 10
8037.215263193612
 20
3956.012833429369
 30
0.0
 40
120.0
 41
0.0
 71
     5
 72
     1
  1
\A1;有効開口部高サ2025
  7
STYLE1
 11
0.0000000000000001
 21
1.0
 31
0.0
 73
     1
 44
1.0
1001
ACAD
1000
MTEXTBEGIN
1070
    73
1070
     1
1070
    44
1040
1.0
1070
    74
1070
     0
1000
MTEXTEND
  0
POINT
  5
17F9D
330
176E4
100
AcDbEntity
  8
DEFPOINTS
 62
     0
 48
50.0
100
AcDbPoint
 10
8921.298453169484
 20
4996.510512052827
 30
0.0
  0
POINT
  5
17F9E
330
176E4
100
AcDbEntity
  8
DEFPOINTS
 62
     0
 48
50.0
100
AcDbPoint
 10
8921.298453169484
 20
2971.510512052828
 30
0.0
  0
POINT
  5
17F9F
330
176E4
100
AcDbEntity
  8
DEFPOINTS
 62
     0
 48
50.0
100
AcDbPoint
 10
8137.227074217234
 20
2971.510512052828
 30
0.0
  0
ENDBLK
  5
176EF
330
176E4
100
AcDbEntity
  8
0
 48
50.0
100
AcDbBlockEnd
  0
BLOCK
  5
17934
330
17933
100
AcDbEntity
  8
0
 48
50.0
100
AcDbBlockBegin
  2
_DOT
 70
     0
 10
0.0
 20
0.0
 30
0.0
  3
_DOT
  1

  0
LWPOLYLINE
  5
17935
330
17933
100
AcDbEntity
  8
0
  6
ByBlock
 62
     0
 48
50.0
100
AcDbPolyline
 90
        2
 70
     1
 43
0.5
 10
-0.25
 20
0.0
 42
1.0
 10
0.25
 20
0.0
 42
1.0
  0
LINE
  5
17936
330
17933
100
AcDbEntity
  8
0
  6
ByBlock
 62
     0
 48
50.0
100
AcDbLine
 10
-0.5
 20
0.0
 30
0.0
 11
-1.0
 21
0.0
 31
0.0
  0
ENDBLK
  5
17937
330
17933
100
AcDbEntity
  8
0
 48
50.0
100
AcDbBlockEnd
  0
BLOCK
  5
18272
330
18268
100
AcDbEntity
  8
0
 48
50.0
100
AcDbBlockBegin
  2
*D30
 70
     1
 10
0.0
 20
0.0
 30
0.0
  3
*D30
  1

  0
LINE
  5
18713
330
18268
100
AcDbEntity
  8
寸法
 62
     0
 48
50.0
370
    -2
100
AcDbLine
 10
8960.29845316946
 20
8075.014558484197
 30
0.0
 11
8960.29845316946
 21
7400.354728161393
 31
0.0
  0
LINE
  5
18714
330
18268
100
AcDbEntity
  8
寸法
 62
     0
 48
50.0
370
    -2
100
AcDbLine
 10
10226.29845316946
 20
8075.014558484197
 30
0.0
 11
10226.29845316946
 21
7400.354728161393
 31
0.0
  0
LINE
  5
18715
330
18268
100
AcDbEntity
  8
寸法
 62
     0
 48
50.0
370
    -2
100
AcDbLine
 10
8980.29845316946
 20
7440.354728161394
 30
0.0
 11
10206.29845316946
 21
7440.354728161394
 31
0.0
  0
INSERT
  5
18716
330
18268
100
AcDbEntity
  8
寸法
 62
     0
 48
50.0
370
    -2
100
AcDbBlockReference
  2
_DOT
 10
8960.29845316946
 20
7440.354728161394
 30
0.0
 41
20.0
 42
20.0
 43
20.0
 50
180.0
  0
INSERT
  5
18717
330
18268
100
AcDbEntity
  8
寸法
 62
     0
 48
50.0
370
    -2
100
AcDbBlockReference
  2
_DOT
 10
10226.29845316946
 20
7440.354728161394
 30
0.0
 41
20.0
 42
20.0
 43
20.0
  0
MTEXT
  5
18718
330
18268
100
AcDbEntity
  8
寸法
 62
     7
 48
50.0
100
AcDbMText
 10
9594.918489298697
 20
7632.366539185015
 30
0.0
 40
120.0
 41
0.0
 71
     5
 72
     1
  1
\A1;有効開口部間口\P1266
  7
STYLE1
 73
     1
 44
1.0
1001
ACAD
1000
MTEXTBEGIN
1070
    73
1070
     1
1070
    44
1040
1.0
1070
    74
1070
     0
1000
MTEXTEND
  0
POINT
  5
18719
330
18268
100
AcDbEntity
  8
DEFPOINTS
 62
     0
 48
50.0
100
AcDbPoint
 10
8960.29845316946
 20
8095.014558484196
 30
0.0
  0
POINT
  5
1871A
330
18268
100
AcDbEntity
  8
DEFPOINTS
 62
     0
 48
50.0
100
AcDbPoint
 10
10226.29845316946
 20
8095.014558484196
 30
0.0
  0
POINT
  5
1871B
330
18268
100
AcDbEntity
  8
DEFPOINTS
 62
     0
 48
50.0
100
AcDbPoint
 10
10226.29845316946
 20
7440.354728161394
 30
0.0
  0
ENDBLK
  5
18273
330
18268
100
AcDbEntity
  8
0
 48
50.0
100
AcDbBlockEnd
  0
BLOCK
  5
185A9
330
1859F
100
AcDbEntity
  8
0
 48
50.0
100
AcDbBlockBegin
  2
*D31
 70
     1
 10
0.0
 20
0.0
 30
0.0
  3
*D31
  1

  0
LINE
  5
1870A
330
1859F
100
AcDbEntity
  8
寸法
 62
     0
 48
50.0
370
    -2
100
AcDbLine
 10
8921.298453169461
 20
8075.014558484195
 30
0.0
 11
8921.298453169461
 21
7097.159189094869
 31
0.0
  0
LINE
  5
1870B
330
1859F
100
AcDbEntity
  8
寸法
 62
     0
 48
50.0
370
    -2
100
AcDbLine
 10
11075.29845316946
 20
8075.014558484195
 30
0.0
 11
11075.29845316946
 21
7097.159189094869
 31
0.0
  0
LINE
  5
1870C
330
1859F
100
AcDbEntity
  8
寸法
 62
     0
 48
50.0
370
    -2
100
AcDbLine
 10
8921.298453169461
 20
7157.159189094868
 30
0.0
 11
11075.29845316946
 21
7157.159189094868
 31
0.0
  0
INSERT
  5
1870D
330
1859F
100
AcDbEntity
  8
寸法
 62
     0
 48
50.0
370
    -2
100
AcDbBlockReference
  2
_DOTSMALL
 10
8921.298453169461
 20
7157.159189094868
 30
0.0
 41
100.0
 42
100.0
 43
100.0
 50
180.0
  0
INSERT
  5
1870E
330
1859F
100
AcDbEntity
  8
寸法
 62
     0
 48
50.0
370
    -2
100
AcDbBlockReference
  2
_DOTSMALL
 10
11075.29845316946
 20
7157.159189094868
 30
0.0
 41
100.0
 42
100.0
 43
100.0
  0
MTEXT
  5
1870F
330
1859F
100
AcDbEntity
  8
寸法
 62
     7
 48
50.0
100
AcDbMText
 10
10000.0984244399
 20
7257.171000118489
 30
0.0
 40
120.0
 41
0.0
 71
     5
 72
     1
  1
\A1;2154
  7
STYLE1
 73
     1
 44
1.0
1001
ACAD
1000
MTEXTBEGIN
1070
    73
1070
     1
1070
    44
1040
1.0
1070
    74
1070
     0
1000
MTEXTEND
  0
POINT
  5
18710
330
1859F
100
AcDbEntity
  8
DEFPOINTS
 62
     0
 48
50.0
100
AcDbPoint
 10
8921.298453169461
 20
8095.014558484193
 30
0.0
  0
POINT
  5
18711
330
1859F
100
AcDbEntity
  8
DEFPOINTS
 62
     0
 48
50.0
100
AcDbPoint
 10
11075.29845316946
 20
8095.014558484193
 30
0.0
  0
POINT
  5
18712
330
1859F
100
AcDbEntity
  8
DEFPOINTS
 62
     0
 48
50.0
100
AcDbPoint
 10
11075.29845316946
 20
7157.159189094868
 30
0.0
  0
ENDBLK
  5
185AA
330
1859F
100
AcDbEntity
  8
0
 48
50.0
100
AcDbBlockEnd
  0
BLOCK
  5
185B7
330
185AB
100
AcDbEntity
  8
0
 48
50.0
100
AcDbBlockBegin
  2
*D32
 70
     1
 10
0.0
 20
0.0
 30
0.0
  3
*D32
  1

  0
LINE
  5
186FF
330
185AB
100
AcDbEntity
  8
寸法
 62
     0
 48
50.0
370
    -2
100
AcDbLine
 10
8453.298453169486
 20
8172.014558484191
 30
0.0
 11
8138.687207542769
 21
8172.014558484191
 31
0.0
  0
LINE
  5
18700
330
185AB
100
AcDbEntity
  8
寸法
 62
     0
 48
50.0
370
    -2
100
AcDbLine
 10
8901.298453169459
 20
8097.014558484191
 30
0.0
 11
8138.687207542769
 21
8097.014558484191
 31
0.0
  0
LINE
  5
18701
330
185AB
100
AcDbEntity
  8
寸法
 62
     0
 48
50.0
370
    -2
100
AcDbLine
 10
8178.687207542768
 20
8192.014558484192
 30
0.0
 11
8178.687207542768
 21
8212.014558484192
 31
0.0
  0
LINE
  5
18702
330
185AB
100
AcDbEntity
  8
寸法
 62
     0
 48
50.0
370
    -2
100
AcDbLine
 10
8178.687207542768
 20
8077.014558484192
 30
0.0
 11
8178.687207542768
 21
7856.043995735714
 31
0.0
  0
LINE
  5
18703
330
185AB
100
AcDbEntity
  8
寸法
 62
     0
 48
50.0
370
    -2
100
AcDbLine
 10
8178.687207542768
 20
8172.014558484191
 30
0.0
 11
8178.687207542768
 21
8097.014558484191
 31
0.0
  0
INSERT
  5
18704
330
185AB
100
AcDbEntity
  8
寸法
 62
     0
 48
50.0
370
    -2
100
AcDbBlockReference
  2
_DOT
 10
8178.687207542768
 20
8172.014558484191
 30
0.0
 41
20.0
 42
20.0
 43
20.0
 50
270.0
  0
INSERT
  5
18705
330
185AB
100
AcDbEntity
  8
寸法
 62
     0
 48
50.0
370
    -2
100
AcDbBlockReference
  2
_DOT
 10
8178.687207542768
 20
8097.014558484191
 30
0.0
 41
20.0
 42
20.0
 43
20.0
 50
90.0
  0
MTEXT
  5
18706
330
185AB
100
AcDbEntity
  8
寸法
 62
     7
 48
50.0
100
AcDbMText
 10
8086.687207542768
 20
7956.529277109954
 30
0.0
 40
120.0
 41
0.0
 71
     5
 72
     1
  1
\A1;75
  7
STYLE1
 11
0.0000000000000001
 21
1.0
 31
0.0
 73
     1
 44
1.0
1001
ACAD
1000
MTEXTBEGIN
1070
    73
1070
     1
1070
    44
1040
1.0
1070
    74
1070
     0
1000
MTEXTEND
  0
POINT
  5
18707
330
185AB
100
AcDbEntity
  8
DEFPOINTS
 62
     0
 48
50.0
100
AcDbPoint
 10
8473.298453169485
 20
8172.014558484191
 30
0.0
  0
POINT
  5
18708
330
185AB
100
AcDbEntity
  8
DEFPOINTS
 62
     0
 48
50.0
100
AcDbPoint
 10
8921.298453169461
 20
8097.014558484191
 30
0.0
  0
POINT
  5
18709
330
185AB
100
AcDbEntity
  8
DEFPOINTS
 62
     0
 48
50.0
100
AcDbPoint
 10
8178.687207542768
 20
8097.014558484191
 30
0.0
  0
ENDBLK
  5
185B8
330
185AB
100
AcDbEntity
  8
0
 48
50.0
100
AcDbBlockEnd
  0
BLOCK
  5
1861B
330
18611
100
AcDbEntity
  8
0
 48
50.0
100
AcDbBlockBegin
  2
*D33
 70
     1
 10
0.0
 20
0.0
 30
0.0
  3
*D33
  1

  0
LINE
  5
186F6
330
18611
100
AcDbEntity
  8
寸法
 62
     0
 48
50.0
370
    -2
100
AcDbLine
 10
8473.298453169485
 20
8152.014558484159
 30
0.0
 11
8473.298453169485
 21
6830.81760120319
 31
0.0
  0
LINE
  5
186F7
330
18611
100
AcDbEntity
  8
寸法
 62
     0
 48
50.0
370
    -2
100
AcDbLine
 10
11103.29845316947
 20
8152.014558484323
 30
0.0
 11
11103.29845316947
 21
6830.81760120319
 31
0.0
  0
LINE
  5
186F8
330
18611
100
AcDbEntity
  8
寸法
 62
     0
 48
50.0
370
    -2
100
AcDbLine
 10
8473.298453169485
 20
6890.81760120319
 30
0.0
 11
11103.29845316947
 21
6890.81760120319
 31
0.0
  0
INSERT
  5
186F9
330
18611
100
AcDbEntity
  8
寸法
 62
     0
 48
50.0
370
    -2
100
AcDbBlockReference
  2
_DOTSMALL
 10
8473.298453169485
 20
6890.81760120319
 30
0.0
 41
100.0
 42
100.0
 43
100.0
 50
180.0
  0
INSERT
  5
186FA
330
18611
100
AcDbEntity
  8
寸法
 62
     0
 48
50.0
370
    -2
100
AcDbBlockReference
  2
_DOTSMALL
 10
11103.29845316947
 20
6890.81760120319
 30
0.0
 41
100.0
 42
100.0
 43
100.0
  0
MTEXT
  5
186FB
330
18611
100
AcDbEntity
  8
寸法
 62
     7
 48
50.0
100
AcDbMText
 10
9772.737797872007
 20
6990.829412226812
 30
0.0
 40
120.0
 41
0.0
 71
     5
 72
     1
  1
\A1;2630
  7
STYLE1
 73
     1
 44
1.0
1001
ACAD
1000
MTEXTBEGIN
1070
    73
1070
     1
1070
    44
1040
1.0
1070
    74
1070
     0
1000
MTEXTEND
  0
POINT
  5
186FC
330
18611
100
AcDbEntity
  8
DEFPOINTS
 62
     0
 48
50.0
100
AcDbPoint
 10
8473.298453169485
 20
8172.014558484159
 30
0.0
  0
POINT
  5
186FD
330
18611
100
AcDbEntity
  8
DEFPOINTS
 62
     0
 48
50.0
100
AcDbPoint
 10
11103.29845316947
 20
8172.014558484324
 30
0.0
  0
POINT
  5
186FE
330
18611
100
AcDbEntity
  8
DEFPOINTS
 62
     0
 48
50.0
100
AcDbPoint
 10
11103.29845316947
 20
6890.81760120319
 30
0.0
  0
ENDBLK
  5
1861C
330
18611
100
AcDbEntity
  8
0
 48
50.0
100
AcDbBlockEnd
  0
ENDSEC
  0
SECTION
  2
ENTITIES
  0
LINE
  5
10B57
330
747D
100
AcDbEntity
  8
補助
  6
PHANTOM
 62
   230
 48
50.0
100
AcDbLine
 10
139.9999999999995
 20
11409.6
 30
0.0
 11
16307.2
 21
11409.6
 31
0.0
  0
LINE
  5
10B59
330
747D
100
AcDbEntity
  8
仕様書枠
  6
Continuous
 48
50.0
100
AcDbLine
 10
13107.2
 20
1200.0
 30
0.0
 11
13107.2
 21
-0.0000000000000729
 31
0.0
  0
LINE
  5
10B5C
330
747D
100
AcDbEntity
  8
仕様書枠
 48
50.0
100
AcDbLine
 10
16307.2
 20
1200.0
 30
0.0
 11
16307.2
 21
-0.0000000000000909
 31
0.0
  0
LINE
  5
10B5D
330
747D
100
AcDbEntity
  8
仕様書枠
 48
50.0
100
AcDbLine
 10
140.0
 20
0.0
 30
0.0
 11
16307.2
 21
-0.0000000000000909
 31
0.0
  0
LINE
  5
10B5E
330
747D
100
AcDbEntity
  8
補助
  6
PHANTOM
 62
   230
 48
50.0
100
AcDbLine
 10
16307.2
 20
11409.6
 30
0.0
 11
16307.2
 21
1200.0
 31
0.0
  0
LINE
  5
10B6C
330
747D
100
AcDbEntity
  8
仕様書枠
 48
50.0
100
AcDbLine
 10
13107.2
 20
1200.0
 30
0.0
 11
16307.2
 21
1200.0
 31
0.0
  0
LINE
  5
10B6D
330
747D
100
AcDbEntity
  8
補助
  6
PHANTOM
 62
   230
 48
50.0
100
AcDbLine
 10
13107.2
 20
11409.6
 30
0.0
 11
13107.2
 21
4800.0
 31
0.0
  0
LINE
  5
10B6F
330
747D
100
AcDbEntity
  8
補助
  6
PHANTOM
 62
   230
 48
50.0
100
AcDbLine
 10
13107.2
 20
4800.0
 30
0.0
 11
16307.2
 21
4800.0
 31
0.0
  0
LINE
  5
10B72
330
747D
100
AcDbEntity
  8
文字
 62
     7
 48
50.0
100
AcDbLine
 10
13187.2
 20
400.0
 30
0.0
 11
16227.2
 21
400.0
 31
0.0
  0
TEXT
  5
10B73
330
747D
100
AcDbEntity
  8
文字
 62
     7
 48
50.0
100
AcDbText
 10
13162.9790565769
 20
895.0906074299405
 30
0.0
 40
200.0
  1
外 形 図
  7
STYLE2
100
AcDbText
  0
TEXT
  5
10B74
330
747D
100
AcDbEntity
  8
文字
 62
     7
 48
50.0
100
AcDbText
 10
13201.43669998441
 20
477.2740661031255
 30
0.0
 40
160.0
  1
機種名
  7
STYLE2
100
AcDbText
  0
TEXT
  5
10B76
330
747D
100
AcDbEntity
  8
文字
 62
     7
 48
50.0
100
AcDbText
 10
13209.4053442172
 20
76.09434707649343
 30
0.0
 40
100.0
  1
○床面積 ： 3.77㎡(1.14坪) 　
  7
STYLE2
100
AcDbText
  0
TEXT
  5
10B79
330
747D
100
AcDbEntity
  8
文字
 62
     7
 48
50.0
100
AcDbText
 10
14524.131837222
 20
1031.557706291228
 30
0.0
 40
100.0
  1
NO.19      <縮尺> S=1/40
  7
STYLE2
100
AcDbText
  0
LINE
  5
10B7B
330
747D
100
AcDbEntity
  8
仕様書枠
 48
50.0
100
AcDbLine
 10
13107.2
 20
800.0
 30
0.0
 11
14251.2
 21
800.0
 31
0.0
  0
LINE
  5
10B88
330
747D
100
AcDbEntity
  8
仕様書枠
  6
Continuous
 48
50.0
100
AcDbLine
 10
14251.2
 20
1200.0
 30
0.0
 11
14251.2
 21
800.0
 31
0.0
  0
TEXT
  5
154D3
330
747D
100
AcDbEntity
  8
文字
 62
     7
 48
50.0
100
AcDbText
 10
14643.63059855437
 20
863.0097378581719
 30
0.0
 40
100.0
  1
～一般型・多雪地型～
  7
STYLE2
100
AcDbText
  0
LINE
  5
17270
330
747D
100
AcDbEntity
  8
細線
 48
50.0
100
AcDbLine
 10
8870.798453169483
 20
5053.510512052827
 30
0.0
 11
8870.798453169483
 21
2963.510512052828
 31
0.0
  0
LINE
  5
17271
330
747D
100
AcDbEntity
  8
細線
 48
50.0
100
AcDbLine
 10
8885.798453169483
 20
5053.510512052827
 30
0.0
 11
8885.798453169483
 21
2963.510512052828
 31
0.0
  0
LINE
  5
17272
330
747D
100
AcDbEntity
  8
細線
 48
50.0
100
AcDbLine
 10
8745.798453169483
 20
5053.510512052827
 30
0.0
 11
8745.798453169483
 21
2963.510512052828
 31
0.0
  0
LINE
  5
17273
330
747D
100
AcDbEntity
  8
細線
 48
50.0
100
AcDbLine
 10
8730.798453169484
 20
5053.510512052827
 30
0.0
 11
8730.798453169484
 21
2963.510512052828
 31
0.0
  0
LINE
  5
17274
330
747D
100
AcDbEntity
  8
細線
 48
50.0
100
AcDbLine
 10
8590.798453169483
 20
5053.510512052827
 30
0.0
 11
8590.798453169483
 21
2963.510512052828
 31
0.0
  0
LINE
  5
17275
330
747D
100
AcDbEntity
  8
細線
 48
50.0
100
AcDbLine
 10
8605.798453169484
 20
5053.510512052827
 30
0.0
 11
8605.798453169484
 21
2963.510512052828
 31
0.0
  0
LINE
  5
17276
330
747D
100
AcDbEntity
  8
部品1
100
AcDbLine
 10
11019.79845316947
 20
5264.110512061299
 30
0.0
 11
10908.29845316948
 21
5264.110512061299
 31
0.0
  0
LINE
  5
17277
330
747D
100
AcDbEntity
  8
部品1
100
AcDbLine
 10
10896.29845316948
 20
5283.510512061315
 30
0.0
 11
10896.29845316948
 21
5186.099444552743
 31
0.0
  0
LINE
  5
17278
330
747D
100
AcDbEntity
  8
部品1
100
AcDbLine
 10
10871.29845316948
 20
5283.510512061315
 30
0.0
 11
10871.29845316948
 21
5186.099444552743
 31
0.0
  0
LINE
  5
17279
330
747D
100
AcDbEntity
  8
部品1
100
AcDbLine
 10
10798.29845316948
 20
5283.510512061315
 30
0.0
 11
10798.29845316948
 21
5186.099444552743
 31
0.0
  0
LINE
  5
1727A
330
747D
100
AcDbEntity
  8
部品1
100
AcDbLine
 10
10823.29845316948
 20
5283.510512061315
 30
0.0
 11
10823.29845316948
 21
5186.099444552743
 31
0.0
  0
LINE
  5
1727B
330
747D
100
AcDbEntity
  8
部品1
 48
50.0
100
AcDbLine
 10
10869.79845316947
 20
5283.510512061319
 30
0.0
 11
10897.79845316947
 21
5283.510512061319
 31
0.0
  0
LINE
  5
1727C
330
747D
100
AcDbEntity
  8
部品1
 48
50.0
100
AcDbLine
 10
10897.79845316947
 20
5283.510512061319
 30
0.0
 11
10908.29845316947
 21
5264.110512061318
 31
0.0
  0
LINE
  5
1727D
330
747D
100
AcDbEntity
  8
部品1
 48
50.0
100
AcDbLine
 10
10869.79845316947
 20
5283.510512061319
 30
0.0
 11
10859.29845316947
 21
5264.110512061318
 31
0.0
  0
LINE
  5
1727E
330
747D
100
AcDbEntity
  8
部品1
 48
50.0
100
AcDbLine
 10
10796.79845316947
 20
5283.510512061319
 30
0.0
 11
10824.79845316947
 21
5283.510512061319
 31
0.0
  0
LINE
  5
1727F
330
747D
100
AcDbEntity
  8
部品1
 48
50.0
100
AcDbLine
 10
10796.79845316947
 20
5283.510512061319
 30
0.0
 11
10786.29845316947
 21
5264.110512061318
 31
0.0
  0
LINE
  5
17280
330
747D
100
AcDbEntity
  8
部品1
 48
50.0
100
AcDbLine
 10
10824.79845316947
 20
5283.510512061319
 30
0.0
 11
10835.29845316947
 21
5264.110512061318
 31
0.0
  0
LINE
  5
17281
330
747D
100
AcDbEntity
  8
部品1
100
AcDbLine
 10
10859.29845316947
 20
5264.110512061314
 30
0.0
 11
10835.29845316947
 21
5264.110512061314
 31
0.0
  0
LINE
  5
17282
330
747D
100
AcDbEntity
  8
部品1
100
AcDbLine
 10
10786.29845316947
 20
5264.110512061314
 30
0.0
 11
10642.79845316947
 21
5264.110512061314
 31
0.0
  0
LINE
  5
17283
330
747D
100
AcDbEntity
  8
部品1
 48
50.0
100
AcDbLine
 10
10640.29845316947
 20
5283.510512061315
 30
0.0
 11
10642.79845316947
 21
5264.110512061314
 31
0.0
  0
LINE
  5
17284
330
747D
100
AcDbEntity
  8
部品1
 48
50.0
100
AcDbLine
 10
10601.08711296329
 20
5274.110512061314
 30
0.0
 11
10599.79845316947
 21
5264.110512061314
 31
0.0
  0
LINE
  5
17285
330
747D
100
AcDbEntity
  8
部品1
 48
50.0
100
AcDbLine
 10
10601.08711296329
 20
5274.110512061314
 30
0.0
 11
10615.08711296329
 21
5274.110512061314
 31
0.0
  0
LINE
  5
17286
330
747D
100
AcDbEntity
  8
部品1
 48
50.0
100
AcDbLine
 10
10616.29845316947
 20
5283.510512061315
 30
0.0
 11
10615.08711296329
 21
5274.110512061314
 31
0.0
  0
LINE
  5
17287
330
747D
100
AcDbEntity
  8
部品1
 48
50.0
100
AcDbLine
 10
10616.29845316947
 20
5283.510512061315
 30
0.0
 11
10640.29845316947
 21
5283.510512061315
 31
0.0
  0
LINE
  5
17288
330
747D
100
AcDbEntity
  8
部品1
100
AcDbLine
 10
10637.29845316947
 20
5283.510512061315
 30
0.0
 11
10637.29845316947
 21
5186.099444552739
 31
0.0
  0
LINE
  5
17289
330
747D
100
AcDbEntity
  8
部品1
100
AcDbLine
 10
10619.29845316947
 20
5283.510512061305
 30
0.0
 11
10619.29845316947
 21
5186.099444552739
 31
0.0
  0
LINE
  5
1728A
330
747D
100
AcDbEntity
  8
部品1
100
AcDbLine
 10
11103.36908116268
 20
5264.110512061296
 30
0.0
 11
11062.79845316947
 21
5264.110512061296
 31
0.0
  0
LINE
  5
1728B
330
747D
100
AcDbEntity
  8
部品1
 48
50.0
100
AcDbLine
 10
11060.29845316947
 20
5283.510512061301
 30
0.0
 11
11062.79845316947
 21
5264.110512061299
 31
0.0
  0
LINE
  5
1728C
330
747D
100
AcDbEntity
  8
部品1
 48
50.0
100
AcDbLine
 10
11021.08711296328
 20
5274.110512061299
 30
0.0
 11
11019.79845316947
 21
5264.110512061299
 31
0.0
  0
LINE
  5
1728D
330
747D
100
AcDbEntity
  8
部品1
 48
50.0
100
AcDbLine
 10
11021.08711296328
 20
5274.110512061299
 30
0.0
 11
11035.08711296328
 21
5274.110512061299
 31
0.0
  0
LINE
  5
1728E
330
747D
100
AcDbEntity
  8
部品1
 48
50.0
100
AcDbLine
 10
11036.29845316947
 20
5283.510512061301
 30
0.0
 11
11035.08711296328
 21
5274.110512061299
 31
0.0
  0
LINE
  5
1728F
330
747D
100
AcDbEntity
  8
細線
 48
50.0
100
AcDbLine
 10
11103.36908116268
 20
5205.482344800778
 30
0.0
 11
11151.43232244662
 21
5205.482344800785
 31
0.0
  0
LINE
  5
17290
330
747D
100
AcDbEntity
  8
細線
 48
50.0
100
AcDbLine
 10
11120.80954307375
 20
5233.510512052828
 30
0.0
 11
11120.80954307375
 21
5107.010512052828
 31
0.0
  0
ARC
  5
17291
330
747D
100
AcDbEntity
  8
部品1
100
AcDbCircle
 10
11146.31240935226
 20
5281.510512069726
 30
0.0
 40
7.0
100
AcDbArc
 50
356.3813705198622
 51
90.0
  0
LINE
  5
17292
330
747D
100
AcDbEntity
  8
部品1
100
AcDbLine
 10
11108.36908116268
 20
5288.510512069726
 30
0.0
 11
11146.31240935226
 21
5288.510512069726
 31
0.0
  0
ARC
  5
17293
330
747D
100
AcDbEntity
  8
部品1
100
AcDbCircle
 10
11108.36908116268
 20
5283.510512069726
 30
0.0
 40
5.0
100
AcDbArc
 50
90.0
 51
180.0
  0
LINE
  5
17294
330
747D
100
AcDbEntity
  8
部品1
 48
50.0
100
AcDbLine
 10
11153.29845316947
 20
5226.068706910239
 30
0.0
 11
11153.29845316947
 21
5281.068706927137
 31
0.0
  0
LINE
  5
17295
330
747D
100
AcDbEntity
  8
部品1
100
AcDbLine
 10
11103.36908116268
 20
5283.510512069726
 30
0.0
 11
11103.36908116267
 21
5186.099444552724
 31
0.0
  0
ARC
  5
17296
330
747D
100
AcDbEntity
  8
部品1
100
AcDbCircle
 10
11108.36908116268
 20
5228.510512052828
 30
0.0
 40
5.0
100
AcDbArc
 50
90.0
 51
180.0
  0
LINE
  5
17297
330
747D
100
AcDbEntity
  8
部品1
100
AcDbLine
 10
11108.36908116268
 20
5233.510512052828
 30
0.0
 11
11146.31240935226
 21
5233.510512052828
 31
0.0
  0
LINE
  5
17298
330
747D
100
AcDbEntity
  8
部品1
100
AcDbLine
 10
11152.0379151109
 20
5206.136448859157
 30
0.0
 11
11153.29845316947
 21
5226.068706910239
 31
0.0
  0
LINE
  5
17299
330
747D
100
AcDbEntity
  8
部品1
100
AcDbLine
 10
11140.1718423235
 20
5113.568706910239
 30
0.0
 11
11140.84416802808
 21
5124.199857113939
 31
0.0
  0
ARC
  5
1729A
330
747D
100
AcDbEntity
  8
部品1
100
AcDbCircle
 10
11146.31240935226
 20
5226.510512052828
 30
0.0
 40
7.0
100
AcDbArc
 50
356.3813705198622
 51
90.0
  0
ARC
  5
1729B
330
747D
100
AcDbEntity
  8
部品1
100
AcDbCircle
 10
11133.18579850629
 20
5114.010512052828
 30
0.0
 40
7.0
100
AcDbArc
 50
270.0
 51
356.3813705198622
  0
ARC
  5
1729C
330
747D
100
AcDbEntity
  8
部品1
100
AcDbCircle
 10
11143.83818680689
 20
5124.010512052827
 30
0.0
 40
3.0
100
AcDbArc
 50
90.0
 51
176.3813705198622
  0
ARC
  5
1729D
330
747D
100
AcDbEntity
  8
部品1
100
AcDbCircle
 10
11143.36889068169
 20
5127.680629373418
 30
0.0
 40
0.7
100
AcDbArc
 50
277.2868405166456
 51
356.3813705198622
  0
LINE
  5
1729E
330
747D
100
AcDbEntity
  8
部品1
100
AcDbLine
 10
11148.81458807557
 20
5202.699857113939
 30
0.0
 11
11144.06749506341
 21
5127.636448859157
 31
0.0
  0
ARC
  5
1729F
330
747D
100
AcDbEntity
  8
部品1
100
AcDbCircle
 10
11151.80860685438
 20
5202.510512052828
 30
0.0
 40
3.0
100
AcDbArc
 50
90.0
 51
176.3813705198622
  0
ARC
  5
172A0
330
747D
100
AcDbEntity
  8
部品1
100
AcDbCircle
 10
11151.33931072918
 20
5206.180629373417
 30
0.0
 40
0.7
100
AcDbArc
 50
277.2868405166456
 51
356.3813705198622
  0
LINE
  5
172A1
330
747D
100
AcDbEntity
  8
部品1
 48
50.0
100
AcDbLine
 10
11108.36908116268
 20
5233.510512052828
 30
0.0
 11
11146.31240935226
 21
5233.510512052828
 31
0.0
  0
LINE
  5
172A2
330
747D
100
AcDbEntity
  8
部品1
 48
50.0
100
AcDbLine
 10
11036.29845316947
 20
5283.510512061301
 30
0.0
 11
11060.29845316947
 21
5283.510512061301
 31
0.0
  0
LINE
  5
172A3
330
747D
100
AcDbEntity
  8
部品1
100
AcDbLine
 10
11057.29845316946
 20
5283.510512061301
 30
0.0
 11
11057.29845316946
 21
5186.099444552724
 31
0.0
  0
LINE
  5
172A4
330
747D
100
AcDbEntity
  8
部品1
100
AcDbLine
 10
11039.29845316946
 20
5283.51051206129
 30
0.0
 11
11039.29845316946
 21
5186.099444552724
 31
0.0
  0
DIMENSION
  5
172A5
330
747D
100
AcDbEntity
  8
寸法
 48
50.0
100
AcDbDimension
  2
*D1
 10
11103.29845316948
 20
5687.6036813923
 30
0.0
 11
11466.78373454371
 21
5687.6036813923
 31
0.0
 70
   160
 71
     5
 42
50.0
  3
INABA_S40G
100
AcDbAlignedDimension
 13
11153.29845316948
 23
5288.51051205283
 33
0.0
 14
11103.29845316948
 24
5288.510512052834
 34
0.0
100
AcDbRotatedDimension
  0
LINE
  5
172A6
330
747D
100
AcDbEntity
  8
部品1
100
AcDbLine
 10
10199.29845316948
 20
5283.510512061294
 30
0.0
 11
10199.29845316948
 21
5186.099444552729
 31
0.0
  0
LINE
  5
172A7
330
747D
100
AcDbEntity
  8
部品1
100
AcDbLine
 10
10217.29845316948
 20
5283.510512061305
 30
0.0
 11
10217.29845316948
 21
5186.099444552729
 31
0.0
  0
LINE
  5
172A8
330
747D
100
AcDbEntity
  8
部品1
 48
50.0
100
AcDbLine
 10
10196.29845316949
 20
5283.510512061305
 30
0.0
 11
10220.29845316949
 21
5283.510512061305
 31
0.0
  0
LINE
  5
172A9
330
747D
100
AcDbEntity
  8
部品1
 48
50.0
100
AcDbLine
 10
10196.29845316949
 20
5283.510512061305
 30
0.0
 11
10195.08711296331
 21
5274.110512061302
 31
0.0
  0
LINE
  5
172AA
330
747D
100
AcDbEntity
  8
部品1
 48
50.0
100
AcDbLine
 10
10181.0871129633
 20
5274.110512061302
 30
0.0
 11
10195.08711296331
 21
5274.110512061302
 31
0.0
  0
LINE
  5
172AB
330
747D
100
AcDbEntity
  8
部品1
 48
50.0
100
AcDbLine
 10
10181.0871129633
 20
5274.110512061302
 30
0.0
 11
10179.79845316949
 21
5264.110512061303
 31
0.0
  0
LINE
  5
172AC
330
747D
100
AcDbEntity
  8
部品1
 48
50.0
100
AcDbLine
 10
10220.29845316949
 20
5283.510512061305
 30
0.0
 11
10222.79845316949
 21
5264.110512061303
 31
0.0
  0
LINE
  5
172AD
330
747D
100
AcDbEntity
  8
部品1
100
AcDbLine
 10
10366.29845316949
 20
5264.110512061303
 30
0.0
 11
10222.79845316949
 21
5264.110512061303
 31
0.0
  0
LINE
  5
172AE
330
747D
100
AcDbEntity
  8
部品1
100
AcDbLine
 10
10439.29845316949
 20
5264.110512061303
 30
0.0
 11
10415.29845316949
 21
5264.110512061303
 31
0.0
  0
LINE
  5
172AF
330
747D
100
AcDbEntity
  8
部品1
 48
50.0
100
AcDbLine
 10
10404.79845316949
 20
5283.510512061308
 30
0.0
 11
10415.29845316949
 21
5264.110512061307
 31
0.0
  0
LINE
  5
172B0
330
747D
100
AcDbEntity
  8
部品1
 48
50.0
100
AcDbLine
 10
10376.79845316949
 20
5283.510512061308
 30
0.0
 11
10366.29845316949
 21
5264.110512061307
 31
0.0
  0
LINE
  5
172B1
330
747D
100
AcDbEntity
  8
部品1
 48
50.0
100
AcDbLine
 10
10376.79845316949
 20
5283.510512061308
 30
0.0
 11
10404.79845316949
 21
5283.510512061308
 31
0.0
  0
LINE
  5
172B2
330
747D
100
AcDbEntity
  8
部品1
 48
50.0
100
AcDbLine
 10
10449.79845316949
 20
5283.510512061308
 30
0.0
 11
10439.29845316949
 21
5264.110512061307
 31
0.0
  0
LINE
  5
172B3
330
747D
100
AcDbEntity
  8
部品1
 48
50.0
100
AcDbLine
 10
10477.79845316949
 20
5283.510512061308
 30
0.0
 11
10488.29845316949
 21
5264.110512061307
 31
0.0
  0
LINE
  5
172B4
330
747D
100
AcDbEntity
  8
部品1
 48
50.0
100
AcDbLine
 10
10449.79845316949
 20
5283.510512061308
 30
0.0
 11
10477.79845316949
 21
5283.510512061308
 31
0.0
  0
LINE
  5
172B5
330
747D
100
AcDbEntity
  8
部品1
100
AcDbLine
 10
10403.2984531695
 20
5283.510512061305
 30
0.0
 11
10403.2984531695
 21
5186.099444552732
 31
0.0
  0
LINE
  5
172B6
330
747D
100
AcDbEntity
  8
部品1
100
AcDbLine
 10
10378.2984531695
 20
5283.510512061305
 30
0.0
 11
10378.2984531695
 21
5186.099444552732
 31
0.0
  0
LINE
  5
172B7
330
747D
100
AcDbEntity
  8
部品1
100
AcDbLine
 10
10451.2984531695
 20
5283.510512061305
 30
0.0
 11
10451.2984531695
 21
5186.099444552732
 31
0.0
  0
LINE
  5
172B8
330
747D
100
AcDbEntity
  8
部品1
100
AcDbLine
 10
10476.2984531695
 20
5283.510512061305
 30
0.0
 11
10476.2984531695
 21
5186.099444552732
 31
0.0
  0
LINE
  5
172B9
330
747D
100
AcDbEntity
  8
部品1
100
AcDbLine
 10
10599.79845316949
 20
5264.110512061288
 30
0.0
 11
10488.2984531695
 21
5264.110512061288
 31
0.0
  0
LINE
  5
172BA
330
747D
100
AcDbEntity
  8
部品1
100
AcDbLine
 10
10056.2984531695
 20
5283.510512061301
 30
0.0
 11
10056.2984531695
 21
5186.099444552729
 31
0.0
  0
LINE
  5
172BB
330
747D
100
AcDbEntity
  8
部品1
100
AcDbLine
 10
10031.2984531695
 20
5283.510512061301
 30
0.0
 11
10031.2984531695
 21
5186.099444552729
 31
0.0
  0
LINE
  5
172BC
330
747D
100
AcDbEntity
  8
部品1
100
AcDbLine
 10
9958.298453169499
 20
5283.510512061301
 30
0.0
 11
9958.298453169499
 21
5186.099444552729
 31
0.0
  0
LINE
  5
172BD
330
747D
100
AcDbEntity
  8
部品1
100
AcDbLine
 10
9983.298453169499
 20
5283.510512061301
 30
0.0
 11
9983.298453169499
 21
5186.099444552729
 31
0.0
  0
LINE
  5
172BE
330
747D
100
AcDbEntity
  8
部品1
100
AcDbLine
 10
9946.298453169488
 20
5264.110512061299
 30
0.0
 11
9802.798453169486
 21
5264.110512061299
 31
0.0
  0
LINE
  5
172BF
330
747D
100
AcDbEntity
  8
部品1
100
AcDbLine
 10
10179.79845316949
 20
5264.110512061285
 30
0.0
 11
10068.2984531695
 21
5264.110512061285
 31
0.0
  0
LINE
  5
172C0
330
747D
100
AcDbEntity
  8
部品1
 48
50.0
100
AcDbLine
 10
10029.79845316949
 20
5283.510512061305
 30
0.0
 11
10057.79845316949
 21
5283.510512061305
 31
0.0
  0
LINE
  5
172C1
330
747D
100
AcDbEntity
  8
部品1
 48
50.0
100
AcDbLine
 10
10057.79845316949
 20
5283.510512061305
 30
0.0
 11
10068.29845316949
 21
5264.110512061303
 31
0.0
  0
LINE
  5
172C2
330
747D
100
AcDbEntity
  8
部品1
 48
50.0
100
AcDbLine
 10
10029.79845316949
 20
5283.510512061305
 30
0.0
 11
10019.29845316949
 21
5264.110512061303
 31
0.0
  0
LINE
  5
172C3
330
747D
100
AcDbEntity
  8
部品1
 48
50.0
100
AcDbLine
 10
9956.798453169492
 20
5283.510512061305
 30
0.0
 11
9984.798453169489
 21
5283.510512061305
 31
0.0
  0
LINE
  5
172C4
330
747D
100
AcDbEntity
  8
部品1
 48
50.0
100
AcDbLine
 10
9956.798453169492
 20
5283.510512061305
 30
0.0
 11
9946.298453169491
 21
5264.110512061303
 31
0.0
  0
LINE
  5
172C5
330
747D
100
AcDbEntity
  8
部品1
 48
50.0
100
AcDbLine
 10
9984.798453169492
 20
5283.510512061305
 30
0.0
 11
9995.298453169491
 21
5264.110512061303
 31
0.0
  0
LINE
  5
172C6
330
747D
100
AcDbEntity
  8
部品1
100
AcDbLine
 10
10019.29845316948
 20
5264.110512061299
 30
0.0
 11
9995.298453169491
 21
5264.110512061299
 31
0.0
  0
LINE
  5
172C7
330
747D
100
AcDbEntity
  8
部品1
 48
50.0
100
AcDbLine
 10
8455.787363265208
 20
5186.099444552724
 30
0.0
 11
11120.80954307375
 21
5186.099444552727
 31
0.0
  0
LINE
  5
172C8
330
747D
100
AcDbEntity
  8
部品1
 48
50.0
100
AcDbLine
 10
9800.29845316949
 20
5283.510512061301
 30
0.0
 11
9802.798453169492
 21
5264.110512061299
 31
0.0
  0
LINE
  5
172C9
330
747D
100
AcDbEntity
  8
部品1
 48
50.0
100
AcDbLine
 10
9761.087112963306
 20
5274.110512061299
 30
0.0
 11
9759.798453169493
 21
5264.110512061299
 31
0.0
  0
LINE
  5
172CA
330
747D
100
AcDbEntity
  8
部品1
 48
50.0
100
AcDbLine
 10
9761.087112963306
 20
5274.110512061299
 30
0.0
 11
9775.087112963305
 21
5274.110512061299
 31
0.0
  0
LINE
  5
172CB
330
747D
100
AcDbEntity
  8
部品1
 48
50.0
100
AcDbLine
 10
9776.298453169491
 20
5283.510512061301
 30
0.0
 11
9775.087112963305
 21
5274.110512061299
 31
0.0
  0
LINE
  5
172CC
330
747D
100
AcDbEntity
  8
部品1
 48
50.0
100
AcDbLine
 10
9776.298453169491
 20
5283.510512061301
 30
0.0
 11
9800.29845316949
 21
5283.510512061301
 31
0.0
  0
LINE
  5
172CD
330
747D
100
AcDbEntity
  8
部品1
100
AcDbLine
 10
9797.298453169483
 20
5283.510512061301
 30
0.0
 11
9797.298453169483
 21
5186.099444552724
 31
0.0
  0
LINE
  5
172CE
330
747D
100
AcDbEntity
  8
部品1
100
AcDbLine
 10
9779.298453169484
 20
5283.51051206129
 30
0.0
 11
9779.298453169484
 21
5186.099444552724
 31
0.0
  0
LINE
  5
172CF
330
747D
100
AcDbEntity
  8
細線
 48
50.0
100
AcDbLine
 10
8473.227825176282
 20
5205.482344800778
 30
0.0
 11
8425.164583892337
 21
5205.482344800785
 31
0.0
  0
LINE
  5
172D0
330
747D
100
AcDbEntity
  8
細線
 48
50.0
100
AcDbLine
 10
8455.787363265207
 20
5233.510512052828
 30
0.0
 11
8455.787363265207
 21
5107.010512052828
 31
0.0
  0
LINE
  5
172D1
330
747D
100
AcDbEntity
  8
細線
 48
50.0
100
AcDbLine
 10
11144.07681084254
 20
5127.78375461661
 30
0.0
 11
8433.182044802007
 21
5127.783754616614
 31
0.0
  0
ARC
  5
172D2
330
747D
100
AcDbEntity
  8
部品1
100
AcDbCircle
 10
8430.284496986699
 20
5281.510512069726
 30
0.0
 40
7.0
100
AcDbArc
 50
90.0
 51
183.6186294801377
  0
LINE
  5
172D3
330
747D
100
AcDbEntity
  8
部品1
100
AcDbLine
 10
8468.227825176283
 20
5288.510512069726
 30
0.0
 11
8430.284496986699
 21
5288.510512069726
 31
0.0
  0
ARC
  5
172D4
330
747D
100
AcDbEntity
  8
部品1
100
AcDbCircle
 10
8468.227825176283
 20
5283.510512069726
 30
0.0
 40
5.0
100
AcDbArc
 50
0.0
 51
90.0
  0
LINE
  5
172D5
330
747D
100
AcDbEntity
  8
部品1
 48
50.0
100
AcDbLine
 10
8423.29845316949
 20
5226.068706910239
 30
0.0
 11
8423.29845316949
 21
5281.068706927137
 31
0.0
  0
LINE
  5
172D6
330
747D
100
AcDbEntity
  8
部品1
100
AcDbLine
 10
11133.18579850629
 20
5107.010512052828
 30
0.0
 11
8443.411107832671
 21
5107.010512052828
 31
0.0
  0
LINE
  5
172D7
330
747D
100
AcDbEntity
  8
部品1
100
AcDbLine
 10
8473.227825176284
 20
5283.510512069726
 30
0.0
 11
8473.227825176282
 21
5186.106483380157
 31
0.0
  0
ARC
  5
172D8
330
747D
100
AcDbEntity
  8
部品1
100
AcDbCircle
 10
8468.227825176283
 20
5228.510512052828
 30
0.0
 40
5.0
100
AcDbArc
 50
0.0
 51
90.0
  0
LINE
  5
172D9
330
747D
100
AcDbEntity
  8
部品1
100
AcDbLine
 10
8468.227825176283
 20
5233.510512052828
 30
0.0
 11
8430.284496986699
 21
5233.510512052828
 31
0.0
  0
LINE
  5
172DA
330
747D
100
AcDbEntity
  8
部品1
100
AcDbLine
 10
8424.558991228057
 20
5206.136448859157
 30
0.0
 11
8423.29845316949
 21
5226.068706910239
 31
0.0
  0
LINE
  5
172DB
330
747D
100
AcDbEntity
  8
部品1
100
AcDbLine
 10
8436.425064015461
 20
5113.568706910239
 30
0.0
 11
8435.752738310879
 21
5124.199857113939
 31
0.0
  0
ARC
  5
172DC
330
747D
100
AcDbEntity
  8
部品1
100
AcDbCircle
 10
8430.284496986699
 20
5226.510512052828
 30
0.0
 40
7.0
100
AcDbArc
 50
90.0
 51
183.6186294801377
  0
ARC
  5
172DD
330
747D
100
AcDbEntity
  8
部品1
100
AcDbCircle
 10
8443.411107832671
 20
5114.010512052828
 30
0.0
 40
7.0
100
AcDbArc
 50
183.6186294801377
 51
270.0
  0
ARC
  5
172DE
330
747D
100
AcDbEntity
  8
部品1
100
AcDbCircle
 10
8432.758719532074
 20
5124.010512052827
 30
0.0
 40
3.0
100
AcDbArc
 50
3.618629480137788
 51
90.0
  0
ARC
  5
172DF
330
747D
100
AcDbEntity
  8
部品1
100
AcDbCircle
 10
8433.228015657268
 20
5127.680629373418
 30
0.0
 40
0.7
100
AcDbArc
 50
183.6186294801377
 51
262.7131594833544
  0
LINE
  5
172E0
330
747D
100
AcDbEntity
  8
部品1
100
AcDbLine
 10
8427.782318263387
 20
5202.699857113939
 30
0.0
 11
8432.529411275547
 21
5127.636448859157
 31
0.0
  0
ARC
  5
172E1
330
747D
100
AcDbEntity
  8
部品1
100
AcDbCircle
 10
8424.788299484582
 20
5202.510512052828
 30
0.0
 40
3.0
100
AcDbArc
 50
3.618629480137788
 51
90.0
  0
ARC
  5
172E2
330
747D
100
AcDbEntity
  8
部品1
100
AcDbCircle
 10
8425.257595609776
 20
5206.180629373417
 30
0.0
 40
0.7
100
AcDbArc
 50
183.6186294801377
 51
262.7131594833544
  0
LINE
  5
172E3
330
747D
100
AcDbEntity
  8
部品1
 48
50.0
100
AcDbLine
 10
8468.227825176283
 20
5233.510512052828
 30
0.0
 11
8430.284496986699
 21
5233.510512052828
 31
0.0
  0
LINE
  5
172E4
330
747D
100
AcDbEntity
  8
部品1
100
AcDbLine
 10
9759.798453169487
 20
5264.110512061281
 30
0.0
 11
9648.298453169497
 21
5264.110512061281
 31
0.0
  0
LINE
  5
172E5
330
747D
100
AcDbEntity
  8
部品1
100
AcDbLine
 10
11108.36879046411
 20
5288.510512061275
 30
0.0
 11
8447.730613550396
 21
5288.5105120613
 31
0.0
  0
LINE
  5
172E6
330
747D
100
AcDbEntity
  8
部品1
 48
50.0
100
AcDbLine
 10
8921.087112963302
 20
5274.110512061299
 30
0.0
 11
8935.087112963302
 21
5274.110512061299
 31
0.0
  0
LINE
  5
172E7
330
747D
100
AcDbEntity
  8
部品1
100
AcDbLine
 10
8686.29845316949
 20
5264.110512061296
 30
0.0
 11
8542.798453169488
 21
5264.110512061299
 31
0.0
  0
LINE
  5
172E8
330
747D
100
AcDbEntity
  8
部品1
 48
50.0
100
AcDbLine
 10
8540.298453169489
 20
5283.510512061301
 30
0.0
 11
8516.298453169488
 21
5283.510512061301
 31
0.0
  0
LINE
  5
172E9
330
747D
100
AcDbEntity
  8
部品1
 48
50.0
100
AcDbLine
 10
8516.298453169488
 20
5283.510512061301
 30
0.0
 11
8515.087112963302
 21
5274.110512061299
 31
0.0
  0
LINE
  5
172EA
330
747D
100
AcDbEntity
  8
部品1
 48
50.0
100
AcDbLine
 10
8501.087112963302
 20
5274.110512061299
 30
0.0
 11
8499.798453169489
 21
5264.110512061299
 31
0.0
  0
LINE
  5
172EB
330
747D
100
AcDbEntity
  8
部品1
 48
50.0
100
AcDbLine
 10
8501.087112963302
 20
5274.110512061299
 30
0.0
 11
8515.087112963302
 21
5274.110512061299
 31
0.0
  0
LINE
  5
172EC
330
747D
100
AcDbEntity
  8
部品1
100
AcDbLine
 10
8499.798453169489
 20
5264.110512061299
 30
0.0
 11
8473.298453169489
 21
5264.110512061299
 31
0.0
  0
LINE
  5
172ED
330
747D
100
AcDbEntity
  8
部品1
 48
50.0
100
AcDbLine
 10
8540.298453169489
 20
5283.510512061301
 30
0.0
 11
8542.798453169488
 21
5264.110512061299
 31
0.0
  0
LINE
  5
172EE
330
747D
100
AcDbEntity
  8
部品1
100
AcDbLine
 10
8519.298453169495
 20
5283.510512061301
 30
0.0
 11
8519.298453169499
 21
5186.099444552724
 31
0.0
  0
LINE
  5
172EF
330
747D
100
AcDbEntity
  8
部品1
100
AcDbLine
 10
8537.298453169496
 20
5283.51051206129
 30
0.0
 11
8537.298453169496
 21
5186.099444552724
 31
0.0
  0
LINE
  5
172F0
330
747D
100
AcDbEntity
  8
部品1
 48
50.0
100
AcDbLine
 10
8769.798453169491
 20
5283.510512061301
 30
0.0
 11
8759.29845316949
 21
5264.110512061299
 31
0.0
  0
LINE
  5
172F1
330
747D
100
AcDbEntity
  8
部品1
 48
50.0
100
AcDbLine
 10
8696.79845316949
 20
5283.510512061301
 30
0.0
 11
8724.798453169485
 21
5283.510512061301
 31
0.0
  0
LINE
  5
172F2
330
747D
100
AcDbEntity
  8
部品1
 48
50.0
100
AcDbLine
 10
8696.79845316949
 20
5283.510512061301
 30
0.0
 11
8686.29845316949
 21
5264.110512061299
 31
0.0
  0
LINE
  5
172F3
330
747D
100
AcDbEntity
  8
部品1
100
AcDbLine
 10
8698.298453169497
 20
5283.510512061297
 30
0.0
 11
8698.298453169496
 21
5186.099444552724
 31
0.0
  0
LINE
  5
172F4
330
747D
100
AcDbEntity
  8
部品1
 48
50.0
100
AcDbLine
 10
8724.798453169489
 20
5283.510512061301
 30
0.0
 11
8735.298453169489
 21
5264.110512061299
 31
0.0
  0
LINE
  5
172F5
330
747D
100
AcDbEntity
  8
部品1
100
AcDbLine
 10
8723.298453169496
 20
5283.510512061297
 30
0.0
 11
8723.298453169498
 21
5186.099444552724
 31
0.0
  0
LINE
  5
172F6
330
747D
100
AcDbEntity
  8
部品1
100
AcDbLine
 10
8759.298453169485
 20
5264.110512061296
 30
0.0
 11
8735.298453169489
 21
5264.110512061299
 31
0.0
  0
LINE
  5
172F7
330
747D
100
AcDbEntity
  8
部品1
 48
50.0
100
AcDbLine
 10
8921.087112963302
 20
5274.110512061299
 30
0.0
 11
8919.798453169489
 21
5264.110512061299
 31
0.0
  0
LINE
  5
172F8
330
747D
100
AcDbEntity
  8
部品1
 48
50.0
100
AcDbLine
 10
8769.798453169491
 20
5283.510512061301
 30
0.0
 11
8797.798453169486
 21
5283.510512061301
 31
0.0
  0
LINE
  5
172F9
330
747D
100
AcDbEntity
  8
部品1
 48
50.0
100
AcDbLine
 10
8797.798453169489
 20
5283.510512061301
 30
0.0
 11
8808.29845316949
 21
5264.110512061299
 31
0.0
  0
LINE
  5
172FA
330
747D
100
AcDbEntity
  8
部品1
100
AcDbLine
 10
8796.298453169496
 20
5283.510512061297
 30
0.0
 11
8796.298453169496
 21
5186.099444552724
 31
0.0
  0
LINE
  5
172FB
330
747D
100
AcDbEntity
  8
部品1
100
AcDbLine
 10
8771.298453169498
 20
5283.510512061297
 30
0.0
 11
8771.298453169498
 21
5186.099444552724
 31
0.0
  0
LINE
  5
172FC
330
747D
100
AcDbEntity
  8
部品1
100
AcDbLine
 10
8919.798453169489
 20
5264.110512061296
 30
0.0
 11
8808.29845316949
 21
5264.110512061296
 31
0.0
  0
LINE
  5
172FD
330
747D
100
AcDbEntity
  8
部品1
100
AcDbLine
 10
9599.298453169486
 20
5264.110512061296
 30
0.0
 11
9575.298453169489
 21
5264.110512061296
 31
0.0
  0
LINE
  5
172FE
330
747D
100
AcDbEntity
  8
部品1
100
AcDbLine
 10
9339.798453169489
 20
5264.110512061296
 30
0.0
 11
9228.29845316949
 21
5264.110512061296
 31
0.0
  0
LINE
  5
172FF
330
747D
100
AcDbEntity
  8
部品1
100
AcDbLine
 10
9106.298453169484
 20
5264.110512061296
 30
0.0
 11
8962.798453169487
 21
5264.110512061296
 31
0.0
  0
LINE
  5
17300
330
747D
100
AcDbEntity
  8
部品1
 48
50.0
100
AcDbLine
 10
8960.298453169491
 20
5283.510512061301
 30
0.0
 11
8962.798453169488
 21
5264.110512061299
 31
0.0
  0
LINE
  5
17301
330
747D
100
AcDbEntity
  8
部品1
 48
50.0
100
AcDbLine
 10
8936.29845316949
 20
5283.510512061301
 30
0.0
 11
8935.087112963302
 21
5274.110512061299
 31
0.0
  0
LINE
  5
17302
330
747D
100
AcDbEntity
  8
部品1
 48
50.0
100
AcDbLine
 10
8960.298453169491
 20
5283.510512061301
 30
0.0
 11
8936.29845316949
 21
5283.510512061301
 31
0.0
  0
LINE
  5
17303
330
747D
100
AcDbEntity
  8
部品1
100
AcDbLine
 10
8939.298453169497
 20
5283.51051206129
 30
0.0
 11
8939.298453169497
 21
5186.099444552724
 31
0.0
  0
LINE
  5
17304
330
747D
100
AcDbEntity
  8
部品1
100
AcDbLine
 10
8957.298453169498
 20
5283.51051206129
 30
0.0
 11
8957.298453169498
 21
5186.099444552724
 31
0.0
  0
LINE
  5
17305
330
747D
100
AcDbEntity
  8
部品1
 48
50.0
100
AcDbLine
 10
9189.798453169489
 20
5283.510512061301
 30
0.0
 11
9217.798453169486
 21
5283.510512061301
 31
0.0
  0
LINE
  5
17306
330
747D
100
AcDbEntity
  8
部品1
 48
50.0
100
AcDbLine
 10
9116.79845316949
 20
5283.510512061301
 30
0.0
 11
9144.798453169485
 21
5283.510512061301
 31
0.0
  0
LINE
  5
17307
330
747D
100
AcDbEntity
  8
部品1
 48
50.0
100
AcDbLine
 10
9189.798453169489
 20
5283.510512061301
 30
0.0
 11
9179.29845316949
 21
5264.110512061299
 31
0.0
  0
LINE
  5
17308
330
747D
100
AcDbEntity
  8
部品1
 48
50.0
100
AcDbLine
 10
9144.798453169491
 20
5283.510512061301
 30
0.0
 11
9155.298453169489
 21
5264.110512061299
 31
0.0
  0
LINE
  5
17309
330
747D
100
AcDbEntity
  8
部品1
100
AcDbLine
 10
9179.298453169485
 20
5264.110512061296
 30
0.0
 11
9155.298453169489
 21
5264.110512061296
 31
0.0
  0
LINE
  5
1730A
330
747D
100
AcDbEntity
  8
部品1
 48
50.0
100
AcDbLine
 10
9116.79845316949
 20
5283.510512061301
 30
0.0
 11
9106.29845316949
 21
5264.110512061299
 31
0.0
  0
LINE
  5
1730B
330
747D
100
AcDbEntity
  8
部品1
100
AcDbLine
 10
9191.298453169496
 20
5283.510512061297
 30
0.0
 11
9191.298453169496
 21
5186.099444552724
 31
0.0
  0
LINE
  5
1730C
330
747D
100
AcDbEntity
  8
部品1
100
AcDbLine
 10
9143.298453169498
 20
5283.510512061297
 30
0.0
 11
9143.298453169498
 21
5186.099444552724
 31
0.0
  0
LINE
  5
1730D
330
747D
100
AcDbEntity
  8
部品1
100
AcDbLine
 10
9118.298453169497
 20
5283.510512061297
 30
0.0
 11
9118.298453169497
 21
5186.099444552724
 31
0.0
  0
LINE
  5
1730E
330
747D
100
AcDbEntity
  8
部品1
 48
50.0
100
AcDbLine
 10
9217.798453169489
 20
5283.510512061301
 30
0.0
 11
9228.29845316949
 21
5264.110512061299
 31
0.0
  0
LINE
  5
1730F
330
747D
100
AcDbEntity
  8
部品1
100
AcDbLine
 10
9216.298453169496
 20
5283.510512061297
 30
0.0
 11
9216.298453169498
 21
5186.099444552724
 31
0.0
  0
LINE
  5
17310
330
747D
100
AcDbEntity
  8
部品1
100
AcDbLine
 10
9526.298453169486
 20
5264.110512061296
 30
0.0
 11
9382.798453169485
 21
5264.110512061296
 31
0.0
  0
LINE
  5
17311
330
747D
100
AcDbEntity
  8
部品1
 48
50.0
100
AcDbLine
 10
9380.298453169489
 20
5283.510512061301
 30
0.0
 11
9356.29845316949
 21
5283.510512061301
 31
0.0
  0
LINE
  5
17312
330
747D
100
AcDbEntity
  8
部品1
 48
50.0
100
AcDbLine
 10
9356.29845316949
 20
5283.510512061301
 30
0.0
 11
9355.087112963301
 21
5274.110512061299
 31
0.0
  0
LINE
  5
17313
330
747D
100
AcDbEntity
  8
部品1
 48
50.0
100
AcDbLine
 10
9341.087112963302
 20
5274.110512061299
 30
0.0
 11
9355.087112963301
 21
5274.110512061299
 31
0.0
  0
LINE
  5
17314
330
747D
100
AcDbEntity
  8
部品1
 48
50.0
100
AcDbLine
 10
9341.087112963302
 20
5274.110512061299
 30
0.0
 11
9339.798453169489
 21
5264.110512061299
 31
0.0
  0
LINE
  5
17315
330
747D
100
AcDbEntity
  8
部品1
100
AcDbLine
 10
9359.298453169497
 20
5283.51051206129
 30
0.0
 11
9359.298453169499
 21
5186.099444552724
 31
0.0
  0
LINE
  5
17316
330
747D
100
AcDbEntity
  8
部品1
 48
50.0
100
AcDbLine
 10
9380.298453169489
 20
5283.510512061301
 30
0.0
 11
9382.79845316949
 21
5264.110512061299
 31
0.0
  0
LINE
  5
17317
330
747D
100
AcDbEntity
  8
部品1
100
AcDbLine
 10
9377.298453169498
 20
5283.51051206129
 30
0.0
 11
9377.298453169499
 21
5186.099444552724
 31
0.0
  0
LINE
  5
17318
330
747D
100
AcDbEntity
  8
部品1
 48
50.0
100
AcDbLine
 10
9564.798453169489
 20
5283.510512061301
 30
0.0
 11
9575.298453169489
 21
5264.110512061299
 31
0.0
  0
LINE
  5
17319
330
747D
100
AcDbEntity
  8
部品1
100
AcDbLine
 10
9563.298453169498
 20
5283.510512061297
 30
0.0
 11
9563.298453169498
 21
5186.099444552724
 31
0.0
  0
LINE
  5
1731A
330
747D
100
AcDbEntity
  8
部品1
 48
50.0
100
AcDbLine
 10
9536.798453169488
 20
5283.510512061301
 30
0.0
 11
9526.29845316949
 21
5264.110512061299
 31
0.0
  0
LINE
  5
1731B
330
747D
100
AcDbEntity
  8
部品1
100
AcDbLine
 10
9538.298453169497
 20
5283.510512061297
 30
0.0
 11
9538.298453169497
 21
5186.099444552724
 31
0.0
  0
LINE
  5
1731C
330
747D
100
AcDbEntity
  8
部品1
 48
50.0
100
AcDbLine
 10
9536.798453169488
 20
5283.510512061301
 30
0.0
 11
9564.798453169485
 21
5283.510512061301
 31
0.0
  0
LINE
  5
1731D
330
747D
100
AcDbEntity
  8
部品1
 48
50.0
100
AcDbLine
 10
9609.798453169489
 20
5283.510512061301
 30
0.0
 11
9599.29845316949
 21
5264.110512061299
 31
0.0
  0
LINE
  5
1731E
330
747D
100
AcDbEntity
  8
部品1
 48
50.0
100
AcDbLine
 10
9637.798453169489
 20
5283.510512061301
 30
0.0
 11
9648.298453169489
 21
5264.110512061299
 31
0.0
  0
LINE
  5
1731F
330
747D
100
AcDbEntity
  8
部品1
 48
50.0
100
AcDbLine
 10
9609.798453169489
 20
5283.510512061301
 30
0.0
 11
9637.798453169487
 21
5283.510512061301
 31
0.0
  0
LINE
  5
17320
330
747D
100
AcDbEntity
  8
部品1
100
AcDbLine
 10
9611.298453169496
 20
5283.510512061297
 30
0.0
 11
9611.298453169499
 21
5186.099444552724
 31
0.0
  0
LINE
  5
17321
330
747D
100
AcDbEntity
  8
部品1
100
AcDbLine
 10
9636.298453169496
 20
5283.510512061297
 30
0.0
 11
9636.2984531695
 21
5186.099444552724
 31
0.0
  0
DIMENSION
  5
17322
330
747D
100
AcDbEntity
  8
寸法
 48
50.0
100
AcDbDimension
  2
*D2
 10
11153.29845316948
 20
5904.129781010746
 30
0.0
 11
9788.298453169481
 21
5904.129781010746
 31
0.0
 70
   160
 71
     5
 42
2729.999999999999
  3
INABA_S40G
100
AcDbAlignedDimension
 13
8423.298453169483
 23
5288.510512052834
 33
0.0
 14
11153.29845316948
 24
5288.51051205283
 34
0.0
100
AcDbRotatedDimension
  0
DIMENSION
  5
17323
330
747D
100
AcDbEntity
  8
寸法
 48
50.0
100
AcDbDimension
  2
*D3
 10
8423.298453169483
 20
5687.6036813923
 30
0.0
 11
8109.813171795234
 21
5687.6036813923
 31
0.0
 70
   160
 71
     5
 42
50.0
  3
INABA_S40G
100
AcDbAlignedDimension
 13
8473.298453169482
 23
5288.510512052834
 33
0.0
 14
8423.298453169483
 24
5288.510512052834
 34
0.0
100
AcDbRotatedDimension
1001
ACAD
1000
DSTYLE
1002
{
1002
}
  0
DIMENSION
  5
17324
330
747D
100
AcDbEntity
  8
寸法
 48
50.0
100
AcDbDimension
  2
*D4
 10
8473.298453169482
 20
5687.6036813923
 30
0.0
 11
9788.298453169481
 21
5687.6036813923
 31
0.0
 70
   160
  1
柱外寸法<>
 71
     5
 42
2629.999999999999
  3
INABA_S40G
100
AcDbAlignedDimension
 13
11103.29845316948
 23
5288.510512052834
 33
0.0
 14
8473.298453169482
 24
5288.510512052834
 34
0.0
100
AcDbRotatedDimension
  0
LINE
  5
173D5
330
747D
100
AcDbEntity
  8
部品1
 48
50.0
100
AcDbLine
 10
9755.298453169482
 20
4996.510512077595
 30
0.0
 11
9755.29845316948
 21
2963.510512052824
 31
0.0
  0
LINE
  5
173D6
330
747D
100
AcDbEntity
  8
部品1
100
AcDbLine
 10
10409.29844347433
 20
4996.510512089979
 30
0.0
 11
10409.29844347434
 21
2971.010512089994
 31
0.0
  0
LINE
  5
173D7
330
747D
100
AcDbEntity
  8
細線
100
AcDbLine
 10
9655.298453169486
 20
4996.510512052828
 30
0.0
 11
9655.29845316948
 21
2963.510512052835
 31
0.0
  0
LINE
  5
173D8
330
747D
100
AcDbEntity
  8
細線
100
AcDbLine
 10
9585.298453169484
 20
4996.510512052828
 30
0.0
 11
9585.29845316948
 21
2963.510512052835
 31
0.0
  0
LINE
  5
173D9
330
747D
100
AcDbEntity
  8
細線
100
AcDbLine
 10
9515.298453169483
 20
4996.510512052828
 30
0.0
 11
9515.29845316948
 21
2963.510512052831
 31
0.0
  0
LINE
  5
173DA
330
747D
100
AcDbEntity
  8
細線
100
AcDbLine
 10
9445.298453169483
 20
4996.510512052828
 30
0.0
 11
9445.298453169481
 21
2963.510512052831
 31
0.0
  0
LINE
  5
173DB
330
747D
100
AcDbEntity
  8
細線
100
AcDbLine
 10
9375.298453169483
 20
4996.510512052828
 30
0.0
 11
9375.298453169481
 21
2963.510512052831
 31
0.0
  0
LINE
  5
173DC
330
747D
100
AcDbEntity
  8
細線
100
AcDbLine
 10
9305.298453169482
 20
4996.510512052828
 30
0.0
 11
9305.298453169481
 21
2963.510512052831
 31
0.0
  0
LINE
  5
173DD
330
747D
100
AcDbEntity
  8
部品1
100
AcDbLine
 10
9121.29845316948
 20
4996.510512052828
 30
0.0
 11
9121.298453169485
 21
2963.510512052831
 31
0.0
  0
LINE
  5
173DE
330
747D
100
AcDbEntity
  8
部品1
100
AcDbLine
 10
9071.298453169481
 20
4996.510512052828
 30
0.0
 11
9071.298453169484
 21
2963.510512052831
 31
0.0
  0
LINE
  5
173DF
330
747D
100
AcDbEntity
  8
細線
100
AcDbLine
 10
9113.29845316948
 20
4996.510512052828
 30
0.0
 11
9113.298453169484
 21
2963.510512052831
 31
0.0
  0
LINE
  5
173E0
330
747D
100
AcDbEntity
  8
細線
100
AcDbLine
 10
9079.29845316948
 20
4996.510512052828
 30
0.0
 11
9079.298453169483
 21
2963.510512052831
 31
0.0
  0
LINE
  5
173E1
330
747D
100
AcDbEntity
  8
細線
100
AcDbLine
 10
10306.79846291973
 20
4996.510512052828
 30
0.0
 11
10306.79846291973
 21
2971.010512052839
 31
0.0
  0
LINE
  5
173E2
330
747D
100
AcDbEntity
  8
細線
100
AcDbLine
 10
10236.79846291972
 20
4996.510512052828
 30
0.0
 11
10236.79846291972
 21
2971.010512052839
 31
0.0
  0
LINE
  5
173E3
330
747D
100
AcDbEntity
  8
細線
100
AcDbLine
 10
10166.79846291973
 20
4996.510512052828
 30
0.0
 11
10166.79846291973
 21
2971.010512052839
 31
0.0
  0
LINE
  5
173E4
330
747D
100
AcDbEntity
  8
細線
100
AcDbLine
 10
10096.79846291972
 20
4996.510512052828
 30
0.0
 11
10096.79846291972
 21
2971.010512052839
 31
0.0
  0
LINE
  5
173E5
330
747D
100
AcDbEntity
  8
細線
100
AcDbLine
 10
10026.79846291973
 20
4996.510512052828
 30
0.0
 11
10026.79846291973
 21
2971.010512052839
 31
0.0
  0
LINE
  5
173E6
330
747D
100
AcDbEntity
  8
細線
100
AcDbLine
 10
9956.798462919728
 20
4996.510512052828
 30
0.0
 11
9956.798462919728
 21
2971.010512052839
 31
0.0
  0
LINE
  5
173E7
330
747D
100
AcDbEntity
  8
細線
100
AcDbLine
 10
10882.04845316948
 20
4996.510512052828
 30
0.0
 11
10882.04845316948
 21
2971.010512052846
 31
0.0
  0
LINE
  5
173E8
330
747D
100
AcDbEntity
  8
細線
100
AcDbLine
 10
10812.04845316948
 20
4996.510512052828
 30
0.0
 11
10812.04845316948
 21
2971.010512052846
 31
0.0
  0
LINE
  5
173E9
330
747D
100
AcDbEntity
  8
細線
100
AcDbLine
 10
10742.04845316948
 20
4996.510512052828
 30
0.0
 11
10742.04845316948
 21
2971.010512052846
 31
0.0
  0
LINE
  5
173EA
330
747D
100
AcDbEntity
  8
細線
100
AcDbLine
 10
10672.04845316948
 20
4996.510512052828
 30
0.0
 11
10672.04845316948
 21
2971.010512052846
 31
0.0
  0
LINE
  5
173EB
330
747D
100
AcDbEntity
  8
細線
100
AcDbLine
 10
10602.04845316948
 20
4996.510512052828
 30
0.0
 11
10602.04845316948
 21
2971.010512052846
 31
0.0
  0
LINE
  5
173EC
330
747D
100
AcDbEntity
  8
細線
100
AcDbLine
 10
9235.298453169484
 20
4996.510512052828
 30
0.0
 11
9235.29845316948
 21
2963.510512052831
 31
0.0
  0
LINE
  5
173ED
330
747D
100
AcDbEntity
  8
細線
100
AcDbLine
 10
9165.298453169484
 20
4996.510512052828
 30
0.0
 11
9165.29845316948
 21
2963.510512052831
 31
0.0
  0
LINE
  5
173EE
330
747D
100
AcDbEntity
  8
細線
100
AcDbLine
 10
9886.798462919728
 20
4996.510512052828
 30
0.0
 11
9886.798462919728
 21
2971.010512052839
 31
0.0
  0
LINE
  5
173EF
330
747D
100
AcDbEntity
  8
細線
100
AcDbLine
 10
9816.798462919727
 20
4996.510512052828
 30
0.0
 11
9816.798462919727
 21
2971.010512052839
 31
0.0
  0
LINE
  5
173F0
330
747D
100
AcDbEntity
  8
細線
100
AcDbLine
 10
10532.04845316948
 20
4996.510512052828
 30
0.0
 11
10532.04845316948
 21
2971.010512052846
 31
0.0
  0
LINE
  5
173F1
330
747D
100
AcDbEntity
  8
部品1
 48
50.0
100
AcDbLine
 10
11075.29845316948
 20
5004.510512052828
 30
0.0
 11
11045.29845316948
 21
5004.510512052828
 31
0.0
  0
LINE
  5
173F2
330
747D
100
AcDbEntity
  8
細線
 48
50.0
100
AcDbLine
 10
11023.29845316948
 20
2960.510512052828
 30
0.0
 11
11019.29845316948
 21
2971.010512052828
 31
0.0
  0
LINE
  5
173F3
330
747D
100
AcDbEntity
  8
部品1
 48
50.0
100
AcDbLine
 10
10409.29844347434
 20
4996.510512089975
 30
0.0
 11
10409.29844347434
 21
2971.010512089975
 31
0.0
  0
LINE
  5
173F4
330
747D
100
AcDbEntity
  8
部品1
 48
50.0
100
AcDbLine
 10
11075.29845316948
 20
2913.510512052828
 30
0.0
 11
11075.29845316948
 21
5048.510512052828
 31
0.0
  0
LINE
  5
173F5
330
747D
100
AcDbEntity
  8
細線
 48
50.0
100
AcDbLine
 10
11045.29845316948
 20
2913.510512052828
 30
0.0
 11
11045.29845316948
 21
5006.010512052828
 31
0.0
  0
LINE
  5
173F6
330
747D
100
AcDbEntity
  8
部品1
 48
50.0
100
AcDbLine
 10
11036.29845316948
 20
2960.510512052828
 30
0.0
 11
11036.29845316948
 21
4996.510512052828
 31
0.0
  0
LINE
  5
173F7
330
747D
100
AcDbEntity
  8
部品1
 48
50.0
100
AcDbLine
 10
8951.298453169483
 20
5004.510512052828
 30
0.0
 11
8921.298453169484
 21
5004.510512052828
 31
0.0
  0
LINE
  5
173F8
330
747D
100
AcDbEntity
  8
部品1
 48
50.0
100
AcDbLine
 10
8960.298453169484
 20
2963.510512052828
 30
0.0
 11
8960.298453169484
 21
2960.510512052828
 31
0.0
  0
LINE
  5
173F9
330
747D
100
AcDbEntity
  8
部品1
 48
50.0
100
AcDbLine
 10
8951.298453169483
 20
2963.510512052828
 30
0.0
 11
9755.29845316948
 21
2963.510512052824
 31
0.0
  0
LINE
  5
173FA
330
747D
100
AcDbEntity
  8
部品1
 48
50.0
100
AcDbLine
 10
9755.298453169482
 20
4996.510512077595
 30
0.0
 11
9755.298453169482
 21
2963.510512077596
 31
0.0
  0
LINE
  5
173FB
330
747D
100
AcDbEntity
  8
部品1
 48
50.0
100
AcDbLine
 10
8921.298453169484
 20
5048.510512052828
 30
0.0
 11
8921.298453169484
 21
2913.510512052828
 31
0.0
  0
LINE
  5
173FC
330
747D
100
AcDbEntity
  8
細線
 48
50.0
100
AcDbLine
 10
8951.298453169483
 20
5006.010512052828
 30
0.0
 11
8951.298453169483
 21
2913.510512052828
 31
0.0
  0
LINE
  5
173FD
330
747D
100
AcDbEntity
  8
部品1
 48
50.0
100
AcDbLine
 10
8951.298453169483
 20
2963.510512052828
 30
0.0
 11
8951.298453169483
 21
4996.510512052828
 31
0.0
  0
LINE
  5
173FE
330
747D
100
AcDbEntity
  8
細線
 48
50.0
100
AcDbLine
 10
9755.298453169482
 20
2971.010512052828
 30
0.0
 11
11019.29845316948
 21
2971.010512052828
 31
0.0
  0
LINE
  5
173FF
330
747D
100
AcDbEntity
  8
細線
 48
50.0
100
AcDbLine
 10
8951.298453169483
 20
2960.510512052828
 30
0.0
 11
11045.29845316948
 21
2960.510512052828
 31
0.0
  0
LINE
  5
17400
330
747D
100
AcDbEntity
  8
細線
 48
50.0
100
AcDbLine
 10
8951.298453169483
 20
2956.510512052828
 30
0.0
 11
11045.29845316948
 21
2956.510512052828
 31
0.0
  0
LINE
  5
17401
330
747D
100
AcDbEntity
  8
部品1
 48
50.0
100
AcDbLine
 10
8921.298453169484
 20
2913.510512052828
 30
0.0
 11
11075.29845316948
 21
2913.510512052828
 31
0.0
  0
LINE
  5
17402
330
747D
100
AcDbEntity
  8
細線
 48
50.0
100
AcDbLine
 10
11045.29845316948
 20
5006.010512052828
 30
0.0
 11
8951.298453169483
 21
5006.010512052828
 31
0.0
  0
LINE
  5
17403
330
747D
100
AcDbEntity
  8
細線
 48
50.0
100
AcDbLine
 10
11045.29845316948
 20
4996.510512052828
 30
0.0
 11
8951.298453169483
 21
4996.510512052828
 31
0.0
  0
LINE
  5
17404
330
747D
100
AcDbEntity
  8
細線
 48
50.0
100
AcDbLine
 10
11075.29845316948
 20
5038.510512052828
 30
0.0
 11
8921.298453169484
 21
5038.510512052828
 31
0.0
  0
LINE
  5
17405
330
747D
100
AcDbEntity
  8
部品1
 48
50.0
100
AcDbLine
 10
11075.29845316948
 20
5048.510512052828
 30
0.0
 11
8921.298453169484
 21
5048.510512052828
 31
0.0
  0
MTEXT
  5
17423
330
747D
100
AcDbEntity
  8
寸法
 62
     7
 48
50.0
100
AcDbMText
 10
10453.40099026263
 20
9128.249376681644
 30
0.0
 40
96.0
 41
0.0
 71
     5
 72
     1
  1
棚 3段
  7
STYLE1
 73
     1
 44
1.0
1001
ACAD
1000
MTEXTBEGIN
1070
    73
1070
     1
1070
    44
1040
1.0
1070
    74
1070
     0
1000
MTEXTEND
  0
MTEXT
  5
17424
330
747D
100
AcDbEntity
  8
寸法
 62
     7
 48
50.0
100
AcDbMText
 10
9153.400990262596
 20
9128.249376681621
 30
0.0
 40
96.0
 41
0.0
 71
     5
 72
     1
  1
棚 3段
  7
STYLE1
 73
     1
 44
1.0
1001
ACAD
1000
MTEXTBEGIN
1070
    73
1070
     1
1070
    44
1040
1.0
1070
    74
1070
     0
1000
MTEXTEND
  0
TEXT
  5
17425
330
747D
100
AcDbEntity
  8
文字
 62
     7
 48
50.0
100
AcDbText
 10
13209.4053442172
 20
228.5435242569015
 30
0.0
 40
100.0
  1
○有効開口寸法 ： 1266×2025(mm)
  7
STYLE2
100
AcDbText
  0
TEXT
  5
17426
330
747D
100
AcDbEntity
  8
文字
 62
     7
 48
50.0
100
AcDbText
 10
14491.96323844892
 20
483.8967129911416
 30
0.0
 40
160.0
  1
ＮＸＮ－３６ＨＡ
  7
STYLE2
100
AcDbText
  0
LINE
  5
17427
330
747D
100
AcDbEntity
  8
破線
 48
5.0
100
AcDbLine
 10
6487.275823071687
 20
2813.510512052828
 30
0.0
 11
6487.275823071687
 21
2613.510512052828
 31
0.0
  0
LINE
  5
17428
330
747D
100
AcDbEntity
  8
破線
 48
5.0
100
AcDbLine
 10
6687.275823071683
 20
2613.510512052827
 30
0.0
 11
6487.275823071687
 21
2613.510512052828
 31
0.0
  0
LINE
  5
17429
330
747D
100
AcDbEntity
  8
破線
 48
5.0
100
AcDbLine
 10
6687.275823071686
 20
2813.510512052828
 30
0.0
 11
6687.275823071683
 21
2613.510512052827
 31
0.0
  0
DIMENSION
  5
1742A
330
747D
100
AcDbEntity
  8
寸法
 48
50.0
100
AcDbDimension
  2
*D5
 10
5172.275823071682
 20
2327.463182752449
 30
0.0
 11
5272.27582307168
 21
2327.463182752449
 31
0.0
 70
   160
 71
     5
 42
199.9999999999963
  3
INABA_S40G
100
AcDbAlignedDimension
 13
5372.275823071679
 23
2613.510512052826
 33
0.0
 14
5172.275823071682
 24
2613.510512052827
 34
0.0
100
AcDbRotatedDimension
  0
LINE
  5
1742B
330
747D
100
AcDbEntity
  8
破線
 48
5.0
100
AcDbLine
 10
5172.275823071682
 20
2813.510512052828
 30
0.0
 11
5172.275823071682
 21
2613.510512052827
 31
0.0
  0
LINE
  5
1742C
330
747D
100
AcDbEntity
  8
破線
 48
5.0
100
AcDbLine
 10
5372.275823071682
 20
2813.510512052828
 30
0.0
 11
5372.275823071679
 21
2613.510512052827
 31
0.0
  0
LINE
  5
1742D
330
747D
100
AcDbEntity
  8
破線
 48
5.0
100
AcDbLine
 10
5372.275823071679
 20
2613.510512052827
 30
0.0
 11
5172.275823071682
 21
2613.510512052827
 31
0.0
  0
DIMENSION
  5
1742E
330
747D
100
AcDbEntity
  8
寸法
 48
50.0
100
AcDbDimension
  2
*D6
 10
5022.775819825047
 20
2813.510512052828
 30
0.0
 11
4892.976090674874
 21
2688.718966856618
 31
0.0
 70
   160
 71
     5
 42
200.0000000000009
  3
INABA_S40G
100
AcDbAlignedDimension
 13
5172.275823071682
 23
2613.510512052827
 33
0.0
 14
5147.275823071683
 24
2813.510512052828
 34
0.0
 50
90.0
100
AcDbRotatedDimension
1001
ACAD
1000
DSTYLE
1002
{
1070
   174
1070
     0
1070
   272
1070
     1
1070
   279
1070
     2
1070
   341
1005
0
1002
}
  0
LINE
  5
1742F
330
747D
100
AcDbEntity
  8
部品1
 48
50.0
100
AcDbLine
 10
5789.775823071682
 20
5419.378651154108
 30
0.0
 11
6089.775823071683
 21
5397.778651154109
 31
0.0
  0
LINE
  5
17430
330
747D
100
AcDbEntity
  8
細線
 48
50.0
100
AcDbLine
 10
6217.275823071683
 20
5053.510512052827
 30
0.0
 11
6217.275823071683
 21
2963.510512052828
 31
0.0
  0
LINE
  5
17431
330
747D
100
AcDbEntity
  8
細線
 48
50.0
100
AcDbLine
 10
6202.275823071683
 20
5053.510512052827
 30
0.0
 11
6202.275823071683
 21
2963.510512052828
 31
0.0
  0
LINE
  5
17432
330
747D
100
AcDbEntity
  8
細線
 48
50.0
100
AcDbLine
 10
6342.275823071683
 20
5053.510512052827
 30
0.0
 11
6342.275823071683
 21
2963.510512052828
 31
0.0
  0
LINE
  5
17433
330
747D
100
AcDbEntity
  8
細線
 48
50.0
100
AcDbLine
 10
6357.275823071683
 20
5053.510512052827
 30
0.0
 11
6357.275823071683
 21
2963.510512052828
 31
0.0
  0
LINE
  5
17434
330
747D
100
AcDbEntity
  8
細線
 48
50.0
100
AcDbLine
 10
6497.275823071683
 20
5053.510512052827
 30
0.0
 11
6497.275823071683
 21
2963.510512052828
 31
0.0
  0
LINE
  5
17435
330
747D
100
AcDbEntity
  8
細線
 48
50.0
100
AcDbLine
 10
6482.275823071683
 20
5053.510512052827
 30
0.0
 11
6482.275823071683
 21
2963.510512052828
 31
0.0
  0
LINE
  5
17436
330
747D
100
AcDbEntity
  8
部品1
100
AcDbLine
 10
6139.775823071679
 20
5053.510512052827
 30
0.0
 11
6139.775823071679
 21
2963.510512052828
 31
0.0
  0
TEXT
  5
17437
330
747D
100
AcDbEntity
  8
部品1
 48
50.0
100
AcDbText
 10
6266.868670359541
 20
5317.761415088258
 30
0.0
 40
120.0
  1
71
 50
90.0
  7
STYLE1
100
AcDbText
  0
TEXT
  5
17438
330
747D
100
AcDbEntity
  8
部品1
 48
50.0
100
AcDbText
 10
5778.04365829541
 20
5455.262673306541
 30
0.0
 40
120.0
  1
1000
  7
STYLE1
100
AcDbText
  0
LINE
  5
17439
330
747D
100
AcDbEntity
  8
部品1
 48
50.0
100
AcDbLine
 10
6089.775823071683
 20
5419.378651154108
 30
0.0
 11
6089.775823071683
 21
5397.778651154109
 31
0.0
  0
LINE
  5
1743A
330
747D
100
AcDbEntity
  8
部品1
 48
50.0
100
AcDbLine
 10
5789.775823071682
 20
5419.378651154108
 30
0.0
 11
6089.775823071683
 21
5419.378651154108
 31
0.0
  0
DIMENSION
  5
1743B
330
747D
100
AcDbEntity
  8
寸法
 48
50.0
100
AcDbDimension
  2
*D7
 10
4592.509571360316
 20
5310.333002949644
 30
0.0
 11
4601.187315012203
 21
5540.169241966541
 31
0.0
 70
   160
 71
     5
 42
141.0
  3
INABA_S40G
100
AcDbAlignedDimension
 13
5200.118387673636
 23
5146.291537121795
 33
0.0
 14
5205.438221825589
 24
5287.191144518678
 34
0.0
 50
87.83775598715743
100
AcDbRotatedDimension
1001
ACAD
1000
DSTYLE
1002
{
1070
   174
1070
     0
1070
   272
1070
     1
1070
   288
1070
     0
1070
   341
1005
0
1002
}
  0
DIMENSION
  5
1743C
330
747D
100
AcDbEntity
  8
寸法
 48
50.0
100
AcDbDimension
  2
*D8
 10
6694.775823071683
 20
5687.167965632132
 30
0.0
 11
6900.823067166172
 21
5687.167965632132
 31
0.0
 70
   160
 71
     5
 42
80.0
  3
INABA_S40G
100
AcDbAlignedDimension
 13
6614.775823071683
 23
5235.321191664482
 33
0.0
 14
6694.775823071683
 24
5233.510512052829
 34
0.0
100
AcDbRotatedDimension
1001
ACAD
1000
DSTYLE
1002
{
1070
   174
1070
     0
1070
   272
1070
     1
1070
   288
1070
     0
1070
   341
1005
0
1002
}
  0
ARC
  5
1743D
330
747D
100
AcDbEntity
  8
部品1
100
AcDbCircle
 10
6680.403358885619
 20
5126.944312937045
 30
0.0
 40
0.7
100
AcDbArc
 50
275.0921697642102
 51
354.1866997667087
  0
ARC
  5
1743E
330
747D
100
AcDbEntity
  8
部品1
100
AcDbCircle
 10
6691.262704634937
 20
5203.987567754968
 30
0.0
 40
0.7
100
AcDbArc
 50
275.0921697642102
 51
354.1866997665532
  0
ARC
  5
1743F
330
747D
100
AcDbEntity
  8
部品1
100
AcDbCircle
 10
6691.591109877539
 20
5200.302170897879
 30
0.0
 40
3.0
100
AcDbArc
 50
95.09216976441896
 51
174.1866997665532
  0
ARC
  5
17440
330
747D
100
AcDbEntity
  8
部品1
100
AcDbCircle
 10
6680.731764128214
 20
5123.258916079954
 30
0.0
 40
3.0
100
AcDbArc
 50
95.0921697642102
 51
174.1866997665532
  0
ARC
  5
17441
330
747D
100
AcDbEntity
  8
部品1
 48
50.0
100
AcDbCircle
 10
6669.703628853112
 20
5113.668171476074
 30
0.0
 40
7.0
100
AcDbArc
 50
267.8377559869487
 51
354.1866997665532
  0
ARC
  5
17442
330
747D
100
AcDbEntity
  8
部品1
 48
50.0
100
AcDbCircle
 10
6687.025725317628
 20
5224.570718618246
 30
0.0
 40
7.0
100
AcDbArc
 50
354.1866997665013
 51
87.03587545303976
  0
LINE
  5
17443
330
747D
100
AcDbEntity
  8
部品1
 48
50.0
100
AcDbLine
 10
6677.747192457606
 20
5123.562777796859
 30
0.0
 11
6676.667629417865
 21
5112.959160803301
 31
0.0
  0
LINE
  5
17444
330
747D
100
AcDbEntity
  8
部品1
 48
50.0
100
AcDbLine
 10
6688.606538206929
 20
5200.606032614782
 30
0.0
 11
6681.099758942091
 21
5126.87341186977
 31
0.0
  0
LINE
  5
17445
330
747D
100
AcDbEntity
  8
部品1
 48
50.0
100
AcDbLine
 10
6693.989725882381
 20
5223.86170794547
 30
0.0
 11
6691.95910469141
 21
5203.916666687692
 31
0.0
  0
ARC
  5
17446
330
747D
100
AcDbEntity
  8
部品1
100
AcDbCircle
 10
5190.812914943046
 20
5167.324671011731
 30
0.0
 40
0.7
100
AcDbArc
 50
181.0932240292114
 51
260.1877540314867
  0
ARC
  5
17447
330
747D
100
AcDbEntity
  8
部品1
100
AcDbCircle
 10
5186.040241345436
 20
5260.190449211852
 30
0.0
 40
0.7
100
AcDbArc
 50
181.0932240292114
 51
260.1877540314867
  0
ARC
  5
17448
330
747D
100
AcDbEntity
  8
部品1
100
AcDbCircle
 10
5185.409686942413
 20
5256.544574674453
 30
0.0
 40
3.0
100
AcDbArc
 50
1.093224029263536
 51
80.18775403148671
  0
ARC
  5
17449
330
747D
100
AcDbEntity
  8
部品1
100
AcDbCircle
 10
5190.182360540021
 20
5163.678796474335
 30
0.0
 40
3.0
100
AcDbArc
 50
1.093224029315636
 51
80.18775403148671
  0
ARC
  5
1744A
330
747D
100
AcDbEntity
  8
部品1
 48
50.0
100
AcDbCircle
 10
5200.382492915221
 20
5153.286553091853
 30
0.0
 40
7.0
100
AcDbArc
 50
181.0932240293156
 51
267.8377559869487
  0
ARC
  5
1744B
330
747D
100
AcDbEntity
  8
部品1
 48
50.0
100
AcDbCircle
 10
5191.958834813125
 20
5280.237612624947
 30
0.0
 40
7.0
100
AcDbArc
 50
87.03587545303976
 51
181.0932240292635
  0
LINE
  5
1744C
330
747D
100
AcDbEntity
  8
部品1
 48
50.0
100
AcDbLine
 10
5193.18181446645
 20
5163.736034077517
 30
0.0
 11
5193.383767086885
 21
5153.152998684426
 31
0.0
  0
LINE
  5
1744D
330
747D
100
AcDbEntity
  8
細線
 48
50.0
100
AcDbLine
 10
5190.575721409779
 20
5166.666082196327
 30
0.0
 11
6680.579385840417
 21
5126.266806840258
 31
0.0
  0
LINE
  5
1744E
330
747D
100
AcDbEntity
  8
細線
 48
50.0
100
AcDbLine
 10
5185.815246172493
 20
5259.527593894189
 30
0.0
 11
6691.451230917661
 21
5203.313432871786
 31
0.0
  0
LINE
  5
1744F
330
747D
100
AcDbEntity
  8
部品1
 48
50.0
100
AcDbLine
 10
5188.409140868844
 20
5256.601812277637
 30
0.0
 11
5190.113042360212
 21
5167.311315570991
 31
0.0
  0
LINE
  5
17450
330
747D
100
AcDbEntity
  8
部品1
 48
50.0
100
AcDbLine
 10
5184.960108984789
 20
5280.104058217521
 30
0.0
 11
5185.340368762601
 21
5260.177093771108
 31
0.0
  0
LINE
  5
17451
330
747D
100
AcDbEntity
  8
細線
 48
50.0
100
AcDbLine
 10
6661.775823071683
 20
5232.887534706549
 30
0.0
 11
6657.028140183681
 21
5107.141762215804
 31
0.0
  0
LINE
  5
17452
330
747D
100
AcDbEntity
  8
細線
 48
50.0
100
AcDbLine
 10
5217.775823071683
 20
5285.910188428232
 30
0.0
 11
5212.486721516172
 21
5145.824555800878
 31
0.0
  0
LINE
  5
17453
330
747D
100
AcDbEntity
  8
部品1
100
AcDbLine
 10
5200.118387673636
 20
5146.291537121795
 30
0.0
 11
6669.439523611524
 21
5106.673155506014
 31
0.0
  0
LINE
  5
17454
330
747D
100
AcDbEntity
  8
部品1
100
AcDbLine
 10
5192.320809428642
 20
5287.228247387094
 30
0.0
 11
6687.387699933144
 21
5231.561353380392
 31
0.0
  0
LINE
  5
17455
330
747D
100
AcDbEntity
  8
細線
 48
50.0
100
AcDbLine
 10
5377.275823071679
 20
5053.510512052827
 30
0.0
 11
5377.275823071679
 21
2963.510512052828
 31
0.0
  0
LINE
  5
17456
330
747D
100
AcDbEntity
  8
細線
 48
50.0
100
AcDbLine
 10
5362.275823071679
 20
5053.510512052827
 30
0.0
 11
5362.275823071679
 21
2963.510512052828
 31
0.0
  0
LINE
  5
17457
330
747D
100
AcDbEntity
  8
細線
 48
50.0
100
AcDbLine
 10
5502.275823071679
 20
5053.510512052827
 30
0.0
 11
5502.275823071679
 21
2963.510512052828
 31
0.0
  0
LINE
  5
17458
330
747D
100
AcDbEntity
  8
細線
 48
50.0
100
AcDbLine
 10
5517.275823071679
 20
5053.510512052827
 30
0.0
 11
5517.275823071679
 21
2963.510512052828
 31
0.0
  0
LINE
  5
17459
330
747D
100
AcDbEntity
  8
細線
 48
50.0
100
AcDbLine
 10
5657.275823071679
 20
5053.510512052827
 30
0.0
 11
5657.275823071679
 21
2963.510512052828
 31
0.0
  0
LINE
  5
1745A
330
747D
100
AcDbEntity
  8
細線
 48
50.0
100
AcDbLine
 10
5642.275823071679
 20
5053.510512052827
 30
0.0
 11
5642.275823071679
 21
2963.510512052828
 31
0.0
  0
LINE
  5
1745B
330
747D
100
AcDbEntity
  8
細線
 48
50.0
100
AcDbLine
 10
6062.275823071679
 20
5053.510512052827
 30
0.0
 11
6062.275823071679
 21
2963.510512052828
 31
0.0
  0
LINE
  5
1745C
330
747D
100
AcDbEntity
  8
細線
 48
50.0
100
AcDbLine
 10
6077.275823071679
 20
5053.510512052827
 30
0.0
 11
6077.275823071679
 21
2963.510512052828
 31
0.0
  0
LINE
  5
1745D
330
747D
100
AcDbEntity
  8
細線
 48
50.0
100
AcDbLine
 10
5937.275823071679
 20
5053.510512052827
 30
0.0
 11
5937.275823071679
 21
2963.510512052828
 31
0.0
  0
LINE
  5
1745E
330
747D
100
AcDbEntity
  8
細線
 48
50.0
100
AcDbLine
 10
5922.275823071679
 20
5053.510512052827
 30
0.0
 11
5922.275823071679
 21
2963.510512052828
 31
0.0
  0
LINE
  5
1745F
330
747D
100
AcDbEntity
  8
細線
 48
50.0
100
AcDbLine
 10
5782.275823071679
 20
5053.510512052827
 30
0.0
 11
5782.275823071679
 21
2963.510512052828
 31
0.0
  0
LINE
  5
17460
330
747D
100
AcDbEntity
  8
細線
 48
50.0
100
AcDbLine
 10
5797.275823071679
 20
5053.510512052827
 30
0.0
 11
5797.275823071679
 21
2963.510512052828
 31
0.0
  0
LINE
  5
17461
330
747D
100
AcDbEntity
  8
部品1
100
AcDbLine
 10
5292.275823071683
 20
2913.510512052828
 30
0.0
 11
6567.275823071679
 21
2913.510512052828
 31
0.0
  0
LINE
  5
17462
330
747D
100
AcDbEntity
  8
部品1
100
AcDbLine
 10
6607.275823071683
 20
2913.510512052828
 30
0.0
 11
6614.775823071683
 21
2913.510512052828
 31
0.0
  0
LINE
  5
17463
330
747D
100
AcDbEntity
  8
破線
  6
HIDDEN
 48
5.0
100
AcDbLine
 10
5292.275823071683
 20
2813.510512052828
 30
0.0
 11
5292.275823071683
 21
2808.510512052828
 31
0.0
  0
LINE
  5
17464
330
747D
100
AcDbEntity
  8
破線
  6
HIDDEN
 48
5.0
100
AcDbLine
 10
5252.275823071687
 20
2813.510512052828
 30
0.0
 11
5252.275823071687
 21
2808.510512052828
 31
0.0
  0
LINE
  5
17465
330
747D
100
AcDbEntity
  8
破線
  6
HIDDEN
 48
5.0
100
AcDbLine
 10
6607.275823071678
 20
2813.510512052828
 30
0.0
 11
6607.275823071678
 21
2808.510512052828
 31
0.0
  0
LINE
  5
17466
330
747D
100
AcDbEntity
  8
破線
  6
HIDDEN
 48
5.0
100
AcDbLine
 10
6567.275823071682
 20
2813.510512052828
 30
0.0
 11
6567.275823071682
 21
2808.510512052828
 31
0.0
  0
ARC
  5
17467
330
747D
100
AcDbEntity
  8
部品1
 48
50.0
100
AcDbCircle
 10
6602.275823071683
 20
2953.510512052828
 30
0.0
 40
5.0
100
AcDbArc
 50
0.0
 51
90.0
  0
ARC
  5
17468
330
747D
100
AcDbEntity
  8
部品1
 48
50.0
100
AcDbCircle
 10
6572.275823071679
 20
2953.510512052828
 30
0.0
 40
5.0
100
AcDbArc
 50
90.0
 51
180.0
  0
LINE
  5
17469
330
747D
100
AcDbEntity
  8
部品1
100
AcDbLine
 10
6602.275823071683
 20
2958.510512052828
 30
0.0
 11
6572.275823071679
 21
2958.510512052828
 31
0.0
  0
LINE
  5
1746A
330
747D
100
AcDbEntity
  8
部品1
 48
50.0
100
AcDbLine
 10
6607.275823071683
 20
2953.510512052828
 30
0.0
 11
6607.275823071678
 21
2813.510512052828
 31
0.0
  0
LINE
  5
1746B
330
747D
100
AcDbEntity
  8
部品1
 48
50.0
100
AcDbLine
 10
6567.275823071679
 20
2953.510512052828
 30
0.0
 11
6567.275823071682
 21
2813.510512052828
 31
0.0
  0
ARC
  5
1746C
330
747D
100
AcDbEntity
  8
部品1
 48
50.0
100
AcDbCircle
 10
5287.275823071682
 20
2953.510512052828
 30
0.0
 40
5.0
100
AcDbArc
 50
0.0
 51
90.0
  0
ARC
  5
1746D
330
747D
100
AcDbEntity
  8
部品1
 48
50.0
100
AcDbCircle
 10
5257.27582307168
 20
2953.510512052828
 30
0.0
 40
5.0
100
AcDbArc
 50
90.0
 51
180.0
  0
LINE
  5
1746E
330
747D
100
AcDbEntity
  8
部品1
100
AcDbLine
 10
5257.27582307168
 20
2958.510512052828
 30
0.0
 11
5287.275823071682
 21
2958.510512052828
 31
0.0
  0
LINE
  5
1746F
330
747D
100
AcDbEntity
  8
部品1
 48
50.0
100
AcDbLine
 10
5292.275823071683
 20
2953.510512052828
 30
0.0
 11
5292.27582307168
 21
2813.510512052828
 31
0.0
  0
LINE
  5
17470
330
747D
100
AcDbEntity
  8
部品1
 48
50.0
100
AcDbLine
 10
5252.275823071679
 20
2953.510512052828
 30
0.0
 11
5252.275823071682
 21
2813.510512052828
 31
0.0
  0
LINE
  5
17471
330
747D
100
AcDbEntity
  8
破線
  6
HIDDEN
 48
5.0
100
AcDbLine
 10
5292.275823071683
 20
2808.510512052828
 30
0.0
 11
5307.275823071683
 21
2660.810512052827
 31
0.0
  0
LINE
  5
17472
330
747D
100
AcDbEntity
  8
破線
  6
HIDDEN
 48
5.0
100
AcDbLine
 10
5252.275823071682
 20
2808.510512052828
 30
0.0
 11
5237.275823071679
 21
2660.810512052827
 31
0.0
  0
LINE
  5
17473
330
747D
100
AcDbEntity
  8
破線
  6
HIDDEN
 48
5.0
100
AcDbLine
 10
5307.275823071683
 20
2660.810512052827
 30
0.0
 11
5307.275823071679
 21
2658.510512052828
 31
0.0
  0
LINE
  5
17474
330
747D
100
AcDbEntity
  8
破線
  6
HIDDEN
 48
5.0
100
AcDbLine
 10
5237.275823071679
 20
2660.810512052827
 30
0.0
 11
5237.275823071679
 21
2658.510512052828
 31
0.0
  0
LINE
  5
17475
330
747D
100
AcDbEntity
  8
破線
  6
HIDDEN
 48
5.0
100
AcDbLine
 10
5237.275823071679
 20
2658.510512052828
 30
0.0
 11
5307.275823071679
 21
2658.510512052828
 31
0.0
  0
LINE
  5
17476
330
747D
100
AcDbEntity
  8
破線
  6
HIDDEN
 48
5.0
100
AcDbLine
 10
6622.275823071683
 20
2660.810512052827
 30
0.0
 11
6622.275823071683
 21
2658.510512052828
 31
0.0
  0
LINE
  5
17477
330
747D
100
AcDbEntity
  8
破線
  6
HIDDEN
 48
5.0
100
AcDbLine
 10
6607.275823071683
 20
2808.510512052828
 30
0.0
 11
6622.275823071683
 21
2660.810512052827
 31
0.0
  0
LINE
  5
17478
330
747D
100
AcDbEntity
  8
破線
  6
HIDDEN
 48
5.0
100
AcDbLine
 10
6552.275823071683
 20
2660.810512052827
 30
0.0
 11
6552.275823071683
 21
2658.510512052828
 31
0.0
  0
LINE
  5
17479
330
747D
100
AcDbEntity
  8
破線
  6
HIDDEN
 48
5.0
100
AcDbLine
 10
6567.275823071679
 20
2808.510512052828
 30
0.0
 11
6552.275823071683
 21
2660.810512052827
 31
0.0
  0
LINE
  5
1747A
330
747D
100
AcDbEntity
  8
破線
  6
HIDDEN
 48
5.0
100
AcDbLine
 10
6622.275823071683
 20
2658.510512052828
 30
0.0
 11
6552.275823071683
 21
2658.510512052828
 31
0.0
  0
DIMENSION
  5
1747B
330
747D
100
AcDbEntity
  8
寸法
 48
50.0
100
AcDbDimension
  2
*D9
 10
5184.775823071682
 20
5895.342286824096
 30
0.0
 11
5911.900652773503
 21
5895.342286824096
 31
0.0
 70
   160
 71
     5
 42
1510.0
  3
INABA_S40G
100
AcDbAlignedDimension
 13
6694.775823071683
 23
5233.510512052829
 33
0.0
 14
5184.775823071682
 24
5288.510512052832
 34
0.0
100
AcDbRotatedDimension
1001
ACAD
1000
DSTYLE
1002
{
1070
   174
1070
     0
1070
   272
1070
     1
1070
   288
1070
     0
1070
   341
1005
0
1002
}
  0
DIMENSION
  5
1747C
330
747D
100
AcDbEntity
  8
寸法
 48
50.0
100
AcDbDimension
  2
*D10
 10
5184.775823071682
 20
5687.167965632132
 30
0.0
 11
4875.138027796089
 21
5687.167965632132
 31
0.0
 70
   160
 71
     5
 42
60.0
  3
INABA_S40G
100
AcDbAlignedDimension
 13
5244.775823071683
 23
5284.512130175805
 33
0.0
 14
5184.775823071682
 24
5288.510512052832
 34
0.0
100
AcDbRotatedDimension
1001
ACAD
1000
DSTYLE
1002
{
1070
   174
1070
     0
1070
   272
1070
     1
1070
   288
1070
     0
1070
   341
1005
0
1002
}
  0
DIMENSION
  5
1747D
330
747D
100
AcDbEntity
  8
寸法
 48
50.0
100
AcDbDimension
  2
*D11
 10
5244.775823071683
 20
5687.167965632132
 30
0.0
 11
5894.594855962226
 21
5687.167965632132
 31
0.0
 70
   160
  1
柱外寸法<>
 71
     5
 42
1370.0
  3
INABA_S40G
100
AcDbAlignedDimension
 13
6614.775823071683
 23
5235.321191664482
 33
0.0
 14
5244.775823071683
 24
5284.512130175805
 34
0.0
100
AcDbRotatedDimension
1001
ACAD
1000
DSTYLE
1002
{
1070
   174
1070
     0
1070
   272
1070
     1
1070
   288
1070
     0
1070
   341
1005
0
1002
}
  0
LINE
  5
1747E
330
747D
100
AcDbEntity
  8
部品1
100
AcDbLine
 10
6414.775823071683
 20
2913.510512052828
 30
0.0
 11
6414.775823071683
 21
2813.510512052828
 31
0.0
  0
LINE
  5
1747F
330
747D
100
AcDbEntity
  8
部品1
100
AcDbLine
 10
5444.77582307168
 20
2913.510512052828
 30
0.0
 11
5444.77582307168
 21
2813.510512052828
 31
0.0
  0
DIMENSION
  5
17480
330
747D
100
AcDbEntity
  8
寸法
100
AcDbDimension
  2
*D12
 10
7165.256992370735
 20
5233.510512052829
 30
0.0
 11
7165.256992370735
 21
4080.286168096267
 31
0.0
 70
   160
 71
     5
 42
2320.000000000002
  3
INABA_S40G
100
AcDbAlignedDimension
 13
6691.775823071687
 23
2913.510512052827
 33
0.0
 14
6694.775823071683
 24
5233.510512052829
 34
0.0
 50
90.0
100
AcDbRotatedDimension
1001
ACAD
1000
DSTYLE
1002
{
1070
   174
1070
     0
1070
   272
1070
     1
1070
   288
1070
     0
1070
   341
1005
0
1002
}
  0
LINE
  5
17481
330
747D
100
AcDbEntity
  8
部品1
100
AcDbLine
 10
6559.775823071683
 20
5053.510512052827
 30
0.0
 11
6559.775823071683
 21
2963.510512052828
 31
0.0
  0
LINE
  5
17482
330
747D
100
AcDbEntity
  8
部品1
100
AcDbLine
 10
6614.775823071679
 20
5108.147092888081
 30
0.0
 11
6614.775823071683
 21
2813.510512052828
 31
0.0
  0
LINE
  5
17483
330
747D
100
AcDbEntity
  8
部品1
100
AcDbLine
 10
5719.775823071679
 20
5053.510512052827
 30
0.0
 11
5719.775823071679
 21
2963.510512052828
 31
0.0
  0
LINE
  5
17484
330
747D
100
AcDbEntity
  8
部品1
100
AcDbLine
 10
5244.775823071686
 20
5145.08740599327
 30
0.0
 11
5244.775823071679
 21
2813.510512052828
 31
0.0
  0
LINE
  5
17485
330
747D
100
AcDbEntity
  8
部品1
100
AcDbLine
 10
5299.775823071679
 20
5053.510512052827
 30
0.0
 11
5299.775823071679
 21
2963.510512052828
 31
0.0
  0
LINE
  5
17486
330
747D
100
AcDbEntity
  8
部品1
100
AcDbLine
 10
5244.775823071679
 20
2913.510512052828
 30
0.0
 11
5252.275823071679
 21
2913.510512052828
 31
0.0
  0
LINE
  5
17487
330
747D
100
AcDbEntity
  8
部品1
100
AcDbLine
 10
5244.775823071679
 20
2963.510512052828
 30
0.0
 11
6614.775823071686
 21
2963.510512052828
 31
0.0
  0
LINE
  5
17488
330
747D
100
AcDbEntity
  8
部品1
100
AcDbLine
 10
5244.775823071679
 20
5053.510512052827
 30
0.0
 11
6614.775823071683
 21
5053.510512052827
 31
0.0
  0
LINE
  5
17489
330
747D
100
AcDbEntity
  8
部品1
 48
50.0
100
AcDbLine
 10
6614.775823071686
 20
5048.510512052828
 30
0.0
 11
6691.775823071687
 21
5038.510512052828
 31
0.0
  0
LINE
  5
1748A
330
747D
100
AcDbEntity
  8
部品1
 48
50.0
100
AcDbLine
 10
6691.775823071687
 20
5038.510512052828
 30
0.0
 11
6691.775823071687
 21
2813.510512052828
 31
0.0
  0
LINE
  5
1748B
330
747D
100
AcDbEntity
  8
部品1
 48
50.0
100
AcDbLine
 10
6691.775823071687
 20
2913.510512052828
 30
0.0
 11
6614.775823071683
 21
2913.510512052828
 31
0.0
  0
DIMENSION
  5
1748C
330
747D
100
AcDbEntity
  8
寸法
100
AcDbDimension
  2
*D13
 10
4621.123113913382
 20
2963.510512052828
 30
0.0
 11
4621.123113913381
 21
4008.510512052827
 31
0.0
 70
   160
 71
     5
 42
2089.999999999999
  3
INABA_S40G
100
AcDbAlignedDimension
 13
5244.775823071683
 23
5053.510512052827
 33
0.0
 14
5244.775823071683
 24
2963.510512052827
 34
0.0
 50
90.0
100
AcDbRotatedDimension
1001
ACAD
1000
DSTYLE
1002
{
1070
   174
1070
     0
1070
   272
1070
     1
1070
   288
1070
     0
1070
   341
1005
0
1002
}
  0
DIMENSION
  5
1748D
330
747D
100
AcDbEntity
  8
寸法
100
AcDbDimension
  2
*D14
 10
4336.136441142321
 20
5288.510512052831
 30
0.0
 11
4336.13644114232
 21
4008.510512052827
 31
0.0
 70
   160
 71
     5
 42
2375.000000000004
  3
INABA_S40G
100
AcDbAlignedDimension
 13
5244.775823071683
 23
2913.510512052827
 33
0.0
 14
5184.775823071682
 24
5288.510512052831
 34
0.0
 50
90.0
100
AcDbRotatedDimension
1001
ACAD
1000
DSTYLE
1002
{
1070
   174
1070
     0
1070
   272
1070
     1
1070
   288
1070
     0
1070
   341
1005
0
1002
}
  0
DIMENSION
  5
1748E
330
747D
100
AcDbEntity
  8
寸法
100
AcDbDimension
  2
*D15
 10
4336.136441142321
 20
2813.510512052827
 30
0.0
 11
4336.13644114232
 21
2577.463267958335
 31
0.0
 70
   160
 71
     5
 42
100.0000000000004
  3
INABA_S40G
100
AcDbAlignedDimension
 13
5189.775823071682
 23
2913.510512052827
 33
0.0
 14
4621.123113913381
 24
2813.510512052827
 34
0.0
 50
90.0
100
AcDbRotatedDimension
1001
ACAD
1000
DSTYLE
1002
{
1070
   174
1070
     0
1070
   272
1070
     1
1070
   288
1070
     0
1070
   341
1005
0
1002
}
  0
DIMENSION
  5
1748F
330
747D
100
AcDbEntity
  8
寸法
100
AcDbDimension
  2
*D16
 10
4621.123113913382
 20
2913.510512052827
 30
0.0
 11
4621.123113913381
 21
2607.463267958335
 31
0.0
 70
   160
 71
     5
 42
50.0
  3
INABA_S40G
100
AcDbAlignedDimension
 13
5244.775823071683
 23
2963.510512052827
 33
0.0
 14
5189.775823071682
 24
2913.510512052827
 34
0.0
 50
90.0
100
AcDbRotatedDimension
1001
ACAD
1000
DSTYLE
1002
{
1070
   174
1070
     0
1070
   272
1070
     1
1070
   288
1070
     0
1070
   341
1005
0
1002
}
  0
LINE
  5
17490
330
747D
100
AcDbEntity
  8
部品1
 48
50.0
100
AcDbLine
 10
5829.775823071683
 20
2913.510512052828
 30
0.0
 11
5829.775823071683
 21
2813.510512052828
 31
0.0
  0
LINE
  5
17491
330
747D
100
AcDbEntity
  8
部品1
 48
50.0
100
AcDbLine
 10
6029.775823071687
 20
2913.510512052828
 30
0.0
 11
6029.775823071683
 21
2813.510512052828
 31
0.0
  0
TEXT
  5
17492
330
747D
100
AcDbEntity
  8
文字
 62
     7
 48
50.0
100
AcDbText
 10
14798.72402257234
 20
9740.013745883725
 30
0.0
 40
100.0
  1
F12(一般型1.2/多雪地型2.3)
  7
STYLE1
100
AcDbText
  0
TEXT
  5
17493
330
747D
100
AcDbEntity
  8
文字
 62
     7
 48
50.0
100
AcDbText
 10
13248.77747366447
 20
8380.013745883728
 30
0.0
 40
100.0
  1
17
  7
STYLE1
100
AcDbText
  0
TEXT
  5
17494
330
747D
100
AcDbEntity
  8
文字
 62
     7
 48
50.0
100
AcDbText
 10
13248.77747366447
 20
8550.013745883729
 30
0.0
 40
100.0
  1
16
  7
STYLE1
100
AcDbText
  0
TEXT
  5
17495
330
747D
100
AcDbEntity
  8
文字
 62
     7
 48
50.0
100
AcDbText
 10
15022.63965474517
 20
9060.013745883725
 30
0.0
 40
100.0
  1
F12            1.0
  7
STYLE1
100
AcDbText
  0
TEXT
  5
17496
330
747D
100
AcDbEntity
  8
文字
 62
     7
 48
50.0
100
AcDbText
 10
13583.11819016569
 20
9060.013745883733
 30
0.0
 40
100.0
  1
壁面扉枠左右
  7
STYLE1
100
AcDbText
  0
TEXT
  5
17497
330
747D
100
AcDbEntity
  8
文字
 62
     7
 48
50.0
100
AcDbText
 10
15022.63965474517
 20
9230.013745883725
 30
0.0
 40
100.0
  1
F12            1.0
  7
STYLE1
100
AcDbText
  0
TEXT
  5
17498
330
747D
100
AcDbEntity
  8
文字
 62
     7
 48
50.0
100
AcDbText
 10
15022.63965474515
 20
9400.013745883727
 30
0.0
 40
100.0
  1
F12            0.7
  7
STYLE1
100
AcDbText
  0
TEXT
  5
17499
330
747D
100
AcDbEntity
  8
文字
 62
     7
 48
50.0
100
AcDbText
 10
13583.11819016569
 20
9230.013745883733
 30
0.0
 40
100.0
  1
壁面扉敷居
  7
STYLE1
100
AcDbText
  0
TEXT
  5
1749A
330
747D
100
AcDbEntity
  8
文字
 62
     7
 48
50.0
100
AcDbText
 10
13583.11819016569
 20
9400.013745883729
 30
0.0
 40
100.0
  1
壁面扉鴨居
  7
STYLE1
100
AcDbText
  0
LINE
  5
1749B
330
747D
100
AcDbEntity
  8
仕様書枠
 48
50.0
100
AcDbLine
 10
16307.19999999999
 20
8689.600000000003
 30
0.0
 11
13127.2
 21
8689.600000000005
 31
0.0
  0
LINE
  5
1749C
330
747D
100
AcDbEntity
  8
仕様書枠
 48
50.0
100
AcDbLine
 10
16307.19999999999
 20
8519.600000000004
 30
0.0
 11
13127.2
 21
8519.600000000005
 31
0.0
  0
TEXT
  5
1749D
330
747D
100
AcDbEntity
  8
文字
 62
     7
 48
50.0
100
AcDbText
 10
13583.11819016569
 20
8380.013745883728
 30
0.0
 40
100.0
  1
アンカープレート
  7
STYLE1
100
AcDbText
  0
TEXT
  5
1749E
330
747D
100
AcDbEntity
  8
文字
 62
     7
 48
50.0
100
AcDbText
 10
15022.63965474515
 20
8380.013745883724
 30
0.0
 40
100.0
  1
F12            2.3
  7
STYLE1
100
AcDbText
  0
LINE
  5
1749F
330
747D
100
AcDbEntity
  8
仕様書枠
 48
50.0
100
AcDbLine
 10
16307.2
 20
10049.6
 30
0.0
 11
13127.2
 21
10049.6
 31
0.0
  0
LINE
  5
174A0
330
747D
100
AcDbEntity
  8
仕様書枠
 48
50.0
100
AcDbLine
 10
16307.2
 20
11409.59999999999
 30
0.0
 11
13127.2
 21
11409.6
 31
0.0
  0
LINE
  5
174A1
330
747D
100
AcDbEntity
  8
仕様書枠
 48
50.0
100
AcDbLine
 10
16307.19999999999
 20
8009.600000000004
 30
0.0
 11
16307.2
 21
11409.6
 31
0.0
  0
LINE
  5
174A2
330
747D
100
AcDbEntity
  8
仕様書枠
 48
50.0
100
AcDbLine
 10
14785.2
 20
11409.59999999999
 30
0.0
 11
14785.2
 21
8349.600000000004
 31
0.0
  0
LINE
  5
174A3
330
747D
100
AcDbEntity
  8
仕様書枠
 48
50.0
100
AcDbLine
 10
13490.2
 20
11409.59999999999
 30
0.0
 11
13490.20000000001
 21
8349.600000000007
 31
0.0
  0
LINE
  5
174A4
330
747D
100
AcDbEntity
  8
仕様書枠
 48
50.0
100
AcDbLine
 10
16307.2
 20
11239.59999999999
 30
0.0
 11
13127.2
 21
11239.6
 31
0.0
  0
LINE
  5
174A5
330
747D
100
AcDbEntity
  8
仕様書枠
 48
50.0
100
AcDbLine
 10
16307.2
 20
10899.6
 30
0.0
 11
13127.2
 21
10899.6
 31
0.0
  0
LINE
  5
174A6
330
747D
100
AcDbEntity
  8
仕様書枠
 48
50.0
100
AcDbLine
 10
16307.2
 20
11069.59999999999
 30
0.0
 11
13127.2
 21
11069.6
 31
0.0
  0
LINE
  5
174A7
330
747D
100
AcDbEntity
  8
仕様書枠
 48
50.0
100
AcDbLine
 10
16307.19999999999
 20
10559.6
 30
0.0
 11
13127.2
 21
10559.6
 31
0.0
  0
LINE
  5
174A8
330
747D
100
AcDbEntity
  8
仕様書枠
 48
50.0
100
AcDbLine
 10
16307.19999999999
 20
10389.6
 30
0.0
 11
13127.2
 21
10389.6
 31
0.0
  0
LINE
  5
174A9
330
747D
100
AcDbEntity
  8
仕様書枠
 48
50.0
100
AcDbLine
 10
16307.19999999999
 20
10729.59999999999
 30
0.0
 11
13127.2
 21
10729.6
 31
0.0
  0
TEXT
  5
174AA
330
747D
100
AcDbEntity
  8
文字
 62
     7
 48
50.0
100
AcDbText
 10
13197.42518560407
 20
11270.01374588372
 30
0.0
 40
100.0
  1
品番
  7
STYLE1
100
AcDbText
  0
TEXT
  5
174AB
330
747D
100
AcDbEntity
  8
文字
 62
     7
 48
50.0
100
AcDbText
 10
13271.19032244792
 20
11100.01374588373
 30
0.0
 40
100.0
  1
1
  7
STYLE1
100
AcDbText
  0
TEXT
  5
174AC
330
747D
100
AcDbEntity
  8
文字
 62
     7
 48
50.0
100
AcDbText
 10
13271.19032244792
 20
10930.01374588373
 30
0.0
 40
100.0
  1
2
  7
STYLE1
100
AcDbText
  0
TEXT
  5
174AD
330
747D
100
AcDbEntity
  8
文字
 62
     7
 48
50.0
100
AcDbText
 10
13271.19032244792
 20
10590.01374588373
 30
0.0
 40
100.0
  1
4
  7
STYLE1
100
AcDbText
  0
TEXT
  5
174AE
330
747D
100
AcDbEntity
  8
文字
 62
     7
 48
50.0
100
AcDbText
 10
13271.19032244792
 20
10760.01374588373
 30
0.0
 40
100.0
  1
3
  7
STYLE1
100
AcDbText
  0
TEXT
  5
174AF
330
747D
100
AcDbEntity
  8
文字
 62
     7
 48
50.0
100
AcDbText
 10
13732.03840939434
 20
11270.01374588372
 30
0.0
 40
100.0
  1
部　　品　　名
  7
STYLE1
100
AcDbText
  0
TEXT
  5
174B0
330
747D
100
AcDbEntity
  8
文字
 62
     7
 48
50.0
100
AcDbText
 10
14859.79774614482
 20
11270.01374588372
 30
0.0
 40
100.0
  1
材料（材質）　　単位mm
  7
STYLE1
100
AcDbText
  0
TEXT
  5
174B1
330
747D
100
AcDbEntity
  8
文字
 62
     7
 48
50.0
100
AcDbText
 10
13583.11819016569
 20
11100.01374588372
 30
0.0
 40
100.0
  1
土台枠
  7
STYLE1
100
AcDbText
  0
TEXT
  5
174B2
330
747D
100
AcDbEntity
  8
文字
 62
     7
 48
50.0
100
AcDbText
 10
13583.1181901657
 20
10760.01374588372
 30
0.0
 40
100.0
  1
柱
  7
STYLE1
100
AcDbText
  0
TEXT
  5
174B3
330
747D
100
AcDbEntity
  8
文字
 62
     7
 48
50.0
100
AcDbText
 10
13583.11819016569
 20
10420.01374588373
 30
0.0
 40
100.0
  1
桁前後
  7
STYLE1
100
AcDbText
  0
TEXT
  5
174B4
330
747D
100
AcDbEntity
  8
文字
 62
     7
 48
50.0
100
AcDbText
 10
13271.19032244792
 20
10420.01374588372
 30
0.0
 40
100.0
  1
5
  7
STYLE1
100
AcDbText
  0
TEXT
  5
174B5
330
747D
100
AcDbEntity
  8
文字
 62
     7
 48
50.0
100
AcDbText
 10
13583.11819016569
 20
10250.01374588373
 30
0.0
 40
100.0
  1
妻板左右
  7
STYLE1
100
AcDbText
  0
TEXT
  5
174B6
330
747D
100
AcDbEntity
  8
文字
 62
     7
 48
50.0
100
AcDbText
 10
13248.77747366447
 20
9570.013745883727
 30
0.0
 40
100.0
  1
10
  7
STYLE1
100
AcDbText
  0
TEXT
  5
174B7
330
747D
100
AcDbEntity
  8
文字
 62
     7
 48
50.0
100
AcDbText
 10
13583.11819016568
 20
9570.013745883729
 30
0.0
 40
100.0
  1
壁パネル
  7
STYLE1
100
AcDbText
  0
TEXT
  5
174B8
330
747D
100
AcDbEntity
  8
文字
 62
     7
 48
50.0
100
AcDbText
 10
13583.11819016569
 20
9910.013745883727
 30
0.0
 40
100.0
  1
屋根パネル
  7
STYLE1
100
AcDbText
  0
TEXT
  5
174B9
330
747D
100
AcDbEntity
  8
文字
 62
     7
 48
50.0
100
AcDbText
 10
13583.11819016569
 20
10080.01374588372
 30
0.0
 40
100.0
  1
鼻隠シ前後
  7
STYLE1
100
AcDbText
  0
TEXT
  5
174BA
330
747D
100
AcDbEntity
  8
文字
 62
     7
 48
50.0
100
AcDbText
 10
13271.19032244792
 20
9910.01374588373
 30
0.0
 40
100.0
  1
8
  7
STYLE1
100
AcDbText
  0
TEXT
  5
174BB
330
747D
100
AcDbEntity
  8
文字
 62
     7
 48
50.0
100
AcDbText
 10
13271.19032244792
 20
9740.013745883729
 30
0.0
 40
100.0
  1
9
  7
STYLE1
100
AcDbText
  0
TEXT
  5
174BC
330
747D
100
AcDbEntity
  8
文字
 62
     7
 48
50.0
100
AcDbText
 10
13271.19032244792
 20
10080.01374588373
 30
0.0
 40
100.0
  1
7
  7
STYLE1
100
AcDbText
  0
TEXT
  5
174BD
330
747D
100
AcDbEntity
  8
文字
 62
     7
 48
50.0
100
AcDbText
 10
13271.19032244792
 20
10250.01374588373
 30
0.0
 40
100.0
  1
6
  7
STYLE1
100
AcDbText
  0
LINE
  5
174BE
330
747D
100
AcDbEntity
  8
仕様書枠
 48
50.0
100
AcDbLine
 10
16307.19999999999
 20
9709.6
 30
0.0
 11
13127.2
 21
9709.600000000001
 31
0.0
  0
LINE
  5
174BF
330
747D
100
AcDbEntity
  8
仕様書枠
 48
50.0
100
AcDbLine
 10
16307.19999999999
 20
9369.599999999998
 30
0.0
 11
13127.2
 21
9369.600000000001
 31
0.0
  0
LINE
  5
174C0
330
747D
100
AcDbEntity
  8
仕様書枠
 48
50.0
100
AcDbLine
 10
16307.19999999999
 20
9539.599999999998
 30
0.0
 11
13127.2
 21
9539.6
 31
0.0
  0
LINE
  5
174C1
330
747D
100
AcDbEntity
  8
仕様書枠
 48
50.0
100
AcDbLine
 10
16307.2
 20
10219.6
 30
0.0
 11
13127.2
 21
10219.6
 31
0.0
  0
LINE
  5
174C2
330
747D
100
AcDbEntity
  8
仕様書枠
 48
50.0
100
AcDbLine
 10
16307.2
 20
9879.599999999999
 30
0.0
 11
13127.2
 21
9879.600000000001
 31
0.0
  0
TEXT
  5
174C3
330
747D
100
AcDbEntity
  8
文字
 62
     7
 48
50.0
100
AcDbText
 10
13248.77747366447
 20
9400.013745883727
 30
0.0
 40
100.0
  1
11
  7
STYLE1
100
AcDbText
  0
LINE
  5
174C4
330
747D
100
AcDbEntity
  8
仕様書枠
 48
50.0
100
AcDbLine
 10
16307.19999999999
 20
9199.599999999998
 30
0.0
 11
13127.2
 21
9199.600000000001
 31
0.0
  0
LINE
  5
174C5
330
747D
100
AcDbEntity
  8
仕様書枠
 48
50.0
100
AcDbLine
 10
16307.19999999999
 20
8859.6
 30
0.0
 11
13127.2
 21
8859.600000000002
 31
0.0
  0
TEXT
  5
174C6
330
747D
100
AcDbEntity
  8
文字
 62
     7
 48
50.0
100
AcDbText
 10
13248.77747366448
 20
9060.013745883727
 30
0.0
 40
100.0
  1
13
  7
STYLE1
100
AcDbText
  0
TEXT
  5
174C7
330
747D
100
AcDbEntity
  8
文字
 62
     7
 48
50.0
100
AcDbText
 10
13248.77747366448
 20
9230.013745883727
 30
0.0
 40
100.0
  1
12
  7
STYLE1
100
AcDbText
  0
TEXT
  5
174C8
330
747D
100
AcDbEntity
  8
文字
 62
     7
 48
50.0
100
AcDbText
 10
15022.63965474517
 20
11100.01374588372
 30
0.0
 40
100.0
  1
F12            1.2
  7
STYLE1
100
AcDbText
  0
TEXT
  5
174C9
330
747D
100
AcDbEntity
  8
文字
 62
     7
 48
50.0
100
AcDbText
 10
15022.63965474518
 20
10760.01374588372
 30
0.0
 40
100.0
  1
F12            1.0
  7
STYLE1
100
AcDbText
  0
TEXT
  5
174CA
330
747D
100
AcDbEntity
  8
文字
 62
     7
 48
50.0
100
AcDbText
 10
15022.63965474516
 20
10420.01374588372
 30
0.0
 40
100.0
  1
Y10            1.0
  7
STYLE1
100
AcDbText
  0
TEXT
  5
174CB
330
747D
100
AcDbEntity
  8
文字
 62
     7
 48
50.0
100
AcDbText
 10
15022.63965474516
 20
10250.01374588372
 30
0.0
 40
100.0
  1
Y10            0.7
  7
STYLE1
100
AcDbText
  0
TEXT
  5
174CC
330
747D
100
AcDbEntity
  8
文字
 62
     7
 48
50.0
100
AcDbText
 10
15022.63965474516
 20
10080.01374588372
 30
0.0
 40
100.0
  1
Y10            0.7
  7
STYLE1
100
AcDbText
  0
TEXT
  5
174CD
330
747D
100
AcDbEntity
  8
文字
 62
     7
 48
50.0
100
AcDbText
 10
15022.63965474517
 20
9910.013745883725
 30
0.0
 40
100.0
  1
Y10            0.5
  7
STYLE1
100
AcDbText
  0
TEXT
  5
174CE
330
747D
100
AcDbEntity
  8
文字
 62
     7
 48
50.0
100
AcDbText
 10
15022.63965474515
 20
9570.013745883725
 30
0.0
 40
100.0
  1
F12            0.7
  7
STYLE1
100
AcDbText
  0
LINE
  5
174CF
330
747D
100
AcDbEntity
  8
仕様書枠
 48
50.0
100
AcDbLine
 10
16307.19999999999
 20
8349.600000000004
 30
0.0
 11
13127.19999999999
 21
8349.600000000007
 31
0.0
  0
LINE
  5
174D0
330
747D
100
AcDbEntity
  8
仕様書枠
 48
50.0
100
AcDbLine
 10
16307.19999999999
 20
8179.600000000004
 30
0.0
 11
13127.19999999999
 21
8179.600000000005
 31
0.0
  0
TEXT
  5
174D1
330
747D
100
AcDbEntity
  8
文字
 62
     7
 48
50.0
100
AcDbText
 10
13229.83081656554
 20
8210.013745883733
 30
0.0
 40
100.0
  1
F12→溶融亜鉛めっき鋼板(JIS G 3302)
  7
STYLE1
100
AcDbText
  0
TEXT
  5
174D2
330
747D
100
AcDbEntity
  8
文字
 62
     7
 48
50.0
100
AcDbText
 10
13229.83081656554
 20
8040.013745883731
 30
0.0
 40
100.0
  1
Y10→溶融亜鉛-5％アルミニウム合金めっき鋼板(JIS G 3317)
 41
0.9
  7
STYLE1
100
AcDbText
  0
LINE
  5
174D3
330
747D
100
AcDbEntity
  8
仕様書枠
 48
50.0
100
AcDbLine
 10
13127.2
 20
11409.6
 30
0.0
 11
13127.19999999999
 21
8009.600000000006
 31
0.0
  0
LINE
  5
174D4
330
747D
100
AcDbEntity
  8
仕様書枠
 48
50.0
100
AcDbLine
 10
16307.19999999999
 20
9029.6
 30
0.0
 11
13127.2
 21
9029.600000000002
 31
0.0
  0
TEXT
  5
174D5
330
747D
100
AcDbEntity
  8
文字
 62
     7
 48
50.0
100
AcDbText
 10
13583.1181901657
 20
10590.01374588372
 30
0.0
 40
100.0
  1
床パネル
 41
0.9
  7
STYLE1
100
AcDbText
  0
TEXT
  5
174D6
330
747D
100
AcDbEntity
  8
文字
 62
     7
 48
50.0
100
AcDbText
 10
13583.11819016569
 20
10930.01374588372
 30
0.0
 40
100.0
  1
根太
  7
STYLE1
100
AcDbText
  0
TEXT
  5
174D7
330
747D
100
AcDbEntity
  8
文字
 62
     7
 48
50.0
100
AcDbText
 10
13248.77747366448
 20
8890.013745883727
 30
0.0
 40
100.0
  1
14
  7
STYLE1
100
AcDbText
  0
TEXT
  5
174D8
330
747D
100
AcDbEntity
  8
文字
 62
     7
 48
50.0
100
AcDbText
 10
15022.63965474516
 20
10930.01374588372
 30
0.0
 40
100.0
  1
F12            1.2
  7
STYLE1
100
AcDbText
  0
TEXT
  5
174D9
330
747D
100
AcDbEntity
  8
文字
 62
     7
 48
50.0
100
AcDbText
 10
15022.63965474517
 20
10590.01374588372
 30
0.0
 40
100.0
  1
F12            1.0
  7
STYLE1
100
AcDbText
  0
TEXT
  5
174DA
330
747D
100
AcDbEntity
  8
文字
 62
     7
 48
50.0
100
AcDbText
 10
15022.63965474515
 20
8890.013745883727
 30
0.0
 40
100.0
  1
F12            0.7
  7
STYLE1
100
AcDbText
  0
TEXT
  5
174DB
330
747D
100
AcDbEntity
  8
文字
 62
     7
 48
50.0
100
AcDbText
 10
13583.11819016568
 20
8890.013745883731
 30
0.0
 40
100.0
  1
正面パネル
  7
STYLE1
100
AcDbText
  0
TEXT
  5
174DC
330
747D
100
AcDbEntity
  8
文字
 62
     7
 48
50.0
100
AcDbText
 10
15022.63965474516
 20
8720.013745883727
 30
0.0
 40
100.0
  1
F12            0.8
  7
STYLE1
100
AcDbText
  0
TEXT
  5
174DD
330
747D
100
AcDbEntity
  8
文字
 62
     7
 48
50.0
100
AcDbText
 10
13583.11819016569
 20
8720.013745883731
 30
0.0
 40
100.0
  1
扉
  7
STYLE1
100
AcDbText
  0
LINE
  5
174DE
330
747D
100
AcDbEntity
  8
仕様書枠
 48
50.0
100
AcDbLine
 10
16307.19999999999
 20
8009.600000000004
 30
0.0
 11
13127.19999999999
 21
8009.600000000006
 31
0.0
  0
TEXT
  5
174DF
330
747D
100
AcDbEntity
  8
文字
 62
     7
 48
50.0
100
AcDbText
 10
13248.77747366447
 20
8720.013745883729
 30
0.0
 40
100.0
  1
15
  7
STYLE1
100
AcDbText
  0
TEXT
  5
174E0
330
747D
100
AcDbEntity
  8
文字
 62
     7
 48
50.0
100
AcDbText
 10
13583.11819016569
 20
9740.013745883729
 30
0.0
 40
100.0
  1
母屋中
  7
STYLE1
100
AcDbText
  0
TEXT
  5
174E1
330
747D
100
AcDbEntity
  8
文字
 62
     7
 48
50.0
100
AcDbText
 10
15022.63965474516
 20
8550.013745883727
 30
0.0
 40
100.0
  1
F12            0.6
  7
STYLE1
100
AcDbText
  0
TEXT
  5
174E2
330
747D
100
AcDbEntity
  8
文字
 62
     7
 48
50.0
100
AcDbText
 10
13583.11819016569
 20
8550.013745883731
 30
0.0
 40
100.0
  1
棚板
  7
STYLE1
100
AcDbText
  0
LINE
  5
174E3
330
747D
100
AcDbEntity
  8
部品1
100
AcDbLine
 10
11048.29845316949
 20
9542.014558484334
 30
0.0
 11
11048.29845316949
 21
9514.014558484333
 31
0.0
  0
LINE
  5
174E4
330
747D
100
AcDbEntity
  8
部品1
100
AcDbLine
 10
11048.29845316949
 20
9542.014558484355
 30
0.0
 11
11048.29845316949
 21
9514.014558484356
 31
0.0
  0
LINE
  5
174E5
330
747D
100
AcDbEntity
  8
部品1
100
AcDbLine
 10
11075.29845316949
 20
9487.014558484338
 30
0.0
 11
11103.29845316949
 21
9487.014558484338
 31
0.0
  0
LINE
  5
174E6
330
747D
100
AcDbEntity
  8
部品1
100
AcDbLine
 10
11075.29845316949
 20
9067.014558484338
 30
0.0
 11
11103.29845316949
 21
9067.014558484338
 31
0.0
  0
LINE
  5
174E7
330
747D
100
AcDbEntity
  8
部品1
100
AcDbLine
 10
11075.29845316949
 20
8647.014558484338
 30
0.0
 11
11103.29845316949
 21
8647.014558484338
 31
0.0
  0
DIMENSION
  5
174E8
330
747D
100
AcDbEntity
  8
寸法
100
AcDbDimension
  2
*D17
 10
11803.29845316948
 20
9487.014558484338
 30
0.0
 11
11803.29845316948
 21
9850.499839858574
 31
0.0
 70
   160
 71
     5
 42
54.99999999999636
  3
INABA_S40G
100
AcDbAlignedDimension
 13
11103.29845316949
 23
9542.014558484334
 33
0.0
 14
11103.29845316949
 24
9487.014558484338
 34
0.0
 50
90.0
100
AcDbRotatedDimension
1001
ACAD
1000
DSTYLE
1002
{
1002
}
  0
DIMENSION
  5
174E9
330
747D
100
AcDbEntity
  8
寸法
100
AcDbDimension
  2
*D18
 10
11503.29845316949
 20
8947.198329527601
 30
0.0
 11
11503.29845316948
 21
9172.198329527601
 31
0.0
 70
   160
 71
     5
 42
449.9999999999963
  3
INABA_S40G
100
AcDbAlignedDimension
 13
11074.79845316949
 23
9512.014558484334
 33
0.0
 14
11074.79845316949
 24
9062.014558484337
 34
0.0
 50
90.0
100
AcDbRotatedDimension
1001
ACAD
1000
DSTYLE
1002
{
1002
}
  0
LINE
  5
174EA
330
747D
100
AcDbEntity
  8
部品1
100
AcDbLine
 10
11074.79845316949
 20
9512.014558484334
 30
0.0
 11
11074.79845316949
 21
9062.014558484337
 31
0.0
  0
LINE
  5
174EB
330
747D
100
AcDbEntity
  8
部品1
100
AcDbLine
 10
11075.29845316949
 20
9514.014558484333
 30
0.0
 11
11075.29845316948
 21
9061.51455848421
 31
0.0
  0
LINE
  5
174ED
330
747D
100
AcDbEntity
  8
部品1
 48
50.0
100
AcDbLine
 10
11048.29845316949
 20
8172.014558484312
 30
0.0
 11
11048.29845316949
 21
8200.014558484312
 31
0.0
  0
LINE
  5
174EE
330
747D
100
AcDbEntity
  8
部品1
100
AcDbLine
 10
11075.29845316949
 20
8227.014558484324
 30
0.0
 11
11103.29845316949
 21
8227.014558484324
 31
0.0
  0
LINE
  5
174EF
330
747D
100
AcDbEntity
  8
部品1
100
AcDbLine
 10
11103.29845316947
 20
8227.014558484318
 30
0.0
 11
11103.29845316947
 21
8172.014558484324
 31
0.0
  0
LINE
  5
174F0
330
747D
100
AcDbEntity
  8
部品1
 48
50.0
100
AcDbLine
 10
11046.79845316949
 20
8228.514558484324
 30
0.0
 11
11075.29845316949
 21
8200.014558484326
 31
0.0
  0
LINE
  5
174F1
330
747D
100
AcDbEntity
  8
部品1
100
AcDbLine
 10
11103.29845316947
 20
8172.014558484324
 30
0.0
 11
11052.29845316947
 21
8172.014558484324
 31
0.0
  0
LINE
  5
174F2
330
747D
100
AcDbEntity
  8
部品1
100
AcDbLine
 10
11075.29845316947
 20
8227.014558484318
 30
0.0
 11
11103.29845316947
 21
8227.014558484318
 31
0.0
  0
LINE
  5
174F3
330
747D
100
AcDbEntity
  8
部品1
100
AcDbLine
 10
11103.29845316947
 20
8172.014558484324
 30
0.0
 11
11048.29845316949
 21
8172.014558484312
 31
0.0
  0
DIMENSION
  5
174F4
330
747D
100
AcDbEntity
  8
寸法
100
AcDbDimension
  2
*D19
 10
11803.29845316947
 20
8172.014558484324
 30
0.0
 11
11803.29845316947
 21
7863.529277110074
 31
0.0
 70
   160
 71
     5
 42
54.99999999999454
  3
INABA_S40G
100
AcDbAlignedDimension
 13
11103.29845316947
 23
8227.014558484318
 33
0.0
 14
11103.29845316947
 24
8172.014558484324
 34
0.0
 50
90.0
100
AcDbRotatedDimension
1001
ACAD
1000
DSTYLE
1002
{
1002
}
  0
LINE
  5
174F5
330
747D
100
AcDbEntity
  8
部品1
100
AcDbLine
 10
11075.29845316948
 20
9067.014558484338
 30
0.0
 11
11075.29845316947
 21
8200.014558484326
 31
0.0
  0
LINE
  5
174F6
330
747D
100
AcDbEntity
  8
部品1
100
AcDbLine
 10
11046.79845316948
 20
9062.014558484333
 30
0.0
 11
11046.79845316949
 21
8228.514558484324
 31
0.0
  0
LINE
  5
174F7
330
747D
100
AcDbEntity
  8
部品1
100
AcDbLine
 10
11103.29845316949
 20
9542.014558484334
 30
0.0
 11
11103.29845316947
 21
8172.014558484324
 31
0.0
  0
DIMENSION
  5
174F8
330
747D
100
AcDbEntity
  8
寸法
100
AcDbDimension
  2
*D20
 10
11803.29845316948
 20
8227.014558484318
 30
0.0
 11
11803.29845316948
 21
8857.01455848433
 31
0.0
 70
   160
  1
3X420=<>
 71
     5
 42
1260.000000000018
  3
INABA_S40G
100
AcDbAlignedDimension
 13
11103.29845316949
 23
9487.014558484338
 33
0.0
 14
11103.29845316947
 24
8227.014558484318
 34
0.0
 50
90.0
100
AcDbRotatedDimension
1001
ACAD
1000
DSTYLE
1002
{
1002
}
  0
DIMENSION
  5
174F9
330
747D
100
AcDbEntity
  8
寸法
100
AcDbDimension
  2
*D21
 10
12103.29845316949
 20
8172.014558484324
 30
0.0
 11
12103.29845316949
 21
8857.01455848433
 31
0.0
 70
   160
 71
     5
 42
1370.000000000009
  3
INABA_S40G
100
AcDbAlignedDimension
 13
11103.29845316949
 23
9542.014558484334
 33
0.0
 14
11103.29845316947
 24
8172.014558484324
 34
0.0
 50
90.0
100
AcDbRotatedDimension
1001
ACAD
1000
DSTYLE
1002
{
1002
}
  0
LINE
  5
174FA
330
747D
100
AcDbEntity
  8
部品1
100
AcDbLine
 10
10628.29845316946
 20
9542.014558484208
 30
0.0
 11
10628.29845316946
 21
9514.014558484207
 31
0.0
  0
LINE
  5
174FB
330
747D
100
AcDbEntity
  8
部品1
100
AcDbLine
 10
10208.29845316945
 20
9542.014558484208
 30
0.0
 11
10208.29845316946
 21
9514.014558484207
 31
0.0
  0
LINE
  5
174FC
330
747D
100
AcDbEntity
  8
部品1
100
AcDbLine
 10
9788.298453169456
 20
9542.014558484208
 30
0.0
 11
9788.29845316946
 21
9514.014558484207
 31
0.0
  0
LINE
  5
174FD
330
747D
100
AcDbEntity
  8
部品1
100
AcDbLine
 10
9817.298453169494
 20
9532.014558484341
 30
0.0
 11
9823.298453169492
 21
9532.014558484341
 31
0.0
  0
LINE
  5
174FE
330
747D
100
AcDbEntity
  8
部品1
100
AcDbLine
 10
9823.298453169492
 20
9532.014558484341
 30
0.0
 11
9823.298453169492
 21
9514.01455848434
 31
0.0
  0
LINE
  5
174FF
330
747D
100
AcDbEntity
  8
部品1
100
AcDbLine
 10
9753.298453169493
 20
9532.014558484341
 30
0.0
 11
9759.298453169492
 21
9532.014558484341
 31
0.0
  0
LINE
  5
17500
330
747D
100
AcDbEntity
  8
部品1
100
AcDbLine
 10
9753.298453169493
 20
9532.014558484341
 30
0.0
 11
9753.298453169493
 21
9514.01455848434
 31
0.0
  0
LINE
  5
17501
330
747D
100
AcDbEntity
  8
部品1
100
AcDbLine
 10
9775.798453169493
 20
9506.014558484338
 30
0.0
 11
9800.798453169493
 21
9506.014558484341
 31
0.0
  0
LINE
  5
17502
330
747D
100
AcDbEntity
  8
部品1
100
AcDbLine
 10
9775.798453169493
 20
9062.014558484346
 30
0.0
 11
9800.798453169493
 21
9062.014558484346
 31
0.0
  0
LINE
  5
17503
330
747D
100
AcDbEntity
  8
部品1
 48
50.0
100
AcDbLine
 10
9800.798453169493
 20
9514.014558484346
 30
0.0
 11
9800.798453169493
 21
9062.014558484346
 31
0.0
  0
LINE
  5
17504
330
747D
100
AcDbEntity
  8
部品1
 48
50.0
100
AcDbLine
 10
9775.798453169493
 20
9514.014558484348
 30
0.0
 11
9775.798453169493
 21
9062.014558484346
 31
0.0
  0
LINE
  5
17505
330
747D
100
AcDbEntity
  8
部品1
 48
50.0
100
AcDbLine
 10
9801.798453169494
 20
9512.014558484336
 30
0.0
 11
9801.798453169494
 21
9062.014558484346
 31
0.0
  0
LINE
  5
17506
330
747D
100
AcDbEntity
  8
部品1
 48
50.0
100
AcDbLine
 10
9774.798453169493
 20
9512.014558484342
 30
0.0
 11
9774.798453169493
 21
9062.014558484346
 31
0.0
  0
LINE
  5
17507
330
747D
100
AcDbEntity
  8
部品1
100
AcDbLine
 10
9368.298453169456
 20
9542.014558484208
 30
0.0
 11
9368.29845316946
 21
9514.014558484207
 31
0.0
  0
LINE
  5
17508
330
747D
100
AcDbEntity
  8
部品1
100
AcDbLine
 10
8948.298453169456
 20
9542.014558484208
 30
0.0
 11
8948.29845316946
 21
9514.014558484207
 31
0.0
  0
LINE
  5
17509
330
747D
100
AcDbEntity
  8
部品1
100
AcDbLine
 10
8528.298453169457
 20
9542.014558484208
 30
0.0
 11
8528.29845316946
 21
9514.014558484207
 31
0.0
  0
LINE
  5
1750A
330
747D
100
AcDbEntity
  8
部品1
100
AcDbLine
 10
8528.298453169494
 20
9542.01455848424
 30
0.0
 11
8528.298453169494
 21
9514.014558484239
 31
0.0
  0
LINE
  5
1750B
330
747D
100
AcDbEntity
  8
部品1
100
AcDbLine
 10
8501.298453169459
 20
9487.01455848421
 30
0.0
 11
8473.29845316946
 21
9487.01455848421
 31
0.0
  0
LINE
  5
1750C
330
747D
100
AcDbEntity
  8
部品1
100
AcDbLine
 10
8501.298453169466
 20
9067.01455848421
 30
0.0
 11
8473.298453169467
 21
9067.01455848421
 31
0.0
  0
LINE
  5
1750D
330
747D
100
AcDbEntity
  8
部品1
100
AcDbLine
 10
8501.298453169466
 20
8647.01455848421
 30
0.0
 11
8473.298453169467
 21
8647.01455848421
 31
0.0
  0
LINE
  5
1750E
330
747D
100
AcDbEntity
  8
部品1
100
AcDbLine
 10
8501.298453169482
 20
9061.51455848421
 30
0.0
 11
8501.298453169493
 21
9514.014558484239
 31
0.0
  0
LINE
  5
1750F
330
747D
100
AcDbEntity
  8
部品1
 48
50.0
100
AcDbLine
 10
8501.798453169424
 20
9512.014558484342
 30
0.0
 11
8501.798453169424
 21
9062.014558484346
 31
0.0
  0
LINE
  5
17510
330
747D
100
AcDbEntity
  8
部品1
100
AcDbLine
 10
8501.798453169424
 20
9062.014558484287
 30
0.0
 11
9774.798453169491
 21
9062.014558484346
 31
0.0
  0
LINE
  5
17511
330
747D
100
AcDbEntity
  8
部品1
100
AcDbLine
 10
8501.798453169424
 20
9512.014558484287
 30
0.0
 11
9774.798453169493
 21
9512.014558484345
 31
0.0
  0
LINE
  5
17512
330
747D
100
AcDbEntity
  8
部品1
100
AcDbLine
 10
8501.298453169495
 20
9514.014558484353
 30
0.0
 11
9775.798453169489
 21
9514.014558484356
 31
0.0
  0
LINE
  5
17513
330
747D
100
AcDbEntity
  8
細線
 48
50.0
100
AcDbLine
 10
9774.798453169493
 20
9512.014558484342
 30
0.0
 11
8501.798453169424
 21
9062.014558484287
 31
0.0
  0
LINE
  5
17514
330
747D
100
AcDbEntity
  8
細線
 48
50.0
100
AcDbLine
 10
9774.798453169491
 20
9062.014558484346
 30
0.0
 11
8501.798453169422
 21
9512.014558484287
 31
0.0
  0
LINE
  5
17515
330
747D
100
AcDbEntity
  8
破線
 48
10.0
100
AcDbLine
 10
11023.29845316949
 20
8252.014558484324
 30
0.0
 11
10228.79845316946
 21
8252.014558484145
 31
0.0
  0
LINE
  5
17516
330
747D
100
AcDbEntity
  8
部品1
100
AcDbLine
 10
8948.29845316946
 20
8172.014558484326
 30
0.0
 11
8948.29845316946
 21
8200.014558484326
 31
0.0
  0
LINE
  5
17517
330
747D
100
AcDbEntity
  8
部品1
 48
50.0
100
AcDbLine
 10
8529.798453169481
 20
8228.514558484301
 30
0.0
 11
8501.298453169482
 21
8200.014558484305
 31
0.0
  0
LINE
  5
17518
330
747D
100
AcDbEntity
  8
部品1
100
AcDbLine
 10
8528.29845316946
 20
8172.014558484326
 30
0.0
 11
8528.29845316946
 21
8200.014558484326
 31
0.0
  0
LINE
  5
17519
330
747D
100
AcDbEntity
  8
部品1
100
AcDbLine
 10
8501.298453169466
 20
8227.01455848416
 30
0.0
 11
8473.298453169483
 21
8227.01455848416
 31
0.0
  0
LINE
  5
1751A
330
747D
100
AcDbEntity
  8
部品1
100
AcDbLine
 10
8501.298453169466
 20
8227.014558484192
 30
0.0
 11
8473.298453169483
 21
8227.014558484192
 31
0.0
  0
LINE
  5
1751B
330
747D
100
AcDbEntity
  8
部品1
100
AcDbLine
 10
8501.298453169484
 20
8227.014558484206
 30
0.0
 11
8473.298453169483
 21
8227.014558484206
 31
0.0
  0
LINE
  5
1751C
330
747D
100
AcDbEntity
  8
部品1
100
AcDbLine
 10
8473.298453169483
 20
8227.01455848416
 30
0.0
 11
8473.298453169485
 21
8172.014558484159
 31
0.0
  0
LINE
  5
1751D
330
747D
100
AcDbEntity
  8
部品1
100
AcDbLine
 10
8948.29845316946
 20
8172.014558484196
 30
0.0
 11
8473.298453169485
 21
8172.014558484196
 31
0.0
  0
LINE
  5
1751E
330
747D
100
AcDbEntity
  8
破線
 48
10.0
100
AcDbLine
 10
9347.798453169472
 20
8252.014558484193
 30
0.0
 11
8553.298453169478
 21
8252.014558484207
 31
0.0
  0
LINE
  5
1751F
330
747D
100
AcDbEntity
  8
破線
 48
10.0
100
AcDbLine
 10
10178.79845316947
 20
8252.014558484244
 30
0.0
 11
9397.798453169468
 21
8252.014558484217
 31
0.0
  0
LINE
  5
17520
330
747D
100
AcDbEntity
  8
破線
 48
10.0
100
AcDbLine
 10
10178.79845316947
 20
8228.514558484235
 30
0.0
 11
10178.79845316947
 21
9062.014558484346
 31
0.0
  0
LINE
  5
17521
330
747D
100
AcDbEntity
  8
破線
 48
10.0
100
AcDbLine
 10
10228.79845316946
 20
8228.51455848424
 30
0.0
 11
10228.79845316946
 21
9062.014558484346
 31
0.0
  0
LINE
  5
17522
330
747D
100
AcDbEntity
  8
部品1
100
AcDbLine
 10
8529.798453169469
 20
9062.014558484287
 30
0.0
 11
8529.798453169481
 21
8228.514558484301
 31
0.0
  0
LINE
  5
17523
330
747D
100
AcDbEntity
  8
破線
 48
10.0
100
AcDbLine
 10
9397.798453169468
 20
8228.51455848424
 30
0.0
 11
9397.798453169468
 21
9062.014558484346
 31
0.0
  0
LINE
  5
17524
330
747D
100
AcDbEntity
  8
破線
 48
10.0
100
AcDbLine
 10
9347.798453169472
 20
8228.514558484235
 30
0.0
 11
9347.798453169467
 21
9062.014558484346
 31
0.0
  0
LINE
  5
17525
330
747D
100
AcDbEntity
  8
部品1
100
AcDbLine
 10
8473.298453169457
 20
9542.014558484208
 30
0.0
 11
8473.298453169485
 21
8172.014558484196
 31
0.0
  0
LINE
  5
17526
330
747D
100
AcDbEntity
  8
部品1
100
AcDbLine
 10
8501.298453169466
 20
8200.014558484287
 30
0.0
 11
8501.298453169486
 21
9067.01455848421
 31
0.0
  0
LINE
  5
17527
330
747D
100
AcDbEntity
  8
破線
 48
10.0
100
AcDbLine
 10
8553.298453169468
 20
9062.014558484337
 30
0.0
 11
8553.298453169482
 21
8252.014558484207
 31
0.0
  0
LINE
  5
17528
330
747D
100
AcDbEntity
  8
破線
 48
10.0
100
AcDbLine
 10
11023.29845316948
 20
9062.014558484337
 30
0.0
 11
11023.29845316949
 21
8252.014558484324
 31
0.0
  0
LINE
  5
17529
330
747D
100
AcDbEntity
  8
部品1
 48
50.0
100
AcDbLine
 10
8501.298453169486
 20
8200.014558484305
 30
0.0
 11
11075.29845316951
 21
8200.014558484312
 31
0.0
  0
LINE
  5
1752A
330
747D
100
AcDbEntity
  8
部品1
100
AcDbLine
 10
11046.79845316948
 20
8647.014558484308
 30
0.0
 11
8529.798453169476
 21
8647.01455848421
 31
0.0
  0
LINE
  5
1752B
330
747D
100
AcDbEntity
  8
部品1
100
AcDbLine
 10
9800.798453169493
 20
9514.014558484353
 30
0.0
 11
11075.29845316949
 21
9514.014558484333
 31
0.0
  0
LINE
  5
1752C
330
747D
100
AcDbEntity
  8
細線
 48
50.0
100
AcDbLine
 10
11074.79845316949
 20
9062.014558484337
 30
0.0
 11
9801.798453169494
 21
9512.014558484336
 31
0.0
  0
LINE
  5
1752D
330
747D
100
AcDbEntity
  8
部品1
100
AcDbLine
 10
9801.798453169491
 20
9062.014558484346
 30
0.0
 11
11074.79845316949
 21
9062.014558484337
 31
0.0
  0
LINE
  5
1752E
330
747D
100
AcDbEntity
  8
部品1
100
AcDbLine
 10
9801.798453169494
 20
9512.014558484342
 30
0.0
 11
11074.79845316949
 21
9512.014558484334
 31
0.0
  0
LINE
  5
1752F
330
747D
100
AcDbEntity
  8
細線
 48
50.0
100
AcDbLine
 10
11074.79845316949
 20
9512.014558484334
 30
0.0
 11
9801.798453169491
 21
9062.014558484346
 31
0.0
  0
DIMENSION
  5
17530
330
747D
100
AcDbEntity
  8
寸法
100
AcDbDimension
  2
*D22
 10
10988.06452133349
 20
8742.051168939688
 30
0.0
 11
10421.1863604835
 21
8742.051168939688
 31
0.0
 70
   160
 71
     5
 42
1273.000000000011
  3
INABA_S40G
100
AcDbAlignedDimension
 13
9800.798453169493
 23
9062.014558484346
 33
0.0
 14
11073.7984531695
 24
9062.014558484337
 34
0.0
100
AcDbRotatedDimension
1001
ACAD
1000
DSTYLE
1002
{
1002
}
  0
LINE
  5
17532
330
747D
100
AcDbEntity
  8
部品1
100
AcDbLine
 10
8473.298453169492
 20
9542.01455848424
 30
0.0
 11
11103.29845316949
 21
9542.014558484334
 31
0.0
  0
LINE
  5
17533
330
747D
100
AcDbEntity
  8
部品1
100
AcDbLine
 10
11046.79845316949
 20
8228.514558484324
 30
0.0
 11
8529.798453169386
 21
8228.514558484206
 31
0.0
  0
DIMENSION
  5
17534
330
747D
100
AcDbEntity
  8
寸法
100
AcDbDimension
  2
*D23
 10
11048.29845316949
 20
9842.01455848424
 30
0.0
 11
9788.298453169488
 21
9842.01455848424
 31
0.0
 70
   160
  1
6X420=<>
 71
     5
 42
2520.0
  3
INABA_S40G
100
AcDbAlignedDimension
 13
8528.298453169494
 23
9542.01455848424
 33
0.0
 14
11048.29845316949
 24
9542.014558484334
 34
0.0
100
AcDbRotatedDimension
1001
ACAD
1000
DSTYLE
1002
{
1002
}
  0
DIMENSION
  5
17535
330
747D
100
AcDbEntity
  8
寸法
100
AcDbDimension
  2
*D24
 10
11103.29845316949
 20
9842.01455848424
 30
0.0
 11
11411.78373454373
 21
9842.01455848424
 31
0.0
 70
   160
 71
     5
 42
55.0
  3
INABA_S40G
100
AcDbAlignedDimension
 13
11048.29845316949
 23
9542.014558484334
 33
0.0
 14
11103.29845316949
 24
9542.014558484334
 34
0.0
100
AcDbRotatedDimension
1001
ACAD
1000
DSTYLE
1002
{
1002
}
  0
DIMENSION
  5
17536
330
747D
100
AcDbEntity
  8
寸法
100
AcDbDimension
  2
*D25
 10
9688.064521333494
 20
8742.051168939688
 30
0.0
 11
9051.564521333459
 21
8742.051168939688
 31
0.0
 70
   160
 71
     5
 42
1273.000000000069
  3
INABA_S40G
100
AcDbAlignedDimension
 13
8500.798453169423
 23
9062.014558484287
 33
0.0
 14
9773.798453169494
 24
9062.01455848428
 34
0.0
100
AcDbRotatedDimension
1001
ACAD
1000
DSTYLE
1002
{
1002
}
  0
DIMENSION
  5
17537
330
747D
100
AcDbEntity
  8
寸法
100
AcDbDimension
  2
*D26
 10
8528.298453169494
 20
9842.01455848424
 30
0.0
 11
8164.813171795218
 21
9842.01455848424
 31
0.0
 70
   160
 71
     5
 42
55.00000000003637
  3
INABA_S40G
100
AcDbAlignedDimension
 13
8473.298453169457
 23
9542.01455848424
 33
0.0
 14
8528.298453169494
 24
9542.01455848424
 34
0.0
100
AcDbRotatedDimension
1001
ACAD
1000
DSTYLE
1002
{
1002
}
  0
LINE
  5
17538
330
747D
100
AcDbEntity
  8
部品1
 48
50.0
100
AcDbLine
 10
11048.29845316948
 20
5048.510512052827
 30
0.0
 11
11048.29845316948
 21
5053.510512052827
 31
0.0
  0
LINE
  5
17539
330
747D
100
AcDbEntity
  8
部品1
100
AcDbLine
 10
11075.29845316948
 20
2963.510512052848
 30
0.0
 11
11103.29845316948
 21
2963.510512052848
 31
0.0
  0
LINE
  5
1753A
330
747D
100
AcDbEntity
  8
破線
 48
5.0
100
AcDbLine
 10
11128.29845316948
 20
2658.510512052828
 30
0.0
 11
11108.29845316948
 21
2658.510512052828
 31
0.0
  0
LINE
  5
1753B
330
747D
100
AcDbEntity
  8
破線
 48
5.0
100
AcDbLine
 10
11203.29845316948
 20
2813.510512052828
 30
0.0
 11
11203.29845316948
 21
2613.510512052828
 31
0.0
  0
LINE
  5
1753C
330
747D
100
AcDbEntity
  8
破線
 48
5.0
100
AcDbLine
 10
11108.29845316948
 20
2813.510512052828
 30
0.0
 11
11108.29845316948
 21
2658.510512052828
 31
0.0
  0
LINE
  5
1753D
330
747D
100
AcDbEntity
  8
部品1
100
AcDbLine
 10
11108.29845316948
 20
2958.510512052828
 30
0.0
 11
11108.29845316948
 21
2813.510512052828
 31
0.0
  0
LINE
  5
1753E
330
747D
100
AcDbEntity
  8
部品1
100
AcDbLine
 10
11103.29845316948
 20
5107.010512052828
 30
0.0
 11
11103.29845316948
 21
2813.510512052828
 31
0.0
  0
LINE
  5
1753F
330
747D
100
AcDbEntity
  8
部品1
 48
50.0
100
AcDbLine
 10
8948.298453169483
 20
5048.510512052827
 30
0.0
 11
8948.298453169483
 21
5053.510512052827
 31
0.0
  0
LINE
  5
17540
330
747D
100
AcDbEntity
  8
破線
 48
5.0
100
AcDbLine
 10
11003.29845316948
 20
2813.510512052828
 30
0.0
 11
11003.29845316948
 21
2613.510512052828
 31
0.0
  0
LINE
  5
17541
330
747D
100
AcDbEntity
  8
部品1
100
AcDbLine
 10
10703.29845316948
 20
2913.510512052828
 30
0.0
 11
10703.29845316948
 21
2813.510512052828
 31
0.0
  0
LINE
  5
17542
330
747D
100
AcDbEntity
  8
部品1
 48
50.0
100
AcDbLine
 10
10303.29845316948
 20
2913.510512052828
 30
0.0
 11
10303.29845316948
 21
2813.510512052828
 31
0.0
  0
LINE
  5
17543
330
747D
100
AcDbEntity
  8
部品1
 48
50.0
100
AcDbLine
 10
10103.29845316948
 20
2913.510512052828
 30
0.0
 11
10103.29845316948
 21
2813.510512052828
 31
0.0
  0
LINE
  5
17544
330
747D
100
AcDbEntity
  8
部品1
 48
50.0
100
AcDbLine
 10
9473.298453169482
 20
2913.510512052828
 30
0.0
 11
9473.298453169482
 21
2813.510512052828
 31
0.0
  0
LINE
  5
17545
330
747D
100
AcDbEntity
  8
部品1
 48
50.0
100
AcDbLine
 10
9273.298453169482
 20
2913.510512052828
 30
0.0
 11
9273.298453169482
 21
2813.510512052828
 31
0.0
  0
LINE
  5
17546
330
747D
100
AcDbEntity
  8
部品1
100
AcDbLine
 10
8473.298453169482
 20
2963.510512052848
 30
0.0
 11
8921.298453169484
 21
2963.510512052848
 31
0.0
  0
LINE
  5
17547
330
747D
100
AcDbEntity
  8
部品1
100
AcDbLine
 10
8873.298453169482
 20
2913.510512052828
 30
0.0
 11
8873.298453169482
 21
2813.510512052828
 31
0.0
  0
LINE
  5
17548
330
747D
100
AcDbEntity
  8
破線
 48
5.0
100
AcDbLine
 10
8448.298453169483
 20
2658.510512052828
 30
0.0
 11
8468.298453169484
 21
2658.510512052828
 31
0.0
  0
LINE
  5
17549
330
747D
100
AcDbEntity
  8
破線
 48
5.0
100
AcDbLine
 10
8573.298453169483
 20
2813.510512052828
 30
0.0
 11
8573.298453169483
 21
2613.510512052828
 31
0.0
  0
LINE
  5
1754A
330
747D
100
AcDbEntity
  8
破線
 48
5.0
100
AcDbLine
 10
8468.298453169483
 20
2813.510512052828
 30
0.0
 11
8468.298453169483
 21
2658.510512052828
 31
0.0
  0
LINE
  5
1754B
330
747D
100
AcDbEntity
  8
部品1
100
AcDbLine
 10
8468.298453169483
 20
2958.51051205283
 30
0.0
 11
8468.298453169483
 21
2813.510512052828
 31
0.0
  0
LINE
  5
1754C
330
747D
100
AcDbEntity
  8
部品1
100
AcDbLine
 10
8473.29845316948
 20
5107.010512052828
 30
0.0
 11
8473.298453169482
 21
2813.510512052828
 31
0.0
  0
LINE
  5
1754D
330
747D
100
AcDbEntity
  8
部品1
 48
50.0
100
AcDbLine
 10
8528.298453169483
 20
2963.510512052848
 30
0.0
 11
8528.298453169483
 21
5053.510512052827
 31
0.0
  0
LINE
  5
1754E
330
747D
100
AcDbEntity
  8
部品1
100
AcDbLine
 10
8473.298453169482
 20
2913.510512052828
 30
0.0
 11
11103.29845316948
 21
2913.510512052828
 31
0.0
  0
LINE
  5
1754F
330
747D
100
AcDbEntity
  8
部品1
100
AcDbLine
 10
8473.298453169482
 20
5053.510512052827
 30
0.0
 11
11103.29845316948
 21
5053.510512052827
 31
0.0
  0
LINE
  5
17550
330
747D
100
AcDbEntity
  8
破線
 48
5.0
100
AcDbLine
 10
11203.29845316948
 20
2613.510512052828
 30
0.0
 11
11003.29845316948
 21
2613.510512052828
 31
0.0
  0
LINE
  5
17551
330
747D
100
AcDbEntity
  8
部品1
 48
50.0
100
AcDbLine
 10
8501.298453169484
 20
2913.510512052828
 30
0.0
 11
11075.29845316948
 21
2913.510512052828
 31
0.0
  0
LINE
  5
17552
330
747D
100
AcDbEntity
  8
部品1
 48
50.0
100
AcDbLine
 10
8921.298453169484
 20
2913.510512052828
 30
0.0
 11
11075.29845316948
 21
2913.510512052828
 31
0.0
  0
LINE
  5
17553
330
747D
100
AcDbEntity
  8
部品1
100
AcDbLine
 10
8473.298453169482
 20
5053.510512052827
 30
0.0
 11
11103.29845316948
 21
5053.510512052827
 31
0.0
  0
LINE
  5
17554
330
747D
100
AcDbEntity
  8
破線
 48
5.0
100
AcDbLine
 10
8373.298453169482
 20
2813.510512052828
 30
0.0
 11
8373.298453169482
 21
2613.510512052828
 31
0.0
  0
LINE
  5
17555
330
747D
100
AcDbEntity
  8
破線
 48
5.0
100
AcDbLine
 10
8373.298453169482
 20
2613.510512052828
 30
0.0
 11
8573.298453169483
 21
2613.510512052828
 31
0.0
  0
DIMENSION
  5
17556
330
747D
100
AcDbEntity
  8
寸法
 48
50.0
100
AcDbDimension
  2
*D27
 10
8373.298453169482
 20
2327.46318275245
 30
0.0
 11
8473.298453169482
 21
2327.46318275245
 31
0.0
 70
   160
 71
     5
 42
200.0000000000018
  3
INABA_S40G
100
AcDbAlignedDimension
 13
8573.298453169483
 23
2613.510512052828
 33
0.0
 14
8373.298453169482
 24
2613.510512052828
 34
0.0
100
AcDbRotatedDimension
  0
DIMENSION
  5
17557
330
747D
100
AcDbEntity
  8
寸法
 48
50.0
100
AcDbDimension
  2
*D28
 10
8137.227074217234
 20
2971.510512052828
 30
0.0
 11
8137.227074217234
 21
3956.012833429369
 31
0.0
 70
   160
  1
有効開口部高サ<>
 71
     5
 42
2024.999999999999
  3
INABA_S40G
100
AcDbAlignedDimension
 13
8921.298453169484
 23
4996.510512052827
 33
0.0
 14
8921.298453169484
 24
2971.510512052828
 34
0.0
 50
90.0
100
AcDbRotatedDimension
  0
LINE
  5
17558
330
747D
100
AcDbEntity
  8
部品1
100
AcDbLine
 10
6321.511156185901
 20
1934.194969077868
 30
0.0
 11
5558.040489957463
 21
1934.194969077868
 31
0.0
  0
LINE
  5
17559
330
747D
100
AcDbEntity
  8
部品1
100
AcDbLine
 10
6321.511156185901
 20
1694.302647532335
 30
0.0
 11
6321.511156185901
 21
1934.194969077868
 31
0.0
  0
LINE
  5
1755A
330
747D
100
AcDbEntity
  8
部品1
100
AcDbLine
 10
5558.040489957463
 20
1694.302647532335
 30
0.0
 11
6321.511156185901
 21
1694.302647532335
 31
0.0
  0
LINE
  5
1755B
330
747D
100
AcDbEntity
  8
部品1
100
AcDbLine
 10
5558.040489957463
 20
1934.194969077868
 30
0.0
 11
5558.040489957463
 21
1694.302647532335
 31
0.0
  0
LINE
  5
1755C
330
747D
100
AcDbEntity
  8
部品1
100
AcDbLine
 10
10170.0337862837
 20
1934.194969077868
 30
0.0
 11
9406.563120055263
 21
1934.194969077868
 31
0.0
  0
LINE
  5
1755D
330
747D
100
AcDbEntity
  8
部品1
100
AcDbLine
 10
10170.0337862837
 20
1694.302647532335
 30
0.0
 11
10170.0337862837
 21
1934.194969077868
 31
0.0
  0
LINE
  5
1755E
330
747D
100
AcDbEntity
  8
部品1
100
AcDbLine
 10
9406.563120055263
 20
1694.302647532335
 30
0.0
 11
10170.0337862837
 21
1694.302647532335
 31
0.0
  0
LINE
  5
1755F
330
747D
100
AcDbEntity
  8
部品1
100
AcDbLine
 10
9406.563120055263
 20
1934.194969077868
 30
0.0
 11
9406.563120055263
 21
1694.302647532335
 31
0.0
  0
TEXT
  5
17566
330
747D
100
AcDbEntity
  8
部品1
100
AcDbText
 10
5647.486591381071
 20
1741.301439859345
 30
0.0
 40
135.0
  1
側面図
  7
STYLE2
100
AcDbText
  0
TEXT
  5
17567
330
747D
100
AcDbEntity
  8
部品1
100
AcDbText
 10
9497.088523793218
 20
1741.301439859345
 30
0.0
 40
135.0
  1
正面図
  7
STYLE2
100
AcDbText
  0
TEXT
  5
17568
330
747D
100
AcDbEntity
  8
部品1
100
AcDbText
 10
3368.672965013109
 20
2849.617415658729
 30
0.0
 40
125.0
  1
▽G.L
  7
STYLE2
100
AcDbText
  0
LINE
  5
17569
330
747D
100
AcDbEntity
  8
Ｇ．Ｌ
100
AcDbLine
 10
3345.884523431585
 20
2813.510512052828
 30
0.0
 11
11752.81100619833
 21
2813.510512052828
 31
0.0
  0
LINE
  5
17811
330
747D
100
AcDbEntity
  8
補助
  6
PHANTOM
 62
   230
 48
50.0
100
AcDbLine
 10
140.0
 20
0.0
 30
0.0
 11
139.9999999999995
 21
11409.6
 31
0.0
  0
LINE
  5
17F72
330
747D
100
AcDbEntity
  8
部品1
 48
50.0
100
AcDbLine
 10
8995.298453169484
 20
4045.010512052829
 30
0.0
 11
9048.298453169485
 21
4045.010512052829
 31
0.0
  0
LINE
  5
181AB
330
747D
100
AcDbEntity
  8
寸法
 48
50.0
100
AcDbLine
 10
9383.501459451306
 20
7950.051310053059
 30
0.0
 11
9332.095451541201
 21
7950.051310053059
 31
0.0
  0
LINE
  5
181AC
330
747D
100
AcDbEntity
  8
寸法
 48
50.0
100
AcDbLine
 10
9332.095451541201
 20
7950.051310053059
 30
0.0
 11
9332.095451541201
 21
7981.361468705225
 31
0.0
  0
LINE
  5
181AD
330
747D
100
AcDbEntity
  8
寸法
 48
50.0
100
AcDbLine
 10
9332.095451541201
 20
7981.361468705225
 30
0.0
 11
9302.334119549778
 21
7981.361468705225
 31
0.0
  0
LINE
  5
181AE
330
747D
100
AcDbEntity
  8
寸法
 48
50.0
100
AcDbLine
 10
9302.334119549778
 20
7981.361468705225
 30
0.0
 11
9357.798455496252
 21
8018.940919633834
 31
0.0
  0
LINE
  5
181AF
330
747D
100
AcDbEntity
  8
寸法
 48
50.0
100
AcDbLine
 10
9413.262791442729
 20
7981.361468705225
 30
0.0
 11
9357.798455496252
 21
8018.940919633834
 31
0.0
  0
LINE
  5
181B0
330
747D
100
AcDbEntity
  8
寸法
 48
50.0
100
AcDbLine
 10
9383.501459451306
 20
7981.361468705225
 30
0.0
 11
9413.262791442729
 21
7981.361468705225
 31
0.0
  0
LINE
  5
181B1
330
747D
100
AcDbEntity
  8
寸法
 48
50.0
100
AcDbLine
 10
9383.501459451306
 20
7950.051310053059
 30
0.0
 11
9383.501459451306
 21
7981.361468705225
 31
0.0
  0
LINE
  5
181B2
330
747D
100
AcDbEntity
  8
寸法
 48
50.0
100
AcDbLine
 10
9332.095451541201
 20
7950.051310053059
 30
0.0
 11
9383.501459451306
 21
7950.051310053059
 31
0.0
  0
LINE
  5
181B3
330
747D
100
AcDbEntity
  8
寸法
 48
50.0
100
AcDbLine
 10
9662.666993728162
 20
8007.196900807882
 30
0.0
 11
9662.666993728162
 21
7953.533266226092
 31
0.0
  0
LINE
  5
181B4
330
747D
100
AcDbEntity
  8
寸法
 48
50.0
100
AcDbLine
 10
9751.951212323584
 20
7983.273266538396
 30
0.0
 11
9662.666993728162
 21
8007.196900807882
 31
0.0
  0
LINE
  5
181B5
330
747D
100
AcDbEntity
  8
寸法
 48
50.0
100
AcDbLine
 10
9532.79927214786
 20
7983.273266538396
 30
0.0
 11
9751.951212323584
 21
7983.273266538396
 31
0.0
  0
LINE
  5
181B6
330
747D
100
AcDbEntity
  8
細線
 48
50.0
100
AcDbLine
 10
10409.29845316946
 20
8148.51467343292
 30
0.0
 11
11036.29845316946
 21
8148.51467343292
 31
0.0
  0
LINE
  5
181B7
330
747D
100
AcDbEntity
  8
細線
 48
50.0
100
AcDbLine
 10
9755.298457823052
 20
8114.805904878846
 30
0.0
 11
11036.29845316946
 21
8114.805904878846
 31
0.0
  0
LINE
  5
181B8
330
747D
100
AcDbEntity
  8
細線
 48
50.0
100
AcDbLine
 10
9714.298457823055
 20
8144.210812875099
 30
0.0
 11
8960.29845316946
 21
8144.210812875096
 31
0.0
  0
LINE
  5
181B9
330
747D
100
AcDbEntity
  8
細線
100
AcDbLine
 10
10812.048443753
 20
8168.014573397931
 30
0.0
 11
10814.37998327481
 21
8173.014576037891
 31
0.0
  0
LINE
  5
181BA
330
747D
100
AcDbEntity
  8
細線
100
AcDbLine
 10
10882.04845316946
 20
8168.014558484195
 30
0.0
 11
10879.71690669327
 21
8173.014576037877
 31
0.0
  0
LINE
  5
181BB
330
747D
100
AcDbEntity
  8
細線
100
AcDbLine
 10
10879.71690669327
 20
8173.014576037877
 30
0.0
 11
10814.37998327479
 21
8173.014576037862
 31
0.0
  0
LINE
  5
181BC
330
747D
100
AcDbEntity
  8
細線
100
AcDbLine
 10
10739.71690669327
 20
8173.014576037877
 30
0.0
 11
10674.37998327479
 21
8173.014576037862
 31
0.0
  0
LINE
  5
181BD
330
747D
100
AcDbEntity
  8
細線
100
AcDbLine
 10
10742.04845316946
 20
8168.014558484195
 30
0.0
 11
10739.71690669327
 21
8173.014576037877
 31
0.0
  0
LINE
  5
181BE
330
747D
100
AcDbEntity
  8
細線
100
AcDbLine
 10
10672.048443753
 20
8168.014573397931
 30
0.0
 11
10674.37998327481
 21
8173.014576037891
 31
0.0
  0
LINE
  5
181BF
330
747D
100
AcDbEntity
  8
細線
100
AcDbLine
 10
10532.04845316946
 20
8168.014558484195
 30
0.0
 11
10534.37999269127
 21
8173.014561124157
 31
0.0
  0
LINE
  5
181C0
330
747D
100
AcDbEntity
  8
細線
100
AcDbLine
 10
10602.04846258592
 20
8168.014543570462
 30
0.0
 11
10599.71691610973
 21
8173.014561124142
 31
0.0
  0
LINE
  5
181C1
330
747D
100
AcDbEntity
  8
細線
100
AcDbLine
 10
10599.71691610973
 20
8173.014561124142
 30
0.0
 11
10534.37999269126
 21
8173.014561124128
 31
0.0
  0
LINE
  5
181C2
330
747D
100
AcDbEntity
  8
細線
100
AcDbLine
 10
10304.46693735856
 20
8139.014597821525
 30
0.0
 11
10239.13001394009
 21
8139.01459782151
 31
0.0
  0
LINE
  5
181C3
330
747D
100
AcDbEntity
  8
細線
100
AcDbLine
 10
10306.79848383475
 20
8134.014580267843
 30
0.0
 11
10304.46693735856
 21
8139.014597821525
 31
0.0
  0
LINE
  5
181C4
330
747D
100
AcDbEntity
  8
細線
100
AcDbLine
 10
10236.7984744183
 20
8134.014595181577
 30
0.0
 11
10239.1300139401
 21
8139.014597821539
 31
0.0
  0
LINE
  5
181C5
330
747D
100
AcDbEntity
  8
細線
 48
50.0
100
AcDbLine
 10
10078.18183241747
 20
8152.285421637277
 30
0.0
 11
10083.93735000014
 21
8134.01457034679
 31
0.0
  0
LINE
  5
181C6
330
747D
100
AcDbEntity
  8
細線
 48
50.0
100
AcDbLine
 10
10067.25338393704
 20
8152.285421637277
 30
0.0
 11
10078.18183241747
 21
8152.285421637277
 31
0.0
  0
ARC
  5
181C7
330
747D
100
AcDbEntity
  8
細線
 48
50.0
100
AcDbCircle
 10
10061.79902787972
 20
8153.785421637277
 30
0.0
 40
5.0
100
AcDbArc
 50
204.6243183521304
 51
335.3756816478695
  0
ARC
  5
181C8
330
747D
100
AcDbEntity
  8
細線
 48
50.0
100
AcDbCircle
 10
10067.25338393704
 20
8151.285421637275
 30
0.0
 40
1.0
100
AcDbArc
 50
90.0
 51
155.3756816478695
  0
ARC
  5
181C9
330
747D
100
AcDbEntity
  8
細線
 48
50.0
100
AcDbCircle
 10
10056.34467182241
 20
8151.285421637275
 30
0.0
 40
1.0
100
AcDbArc
 50
24.62431835213048
 51
90.0
  0
LINE
  5
181CA
330
747D
100
AcDbEntity
  8
細線
 48
50.0
100
AcDbLine
 10
10045.41622334197
 20
8152.285421637277
 30
0.0
 11
10056.34467182241
 21
8152.285421637277
 31
0.0
  0
LINE
  5
181CB
330
747D
100
AcDbEntity
  8
細線
 48
50.0
100
AcDbLine
 10
10039.66070575931
 20
8134.014570346783
 30
0.0
 11
10045.41622334197
 21
8152.285421637277
 31
0.0
  0
LINE
  5
181CC
330
747D
100
AcDbEntity
  8
細線
100
AcDbLine
 10
10096.79847564934
 20
8134.014567712588
 30
0.0
 11
10099.13001517115
 21
8139.014570352548
 31
0.0
  0
LINE
  5
181CD
330
747D
100
AcDbEntity
  8
細線
100
AcDbLine
 10
10166.7984850658
 20
8134.014552798854
 30
0.0
 11
10164.46693858961
 21
8139.014570352534
 31
0.0
  0
LINE
  5
181CE
330
747D
100
AcDbEntity
  8
細線
100
AcDbLine
 10
10164.46693858961
 20
8139.014570352534
 30
0.0
 11
10099.13001517113
 21
8139.01457035252
 31
0.0
  0
LINE
  5
181CF
330
747D
100
AcDbEntity
  8
細線
100
AcDbLine
 10
10024.46691022509
 20
8139.014570346754
 30
0.0
 11
9959.129986806615
 21
8139.014570346738
 31
0.0
  0
LINE
  5
181D0
330
747D
100
AcDbEntity
  8
細線
100
AcDbLine
 10
10026.79845670128
 20
8134.014552793074
 30
0.0
 11
10024.46691022509
 21
8139.014570346754
 31
0.0
  0
LINE
  5
181D1
330
747D
100
AcDbEntity
  8
細線
100
AcDbLine
 10
9956.798448515863
 20
8134.014570346783
 30
0.0
 11
9959.129986806631
 21
8139.014570346768
 31
0.0
  0
LINE
  5
181D2
330
747D
100
AcDbEntity
  8
細線
100
AcDbLine
 10
9816.798483834755
 20
8134.014578534152
 30
0.0
 11
9819.130022125523
 21
8139.014578534137
 31
0.0
  0
LINE
  5
181D3
330
747D
100
AcDbEntity
  8
細線
100
AcDbLine
 10
9886.798492020171
 20
8134.014560980443
 30
0.0
 11
9884.466945543984
 21
8139.014578534119
 31
0.0
  0
LINE
  5
181D4
330
747D
100
AcDbEntity
  8
細線
100
AcDbLine
 10
9884.466945543984
 20
8139.014578534119
 30
0.0
 11
9819.130022125508
 21
8139.014578534109
 31
0.0
  0
LINE
  5
181D5
330
747D
100
AcDbEntity
  8
細線
100
AcDbLine
 10
9445.298449637634
 20
8100.014750214866
 30
0.0
 11
9447.629987928401
 21
8105.01475021485
 31
0.0
  0
LINE
  5
181D6
330
747D
100
AcDbEntity
  8
細線
100
AcDbLine
 10
9515.29845782305
 20
8100.014732661151
 30
0.0
 11
9512.966911346863
 21
8105.014750214829
 31
0.0
  0
LINE
  5
181D7
330
747D
100
AcDbEntity
  8
細線
100
AcDbLine
 10
9512.966911346863
 20
8105.014750214829
 30
0.0
 11
9447.629987928392
 21
8105.01475021482
 31
0.0
  0
LINE
  5
181D8
330
747D
100
AcDbEntity
  8
細線
100
AcDbLine
 10
9652.966911346863
 20
8105.014750214829
 30
0.0
 11
9587.629987928391
 21
8105.01475021482
 31
0.0
  0
LINE
  5
181D9
330
747D
100
AcDbEntity
  8
細線
100
AcDbLine
 10
9655.29845782305
 20
8100.014732661151
 30
0.0
 11
9652.966911346863
 21
8105.014750214829
 31
0.0
  0
LINE
  5
181DA
330
747D
100
AcDbEntity
  8
細線
100
AcDbLine
 10
9585.298449637633
 20
8100.014750214866
 30
0.0
 11
9587.629987928401
 21
8105.01475021485
 31
0.0
  0
LINE
  5
181DB
330
747D
100
AcDbEntity
  8
細線
100
AcDbLine
 10
9372.966911346862
 20
8105.014750214829
 30
0.0
 11
9307.629987928391
 21
8105.014750214818
 31
0.0
  0
LINE
  5
181DC
330
747D
100
AcDbEntity
  8
細線
100
AcDbLine
 10
9375.298457823049
 20
8100.014732661151
 30
0.0
 11
9372.966911346862
 21
8105.014750214829
 31
0.0
  0
LINE
  5
181DD
330
747D
100
AcDbEntity
  8
細線
100
AcDbLine
 10
9305.298449637634
 20
8100.01475021486
 30
0.0
 11
9307.629987928402
 21
8105.014750214847
 31
0.0
  0
LINE
  5
181DE
330
747D
100
AcDbEntity
  8
細線
100
AcDbLine
 10
9165.29845782305
 20
8100.014750214866
 30
0.0
 11
9167.629996113817
 21
8105.01475021485
 31
0.0
  0
LINE
  5
181DF
330
747D
100
AcDbEntity
  8
細線
100
AcDbLine
 10
9235.298466008465
 20
8100.014732661151
 30
0.0
 11
9232.966919532278
 21
8105.014750214829
 31
0.0
  0
LINE
  5
181E0
330
747D
100
AcDbEntity
  8
細線
100
AcDbLine
 10
9232.966919532278
 20
8105.014750214829
 30
0.0
 11
9167.629996113808
 21
8105.01475021482
 31
0.0
  0
ARC
  5
181E1
330
747D
100
AcDbEntity
  8
部品1
 48
0.01
100
AcDbCircle
 10
9120.798346570714
 20
8099.013628029792
 30
0.0
 40
0.5
100
AcDbArc
 50
270.0
 51
0.0
  0
LINE
  5
181E2
330
747D
100
AcDbEntity
  8
部品1
 48
0.01
100
AcDbLine
 10
9121.298346570716
 20
8100.013628029792
 30
0.0
 11
9121.298346570716
 21
8099.013628029792
 31
0.0
  0
LINE
  5
181E3
330
747D
100
AcDbEntity
  8
部品1
 48
0.01
100
AcDbLine
 10
9121.298346570716
 20
8100.013628029792
 30
0.0
 11
9121.298346570716
 21
8099.013628029792
 31
0.0
  0
LINE
  5
181E4
330
747D
100
AcDbEntity
  8
部品1
 48
0.01
100
AcDbLine
 10
9120.798346570714
 20
8098.513628029792
 30
0.0
 11
9114.185841140651
 21
8098.513628029792
 31
0.0
  0
ARC
  5
181E5
330
747D
100
AcDbEntity
  8
部品1
100
AcDbCircle
 10
9114.254190693431
 20
8099.513628029793
 30
0.0
 40
1.0
100
AcDbArc
 50
160.5287793655778
 51
270.0
  0
ARC
  5
181E6
330
747D
100
AcDbEntity
  8
部品1
100
AcDbCircle
 10
9088.798346570715
 20
8108.513628029792
 30
0.0
 40
26.0
100
AcDbArc
 50
340.5287793655779
 51
0.0
  0
LINE
  5
181E7
330
747D
100
AcDbEntity
  8
部品1
100
AcDbLine
 10
9114.798346570715
 20
8108.513628029792
 30
0.0
 11
9114.798346570715
 21
8113.513628029792
 31
0.0
  0
ARC
  5
181E8
330
747D
100
AcDbEntity
  8
部品1
 48
0.01
100
AcDbCircle
 10
9112.798346570714
 20
8113.513628029792
 30
0.0
 40
2.0
100
AcDbArc
 50
0.0
 51
90.0
  0
ARC
  5
181E9
330
747D
100
AcDbEntity
  8
部品1
100
AcDbCircle
 10
9111.189954945905
 20
8112.513628029793
 30
0.0
 40
3.0
100
AcDbArc
 50
90.0
 51
141.6069559807873
  0
LINE
  5
181EA
330
747D
100
AcDbEntity
  8
部品1
 48
0.01
100
AcDbLine
 10
9112.798346570714
 20
8115.513628029793
 30
0.0
 11
9111.189954945905
 21
8115.513628029793
 31
0.0
  0
ARC
  5
181EB
330
747D
100
AcDbEntity
  8
部品1
100
AcDbCircle
 10
9092.727632356444
 20
8111.813628029794
 30
0.0
 40
3.0
100
AcDbArc
 50
254.0576313943215
 51
270.0
  0
ARC
  5
181EC
330
747D
100
AcDbEntity
  8
部品1
100
AcDbCircle
 10
9099.869060784987
 20
8111.813628029794
 30
0.0
 40
3.0
100
AcDbArc
 50
270.0
 51
285.9423686056786
  0
LINE
  5
181ED
330
747D
100
AcDbEntity
  8
部品1
100
AcDbLine
 10
9099.869060784987
 20
8108.813628029794
 30
0.0
 11
9092.727632356444
 21
8108.813628029794
 31
0.0
  0
ARC
  5
181EE
330
747D
100
AcDbEntity
  8
部品1
100
AcDbCircle
 10
9096.298346570716
 20
8124.313628029794
 30
0.0
 40
16.0
100
AcDbArc
 50
285.9423686056786
 51
321.6069559807873
  0
LINE
  5
181EF
330
747D
100
AcDbEntity
  8
部品1
 48
0.01
100
AcDbLine
 10
9079.798346570715
 20
8115.513628029793
 30
0.0
 11
9081.406738195525
 21
8115.513628029793
 31
0.0
  0
ARC
  5
181F0
330
747D
100
AcDbEntity
  8
部品1
100
AcDbCircle
 10
9081.406738195525
 20
8112.513628029793
 30
0.0
 40
3.0
100
AcDbArc
 50
38.39304401921267
 51
90.0
  0
ARC
  5
181F1
330
747D
100
AcDbEntity
  8
部品1
100
AcDbCircle
 10
9096.298346570716
 20
8124.313628029794
 30
0.0
 40
16.0
100
AcDbArc
 50
218.3930440192126
 51
254.0576313943215
  0
LINE
  5
181F2
330
747D
100
AcDbEntity
  8
部品1
100
AcDbLine
 10
9077.798346570714
 20
8108.513628029792
 30
0.0
 11
9077.798346570714
 21
8113.513628029792
 31
0.0
  0
ARC
  5
181F3
330
747D
100
AcDbEntity
  8
部品1
 48
0.01
100
AcDbCircle
 10
9079.798346570715
 20
8113.513628029792
 30
0.0
 40
2.0
100
AcDbArc
 50
90.0
 51
180.0
  0
ARC
  5
181F4
330
747D
100
AcDbEntity
  8
部品1
100
AcDbCircle
 10
9103.798346570714
 20
8108.513628029792
 30
0.0
 40
26.0
100
AcDbArc
 50
180.0
 51
199.4712206344221
  0
ARC
  5
181F5
330
747D
100
AcDbEntity
  8
部品1
 48
0.01
100
AcDbCircle
 10
9071.798346570714
 20
8099.013628029792
 30
0.0
 40
0.5
100
AcDbArc
 50
180.0
 51
270.0
  0
LINE
  5
181F6
330
747D
100
AcDbEntity
  8
部品1
 48
0.01
100
AcDbLine
 10
9071.798346570714
 20
8098.513628029792
 30
0.0
 11
9078.342502447998
 21
8098.513628029792
 31
0.0
  0
LINE
  5
181F7
330
747D
100
AcDbEntity
  8
部品1
 48
0.01
100
AcDbLine
 10
9071.298346570715
 20
8100.013628029792
 30
0.0
 11
9071.298346570715
 21
8099.013628029792
 31
0.0
  0
ARC
  5
181F8
330
747D
100
AcDbEntity
  8
部品1
100
AcDbCircle
 10
9078.342502447998
 20
8099.513628029793
 30
0.0
 40
1.0
100
AcDbArc
 50
270.0
 51
19.47122063442214
  0
LINE
  5
181F9
330
747D
100
AcDbEntity
  8
細線
100
AcDbLine
 10
9116.798346570723
 20
8118.013628029796
 30
0.0
 11
9075.798346570723
 21
8118.013628029789
 31
0.0
  0
LINE
  5
181FA
330
747D
100
AcDbEntity
  8
細線
100
AcDbLine
 10
9075.798346570723
 20
8118.013628029789
 30
0.0
 11
9075.798346570723
 21
8100.01362802977
 31
0.0
  0
LINE
  5
181FB
330
747D
100
AcDbEntity
  8
細線
100
AcDbLine
 10
9116.798346570723
 20
8118.013628029796
 30
0.0
 11
9116.798346570723
 21
8100.01362802977
 31
0.0
  0
LINE
  5
181FC
330
747D
100
AcDbEntity
  8
細線
100
AcDbLine
 10
8960.29845316946
 20
8104.014558484196
 30
0.0
 11
8960.29845316946
 21
8100.014558484243
 31
0.0
  0
DIMENSION
  5
181FD
330
747D
100
AcDbEntity
  8
寸法
 48
50.0
100
AcDbDimension
  2
*D30
 10
10226.29845316946
 20
7440.354728161394
 30
0.0
 11
9594.918489298697
 21
7440.354728161394
 31
0.0
 70
   160
  1
有効開口部間口\P<>
 71
     5
 42
1266.0
  3
INABA_S40
100
AcDbAlignedDimension
 13
8960.29845316946
 23
8095.014558484196
 33
0.0
 14
10226.29845316946
 24
8095.014558484196
 34
0.0
100
AcDbRotatedDimension
1001
ACAD
1000
DSTYLE
1002
{
1070
    41
1040
0.5
1070
    44
1040
1.0
1070
   147
1040
0.8
1070
   271
1070
     2
1070
   272
1070
     2
1070
   289
1070
     3
1070
   340
1005
F706
1070
   343
1005
17933
1070
   344
1005
17933
1002
}
  0
LINE
  5
181FE
330
747D
100
AcDbEntity
  8
部品1
100
AcDbLine
 10
11048.29845316946
 20
8172.014558484196
 30
0.0
 11
11075.29845316946
 21
8172.014558484196
 31
0.0
  0
LINE
  5
18200
330
747D
100
AcDbEntity
  8
部品1
100
AcDbLine
 10
11075.29845316946
 20
8095.014558484196
 30
0.0
 11
11075.29845316946
 21
8172.014558484196
 31
0.0
  0
LINE
  5
18201
330
747D
100
AcDbEntity
  8
部品1
100
AcDbLine
 10
11036.29845316946
 20
8168.014558484195
 30
0.0
 11
11048.29845316946
 21
8168.014558484195
 31
0.0
  0
LINE
  5
18202
330
747D
100
AcDbEntity
  8
部品1
100
AcDbLine
 10
11045.29845316946
 20
8104.014558484196
 30
0.0
 11
11045.29845316946
 21
8095.014558484196
 31
0.0
  0
LINE
  5
18203
330
747D
100
AcDbEntity
  8
部品1
100
AcDbLine
 10
11036.29845316946
 20
8104.014558484196
 30
0.0
 11
11045.29845316946
 21
8104.014558484196
 31
0.0
  0
LINE
  5
18204
330
747D
100
AcDbEntity
  8
部品1
100
AcDbLine
 10
11036.29845316946
 20
8168.014558484195
 30
0.0
 11
11036.29845316946
 21
8104.014558484196
 31
0.0
  0
LINE
  5
18205
330
747D
100
AcDbEntity
  8
部品1
100
AcDbLine
 10
11048.29845316946
 20
8199.014558484195
 30
0.0
 11
11048.29845316946
 21
8168.014558484195
 31
0.0
  0
LINE
  5
18206
330
747D
100
AcDbEntity
  8
部品1
100
AcDbLine
 10
8960.29845316946
 20
8168.014558484195
 30
0.0
 11
8948.29845316946
 21
8168.014558484195
 31
0.0
  0
LINE
  5
18207
330
747D
100
AcDbEntity
  8
部品1
100
AcDbLine
 10
8921.298453169461
 20
8172.014558484196
 30
0.0
 11
8948.29845316946
 21
8172.014558484196
 31
0.0
  0
LINE
  5
18208
330
747D
100
AcDbEntity
  8
部品1
100
AcDbLine
 10
8951.29845316946
 20
8104.014558484196
 30
0.0
 11
8951.29845316946
 21
8095.014558484196
 31
0.0
  0
LINE
  5
18209
330
747D
100
AcDbEntity
  8
部品1
100
AcDbLine
 10
8960.29845316946
 20
8104.014558484196
 30
0.0
 11
8951.29845316946
 21
8104.014558484196
 31
0.0
  0
LINE
  5
1820A
330
747D
100
AcDbEntity
  8
部品1
100
AcDbLine
 10
8951.29845316946
 20
8095.014558484196
 30
0.0
 11
8921.298453169461
 21
8095.014558484196
 31
0.0
  0
LINE
  5
1820B
330
747D
100
AcDbEntity
  8
部品1
100
AcDbLine
 10
8921.298453169461
 20
8095.014558484196
 30
0.0
 11
8921.298453169461
 21
8172.014558484196
 31
0.0
  0
LINE
  5
1820C
330
747D
100
AcDbEntity
  8
部品1
100
AcDbLine
 10
8960.29845316946
 20
8168.014558484195
 30
0.0
 11
8960.29845316946
 21
8104.014558484196
 31
0.0
  0
LINE
  5
1820D
330
747D
100
AcDbEntity
  8
部品1
100
AcDbLine
 10
8948.29845316946
 20
8199.014558484192
 30
0.0
 11
8948.29845316946
 21
8168.014558484195
 31
0.0
  0
LINE
  5
1820E
330
747D
100
AcDbEntity
  8
部品1
100
AcDbLine
 10
8948.29845316946
 20
8199.014558484192
 30
0.0
 11
11048.29845316946
 21
8199.014558484195
 31
0.0
  0
LINE
  5
1820F
330
747D
100
AcDbEntity
  8
部品1
100
AcDbLine
 10
11045.29845316946
 20
8095.014558484196
 30
0.0
 11
11075.29845316946
 21
8095.014558484196
 31
0.0
  0
LINE
  5
18210
330
747D
100
AcDbEntity
  8
部品1
100
AcDbLine
 10
8951.29845316946
 20
8095.014558484196
 30
0.0
 11
11048.29845316946
 21
8095.014558484196
 31
0.0
  0
LINE
  5
18211
330
747D
100
AcDbEntity
  8
細線
  6
Continuous
 62
     5
100
AcDbLine
 10
10327.29845316946
 20
8134.014558484192
 30
0.0
 11
10327.29845316946
 21
8134.014558484192
 31
0.0
  0
LINE
  5
18212
330
747D
100
AcDbEntity
  8
細線
  6
Continuous
 62
     5
100
AcDbLine
 10
10319.79848848835
 20
8134.01456840525
 30
0.0
 11
10319.79848848835
 21
8134.01456840525
 31
0.0
  0
LINE
  5
18213
330
747D
100
AcDbEntity
  8
細線
  6
Continuous
 62
     5
100
AcDbLine
 10
10313.79848848835
 20
8134.01456840525
 30
0.0
 11
10313.79848848835
 21
8134.01456840525
 31
0.0
  0
LINE
  5
18214
330
747D
100
AcDbEntity
  8
細線
  6
Continuous
 62
     5
100
AcDbLine
 10
10381.29845316946
 20
8153.014558484192
 30
0.0
 11
10381.29845316946
 21
8153.014558484192
 31
0.0
  0
LINE
  5
18215
330
747D
100
AcDbEntity
  8
細線
 48
50.0
100
AcDbLine
 10
8974.298457823053
 20
8120.614732661151
 30
0.0
 11
8974.298457823053
 21
8129.01088306879
 31
0.0
  0
LINE
  5
18216
330
747D
100
AcDbEntity
  8
細線
 48
50.0
100
AcDbLine
 10
8974.298457823053
 20
8129.01088306879
 30
0.0
 11
8960.29845316946
 21
8129.010883068785
 31
0.0
  0
LINE
  5
18217
330
747D
100
AcDbEntity
  8
細線
 48
50.0
100
AcDbLine
 10
9725.298457823051
 20
8117.16473266115
 30
0.0
 11
9725.298457823051
 21
8122.014732661151
 31
0.0
  0
LINE
  5
18218
330
747D
100
AcDbEntity
  8
細線
 48
50.0
100
AcDbLine
 10
9725.298457823051
 20
8122.014732661151
 30
0.0
 11
9740.298457823051
 21
8122.014732661151
 31
0.0
  0
LINE
  5
18219
330
747D
100
AcDbEntity
  8
細線
 48
50.0
100
AcDbLine
 10
9740.298457823051
 20
8122.014732661151
 30
0.0
 11
9740.298457823053
 21
8129.014732661152
 31
0.0
  0
LINE
  5
1821A
330
747D
100
AcDbEntity
  8
細線
 48
50.0
100
AcDbLine
 10
9740.298457823053
 20
8129.014732661152
 30
0.0
 11
9755.298457823052
 21
8129.014732661152
 31
0.0
  0
LINE
  5
1821B
330
747D
100
AcDbEntity
  8
細線
 48
50.0
100
AcDbLine
 10
9755.298457823052
 20
8129.014732661152
 30
0.0
 11
9755.298457823052
 21
8100.014732661151
 31
0.0
  0
LINE
  5
1821C
330
747D
100
AcDbEntity
  8
細線
 48
50.0
100
AcDbLine
 10
8951.29845316946
 20
8100.01206700462
 30
0.0
 11
9165.29845782305
 21
8100.014750214866
 31
0.0
  0
LINE
  5
1821D
330
747D
100
AcDbEntity
  8
細線
 48
50.0
100
AcDbLine
 10
9655.29845782305
 20
8100.014732661151
 30
0.0
 11
9755.298457823052
 21
8100.014732661151
 31
0.0
  0
LINE
  5
1821E
330
747D
100
AcDbEntity
  8
細線
 48
50.0
100
AcDbLine
 10
9375.298457823049
 20
8100.014732661151
 30
0.0
 11
9445.298457823049
 21
8100.014732661151
 31
0.0
  0
LINE
  5
1821F
330
747D
100
AcDbEntity
  8
細線
 48
50.0
100
AcDbLine
 10
9388.16042283558
 20
8100.014732661151
 30
0.0
 11
9393.915940418246
 21
8118.285583951644
 31
0.0
  0
LINE
  5
18220
330
747D
100
AcDbEntity
  8
細線
 48
50.0
100
AcDbLine
 10
9393.915940418246
 20
8118.285583951644
 30
0.0
 11
9404.844388898681
 21
8118.285583951642
 31
0.0
  0
ARC
  5
18221
330
747D
100
AcDbEntity
  8
細線
 48
50.0
100
AcDbCircle
 10
9404.844388898681
 20
8117.285583951641
 30
0.0
 40
1.0
100
AcDbArc
 50
24.62431835213048
 51
90.0
  0
ARC
  5
18222
330
747D
100
AcDbEntity
  8
細線
 48
50.0
100
AcDbCircle
 10
9415.753101013313
 20
8117.285583951641
 30
0.0
 40
1.0
100
AcDbArc
 50
90.0
 51
155.3756816478695
  0
ARC
  5
18223
330
747D
100
AcDbEntity
  8
細線
 48
50.0
100
AcDbCircle
 10
9410.298744955994
 20
8119.785583951642
 30
0.0
 40
5.0
100
AcDbArc
 50
204.6243183521304
 51
335.3756816478695
  0
LINE
  5
18224
330
747D
100
AcDbEntity
  8
細線
 48
50.0
100
AcDbLine
 10
9415.753101013313
 20
8118.285583951642
 30
0.0
 11
9426.681549493748
 21
8118.285583951644
 31
0.0
  0
LINE
  5
18225
330
747D
100
AcDbEntity
  8
細線
 48
50.0
100
AcDbLine
 10
9426.681549493748
 20
8118.285583951644
 30
0.0
 11
9432.437067076415
 21
8100.014732661151
 31
0.0
  0
LINE
  5
18226
330
747D
100
AcDbEntity
  8
細線
 48
50.0
100
AcDbLine
 10
9725.298457823051
 20
8120.614732661151
 30
0.0
 11
8974.298457823053
 21
8120.614732661151
 31
0.0
  0
LINE
  5
18227
330
747D
100
AcDbEntity
  8
細線
 48
50.0
100
AcDbLine
 10
9585.29845782305
 20
8100.014732661151
 30
0.0
 11
9515.29845782305
 21
8100.014732661151
 31
0.0
  0
LINE
  5
18228
330
747D
100
AcDbEntity
  8
細線
100
AcDbLine
 10
9305.298457823049
 20
8100.014732661151
 30
0.0
 11
9235.298466008465
 21
8100.014732661151
 31
0.0
  0
LINE
  5
18229
330
747D
100
AcDbEntity
  8
細線
 48
50.0
100
AcDbLine
 10
10379.29844851587
 20
8154.614776519018
 30
0.0
 11
9744.298457823049
 21
8154.614776519014
 31
0.0
  0
LINE
  5
1822A
330
747D
100
AcDbEntity
  8
細線
 48
50.0
100
AcDbLine
 10
9744.298457823049
 20
8151.510926926658
 30
0.0
 11
9744.298457823049
 21
8156.010926926658
 31
0.0
  0
LINE
  5
1822B
330
747D
100
AcDbEntity
  8
細線
 48
50.0
100
AcDbLine
 10
9744.298457823049
 20
8156.010926926658
 30
0.0
 11
9729.29845782305
 21
8156.010926926658
 31
0.0
  0
LINE
  5
1822C
330
747D
100
AcDbEntity
  8
細線
 48
50.0
100
AcDbLine
 10
9729.29845782305
 20
8156.010926926658
 30
0.0
 11
9729.29845782305
 21
8163.010926926657
 31
0.0
  0
LINE
  5
1822D
330
747D
100
AcDbEntity
  8
細線
 48
50.0
100
AcDbLine
 10
9729.29845782305
 20
8163.010926926657
 30
0.0
 11
9714.298457823055
 21
8163.010926926654
 31
0.0
  0
LINE
  5
1822E
330
747D
100
AcDbEntity
  8
細線
 48
50.0
100
AcDbLine
 10
9714.298457823055
 20
8163.010926926654
 30
0.0
 11
9714.298457823055
 21
8125.410698823543
 31
0.0
  0
LINE
  5
1822F
330
747D
100
AcDbEntity
  8
細線
 48
50.0
100
AcDbLine
 10
9714.298457823055
 20
8125.410698823543
 30
0.0
 11
9734.298465124226
 21
8125.410740373085
 31
0.0
  0
LINE
  5
18230
330
747D
100
AcDbEntity
  8
細線
 48
50.0
100
AcDbLine
 10
9734.298420255285
 20
8134.014202008893
 30
0.0
 11
9734.298465124226
 21
8125.410740373085
 31
0.0
  0
LINE
  5
18231
330
747D
100
AcDbEntity
  8
細線
 48
50.0
100
AcDbLine
 10
10379.29844851587
 20
8151.164776519017
 30
0.0
 11
10379.29844851587
 21
8156.014776519016
 31
0.0
  0
LINE
  5
18232
330
747D
100
AcDbEntity
  8
細線
 48
50.0
100
AcDbLine
 10
10379.29844851587
 20
8156.014776519016
 30
0.0
 11
10394.29844851587
 21
8156.014776519016
 31
0.0
  0
LINE
  5
18233
330
747D
100
AcDbEntity
  8
細線
 48
50.0
100
AcDbLine
 10
10394.29844851587
 20
8156.014776519016
 30
0.0
 11
10394.29846014984
 21
8163.014776519061
 31
0.0
  0
LINE
  5
18234
330
747D
100
AcDbEntity
  8
細線
 48
50.0
100
AcDbLine
 10
10394.29846014984
 20
8163.014776519061
 30
0.0
 11
10409.29845832037
 21
8163.014776519061
 31
0.0
  0
LINE
  5
18235
330
747D
100
AcDbEntity
  8
細線
 48
50.0
100
AcDbLine
 10
10409.29845832037
 20
8163.014776519061
 30
0.0
 11
10409.29844801855
 21
8134.014570346787
 31
0.0
  0
LINE
  5
18236
330
747D
100
AcDbEntity
  8
細線
 48
50.0
100
AcDbLine
 10
10096.79847564934
 20
8134.014578534152
 30
0.0
 11
10026.79872773175
 21
8134.014573096814
 31
0.0
  0
LINE
  5
18237
330
747D
100
AcDbEntity
  8
細線
 48
50.0
100
AcDbLine
 10
9734.298420255285
 20
8134.014202008893
 30
0.0
 11
9745.531109609995
 21
8134.014384962041
 31
0.0
  0
ARC
  5
18238
330
747D
100
AcDbEntity
  8
細線
 48
50.0
100
AcDbCircle
 10
9752.113401917331
 20
8132.814548875654
 30
0.0
 40
1.8
100
AcDbArc
 50
270.0006665777295
 51
345.0005554812987
  0
LINE
  5
18239
330
747D
100
AcDbEntity
  8
細線
 48
50.0
100
AcDbLine
 10
9754.09983536341
 20
8133.273389332932
 30
0.0
 11
9753.852072921212
 21
8132.348691450825
 31
0.0
  0
LINE
  5
1823A
330
747D
100
AcDbEntity
  8
細線
 48
50.0
100
AcDbLine
 10
9752.113422858485
 20
8131.014548875773
 30
0.0
 11
9748.483495439716
 21
8131.014506645293
 31
0.0
  0
ARC
  5
1823B
330
747D
100
AcDbEntity
  8
細線
 48
50.0
100
AcDbCircle
 10
9748.483474498563
 20
8132.814506645173
 30
0.0
 40
1.8
100
AcDbArc
 50
195.0010443049394
 51
270.0006665777295
  0
LINE
  5
1823C
330
747D
100
AcDbEntity
  8
細線
 48
50.0
100
AcDbLine
 10
9746.497047006306
 20
8133.273221612737
 30
0.0
 11
9746.744816502818
 21
8132.348600674154
 31
0.0
  0
ARC
  5
1823D
330
747D
100
AcDbEntity
  8
細線
 48
50.0
100
AcDbCircle
 10
9745.531125897556
 20
8133.014384962175
 30
0.0
 40
1.0
100
AcDbArc
 50
15.00104430493943
 51
90.00093320877969
  0
LINE
  5
1823E
330
747D
100
AcDbEntity
  8
細線
 48
50.0
100
AcDbLine
 10
9755.065756718511
 20
8134.014579652445
 30
0.0
 11
9756.007516869416
 21
8134.014586226294
 31
0.0
  0
ARC
  5
1823F
330
747D
100
AcDbEntity
  8
細線
 48
50.0
100
AcDbCircle
 10
9755.065763698899
 20
8133.014579652471
 30
0.0
 40
1.0
100
AcDbArc
 50
90.0003999466794
 51
165.0005554812987
  0
LINE
  5
18240
330
747D
100
AcDbEntity
  8
細線
 48
50.0
100
AcDbLine
 10
10306.79844851586
 20
8134.014570346787
 30
0.0
 11
10409.29844801855
 21
8134.014570346787
 31
0.0
  0
LINE
  5
18241
330
747D
100
AcDbEntity
  8
細線
 48
50.0
100
AcDbLine
 10
9816.798483834755
 20
8134.014578534152
 30
0.0
 11
9755.698422607835
 21
8134.014586226294
 31
0.0
  0
LINE
  5
18242
330
747D
100
AcDbEntity
  8
細線
 48
50.0
100
AcDbLine
 10
10236.79848383475
 20
8134.014615375235
 30
0.0
 11
10166.79847688037
 21
8134.014570352567
 31
0.0
  0
LINE
  5
18243
330
747D
100
AcDbEntity
  8
細線
 48
50.0
100
AcDbLine
 10
9956.798448515863
 20
8134.014570346783
 30
0.0
 11
9886.798431227987
 21
8134.01457034679
 31
0.0
  0
ARC
  5
18244
330
747D
100
AcDbEntity
  8
細線
 48
50.0
100
AcDbCircle
 10
10393.49845316947
 20
8167.214558484197
 30
0.0
 40
0.8
100
AcDbArc
 50
359.9997333689499
 51
89.99986668437072
  0
ARC
  5
18245
330
747D
100
AcDbEntity
  8
細線
 48
50.0
100
AcDbCircle
 10
10401.09845999456
 20
8167.214569652813
 30
0.0
 40
0.8
100
AcDbArc
 50
90.00014387753465
 51
179.9997333689498
  0
LINE
  5
18246
330
747D
100
AcDbEntity
  8
細線
 48
50.0
100
AcDbLine
 10
10393.4984550309
 20
8168.014558484195
 30
0.0
 11
10388.29845316946
 21
8168.014558484195
 31
0.0
  0
ARC
  5
18247
330
747D
100
AcDbEntity
  8
細線
 48
50.0
100
AcDbCircle
 10
10394.99845316946
 20
8165.714558484197
 30
0.0
 40
0.7
100
AcDbArc
 50
180.0
 51
270.0
  0
ARC
  5
18248
330
747D
100
AcDbEntity
  8
細線
 48
50.0
100
AcDbCircle
 10
10399.59845316946
 20
8165.714558484197
 30
0.0
 40
0.7
100
AcDbArc
 50
270.0
 51
0.0
  0
LINE
  5
18249
330
747D
100
AcDbEntity
  8
細線
 48
50.0
100
AcDbLine
 10
10400.29845316946
 20
8165.714558484197
 30
0.0
 11
10400.29845999458
 21
8167.214573375686
 31
0.0
  0
LINE
  5
1824A
330
747D
100
AcDbEntity
  8
細線
 48
50.0
100
AcDbLine
 10
10394.99845316946
 20
8165.014558484196
 30
0.0
 11
10399.59845316946
 21
8165.014558484196
 31
0.0
  0
LINE
  5
1824B
330
747D
100
AcDbEntity
  8
細線
 48
50.0
100
AcDbLine
 10
10394.29845316946
 20
8167.214558484197
 30
0.0
 11
10394.29845316946
 21
8165.714558484197
 31
0.0
  0
LINE
  5
1824C
330
747D
100
AcDbEntity
  8
細線
 48
50.0
100
AcDbLine
 10
11019.89845316946
 20
8198.014558484196
 30
0.0
 11
10383.29845316946
 21
8198.014558484192
 31
0.0
  0
LINE
  5
1824D
330
747D
100
AcDbEntity
  8
細線
 48
50.0
100
AcDbLine
 10
11045.79845316946
 20
8193.014558484199
 30
0.0
 11
11029.89845316946
 21
8193.014558484195
 31
0.0
  0
LINE
  5
1824E
330
747D
100
AcDbEntity
  8
細線
 48
50.0
100
AcDbLine
 10
11029.89845316946
 20
8193.014558484195
 30
0.0
 11
11019.89845316946
 21
8198.014558484196
 31
0.0
  0
LINE
  5
1824F
330
747D
100
AcDbEntity
  8
細線
100
AcDbLine
 10
10630.79845316946
 20
8168.014558484195
 30
0.0
 11
10630.79845316946
 21
8197.314558484196
 31
0.0
  0
LINE
  5
18250
330
747D
100
AcDbEntity
  8
細線
100
AcDbLine
 10
10630.79845316946
 20
8197.314558484196
 30
0.0
 11
10650.79845316946
 21
8197.314558484196
 31
0.0
  0
LINE
  5
18251
330
747D
100
AcDbEntity
  8
細線
100
AcDbLine
 10
10650.79845316946
 20
8168.014558484195
 30
0.0
 11
10650.79845316946
 21
8197.314558484196
 31
0.0
  0
LINE
  5
18252
330
747D
100
AcDbEntity
  8
細線
100
AcDbLine
 10
10812.04845316946
 20
8168.014558484195
 30
0.0
 11
10742.04845316946
 21
8168.014558484195
 31
0.0
  0
LINE
  5
18253
330
747D
100
AcDbEntity
  8
細線
 48
50.0
100
AcDbLine
 10
10532.04845316946
 20
8168.014558484195
 30
0.0
 11
10401.0942327423
 21
8168.014558484195
 31
0.0
  0
LINE
  5
18254
330
747D
100
AcDbEntity
  8
細線
100
AcDbLine
 10
10672.04845316946
 20
8168.014558484195
 30
0.0
 11
10602.04845316946
 21
8168.014558484195
 31
0.0
  0
LINE
  5
18255
330
747D
100
AcDbEntity
  8
細線
 48
50.0
100
AcDbLine
 10
10388.29845316946
 20
8160.014558484196
 30
0.0
 11
10388.29845316946
 21
8168.014558484195
 31
0.0
  0
LINE
  5
18256
330
747D
100
AcDbEntity
  8
細線
 48
50.0
100
AcDbLine
 10
10368.29845316946
 20
8160.014558484199
 30
0.0
 11
10388.29845316946
 21
8160.014558484196
 31
0.0
  0
LINE
  5
18257
330
747D
100
AcDbEntity
  8
細線
 48
50.0
100
AcDbLine
 10
10383.29845316946
 20
8198.014558484196
 30
0.0
 11
10383.29845316946
 21
8193.014558484195
 31
0.0
  0
LINE
  5
18258
330
747D
100
AcDbEntity
  8
細線
 48
50.0
100
AcDbLine
 10
10368.29845316946
 20
8198.014558484192
 30
0.0
 11
10383.29845316946
 21
8198.014558484196
 31
0.0
  0
LINE
  5
18259
330
747D
100
AcDbEntity
  8
細線
 48
50.0
100
AcDbLine
 10
10368.29845316946
 20
8160.014558484199
 30
0.0
 11
10368.29845316946
 21
8198.014558484192
 31
0.0
  0
LINE
  5
1825A
330
747D
100
AcDbEntity
  8
細線
100
AcDbLine
 10
11036.29845316946
 20
8168.014558484195
 30
0.0
 11
10882.04845316946
 21
8168.014558484195
 31
0.0
  0
LINE
  5
1825B
330
747D
100
AcDbEntity
  8
細線
 48
50.0
100
AcDbLine
 10
11045.79845316946
 20
8193.014558484199
 30
0.0
 11
11045.79845316946
 21
8168.014558484195
 31
0.0
  0
DIMENSION
  5
18492
330
747D
100
AcDbEntity
  8
寸法
 48
50.0
100
AcDbDimension
  2
*D31
 10
11075.29845316946
 20
7157.159189094868
 30
0.0
 11
10000.0984244399
 21
7157.159189094868
 31
0.0
 70
   160
 71
     5
 42
2154.0
  3
INABA_S40G
100
AcDbAlignedDimension
 13
8921.298453169461
 23
8095.014558484193
 33
0.0
 14
11075.29845316946
 24
8095.014558484193
 34
0.0
100
AcDbRotatedDimension
1001
ACAD
1000
DSTYLE
1002
{
1070
   341
1005
0
1002
}
  0
DIMENSION
  5
18493
330
747D
100
AcDbEntity
  8
寸法
100
AcDbDimension
  2
*D32
 10
8178.687207542768
 20
8097.014558484191
 30
0.0
 11
8178.687207542768
 21
7956.529277109954
 31
0.0
 70
   160
 71
     5
 42
75.0
  3
INABA_S40
100
AcDbAlignedDimension
 13
8473.298453169485
 23
8172.014558484191
 33
0.0
 14
8921.298453169461
 24
8097.014558484191
 34
0.0
 50
90.0
100
AcDbRotatedDimension
1001
ACAD
1000
DSTYLE
1002
{
1070
    41
1040
0.5
1070
    44
1040
1.0
1070
   147
1040
0.8
1070
   271
1070
     2
1070
   272
1070
     2
1070
   289
1070
     3
1070
   340
1005
F706
1070
   343
1005
17933
1070
   344
1005
17933
1002
}
  0
DIMENSION
  5
18593
330
747D
100
AcDbEntity
  8
寸法
100
AcDbDimension
  2
*D33
 10
11103.29845316947
 20
6890.81760120319
 30
0.0
 11
9772.737797872007
 21
6890.81760120319
 31
0.0
 70
   160
 71
     5
 42
2629.999999999982
  3
INABA_S40G
100
AcDbAlignedDimension
 13
8473.298453169485
 23
8172.014558484159
 33
0.0
 14
11103.29845316947
 24
8172.014558484324
 34
0.0
100
AcDbRotatedDimension
1001
ACAD
1000
DSTYLE
1002
{
1002
}
  0
LINE
  5
1859A
330
747D
100
AcDbEntity
  8
部品1
100
AcDbLine
 10
10170.0337862837
 20
6721.464141316232
 30
0.0
 11
9406.563120055263
 21
6721.464141316232
 31
0.0
  0
LINE
  5
1859B
330
747D
100
AcDbEntity
  8
部品1
100
AcDbLine
 10
10170.0337862837
 20
6481.571819770699
 30
0.0
 11
10170.0337862837
 21
6721.464141316232
 31
0.0
  0
LINE
  5
1859C
330
747D
100
AcDbEntity
  8
部品1
100
AcDbLine
 10
9406.563120055263
 20
6481.571819770699
 30
0.0
 11
10170.0337862837
 21
6481.571819770699
 31
0.0
  0
LINE
  5
1859D
330
747D
100
AcDbEntity
  8
部品1
100
AcDbLine
 10
9406.563120055263
 20
6721.464141316232
 30
0.0
 11
9406.563120055263
 21
6481.571819770699
 31
0.0
  0
TEXT
  5
1859E
330
747D
100
AcDbEntity
  8
部品1
100
AcDbText
 10
9496.482729884302
 20
6528.570612097709
 30
0.0
 40
135.0
  1
平面図
  7
STYLE2
100
AcDbText
  0
LWPOLYLINE
  5
187B8
330
747D
100
AcDbEntity
  8
部品1
 48
50.0
100
AcDbPolyline
 90
        4
 70
     1
 43
0.0
 10
9020.348453169482
 20
3959.76051205283
 10
9023.248453169484
 20
3959.76051205283
 10
9023.248453169484
 20
3969.26051205283
 10
9020.348453169482
 20
3969.26051205283
  0
CIRCLE
  5
187B9
330
747D
100
AcDbEntity
  8
部品1
 48
50.0
100
AcDbCircle
 10
9021.798453169484
 20
3964.51051205283
 30
0.0
 40
9.0
  0
ARC
  5
187BA
330
747D
100
AcDbEntity
  8
細線
 48
50.0
100
AcDbCircle
 10
9021.798453169484
 20
3964.51051205283
 30
0.0
 40
4.0
100
AcDbArc
 50
111.2538091853132
 51
248.7461908146868
  0
ARC
  5
187BB
330
747D
100
AcDbEntity
  8
細線
 48
50.0
100
AcDbCircle
 10
9021.798453169484
 20
3964.51051205283
 30
0.0
 40
17.5
100
AcDbArc
 50
306.4837370612677
 51
233.5162629387323
  0
LINE
  5
187BC
330
747D
100
AcDbEntity
  8
細線
 48
50.0
100
AcDbLine
 10
9031.79845316948
 20
3940.651551471947
 30
0.0
 11
9031.798453169484
 21
3949.636037272188
 31
0.0
  0
LINE
  5
187BD
330
747D
100
AcDbEntity
  8
細線
 48
50.0
100
AcDbLine
 10
9011.798453169484
 20
3940.651551471949
 30
0.0
 11
9011.798453169484
 21
3949.636037272185
 31
0.0
  0
ARC
  5
187BE
330
747D
100
AcDbEntity
  8
細線
 48
50.0
100
AcDbCircle
 10
9021.798453169484
 20
3964.51051205283
 30
0.0
 40
26.5
100
AcDbArc
 50
249.3326835063939
 51
290.6673164933835
  0
ARC
  5
187BF
330
747D
100
AcDbEntity
  8
細線
 48
50.0
100
AcDbCircle
 10
9030.798453169477
 20
3940.651551471947
 30
0.0
 40
1.0
100
AcDbArc
 50
290.6673164936062
 51
359.9999999998958
  0
ARC
  5
187C0
330
747D
100
AcDbEntity
  8
細線
 48
50.0
100
AcDbCircle
 10
9012.798453169484
 20
3940.651551471949
 30
0.0
 40
1.0
100
AcDbArc
 50
180.0
 51
249.3326835066164
  0
ARC
  5
187C1
330
747D
100
AcDbEntity
  8
細線
 48
50.0
100
AcDbCircle
 10
9010.798453169483
 20
3949.636037272185
 30
0.0
 40
1.0
100
AcDbArc
 50
0.0
 51
53.51626293873231
  0
ARC
  5
187C2
330
747D
100
AcDbEntity
  8
細線
 48
50.0
100
AcDbCircle
 10
9032.798453169489
 20
3949.636037272188
 30
0.0
 40
1.0
100
AcDbArc
 50
126.4837370615127
 51
180.0
  0
ARC
  5
187C3
330
747D
100
AcDbEntity
  8
細線
 48
50.0
100
AcDbCircle
 10
9021.798453169484
 20
3964.51051205283
 30
0.0
 40
21.5
100
AcDbArc
 50
255.8014401250294
 51
284.1985598749706
  0
ARC
  5
187C4
330
747D
100
AcDbEntity
  8
細線
 48
50.0
100
AcDbCircle
 10
9021.798453169484
 20
3964.51051205283
 30
0.0
 40
16.5
100
AcDbArc
 50
251.9694646069326
 51
288.0305353930674
  0
LINE
  5
187C5
330
747D
100
AcDbEntity
  8
細線
 48
50.0
100
AcDbLine
 10
9027.298453169484
 20
3943.958139927023
 30
0.0
 11
9027.298453169484
 21
3948.53553161436
 31
0.0
  0
LINE
  5
187C6
330
747D
100
AcDbEntity
  8
細線
 48
50.0
100
AcDbLine
 10
9016.298453169484
 20
3943.958139927023
 30
0.0
 11
9016.298453169484
 21
3948.535531614357
 31
0.0
  0
ARC
  5
187C7
330
747D
100
AcDbEntity
  8
細線
 48
50.0
100
AcDbCircle
 10
9016.598453169487
 20
3948.535531614357
 30
0.0
 40
0.3
100
AcDbArc
 50
71.96946460693259
 51
180.0
  0
ARC
  5
187C8
330
747D
100
AcDbEntity
  8
細線
 48
50.0
100
AcDbCircle
 10
9026.998453169484
 20
3948.53553161436
 30
0.0
 40
0.3
100
AcDbArc
 50
0.0
 51
108.0305353930674
  0
ARC
  5
187C9
330
747D
100
AcDbEntity
  8
細線
 48
50.0
100
AcDbCircle
 10
9026.998453169481
 20
3943.958139927023
 30
0.0
 40
0.3
100
AcDbArc
 50
284.1985598747622
 51
0.0000000001042204
  0
ARC
  5
187CA
330
747D
100
AcDbEntity
  8
細線
 48
50.0
100
AcDbCircle
 10
9016.598453169487
 20
3943.958139927023
 30
0.0
 40
0.3
100
AcDbArc
 50
180.0
 51
255.8014401248081
  0
CIRCLE
  5
187CB
330
747D
100
AcDbEntity
  8
細線
 48
50.0
100
AcDbCircle
 10
9021.798453169484
 20
3964.51051205283
 30
0.0
 40
12.0
  0
ARC
  5
187CC
330
747D
100
AcDbEntity
  8
部品1
 48
50.0
100
AcDbCircle
 10
9021.798453169484
 20
4014.510512052829
 30
0.0
 40
8.5
100
AcDbArc
 50
114.315739171091
 51
245.684260828909
  0
CIRCLE
  5
187CD
330
747D
100
AcDbEntity
  8
細線
 48
50.0
100
AcDbCircle
 10
9021.798453169484
 20
4014.510512052829
 30
0.0
 40
4.5
  0
LWPOLYLINE
  5
187CE
330
747D
100
AcDbEntity
  8
部品1
 48
50.0
100
AcDbPolyline
 90
        2
 70
     0
 43
0.0
 10
9018.298453169483
 20
4033.185361449812
 10
9018.298453169483
 20
4022.256478745244
  0
CIRCLE
  5
187CF
330
747D
100
AcDbEntity
  8
部品1
 48
50.0
100
AcDbCircle
 10
9021.798453169484
 20
4014.510512052829
 30
0.0
 40
19.0
  0
LWPOLYLINE
  5
187D0
330
747D
100
AcDbEntity
  8
部品1
 48
50.0
100
AcDbPolyline
 90
        2
 70
     0
 43
0.0
 10
9018.298453169483
 20
4006.764545360414
 10
9018.298453169483
 20
3995.835662655847
  0
LWPOLYLINE
  5
187D1
330
747D
100
AcDbEntity
  8
部品1
 48
50.0
100
AcDbPolyline
 90
        2
 70
     0
 43
0.0
 10
9025.298453169483
 20
4022.256478745244
 10
9025.298453169483
 20
4033.185361449812
  0
ARC
  5
187D2
330
747D
100
AcDbEntity
  8
部品1
 48
50.0
100
AcDbCircle
 10
9021.798453169484
 20
4014.510512052829
 30
0.0
 40
8.5
100
AcDbArc
 50
294.315739171091
 51
65.68426082890896
  0
LWPOLYLINE
  5
187D3
330
747D
100
AcDbEntity
  8
部品1
 48
50.0
100
AcDbPolyline
 90
        2
 70
     0
 43
0.0
 10
9025.298453169483
 20
3995.835662655847
 10
9025.298453169483
 20
4006.764545360414
  0
ARC
  5
187D4
330
747D
100
AcDbEntity
  8
細線
 48
50.0
100
AcDbCircle
 10
9021.798453169484
 20
4014.510512052829
 30
0.0
 40
16.5
100
AcDbArc
 50
332.0012352654438
 51
27.99876473455621
  0
ARC
  5
187D5
330
747D
100
AcDbEntity
  8
細線
 48
50.0
100
AcDbCircle
 10
9021.798453169484
 20
4014.510512052829
 30
0.0
 40
14.0
100
AcDbArc
 50
326.4074436112986
 51
33.59255638870134
  0
LINE
  5
187D6
330
747D
100
AcDbEntity
  8
細線
 48
50.0
100
AcDbLine
 10
9007.229650885152
 20
4022.256478745244
 30
0.0
 11
9010.136549379796
 21
4022.256478745244
 31
0.0
  0
LINE
  5
187D7
330
747D
100
AcDbEntity
  8
細線
 48
50.0
100
AcDbLine
 10
9007.229650885152
 20
4006.764545360414
 30
0.0
 11
9010.136549379796
 21
4006.764545360414
 31
0.0
  0
LINE
  5
187D8
330
747D
100
AcDbEntity
  8
細線
 48
50.0
100
AcDbLine
 10
9033.460356959173
 20
4022.256478745244
 30
0.0
 11
9036.367255453818
 21
4022.256478745244
 31
0.0
  0
LINE
  5
187D9
330
747D
100
AcDbEntity
  8
細線
 48
50.0
100
AcDbLine
 10
9033.460356959173
 20
4006.764545360414
 30
0.0
 11
9036.367255453818
 21
4006.764545360414
 31
0.0
  0
ARC
  5
187DA
330
747D
100
AcDbEntity
  8
細線
 48
50.0
100
AcDbCircle
 10
9021.798453169484
 20
4014.510512052829
 30
0.0
 40
14.0
100
AcDbArc
 50
146.4074436112986
 51
213.5925563887013
  0
ARC
  5
187DB
330
747D
100
AcDbEntity
  8
細線
 48
50.0
100
AcDbCircle
 10
9021.798453169484
 20
4014.510512052829
 30
0.0
 40
16.5
100
AcDbArc
 50
152.0012352654438
 51
207.9987647345562
  0
ARC
  5
187DC
330
747D
100
AcDbEntity
  8
部品1
 48
50.0
100
AcDbCircle
 10
8995.298453169484
 20
4040.01051205283
 30
0.0
 40
5.0
100
AcDbArc
 50
90.0
 51
180.0
  0
ARC
  5
187DD
330
747D
100
AcDbEntity
  8
部品1
 48
50.0
100
AcDbCircle
 10
8995.298453169484
 20
3929.01051205283
 30
0.0
 40
5.0
100
AcDbArc
 50
180.0
 51
270.0
  0
ARC
  5
187DE
330
747D
100
AcDbEntity
  8
部品1
 48
50.0
100
AcDbCircle
 10
9048.298453169485
 20
3929.01051205283
 30
0.0
 40
5.0
100
AcDbArc
 50
270.0
 51
0.0
  0
ARC
  5
187DF
330
747D
100
AcDbEntity
  8
部品1
 48
50.0
100
AcDbCircle
 10
9048.298453169485
 20
4040.01051205283
 30
0.0
 40
5.0
100
AcDbArc
 50
0.0
 51
90.0
  0
LINE
  5
187E1
330
747D
100
AcDbEntity
  8
部品1
 48
50.0
100
AcDbLine
 10
8990.298453169485
 20
3929.01051205283
 30
0.0
 11
8990.298453169485
 21
4040.01051205283
 31
0.0
  0
LINE
  5
187E2
330
747D
100
AcDbEntity
  8
部品1
 48
50.0
100
AcDbLine
 10
9048.298453169485
 20
3924.01051205283
 30
0.0
 11
8995.298453169484
 21
3924.01051205283
 31
0.0
  0
LINE
  5
187E3
330
747D
100
AcDbEntity
  8
部品1
 48
50.0
100
AcDbLine
 10
9053.298453169484
 20
4040.01051205283
 30
0.0
 11
9053.298453169484
 21
3929.01051205283
 31
0.0
  0
ENDSEC
  0
SECTION
  2
OBJECTS
  0
DICTIONARY
  5
7471
330
0
100
AcDbDictionary
281
     1
  3
ACAD_COLOR
350
16DDF
  3
ACAD_GROUP
350
7472
  3
ACAD_LAYOUT
350
16DE0
  3
ACAD_MATERIAL
350
16DDE
  3
ACAD_MLINESTYLE
350
7473
  3
ACAD_PLOTSETTINGS
350
16DE1
  3
ACAD_PLOTSTYLENAME
350
16DDC
  3
ACDBHEADERROUNDTRIPXREC
350
18802
  3
AcDbVariableDictionary
350
187FE
  3
CONTENTDICTIONARY
350
E71C
  3
DRAWINGVARIABLESDICT
350
F3B9
  0
DICTIONARY
  5
16F65
330
7467
100
AcDbDictionary
280
     1
281
     1
  3
ACAD_LAYERSTATES
360
16F66
  0
DICTIONARY
  5
16DDF
102
{ACAD_REACTORS
330
7471
102
}
330
7471
100
AcDbDictionary
281
     1
  0
DICTIONARY
  5
7472
102
{ACAD_REACTORS
330
7471
102
}
330
7471
100
AcDbDictionary
281
     1
  0
DICTIONARY
  5
16DE0
102
{ACAD_REACTORS
330
7471
102
}
330
7471
100
AcDbDictionary
281
     1
  3
Model
350
16DE2
  3
レイアウト1
350
16DE3
  0
DICTIONARY
  5
16DDE
102
{ACAD_REACTORS
330
7471
102
}
330
7471
100
AcDbDictionary
281
     1
  0
DICTIONARY
  5
7473
102
{ACAD_REACTORS
330
7471
102
}
330
7471
100
AcDbDictionary
281
     1
  3
STANDARD
350
7480
  0
DICTIONARY
  5
16DE1
102
{ACAD_REACTORS
330
7471
102
}
330
7471
100
AcDbDictionary
281
     1
  0
ACDBDICTIONARYWDFLT
  5
16DDC
102
{ACAD_REACTORS
330
7471
102
}
330
7471
100
AcDbDictionary
281
     1
  3
Normal
350
16DDD
100
AcDbDictionaryWithDefault
340
16DDD
  0
DICTIONARY
  5
18802
102
{ACAD_REACTORS
330
7471
102
}
330
7471
100
AcDbDictionary
281
     1
  3
COLORDICT
350
18804
  3
MATERIALDICT
350
18803
  0
DICTIONARY
  5
187FE
102
{ACAD_REACTORS
330
7471
102
}
330
7471
100
AcDbDictionary
281
     1
  3
DIMASSOC
350
187FF
  3
PROJECTNAME
350
18800
  0
DICTIONARY
  5
E71C
102
{ACAD_REACTORS
330
7471
102
}
330
7471
100
AcDbDictionary
281
     1
  0
DICTIONARY
  5
F3B9
102
{ACAD_REACTORS
330
7471
102
}
330
7471
100
AcDbDictionary
281
     1
1001
DRAWINGVARIABLESXDATA
1000
POLARMODE
1000
1
  0
DICTIONARY
  5
16F66
102
{ACAD_REACTORS
330
16F65
102
}
330
16F65
100
AcDbDictionary
281
     1
  0
LAYOUT
  5
16DE2
102
{ACAD_XDICTIONARY
360
18805
102
}
102
{ACAD_REACTORS
330
16DE0
102
}
330
16DE0
100
AcDbPlotSettings
  1

  2
クセロPDF
  4
A3
  6

 40
3.174999952316284
 41
3.174999952316284
 42
3.17498779296875
 43
3.17498779296875
 44
419.9466552734374
 45
296.9259948730469
 46
0.0
 47
0.0
 48
3.619013395666115
 49
-4.192117100517862
140
820.022926294543
141
573.2392198881443
142
1.0
143
39.99735023620806
 70
 11952
 72
     1
 73
     0
 74
     2
  7
inaba.ctb
 75
     0
147
0.0250016562120842
148
25.79074261211281
149
125.8223078213959
100
AcDbLayout
  1
Model
 70
     1
 71
     0
 10
0.0
 20
0.0
 11
12.0
 21
9.0
 12
0.0
 22
0.0
 32
0.0
 14
0.0
 24
0.0
 34
0.0
 15
0.0
 25
0.0
 35
0.0
146
0.0
 13
0.0
 23
0.0
 33
0.0
 16
1.0
 26
0.0
 36
0.0
 17
0.0
 27
1.0
 37
0.0
 76
     0
330
747D
  0
LAYOUT
  5
16DE3
102
{ACAD_XDICTIONARY
360
18807
102
}
102
{ACAD_REACTORS
330
16DE0
102
}
330
16DE0
100
AcDbPlotSettings
  1

  2
Microsoft Office Document Image Writer
  4

  6

 40
0.0
 41
0.0
 42
0.0
 43
0.0
 44
0.0
 45
0.0
 46
0.0
 47
0.0
 48
0.0
 49
0.0
140
0.0
141
0.0
142
1.0
143
1.0
 70
   688
 72
     0
 73
     0
 74
     5
  7

 75
    16
147
1.0
148
0.0
149
0.0
100
AcDbLayout
  1
レイアウト1
 70
     0
 71
     1
 10
0.0
 20
0.0
 11
420.0
 21
297.0
 12
0.0
 22
0.0
 32
0.0
 14
1.000000000000000E+20
 24
1.000000000000000E+20
 34
1.000000000000000E+20
 15
-1.000000000000000E+20
 25
-1.000000000000000E+20
 35
-1.000000000000000E+20
146
0.0
 13
0.0
 23
0.0
 33
0.0
 16
1.0
 26
0.0
 36
0.0
 17
0.0
 27
1.0
 37
0.0
 76
     0
330
747A
  0
MLINESTYLE
  5
7480
102
{ACAD_REACTORS
330
7473
102
}
330
7473
100
AcDbMlineStyle
  2
STANDARD
 70
     0
  3

 62
     0
 51
90.0
 52
90.0
 71
     2
 49
0.5
 62
   256
  6
BYLAYER
 49
-0.5
 62
   256
  6
BYLAYER
  0
ACDBPLACEHOLDER
  5
16DDD
102
{ACAD_REACTORS
330
16DDC
102
}
330
16DDC
  0
XRECORD
  5
18804
102
{ACAD_REACTORS
330
18802
102
}
330
18802
100
AcDbXrecord
280
     1
340
16DDF
  0
XRECORD
  5
18803
102
{ACAD_REACTORS
330
18802
102
}
330
18802
100
AcDbXrecord
280
     1
340
16DDE
  0
DICTIONARYVAR
  5
187FF
102
{ACAD_REACTORS
330
187FE
102
}
330
187FE
100
DictionaryVariables
280
     0
  1
1
  0
DICTIONARYVAR
  5
18800
102
{ACAD_REACTORS
330
187FE
102
}
330
187FE
100
DictionaryVariables
280
     0
  1

  0
DICTIONARY
  5
18805
330
16DE2
100
AcDbDictionary
280
     1
281
     1
  3
ACAD_XREC_ROUNDTRIP
360
18806
  0
DICTIONARY
  5
18807
330
16DE3
100
AcDbDictionary
280
     1
281
     1
  3
ACAD_XREC_ROUNDTRIP
360
18808
  0
XRECORD
  5
18806
102
{ACAD_REACTORS
330
18805
102
}
330
18805
100
AcDbXrecord
280
     1
102
SHADEPLOT
 70
     0
102
SHADEPLOTRESLEVEL
 70
     2
102
SHADEPLOTCUSTOMDPI
 70
   150
  0
XRECORD
  5
18808
102
{ACAD_REACTORS
330
18807
102
}
330
18807
100
AcDbXrecord
280
     1
102
SHADEPLOT
 70
     0
102
SHADEPLOTRESLEVEL
 70
     2
102
SHADEPLOTCUSTOMDPI
 70
   300
  0
ENDSEC
  0
EOF
