  0
SECTION
  2
HEADER
  9
$ACADVER
  1
AC1015
  9
$ACADMAINTVER
 70
    20
  9
$DWGCODEPAGE
  3
ANSI_932
  9
$INSBASE
 10
0.0
 20
0.0
 30
0.0
  9
$EXTMIN
 10
139.9999999999995
 20
-0.0000000000000909
 30
0.0
  9
$EXTMAX
 10
16307.2
 20
11409.6
 30
0.0
  9
$LIMMIN
 10
0.0
 20
0.0
  9
$LIMMAX
 10
16800.0
 20
11880.0
  9
$ORTHOMODE
 70
     0
  9
$REGENMODE
 70
     1
  9
$FILLMODE
 70
     1
  9
$QTEXTMODE
 70
     0
  9
$MIRRTEXT
 70
     1
  9
$LTSCALE
 40
20.0
  9
$ATTMODE
 70
     1
  9
$TEXTSIZE
 40
4.0
  9
$TRACEWID
 40
1.0
  9
$TEXTSTYLE
  7
STYLE1
  9
$CLAYER
  8
寸法
  9
$CELTYPE
  6
BYLAYER
  9
$CECOLOR
 62
   256
  9
$CELTSCALE
 40
50.0
  9
$DISPSILH
 70
     0
  9
$DIMSCALE
 40
40.0
  9
$DIMASZ
 40
2.5
  9
$DIMEXO
 40
0.5
  9
$DIMDLI
 40
7.0
  9
$DIMRND
 40
0.0
  9
$DIMDLE
 40
0.0
  9
$DIMEXE
 40
1.5
  9
$DIMTP
 40
0.0
  9
$DIMTM
 40
0.0
  9
$DIMTXT
 40
3.0
  9
$DIMCEN
 40
0.0
  9
$DIMTSZ
 40
0.0
  9
$DIMTOL
 70
     0
  9
$DIMLIM
 70
     0
  9
$DIMTIH
 70
     0
  9
$DIMTOH
 70
     0
  9
$DIMSE1
 70
     0
  9
$DIMSE2
 70
     0
  9
$DIMTAD
 70
     3
  9
$DIMZIN
 70
     8
  9
$DIMBLK
  1

  9
$DIMASO
 70
     1
  9
$DIMSHO
 70
     1
  9
$DIMPOST
  1

  9
$DIMAPOST
  1

  9
$DIMALT
 70
     0
  9
$DIMALTD
 70
     2
  9
$DIMALTF
 40
0.0394
  9
$DIMLFAC
 40
1.0
  9
$DIMTOFL
 70
     1
  9
$DIMTVP
 40
0.0
  9
$DIMTIX
 70
     1
  9
$DIMSOXD
 70
     0
  9
$DIMSAH
 70
     1
  9
$DIMBLK1
  1
DOTSMALL
  9
$DIMBLK2
  1
DOTSMALL
  9
$DIMSTYLE
  2
INABA_S40G
  9
$DIMCLRD
 70
     0
  9
$DIMCLRE
 70
     0
  9
$DIMCLRT
 70
     7
  9
$DIMTFAC
 40
1.0
  9
$DIMGAP
 40
1.0
  9
$DIMJUST
 70
     0
  9
$DIMSD1
 70
     0
  9
$DIMSD2
 70
     0
  9
$DIMTOLJ
 70
     1
  9
$DIMTZIN
 70
     0
  9
$DIMALTZ
 70
     0
  9
$DIMALTTZ
 70
     0
  9
$DIMUPT
 70
     1
  9
$DIMDEC
 70
     1
  9
$DIMTDEC
 70
     4
  9
$DIMALTU
 70
     2
  9
$DIMALTTD
 70
     2
  9
$DIMTXSTY
  7
STYLE1
  9
$DIMAUNIT
 70
     0
  9
$DIMADEC
 70
     0
  9
$DIMALTRND
 40
0.0
  9
$DIMAZIN
 70
     0
  9
$DIMDSEP
 70
    46
  9
$DIMATFIT
 70
     3
  9
$DIMFRAC
 70
     0
  9
$DIMLDRBLK
  1

  9
$DIMLUNIT
 70
     2
  9
$DIMLWD
 70
    -2
  9
$DIMLWE
 70
    -2
  9
$DIMTMOVE
 70
     0
  9
$LUNITS
 70
     2
  9
$LUPREC
 70
     1
  9
$SKETCHINC
 40
1.0
  9
$FILLETRAD
 40
3.0
  9
$AUNITS
 70
     0
  9
$AUPREC
 70
     0
  9
$MENU
  1
acad
  9
$ELEVATION
 40
0.0
  9
$PELEVATION
 40
0.0
  9
$THICKNESS
 40
0.0
  9
$LIMCHECK
 70
     0
  9
$CHAMFERA
 40
0.0
  9
$CHAMFERB
 40
0.0
  9
$CHAMFERC
 40
0.0
  9
$CHAMFERD
 40
0.0
  9
$SKPOLY
 70
     0
  9
$TDCREATE
 40
2451368.612993866
  9
$TDUCREATE
 40
2451368.237993866
  9
$TDUPDATE
 40
2455575.685718854
  9
$TDUUPDATE
 40
2455575.310718854
  9
$TDINDWG
 40
0.6265479514
  9
$TDUSRTIMER
 40
0.6265479514
  9
$USRTIMER
 70
     1
  9
$ANGBASE
 50
0.0
  9
$ANGDIR
 70
     0
  9
$PDMODE
 70
     3
  9
$PDSIZE
 40
2.0
  9
$PLINEWID
 40
0.0
  9
$SPLFRAME
 70
     0
  9
$SPLINETYPE
 70
     6
  9
$SPLINESEGS
 70
     8
  9
$HANDSEED
  5
188AA
  9
$SURFTAB1
 70
     6
  9
$SURFTAB2
 70
     6
  9
$SURFTYPE
 70
     6
  9
$SURFU
 70
     6
  9
$SURFV
 70
     6
  9
$UCSBASE
  2

  9
$UCSNAME
  2

  9
$UCSORG
 10
0.0
 20
0.0
 30
0.0
  9
$UCSXDIR
 10
1.0
 20
0.0
 30
0.0
  9
$UCSYDIR
 10
0.0
 20
1.0
 30
0.0
  9
$UCSORTHOREF
  2

  9
$UCSORTHOVIEW
 70
     0
  9
$UCSORGTOP
 10
0.0
 20
0.0
 30
0.0
  9
$UCSORGBOTTOM
 10
0.0
 20
0.0
 30
0.0
  9
$UCSORGLEFT
 10
0.0
 20
0.0
 30
0.0
  9
$UCSORGRIGHT
 10
0.0
 20
0.0
 30
0.0
  9
$UCSORGFRONT
 10
0.0
 20
0.0
 30
0.0
  9
$UCSORGBACK
 10
0.0
 20
0.0
 30
0.0
  9
$PUCSBASE
  2

  9
$PUCSNAME
  2

  9
$PUCSORG
 10
0.0
 20
0.0
 30
0.0
  9
$PUCSXDIR
 10
1.0
 20
0.0
 30
0.0
  9
$PUCSYDIR
 10
0.0
 20
1.0
 30
0.0
  9
$PUCSORTHOREF
  2

  9
$PUCSORTHOVIEW
 70
     0
  9
$PUCSORGTOP
 10
0.0
 20
0.0
 30
0.0
  9
$PUCSORGBOTTOM
 10
0.0
 20
0.0
 30
0.0
  9
$PUCSORGLEFT
 10
0.0
 20
0.0
 30
0.0
  9
$PUCSORGRIGHT
 10
0.0
 20
0.0
 30
0.0
  9
$PUCSORGFRONT
 10
0.0
 20
0.0
 30
0.0
  9
$PUCSORGBACK
 10
0.0
 20
0.0
 30
0.0
  9
$USERI1
 70
     0
  9
$USERI2
 70
     0
  9
$USERI3
 70
     0
  9
$USERI4
 70
     0
  9
$USERI5
 70
     0
  9
$USERR1
 40
0.0
  9
$USERR2
 40
0.0
  9
$USERR3
 40
0.0
  9
$USERR4
 40
0.0
  9
$USERR5
 40
0.0
  9
$WORLDVIEW
 70
     1
  9
$SHADEDGE
 70
     3
  9
$SHADEDIF
 70
    70
  9
$TILEMODE
 70
     1
  9
$MAXACTVP
 70
    16
  9
$PINSBASE
 10
0.0
 20
0.0
 30
0.0
  9
$PLIMCHECK
 70
     0
  9
$PEXTMIN
 10
1.000000000000000E+20
 20
1.000000000000000E+20
 30
1.000000000000000E+20
  9
$PEXTMAX
 10
-1.000000000000000E+20
 20
-1.000000000000000E+20
 30
-1.000000000000000E+20
  9
$PLIMMIN
 10
0.0
 20
0.0
  9
$PLIMMAX
 10
420.0
 20
297.0
  9
$UNITMODE
 70
     0
  9
$VISRETAIN
 70
     0
  9
$PLINEGEN
 70
     0
  9
$PSLTSCALE
 70
     0
  9
$TREEDEPTH
 70
  3020
  9
$CMLSTYLE
  2
STANDARD
  9
$CMLJUST
 70
     0
  9
$CMLSCALE
 40
1.0
  9
$PROXYGRAPHICS
 70
     1
  9
$MEASUREMENT
 70
     1
  9
$CELWEIGHT
370
    -1
  9
$ENDCAPS
280
     0
  9
$JOINSTYLE
280
     0
  9
$LWDISPLAY
290
     0
  9
$INSUNITS
 70
     0
  9
$HYPERLINKBASE
  1

  9
$STYLESHEET
  1

  9
$XEDIT
290
     1
  9
$CEPSNTYPE
380
     0
  9
$PSTYLEMODE
290
     1
  9
$FINGERPRINTGUID
  2
{EC5F5CD0-DC74-4284-B7F2-054AA8B3B1A5}
  9
$VERSIONGUID
  2
{87773E54-FD67-44DD-BE70-488CB5426F2F}
  9
$EXTNAMES
290
     1
  9
$PSVPSCALE
 40
0.0
  9
$OLESTARTUP
290
     0
  0
ENDSEC
  0
SECTION
  2
CLASSES
  0
CLASS
  1
ACDBDICTIONARYWDFLT
  2
AcDbDictionaryWithDefault
  3
ObjectDBX Classes
 90
        0
280
     0
281
     0
  0
CLASS
  1
DICTIONARYVAR
  2
AcDbDictionaryVar
  3
ObjectDBX Classes
 90
        0
280
     0
281
     0
  0
CLASS
  1
ACDBPLACEHOLDER
  2
AcDbPlaceHolder
  3
ObjectDBX Classes
 90
        0
280
     0
281
     0
  0
CLASS
  1
LAYOUT
  2
AcDbLayout
  3
ObjectDBX Classes
 90
        0
280
     0
281
     0
  0
ENDSEC
  0
SECTION
  2
TABLES
  0
TABLE
  2
VPORT
  5
746D
330
0
100
AcDbSymbolTable
 70
     2
  0
VPORT
  5
188A2
330
746D
100
AcDbSymbolTableRecord
100
AcDbViewportTableRecord
  2
*Active
 70
     0
 10
0.0
 20
0.0
 11
1.0
 21
1.0
 12
8223.761025238502
 22
6348.703162895247
 13
0.0
 23
0.0
 14
10.0
 24
10.0
 15
10.0
 25
10.0
 16
0.0
 26
0.0
 36
1.0
 17
0.0
 27
0.0
 37
0.0
 40
12805.60689082044
 41
1.525925925925925
 42
50.0
 43
0.0
 44
0.0
 50
0.0
 51
0.0
 71
     0
 72
     0
 73
     1
 74
     0
 75
     0
 76
     0
 77
     0
 78
     0
281
     0
 65
     1
110
0.0
120
0.0
130
0.0
111
1.0
121
0.0
131
0.0
112
0.0
122
1.0
132
0.0
 79
     0
146
0.0
  0
ENDTAB
  0
TABLE
  2
LTYPE
  5
746A
330
0
100
AcDbSymbolTable
 70
     4
  0
LTYPE
  5
7477
330
746A
100
AcDbSymbolTableRecord
100
AcDbLinetypeTableRecord
  2
BYBLOCK
 70
     0
  3

 72
    65
 73
     0
 40
0.0
  0
LTYPE
  5
7478
330
746A
100
AcDbSymbolTableRecord
100
AcDbLinetypeTableRecord
  2
BYLAYER
 70
     0
  3

 72
    65
 73
     0
 40
0.0
  0
LTYPE
  5
7479
330
746A
100
AcDbSymbolTableRecord
100
AcDbLinetypeTableRecord
  2
CONTINUOUS
 70
     0
  3
Solid line
 72
    65
 73
     0
 40
0.0
  0
LTYPE
  5
7816
330
746A
100
AcDbSymbolTableRecord
100
AcDbLinetypeTableRecord
  2
CENTER
 70
     0
  3
____ _ ____ _ ____ _ ____ _ ____ _ ____ _ ____ 
 72
    65
 73
     4
 40
2.0
 49
1.25
 74
     0
 49
-0.25
 74
     0
 49
0.25
 74
     0
 49
-0.25
 74
     0
  0
LTYPE
  5
781A
330
746A
100
AcDbSymbolTableRecord
100
AcDbLinetypeTableRecord
  2
HIDDEN
 70
     0
  3
__ __ __ __ __ __ __ __ __ __ __ __ __ __ __ __
 72
    65
 73
     2
 40
0.375
 49
0.25
 74
     0
 49
-0.125
 74
     0
  0
LTYPE
  5
781B
330
746A
100
AcDbSymbolTableRecord
100
AcDbLinetypeTableRecord
  2
PHANTOM
 70
     0
  3
______  __  __  ______  __  __  ______  __  __ 
 72
    65
 73
     6
 40
2.5
 49
1.25
 74
     0
 49
-0.25
 74
     0
 49
0.25
 74
     0
 49
-0.25
 74
     0
 49
0.25
 74
     0
 49
-0.25
 74
     0
  0
ENDTAB
  0
TABLE
  2
LAYER
  5
7467
102
{ACAD_XDICTIONARY
360
16D58
102
}
330
0
100
AcDbSymbolTable
 70
    12
  0
LAYER
  5
7474
330
7467
100
AcDbSymbolTableRecord
100
AcDbLayerTableRecord
  2
0
 70
     0
 62
     7
  6
CONTINUOUS
370
    -3
390
16BC9
  0
LAYER
  5
DEB2
330
7467
100
AcDbSymbolTableRecord
100
AcDbLayerTableRecord
  2
センター
 70
     0
 62
     3
  6
CENTER
370
    -3
390
16BC9
  0
LAYER
  5
DEB3
330
7467
100
AcDbSymbolTableRecord
100
AcDbLayerTableRecord
  2
寸法
 70
     0
 62
     4
  6
CONTINUOUS
370
    -3
390
16BC9
  0
LAYER
  5
DEB4
330
7467
100
AcDbSymbolTableRecord
100
AcDbLayerTableRecord
  2
部品1
 70
     0
 62
     7
  6
CONTINUOUS
370
    -3
390
16BC9
  0
LAYER
  5
DEB5
330
7467
100
AcDbSymbolTableRecord
100
AcDbLayerTableRecord
  2
補助
 70
     0
 62
    -1
  6
CONTINUOUS
370
    -3
390
16BC9
  0
LAYER
  5
DEB6
330
7467
100
AcDbSymbolTableRecord
100
AcDbLayerTableRecord
  2
文字
 70
     0
 62
     7
  6
CONTINUOUS
370
    -3
390
16BC9
  0
LAYER
  5
F255
330
7467
100
AcDbSymbolTableRecord
100
AcDbLayerTableRecord
  2
DEFPOINTS
 70
     0
 62
     7
  6
CONTINUOUS
290
     0
370
    -3
390
16BC9
  0
LAYER
  5
10B54
330
7467
100
AcDbSymbolTableRecord
100
AcDbLayerTableRecord
  2
仕様書枠
 70
     0
 62
   230
  6
CONTINUOUS
370
    -3
390
16BC9
  0
LAYER
  5
11729
330
7467
100
AcDbSymbolTableRecord
100
AcDbLayerTableRecord
  2
Ｇ．Ｌ
 70
     0
 62
    30
  6
CONTINUOUS
370
    -3
390
16BC9
  0
LAYER
  5
1173F
330
7467
100
AcDbSymbolTableRecord
100
AcDbLayerTableRecord
  2
細線
 70
     0
 62
     5
  6
CONTINUOUS
370
    -3
390
16BC9
  0
LAYER
  5
12CC4
330
7467
100
AcDbSymbolTableRecord
100
AcDbLayerTableRecord
  2
想像線
 70
     0
 62
     6
  6
PHANTOM
370
    -3
390
16BC9
  0
LAYER
  5
142E2
330
7467
100
AcDbSymbolTableRecord
100
AcDbLayerTableRecord
  2
破線
 70
     0
 62
     2
  6
HIDDEN
370
    -3
390
16BC9
  0
ENDTAB
  0
TABLE
  2
STYLE
  5
7468
330
0
100
AcDbSymbolTable
 70
     4
  0
STYLE
  5
7475
330
7468
100
AcDbSymbolTableRecord
100
AcDbTextStyleTableRecord
  2
STANDARD
 70
     0
 40
0.0
 41
1.0
 50
0.0
 71
     0
 42
4.0
  3
txt
  4
C:\AutoCAD LT\bigfont.shx
  0
STYLE
  5
F706
330
7468
100
AcDbSymbolTableRecord
100
AcDbTextStyleTableRecord
  2
STYLE1
 70
     0
 40
0.0
 41
1.0
 50
0.0
 71
     0
 42
4.0
  3
isocp.shx
  4
bigfont.shx
  0
STYLE
  5
103BF
330
7468
100
AcDbSymbolTableRecord
100
AcDbTextStyleTableRecord
  2
STYLE2
 70
     0
 40
0.0
 41
1.0
 50
0.0
 71
     0
 42
100.0
  3
MS PGothic.ttf
  4

1001
ACAD
1000
MS PGothic
1071
    32818
  0
STYLE
  5
1822C
330
7468
100
AcDbSymbolTableRecord
100
AcDbTextStyleTableRecord
  2
STYLE3
 70
     0
 40
0.0
 41
1.0
 50
0.0
 71
     0
 42
100.0
  3

  4

1001
ACAD
1000
DFPGothic-EB
1071
    32818
  0
ENDTAB
  0
TABLE
  2
VIEW
  5
746B
330
0
100
AcDbSymbolTable
 70
     0
  0
ENDTAB
  0
TABLE
  2
UCS
  5
746C
330
0
100
AcDbSymbolTable
 70
     0
  0
ENDTAB
  0
TABLE
  2
APPID
  5
746E
330
0
100
AcDbSymbolTable
 70
     6
  0
APPID
  5
7476
330
746E
100
AcDbSymbolTableRecord
100
AcDbRegAppTableRecord
  2
ACAD
 70
     0
  0
APPID
  5
DEA9
330
746E
100
AcDbSymbolTableRecord
100
AcDbRegAppTableRecord
  2
CONTENTBLOCKICON
 70
     0
  0
APPID
  5
DEAA
330
746E
100
AcDbSymbolTableRecord
100
AcDbRegAppTableRecord
  2
CONTENTBLOCKDESCRIPTION
 70
     0
  0
APPID
  5
E71D
330
746E
100
AcDbSymbolTableRecord
100
AcDbRegAppTableRecord
  2
CONTENTTABDATA
 70
     0
  0
APPID
  5
E71E
330
746E
100
AcDbSymbolTableRecord
100
AcDbRegAppTableRecord
  2
CONTENTCURRENTTAB
 70
     0
  0
APPID
  5
F3BA
330
746E
100
AcDbSymbolTableRecord
100
AcDbRegAppTableRecord
  2
DRAWINGVARIABLESXDATA
 70
     0
  0
ENDTAB
  0
TABLE
  2
DIMSTYLE
  5
746F
330
0
100
AcDbSymbolTable
 70
     5
100
AcDbDimStyleTable
 71
     1
340
F71F
  0
DIMSTYLE
105
7484
330
746F
100
AcDbSymbolTableRecord
100
AcDbDimStyleTableRecord
  2
JIS
 70
     0
 41
2.5
 42
1.0
 43
7.0
 44
1.0
 73
     0
 74
     0
 77
     1
 78
     8
140
2.5
141
0.0
143
0.0394
147
0.0
172
     1
174
     1
175
     1
340
7475
  0
DIMSTYLE
105
F71F
102
{ACAD_REACTORS
330
171BD
330
171CE
330
1721C
330
17235
330
17236
330
17237
330
16FDB
330
17016
330
17017
330
17018
330
17199
330
1719A
330
1719B
330
1719C
330
1719D
330
17C4B
330
17C4F
330
17C92
330
17C93
330
17C94
330
17C95
330
17C96
330
17C97
330
17CD0
330
17CD1
330
17CD2
330
17CD3
330
18564
330
18601
102
}
330
746F
100
AcDbSymbolTableRecord
100
AcDbDimStyleTableRecord
  2
INABA_S40G
 70
     0
 40
40.0
 41
2.5
 42
0.5
 43
7.0
 44
1.5
 73
     0
 74
     0
 77
     3
 78
     8
140
3.0
141
0.0
143
0.0394
147
1.0
172
     1
173
     1
174
     1
178
     7
271
     1
288
     1
340
F706
341
F770
343
F770
344
F770
  0
DIMSTYLE
105
16D57
102
{ACAD_REACTORS
330
18308
330
185FC
102
}
330
746F
100
AcDbSymbolTableRecord
100
AcDbDimStyleTableRecord
  2
INABA_S40
 70
     0
 40
40.0
 41
2.5
 42
0.5
 43
7.0
 44
1.5
 73
     0
 74
     0
 77
     3
 78
     8
140
3.0
141
0.0
143
0.0394
147
1.0
172
     1
173
     1
174
     1
175
     1
178
     7
340
7475
  0
DIMSTYLE
105
1822D
330
746F
100
AcDbSymbolTableRecord
100
AcDbDimStyleTableRecord
  2
INABA_S50G
 70
     0
 41
125.0
 42
25.0
 43
7.0
 44
75.0
 73
     0
 74
     0
 77
     3
 78
     8
140
150.0
141
0.0
143
0.0394
147
25.0
172
     1
173
     1
174
     1
175
     1
178
     7
271
     1
340
F706
341
F770
343
F770
344
F770
  0
DIMSTYLE
105
18838
330
746F
100
AcDbSymbolTableRecord
100
AcDbDimStyleTableRecord
  2
INABA_S20G
 70
     0
 40
20.0
 41
2.5
 42
0.5
 43
7.0
 44
1.5
 73
     0
 74
     0
 77
     3
 78
     8
140
3.0
141
0.0
143
0.0394
147
1.0
172
     1
173
     1
174
     1
178
     7
271
     1
340
F706
341
F770
343
F770
344
F770
  0
ENDTAB
  0
TABLE
  2
BLOCK_RECORD
  5
7466
330
0
100
AcDbSymbolTable
 70
    33
  0
BLOCK_RECORD
  5
747D
330
7466
100
AcDbSymbolTableRecord
100
AcDbBlockTableRecord
  2
*MODEL_SPACE
340
16BCE
  0
BLOCK_RECORD
  5
747A
330
7466
100
AcDbSymbolTableRecord
100
AcDbBlockTableRecord
  2
*PAPER_SPACE
340
16BCF
  0
BLOCK_RECORD
  5
F770
330
7466
100
AcDbSymbolTableRecord
100
AcDbBlockTableRecord
  2
_DOTSMALL
340
0
102
{BLKREFS
331
1815D
331
1815E
331
18166
331
18167
331
1816F
331
18170
331
1817A
331
1817B
331
18183
331
18184
331
1818D
331
1818E
331
18196
331
18197
331
1819F
331
181A0
331
181A8
331
181A9
331
181B1
331
181B2
331
181BB
331
181BC
331
181C6
331
181C7
331
181CF
331
181D0
331
181D8
331
181D9
331
181E3
331
181E4
331
181EC
331
181ED
331
181F7
331
181F8
331
187AA
331
187AB
331
187BE
331
187BF
331
187D2
331
187D3
331
187DB
331
187DC
331
187E6
331
187E7
331
187EF
331
187F0
331
187F8
331
187F9
331
18801
331
18802
331
1880A
331
1880B
331
18815
331
18816
331
1881E
331
1881F
331
18829
331
1882A
102
}
  0
BLOCK_RECORD
  5
16BD6
330
7466
100
AcDbSymbolTableRecord
100
AcDbBlockTableRecord
  2
_DOT
340
0
102
{BLKREFS
331
187B5
331
187B6
331
187C7
331
187C8
102
}
  0
BLOCK_RECORD
  5
1725E
330
7466
100
AcDbSymbolTableRecord
100
AcDbBlockTableRecord
  2
*D2
340
0
  0
BLOCK_RECORD
  5
172C2
330
7466
100
AcDbSymbolTableRecord
100
AcDbBlockTableRecord
  2
*D3
340
0
  0
BLOCK_RECORD
  5
17302
330
7466
100
AcDbSymbolTableRecord
100
AcDbBlockTableRecord
  2
*D4
340
0
  0
BLOCK_RECORD
  5
1730F
330
7466
100
AcDbSymbolTableRecord
100
AcDbBlockTableRecord
  2
*D5
340
0
  0
BLOCK_RECORD
  5
1731B
330
7466
100
AcDbSymbolTableRecord
100
AcDbBlockTableRecord
  2
*D6
340
0
  0
BLOCK_RECORD
  5
17329
330
7466
100
AcDbSymbolTableRecord
100
AcDbBlockTableRecord
  2
*D7
340
0
  0
BLOCK_RECORD
  5
17335
330
7466
100
AcDbSymbolTableRecord
100
AcDbBlockTableRecord
  2
*D8
340
0
  0
BLOCK_RECORD
  5
17343
330
7466
100
AcDbSymbolTableRecord
100
AcDbBlockTableRecord
  2
*D9
340
0
  0
BLOCK_RECORD
  5
1734F
330
7466
100
AcDbSymbolTableRecord
100
AcDbBlockTableRecord
  2
*D10
340
0
  0
BLOCK_RECORD
  5
1735D
330
7466
100
AcDbSymbolTableRecord
100
AcDbBlockTableRecord
  2
*D11
340
0
  0
BLOCK_RECORD
  5
17381
330
7466
100
AcDbSymbolTableRecord
100
AcDbBlockTableRecord
  2
*D12
340
0
  0
BLOCK_RECORD
  5
1738D
330
7466
100
AcDbSymbolTableRecord
100
AcDbBlockTableRecord
  2
*D13
340
0
  0
BLOCK_RECORD
  5
1739B
330
7466
100
AcDbSymbolTableRecord
100
AcDbBlockTableRecord
  2
*D14
340
0
  0
BLOCK_RECORD
  5
173A8
330
7466
100
AcDbSymbolTableRecord
100
AcDbBlockTableRecord
  2
*D15
340
0
  0
BLOCK_RECORD
  5
173B4
330
7466
100
AcDbSymbolTableRecord
100
AcDbBlockTableRecord
  2
*D16
340
0
  0
BLOCK_RECORD
  5
17D88
330
7466
100
AcDbSymbolTableRecord
100
AcDbBlockTableRecord
  2
*D17
340
0
  0
BLOCK_RECORD
  5
17D94
330
7466
100
AcDbSymbolTableRecord
100
AcDbBlockTableRecord
  2
*D18
340
0
  0
BLOCK_RECORD
  5
17E06
330
7466
100
AcDbSymbolTableRecord
100
AcDbBlockTableRecord
  2
*D19
340
0
  0
BLOCK_RECORD
  5
17E14
330
7466
100
AcDbSymbolTableRecord
100
AcDbBlockTableRecord
  2
*D20
340
0
  0
BLOCK_RECORD
  5
17E20
330
7466
100
AcDbSymbolTableRecord
100
AcDbBlockTableRecord
  2
*D21
340
0
  0
BLOCK_RECORD
  5
17E2E
330
7466
100
AcDbSymbolTableRecord
100
AcDbBlockTableRecord
  2
*D22
340
0
  0
BLOCK_RECORD
  5
17E3A
330
7466
100
AcDbSymbolTableRecord
100
AcDbBlockTableRecord
  2
*D23
340
0
  0
BLOCK_RECORD
  5
17E46
330
7466
100
AcDbSymbolTableRecord
100
AcDbBlockTableRecord
  2
*D24
340
0
  0
BLOCK_RECORD
  5
17E52
330
7466
100
AcDbSymbolTableRecord
100
AcDbBlockTableRecord
  2
*D25
340
0
  0
BLOCK_RECORD
  5
17E5E
330
7466
100
AcDbSymbolTableRecord
100
AcDbBlockTableRecord
  2
*D26
340
0
  0
BLOCK_RECORD
  5
17E6C
330
7466
100
AcDbSymbolTableRecord
100
AcDbBlockTableRecord
  2
*D27
340
0
  0
BLOCK_RECORD
  5
17E78
330
7466
100
AcDbSymbolTableRecord
100
AcDbBlockTableRecord
  2
*D28
340
0
  0
BLOCK_RECORD
  5
1836D
330
7466
100
AcDbSymbolTableRecord
100
AcDbBlockTableRecord
  2
*D29
340
0
  0
BLOCK_RECORD
  5
18650
330
7466
100
AcDbSymbolTableRecord
100
AcDbBlockTableRecord
  2
*D30
340
0
  0
BLOCK_RECORD
  5
18668
330
7466
100
AcDbSymbolTableRecord
100
AcDbBlockTableRecord
  2
*D31
340
0
  0
BLOCK_RECORD
  5
18676
330
7466
100
AcDbSymbolTableRecord
100
AcDbBlockTableRecord
  2
*D32
340
0
  0
ENDTAB
  0
ENDSEC
  0
SECTION
  2
BLOCKS
  0
BLOCK
  5
7489
330
747D
100
AcDbEntity
  8
0
100
AcDbBlockBegin
  2
*MODEL_SPACE
 70
     0
 10
0.0
 20
0.0
 30
0.0
  3
*MODEL_SPACE
  1

  0
ENDBLK
  5
748A
330
747D
100
AcDbEntity
  8
0
100
AcDbBlockEnd
  0
BLOCK
  5
7487
330
747A
100
AcDbEntity
 67
     1
  8
0
100
AcDbBlockBegin
  2
*PAPER_SPACE
 70
     0
 10
0.0
 20
0.0
 30
0.0
  3
*PAPER_SPACE
  1

  0
ENDBLK
  5
7488
330
747A
100
AcDbEntity
 67
     1
  8
0
100
AcDbBlockEnd
  0
BLOCK
  5
F771
330
F770
100
AcDbEntity
  8
0
 48
50.0
100
AcDbBlockBegin
  2
_DOTSMALL
 70
     0
 10
0.0
 20
0.0
 30
0.0
  3
_DOTSMALL
  1

  0
LWPOLYLINE
  5
F772
330
F770
100
AcDbEntity
  8
0
  6
ByBlock
 62
     0
 48
50.0
100
AcDbPolyline
 90
        2
 70
     1
 43
0.5
 10
-0.0625
 20
0.0
 42
1.0
 10
0.0625
 20
0.0
 42
1.0
  0
ENDBLK
  5
F776
330
F770
100
AcDbEntity
  8
0
 48
50.0
100
AcDbBlockEnd
  0
BLOCK
  5
16BD7
330
16BD6
100
AcDbEntity
  8
0
 48
50.0
100
AcDbBlockBegin
  2
_DOT
 70
     0
 10
0.0
 20
0.0
 30
0.0
  3
_DOT
  1

  0
LWPOLYLINE
  5
16BD8
330
16BD6
100
AcDbEntity
  8
0
  6
ByBlock
 62
     0
 48
50.0
100
AcDbPolyline
 90
        2
 70
     1
 43
0.5
 10
-0.25
 20
0.0
 42
1.0
 10
0.25
 20
0.0
 42
1.0
  0
LINE
  5
16BD9
330
16BD6
100
AcDbEntity
  8
0
  6
ByBlock
 62
     0
 48
50.0
100
AcDbLine
 10
-0.5
 20
0.0
 30
0.0
 11
-1.0
 21
0.0
 31
0.0
  0
ENDBLK
  5
16BDA
330
16BD6
100
AcDbEntity
  8
0
 48
50.0
100
AcDbBlockEnd
  0
BLOCK
  5
17268
330
1725E
100
AcDbEntity
  8
0
 48
50.0
100
AcDbBlockBegin
  2
*D2
 70
     1
 10
0.0
 20
0.0
 30
0.0
  3
*D2
  1

  0
LINE
  5
1819C
330
1725E
100
AcDbEntity
  8
寸法
 62
     0
 48
50.0
370
    -2
100
AcDbLine
 10
9593.605724486904
 20
4091.694218014612
 30
0.0
 11
9254.399695274752
 21
4091.694218014612
 31
0.0
  0
LINE
  5
1819D
330
1725E
100
AcDbEntity
  8
寸法
 62
     0
 48
50.0
370
    -2
100
AcDbLine
 10
9593.605724486904
 20
2366.694218014611
 30
0.0
 11
9254.399695274752
 21
2366.694218014611
 31
0.0
  0
LINE
  5
1819E
330
1725E
100
AcDbEntity
  8
寸法
 62
     0
 48
50.0
370
    -2
100
AcDbLine
 10
9314.399695274751
 20
4091.694218014612
 30
0.0
 11
9314.399695274751
 21
2366.694218014611
 31
0.0
  0
INSERT
  5
1819F
330
1725E
100
AcDbEntity
  8
寸法
 62
     0
 48
50.0
370
    -2
100
AcDbBlockReference
  2
_DOTSMALL
 10
9314.399695274751
 20
4091.694218014612
 30
0.0
 41
100.0
 42
100.0
 43
100.0
 50
90.0
  0
INSERT
  5
181A0
330
1725E
100
AcDbEntity
  8
寸法
 62
     0
 48
50.0
370
    -2
100
AcDbBlockReference
  2
_DOTSMALL
 10
9314.399695274751
 20
2366.694218014611
 30
0.0
 41
100.0
 42
100.0
 43
100.0
 50
270.0
  0
MTEXT
  5
181A1
330
1725E
100
AcDbEntity
  8
寸法
 62
     7
 48
50.0
100
AcDbMText
 10
9214.387884251129
 20
3220.327237032137
 30
0.0
 40
120.0
 41
0.0
 71
     5
 72
     1
  1
\A1;有効開口部高サ1725
  7
STYLE1
 11
0.0000000000000001
 21
1.0
 31
0.0
 73
     1
 44
1.0
1001
ACAD
1000
MTEXTBEGIN
1070
    73
1070
     1
1070
    44
1040
1.0
1070
    74
1070
     0
1000
MTEXTEND
  0
POINT
  5
181A2
330
1725E
100
AcDbEntity
  8
DEFPOINTS
 62
     0
 48
50.0
100
AcDbPoint
 10
9613.605724486902
 20
4091.694218014612
 30
0.0
  0
POINT
  5
181A3
330
1725E
100
AcDbEntity
  8
DEFPOINTS
 62
     0
 48
50.0
100
AcDbPoint
 10
9613.605724486902
 20
2366.694218014611
 30
0.0
  0
POINT
  5
181A4
330
1725E
100
AcDbEntity
  8
DEFPOINTS
 62
     0
 48
50.0
100
AcDbPoint
 10
9314.399695274751
 20
2366.694218014611
 30
0.0
  0
ENDBLK
  5
17269
330
1725E
100
AcDbEntity
  8
0
 48
50.0
100
AcDbBlockEnd
  0
BLOCK
  5
172CC
330
172C2
100
AcDbEntity
  8
0
 48
50.0
100
AcDbBlockBegin
  2
*D3
 70
     1
 10
0.0
 20
0.0
 30
0.0
  3
*D3
  1

  0
LINE
  5
18193
330
172C2
100
AcDbEntity
  8
寸法
 62
     0
 48
50.0
370
    -2
100
AcDbLine
 10
9675.605724486887
 20
1988.694218014612
 30
0.0
 11
9675.605724486887
 21
1662.646888714234
 31
0.0
  0
LINE
  5
18194
330
172C2
100
AcDbEntity
  8
寸法
 62
     0
 48
50.0
370
    -2
100
AcDbLine
 10
9475.605724486884
 20
1988.694218014612
 30
0.0
 11
9475.605724486884
 21
1662.646888714234
 31
0.0
  0
LINE
  5
18195
330
172C2
100
AcDbEntity
  8
寸法
 62
     0
 48
50.0
370
    -2
100
AcDbLine
 10
9675.605724486887
 20
1722.646888714234
 30
0.0
 11
9475.605724486884
 21
1722.646888714234
 31
0.0
  0
INSERT
  5
18196
330
172C2
100
AcDbEntity
  8
寸法
 62
     0
 48
50.0
370
    -2
100
AcDbBlockReference
  2
_DOTSMALL
 10
9675.605724486887
 20
1722.646888714234
 30
0.0
 41
100.0
 42
100.0
 43
100.0
  0
INSERT
  5
18197
330
172C2
100
AcDbEntity
  8
寸法
 62
     0
 48
50.0
370
    -2
100
AcDbBlockReference
  2
_DOTSMALL
 10
9475.605724486884
 20
1722.646888714234
 30
0.0
 41
100.0
 42
100.0
 43
100.0
 50
180.0
  0
MTEXT
  5
18198
330
172C2
100
AcDbEntity
  8
寸法
 62
     7
 48
50.0
100
AcDbMText
 10
9575.605724486887
 20
1822.658699737857
 30
0.0
 40
120.0
 41
0.0
 71
     5
 72
     1
  1
\A1;200
  7
STYLE1
 73
     1
 44
1.0
1001
ACAD
1000
MTEXTBEGIN
1070
    73
1070
     1
1070
    44
1040
1.0
1070
    74
1070
     0
1000
MTEXTEND
  0
POINT
  5
18199
330
172C2
100
AcDbEntity
  8
DEFPOINTS
 62
     0
 48
50.0
100
AcDbPoint
 10
9675.605724486887
 20
2008.694218014612
 30
0.0
  0
POINT
  5
1819A
330
172C2
100
AcDbEntity
  8
DEFPOINTS
 62
     0
 48
50.0
100
AcDbPoint
 10
9475.605724486884
 20
2008.694218014612
 30
0.0
  0
POINT
  5
1819B
330
172C2
100
AcDbEntity
  8
DEFPOINTS
 62
     0
 48
50.0
100
AcDbPoint
 10
9475.605724486884
 20
1722.646888714234
 30
0.0
  0
ENDBLK
  5
172CD
330
172C2
100
AcDbEntity
  8
0
 48
50.0
100
AcDbBlockEnd
  0
BLOCK
  5
1730D
330
17302
100
AcDbEntity
  8
0
 48
50.0
100
AcDbBlockBegin
  2
*D4
 70
     1
 10
0.0
 20
0.0
 30
0.0
  3
*D4
  1

  0
LINE
  5
18189
330
17302
100
AcDbEntity
  8
寸法
 62
     0
 48
50.0
370
    -2
100
AcDbLine
 10
10955.60572448688
 20
4350.504897626266
 30
0.0
 11
10955.60572448688
 21
4842.351671593917
 31
0.0
  0
LINE
  5
1818A
330
17302
100
AcDbEntity
  8
寸法
 62
     0
 48
50.0
370
    -2
100
AcDbLine
 10
11035.60572448688
 20
4348.694218014613
 30
0.0
 11
11035.60572448688
 21
4842.351671593917
 31
0.0
  0
LINE
  5
1818B
330
17302
100
AcDbEntity
  8
寸法
 62
     0
 48
50.0
370
    -2
100
AcDbLine
 10
10955.60572448688
 20
4782.351671593917
 30
0.0
 11
11035.60572448688
 21
4782.351671593917
 31
0.0
  0
LINE
  5
1818C
330
17302
100
AcDbEntity
  8
寸法
 62
     0
 48
50.0
370
    -2
100
AcDbLine
 10
11035.60572448688
 20
4782.351671593917
 30
0.0
 11
11347.70021267586
 21
4782.351671593917
 31
0.0
  0
INSERT
  5
1818D
330
17302
100
AcDbEntity
  8
寸法
 62
     0
 48
50.0
370
    -2
100
AcDbBlockReference
  2
_DOTSMALL
 10
10955.60572448688
 20
4782.351671593917
 30
0.0
 41
100.0
 42
100.0
 43
100.0
 50
180.0
  0
INSERT
  5
1818E
330
17302
100
AcDbEntity
  8
寸法
 62
     0
 48
50.0
370
    -2
100
AcDbBlockReference
  2
_DOTSMALL
 10
11035.60572448688
 20
4782.351671593917
 30
0.0
 41
100.0
 42
100.0
 43
100.0
  0
MTEXT
  5
1818F
330
17302
100
AcDbEntity
  8
寸法
 62
     7
 48
50.0
100
AcDbMText
 10
11241.65296858137
 20
4882.351671593917
 30
0.0
 40
120.0
 41
0.0
 71
     5
 72
     1
  1
\A1;80
  7
STYLE1
 73
     1
 44
1.0
1001
ACAD
1000
MTEXTBEGIN
1070
    73
1070
     1
1070
    44
1040
1.0
1070
    74
1070
     0
1000
MTEXTEND
  0
POINT
  5
18190
330
17302
100
AcDbEntity
  8
DEFPOINTS
 62
     0
 48
50.0
100
AcDbPoint
 10
10955.60572448688
 20
4330.504897626266
 30
0.0
  0
POINT
  5
18191
330
17302
100
AcDbEntity
  8
DEFPOINTS
 62
     0
 48
50.0
100
AcDbPoint
 10
11035.60572448688
 20
4328.694218014613
 30
0.0
  0
POINT
  5
18192
330
17302
100
AcDbEntity
  8
DEFPOINTS
 62
     0
 48
50.0
100
AcDbPoint
 10
11035.60572448688
 20
4782.351671593917
 30
0.0
  0
ENDBLK
  5
1730E
330
17302
100
AcDbEntity
  8
0
 48
50.0
100
AcDbBlockEnd
  0
BLOCK
  5
17319
330
1730F
100
AcDbEntity
  8
0
 48
50.0
100
AcDbBlockBegin
  2
*D5
 70
     1
 10
0.0
 20
0.0
 30
0.0
  3
*D5
  1

  0
LINE
  5
18180
330
1730F
100
AcDbEntity
  8
寸法
 62
     0
 48
50.0
370
    -2
100
AcDbLine
 10
11035.60572448688
 20
4348.694218014613
 30
0.0
 11
11035.60572448688
 21
5050.525992785881
 31
0.0
  0
LINE
  5
18181
330
1730F
100
AcDbEntity
  8
寸法
 62
     0
 48
50.0
370
    -2
100
AcDbLine
 10
9525.605724486888
 20
4403.694218014616
 30
0.0
 11
9525.605724486888
 21
5050.525992785881
 31
0.0
  0
LINE
  5
18182
330
1730F
100
AcDbEntity
  8
寸法
 62
     0
 48
50.0
370
    -2
100
AcDbLine
 10
11035.60572448688
 20
4990.52599278588
 30
0.0
 11
9525.605724486888
 21
4990.52599278588
 31
0.0
  0
INSERT
  5
18183
330
1730F
100
AcDbEntity
  8
寸法
 62
     0
 48
50.0
370
    -2
100
AcDbBlockReference
  2
_DOTSMALL
 10
11035.60572448688
 20
4990.52599278588
 30
0.0
 41
100.0
 42
100.0
 43
100.0
  0
INSERT
  5
18184
330
1730F
100
AcDbEntity
  8
寸法
 62
     0
 48
50.0
370
    -2
100
AcDbBlockReference
  2
_DOTSMALL
 10
9525.605724486888
 20
4990.52599278588
 30
0.0
 41
100.0
 42
100.0
 43
100.0
 50
180.0
  0
MTEXT
  5
18185
330
1730F
100
AcDbEntity
  8
寸法
 62
     7
 48
50.0
100
AcDbMText
 10
10252.73055418871
 20
5090.525992785881
 30
0.0
 40
120.0
 41
0.0
 71
     5
 72
     1
  1
\A1;1510
  7
STYLE1
 73
     1
 44
1.0
1001
ACAD
1000
MTEXTBEGIN
1070
    73
1070
     1
1070
    44
1040
1.0
1070
    74
1070
     0
1000
MTEXTEND
  0
POINT
  5
18186
330
1730F
100
AcDbEntity
  8
DEFPOINTS
 62
     0
 48
50.0
100
AcDbPoint
 10
11035.60572448688
 20
4328.694218014613
 30
0.0
  0
POINT
  5
18187
330
1730F
100
AcDbEntity
  8
DEFPOINTS
 62
     0
 48
50.0
100
AcDbPoint
 10
9525.605724486888
 20
4383.694218014617
 30
0.0
  0
POINT
  5
18188
330
1730F
100
AcDbEntity
  8
DEFPOINTS
 62
     0
 48
50.0
100
AcDbPoint
 10
9525.605724486888
 20
4990.52599278588
 30
0.0
  0
ENDBLK
  5
1731A
330
1730F
100
AcDbEntity
  8
0
 48
50.0
100
AcDbBlockEnd
  0
BLOCK
  5
17327
330
1731B
100
AcDbEntity
  8
0
 48
50.0
100
AcDbBlockBegin
  2
*D6
 70
     1
 10
0.0
 20
0.0
 30
0.0
  3
*D6
  1

  0
LINE
  5
18175
330
1731B
100
AcDbEntity
  8
寸法
 62
     0
 48
50.0
370
    -2
100
AcDbLine
 10
9585.605724486887
 20
4399.695836137589
 30
0.0
 11
9585.605724486887
 21
4842.351671593917
 31
0.0
  0
LINE
  5
18176
330
1731B
100
AcDbEntity
  8
寸法
 62
     0
 48
50.0
370
    -2
100
AcDbLine
 10
9525.605724486888
 20
4403.694218014616
 30
0.0
 11
9525.605724486888
 21
4842.351671593917
 31
0.0
  0
LINE
  5
18177
330
1731B
100
AcDbEntity
  8
寸法
 62
     0
 48
50.0
370
    -2
100
AcDbLine
 10
9585.605724486887
 20
4782.351671593917
 30
0.0
 11
9685.605724486888
 21
4782.351671593917
 31
0.0
  0
LINE
  5
18178
330
1731B
100
AcDbEntity
  8
寸法
 62
     0
 48
50.0
370
    -2
100
AcDbLine
 10
9525.605724486888
 20
4782.351671593917
 30
0.0
 11
9106.330133935708
 21
4782.351671593917
 31
0.0
  0
LINE
  5
18179
330
1731B
100
AcDbEntity
  8
寸法
 62
     0
 48
50.0
370
    -2
100
AcDbLine
 10
9585.605724486887
 20
4782.351671593917
 30
0.0
 11
9525.605724486888
 21
4782.351671593917
 31
0.0
  0
INSERT
  5
1817A
330
1731B
100
AcDbEntity
  8
寸法
 62
     0
 48
50.0
370
    -2
100
AcDbBlockReference
  2
_DOTSMALL
 10
9585.605724486887
 20
4782.351671593917
 30
0.0
 41
100.0
 42
100.0
 43
100.0
 50
180.0
  0
INSERT
  5
1817B
330
1731B
100
AcDbEntity
  8
寸法
 62
     0
 48
50.0
370
    -2
100
AcDbBlockReference
  2
_DOTSMALL
 10
9525.605724486888
 20
4782.351671593917
 30
0.0
 41
100.0
 42
100.0
 43
100.0
  0
MTEXT
  5
1817C
330
1731B
100
AcDbEntity
  8
寸法
 62
     7
 48
50.0
100
AcDbMText
 10
9215.967929211299
 20
4882.351671593917
 30
0.0
 40
120.0
 41
0.0
 71
     5
 72
     1
  1
\A1;60
  7
STYLE1
 73
     1
 44
1.0
1001
ACAD
1000
MTEXTBEGIN
1070
    73
1070
     1
1070
    44
1040
1.0
1070
    74
1070
     0
1000
MTEXTEND
  0
POINT
  5
1817D
330
1731B
100
AcDbEntity
  8
DEFPOINTS
 62
     0
 48
50.0
100
AcDbPoint
 10
9585.605724486887
 20
4379.695836137589
 30
0.0
  0
POINT
  5
1817E
330
1731B
100
AcDbEntity
  8
DEFPOINTS
 62
     0
 48
50.0
100
AcDbPoint
 10
9525.605724486888
 20
4383.694218014617
 30
0.0
  0
POINT
  5
1817F
330
1731B
100
AcDbEntity
  8
DEFPOINTS
 62
     0
 48
50.0
100
AcDbPoint
 10
9525.605724486888
 20
4782.351671593917
 30
0.0
  0
ENDBLK
  5
17328
330
1731B
100
AcDbEntity
  8
0
 48
50.0
100
AcDbBlockEnd
  0
BLOCK
  5
17333
330
17329
100
AcDbEntity
  8
0
 48
50.0
100
AcDbBlockBegin
  2
*D7
 70
     1
 10
0.0
 20
0.0
 30
0.0
  3
*D7
  1

  0
LINE
  5
1816C
330
17329
100
AcDbEntity
  8
寸法
 62
     0
 48
50.0
370
    -2
100
AcDbLine
 10
10955.60572448688
 20
4350.504897626266
 30
0.0
 11
10955.60572448688
 21
4842.351671593917
 31
0.0
  0
LINE
  5
1816D
330
17329
100
AcDbEntity
  8
寸法
 62
     0
 48
50.0
370
    -2
100
AcDbLine
 10
9585.605724486887
 20
4399.695836137589
 30
0.0
 11
9585.605724486887
 21
4842.351671593917
 31
0.0
  0
LINE
  5
1816E
330
17329
100
AcDbEntity
  8
寸法
 62
     0
 48
50.0
370
    -2
100
AcDbLine
 10
10955.60572448688
 20
4782.351671593917
 30
0.0
 11
9585.605724486887
 21
4782.351671593917
 31
0.0
  0
INSERT
  5
1816F
330
17329
100
AcDbEntity
  8
寸法
 62
     0
 48
50.0
370
    -2
100
AcDbBlockReference
  2
_DOTSMALL
 10
10955.60572448688
 20
4782.351671593917
 30
0.0
 41
100.0
 42
100.0
 43
100.0
  0
INSERT
  5
18170
330
17329
100
AcDbEntity
  8
寸法
 62
     0
 48
50.0
370
    -2
100
AcDbBlockReference
  2
_DOTSMALL
 10
9585.605724486887
 20
4782.351671593917
 30
0.0
 41
100.0
 42
100.0
 43
100.0
 50
180.0
  0
MTEXT
  5
18171
330
17329
100
AcDbEntity
  8
寸法
 62
     7
 48
50.0
100
AcDbMText
 10
10235.42475737743
 20
4882.351671593917
 30
0.0
 40
120.0
 41
0.0
 71
     5
 72
     1
  1
\A1;柱外寸法1370
  7
STYLE1
 73
     1
 44
1.0
1001
ACAD
1000
MTEXTBEGIN
1070
    73
1070
     1
1070
    44
1040
1.0
1070
    74
1070
     0
1000
MTEXTEND
  0
POINT
  5
18172
330
17329
100
AcDbEntity
  8
DEFPOINTS
 62
     0
 48
50.0
100
AcDbPoint
 10
10955.60572448688
 20
4330.504897626266
 30
0.0
  0
POINT
  5
18173
330
17329
100
AcDbEntity
  8
DEFPOINTS
 62
     0
 48
50.0
100
AcDbPoint
 10
9585.605724486887
 20
4379.695836137589
 30
0.0
  0
POINT
  5
18174
330
17329
100
AcDbEntity
  8
DEFPOINTS
 62
     0
 48
50.0
100
AcDbPoint
 10
9585.605724486887
 20
4782.351671593917
 30
0.0
  0
ENDBLK
  5
17334
330
17329
100
AcDbEntity
  8
0
 48
50.0
100
AcDbBlockEnd
  0
BLOCK
  5
17341
330
17335
100
AcDbEntity
  8
0
 48
50.0
100
AcDbBlockBegin
  2
*D8
 70
     1
 10
0.0
 20
0.0
 30
0.0
  3
*D8
  1

  0
LINE
  5
181F2
330
17335
100
AcDbEntity
  8
寸法
 62
     0
 48
50.0
370
    -2
100
AcDbLine
 10
7543.508695149641
 20
4403.694218014613
 30
0.0
 11
7543.508695149641
 21
4848.314477441883
 31
0.0
  0
LINE
  5
181F3
330
17335
100
AcDbEntity
  8
寸法
 62
     0
 48
50.0
370
    -2
100
AcDbLine
 10
7493.508695149642
 20
4403.694218014614
 30
0.0
 11
7493.508695149642
 21
4848.314477441883
 31
0.0
  0
LINE
  5
181F4
330
17335
100
AcDbEntity
  8
寸法
 62
     0
 48
50.0
370
    -2
100
AcDbLine
 10
7493.508695149642
 20
4788.314477441883
 30
0.0
 11
7393.508695149641
 21
4788.314477441883
 31
0.0
  0
LINE
  5
181F5
330
17335
100
AcDbEntity
  8
寸法
 62
     0
 48
50.0
370
    -2
100
AcDbLine
 10
7543.508695149641
 20
4788.314477441883
 30
0.0
 11
7963.041220618369
 21
4788.314477441883
 31
0.0
  0
LINE
  5
181F6
330
17335
100
AcDbEntity
  8
寸法
 62
     0
 48
50.0
370
    -2
100
AcDbLine
 10
7493.508695149642
 20
4788.314477441883
 30
0.0
 11
7543.508695149641
 21
4788.314477441883
 31
0.0
  0
INSERT
  5
181F7
330
17335
100
AcDbEntity
  8
寸法
 62
     0
 48
50.0
370
    -2
100
AcDbBlockReference
  2
_DOTSMALL
 10
7493.508695149642
 20
4788.314477441883
 30
0.0
 41
100.0
 42
100.0
 43
100.0
  0
INSERT
  5
181F8
330
17335
100
AcDbEntity
  8
寸法
 62
     0
 48
50.0
370
    -2
100
AcDbBlockReference
  2
_DOTSMALL
 10
7543.508695149641
 20
4788.314477441883
 30
0.0
 41
100.0
 42
100.0
 43
100.0
 50
180.0
  0
MTEXT
  5
181F9
330
17335
100
AcDbEntity
  8
寸法
 62
     7
 48
50.0
100
AcDbMText
 10
7856.993976523881
 20
4888.314477441884
 30
0.0
 40
120.0
 41
0.0
 71
     5
 72
     1
  1
\A1;50
  7
STYLE1
 73
     1
 44
1.0
1001
ACAD
1000
MTEXTBEGIN
1070
    73
1070
     1
1070
    44
1040
1.0
1070
    74
1070
     0
1000
MTEXTEND
  0
POINT
  5
181FA
330
17335
100
AcDbEntity
  8
DEFPOINTS
 62
     0
 48
50.0
100
AcDbPoint
 10
7543.508695149641
 20
4383.694218014612
 30
0.0
  0
POINT
  5
181FB
330
17335
100
AcDbEntity
  8
DEFPOINTS
 62
     0
 48
50.0
100
AcDbPoint
 10
7493.508695149642
 20
4383.694218014614
 30
0.0
  0
POINT
  5
181FC
330
17335
100
AcDbEntity
  8
DEFPOINTS
 62
     0
 48
50.0
100
AcDbPoint
 10
7493.508695149642
 20
4788.314477441883
 30
0.0
  0
ENDBLK
  5
17342
330
17335
100
AcDbEntity
  8
0
 48
50.0
100
AcDbBlockEnd
  0
BLOCK
  5
1734D
330
17343
100
AcDbEntity
  8
0
 48
50.0
100
AcDbBlockBegin
  2
*D9
 70
     1
 10
0.0
 20
0.0
 30
0.0
  3
*D9
  1

  0
LINE
  5
181E9
330
17343
100
AcDbEntity
  8
寸法
 62
     0
 48
50.0
370
    -2
100
AcDbLine
 10
7493.508695149642
 20
4403.694218014614
 30
0.0
 11
7493.508695149642
 21
4848.314477441883
 31
0.0
  0
LINE
  5
181EA
330
17343
100
AcDbEntity
  8
寸法
 62
     0
 48
50.0
370
    -2
100
AcDbLine
 10
4863.508695149642
 20
4403.694218014616
 30
0.0
 11
4863.508695149642
 21
4848.314477441883
 31
0.0
  0
LINE
  5
181EB
330
17343
100
AcDbEntity
  8
寸法
 62
     0
 48
50.0
370
    -2
100
AcDbLine
 10
7493.508695149642
 20
4788.314477441883
 30
0.0
 11
4863.508695149642
 21
4788.314477441883
 31
0.0
  0
INSERT
  5
181EC
330
17343
100
AcDbEntity
  8
寸法
 62
     0
 48
50.0
370
    -2
100
AcDbBlockReference
  2
_DOTSMALL
 10
7493.508695149642
 20
4788.314477441883
 30
0.0
 41
100.0
 42
100.0
 43
100.0
  0
INSERT
  5
181ED
330
17343
100
AcDbEntity
  8
寸法
 62
     0
 48
50.0
370
    -2
100
AcDbBlockReference
  2
_DOTSMALL
 10
4863.508695149642
 20
4788.314477441883
 30
0.0
 41
100.0
 42
100.0
 43
100.0
 50
180.0
  0
MTEXT
  5
181EE
330
17343
100
AcDbEntity
  8
寸法
 62
     7
 48
50.0
100
AcDbMText
 10
6178.508695149638
 20
4888.326288465505
 30
0.0
 40
120.0
 41
0.0
 71
     5
 72
     1
  1
\A1;柱外寸法2630
  7
STYLE1
 73
     1
 44
1.0
1001
ACAD
1000
MTEXTBEGIN
1070
    73
1070
     1
1070
    44
1040
1.0
1070
    74
1070
     0
1000
MTEXTEND
  0
POINT
  5
181EF
330
17343
100
AcDbEntity
  8
DEFPOINTS
 62
     0
 48
50.0
100
AcDbPoint
 10
7493.508695149642
 20
4383.694218014614
 30
0.0
  0
POINT
  5
181F0
330
17343
100
AcDbEntity
  8
DEFPOINTS
 62
     0
 48
50.0
100
AcDbPoint
 10
4863.508695149642
 20
4383.694218014616
 30
0.0
  0
POINT
  5
181F1
330
17343
100
AcDbEntity
  8
DEFPOINTS
 62
     0
 48
50.0
100
AcDbPoint
 10
4863.508695149642
 20
4788.314477441883
 30
0.0
  0
ENDBLK
  5
1734E
330
17343
100
AcDbEntity
  8
0
 48
50.0
100
AcDbBlockEnd
  0
BLOCK
  5
1735B
330
1734F
100
AcDbEntity
  8
0
 48
50.0
100
AcDbBlockBegin
  2
*D10
 70
     1
 10
0.0
 20
0.0
 30
0.0
  3
*D10
  1

  0
LINE
  5
181DE
330
1734F
100
AcDbEntity
  8
寸法
 62
     0
 48
50.0
370
    -2
100
AcDbLine
 10
4863.508695149642
 20
4403.694218014616
 30
0.0
 11
4863.508695149642
 21
4848.314477441883
 31
0.0
  0
LINE
  5
181DF
330
1734F
100
AcDbEntity
  8
寸法
 62
     0
 48
50.0
370
    -2
100
AcDbLine
 10
4813.508695149642
 20
4403.694218014614
 30
0.0
 11
4813.508695149642
 21
4848.314477441883
 31
0.0
  0
LINE
  5
181E0
330
1734F
100
AcDbEntity
  8
寸法
 62
     0
 48
50.0
370
    -2
100
AcDbLine
 10
4863.508695149642
 20
4788.314477441883
 30
0.0
 11
4963.508695149641
 21
4788.314477441883
 31
0.0
  0
LINE
  5
181E1
330
1734F
100
AcDbEntity
  8
寸法
 62
     0
 48
50.0
370
    -2
100
AcDbLine
 10
4813.508695149642
 20
4788.314477441883
 30
0.0
 11
4393.976169680906
 21
4788.314477441883
 31
0.0
  0
LINE
  5
181E2
330
1734F
100
AcDbEntity
  8
寸法
 62
     0
 48
50.0
370
    -2
100
AcDbLine
 10
4863.508695149642
 20
4788.314477441883
 30
0.0
 11
4813.508695149642
 21
4788.314477441883
 31
0.0
  0
INSERT
  5
181E3
330
1734F
100
AcDbEntity
  8
寸法
 62
     0
 48
50.0
370
    -2
100
AcDbBlockReference
  2
_DOTSMALL
 10
4863.508695149642
 20
4788.314477441883
 30
0.0
 41
100.0
 42
100.0
 43
100.0
 50
180.0
  0
INSERT
  5
181E4
330
1734F
100
AcDbEntity
  8
寸法
 62
     0
 48
50.0
370
    -2
100
AcDbBlockReference
  2
_DOTSMALL
 10
4813.508695149642
 20
4788.314477441883
 30
0.0
 41
100.0
 42
100.0
 43
100.0
  0
MTEXT
  5
181E5
330
1734F
100
AcDbEntity
  8
寸法
 62
     7
 48
50.0
100
AcDbMText
 10
4500.023413775394
 20
4888.314477441884
 30
0.0
 40
120.0
 41
0.0
 71
     5
 72
     1
  1
\A1;50
  7
STYLE1
 73
     1
 44
1.0
1001
ACAD
1000
MTEXTBEGIN
1070
    73
1070
     1
1070
    44
1040
1.0
1070
    74
1070
     0
1000
MTEXTEND
  0
POINT
  5
181E6
330
1734F
100
AcDbEntity
  8
DEFPOINTS
 62
     0
 48
50.0
100
AcDbPoint
 10
4863.508695149642
 20
4383.694218014616
 30
0.0
  0
POINT
  5
181E7
330
1734F
100
AcDbEntity
  8
DEFPOINTS
 62
     0
 48
50.0
100
AcDbPoint
 10
4813.508695149642
 20
4383.694218014614
 30
0.0
  0
POINT
  5
181E8
330
1734F
100
AcDbEntity
  8
DEFPOINTS
 62
     0
 48
50.0
100
AcDbPoint
 10
4813.508695149642
 20
4788.314477441883
 30
0.0
  0
ENDBLK
  5
1735C
330
1734F
100
AcDbEntity
  8
0
 48
50.0
100
AcDbBlockEnd
  0
BLOCK
  5
17367
330
1735D
100
AcDbEntity
  8
0
 48
50.0
100
AcDbBlockBegin
  2
*D11
 70
     1
 10
0.0
 20
0.0
 30
0.0
  3
*D11
  1

  0
LINE
  5
181D5
330
1735D
100
AcDbEntity
  8
寸法
 62
     0
 48
50.0
370
    -2
100
AcDbLine
 10
4813.508695149642
 20
4403.694218014614
 30
0.0
 11
4813.508695149642
 21
5057.908351863335
 31
0.0
  0
LINE
  5
181D6
330
1735D
100
AcDbEntity
  8
寸法
 62
     0
 48
50.0
370
    -2
100
AcDbLine
 10
7543.508695149641
 20
4403.694218014613
 30
0.0
 11
7543.508695149641
 21
5057.908351863335
 31
0.0
  0
LINE
  5
181D7
330
1735D
100
AcDbEntity
  8
寸法
 62
     0
 48
50.0
370
    -2
100
AcDbLine
 10
4813.508695149642
 20
4997.908351863334
 30
0.0
 11
7543.508695149641
 21
4997.908351863334
 31
0.0
  0
INSERT
  5
181D8
330
1735D
100
AcDbEntity
  8
寸法
 62
     0
 48
50.0
370
    -2
100
AcDbBlockReference
  2
_DOTSMALL
 10
4813.508695149642
 20
4997.908351863334
 30
0.0
 41
100.0
 42
100.0
 43
100.0
 50
180.0
  0
INSERT
  5
181D9
330
1735D
100
AcDbEntity
  8
寸法
 62
     0
 48
50.0
370
    -2
100
AcDbBlockReference
  2
_DOTSMALL
 10
7543.508695149641
 20
4997.908351863334
 30
0.0
 41
100.0
 42
100.0
 43
100.0
  0
MTEXT
  5
181DA
330
1735D
100
AcDbEntity
  8
寸法
 62
     7
 48
50.0
100
AcDbMText
 10
6178.508695149641
 20
5097.920162886956
 30
0.0
 40
120.0
 41
0.0
 71
     5
 72
     1
  1
\A1;2730
  7
STYLE1
 73
     1
 44
1.0
1001
ACAD
1000
MTEXTBEGIN
1070
    73
1070
     1
1070
    44
1040
1.0
1070
    74
1070
     0
1000
MTEXTEND
  0
POINT
  5
181DB
330
1735D
100
AcDbEntity
  8
DEFPOINTS
 62
     0
 48
50.0
100
AcDbPoint
 10
4813.508695149642
 20
4383.694218014614
 30
0.0
  0
POINT
  5
181DC
330
1735D
100
AcDbEntity
  8
DEFPOINTS
 62
     0
 48
50.0
100
AcDbPoint
 10
7543.508695149641
 20
4383.694218014612
 30
0.0
  0
POINT
  5
181DD
330
1735D
100
AcDbEntity
  8
DEFPOINTS
 62
     0
 48
50.0
100
AcDbPoint
 10
7543.508695149641
 20
4997.908351863334
 30
0.0
  0
ENDBLK
  5
17368
330
1735D
100
AcDbEntity
  8
0
 48
50.0
100
AcDbBlockEnd
  0
BLOCK
  5
1738B
330
17381
100
AcDbEntity
  8
0
 48
50.0
100
AcDbBlockBegin
  2
*D12
 70
     1
 10
0.0
 20
0.0
 30
0.0
  3
*D12
  1

  0
LINE
  5
181CC
330
17381
100
AcDbEntity
  8
寸法
 62
     0
 48
50.0
370
    -2
100
AcDbLine
 10
10975.6057244869
 20
2308.694218014612
 30
0.0
 11
11550.77582024933
 21
2308.694218014611
 31
0.0
  0
LINE
  5
181CD
330
17381
100
AcDbEntity
  8
寸法
 62
     0
 48
50.0
370
    -2
100
AcDbLine
 10
11055.60572448688
 20
4328.694218014613
 30
0.0
 11
11550.77582024933
 21
4328.694218014613
 31
0.0
  0
LINE
  5
181CE
330
17381
100
AcDbEntity
  8
寸法
 62
     0
 48
50.0
370
    -2
100
AcDbLine
 10
11490.77582024933
 20
2308.694218014611
 30
0.0
 11
11490.77582024933
 21
4328.694218014613
 31
0.0
  0
INSERT
  5
181CF
330
17381
100
AcDbEntity
  8
寸法
 62
     0
 48
50.0
370
    -2
100
AcDbBlockReference
  2
_DOTSMALL
 10
11490.77582024933
 20
2308.694218014611
 30
0.0
 41
100.0
 42
100.0
 43
100.0
 50
270.0
  0
INSERT
  5
181D0
330
17381
100
AcDbEntity
  8
寸法
 62
     0
 48
50.0
370
    -2
100
AcDbBlockReference
  2
_DOTSMALL
 10
11490.77582024933
 20
4328.694218014613
 30
0.0
 41
100.0
 42
100.0
 43
100.0
 50
90.0
  0
MTEXT
  5
181D1
330
17381
100
AcDbEntity
  8
寸法
 62
     7
 48
50.0
100
AcDbMText
 10
11390.7640092257
 20
3290.9505454443
 30
0.0
 40
120.0
 41
0.0
 71
     5
 72
     1
  1
\A1;2020
  7
STYLE1
 11
0.0000000000000001
 21
1.0
 31
0.0
 73
     1
 44
1.0
1001
ACAD
1000
MTEXTBEGIN
1070
    73
1070
     1
1070
    44
1040
1.0
1070
    74
1070
     0
1000
MTEXTEND
  0
POINT
  5
181D2
330
17381
100
AcDbEntity
  8
DEFPOINTS
 62
     0
 48
50.0
100
AcDbPoint
 10
10955.6057244869
 20
2308.694218014612
 30
0.0
  0
POINT
  5
181D3
330
17381
100
AcDbEntity
  8
DEFPOINTS
 62
     0
 48
50.0
100
AcDbPoint
 10
11035.60572448688
 20
4328.694218014613
 30
0.0
  0
POINT
  5
181D4
330
17381
100
AcDbEntity
  8
DEFPOINTS
 62
     0
 48
50.0
100
AcDbPoint
 10
11490.77582024933
 20
4328.694218014613
 30
0.0
  0
ENDBLK
  5
1738C
330
17381
100
AcDbEntity
  8
0
 48
50.0
100
AcDbBlockEnd
  0
BLOCK
  5
17399
330
1738D
100
AcDbEntity
  8
0
 48
50.0
100
AcDbBlockBegin
  2
*D13
 70
     1
 10
0.0
 20
0.0
 30
0.0
  3
*D13
  1

  0
LINE
  5
181C1
330
1738D
100
AcDbEntity
  8
寸法
 62
     0
 48
50.0
370
    -2
100
AcDbLine
 10
9565.605724486886
 20
2358.694218014612
 30
0.0
 11
8901.953015328588
 21
2358.694218014612
 31
0.0
  0
LINE
  5
181C2
330
1738D
100
AcDbEntity
  8
寸法
 62
     0
 48
50.0
370
    -2
100
AcDbLine
 10
9510.605724486886
 20
2308.694218014612
 30
0.0
 11
8901.953015328588
 21
2308.694218014612
 31
0.0
  0
LINE
  5
181C3
330
1738D
100
AcDbEntity
  8
寸法
 62
     0
 48
50.0
370
    -2
100
AcDbLine
 10
8961.953015328589
 20
2358.694218014612
 30
0.0
 11
8961.953015328589
 21
2458.694218014612
 31
0.0
  0
LINE
  5
181C4
330
1738D
100
AcDbEntity
  8
寸法
 62
     0
 48
50.0
370
    -2
100
AcDbLine
 10
8961.953015328589
 20
2308.694218014612
 30
0.0
 11
8961.953015328589
 21
1896.599729825631
 31
0.0
  0
LINE
  5
181C5
330
1738D
100
AcDbEntity
  8
寸法
 62
     0
 48
50.0
370
    -2
100
AcDbLine
 10
8961.953015328589
 20
2358.694218014612
 30
0.0
 11
8961.953015328589
 21
2308.694218014612
 31
0.0
  0
INSERT
  5
181C6
330
1738D
100
AcDbEntity
  8
寸法
 62
     0
 48
50.0
370
    -2
100
AcDbBlockReference
  2
_DOTSMALL
 10
8961.953015328589
 20
2358.694218014612
 30
0.0
 41
100.0
 42
100.0
 43
100.0
 50
270.0
  0
INSERT
  5
181C7
330
1738D
100
AcDbEntity
  8
寸法
 62
     0
 48
50.0
370
    -2
100
AcDbBlockReference
  2
_DOTSMALL
 10
8961.953015328589
 20
2308.694218014612
 30
0.0
 41
100.0
 42
100.0
 43
100.0
 50
90.0
  0
MTEXT
  5
181C8
330
1738D
100
AcDbEntity
  8
寸法
 62
     7
 48
50.0
100
AcDbMText
 10
8861.953015328589
 20
2002.646973920121
 30
0.0
 40
120.0
 41
0.0
 71
     5
 72
     1
  1
\A1;50
  7
STYLE1
 11
0.0000000000000001
 21
1.0
 31
0.0
 73
     1
 44
1.0
1001
ACAD
1000
MTEXTBEGIN
1070
    73
1070
     1
1070
    44
1040
1.0
1070
    74
1070
     0
1000
MTEXTEND
  0
POINT
  5
181C9
330
1738D
100
AcDbEntity
  8
DEFPOINTS
 62
     0
 48
50.0
100
AcDbPoint
 10
9585.605724486887
 20
2358.694218014612
 30
0.0
  0
POINT
  5
181CA
330
1738D
100
AcDbEntity
  8
DEFPOINTS
 62
     0
 48
50.0
100
AcDbPoint
 10
9530.605724486887
 20
2308.694218014612
 30
0.0
  0
POINT
  5
181CB
330
1738D
100
AcDbEntity
  8
DEFPOINTS
 62
     0
 48
50.0
100
AcDbPoint
 10
8961.953015328589
 20
2308.694218014612
 30
0.0
  0
ENDBLK
  5
1739A
330
1738D
100
AcDbEntity
  8
0
 48
50.0
100
AcDbBlockEnd
  0
BLOCK
  5
173A6
330
1739B
100
AcDbEntity
  8
0
 48
50.0
100
AcDbBlockBegin
  2
*D14
 70
     1
 10
0.0
 20
0.0
 30
0.0
  3
*D14
  1

  0
LINE
  5
181B7
330
1739B
100
AcDbEntity
  8
寸法
 62
     0
 48
50.0
370
    -2
100
AcDbLine
 10
9510.605724486886
 20
2308.694218014612
 30
0.0
 11
8616.966342557528
 21
2308.694218014612
 31
0.0
  0
LINE
  5
181B8
330
1739B
100
AcDbEntity
  8
寸法
 62
     0
 48
50.0
370
    -2
100
AcDbLine
 10
8941.953015328589
 20
2208.694218014612
 30
0.0
 11
8616.966342557528
 21
2208.694218014612
 31
0.0
  0
LINE
  5
181B9
330
1739B
100
AcDbEntity
  8
寸法
 62
     0
 48
50.0
370
    -2
100
AcDbLine
 10
8676.966342557527
 20
2308.694218014612
 30
0.0
 11
8676.966342557527
 21
2208.694218014612
 31
0.0
  0
LINE
  5
181BA
330
1739B
100
AcDbEntity
  8
寸法
 62
     0
 48
50.0
370
    -2
100
AcDbLine
 10
8676.966342557527
 20
2208.694218014612
 30
0.0
 11
8676.966342557527
 21
1836.599729825631
 31
0.0
  0
INSERT
  5
181BB
330
1739B
100
AcDbEntity
  8
寸法
 62
     0
 48
50.0
370
    -2
100
AcDbBlockReference
  2
_DOTSMALL
 10
8676.966342557527
 20
2308.694218014612
 30
0.0
 41
100.0
 42
100.0
 43
100.0
 50
90.0
  0
INSERT
  5
181BC
330
1739B
100
AcDbEntity
  8
寸法
 62
     0
 48
50.0
370
    -2
100
AcDbBlockReference
  2
_DOTSMALL
 10
8676.966342557527
 20
2208.694218014612
 30
0.0
 41
100.0
 42
100.0
 43
100.0
 50
270.0
  0
MTEXT
  5
181BD
330
1739B
100
AcDbEntity
  8
寸法
 62
     7
 48
50.0
100
AcDbMText
 10
8576.966342557527
 20
1972.64697392012
 30
0.0
 40
120.0
 41
0.0
 71
     5
 72
     1
  1
\A1;100
  7
STYLE1
 11
0.0000000000000001
 21
1.0
 31
0.0
 73
     1
 44
1.0
1001
ACAD
1000
MTEXTBEGIN
1070
    73
1070
     1
1070
    44
1040
1.0
1070
    74
1070
     0
1000
MTEXTEND
  0
POINT
  5
181BE
330
1739B
100
AcDbEntity
  8
DEFPOINTS
 62
     0
 48
50.0
100
AcDbPoint
 10
9530.605724486887
 20
2308.694218014612
 30
0.0
  0
POINT
  5
181BF
330
1739B
100
AcDbEntity
  8
DEFPOINTS
 62
     0
 48
50.0
100
AcDbPoint
 10
8961.953015328589
 20
2208.694218014612
 30
0.0
  0
POINT
  5
181C0
330
1739B
100
AcDbEntity
  8
DEFPOINTS
 62
     0
 48
50.0
100
AcDbPoint
 10
8676.966342557527
 20
2208.694218014612
 30
0.0
  0
ENDBLK
  5
173A7
330
1739B
100
AcDbEntity
  8
0
 48
50.0
100
AcDbBlockEnd
  0
BLOCK
  5
173B2
330
173A8
100
AcDbEntity
  8
0
 48
50.0
100
AcDbBlockBegin
  2
*D15
 70
     1
 10
0.0
 20
0.0
 30
0.0
  3
*D15
  1

  0
LINE
  5
181AE
330
173A8
100
AcDbEntity
  8
寸法
 62
     0
 48
50.0
370
    -2
100
AcDbLine
 10
9565.605724486886
 20
2308.694218014612
 30
0.0
 11
8616.966342557528
 21
2308.694218014612
 31
0.0
  0
LINE
  5
181AF
330
173A8
100
AcDbEntity
  8
寸法
 62
     0
 48
50.0
370
    -2
100
AcDbLine
 10
9505.605724486887
 20
4383.694218014616
 30
0.0
 11
8616.96634255753
 21
4383.694218014616
 31
0.0
  0
LINE
  5
181B0
330
173A8
100
AcDbEntity
  8
寸法
 62
     0
 48
50.0
370
    -2
100
AcDbLine
 10
8676.966342557527
 20
2308.694218014612
 30
0.0
 11
8676.966342557529
 21
4383.694218014616
 31
0.0
  0
INSERT
  5
181B1
330
173A8
100
AcDbEntity
  8
寸法
 62
     0
 48
50.0
370
    -2
100
AcDbBlockReference
  2
_DOTSMALL
 10
8676.966342557527
 20
2308.694218014612
 30
0.0
 41
100.0
 42
100.0
 43
100.0
 50
270.0
  0
INSERT
  5
181B2
330
173A8
100
AcDbEntity
  8
寸法
 62
     0
 48
50.0
370
    -2
100
AcDbBlockReference
  2
_DOTSMALL
 10
8676.966342557529
 20
4383.694218014616
 30
0.0
 41
100.0
 42
100.0
 43
100.0
 50
90.0
  0
MTEXT
  5
181B3
330
173A8
100
AcDbEntity
  8
寸法
 62
     7
 48
50.0
100
AcDbMText
 10
8576.954531533905
 20
3302.900095507722
 30
0.0
 40
120.0
 41
0.0
 71
     5
 72
     1
  1
\A1;2075
  7
STYLE1
 11
0.0000000000000001
 21
1.0
 31
0.0
 73
     1
 44
1.0
1001
ACAD
1000
MTEXTBEGIN
1070
    73
1070
     1
1070
    44
1040
1.0
1070
    74
1070
     0
1000
MTEXTEND
  0
POINT
  5
181B4
330
173A8
100
AcDbEntity
  8
DEFPOINTS
 62
     0
 48
50.0
100
AcDbPoint
 10
9585.605724486887
 20
2308.694218014612
 30
0.0
  0
POINT
  5
181B5
330
173A8
100
AcDbEntity
  8
DEFPOINTS
 62
     0
 48
50.0
100
AcDbPoint
 10
9525.605724486887
 20
4383.694218014616
 30
0.0
  0
POINT
  5
181B6
330
173A8
100
AcDbEntity
  8
DEFPOINTS
 62
     0
 48
50.0
100
AcDbPoint
 10
8676.966342557529
 20
4383.694218014616
 30
0.0
  0
ENDBLK
  5
173B3
330
173A8
100
AcDbEntity
  8
0
 48
50.0
100
AcDbBlockEnd
  0
BLOCK
  5
173BE
330
173B4
100
AcDbEntity
  8
0
 48
50.0
100
AcDbBlockBegin
  2
*D16
 70
     1
 10
0.0
 20
0.0
 30
0.0
  3
*D16
  1

  0
LINE
  5
181A5
330
173B4
100
AcDbEntity
  8
寸法
 62
     0
 48
50.0
370
    -2
100
AcDbLine
 10
9565.605724486886
 20
4148.694218014611
 30
0.0
 11
8901.953015328592
 21
4148.694218014611
 31
0.0
  0
LINE
  5
181A6
330
173B4
100
AcDbEntity
  8
寸法
 62
     0
 48
50.0
370
    -2
100
AcDbLine
 10
9565.605724486886
 20
2358.694218014612
 30
0.0
 11
8901.953015328588
 21
2358.694218014612
 31
0.0
  0
LINE
  5
181A7
330
173B4
100
AcDbEntity
  8
寸法
 62
     0
 48
50.0
370
    -2
100
AcDbLine
 10
8961.953015328591
 20
4148.694218014611
 30
0.0
 11
8961.953015328589
 21
2358.694218014612
 31
0.0
  0
INSERT
  5
181A8
330
173B4
100
AcDbEntity
  8
寸法
 62
     0
 48
50.0
370
    -2
100
AcDbBlockReference
  2
_DOTSMALL
 10
8961.953015328591
 20
4148.694218014611
 30
0.0
 41
100.0
 42
100.0
 43
100.0
 50
90.0
  0
INSERT
  5
181A9
330
173B4
100
AcDbEntity
  8
寸法
 62
     0
 48
50.0
370
    -2
100
AcDbBlockReference
  2
_DOTSMALL
 10
8961.953015328589
 20
2358.694218014612
 30
0.0
 41
100.0
 42
100.0
 43
100.0
 50
270.0
  0
MTEXT
  5
181AA
330
173B4
100
AcDbEntity
  8
寸法
 62
     7
 48
50.0
100
AcDbMText
 10
8861.953015328589
 20
3249.148516556569
 30
0.0
 40
120.0
 41
0.0
 71
     5
 72
     1
  1
\A1;1790
  7
STYLE1
 11
0.0000000000000001
 21
1.0
 31
0.0
 73
     1
 44
1.0
1001
ACAD
1000
MTEXTBEGIN
1070
    73
1070
     1
1070
    44
1040
1.0
1070
    74
1070
     0
1000
MTEXTEND
  0
POINT
  5
181AB
330
173B4
100
AcDbEntity
  8
DEFPOINTS
 62
     0
 48
50.0
100
AcDbPoint
 10
9585.605724486887
 20
4148.694218014611
 30
0.0
  0
POINT
  5
181AC
330
173B4
100
AcDbEntity
  8
DEFPOINTS
 62
     0
 48
50.0
100
AcDbPoint
 10
9585.605724486887
 20
2358.694218014612
 30
0.0
  0
POINT
  5
181AD
330
173B4
100
AcDbEntity
  8
DEFPOINTS
 62
     0
 48
50.0
100
AcDbPoint
 10
8961.953015328589
 20
2358.694218014612
 30
0.0
  0
ENDBLK
  5
173BF
330
173B4
100
AcDbEntity
  8
0
 48
50.0
100
AcDbBlockEnd
  0
BLOCK
  5
17D92
330
17D88
100
AcDbEntity
  8
0
 48
50.0
100
AcDbBlockBegin
  2
*D17
 70
     1
 10
0.0
 20
0.0
 30
0.0
  3
*D17
  1

  0
LINE
  5
18163
330
17D88
100
AcDbEntity
  8
寸法
 62
     0
 48
50.0
370
    -2
100
AcDbLine
 10
4991.008695149641
 20
1988.694218014608
 30
0.0
 11
4991.008695149641
 21
1662.646888714232
 31
0.0
  0
LINE
  5
18164
330
17D88
100
AcDbEntity
  8
寸法
 62
     0
 48
50.0
370
    -2
100
AcDbLine
 10
4791.008695149641
 20
1988.694218014609
 30
0.0
 11
4791.008695149641
 21
1662.646888714232
 31
0.0
  0
LINE
  5
18165
330
17D88
100
AcDbEntity
  8
寸法
 62
     0
 48
50.0
370
    -2
100
AcDbLine
 10
4991.008695149641
 20
1722.646888714232
 30
0.0
 11
4791.008695149641
 21
1722.646888714232
 31
0.0
  0
INSERT
  5
18166
330
17D88
100
AcDbEntity
  8
寸法
 62
     0
 48
50.0
370
    -2
100
AcDbBlockReference
  2
_DOTSMALL
 10
4991.008695149641
 20
1722.646888714232
 30
0.0
 41
100.0
 42
100.0
 43
100.0
  0
INSERT
  5
18167
330
17D88
100
AcDbEntity
  8
寸法
 62
     0
 48
50.0
370
    -2
100
AcDbBlockReference
  2
_DOTSMALL
 10
4791.008695149641
 20
1722.646888714232
 30
0.0
 41
100.0
 42
100.0
 43
100.0
 50
180.0
  0
MTEXT
  5
18168
330
17D88
100
AcDbEntity
  8
寸法
 62
     7
 48
50.0
100
AcDbMText
 10
4891.008695149642
 20
1822.658699737854
 30
0.0
 40
120.0
 41
0.0
 71
     5
 72
     1
  1
\A1;200
  7
STYLE1
 73
     1
 44
1.0
1001
ACAD
1000
MTEXTBEGIN
1070
    73
1070
     1
1070
    44
1040
1.0
1070
    74
1070
     0
1000
MTEXTEND
  0
POINT
  5
18169
330
17D88
100
AcDbEntity
  8
DEFPOINTS
 62
     0
 48
50.0
100
AcDbPoint
 10
4991.008695149641
 20
2008.694218014608
 30
0.0
  0
POINT
  5
1816A
330
17D88
100
AcDbEntity
  8
DEFPOINTS
 62
     0
 48
50.0
100
AcDbPoint
 10
4791.008695149641
 20
2008.69421801461
 30
0.0
  0
POINT
  5
1816B
330
17D88
100
AcDbEntity
  8
DEFPOINTS
 62
     0
 48
50.0
100
AcDbPoint
 10
4791.008695149641
 20
1722.646888714232
 30
0.0
  0
ENDBLK
  5
17D93
330
17D88
100
AcDbEntity
  8
0
 48
50.0
100
AcDbBlockEnd
  0
BLOCK
  5
17D9E
330
17D94
100
AcDbEntity
  8
0
 48
50.0
100
AcDbBlockBegin
  2
*D18
 70
     1
 10
0.0
 20
0.0
 30
0.0
  3
*D18
  1

  0
LINE
  5
1815A
330
17D94
100
AcDbEntity
  8
寸法
 62
     0
 48
50.0
370
    -2
100
AcDbLine
 10
4771.008695149641
 20
2008.69421801461
 30
0.0
 11
4581.508691903007
 21
2008.69421801461
 31
0.0
  0
LINE
  5
1815B
330
17D94
100
AcDbEntity
  8
寸法
 62
     0
 48
50.0
370
    -2
100
AcDbLine
 10
4746.008695149641
 20
2208.69421801461
 30
0.0
 11
4581.508691903008
 21
2208.69421801461
 31
0.0
  0
LINE
  5
1815C
330
17D94
100
AcDbEntity
  8
寸法
 62
     0
 48
50.0
370
    -2
100
AcDbLine
 10
4641.508691903007
 20
2008.69421801461
 30
0.0
 11
4641.508691903008
 21
2208.69421801461
 31
0.0
  0
INSERT
  5
1815D
330
17D94
100
AcDbEntity
  8
寸法
 62
     0
 48
50.0
370
    -2
100
AcDbBlockReference
  2
_DOTSMALL
 10
4641.508691903007
 20
2008.69421801461
 30
0.0
 41
100.0
 42
100.0
 43
100.0
 50
270.0
  0
INSERT
  5
1815E
330
17D94
100
AcDbEntity
  8
寸法
 62
     0
 48
50.0
370
    -2
100
AcDbBlockReference
  2
_DOTSMALL
 10
4641.508691903008
 20
2208.69421801461
 30
0.0
 41
100.0
 42
100.0
 43
100.0
 50
90.0
  0
MTEXT
  5
1815F
330
17D94
100
AcDbEntity
  8
寸法
 62
     7
 48
50.0
100
AcDbMText
 10
4541.496880879385
 20
2108.69421801461
 30
0.0
 40
120.0
 41
0.0
 71
     5
 72
     1
  1
\A1;200
  7
STYLE1
 11
0.0000000000000001
 21
1.0
 31
0.0
 73
     1
 44
1.0
1001
ACAD
1000
MTEXTBEGIN
1070
    73
1070
     1
1070
    44
1040
1.0
1070
    74
1070
     0
1000
MTEXTEND
  0
POINT
  5
18160
330
17D94
100
AcDbEntity
  8
DEFPOINTS
 62
     0
 48
50.0
100
AcDbPoint
 10
4791.008695149641
 20
2008.69421801461
 30
0.0
  0
POINT
  5
18161
330
17D94
100
AcDbEntity
  8
DEFPOINTS
 62
     0
 48
50.0
100
AcDbPoint
 10
4766.008695149642
 20
2208.69421801461
 30
0.0
  0
POINT
  5
18162
330
17D94
100
AcDbEntity
  8
DEFPOINTS
 62
     0
 48
50.0
100
AcDbPoint
 10
4641.508691903008
 20
2208.69421801461
 30
0.0
  0
ENDBLK
  5
17D9F
330
17D94
100
AcDbEntity
  8
0
 48
50.0
100
AcDbBlockEnd
  0
BLOCK
  5
17E12
330
17E06
100
AcDbEntity
  8
0
 48
50.0
100
AcDbBlockBegin
  2
*D19
 70
     1
 10
0.0
 20
0.0
 30
0.0
  3
*D19
  1

  0
LINE
  5
18824
330
17E06
100
AcDbEntity
  8
寸法
 62
     0
 48
50.0
370
    -2
100
AcDbLine
 10
10975.60572448679
 20
7365.02495901218
 30
0.0
 11
11663.0320702212
 21
7365.02495901218
 31
0.0
  0
LINE
  5
18825
330
17E06
100
AcDbEntity
  8
寸法
 62
     0
 48
50.0
370
    -2
100
AcDbLine
 10
10975.60572448679
 20
7310.024959012183
 30
0.0
 11
11663.0320702212
 21
7310.024959012183
 31
0.0
  0
LINE
  5
18826
330
17E06
100
AcDbEntity
  8
寸法
 62
     0
 48
50.0
370
    -2
100
AcDbLine
 10
11603.0320702212
 20
7365.02495901218
 30
0.0
 11
11603.0320702212
 21
7465.02495901218
 31
0.0
  0
LINE
  5
18827
330
17E06
100
AcDbEntity
  8
寸法
 62
     0
 48
50.0
370
    -2
100
AcDbLine
 10
11603.0320702212
 20
7310.024959012183
 30
0.0
 11
11603.0320702212
 21
6893.054396263702
 31
0.0
  0
LINE
  5
18828
330
17E06
100
AcDbEntity
  8
寸法
 62
     0
 48
50.0
370
    -2
100
AcDbLine
 10
11603.0320702212
 20
7365.02495901218
 30
0.0
 11
11603.0320702212
 21
7310.024959012183
 31
0.0
  0
INSERT
  5
18829
330
17E06
100
AcDbEntity
  8
寸法
 62
     0
 48
50.0
370
    -2
100
AcDbBlockReference
  2
_DOTSMALL
 10
11603.0320702212
 20
7365.02495901218
 30
0.0
 41
100.0
 42
100.0
 43
100.0
 50
270.0
  0
INSERT
  5
1882A
330
17E06
100
AcDbEntity
  8
寸法
 62
     0
 48
50.0
370
    -2
100
AcDbBlockReference
  2
_DOTSMALL
 10
11603.0320702212
 20
7310.024959012183
 30
0.0
 41
100.0
 42
100.0
 43
100.0
 50
90.0
  0
MTEXT
  5
1882B
330
17E06
100
AcDbEntity
  8
寸法
 62
     7
 48
50.0
100
AcDbMText
 10
11503.0320702212
 20
7001.539677637942
 30
0.0
 40
120.0
 41
0.0
 71
     5
 72
     1
  1
\A1;55
  7
STYLE1
 11
0.0000000000000001
 21
1.0
 31
0.0
 73
     1
 44
1.0
1001
ACAD
1000
MTEXTBEGIN
1070
    73
1070
     1
1070
    44
1040
1.0
1070
    74
1070
     0
1000
MTEXTEND
  0
POINT
  5
1882C
330
17E06
100
AcDbEntity
  8
DEFPOINTS
 62
     0
 48
50.0
100
AcDbPoint
 10
10955.60572448679
 20
7365.02495901218
 30
0.0
  0
POINT
  5
1882D
330
17E06
100
AcDbEntity
  8
DEFPOINTS
 62
     0
 48
50.0
100
AcDbPoint
 10
10955.60572448679
 20
7310.024959012183
 30
0.0
  0
POINT
  5
1882E
330
17E06
100
AcDbEntity
  8
DEFPOINTS
 62
     0
 48
50.0
100
AcDbPoint
 10
11603.0320702212
 20
7310.024959012183
 30
0.0
  0
ENDBLK
  5
17E13
330
17E06
100
AcDbEntity
  8
0
 48
50.0
100
AcDbBlockEnd
  0
BLOCK
  5
17E1E
330
17E14
100
AcDbEntity
  8
0
 48
50.0
100
AcDbBlockBegin
  2
*D20
 70
     1
 10
0.0
 20
0.0
 30
0.0
  3
*D20
  1

  0
LINE
  5
1881B
330
17E14
100
AcDbEntity
  8
寸法
 62
     0
 48
50.0
370
    -2
100
AcDbLine
 10
10975.60572448682
 20
9940.024959012193
 30
0.0
 11
11931.4706015217
 21
9940.024959012193
 31
0.0
  0
LINE
  5
1881C
330
17E14
100
AcDbEntity
  8
寸法
 62
     0
 48
50.0
370
    -2
100
AcDbLine
 10
10975.60572448679
 20
7310.024959012183
 30
0.0
 11
11931.4706015217
 21
7310.024959012183
 31
0.0
  0
LINE
  5
1881D
330
17E14
100
AcDbEntity
  8
寸法
 62
     0
 48
50.0
370
    -2
100
AcDbLine
 10
11871.4706015217
 20
9940.024959012193
 30
0.0
 11
11871.4706015217
 21
7310.024959012183
 31
0.0
  0
INSERT
  5
1881E
330
17E14
100
AcDbEntity
  8
寸法
 62
     0
 48
50.0
370
    -2
100
AcDbBlockReference
  2
_DOTSMALL
 10
11871.4706015217
 20
9940.024959012193
 30
0.0
 41
100.0
 42
100.0
 43
100.0
 50
90.0
  0
INSERT
  5
1881F
330
17E14
100
AcDbEntity
  8
寸法
 62
     0
 48
50.0
370
    -2
100
AcDbBlockReference
  2
_DOTSMALL
 10
11871.4706015217
 20
7310.024959012183
 30
0.0
 41
100.0
 42
100.0
 43
100.0
 50
270.0
  0
MTEXT
  5
18820
330
17E14
100
AcDbEntity
  8
寸法
 62
     7
 48
50.0
100
AcDbMText
 10
11771.45879049808
 20
8625.02495901219
 30
0.0
 40
120.0
 41
0.0
 71
     5
 72
     1
  1
\A1;2630
  7
STYLE1
 11
0.0000000000000001
 21
1.0
 31
0.0
 73
     1
 44
1.0
1001
ACAD
1000
MTEXTBEGIN
1070
    73
1070
     1
1070
    44
1040
1.0
1070
    74
1070
     0
1000
MTEXTEND
  0
POINT
  5
18821
330
17E14
100
AcDbEntity
  8
DEFPOINTS
 62
     0
 48
50.0
100
AcDbPoint
 10
10955.60572448682
 20
9940.024959012193
 30
0.0
  0
POINT
  5
18822
330
17E14
100
AcDbEntity
  8
DEFPOINTS
 62
     0
 48
50.0
100
AcDbPoint
 10
10955.60572448679
 20
7310.024959012183
 30
0.0
  0
POINT
  5
18823
330
17E14
100
AcDbEntity
  8
DEFPOINTS
 62
     0
 48
50.0
100
AcDbPoint
 10
11871.4706015217
 20
7310.024959012183
 30
0.0
  0
ENDBLK
  5
17E1F
330
17E14
100
AcDbEntity
  8
0
 48
50.0
100
AcDbBlockEnd
  0
BLOCK
  5
17E2C
330
17E20
100
AcDbEntity
  8
0
 48
50.0
100
AcDbBlockBegin
  2
*D21
 70
     1
 10
0.0
 20
0.0
 30
0.0
  3
*D21
  1

  0
LINE
  5
18810
330
17E20
100
AcDbEntity
  8
寸法
 62
     0
 48
50.0
370
    -2
100
AcDbLine
 10
10975.60572448682
 20
9940.024959012193
 30
0.0
 11
11663.03207022123
 21
9940.024959012193
 31
0.0
  0
LINE
  5
18811
330
17E20
100
AcDbEntity
  8
寸法
 62
     0
 48
50.0
370
    -2
100
AcDbLine
 10
10975.60572448682
 20
9885.024959012197
 30
0.0
 11
11663.03207022123
 21
9885.024959012197
 31
0.0
  0
LINE
  5
18812
330
17E20
100
AcDbEntity
  8
寸法
 62
     0
 48
50.0
370
    -2
100
AcDbLine
 10
11603.03207022123
 20
9885.024959012197
 30
0.0
 11
11603.03207022123
 21
9785.024959012197
 31
0.0
  0
LINE
  5
18813
330
17E20
100
AcDbEntity
  8
寸法
 62
     0
 48
50.0
370
    -2
100
AcDbLine
 10
11603.03207022123
 20
9940.024959012193
 30
0.0
 11
11603.03207022123
 21
10356.99552176067
 31
0.0
  0
LINE
  5
18814
330
17E20
100
AcDbEntity
  8
寸法
 62
     0
 48
50.0
370
    -2
100
AcDbLine
 10
11603.03207022123
 20
9885.024959012197
 30
0.0
 11
11603.03207022123
 21
9940.024959012193
 31
0.0
  0
INSERT
  5
18815
330
17E20
100
AcDbEntity
  8
寸法
 62
     0
 48
50.0
370
    -2
100
AcDbBlockReference
  2
_DOTSMALL
 10
11603.03207022123
 20
9885.024959012197
 30
0.0
 41
100.0
 42
100.0
 43
100.0
 50
90.0
  0
INSERT
  5
18816
330
17E20
100
AcDbEntity
  8
寸法
 62
     0
 48
50.0
370
    -2
100
AcDbBlockReference
  2
_DOTSMALL
 10
11603.03207022123
 20
9940.024959012193
 30
0.0
 41
100.0
 42
100.0
 43
100.0
 50
270.0
  0
MTEXT
  5
18817
330
17E20
100
AcDbEntity
  8
寸法
 62
     7
 48
50.0
100
AcDbMText
 10
11503.03207022123
 20
10248.51024038643
 30
0.0
 40
120.0
 41
0.0
 71
     5
 72
     1
  1
\A1;55
  7
STYLE1
 11
0.0000000000000001
 21
1.0
 31
0.0
 73
     1
 44
1.0
1001
ACAD
1000
MTEXTBEGIN
1070
    73
1070
     1
1070
    44
1040
1.0
1070
    74
1070
     0
1000
MTEXTEND
  0
POINT
  5
18818
330
17E20
100
AcDbEntity
  8
DEFPOINTS
 62
     0
 48
50.0
100
AcDbPoint
 10
10955.60572448682
 20
9940.024959012193
 30
0.0
  0
POINT
  5
18819
330
17E20
100
AcDbEntity
  8
DEFPOINTS
 62
     0
 48
50.0
100
AcDbPoint
 10
10955.60572448682
 20
9885.024959012197
 30
0.0
  0
POINT
  5
1881A
330
17E20
100
AcDbEntity
  8
DEFPOINTS
 62
     0
 48
50.0
100
AcDbPoint
 10
11603.03207022123
 20
9885.024959012197
 30
0.0
  0
ENDBLK
  5
17E2D
330
17E20
100
AcDbEntity
  8
0
 48
50.0
100
AcDbBlockEnd
  0
BLOCK
  5
17E38
330
17E2E
100
AcDbEntity
  8
0
 48
50.0
100
AcDbBlockBegin
  2
*D22
 70
     1
 10
0.0
 20
0.0
 30
0.0
  3
*D22
  1

  0
LINE
  5
18807
330
17E2E
100
AcDbEntity
  8
寸法
 62
     0
 48
50.0
370
    -2
100
AcDbLine
 10
10975.60572448682
 20
9885.024959012197
 30
0.0
 11
11663.03207022123
 21
9885.024959012197
 31
0.0
  0
LINE
  5
18808
330
17E2E
100
AcDbEntity
  8
寸法
 62
     0
 48
50.0
370
    -2
100
AcDbLine
 10
10975.60572448679
 20
7365.02495901218
 30
0.0
 11
11663.03207022123
 21
7365.02495901218
 31
0.0
  0
LINE
  5
18809
330
17E2E
100
AcDbEntity
  8
寸法
 62
     0
 48
50.0
370
    -2
100
AcDbLine
 10
11603.03207022123
 20
9885.024959012197
 30
0.0
 11
11603.03207022123
 21
7365.02495901218
 31
0.0
  0
INSERT
  5
1880A
330
17E2E
100
AcDbEntity
  8
寸法
 62
     0
 48
50.0
370
    -2
100
AcDbBlockReference
  2
_DOTSMALL
 10
11603.03207022123
 20
9885.024959012197
 30
0.0
 41
100.0
 42
100.0
 43
100.0
 50
90.0
  0
INSERT
  5
1880B
330
17E2E
100
AcDbEntity
  8
寸法
 62
     0
 48
50.0
370
    -2
100
AcDbBlockReference
  2
_DOTSMALL
 10
11603.03207022123
 20
7365.02495901218
 30
0.0
 41
100.0
 42
100.0
 43
100.0
 50
270.0
  0
MTEXT
  5
1880C
330
17E2E
100
AcDbEntity
  8
寸法
 62
     7
 48
50.0
100
AcDbMText
 10
11503.0202591976
 20
8625.02495901219
 30
0.0
 40
120.0
 41
0.0
 71
     5
 72
     1
  1
\A1;6X420=2520
  7
STYLE1
 11
0.0000000000000001
 21
1.0
 31
0.0
 73
     1
 44
1.0
1001
ACAD
1000
MTEXTBEGIN
1070
    73
1070
     1
1070
    44
1040
1.0
1070
    74
1070
     0
1000
MTEXTEND
  0
POINT
  5
1880D
330
17E2E
100
AcDbEntity
  8
DEFPOINTS
 62
     0
 48
50.0
100
AcDbPoint
 10
10955.60572448682
 20
9885.024959012197
 30
0.0
  0
POINT
  5
1880E
330
17E2E
100
AcDbEntity
  8
DEFPOINTS
 62
     0
 48
50.0
100
AcDbPoint
 10
10955.60572448679
 20
7365.02495901218
 30
0.0
  0
POINT
  5
1880F
330
17E2E
100
AcDbEntity
  8
DEFPOINTS
 62
     0
 48
50.0
100
AcDbPoint
 10
11603.03207022123
 20
7365.02495901218
 30
0.0
  0
ENDBLK
  5
17E39
330
17E2E
100
AcDbEntity
  8
0
 48
50.0
100
AcDbBlockEnd
  0
BLOCK
  5
17E44
330
17E3A
100
AcDbEntity
  8
0
 48
50.0
100
AcDbBlockBegin
  2
*D23
 70
     1
 10
0.0
 20
0.0
 30
0.0
  3
*D23
  1

  0
LINE
  5
187FE
330
17E3A
100
AcDbEntity
  8
寸法
 62
     0
 48
50.0
370
    -2
100
AcDbLine
 10
10945.60572448689
 20
8606.165975163561
 30
0.0
 11
11397.78893188752
 21
8485.003849909649
 31
0.0
  0
LINE
  5
187FF
330
17E3A
100
AcDbEntity
  8
寸法
 62
     0
 48
50.0
370
    -2
100
AcDbLine
 10
10945.60572448679
 20
7333.165975163561
 30
0.0
 11
11397.78893188752
 21
7212.003849909621
 31
0.0
  0
LINE
  5
18800
330
17E3A
100
AcDbEntity
  8
寸法
 62
     0
 48
50.0
370
    -2
100
AcDbLine
 10
11337.78893188752
 20
8501.080801455515
 30
0.0
 11
11337.78893188752
 21
7228.080801455488
 31
0.0
  0
INSERT
  5
18801
330
17E3A
100
AcDbEntity
  8
寸法
 62
     0
 48
50.0
370
    -2
100
AcDbBlockReference
  2
_DOTSMALL
 10
11337.78893188752
 20
8501.080801455515
 30
0.0
 41
100.0
 42
100.0
 43
100.0
 50
90.0
  0
INSERT
  5
18802
330
17E3A
100
AcDbEntity
  8
寸法
 62
     0
 48
50.0
370
    -2
100
AcDbBlockReference
  2
_DOTSMALL
 10
11337.78893188752
 20
7228.080801455488
 30
0.0
 41
100.0
 42
100.0
 43
100.0
 50
270.0
  0
MTEXT
  5
18803
330
17E3A
100
AcDbEntity
  8
寸法
 62
     7
 48
50.0
100
AcDbMText
 10
11237.77712086389
 20
7864.5808014555
 30
0.0
 40
120.0
 41
0.0
 71
     5
 72
     1
  1
\A1;1273
  7
STYLE1
 11
0.0000000000000001
 21
1.0
 31
0.0
 73
     1
 44
1.0
1001
ACAD
1000
MTEXTBEGIN
1070
    73
1070
     1
1070
    44
1040
1.0
1070
    74
1070
     0
1000
MTEXTEND
  0
POINT
  5
18804
330
17E3A
100
AcDbEntity
  8
DEFPOINTS
 62
     0
 48
50.0
100
AcDbPoint
 10
10925.60572448689
 20
8611.524959012182
 30
0.0
  0
POINT
  5
18805
330
17E3A
100
AcDbEntity
  8
DEFPOINTS
 62
     0
 48
50.0
100
AcDbPoint
 10
10925.60572448679
 20
7338.524959012184
 30
0.0
  0
POINT
  5
18806
330
17E3A
100
AcDbEntity
  8
DEFPOINTS
 62
     0
 48
50.0
100
AcDbPoint
 10
11337.78893188752
 20
7228.080801455488
 30
0.0
  0
ENDBLK
  5
17E45
330
17E3A
100
AcDbEntity
  8
0
 48
50.0
100
AcDbBlockEnd
  0
BLOCK
  5
17E50
330
17E46
100
AcDbEntity
  8
0
 48
50.0
100
AcDbBlockBegin
  2
*D24
 70
     1
 10
0.0
 20
0.0
 30
0.0
  3
*D24
  1

  0
LINE
  5
187F5
330
17E46
100
AcDbEntity
  8
寸法
 62
     0
 48
50.0
370
    -2
100
AcDbLine
 10
10945.60572448689
 20
9906.165975163563
 30
0.0
 11
11397.78893188752
 21
9785.003849909649
 31
0.0
  0
LINE
  5
187F6
330
17E46
100
AcDbEntity
  8
寸法
 62
     0
 48
50.0
370
    -2
100
AcDbLine
 10
10945.60572448689
 20
8633.165975163553
 30
0.0
 11
11397.78893188752
 21
8512.003849909639
 31
0.0
  0
LINE
  5
187F7
330
17E46
100
AcDbEntity
  8
寸法
 62
     0
 48
50.0
370
    -2
100
AcDbLine
 10
11337.78893188752
 20
9801.080801455515
 30
0.0
 11
11337.78893188752
 21
8528.080801455507
 31
0.0
  0
INSERT
  5
187F8
330
17E46
100
AcDbEntity
  8
寸法
 62
     0
 48
50.0
370
    -2
100
AcDbBlockReference
  2
_DOTSMALL
 10
11337.78893188752
 20
9801.080801455515
 30
0.0
 41
100.0
 42
100.0
 43
100.0
 50
90.0
  0
INSERT
  5
187F9
330
17E46
100
AcDbEntity
  8
寸法
 62
     0
 48
50.0
370
    -2
100
AcDbBlockReference
  2
_DOTSMALL
 10
11337.78893188752
 20
8528.080801455507
 30
0.0
 41
100.0
 42
100.0
 43
100.0
 50
270.0
  0
MTEXT
  5
187FA
330
17E46
100
AcDbEntity
  8
寸法
 62
     7
 48
50.0
100
AcDbMText
 10
11237.77712086389
 20
9164.580801455512
 30
0.0
 40
120.0
 41
0.0
 71
     5
 72
     1
  1
\A1;1273
  7
STYLE1
 11
0.0000000000000001
 21
1.0
 31
0.0
 73
     1
 44
1.0
1001
ACAD
1000
MTEXTBEGIN
1070
    73
1070
     1
1070
    44
1040
1.0
1070
    74
1070
     0
1000
MTEXTEND
  0
POINT
  5
187FB
330
17E46
100
AcDbEntity
  8
DEFPOINTS
 62
     0
 48
50.0
100
AcDbPoint
 10
10925.60572448689
 20
9911.524959012186
 30
0.0
  0
POINT
  5
187FC
330
17E46
100
AcDbEntity
  8
DEFPOINTS
 62
     0
 48
50.0
100
AcDbPoint
 10
10925.60572448689
 20
8638.524959012174
 30
0.0
  0
POINT
  5
187FD
330
17E46
100
AcDbEntity
  8
DEFPOINTS
 62
     0
 48
50.0
100
AcDbPoint
 10
11337.78893188752
 20
8528.080801455507
 30
0.0
  0
ENDBLK
  5
17E51
330
17E46
100
AcDbEntity
  8
0
 48
50.0
100
AcDbBlockEnd
  0
BLOCK
  5
17E5C
330
17E52
100
AcDbEntity
  8
0
 48
50.0
100
AcDbBlockBegin
  2
*D25
 70
     1
 10
0.0
 20
0.0
 30
0.0
  3
*D25
  1

  0
LINE
  5
187EC
330
17E52
100
AcDbEntity
  8
寸法
 62
     0
 48
50.0
370
    -2
100
AcDbLine
 10
9640.605724486874
 20
9960.024959012187
 30
0.0
 11
9640.605724486874
 21
10647.45130474659
 31
0.0
  0
LINE
  5
187ED
330
17E52
100
AcDbEntity
  8
寸法
 62
     0
 48
50.0
370
    -2
100
AcDbLine
 10
10900.60572448689
 20
9960.024959012161
 30
0.0
 11
10900.60572448689
 21
10647.45130474659
 31
0.0
  0
LINE
  5
187EE
330
17E52
100
AcDbEntity
  8
寸法
 62
     0
 48
50.0
370
    -2
100
AcDbLine
 10
9640.605724486874
 20
10587.45130474659
 30
0.0
 11
10900.60572448689
 21
10587.45130474659
 31
0.0
  0
INSERT
  5
187EF
330
17E52
100
AcDbEntity
  8
寸法
 62
     0
 48
50.0
370
    -2
100
AcDbBlockReference
  2
_DOTSMALL
 10
9640.605724486874
 20
10587.45130474659
 30
0.0
 41
100.0
 42
100.0
 43
100.0
 50
180.0
  0
INSERT
  5
187F0
330
17E52
100
AcDbEntity
  8
寸法
 62
     0
 48
50.0
370
    -2
100
AcDbBlockReference
  2
_DOTSMALL
 10
10900.60572448689
 20
10587.45130474659
 30
0.0
 41
100.0
 42
100.0
 43
100.0
  0
MTEXT
  5
187F1
330
17E52
100
AcDbEntity
  8
寸法
 62
     7
 48
50.0
100
AcDbMText
 10
10270.60572448688
 20
10687.46311577021
 30
0.0
 40
120.0
 41
0.0
 71
     5
 72
     1
  1
\A1;3X420=1260
  7
STYLE1
 73
     1
 44
1.0
1001
ACAD
1000
MTEXTBEGIN
1070
    73
1070
     1
1070
    44
1040
1.0
1070
    74
1070
     0
1000
MTEXTEND
  0
POINT
  5
187F2
330
17E52
100
AcDbEntity
  8
DEFPOINTS
 62
     0
 48
50.0
100
AcDbPoint
 10
9640.605724486874
 20
9940.024959012186
 30
0.0
  0
POINT
  5
187F3
330
17E52
100
AcDbEntity
  8
DEFPOINTS
 62
     0
 48
50.0
100
AcDbPoint
 10
10900.60572448689
 20
9940.024959012161
 30
0.0
  0
POINT
  5
187F4
330
17E52
100
AcDbEntity
  8
DEFPOINTS
 62
     0
 48
50.0
100
AcDbPoint
 10
10900.60572448689
 20
10587.45130474659
 30
0.0
  0
ENDBLK
  5
17E5D
330
17E52
100
AcDbEntity
  8
0
 48
50.0
100
AcDbBlockEnd
  0
BLOCK
  5
17E6A
330
17E5E
100
AcDbEntity
  8
0
 48
50.0
100
AcDbBlockBegin
  2
*D26
 70
     1
 10
0.0
 20
0.0
 30
0.0
  3
*D26
  1

  0
LINE
  5
187E1
330
17E5E
100
AcDbEntity
  8
寸法
 62
     0
 48
50.0
370
    -2
100
AcDbLine
 10
10900.60572448689
 20
9960.024959012161
 30
0.0
 11
10900.60572448689
 21
10647.45130474657
 31
0.0
  0
LINE
  5
187E2
330
17E5E
100
AcDbEntity
  8
寸法
 62
     0
 48
50.0
370
    -2
100
AcDbLine
 10
10955.60572448688
 20
9960.024959012161
 30
0.0
 11
10955.60572448688
 21
10647.45130474657
 31
0.0
  0
LINE
  5
187E3
330
17E5E
100
AcDbEntity
  8
寸法
 62
     0
 48
50.0
370
    -2
100
AcDbLine
 10
10900.60572448689
 20
10587.45130474657
 30
0.0
 11
10800.60572448689
 21
10587.45130474657
 31
0.0
  0
LINE
  5
187E4
330
17E5E
100
AcDbEntity
  8
寸法
 62
     0
 48
50.0
370
    -2
100
AcDbLine
 10
10955.60572448688
 20
10587.45130474657
 30
0.0
 11
11441.95247276599
 21
10587.45130474657
 31
0.0
  0
LINE
  5
187E5
330
17E5E
100
AcDbEntity
  8
寸法
 62
     0
 48
50.0
370
    -2
100
AcDbLine
 10
10900.60572448689
 20
10587.45130474657
 30
0.0
 11
10955.60572448688
 21
10587.45130474657
 31
0.0
  0
INSERT
  5
187E6
330
17E5E
100
AcDbEntity
  8
寸法
 62
     0
 48
50.0
370
    -2
100
AcDbBlockReference
  2
_DOTSMALL
 10
10900.60572448689
 20
10587.45130474657
 30
0.0
 41
100.0
 42
100.0
 43
100.0
  0
INSERT
  5
187E7
330
17E5E
100
AcDbEntity
  8
寸法
 62
     0
 48
50.0
370
    -2
100
AcDbBlockReference
  2
_DOTSMALL
 10
10955.60572448688
 20
10587.45130474657
 30
0.0
 41
100.0
 42
100.0
 43
100.0
 50
180.0
  0
MTEXT
  5
187E8
330
17E5E
100
AcDbEntity
  8
寸法
 62
     7
 48
50.0
100
AcDbMText
 10
11333.46719139175
 20
10687.45130474657
 30
0.0
 40
120.0
 41
0.0
 71
     5
 72
     1
  1
\A1;55
  7
STYLE1
 73
     1
 44
1.0
1001
ACAD
1000
MTEXTBEGIN
1070
    73
1070
     1
1070
    44
1040
1.0
1070
    74
1070
     0
1000
MTEXTEND
  0
POINT
  5
187E9
330
17E5E
100
AcDbEntity
  8
DEFPOINTS
 62
     0
 48
50.0
100
AcDbPoint
 10
10900.60572448689
 20
9940.024959012161
 30
0.0
  0
POINT
  5
187EA
330
17E5E
100
AcDbEntity
  8
DEFPOINTS
 62
     0
 48
50.0
100
AcDbPoint
 10
10955.60572448688
 20
9940.024959012161
 30
0.0
  0
POINT
  5
187EB
330
17E5E
100
AcDbEntity
  8
DEFPOINTS
 62
     0
 48
50.0
100
AcDbPoint
 10
10955.60572448688
 20
10587.45130474657
 30
0.0
  0
ENDBLK
  5
17E6B
330
17E5E
100
AcDbEntity
  8
0
 48
50.0
100
AcDbBlockEnd
  0
BLOCK
  5
17E76
330
17E6C
100
AcDbEntity
  8
0
 48
50.0
100
AcDbBlockBegin
  2
*D27
 70
     1
 10
0.0
 20
0.0
 30
0.0
  3
*D27
  1

  0
LINE
  5
187D8
330
17E6C
100
AcDbEntity
  8
寸法
 62
     0
 48
50.0
370
    -2
100
AcDbLine
 10
10920.24674063826
 20
9931.524959012186
 30
0.0
 11
10814.31095727213
 21
10326.88268487421
 31
0.0
  0
LINE
  5
187D9
330
17E6C
100
AcDbEntity
  8
寸法
 62
     0
 48
50.0
370
    -2
100
AcDbLine
 10
10470.24674063826
 20
9931.524959012186
 30
0.0
 11
10364.31095727213
 21
10326.88268487421
 31
0.0
  0
LINE
  5
187DA
330
17E6C
100
AcDbEntity
  8
寸法
 62
     0
 48
50.0
370
    -2
100
AcDbLine
 10
10830.387908818
 20
10266.88268487421
 30
0.0
 11
10380.387908818
 21
10266.88268487421
 31
0.0
  0
INSERT
  5
187DB
330
17E6C
100
AcDbEntity
  8
寸法
 62
     0
 48
50.0
370
    -2
100
AcDbBlockReference
  2
_DOTSMALL
 10
10830.387908818
 20
10266.88268487421
 30
0.0
 41
100.0
 42
100.0
 43
100.0
  0
INSERT
  5
187DC
330
17E6C
100
AcDbEntity
  8
寸法
 62
     0
 48
50.0
370
    -2
100
AcDbBlockReference
  2
_DOTSMALL
 10
10380.387908818
 20
10266.88268487421
 30
0.0
 41
100.0
 42
100.0
 43
100.0
 50
180.0
  0
MTEXT
  5
187DD
330
17E6C
100
AcDbEntity
  8
寸法
 62
     7
 48
50.0
100
AcDbMText
 10
10605.387908818
 20
10366.88268487421
 30
0.0
 40
120.0
 41
0.0
 71
     5
 72
     1
  1
\A1;450
  7
STYLE1
 73
     1
 44
1.0
1001
ACAD
1000
MTEXTBEGIN
1070
    73
1070
     1
1070
    44
1040
1.0
1070
    74
1070
     0
1000
MTEXTEND
  0
POINT
  5
187DE
330
17E6C
100
AcDbEntity
  8
DEFPOINTS
 62
     0
 48
50.0
100
AcDbPoint
 10
10925.60572448689
 20
9911.524959012186
 30
0.0
  0
POINT
  5
187DF
330
17E6C
100
AcDbEntity
  8
DEFPOINTS
 62
     0
 48
50.0
100
AcDbPoint
 10
10475.60572448689
 20
9911.524959012186
 30
0.0
  0
POINT
  5
187E0
330
17E6C
100
AcDbEntity
  8
DEFPOINTS
 62
     0
 48
50.0
100
AcDbPoint
 10
10380.387908818
 20
10266.88268487421
 30
0.0
  0
ENDBLK
  5
17E77
330
17E6C
100
AcDbEntity
  8
0
 48
50.0
100
AcDbBlockEnd
  0
BLOCK
  5
17E84
330
17E78
100
AcDbEntity
  8
0
 48
50.0
100
AcDbBlockBegin
  2
*D28
 70
     1
 10
0.0
 20
0.0
 30
0.0
  3
*D28
  1

  0
LINE
  5
187CD
330
17E78
100
AcDbEntity
  8
寸法
 62
     0
 48
50.0
370
    -2
100
AcDbLine
 10
9585.60572448688
 20
9960.024959012187
 30
0.0
 11
9585.60572448688
 21
10647.45130474659
 31
0.0
  0
LINE
  5
187CE
330
17E78
100
AcDbEntity
  8
寸法
 62
     0
 48
50.0
370
    -2
100
AcDbLine
 10
9640.605724486874
 20
9960.024959012187
 30
0.0
 11
9640.605724486874
 21
10647.45130474659
 31
0.0
  0
LINE
  5
187CF
330
17E78
100
AcDbEntity
  8
寸法
 62
     0
 48
50.0
370
    -2
100
AcDbLine
 10
9640.605724486874
 20
10587.45130474659
 30
0.0
 11
9740.605724486876
 21
10587.45130474659
 31
0.0
  0
LINE
  5
187D0
330
17E78
100
AcDbEntity
  8
寸法
 62
     0
 48
50.0
370
    -2
100
AcDbLine
 10
9585.60572448688
 20
10587.45130474659
 30
0.0
 11
9168.635161738404
 21
10587.45130474659
 31
0.0
  0
LINE
  5
187D1
330
17E78
100
AcDbEntity
  8
寸法
 62
     0
 48
50.0
370
    -2
100
AcDbLine
 10
9640.605724486874
 20
10587.45130474659
 30
0.0
 11
9585.60572448688
 21
10587.45130474659
 31
0.0
  0
INSERT
  5
187D2
330
17E78
100
AcDbEntity
  8
寸法
 62
     0
 48
50.0
370
    -2
100
AcDbBlockReference
  2
_DOTSMALL
 10
9640.605724486874
 20
10587.45130474659
 30
0.0
 41
100.0
 42
100.0
 43
100.0
 50
180.0
  0
INSERT
  5
187D3
330
17E78
100
AcDbEntity
  8
寸法
 62
     0
 48
50.0
370
    -2
100
AcDbBlockReference
  2
_DOTSMALL
 10
9585.60572448688
 20
10587.45130474659
 30
0.0
 41
100.0
 42
100.0
 43
100.0
  0
MTEXT
  5
187D4
330
17E78
100
AcDbEntity
  8
寸法
 62
     7
 48
50.0
100
AcDbMText
 10
9277.120443112641
 20
10687.45130474659
 30
0.0
 40
120.0
 41
0.0
 71
     5
 72
     1
  1
\A1;55
  7
STYLE1
 73
     1
 44
1.0
1001
ACAD
1000
MTEXTBEGIN
1070
    73
1070
     1
1070
    44
1040
1.0
1070
    74
1070
     0
1000
MTEXTEND
  0
POINT
  5
187D5
330
17E78
100
AcDbEntity
  8
DEFPOINTS
 62
     0
 48
50.0
100
AcDbPoint
 10
9585.60572448688
 20
9940.024959012186
 30
0.0
  0
POINT
  5
187D6
330
17E78
100
AcDbEntity
  8
DEFPOINTS
 62
     0
 48
50.0
100
AcDbPoint
 10
9640.605724486874
 20
9940.024959012186
 30
0.0
  0
POINT
  5
187D7
330
17E78
100
AcDbEntity
  8
DEFPOINTS
 62
     0
 48
50.0
100
AcDbPoint
 10
9640.605724486874
 20
10587.45130474659
 30
0.0
  0
ENDBLK
  5
17E85
330
17E78
100
AcDbEntity
  8
0
 48
50.0
100
AcDbBlockEnd
  0
BLOCK
  5
18377
330
1836D
100
AcDbEntity
  8
0
 48
50.0
100
AcDbBlockBegin
  2
*D29
 70
     1
 10
0.0
 20
0.0
 30
0.0
  3
*D29
  1

  0
LINE
  5
187C4
330
1836D
100
AcDbEntity
  8
寸法
 62
     0
 48
50.0
370
    -2
100
AcDbLine
 10
9652.605724486763
 20
7213.024959012166
 30
0.0
 11
9652.605724486763
 21
6568.895584314863
 31
0.0
  0
LINE
  5
187C5
330
1836D
100
AcDbEntity
  8
寸法
 62
     0
 48
50.0
370
    -2
100
AcDbLine
 10
10326.60572448676
 20
7213.024959012166
 30
0.0
 11
10326.60572448676
 21
6568.895584314863
 31
0.0
  0
LINE
  5
187C6
330
1836D
100
AcDbEntity
  8
寸法
 62
     0
 48
50.0
370
    -2
100
AcDbLine
 10
9672.605724486764
 20
6608.895584314864
 30
0.0
 11
10306.60572448676
 21
6608.895584314864
 31
0.0
  0
INSERT
  5
187C7
330
1836D
100
AcDbEntity
  8
寸法
 62
     0
 48
50.0
370
    -2
100
AcDbBlockReference
  2
_DOT
 10
9652.605724486763
 20
6608.895584314864
 30
0.0
 41
20.0
 42
20.0
 43
20.0
 50
180.0
  0
INSERT
  5
187C8
330
1836D
100
AcDbEntity
  8
寸法
 62
     0
 48
50.0
370
    -2
100
AcDbBlockReference
  2
_DOT
 10
10326.60572448676
 20
6608.895584314864
 30
0.0
 41
20.0
 42
20.0
 43
20.0
  0
MTEXT
  5
187C9
330
1836D
100
AcDbEntity
  8
寸法
 62
     7
 48
50.0
100
AcDbMText
 10
9989.605724486763
 20
6800.895584314864
 30
0.0
 40
120.0
 41
0.0
 71
     5
 72
     1
  1
\A1;有効開口部間口\P674
  7
STYLE1
 73
     1
 44
1.0
1001
ACAD
1000
MTEXTBEGIN
1070
    73
1070
     1
1070
    44
1040
1.0
1070
    74
1070
     0
1000
MTEXTEND
  0
POINT
  5
187CA
330
1836D
100
AcDbEntity
  8
DEFPOINTS
 62
     0
 48
50.0
100
AcDbPoint
 10
9652.605724486763
 20
7233.024959012166
 30
0.0
  0
POINT
  5
187CB
330
1836D
100
AcDbEntity
  8
DEFPOINTS
 62
     0
 48
50.0
100
AcDbPoint
 10
10326.60572448676
 20
7233.024959012166
 30
0.0
  0
POINT
  5
187CC
330
1836D
100
AcDbEntity
  8
DEFPOINTS
 62
     0
 48
50.0
100
AcDbPoint
 10
10326.60572448676
 20
6608.895584314864
 30
0.0
  0
ENDBLK
  5
18378
330
1836D
100
AcDbEntity
  8
0
 48
50.0
100
AcDbBlockEnd
  0
BLOCK
  5
1865A
330
18650
100
AcDbEntity
  8
0
 48
50.0
100
AcDbBlockBegin
  2
*D30
 70
     1
 10
0.0
 20
0.0
 30
0.0
  3
*D30
  1

  0
LINE
  5
187BB
330
18650
100
AcDbEntity
  8
寸法
 62
     0
 48
50.0
370
    -2
100
AcDbLine
 10
9613.605724486763
 20
7213.024959012166
 30
0.0
 11
9613.605724486763
 21
6322.413095008074
 31
0.0
  0
LINE
  5
187BC
330
18650
100
AcDbEntity
  8
寸法
 62
     0
 48
50.0
370
    -2
100
AcDbLine
 10
10927.60572448676
 20
7213.024959012166
 30
0.0
 11
10927.60572448676
 21
6322.413095008074
 31
0.0
  0
LINE
  5
187BD
330
18650
100
AcDbEntity
  8
寸法
 62
     0
 48
50.0
370
    -2
100
AcDbLine
 10
9613.605724486763
 20
6382.413095008074
 30
0.0
 11
10927.60572448676
 21
6382.413095008074
 31
0.0
  0
INSERT
  5
187BE
330
18650
100
AcDbEntity
  8
寸法
 62
     0
 48
50.0
370
    -2
100
AcDbBlockReference
  2
_DOTSMALL
 10
9613.605724486763
 20
6382.413095008074
 30
0.0
 41
100.0
 42
100.0
 43
100.0
 50
180.0
  0
INSERT
  5
187BF
330
18650
100
AcDbEntity
  8
寸法
 62
     0
 48
50.0
370
    -2
100
AcDbBlockReference
  2
_DOTSMALL
 10
10927.60572448676
 20
6382.413095008074
 30
0.0
 41
100.0
 42
100.0
 43
100.0
  0
MTEXT
  5
187C0
330
18650
100
AcDbEntity
  8
寸法
 62
     7
 48
50.0
100
AcDbMText
 10
10270.60572448676
 20
6482.413095008074
 30
0.0
 40
120.0
 41
0.0
 71
     5
 72
     1
  1
\A1;1314
  7
STYLE1
 73
     1
 44
1.0
1001
ACAD
1000
MTEXTBEGIN
1070
    73
1070
     1
1070
    44
1040
1.0
1070
    74
1070
     0
1000
MTEXTEND
  0
POINT
  5
187C1
330
18650
100
AcDbEntity
  8
DEFPOINTS
 62
     0
 48
50.0
100
AcDbPoint
 10
9613.605724486763
 20
7233.024959012166
 30
0.0
  0
POINT
  5
187C2
330
18650
100
AcDbEntity
  8
DEFPOINTS
 62
     0
 48
50.0
100
AcDbPoint
 10
10927.60572448676
 20
7233.024959012166
 30
0.0
  0
POINT
  5
187C3
330
18650
100
AcDbEntity
  8
DEFPOINTS
 62
     0
 48
50.0
100
AcDbPoint
 10
10927.60572448676
 20
6382.413095008074
 30
0.0
  0
ENDBLK
  5
1865B
330
18650
100
AcDbEntity
  8
0
 48
50.0
100
AcDbBlockEnd
  0
BLOCK
  5
18674
330
18668
100
AcDbEntity
  8
0
 48
50.0
100
AcDbBlockBegin
  2
*D31
 70
     1
 10
0.0
 20
0.0
 30
0.0
  3
*D31
  1

  0
LINE
  5
187B0
330
18668
100
AcDbEntity
  8
寸法
 62
     0
 48
50.0
370
    -2
100
AcDbLine
 10
9565.605724486784
 20
7310.024959012166
 30
0.0
 11
9250.994478860068
 21
7310.024959012166
 31
0.0
  0
LINE
  5
187B1
330
18668
100
AcDbEntity
  8
寸法
 62
     0
 48
50.0
370
    -2
100
AcDbLine
 10
9593.605724486762
 20
7235.024959012166
 30
0.0
 11
9250.994478860068
 21
7235.024959012166
 31
0.0
  0
LINE
  5
187B2
330
18668
100
AcDbEntity
  8
寸法
 62
     0
 48
50.0
370
    -2
100
AcDbLine
 10
9290.994478860069
 20
7330.024959012165
 30
0.0
 11
9290.994478860069
 21
7350.024959012166
 31
0.0
  0
LINE
  5
187B3
330
18668
100
AcDbEntity
  8
寸法
 62
     0
 48
50.0
370
    -2
100
AcDbLine
 10
9290.994478860069
 20
7215.024959012166
 30
0.0
 11
9290.994478860069
 21
6994.054396263688
 31
0.0
  0
LINE
  5
187B4
330
18668
100
AcDbEntity
  8
寸法
 62
     0
 48
50.0
370
    -2
100
AcDbLine
 10
9290.994478860069
 20
7310.024959012166
 30
0.0
 11
9290.994478860069
 21
7235.024959012166
 31
0.0
  0
INSERT
  5
187B5
330
18668
100
AcDbEntity
  8
寸法
 62
     0
 48
50.0
370
    -2
100
AcDbBlockReference
  2
_DOT
 10
9290.994478860069
 20
7310.024959012166
 30
0.0
 41
20.0
 42
20.0
 43
20.0
 50
270.0
  0
INSERT
  5
187B6
330
18668
100
AcDbEntity
  8
寸法
 62
     0
 48
50.0
370
    -2
100
AcDbBlockReference
  2
_DOT
 10
9290.994478860069
 20
7235.024959012166
 30
0.0
 41
20.0
 42
20.0
 43
20.0
 50
90.0
  0
MTEXT
  5
187B7
330
18668
100
AcDbEntity
  8
寸法
 62
     7
 48
50.0
100
AcDbMText
 10
9198.994478860067
 20
7094.539677637929
 30
0.0
 40
120.0
 41
0.0
 71
     5
 72
     1
  1
\A1;75
  7
STYLE1
 11
0.0000000000000001
 21
1.0
 31
0.0
 73
     1
 44
1.0
1001
ACAD
1000
MTEXTBEGIN
1070
    73
1070
     1
1070
    44
1040
1.0
1070
    74
1070
     0
1000
MTEXTEND
  0
POINT
  5
187B8
330
18668
100
AcDbEntity
  8
DEFPOINTS
 62
     0
 48
50.0
100
AcDbPoint
 10
9585.605724486784
 20
7310.024959012166
 30
0.0
  0
POINT
  5
187B9
330
18668
100
AcDbEntity
  8
DEFPOINTS
 62
     0
 48
50.0
100
AcDbPoint
 10
9613.605724486763
 20
7235.024959012166
 30
0.0
  0
POINT
  5
187BA
330
18668
100
AcDbEntity
  8
DEFPOINTS
 62
     0
 48
50.0
100
AcDbPoint
 10
9290.994478860069
 20
7235.024959012166
 30
0.0
  0
ENDBLK
  5
18675
330
18668
100
AcDbEntity
  8
0
 48
50.0
100
AcDbBlockEnd
  0
BLOCK
  5
18680
330
18676
100
AcDbEntity
  8
0
 48
50.0
100
AcDbBlockBegin
  2
*D32
 70
     1
 10
0.0
 20
0.0
 30
0.0
  3
*D32
  1

  0
LINE
  5
187A7
330
18676
100
AcDbEntity
  8
寸法
 62
     0
 48
50.0
370
    -2
100
AcDbLine
 10
9585.605724486784
 20
7290.02495901218
 30
0.0
 11
9585.605724486784
 21
6088.336131298349
 31
0.0
  0
LINE
  5
187A8
330
18676
100
AcDbEntity
  8
寸法
 62
     0
 48
50.0
370
    -2
100
AcDbLine
 10
10955.60572448686
 20
7290.024959012153
 30
0.0
 11
10955.60572448686
 21
6088.336131298349
 31
0.0
  0
LINE
  5
187A9
330
18676
100
AcDbEntity
  8
寸法
 62
     0
 48
50.0
370
    -2
100
AcDbLine
 10
9585.605724486784
 20
6148.336131298349
 30
0.0
 11
10955.60572448686
 21
6148.336131298349
 31
0.0
  0
INSERT
  5
187AA
330
18676
100
AcDbEntity
  8
寸法
 62
     0
 48
50.0
370
    -2
100
AcDbBlockReference
  2
_DOTSMALL
 10
9585.605724486784
 20
6148.336131298349
 30
0.0
 41
100.0
 42
100.0
 43
100.0
 50
180.0
  0
INSERT
  5
187AB
330
18676
100
AcDbEntity
  8
寸法
 62
     0
 48
50.0
370
    -2
100
AcDbBlockReference
  2
_DOTSMALL
 10
10955.60572448686
 20
6148.336131298349
 30
0.0
 41
100.0
 42
100.0
 43
100.0
  0
MTEXT
  5
187AC
330
18676
100
AcDbEntity
  8
寸法
 62
     7
 48
50.0
100
AcDbMText
 10
10268.02770924727
 20
6248.336131298349
 30
0.0
 40
120.0
 41
0.0
 71
     5
 72
     1
  1
\A1;1370
  7
STYLE1
 73
     1
 44
1.0
1001
ACAD
1000
MTEXTBEGIN
1070
    73
1070
     1
1070
    44
1040
1.0
1070
    74
1070
     0
1000
MTEXTEND
  0
POINT
  5
187AD
330
18676
100
AcDbEntity
  8
DEFPOINTS
 62
     0
 48
50.0
100
AcDbPoint
 10
9585.605724486784
 20
7310.024959012181
 30
0.0
  0
POINT
  5
187AE
330
18676
100
AcDbEntity
  8
DEFPOINTS
 62
     0
 48
50.0
100
AcDbPoint
 10
10955.60572448686
 20
7310.024959012153
 30
0.0
  0
POINT
  5
187AF
330
18676
100
AcDbEntity
  8
DEFPOINTS
 62
     0
 48
50.0
100
AcDbPoint
 10
10955.60572448686
 20
6148.336131298349
 30
0.0
  0
ENDBLK
  5
18681
330
18676
100
AcDbEntity
  8
0
 48
50.0
100
AcDbBlockEnd
  0
ENDSEC
  0
SECTION
  2
ENTITIES
  0
LINE
  5
10B57
330
747D
100
AcDbEntity
  8
補助
  6
PHANTOM
 62
   230
 48
50.0
100
AcDbLine
 10
139.9999999999995
 20
11409.6
 30
0.0
 11
16307.2
 21
11409.6
 31
0.0
  0
LINE
  5
10B59
330
747D
100
AcDbEntity
  8
仕様書枠
  6
Continuous
 48
50.0
100
AcDbLine
 10
13107.2
 20
1200.0
 30
0.0
 11
13107.2
 21
-0.0000000000000729
 31
0.0
  0
LINE
  5
10B5C
330
747D
100
AcDbEntity
  8
仕様書枠
 48
50.0
100
AcDbLine
 10
16307.2
 20
1200.0
 30
0.0
 11
16307.2
 21
-0.0000000000000909
 31
0.0
  0
LINE
  5
10B5D
330
747D
100
AcDbEntity
  8
仕様書枠
 48
50.0
100
AcDbLine
 10
140.0
 20
0.0
 30
0.0
 11
16307.2
 21
-0.0000000000000909
 31
0.0
  0
LINE
  5
10B5E
330
747D
100
AcDbEntity
  8
補助
  6
PHANTOM
 62
   230
 48
50.0
100
AcDbLine
 10
16307.2
 20
11409.6
 30
0.0
 11
16307.2
 21
1200.0
 31
0.0
  0
LINE
  5
10B6C
330
747D
100
AcDbEntity
  8
仕様書枠
 48
50.0
100
AcDbLine
 10
13107.2
 20
1200.0
 30
0.0
 11
16307.2
 21
1200.0
 31
0.0
  0
LINE
  5
10B6D
330
747D
100
AcDbEntity
  8
補助
  6
PHANTOM
 62
   230
 48
50.0
100
AcDbLine
 10
13107.2
 20
11409.6
 30
0.0
 11
13107.2
 21
4800.0
 31
0.0
  0
LINE
  5
10B6F
330
747D
100
AcDbEntity
  8
補助
  6
PHANTOM
 62
   230
 48
50.0
100
AcDbLine
 10
13107.2
 20
4800.0
 30
0.0
 11
16307.2
 21
4800.0
 31
0.0
  0
LINE
  5
10B72
330
747D
100
AcDbEntity
  8
文字
 62
     7
 48
50.0
100
AcDbLine
 10
13187.2
 20
400.0
 30
0.0
 11
16227.2
 21
400.0
 31
0.0
  0
TEXT
  5
10B73
330
747D
100
AcDbEntity
  8
文字
 62
     7
 48
50.0
100
AcDbText
 10
13162.9790565769
 20
895.0906074299405
 30
0.0
 40
200.0
  1
外 形 図
  7
STYLE2
100
AcDbText
  0
TEXT
  5
10B74
330
747D
100
AcDbEntity
  8
文字
 62
     7
 48
50.0
100
AcDbText
 10
13201.43669998441
 20
477.2740661031255
 30
0.0
 40
160.0
  1
機種名
  7
STYLE2
100
AcDbText
  0
TEXT
  5
10B76
330
747D
100
AcDbEntity
  8
文字
 62
     7
 48
50.0
100
AcDbText
 10
13209.4053442172
 20
76.09434707649343
 30
0.0
 40
100.0
  1
○床面積 ： 3.70㎡(1.12坪) 　
  7
STYLE2
100
AcDbText
  0
TEXT
  5
10B79
330
747D
100
AcDbEntity
  8
文字
 62
     7
 48
50.0
100
AcDbText
 10
14524.131837222
 20
1031.557706291228
 30
0.0
 40
100.0
  1
NO.03      <縮尺> S=1/40
  7
STYLE2
100
AcDbText
  0
LINE
  5
10B7B
330
747D
100
AcDbEntity
  8
仕様書枠
 48
50.0
100
AcDbLine
 10
13107.2
 20
800.0
 30
0.0
 11
14251.2
 21
800.0
 31
0.0
  0
LINE
  5
10B88
330
747D
100
AcDbEntity
  8
仕様書枠
  6
Continuous
 48
50.0
100
AcDbLine
 10
14251.2
 20
1200.0
 30
0.0
 11
14251.2
 21
800.0
 31
0.0
  0
TEXT
  5
14D2F
330
747D
100
AcDbEntity
  8
文字
 62
     7
 48
50.0
100
AcDbText
 10
14644.07818602837
 20
876.4448062548634
 30
0.0
 40
100.0
  1
～一般型・多雪地型～
  7
STYLE2
100
AcDbText
  0
ARC
  5
16FD1
330
747D
100
AcDbEntity
  8
部品1
100
AcDbCircle
 10
7536.100274043206
 20
4376.694218014614
 30
0.0
 40
7.0
100
AcDbArc
 50
356.7526572096623
 51
90.0
  0
ARC
  5
16FD2
330
747D
100
AcDbEntity
  8
部品1
100
AcDbCircle
 10
7522.884950582174
 20
4249.694218014616
 30
0.0
 40
7.0
100
AcDbArc
 50
270.0
 51
356.7526572096623
  0
ARC
  5
16FD3
330
747D
100
AcDbEntity
  8
部品1
 48
50.0
100
AcDbCircle
 10
7541.256760792854
 20
4356.361217176299
 30
0.0
 40
0.7
100
AcDbArc
 50
277.6581272073635
 51
356.7526572096103
  0
ARC
  5
16FD4
330
747D
100
AcDbEntity
  8
部品1
 48
50.0
100
AcDbCircle
 10
7533.020730268011
 20
4264.161217176297
 30
0.0
 40
0.7
100
AcDbArc
 50
277.6581272073635
 51
356.7526572096818
  0
ARC
  5
16FD5
330
747D
100
AcDbEntity
  8
部品1
 48
50.0
100
AcDbCircle
 10
7533.513799376571
 20
4260.494218014612
 30
0.0
 40
3.0
100
AcDbArc
 50
97.65812720736347
 51
176.7526572096623
  0
ARC
  5
16FD6
330
747D
100
AcDbEntity
  8
部品1
 48
50.0
100
AcDbCircle
 10
7541.749829901416
 20
4352.694218014616
 30
0.0
 40
3.0
100
AcDbArc
 50
97.65812720736347
 51
176.7526572096623
  0
LINE
  5
16FD7
330
747D
100
AcDbEntity
  8
部品1
100
AcDbLine
 10
7538.75464700523
 20
4352.864157469717
 30
0.0
 11
7533.719606277114
 21
4264.121564636773
 31
0.0
  0
LINE
  5
16FD8
330
747D
100
AcDbEntity
  8
部品1
100
AcDbLine
 10
7530.518616480385
 20
4260.664157469714
 30
0.0
 11
7529.87371067327
 21
4249.297692619375
 31
0.0
  0
LINE
  5
16FD9
330
747D
100
AcDbEntity
  8
細線
 48
50.0
100
AcDbLine
 10
7510.508695149638
 20
4383.694218014614
 30
0.0
 11
7510.508695149638
 21
4242.694218014614
 31
0.0
  0
LINE
  5
16FDA
330
747D
100
AcDbEntity
  8
部品1
100
AcDbLine
 10
7543.089034134307
 20
4376.297692619375
 30
0.0
 11
7541.955636801958
 21
4356.321564636775
 31
0.0
  0
DIMENSION
  5
16FDB
330
747D
100
AcDbEntity
  8
寸法
 48
50.0
100
AcDbDimension
  2
*D8
 10
7493.508695149642
 20
4788.314477441883
 30
0.0
 11
7856.993976523881
 21
4788.314477441883
 31
0.0
 70
   160
 71
     5
 42
50.0
  3
INABA_S40G
100
AcDbAlignedDimension
 13
7543.508695149641
 23
4383.694218014612
 33
0.0
 14
7493.508695149642
 24
4383.694218014614
 34
0.0
100
AcDbRotatedDimension
  0
ARC
  5
16FDC
330
747D
100
AcDbEntity
  8
部品1
 48
0.01
100
AcDbCircle
 10
5651.508695149641
 20
4181.19421801461
 30
0.0
 40
2.0
100
AcDbArc
 50
270.0
 51
0.0
  0
ARC
  5
16FDD
330
747D
100
AcDbEntity
  8
部品1
 48
0.01
100
AcDbCircle
 10
5651.508695149641
 20
4212.69421801461
 30
0.0
 40
2.0
100
AcDbArc
 50
0.0
 51
90.0
  0
ARC
  5
16FDE
330
747D
100
AcDbEntity
  8
部品1
 48
0.01
100
AcDbCircle
 10
5475.508695149642
 20
4181.19421801461
 30
0.0
 40
2.0
100
AcDbArc
 50
180.0
 51
270.0
  0
ARC
  5
16FDF
330
747D
100
AcDbEntity
  8
部品1
 48
0.01
100
AcDbCircle
 10
5475.508695149642
 20
4212.69421801461
 30
0.0
 40
2.0
100
AcDbArc
 50
90.0
 51
180.0
  0
LINE
  5
16FE0
330
747D
100
AcDbEntity
  8
細線
100
AcDbLine
 10
5563.508695149642
 20
4185.19421801461
 30
0.0
 11
5637.508695149641
 21
4185.19421801461
 31
0.0
  0
LINE
  5
16FE1
330
747D
100
AcDbEntity
  8
細線
100
AcDbLine
 10
5563.508695149642
 20
4208.19421801461
 30
0.0
 11
5489.508695149641
 21
4208.19421801461
 31
0.0
  0
LINE
  5
16FE2
330
747D
100
AcDbEntity
  8
細線
100
AcDbLine
 10
5489.508695149641
 20
4185.19421801461
 30
0.0
 11
5563.508695149642
 21
4185.19421801461
 31
0.0
  0
LINE
  5
16FE3
330
747D
100
AcDbEntity
  8
細線
100
AcDbLine
 10
5637.508695149641
 20
4208.19421801461
 30
0.0
 11
5563.508695149642
 21
4208.19421801461
 31
0.0
  0
LINE
  5
16FE4
330
747D
100
AcDbEntity
  8
細線
100
AcDbLine
 10
5637.508695149641
 20
4185.19421801461
 30
0.0
 11
5637.508695149641
 21
4208.19421801461
 31
0.0
  0
LINE
  5
16FE5
330
747D
100
AcDbEntity
  8
細線
100
AcDbLine
 10
5489.508695149641
 20
4208.19421801461
 30
0.0
 11
5489.508695149641
 21
4185.19421801461
 31
0.0
  0
LINE
  5
16FE6
330
747D
100
AcDbEntity
  8
部品1
 48
0.01
100
AcDbLine
 10
5653.508695149642
 20
4181.19421801461
 30
0.0
 11
5653.508695149642
 21
4212.69421801461
 31
0.0
  0
LINE
  5
16FE7
330
747D
100
AcDbEntity
  8
部品1
 48
0.01
100
AcDbLine
 10
5475.508695149642
 20
4179.19421801461
 30
0.0
 11
5651.508695149641
 21
4179.19421801461
 31
0.0
  0
LINE
  5
16FE8
330
747D
100
AcDbEntity
  8
部品1
 48
0.01
100
AcDbLine
 10
5473.508695149641
 20
4212.69421801461
 30
0.0
 11
5473.508695149641
 21
4181.19421801461
 31
0.0
  0
LINE
  5
16FE9
330
747D
100
AcDbEntity
  8
部品1
 48
0.01
100
AcDbLine
 10
5651.508695149641
 20
4214.69421801461
 30
0.0
 11
5475.508695149642
 21
4214.69421801461
 31
0.0
  0
LINE
  5
16FEA
330
747D
100
AcDbEntity
  8
細線
100
AcDbLine
 10
5489.508695149641
 20
4202.19421801461
 30
0.0
 11
5563.508695149642
 21
4202.19421801461
 31
0.0
  0
LINE
  5
16FEB
330
747D
100
AcDbEntity
  8
細線
100
AcDbLine
 10
5489.508695149641
 20
4196.194218014611
 30
0.0
 11
5563.508695149642
 21
4196.194218014611
 31
0.0
  0
LINE
  5
16FEC
330
747D
100
AcDbEntity
  8
細線
100
AcDbLine
 10
5489.508695149641
 20
4190.19421801461
 30
0.0
 11
5563.508695149642
 21
4190.19421801461
 31
0.0
  0
LINE
  5
16FED
330
747D
100
AcDbEntity
  8
細線
100
AcDbLine
 10
5489.508695149641
 20
4202.19421801461
 30
0.0
 11
5558.508695149641
 21
4202.19421801461
 31
0.0
  0
LINE
  5
16FEE
330
747D
100
AcDbEntity
  8
細線
100
AcDbLine
 10
5637.508695149641
 20
4202.194218014609
 30
0.0
 11
5563.508695149642
 21
4202.19421801461
 31
0.0
  0
LINE
  5
16FEF
330
747D
100
AcDbEntity
  8
細線
100
AcDbLine
 10
5637.508695149641
 20
4190.194218014609
 30
0.0
 11
5563.508695149642
 21
4190.19421801461
 31
0.0
  0
LINE
  5
16FF0
330
747D
100
AcDbEntity
  8
細線
100
AcDbLine
 10
5637.508695149641
 20
4196.194218014611
 30
0.0
 11
5563.508695149642
 21
4196.194218014611
 31
0.0
  0
LINE
  5
16FF1
330
747D
100
AcDbEntity
  8
細線
100
AcDbLine
 10
5563.508695149642
 20
4208.19421801461
 30
0.0
 11
5563.508695149642
 21
4185.19421801461
 31
0.0
  0
LINE
  5
16FF2
330
747D
100
AcDbEntity
  8
部品1
 48
0.01
100
AcDbLine
 10
6883.508695149642
 20
4212.69421801461
 30
0.0
 11
6883.508695149642
 21
4181.19421801461
 31
0.0
  0
LINE
  5
16FF3
330
747D
100
AcDbEntity
  8
部品1
 48
0.01
100
AcDbLine
 10
6881.508695149641
 20
4179.19421801461
 30
0.0
 11
6705.508695149642
 21
4179.19421801461
 31
0.0
  0
LINE
  5
16FF4
330
747D
100
AcDbEntity
  8
部品1
 48
0.01
100
AcDbLine
 10
6703.508695149641
 20
4181.19421801461
 30
0.0
 11
6703.508695149641
 21
4212.69421801461
 31
0.0
  0
ARC
  5
16FF5
330
747D
100
AcDbEntity
  8
部品1
 48
0.01
100
AcDbCircle
 10
6881.508695149641
 20
4181.19421801461
 30
0.0
 40
2.0
100
AcDbArc
 50
270.0
 51
0.0
  0
ARC
  5
16FF6
330
747D
100
AcDbEntity
  8
部品1
 48
0.01
100
AcDbCircle
 10
6705.508695149642
 20
4181.19421801461
 30
0.0
 40
2.0
100
AcDbArc
 50
180.0
 51
270.0
  0
LINE
  5
16FF7
330
747D
100
AcDbEntity
  8
細線
100
AcDbLine
 10
6793.508695149641
 20
4208.19421801461
 30
0.0
 11
6793.508695149641
 21
4185.19421801461
 31
0.0
  0
LINE
  5
16FF8
330
747D
100
AcDbEntity
  8
細線
100
AcDbLine
 10
6719.508695149642
 20
4196.194218014611
 30
0.0
 11
6793.508695149641
 21
4196.194218014611
 31
0.0
  0
LINE
  5
16FF9
330
747D
100
AcDbEntity
  8
細線
100
AcDbLine
 10
6719.508695149642
 20
4190.194218014609
 30
0.0
 11
6793.508695149641
 21
4190.19421801461
 31
0.0
  0
LINE
  5
16FFA
330
747D
100
AcDbEntity
  8
細線
100
AcDbLine
 10
6719.508695149642
 20
4202.194218014609
 30
0.0
 11
6793.508695149641
 21
4202.19421801461
 31
0.0
  0
LINE
  5
16FFB
330
747D
100
AcDbEntity
  8
細線
100
AcDbLine
 10
6867.508695149641
 20
4202.19421801461
 30
0.0
 11
6798.508695149641
 21
4202.19421801461
 31
0.0
  0
LINE
  5
16FFC
330
747D
100
AcDbEntity
  8
細線
100
AcDbLine
 10
6867.508695149641
 20
4190.19421801461
 30
0.0
 11
6793.508695149641
 21
4190.19421801461
 31
0.0
  0
LINE
  5
16FFD
330
747D
100
AcDbEntity
  8
細線
100
AcDbLine
 10
6867.508695149641
 20
4196.194218014611
 30
0.0
 11
6793.508695149641
 21
4196.194218014611
 31
0.0
  0
LINE
  5
16FFE
330
747D
100
AcDbEntity
  8
細線
100
AcDbLine
 10
6867.508695149641
 20
4202.19421801461
 30
0.0
 11
6793.508695149641
 21
4202.19421801461
 31
0.0
  0
LINE
  5
16FFF
330
747D
100
AcDbEntity
  8
部品1
 48
0.01
100
AcDbLine
 10
6705.508695149642
 20
4214.69421801461
 30
0.0
 11
6881.508695149641
 21
4214.69421801461
 31
0.0
  0
LINE
  5
17000
330
747D
100
AcDbEntity
  8
細線
100
AcDbLine
 10
6867.508695149641
 20
4208.19421801461
 30
0.0
 11
6867.508695149641
 21
4185.19421801461
 31
0.0
  0
LINE
  5
17001
330
747D
100
AcDbEntity
  8
細線
100
AcDbLine
 10
6719.508695149642
 20
4185.19421801461
 30
0.0
 11
6719.508695149642
 21
4208.19421801461
 31
0.0
  0
LINE
  5
17002
330
747D
100
AcDbEntity
  8
細線
100
AcDbLine
 10
6719.508695149642
 20
4208.19421801461
 30
0.0
 11
6793.508695149641
 21
4208.19421801461
 31
0.0
  0
LINE
  5
17003
330
747D
100
AcDbEntity
  8
細線
100
AcDbLine
 10
6867.508695149641
 20
4185.19421801461
 30
0.0
 11
6793.508695149641
 21
4185.19421801461
 31
0.0
  0
LINE
  5
17004
330
747D
100
AcDbEntity
  8
細線
100
AcDbLine
 10
6793.508695149641
 20
4208.19421801461
 30
0.0
 11
6867.508695149641
 21
4208.19421801461
 31
0.0
  0
LINE
  5
17005
330
747D
100
AcDbEntity
  8
細線
100
AcDbLine
 10
6793.508695149641
 20
4185.19421801461
 30
0.0
 11
6719.508695149642
 21
4185.19421801461
 31
0.0
  0
ARC
  5
17006
330
747D
100
AcDbEntity
  8
部品1
 48
0.01
100
AcDbCircle
 10
6881.508695149641
 20
4212.69421801461
 30
0.0
 40
2.0
100
AcDbArc
 50
0.0
 51
90.0
  0
ARC
  5
17007
330
747D
100
AcDbEntity
  8
部品1
 48
0.01
100
AcDbCircle
 10
6705.508695149642
 20
4212.69421801461
 30
0.0
 40
2.0
100
AcDbArc
 50
90.0
 51
180.0
  0
LINE
  5
17008
330
747D
100
AcDbEntity
  8
部品1
100
AcDbLine
 10
4813.928356164971
 20
4376.297692619375
 30
0.0
 11
4815.061753497321
 21
4356.321564636775
 31
0.0
  0
LINE
  5
17009
330
747D
100
AcDbEntity
  8
部品1
100
AcDbLine
 10
4826.498773818897
 20
4260.664157469714
 30
0.0
 11
4827.143679626006
 21
4249.297692619375
 31
0.0
  0
LINE
  5
1700A
330
747D
100
AcDbEntity
  8
部品1
100
AcDbLine
 10
4818.26274329405
 20
4352.864157469717
 30
0.0
 11
4823.297784022162
 21
4264.121564636773
 31
0.0
  0
ARC
  5
1700B
330
747D
100
AcDbEntity
  8
部品1
 48
50.0
100
AcDbCircle
 10
4815.267560397864
 20
4352.694218014616
 30
0.0
 40
3.0
100
AcDbArc
 50
3.247342790337682
 51
82.34187279263654
  0
ARC
  5
1700C
330
747D
100
AcDbEntity
  8
部品1
 48
50.0
100
AcDbCircle
 10
4823.503590922708
 20
4260.494218014612
 30
0.0
 40
3.0
100
AcDbArc
 50
3.247342790337682
 51
82.34187279263654
  0
ARC
  5
1700D
330
747D
100
AcDbEntity
  8
部品1
 48
50.0
100
AcDbCircle
 10
4823.996660031269
 20
4264.161217176297
 30
0.0
 40
0.7
100
AcDbArc
 50
183.2473427903116
 51
262.3418727926365
  0
ARC
  5
1700E
330
747D
100
AcDbEntity
  8
部品1
 48
50.0
100
AcDbCircle
 10
4815.760629506429
 20
4356.361217176299
 30
0.0
 40
0.7
100
AcDbArc
 50
183.2473427903897
 51
262.3418727926365
  0
ARC
  5
1700F
330
747D
100
AcDbEntity
  8
部品1
100
AcDbCircle
 10
4834.132439717105
 20
4249.694218014616
 30
0.0
 40
7.0
100
AcDbArc
 50
183.2473427903377
 51
270.0
  0
ARC
  5
17010
330
747D
100
AcDbEntity
  8
部品1
100
AcDbCircle
 10
4820.917116256074
 20
4376.694218014614
 30
0.0
 40
7.0
100
AcDbArc
 50
90.0
 51
183.2473427903377
  0
LINE
  5
17011
330
747D
100
AcDbEntity
  8
細線
 48
50.0
100
AcDbLine
 10
4846.508695149641
 20
4383.694218014614
 30
0.0
 11
4846.508695149641
 21
4242.694218014614
 31
0.0
  0
LINE
  5
17012
330
747D
100
AcDbEntity
  8
細線
 48
50.0
100
AcDbLine
 10
7533.233126403352
 20
4263.494218014609
 30
0.0
 11
4823.784263895908
 21
4263.494218014615
 31
0.0
  0
LINE
  5
17013
330
747D
100
AcDbEntity
  8
細線
 48
50.0
100
AcDbLine
 10
7541.469156928204
 20
4355.694218014614
 30
0.0
 11
4815.548233371083
 21
4355.694218014612
 31
0.0
  0
LINE
  5
17014
330
747D
100
AcDbEntity
  8
部品1
 48
50.0
100
AcDbLine
 10
7522.884950582174
 20
4242.694218014616
 30
0.0
 11
4834.132439717105
 21
4242.694218014614
 31
0.0
  0
LINE
  5
17015
330
747D
100
AcDbEntity
  8
部品1
 48
50.0
100
AcDbLine
 10
7536.100274043206
 20
4383.694218014614
 30
0.0
 11
4820.917116256074
 21
4383.694218014616
 31
0.0
  0
DIMENSION
  5
17016
330
747D
100
AcDbEntity
  8
寸法
 48
50.0
100
AcDbDimension
  2
*D9
 10
4863.508695149642
 20
4788.314477441883
 30
0.0
 11
6178.508695149638
 21
4788.314477441883
 31
0.0
 70
   160
  1
柱外寸法<>
 71
     5
 42
2630.0
  3
INABA_S40G
100
AcDbAlignedDimension
 13
7493.508695149642
 23
4383.694218014614
 33
0.0
 14
4863.508695149642
 24
4383.694218014616
 34
0.0
100
AcDbRotatedDimension
  0
DIMENSION
  5
17017
330
747D
100
AcDbEntity
  8
寸法
 48
50.0
100
AcDbDimension
  2
*D10
 10
4813.508695149642
 20
4788.314477441883
 30
0.0
 11
4500.023413775394
 21
4788.314477441883
 31
0.0
 70
   160
 71
     5
 42
50.0
  3
INABA_S40G
100
AcDbAlignedDimension
 13
4863.508695149642
 23
4383.694218014616
 33
0.0
 14
4813.508695149642
 24
4383.694218014614
 34
0.0
100
AcDbRotatedDimension
1001
ACAD
1000
DSTYLE
1002
{
1002
}
  0
DIMENSION
  5
17018
330
747D
100
AcDbEntity
  8
寸法
 48
50.0
100
AcDbDimension
  2
*D11
 10
7543.508695149641
 20
4997.908351863334
 30
0.0
 11
6178.508695149641
 21
4997.908351863334
 31
0.0
 70
   160
 71
     5
 42
2730.0
  3
INABA_S40G
100
AcDbAlignedDimension
 13
4813.508695149642
 23
4383.694218014614
 33
0.0
 14
7543.508695149641
 24
4383.694218014612
 34
0.0
100
AcDbRotatedDimension
  0
TEXT
  5
17075
330
747D
100
AcDbEntity
  8
文字
 62
     7
 48
50.0
100
AcDbText
 10
14798.72402257234
 20
9740.013745883725
 30
0.0
 40
100.0
  1
F12(一般型1.2/多雪地型2.3)
  7
STYLE1
100
AcDbText
  0
LINE
  5
17076
330
747D
100
AcDbEntity
  8
部品1
 48
50.0
100
AcDbLine
 10
10103.60572448689
 20
4091.694218014612
 30
0.0
 11
10103.60572448689
 21
2358.694218014612
 31
0.0
  0
LINE
  5
17077
330
747D
100
AcDbEntity
  8
部品1
 48
50.0
100
AcDbLine
 10
10509.60571517971
 20
4091.694218014616
 30
0.0
 11
10509.60571517971
 21
2366.194218014614
 31
0.0
  0
LINE
  5
17078
330
747D
100
AcDbEntity
  8
細線
100
AcDbLine
 10
10251.1057151797
 20
4091.694218014604
 30
0.0
 11
10251.1057151797
 21
2366.194218014612
 31
0.0
  0
LINE
  5
17079
330
747D
100
AcDbEntity
  8
細線
100
AcDbLine
 10
10181.1057151797
 20
4091.694218014604
 30
0.0
 11
10181.1057151797
 21
2366.194218014612
 31
0.0
  0
LINE
  5
1707A
330
747D
100
AcDbEntity
  8
部品1
100
AcDbLine
 10
9813.605724486883
 20
4091.694218014604
 30
0.0
 11
9813.605724486883
 21
2358.69421801461
 31
0.0
  0
LINE
  5
1707B
330
747D
100
AcDbEntity
  8
部品1
100
AcDbLine
 10
9763.605724486883
 20
4091.694218014604
 30
0.0
 11
9763.605724486883
 21
2358.69421801461
 31
0.0
  0
LINE
  5
1707C
330
747D
100
AcDbEntity
  8
細線
100
AcDbLine
 10
9805.605724486882
 20
4091.694218014604
 30
0.0
 11
9805.605724486882
 21
2358.69421801461
 31
0.0
  0
LINE
  5
1707D
330
747D
100
AcDbEntity
  8
細線
100
AcDbLine
 10
9771.605724486882
 20
4091.694218014604
 30
0.0
 11
9771.605724486882
 21
2358.69421801461
 31
0.0
  0
LINE
  5
1707E
330
747D
100
AcDbEntity
  8
細線
100
AcDbLine
 10
10788.3557175065
 20
4091.694218014604
 30
0.0
 11
10788.3557175065
 21
2366.194218014619
 31
0.0
  0
LINE
  5
1707F
330
747D
100
AcDbEntity
  8
細線
100
AcDbLine
 10
10718.3557175065
 20
4091.694218014604
 30
0.0
 11
10718.3557175065
 21
2366.194218014619
 31
0.0
  0
LINE
  5
17080
330
747D
100
AcDbEntity
  8
細線
100
AcDbLine
 10
10648.3557175065
 20
4091.694218014604
 30
0.0
 11
10648.3557175065
 21
2366.194218014619
 31
0.0
  0
LINE
  5
17081
330
747D
100
AcDbEntity
  8
細線
100
AcDbLine
 10
10578.3557175065
 20
4091.694218014604
 30
0.0
 11
10578.3557175065
 21
2366.194218014619
 31
0.0
  0
LINE
  5
17082
330
747D
100
AcDbEntity
  8
細線
100
AcDbLine
 10
10003.60572448689
 20
4091.694218014608
 30
0.0
 11
10003.60572448689
 21
2358.694218014612
 31
0.0
  0
LINE
  5
17083
330
747D
100
AcDbEntity
  8
細線
100
AcDbLine
 10
9933.605724486888
 20
4091.694218014608
 30
0.0
 11
9933.605724486888
 21
2358.694218014612
 31
0.0
  0
LINE
  5
17084
330
747D
100
AcDbEntity
  8
細線
100
AcDbLine
 10
10391.1057151797
 20
4091.694218014604
 30
0.0
 11
10391.1057151797
 21
2366.194218014615
 31
0.0
  0
LINE
  5
17085
330
747D
100
AcDbEntity
  8
細線
100
AcDbLine
 10
10321.1057151797
 20
4091.694218014604
 30
0.0
 11
10321.1057151797
 21
2366.194218014615
 31
0.0
  0
LINE
  5
17086
330
747D
100
AcDbEntity
  8
部品1
 48
50.0
100
AcDbLine
 10
9643.605724486887
 20
2358.69421801461
 30
0.0
 11
9643.605724486887
 21
4091.694218014612
 31
0.0
  0
LINE
  5
17087
330
747D
100
AcDbEntity
  8
細線
 48
50.0
100
AcDbLine
 10
9643.605724486887
 20
4101.194218014613
 30
0.0
 11
9643.605724486887
 21
2308.69421801461
 31
0.0
  0
LINE
  5
17088
330
747D
100
AcDbEntity
  8
部品1
 48
50.0
100
AcDbLine
 10
9613.605724486887
 20
4143.694218014612
 30
0.0
 11
9613.605724486887
 21
2308.69421801461
 31
0.0
  0
LINE
  5
17089
330
747D
100
AcDbEntity
  8
部品1
 48
50.0
100
AcDbLine
 10
10888.60572448688
 20
2355.69421801461
 30
0.0
 11
10888.60572448688
 21
4091.694218014612
 31
0.0
  0
LINE
  5
1708A
330
747D
100
AcDbEntity
  8
細線
 48
50.0
100
AcDbLine
 10
10897.60572448688
 20
2308.69421801461
 30
0.0
 11
10897.60572448688
 21
4101.194218014613
 31
0.0
  0
LINE
  5
1708B
330
747D
100
AcDbEntity
  8
部品1
 48
50.0
100
AcDbLine
 10
10927.60572448688
 20
2308.69421801461
 30
0.0
 11
10927.60572448688
 21
4143.694218014612
 31
0.0
  0
LINE
  5
1708C
330
747D
100
AcDbEntity
  8
細線
 48
50.0
100
AcDbLine
 10
9643.605724486887
 20
2355.69421801461
 30
0.0
 11
10897.60572448688
 21
2355.69421801461
 31
0.0
  0
LINE
  5
1708D
330
747D
100
AcDbEntity
  8
細線
 48
50.0
100
AcDbLine
 10
9643.605724486887
 20
2351.69421801461
 30
0.0
 11
10897.60572448688
 21
2351.69421801461
 31
0.0
  0
LINE
  5
1708E
330
747D
100
AcDbEntity
  8
部品1
 48
50.0
100
AcDbLine
 10
9613.605724486887
 20
2308.69421801461
 30
0.0
 11
10927.60572448688
 21
2308.69421801461
 31
0.0
  0
LINE
  5
1708F
330
747D
100
AcDbEntity
  8
部品1
 48
50.0
100
AcDbLine
 10
9643.605724486887
 20
2358.69421801461
 30
0.0
 11
10103.60572448689
 21
2358.694218014612
 31
0.0
  0
LINE
  5
17090
330
747D
100
AcDbEntity
  8
部品1
 48
50.0
100
AcDbLine
 10
9652.605724486887
 20
2358.69421801461
 30
0.0
 11
9652.605724486887
 21
2355.69421801461
 31
0.0
  0
LINE
  5
17091
330
747D
100
AcDbEntity
  8
細線
 48
50.0
100
AcDbLine
 10
10103.60572448689
 20
2366.194218014612
 30
0.0
 11
10871.60572448688
 21
2366.19421801461
 31
0.0
  0
LINE
  5
17092
330
747D
100
AcDbEntity
  8
細線
 48
50.0
100
AcDbLine
 10
10875.60572448688
 20
2355.69421801461
 30
0.0
 11
10871.60572448688
 21
2366.19421801461
 31
0.0
  0
LINE
  5
17093
330
747D
100
AcDbEntity
  8
細線
 48
50.0
100
AcDbLine
 10
10897.60572448688
 20
4101.194218014613
 30
0.0
 11
9643.605724486887
 21
4101.194218014613
 31
0.0
  0
LINE
  5
17094
330
747D
100
AcDbEntity
  8
細線
 48
50.0
100
AcDbLine
 10
10897.60572448688
 20
4091.694218014612
 30
0.0
 11
9643.605724486887
 21
4091.694218014612
 31
0.0
  0
LINE
  5
17095
330
747D
100
AcDbEntity
  8
細線
 48
50.0
100
AcDbLine
 10
10927.60572448688
 20
4133.694218014612
 30
0.0
 11
9613.605724486887
 21
4133.694218014612
 31
0.0
  0
LINE
  5
17096
330
747D
100
AcDbEntity
  8
部品1
 48
50.0
100
AcDbLine
 10
10927.60572448688
 20
4143.694218014612
 30
0.0
 11
9613.605724486887
 21
4143.694218014612
 31
0.0
  0
LINE
  5
17097
330
747D
100
AcDbEntity
  8
部品1
 48
50.0
100
AcDbLine
 10
9643.605724486887
 20
4099.694218014612
 30
0.0
 11
9613.605724486887
 21
4099.694218014612
 31
0.0
  0
LINE
  5
17098
330
747D
100
AcDbEntity
  8
部品1
 48
50.0
100
AcDbLine
 10
10927.60572448688
 20
4099.694218014612
 30
0.0
 11
10897.60572448688
 21
4099.694218014612
 31
0.0
  0
LINE
  5
170B2
330
747D
100
AcDbEntity
  8
部品1
 48
50.0
100
AcDbLine
 10
9687.605724486886
 20
3290.194218014601
 30
0.0
 11
9740.605724486886
 21
3290.194218014601
 31
0.0
  0
TEXT
  5
1712E
330
747D
100
AcDbEntity
  8
文字
 62
     7
 48
50.0
100
AcDbText
 10
13248.77747366447
 20
8380.013745883728
 30
0.0
 40
100.0
  1
17
  7
STYLE1
100
AcDbText
  0
TEXT
  5
1712F
330
747D
100
AcDbEntity
  8
文字
 62
     7
 48
50.0
100
AcDbText
 10
13248.77747366447
 20
8550.013745883729
 30
0.0
 40
100.0
  1
16
  7
STYLE1
100
AcDbText
  0
TEXT
  5
17130
330
747D
100
AcDbEntity
  8
文字
 62
     7
 48
50.0
100
AcDbText
 10
15022.63965474517
 20
9060.013745883725
 30
0.0
 40
100.0
  1
F12            1.0
  7
STYLE1
100
AcDbText
  0
TEXT
  5
17131
330
747D
100
AcDbEntity
  8
文字
 62
     7
 48
50.0
100
AcDbText
 10
13583.11819016569
 20
9060.013745883733
 30
0.0
 40
100.0
  1
壁面扉枠左右
  7
STYLE1
100
AcDbText
  0
TEXT
  5
17132
330
747D
100
AcDbEntity
  8
文字
 62
     7
 48
50.0
100
AcDbText
 10
15022.63965474517
 20
9230.013745883725
 30
0.0
 40
100.0
  1
F12            1.0
  7
STYLE1
100
AcDbText
  0
TEXT
  5
17133
330
747D
100
AcDbEntity
  8
文字
 62
     7
 48
50.0
100
AcDbText
 10
15022.63965474515
 20
9400.013745883727
 30
0.0
 40
100.0
  1
F12            0.7
  7
STYLE1
100
AcDbText
  0
TEXT
  5
17134
330
747D
100
AcDbEntity
  8
文字
 62
     7
 48
50.0
100
AcDbText
 10
13583.11819016569
 20
9230.013745883733
 30
0.0
 40
100.0
  1
壁面扉敷居
  7
STYLE1
100
AcDbText
  0
TEXT
  5
17135
330
747D
100
AcDbEntity
  8
文字
 62
     7
 48
50.0
100
AcDbText
 10
13583.11819016569
 20
9400.013745883729
 30
0.0
 40
100.0
  1
壁面扉鴨居
  7
STYLE1
100
AcDbText
  0
LINE
  5
17136
330
747D
100
AcDbEntity
  8
仕様書枠
 48
50.0
100
AcDbLine
 10
16307.19999999999
 20
8689.600000000003
 30
0.0
 11
13127.2
 21
8689.600000000005
 31
0.0
  0
LINE
  5
17137
330
747D
100
AcDbEntity
  8
仕様書枠
 48
50.0
100
AcDbLine
 10
16307.19999999999
 20
8519.600000000004
 30
0.0
 11
13127.2
 21
8519.600000000005
 31
0.0
  0
TEXT
  5
17138
330
747D
100
AcDbEntity
  8
文字
 62
     7
 48
50.0
100
AcDbText
 10
13583.11819016569
 20
8380.013745883728
 30
0.0
 40
100.0
  1
アンカープレート
  7
STYLE1
100
AcDbText
  0
TEXT
  5
17139
330
747D
100
AcDbEntity
  8
文字
 62
     7
 48
50.0
100
AcDbText
 10
15022.63965474515
 20
8380.013745883724
 30
0.0
 40
100.0
  1
F12            2.3
  7
STYLE1
100
AcDbText
  0
LINE
  5
1713A
330
747D
100
AcDbEntity
  8
仕様書枠
 48
50.0
100
AcDbLine
 10
16307.2
 20
10049.6
 30
0.0
 11
13127.2
 21
10049.6
 31
0.0
  0
LINE
  5
1713B
330
747D
100
AcDbEntity
  8
仕様書枠
 48
50.0
100
AcDbLine
 10
16307.2
 20
11409.6
 30
0.0
 11
13127.2
 21
11409.6
 31
0.0
  0
LINE
  5
1713C
330
747D
100
AcDbEntity
  8
仕様書枠
 48
50.0
100
AcDbLine
 10
16307.19999999999
 20
8009.600000000004
 30
0.0
 11
16307.2
 21
11409.6
 31
0.0
  0
LINE
  5
1713D
330
747D
100
AcDbEntity
  8
仕様書枠
 48
50.0
100
AcDbLine
 10
14785.2
 20
11409.59999999999
 30
0.0
 11
14785.2
 21
8349.600000000004
 31
0.0
  0
LINE
  5
1713E
330
747D
100
AcDbEntity
  8
仕様書枠
 48
50.0
100
AcDbLine
 10
13490.2
 20
11409.6
 30
0.0
 11
13490.20000000001
 21
8349.600000000007
 31
0.0
  0
LINE
  5
1713F
330
747D
100
AcDbEntity
  8
仕様書枠
 48
50.0
100
AcDbLine
 10
16307.2
 20
11239.6
 30
0.0
 11
13127.2
 21
11239.6
 31
0.0
  0
LINE
  5
17140
330
747D
100
AcDbEntity
  8
仕様書枠
 48
50.0
100
AcDbLine
 10
16307.2
 20
10899.6
 30
0.0
 11
13127.2
 21
10899.6
 31
0.0
  0
LINE
  5
17141
330
747D
100
AcDbEntity
  8
仕様書枠
 48
50.0
100
AcDbLine
 10
16307.2
 20
11069.6
 30
0.0
 11
13127.2
 21
11069.6
 31
0.0
  0
LINE
  5
17142
330
747D
100
AcDbEntity
  8
仕様書枠
 48
50.0
100
AcDbLine
 10
16307.19999999999
 20
10559.6
 30
0.0
 11
13127.2
 21
10559.6
 31
0.0
  0
LINE
  5
17143
330
747D
100
AcDbEntity
  8
仕様書枠
 48
50.0
100
AcDbLine
 10
16307.19999999999
 20
10389.6
 30
0.0
 11
13127.2
 21
10389.6
 31
0.0
  0
LINE
  5
17144
330
747D
100
AcDbEntity
  8
仕様書枠
 48
50.0
100
AcDbLine
 10
16307.19999999999
 20
10729.6
 30
0.0
 11
13127.2
 21
10729.6
 31
0.0
  0
TEXT
  5
17145
330
747D
100
AcDbEntity
  8
文字
 62
     7
 48
50.0
100
AcDbText
 10
13197.42518560407
 20
11270.01374588372
 30
0.0
 40
100.0
  1
品番
  7
STYLE1
100
AcDbText
  0
TEXT
  5
17146
330
747D
100
AcDbEntity
  8
文字
 62
     7
 48
50.0
100
AcDbText
 10
13271.19032244792
 20
11100.01374588373
 30
0.0
 40
100.0
  1
1
  7
STYLE1
100
AcDbText
  0
TEXT
  5
17147
330
747D
100
AcDbEntity
  8
文字
 62
     7
 48
50.0
100
AcDbText
 10
13271.19032244792
 20
10930.01374588373
 30
0.0
 40
100.0
  1
2
  7
STYLE1
100
AcDbText
  0
TEXT
  5
17148
330
747D
100
AcDbEntity
  8
文字
 62
     7
 48
50.0
100
AcDbText
 10
13271.19032244792
 20
10590.01374588373
 30
0.0
 40
100.0
  1
4
  7
STYLE1
100
AcDbText
  0
TEXT
  5
17149
330
747D
100
AcDbEntity
  8
文字
 62
     7
 48
50.0
100
AcDbText
 10
13271.19032244792
 20
10760.01374588373
 30
0.0
 40
100.0
  1
3
  7
STYLE1
100
AcDbText
  0
TEXT
  5
1714A
330
747D
100
AcDbEntity
  8
文字
 62
     7
 48
50.0
100
AcDbText
 10
13732.03840939434
 20
11270.01374588372
 30
0.0
 40
100.0
  1
部　　品　　名
  7
STYLE1
100
AcDbText
  0
TEXT
  5
1714B
330
747D
100
AcDbEntity
  8
文字
 62
     7
 48
50.0
100
AcDbText
 10
14859.79774614482
 20
11270.01374588372
 30
0.0
 40
100.0
  1
材料（材質）　　単位mm
  7
STYLE1
100
AcDbText
  0
TEXT
  5
1714C
330
747D
100
AcDbEntity
  8
文字
 62
     7
 48
50.0
100
AcDbText
 10
13583.11819016569
 20
11100.01374588373
 30
0.0
 40
100.0
  1
土台枠
  7
STYLE1
100
AcDbText
  0
TEXT
  5
1714D
330
747D
100
AcDbEntity
  8
文字
 62
     7
 48
50.0
100
AcDbText
 10
13583.1181901657
 20
10760.01374588372
 30
0.0
 40
100.0
  1
柱
  7
STYLE1
100
AcDbText
  0
TEXT
  5
1714E
330
747D
100
AcDbEntity
  8
文字
 62
     7
 48
50.0
100
AcDbText
 10
13583.11819016569
 20
10420.01374588373
 30
0.0
 40
100.0
  1
桁前後
  7
STYLE1
100
AcDbText
  0
TEXT
  5
1714F
330
747D
100
AcDbEntity
  8
文字
 62
     7
 48
50.0
100
AcDbText
 10
13271.19032244792
 20
10420.01374588372
 30
0.0
 40
100.0
  1
5
  7
STYLE1
100
AcDbText
  0
TEXT
  5
17150
330
747D
100
AcDbEntity
  8
文字
 62
     7
 48
50.0
100
AcDbText
 10
13583.11819016569
 20
10250.01374588373
 30
0.0
 40
100.0
  1
妻板左右
  7
STYLE1
100
AcDbText
  0
TEXT
  5
17151
330
747D
100
AcDbEntity
  8
文字
 62
     7
 48
50.0
100
AcDbText
 10
13248.77747366447
 20
9570.013745883727
 30
0.0
 40
100.0
  1
10
  7
STYLE1
100
AcDbText
  0
TEXT
  5
17152
330
747D
100
AcDbEntity
  8
文字
 62
     7
 48
50.0
100
AcDbText
 10
13583.11819016568
 20
9570.013745883729
 30
0.0
 40
100.0
  1
壁パネル
  7
STYLE1
100
AcDbText
  0
TEXT
  5
17153
330
747D
100
AcDbEntity
  8
文字
 62
     7
 48
50.0
100
AcDbText
 10
13583.11819016569
 20
9910.013745883727
 30
0.0
 40
100.0
  1
屋根パネル
  7
STYLE1
100
AcDbText
  0
TEXT
  5
17154
330
747D
100
AcDbEntity
  8
文字
 62
     7
 48
50.0
100
AcDbText
 10
13583.11819016569
 20
10080.01374588372
 30
0.0
 40
100.0
  1
鼻隠シ前後
  7
STYLE1
100
AcDbText
  0
TEXT
  5
17155
330
747D
100
AcDbEntity
  8
文字
 62
     7
 48
50.0
100
AcDbText
 10
13271.19032244792
 20
9910.01374588373
 30
0.0
 40
100.0
  1
8
  7
STYLE1
100
AcDbText
  0
TEXT
  5
17156
330
747D
100
AcDbEntity
  8
文字
 62
     7
 48
50.0
100
AcDbText
 10
13271.19032244792
 20
9740.013745883729
 30
0.0
 40
100.0
  1
9
  7
STYLE1
100
AcDbText
  0
TEXT
  5
17157
330
747D
100
AcDbEntity
  8
文字
 62
     7
 48
50.0
100
AcDbText
 10
13271.19032244792
 20
10080.01374588373
 30
0.0
 40
100.0
  1
7
  7
STYLE1
100
AcDbText
  0
TEXT
  5
17158
330
747D
100
AcDbEntity
  8
文字
 62
     7
 48
50.0
100
AcDbText
 10
13271.19032244792
 20
10250.01374588373
 30
0.0
 40
100.0
  1
6
  7
STYLE1
100
AcDbText
  0
LINE
  5
17159
330
747D
100
AcDbEntity
  8
仕様書枠
 48
50.0
100
AcDbLine
 10
16307.19999999999
 20
9709.6
 30
0.0
 11
13127.2
 21
9709.600000000001
 31
0.0
  0
LINE
  5
1715A
330
747D
100
AcDbEntity
  8
仕様書枠
 48
50.0
100
AcDbLine
 10
16307.19999999999
 20
9369.599999999998
 30
0.0
 11
13127.2
 21
9369.600000000001
 31
0.0
  0
LINE
  5
1715B
330
747D
100
AcDbEntity
  8
仕様書枠
 48
50.0
100
AcDbLine
 10
16307.19999999999
 20
9539.599999999998
 30
0.0
 11
13127.2
 21
9539.6
 31
0.0
  0
LINE
  5
1715C
330
747D
100
AcDbEntity
  8
仕様書枠
 48
50.0
100
AcDbLine
 10
16307.2
 20
10219.6
 30
0.0
 11
13127.2
 21
10219.6
 31
0.0
  0
LINE
  5
1715D
330
747D
100
AcDbEntity
  8
仕様書枠
 48
50.0
100
AcDbLine
 10
16307.2
 20
9879.599999999999
 30
0.0
 11
13127.2
 21
9879.600000000001
 31
0.0
  0
TEXT
  5
1715E
330
747D
100
AcDbEntity
  8
文字
 62
     7
 48
50.0
100
AcDbText
 10
13248.77747366447
 20
9400.013745883727
 30
0.0
 40
100.0
  1
11
  7
STYLE1
100
AcDbText
  0
LINE
  5
1715F
330
747D
100
AcDbEntity
  8
仕様書枠
 48
50.0
100
AcDbLine
 10
16307.19999999999
 20
9199.599999999998
 30
0.0
 11
13127.2
 21
9199.600000000001
 31
0.0
  0
LINE
  5
17160
330
747D
100
AcDbEntity
  8
仕様書枠
 48
50.0
100
AcDbLine
 10
16307.19999999999
 20
8859.6
 30
0.0
 11
13127.2
 21
8859.600000000002
 31
0.0
  0
TEXT
  5
17161
330
747D
100
AcDbEntity
  8
文字
 62
     7
 48
50.0
100
AcDbText
 10
13248.77747366448
 20
9060.013745883727
 30
0.0
 40
100.0
  1
13
  7
STYLE1
100
AcDbText
  0
TEXT
  5
17162
330
747D
100
AcDbEntity
  8
文字
 62
     7
 48
50.0
100
AcDbText
 10
13248.77747366448
 20
9230.013745883727
 30
0.0
 40
100.0
  1
12
  7
STYLE1
100
AcDbText
  0
TEXT
  5
17163
330
747D
100
AcDbEntity
  8
文字
 62
     7
 48
50.0
100
AcDbText
 10
15022.63965474517
 20
11100.01374588372
 30
0.0
 40
100.0
  1
F12            1.2
  7
STYLE1
100
AcDbText
  0
TEXT
  5
17164
330
747D
100
AcDbEntity
  8
文字
 62
     7
 48
50.0
100
AcDbText
 10
15022.63965474518
 20
10760.01374588372
 30
0.0
 40
100.0
  1
F12            1.0
  7
STYLE1
100
AcDbText
  0
TEXT
  5
17165
330
747D
100
AcDbEntity
  8
文字
 62
     7
 48
50.0
100
AcDbText
 10
15022.63965474516
 20
10420.01374588372
 30
0.0
 40
100.0
  1
Y10            1.0
  7
STYLE1
100
AcDbText
  0
TEXT
  5
17166
330
747D
100
AcDbEntity
  8
文字
 62
     7
 48
50.0
100
AcDbText
 10
15022.63965474516
 20
10250.01374588372
 30
0.0
 40
100.0
  1
Y10            0.7
  7
STYLE1
100
AcDbText
  0
TEXT
  5
17167
330
747D
100
AcDbEntity
  8
文字
 62
     7
 48
50.0
100
AcDbText
 10
15022.63965474516
 20
10080.01374588372
 30
0.0
 40
100.0
  1
Y10            0.7
  7
STYLE1
100
AcDbText
  0
TEXT
  5
17168
330
747D
100
AcDbEntity
  8
文字
 62
     7
 48
50.0
100
AcDbText
 10
15022.63965474517
 20
9910.013745883725
 30
0.0
 40
100.0
  1
Y10            0.5
  7
STYLE1
100
AcDbText
  0
TEXT
  5
17169
330
747D
100
AcDbEntity
  8
文字
 62
     7
 48
50.0
100
AcDbText
 10
15022.63965474515
 20
9570.013745883725
 30
0.0
 40
100.0
  1
F12            0.6
  7
STYLE1
100
AcDbText
  0
LINE
  5
1716A
330
747D
100
AcDbEntity
  8
仕様書枠
 48
50.0
100
AcDbLine
 10
16307.19999999999
 20
8349.600000000004
 30
0.0
 11
13127.19999999999
 21
8349.600000000007
 31
0.0
  0
LINE
  5
1716B
330
747D
100
AcDbEntity
  8
仕様書枠
 48
50.0
100
AcDbLine
 10
16307.19999999999
 20
8179.600000000004
 30
0.0
 11
13127.19999999999
 21
8179.600000000005
 31
0.0
  0
TEXT
  5
1716C
330
747D
100
AcDbEntity
  8
文字
 62
     7
 48
50.0
100
AcDbText
 10
13229.83081656554
 20
8210.013745883733
 30
0.0
 40
100.0
  1
F12→溶融亜鉛めっき鋼板(JIS G 3302)
  7
STYLE1
100
AcDbText
  0
TEXT
  5
1716D
330
747D
100
AcDbEntity
  8
文字
 62
     7
 48
50.0
100
AcDbText
 10
13229.83081656554
 20
8040.013745883731
 30
0.0
 40
100.0
  1
Y10→溶融亜鉛-5％アルミニウム合金めっき鋼板(JIS G 3317)
 41
0.9
  7
STYLE1
100
AcDbText
  0
LINE
  5
1716E
330
747D
100
AcDbEntity
  8
仕様書枠
 48
50.0
100
AcDbLine
 10
13127.2
 20
11409.6
 30
0.0
 11
13127.19999999999
 21
8009.600000000006
 31
0.0
  0
LINE
  5
1716F
330
747D
100
AcDbEntity
  8
仕様書枠
 48
50.0
100
AcDbLine
 10
16307.19999999999
 20
9029.6
 30
0.0
 11
13127.2
 21
9029.600000000002
 31
0.0
  0
TEXT
  5
17170
330
747D
100
AcDbEntity
  8
文字
 62
     7
 48
50.0
100
AcDbText
 10
13583.1181901657
 20
10590.01374588373
 30
0.0
 40
100.0
  1
床パネル
 41
0.9
  7
STYLE1
100
AcDbText
  0
TEXT
  5
17171
330
747D
100
AcDbEntity
  8
文字
 62
     7
 48
50.0
100
AcDbText
 10
13583.11819016569
 20
10930.01374588372
 30
0.0
 40
100.0
  1
根太
  7
STYLE1
100
AcDbText
  0
TEXT
  5
17172
330
747D
100
AcDbEntity
  8
文字
 62
     7
 48
50.0
100
AcDbText
 10
13248.77747366448
 20
8890.013745883727
 30
0.0
 40
100.0
  1
14
  7
STYLE1
100
AcDbText
  0
TEXT
  5
17173
330
747D
100
AcDbEntity
  8
文字
 62
     7
 48
50.0
100
AcDbText
 10
15022.63965474516
 20
10930.01374588372
 30
0.0
 40
100.0
  1
F12            1.2
  7
STYLE1
100
AcDbText
  0
TEXT
  5
17174
330
747D
100
AcDbEntity
  8
文字
 62
     7
 48
50.0
100
AcDbText
 10
15022.63965474517
 20
10590.01374588372
 30
0.0
 40
100.0
  1
F12            1.0
  7
STYLE1
100
AcDbText
  0
TEXT
  5
17175
330
747D
100
AcDbEntity
  8
文字
 62
     7
 48
50.0
100
AcDbText
 10
15022.63965474515
 20
8890.013745883727
 30
0.0
 40
100.0
  1
F12            0.7
  7
STYLE1
100
AcDbText
  0
TEXT
  5
17176
330
747D
100
AcDbEntity
  8
文字
 62
     7
 48
50.0
100
AcDbText
 10
13583.11819016568
 20
8890.013745883731
 30
0.0
 40
100.0
  1
正面パネル
  7
STYLE1
100
AcDbText
  0
TEXT
  5
17177
330
747D
100
AcDbEntity
  8
文字
 62
     7
 48
50.0
100
AcDbText
 10
15022.63965474516
 20
8720.013745883727
 30
0.0
 40
100.0
  1
F12            0.8
  7
STYLE1
100
AcDbText
  0
TEXT
  5
17178
330
747D
100
AcDbEntity
  8
文字
 62
     7
 48
50.0
100
AcDbText
 10
13583.11819016569
 20
8720.013745883731
 30
0.0
 40
100.0
  1
扉
  7
STYLE1
100
AcDbText
  0
LINE
  5
17179
330
747D
100
AcDbEntity
  8
仕様書枠
 48
50.0
100
AcDbLine
 10
16307.19999999999
 20
8009.600000000004
 30
0.0
 11
13127.19999999999
 21
8009.600000000006
 31
0.0
  0
TEXT
  5
1717A
330
747D
100
AcDbEntity
  8
文字
 62
     7
 48
50.0
100
AcDbText
 10
13248.77747366447
 20
8720.013745883729
 30
0.0
 40
100.0
  1
15
  7
STYLE1
100
AcDbText
  0
TEXT
  5
1717B
330
747D
100
AcDbEntity
  8
文字
 62
     7
 48
50.0
100
AcDbText
 10
13583.11819016569
 20
9740.013745883729
 30
0.0
 40
100.0
  1
母屋中
  7
STYLE1
100
AcDbText
  0
TEXT
  5
1717C
330
747D
100
AcDbEntity
  8
文字
 62
     7
 48
50.0
100
AcDbText
 10
15022.63965474516
 20
8550.013745883727
 30
0.0
 40
100.0
  1
F12            0.6
  7
STYLE1
100
AcDbText
  0
TEXT
  5
1717D
330
747D
100
AcDbEntity
  8
文字
 62
     7
 48
50.0
100
AcDbText
 10
13583.11819016569
 20
8550.013745883731
 30
0.0
 40
100.0
  1
棚板
  7
STYLE1
100
AcDbText
  0
LINE
  5
1717E
330
747D
100
AcDbEntity
  8
部品1
100
AcDbLine
 10
10755.6057244869
 20
2308.694218014612
 30
0.0
 11
10755.6057244869
 21
2208.694218014612
 31
0.0
  0
LINE
  5
1717F
330
747D
100
AcDbEntity
  8
部品1
 48
50.0
100
AcDbLine
 10
10170.6057244869
 20
2308.694218014612
 30
0.0
 11
10170.6057244869
 21
2208.694218014612
 31
0.0
  0
LINE
  5
17180
330
747D
100
AcDbEntity
  8
部品1
 48
50.0
100
AcDbLine
 10
10370.6057244869
 20
2308.694218014612
 30
0.0
 11
10370.6057244869
 21
2208.694218014612
 31
0.0
  0
LINE
  5
17181
330
747D
100
AcDbEntity
  8
部品1
100
AcDbLine
 10
9785.605724486906
 20
2308.694218014612
 30
0.0
 11
9785.605724486906
 21
2208.694218014612
 31
0.0
  0
LINE
  5
17182
330
747D
100
AcDbEntity
  8
部品1
100
AcDbLine
 10
10927.6057244869
 20
2358.694218014612
 30
0.0
 11
10955.6057244869
 21
2358.694218014612
 31
0.0
  0
LINE
  5
17183
330
747D
100
AcDbEntity
  8
破線
 48
5.0
100
AcDbLine
 10
9580.605724486886
 20
2208.694218014612
 30
0.0
 11
9580.605724486886
 21
2053.694218014612
 31
0.0
  0
LINE
  5
17184
330
747D
100
AcDbEntity
  8
破線
 48
5.0
100
AcDbLine
 10
10960.6057244869
 20
2208.694218014612
 30
0.0
 11
10960.6057244869
 21
2053.694218014612
 31
0.0
  0
LINE
  5
17185
330
747D
100
AcDbEntity
  8
破線
 48
5.0
100
AcDbLine
 10
9560.605724486887
 20
2053.694218014612
 30
0.0
 11
9580.605724486886
 21
2053.694218014612
 31
0.0
  0
LINE
  5
17186
330
747D
100
AcDbEntity
  8
部品1
100
AcDbLine
 10
9580.605724486886
 20
2353.694218014613
 30
0.0
 11
9580.605724486886
 21
2208.694218014612
 31
0.0
  0
LINE
  5
17187
330
747D
100
AcDbEntity
  8
破線
 48
5.0
100
AcDbLine
 10
10980.6057244869
 20
2053.694218014612
 30
0.0
 11
10960.6057244869
 21
2053.694218014612
 31
0.0
  0
LINE
  5
17188
330
747D
100
AcDbEntity
  8
部品1
100
AcDbLine
 10
10960.6057244869
 20
2353.694218014612
 30
0.0
 11
10960.6057244869
 21
2208.694218014612
 31
0.0
  0
LINE
  5
17189
330
747D
100
AcDbEntity
  8
部品1
100
AcDbLine
 10
10955.6057244869
 20
4203.330798849865
 30
0.0
 11
10955.6057244869
 21
2208.694218014612
 31
0.0
  0
LINE
  5
1718A
330
747D
100
AcDbEntity
  8
部品1
100
AcDbLine
 10
9640.605724486887
 20
4148.694218014612
 30
0.0
 11
9640.605724486887
 21
4143.694218014612
 31
0.0
  0
LINE
  5
1718B
330
747D
100
AcDbEntity
  8
部品1
100
AcDbLine
 10
10900.6057244869
 20
4148.694218014612
 30
0.0
 11
10900.6057244869
 21
4143.694218014612
 31
0.0
  0
LINE
  5
1718C
330
747D
100
AcDbEntity
  8
部品1
100
AcDbLine
 10
9585.605724486887
 20
4240.271111955055
 30
0.0
 11
9585.605724486887
 21
2208.694218014612
 31
0.0
  0
LINE
  5
1718D
330
747D
100
AcDbEntity
  8
部品1
100
AcDbLine
 10
9585.605724486887
 20
4148.694218014612
 30
0.0
 11
10955.6057244869
 21
4148.694218014612
 31
0.0
  0
LINE
  5
1718E
330
747D
100
AcDbEntity
  8
部品1
100
AcDbLine
 10
9585.605724486887
 20
2308.694218014612
 30
0.0
 11
10955.6057244869
 21
2308.694218014612
 31
0.0
  0
LINE
  5
1718F
330
747D
100
AcDbEntity
  8
部品1
100
AcDbLine
 10
9585.605724486887
 20
2358.694218014612
 30
0.0
 11
9613.605724486902
 21
2358.694218014612
 31
0.0
  0
LINE
  5
17190
330
747D
100
AcDbEntity
  8
破線
 48
5.0
100
AcDbLine
 10
10855.6057244869
 20
2208.694218014612
 30
0.0
 11
10855.6057244869
 21
2008.694218014611
 31
0.0
  0
LINE
  5
17191
330
747D
100
AcDbEntity
  8
破線
 48
5.0
100
AcDbLine
 10
11055.6057244869
 20
2008.69421801461
 30
0.0
 11
10855.6057244869
 21
2008.694218014611
 31
0.0
  0
LINE
  5
17192
330
747D
100
AcDbEntity
  8
破線
 48
5.0
100
AcDbLine
 10
11055.6057244869
 20
2208.694218014612
 30
0.0
 11
11055.6057244869
 21
2008.69421801461
 31
0.0
  0
LINE
  5
17193
330
747D
100
AcDbEntity
  8
破線
 48
5.0
100
AcDbLine
 10
9675.605724486887
 20
2008.694218014612
 30
0.0
 11
9475.605724486889
 21
2008.694218014612
 31
0.0
  0
LINE
  5
17194
330
747D
100
AcDbEntity
  8
破線
 48
5.0
100
AcDbLine
 10
9675.605724486889
 20
2208.694218014612
 30
0.0
 11
9675.605724486887
 21
2008.694218014612
 31
0.0
  0
LINE
  5
17195
330
747D
100
AcDbEntity
  8
破線
 48
5.0
100
AcDbLine
 10
9475.605724486888
 20
2208.694218014612
 30
0.0
 11
9475.605724486889
 21
2008.694218014612
 31
0.0
  0
TEXT
  5
17198
330
747D
100
AcDbEntity
  8
文字
 62
     7
 48
50.0
100
AcDbText
 10
14491.96323844892
 20
483.8967129911416
 30
0.0
 40
160.0
  1
ＮＸＮ－３６ＣＳＢ
  7
STYLE2
100
AcDbText
  0
DIMENSION
  5
17199
330
747D
100
AcDbEntity
  8
寸法
100
AcDbDimension
  2
*D12
 10
11490.77582024933
 20
4328.694218014613
 30
0.0
 11
11490.77582024933
 21
3290.9505454443
 31
0.0
 70
   160
 71
     5
 42
2020.000000000003
  3
INABA_S40G
100
AcDbAlignedDimension
 13
10955.6057244869
 23
2308.694218014612
 33
0.0
 14
11035.60572448688
 24
4328.694218014613
 34
0.0
 50
90.0
100
AcDbRotatedDimension
1001
ACAD
1000
DSTYLE
1002
{
1070
   174
1070
     0
1070
   272
1070
     1
1070
   288
1070
     0
1070
   341
1005
0
1002
}
  0
DIMENSION
  5
1719A
330
747D
100
AcDbEntity
  8
寸法
100
AcDbDimension
  2
*D13
 10
8961.953015328589
 20
2308.694218014612
 30
0.0
 11
8961.953015328589
 21
2002.646973920121
 31
0.0
 70
   160
 71
     5
 42
50.0
  3
INABA_S40G
100
AcDbAlignedDimension
 13
9585.605724486887
 23
2358.694218014612
 33
0.0
 14
9530.605724486887
 24
2308.694218014612
 34
0.0
 50
90.0
100
AcDbRotatedDimension
1001
ACAD
1000
DSTYLE
1002
{
1070
   174
1070
     0
1070
   272
1070
     1
1070
   288
1070
     0
1070
   341
1005
0
1002
}
  0
DIMENSION
  5
1719B
330
747D
100
AcDbEntity
  8
寸法
100
AcDbDimension
  2
*D14
 10
8676.966342557527
 20
2208.694218014612
 30
0.0
 11
8676.966342557527
 21
1972.64697392012
 31
0.0
 70
   160
 71
     5
 42
100.0000000000004
  3
INABA_S40G
100
AcDbAlignedDimension
 13
9530.605724486887
 23
2308.694218014612
 33
0.0
 14
8961.953015328589
 24
2208.694218014612
 34
0.0
 50
90.0
100
AcDbRotatedDimension
1001
ACAD
1000
DSTYLE
1002
{
1070
   174
1070
     0
1070
   272
1070
     1
1070
   288
1070
     0
1070
   341
1005
0
1002
}
  0
DIMENSION
  5
1719C
330
747D
100
AcDbEntity
  8
寸法
100
AcDbDimension
  2
*D15
 10
8676.966342557529
 20
4383.694218014616
 30
0.0
 11
8676.966342557527
 21
3302.900095507722
 31
0.0
 70
   160
 71
     5
 42
2075.000000000004
  3
INABA_S40G
100
AcDbAlignedDimension
 13
9585.605724486887
 23
2308.694218014612
 33
0.0
 14
9525.605724486887
 24
4383.694218014616
 34
0.0
 50
90.0
100
AcDbRotatedDimension
1001
ACAD
1000
DSTYLE
1002
{
1070
   174
1070
     0
1070
   272
1070
     1
1070
   288
1070
     0
1070
   341
1005
0
1002
}
  0
DIMENSION
  5
1719D
330
747D
100
AcDbEntity
  8
寸法
100
AcDbDimension
  2
*D16
 10
8961.953015328589
 20
2358.694218014612
 30
0.0
 11
8961.953015328589
 21
3249.148516556569
 31
0.0
 70
   160
 71
     5
 42
1789.999999999999
  3
INABA_S40G
100
AcDbAlignedDimension
 13
9585.605724486887
 23
4148.694218014611
 33
0.0
 14
9585.605724486887
 24
2358.694218014612
 34
0.0
 50
90.0
100
AcDbRotatedDimension
1001
ACAD
1000
DSTYLE
1002
{
1070
   174
1070
     0
1070
   272
1070
     1
1070
   288
1070
     0
1070
   341
1005
0
1002
}
  0
LINE
  5
171BC
330
747D
100
AcDbEntity
  8
部品1
 48
50.0
100
AcDbLine
 10
9613.605724486902
 20
2308.694218014612
 30
0.0
 11
10927.6057244869
 21
2308.694218014612
 31
0.0
  0
DIMENSION
  5
171BD
330
747D
100
AcDbEntity
  8
寸法
 48
50.0
100
AcDbDimension
  2
*D2
 10
9314.399695274751
 20
2366.694218014611
 30
0.0
 11
9314.399695274751
 21
3220.327237032137
 31
0.0
 70
   160
  1
有効開口部高サ<>
 71
     5
 42
1725.0
  3
INABA_S40G
100
AcDbAlignedDimension
 13
9613.605724486902
 23
4091.694218014612
 33
0.0
 14
9613.605724486902
 24
2366.694218014611
 34
0.0
 50
90.0
100
AcDbRotatedDimension
1001
ACAD
1000
DSTYLE
1002
{
1070
   341
1005
0
1002
}
  0
LINE
  5
171BE
330
747D
100
AcDbEntity
  8
部品1
100
AcDbLine
 10
10652.34105774675
 20
1519.655955037202
 30
0.0
 11
9888.870391518313
 21
1519.655955037202
 31
0.0
  0
LINE
  5
171BF
330
747D
100
AcDbEntity
  8
部品1
100
AcDbLine
 10
10652.34105774675
 20
1279.763633491669
 30
0.0
 11
10652.34105774675
 21
1519.655955037202
 31
0.0
  0
LINE
  5
171C0
330
747D
100
AcDbEntity
  8
部品1
100
AcDbLine
 10
9888.870391518313
 20
1279.763633491669
 30
0.0
 11
10652.34105774675
 21
1279.763633491669
 31
0.0
  0
LINE
  5
171C1
330
747D
100
AcDbEntity
  8
部品1
100
AcDbLine
 10
9888.870391518313
 20
1519.655955037202
 30
0.0
 11
9888.870391518313
 21
1279.763633491669
 31
0.0
  0
DIMENSION
  5
171CE
330
747D
100
AcDbEntity
  8
寸法
 48
50.0
100
AcDbDimension
  2
*D3
 10
9475.605724486884
 20
1722.646888714234
 30
0.0
 11
9575.605724486887
 21
1722.646888714234
 31
0.0
 70
   160
 71
     5
 42
200.0000000000018
  3
INABA_S40G
100
AcDbAlignedDimension
 13
9675.605724486887
 23
2008.694218014612
 33
0.0
 14
9475.605724486884
 24
2008.694218014612
 34
0.0
100
AcDbRotatedDimension
  0
TEXT
  5
171E5
330
747D
100
AcDbEntity
  8
部品1
100
AcDbText
 10
9979.395795256266
 20
1326.762425818678
 30
0.0
 40
135.0
  1
正面図
  7
STYLE2
100
AcDbText
  0
LINE
  5
17216
330
747D
100
AcDbEntity
  8
Ｇ．Ｌ
100
AcDbLine
 10
3740.217309101522
 20
2208.694218014612
 30
0.0
 11
11518.48955464271
 21
2208.694218014612
 31
0.0
  0
TEXT
  5
17217
330
747D
100
AcDbEntity
  8
文字
 62
     7
 48
50.0
100
AcDbText
 10
13209.4053442172
 20
228.5435242569015
 30
0.0
 40
100.0
  1
○有効開口寸法 ： 674×1725(mm)
  7
STYLE2
100
AcDbText
  0
LINE
  5
17218
330
747D
100
AcDbEntity
  8
部品1
 48
50.0
100
AcDbLine
 10
10130.60572448688
 20
4514.562357115892
 30
0.0
 11
10430.60572448688
 21
4492.962357115891
 31
0.0
  0
TEXT
  5
17219
330
747D
100
AcDbEntity
  8
部品1
 48
50.0
100
AcDbText
 10
10118.87355971061
 20
4550.446379268325
 30
0.0
 40
120.0
  1
1000
  7
STYLE1
100
AcDbText
  0
LINE
  5
1721A
330
747D
100
AcDbEntity
  8
部品1
 48
50.0
100
AcDbLine
 10
10430.60572448688
 20
4514.562357115892
 30
0.0
 11
10430.60572448688
 21
4492.962357115891
 31
0.0
  0
LINE
  5
1721B
330
747D
100
AcDbEntity
  8
部品1
 48
50.0
100
AcDbLine
 10
10130.60572448688
 20
4514.562357115892
 30
0.0
 11
10430.60572448688
 21
4514.562357115892
 31
0.0
  0
DIMENSION
  5
1721C
330
747D
100
AcDbEntity
  8
寸法
 48
50.0
100
AcDbDimension
  2
*D4
 10
11035.60572448688
 20
4782.351671593917
 30
0.0
 11
11241.65296858137
 21
4782.351671593917
 31
0.0
 70
   160
 71
     5
 42
80.0
  3
INABA_S40G
100
AcDbAlignedDimension
 13
10955.60572448688
 23
4330.504897626266
 33
0.0
 14
11035.60572448688
 24
4328.694218014613
 34
0.0
100
AcDbRotatedDimension
1001
ACAD
1000
DSTYLE
1002
{
1070
   174
1070
     0
1070
   272
1070
     1
1070
   288
1070
     0
1070
   341
1005
0
1002
}
  0
ARC
  5
1721D
330
747D
100
AcDbEntity
  8
部品1
100
AcDbCircle
 10
11021.23326030082
 20
4222.128018898831
 30
0.0
 40
0.7
100
AcDbArc
 50
275.0921697642102
 51
354.1866997666892
  0
ARC
  5
1721E
330
747D
100
AcDbEntity
  8
部品1
100
AcDbCircle
 10
11032.09260605014
 20
4299.171273716754
 30
0.0
 40
0.7
100
AcDbArc
 50
275.0921697642102
 51
354.1866997665337
  0
ARC
  5
1721F
330
747D
100
AcDbEntity
  8
部品1
100
AcDbCircle
 10
11032.42101129275
 20
4295.485876859664
 30
0.0
 40
3.0
100
AcDbArc
 50
95.0921697642102
 51
174.1866997665337
  0
ARC
  5
17220
330
747D
100
AcDbEntity
  8
部品1
100
AcDbCircle
 10
11021.56166554342
 20
4218.442622041741
 30
0.0
 40
3.0
100
AcDbArc
 50
95.0921697642102
 51
174.1866997665337
  0
ARC
  5
17221
330
747D
100
AcDbEntity
  8
部品1
 48
50.0
100
AcDbCircle
 10
11010.53353026832
 20
4208.851877437857
 30
0.0
 40
7.0
100
AcDbArc
 50
267.8377559869489
 51
354.1866997665337
  0
ARC
  5
17222
330
747D
100
AcDbEntity
  8
部品1
 48
50.0
100
AcDbCircle
 10
11027.85562673283
 20
4319.754424580031
 30
0.0
 40
7.0
100
AcDbArc
 50
354.1866997665337
 51
87.03587545283093
  0
LINE
  5
17223
330
747D
100
AcDbEntity
  8
部品1
 48
50.0
100
AcDbLine
 10
11018.57709387281
 20
4218.746483758643
 30
0.0
 11
11017.49753083307
 21
4208.142866765083
 31
0.0
  0
LINE
  5
17224
330
747D
100
AcDbEntity
  8
部品1
 48
50.0
100
AcDbLine
 10
11029.43643962213
 20
4295.789738576568
 30
0.0
 11
11021.9296603573
 21
4222.057117831555
 31
0.0
  0
LINE
  5
17225
330
747D
100
AcDbEntity
  8
部品1
 48
50.0
100
AcDbLine
 10
11034.81962729758
 20
4319.045413907256
 30
0.0
 11
11032.78900610662
 21
4299.100372649476
 31
0.0
  0
ARC
  5
17226
330
747D
100
AcDbEntity
  8
部品1
100
AcDbCircle
 10
9531.642816358251
 20
4262.508376973517
 30
0.0
 40
0.7
100
AcDbArc
 50
181.0932240292375
 51
260.1877540314855
  0
ARC
  5
17227
330
747D
100
AcDbEntity
  8
部品1
100
AcDbCircle
 10
9526.870142760643
 20
4355.374155173635
 30
0.0
 40
0.7
100
AcDbArc
 50
181.0932240292375
 51
260.1877540314855
  0
ARC
  5
17228
330
747D
100
AcDbEntity
  8
部品1
100
AcDbCircle
 10
9526.239588357622
 20
4351.728280636238
 30
0.0
 40
3.0
100
AcDbArc
 50
1.093224029289586
 51
80.18775403169765
  0
ARC
  5
17229
330
747D
100
AcDbEntity
  8
部品1
100
AcDbCircle
 10
9531.012261955225
 20
4258.862502436119
 30
0.0
 40
3.0
100
AcDbArc
 50
1.093224029289586
 51
80.18775403148559
  0
ARC
  5
1722A
330
747D
100
AcDbEntity
  8
部品1
 48
50.0
100
AcDbCircle
 10
9541.212394330429
 20
4248.470259053638
 30
0.0
 40
7.0
100
AcDbArc
 50
181.0932240292895
 51
267.8377559869489
  0
ARC
  5
1722B
330
747D
100
AcDbEntity
  8
部品1
 48
50.0
100
AcDbCircle
 10
9532.788736228333
 20
4375.421318586734
 30
0.0
 40
7.0
100
AcDbArc
 50
87.03587545283093
 51
181.0932240292895
  0
LINE
  5
1722C
330
747D
100
AcDbEntity
  8
部品1
 48
50.0
100
AcDbLine
 10
9534.011715881659
 20
4258.919740039302
 30
0.0
 11
9534.21366850209
 21
4248.336704646209
 31
0.0
  0
LINE
  5
1722D
330
747D
100
AcDbEntity
  8
細線
 48
50.0
100
AcDbLine
 10
9531.405622824987
 20
4261.84978815811
 30
0.0
 11
11021.40928725562
 21
4221.450512802042
 31
0.0
  0
LINE
  5
1722E
330
747D
100
AcDbEntity
  8
細線
 48
50.0
100
AcDbLine
 10
9526.6451475877
 20
4354.711299855975
 30
0.0
 11
11032.28113233287
 21
4298.497138833573
 31
0.0
  0
LINE
  5
1722F
330
747D
100
AcDbEntity
  8
部品1
 48
50.0
100
AcDbLine
 10
9529.239042284052
 20
4351.785518239421
 30
0.0
 11
9530.942943775418
 21
4262.495021532774
 31
0.0
  0
LINE
  5
17230
330
747D
100
AcDbEntity
  8
部品1
 48
50.0
100
AcDbLine
 10
9525.790010399994
 20
4375.287764179305
 30
0.0
 11
9526.170270177805
 21
4355.360799732895
 31
0.0
  0
LINE
  5
17231
330
747D
100
AcDbEntity
  8
細線
 48
50.0
100
AcDbLine
 10
11002.60572448689
 20
4328.071240668334
 30
0.0
 11
10997.85804159888
 21
4202.325468177591
 31
0.0
  0
LINE
  5
17232
330
747D
100
AcDbEntity
  8
細線
 48
50.0
100
AcDbLine
 10
9558.605724486888
 20
4381.093894390018
 30
0.0
 11
9553.316622931378
 21
4241.008261762663
 31
0.0
  0
LINE
  5
17233
330
747D
100
AcDbEntity
  8
部品1
100
AcDbLine
 10
9540.948289088841
 20
4241.47524308358
 30
0.0
 11
11010.26942502673
 21
4201.856861467801
 31
0.0
  0
LINE
  5
17234
330
747D
100
AcDbEntity
  8
部品1
100
AcDbLine
 10
9533.150710843848
 20
4382.411953348879
 30
0.0
 11
11028.21760134835
 21
4326.745059342179
 31
0.0
  0
DIMENSION
  5
17235
330
747D
100
AcDbEntity
  8
寸法
 48
50.0
100
AcDbDimension
  2
*D5
 10
9525.605724486888
 20
4990.52599278588
 30
0.0
 11
10252.73055418871
 21
4990.52599278588
 31
0.0
 70
   160
 71
     5
 42
1510.0
  3
INABA_S40G
100
AcDbAlignedDimension
 13
11035.60572448688
 23
4328.694218014613
 33
0.0
 14
9525.605724486888
 24
4383.694218014617
 34
0.0
100
AcDbRotatedDimension
1001
ACAD
1000
DSTYLE
1002
{
1070
   174
1070
     0
1070
   272
1070
     1
1070
   288
1070
     0
1070
   341
1005
0
1002
}
  0
DIMENSION
  5
17236
330
747D
100
AcDbEntity
  8
寸法
 48
50.0
100
AcDbDimension
  2
*D6
 10
9525.605724486888
 20
4782.351671593917
 30
0.0
 11
9215.967929211299
 21
4782.351671593917
 31
0.0
 70
   160
 71
     5
 42
60.0
  3
INABA_S40G
100
AcDbAlignedDimension
 13
9585.605724486887
 23
4379.695836137589
 33
0.0
 14
9525.605724486888
 24
4383.694218014617
 34
0.0
100
AcDbRotatedDimension
1001
ACAD
1000
DSTYLE
1002
{
1070
   174
1070
     0
1070
   272
1070
     1
1070
   288
1070
     0
1070
   341
1005
0
1002
}
  0
DIMENSION
  5
17237
330
747D
100
AcDbEntity
  8
寸法
 48
50.0
100
AcDbDimension
  2
*D7
 10
9585.605724486887
 20
4782.351671593917
 30
0.0
 11
10235.42475737743
 21
4782.351671593917
 31
0.0
 70
   160
  1
柱外寸法<>
 71
     5
 42
1370.0
  3
INABA_S40G
100
AcDbAlignedDimension
 13
10955.60572448688
 23
4330.504897626266
 33
0.0
 14
9585.605724486887
 24
4379.695836137589
 34
0.0
100
AcDbRotatedDimension
1001
ACAD
1000
DSTYLE
1002
{
1070
   174
1070
     0
1070
   272
1070
     1
1070
   288
1070
     0
1070
   341
1005
0
1002
}
  0
LINE
  5
174E2
330
747D
100
AcDbEntity
  8
補助
  6
PHANTOM
 62
   230
 48
50.0
100
AcDbLine
 10
140.0
 20
0.0
 30
0.0
 11
140.0
 21
11409.6
 31
0.0
  0
LINE
  5
17B8D
330
747D
100
AcDbEntity
  8
部品1
 48
50.0
100
AcDbLine
 10
5663.508695149642
 20
2308.694218014612
 30
0.0
 11
5663.508695149642
 21
2208.694218014612
 31
0.0
  0
LINE
  5
17B8E
330
747D
100
AcDbEntity
  8
部品1
 48
50.0
100
AcDbLine
 10
5863.508695149642
 20
2308.694218014612
 30
0.0
 11
5863.508695149642
 21
2208.694218014612
 31
0.0
  0
LINE
  5
17B8F
330
747D
100
AcDbEntity
  8
部品1
 48
50.0
100
AcDbLine
 10
6493.508695149642
 20
2308.694218014612
 30
0.0
 11
6493.508695149642
 21
2208.694218014612
 31
0.0
  0
LINE
  5
17B90
330
747D
100
AcDbEntity
  8
部品1
 48
50.0
100
AcDbLine
 10
6693.508695149642
 20
2308.694218014612
 30
0.0
 11
6693.508695149642
 21
2208.694218014612
 31
0.0
  0
LINE
  5
17B91
330
747D
100
AcDbEntity
  8
部品1
100
AcDbLine
 10
4911.008695149641
 20
2308.694218014612
 30
0.0
 11
7446.008695149642
 21
2308.694218014612
 31
0.0
  0
LINE
  5
17B92
330
747D
100
AcDbEntity
  8
部品1
100
AcDbLine
 10
7486.008695149641
 20
2308.694218014612
 30
0.0
 11
7493.508695149642
 21
2308.694218014612
 31
0.0
  0
LINE
  5
17B93
330
747D
100
AcDbEntity
  8
細線
 48
50.0
100
AcDbLine
 10
6941.008695149641
 20
4148.694218014614
 30
0.0
 11
6941.008695149641
 21
2358.694218014614
 31
0.0
  0
LINE
  5
17B94
330
747D
100
AcDbEntity
  8
細線
 48
50.0
100
AcDbLine
 10
6956.008695149641
 20
4148.694218014614
 30
0.0
 11
6956.008695149641
 21
2358.694218014614
 31
0.0
  0
LINE
  5
17B95
330
747D
100
AcDbEntity
  8
細線
 48
50.0
100
AcDbLine
 10
6816.008695149641
 20
4148.694218014614
 30
0.0
 11
6816.008695149641
 21
2358.694218014614
 31
0.0
  0
LINE
  5
17B96
330
747D
100
AcDbEntity
  8
細線
 48
50.0
100
AcDbLine
 10
6801.008695149642
 20
4148.694218014614
 30
0.0
 11
6801.008695149642
 21
2358.694218014614
 31
0.0
  0
LINE
  5
17B97
330
747D
100
AcDbEntity
  8
細線
 48
50.0
100
AcDbLine
 10
6661.008695149641
 20
4148.694218014614
 30
0.0
 11
6661.008695149641
 21
2358.694218014614
 31
0.0
  0
LINE
  5
17B98
330
747D
100
AcDbEntity
  8
細線
 48
50.0
100
AcDbLine
 10
6676.008695149642
 20
4148.694218014614
 30
0.0
 11
6676.008695149642
 21
2358.694218014614
 31
0.0
  0
LINE
  5
17B99
330
747D
100
AcDbEntity
  8
部品1
100
AcDbLine
 10
6598.508695149634
 20
4148.694218014614
 30
0.0
 11
6598.508695149634
 21
2358.694218014614
 31
0.0
  0
LINE
  5
17BB7
330
747D
100
AcDbEntity
  8
細線
 48
50.0
100
AcDbLine
 10
6256.008695149642
 20
4148.69421801461
 30
0.0
 11
6256.008695149642
 21
2358.694218014612
 31
0.0
  0
LINE
  5
17BB8
330
747D
100
AcDbEntity
  8
細線
 48
50.0
100
AcDbLine
 10
6241.008695149641
 20
4148.69421801461
 30
0.0
 11
6241.008695149641
 21
2358.694218014612
 31
0.0
  0
LINE
  5
17BB9
330
747D
100
AcDbEntity
  8
細線
 48
50.0
100
AcDbLine
 10
6381.008695149642
 20
4148.69421801461
 30
0.0
 11
6381.008695149642
 21
2358.694218014612
 31
0.0
  0
LINE
  5
17BBA
330
747D
100
AcDbEntity
  8
細線
 48
50.0
100
AcDbLine
 10
6396.008695149641
 20
4148.69421801461
 30
0.0
 11
6396.008695149641
 21
2358.694218014612
 31
0.0
  0
LINE
  5
17BBB
330
747D
100
AcDbEntity
  8
細線
 48
50.0
100
AcDbLine
 10
6536.008695149641
 20
4148.69421801461
 30
0.0
 11
6536.008695149641
 21
2358.694218014612
 31
0.0
  0
LINE
  5
17BBC
330
747D
100
AcDbEntity
  8
細線
 48
50.0
100
AcDbLine
 10
6521.008695149642
 20
4148.69421801461
 30
0.0
 11
6521.008695149642
 21
2358.694218014612
 31
0.0
  0
LINE
  5
17BBD
330
747D
100
AcDbEntity
  8
部品1
100
AcDbLine
 10
7018.508695149641
 20
4148.694218014612
 30
0.0
 11
7018.508695149641
 21
2358.694218014612
 31
0.0
  0
LINE
  5
17BBE
330
747D
100
AcDbEntity
  8
部品1
100
AcDbLine
 10
4863.508695149642
 20
4148.69421801461
 30
0.0
 11
7493.508695149642
 21
4148.69421801461
 31
0.0
  0
LINE
  5
17BBF
330
747D
100
AcDbEntity
  8
部品1
100
AcDbLine
 10
4863.508695149642
 20
2358.694218014612
 30
0.0
 11
7493.508695149642
 21
2358.694218014612
 31
0.0
  0
LINE
  5
17BC0
330
747D
100
AcDbEntity
  8
部品1
100
AcDbLine
 10
4918.508695149641
 20
4148.69421801461
 30
0.0
 11
4918.508695149641
 21
2358.694218014612
 31
0.0
  0
LINE
  5
17BC1
330
747D
100
AcDbEntity
  8
部品1
100
AcDbLine
 10
4863.508695149642
 20
4242.694218014614
 30
0.0
 11
4863.508695149642
 21
2208.694218014612
 31
0.0
  0
LINE
  5
17BC2
330
747D
100
AcDbEntity
  8
部品1
100
AcDbLine
 10
5338.508695149641
 20
4148.69421801461
 30
0.0
 11
5338.508695149641
 21
2358.694218014612
 31
0.0
  0
LINE
  5
17BC3
330
747D
100
AcDbEntity
  8
部品1
100
AcDbLine
 10
7493.508695149637
 20
4242.694218014616
 30
0.0
 11
7493.508695149642
 21
2208.694218014612
 31
0.0
  0
LINE
  5
17BC4
330
747D
100
AcDbEntity
  8
部品1
100
AcDbLine
 10
7438.508695149642
 20
4148.694218014612
 30
0.0
 11
7438.508695149642
 21
2358.694218014612
 31
0.0
  0
LINE
  5
17BC9
330
747D
100
AcDbEntity
  8
部品1
100
AcDbLine
 10
4863.508695149642
 20
2308.694218014612
 30
0.0
 11
4871.008695149641
 21
2308.694218014612
 31
0.0
  0
LINE
  5
17BCA
330
747D
100
AcDbEntity
  8
細線
 48
50.0
100
AcDbLine
 10
5416.008695149642
 20
4148.69421801461
 30
0.0
 11
5416.008695149642
 21
2358.694218014612
 31
0.0
  0
LINE
  5
17BCB
330
747D
100
AcDbEntity
  8
細線
 48
50.0
100
AcDbLine
 10
5401.008695149641
 20
4148.69421801461
 30
0.0
 11
5401.008695149641
 21
2358.694218014612
 31
0.0
  0
LINE
  5
17BCC
330
747D
100
AcDbEntity
  8
細線
 48
50.0
100
AcDbLine
 10
5541.008695149642
 20
4148.69421801461
 30
0.0
 11
5541.008695149642
 21
2358.694218014612
 31
0.0
  0
LINE
  5
17BCD
330
747D
100
AcDbEntity
  8
細線
 48
50.0
100
AcDbLine
 10
5556.008695149642
 20
4148.69421801461
 30
0.0
 11
5556.008695149642
 21
2358.694218014612
 31
0.0
  0
LINE
  5
17BCE
330
747D
100
AcDbEntity
  8
細線
 48
50.0
100
AcDbLine
 10
5696.008695149641
 20
4148.69421801461
 30
0.0
 11
5696.008695149641
 21
2358.694218014612
 31
0.0
  0
LINE
  5
17BCF
330
747D
100
AcDbEntity
  8
細線
 48
50.0
100
AcDbLine
 10
5681.008695149642
 20
4148.69421801461
 30
0.0
 11
5681.008695149642
 21
2358.694218014612
 31
0.0
  0
LINE
  5
17BD0
330
747D
100
AcDbEntity
  8
細線
 48
50.0
100
AcDbLine
 10
5261.008695149641
 20
4148.69421801461
 30
0.0
 11
5261.008695149641
 21
2358.694218014612
 31
0.0
  0
LINE
  5
17BD1
330
747D
100
AcDbEntity
  8
細線
 48
50.0
100
AcDbLine
 10
5276.008695149641
 20
4148.69421801461
 30
0.0
 11
5276.008695149641
 21
2358.694218014612
 31
0.0
  0
LINE
  5
17BD2
330
747D
100
AcDbEntity
  8
細線
 48
50.0
100
AcDbLine
 10
5136.008695149641
 20
4148.69421801461
 30
0.0
 11
5136.008695149641
 21
2358.694218014612
 31
0.0
  0
LINE
  5
17BD3
330
747D
100
AcDbEntity
  8
細線
 48
50.0
100
AcDbLine
 10
5121.008695149641
 20
4148.69421801461
 30
0.0
 11
5121.008695149641
 21
2358.694218014612
 31
0.0
  0
LINE
  5
17BD4
330
747D
100
AcDbEntity
  8
細線
 48
50.0
100
AcDbLine
 10
4981.008695149641
 20
4148.69421801461
 30
0.0
 11
4981.008695149641
 21
2358.694218014612
 31
0.0
  0
LINE
  5
17BD5
330
747D
100
AcDbEntity
  8
細線
 48
50.0
100
AcDbLine
 10
4996.008695149641
 20
4148.69421801461
 30
0.0
 11
4996.008695149641
 21
2358.694218014612
 31
0.0
  0
LINE
  5
17BD7
330
747D
100
AcDbEntity
  8
部品1
100
AcDbLine
 10
5758.508695149641
 20
4148.69421801461
 30
0.0
 11
5758.508695149641
 21
2358.694218014612
 31
0.0
  0
LINE
  5
17BD8
330
747D
100
AcDbEntity
  8
細線
 48
50.0
100
AcDbLine
 10
6101.008695149642
 20
4148.69421801461
 30
0.0
 11
6101.008695149642
 21
2358.694218014612
 31
0.0
  0
LINE
  5
17BD9
330
747D
100
AcDbEntity
  8
細線
 48
50.0
100
AcDbLine
 10
6116.008695149641
 20
4148.69421801461
 30
0.0
 11
6116.008695149641
 21
2358.694218014612
 31
0.0
  0
LINE
  5
17BDA
330
747D
100
AcDbEntity
  8
細線
 48
50.0
100
AcDbLine
 10
5976.008695149642
 20
4148.69421801461
 30
0.0
 11
5976.008695149642
 21
2358.694218014612
 31
0.0
  0
LINE
  5
17BDB
330
747D
100
AcDbEntity
  8
細線
 48
50.0
100
AcDbLine
 10
5961.008695149641
 20
4148.69421801461
 30
0.0
 11
5961.008695149641
 21
2358.694218014612
 31
0.0
  0
LINE
  5
17BDC
330
747D
100
AcDbEntity
  8
細線
 48
50.0
100
AcDbLine
 10
5821.008695149641
 20
4148.69421801461
 30
0.0
 11
5821.008695149641
 21
2358.694218014612
 31
0.0
  0
LINE
  5
17BDD
330
747D
100
AcDbEntity
  8
細線
 48
50.0
100
AcDbLine
 10
5836.008695149641
 20
4148.69421801461
 30
0.0
 11
5836.008695149641
 21
2358.694218014612
 31
0.0
  0
LINE
  5
17BDE
330
747D
100
AcDbEntity
  8
部品1
100
AcDbLine
 10
6178.508695149641
 20
4148.69421801461
 30
0.0
 11
6178.508695149641
 21
2358.694218014612
 31
0.0
  0
LINE
  5
17BDF
330
747D
100
AcDbEntity
  8
細線
 48
50.0
100
AcDbLine
 10
7096.008695149649
 20
4148.694218014612
 30
0.0
 11
7096.008695149649
 21
2358.694218014612
 31
0.0
  0
LINE
  5
17BE0
330
747D
100
AcDbEntity
  8
細線
 48
50.0
100
AcDbLine
 10
7081.008695149648
 20
4148.694218014612
 30
0.0
 11
7081.008695149648
 21
2358.694218014612
 31
0.0
  0
LINE
  5
17BE1
330
747D
100
AcDbEntity
  8
細線
 48
50.0
100
AcDbLine
 10
7221.008695149649
 20
4148.694218014612
 30
0.0
 11
7221.008695149649
 21
2358.694218014612
 31
0.0
  0
LINE
  5
17BE2
330
747D
100
AcDbEntity
  8
細線
 48
50.0
100
AcDbLine
 10
7236.008695149648
 20
4148.694218014612
 30
0.0
 11
7236.008695149648
 21
2358.694218014612
 31
0.0
  0
LINE
  5
17BE3
330
747D
100
AcDbEntity
  8
細線
 48
50.0
100
AcDbLine
 10
7376.008695149649
 20
4148.694218014612
 30
0.0
 11
7376.008695149649
 21
2358.694218014612
 31
0.0
  0
LINE
  5
17BE4
330
747D
100
AcDbEntity
  8
細線
 48
50.0
100
AcDbLine
 10
7361.008695149648
 20
4148.694218014612
 30
0.0
 11
7361.008695149648
 21
2358.694218014612
 31
0.0
  0
LINE
  5
17BE5
330
747D
100
AcDbEntity
  8
破線
 48
10.0
100
AcDbLine
 10
9665.605724486864
 20
8180.024959012229
 30
0.0
 11
9665.60572448683
 21
7390.024959012173
 31
0.0
  0
LINE
  5
17BE6
330
747D
100
AcDbEntity
  8
破線
 48
10.0
100
AcDbLine
 10
9642.105724486881
 20
8230.024959012228
 30
0.0
 11
10475.6057244869
 21
8230.024959012231
 31
0.0
  0
LINE
  5
17BE7
330
747D
100
AcDbEntity
  8
破線
 48
10.0
100
AcDbLine
 10
9642.105724486878
 20
8180.024959012232
 30
0.0
 11
10475.6057244869
 21
8180.024959012232
 31
0.0
  0
LINE
  5
17BE8
330
747D
100
AcDbEntity
  8
破線
 48
10.0
100
AcDbLine
 10
9642.105724486881
 20
9070.024959012226
 30
0.0
 11
10475.6057244869
 21
9070.024959012229
 31
0.0
  0
LINE
  5
17BE9
330
747D
100
AcDbEntity
  8
破線
 48
10.0
100
AcDbLine
 10
9642.105724486878
 20
9020.02495901223
 30
0.0
 11
10475.6057244869
 21
9020.02495901223
 31
0.0
  0
MTEXT
  5
17BEA
330
747D
100
AcDbEntity
  8
寸法
 62
     7
 48
50.0
100
AcDbMText
 10
10544.77346583335
 20
7974.970707264636
 30
0.0
 40
96.0
 41
0.0
 71
     5
 72
     1
  1
棚 2段
  7
STYLE1
 11
0.0000000000000001
 21
1.0
 31
0.0
 73
     1
 44
1.0
1001
ACAD
1000
MTEXTBEGIN
1070
    73
1070
     1
1070
    44
1040
1.0
1070
    74
1070
     0
1000
MTEXTEND
  0
LINE
  5
17BEB
330
747D
100
AcDbEntity
  8
部品1
100
AcDbLine
 10
9613.605724487074
 20
8205.024959012289
 30
0.0
 11
9585.605724487074
 21
8205.024959012289
 31
0.0
  0
LINE
  5
17BEC
330
747D
100
AcDbEntity
  8
部品1
100
AcDbLine
 10
9613.605724486959
 20
8205.024959012289
 30
0.0
 11
9585.605724486958
 21
8205.024959012289
 31
0.0
  0
LINE
  5
17BED
330
747D
100
AcDbEntity
  8
部品1
100
AcDbLine
 10
9613.605724486959
 20
8205.024959012289
 30
0.0
 11
9585.605724486958
 21
8205.024959012289
 31
0.0
  0
LINE
  5
17BEE
330
747D
100
AcDbEntity
  8
部品1
100
AcDbLine
 10
10955.60572448705
 20
8205.024959012217
 30
0.0
 11
10927.60572448705
 21
8205.024959012217
 31
0.0
  0
LINE
  5
17BEF
330
747D
100
AcDbEntity
  8
部品1
100
AcDbLine
 10
10955.60572448694
 20
8205.024959012217
 30
0.0
 11
10927.60572448694
 21
8205.024959012217
 31
0.0
  0
LINE
  5
17BF0
330
747D
100
AcDbEntity
  8
部品1
100
AcDbLine
 10
10955.60572448694
 20
8205.024959012217
 30
0.0
 11
10927.60572448694
 21
8205.024959012217
 31
0.0
  0
LINE
  5
17C42
330
747D
100
AcDbEntity
  8
部品1
100
AcDbLine
 10
5063.508695149642
 20
2308.694218014612
 30
0.0
 11
5063.508695149642
 21
2208.694218014612
 31
0.0
  0
LINE
  5
17C43
330
747D
100
AcDbEntity
  8
部品1
100
AcDbLine
 10
7293.508695149641
 20
2308.694218014612
 30
0.0
 11
7293.508695149641
 21
2208.694218014612
 31
0.0
  0
LINE
  5
17C44
330
747D
100
AcDbEntity
  8
部品1
 48
50.0
100
AcDbLine
 10
7570.508695149641
 20
2308.694218014612
 30
0.0
 11
7486.008695149641
 21
2308.694218014612
 31
0.0
  0
LINE
  5
17C45
330
747D
100
AcDbEntity
  8
部品1
 48
50.0
100
AcDbLine
 10
7570.508695149641
 20
4133.694218014611
 30
0.0
 11
7570.508695149641
 21
2208.694218014612
 31
0.0
  0
LINE
  5
17C46
330
747D
100
AcDbEntity
  8
部品1
 48
50.0
100
AcDbLine
 10
7493.508695149642
 20
4143.69421801461
 30
0.0
 11
7570.508695149641
 21
4133.694218014611
 31
0.0
  0
LINE
  5
17C48
330
747D
100
AcDbEntity
  8
破線
 48
5.0
100
AcDbLine
 10
7366.008695149649
 20
2208.694218014612
 30
0.0
 11
7366.008695149649
 21
2008.694218014612
 31
0.0
  0
LINE
  5
17C49
330
747D
100
AcDbEntity
  8
破線
 48
5.0
100
AcDbLine
 10
7566.008695149641
 20
2008.694218014608
 30
0.0
 11
7366.008695149649
 21
2008.694218014612
 31
0.0
  0
LINE
  5
17C4A
330
747D
100
AcDbEntity
  8
破線
 48
5.0
100
AcDbLine
 10
7566.008695149649
 20
2208.694218014612
 30
0.0
 11
7566.008695149641
 21
2008.694218014608
 31
0.0
  0
DIMENSION
  5
17C4B
330
747D
100
AcDbEntity
  8
寸法
 48
50.0
100
AcDbDimension
  2
*D17
 10
4791.008695149641
 20
1722.646888714232
 30
0.0
 11
4891.008695149642
 21
1722.646888714232
 31
0.0
 70
   160
 71
     5
 42
200.0
  3
INABA_S40G
100
AcDbAlignedDimension
 13
4991.008695149641
 23
2008.694218014608
 33
0.0
 14
4791.008695149641
 24
2008.69421801461
 34
0.0
100
AcDbRotatedDimension
  0
LINE
  5
17C4C
330
747D
100
AcDbEntity
  8
破線
 48
5.0
100
AcDbLine
 10
4791.008695149641
 20
2208.694218014612
 30
0.0
 11
4791.008695149641
 21
2008.694218014608
 31
0.0
  0
LINE
  5
17C4D
330
747D
100
AcDbEntity
  8
破線
 48
5.0
100
AcDbLine
 10
4991.008695149641
 20
2208.694218014612
 30
0.0
 11
4991.008695149641
 21
2008.694218014608
 31
0.0
  0
LINE
  5
17C4E
330
747D
100
AcDbEntity
  8
破線
 48
5.0
100
AcDbLine
 10
4991.008695149641
 20
2008.694218014608
 30
0.0
 11
4791.008695149641
 21
2008.694218014608
 31
0.0
  0
DIMENSION
  5
17C4F
330
747D
100
AcDbEntity
  8
寸法
 48
50.0
100
AcDbDimension
  2
*D18
 10
4641.508691903008
 20
2208.69421801461
 30
0.0
 11
4641.508691903007
 21
2108.69421801461
 31
0.0
 70
   160
 71
     5
 42
199.9999999999998
  3
INABA_S40G
100
AcDbAlignedDimension
 13
4791.008695149641
 23
2008.69421801461
 33
0.0
 14
4766.008695149642
 24
2208.69421801461
 34
0.0
 50
90.0
100
AcDbRotatedDimension
1001
ACAD
1000
DSTYLE
1002
{
1070
   174
1070
     0
1070
   272
1070
     1
1070
   288
1070
     0
1070
   341
1005
0
1002
}
  0
LINE
  5
17C51
330
747D
100
AcDbEntity
  8
部品1
100
AcDbLine
 10
7486.008695149641
 20
2308.694218014612
 30
0.0
 11
7493.508695149642
 21
2308.694218014612
 31
0.0
  0
LINE
  5
17C52
330
747D
100
AcDbEntity
  8
破線
  6
HIDDEN
 48
5.0
100
AcDbLine
 10
4911.008695149641
 20
2208.694218014612
 30
0.0
 11
4911.008695149641
 21
2203.694218014612
 31
0.0
  0
LINE
  5
17C53
330
747D
100
AcDbEntity
  8
破線
  6
HIDDEN
 48
5.0
100
AcDbLine
 10
4871.008695149648
 20
2208.694218014612
 30
0.0
 11
4871.008695149648
 21
2203.694218014612
 31
0.0
  0
LINE
  5
17C54
330
747D
100
AcDbEntity
  8
破線
  6
HIDDEN
 48
5.0
100
AcDbLine
 10
7486.008695149641
 20
2208.694218014612
 30
0.0
 11
7486.008695149641
 21
2203.694218014612
 31
0.0
  0
LINE
  5
17C55
330
747D
100
AcDbEntity
  8
破線
  6
HIDDEN
 48
5.0
100
AcDbLine
 10
7446.008695149642
 20
2208.694218014612
 30
0.0
 11
7446.008695149642
 21
2203.694218014612
 31
0.0
  0
ARC
  5
17C56
330
747D
100
AcDbEntity
  8
部品1
 48
50.0
100
AcDbCircle
 10
7481.008695149641
 20
2348.694218014612
 30
0.0
 40
5.0
100
AcDbArc
 50
0.0
 51
90.0
  0
ARC
  5
17C57
330
747D
100
AcDbEntity
  8
部品1
 48
50.0
100
AcDbCircle
 10
7451.008695149642
 20
2348.694218014612
 30
0.0
 40
5.0
100
AcDbArc
 50
90.0
 51
180.0
  0
LINE
  5
17C58
330
747D
100
AcDbEntity
  8
部品1
100
AcDbLine
 10
7481.008695149641
 20
2353.694218014612
 30
0.0
 11
7451.008695149642
 21
2353.694218014612
 31
0.0
  0
LINE
  5
17C59
330
747D
100
AcDbEntity
  8
部品1
 48
50.0
100
AcDbLine
 10
7486.008695149641
 20
2348.694218014612
 30
0.0
 11
7486.008695149641
 21
2208.694218014612
 31
0.0
  0
LINE
  5
17C5A
330
747D
100
AcDbEntity
  8
部品1
 48
50.0
100
AcDbLine
 10
7446.008695149642
 20
2348.694218014612
 30
0.0
 11
7446.008695149642
 21
2208.694218014612
 31
0.0
  0
ARC
  5
17C5B
330
747D
100
AcDbEntity
  8
部品1
 48
50.0
100
AcDbCircle
 10
4906.008695149641
 20
2348.694218014612
 30
0.0
 40
5.0
100
AcDbArc
 50
0.0
 51
90.0
  0
ARC
  5
17C5C
330
747D
100
AcDbEntity
  8
部品1
 48
50.0
100
AcDbCircle
 10
4876.008695149642
 20
2348.694218014612
 30
0.0
 40
5.0
100
AcDbArc
 50
90.0
 51
180.0
  0
LINE
  5
17C5D
330
747D
100
AcDbEntity
  8
部品1
100
AcDbLine
 10
4876.008695149642
 20
2353.694218014612
 30
0.0
 11
4906.008695149641
 21
2353.694218014612
 31
0.0
  0
LINE
  5
17C5E
330
747D
100
AcDbEntity
  8
部品1
 48
50.0
100
AcDbLine
 10
4911.008695149641
 20
2348.694218014612
 30
0.0
 11
4911.008695149641
 21
2208.694218014612
 31
0.0
  0
LINE
  5
17C5F
330
747D
100
AcDbEntity
  8
部品1
 48
50.0
100
AcDbLine
 10
4871.008695149641
 20
2348.694218014612
 30
0.0
 11
4871.008695149641
 21
2208.694218014612
 31
0.0
  0
LINE
  5
17C60
330
747D
100
AcDbEntity
  8
破線
  6
HIDDEN
 48
5.0
100
AcDbLine
 10
4911.008695149641
 20
2203.694218014612
 30
0.0
 11
4926.008695149642
 21
2055.994218014611
 31
0.0
  0
LINE
  5
17C61
330
747D
100
AcDbEntity
  8
破線
  6
HIDDEN
 48
5.0
100
AcDbLine
 10
4871.008695149641
 20
2203.694218014612
 30
0.0
 11
4856.008695149641
 21
2055.994218014611
 31
0.0
  0
LINE
  5
17C62
330
747D
100
AcDbEntity
  8
破線
  6
HIDDEN
 48
5.0
100
AcDbLine
 10
4926.008695149642
 20
2055.994218014611
 30
0.0
 11
4926.008695149642
 21
2053.694218014612
 31
0.0
  0
LINE
  5
17C63
330
747D
100
AcDbEntity
  8
破線
  6
HIDDEN
 48
5.0
100
AcDbLine
 10
4856.008695149641
 20
2055.994218014611
 30
0.0
 11
4856.008695149641
 21
2053.694218014612
 31
0.0
  0
LINE
  5
17C64
330
747D
100
AcDbEntity
  8
破線
  6
HIDDEN
 48
5.0
100
AcDbLine
 10
4856.008695149641
 20
2053.694218014612
 30
0.0
 11
4926.008695149642
 21
2053.694218014612
 31
0.0
  0
LINE
  5
17C65
330
747D
100
AcDbEntity
  8
破線
  6
HIDDEN
 48
5.0
100
AcDbLine
 10
7501.008695149642
 20
2055.994218014611
 30
0.0
 11
7501.008695149642
 21
2053.694218014612
 31
0.0
  0
LINE
  5
17C66
330
747D
100
AcDbEntity
  8
破線
  6
HIDDEN
 48
5.0
100
AcDbLine
 10
7486.008695149641
 20
2203.694218014612
 30
0.0
 11
7501.008695149642
 21
2055.994218014611
 31
0.0
  0
LINE
  5
17C67
330
747D
100
AcDbEntity
  8
破線
  6
HIDDEN
 48
5.0
100
AcDbLine
 10
7431.008695149642
 20
2055.994218014611
 30
0.0
 11
7431.008695149642
 21
2053.694218014612
 31
0.0
  0
LINE
  5
17C68
330
747D
100
AcDbEntity
  8
破線
  6
HIDDEN
 48
5.0
100
AcDbLine
 10
7446.008695149642
 20
2203.694218014612
 30
0.0
 11
7431.008695149642
 21
2055.994218014611
 31
0.0
  0
LINE
  5
17C69
330
747D
100
AcDbEntity
  8
破線
  6
HIDDEN
 48
5.0
100
AcDbLine
 10
7501.008695149642
 20
2053.694218014612
 30
0.0
 11
7431.008695149642
 21
2053.694218014612
 31
0.0
  0
LINE
  5
17C6E
330
747D
100
AcDbEntity
  8
部品1
100
AcDbLine
 10
4863.508695149642
 20
2308.694218014612
 30
0.0
 11
4871.008695149641
 21
2308.694218014612
 31
0.0
  0
DIMENSION
  5
17C92
330
747D
100
AcDbEntity
  8
寸法
100
AcDbDimension
  2
*D19
 10
11603.0320702212
 20
7310.024959012183
 30
0.0
 11
11603.0320702212
 21
7001.539677637942
 31
0.0
 70
   160
 71
     5
 42
54.99999999999636
  3
INABA_S40G
100
AcDbAlignedDimension
 13
10955.60572448679
 23
7365.02495901218
 33
0.0
 14
10955.60572448679
 24
7310.024959012183
 34
0.0
 50
90.0
100
AcDbRotatedDimension
1001
ACAD
1000
DSTYLE
1002
{
1002
}
  0
DIMENSION
  5
17C93
330
747D
100
AcDbEntity
  8
寸法
100
AcDbDimension
  2
*D20
 10
11871.4706015217
 20
7310.024959012183
 30
0.0
 11
11871.4706015217
 21
8625.02495901219
 31
0.0
 70
   160
 71
     5
 42
2630.000000000008
  3
INABA_S40G
100
AcDbAlignedDimension
 13
10955.60572448682
 23
9940.024959012193
 33
0.0
 14
10955.60572448679
 24
7310.024959012183
 34
0.0
 50
90.0
100
AcDbRotatedDimension
1001
ACAD
1000
DSTYLE
1002
{
1002
}
  0
DIMENSION
  5
17C94
330
747D
100
AcDbEntity
  8
寸法
100
AcDbDimension
  2
*D21
 10
11603.03207022123
 20
9885.024959012197
 30
0.0
 11
11603.03207022123
 21
10248.51024038643
 31
0.0
 70
   160
 71
     5
 42
54.99999999999636
  3
INABA_S40G
100
AcDbAlignedDimension
 13
10955.60572448682
 23
9940.024959012193
 33
0.0
 14
10955.60572448682
 24
9885.024959012197
 34
0.0
 50
90.0
100
AcDbRotatedDimension
1001
ACAD
1000
DSTYLE
1002
{
1002
}
  0
DIMENSION
  5
17C95
330
747D
100
AcDbEntity
  8
寸法
100
AcDbDimension
  2
*D22
 10
11603.03207022123
 20
7365.02495901218
 30
0.0
 11
11603.03207022123
 21
8625.02495901219
 31
0.0
 70
   160
  1
6X420=<>
 71
     5
 42
2520.000000000016
  3
INABA_S40G
100
AcDbAlignedDimension
 13
10955.60572448682
 23
9885.024959012197
 33
0.0
 14
10955.60572448679
 24
7365.02495901218
 34
0.0
 50
90.0
100
AcDbRotatedDimension
1001
ACAD
1000
DSTYLE
1002
{
1002
}
  0
DIMENSION
  5
17C96
330
747D
100
AcDbEntity
  8
寸法
 48
50.0
100
AcDbDimension
  2
*D23
 10
11337.78893188752
 20
7228.080801455488
 30
0.0
 11
11337.78893188751
 21
7864.5808014555
 31
0.0
 70
   160
 71
     5
 42
1272.999999999997
  3
INABA_S40G
100
AcDbAlignedDimension
 13
10925.60572448689
 23
8611.524959012182
 33
0.0
 14
10925.60572448679
 24
7338.524959012184
 34
0.0
 50
90.0
100
AcDbRotatedDimension
  0
DIMENSION
  5
17C97
330
747D
100
AcDbEntity
  8
寸法
 48
50.0
100
AcDbDimension
  2
*D24
 10
11337.78893188752
 20
8528.080801455507
 30
0.0
 11
11337.78893188752
 21
9164.580801455512
 31
0.0
 70
   160
 71
     5
 42
1273.000000000011
  3
INABA_S40G
100
AcDbAlignedDimension
 13
10925.60572448689
 23
9911.524959012186
 33
0.0
 14
10925.60572448689
 24
8638.524959012174
 34
0.0
 50
90.0
100
AcDbRotatedDimension
  0
LINE
  5
17C99
330
747D
100
AcDbEntity
  8
部品1
100
AcDbLine
 10
9640.605724486761
 20
7310.024959012176
 30
0.0
 11
9585.60572448675
 21
7310.024959012176
 31
0.0
  0
LINE
  5
17C9A
330
747D
100
AcDbEntity
  8
部品1
100
AcDbLine
 10
9640.605724486892
 20
9912.024959012187
 30
0.0
 11
9640.605724486892
 21
9940.024959012188
 31
0.0
  0
LINE
  5
17C9B
330
747D
100
AcDbEntity
  8
部品1
100
AcDbLine
 10
9640.605724486762
 20
7338.024959012166
 30
0.0
 11
9640.605724486762
 21
7310.024959012166
 31
0.0
  0
LINE
  5
17C9C
330
747D
100
AcDbEntity
  8
部品1
100
AcDbLine
 10
9613.605724486811
 20
7365.024959012257
 30
0.0
 11
9585.605724486811
 21
7365.024959012257
 31
0.0
  0
LINE
  5
17C9D
330
747D
100
AcDbEntity
  8
部品1
100
AcDbLine
 10
9613.605724486779
 20
7365.024959012224
 30
0.0
 11
9585.605724486779
 21
7365.024959012224
 31
0.0
  0
LINE
  5
17C9E
330
747D
100
AcDbEntity
  8
部品1
100
AcDbLine
 10
9613.605724486811
 20
7785.024959012257
 30
0.0
 11
9585.605724486811
 21
7785.024959012257
 31
0.0
  0
LINE
  5
17C9F
330
747D
100
AcDbEntity
  8
部品1
100
AcDbLine
 10
9613.605724486809
 20
7785.024959012257
 30
0.0
 11
9585.605724486809
 21
7785.024959012257
 31
0.0
  0
LINE
  5
17CA0
330
747D
100
AcDbEntity
  8
部品1
100
AcDbLine
 10
9613.605724486927
 20
7785.024959012257
 30
0.0
 11
9585.605724486926
 21
7785.024959012257
 31
0.0
  0
LINE
  5
17CA1
330
747D
100
AcDbEntity
  8
部品1
100
AcDbLine
 10
9613.605724486927
 20
8625.024959012256
 30
0.0
 11
9585.605724486926
 21
8625.024959012256
 31
0.0
  0
LINE
  5
17CA2
330
747D
100
AcDbEntity
  8
部品1
100
AcDbLine
 10
9613.605724486927
 20
9885.024959012261
 30
0.0
 11
9585.605724486926
 21
9885.024959012261
 31
0.0
  0
LINE
  5
17CA3
330
747D
100
AcDbEntity
  8
部品1
100
AcDbLine
 10
9613.605724486907
 20
9885.024959012261
 30
0.0
 11
9585.605724486907
 21
9885.024959012261
 31
0.0
  0
LINE
  5
17CA4
330
747D
100
AcDbEntity
  8
部品1
100
AcDbLine
 10
9613.605724486927
 20
9045.024959012254
 30
0.0
 11
9585.605724486926
 21
9045.024959012254
 31
0.0
  0
LINE
  5
17CA5
330
747D
100
AcDbEntity
  8
部品1
 48
50.0
100
AcDbLine
 10
9642.105724486926
 20
7366.524959012173
 30
0.0
 11
9613.605724486928
 21
7338.024959012177
 31
0.0
  0
LINE
  5
17CA6
330
747D
100
AcDbEntity
  8
破線
 48
10.0
100
AcDbLine
 10
10475.60572448689
 20
7390.024959012158
 30
0.0
 11
9665.60572448683
 21
7390.024959012173
 31
0.0
  0
LINE
  5
17CA7
330
747D
100
AcDbEntity
  8
部品1
100
AcDbLine
 10
10475.60572448689
 20
7366.524959012162
 30
0.0
 11
9642.105724486924
 21
7366.524959012173
 31
0.0
  0
LINE
  5
17CA8
330
747D
100
AcDbEntity
  8
部品1
 48
50.0
100
AcDbLine
 10
9642.105724486926
 20
9883.524959012166
 30
0.0
 11
9613.605724486928
 21
9912.024959012159
 31
0.0
  0
LINE
  5
17CA9
330
747D
100
AcDbEntity
  8
破線
 48
10.0
100
AcDbLine
 10
10475.60572448689
 20
9860.02495901218
 30
0.0
 11
9665.605724486924
 21
9860.024959012166
 31
0.0
  0
LINE
  5
17CAA
330
747D
100
AcDbEntity
  8
部品1
100
AcDbLine
 10
10475.60572448689
 20
9883.524959012174
 30
0.0
 11
9642.105724486929
 21
9883.524959012159
 31
0.0
  0
LINE
  5
17CAB
330
747D
100
AcDbEntity
  8
破線
 48
10.0
100
AcDbLine
 10
9665.605724486896
 20
9020.02495901223
 30
0.0
 11
9665.605724486866
 21
8230.024959012228
 31
0.0
  0
LINE
  5
17CAC
330
747D
100
AcDbEntity
  8
破線
 48
10.0
100
AcDbLine
 10
9665.605724486924
 20
9860.024959012166
 30
0.0
 11
9665.605724486896
 21
9070.024959012226
 31
0.0
  0
LINE
  5
17CAD
330
747D
100
AcDbEntity
  8
部品1
100
AcDbLine
 10
9642.105724486926
 20
9883.524959012166
 30
0.0
 11
9642.10572448683
 21
7366.524959012078
 31
0.0
  0
LINE
  5
17CAE
330
747D
100
AcDbEntity
  8
部品1
 48
50.0
100
AcDbLine
 10
10060.60572448689
 20
9883.524959012166
 30
0.0
 11
10060.60572448698
 21
7366.524959012169
 31
0.0
  0
LINE
  5
17CAF
330
747D
100
AcDbEntity
  8
部品1
100
AcDbLine
 10
10955.60572448679
 20
7310.024959012183
 30
0.0
 11
10955.60572448688
 21
9940.024959012188
 31
0.0
  0
LINE
  5
17CB0
330
747D
100
AcDbEntity
  8
部品1
100
AcDbLine
 10
10900.60572448689
 20
9912.024959012187
 30
0.0
 11
10900.60572448689
 21
9940.024959012188
 31
0.0
  0
LINE
  5
17CB1
330
747D
100
AcDbEntity
  8
部品1
100
AcDbLine
 10
10480.60572448689
 20
9912.024959012187
 30
0.0
 11
10480.60572448689
 21
9940.024959012188
 31
0.0
  0
LINE
  5
17CB2
330
747D
100
AcDbEntity
  8
部品1
100
AcDbLine
 10
10925.60572448689
 20
9911.524959012188
 30
0.0
 11
10475.60572448689
 21
9911.524959012188
 31
0.0
  0
LINE
  5
17CB3
330
747D
100
AcDbEntity
  8
部品1
100
AcDbLine
 10
10945.60572448689
 20
8590.024959012181
 30
0.0
 11
10927.60572448689
 21
8590.024959012181
 31
0.0
  0
LINE
  5
17CB4
330
747D
100
AcDbEntity
  8
部品1
100
AcDbLine
 10
10945.60572448689
 20
8590.024959012181
 30
0.0
 11
10945.60572448689
 21
8596.024959012181
 31
0.0
  0
LINE
  5
17CB5
330
747D
100
AcDbEntity
  8
部品1
100
AcDbLine
 10
10945.60572448689
 20
8660.024959012181
 30
0.0
 11
10927.60572448689
 21
8660.024959012181
 31
0.0
  0
LINE
  5
17CB6
330
747D
100
AcDbEntity
  8
部品1
100
AcDbLine
 10
10945.60572448689
 20
8654.024959012181
 30
0.0
 11
10945.60572448689
 21
8660.024959012181
 31
0.0
  0
LINE
  5
17CB7
330
747D
100
AcDbEntity
  8
部品1
100
AcDbLine
 10
10919.60572448689
 20
8612.524959012182
 30
0.0
 11
10919.60572448689
 21
8637.524959012182
 31
0.0
  0
LINE
  5
17CB8
330
747D
100
AcDbEntity
  8
部品1
100
AcDbLine
 10
10475.6057244869
 20
8612.524959012182
 30
0.0
 11
10475.6057244869
 21
8637.524959012182
 31
0.0
  0
LINE
  5
17CB9
330
747D
100
AcDbEntity
  8
部品1
 48
50.0
100
AcDbLine
 10
10927.6057244869
 20
8612.524959012182
 30
0.0
 11
10475.6057244869
 21
8612.524959012182
 31
0.0
  0
LINE
  5
17CBA
330
747D
100
AcDbEntity
  8
部品1
 48
50.0
100
AcDbLine
 10
10927.60572448689
 20
8637.524959012182
 30
0.0
 11
10475.6057244869
 21
8637.524959012182
 31
0.0
  0
LINE
  5
17CBB
330
747D
100
AcDbEntity
  8
部品1
 48
50.0
100
AcDbLine
 10
10925.60572448689
 20
8611.524959012182
 30
0.0
 11
10475.6057244869
 21
8611.524959012182
 31
0.0
  0
LINE
  5
17CBC
330
747D
100
AcDbEntity
  8
部品1
 48
50.0
100
AcDbLine
 10
10925.60572448689
 20
8638.524959012181
 30
0.0
 11
10475.6057244869
 21
8638.524959012181
 31
0.0
  0
LINE
  5
17CBD
330
747D
100
AcDbEntity
  8
部品1
100
AcDbLine
 10
10927.6057244869
 20
8637.524959012182
 30
0.0
 11
10927.60572448689
 21
9912.024959012187
 31
0.0
  0
LINE
  5
17CBE
330
747D
100
AcDbEntity
  8
部品1
100
AcDbLine
 10
10925.60572448689
 20
8638.524959012181
 30
0.0
 11
10925.60572448689
 21
9911.524959012188
 31
0.0
  0
LINE
  5
17CBF
330
747D
100
AcDbEntity
  8
細線
 48
50.0
100
AcDbLine
 10
10475.60572448689
 20
9911.524959012188
 30
0.0
 11
10925.60572448689
 21
8638.524959012181
 31
0.0
  0
LINE
  5
17CC0
330
747D
100
AcDbEntity
  8
細線
 48
50.0
100
AcDbLine
 10
10925.60572448689
 20
9911.524959012188
 30
0.0
 11
10475.6057244869
 21
8638.524959012181
 31
0.0
  0
LINE
  5
17CC1
330
747D
100
AcDbEntity
  8
部品1
100
AcDbLine
 10
10475.6057244869
 20
8638.524959012181
 30
0.0
 11
10475.60572448689
 21
9911.524959012188
 31
0.0
  0
LINE
  5
17CC2
330
747D
100
AcDbEntity
  8
部品1
100
AcDbLine
 10
10060.60572448689
 20
9912.024959012187
 30
0.0
 11
10060.60572448689
 21
9940.024959012188
 31
0.0
  0
LINE
  5
17CC3
330
747D
100
AcDbEntity
  8
部品1
100
AcDbLine
 10
10927.60572448689
 20
9912.024959012187
 30
0.0
 11
9613.605724486928
 21
9912.024959012159
 31
0.0
  0
LINE
  5
17CC4
330
747D
100
AcDbEntity
  8
部品1
100
AcDbLine
 10
10900.60572448676
 20
7338.024959012151
 30
0.0
 11
10900.60572448676
 21
7310.02495901215
 31
0.0
  0
LINE
  5
17CC5
330
747D
100
AcDbEntity
  8
部品1
 48
50.0
100
AcDbLine
 10
10925.60572448679
 20
7338.524959012184
 30
0.0
 11
10475.60572448679
 21
7338.524959012184
 31
0.0
  0
LINE
  5
17CC6
330
747D
100
AcDbEntity
  8
部品1
100
AcDbLine
 10
10927.60572448679
 20
7338.024959012184
 30
0.0
 11
10927.60572448679
 21
7785.024959012183
 31
0.0
  0
LINE
  5
17CC7
330
747D
100
AcDbEntity
  8
部品1
100
AcDbLine
 10
9613.605724486914
 20
7338.024959012158
 30
0.0
 11
10927.60572448679
 21
7338.024959012184
 31
0.0
  0
LINE
  5
17CC8
330
747D
100
AcDbEntity
  8
部品1
100
AcDbLine
 10
9585.60572448688
 20
9940.024959012159
 30
0.0
 11
9585.605724486784
 21
7310.024959012176
 31
0.0
  0
LINE
  5
17CC9
330
747D
100
AcDbEntity
  8
部品1
100
AcDbLine
 10
10927.60572448691
 20
7365.024959012185
 30
0.0
 11
10927.60572448691
 21
8612.524959012182
 31
0.0
  0
LINE
  5
17CCA
330
747D
100
AcDbEntity
  8
部品1
100
AcDbLine
 10
10925.60572448679
 20
7338.524959012184
 30
0.0
 11
10925.6057244869
 21
8611.524959012182
 31
0.0
  0
LINE
  5
17CCB
330
747D
100
AcDbEntity
  8
細線
 48
50.0
100
AcDbLine
 10
10475.6057244869
 20
8611.524959012182
 30
0.0
 11
10925.60572448679
 21
7338.524959012184
 31
0.0
  0
LINE
  5
17CCC
330
747D
100
AcDbEntity
  8
細線
 48
50.0
100
AcDbLine
 10
10925.60572448689
 20
8611.524959012182
 30
0.0
 11
10475.60572448679
 21
7338.524959012184
 31
0.0
  0
LINE
  5
17CCD
330
747D
100
AcDbEntity
  8
部品1
100
AcDbLine
 10
10475.60572448679
 20
7338.524959012184
 30
0.0
 11
10475.6057244869
 21
8611.524959012182
 31
0.0
  0
LINE
  5
17CCE
330
747D
100
AcDbEntity
  8
部品1
100
AcDbLine
 10
9613.605724486928
 20
9912.024959012159
 30
0.0
 11
9613.605724486829
 21
7338.024959012158
 31
0.0
  0
DIMENSION
  5
17CD0
330
747D
100
AcDbEntity
  8
寸法
100
AcDbDimension
  2
*D25
 10
10900.60572448689
 20
10587.45130474659
 30
0.0
 11
10270.60572448688
 21
10587.45130474659
 31
0.0
 70
   160
  1
3X420=<>
 71
     5
 42
1260.000000000016
  3
INABA_S40G
100
AcDbAlignedDimension
 13
9640.605724486874
 23
9940.024959012186
 33
0.0
 14
10900.60572448689
 24
9940.024959012161
 34
0.0
 50
180.0
100
AcDbRotatedDimension
1001
ACAD
1000
DSTYLE
1002
{
1002
}
  0
DIMENSION
  5
17CD1
330
747D
100
AcDbEntity
  8
寸法
100
AcDbDimension
  2
*D26
 10
10955.60572448688
 20
10587.45130474657
 30
0.0
 11
11333.46719139175
 21
10587.45130474657
 31
0.0
 70
   160
 71
     5
 42
54.99999999999636
  3
INABA_S40G
100
AcDbAlignedDimension
 13
10900.60572448689
 23
9940.024959012161
 33
0.0
 14
10955.60572448688
 24
9940.024959012161
 34
0.0
 50
180.0
100
AcDbRotatedDimension
1001
ACAD
1000
DSTYLE
1002
{
1002
}
  0
DIMENSION
  5
17CD2
330
747D
100
AcDbEntity
  8
寸法
100
AcDbDimension
  2
*D27
 10
10380.387908818
 20
10266.88268487421
 30
0.0
 11
10605.387908818
 21
10366.88268487421
 31
0.0
 70
    32
 71
     5
 42
449.9999999999982
  3
INABA_S40G
100
AcDbAlignedDimension
 13
10925.60572448689
 23
9911.524959012186
 33
0.0
 14
10475.60572448689
 24
9911.524959012186
 34
0.0
 50
180.0
100
AcDbRotatedDimension
1001
ACAD
1000
DSTYLE
1002
{
1002
}
  0
DIMENSION
  5
17CD3
330
747D
100
AcDbEntity
  8
寸法
100
AcDbDimension
  2
*D28
 10
9640.605724486874
 20
10587.45130474659
 30
0.0
 11
9277.120443112641
 21
10587.45130474659
 31
0.0
 70
   160
 71
     5
 42
54.99999999999636
  3
INABA_S40G
100
AcDbAlignedDimension
 13
9585.60572448688
 23
9940.024959012186
 33
0.0
 14
9640.605724486874
 24
9940.024959012186
 34
0.0
 50
180.0
100
AcDbRotatedDimension
1001
ACAD
1000
DSTYLE
1002
{
1002
}
  0
LINE
  5
17CD4
330
747D
100
AcDbEntity
  8
部品1
100
AcDbLine
 10
10955.60572448679
 20
7365.024959012185
 30
0.0
 11
10927.60572448679
 21
7365.024959012185
 31
0.0
  0
LINE
  5
17CD5
330
747D
100
AcDbEntity
  8
部品1
100
AcDbLine
 10
10955.60572448679
 20
7785.024959012183
 30
0.0
 11
10927.60572448679
 21
7785.024959012183
 31
0.0
  0
LINE
  5
17CD6
330
747D
100
AcDbEntity
  8
部品1
100
AcDbLine
 10
10955.60572448679
 20
7785.024959012183
 30
0.0
 11
10927.60572448679
 21
7785.024959012183
 31
0.0
  0
LINE
  5
17CD7
330
747D
100
AcDbEntity
  8
部品1
100
AcDbLine
 10
10955.6057244869
 20
7785.024959012183
 30
0.0
 11
10927.60572448691
 21
7785.024959012183
 31
0.0
  0
LINE
  5
17CD8
330
747D
100
AcDbEntity
  8
部品1
100
AcDbLine
 10
10955.6057244869
 20
8625.024959012183
 30
0.0
 11
10927.60572448691
 21
8625.024959012183
 31
0.0
  0
LINE
  5
17CD9
330
747D
100
AcDbEntity
  8
部品1
100
AcDbLine
 10
10955.6057244869
 20
9045.024959012179
 30
0.0
 11
10927.60572448691
 21
9045.024959012179
 31
0.0
  0
LINE
  5
17CDA
330
747D
100
AcDbEntity
  8
部品1
100
AcDbLine
 10
10955.60572448688
 20
9940.024959012188
 30
0.0
 11
9585.60572448688
 21
9940.024959012159
 31
0.0
  0
LINE
  5
17CDB
330
747D
100
AcDbEntity
  8
部品1
100
AcDbLine
 10
10955.6057244869
 20
9885.024959012188
 30
0.0
 11
10927.60572448691
 21
9885.024959012188
 31
0.0
  0
LINE
  5
17CDC
330
747D
100
AcDbEntity
  8
部品1
100
AcDbLine
 10
10955.60572448688
 20
9885.024959012188
 30
0.0
 11
10927.60572448689
 21
9885.024959012188
 31
0.0
  0
LINE
  5
17CDD
330
747D
100
AcDbEntity
  8
部品1
100
AcDbLine
 10
10955.60572448676
 20
7310.02495901215
 30
0.0
 11
10900.60572448676
 21
7310.02495901215
 31
0.0
  0
LINE
  5
17CDE
330
747D
100
AcDbEntity
  8
部品1
100
AcDbLine
 10
10955.60572448676
 20
7365.024959012152
 30
0.0
 11
10927.60572448676
 21
7365.024959012152
 31
0.0
  0
LINE
  5
17CE0
330
747D
100
AcDbEntity
  8
部品1
100
AcDbLine
 10
9613.60572448703
 20
9465.024959012252
 30
0.0
 11
9585.605724487029
 21
9465.024959012252
 31
0.0
  0
LINE
  5
17CE1
330
747D
100
AcDbEntity
  8
部品1
100
AcDbLine
 10
10955.6057244869
 20
9465.024959012181
 30
0.0
 11
10927.60572448691
 21
9465.024959012181
 31
0.0
  0
MTEXT
  5
17CE2
330
747D
100
AcDbEntity
  8
寸法
 62
     7
 48
50.0
100
AcDbMText
 10
10544.7734658334
 20
9274.970707264634
 30
0.0
 40
96.0
 41
0.0
 71
     5
 72
     1
  1
棚 2段
  7
STYLE1
 11
0.0000000000000001
 21
1.0
 31
0.0
 73
     1
 44
1.0
1001
ACAD
1000
MTEXTBEGIN
1070
    73
1070
     1
1070
    44
1040
1.0
1070
    74
1070
     0
1000
MTEXTEND
  0
LINE
  5
17CE3
330
747D
100
AcDbEntity
  8
部品1
100
AcDbLine
 10
4863.508695149642
 20
2308.694218014612
 30
0.0
 11
4871.008695149641
 21
2308.694218014612
 31
0.0
  0
LINE
  5
17CE4
330
747D
100
AcDbEntity
  8
部品1
100
AcDbLine
 10
7486.008695149641
 20
2308.694218014612
 30
0.0
 11
7493.508695149642
 21
2308.694218014612
 31
0.0
  0
LINE
  5
17CE5
330
747D
100
AcDbEntity
  8
部品1
100
AcDbLine
 10
6570.244028263861
 20
1553.86761457013
 30
0.0
 11
5806.77336203542
 21
1553.86761457013
 31
0.0
  0
LINE
  5
17CE6
330
747D
100
AcDbEntity
  8
部品1
100
AcDbLine
 10
6570.244028263861
 20
1313.975293024598
 30
0.0
 11
6570.244028263861
 21
1553.86761457013
 31
0.0
  0
LINE
  5
17CE7
330
747D
100
AcDbEntity
  8
部品1
100
AcDbLine
 10
5806.77336203542
 20
1313.975293024598
 30
0.0
 11
6570.244028263861
 21
1313.975293024598
 31
0.0
  0
LINE
  5
17CE8
330
747D
100
AcDbEntity
  8
部品1
100
AcDbLine
 10
5806.77336203542
 20
1553.86761457013
 30
0.0
 11
5806.77336203542
 21
1313.975293024598
 31
0.0
  0
TEXT
  5
17CEE
330
747D
100
AcDbEntity
  8
部品1
100
AcDbText
 10
5896.219463459027
 20
1360.974085351606
 30
0.0
 40
135.0
  1
側面図
  7
STYLE2
100
AcDbText
  0
TEXT
  5
17CF0
330
747D
100
AcDbEntity
  8
部品1
100
AcDbText
 10
3807.604579064682
 20
2244.801121620513
 30
0.0
 40
125.0
  1
▽G.L
  7
STYLE2
100
AcDbText
  0
LINE
  5
182CB
330
747D
100
AcDbEntity
  8
寸法
 48
50.0
100
AcDbLine
 10
9891.999893841436
 20
7088.061710581029
 30
0.0
 11
9840.593885931333
 21
7088.061710581029
 31
0.0
  0
LINE
  5
182CC
330
747D
100
AcDbEntity
  8
寸法
 48
50.0
100
AcDbLine
 10
9840.593885931333
 20
7088.061710581029
 30
0.0
 11
9840.593885931333
 21
7119.371869233195
 31
0.0
  0
LINE
  5
182CD
330
747D
100
AcDbEntity
  8
寸法
 48
50.0
100
AcDbLine
 10
9840.593885931333
 20
7119.371869233195
 30
0.0
 11
9810.83255393991
 21
7119.371869233195
 31
0.0
  0
LINE
  5
182CE
330
747D
100
AcDbEntity
  8
寸法
 48
50.0
100
AcDbLine
 10
9810.83255393991
 20
7119.371869233195
 30
0.0
 11
9866.296889886385
 21
7156.951320161805
 31
0.0
  0
LINE
  5
182CF
330
747D
100
AcDbEntity
  8
寸法
 48
50.0
100
AcDbLine
 10
9921.76122583286
 20
7119.371869233195
 30
0.0
 11
9866.296889886385
 21
7156.951320161805
 31
0.0
  0
LINE
  5
182D0
330
747D
100
AcDbEntity
  8
寸法
 48
50.0
100
AcDbLine
 10
9891.999893841436
 20
7119.371869233195
 30
0.0
 11
9921.76122583286
 21
7119.371869233195
 31
0.0
  0
LINE
  5
182D1
330
747D
100
AcDbEntity
  8
寸法
 48
50.0
100
AcDbLine
 10
9891.999893841436
 20
7088.061710581029
 30
0.0
 11
9891.999893841436
 21
7119.371869233195
 31
0.0
  0
LINE
  5
182D2
330
747D
100
AcDbEntity
  8
寸法
 48
50.0
100
AcDbLine
 10
9840.593885931333
 20
7088.061710581029
 30
0.0
 11
9891.999893841436
 21
7088.061710581029
 31
0.0
  0
LINE
  5
182D3
330
747D
100
AcDbEntity
  8
寸法
 48
50.0
100
AcDbLine
 10
10171.16542811829
 20
7145.207301335851
 30
0.0
 11
10171.16542811829
 21
7091.543666754062
 31
0.0
  0
LINE
  5
182D4
330
747D
100
AcDbEntity
  8
寸法
 48
50.0
100
AcDbLine
 10
10260.44964671371
 20
7121.283667066366
 30
0.0
 11
10171.16542811829
 21
7145.207301335851
 31
0.0
  0
LINE
  5
182D5
330
747D
100
AcDbEntity
  8
寸法
 48
50.0
100
AcDbLine
 10
10041.29770653799
 20
7121.283667066366
 30
0.0
 11
10260.44964671371
 21
7121.283667066366
 31
0.0
  0
LINE
  5
182D6
330
747D
100
AcDbEntity
  8
細線
 48
50.0
100
AcDbLine
 10
10509.60572033049
 20
7286.525073960891
 30
0.0
 11
10888.60572448676
 21
7286.525073960891
 31
0.0
  0
LINE
  5
182D7
330
747D
100
AcDbEntity
  8
細線
 48
50.0
100
AcDbLine
 10
10103.60572448676
 20
7252.816305406816
 30
0.0
 11
10888.60572448676
 21
7252.816305406816
 31
0.0
  0
LINE
  5
182D8
330
747D
100
AcDbEntity
  8
細線
 48
50.0
100
AcDbLine
 10
10062.60572448676
 20
7282.221213403066
 30
0.0
 11
9652.605724486763
 21
7282.221213403065
 31
0.0
  0
LINE
  5
182D9
330
747D
100
AcDbEntity
  8
細線
100
AcDbLine
 10
10786.02417103019
 20
7311.024976565846
 30
0.0
 11
10720.68724761171
 21
7311.024976565832
 31
0.0
  0
LINE
  5
182DA
330
747D
100
AcDbEntity
  8
細線
100
AcDbLine
 10
10788.35571750637
 20
7306.024959012166
 30
0.0
 11
10786.02417103019
 21
7311.024976565846
 31
0.0
  0
LINE
  5
182DB
330
747D
100
AcDbEntity
  8
細線
100
AcDbLine
 10
10718.35570808991
 20
7306.024973925899
 30
0.0
 11
10720.68724761172
 21
7311.02497656586
 31
0.0
  0
LINE
  5
182DC
330
747D
100
AcDbEntity
  8
細線
100
AcDbLine
 10
10578.35571750637
 20
7306.024959012166
 30
0.0
 11
10580.68725702818
 21
7311.024961652127
 31
0.0
  0
LINE
  5
182DD
330
747D
100
AcDbEntity
  8
細線
100
AcDbLine
 10
10648.35572692283
 20
7306.024944098432
 30
0.0
 11
10646.02418044664
 21
7311.024961652113
 31
0.0
  0
LINE
  5
182DE
330
747D
100
AcDbEntity
  8
細線
100
AcDbLine
 10
10646.02418044664
 20
7311.024961652113
 30
0.0
 11
10580.68725702817
 21
7311.024961652098
 31
0.0
  0
LINE
  5
182DF
330
747D
100
AcDbEntity
  8
細線
 48
50.0
100
AcDbLine
 10
10302.48852045082
 20
7290.295822165247
 30
0.0
 11
10308.24403803349
 21
7272.02497087476
 31
0.0
  0
LINE
  5
182E0
330
747D
100
AcDbEntity
  8
細線
 48
50.0
100
AcDbLine
 10
10291.56007197039
 20
7290.295822165247
 30
0.0
 11
10302.48852045082
 21
7290.295822165247
 31
0.0
  0
ARC
  5
182E1
330
747D
100
AcDbEntity
  8
細線
 48
50.0
100
AcDbCircle
 10
10286.10571591307
 20
7291.795822165247
 30
0.0
 40
5.0
100
AcDbArc
 50
204.6243183521304
 51
335.3756816478695
  0
ARC
  5
182E2
330
747D
100
AcDbEntity
  8
細線
 48
50.0
100
AcDbCircle
 10
10291.56007197039
 20
7289.295822165247
 30
0.0
 40
1.0
100
AcDbArc
 50
90.0
 51
155.3756816478695
  0
ARC
  5
182E3
330
747D
100
AcDbEntity
  8
細線
 48
50.0
100
AcDbCircle
 10
10280.65135985575
 20
7289.295822165247
 30
0.0
 40
1.0
100
AcDbArc
 50
24.62431835213048
 51
90.0
  0
LINE
  5
182E4
330
747D
100
AcDbEntity
  8
細線
 48
50.0
100
AcDbLine
 10
10269.72291137532
 20
7290.295822165247
 30
0.0
 11
10280.65135985575
 21
7290.295822165247
 31
0.0
  0
LINE
  5
182E5
330
747D
100
AcDbEntity
  8
細線
 48
50.0
100
AcDbLine
 10
10263.96739379265
 20
7272.024970874753
 30
0.0
 11
10269.72291137532
 21
7290.295822165247
 31
0.0
  0
LINE
  5
182E6
330
747D
100
AcDbEntity
  8
細線
100
AcDbLine
 10
10388.7741423034
 20
7277.024970912947
 30
0.0
 11
10323.43721888493
 21
7277.024970912933
 31
0.0
  0
LINE
  5
182E7
330
747D
100
AcDbEntity
  8
細線
100
AcDbLine
 10
10391.10568877959
 20
7272.024953359267
 30
0.0
 11
10388.7741423034
 21
7277.024970912947
 31
0.0
  0
LINE
  5
182E8
330
747D
100
AcDbEntity
  8
細線
100
AcDbLine
 10
10321.10568059418
 20
7272.024970912977
 30
0.0
 11
10323.43721888494
 21
7277.024970912963
 31
0.0
  0
LINE
  5
182E9
330
747D
100
AcDbEntity
  8
細線
100
AcDbLine
 10
9933.60571630135
 20
7238.025150742835
 30
0.0
 11
9935.937254592117
 21
7243.025150742821
 31
0.0
  0
LINE
  5
182EA
330
747D
100
AcDbEntity
  8
細線
100
AcDbLine
 10
10003.60572448676
 20
7238.025133189122
 30
0.0
 11
10001.27417801057
 21
7243.025150742798
 31
0.0
  0
LINE
  5
182EB
330
747D
100
AcDbEntity
  8
細線
100
AcDbLine
 10
10001.27417801057
 20
7243.025150742798
 30
0.0
 11
9935.937254592104
 21
7243.025150742791
 31
0.0
  0
ARC
  5
182EC
330
747D
100
AcDbEntity
  8
部品1
 48
0.01
100
AcDbCircle
 10
9813.105617888018
 20
7237.024028557762
 30
0.0
 40
0.5
100
AcDbArc
 50
270.0
 51
0.0
  0
LINE
  5
182ED
330
747D
100
AcDbEntity
  8
部品1
 48
0.01
100
AcDbLine
 10
9813.605617888017
 20
7238.024028557763
 30
0.0
 11
9813.605617888017
 21
7237.024028557762
 31
0.0
  0
LINE
  5
182EE
330
747D
100
AcDbEntity
  8
部品1
 48
0.01
100
AcDbLine
 10
9813.605617888017
 20
7238.024028557763
 30
0.0
 11
9813.605617888017
 21
7237.024028557762
 31
0.0
  0
LINE
  5
182EF
330
747D
100
AcDbEntity
  8
部品1
 48
0.01
100
AcDbLine
 10
9813.105617888018
 20
7236.524028557763
 30
0.0
 11
9806.493112457955
 21
7236.524028557763
 31
0.0
  0
ARC
  5
182F0
330
747D
100
AcDbEntity
  8
部品1
100
AcDbCircle
 10
9806.561462010733
 20
7237.524028557762
 30
0.0
 40
1.0
100
AcDbArc
 50
160.5287793655778
 51
270.0
  0
ARC
  5
182F1
330
747D
100
AcDbEntity
  8
部品1
100
AcDbCircle
 10
9781.105617888018
 20
7246.524028557762
 30
0.0
 40
26.0
100
AcDbArc
 50
340.5287793655779
 51
0.0
  0
LINE
  5
182F2
330
747D
100
AcDbEntity
  8
部品1
100
AcDbLine
 10
9807.105617888018
 20
7246.524028557762
 30
0.0
 11
9807.105617888018
 21
7251.524028557762
 31
0.0
  0
ARC
  5
182F3
330
747D
100
AcDbEntity
  8
部品1
 48
0.01
100
AcDbCircle
 10
9805.105617888017
 20
7251.524028557762
 30
0.0
 40
2.0
100
AcDbArc
 50
0.0
 51
90.0
  0
ARC
  5
182F4
330
747D
100
AcDbEntity
  8
部品1
100
AcDbCircle
 10
9803.497226263205
 20
7250.524028557762
 30
0.0
 40
3.0
100
AcDbArc
 50
90.0
 51
141.6069559807873
  0
LINE
  5
182F5
330
747D
100
AcDbEntity
  8
部品1
 48
0.01
100
AcDbLine
 10
9805.105617888017
 20
7253.524028557762
 30
0.0
 11
9803.497226263205
 21
7253.524028557762
 31
0.0
  0
ARC
  5
182F6
330
747D
100
AcDbEntity
  8
部品1
100
AcDbCircle
 10
9785.034903673746
 20
7249.824028557765
 30
0.0
 40
3.0
100
AcDbArc
 50
254.0576313943215
 51
270.0
  0
ARC
  5
182F7
330
747D
100
AcDbEntity
  8
部品1
100
AcDbCircle
 10
9792.176332102288
 20
7249.824028557765
 30
0.0
 40
3.0
100
AcDbArc
 50
270.0
 51
285.9423686056786
  0
LINE
  5
182F8
330
747D
100
AcDbEntity
  8
部品1
100
AcDbLine
 10
9792.176332102288
 20
7246.824028557765
 30
0.0
 11
9785.034903673746
 21
7246.824028557765
 31
0.0
  0
ARC
  5
182F9
330
747D
100
AcDbEntity
  8
部品1
100
AcDbCircle
 10
9788.605617888016
 20
7262.324028557765
 30
0.0
 40
16.0
100
AcDbArc
 50
285.9423686056786
 51
321.6069559807873
  0
LINE
  5
182FA
330
747D
100
AcDbEntity
  8
部品1
 48
0.01
100
AcDbLine
 10
9772.105617888017
 20
7253.524028557762
 30
0.0
 11
9773.714009512829
 21
7253.524028557762
 31
0.0
  0
ARC
  5
182FB
330
747D
100
AcDbEntity
  8
部品1
100
AcDbCircle
 10
9773.714009512829
 20
7250.524028557762
 30
0.0
 40
3.0
100
AcDbArc
 50
38.39304401921267
 51
90.0
  0
ARC
  5
182FC
330
747D
100
AcDbEntity
  8
部品1
100
AcDbCircle
 10
9788.605617888016
 20
7262.324028557765
 30
0.0
 40
16.0
100
AcDbArc
 50
218.3930440192126
 51
254.0576313943215
  0
LINE
  5
182FD
330
747D
100
AcDbEntity
  8
部品1
100
AcDbLine
 10
9770.105617888019
 20
7246.524028557762
 30
0.0
 11
9770.105617888019
 21
7251.524028557762
 31
0.0
  0
ARC
  5
182FE
330
747D
100
AcDbEntity
  8
部品1
 48
0.01
100
AcDbCircle
 10
9772.105617888017
 20
7251.524028557762
 30
0.0
 40
2.0
100
AcDbArc
 50
90.0
 51
180.0
  0
ARC
  5
182FF
330
747D
100
AcDbEntity
  8
部品1
100
AcDbCircle
 10
9796.105617888017
 20
7246.524028557762
 30
0.0
 40
26.0
100
AcDbArc
 50
180.0
 51
199.4712206344221
  0
ARC
  5
18300
330
747D
100
AcDbEntity
  8
部品1
 48
0.01
100
AcDbCircle
 10
9764.105617888018
 20
7237.024028557762
 30
0.0
 40
0.5
100
AcDbArc
 50
180.0
 51
270.0
  0
LINE
  5
18301
330
747D
100
AcDbEntity
  8
部品1
 48
0.01
100
AcDbLine
 10
9764.105617888018
 20
7236.524028557763
 30
0.0
 11
9770.649773765301
 21
7236.524028557763
 31
0.0
  0
LINE
  5
18302
330
747D
100
AcDbEntity
  8
部品1
 48
0.01
100
AcDbLine
 10
9763.605617888018
 20
7238.024028557763
 30
0.0
 11
9763.605617888018
 21
7237.024028557762
 31
0.0
  0
ARC
  5
18303
330
747D
100
AcDbEntity
  8
部品1
100
AcDbCircle
 10
9770.649773765301
 20
7237.524028557762
 30
0.0
 40
1.0
100
AcDbArc
 50
270.0
 51
19.47122063442214
  0
LINE
  5
18304
330
747D
100
AcDbEntity
  8
細線
100
AcDbLine
 10
9809.105617888025
 20
7256.024028557766
 30
0.0
 11
9768.105617888025
 21
7256.024028557759
 31
0.0
  0
LINE
  5
18305
330
747D
100
AcDbEntity
  8
細線
100
AcDbLine
 10
9768.105617888025
 20
7256.024028557759
 30
0.0
 11
9768.105617888025
 21
7238.02402855774
 31
0.0
  0
LINE
  5
18306
330
747D
100
AcDbEntity
  8
細線
100
AcDbLine
 10
9809.105617888025
 20
7256.024028557766
 30
0.0
 11
9809.105617888025
 21
7238.02402855774
 31
0.0
  0
LINE
  5
18307
330
747D
100
AcDbEntity
  8
細線
100
AcDbLine
 10
9652.605724486763
 20
7242.024959012166
 30
0.0
 11
9652.605724486763
 21
7238.024959012213
 31
0.0
  0
DIMENSION
  5
18308
330
747D
100
AcDbEntity
  8
寸法
 48
50.0
100
AcDbDimension
  2
*D29
 10
10326.60572448676
 20
6608.895584314864
 30
0.0
 11
9989.605724486763
 21
6608.895584314864
 31
0.0
 70
   160
  1
有効開口部間口\P<>
 71
     5
 42
674.0
  3
INABA_S40
100
AcDbAlignedDimension
 13
9652.605724486763
 23
7233.024959012166
 33
0.0
 14
10326.60572448676
 24
7233.024959012166
 34
0.0
100
AcDbRotatedDimension
1001
ACAD
1000
DSTYLE
1002
{
1070
    41
1040
0.5
1070
    44
1040
1.0
1070
   147
1040
0.8
1070
   271
1070
     2
1070
   272
1070
     2
1070
   289
1070
     3
1070
   340
1005
F706
1070
   343
1005
16BD6
1070
   344
1005
16BD6
1002
}
  0
LINE
  5
18309
330
747D
100
AcDbEntity
  8
部品1
100
AcDbLine
 10
10900.60572448676
 20
7310.024959012166
 30
0.0
 11
10927.60572448676
 21
7310.024959012166
 31
0.0
  0
LINE
  5
1830B
330
747D
100
AcDbEntity
  8
部品1
100
AcDbLine
 10
10927.60572448676
 20
7233.024959012166
 30
0.0
 11
10927.60572448676
 21
7310.024959012166
 31
0.0
  0
LINE
  5
1830C
330
747D
100
AcDbEntity
  8
部品1
100
AcDbLine
 10
10888.60572448676
 20
7306.024959012166
 30
0.0
 11
10900.60572448676
 21
7306.024959012166
 31
0.0
  0
LINE
  5
1830D
330
747D
100
AcDbEntity
  8
部品1
100
AcDbLine
 10
10897.60572448676
 20
7242.024959012166
 30
0.0
 11
10897.60572448676
 21
7233.024959012166
 31
0.0
  0
LINE
  5
1830E
330
747D
100
AcDbEntity
  8
部品1
100
AcDbLine
 10
10888.60572448676
 20
7242.024959012166
 30
0.0
 11
10897.60572448676
 21
7242.024959012166
 31
0.0
  0
LINE
  5
1830F
330
747D
100
AcDbEntity
  8
部品1
100
AcDbLine
 10
10888.60572448676
 20
7306.024959012166
 30
0.0
 11
10888.60572448676
 21
7242.024959012166
 31
0.0
  0
LINE
  5
18310
330
747D
100
AcDbEntity
  8
部品1
100
AcDbLine
 10
10900.60572448676
 20
7337.024959012166
 30
0.0
 11
10900.60572448676
 21
7306.024959012166
 31
0.0
  0
LINE
  5
18311
330
747D
100
AcDbEntity
  8
部品1
100
AcDbLine
 10
9652.605724486763
 20
7306.024959012166
 30
0.0
 11
9640.605724486762
 21
7306.024959012166
 31
0.0
  0
LINE
  5
18312
330
747D
100
AcDbEntity
  8
部品1
100
AcDbLine
 10
9613.605724486763
 20
7310.024959012166
 30
0.0
 11
9640.605724486762
 21
7310.024959012166
 31
0.0
  0
LINE
  5
18313
330
747D
100
AcDbEntity
  8
部品1
100
AcDbLine
 10
9643.605724486763
 20
7242.024959012166
 30
0.0
 11
9643.605724486763
 21
7233.024959012166
 31
0.0
  0
LINE
  5
18314
330
747D
100
AcDbEntity
  8
部品1
100
AcDbLine
 10
9652.605724486763
 20
7242.024959012166
 30
0.0
 11
9643.605724486763
 21
7242.024959012166
 31
0.0
  0
LINE
  5
18315
330
747D
100
AcDbEntity
  8
部品1
100
AcDbLine
 10
9643.605724486763
 20
7233.024959012166
 30
0.0
 11
9613.605724486763
 21
7233.024959012166
 31
0.0
  0
LINE
  5
18316
330
747D
100
AcDbEntity
  8
部品1
100
AcDbLine
 10
9613.605724486763
 20
7233.024959012166
 30
0.0
 11
9613.605724486763
 21
7310.024959012166
 31
0.0
  0
LINE
  5
18317
330
747D
100
AcDbEntity
  8
部品1
100
AcDbLine
 10
9652.605724486763
 20
7306.024959012166
 30
0.0
 11
9652.605724486763
 21
7242.024959012166
 31
0.0
  0
LINE
  5
18318
330
747D
100
AcDbEntity
  8
部品1
100
AcDbLine
 10
9640.605724486762
 20
7337.024959012161
 30
0.0
 11
9640.605724486762
 21
7306.024959012166
 31
0.0
  0
LINE
  5
18319
330
747D
100
AcDbEntity
  8
部品1
100
AcDbLine
 10
9640.605724486762
 20
7337.024959012161
 30
0.0
 11
10900.60572448676
 21
7337.024959012166
 31
0.0
  0
LINE
  5
1831A
330
747D
100
AcDbEntity
  8
部品1
100
AcDbLine
 10
9643.605724486763
 20
7233.024959012166
 30
0.0
 11
10927.60572448676
 21
7233.024959012166
 31
0.0
  0
LINE
  5
1831B
330
747D
100
AcDbEntity
  8
細線
 48
50.0
100
AcDbLine
 10
9666.605729140355
 20
7258.62513318912
 30
0.0
 11
9666.605729140355
 21
7267.02128359676
 31
0.0
  0
LINE
  5
1831C
330
747D
100
AcDbEntity
  8
細線
 48
50.0
100
AcDbLine
 10
9666.605729140355
 20
7267.02128359676
 30
0.0
 11
9652.605724486763
 21
7267.021283596756
 31
0.0
  0
LINE
  5
1831D
330
747D
100
AcDbEntity
  8
細線
 48
50.0
100
AcDbLine
 10
9643.605724486763
 20
7238.022467532591
 30
0.0
 11
9933.605724486763
 21
7238.026103658544
 31
0.0
  0
LINE
  5
1831E
330
747D
100
AcDbEntity
  8
細線
 48
50.0
100
AcDbLine
 10
10003.60572448677
 20
7238.02513318912
 30
0.0
 11
10103.60572448676
 21
7238.025133189122
 31
0.0
  0
LINE
  5
1831F
330
747D
100
AcDbEntity
  8
細線
 48
50.0
100
AcDbLine
 10
9876.467402366349
 20
7238.025133189122
 30
0.0
 11
9882.222919949018
 21
7256.295984479615
 31
0.0
  0
LINE
  5
18320
330
747D
100
AcDbEntity
  8
細線
 48
50.0
100
AcDbLine
 10
9882.222919949018
 20
7256.295984479615
 30
0.0
 11
9893.15136842945
 21
7256.295984479611
 31
0.0
  0
ARC
  5
18321
330
747D
100
AcDbEntity
  8
細線
 48
50.0
100
AcDbCircle
 10
9893.15136842945
 20
7255.295984479612
 30
0.0
 40
1.0
100
AcDbArc
 50
24.62431835213048
 51
90.0
  0
ARC
  5
18322
330
747D
100
AcDbEntity
  8
細線
 48
50.0
100
AcDbCircle
 10
9904.060080544084
 20
7255.295984479612
 30
0.0
 40
1.0
100
AcDbArc
 50
90.0
 51
155.3756816478695
  0
ARC
  5
18323
330
747D
100
AcDbEntity
  8
細線
 48
50.0
100
AcDbCircle
 10
9898.605724486767
 20
7257.795984479611
 30
0.0
 40
5.0
100
AcDbArc
 50
204.6243183521304
 51
335.3756816478695
  0
LINE
  5
18324
330
747D
100
AcDbEntity
  8
細線
 48
50.0
100
AcDbLine
 10
9904.060080544084
 20
7256.295984479611
 30
0.0
 11
9914.988529024517
 21
7256.295984479615
 31
0.0
  0
LINE
  5
18325
330
747D
100
AcDbEntity
  8
細線
 48
50.0
100
AcDbLine
 10
9914.988529024517
 20
7256.295984479615
 30
0.0
 11
9920.744046607186
 21
7238.025133189122
 31
0.0
  0
LINE
  5
18326
330
747D
100
AcDbEntity
  8
細線
 48
50.0
100
AcDbLine
 10
10479.6057156769
 20
7292.625177046983
 30
0.0
 11
10092.60572448676
 21
7292.625177046983
 31
0.0
  0
LINE
  5
18327
330
747D
100
AcDbEntity
  8
細線
 48
50.0
100
AcDbLine
 10
10871.70572448677
 20
7336.024959012165
 30
0.0
 11
10483.60572033049
 21
7336.024959012163
 31
0.0
  0
LINE
  5
18328
330
747D
100
AcDbEntity
  8
細線
 48
50.0
100
AcDbLine
 10
10898.10572448676
 20
7331.02495901217
 30
0.0
 11
10881.70572448676
 21
7331.024959012165
 31
0.0
  0
LINE
  5
18329
330
747D
100
AcDbEntity
  8
細線
 48
50.0
100
AcDbLine
 10
10881.70572448676
 20
7331.024959012165
 30
0.0
 11
10871.70572448676
 21
7336.024959012165
 31
0.0
  0
LINE
  5
1832A
330
747D
100
AcDbEntity
  8
細線
100
AcDbLine
 10
10673.35571750637
 20
7306.024959012166
 30
0.0
 11
10673.35571750637
 21
7335.324959012165
 31
0.0
  0
LINE
  5
1832B
330
747D
100
AcDbEntity
  8
細線
100
AcDbLine
 10
10673.35571750637
 20
7335.324959012165
 30
0.0
 11
10693.35571750637
 21
7335.324959012165
 31
0.0
  0
LINE
  5
1832C
330
747D
100
AcDbEntity
  8
細線
100
AcDbLine
 10
10693.35571750637
 20
7306.024959012166
 30
0.0
 11
10693.35571750637
 21
7335.324959012165
 31
0.0
  0
LINE
  5
1832D
330
747D
100
AcDbEntity
  8
細線
 48
50.0
100
AcDbLine
 10
10578.35571750637
 20
7306.024959012167
 30
0.0
 11
10501.40149990328
 21
7306.024959012167
 31
0.0
  0
LINE
  5
1832E
330
747D
100
AcDbEntity
  8
細線
100
AcDbLine
 10
10718.35571750637
 20
7306.024959012166
 30
0.0
 11
10648.35571750637
 21
7306.024959012166
 31
0.0
  0
LINE
  5
1832F
330
747D
100
AcDbEntity
  8
細線
100
AcDbLine
 10
10888.60572448676
 20
7306.024959012166
 30
0.0
 11
10788.35571750637
 21
7306.024959012167
 31
0.0
  0
LINE
  5
18330
330
747D
100
AcDbEntity
  8
細線
 48
50.0
100
AcDbLine
 10
10898.10572448676
 20
7331.02495901217
 30
0.0
 11
10898.10572448676
 21
7306.024959012166
 31
0.0
  0
ARC
  5
18331
330
747D
100
AcDbEntity
  8
細線
 48
50.0
100
AcDbCircle
 10
10103.37303036261
 20
7271.024980180441
 30
0.0
 40
1.0
100
AcDbArc
 50
90.0003999466794
 51
165.0005554812987
  0
LINE
  5
18332
330
747D
100
AcDbEntity
  8
細線
 48
50.0
100
AcDbLine
 10
10103.37302338223
 20
7272.024980180415
 30
0.0
 11
10104.31478353313
 21
7272.024986754265
 31
0.0
  0
ARC
  5
18333
330
747D
100
AcDbEntity
  8
細線
 48
50.0
100
AcDbCircle
 10
10093.83839256127
 20
7271.024785490145
 30
0.0
 40
1.0
100
AcDbArc
 50
15.00104430493943
 51
90.00093320877969
  0
LINE
  5
18334
330
747D
100
AcDbEntity
  8
細線
 48
50.0
100
AcDbLine
 10
10094.80431367002
 20
7271.283622140707
 30
0.0
 11
10095.05208316653
 21
7270.359001202125
 31
0.0
  0
ARC
  5
18335
330
747D
100
AcDbEntity
  8
細線
 48
50.0
100
AcDbCircle
 10
10096.79074116228
 20
7270.824907173143
 30
0.0
 40
1.8
100
AcDbArc
 50
195.0010443049394
 51
270.0006665777295
  0
LINE
  5
18336
330
747D
100
AcDbEntity
  8
細線
 48
50.0
100
AcDbLine
 10
10100.4206895222
 20
7269.024949403743
 30
0.0
 11
10096.79076210343
 21
7269.024907173264
 31
0.0
  0
LINE
  5
18337
330
747D
100
AcDbEntity
  8
細線
 48
50.0
100
AcDbLine
 10
10102.40710202712
 20
7271.283789860901
 30
0.0
 11
10102.15933958492
 21
7270.359091978796
 31
0.0
  0
ARC
  5
18338
330
747D
100
AcDbEntity
  8
細線
 48
50.0
100
AcDbCircle
 10
10100.42066858104
 20
7270.824949403622
 30
0.0
 40
1.8
100
AcDbArc
 50
270.0006665777295
 51
345.0005554812987
  0
LINE
  5
18339
330
747D
100
AcDbEntity
  8
細線
 48
50.0
100
AcDbLine
 10
10082.605686919
 20
7272.024602536864
 30
0.0
 11
10093.83837627371
 21
7272.024785490009
 31
0.0
  0
LINE
  5
1833A
330
747D
100
AcDbEntity
  8
細線
 48
50.0
100
AcDbLine
 10
10082.605686919
 20
7272.024602536864
 30
0.0
 11
10082.60573178794
 21
7263.421140901055
 31
0.0
  0
LINE
  5
1833B
330
747D
100
AcDbEntity
  8
細線
 48
50.0
100
AcDbLine
 10
10062.60572448676
 20
7263.421099351514
 30
0.0
 11
10082.60573178794
 21
7263.421140901055
 31
0.0
  0
LINE
  5
1833C
330
747D
100
AcDbEntity
  8
細線
 48
50.0
100
AcDbLine
 10
10062.60572448676
 20
7301.021327454624
 30
0.0
 11
10062.60572448676
 21
7263.421099351514
 31
0.0
  0
LINE
  5
1833D
330
747D
100
AcDbEntity
  8
細線
 48
50.0
100
AcDbLine
 10
10077.60572448676
 20
7301.021327454627
 30
0.0
 11
10062.60572448676
 21
7301.021327454624
 31
0.0
  0
LINE
  5
1833E
330
747D
100
AcDbEntity
  8
細線
 48
50.0
100
AcDbLine
 10
10077.60572448676
 20
7294.021327454628
 30
0.0
 11
10077.60572448676
 21
7301.021327454627
 31
0.0
  0
LINE
  5
1833F
330
747D
100
AcDbEntity
  8
細線
 48
50.0
100
AcDbLine
 10
10092.60572448676
 20
7294.021327454628
 30
0.0
 11
10077.60572448676
 21
7294.021327454628
 31
0.0
  0
LINE
  5
18340
330
747D
100
AcDbEntity
  8
細線
 48
50.0
100
AcDbLine
 10
10092.60572448676
 20
7289.521327454628
 30
0.0
 11
10092.60572448676
 21
7294.021327454628
 31
0.0
  0
LINE
  5
18341
330
747D
100
AcDbEntity
  8
細線
 48
50.0
100
AcDbLine
 10
10103.60572448676
 20
7267.025133189121
 30
0.0
 11
10103.60572448676
 21
7238.025133189122
 31
0.0
  0
LINE
  5
18342
330
747D
100
AcDbEntity
  8
細線
 48
50.0
100
AcDbLine
 10
10088.60572448676
 20
7267.025133189121
 30
0.0
 11
10103.60572448676
 21
7267.025133189121
 31
0.0
  0
LINE
  5
18343
330
747D
100
AcDbEntity
  8
細線
 48
50.0
100
AcDbLine
 10
10088.60572448676
 20
7260.025133189121
 30
0.0
 11
10088.60572448676
 21
7267.025133189121
 31
0.0
  0
LINE
  5
18344
330
747D
100
AcDbEntity
  8
細線
 48
50.0
100
AcDbLine
 10
10073.60572448676
 20
7260.025133189121
 30
0.0
 11
10088.60572448676
 21
7260.025133189121
 31
0.0
  0
LINE
  5
18345
330
747D
100
AcDbEntity
  8
細線
 48
50.0
100
AcDbLine
 10
10073.60572448676
 20
7255.175133189119
 30
0.0
 11
10073.60572448676
 21
7260.025133189121
 31
0.0
  0
LINE
  5
18346
330
747D
100
AcDbEntity
  8
細線
 48
50.0
100
AcDbLine
 10
10073.60572448676
 20
7258.625133189119
 30
0.0
 11
9666.605729140355
 21
7258.62513318912
 31
0.0
  0
LINE
  5
18347
330
747D
100
AcDbEntity
  8
細線
 48
50.0
100
AcDbLine
 10
10181.10571517958
 20
7272.024976205472
 30
0.0
 11
10097.01116515599
 21
7272.024986792487
 31
0.0
  0
LINE
  5
18348
330
747D
100
AcDbEntity
  8
細線
 48
50.0
100
AcDbLine
 10
10321.10568059418
 20
7272.024970912977
 30
0.0
 11
10251.1056633063
 21
7272.024970912984
 31
0.0
  0
LINE
  5
18349
330
747D
100
AcDbEntity
  8
細線
100
AcDbLine
 10
10248.7741776223
 20
7277.024979100314
 30
0.0
 11
10183.43725420382
 21
7277.024979100302
 31
0.0
  0
LINE
  5
1834A
330
747D
100
AcDbEntity
  8
細線
100
AcDbLine
 10
10251.10572409849
 20
7272.024961546637
 30
0.0
 11
10248.7741776223
 21
7277.024979100314
 31
0.0
  0
LINE
  5
1834B
330
747D
100
AcDbEntity
  8
細線
100
AcDbLine
 10
10181.10571591307
 20
7272.024979100347
 30
0.0
 11
10183.43725420384
 21
7277.024979100332
 31
0.0
  0
LINE
  5
1834C
330
747D
100
AcDbEntity
  8
細線
 48
50.0
100
AcDbLine
 10
10468.60572033049
 20
7298.02495901217
 30
0.0
 11
10468.60572033049
 21
7336.024959012163
 31
0.0
  0
LINE
  5
1834D
330
747D
100
AcDbEntity
  8
細線
 48
50.0
100
AcDbLine
 10
10468.60572033049
 20
7336.024959012163
 30
0.0
 11
10483.60572033049
 21
7336.024959012165
 31
0.0
  0
LINE
  5
1834E
330
747D
100
AcDbEntity
  8
細線
 48
50.0
100
AcDbLine
 10
10483.60572033049
 20
7336.024959012165
 30
0.0
 11
10483.60572033049
 21
7331.024959012165
 31
0.0
  0
LINE
  5
1834F
330
747D
100
AcDbEntity
  8
細線
 48
50.0
100
AcDbLine
 10
10468.60572033049
 20
7298.02495901217
 30
0.0
 11
10488.60572033049
 21
7298.024959012166
 31
0.0
  0
LINE
  5
18350
330
747D
100
AcDbEntity
  8
細線
 48
50.0
100
AcDbLine
 10
10488.60572033049
 20
7298.024959012166
 30
0.0
 11
10488.60572033049
 21
7306.024959012166
 31
0.0
  0
LINE
  5
18351
330
747D
100
AcDbEntity
  8
細線
 48
50.0
100
AcDbLine
 10
10494.60572033049
 20
7305.224959012166
 30
0.0
 11
10494.60572033049
 21
7303.724959012166
 31
0.0
  0
LINE
  5
18352
330
747D
100
AcDbEntity
  8
細線
 48
50.0
100
AcDbLine
 10
10495.30572033049
 20
7303.024959012166
 30
0.0
 11
10499.90572033049
 21
7303.024959012166
 31
0.0
  0
LINE
  5
18353
330
747D
100
AcDbEntity
  8
細線
 48
50.0
100
AcDbLine
 10
10500.60572033049
 20
7303.724959012166
 30
0.0
 11
10500.6057271556
 21
7305.224973903654
 31
0.0
  0
ARC
  5
18354
330
747D
100
AcDbEntity
  8
細線
 48
50.0
100
AcDbCircle
 10
10499.90572033049
 20
7303.724959012166
 30
0.0
 40
0.7
100
AcDbArc
 50
270.0
 51
0.0
  0
ARC
  5
18355
330
747D
100
AcDbEntity
  8
細線
 48
50.0
100
AcDbCircle
 10
10495.30572033049
 20
7303.724959012166
 30
0.0
 40
0.7
100
AcDbArc
 50
180.0
 51
270.0
  0
LINE
  5
18356
330
747D
100
AcDbEntity
  8
細線
 48
50.0
100
AcDbLine
 10
10493.80572219194
 20
7306.024959012166
 30
0.0
 11
10488.60572033049
 21
7306.024959012166
 31
0.0
  0
ARC
  5
18357
330
747D
100
AcDbEntity
  8
細線
 48
50.0
100
AcDbCircle
 10
10501.4057271556
 20
7305.224970180784
 30
0.0
 40
0.8
100
AcDbArc
 50
90.00014387753465
 51
179.9997333689498
  0
ARC
  5
18358
330
747D
100
AcDbEntity
  8
細線
 48
50.0
100
AcDbCircle
 10
10493.8057203305
 20
7305.224959012166
 30
0.0
 40
0.8
100
AcDbArc
 50
359.9997333689499
 51
89.99986668437072
  0
LINE
  5
18359
330
747D
100
AcDbEntity
  8
細線
 48
50.0
100
AcDbLine
 10
10391.10568061198
 20
7272.024970874756
 30
0.0
 11
10509.60571517958
 21
7272.024970874756
 31
0.0
  0
LINE
  5
1835A
330
747D
100
AcDbEntity
  8
細線
 48
50.0
100
AcDbLine
 10
10509.60572548141
 20
7301.025177047029
 30
0.0
 11
10509.60571517958
 21
7272.024970874756
 31
0.0
  0
LINE
  5
1835B
330
747D
100
AcDbEntity
  8
細線
 48
50.0
100
AcDbLine
 10
10494.60572731088
 20
7301.025177047029
 30
0.0
 11
10509.60572548141
 21
7301.025177047029
 31
0.0
  0
LINE
  5
1835C
330
747D
100
AcDbEntity
  8
細線
 48
50.0
100
AcDbLine
 10
10494.6057156769
 20
7294.025177046986
 30
0.0
 11
10494.60572731088
 21
7301.025177047029
 31
0.0
  0
LINE
  5
1835D
330
747D
100
AcDbEntity
  8
細線
 48
50.0
100
AcDbLine
 10
10479.6057156769
 20
7294.025177046986
 30
0.0
 11
10494.6057156769
 21
7294.025177046986
 31
0.0
  0
LINE
  5
1835E
330
747D
100
AcDbEntity
  8
細線
 48
50.0
100
AcDbLine
 10
10479.6057156769
 20
7289.175177046988
 30
0.0
 11
10479.6057156769
 21
7294.025177046986
 31
0.0
  0
LINE
  5
1835F
330
747D
100
AcDbEntity
  8
細線
  6
Continuous
 62
     5
100
AcDbLine
 10
10481.60572033049
 20
7291.024959012162
 30
0.0
 11
10481.60572033049
 21
7291.024959012162
 31
0.0
  0
LINE
  5
18360
330
747D
100
AcDbEntity
  8
細線
  6
Continuous
 62
     5
100
AcDbLine
 10
10413.60572963767
 20
7272.024959012163
 30
0.0
 11
10413.60572963767
 21
7272.024959012163
 31
0.0
  0
DIMENSION
  5
18564
330
747D
100
AcDbEntity
  8
寸法
 48
50.0
100
AcDbDimension
  2
*D30
 10
10927.60572448676
 20
6382.413095008074
 30
0.0
 11
10270.60572448676
 21
6382.413095008074
 31
0.0
 70
   160
 71
     5
 42
1314.0
  3
INABA_S40G
100
AcDbAlignedDimension
 13
9613.605724486763
 23
7233.024959012166
 33
0.0
 14
10927.60572448676
 24
7233.024959012166
 34
0.0
100
AcDbRotatedDimension
1001
ACAD
1000
DSTYLE
1002
{
1070
   341
1005
0
1002
}
  0
DIMENSION
  5
185FC
330
747D
100
AcDbEntity
  8
寸法
100
AcDbDimension
  2
*D31
 10
9290.994478860069
 20
7235.024959012166
 30
0.0
 11
9290.994478860067
 21
7094.539677637929
 31
0.0
 70
   160
 71
     5
 42
75.0
  3
INABA_S40
100
AcDbAlignedDimension
 13
9585.605724486784
 23
7310.024959012166
 33
0.0
 14
9613.605724486763
 24
7235.024959012166
 34
0.0
 50
90.0
100
AcDbRotatedDimension
1001
ACAD
1000
DSTYLE
1002
{
1070
    41
1040
0.5
1070
    44
1040
1.0
1070
   147
1040
0.8
1070
   271
1070
     2
1070
   272
1070
     2
1070
   289
1070
     3
1070
   340
1005
F706
1070
   343
1005
16BD6
1070
   344
1005
16BD6
1002
}
  0
LINE
  5
185FD
330
747D
100
AcDbEntity
  8
部品1
100
AcDbLine
 10
10652.34105774673
 20
5835.981834238533
 30
0.0
 11
9888.870391518295
 21
5835.981834238533
 31
0.0
  0
LINE
  5
185FE
330
747D
100
AcDbEntity
  8
部品1
100
AcDbLine
 10
10652.34105774673
 20
5596.089512693001
 30
0.0
 11
10652.34105774673
 21
5835.981834238533
 31
0.0
  0
LINE
  5
185FF
330
747D
100
AcDbEntity
  8
部品1
100
AcDbLine
 10
9888.870391518295
 20
5596.089512693001
 30
0.0
 11
10652.34105774673
 21
5596.089512693001
 31
0.0
  0
LINE
  5
18600
330
747D
100
AcDbEntity
  8
部品1
100
AcDbLine
 10
9888.870391518295
 20
5835.981834238533
 30
0.0
 11
9888.870391518295
 21
5596.089512693001
 31
0.0
  0
DIMENSION
  5
18601
330
747D
100
AcDbEntity
  8
寸法
100
AcDbDimension
  2
*D32
 10
10955.60572448686
 20
6148.336131298349
 30
0.0
 11
10268.02770924727
 21
6148.336131298349
 31
0.0
 70
   160
 71
     5
 42
1370.000000000078
  3
INABA_S40G
100
AcDbAlignedDimension
 13
9585.605724486784
 23
7310.024959012181
 33
0.0
 14
10955.60572448686
 24
7310.024959012153
 34
0.0
100
AcDbRotatedDimension
1001
ACAD
1000
DSTYLE
1002
{
1002
}
  0
TEXT
  5
18640
330
747D
100
AcDbEntity
  8
部品1
100
AcDbText
 10
9978.790001347334
 20
5643.08830502001
 30
0.0
 40
135.0
  1
平面図
  7
STYLE2
100
AcDbText
  0
LWPOLYLINE
  5
18869
330
747D
100
AcDbEntity
  8
部品1
 48
50.0
100
AcDbPolyline
 90
        4
 70
     1
 43
0.0
 10
9712.655724486886
 20
3204.944218014602
 10
9715.555724486888
 20
3204.944218014602
 10
9715.555724486888
 20
3214.444218014602
 10
9712.655724486886
 20
3214.444218014602
  0
CIRCLE
  5
1886A
330
747D
100
AcDbEntity
  8
部品1
 48
50.0
100
AcDbCircle
 10
9714.105724486886
 20
3209.694218014602
 30
0.0
 40
9.0
  0
ARC
  5
1886B
330
747D
100
AcDbEntity
  8
細線
 48
50.0
100
AcDbCircle
 10
9714.105724486886
 20
3209.694218014602
 30
0.0
 40
4.0
100
AcDbArc
 50
111.2538091853132
 51
248.7461908146868
  0
ARC
  5
1886C
330
747D
100
AcDbEntity
  8
細線
 48
50.0
100
AcDbCircle
 10
9714.105724486886
 20
3209.694218014602
 30
0.0
 40
17.5
100
AcDbArc
 50
306.4837370612677
 51
233.5162629387323
  0
LINE
  5
1886D
330
747D
100
AcDbEntity
  8
細線
 48
50.0
100
AcDbLine
 10
9724.105724486882
 20
3185.835257433719
 30
0.0
 11
9724.105724486888
 21
3194.81974323396
 31
0.0
  0
LINE
  5
1886E
330
747D
100
AcDbEntity
  8
細線
 48
50.0
100
AcDbLine
 10
9704.105724486886
 20
3185.835257433721
 30
0.0
 11
9704.105724486886
 21
3194.819743233957
 31
0.0
  0
ARC
  5
1886F
330
747D
100
AcDbEntity
  8
細線
 48
50.0
100
AcDbCircle
 10
9714.105724486886
 20
3209.694218014602
 30
0.0
 40
26.5
100
AcDbArc
 50
249.3326835063939
 51
290.6673164933835
  0
ARC
  5
18870
330
747D
100
AcDbEntity
  8
細線
 48
50.0
100
AcDbCircle
 10
9723.105724486879
 20
3185.835257433719
 30
0.0
 40
1.0
100
AcDbArc
 50
290.6673164936062
 51
359.9999999998958
  0
ARC
  5
18871
330
747D
100
AcDbEntity
  8
細線
 48
50.0
100
AcDbCircle
 10
9705.105724486886
 20
3185.835257433721
 30
0.0
 40
1.0
100
AcDbArc
 50
180.0
 51
249.3326835066164
  0
ARC
  5
18872
330
747D
100
AcDbEntity
  8
細線
 48
50.0
100
AcDbCircle
 10
9703.105724486887
 20
3194.819743233957
 30
0.0
 40
1.0
100
AcDbArc
 50
0.0
 51
53.51626293873231
  0
ARC
  5
18873
330
747D
100
AcDbEntity
  8
細線
 48
50.0
100
AcDbCircle
 10
9725.105724486891
 20
3194.81974323396
 30
0.0
 40
1.0
100
AcDbArc
 50
126.4837370615127
 51
180.0
  0
ARC
  5
18874
330
747D
100
AcDbEntity
  8
細線
 48
50.0
100
AcDbCircle
 10
9714.105724486886
 20
3209.694218014602
 30
0.0
 40
21.5
100
AcDbArc
 50
255.8014401250294
 51
284.1985598749706
  0
ARC
  5
18875
330
747D
100
AcDbEntity
  8
細線
 48
50.0
100
AcDbCircle
 10
9714.105724486886
 20
3209.694218014602
 30
0.0
 40
16.5
100
AcDbArc
 50
251.9694646069326
 51
288.0305353930674
  0
LINE
  5
18876
330
747D
100
AcDbEntity
  8
細線
 48
50.0
100
AcDbLine
 10
9719.605724486887
 20
3189.141845888795
 30
0.0
 11
9719.605724486887
 21
3193.719237576132
 31
0.0
  0
LINE
  5
18877
330
747D
100
AcDbEntity
  8
細線
 48
50.0
100
AcDbLine
 10
9708.605724486886
 20
3189.141845888795
 30
0.0
 11
9708.605724486886
 21
3193.71923757613
 31
0.0
  0
ARC
  5
18878
330
747D
100
AcDbEntity
  8
細線
 48
50.0
100
AcDbCircle
 10
9708.905724486889
 20
3193.71923757613
 30
0.0
 40
0.3
100
AcDbArc
 50
71.96946460693259
 51
180.0
  0
ARC
  5
18879
330
747D
100
AcDbEntity
  8
細線
 48
50.0
100
AcDbCircle
 10
9719.305724486886
 20
3193.719237576132
 30
0.0
 40
0.3
100
AcDbArc
 50
0.0
 51
108.0305353930674
  0
ARC
  5
1887A
330
747D
100
AcDbEntity
  8
細線
 48
50.0
100
AcDbCircle
 10
9719.305724486885
 20
3189.141845888795
 30
0.0
 40
0.3
100
AcDbArc
 50
284.1985598747622
 51
0.0000000001042204
  0
ARC
  5
1887B
330
747D
100
AcDbEntity
  8
細線
 48
50.0
100
AcDbCircle
 10
9708.905724486889
 20
3189.141845888795
 30
0.0
 40
0.3
100
AcDbArc
 50
180.0
 51
255.8014401248081
  0
CIRCLE
  5
1887C
330
747D
100
AcDbEntity
  8
細線
 48
50.0
100
AcDbCircle
 10
9714.105724486886
 20
3209.694218014602
 30
0.0
 40
12.0
  0
ARC
  5
1887D
330
747D
100
AcDbEntity
  8
部品1
 48
50.0
100
AcDbCircle
 10
9714.105724486886
 20
3259.694218014602
 30
0.0
 40
8.5
100
AcDbArc
 50
114.315739171091
 51
245.684260828909
  0
CIRCLE
  5
1887E
330
747D
100
AcDbEntity
  8
細線
 48
50.0
100
AcDbCircle
 10
9714.105724486886
 20
3259.694218014602
 30
0.0
 40
4.5
  0
LWPOLYLINE
  5
1887F
330
747D
100
AcDbEntity
  8
部品1
 48
50.0
100
AcDbPolyline
 90
        2
 70
     0
 43
0.0
 10
9710.605724486887
 20
3278.369067411585
 10
9710.605724486887
 20
3267.440184707016
  0
CIRCLE
  5
18880
330
747D
100
AcDbEntity
  8
部品1
 48
50.0
100
AcDbCircle
 10
9714.105724486886
 20
3259.694218014602
 30
0.0
 40
19.0
  0
LWPOLYLINE
  5
18881
330
747D
100
AcDbEntity
  8
部品1
 48
50.0
100
AcDbPolyline
 90
        2
 70
     0
 43
0.0
 10
9710.605724486887
 20
3251.948251322187
 10
9710.605724486887
 20
3241.01936861762
  0
LWPOLYLINE
  5
18882
330
747D
100
AcDbEntity
  8
部品1
 48
50.0
100
AcDbPolyline
 90
        2
 70
     0
 43
0.0
 10
9717.605724486887
 20
3267.440184707016
 10
9717.605724486887
 20
3278.369067411585
  0
ARC
  5
18883
330
747D
100
AcDbEntity
  8
部品1
 48
50.0
100
AcDbCircle
 10
9714.105724486886
 20
3259.694218014602
 30
0.0
 40
8.5
100
AcDbArc
 50
294.315739171091
 51
65.68426082890896
  0
LWPOLYLINE
  5
18884
330
747D
100
AcDbEntity
  8
部品1
 48
50.0
100
AcDbPolyline
 90
        2
 70
     0
 43
0.0
 10
9717.605724486887
 20
3241.01936861762
 10
9717.605724486887
 20
3251.948251322187
  0
ARC
  5
18885
330
747D
100
AcDbEntity
  8
細線
 48
50.0
100
AcDbCircle
 10
9714.105724486886
 20
3259.694218014602
 30
0.0
 40
16.5
100
AcDbArc
 50
332.0012352654438
 51
27.99876473455621
  0
ARC
  5
18886
330
747D
100
AcDbEntity
  8
細線
 48
50.0
100
AcDbCircle
 10
9714.105724486886
 20
3259.694218014602
 30
0.0
 40
14.0
100
AcDbArc
 50
326.4074436112986
 51
33.59255638870134
  0
LINE
  5
18887
330
747D
100
AcDbEntity
  8
細線
 48
50.0
100
AcDbLine
 10
9699.536922202554
 20
3267.440184707016
 30
0.0
 11
9702.443820697197
 21
3267.440184707016
 31
0.0
  0
LINE
  5
18888
330
747D
100
AcDbEntity
  8
細線
 48
50.0
100
AcDbLine
 10
9699.536922202554
 20
3251.948251322187
 30
0.0
 11
9702.443820697197
 21
3251.948251322187
 31
0.0
  0
LINE
  5
18889
330
747D
100
AcDbEntity
  8
細線
 48
50.0
100
AcDbLine
 10
9725.767628276576
 20
3267.440184707016
 30
0.0
 11
9728.674526771222
 21
3267.440184707016
 31
0.0
  0
LINE
  5
1888A
330
747D
100
AcDbEntity
  8
細線
 48
50.0
100
AcDbLine
 10
9725.767628276576
 20
3251.948251322187
 30
0.0
 11
9728.674526771222
 21
3251.948251322187
 31
0.0
  0
ARC
  5
1888B
330
747D
100
AcDbEntity
  8
細線
 48
50.0
100
AcDbCircle
 10
9714.105724486886
 20
3259.694218014602
 30
0.0
 40
14.0
100
AcDbArc
 50
146.4074436112986
 51
213.5925563887013
  0
ARC
  5
1888C
330
747D
100
AcDbEntity
  8
細線
 48
50.0
100
AcDbCircle
 10
9714.105724486886
 20
3259.694218014602
 30
0.0
 40
16.5
100
AcDbArc
 50
152.0012352654438
 51
207.9987647345562
  0
ARC
  5
1888D
330
747D
100
AcDbEntity
  8
部品1
 48
50.0
100
AcDbCircle
 10
9687.605724486886
 20
3285.194218014602
 30
0.0
 40
5.0
100
AcDbArc
 50
90.0
 51
180.0
  0
ARC
  5
1888E
330
747D
100
AcDbEntity
  8
部品1
 48
50.0
100
AcDbCircle
 10
9687.605724486886
 20
3174.194218014602
 30
0.0
 40
5.0
100
AcDbArc
 50
180.0
 51
270.0
  0
ARC
  5
1888F
330
747D
100
AcDbEntity
  8
部品1
 48
50.0
100
AcDbCircle
 10
9740.605724486886
 20
3174.194218014602
 30
0.0
 40
5.0
100
AcDbArc
 50
270.0
 51
0.0
  0
ARC
  5
18890
330
747D
100
AcDbEntity
  8
部品1
 48
50.0
100
AcDbCircle
 10
9740.605724486886
 20
3285.194218014602
 30
0.0
 40
5.0
100
AcDbArc
 50
0.0
 51
90.0
  0
LINE
  5
18892
330
747D
100
AcDbEntity
  8
部品1
 48
50.0
100
AcDbLine
 10
9682.605724486887
 20
3174.194218014602
 30
0.0
 11
9682.605724486887
 21
3285.194218014602
 31
0.0
  0
LINE
  5
18893
330
747D
100
AcDbEntity
  8
部品1
 48
50.0
100
AcDbLine
 10
9740.605724486886
 20
3169.194218014602
 30
0.0
 11
9687.605724486886
 21
3169.194218014602
 31
0.0
  0
LINE
  5
18894
330
747D
100
AcDbEntity
  8
部品1
 48
50.0
100
AcDbLine
 10
9745.605724486885
 20
3285.194218014602
 30
0.0
 11
9745.605724486885
 21
3174.194218014602
 31
0.0
  0
ENDSEC
  0
SECTION
  2
OBJECTS
  0
DICTIONARY
  5
7471
330
0
100
AcDbDictionary
281
     1
  3
ACAD_COLOR
350
16BCB
  3
ACAD_GROUP
350
7472
  3
ACAD_LAYOUT
350
16BCC
  3
ACAD_MATERIAL
350
16BCA
  3
ACAD_MLINESTYLE
350
7473
  3
ACAD_PLOTSETTINGS
350
16BCD
  3
ACAD_PLOTSTYLENAME
350
16BC8
  3
ACDBHEADERROUNDTRIPXREC
350
188A3
  3
AcDbVariableDictionary
350
1889F
  3
CONTENTDICTIONARY
350
E71C
  3
DRAWINGVARIABLESDICT
350
F3B9
  0
DICTIONARY
  5
16D58
330
7467
100
AcDbDictionary
280
     1
281
     1
  3
ACAD_LAYERSTATES
360
16D59
  0
DICTIONARY
  5
16BCB
102
{ACAD_REACTORS
330
7471
102
}
330
7471
100
AcDbDictionary
281
     1
  0
DICTIONARY
  5
7472
102
{ACAD_REACTORS
330
7471
102
}
330
7471
100
AcDbDictionary
281
     1
  0
DICTIONARY
  5
16BCC
102
{ACAD_REACTORS
330
7471
102
}
330
7471
100
AcDbDictionary
281
     1
  3
Model
350
16BCE
  3
レイアウト1
350
16BCF
  0
DICTIONARY
  5
16BCA
102
{ACAD_REACTORS
330
7471
102
}
330
7471
100
AcDbDictionary
281
     1
  0
DICTIONARY
  5
7473
102
{ACAD_REACTORS
330
7471
102
}
330
7471
100
AcDbDictionary
281
     1
  3
STANDARD
350
7480
  0
DICTIONARY
  5
16BCD
102
{ACAD_REACTORS
330
7471
102
}
330
7471
100
AcDbDictionary
281
     1
  0
ACDBDICTIONARYWDFLT
  5
16BC8
102
{ACAD_REACTORS
330
7471
102
}
330
7471
100
AcDbDictionary
281
     1
  3
Normal
350
16BC9
100
AcDbDictionaryWithDefault
340
16BC9
  0
DICTIONARY
  5
188A3
102
{ACAD_REACTORS
330
7471
102
}
330
7471
100
AcDbDictionary
281
     1
  3
COLORDICT
350
188A5
  3
MATERIALDICT
350
188A4
  0
DICTIONARY
  5
1889F
102
{ACAD_REACTORS
330
7471
102
}
330
7471
100
AcDbDictionary
281
     1
  3
DIMASSOC
350
188A0
  3
PROJECTNAME
350
188A1
  0
DICTIONARY
  5
E71C
102
{ACAD_REACTORS
330
7471
102
}
330
7471
100
AcDbDictionary
281
     1
  0
DICTIONARY
  5
F3B9
102
{ACAD_REACTORS
330
7471
102
}
330
7471
100
AcDbDictionary
281
     1
1001
DRAWINGVARIABLESXDATA
1000
POLARMODE
1000
1
  0
DICTIONARY
  5
16D59
102
{ACAD_REACTORS
330
16D58
102
}
330
16D58
100
AcDbDictionary
281
     1
  0
LAYOUT
  5
16BCE
102
{ACAD_XDICTIONARY
360
188A6
102
}
102
{ACAD_REACTORS
330
16BCC
102
}
330
16BCC
100
AcDbPlotSettings
  1

  2
Microsoft Office Document Image Writer
  4

  6

 40
0.0
 41
0.0
 42
0.0
 43
0.0
 44
0.0
 45
0.0
 46
0.0
 47
0.0
 48
0.0
 49
0.0
140
0.0
141
0.0
142
1.0
143
1.0
 70
  1712
 72
     0
 73
     0
 74
     0
  7

 75
     0
147
1.0
148
0.0
149
0.0
100
AcDbLayout
  1
Model
 70
     1
 71
     0
 10
0.0
 20
0.0
 11
12.0
 21
9.0
 12
0.0
 22
0.0
 32
0.0
 14
0.0
 24
0.0
 34
0.0
 15
0.0
 25
0.0
 35
0.0
146
0.0
 13
0.0
 23
0.0
 33
0.0
 16
1.0
 26
0.0
 36
0.0
 17
0.0
 27
1.0
 37
0.0
 76
     0
330
747D
  0
LAYOUT
  5
16BCF
102
{ACAD_XDICTIONARY
360
188A8
102
}
102
{ACAD_REACTORS
330
16BCC
102
}
330
16BCC
100
AcDbPlotSettings
  1

  2
Microsoft Office Document Image Writer
  4

  6

 40
0.0
 41
0.0
 42
0.0
 43
0.0
 44
0.0
 45
0.0
 46
0.0
 47
0.0
 48
0.0
 49
0.0
140
0.0
141
0.0
142
1.0
143
1.0
 70
   688
 72
     0
 73
     0
 74
     5
  7

 75
    16
147
1.0
148
0.0
149
0.0
100
AcDbLayout
  1
レイアウト1
 70
     0
 71
     1
 10
0.0
 20
0.0
 11
420.0
 21
297.0
 12
0.0
 22
0.0
 32
0.0
 14
1.000000000000000E+20
 24
1.000000000000000E+20
 34
1.000000000000000E+20
 15
-1.000000000000000E+20
 25
-1.000000000000000E+20
 35
-1.000000000000000E+20
146
0.0
 13
0.0
 23
0.0
 33
0.0
 16
1.0
 26
0.0
 36
0.0
 17
0.0
 27
1.0
 37
0.0
 76
     0
330
747A
  0
MLINESTYLE
  5
7480
102
{ACAD_REACTORS
330
7473
102
}
330
7473
100
AcDbMlineStyle
  2
STANDARD
 70
     0
  3

 62
     0
 51
90.0
 52
90.0
 71
     2
 49
0.5
 62
   256
  6
BYLAYER
 49
-0.5
 62
   256
  6
BYLAYER
  0
ACDBPLACEHOLDER
  5
16BC9
102
{ACAD_REACTORS
330
16BC8
102
}
330
16BC8
  0
XRECORD
  5
188A5
102
{ACAD_REACTORS
330
188A3
102
}
330
188A3
100
AcDbXrecord
280
     1
340
16BCB
  0
XRECORD
  5
188A4
102
{ACAD_REACTORS
330
188A3
102
}
330
188A3
100
AcDbXrecord
280
     1
340
16BCA
  0
DICTIONARYVAR
  5
188A0
102
{ACAD_REACTORS
330
1889F
102
}
330
1889F
100
DictionaryVariables
280
     0
  1
1
  0
DICTIONARYVAR
  5
188A1
102
{ACAD_REACTORS
330
1889F
102
}
330
1889F
100
DictionaryVariables
280
     0
  1

  0
DICTIONARY
  5
188A6
330
16BCE
100
AcDbDictionary
280
     1
281
     1
  3
ACAD_XREC_ROUNDTRIP
360
188A7
  0
DICTIONARY
  5
188A8
330
16BCF
100
AcDbDictionary
280
     1
281
     1
  3
ACAD_XREC_ROUNDTRIP
360
188A9
  0
XRECORD
  5
188A7
102
{ACAD_REACTORS
330
188A6
102
}
330
188A6
100
AcDbXrecord
280
     1
102
SHADEPLOT
 70
     0
102
SHADEPLOTRESLEVEL
 70
     2
102
SHADEPLOTCUSTOMDPI
 70
   300
  0
XRECORD
  5
188A9
102
{ACAD_REACTORS
330
188A8
102
}
330
188A8
100
AcDbXrecord
280
     1
102
SHADEPLOT
 70
     0
102
SHADEPLOTRESLEVEL
 70
     2
102
SHADEPLOTCUSTOMDPI
 70
   300
  0
ENDSEC
  0
EOF
