  0
SECTION
  2
HEADER
  9
$ACADVER
  1
AC1015
  9
$ACADMAINTVER
 70
    20
  9
$DWGCODEPAGE
  3
ANSI_932
  9
$INSBASE
 10
0.0
 20
0.0
 30
0.0
  9
$EXTMIN
 10
139.9999999999995
 20
-0.0000000000000909
 30
0.0
  9
$EXTMAX
 10
16307.2
 20
11409.6
 30
0.0
  9
$LIMMIN
 10
0.0
 20
0.0
  9
$LIMMAX
 10
16800.0
 20
11880.0
  9
$ORTHOMODE
 70
     0
  9
$REGENMODE
 70
     1
  9
$FILLMODE
 70
     1
  9
$QTEXTMODE
 70
     0
  9
$MIRRTEXT
 70
     1
  9
$LTSCALE
 40
20.0
  9
$ATTMODE
 70
     1
  9
$TEXTSIZE
 40
100.0
  9
$TRACEWID
 40
1.0
  9
$TEXTSTYLE
  7
STYLE2
  9
$CLAYER
  8
部品1
  9
$CELTYPE
  6
BYLAYER
  9
$CECOLOR
 62
   256
  9
$CELTSCALE
 40
50.0
  9
$DISPSILH
 70
     0
  9
$DIMSCALE
 40
40.0
  9
$DIMASZ
 40
2.5
  9
$DIMEXO
 40
0.5
  9
$DIMDLI
 40
7.0
  9
$DIMRND
 40
0.0
  9
$DIMDLE
 40
0.0
  9
$DIMEXE
 40
1.5
  9
$DIMTP
 40
0.0
  9
$DIMTM
 40
0.0
  9
$DIMTXT
 40
3.0
  9
$DIMCEN
 40
0.0
  9
$DIMTSZ
 40
0.0
  9
$DIMTOL
 70
     0
  9
$DIMLIM
 70
     0
  9
$DIMTIH
 70
     0
  9
$DIMTOH
 70
     0
  9
$DIMSE1
 70
     0
  9
$DIMSE2
 70
     0
  9
$DIMTAD
 70
     3
  9
$DIMZIN
 70
     8
  9
$DIMBLK
  1

  9
$DIMASO
 70
     1
  9
$DIMSHO
 70
     1
  9
$DIMPOST
  1

  9
$DIMAPOST
  1

  9
$DIMALT
 70
     0
  9
$DIMALTD
 70
     2
  9
$DIMALTF
 40
0.0394
  9
$DIMLFAC
 40
1.0
  9
$DIMTOFL
 70
     1
  9
$DIMTVP
 40
0.0
  9
$DIMTIX
 70
     0
  9
$DIMSOXD
 70
     0
  9
$DIMSAH
 70
     1
  9
$DIMBLK1
  1
DOTSMALL
  9
$DIMBLK2
  1
DOTSMALL
  9
$DIMSTYLE
  2
INABA_S40G
  9
$DIMCLRD
 70
     0
  9
$DIMCLRE
 70
     0
  9
$DIMCLRT
 70
     7
  9
$DIMTFAC
 40
1.0
  9
$DIMGAP
 40
1.0
  9
$DIMJUST
 70
     0
  9
$DIMSD1
 70
     0
  9
$DIMSD2
 70
     0
  9
$DIMTOLJ
 70
     1
  9
$DIMTZIN
 70
     0
  9
$DIMALTZ
 70
     0
  9
$DIMALTTZ
 70
     0
  9
$DIMUPT
 70
     0
  9
$DIMDEC
 70
     1
  9
$DIMTDEC
 70
     1
  9
$DIMALTU
 70
     2
  9
$DIMALTTD
 70
     2
  9
$DIMTXSTY
  7
STYLE1
  9
$DIMAUNIT
 70
     0
  9
$DIMADEC
 70
     0
  9
$DIMALTRND
 40
0.0
  9
$DIMAZIN
 70
     0
  9
$DIMDSEP
 70
    46
  9
$DIMATFIT
 70
     3
  9
$DIMFRAC
 70
     0
  9
$DIMLDRBLK
  1

  9
$DIMLUNIT
 70
     2
  9
$DIMLWD
 70
    -2
  9
$DIMLWE
 70
    -2
  9
$DIMTMOVE
 70
     0
  9
$LUNITS
 70
     2
  9
$LUPREC
 70
     1
  9
$SKETCHINC
 40
1.0
  9
$FILLETRAD
 40
7.0
  9
$AUNITS
 70
     0
  9
$AUPREC
 70
     0
  9
$MENU
  1
acad
  9
$ELEVATION
 40
0.0
  9
$PELEVATION
 40
0.0
  9
$THICKNESS
 40
0.0
  9
$LIMCHECK
 70
     0
  9
$CHAMFERA
 40
3.0
  9
$CHAMFERB
 40
3.0
  9
$CHAMFERC
 40
0.0
  9
$CHAMFERD
 40
0.0
  9
$SKPOLY
 70
     0
  9
$TDCREATE
 40
2451368.612993866
  9
$TDUCREATE
 40
2451368.237993866
  9
$TDUPDATE
 40
2455575.696579317
  9
$TDUUPDATE
 40
2455575.321579317
  9
$TDINDWG
 40
1.3319761111
  9
$TDUSRTIMER
 40
1.3319761111
  9
$USRTIMER
 70
     1
  9
$ANGBASE
 50
0.0
  9
$ANGDIR
 70
     0
  9
$PDMODE
 70
     3
  9
$PDSIZE
 40
2.0
  9
$PLINEWID
 40
0.0
  9
$SPLFRAME
 70
     0
  9
$SPLINETYPE
 70
     6
  9
$SPLINESEGS
 70
     8
  9
$HANDSEED
  5
230BB
  9
$SURFTAB1
 70
     6
  9
$SURFTAB2
 70
     6
  9
$SURFTYPE
 70
     6
  9
$SURFU
 70
     6
  9
$SURFV
 70
     6
  9
$UCSBASE
  2

  9
$UCSNAME
  2

  9
$UCSORG
 10
0.0
 20
0.0
 30
0.0
  9
$UCSXDIR
 10
1.0
 20
0.0
 30
0.0
  9
$UCSYDIR
 10
0.0
 20
1.0
 30
0.0
  9
$UCSORTHOREF
  2

  9
$UCSORTHOVIEW
 70
     0
  9
$UCSORGTOP
 10
0.0
 20
0.0
 30
0.0
  9
$UCSORGBOTTOM
 10
0.0
 20
0.0
 30
0.0
  9
$UCSORGLEFT
 10
0.0
 20
0.0
 30
0.0
  9
$UCSORGRIGHT
 10
0.0
 20
0.0
 30
0.0
  9
$UCSORGFRONT
 10
0.0
 20
0.0
 30
0.0
  9
$UCSORGBACK
 10
0.0
 20
0.0
 30
0.0
  9
$PUCSBASE
  2

  9
$PUCSNAME
  2

  9
$PUCSORG
 10
0.0
 20
0.0
 30
0.0
  9
$PUCSXDIR
 10
1.0
 20
0.0
 30
0.0
  9
$PUCSYDIR
 10
0.0
 20
1.0
 30
0.0
  9
$PUCSORTHOREF
  2

  9
$PUCSORTHOVIEW
 70
     0
  9
$PUCSORGTOP
 10
0.0
 20
0.0
 30
0.0
  9
$PUCSORGBOTTOM
 10
0.0
 20
0.0
 30
0.0
  9
$PUCSORGLEFT
 10
0.0
 20
0.0
 30
0.0
  9
$PUCSORGRIGHT
 10
0.0
 20
0.0
 30
0.0
  9
$PUCSORGFRONT
 10
0.0
 20
0.0
 30
0.0
  9
$PUCSORGBACK
 10
0.0
 20
0.0
 30
0.0
  9
$USERI1
 70
     0
  9
$USERI2
 70
     0
  9
$USERI3
 70
     0
  9
$USERI4
 70
     0
  9
$USERI5
 70
     0
  9
$USERR1
 40
0.0
  9
$USERR2
 40
0.0
  9
$USERR3
 40
0.0
  9
$USERR4
 40
0.0
  9
$USERR5
 40
0.0
  9
$WORLDVIEW
 70
     1
  9
$SHADEDGE
 70
     3
  9
$SHADEDIF
 70
    70
  9
$TILEMODE
 70
     1
  9
$MAXACTVP
 70
    16
  9
$PINSBASE
 10
0.0
 20
0.0
 30
0.0
  9
$PLIMCHECK
 70
     0
  9
$PEXTMIN
 10
1.000000000000000E+20
 20
1.000000000000000E+20
 30
1.000000000000000E+20
  9
$PEXTMAX
 10
-1.000000000000000E+20
 20
-1.000000000000000E+20
 30
-1.000000000000000E+20
  9
$PLIMMIN
 10
0.0
 20
0.0
  9
$PLIMMAX
 10
420.0
 20
297.0
  9
$UNITMODE
 70
     0
  9
$VISRETAIN
 70
     0
  9
$PLINEGEN
 70
     0
  9
$PSLTSCALE
 70
     0
  9
$TREEDEPTH
 70
  3020
  9
$CMLSTYLE
  2
STANDARD
  9
$CMLJUST
 70
     0
  9
$CMLSCALE
 40
1.0
  9
$PROXYGRAPHICS
 70
     1
  9
$MEASUREMENT
 70
     1
  9
$CELWEIGHT
370
    -1
  9
$ENDCAPS
280
     0
  9
$JOINSTYLE
280
     0
  9
$LWDISPLAY
290
     0
  9
$INSUNITS
 70
     0
  9
$HYPERLINKBASE
  1

  9
$STYLESHEET
  1
inaba.ctb
  9
$XEDIT
290
     1
  9
$CEPSNTYPE
380
     0
  9
$PSTYLEMODE
290
     1
  9
$FINGERPRINTGUID
  2
{3B57B35E-7D77-4BBF-81B7-6C583B9EB24C}
  9
$VERSIONGUID
  2
{30334A7C-152C-4E22-8D74-BA329E3D3182}
  9
$EXTNAMES
290
     1
  9
$PSVPSCALE
 40
0.0
  9
$OLESTARTUP
290
     0
  0
ENDSEC
  0
SECTION
  2
CLASSES
  0
CLASS
  1
ACDBDICTIONARYWDFLT
  2
AcDbDictionaryWithDefault
  3
ObjectDBX Classes
 90
        0
280
     0
281
     0
  0
CLASS
  1
DICTIONARYVAR
  2
AcDbDictionaryVar
  3
ObjectDBX Classes
 90
        0
280
     0
281
     0
  0
CLASS
  1
ACDBPLACEHOLDER
  2
AcDbPlaceHolder
  3
ObjectDBX Classes
 90
        0
280
     0
281
     0
  0
CLASS
  1
LAYOUT
  2
AcDbLayout
  3
ObjectDBX Classes
 90
        0
280
     0
281
     0
  0
ENDSEC
  0
SECTION
  2
TABLES
  0
TABLE
  2
VPORT
  5
746D
330
0
100
AcDbSymbolTable
 70
     2
  0
VPORT
  5
230B3
330
746D
100
AcDbSymbolTableRecord
100
AcDbViewportTableRecord
  2
*Active
 70
     0
 10
0.0
 20
0.0
 11
1.0
 21
1.0
 12
8223.761025238502
 22
6348.534373990247
 13
0.0
 23
0.0
 14
10.0
 24
10.0
 15
10.0
 25
10.0
 16
0.0
 26
0.0
 36
1.0
 17
0.0
 27
0.0
 37
0.0
 40
12805.99765711426
 41
1.525925925925925
 42
50.0
 43
0.0
 44
0.0
 50
0.0
 51
0.0
 71
     0
 72
     0
 73
     1
 74
     0
 75
     0
 76
     0
 77
     0
 78
     0
281
     0
 65
     1
110
0.0
120
0.0
130
0.0
111
1.0
121
0.0
131
0.0
112
0.0
122
1.0
132
0.0
 79
     0
146
0.0
  0
ENDTAB
  0
TABLE
  2
LTYPE
  5
746A
330
0
100
AcDbSymbolTable
 70
     3
  0
LTYPE
  5
7477
330
746A
100
AcDbSymbolTableRecord
100
AcDbLinetypeTableRecord
  2
BYBLOCK
 70
     0
  3

 72
    65
 73
     0
 40
0.0
  0
LTYPE
  5
7478
330
746A
100
AcDbSymbolTableRecord
100
AcDbLinetypeTableRecord
  2
BYLAYER
 70
     0
  3

 72
    65
 73
     0
 40
0.0
  0
LTYPE
  5
7479
330
746A
100
AcDbSymbolTableRecord
100
AcDbLinetypeTableRecord
  2
CONTINUOUS
 70
     0
  3
Solid line
 72
    65
 73
     0
 40
0.0
  0
LTYPE
  5
781A
330
746A
100
AcDbSymbolTableRecord
100
AcDbLinetypeTableRecord
  2
HIDDEN
 70
     0
  3
__ __ __ __ __ __ __ __ __ __ __ __ __ __ __ __
 72
    65
 73
     2
 40
0.375
 49
0.25
 74
     0
 49
-0.125
 74
     0
  0
LTYPE
  5
781B
330
746A
100
AcDbSymbolTableRecord
100
AcDbLinetypeTableRecord
  2
PHANTOM
 70
     0
  3
______  __  __  ______  __  __  ______  __  __ 
 72
    65
 73
     6
 40
2.5
 49
1.25
 74
     0
 49
-0.25
 74
     0
 49
0.25
 74
     0
 49
-0.25
 74
     0
 49
0.25
 74
     0
 49
-0.25
 74
     0
  0
ENDTAB
  0
TABLE
  2
LAYER
  5
7467
102
{ACAD_XDICTIONARY
360
1D35E
102
}
330
0
100
AcDbSymbolTable
 70
    10
  0
LAYER
  5
7474
330
7467
100
AcDbSymbolTableRecord
100
AcDbLayerTableRecord
  2
0
 70
     0
 62
     7
  6
CONTINUOUS
370
    -3
390
159AE
  0
LAYER
  5
DEB3
330
7467
100
AcDbSymbolTableRecord
100
AcDbLayerTableRecord
  2
寸法
 70
     0
 62
     4
  6
CONTINUOUS
370
    -3
390
159AE
  0
LAYER
  5
DEB4
330
7467
100
AcDbSymbolTableRecord
100
AcDbLayerTableRecord
  2
部品1
 70
     0
 62
     7
  6
CONTINUOUS
370
    -3
390
159AE
  0
LAYER
  5
DEB5
330
7467
100
AcDbSymbolTableRecord
100
AcDbLayerTableRecord
  2
補助
 70
     0
 62
    -1
  6
CONTINUOUS
370
    -3
390
159AE
  0
LAYER
  5
DEB6
330
7467
100
AcDbSymbolTableRecord
100
AcDbLayerTableRecord
  2
文字
 70
     0
 62
     7
  6
CONTINUOUS
370
    -3
390
159AE
  0
LAYER
  5
F255
330
7467
100
AcDbSymbolTableRecord
100
AcDbLayerTableRecord
  2
DEFPOINTS
 70
     0
 62
     7
  6
CONTINUOUS
290
     0
370
    -3
390
159AE
  0
LAYER
  5
10B54
330
7467
100
AcDbSymbolTableRecord
100
AcDbLayerTableRecord
  2
仕様書枠
 70
     0
 62
   230
  6
CONTINUOUS
370
    -3
390
159AE
  0
LAYER
  5
11729
330
7467
100
AcDbSymbolTableRecord
100
AcDbLayerTableRecord
  2
Ｇ．Ｌ
 70
     0
 62
    30
  6
CONTINUOUS
370
    -3
390
159AE
  0
LAYER
  5
1173F
330
7467
100
AcDbSymbolTableRecord
100
AcDbLayerTableRecord
  2
細線
 70
     0
 62
     5
  6
CONTINUOUS
370
    -3
390
159AE
  0
LAYER
  5
142E2
330
7467
100
AcDbSymbolTableRecord
100
AcDbLayerTableRecord
  2
破線
 70
     0
 62
     2
  6
HIDDEN
370
    -3
390
159AE
  0
ENDTAB
  0
TABLE
  2
STYLE
  5
7468
330
0
100
AcDbSymbolTable
 70
     4
  0
STYLE
  5
7475
330
7468
100
AcDbSymbolTableRecord
100
AcDbTextStyleTableRecord
  2
STANDARD
 70
     0
 40
0.0
 41
1.0
 50
0.0
 71
     0
 42
4.0
  3
txt
  4
C:\AutoCAD LT\bigfont.shx
  0
STYLE
  5
F706
330
7468
100
AcDbSymbolTableRecord
100
AcDbTextStyleTableRecord
  2
STYLE1
 70
     0
 40
0.0
 41
1.0
 50
0.0
 71
     0
 42
100.0
  3
isocp.shx
  4
bigfont.shx
  0
STYLE
  5
103BF
330
7468
100
AcDbSymbolTableRecord
100
AcDbTextStyleTableRecord
  2
STYLE2
 70
     0
 40
0.0
 41
1.0
 50
0.0
 71
     0
 42
100.0
  3
MS PGothic.ttf
  4

1001
ACAD
1000
MS PGothic
1071
    32818
  0
STYLE
  5
2304A
330
7468
100
AcDbSymbolTableRecord
100
AcDbTextStyleTableRecord
  2
STYLE3
 70
     0
 40
0.0
 41
1.0
 50
0.0
 71
     0
 42
100.0
  3

  4

1001
ACAD
1000
DFPGothic-EB
1071
    32818
  0
ENDTAB
  0
TABLE
  2
VIEW
  5
746B
330
0
100
AcDbSymbolTable
 70
     0
  0
ENDTAB
  0
TABLE
  2
UCS
  5
746C
330
0
100
AcDbSymbolTable
 70
     0
  0
ENDTAB
  0
TABLE
  2
APPID
  5
746E
330
0
100
AcDbSymbolTable
 70
     6
  0
APPID
  5
7476
330
746E
100
AcDbSymbolTableRecord
100
AcDbRegAppTableRecord
  2
ACAD
 70
     0
  0
APPID
  5
DEA9
330
746E
100
AcDbSymbolTableRecord
100
AcDbRegAppTableRecord
  2
CONTENTBLOCKICON
 70
     0
  0
APPID
  5
DEAA
330
746E
100
AcDbSymbolTableRecord
100
AcDbRegAppTableRecord
  2
CONTENTBLOCKDESCRIPTION
 70
     0
  0
APPID
  5
E71D
330
746E
100
AcDbSymbolTableRecord
100
AcDbRegAppTableRecord
  2
CONTENTTABDATA
 70
     0
  0
APPID
  5
E71E
330
746E
100
AcDbSymbolTableRecord
100
AcDbRegAppTableRecord
  2
CONTENTCURRENTTAB
 70
     0
  0
APPID
  5
F3BA
330
746E
100
AcDbSymbolTableRecord
100
AcDbRegAppTableRecord
  2
DRAWINGVARIABLESXDATA
 70
     0
  0
ENDTAB
  0
TABLE
  2
DIMSTYLE
  5
746F
330
0
100
AcDbSymbolTable
 70
     2
100
AcDbDimStyleTable
 71
     1
340
F71F
  0
DIMSTYLE
105
F71F
102
{ACAD_REACTORS
330
141C3
330
14206
330
146E8
330
13BF0
330
14521
330
14526
330
1452E
330
14530
330
14531
330
14532
330
14533
330
14587
330
14589
330
1D99A
330
2007C
330
20BB2
330
20BB6
330
20BBF
330
20C4D
330
20CA8
330
20CA9
330
20CAA
330
20CAE
330
20CB2
330
20CB3
330
20CB4
330
20CB5
330
20CB6
330
20F75
330
20F8D
102
}
330
746F
100
AcDbSymbolTableRecord
100
AcDbDimStyleTableRecord
  2
INABA_S40G
 70
     0
 40
40.0
 41
2.5
 42
0.5
 43
7.0
 44
1.5
 73
     0
 74
     0
 77
     3
 78
     8
140
3.0
141
0.0
143
0.0394
147
1.0
172
     1
173
     1
174
     1
178
     7
271
     1
288
     1
340
F706
341
F770
343
F770
344
F770
  0
DIMSTYLE
105
2304B
330
746F
100
AcDbSymbolTableRecord
100
AcDbDimStyleTableRecord
  2
INABA_S20G
 70
     0
 40
20.0
 41
2.5
 42
0.5
 43
7.0
 44
1.5
 73
     0
 74
     0
 77
     3
 78
     8
140
3.0
141
0.0
143
0.0394
147
1.0
172
     1
173
     1
174
     1
178
     7
271
     1
340
F706
341
F770
343
F770
344
F770
  0
ENDTAB
  0
TABLE
  2
BLOCK_RECORD
  5
7466
330
0
100
AcDbSymbolTable
 70
    31
  0
BLOCK_RECORD
  5
747D
330
7466
100
AcDbSymbolTableRecord
100
AcDbBlockTableRecord
  2
*MODEL_SPACE
340
159B3
  0
BLOCK_RECORD
  5
747A
330
7466
100
AcDbSymbolTableRecord
100
AcDbBlockTableRecord
  2
*PAPER_SPACE
340
159B4
  0
BLOCK_RECORD
  5
F770
330
7466
100
AcDbSymbolTableRecord
100
AcDbBlockTableRecord
  2
_DOTSMALL
340
0
102
{BLKREFS
331
229EA
331
229EB
331
229F3
331
229F4
331
229FC
331
229FD
331
22A06
331
22A07
331
22A11
331
22A12
331
22A1A
331
22A1B
331
22A23
331
22A24
331
22A2E
331
22A2F
331
22A37
331
22A38
331
22A41
331
22A42
331
22A4B
331
22A4C
331
22A54
331
22A55
331
22A5D
331
22A5E
331
22A66
331
22A67
331
22A6F
331
22A70
331
22A7A
331
22A7B
331
22A85
331
22A86
331
22A8E
331
22A8F
331
22A97
331
22A98
331
22AA0
331
22AA1
331
22AA9
331
22AAA
331
22AB2
331
22AB3
331
22ABD
331
22ABE
331
22AC6
331
22AC7
331
22ACF
331
22AD0
331
22AE3
331
22AE4
331
22AEE
331
22AEF
331
22AF7
331
22AF8
331
22B02
331
22B03
331
22B23
331
22B24
102
}
  0
BLOCK_RECORD
  5
13DA8
330
7466
100
AcDbSymbolTableRecord
100
AcDbBlockTableRecord
  2
*D1
340
0
  0
BLOCK_RECORD
  5
141B5
330
7466
100
AcDbSymbolTableRecord
100
AcDbBlockTableRecord
  2
*D2
340
0
  0
BLOCK_RECORD
  5
141F9
330
7466
100
AcDbSymbolTableRecord
100
AcDbBlockTableRecord
  2
*D3
340
0
  0
BLOCK_RECORD
  5
1458A
330
7466
100
AcDbSymbolTableRecord
100
AcDbBlockTableRecord
  2
*D4
340
0
  0
BLOCK_RECORD
  5
14598
330
7466
100
AcDbSymbolTableRecord
100
AcDbBlockTableRecord
  2
*D5
340
0
  0
BLOCK_RECORD
  5
145A4
330
7466
100
AcDbSymbolTableRecord
100
AcDbBlockTableRecord
  2
*D6
340
0
  0
BLOCK_RECORD
  5
145BE
330
7466
100
AcDbSymbolTableRecord
100
AcDbBlockTableRecord
  2
*D7
340
0
  0
BLOCK_RECORD
  5
145CC
330
7466
100
AcDbSymbolTableRecord
100
AcDbBlockTableRecord
  2
*D8
340
0
  0
BLOCK_RECORD
  5
145D8
330
7466
100
AcDbSymbolTableRecord
100
AcDbBlockTableRecord
  2
*D9
340
0
  0
BLOCK_RECORD
  5
145E4
330
7466
100
AcDbSymbolTableRecord
100
AcDbBlockTableRecord
  2
*D10
340
0
  0
BLOCK_RECORD
  5
14608
330
7466
100
AcDbSymbolTableRecord
100
AcDbBlockTableRecord
  2
*D11
340
0
  0
BLOCK_RECORD
  5
14616
330
7466
100
AcDbSymbolTableRecord
100
AcDbBlockTableRecord
  2
*D12
340
0
  0
BLOCK_RECORD
  5
146DC
330
7466
100
AcDbSymbolTableRecord
100
AcDbBlockTableRecord
  2
*D13
340
0
  0
BLOCK_RECORD
  5
1D9A1
330
7466
100
AcDbSymbolTableRecord
100
AcDbBlockTableRecord
  2
*D14
340
0
  0
BLOCK_RECORD
  5
20083
330
7466
100
AcDbSymbolTableRecord
100
AcDbBlockTableRecord
  2
*D15
340
0
  0
BLOCK_RECORD
  5
20CBD
330
7466
100
AcDbSymbolTableRecord
100
AcDbBlockTableRecord
  2
*D16
340
0
  0
BLOCK_RECORD
  5
20CC9
330
7466
100
AcDbSymbolTableRecord
100
AcDbBlockTableRecord
  2
*D17
340
0
  0
BLOCK_RECORD
  5
20CE1
330
7466
100
AcDbSymbolTableRecord
100
AcDbBlockTableRecord
  2
*D18
340
0
  0
BLOCK_RECORD
  5
20CEE
330
7466
100
AcDbSymbolTableRecord
100
AcDbBlockTableRecord
  2
*D19
340
0
  0
BLOCK_RECORD
  5
20D2F
330
7466
100
AcDbSymbolTableRecord
100
AcDbBlockTableRecord
  2
*D20
340
0
  0
BLOCK_RECORD
  5
20D3B
330
7466
100
AcDbSymbolTableRecord
100
AcDbBlockTableRecord
  2
*D21
340
0
  0
BLOCK_RECORD
  5
20D49
330
7466
100
AcDbSymbolTableRecord
100
AcDbBlockTableRecord
  2
*D22
340
0
  0
BLOCK_RECORD
  5
20D55
330
7466
100
AcDbSymbolTableRecord
100
AcDbBlockTableRecord
  2
*D23
340
0
  0
BLOCK_RECORD
  5
20D61
330
7466
100
AcDbSymbolTableRecord
100
AcDbBlockTableRecord
  2
*D24
340
0
  0
BLOCK_RECORD
  5
20D6F
330
7466
100
AcDbSymbolTableRecord
100
AcDbBlockTableRecord
  2
*D25
340
0
  0
BLOCK_RECORD
  5
20D7C
330
7466
100
AcDbSymbolTableRecord
100
AcDbBlockTableRecord
  2
*D26
340
0
  0
BLOCK_RECORD
  5
20D88
330
7466
100
AcDbSymbolTableRecord
100
AcDbBlockTableRecord
  2
*D27
340
0
  0
BLOCK_RECORD
  5
20D94
330
7466
100
AcDbSymbolTableRecord
100
AcDbBlockTableRecord
  2
*D28
340
0
  0
BLOCK_RECORD
  5
20F78
330
7466
100
AcDbSymbolTableRecord
100
AcDbBlockTableRecord
  2
*D29
340
0
  0
BLOCK_RECORD
  5
20F93
330
7466
100
AcDbSymbolTableRecord
100
AcDbBlockTableRecord
  2
*D30
340
0
  0
ENDTAB
  0
ENDSEC
  0
SECTION
  2
BLOCKS
  0
BLOCK
  5
7489
330
747D
100
AcDbEntity
  8
0
100
AcDbBlockBegin
  2
*MODEL_SPACE
 70
     0
 10
0.0
 20
0.0
 30
0.0
  3
*MODEL_SPACE
  1

  0
ENDBLK
  5
748A
330
747D
100
AcDbEntity
  8
0
100
AcDbBlockEnd
  0
BLOCK
  5
7487
330
747A
100
AcDbEntity
 67
     1
  8
0
100
AcDbBlockBegin
  2
*PAPER_SPACE
 70
     0
 10
0.0
 20
0.0
 30
0.0
  3
*PAPER_SPACE
  1

  0
ENDBLK
  5
7488
330
747A
100
AcDbEntity
 67
     1
  8
0
100
AcDbBlockEnd
  0
BLOCK
  5
F771
330
F770
100
AcDbEntity
  8
0
 48
50.0
100
AcDbBlockBegin
  2
_DOTSMALL
 70
     0
 10
0.0
 20
0.0
 30
0.0
  3
_DOTSMALL
  1

  0
LWPOLYLINE
  5
F772
330
F770
100
AcDbEntity
  8
0
  6
ByBlock
 62
     0
 48
50.0
100
AcDbPolyline
 90
        2
 70
     1
 43
0.5
 10
-0.0625
 20
0.0
 42
1.0
 10
0.0625
 20
0.0
 42
1.0
  0
ENDBLK
  5
F776
330
F770
100
AcDbEntity
  8
0
 48
50.0
100
AcDbBlockEnd
  0
BLOCK
  5
14A98
330
13DA8
100
AcDbEntity
  8
0
 48
50.0
100
AcDbBlockBegin
  2
*D1
 70
     1
 10
0.0
 20
0.0
 30
0.0
  3
*D1
  1

  0
LINE
  5
22A8B
330
13DA8
100
AcDbEntity
  8
寸法
 62
     0
 48
50.0
370
    -2
100
AcDbLine
 10
5417.393321639176
 20
4743.682158604662
 30
0.0
 11
5417.393321639176
 21
5189.317351550656
 31
0.0
  0
LINE
  5
22A8C
330
13DA8
100
AcDbEntity
  8
寸法
 62
     0
 48
50.0
370
    -2
100
AcDbLine
 10
6887.393321639175
 20
4743.682158604659
 30
0.0
 11
6887.393321639175
 21
5189.317351550656
 31
0.0
  0
LINE
  5
22A8D
330
13DA8
100
AcDbEntity
  8
寸法
 62
     0
 48
50.0
370
    -2
100
AcDbLine
 10
5417.393321639176
 20
5129.317351550657
 30
0.0
 11
6887.393321639175
 21
5129.317351550657
 31
0.0
  0
INSERT
  5
22A8E
330
13DA8
100
AcDbEntity
  8
寸法
 62
     0
 48
50.0
370
    -2
100
AcDbBlockReference
  2
_DOTSMALL
 10
5417.393321639176
 20
5129.317351550657
 30
0.0
 41
100.0
 42
100.0
 43
100.0
 50
180.0
  0
INSERT
  5
22A8F
330
13DA8
100
AcDbEntity
  8
寸法
 62
     0
 48
50.0
370
    -2
100
AcDbBlockReference
  2
_DOTSMALL
 10
6887.393321639175
 20
5129.317351550657
 30
0.0
 41
100.0
 42
100.0
 43
100.0
  0
MTEXT
  5
22A90
330
13DA8
100
AcDbEntity
  8
寸法
 62
     7
 48
50.0
100
AcDbMText
 10
6125.466334290715
 20
5229.317351550657
 30
0.0
 40
120.0
 41
0.0
 71
     5
 72
     1
  1
\A1;1470
  7
STYLE1
 73
     1
 44
1.0
1001
ACAD
1000
MTEXTBEGIN
1070
    73
1070
     1
1070
    44
1040
1.0
1070
    74
1070
     0
1000
MTEXTEND
  0
POINT
  5
22A91
330
13DA8
100
AcDbEntity
  8
DEFPOINTS
 62
     0
 48
50.0
100
AcDbPoint
 10
5417.393321639176
 20
4723.682158604662
 30
0.0
  0
POINT
  5
22A92
330
13DA8
100
AcDbEntity
  8
DEFPOINTS
 62
     0
 48
50.0
100
AcDbPoint
 10
6887.393321639175
 20
4723.68215860466
 30
0.0
  0
POINT
  5
22A93
330
13DA8
100
AcDbEntity
  8
DEFPOINTS
 62
     0
 48
50.0
100
AcDbPoint
 10
6887.393321639175
 20
5129.317351550657
 30
0.0
  0
ENDBLK
  5
14AA2
330
13DA8
100
AcDbEntity
  8
0
 48
50.0
100
AcDbBlockEnd
  0
BLOCK
  5
14A8A
330
141B5
100
AcDbEntity
  8
0
 48
50.0
100
AcDbBlockBegin
  2
*D2
 70
     1
 10
0.0
 20
0.0
 30
0.0
  3
*D2
  1

  0
LINE
  5
22A80
330
141B5
100
AcDbEntity
  8
寸法
 62
     0
 48
50.0
370
    -2
100
AcDbLine
 10
6887.393321639175
 20
4743.682158604659
 30
0.0
 11
6887.393321639175
 21
4989.408430336567
 31
0.0
  0
LINE
  5
22A81
330
141B5
100
AcDbEntity
  8
寸法
 62
     0
 48
50.0
370
    -2
100
AcDbLine
 10
6837.393321639175
 20
4743.682158604662
 30
0.0
 11
6837.393321639175
 21
4989.408430336567
 31
0.0
  0
LINE
  5
22A82
330
141B5
100
AcDbEntity
  8
寸法
 62
     0
 48
50.0
370
    -2
100
AcDbLine
 10
6837.393321639175
 20
4929.408430336567
 30
0.0
 11
6737.393321639174
 21
4929.408430336567
 31
0.0
  0
LINE
  5
22A83
330
141B5
100
AcDbEntity
  8
寸法
 62
     0
 48
50.0
370
    -2
100
AcDbLine
 10
6887.393321639175
 20
4929.408430336567
 30
0.0
 11
7306.925847107901
 21
4929.408430336567
 31
0.0
  0
LINE
  5
22A84
330
141B5
100
AcDbEntity
  8
寸法
 62
     0
 48
50.0
370
    -2
100
AcDbLine
 10
6837.393321639175
 20
4929.408430336567
 30
0.0
 11
6887.393321639175
 21
4929.408430336567
 31
0.0
  0
INSERT
  5
22A85
330
141B5
100
AcDbEntity
  8
寸法
 62
     0
 48
50.0
370
    -2
100
AcDbBlockReference
  2
_DOTSMALL
 10
6837.393321639175
 20
4929.408430336567
 30
0.0
 41
100.0
 42
100.0
 43
100.0
  0
INSERT
  5
22A86
330
141B5
100
AcDbEntity
  8
寸法
 62
     0
 48
50.0
370
    -2
100
AcDbBlockReference
  2
_DOTSMALL
 10
6887.393321639175
 20
4929.408430336567
 30
0.0
 41
100.0
 42
100.0
 43
100.0
 50
180.0
  0
MTEXT
  5
22A87
330
141B5
100
AcDbEntity
  8
寸法
 62
     7
 48
50.0
100
AcDbMText
 10
7200.878603013413
 20
5029.408430336567
 30
0.0
 40
120.0
 41
0.0
 71
     5
 72
     1
  1
\A1;50
  7
STYLE1
 73
     1
 44
1.0
1001
ACAD
1000
MTEXTBEGIN
1070
    73
1070
     1
1070
    44
1040
1.0
1070
    74
1070
     0
1000
MTEXTEND
  0
POINT
  5
22A88
330
141B5
100
AcDbEntity
  8
DEFPOINTS
 62
     0
 48
50.0
100
AcDbPoint
 10
6887.393321639175
 20
4723.68215860466
 30
0.0
  0
POINT
  5
22A89
330
141B5
100
AcDbEntity
  8
DEFPOINTS
 62
     0
 48
50.0
100
AcDbPoint
 10
6837.393321639175
 20
4723.682158604662
 30
0.0
  0
POINT
  5
22A8A
330
141B5
100
AcDbEntity
  8
DEFPOINTS
 62
     0
 48
50.0
100
AcDbPoint
 10
6837.393321639175
 20
4929.408430336567
 30
0.0
  0
ENDBLK
  5
14A96
330
141B5
100
AcDbEntity
  8
0
 48
50.0
100
AcDbBlockEnd
  0
BLOCK
  5
14A7D
330
141F9
100
AcDbEntity
  8
0
 48
50.0
100
AcDbBlockBegin
  2
*D3
 70
     1
 10
0.0
 20
0.0
 30
0.0
  3
*D3
  1

  0
LINE
  5
22A75
330
141F9
100
AcDbEntity
  8
寸法
 62
     0
 48
50.0
370
    -2
100
AcDbLine
 10
5467.393321639175
 20
4743.682158604663
 30
0.0
 11
5467.393321639175
 21
4989.408430336567
 31
0.0
  0
LINE
  5
22A76
330
141F9
100
AcDbEntity
  8
寸法
 62
     0
 48
50.0
370
    -2
100
AcDbLine
 10
5417.393321639176
 20
4743.682158604662
 30
0.0
 11
5417.393321639176
 21
4989.408430336567
 31
0.0
  0
LINE
  5
22A77
330
141F9
100
AcDbEntity
  8
寸法
 62
     0
 48
50.0
370
    -2
100
AcDbLine
 10
5467.393321639175
 20
4929.408430336567
 30
0.0
 11
5567.393321639175
 21
4929.408430336567
 31
0.0
  0
LINE
  5
22A78
330
141F9
100
AcDbEntity
  8
寸法
 62
     0
 48
50.0
370
    -2
100
AcDbLine
 10
5417.393321639176
 20
4929.408430336567
 30
0.0
 11
4997.860796170441
 21
4929.408430336567
 31
0.0
  0
LINE
  5
22A79
330
141F9
100
AcDbEntity
  8
寸法
 62
     0
 48
50.0
370
    -2
100
AcDbLine
 10
5467.393321639175
 20
4929.408430336567
 30
0.0
 11
5417.393321639176
 21
4929.408430336567
 31
0.0
  0
INSERT
  5
22A7A
330
141F9
100
AcDbEntity
  8
寸法
 62
     0
 48
50.0
370
    -2
100
AcDbBlockReference
  2
_DOTSMALL
 10
5467.393321639175
 20
4929.408430336567
 30
0.0
 41
100.0
 42
100.0
 43
100.0
 50
180.0
  0
INSERT
  5
22A7B
330
141F9
100
AcDbEntity
  8
寸法
 62
     0
 48
50.0
370
    -2
100
AcDbBlockReference
  2
_DOTSMALL
 10
5417.393321639176
 20
4929.408430336567
 30
0.0
 41
100.0
 42
100.0
 43
100.0
  0
MTEXT
  5
22A7C
330
141F9
100
AcDbEntity
  8
寸法
 62
     7
 48
50.0
100
AcDbMText
 10
5103.908040264929
 20
5029.408430336567
 30
0.0
 40
120.0
 41
0.0
 71
     5
 72
     1
  1
\A1;50
  7
STYLE1
 73
     1
 44
1.0
1001
ACAD
1000
MTEXTBEGIN
1070
    73
1070
     1
1070
    44
1040
1.0
1070
    74
1070
     0
1000
MTEXTEND
  0
POINT
  5
22A7D
330
141F9
100
AcDbEntity
  8
DEFPOINTS
 62
     0
 48
50.0
100
AcDbPoint
 10
5467.393321639175
 20
4723.682158604663
 30
0.0
  0
POINT
  5
22A7E
330
141F9
100
AcDbEntity
  8
DEFPOINTS
 62
     0
 48
50.0
100
AcDbPoint
 10
5417.393321639176
 20
4723.682158604662
 30
0.0
  0
POINT
  5
22A7F
330
141F9
100
AcDbEntity
  8
DEFPOINTS
 62
     0
 48
50.0
100
AcDbPoint
 10
5417.393321639176
 20
4929.408430336567
 30
0.0
  0
ENDBLK
  5
14A89
330
141F9
100
AcDbEntity
  8
0
 48
50.0
100
AcDbBlockEnd
  0
BLOCK
  5
148C8
330
1458A
100
AcDbEntity
  8
0
 48
50.0
100
AcDbBlockBegin
  2
*D4
 70
     1
 10
0.0
 20
0.0
 30
0.0
  3
*D4
  1

  0
LINE
  5
22AFD
330
1458A
100
AcDbEntity
  8
寸法
 62
     0
 48
50.0
370
    -2
100
AcDbLine
 10
5467.393321639153
 20
9841.114602385939
 30
0.0
 11
5467.393321639153
 21
10364.03407484449
 31
0.0
  0
LINE
  5
22AFE
330
1458A
100
AcDbEntity
  8
寸法
 62
     0
 48
50.0
370
    -2
100
AcDbLine
 10
5522.393321639187
 20
9841.114602385939
 30
0.0
 11
5522.393321639187
 21
10364.03407484449
 31
0.0
  0
LINE
  5
22AFF
330
1458A
100
AcDbEntity
  8
寸法
 62
     0
 48
50.0
370
    -2
100
AcDbLine
 10
5522.393321639187
 20
10304.03407484449
 30
0.0
 11
5622.393321639187
 21
10304.03407484449
 31
0.0
  0
LINE
  5
22B00
330
1458A
100
AcDbEntity
  8
寸法
 62
     0
 48
50.0
370
    -2
100
AcDbLine
 10
5467.393321639153
 20
10304.03407484449
 30
0.0
 11
5050.422758890675
 21
10304.03407484449
 31
0.0
  0
LINE
  5
22B01
330
1458A
100
AcDbEntity
  8
寸法
 62
     0
 48
50.0
370
    -2
100
AcDbLine
 10
5522.393321639187
 20
10304.03407484449
 30
0.0
 11
5467.393321639153
 21
10304.03407484449
 31
0.0
  0
INSERT
  5
22B02
330
1458A
100
AcDbEntity
  8
寸法
 62
     0
 48
50.0
370
    -2
100
AcDbBlockReference
  2
_DOTSMALL
 10
5522.393321639187
 20
10304.03407484449
 30
0.0
 41
100.0
 42
100.0
 43
100.0
 50
180.0
  0
INSERT
  5
22B03
330
1458A
100
AcDbEntity
  8
寸法
 62
     0
 48
50.0
370
    -2
100
AcDbBlockReference
  2
_DOTSMALL
 10
5467.393321639153
 20
10304.03407484449
 30
0.0
 41
100.0
 42
100.0
 43
100.0
  0
MTEXT
  5
22B04
330
1458A
100
AcDbEntity
  8
寸法
 62
     7
 48
50.0
100
AcDbMText
 10
5158.908040264915
 20
10404.03407484449
 30
0.0
 40
120.0
 41
0.0
 71
     5
 72
     1
  1
\A1;55
  7
STYLE1
 73
     1
 44
1.0
1001
ACAD
1000
MTEXTBEGIN
1070
    73
1070
     1
1070
    44
1040
1.0
1070
    74
1070
     0
1000
MTEXTEND
  0
POINT
  5
22B05
330
1458A
100
AcDbEntity
  8
DEFPOINTS
 62
     0
 48
50.0
100
AcDbPoint
 10
5467.393321639153
 20
9821.114602385939
 30
0.0
  0
POINT
  5
22B06
330
1458A
100
AcDbEntity
  8
DEFPOINTS
 62
     0
 48
50.0
100
AcDbPoint
 10
5522.393321639187
 20
9821.114602385939
 30
0.0
  0
POINT
  5
22B07
330
1458A
100
AcDbEntity
  8
DEFPOINTS
 62
     0
 48
50.0
100
AcDbPoint
 10
5522.393321639187
 20
10304.03407484449
 30
0.0
  0
ENDBLK
  5
148D4
330
1458A
100
AcDbEntity
  8
0
 48
50.0
100
AcDbBlockEnd
  0
BLOCK
  5
14D6F
330
14598
100
AcDbEntity
  8
0
 48
50.0
100
AcDbBlockBegin
  2
*D5
 70
     1
 10
0.0
 20
0.0
 30
0.0
  3
*D5
  1

  0
LINE
  5
22AF4
330
14598
100
AcDbEntity
  8
寸法
 62
     0
 48
50.0
370
    -2
100
AcDbLine
 10
6857.393321639214
 20
9821.114602385978
 30
0.0
 11
7830.716923425645
 21
9821.114602385978
 31
0.0
  0
LINE
  5
22AF5
330
14598
100
AcDbEntity
  8
寸法
 62
     0
 48
50.0
370
    -2
100
AcDbLine
 10
6857.393321639168
 20
7191.11460238594
 30
0.0
 11
7830.716923425645
 21
7191.11460238594
 31
0.0
  0
LINE
  5
22AF6
330
14598
100
AcDbEntity
  8
寸法
 62
     0
 48
50.0
370
    -2
100
AcDbLine
 10
7770.716923425644
 20
9821.114602385978
 30
0.0
 11
7770.716923425644
 21
7191.11460238594
 31
0.0
  0
INSERT
  5
22AF7
330
14598
100
AcDbEntity
  8
寸法
 62
     0
 48
50.0
370
    -2
100
AcDbBlockReference
  2
_DOTSMALL
 10
7770.716923425644
 20
9821.114602385978
 30
0.0
 41
100.0
 42
100.0
 43
100.0
 50
90.0
  0
INSERT
  5
22AF8
330
14598
100
AcDbEntity
  8
寸法
 62
     0
 48
50.0
370
    -2
100
AcDbBlockReference
  2
_DOTSMALL
 10
7770.716923425644
 20
7191.11460238594
 30
0.0
 41
100.0
 42
100.0
 43
100.0
 50
270.0
  0
MTEXT
  5
22AF9
330
14598
100
AcDbEntity
  8
寸法
 62
     7
 48
50.0
100
AcDbMText
 10
7670.705112402022
 20
8521.832200251301
 30
0.0
 40
120.0
 41
0.0
 71
     5
 72
     1
  1
\A1;2630
  7
STYLE1
 11
0.0000000000000001
 21
1.0
 31
0.0
 73
     1
 44
1.0
1001
ACAD
1000
MTEXTBEGIN
1070
    73
1070
     1
1070
    44
1040
1.0
1070
    74
1070
     0
1000
MTEXTEND
  0
POINT
  5
22AFA
330
14598
100
AcDbEntity
  8
DEFPOINTS
 62
     0
 48
50.0
100
AcDbPoint
 10
6837.393321639215
 20
9821.114602385978
 30
0.0
  0
POINT
  5
22AFB
330
14598
100
AcDbEntity
  8
DEFPOINTS
 62
     0
 48
50.0
100
AcDbPoint
 10
6837.393321639168
 20
7191.11460238594
 30
0.0
  0
POINT
  5
22AFC
330
14598
100
AcDbEntity
  8
DEFPOINTS
 62
     0
 48
50.0
100
AcDbPoint
 10
7770.716923425644
 20
7191.11460238594
 30
0.0
  0
ENDBLK
  5
14D79
330
14598
100
AcDbEntity
  8
0
 48
50.0
100
AcDbBlockEnd
  0
BLOCK
  5
1492F
330
145A4
100
AcDbEntity
  8
0
 48
50.0
100
AcDbBlockBegin
  2
*D6
 70
     1
 10
0.0
 20
0.0
 30
0.0
  3
*D6
  1

  0
LINE
  5
22AE9
330
145A4
100
AcDbEntity
  8
寸法
 62
     0
 48
50.0
370
    -2
100
AcDbLine
 10
6857.393321639154
 20
9821.114602385977
 30
0.0
 11
7544.819667373563
 21
9821.114602385977
 31
0.0
  0
LINE
  5
22AEA
330
145A4
100
AcDbEntity
  8
寸法
 62
     0
 48
50.0
370
    -2
100
AcDbLine
 10
6857.393321639154
 20
9766.114602385981
 30
0.0
 11
7544.819667373563
 21
9766.114602385981
 31
0.0
  0
LINE
  5
22AEB
330
145A4
100
AcDbEntity
  8
寸法
 62
     0
 48
50.0
370
    -2
100
AcDbLine
 10
7484.819667373564
 20
9766.114602385981
 30
0.0
 11
7484.819667373564
 21
9666.114602385981
 31
0.0
  0
LINE
  5
22AEC
330
145A4
100
AcDbEntity
  8
寸法
 62
     0
 48
50.0
370
    -2
100
AcDbLine
 10
7484.819667373564
 20
9821.114602385977
 30
0.0
 11
7484.819667373564
 21
10238.08516513445
 31
0.0
  0
LINE
  5
22AED
330
145A4
100
AcDbEntity
  8
寸法
 62
     0
 48
50.0
370
    -2
100
AcDbLine
 10
7484.819667373564
 20
9766.114602385981
 30
0.0
 11
7484.819667373564
 21
9821.114602385977
 31
0.0
  0
INSERT
  5
22AEE
330
145A4
100
AcDbEntity
  8
寸法
 62
     0
 48
50.0
370
    -2
100
AcDbBlockReference
  2
_DOTSMALL
 10
7484.819667373564
 20
9766.114602385981
 30
0.0
 41
100.0
 42
100.0
 43
100.0
 50
90.0
  0
INSERT
  5
22AEF
330
145A4
100
AcDbEntity
  8
寸法
 62
     0
 48
50.0
370
    -2
100
AcDbBlockReference
  2
_DOTSMALL
 10
7484.819667373564
 20
9821.114602385977
 30
0.0
 41
100.0
 42
100.0
 43
100.0
 50
270.0
  0
MTEXT
  5
22AF0
330
145A4
100
AcDbEntity
  8
寸法
 62
     7
 48
50.0
100
AcDbMText
 10
7384.819667373562
 20
10129.59988376021
 30
0.0
 40
120.0
 41
0.0
 71
     5
 72
     1
  1
\A1;55
  7
STYLE1
 11
0.0000000000000001
 21
1.0
 31
0.0
 73
     1
 44
1.0
1001
ACAD
1000
MTEXTBEGIN
1070
    73
1070
     1
1070
    44
1040
1.0
1070
    74
1070
     0
1000
MTEXTEND
  0
POINT
  5
22AF1
330
145A4
100
AcDbEntity
  8
DEFPOINTS
 62
     0
 48
50.0
100
AcDbPoint
 10
6837.393321639154
 20
9821.114602385977
 30
0.0
  0
POINT
  5
22AF2
330
145A4
100
AcDbEntity
  8
DEFPOINTS
 62
     0
 48
50.0
100
AcDbPoint
 10
6837.393321639154
 20
9766.114602385981
 30
0.0
  0
POINT
  5
22AF3
330
145A4
100
AcDbEntity
  8
DEFPOINTS
 62
     0
 48
50.0
100
AcDbPoint
 10
7484.819667373564
 20
9766.114602385981
 30
0.0
  0
ENDBLK
  5
1493B
330
145A4
100
AcDbEntity
  8
0
 48
50.0
100
AcDbBlockEnd
  0
BLOCK
  5
1496A
330
145BE
100
AcDbEntity
  8
0
 48
50.0
100
AcDbBlockBegin
  2
*D7
 70
     1
 10
0.0
 20
0.0
 30
0.0
  3
*D7
  1

  0
LINE
  5
22ADE
330
145BE
100
AcDbEntity
  8
寸法
 62
     0
 48
50.0
370
    -2
100
AcDbLine
 10
6857.393321639168
 20
7246.114602385971
 30
0.0
 11
7544.819667373579
 21
7246.114602385971
 31
0.0
  0
LINE
  5
22ADF
330
145BE
100
AcDbEntity
  8
寸法
 62
     0
 48
50.0
370
    -2
100
AcDbLine
 10
6857.393321639168
 20
7191.114602385974
 30
0.0
 11
7544.819667373579
 21
7191.114602385974
 31
0.0
  0
LINE
  5
22AE0
330
145BE
100
AcDbEntity
  8
寸法
 62
     0
 48
50.0
370
    -2
100
AcDbLine
 10
7484.81966737358
 20
7246.114602385971
 30
0.0
 11
7484.81966737358
 21
7346.114602385971
 31
0.0
  0
LINE
  5
22AE1
330
145BE
100
AcDbEntity
  8
寸法
 62
     0
 48
50.0
370
    -2
100
AcDbLine
 10
7484.81966737358
 20
7191.114602385974
 30
0.0
 11
7484.81966737358
 21
6704.767854106873
 31
0.0
  0
LINE
  5
22AE2
330
145BE
100
AcDbEntity
  8
寸法
 62
     0
 48
50.0
370
    -2
100
AcDbLine
 10
7484.81966737358
 20
7246.114602385971
 30
0.0
 11
7484.81966737358
 21
7191.114602385974
 31
0.0
  0
INSERT
  5
22AE3
330
145BE
100
AcDbEntity
  8
寸法
 62
     0
 48
50.0
370
    -2
100
AcDbBlockReference
  2
_DOTSMALL
 10
7484.81966737358
 20
7246.114602385971
 30
0.0
 41
100.0
 42
100.0
 43
100.0
 50
270.0
  0
INSERT
  5
22AE4
330
145BE
100
AcDbEntity
  8
寸法
 62
     0
 48
50.0
370
    -2
100
AcDbBlockReference
  2
_DOTSMALL
 10
7484.81966737358
 20
7191.114602385974
 30
0.0
 41
100.0
 42
100.0
 43
100.0
 50
90.0
  0
MTEXT
  5
22AE5
330
145BE
100
AcDbEntity
  8
寸法
 62
     7
 48
50.0
100
AcDbMText
 10
7384.819667373577
 20
6813.253135481115
 30
0.0
 40
120.0
 41
0.0
 71
     5
 72
     1
  1
\A1;55
  7
STYLE1
 11
0.0000000000000001
 21
1.0
 31
0.0
 73
     1
 44
1.0
1001
ACAD
1000
MTEXTBEGIN
1070
    73
1070
     1
1070
    44
1040
1.0
1070
    74
1070
     0
1000
MTEXTEND
  0
POINT
  5
22AE6
330
145BE
100
AcDbEntity
  8
DEFPOINTS
 62
     0
 48
50.0
100
AcDbPoint
 10
6837.393321639168
 20
7246.114602385971
 30
0.0
  0
POINT
  5
22AE7
330
145BE
100
AcDbEntity
  8
DEFPOINTS
 62
     0
 48
50.0
100
AcDbPoint
 10
6837.393321639168
 20
7191.114602385974
 30
0.0
  0
POINT
  5
22AE8
330
145BE
100
AcDbEntity
  8
DEFPOINTS
 62
     0
 48
50.0
100
AcDbPoint
 10
7484.81966737358
 20
7191.114602385974
 30
0.0
  0
ENDBLK
  5
14976
330
145BE
100
AcDbEntity
  8
0
 48
50.0
100
AcDbBlockEnd
  0
BLOCK
  5
14D4C
330
145CC
100
AcDbEntity
  8
0
 48
50.0
100
AcDbBlockBegin
  2
*D8
 70
     1
 10
0.0
 20
0.0
 30
0.0
  3
*D8
  1

  0
LINE
  5
22B20
330
145CC
100
AcDbEntity
  8
寸法
 62
     0
 48
50.0
370
    -2
100
AcDbLine
 10
6857.393321639154
 20
9766.114602385981
 30
0.0
 11
7544.819667373568
 21
9766.114602385981
 31
0.0
  0
LINE
  5
22B21
330
145CC
100
AcDbEntity
  8
寸法
 62
     0
 48
50.0
370
    -2
100
AcDbLine
 10
6857.393321639147
 20
7246.114602385971
 30
0.0
 11
7544.819667373568
 21
7246.114602385971
 31
0.0
  0
LINE
  5
22B22
330
145CC
100
AcDbEntity
  8
寸法
 62
     0
 48
50.0
370
    -2
100
AcDbLine
 10
7484.819667373568
 20
9766.114602385981
 30
0.0
 11
7484.819667373568
 21
7246.114602385971
 31
0.0
  0
INSERT
  5
22B23
330
145CC
100
AcDbEntity
  8
寸法
 62
     0
 48
50.0
370
    -2
100
AcDbBlockReference
  2
_DOTSMALL
 10
7484.819667373568
 20
9766.114602385981
 30
0.0
 41
100.0
 42
100.0
 43
100.0
 50
90.0
  0
INSERT
  5
22B24
330
145CC
100
AcDbEntity
  8
寸法
 62
     0
 48
50.0
370
    -2
100
AcDbBlockReference
  2
_DOTSMALL
 10
7484.819667373568
 20
7246.114602385971
 30
0.0
 41
100.0
 42
100.0
 43
100.0
 50
270.0
  0
MTEXT
  5
22B25
330
145CC
100
AcDbEntity
  8
寸法
 62
     7
 48
50.0
100
AcDbMText
 10
7384.807856349945
 20
8506.114602385975
 30
0.0
 40
120.0
 41
0.0
 71
     5
 72
     1
  1
\A1;6X420=2520
  7
STYLE1
 11
0.0000000000000001
 21
1.0
 31
0.0
 73
     1
 44
1.0
1001
ACAD
1000
MTEXTBEGIN
1070
    73
1070
     1
1070
    44
1040
1.0
1070
    74
1070
     0
1000
MTEXTEND
  0
POINT
  5
22B26
330
145CC
100
AcDbEntity
  8
DEFPOINTS
 62
     0
 48
50.0
100
AcDbPoint
 10
6837.393321639154
 20
9766.114602385981
 30
0.0
  0
POINT
  5
22B27
330
145CC
100
AcDbEntity
  8
DEFPOINTS
 62
     0
 48
50.0
100
AcDbPoint
 10
6837.393321639146
 20
7246.114602385971
 30
0.0
  0
POINT
  5
22B28
330
145CC
100
AcDbEntity
  8
DEFPOINTS
 62
     0
 48
50.0
100
AcDbPoint
 10
7484.819667373568
 20
7246.114602385971
 30
0.0
  0
ENDBLK
  5
14D56
330
145CC
100
AcDbEntity
  8
0
 48
50.0
100
AcDbBlockEnd
  0
BLOCK
  5
14954
330
145D8
100
AcDbEntity
  8
0
 48
50.0
100
AcDbBlockBegin
  2
*D9
 70
     1
 10
0.0
 20
0.0
 30
0.0
  3
*D9
  1

  0
LINE
  5
22ACC
330
145D8
100
AcDbEntity
  8
寸法
 62
     0
 48
50.0
370
    -2
100
AcDbLine
 10
5467.393321639221
 20
7171.114602385904
 30
0.0
 11
5467.393321639221
 21
6312.20470558032
 31
0.0
  0
LINE
  5
22ACD
330
145D8
100
AcDbEntity
  8
寸法
 62
     0
 48
50.0
370
    -2
100
AcDbLine
 10
6837.393321639168
 20
7171.11460238594
 30
0.0
 11
6837.393321639168
 21
6312.20470558032
 31
0.0
  0
LINE
  5
22ACE
330
145D8
100
AcDbEntity
  8
寸法
 62
     0
 48
50.0
370
    -2
100
AcDbLine
 10
5467.393321639221
 20
6372.204705580319
 30
0.0
 11
6837.393321639168
 21
6372.204705580319
 31
0.0
  0
INSERT
  5
22ACF
330
145D8
100
AcDbEntity
  8
寸法
 62
     0
 48
50.0
370
    -2
100
AcDbBlockReference
  2
_DOTSMALL
 10
5467.393321639221
 20
6372.204705580319
 30
0.0
 41
100.0
 42
100.0
 43
100.0
 50
180.0
  0
INSERT
  5
22AD0
330
145D8
100
AcDbEntity
  8
寸法
 62
     0
 48
50.0
370
    -2
100
AcDbBlockReference
  2
_DOTSMALL
 10
6837.393321639168
 20
6372.204705580319
 30
0.0
 41
100.0
 42
100.0
 43
100.0
  0
MTEXT
  5
22AD1
330
145D8
100
AcDbEntity
  8
寸法
 62
     7
 48
50.0
100
AcDbMText
 10
6155.958503277577
 20
6472.20470558032
 30
0.0
 40
120.0
 41
0.0
 71
     5
 72
     1
  1
\A1;1370
  7
STYLE1
 73
     1
 44
1.0
1001
ACAD
1000
MTEXTBEGIN
1070
    73
1070
     1
1070
    44
1040
1.0
1070
    74
1070
     0
1000
MTEXTEND
  0
POINT
  5
22AD2
330
145D8
100
AcDbEntity
  8
DEFPOINTS
 62
     0
 48
50.0
100
AcDbPoint
 10
5467.393321639221
 20
7191.114602385903
 30
0.0
  0
POINT
  5
22AD3
330
145D8
100
AcDbEntity
  8
DEFPOINTS
 62
     0
 48
50.0
100
AcDbPoint
 10
6837.393321639168
 20
7191.11460238594
 30
0.0
  0
POINT
  5
22AD4
330
145D8
100
AcDbEntity
  8
DEFPOINTS
 62
     0
 48
50.0
100
AcDbPoint
 10
6837.393321639168
 20
6372.204705580319
 30
0.0
  0
ENDBLK
  5
1495E
330
145D8
100
AcDbEntity
  8
0
 48
50.0
100
AcDbBlockEnd
  0
BLOCK
  5
14D90
330
145E4
100
AcDbEntity
  8
0
 48
50.0
100
AcDbBlockBegin
  2
*D10
 70
     1
 10
0.0
 20
0.0
 30
0.0
  3
*D10
  1

  0
LINE
  5
22AC3
330
145E4
100
AcDbEntity
  8
寸法
 62
     0
 48
50.0
370
    -2
100
AcDbLine
 10
6213.39332163922
 20
7171.114602385975
 30
0.0
 11
6213.39332163922
 21
6571.555196617485
 31
0.0
  0
LINE
  5
22AC4
330
145E4
100
AcDbEntity
  8
寸法
 62
     0
 48
50.0
370
    -2
100
AcDbLine
 10
5527.393321639221
 20
7171.1146023859
 30
0.0
 11
5527.393321639221
 21
6571.555196617485
 31
0.0
  0
LINE
  5
22AC5
330
145E4
100
AcDbEntity
  8
寸法
 62
     0
 48
50.0
370
    -2
100
AcDbLine
 10
6213.39332163922
 20
6631.555196617485
 30
0.0
 11
5527.393321639221
 21
6631.555196617485
 31
0.0
  0
INSERT
  5
22AC6
330
145E4
100
AcDbEntity
  8
寸法
 62
     0
 48
50.0
370
    -2
100
AcDbBlockReference
  2
_DOTSMALL
 10
6213.39332163922
 20
6631.555196617485
 30
0.0
 41
100.0
 42
100.0
 43
100.0
  0
INSERT
  5
22AC7
330
145E4
100
AcDbEntity
  8
寸法
 62
     0
 48
50.0
370
    -2
100
AcDbBlockReference
  2
_DOTSMALL
 10
5527.393321639221
 20
6631.555196617485
 30
0.0
 41
100.0
 42
100.0
 43
100.0
 50
180.0
  0
MTEXT
  5
22AC8
330
145E4
100
AcDbEntity
  8
寸法
 62
     7
 48
50.0
100
AcDbMText
 10
5870.393321639221
 20
6831.555196617485
 30
0.0
 40
120.0
 41
0.0
 71
     5
 72
     1
  1
\A1;有効開口部間口\P686
  7
STYLE1
 73
     1
 44
1.0
1001
ACAD
1000
MTEXTBEGIN
1070
    73
1070
     1
1070
    44
1040
1.0
1070
    74
1070
     0
1000
MTEXTEND
  0
POINT
  5
22AC9
330
145E4
100
AcDbEntity
  8
DEFPOINTS
 62
     0
 48
50.0
100
AcDbPoint
 10
6213.39332163922
 20
7191.114602385976
 30
0.0
  0
POINT
  5
22ACA
330
145E4
100
AcDbEntity
  8
DEFPOINTS
 62
     0
 48
50.0
100
AcDbPoint
 10
5527.393321639221
 20
7191.1146023859
 30
0.0
  0
POINT
  5
22ACB
330
145E4
100
AcDbEntity
  8
DEFPOINTS
 62
     0
 48
50.0
100
AcDbPoint
 10
5527.393321639221
 20
6631.555196617485
 30
0.0
  0
ENDBLK
  5
14D9A
330
145E4
100
AcDbEntity
  8
0
 48
50.0
100
AcDbBlockEnd
  0
BLOCK
  5
148D5
330
14608
100
AcDbEntity
  8
0
 48
50.0
100
AcDbBlockBegin
  2
*D11
 70
     1
 10
0.0
 20
0.0
 30
0.0
  3
*D11
  1

  0
LINE
  5
22AB8
330
14608
100
AcDbEntity
  8
寸法
 62
     0
 48
50.0
370
    -2
100
AcDbLine
 10
6782.393321639154
 20
9841.114602385978
 30
0.0
 11
6782.393321639154
 21
10364.03407484449
 31
0.0
  0
LINE
  5
22AB9
330
14608
100
AcDbEntity
  8
寸法
 62
     0
 48
50.0
370
    -2
100
AcDbLine
 10
6837.393321639154
 20
9841.114602385978
 30
0.0
 11
6837.393321639154
 21
10364.03407484449
 31
0.0
  0
LINE
  5
22ABA
330
14608
100
AcDbEntity
  8
寸法
 62
     0
 48
50.0
370
    -2
100
AcDbLine
 10
6782.393321639154
 20
10304.03407484449
 30
0.0
 11
6682.393321639153
 21
10304.03407484449
 31
0.0
  0
LINE
  5
22ABB
330
14608
100
AcDbEntity
  8
寸法
 62
     0
 48
50.0
370
    -2
100
AcDbLine
 10
6837.393321639154
 20
10304.03407484449
 30
0.0
 11
7254.363884387631
 21
10304.03407484449
 31
0.0
  0
LINE
  5
22ABC
330
14608
100
AcDbEntity
  8
寸法
 62
     0
 48
50.0
370
    -2
100
AcDbLine
 10
6782.393321639154
 20
10304.03407484449
 30
0.0
 11
6837.393321639154
 21
10304.03407484449
 31
0.0
  0
INSERT
  5
22ABD
330
14608
100
AcDbEntity
  8
寸法
 62
     0
 48
50.0
370
    -2
100
AcDbBlockReference
  2
_DOTSMALL
 10
6782.393321639154
 20
10304.03407484449
 30
0.0
 41
100.0
 42
100.0
 43
100.0
  0
INSERT
  5
22ABE
330
14608
100
AcDbEntity
  8
寸法
 62
     0
 48
50.0
370
    -2
100
AcDbBlockReference
  2
_DOTSMALL
 10
6837.393321639154
 20
10304.03407484449
 30
0.0
 41
100.0
 42
100.0
 43
100.0
 50
180.0
  0
MTEXT
  5
22ABF
330
14608
100
AcDbEntity
  8
寸法
 62
     7
 48
50.0
100
AcDbMText
 10
7145.878603013392
 20
10404.03407484449
 30
0.0
 40
120.0
 41
0.0
 71
     5
 72
     1
  1
\A1;55
  7
STYLE1
 73
     1
 44
1.0
1001
ACAD
1000
MTEXTBEGIN
1070
    73
1070
     1
1070
    44
1040
1.0
1070
    74
1070
     0
1000
MTEXTEND
  0
POINT
  5
22AC0
330
14608
100
AcDbEntity
  8
DEFPOINTS
 62
     0
 48
50.0
100
AcDbPoint
 10
6782.393321639154
 20
9821.114602385977
 30
0.0
  0
POINT
  5
22AC1
330
14608
100
AcDbEntity
  8
DEFPOINTS
 62
     0
 48
50.0
100
AcDbPoint
 10
6837.393321639154
 20
9821.114602385977
 30
0.0
  0
POINT
  5
22AC2
330
14608
100
AcDbEntity
  8
DEFPOINTS
 62
     0
 48
50.0
100
AcDbPoint
 10
6837.393321639154
 20
10304.03407484449
 30
0.0
  0
ENDBLK
  5
148E1
330
14608
100
AcDbEntity
  8
0
 48
50.0
100
AcDbBlockEnd
  0
BLOCK
  5
14B64
330
14616
100
AcDbEntity
  8
0
 48
50.0
100
AcDbBlockBegin
  2
*D12
 70
     1
 10
0.0
 20
0.0
 30
0.0
  3
*D12
  1

  0
LINE
  5
22AAF
330
14616
100
AcDbEntity
  8
寸法
 62
     0
 48
50.0
370
    -2
100
AcDbLine
 10
5522.393321639187
 20
9841.114602385939
 30
0.0
 11
5522.393321639187
 21
10364.03407484449
 31
0.0
  0
LINE
  5
22AB0
330
14616
100
AcDbEntity
  8
寸法
 62
     0
 48
50.0
370
    -2
100
AcDbLine
 10
6782.393321639154
 20
9841.114602385978
 30
0.0
 11
6782.393321639154
 21
10364.03407484449
 31
0.0
  0
LINE
  5
22AB1
330
14616
100
AcDbEntity
  8
寸法
 62
     0
 48
50.0
370
    -2
100
AcDbLine
 10
5522.393321639187
 20
10304.03407484449
 30
0.0
 11
6782.393321639154
 21
10304.03407484449
 31
0.0
  0
INSERT
  5
22AB2
330
14616
100
AcDbEntity
  8
寸法
 62
     0
 48
50.0
370
    -2
100
AcDbBlockReference
  2
_DOTSMALL
 10
5522.393321639187
 20
10304.03407484449
 30
0.0
 41
100.0
 42
100.0
 43
100.0
 50
180.0
  0
INSERT
  5
22AB3
330
14616
100
AcDbEntity
  8
寸法
 62
     0
 48
50.0
370
    -2
100
AcDbBlockReference
  2
_DOTSMALL
 10
6782.393321639154
 20
10304.03407484449
 30
0.0
 41
100.0
 42
100.0
 43
100.0
  0
MTEXT
  5
22AB4
330
14616
100
AcDbEntity
  8
寸法
 62
     7
 48
50.0
100
AcDbMText
 10
6159.039429004276
 20
10404.04588586812
 30
0.0
 40
120.0
 41
0.0
 71
     5
 72
     1
  1
\A1;3X420=1260
  7
STYLE1
 73
     1
 44
1.0
1001
ACAD
1000
MTEXTBEGIN
1070
    73
1070
     1
1070
    44
1040
1.0
1070
    74
1070
     0
1000
MTEXTEND
  0
POINT
  5
22AB5
330
14616
100
AcDbEntity
  8
DEFPOINTS
 62
     0
 48
50.0
100
AcDbPoint
 10
5522.393321639187
 20
9821.114602385939
 30
0.0
  0
POINT
  5
22AB6
330
14616
100
AcDbEntity
  8
DEFPOINTS
 62
     0
 48
50.0
100
AcDbPoint
 10
6782.393321639154
 20
9821.114602385977
 30
0.0
  0
POINT
  5
22AB7
330
14616
100
AcDbEntity
  8
DEFPOINTS
 62
     0
 48
50.0
100
AcDbPoint
 10
6782.393321639154
 20
10304.03407484449
 30
0.0
  0
ENDBLK
  5
14B6E
330
14616
100
AcDbEntity
  8
0
 48
50.0
100
AcDbBlockEnd
  0
BLOCK
  5
14A72
330
146DC
100
AcDbEntity
  8
0
 48
50.0
100
AcDbBlockBegin
  2
*D13
 70
     1
 10
0.0
 20
0.0
 30
0.0
  3
*D13
  1

  0
LINE
  5
22A6C
330
146DC
100
AcDbEntity
  8
寸法
 62
     0
 48
50.0
370
    -2
100
AcDbLine
 10
6837.393321639175
 20
4743.682158604662
 30
0.0
 11
6837.393321639175
 21
4989.408430336567
 31
0.0
  0
LINE
  5
22A6D
330
146DC
100
AcDbEntity
  8
寸法
 62
     0
 48
50.0
370
    -2
100
AcDbLine
 10
5467.393321639175
 20
4743.682158604663
 30
0.0
 11
5467.393321639175
 21
4989.408430336567
 31
0.0
  0
LINE
  5
22A6E
330
146DC
100
AcDbEntity
  8
寸法
 62
     0
 48
50.0
370
    -2
100
AcDbLine
 10
6837.393321639175
 20
4929.408430336567
 30
0.0
 11
5467.393321639175
 21
4929.408430336567
 31
0.0
  0
INSERT
  5
22A6F
330
146DC
100
AcDbEntity
  8
寸法
 62
     0
 48
50.0
370
    -2
100
AcDbBlockReference
  2
_DOTSMALL
 10
6837.393321639175
 20
4929.408430336567
 30
0.0
 41
100.0
 42
100.0
 43
100.0
  0
INSERT
  5
22A70
330
146DC
100
AcDbEntity
  8
寸法
 62
     0
 48
50.0
370
    -2
100
AcDbBlockReference
  2
_DOTSMALL
 10
5467.393321639175
 20
4929.408430336567
 30
0.0
 41
100.0
 42
100.0
 43
100.0
 50
180.0
  0
MTEXT
  5
22A71
330
146DC
100
AcDbEntity
  8
寸法
 62
     7
 48
50.0
100
AcDbMText
 10
6155.98586200703
 20
5029.408430336567
 30
0.0
 40
120.0
 41
0.0
 71
     5
 72
     1
  1
\A1;柱外寸法1370
  7
STYLE1
 73
     1
 44
1.0
1001
ACAD
1000
MTEXTBEGIN
1070
    73
1070
     1
1070
    44
1040
1.0
1070
    74
1070
     0
1000
MTEXTEND
  0
POINT
  5
22A72
330
146DC
100
AcDbEntity
  8
DEFPOINTS
 62
     0
 48
50.0
100
AcDbPoint
 10
6837.393321639175
 20
4723.682158604662
 30
0.0
  0
POINT
  5
22A73
330
146DC
100
AcDbEntity
  8
DEFPOINTS
 62
     0
 48
50.0
100
AcDbPoint
 10
5467.393321639175
 20
4723.682158604663
 30
0.0
  0
POINT
  5
22A74
330
146DC
100
AcDbEntity
  8
DEFPOINTS
 62
     0
 48
50.0
100
AcDbPoint
 10
5467.393321639175
 20
4929.408430336567
 30
0.0
  0
ENDBLK
  5
14A7C
330
146DC
100
AcDbEntity
  8
0
 48
50.0
100
AcDbBlockEnd
  0
BLOCK
  5
1D9AB
330
1D9A1
100
AcDbEntity
  8
0
 48
50.0
100
AcDbBlockBegin
  2
*D14
 70
     1
 10
0.0
 20
0.0
 30
0.0
  3
*D14
  1

  0
LINE
  5
22A63
330
1D9A1
100
AcDbEntity
  8
寸法
 62
     0
 48
50.0
370
    -2
100
AcDbLine
 10
6937.393321639174
 20
2328.682158604655
 30
0.0
 11
6937.393321639174
 21
2002.634829304279
 31
0.0
  0
LINE
  5
22A64
330
1D9A1
100
AcDbEntity
  8
寸法
 62
     0
 48
50.0
370
    -2
100
AcDbLine
 10
6737.393321639174
 20
2328.682158604657
 30
0.0
 11
6737.393321639174
 21
2002.634829304279
 31
0.0
  0
LINE
  5
22A65
330
1D9A1
100
AcDbEntity
  8
寸法
 62
     0
 48
50.0
370
    -2
100
AcDbLine
 10
6937.393321639174
 20
2062.634829304279
 30
0.0
 11
6737.393321639174
 21
2062.634829304279
 31
0.0
  0
INSERT
  5
22A66
330
1D9A1
100
AcDbEntity
  8
寸法
 62
     0
 48
50.0
370
    -2
100
AcDbBlockReference
  2
_DOTSMALL
 10
6937.393321639174
 20
2062.634829304279
 30
0.0
 41
100.0
 42
100.0
 43
100.0
  0
INSERT
  5
22A67
330
1D9A1
100
AcDbEntity
  8
寸法
 62
     0
 48
50.0
370
    -2
100
AcDbBlockReference
  2
_DOTSMALL
 10
6737.393321639174
 20
2062.634829304279
 30
0.0
 41
100.0
 42
100.0
 43
100.0
 50
180.0
  0
MTEXT
  5
22A68
330
1D9A1
100
AcDbEntity
  8
寸法
 62
     7
 48
50.0
100
AcDbMText
 10
6837.393321639175
 20
2162.646640327901
 30
0.0
 40
120.0
 41
0.0
 71
     5
 72
     1
  1
\A1;200
  7
STYLE1
 73
     1
 44
1.0
1001
ACAD
1000
MTEXTBEGIN
1070
    73
1070
     1
1070
    44
1040
1.0
1070
    74
1070
     0
1000
MTEXTEND
  0
POINT
  5
22A69
330
1D9A1
100
AcDbEntity
  8
DEFPOINTS
 62
     0
 48
50.0
100
AcDbPoint
 10
6937.393321639174
 20
2348.682158604655
 30
0.0
  0
POINT
  5
22A6A
330
1D9A1
100
AcDbEntity
  8
DEFPOINTS
 62
     0
 48
50.0
100
AcDbPoint
 10
6737.393321639174
 20
2348.682158604656
 30
0.0
  0
POINT
  5
22A6B
330
1D9A1
100
AcDbEntity
  8
DEFPOINTS
 62
     0
 48
50.0
100
AcDbPoint
 10
6737.393321639174
 20
2062.634829304279
 30
0.0
  0
ENDBLK
  5
1D9AC
330
1D9A1
100
AcDbEntity
  8
0
 48
50.0
100
AcDbBlockEnd
  0
BLOCK
  5
2008D
330
20083
100
AcDbEntity
  8
0
 48
50.0
100
AcDbBlockBegin
  2
*D15
 70
     1
 10
0.0
 20
0.0
 30
0.0
  3
*D15
  1

  0
LINE
  5
22AA6
330
20083
100
AcDbEntity
  8
寸法
 62
     0
 48
50.0
370
    -2
100
AcDbLine
 10
6799.034337790539
 20
9808.614602385999
 30
0.0
 11
6713.265051762452
 21
10128.70993557172
 31
0.0
  0
LINE
  5
22AA7
330
20083
100
AcDbEntity
  8
寸法
 62
     0
 48
50.0
370
    -2
100
AcDbLine
 10
6349.03433779054
 20
9808.614602385997
 30
0.0
 11
6263.265051762453
 21
10128.70993557172
 31
0.0
  0
LINE
  5
22AA8
330
20083
100
AcDbEntity
  8
寸法
 62
     0
 48
50.0
370
    -2
100
AcDbLine
 10
6729.342003308319
 20
10068.70993557172
 30
0.0
 11
6279.342003308322
 21
10068.70993557172
 31
0.0
  0
INSERT
  5
22AA9
330
20083
100
AcDbEntity
  8
寸法
 62
     0
 48
50.0
370
    -2
100
AcDbBlockReference
  2
_DOTSMALL
 10
6729.342003308319
 20
10068.70993557172
 30
0.0
 41
100.0
 42
100.0
 43
100.0
  0
INSERT
  5
22AAA
330
20083
100
AcDbEntity
  8
寸法
 62
     0
 48
50.0
370
    -2
100
AcDbBlockReference
  2
_DOTSMALL
 10
6279.342003308322
 20
10068.70993557172
 30
0.0
 41
100.0
 42
100.0
 43
100.0
 50
180.0
  0
MTEXT
  5
22AAB
330
20083
100
AcDbEntity
  8
寸法
 62
     7
 48
50.0
100
AcDbMText
 10
6482.829114031175
 20
10168.70993557172
 30
0.0
 40
120.0
 41
0.0
 71
     5
 72
     1
  1
\A1;450
  7
STYLE1
 73
     1
 44
1.0
1001
ACAD
1000
MTEXTBEGIN
1070
    73
1070
     1
1070
    44
1040
1.0
1070
    74
1070
     0
1000
MTEXTEND
  0
POINT
  5
22AAC
330
20083
100
AcDbEntity
  8
DEFPOINTS
 62
     0
 48
50.0
100
AcDbPoint
 10
6804.39332163916
 20
9788.614602385997
 30
0.0
  0
POINT
  5
22AAD
330
20083
100
AcDbEntity
  8
DEFPOINTS
 62
     0
 48
50.0
100
AcDbPoint
 10
6354.393321639163
 20
9788.614602385997
 30
0.0
  0
POINT
  5
22AAE
330
20083
100
AcDbEntity
  8
DEFPOINTS
 62
     0
 48
50.0
100
AcDbPoint
 10
6279.342003308322
 20
10068.70993557172
 30
0.0
  0
ENDBLK
  5
2008E
330
20083
100
AcDbEntity
  8
0
 48
50.0
100
AcDbBlockEnd
  0
BLOCK
  5
20CC7
330
20CBD
100
AcDbEntity
  8
0
 48
50.0
100
AcDbBlockBegin
  2
*D16
 70
     1
 10
0.0
 20
0.0
 30
0.0
  3
*D16
  1

  0
LINE
  5
22A5A
330
20CBD
100
AcDbEntity
  8
寸法
 62
     0
 48
50.0
370
    -2
100
AcDbLine
 10
8900.690703446656
 20
2328.682158604655
 30
0.0
 11
8900.690703446656
 21
2002.634829304279
 31
0.0
  0
LINE
  5
22A5B
330
20CBD
100
AcDbEntity
  8
寸法
 62
     0
 48
50.0
370
    -2
100
AcDbLine
 10
8700.69070344666
 20
2328.682158604656
 30
0.0
 11
8700.69070344666
 21
2002.634829304279
 31
0.0
  0
LINE
  5
22A5C
330
20CBD
100
AcDbEntity
  8
寸法
 62
     0
 48
50.0
370
    -2
100
AcDbLine
 10
8900.690703446656
 20
2062.634829304279
 30
0.0
 11
8700.69070344666
 21
2062.634829304279
 31
0.0
  0
INSERT
  5
22A5D
330
20CBD
100
AcDbEntity
  8
寸法
 62
     0
 48
50.0
370
    -2
100
AcDbBlockReference
  2
_DOTSMALL
 10
8900.690703446656
 20
2062.634829304279
 30
0.0
 41
100.0
 42
100.0
 43
100.0
  0
INSERT
  5
22A5E
330
20CBD
100
AcDbEntity
  8
寸法
 62
     0
 48
50.0
370
    -2
100
AcDbBlockReference
  2
_DOTSMALL
 10
8700.69070344666
 20
2062.634829304279
 30
0.0
 41
100.0
 42
100.0
 43
100.0
 50
180.0
  0
MTEXT
  5
22A5F
330
20CBD
100
AcDbEntity
  8
寸法
 62
     7
 48
50.0
100
AcDbMText
 10
8800.69070344666
 20
2162.646640327901
 30
0.0
 40
120.0
 41
0.0
 71
     5
 72
     1
  1
\A1;200
  7
STYLE1
 73
     1
 44
1.0
1001
ACAD
1000
MTEXTBEGIN
1070
    73
1070
     1
1070
    44
1040
1.0
1070
    74
1070
     0
1000
MTEXTEND
  0
POINT
  5
22A60
330
20CBD
100
AcDbEntity
  8
DEFPOINTS
 62
     0
 48
50.0
100
AcDbPoint
 10
8900.690703446656
 20
2348.682158604655
 30
0.0
  0
POINT
  5
22A61
330
20CBD
100
AcDbEntity
  8
DEFPOINTS
 62
     0
 48
50.0
100
AcDbPoint
 10
8700.69070344666
 20
2348.682158604656
 30
0.0
  0
POINT
  5
22A62
330
20CBD
100
AcDbEntity
  8
DEFPOINTS
 62
     0
 48
50.0
100
AcDbPoint
 10
8700.69070344666
 20
2062.634829304279
 30
0.0
  0
ENDBLK
  5
20CC8
330
20CBD
100
AcDbEntity
  8
0
 48
50.0
100
AcDbBlockEnd
  0
BLOCK
  5
20CD3
330
20CC9
100
AcDbEntity
  8
0
 48
50.0
100
AcDbBlockBegin
  2
*D17
 70
     1
 10
0.0
 20
0.0
 30
0.0
  3
*D17
  1

  0
LINE
  5
22A51
330
20CC9
100
AcDbEntity
  8
寸法
 62
     0
 48
50.0
370
    -2
100
AcDbLine
 10
8680.690703446661
 20
2348.682158604656
 30
0.0
 11
8491.190700200023
 21
2348.682158604656
 31
0.0
  0
LINE
  5
22A52
330
20CC9
100
AcDbEntity
  8
寸法
 62
     0
 48
50.0
370
    -2
100
AcDbLine
 10
8655.690703446657
 20
2548.682158604657
 30
0.0
 11
8491.190700200023
 21
2548.682158604657
 31
0.0
  0
LINE
  5
22A53
330
20CC9
100
AcDbEntity
  8
寸法
 62
     0
 48
50.0
370
    -2
100
AcDbLine
 10
8551.190700200022
 20
2348.682158604656
 30
0.0
 11
8551.190700200022
 21
2548.682158604657
 31
0.0
  0
INSERT
  5
22A54
330
20CC9
100
AcDbEntity
  8
寸法
 62
     0
 48
50.0
370
    -2
100
AcDbBlockReference
  2
_DOTSMALL
 10
8551.190700200022
 20
2348.682158604656
 30
0.0
 41
100.0
 42
100.0
 43
100.0
 50
270.0
  0
INSERT
  5
22A55
330
20CC9
100
AcDbEntity
  8
寸法
 62
     0
 48
50.0
370
    -2
100
AcDbBlockReference
  2
_DOTSMALL
 10
8551.190700200022
 20
2548.682158604657
 30
0.0
 41
100.0
 42
100.0
 43
100.0
 50
90.0
  0
MTEXT
  5
22A56
330
20CC9
100
AcDbEntity
  8
寸法
 62
     7
 48
50.0
100
AcDbMText
 10
8451.178889176402
 20
2448.682158604658
 30
0.0
 40
120.0
 41
0.0
 71
     5
 72
     1
  1
\A1;200
  7
STYLE1
 11
0.0000000000000001
 21
1.0
 31
0.0
 73
     1
 44
1.0
1001
ACAD
1000
MTEXTBEGIN
1070
    73
1070
     1
1070
    44
1040
1.0
1070
    74
1070
     0
1000
MTEXTEND
  0
POINT
  5
22A57
330
20CC9
100
AcDbEntity
  8
DEFPOINTS
 62
     0
 48
50.0
100
AcDbPoint
 10
8700.69070344666
 20
2348.682158604656
 30
0.0
  0
POINT
  5
22A58
330
20CC9
100
AcDbEntity
  8
DEFPOINTS
 62
     0
 48
50.0
100
AcDbPoint
 10
8675.690703446656
 20
2548.682158604657
 30
0.0
  0
POINT
  5
22A59
330
20CC9
100
AcDbEntity
  8
DEFPOINTS
 62
     0
 48
50.0
100
AcDbPoint
 10
8551.190700200022
 20
2548.682158604657
 30
0.0
  0
ENDBLK
  5
20CD4
330
20CC9
100
AcDbEntity
  8
0
 48
50.0
100
AcDbBlockEnd
  0
BLOCK
  5
20CEC
330
20CE1
100
AcDbEntity
  8
0
 48
50.0
100
AcDbBlockBegin
  2
*D18
 70
     1
 10
0.0
 20
0.0
 30
0.0
  3
*D18
  1

  0
LINE
  5
22A47
330
20CE1
100
AcDbEntity
  8
寸法
 62
     0
 48
50.0
370
    -2
100
AcDbLine
 10
8712.594989737757
 20
4722.97986567432
 30
0.0
 11
8096.660550632488
 21
4740.694015948649
 31
0.0
  0
LINE
  5
22A48
330
20CE1
100
AcDbEntity
  8
寸法
 62
     0
 48
50.0
370
    -2
100
AcDbLine
 10
8708.541534181133
 20
4582.038141908607
 30
0.0
 11
8092.607095075862
 21
4599.752292182936
 31
0.0
  0
LINE
  5
22A49
330
20CE1
100
AcDbEntity
  8
寸法
 62
     0
 48
50.0
370
    -2
100
AcDbLine
 10
8152.582296678293
 20
4598.027417477989
 30
0.0
 11
8156.635752234919
 21
4738.969141243702
 31
0.0
  0
LINE
  5
22A4A
330
20CE1
100
AcDbEntity
  8
寸法
 62
     0
 48
50.0
370
    -2
100
AcDbLine
 10
8156.635752234919
 20
4738.969141243702
 30
0.0
 11
8166.985000464604
 21
5098.820350858286
 31
0.0
  0
INSERT
  5
22A4B
330
20CE1
100
AcDbEntity
  8
寸法
 62
     0
 48
50.0
370
    -2
100
AcDbBlockReference
  2
_DOTSMALL
 10
8152.582296678293
 20
4598.027417477989
 30
0.0
 41
100.0
 42
100.0
 43
100.0
 50
268.3526390256378
  0
INSERT
  5
22A4C
330
20CE1
100
AcDbEntity
  8
寸法
 62
     0
 48
50.0
370
    -2
100
AcDbBlockReference
  2
_DOTSMALL
 10
8156.635752234919
 20
4738.969141243702
 30
0.0
 41
100.0
 42
100.0
 43
100.0
 50
88.35263902563776
  0
MTEXT
  5
22A4D
330
20CE1
100
AcDbEntity
  8
寸法
 62
     7
 48
50.0
100
AcDbMText
 10
8063.289102599831
 20
4971.748871894599
 30
0.0
 40
120.0
 41
0.0
 71
     5
 72
     1
  1
\A1;141
  7
STYLE1
 11
0.0287479117491237
 21
0.9995866933738488
 31
0.0
 73
     1
 44
1.0
1001
ACAD
1000
MTEXTBEGIN
1070
    73
1070
     1
1070
    44
1040
1.0
1070
    74
1070
     0
1000
MTEXTEND
  0
POINT
  5
22A4E
330
20CE1
100
AcDbEntity
  8
DEFPOINTS
 62
     0
 48
50.0
100
AcDbPoint
 10
8732.586723605235
 20
4722.404907439337
 30
0.0
  0
POINT
  5
22A4F
330
20CE1
100
AcDbEntity
  8
DEFPOINTS
 62
     0
 48
50.0
100
AcDbPoint
 10
8728.533268048611
 20
4581.463183673625
 30
0.0
  0
POINT
  5
22A50
330
20CE1
100
AcDbEntity
  8
DEFPOINTS
 62
     0
 48
50.0
100
AcDbPoint
 10
8152.582296678293
 20
4598.027417477989
 30
0.0
  0
ENDBLK
  5
20CED
330
20CE1
100
AcDbEntity
  8
0
 48
50.0
100
AcDbBlockEnd
  0
BLOCK
  5
20CF9
330
20CEE
100
AcDbEntity
  8
0
 48
50.0
100
AcDbBlockBegin
  2
*D19
 70
     1
 10
0.0
 20
0.0
 30
0.0
  3
*D19
  1

  0
LINE
  5
22A3D
330
20CEE
100
AcDbEntity
  8
寸法
 62
     0
 48
50.0
370
    -2
100
AcDbLine
 10
11403.19070344665
 20
4690.492838216311
 30
0.0
 11
11403.19070344665
 21
5182.339612183962
 31
0.0
  0
LINE
  5
22A3E
330
20CEE
100
AcDbEntity
  8
寸法
 62
     0
 48
50.0
370
    -2
100
AcDbLine
 10
11483.19070344665
 20
4688.682158604659
 30
0.0
 11
11483.19070344665
 21
5182.339612183962
 31
0.0
  0
LINE
  5
22A3F
330
20CEE
100
AcDbEntity
  8
寸法
 62
     0
 48
50.0
370
    -2
100
AcDbLine
 10
11403.19070344665
 20
5122.339612183963
 30
0.0
 11
11483.19070344665
 21
5122.339612183963
 31
0.0
  0
LINE
  5
22A40
330
20CEE
100
AcDbEntity
  8
寸法
 62
     0
 48
50.0
370
    -2
100
AcDbLine
 10
11483.19070344665
 20
5122.339612183963
 30
0.0
 11
11795.28519163563
 21
5122.339612183963
 31
0.0
  0
INSERT
  5
22A41
330
20CEE
100
AcDbEntity
  8
寸法
 62
     0
 48
50.0
370
    -2
100
AcDbBlockReference
  2
_DOTSMALL
 10
11403.19070344665
 20
5122.339612183963
 30
0.0
 41
100.0
 42
100.0
 43
100.0
 50
180.0
  0
INSERT
  5
22A42
330
20CEE
100
AcDbEntity
  8
寸法
 62
     0
 48
50.0
370
    -2
100
AcDbBlockReference
  2
_DOTSMALL
 10
11483.19070344665
 20
5122.339612183963
 30
0.0
 41
100.0
 42
100.0
 43
100.0
  0
MTEXT
  5
22A43
330
20CEE
100
AcDbEntity
  8
寸法
 62
     7
 48
50.0
100
AcDbMText
 10
11689.23794754114
 20
5222.339612183962
 30
0.0
 40
120.0
 41
0.0
 71
     5
 72
     1
  1
\A1;80
  7
STYLE1
 73
     1
 44
1.0
1001
ACAD
1000
MTEXTBEGIN
1070
    73
1070
     1
1070
    44
1040
1.0
1070
    74
1070
     0
1000
MTEXTEND
  0
POINT
  5
22A44
330
20CEE
100
AcDbEntity
  8
DEFPOINTS
 62
     0
 48
50.0
100
AcDbPoint
 10
11403.19070344665
 20
4670.492838216311
 30
0.0
  0
POINT
  5
22A45
330
20CEE
100
AcDbEntity
  8
DEFPOINTS
 62
     0
 48
50.0
100
AcDbPoint
 10
11483.19070344665
 20
4668.682158604659
 30
0.0
  0
POINT
  5
22A46
330
20CEE
100
AcDbEntity
  8
DEFPOINTS
 62
     0
 48
50.0
100
AcDbPoint
 10
11483.19070344665
 20
5122.339612183963
 30
0.0
  0
ENDBLK
  5
20CFA
330
20CEE
100
AcDbEntity
  8
0
 48
50.0
100
AcDbBlockEnd
  0
BLOCK
  5
20D39
330
20D2F
100
AcDbEntity
  8
0
 48
50.0
100
AcDbBlockBegin
  2
*D20
 70
     1
 10
0.0
 20
0.0
 30
0.0
  3
*D20
  1

  0
LINE
  5
22A34
330
20D2F
100
AcDbEntity
  8
寸法
 62
     0
 48
50.0
370
    -2
100
AcDbLine
 10
11483.19070344665
 20
4688.682158604659
 30
0.0
 11
11483.19070344665
 21
5402.55029891558
 31
0.0
  0
LINE
  5
22A35
330
20D2F
100
AcDbEntity
  8
寸法
 62
     0
 48
50.0
370
    -2
100
AcDbLine
 10
8713.190703446656
 20
4743.682158604662
 30
0.0
 11
8713.190703446656
 21
5402.55029891558
 31
0.0
  0
LINE
  5
22A36
330
20D2F
100
AcDbEntity
  8
寸法
 62
     0
 48
50.0
370
    -2
100
AcDbLine
 10
11483.19070344665
 20
5342.550298915579
 30
0.0
 11
8713.190703446656
 21
5342.550298915579
 31
0.0
  0
INSERT
  5
22A37
330
20D2F
100
AcDbEntity
  8
寸法
 62
     0
 48
50.0
370
    -2
100
AcDbBlockReference
  2
_DOTSMALL
 10
11483.19070344665
 20
5342.550298915579
 30
0.0
 41
100.0
 42
100.0
 43
100.0
  0
INSERT
  5
22A38
330
20D2F
100
AcDbEntity
  8
寸法
 62
     0
 48
50.0
370
    -2
100
AcDbBlockReference
  2
_DOTSMALL
 10
8713.190703446656
 20
5342.550298915579
 30
0.0
 41
100.0
 42
100.0
 43
100.0
 50
180.0
  0
MTEXT
  5
22A39
330
20D2F
100
AcDbEntity
  8
寸法
 62
     7
 48
50.0
100
AcDbMText
 10
10116.54962833403
 20
5442.562109939201
 30
0.0
 40
120.0
 41
0.0
 71
     5
 72
     1
  1
\A1;2770
  7
STYLE1
 73
     1
 44
1.0
1001
ACAD
1000
MTEXTBEGIN
1070
    73
1070
     1
1070
    44
1040
1.0
1070
    74
1070
     0
1000
MTEXTEND
  0
POINT
  5
22A3A
330
20D2F
100
AcDbEntity
  8
DEFPOINTS
 62
     0
 48
50.0
100
AcDbPoint
 10
11483.19070344665
 20
4668.682158604659
 30
0.0
  0
POINT
  5
22A3B
330
20D2F
100
AcDbEntity
  8
DEFPOINTS
 62
     0
 48
50.0
100
AcDbPoint
 10
8713.190703446656
 20
4723.682158604662
 30
0.0
  0
POINT
  5
22A3C
330
20D2F
100
AcDbEntity
  8
DEFPOINTS
 62
     0
 48
50.0
100
AcDbPoint
 10
8713.190703446656
 20
5342.550298915579
 30
0.0
  0
ENDBLK
  5
20D3A
330
20D2F
100
AcDbEntity
  8
0
 48
50.0
100
AcDbBlockEnd
  0
BLOCK
  5
20D47
330
20D3B
100
AcDbEntity
  8
0
 48
50.0
100
AcDbBlockBegin
  2
*D21
 70
     1
 10
0.0
 20
0.0
 30
0.0
  3
*D21
  1

  0
LINE
  5
22A29
330
20D3B
100
AcDbEntity
  8
寸法
 62
     0
 48
50.0
370
    -2
100
AcDbLine
 10
8773.190703446656
 20
4739.683776727633
 30
0.0
 11
8773.190703446656
 21
5182.339612183961
 31
0.0
  0
LINE
  5
22A2A
330
20D3B
100
AcDbEntity
  8
寸法
 62
     0
 48
50.0
370
    -2
100
AcDbLine
 10
8713.190703446656
 20
4743.682158604662
 30
0.0
 11
8713.190703446656
 21
5182.339612183961
 31
0.0
  0
LINE
  5
22A2B
330
20D3B
100
AcDbEntity
  8
寸法
 62
     0
 48
50.0
370
    -2
100
AcDbLine
 10
8773.190703446656
 20
5122.339612183961
 30
0.0
 11
8873.190703446658
 21
5122.339612183961
 31
0.0
  0
LINE
  5
22A2C
330
20D3B
100
AcDbEntity
  8
寸法
 62
     0
 48
50.0
370
    -2
100
AcDbLine
 10
8713.190703446656
 20
5122.339612183961
 30
0.0
 11
8293.915112895476
 21
5122.339612183961
 31
0.0
  0
LINE
  5
22A2D
330
20D3B
100
AcDbEntity
  8
寸法
 62
     0
 48
50.0
370
    -2
100
AcDbLine
 10
8773.190703446656
 20
5122.339612183961
 30
0.0
 11
8713.190703446656
 21
5122.339612183961
 31
0.0
  0
INSERT
  5
22A2E
330
20D3B
100
AcDbEntity
  8
寸法
 62
     0
 48
50.0
370
    -2
100
AcDbBlockReference
  2
_DOTSMALL
 10
8773.190703446656
 20
5122.339612183961
 30
0.0
 41
100.0
 42
100.0
 43
100.0
 50
180.0
  0
INSERT
  5
22A2F
330
20D3B
100
AcDbEntity
  8
寸法
 62
     0
 48
50.0
370
    -2
100
AcDbBlockReference
  2
_DOTSMALL
 10
8713.190703446656
 20
5122.339612183961
 30
0.0
 41
100.0
 42
100.0
 43
100.0
  0
MTEXT
  5
22A30
330
20D3B
100
AcDbEntity
  8
寸法
 62
     7
 48
50.0
100
AcDbMText
 10
8403.552908171066
 20
5222.339612183962
 30
0.0
 40
120.0
 41
0.0
 71
     5
 72
     1
  1
\A1;60
  7
STYLE1
 73
     1
 44
1.0
1001
ACAD
1000
MTEXTBEGIN
1070
    73
1070
     1
1070
    44
1040
1.0
1070
    74
1070
     0
1000
MTEXTEND
  0
POINT
  5
22A31
330
20D3B
100
AcDbEntity
  8
DEFPOINTS
 62
     0
 48
50.0
100
AcDbPoint
 10
8773.190703446656
 20
4719.683776727634
 30
0.0
  0
POINT
  5
22A32
330
20D3B
100
AcDbEntity
  8
DEFPOINTS
 62
     0
 48
50.0
100
AcDbPoint
 10
8713.190703446656
 20
4723.682158604662
 30
0.0
  0
POINT
  5
22A33
330
20D3B
100
AcDbEntity
  8
DEFPOINTS
 62
     0
 48
50.0
100
AcDbPoint
 10
8713.190703446656
 20
5122.339612183961
 30
0.0
  0
ENDBLK
  5
20D48
330
20D3B
100
AcDbEntity
  8
0
 48
50.0
100
AcDbBlockEnd
  0
BLOCK
  5
20D53
330
20D49
100
AcDbEntity
  8
0
 48
50.0
100
AcDbBlockBegin
  2
*D22
 70
     1
 10
0.0
 20
0.0
 30
0.0
  3
*D22
  1

  0
LINE
  5
22A20
330
20D49
100
AcDbEntity
  8
寸法
 62
     0
 48
50.0
370
    -2
100
AcDbLine
 10
11403.19070344665
 20
4690.492838216311
 30
0.0
 11
11403.19070344665
 21
5182.339612183962
 31
0.0
  0
LINE
  5
22A21
330
20D49
100
AcDbEntity
  8
寸法
 62
     0
 48
50.0
370
    -2
100
AcDbLine
 10
8773.190703446656
 20
4739.683776727633
 30
0.0
 11
8773.190703446656
 21
5182.339612183962
 31
0.0
  0
LINE
  5
22A22
330
20D49
100
AcDbEntity
  8
寸法
 62
     0
 48
50.0
370
    -2
100
AcDbLine
 10
11403.19070344665
 20
5122.339612183963
 30
0.0
 11
8773.190703446656
 21
5122.339612183963
 31
0.0
  0
INSERT
  5
22A23
330
20D49
100
AcDbEntity
  8
寸法
 62
     0
 48
50.0
370
    -2
100
AcDbBlockReference
  2
_DOTSMALL
 10
11403.19070344665
 20
5122.339612183963
 30
0.0
 41
100.0
 42
100.0
 43
100.0
  0
INSERT
  5
22A24
330
20D49
100
AcDbEntity
  8
寸法
 62
     0
 48
50.0
370
    -2
100
AcDbBlockReference
  2
_DOTSMALL
 10
8773.190703446656
 20
5122.339612183963
 30
0.0
 41
100.0
 42
100.0
 43
100.0
 50
180.0
  0
MTEXT
  5
22A25
330
20D49
100
AcDbEntity
  8
寸法
 62
     7
 48
50.0
100
AcDbMText
 10
10127.96089447585
 20
5222.351423207584
 30
0.0
 40
120.0
 41
0.0
 71
     5
 72
     1
  1
\A1;柱外寸法2630
  7
STYLE1
 73
     1
 44
1.0
1001
ACAD
1000
MTEXTBEGIN
1070
    73
1070
     1
1070
    44
1040
1.0
1070
    74
1070
     0
1000
MTEXTEND
  0
POINT
  5
22A26
330
20D49
100
AcDbEntity
  8
DEFPOINTS
 62
     0
 48
50.0
100
AcDbPoint
 10
11403.19070344665
 20
4670.492838216311
 30
0.0
  0
POINT
  5
22A27
330
20D49
100
AcDbEntity
  8
DEFPOINTS
 62
     0
 48
50.0
100
AcDbPoint
 10
8773.190703446656
 20
4719.683776727634
 30
0.0
  0
POINT
  5
22A28
330
20D49
100
AcDbEntity
  8
DEFPOINTS
 62
     0
 48
50.0
100
AcDbPoint
 10
8773.190703446656
 20
5122.339612183963
 30
0.0
  0
ENDBLK
  5
20D54
330
20D49
100
AcDbEntity
  8
0
 48
50.0
100
AcDbBlockEnd
  0
BLOCK
  5
20D5F
330
20D55
100
AcDbEntity
  8
0
 48
50.0
100
AcDbBlockBegin
  2
*D23
 70
     1
 10
0.0
 20
0.0
 30
0.0
  3
*D23
  1

  0
LINE
  5
22A17
330
20D55
100
AcDbEntity
  8
寸法
 62
     0
 48
50.0
370
    -2
100
AcDbLine
 10
11423.19070344666
 20
2648.682158604658
 30
0.0
 11
12168.11786141879
 21
2648.682158604658
 31
0.0
  0
LINE
  5
22A18
330
20D55
100
AcDbEntity
  8
寸法
 62
     0
 48
50.0
370
    -2
100
AcDbLine
 10
11503.19070344665
 20
4668.682158604659
 30
0.0
 11
12168.11786141879
 21
4668.682158604659
 31
0.0
  0
LINE
  5
22A19
330
20D55
100
AcDbEntity
  8
寸法
 62
     0
 48
50.0
370
    -2
100
AcDbLine
 10
12108.11786141879
 20
2648.682158604658
 30
0.0
 11
12108.11786141879
 21
4668.682158604659
 31
0.0
  0
INSERT
  5
22A1A
330
20D55
100
AcDbEntity
  8
寸法
 62
     0
 48
50.0
370
    -2
100
AcDbBlockReference
  2
_DOTSMALL
 10
12108.11786141879
 20
2648.682158604658
 30
0.0
 41
100.0
 42
100.0
 43
100.0
 50
270.0
  0
INSERT
  5
22A1B
330
20D55
100
AcDbEntity
  8
寸法
 62
     0
 48
50.0
370
    -2
100
AcDbBlockReference
  2
_DOTSMALL
 10
12108.11786141879
 20
4668.682158604659
 30
0.0
 41
100.0
 42
100.0
 43
100.0
 50
90.0
  0
MTEXT
  5
22A1C
330
20D55
100
AcDbEntity
  8
寸法
 62
     7
 48
50.0
100
AcDbMText
 10
12008.10605039516
 20
3658.682158604661
 30
0.0
 40
120.0
 41
0.0
 71
     5
 72
     1
  1
\A1;2020
  7
STYLE1
 11
0.0000000000000001
 21
1.0
 31
0.0
 73
     1
 44
1.0
1001
ACAD
1000
MTEXTBEGIN
1070
    73
1070
     1
1070
    44
1040
1.0
1070
    74
1070
     0
1000
MTEXTEND
  0
POINT
  5
22A1D
330
20D55
100
AcDbEntity
  8
DEFPOINTS
 62
     0
 48
50.0
100
AcDbPoint
 10
11403.19070344666
 20
2648.682158604658
 30
0.0
  0
POINT
  5
22A1E
330
20D55
100
AcDbEntity
  8
DEFPOINTS
 62
     0
 48
50.0
100
AcDbPoint
 10
11483.19070344665
 20
4668.682158604659
 30
0.0
  0
POINT
  5
22A1F
330
20D55
100
AcDbEntity
  8
DEFPOINTS
 62
     0
 48
50.0
100
AcDbPoint
 10
12108.11786141879
 20
4668.682158604659
 30
0.0
  0
ENDBLK
  5
20D60
330
20D55
100
AcDbEntity
  8
0
 48
50.0
100
AcDbBlockEnd
  0
BLOCK
  5
20D6D
330
20D61
100
AcDbEntity
  8
0
 48
50.0
100
AcDbBlockBegin
  2
*D24
 70
     1
 10
0.0
 20
0.0
 30
0.0
  3
*D24
  1

  0
LINE
  5
22A0C
330
20D61
100
AcDbEntity
  8
寸法
 62
     0
 48
50.0
370
    -2
100
AcDbLine
 10
8753.190703446657
 20
2698.682158604658
 30
0.0
 11
7869.440574263397
 21
2698.682158604658
 31
0.0
  0
LINE
  5
22A0D
330
20D61
100
AcDbEntity
  8
寸法
 62
     0
 48
50.0
370
    -2
100
AcDbLine
 10
8698.190703446657
 20
2648.682158604657
 30
0.0
 11
7869.440574263397
 21
2648.682158604657
 31
0.0
  0
LINE
  5
22A0E
330
20D61
100
AcDbEntity
  8
寸法
 62
     0
 48
50.0
370
    -2
100
AcDbLine
 10
7929.440574263399
 20
2698.682158604658
 30
0.0
 11
7929.440574263399
 21
2798.682158604658
 31
0.0
  0
LINE
  5
22A0F
330
20D61
100
AcDbEntity
  8
寸法
 62
     0
 48
50.0
370
    -2
100
AcDbLine
 10
7929.440574263399
 20
2648.682158604657
 30
0.0
 11
7929.440574263399
 21
2236.58767041568
 31
0.0
  0
LINE
  5
22A10
330
20D61
100
AcDbEntity
  8
寸法
 62
     0
 48
50.0
370
    -2
100
AcDbLine
 10
7929.440574263399
 20
2698.682158604658
 30
0.0
 11
7929.440574263399
 21
2648.682158604657
 31
0.0
  0
INSERT
  5
22A11
330
20D61
100
AcDbEntity
  8
寸法
 62
     0
 48
50.0
370
    -2
100
AcDbBlockReference
  2
_DOTSMALL
 10
7929.440574263399
 20
2698.682158604658
 30
0.0
 41
100.0
 42
100.0
 43
100.0
 50
270.0
  0
INSERT
  5
22A12
330
20D61
100
AcDbEntity
  8
寸法
 62
     0
 48
50.0
370
    -2
100
AcDbBlockReference
  2
_DOTSMALL
 10
7929.440574263399
 20
2648.682158604657
 30
0.0
 41
100.0
 42
100.0
 43
100.0
 50
90.0
  0
MTEXT
  5
22A13
330
20D61
100
AcDbEntity
  8
寸法
 62
     7
 48
50.0
100
AcDbMText
 10
7829.440574263397
 20
2342.63491451017
 30
0.0
 40
120.0
 41
0.0
 71
     5
 72
     1
  1
\A1;50
  7
STYLE1
 11
0.0000000000000001
 21
1.0
 31
0.0
 73
     1
 44
1.0
1001
ACAD
1000
MTEXTBEGIN
1070
    73
1070
     1
1070
    44
1040
1.0
1070
    74
1070
     0
1000
MTEXTEND
  0
POINT
  5
22A14
330
20D61
100
AcDbEntity
  8
DEFPOINTS
 62
     0
 48
50.0
100
AcDbPoint
 10
8773.190703446656
 20
2698.682158604658
 30
0.0
  0
POINT
  5
22A15
330
20D61
100
AcDbEntity
  8
DEFPOINTS
 62
     0
 48
50.0
100
AcDbPoint
 10
8718.190703446657
 20
2648.682158604657
 30
0.0
  0
POINT
  5
22A16
330
20D61
100
AcDbEntity
  8
DEFPOINTS
 62
     0
 48
50.0
100
AcDbPoint
 10
7929.440574263399
 20
2648.682158604657
 30
0.0
  0
ENDBLK
  5
20D6E
330
20D61
100
AcDbEntity
  8
0
 48
50.0
100
AcDbBlockEnd
  0
BLOCK
  5
20D7A
330
20D6F
100
AcDbEntity
  8
0
 48
50.0
100
AcDbBlockBegin
  2
*D25
 70
     1
 10
0.0
 20
0.0
 30
0.0
  3
*D25
  1

  0
LINE
  5
22A02
330
20D6F
100
AcDbEntity
  8
寸法
 62
     0
 48
50.0
370
    -2
100
AcDbLine
 10
8698.190703446657
 20
2648.682158604657
 30
0.0
 11
7569.440574263397
 21
2648.682158604657
 31
0.0
  0
LINE
  5
22A03
330
20D6F
100
AcDbEntity
  8
寸法
 62
     0
 48
50.0
370
    -2
100
AcDbLine
 10
7696.689627551525
 20
2548.682158604658
 30
0.0
 11
7569.440574263397
 21
2548.682158604658
 31
0.0
  0
LINE
  5
22A04
330
20D6F
100
AcDbEntity
  8
寸法
 62
     0
 48
50.0
370
    -2
100
AcDbLine
 10
7629.440574263398
 20
2648.682158604657
 30
0.0
 11
7629.440574263398
 21
2548.682158604658
 31
0.0
  0
LINE
  5
22A05
330
20D6F
100
AcDbEntity
  8
寸法
 62
     0
 48
50.0
370
    -2
100
AcDbLine
 10
7629.440574263398
 20
2548.682158604658
 30
0.0
 11
7629.440574263398
 21
2176.58767041568
 31
0.0
  0
INSERT
  5
22A06
330
20D6F
100
AcDbEntity
  8
寸法
 62
     0
 48
50.0
370
    -2
100
AcDbBlockReference
  2
_DOTSMALL
 10
7629.440574263398
 20
2648.682158604657
 30
0.0
 41
100.0
 42
100.0
 43
100.0
 50
90.0
  0
INSERT
  5
22A07
330
20D6F
100
AcDbEntity
  8
寸法
 62
     0
 48
50.0
370
    -2
100
AcDbBlockReference
  2
_DOTSMALL
 10
7629.440574263398
 20
2548.682158604658
 30
0.0
 41
100.0
 42
100.0
 43
100.0
 50
270.0
  0
MTEXT
  5
22A08
330
20D6F
100
AcDbEntity
  8
寸法
 62
     7
 48
50.0
100
AcDbMText
 10
7529.440574263396
 20
2312.634914510169
 30
0.0
 40
120.0
 41
0.0
 71
     5
 72
     1
  1
\A1;100
  7
STYLE1
 11
0.0000000000000001
 21
1.0
 31
0.0
 73
     1
 44
1.0
1001
ACAD
1000
MTEXTBEGIN
1070
    73
1070
     1
1070
    44
1040
1.0
1070
    74
1070
     0
1000
MTEXTEND
  0
POINT
  5
22A09
330
20D6F
100
AcDbEntity
  8
DEFPOINTS
 62
     0
 48
50.0
100
AcDbPoint
 10
8718.190703446657
 20
2648.682158604657
 30
0.0
  0
POINT
  5
22A0A
330
20D6F
100
AcDbEntity
  8
DEFPOINTS
 62
     0
 48
50.0
100
AcDbPoint
 10
7716.689627551524
 20
2548.682158604658
 30
0.0
  0
POINT
  5
22A0B
330
20D6F
100
AcDbEntity
  8
DEFPOINTS
 62
     0
 48
50.0
100
AcDbPoint
 10
7629.440574263398
 20
2548.682158604658
 30
0.0
  0
ENDBLK
  5
20D7B
330
20D6F
100
AcDbEntity
  8
0
 48
50.0
100
AcDbBlockEnd
  0
BLOCK
  5
20D86
330
20D7C
100
AcDbEntity
  8
0
 48
50.0
100
AcDbBlockBegin
  2
*D26
 70
     1
 10
0.0
 20
0.0
 30
0.0
  3
*D26
  1

  0
LINE
  5
229F9
330
20D7C
100
AcDbEntity
  8
寸法
 62
     0
 48
50.0
370
    -2
100
AcDbLine
 10
8753.190703446657
 20
2648.682158604657
 30
0.0
 11
7569.440574263397
 21
2648.682158604657
 31
0.0
  0
LINE
  5
229FA
330
20D7C
100
AcDbEntity
  8
寸法
 62
     0
 48
50.0
370
    -2
100
AcDbLine
 10
8693.190703446656
 20
4723.682158604662
 30
0.0
 11
7569.440574263397
 21
4723.682158604662
 31
0.0
  0
LINE
  5
229FB
330
20D7C
100
AcDbEntity
  8
寸法
 62
     0
 48
50.0
370
    -2
100
AcDbLine
 10
7629.440574263397
 20
2648.682158604657
 30
0.0
 11
7629.440574263397
 21
4723.682158604662
 31
0.0
  0
INSERT
  5
229FC
330
20D7C
100
AcDbEntity
  8
寸法
 62
     0
 48
50.0
370
    -2
100
AcDbBlockReference
  2
_DOTSMALL
 10
7629.440574263397
 20
2648.682158604657
 30
0.0
 41
100.0
 42
100.0
 43
100.0
 50
270.0
  0
INSERT
  5
229FD
330
20D7C
100
AcDbEntity
  8
寸法
 62
     0
 48
50.0
370
    -2
100
AcDbBlockReference
  2
_DOTSMALL
 10
7629.440574263397
 20
4723.682158604662
 30
0.0
 41
100.0
 42
100.0
 43
100.0
 50
90.0
  0
MTEXT
  5
229FE
330
20D7C
100
AcDbEntity
  8
寸法
 62
     7
 48
50.0
100
AcDbMText
 10
7529.428763239774
 20
3686.182158604661
 30
0.0
 40
120.0
 41
0.0
 71
     5
 72
     1
  1
\A1;2075
  7
STYLE1
 11
0.0000000000000001
 21
1.0
 31
0.0
 73
     1
 44
1.0
1001
ACAD
1000
MTEXTBEGIN
1070
    73
1070
     1
1070
    44
1040
1.0
1070
    74
1070
     0
1000
MTEXTEND
  0
POINT
  5
229FF
330
20D7C
100
AcDbEntity
  8
DEFPOINTS
 62
     0
 48
50.0
100
AcDbPoint
 10
8773.190703446656
 20
2648.682158604657
 30
0.0
  0
POINT
  5
22A00
330
20D7C
100
AcDbEntity
  8
DEFPOINTS
 62
     0
 48
50.0
100
AcDbPoint
 10
8713.190703446656
 20
4723.682158604662
 30
0.0
  0
POINT
  5
22A01
330
20D7C
100
AcDbEntity
  8
DEFPOINTS
 62
     0
 48
50.0
100
AcDbPoint
 10
7629.440574263397
 20
4723.682158604662
 30
0.0
  0
ENDBLK
  5
20D87
330
20D7C
100
AcDbEntity
  8
0
 48
50.0
100
AcDbBlockEnd
  0
BLOCK
  5
20D92
330
20D88
100
AcDbEntity
  8
0
 48
50.0
100
AcDbBlockBegin
  2
*D27
 70
     1
 10
0.0
 20
0.0
 30
0.0
  3
*D27
  1

  0
LINE
  5
229F0
330
20D88
100
AcDbEntity
  8
寸法
 62
     0
 48
50.0
370
    -2
100
AcDbLine
 10
8753.190703446657
 20
4488.682158604657
 30
0.0
 11
7869.440574263397
 21
4488.682158604657
 31
0.0
  0
LINE
  5
229F1
330
20D88
100
AcDbEntity
  8
寸法
 62
     0
 48
50.0
370
    -2
100
AcDbLine
 10
8753.190703446657
 20
2698.682158604658
 30
0.0
 11
7869.440574263397
 21
2698.682158604658
 31
0.0
  0
LINE
  5
229F2
330
20D88
100
AcDbEntity
  8
寸法
 62
     0
 48
50.0
370
    -2
100
AcDbLine
 10
7929.440574263397
 20
4488.682158604657
 30
0.0
 11
7929.440574263397
 21
2698.682158604658
 31
0.0
  0
INSERT
  5
229F3
330
20D88
100
AcDbEntity
  8
寸法
 62
     0
 48
50.0
370
    -2
100
AcDbBlockReference
  2
_DOTSMALL
 10
7929.440574263397
 20
4488.682158604657
 30
0.0
 41
100.0
 42
100.0
 43
100.0
 50
90.0
  0
INSERT
  5
229F4
330
20D88
100
AcDbEntity
  8
寸法
 62
     0
 48
50.0
370
    -2
100
AcDbBlockReference
  2
_DOTSMALL
 10
7929.440574263397
 20
2698.682158604658
 30
0.0
 41
100.0
 42
100.0
 43
100.0
 50
270.0
  0
MTEXT
  5
229F5
330
20D88
100
AcDbEntity
  8
寸法
 62
     7
 48
50.0
100
AcDbMText
 10
7829.440574263397
 20
3593.682158604659
 30
0.0
 40
120.0
 41
0.0
 71
     5
 72
     1
  1
\A1;1790
  7
STYLE1
 11
0.0000000000000001
 21
1.0
 31
0.0
 73
     1
 44
1.0
1001
ACAD
1000
MTEXTBEGIN
1070
    73
1070
     1
1070
    44
1040
1.0
1070
    74
1070
     0
1000
MTEXTEND
  0
POINT
  5
229F6
330
20D88
100
AcDbEntity
  8
DEFPOINTS
 62
     0
 48
50.0
100
AcDbPoint
 10
8773.190703446656
 20
4488.682158604657
 30
0.0
  0
POINT
  5
229F7
330
20D88
100
AcDbEntity
  8
DEFPOINTS
 62
     0
 48
50.0
100
AcDbPoint
 10
8773.190703446656
 20
2698.682158604658
 30
0.0
  0
POINT
  5
229F8
330
20D88
100
AcDbEntity
  8
DEFPOINTS
 62
     0
 48
50.0
100
AcDbPoint
 10
7929.440574263397
 20
2698.682158604658
 30
0.0
  0
ENDBLK
  5
20D93
330
20D88
100
AcDbEntity
  8
0
 48
50.0
100
AcDbBlockEnd
  0
BLOCK
  5
20D9E
330
20D94
100
AcDbEntity
  8
0
 48
50.0
100
AcDbBlockBegin
  2
*D28
 70
     1
 10
0.0
 20
0.0
 30
0.0
  3
*D28
  1

  0
LINE
  5
229E7
330
20D94
100
AcDbEntity
  8
寸法
 62
     0
 48
50.0
370
    -2
100
AcDbLine
 10
8753.190703446657
 20
4480.682158604657
 30
0.0
 11
8168.282062049403
 21
4480.682158604657
 31
0.0
  0
LINE
  5
229E8
330
20D94
100
AcDbEntity
  8
寸法
 62
     0
 48
50.0
370
    -2
100
AcDbLine
 10
8753.190703446657
 20
2710.682158604657
 30
0.0
 11
8168.282062049403
 21
2710.682158604657
 31
0.0
  0
LINE
  5
229E9
330
20D94
100
AcDbEntity
  8
寸法
 62
     0
 48
50.0
370
    -2
100
AcDbLine
 10
8228.282062049403
 20
4480.682158604657
 30
0.0
 11
8228.282062049402
 21
2710.682158604657
 31
0.0
  0
INSERT
  5
229EA
330
20D94
100
AcDbEntity
  8
寸法
 62
     0
 48
50.0
370
    -2
100
AcDbBlockReference
  2
_DOTSMALL
 10
8228.282062049403
 20
4480.682158604657
 30
0.0
 41
100.0
 42
100.0
 43
100.0
 50
90.0
  0
INSERT
  5
229EB
330
20D94
100
AcDbEntity
  8
寸法
 62
     0
 48
50.0
370
    -2
100
AcDbBlockReference
  2
_DOTSMALL
 10
8228.282062049402
 20
2710.682158604657
 30
0.0
 41
100.0
 42
100.0
 43
100.0
 50
270.0
  0
MTEXT
  5
229EC
330
20D94
100
AcDbEntity
  8
寸法
 62
     7
 48
50.0
100
AcDbMText
 10
8128.282062049402
 20
3595.682158604659
 30
0.0
 40
120.0
 41
0.0
 71
     5
 72
     1
  1
\A1;有効開口部高サ1770
  7
STYLE1
 11
0.0000000000000001
 21
1.0
 31
0.0
 73
     1
 44
1.0
1001
ACAD
1000
MTEXTBEGIN
1070
    73
1070
     1
1070
    44
1040
1.0
1070
    74
1070
     0
1000
MTEXTEND
  0
POINT
  5
229ED
330
20D94
100
AcDbEntity
  8
DEFPOINTS
 62
     0
 48
50.0
100
AcDbPoint
 10
8773.190703446656
 20
4480.682158604657
 30
0.0
  0
POINT
  5
229EE
330
20D94
100
AcDbEntity
  8
DEFPOINTS
 62
     0
 48
50.0
100
AcDbPoint
 10
8773.190703446656
 20
2710.682158604657
 30
0.0
  0
POINT
  5
229EF
330
20D94
100
AcDbEntity
  8
DEFPOINTS
 62
     0
 48
50.0
100
AcDbPoint
 10
8228.282062049402
 20
2710.682158604657
 30
0.0
  0
ENDBLK
  5
20D9F
330
20D94
100
AcDbEntity
  8
0
 48
50.0
100
AcDbBlockEnd
  0
BLOCK
  5
20F82
330
20F78
100
AcDbEntity
  8
0
 48
50.0
100
AcDbBlockBegin
  2
*D29
 70
     1
 10
0.0
 20
0.0
 30
0.0
  3
*D29
  1

  0
LINE
  5
22A9D
330
20F78
100
AcDbEntity
  8
寸法
 62
     0
 48
50.0
370
    -2
100
AcDbLine
 10
6824.393321639056
 20
9787.005618537389
 30
0.0
 11
7277.118555228678
 21
9665.698257803857
 31
0.0
  0
LINE
  5
22A9E
330
20F78
100
AcDbEntity
  8
寸法
 62
     0
 48
50.0
370
    -2
100
AcDbLine
 10
6824.393321639417
 20
8514.005618537382
 30
0.0
 11
7277.118555228678
 21
8392.698257803946
 31
0.0
  0
LINE
  5
22A9F
330
20F78
100
AcDbEntity
  8
寸法
 62
     0
 48
50.0
370
    -2
100
AcDbLine
 10
7217.118555228679
 20
9681.775209349723
 30
0.0
 11
7217.118555228679
 21
8408.775209349816
 31
0.0
  0
INSERT
  5
22AA0
330
20F78
100
AcDbEntity
  8
寸法
 62
     0
 48
50.0
370
    -2
100
AcDbBlockReference
  2
_DOTSMALL
 10
7217.118555228679
 20
9681.775209349723
 30
0.0
 41
100.0
 42
100.0
 43
100.0
 50
90.0
  0
INSERT
  5
22AA1
330
20F78
100
AcDbEntity
  8
寸法
 62
     0
 48
50.0
370
    -2
100
AcDbBlockReference
  2
_DOTSMALL
 10
7217.118555228679
 20
8408.775209349816
 30
0.0
 41
100.0
 42
100.0
 43
100.0
 50
270.0
  0
MTEXT
  5
22AA2
330
20F78
100
AcDbEntity
  8
寸法
 62
     7
 48
50.0
100
AcDbMText
 10
7117.106744205056
 20
9008.672272154639
 30
0.0
 40
120.0
 41
0.0
 71
     5
 72
     1
  1
\A1;1273
  7
STYLE1
 11
0.0000000000000001
 21
1.0
 31
0.0
 73
     1
 44
1.0
1001
ACAD
1000
MTEXTBEGIN
1070
    73
1070
     1
1070
    44
1040
1.0
1070
    74
1070
     0
1000
MTEXTEND
  0
POINT
  5
22AA3
330
20F78
100
AcDbEntity
  8
DEFPOINTS
 62
     0
 48
50.0
100
AcDbPoint
 10
6804.393321639055
 20
9792.364602386012
 30
0.0
  0
POINT
  5
22AA4
330
20F78
100
AcDbEntity
  8
DEFPOINTS
 62
     0
 48
50.0
100
AcDbPoint
 10
6804.393321639416
 20
8519.364602386003
 30
0.0
  0
POINT
  5
22AA5
330
20F78
100
AcDbEntity
  8
DEFPOINTS
 62
     0
 48
50.0
100
AcDbPoint
 10
7217.118555228679
 20
8408.775209349816
 30
0.0
  0
ENDBLK
  5
20F83
330
20F78
100
AcDbEntity
  8
0
 48
50.0
100
AcDbBlockEnd
  0
BLOCK
  5
20F9D
330
20F93
100
AcDbEntity
  8
0
 48
50.0
100
AcDbBlockBegin
  2
*D30
 70
     1
 10
0.0
 20
0.0
 30
0.0
  3
*D30
  1

  0
LINE
  5
22A94
330
20F93
100
AcDbEntity
  8
寸法
 62
     0
 48
50.0
370
    -2
100
AcDbLine
 10
6824.393321639174
 20
8479.255618537374
 30
0.0
 11
7276.520932592831
 21
8358.108390306528
 31
0.0
  0
LINE
  5
22A95
330
20F93
100
AcDbEntity
  8
寸法
 62
     0
 48
50.0
370
    -2
100
AcDbLine
 10
6824.393321639298
 20
7263.25561853737
 30
0.0
 11
7276.520932592831
 21
7142.108390306558
 31
0.0
  0
LINE
  5
22A96
330
20F93
100
AcDbEntity
  8
寸法
 62
     0
 48
50.0
370
    -2
100
AcDbLine
 10
7216.520932592832
 20
8374.185341852395
 30
0.0
 11
7216.520932592832
 21
7158.185341852425
 31
0.0
  0
INSERT
  5
22A97
330
20F93
100
AcDbEntity
  8
寸法
 62
     0
 48
50.0
370
    -2
100
AcDbBlockReference
  2
_DOTSMALL
 10
7216.520932592832
 20
8374.185341852395
 30
0.0
 41
100.0
 42
100.0
 43
100.0
 50
90.0
  0
INSERT
  5
22A98
330
20F93
100
AcDbEntity
  8
寸法
 62
     0
 48
50.0
370
    -2
100
AcDbBlockReference
  2
_DOTSMALL
 10
7216.520932592832
 20
7158.185341852425
 30
0.0
 41
100.0
 42
100.0
 43
100.0
 50
270.0
  0
MTEXT
  5
22A99
330
20F93
100
AcDbEntity
  8
寸法
 62
     7
 48
50.0
100
AcDbMText
 10
7116.509121569208
 20
7808.284203961149
 30
0.0
 40
120.0
 41
0.0
 71
     5
 72
     1
  1
\A1;1216
  7
STYLE1
 11
0.0000000000000001
 21
1.0
 31
0.0
 73
     1
 44
1.0
1001
ACAD
1000
MTEXTBEGIN
1070
    73
1070
     1
1070
    44
1040
1.0
1070
    74
1070
     0
1000
MTEXTEND
  0
POINT
  5
22A9A
330
20F93
100
AcDbEntity
  8
DEFPOINTS
 62
     0
 48
50.0
100
AcDbPoint
 10
6804.393321639174
 20
8484.614602385997
 30
0.0
  0
POINT
  5
22A9B
330
20F93
100
AcDbEntity
  8
DEFPOINTS
 62
     0
 48
50.0
100
AcDbPoint
 10
6804.393321639299
 20
7268.614602385993
 30
0.0
  0
POINT
  5
22A9C
330
20F93
100
AcDbEntity
  8
DEFPOINTS
 62
     0
 48
50.0
100
AcDbPoint
 10
7216.520932592832
 20
7158.185341852425
 30
0.0
  0
ENDBLK
  5
20F9E
330
20F93
100
AcDbEntity
  8
0
 48
50.0
100
AcDbBlockEnd
  0
ENDSEC
  0
SECTION
  2
ENTITIES
  0
LINE
  5
10B57
330
747D
100
AcDbEntity
  8
補助
  6
PHANTOM
 62
   230
 48
50.0
100
AcDbLine
 10
139.9999999999995
 20
11409.6
 30
0.0
 11
16307.2
 21
11409.6
 31
0.0
  0
LINE
  5
10B59
330
747D
100
AcDbEntity
  8
仕様書枠
  6
Continuous
 48
50.0
100
AcDbLine
 10
13107.2
 20
1200.0
 30
0.0
 11
13107.2
 21
-0.0000000000000729
 31
0.0
  0
LINE
  5
10B5C
330
747D
100
AcDbEntity
  8
仕様書枠
 48
50.0
100
AcDbLine
 10
16307.2
 20
1200.0
 30
0.0
 11
16307.2
 21
-0.0000000000000909
 31
0.0
  0
LINE
  5
10B5D
330
747D
100
AcDbEntity
  8
仕様書枠
 48
50.0
100
AcDbLine
 10
140.0
 20
0.0
 30
0.0
 11
16307.2
 21
-0.0000000000000909
 31
0.0
  0
LINE
  5
10B5E
330
747D
100
AcDbEntity
  8
補助
  6
PHANTOM
 62
   230
 48
50.0
100
AcDbLine
 10
16307.2
 20
11409.6
 30
0.0
 11
16307.2
 21
1200.0
 31
0.0
  0
LINE
  5
10B6C
330
747D
100
AcDbEntity
  8
仕様書枠
 48
50.0
100
AcDbLine
 10
13107.2
 20
1200.0
 30
0.0
 11
16307.2
 21
1200.0
 31
0.0
  0
LINE
  5
10B6D
330
747D
100
AcDbEntity
  8
補助
  6
PHANTOM
 62
   230
 48
50.0
100
AcDbLine
 10
13107.2
 20
11409.6
 30
0.0
 11
13107.2
 21
4800.0
 31
0.0
  0
LINE
  5
10B6F
330
747D
100
AcDbEntity
  8
補助
  6
PHANTOM
 62
   230
 48
50.0
100
AcDbLine
 10
13107.2
 20
4800.0
 30
0.0
 11
16307.2
 21
4800.0
 31
0.0
  0
LINE
  5
10B72
330
747D
100
AcDbEntity
  8
文字
 62
     7
 48
50.0
100
AcDbLine
 10
13187.2
 20
400.0
 30
0.0
 11
16227.2
 21
400.0
 31
0.0
  0
TEXT
  5
10B73
330
747D
100
AcDbEntity
  8
文字
 62
     7
 48
50.0
100
AcDbText
 10
13162.9790565769
 20
895.0906074299405
 30
0.0
 40
200.0
  1
外 形 図
  7
STYLE2
100
AcDbText
  0
TEXT
  5
10B74
330
747D
100
AcDbEntity
  8
文字
 62
     7
 48
50.0
100
AcDbText
 10
13201.43669998441
 20
477.2740661031255
 30
0.0
 40
160.0
  1
機種名
  7
STYLE2
100
AcDbText
  0
LINE
  5
10B7B
330
747D
100
AcDbEntity
  8
仕様書枠
 48
50.0
100
AcDbLine
 10
13107.2
 20
800.0
 30
0.0
 11
14251.2
 21
800.0
 31
0.0
  0
LINE
  5
10B88
330
747D
100
AcDbEntity
  8
仕様書枠
  6
Continuous
 48
50.0
100
AcDbLine
 10
14251.2
 20
1200.0
 30
0.0
 11
14251.2
 21
800.0
 31
0.0
  0
LINE
  5
12765
330
747D
100
AcDbEntity
  8
Ｇ．Ｌ
100
AcDbLine
 10
4235.933520702005
 20
2548.682158604658
 30
0.0
 11
12072.90298731772
 21
2548.682158604658
 31
0.0
  0
TEXT
  5
127AA
330
747D
100
AcDbEntity
  8
部品1
100
AcDbText
 10
4437.041993698768
 20
2562.635886643882
 30
0.0
 40
125.0
  1
▽G.L
  7
STYLE2
100
AcDbText
  0
LINE
  5
13BE8
330
747D
100
AcDbEntity
  8
部品1
100
AcDbLine
 10
5467.393321639176
 20
2648.682158604657
 30
0.0
 11
6837.393321639175
 21
2648.682158604657
 31
0.0
  0
LINE
  5
13BE9
330
747D
100
AcDbEntity
  8
部品1
100
AcDbLine
 10
5467.393321639177
 20
4488.682158604657
 30
0.0
 11
6837.393321639175
 21
4488.682158604657
 31
0.0
  0
LINE
  5
13BEF
330
747D
100
AcDbEntity
  8
部品1
100
AcDbLine
 10
5527.393321639175
 20
2697.682158604661
 30
0.0
 11
5978.393321639176
 21
2697.682158604664
 31
0.0
  0
DIMENSION
  5
13BF0
330
747D
100
AcDbEntity
  8
寸法
 48
50.0
100
AcDbDimension
  2
*D1
 10
6887.393321639175
 20
5129.317351550657
 30
0.0
 11
6125.466334290715
 21
5129.317351550657
 31
0.0
 70
   160
 71
     5
 42
1469.999999999998
  3
INABA_S40G
100
AcDbAlignedDimension
 13
5417.393321639176
 23
4723.682158604662
 33
0.0
 14
6887.393321639175
 24
4723.68215860466
 34
0.0
100
AcDbRotatedDimension
  0
LINE
  5
13C1F
330
747D
100
AcDbEntity
  8
部品1
100
AcDbLine
 10
5467.393321639176
 20
4582.682158604661
 30
0.0
 11
5467.393321639175
 21
2548.682158604658
 31
0.0
  0
LINE
  5
13CFC
330
747D
100
AcDbEntity
  8
部品1
100
AcDbLine
 10
6777.393321639173
 20
4488.682158604657
 30
0.0
 11
6777.393321639173
 21
2690.682158604677
 31
0.0
  0
LINE
  5
13CFE
330
747D
100
AcDbEntity
  8
部品1
100
AcDbLine
 10
5527.393321639175
 20
4488.682158604657
 30
0.0
 11
5527.393321639175
 21
2690.682158604661
 31
0.0
  0
LINE
  5
13D18
330
747D
100
AcDbEntity
  8
部品1
100
AcDbLine
 10
6837.393321639175
 20
4582.682158604661
 30
0.0
 11
6837.393321639175
 21
2548.682158604658
 31
0.0
  0
LINE
  5
13E0C
330
747D
100
AcDbEntity
  8
部品1
100
AcDbLine
 10
6437.393321639174
 20
2648.682158604657
 30
0.0
 11
6437.393321639174
 21
2548.682158604658
 31
0.0
  0
DIMENSION
  5
141C3
330
747D
100
AcDbEntity
  8
寸法
 48
50.0
100
AcDbDimension
  2
*D2
 10
6837.393321639175
 20
4929.408430336567
 30
0.0
 11
7200.878603013413
 21
4929.408430336567
 31
0.0
 70
   160
 71
     5
 42
49.99999999999909
  3
INABA_S40G
100
AcDbAlignedDimension
 13
6887.393321639175
 23
4723.68215860466
 33
0.0
 14
6837.393321639175
 24
4723.682158604662
 34
0.0
100
AcDbRotatedDimension
  0
DIMENSION
  5
14206
330
747D
100
AcDbEntity
  8
寸法
 48
50.0
100
AcDbDimension
  2
*D3
 10
5417.393321639176
 20
4929.408430336567
 30
0.0
 11
5103.908040264929
 21
4929.408430336567
 31
0.0
 70
   160
 71
     5
 42
49.99999999999909
  3
INABA_S40G
100
AcDbAlignedDimension
 13
5467.393321639175
 23
4723.682158604663
 33
0.0
 14
5417.393321639176
 24
4723.682158604662
 34
0.0
100
AcDbRotatedDimension
1001
ACAD
1000
DSTYLE
1002
{
1002
}
  0
LINE
  5
1426B
330
747D
100
AcDbEntity
  8
部品1
 48
50.0
100
AcDbLine
 10
5842.393321639175
 20
2648.682158604657
 30
0.0
 11
5842.393321639175
 21
2548.682158604658
 31
0.0
  0
LINE
  5
1427D
330
747D
100
AcDbEntity
  8
部品1
100
AcDbLine
 10
5978.393321639175
 20
2705.18215860467
 30
0.0
 11
6777.393321639173
 21
2705.182158604678
 31
0.0
  0
LINE
  5
14517
330
747D
100
AcDbEntity
  8
部品1
100
AcDbLine
 10
6842.393321639175
 20
2693.682158604658
 30
0.0
 11
6842.393321639175
 21
2548.682158604658
 31
0.0
  0
LINE
  5
1451B
330
747D
100
AcDbEntity
  8
破線
 48
5.0
100
AcDbLine
 10
6862.393321639174
 20
2393.682158604657
 30
0.0
 11
6842.393321639173
 21
2393.682158604657
 31
0.0
  0
LINE
  5
1451C
330
747D
100
AcDbEntity
  8
部品1
100
AcDbLine
 10
5462.393321639176
 20
2693.682158604659
 30
0.0
 11
5462.393321639176
 21
2548.682158604658
 31
0.0
  0
LINE
  5
1451F
330
747D
100
AcDbEntity
  8
破線
 48
5.0
100
AcDbLine
 10
5442.393321639175
 20
2393.682158604658
 30
0.0
 11
5462.393321639177
 21
2393.682158604658
 31
0.0
  0
DIMENSION
  5
14521
330
747D
100
AcDbEntity
  8
寸法
100
AcDbDimension
  2
*D4
 10
5522.393321639187
 20
10304.03407484449
 30
0.0
 11
5158.908040264915
 21
10304.03407484449
 31
0.0
 70
   160
 71
     5
 42
55.00000000003456
  3
INABA_S40G
100
AcDbAlignedDimension
 13
5467.393321639153
 23
9821.114602385939
 33
0.0
 14
5522.393321639187
 24
9821.114602385939
 34
0.0
100
AcDbRotatedDimension
1001
ACAD
1000
DSTYLE
1002
{
1002
}
  0
LINE
  5
14522
330
747D
100
AcDbEntity
  8
部品1
100
AcDbLine
 10
5522.393321639152
 20
9821.114602385906
 30
0.0
 11
5522.393321639154
 21
9793.114602385905
 31
0.0
  0
LINE
  5
14523
330
747D
100
AcDbEntity
  8
部品1
100
AcDbLine
 10
5467.393321639148
 20
9821.114602385907
 30
0.0
 11
5467.39332163922
 21
7191.114602385901
 31
0.0
  0
LINE
  5
14524
330
747D
100
AcDbEntity
  8
部品1
100
AcDbLine
 10
6782.393321639154
 20
9821.114602385977
 30
0.0
 11
6782.393321639154
 21
9793.114602385976
 31
0.0
  0
LINE
  5
14525
330
747D
100
AcDbEntity
  8
部品1
100
AcDbLine
 10
6782.393321639154
 20
9821.114602385996
 30
0.0
 11
6782.393321639154
 21
9793.114602385998
 31
0.0
  0
DIMENSION
  5
14526
330
747D
100
AcDbEntity
  8
寸法
100
AcDbDimension
  2
*D5
 10
7770.716923425644
 20
7191.11460238594
 30
0.0
 11
7770.716923425644
 21
8521.832200251301
 31
0.0
 70
   160
 71
     5
 42
2630.000000000038
  3
INABA_S40G
100
AcDbAlignedDimension
 13
6837.393321639215
 23
9821.114602385978
 33
0.0
 14
6837.393321639168
 24
7191.11460238594
 34
0.0
 50
90.0
100
AcDbRotatedDimension
1001
ACAD
1000
DSTYLE
1002
{
1002
}
  0
LINE
  5
14527
330
747D
100
AcDbEntity
  8
部品1
100
AcDbLine
 10
6837.393321639215
 20
9821.114602385978
 30
0.0
 11
6837.393321639145
 21
7191.114602385974
 31
0.0
  0
LINE
  5
14528
330
747D
100
AcDbEntity
  8
部品1
100
AcDbLine
 10
6362.393321639153
 20
9821.114602385996
 30
0.0
 11
6362.393321639153
 21
9793.114602385998
 31
0.0
  0
LINE
  5
1452D
330
747D
100
AcDbEntity
  8
部品1
100
AcDbLine
 10
5522.393321639187
 20
9821.114602385939
 30
0.0
 11
5522.393321639187
 21
9793.114602385939
 31
0.0
  0
DIMENSION
  5
1452E
330
747D
100
AcDbEntity
  8
寸法
100
AcDbDimension
  2
*D6
 10
7484.819667373564
 20
9766.114602385981
 30
0.0
 11
7484.819667373563
 21
10129.59988376021
 31
0.0
 70
   160
 71
     5
 42
54.99999999999636
  3
INABA_S40G
100
AcDbAlignedDimension
 13
6837.393321639154
 23
9821.114602385977
 33
0.0
 14
6837.393321639154
 24
9766.114602385981
 34
0.0
 50
90.0
100
AcDbRotatedDimension
1001
ACAD
1000
DSTYLE
1002
{
1002
}
  0
DIMENSION
  5
14530
330
747D
100
AcDbEntity
  8
寸法
100
AcDbDimension
  2
*D7
 10
7484.81966737358
 20
7191.114602385974
 30
0.0
 11
7484.819667373577
 21
6813.253135481113
 31
0.0
 70
   160
 71
     5
 42
54.99999999999636
  3
INABA_S40G
100
AcDbAlignedDimension
 13
6837.393321639168
 23
7246.114602385971
 33
0.0
 14
6837.393321639168
 24
7191.114602385974
 34
0.0
 50
90.0
100
AcDbRotatedDimension
1001
ACAD
1000
DSTYLE
1002
{
1002
}
  0
DIMENSION
  5
14531
330
747D
100
AcDbEntity
  8
寸法
100
AcDbDimension
  2
*D8
 10
7484.819667373568
 20
7246.114602385971
 30
0.0
 11
7484.819667373567
 21
8506.114602385975
 31
0.0
 70
   160
  1
6X420=<>
 71
     5
 42
2520.000000000009
  3
INABA_S40G
100
AcDbAlignedDimension
 13
6837.393321639154
 23
9766.114602385981
 33
0.0
 14
6837.393321639146
 24
7246.114602385971
 34
0.0
 50
90.0
100
AcDbRotatedDimension
1001
ACAD
1000
DSTYLE
1002
{
1002
}
  0
DIMENSION
  5
14532
330
747D
100
AcDbEntity
  8
寸法
100
AcDbDimension
  2
*D9
 10
6837.393321639168
 20
6372.204705580319
 30
0.0
 11
6155.958503277577
 21
6372.204705580319
 31
0.0
 70
   160
 71
     5
 42
1369.999999999947
  3
INABA_S40G
100
AcDbAlignedDimension
 13
5467.393321639221
 23
7191.114602385903
 33
0.0
 14
6837.393321639168
 24
7191.11460238594
 34
0.0
100
AcDbRotatedDimension
1001
ACAD
1000
DSTYLE
1002
{
1002
}
  0
DIMENSION
  5
14533
330
747D
100
AcDbEntity
  8
寸法
100
AcDbDimension
  2
*D10
 10
5527.393321639221
 20
6631.555196617485
 30
0.0
 11
5870.393321639221
 21
6631.555196617485
 31
0.0
 70
   160
  1
有効開口部間口\P<>
 71
     5
 42
686.0
  3
INABA_S40G
100
AcDbAlignedDimension
 13
6213.39332163922
 23
7191.114602385976
 33
0.0
 14
5527.393321639221
 24
7191.1146023859
 34
0.0
100
AcDbRotatedDimension
1001
ACAD
1000
DSTYLE
1002
{
1002
}
  0
LWPOLYLINE
  5
14534
330
747D
100
AcDbEntity
  8
部品1
100
AcDbPolyline
 90
        4
 70
     1
 43
0.0
 10
5770.65798852499
 20
6256.028584372074
 10
5770.65798852499
 20
6016.136262826542
 10
6534.12865475343
 20
6016.136262826542
 10
6534.12865475343
 20
6256.028584372074
  0
TEXT
  5
14535
330
747D
100
AcDbEntity
  8
部品1
100
AcDbText
 10
5860.577598354028
 20
6063.135055153551
 30
0.0
 40
135.0
  1
平面図
  7
STYLE2
100
AcDbText
  0
LINE
  5
14538
330
747D
100
AcDbEntity
  8
部品1
100
AcDbLine
 10
6354.393321639409
 20
7293.114602385952
 30
0.0
 11
5495.393321639205
 21
7293.114602385903
 31
0.0
  0
LINE
  5
1453A
330
747D
100
AcDbEntity
  8
細線
100
AcDbLine
 10
6384.393321639222
 20
7228.114602386032
 30
0.0
 11
6265.893321639219
 21
7228.114602386032
 31
0.0
  0
LINE
  5
1453B
330
747D
100
AcDbEntity
  8
細線
100
AcDbLine
 10
6369.393321639216
 20
7251.114602386057
 30
0.0
 11
5952.393321639218
 21
7251.114602386092
 31
0.0
  0
LINE
  5
1453C
330
747D
100
AcDbEntity
  8
細線
 48
50.0
100
AcDbLine
 10
6777.393321639168
 20
7207.114602385975
 30
0.0
 11
5978.393321639221
 21
7207.114602385975
 31
0.0
  0
LINE
  5
14544
330
747D
100
AcDbEntity
  8
部品1
100
AcDbLine
 10
6837.393321639168
 20
7191.114602385974
 30
0.0
 11
5467.393321639221
 21
7191.114602385903
 31
0.0
  0
LINE
  5
14546
330
747D
100
AcDbEntity
  8
部品1
100
AcDbLine
 10
5495.393321639179
 20
7246.114602385914
 30
0.0
 11
5495.39332163925
 21
9793.114602386005
 31
0.0
  0
LINE
  5
14547
330
747D
100
AcDbEntity
  8
細線
 48
50.0
100
AcDbLine
 10
5937.393321639217
 20
7241.114602385984
 30
0.0
 11
5527.393321639217
 21
7241.114602385916
 31
0.0
  0
LINE
  5
14548
330
747D
100
AcDbEntity
  8
細線
100
AcDbLine
 10
5978.393321639219
 20
7194.114602385949
 30
0.0
 11
5878.393321639212
 21
7194.114602385934
 31
0.0
  0
LINE
  5
14549
330
747D
100
AcDbEntity
  8
細線
100
AcDbLine
 10
5963.393321639221
 20
7217.11460238601
 30
0.0
 11
5542.393321639218
 21
7217.114602385947
 31
0.0
  0
LINE
  5
1454A
330
747D
100
AcDbEntity
  8
部品1
100
AcDbLine
 10
5518.39332163922
 20
7191.114602385901
 30
0.0
 11
5467.393321639221
 21
7191.114602385901
 31
0.0
  0
LINE
  5
1454B
330
747D
100
AcDbEntity
  8
部品1
100
AcDbLine
 10
5495.393321639202
 20
7246.114602385866
 30
0.0
 11
5467.393321639218
 21
7246.114602385866
 31
0.0
  0
LINE
  5
1454C
330
747D
100
AcDbEntity
  8
部品1
100
AcDbLine
 10
5495.393321639202
 20
7246.1146023859
 30
0.0
 11
5467.393321639218
 21
7246.1146023859
 31
0.0
  0
LINE
  5
1454D
330
747D
100
AcDbEntity
  8
部品1
100
AcDbLine
 10
5495.393321639219
 20
7246.114602385914
 30
0.0
 11
5467.393321639218
 21
7246.114602385914
 31
0.0
  0
LINE
  5
1454E
330
747D
100
AcDbEntity
  8
部品1
100
AcDbLine
 10
5467.393321639218
 20
7246.114602385866
 30
0.0
 11
5467.393321639221
 21
7191.114602385868
 31
0.0
  0
LINE
  5
1454F
330
747D
100
AcDbEntity
  8
部品1
100
AcDbLine
 10
5527.393321639217
 20
7246.114602385863
 30
0.0
 11
5499.393321639217
 21
7246.114602385863
 31
0.0
  0
LINE
  5
14550
330
747D
100
AcDbEntity
  8
部品1
100
AcDbLine
 10
5518.39332163922
 20
7191.114602385866
 30
0.0
 11
5518.393321639219
 21
7198.114602385903
 31
0.0
  0
LINE
  5
14551
330
747D
100
AcDbEntity
  8
部品1
100
AcDbLine
 10
5527.393321639219
 20
7198.114602385899
 30
0.0
 11
5518.393321639219
 21
7198.114602385903
 31
0.0
  0
LINE
  5
14552
330
747D
100
AcDbEntity
  8
部品1
100
AcDbLine
 10
5527.393321639219
 20
7198.114602385899
 30
0.0
 11
5527.393321639217
 21
7246.114602385866
 31
0.0
  0
LINE
  5
14553
330
747D
100
AcDbEntity
  8
細線
100
AcDbLine
 10
5542.393321639218
 20
7224.114602385947
 30
0.0
 11
5542.393321639218
 21
7217.114602385947
 31
0.0
  0
LINE
  5
14554
330
747D
100
AcDbEntity
  8
細線
100
AcDbLine
 10
5542.393321639218
 20
7224.114602385947
 30
0.0
 11
5527.393321639218
 21
7224.114602385947
 31
0.0
  0
LINE
  5
1455F
330
747D
100
AcDbEntity
  8
部品1
100
AcDbLine
 10
5495.393321639189
 20
8506.114602385904
 30
0.0
 11
5467.39332163919
 21
8506.114602385904
 31
0.0
  0
LINE
  5
14560
330
747D
100
AcDbEntity
  8
部品1
100
AcDbLine
 10
5495.393321639154
 20
9766.11460238591
 30
0.0
 11
5467.393321639154
 21
9766.11460238591
 31
0.0
  0
LINE
  5
14562
330
747D
100
AcDbEntity
  8
部品1
100
AcDbLine
 10
6809.393321639216
 20
9793.114602385976
 30
0.0
 11
6809.393321639146
 21
7246.114602385986
 31
0.0
  0
LINE
  5
14563
330
747D
100
AcDbEntity
  8
細線
100
AcDbLine
 10
6775.393321639168
 20
7264.114602385972
 30
0.0
 11
6681.893321639235
 21
7264.114602385976
 31
0.0
  0
LINE
  5
14564
330
747D
100
AcDbEntity
  8
細線
 48
50.0
100
AcDbLine
 10
6777.393321639168
 20
7241.114602385978
 30
0.0
 11
6384.393321639225
 21
7241.114602385978
 31
0.0
  0
LINE
  5
14565
330
747D
100
AcDbEntity
  8
細線
100
AcDbLine
 10
6354.393321639409
 20
7292.114602385973
 30
0.0
 11
6343.393321639222
 21
7292.114602385973
 31
0.0
  0
LINE
  5
14566
330
747D
100
AcDbEntity
  8
細線
100
AcDbLine
 10
6363.393321639223
 20
7256.114602386031
 30
0.0
 11
6363.393321639223
 21
7264.114602386031
 31
0.0
  0
LINE
  5
14567
330
747D
100
AcDbEntity
  8
細線
100
AcDbLine
 10
6363.393321639223
 20
7256.114602386031
 30
0.0
 11
6343.393321639222
 21
7256.114602386031
 31
0.0
  0
LINE
  5
14568
330
747D
100
AcDbEntity
  8
細線
100
AcDbLine
 10
6343.393321639222
 20
7256.114602386031
 30
0.0
 11
6343.393321639222
 21
7292.114602386027
 31
0.0
  0
LINE
  5
14569
330
747D
100
AcDbEntity
  8
細線
100
AcDbLine
 10
6384.393321639222
 20
7228.114602386032
 30
0.0
 11
6384.393321639229
 21
7258.114602386029
 31
0.0
  0
LINE
  5
1456A
330
747D
100
AcDbEntity
  8
部品1
100
AcDbLine
 10
6837.393321639168
 20
7191.114602385974
 30
0.0
 11
6786.393321639168
 21
7191.114602385974
 31
0.0
  0
LINE
  5
1456B
330
747D
100
AcDbEntity
  8
部品1
100
AcDbLine
 10
6837.39332163917
 20
7246.114602385971
 30
0.0
 11
6837.393321639168
 21
7191.114602385974
 31
0.0
  0
LINE
  5
1456C
330
747D
100
AcDbEntity
  8
部品1
100
AcDbLine
 10
6809.39332163917
 20
7246.114602385971
 30
0.0
 11
6837.393321639168
 21
7246.114602385971
 31
0.0
  0
LINE
  5
1456E
330
747D
100
AcDbEntity
  8
部品1
100
AcDbLine
 10
6777.393321639168
 20
7246.114602385971
 30
0.0
 11
6809.39332163917
 21
7246.114602385971
 31
0.0
  0
LINE
  5
1456F
330
747D
100
AcDbEntity
  8
細線
100
AcDbLine
 10
6775.393321639168
 20
7246.114602385971
 30
0.0
 11
6775.393321639168
 21
7264.114602385972
 31
0.0
  0
LINE
  5
14570
330
747D
100
AcDbEntity
  8
部品1
100
AcDbLine
 10
6786.393321639168
 20
7191.114602385972
 30
0.0
 11
6786.393321639168
 21
7198.114602385975
 31
0.0
  0
LINE
  5
14571
330
747D
100
AcDbEntity
  8
部品1
100
AcDbLine
 10
6786.393321639168
 20
7198.114602385975
 30
0.0
 11
6777.393321639168
 21
7198.114602385975
 31
0.0
  0
LINE
  5
14572
330
747D
100
AcDbEntity
  8
部品1
100
AcDbLine
 10
6777.393321639168
 20
7198.114602385975
 30
0.0
 11
6777.393321639168
 21
7246.114602385971
 31
0.0
  0
LINE
  5
14573
330
747D
100
AcDbEntity
  8
部品1
100
AcDbLine
 10
6809.3933216392
 20
7246.114602385988
 30
0.0
 11
6837.393321639201
 21
7246.114602385988
 31
0.0
  0
LINE
  5
14579
330
747D
100
AcDbEntity
  8
部品1
100
AcDbLine
 10
5495.39332163925
 20
9793.114602386005
 30
0.0
 11
6809.393321639216
 21
9793.114602385976
 31
0.0
  0
LINE
  5
14585
330
747D
100
AcDbEntity
  8
部品1
100
AcDbLine
 10
6809.393321639181
 20
8506.114602385979
 30
0.0
 11
6837.393321639182
 21
8506.114602385979
 31
0.0
  0
LINE
  5
14586
330
747D
100
AcDbEntity
  8
部品1
100
AcDbLine
 10
6809.393321639153
 20
9766.114602385981
 30
0.0
 11
6837.393321639154
 21
9766.114602385981
 31
0.0
  0
DIMENSION
  5
14587
330
747D
100
AcDbEntity
  8
寸法
100
AcDbDimension
  2
*D11
 10
6837.393321639154
 20
10304.03407484449
 30
0.0
 11
7145.878603013392
 21
10304.03407484449
 31
0.0
 70
   160
 71
     5
 42
55.0
  3
INABA_S40G
100
AcDbAlignedDimension
 13
6782.393321639154
 23
9821.114602385977
 33
0.0
 14
6837.393321639154
 24
9821.114602385977
 34
0.0
100
AcDbRotatedDimension
1001
ACAD
1000
DSTYLE
1002
{
1002
}
  0
LINE
  5
14588
330
747D
100
AcDbEntity
  8
部品1
100
AcDbLine
 10
5467.393321639148
 20
9821.114602385907
 30
0.0
 11
6837.393321639215
 21
9821.114602385978
 31
0.0
  0
DIMENSION
  5
14589
330
747D
100
AcDbEntity
  8
寸法
100
AcDbDimension
  2
*D12
 10
6782.393321639154
 20
10304.03407484449
 30
0.0
 11
6159.039429004276
 21
10304.03407484449
 31
0.0
 70
   160
  1
3X420=<>
 71
     5
 42
1259.999999999966
  3
INABA_S40G
100
AcDbAlignedDimension
 13
5522.393321639187
 23
9821.114602385939
 33
0.0
 14
6782.393321639154
 24
9821.114602385977
 34
0.0
100
AcDbRotatedDimension
1001
ACAD
1000
DSTYLE
1002
{
1002
}
  0
LINE
  5
146B2
330
747D
100
AcDbEntity
  8
破線
 48
5.0
100
AcDbLine
 10
6842.393321639175
 20
2548.682158604658
 30
0.0
 11
6842.393321639175
 21
2393.682158604657
 31
0.0
  0
LINE
  5
146B3
330
747D
100
AcDbEntity
  8
破線
 48
5.0
100
AcDbLine
 10
5462.393321639176
 20
2548.682158604658
 30
0.0
 11
5462.393321639176
 21
2393.682158604658
 31
0.0
  0
DIMENSION
  5
146E8
330
747D
100
AcDbEntity
  8
寸法
 48
50.0
100
AcDbDimension
  2
*D13
 10
5467.393321639175
 20
4929.408430336567
 30
0.0
 11
6155.98586200703
 21
4929.408430336567
 31
0.0
 70
   160
  1
柱外寸法<>
 71
     5
 42
1370.0
  3
INABA_S40G
100
AcDbAlignedDimension
 13
6837.393321639175
 23
4723.682158604662
 33
0.0
 14
5467.393321639175
 24
4723.682158604663
 34
0.0
100
AcDbRotatedDimension
  0
LINE
  5
1483A
330
747D
100
AcDbEntity
  8
寸法
 48
50.0
100
AcDbLine
 10
5900.629919739108
 20
7121.442199999482
 30
0.0
 11
6119.781859914834
 21
7121.442199999482
 31
0.0
  0
LINE
  5
1483B
330
747D
100
AcDbEntity
  8
寸法
 48
50.0
100
AcDbLine
 10
6119.781859914834
 20
7121.442199999482
 30
0.0
 11
6030.497641319412
 21
7145.365834268969
 31
0.0
  0
LINE
  5
1483C
330
747D
100
AcDbEntity
  8
寸法
 48
50.0
100
AcDbLine
 10
6030.497641319412
 20
7145.365834268969
 30
0.0
 11
6030.497641319412
 21
7091.70219968718
 31
0.0
  0
LINE
  5
1483D
330
747D
100
AcDbEntity
  8
寸法
 48
50.0
100
AcDbLine
 10
5699.926099132451
 20
7088.220243514147
 30
0.0
 11
5751.332107042554
 21
7088.220243514147
 31
0.0
  0
LINE
  5
1483E
330
747D
100
AcDbEntity
  8
寸法
 48
50.0
100
AcDbLine
 10
5751.332107042554
 20
7088.220243514147
 30
0.0
 11
5751.332107042554
 21
7119.530402166311
 31
0.0
  0
LINE
  5
1483F
330
747D
100
AcDbEntity
  8
寸法
 48
50.0
100
AcDbLine
 10
5751.332107042554
 20
7119.530402166311
 30
0.0
 11
5781.093439033978
 21
7119.530402166311
 31
0.0
  0
LINE
  5
14840
330
747D
100
AcDbEntity
  8
寸法
 48
50.0
100
AcDbLine
 10
5781.093439033978
 20
7119.530402166311
 30
0.0
 11
5725.629103087504
 21
7157.109853094924
 31
0.0
  0
LINE
  5
14841
330
747D
100
AcDbEntity
  8
寸法
 48
50.0
100
AcDbLine
 10
5670.164767141027
 20
7119.530402166311
 30
0.0
 11
5725.629103087502
 21
7157.109853094924
 31
0.0
  0
LINE
  5
14842
330
747D
100
AcDbEntity
  8
寸法
 48
50.0
100
AcDbLine
 10
5699.926099132451
 20
7119.530402166311
 30
0.0
 11
5670.164767141027
 21
7119.530402166311
 31
0.0
  0
LINE
  5
14843
330
747D
100
AcDbEntity
  8
寸法
 48
50.0
100
AcDbLine
 10
5699.926099132451
 20
7088.220243514147
 30
0.0
 11
5699.926099132451
 21
7119.530402166311
 31
0.0
  0
LINE
  5
14844
330
747D
100
AcDbEntity
  8
寸法
 48
50.0
100
AcDbLine
 10
5751.332107042554
 20
7088.220243514147
 30
0.0
 11
5699.926099132451
 21
7088.220243514147
 31
0.0
  0
TEXT
  5
149A1
330
747D
100
AcDbEntity
  8
部品1
100
AcDbText
 10
5861.183392262933
 20
1562.901819473537
 30
0.0
 40
135.0
  1
正面図
  7
STYLE2
100
AcDbText
  0
LWPOLYLINE
  5
149A2
330
747D
100
AcDbEntity
  8
部品1
100
AcDbPolyline
 90
        4
 70
     1
 43
0.0
 10
5770.657988524979
 20
1755.79534869206
 10
5770.657988524979
 20
1515.903027146528
 10
6534.128654753416
 20
1515.903027146528
 10
6534.128654753416
 20
1755.79534869206
  0
LINE
  5
149E3
330
747D
100
AcDbEntity
  8
部品1
100
AcDbLine
 10
5467.393321639176
 20
2690.682158604665
 30
0.0
 11
6837.393321639175
 21
2690.682158604677
 31
0.0
  0
LINE
  5
14A32
330
747D
100
AcDbEntity
  8
細線
100
AcDbLine
 10
6384.393321639222
 20
7258.114602386031
 30
0.0
 11
6369.393321639218
 21
7258.114602386027
 31
0.0
  0
LINE
  5
14A33
330
747D
100
AcDbEntity
  8
細線
100
AcDbLine
 10
6369.393321639218
 20
7251.114602386029
 30
0.0
 11
6369.393321639218
 21
7258.114602386027
 31
0.0
  0
LINE
  5
14A58
330
747D
100
AcDbEntity
  8
細線
100
AcDbLine
 10
6369.393321639223
 20
7264.114602386031
 30
0.0
 11
6363.393321639223
 21
7264.114602386031
 31
0.0
  0
LINE
  5
14AA3
330
747D
100
AcDbEntity
  8
細線
 48
50.0
100
AcDbLine
 10
6775.393321639168
 20
7246.114602385971
 30
0.0
 11
6777.393321639168
 21
7246.114602385971
 31
0.0
  0
LINE
  5
14C0C
330
747D
100
AcDbEntity
  8
部品1
100
AcDbLine
 10
6354.393321639405
 20
7321.614602385953
 30
0.0
 11
5523.893321639218
 21
7321.614602385904
 31
0.0
  0
LINE
  5
14C0E
330
747D
100
AcDbEntity
  8
破線
 48
10.0
100
AcDbLine
 10
6354.393321639401
 20
7345.114602385954
 30
0.0
 11
5550.393321639222
 21
7345.114602385907
 31
0.0
  0
LINE
  5
14C31
330
747D
100
AcDbEntity
  8
部品1
100
AcDbLine
 10
5523.893321639123
 20
9764.614602386004
 30
0.0
 11
5523.893321639223
 21
7321.614602385904
 31
0.0
  0
LINE
  5
14C32
330
747D
100
AcDbEntity
  8
破線
 48
10.0
100
AcDbLine
 10
5547.39332163912
 20
9741.114602386005
 30
0.0
 11
5547.393321639152
 21
8971.114602385906
 31
0.0
  0
LINE
  5
14C33
330
747D
100
AcDbEntity
  8
部品1
 48
50.0
100
AcDbLine
 10
5523.893321639217
 20
7321.614602386033
 30
0.0
 11
5495.393321639219
 21
7293.114602386035
 31
0.0
  0
LINE
  5
14C5B
330
747D
100
AcDbEntity
  8
細線
100
AcDbLine
 10
5527.393321639219
 20
7198.114602385899
 30
0.0
 11
5527.393321639219
 21
7194.114602385949
 31
0.0
  0
LINE
  5
14D86
330
747D
100
AcDbEntity
  8
細線
100
AcDbLine
 10
5527.393321639175
 20
4480.68215860466
 30
0.0
 11
6777.393321639175
 21
4480.682158604658
 31
0.0
  0
TEXT
  5
15A0C
330
747D
100
AcDbEntity
  8
文字
 62
     7
 48
50.0
100
AcDbText
 10
13583.11819016568
 20
8720.013745883727
 30
0.0
 40
100.0
  1
アンカープレート
  7
STYLE1
100
AcDbText
  0
TEXT
  5
15A0D
330
747D
100
AcDbEntity
  8
文字
 62
     7
 48
50.0
100
AcDbText
 10
15022.63965474514
 20
8720.013745883722
 30
0.0
 40
100.0
  1
F12            2.3
  7
STYLE1
100
AcDbText
  0
LINE
  5
15A0E
330
747D
100
AcDbEntity
  8
仕様書枠
 48
50.0
100
AcDbLine
 10
16307.19999999999
 20
10049.6
 30
0.0
 11
13127.19999999999
 21
10049.6
 31
0.0
  0
LINE
  5
15A0F
330
747D
100
AcDbEntity
  8
仕様書枠
 48
50.0
100
AcDbLine
 10
16307.19999999999
 20
11409.6
 30
0.0
 11
13127.2
 21
11409.6
 31
0.0
  0
LINE
  5
15A10
330
747D
100
AcDbEntity
  8
仕様書枠
 48
50.0
100
AcDbLine
 10
16307.19999999999
 20
8349.600000000002
 30
0.0
 11
16307.2
 21
11409.6
 31
0.0
  0
LINE
  5
15A11
330
747D
100
AcDbEntity
  8
仕様書枠
 48
50.0
100
AcDbLine
 10
14785.2
 20
11409.59999999999
 30
0.0
 11
14785.2
 21
8689.600000000005
 31
0.0
  0
LINE
  5
15A12
330
747D
100
AcDbEntity
  8
仕様書枠
 48
50.0
100
AcDbLine
 10
13490.2
 20
11409.6
 30
0.0
 11
13490.20000000001
 21
8689.600000000003
 31
0.0
  0
LINE
  5
15A13
330
747D
100
AcDbEntity
  8
仕様書枠
 48
50.0
100
AcDbLine
 10
16307.19999999999
 20
11239.6
 30
0.0
 11
13127.2
 21
11239.6
 31
0.0
  0
LINE
  5
15A14
330
747D
100
AcDbEntity
  8
仕様書枠
 48
50.0
100
AcDbLine
 10
16307.19999999999
 20
10899.6
 30
0.0
 11
13127.2
 21
10899.6
 31
0.0
  0
LINE
  5
15A15
330
747D
100
AcDbEntity
  8
仕様書枠
 48
50.0
100
AcDbLine
 10
16307.19999999999
 20
11069.6
 30
0.0
 11
13127.2
 21
11069.6
 31
0.0
  0
LINE
  5
15A16
330
747D
100
AcDbEntity
  8
仕様書枠
 48
50.0
100
AcDbLine
 10
16307.19999999999
 20
10559.6
 30
0.0
 11
13127.19999999999
 21
10559.6
 31
0.0
  0
LINE
  5
15A17
330
747D
100
AcDbEntity
  8
仕様書枠
 48
50.0
100
AcDbLine
 10
16307.19999999999
 20
10389.6
 30
0.0
 11
13127.19999999999
 21
10389.6
 31
0.0
  0
LINE
  5
15A18
330
747D
100
AcDbEntity
  8
仕様書枠
 48
50.0
100
AcDbLine
 10
16307.19999999999
 20
10729.6
 30
0.0
 11
13127.19999999999
 21
10729.6
 31
0.0
  0
TEXT
  5
15A19
330
747D
100
AcDbEntity
  8
文字
 62
     7
 48
50.0
100
AcDbText
 10
13197.42518560407
 20
11270.01374588372
 30
0.0
 40
100.0
  1
品番
  7
STYLE1
100
AcDbText
  0
TEXT
  5
15A1A
330
747D
100
AcDbEntity
  8
文字
 62
     7
 48
50.0
100
AcDbText
 10
13271.19032244792
 20
11100.01374588373
 30
0.0
 40
100.0
  1
1
  7
STYLE1
100
AcDbText
  0
TEXT
  5
15A1B
330
747D
100
AcDbEntity
  8
文字
 62
     7
 48
50.0
100
AcDbText
 10
13271.19032244792
 20
10930.01374588373
 30
0.0
 40
100.0
  1
2
  7
STYLE1
100
AcDbText
  0
TEXT
  5
15A1C
330
747D
100
AcDbEntity
  8
文字
 62
     7
 48
50.0
100
AcDbText
 10
13271.19032244792
 20
10590.01374588373
 30
0.0
 40
100.0
  1
4
  7
STYLE1
100
AcDbText
  0
TEXT
  5
15A1D
330
747D
100
AcDbEntity
  8
文字
 62
     7
 48
50.0
100
AcDbText
 10
13271.19032244792
 20
10760.01374588373
 30
0.0
 40
100.0
  1
3
  7
STYLE1
100
AcDbText
  0
TEXT
  5
15A1E
330
747D
100
AcDbEntity
  8
文字
 62
     7
 48
50.0
100
AcDbText
 10
13732.03840939434
 20
11270.01374588372
 30
0.0
 40
100.0
  1
部　　品　　名
  7
STYLE1
100
AcDbText
  0
TEXT
  5
15A1F
330
747D
100
AcDbEntity
  8
文字
 62
     7
 48
50.0
100
AcDbText
 10
14859.79774614482
 20
11270.01374588372
 30
0.0
 40
100.0
  1
材料（材質）　　単位mm
  7
STYLE1
100
AcDbText
  0
TEXT
  5
15A20
330
747D
100
AcDbEntity
  8
文字
 62
     7
 48
50.0
100
AcDbText
 10
13583.11819016569
 20
11100.01374588373
 30
0.0
 40
100.0
  1
土台枠
  7
STYLE1
100
AcDbText
  0
TEXT
  5
15A21
330
747D
100
AcDbEntity
  8
文字
 62
     7
 48
50.0
100
AcDbText
 10
13583.1181901657
 20
10760.01374588372
 30
0.0
 40
100.0
  1
柱
  7
STYLE1
100
AcDbText
  0
TEXT
  5
15A22
330
747D
100
AcDbEntity
  8
文字
 62
     7
 48
50.0
100
AcDbText
 10
13583.11819016569
 20
10420.01374588372
 30
0.0
 40
100.0
  1
鴨居
  7
STYLE1
100
AcDbText
  0
TEXT
  5
15A23
330
747D
100
AcDbEntity
  8
文字
 62
     7
 48
50.0
100
AcDbText
 10
13583.11819016569
 20
10250.01374588373
 30
0.0
 40
100.0
  1
桁後
  7
STYLE1
100
AcDbText
  0
TEXT
  5
15A24
330
747D
100
AcDbEntity
  8
文字
 62
     7
 48
50.0
100
AcDbText
 10
13271.19032244792
 20
10420.01374588372
 30
0.0
 40
100.0
  1
5
  7
STYLE1
100
AcDbText
  0
TEXT
  5
15A25
330
747D
100
AcDbEntity
  8
文字
 62
     7
 48
50.0
100
AcDbText
 10
13583.11819016569
 20
10080.01374588372
 30
0.0
 40
100.0
  1
妻板左右
  7
STYLE1
100
AcDbText
  0
TEXT
  5
15A27
330
747D
100
AcDbEntity
  8
文字
 62
     7
 48
50.0
100
AcDbText
 10
13248.77747366447
 20
9570.013745883727
 30
0.0
 40
100.0
  1
10
  7
STYLE1
100
AcDbText
  0
TEXT
  5
15A28
330
747D
100
AcDbEntity
  8
文字
 62
     7
 48
50.0
100
AcDbText
 10
13583.11819016568
 20
9400.013745883729
 30
0.0
 40
100.0
  1
壁パネル
  7
STYLE1
100
AcDbText
  0
TEXT
  5
15A29
330
747D
100
AcDbEntity
  8
文字
 62
     7
 48
50.0
100
AcDbText
 10
13583.11819016569
 20
9740.013745883729
 30
0.0
 40
100.0
  1
屋根パネル
  7
STYLE1
100
AcDbText
  0
TEXT
  5
15A2B
330
747D
100
AcDbEntity
  8
文字
 62
     7
 48
50.0
100
AcDbText
 10
13583.11819016569
 20
9910.013745883727
 30
0.0
 40
100.0
  1
鼻隠シ前後
  7
STYLE1
100
AcDbText
  0
TEXT
  5
15A2C
330
747D
100
AcDbEntity
  8
文字
 62
     7
 48
50.0
100
AcDbText
 10
13271.19032244792
 20
9910.01374588373
 30
0.0
 40
100.0
  1
8
  7
STYLE1
100
AcDbText
  0
TEXT
  5
15A2D
330
747D
100
AcDbEntity
  8
文字
 62
     7
 48
50.0
100
AcDbText
 10
13271.19032244792
 20
9740.013745883729
 30
0.0
 40
100.0
  1
9
  7
STYLE1
100
AcDbText
  0
TEXT
  5
15A2E
330
747D
100
AcDbEntity
  8
文字
 62
     7
 48
50.0
100
AcDbText
 10
13271.19032244792
 20
10080.01374588373
 30
0.0
 40
100.0
  1
7
  7
STYLE1
100
AcDbText
  0
TEXT
  5
15A2F
330
747D
100
AcDbEntity
  8
文字
 62
     7
 48
50.0
100
AcDbText
 10
13271.19032244792
 20
10250.01374588373
 30
0.0
 40
100.0
  1
6
  7
STYLE1
100
AcDbText
  0
LINE
  5
15A30
330
747D
100
AcDbEntity
  8
仕様書枠
 48
50.0
100
AcDbLine
 10
16307.19999999999
 20
9709.6
 30
0.0
 11
13127.19999999999
 21
9709.600000000001
 31
0.0
  0
LINE
  5
15A31
330
747D
100
AcDbEntity
  8
仕様書枠
 48
50.0
100
AcDbLine
 10
16307.19999999999
 20
9369.599999999998
 30
0.0
 11
13127.19999999999
 21
9369.600000000001
 31
0.0
  0
LINE
  5
15A32
330
747D
100
AcDbEntity
  8
仕様書枠
 48
50.0
100
AcDbLine
 10
16307.19999999999
 20
9539.599999999998
 30
0.0
 11
13127.19999999999
 21
9539.6
 31
0.0
  0
LINE
  5
15A33
330
747D
100
AcDbEntity
  8
仕様書枠
 48
50.0
100
AcDbLine
 10
16307.19999999999
 20
10219.6
 30
0.0
 11
13127.2
 21
10219.6
 31
0.0
  0
LINE
  5
15A34
330
747D
100
AcDbEntity
  8
仕様書枠
 48
50.0
100
AcDbLine
 10
16307.19999999999
 20
9879.599999999999
 30
0.0
 11
13127.19999999999
 21
9879.600000000001
 31
0.0
  0
TEXT
  5
15A35
330
747D
100
AcDbEntity
  8
文字
 62
     7
 48
50.0
100
AcDbText
 10
13248.77747366447
 20
9400.013745883727
 30
0.0
 40
100.0
  1
11
  7
STYLE1
100
AcDbText
  0
LINE
  5
15A37
330
747D
100
AcDbEntity
  8
仕様書枠
 48
50.0
100
AcDbLine
 10
16307.19999999999
 20
9199.599999999998
 30
0.0
 11
13127.19999999999
 21
9199.600000000001
 31
0.0
  0
LINE
  5
15A38
330
747D
100
AcDbEntity
  8
仕様書枠
 48
50.0
100
AcDbLine
 10
16307.19999999999
 20
8859.6
 30
0.0
 11
13127.19999999999
 21
8859.600000000002
 31
0.0
  0
TEXT
  5
15A3A
330
747D
100
AcDbEntity
  8
文字
 62
     7
 48
50.0
100
AcDbText
 10
13248.77747366447
 20
9060.013745883729
 30
0.0
 40
100.0
  1
13
  7
STYLE1
100
AcDbText
  0
TEXT
  5
15A3B
330
747D
100
AcDbEntity
  8
文字
 62
     7
 48
50.0
100
AcDbText
 10
13248.77747366447
 20
9230.013745883729
 30
0.0
 40
100.0
  1
12
  7
STYLE1
100
AcDbText
  0
TEXT
  5
15A3C
330
747D
100
AcDbEntity
  8
文字
 62
     7
 48
50.0
100
AcDbText
 10
15022.63965474517
 20
11100.01374588372
 30
0.0
 40
100.0
  1
F12            1.2
  7
STYLE1
100
AcDbText
  0
TEXT
  5
15A3D
330
747D
100
AcDbEntity
  8
文字
 62
     7
 48
50.0
100
AcDbText
 10
15022.63965474518
 20
10760.01374588372
 30
0.0
 40
100.0
  1
F12            1.0
  7
STYLE1
100
AcDbText
  0
TEXT
  5
15A3E
330
747D
100
AcDbEntity
  8
文字
 62
     7
 48
50.0
100
AcDbText
 10
15022.63965474517
 20
10420.01374588372
 30
0.0
 40
100.0
  1
Y10            1.0
  7
STYLE1
100
AcDbText
  0
TEXT
  5
15A3F
330
747D
100
AcDbEntity
  8
文字
 62
     7
 48
50.0
100
AcDbText
 10
15022.63965474516
 20
10250.01374588372
 30
0.0
 40
100.0
  1
Y10            1.0
  7
STYLE1
100
AcDbText
  0
TEXT
  5
15A40
330
747D
100
AcDbEntity
  8
文字
 62
     7
 48
50.0
100
AcDbText
 10
15022.63965474517
 20
10080.01374588372
 30
0.0
 40
100.0
  1
Y10            0.7
  7
STYLE1
100
AcDbText
  0
TEXT
  5
15A41
330
747D
100
AcDbEntity
  8
文字
 62
     7
 48
50.0
100
AcDbText
 10
15022.63965474516
 20
9910.013745883725
 30
0.0
 40
100.0
  1
Y10            0.7
  7
STYLE1
100
AcDbText
  0
TEXT
  5
15A42
330
747D
100
AcDbEntity
  8
文字
 62
     7
 48
50.0
100
AcDbText
 10
15022.63965474517
 20
9740.013745883725
 30
0.0
 40
100.0
  1
Y10            0.5
  7
STYLE1
100
AcDbText
  0
TEXT
  5
15A43
330
747D
100
AcDbEntity
  8
文字
 62
     7
 48
50.0
100
AcDbText
 10
15022.63965474515
 20
9400.013745883725
 30
0.0
 40
100.0
  1
F12            0.6
  7
STYLE1
100
AcDbText
  0
LINE
  5
15A47
330
747D
100
AcDbEntity
  8
仕様書枠
 48
50.0
100
AcDbLine
 10
16307.19999999998
 20
8689.600000000003
 30
0.0
 11
13127.19999999999
 21
8689.600000000003
 31
0.0
  0
LINE
  5
15A48
330
747D
100
AcDbEntity
  8
仕様書枠
 48
50.0
100
AcDbLine
 10
16307.19999999998
 20
8519.600000000002
 30
0.0
 11
13127.19999999999
 21
8519.600000000004
 31
0.0
  0
TEXT
  5
15A4A
330
747D
100
AcDbEntity
  8
文字
 62
     7
 48
50.0
100
AcDbText
 10
13229.83081656553
 20
8550.013745883731
 30
0.0
 40
100.0
  1
F12→溶融亜鉛めっき鋼板(JIS G 3302)
  7
STYLE1
100
AcDbText
  0
TEXT
  5
15A4B
330
747D
100
AcDbEntity
  8
文字
 62
     7
 48
50.0
100
AcDbText
 10
13229.83081656553
 20
8380.013745883731
 30
0.0
 40
100.0
  1
Y10→溶融亜鉛-5％アルミニウム合金めっき鋼板(JIS G 3317)
 41
0.9
  7
STYLE1
100
AcDbText
  0
LINE
  5
15A4D
330
747D
100
AcDbEntity
  8
仕様書枠
 48
50.0
100
AcDbLine
 10
13127.2
 20
11409.6
 30
0.0
 11
13127.19999999999
 21
8349.600000000002
 31
0.0
  0
LINE
  5
15A50
330
747D
100
AcDbEntity
  8
仕様書枠
 48
50.0
100
AcDbLine
 10
16307.19999999999
 20
9029.6
 30
0.0
 11
13127.19999999999
 21
9029.600000000002
 31
0.0
  0
TEXT
  5
15A51
330
747D
100
AcDbEntity
  8
文字
 62
     7
 48
50.0
100
AcDbText
 10
13583.1181901657
 20
10590.01374588373
 30
0.0
 40
100.0
  1
床パネル
 41
0.9
  7
STYLE1
100
AcDbText
  0
TEXT
  5
15A52
330
747D
100
AcDbEntity
  8
文字
 62
     7
 48
50.0
100
AcDbText
 10
13583.11819016569
 20
10930.01374588372
 30
0.0
 40
100.0
  1
根太
  7
STYLE1
100
AcDbText
  0
TEXT
  5
15A53
330
747D
100
AcDbEntity
  8
文字
 62
     7
 48
50.0
100
AcDbText
 10
13248.77747366447
 20
8890.013745883729
 30
0.0
 40
100.0
  1
14
  7
STYLE1
100
AcDbText
  0
TEXT
  5
15A55
330
747D
100
AcDbEntity
  8
文字
 62
     7
 48
50.0
100
AcDbText
 10
15022.63965474516
 20
10930.01374588372
 30
0.0
 40
100.0
  1
F12            1.2
  7
STYLE1
100
AcDbText
  0
TEXT
  5
15A56
330
747D
100
AcDbEntity
  8
文字
 62
     7
 48
50.0
100
AcDbText
 10
15022.63965474517
 20
10590.01374588372
 30
0.0
 40
100.0
  1
F12            1.0
  7
STYLE1
100
AcDbText
  0
TEXT
  5
15A76
330
747D
100
AcDbEntity
  8
文字
 62
     7
 48
50.0
100
AcDbText
 10
14491.96323844892
 20
483.8967129911411
 30
0.0
 40
160.0
  1
ＮＸＮ－３６ＣＳ
  7
STYLE2
100
AcDbText
  0
TEXT
  5
15A89
330
747D
100
AcDbEntity
  8
文字
 62
     7
 48
50.0
100
AcDbText
 10
15022.63965474515
 20
9230.013745883725
 30
0.0
 40
100.0
  1
F12            0.7
  7
STYLE1
100
AcDbText
  0
TEXT
  5
15A8A
330
747D
100
AcDbEntity
  8
文字
 62
     7
 48
50.0
100
AcDbText
 10
13583.11819016568
 20
9230.013745883729
 30
0.0
 40
100.0
  1
正面パネル
  7
STYLE1
100
AcDbText
  0
TEXT
  5
15A8B
330
747D
100
AcDbEntity
  8
文字
 62
     7
 48
50.0
100
AcDbText
 10
15022.63965474515
 20
9060.013745883725
 30
0.0
 40
100.0
  1
F12            0.8
  7
STYLE1
100
AcDbText
  0
TEXT
  5
15A8C
330
747D
100
AcDbEntity
  8
文字
 62
     7
 48
50.0
100
AcDbText
 10
13583.11819016568
 20
9060.013745883729
 30
0.0
 40
100.0
  1
扉
  7
STYLE1
100
AcDbText
  0
TEXT
  5
15A8D
330
747D
100
AcDbEntity
  8
文字
 62
     7
 48
50.0
100
AcDbText
 10
15022.63965474515
 20
8890.013745883727
 30
0.0
 40
100.0
  1
F12            0.6
  7
STYLE1
100
AcDbText
  0
TEXT
  5
15A8E
330
747D
100
AcDbEntity
  8
文字
 62
     7
 48
50.0
100
AcDbText
 10
13583.11819016568
 20
8890.013745883731
 30
0.0
 40
100.0
  1
棚板
  7
STYLE1
100
AcDbText
  0
LINE
  5
1B03B
330
747D
100
AcDbEntity
  8
部品1
100
AcDbLine
 10
5978.393321639176
 20
4480.682158604657
 30
0.0
 11
5978.393321639176
 21
2697.682158604664
 31
0.0
  0
LINE
  5
1B55D
330
747D
100
AcDbEntity
  8
部品1
100
AcDbLine
 10
5688.393321639175
 20
4480.68215860466
 30
0.0
 11
5688.393321639176
 21
2697.682158604663
 31
0.0
  0
LINE
  5
1B55E
330
747D
100
AcDbEntity
  8
部品1
100
AcDbLine
 10
5638.393321639174
 20
4480.68215860466
 30
0.0
 11
5638.393321639176
 21
2697.682158604663
 31
0.0
  0
LINE
  5
1B560
330
747D
100
AcDbEntity
  8
細線
100
AcDbLine
 10
5680.393321639174
 20
4480.68215860466
 30
0.0
 11
5680.393321639176
 21
2697.682158604663
 31
0.0
  0
LINE
  5
1B561
330
747D
100
AcDbEntity
  8
細線
100
AcDbLine
 10
5646.393321639174
 20
4480.68215860466
 30
0.0
 11
5646.393321639176
 21
2697.682158604663
 31
0.0
  0
LINE
  5
1B594
330
747D
100
AcDbEntity
  8
細線
100
AcDbLine
 10
6674.393321639174
 20
4480.68215860466
 30
0.0
 11
6674.393321639174
 21
2705.182158604679
 31
0.0
  0
LINE
  5
1B595
330
747D
100
AcDbEntity
  8
細線
100
AcDbLine
 10
6604.393321639175
 20
4480.68215860466
 30
0.0
 11
6604.393321639175
 21
2705.182158604679
 31
0.0
  0
LINE
  5
1B596
330
747D
100
AcDbEntity
  8
細線
100
AcDbLine
 10
6534.393321639175
 20
4480.68215860466
 30
0.0
 11
6534.393321639175
 21
2705.182158604679
 31
0.0
  0
LINE
  5
1B597
330
747D
100
AcDbEntity
  8
細線
100
AcDbLine
 10
6464.393321639175
 20
4480.68215860466
 30
0.0
 11
6464.393321639175
 21
2705.182158604679
 31
0.0
  0
LINE
  5
1B9FE
330
747D
100
AcDbEntity
  8
部品1
 48
50.0
100
AcDbLine
 10
5562.393321639175
 20
3654.182158604668
 30
0.0
 11
5615.393321639174
 21
3654.182158604669
 31
0.0
  0
ARC
  5
1BAB8
330
747D
100
AcDbEntity
  8
部品1
 48
0.01
100
AcDbCircle
 10
6374.393321639175
 20
4521.182158604657
 30
0.0
 40
2.0
100
AcDbArc
 50
180.0
 51
270.0
  0
ARC
  5
1BAB9
330
747D
100
AcDbEntity
  8
部品1
 48
0.01
100
AcDbCircle
 10
6374.393321639175
 20
4552.682158604657
 30
0.0
 40
2.0
100
AcDbArc
 50
90.0
 51
180.0
  0
ARC
  5
1BABA
330
747D
100
AcDbEntity
  8
部品1
 48
0.01
100
AcDbCircle
 10
6550.393321639174
 20
4521.182158604657
 30
0.0
 40
2.0
100
AcDbArc
 50
270.0
 51
0.0
  0
ARC
  5
1BABB
330
747D
100
AcDbEntity
  8
部品1
 48
0.01
100
AcDbCircle
 10
6550.393321639174
 20
4552.682158604657
 30
0.0
 40
2.0
100
AcDbArc
 50
0.0
 51
90.0
  0
LINE
  5
1BABC
330
747D
100
AcDbEntity
  8
細線
100
AcDbLine
 10
6462.393321639175
 20
4525.182158604657
 30
0.0
 11
6388.393321639174
 21
4525.182158604657
 31
0.0
  0
LINE
  5
1BABD
330
747D
100
AcDbEntity
  8
細線
100
AcDbLine
 10
6462.393321639175
 20
4548.182158604657
 30
0.0
 11
6536.393321639174
 21
4548.182158604657
 31
0.0
  0
LINE
  5
1BABE
330
747D
100
AcDbEntity
  8
細線
100
AcDbLine
 10
6536.393321639174
 20
4525.182158604657
 30
0.0
 11
6462.393321639175
 21
4525.182158604657
 31
0.0
  0
LINE
  5
1BABF
330
747D
100
AcDbEntity
  8
細線
100
AcDbLine
 10
6388.393321639174
 20
4548.182158604657
 30
0.0
 11
6462.393321639175
 21
4548.182158604657
 31
0.0
  0
LINE
  5
1BAC0
330
747D
100
AcDbEntity
  8
細線
100
AcDbLine
 10
6388.393321639174
 20
4525.182158604657
 30
0.0
 11
6388.393321639174
 21
4548.182158604657
 31
0.0
  0
LINE
  5
1BAC1
330
747D
100
AcDbEntity
  8
細線
100
AcDbLine
 10
6536.393321639174
 20
4548.182158604657
 30
0.0
 11
6536.393321639174
 21
4525.182158604657
 31
0.0
  0
LINE
  5
1BAC2
330
747D
100
AcDbEntity
  8
部品1
 48
0.01
100
AcDbLine
 10
6372.393321639175
 20
4521.182158604657
 30
0.0
 11
6372.393321639174
 21
4552.682158604657
 31
0.0
  0
LINE
  5
1BAC3
330
747D
100
AcDbEntity
  8
部品1
 48
0.01
100
AcDbLine
 10
6550.393321639174
 20
4519.182158604657
 30
0.0
 11
6374.393321639175
 21
4519.182158604657
 31
0.0
  0
LINE
  5
1BAC4
330
747D
100
AcDbEntity
  8
部品1
 48
0.01
100
AcDbLine
 10
6552.393321639174
 20
4552.682158604657
 30
0.0
 11
6552.393321639174
 21
4521.182158604657
 31
0.0
  0
LINE
  5
1BAC5
330
747D
100
AcDbEntity
  8
部品1
 48
0.01
100
AcDbLine
 10
6374.393321639175
 20
4554.682158604657
 30
0.0
 11
6550.393321639174
 21
4554.682158604657
 31
0.0
  0
LINE
  5
1BAD3
330
747D
100
AcDbEntity
  8
細線
100
AcDbLine
 10
6536.393321639174
 20
4542.182158604656
 30
0.0
 11
6462.393321639175
 21
4542.182158604656
 31
0.0
  0
LINE
  5
1BAD4
330
747D
100
AcDbEntity
  8
細線
100
AcDbLine
 10
6536.393321639174
 20
4536.182158604657
 30
0.0
 11
6462.393321639175
 21
4536.182158604657
 31
0.0
  0
LINE
  5
1BAD5
330
747D
100
AcDbEntity
  8
細線
100
AcDbLine
 10
6536.393321639176
 20
4530.182158604657
 30
0.0
 11
6462.393321639175
 21
4530.182158604657
 31
0.0
  0
LINE
  5
1BAD7
330
747D
100
AcDbEntity
  8
細線
100
AcDbLine
 10
6536.393321639174
 20
4542.182158604656
 30
0.0
 11
6467.393321639175
 21
4542.182158604656
 31
0.0
  0
LINE
  5
1BAE0
330
747D
100
AcDbEntity
  8
細線
100
AcDbLine
 10
6388.393321639175
 20
4542.182158604656
 30
0.0
 11
6462.393321639175
 21
4542.182158604656
 31
0.0
  0
LINE
  5
1BAE4
330
747D
100
AcDbEntity
  8
細線
100
AcDbLine
 10
6388.393321639175
 20
4530.182158604656
 30
0.0
 11
6462.393321639175
 21
4530.182158604657
 31
0.0
  0
LINE
  5
1BAE5
330
747D
100
AcDbEntity
  8
細線
100
AcDbLine
 10
6388.393321639175
 20
4536.182158604657
 30
0.0
 11
6462.393321639175
 21
4536.182158604657
 31
0.0
  0
LINE
  5
1BDC6
330
747D
100
AcDbEntity
  8
細線
100
AcDbLine
 10
6462.393321639175
 20
4548.182158604657
 30
0.0
 11
6462.393321639175
 21
4525.182158604657
 31
0.0
  0
LINE
  5
1BDD2
330
747D
100
AcDbEntity
  8
細線
100
AcDbLine
 10
5842.393321639175
 20
4548.182158604657
 30
0.0
 11
5842.393321639175
 21
4525.182158604657
 31
0.0
  0
LINE
  5
1BDD3
330
747D
100
AcDbEntity
  8
細線
100
AcDbLine
 10
5916.393321639174
 20
4536.182158604657
 30
0.0
 11
5842.393321639175
 21
4536.182158604657
 31
0.0
  0
LINE
  5
1BDD4
330
747D
100
AcDbEntity
  8
細線
100
AcDbLine
 10
5916.393321639174
 20
4530.182158604656
 30
0.0
 11
5842.393321639175
 21
4530.182158604657
 31
0.0
  0
LINE
  5
1BDD5
330
747D
100
AcDbEntity
  8
細線
100
AcDbLine
 10
5916.393321639174
 20
4542.182158604656
 30
0.0
 11
5842.393321639175
 21
4542.182158604656
 31
0.0
  0
LINE
  5
1BDD6
330
747D
100
AcDbEntity
  8
細線
100
AcDbLine
 10
5768.393321639175
 20
4542.182158604656
 30
0.0
 11
5837.393321639176
 21
4542.182158604656
 31
0.0
  0
LINE
  5
1BDD7
330
747D
100
AcDbEntity
  8
細線
100
AcDbLine
 10
5768.393321639174
 20
4530.182158604657
 30
0.0
 11
5842.393321639175
 21
4530.182158604657
 31
0.0
  0
LINE
  5
1BDD8
330
747D
100
AcDbEntity
  8
細線
100
AcDbLine
 10
5768.393321639175
 20
4536.182158604657
 30
0.0
 11
5842.393321639175
 21
4536.182158604657
 31
0.0
  0
LINE
  5
1BDD9
330
747D
100
AcDbEntity
  8
細線
100
AcDbLine
 10
5768.393321639175
 20
4542.182158604656
 30
0.0
 11
5842.393321639175
 21
4542.182158604656
 31
0.0
  0
LINE
  5
1BDDA
330
747D
100
AcDbEntity
  8
部品1
 48
0.01
100
AcDbLine
 10
5930.393321639176
 20
4554.682158604657
 30
0.0
 11
5754.393321639175
 21
4554.682158604657
 31
0.0
  0
LINE
  5
1BDDB
330
747D
100
AcDbEntity
  8
部品1
 48
0.01
100
AcDbLine
 10
5752.393321639175
 20
4552.682158604657
 30
0.0
 11
5752.393321639175
 21
4521.182158604657
 31
0.0
  0
LINE
  5
1BDDC
330
747D
100
AcDbEntity
  8
部品1
 48
0.01
100
AcDbLine
 10
5754.393321639175
 20
4519.182158604657
 30
0.0
 11
5930.393321639174
 21
4519.182158604657
 31
0.0
  0
LINE
  5
1BDDD
330
747D
100
AcDbEntity
  8
部品1
 48
0.01
100
AcDbLine
 10
5932.393321639175
 20
4521.182158604657
 30
0.0
 11
5932.393321639175
 21
4552.682158604657
 31
0.0
  0
LINE
  5
1BDDE
330
747D
100
AcDbEntity
  8
細線
100
AcDbLine
 10
5768.393321639175
 20
4548.182158604657
 30
0.0
 11
5768.393321639175
 21
4525.182158604657
 31
0.0
  0
LINE
  5
1BDDF
330
747D
100
AcDbEntity
  8
細線
100
AcDbLine
 10
5916.393321639175
 20
4525.182158604657
 30
0.0
 11
5916.393321639175
 21
4548.182158604657
 31
0.0
  0
LINE
  5
1BDE0
330
747D
100
AcDbEntity
  8
細線
100
AcDbLine
 10
5916.393321639175
 20
4548.182158604657
 30
0.0
 11
5842.393321639175
 21
4548.182158604657
 31
0.0
  0
LINE
  5
1BDE1
330
747D
100
AcDbEntity
  8
細線
100
AcDbLine
 10
5768.393321639175
 20
4525.182158604657
 30
0.0
 11
5842.393321639175
 21
4525.182158604657
 31
0.0
  0
LINE
  5
1BDE2
330
747D
100
AcDbEntity
  8
細線
100
AcDbLine
 10
5842.393321639175
 20
4548.182158604657
 30
0.0
 11
5768.393321639175
 21
4548.182158604657
 31
0.0
  0
LINE
  5
1BDE3
330
747D
100
AcDbEntity
  8
細線
100
AcDbLine
 10
5842.393321639175
 20
4525.182158604657
 30
0.0
 11
5916.393321639175
 21
4525.182158604657
 31
0.0
  0
ARC
  5
1BDE4
330
747D
100
AcDbEntity
  8
部品1
 48
0.01
100
AcDbCircle
 10
5754.393321639175
 20
4552.682158604657
 30
0.0
 40
2.0
100
AcDbArc
 50
90.0
 51
180.0
  0
ARC
  5
1BDE5
330
747D
100
AcDbEntity
  8
部品1
 48
0.01
100
AcDbCircle
 10
5754.393321639175
 20
4521.182158604657
 30
0.0
 40
2.0
100
AcDbArc
 50
180.0
 51
270.0
  0
ARC
  5
1BDE6
330
747D
100
AcDbEntity
  8
部品1
 48
0.01
100
AcDbCircle
 10
5930.393321639176
 20
4552.682158604657
 30
0.0
 40
2.0
100
AcDbArc
 50
0.000000000000007
 51
90.0
  0
ARC
  5
1BDE7
330
747D
100
AcDbEntity
  8
部品1
 48
0.01
100
AcDbCircle
 10
5930.393321639174
 20
4521.182158604657
 30
0.0
 40
2.0
100
AcDbArc
 50
270.0
 51
0.000000000000007
  0
LINE
  5
1BDE8
330
747D
100
AcDbEntity
  8
部品1
 48
50.0
100
AcDbLine
 10
6879.984900532743
 20
4723.682158604662
 30
0.0
 11
5424.801742745607
 21
4723.682158604663
 31
0.0
  0
LINE
  5
1BDE9
330
747D
100
AcDbEntity
  8
部品1
 48
50.0
100
AcDbLine
 10
6866.769577071709
 20
4582.682158604662
 30
0.0
 11
5438.01706620664
 21
4582.682158604662
 31
0.0
  0
LINE
  5
1BDEA
330
747D
100
AcDbEntity
  8
細線
 48
50.0
100
AcDbLine
 10
6885.353783417734
 20
4695.682158604661
 30
0.0
 11
5419.432859860619
 21
4695.68215860466
 31
0.0
  0
LINE
  5
1BDEB
330
747D
100
AcDbEntity
  8
細線
 48
50.0
100
AcDbLine
 10
6877.117752892897
 20
4603.48215860466
 30
0.0
 11
5427.668890385447
 21
4603.482158604662
 31
0.0
  0
LINE
  5
1BDEC
330
747D
100
AcDbEntity
  8
部品1
100
AcDbLine
 10
6886.973660623842
 20
4716.285633209421
 30
0.0
 11
6885.840263291495
 21
4696.309505226823
 31
0.0
  0
LINE
  5
1BDEE
330
747D
100
AcDbEntity
  8
細線
 48
50.0
100
AcDbLine
 10
6854.393321639175
 20
4723.682158604662
 30
0.0
 11
6854.393321639175
 21
4582.682158604661
 31
0.0
  0
LINE
  5
1BDEF
330
747D
100
AcDbEntity
  8
細線
 48
50.0
100
AcDbLine
 10
5450.393321639176
 20
4723.682158604662
 30
0.0
 11
5450.393321639176
 21
4582.682158604661
 31
0.0
  0
LINE
  5
1BE41
330
747D
100
AcDbEntity
  8
部品1
100
AcDbLine
 10
6874.403242969918
 20
4600.652098059763
 30
0.0
 11
6873.758337162808
 21
4589.285633209423
 31
0.0
  0
LINE
  5
1BE42
330
747D
100
AcDbEntity
  8
部品1
100
AcDbLine
 10
6882.639273494764
 20
4692.852098059765
 30
0.0
 11
6877.604232766653
 21
4604.109505226821
 31
0.0
  0
ARC
  5
1BE44
330
747D
100
AcDbEntity
  8
部品1
 48
50.0
100
AcDbCircle
 10
6885.634456390949
 20
4692.682158604663
 30
0.0
 40
3.0
100
AcDbArc
 50
97.65812720738011
 51
176.7526572096774
  0
ARC
  5
1BE45
330
747D
100
AcDbEntity
  8
部品1
 48
50.0
100
AcDbCircle
 10
6877.398425866106
 20
4600.48215860466
 30
0.0
 40
3.0
100
AcDbArc
 50
97.6581272073629
 51
176.7526572096767
  0
ARC
  5
1BE46
330
747D
100
AcDbEntity
  8
部品1
 48
50.0
100
AcDbCircle
 10
6876.905356757545
 20
4604.149157766345
 30
0.0
 40
0.7
100
AcDbArc
 50
277.6581272073433
 51
356.7526572097019
  0
ARC
  5
1BE47
330
747D
100
AcDbEntity
  8
部品1
 48
50.0
100
AcDbCircle
 10
6885.141387282387
 20
4696.349157766348
 30
0.0
 40
0.7
100
AcDbArc
 50
277.6581272073433
 51
356.7526572096275
  0
ARC
  5
1BE48
330
747D
100
AcDbEntity
  8
部品1
100
AcDbCircle
 10
6866.769577071709
 20
4589.682158604662
 30
0.0
 40
7.0
100
AcDbArc
 50
270.0
 51
356.7526572096773
  0
ARC
  5
1BE49
330
747D
100
AcDbEntity
  8
部品1
100
AcDbCircle
 10
6879.984900532743
 20
4716.682158604661
 30
0.0
 40
7.0
100
AcDbArc
 50
356.752657209676
 51
89.99999999999998
  0
ARC
  5
1BE4A
330
747D
100
AcDbEntity
  8
部品1
100
AcDbCircle
 10
5424.801742745607
 20
4716.682158604661
 30
0.0
 40
7.0
100
AcDbArc
 50
90.00000000000003
 51
183.247342790324
  0
ARC
  5
1BE4B
330
747D
100
AcDbEntity
  8
部品1
100
AcDbCircle
 10
5438.01706620664
 20
4589.682158604662
 30
0.0
 40
7.0
100
AcDbArc
 50
183.2473427903227
 51
270.0
  0
ARC
  5
1BE4C
330
747D
100
AcDbEntity
  8
部品1
 48
50.0
100
AcDbCircle
 10
5419.645255995963
 20
4696.349157766348
 30
0.0
 40
0.7
100
AcDbArc
 50
183.2473427903725
 51
262.3418727926567
  0
ARC
  5
1BE4D
330
747D
100
AcDbEntity
  8
部品1
 48
50.0
100
AcDbCircle
 10
5427.881286520804
 20
4604.149157766345
 30
0.0
 40
0.7
100
AcDbArc
 50
183.2473427902981
 51
262.3418727926567
  0
ARC
  5
1BE4E
330
747D
100
AcDbEntity
  8
部品1
 48
50.0
100
AcDbCircle
 10
5427.388217412243
 20
4600.48215860466
 30
0.0
 40
3.0
100
AcDbArc
 50
3.247342790323342
 51
82.34187279263712
  0
ARC
  5
1BE4F
330
747D
100
AcDbEntity
  8
部品1
 48
50.0
100
AcDbCircle
 10
5419.152186887401
 20
4692.682158604663
 30
0.0
 40
3.0
100
AcDbArc
 50
3.247342790322579
 51
82.34187279261989
  0
LINE
  5
1BE50
330
747D
100
AcDbEntity
  8
部品1
100
AcDbLine
 10
5422.147369783585
 20
4692.852098059765
 30
0.0
 11
5427.182410511697
 21
4604.109505226821
 31
0.0
  0
LINE
  5
1BE51
330
747D
100
AcDbEntity
  8
部品1
100
AcDbLine
 10
5430.383400308431
 20
4600.652098059763
 30
0.0
 11
5431.028306115542
 21
4589.285633209423
 31
0.0
  0
LINE
  5
1BE52
330
747D
100
AcDbEntity
  8
部品1
100
AcDbLine
 10
5417.812982654508
 20
4716.285633209421
 30
0.0
 11
5418.946379986855
 21
4696.309505226823
 31
0.0
  0
LINE
  5
1C31B
330
747D
100
AcDbEntity
  8
細線
100
AcDbLine
 10
5808.393321639218
 20
7194.11460238599
 30
0.0
 11
5518.381014990168
 21
7194.114602385948
 31
0.0
  0
LINE
  5
1C320
330
747D
100
AcDbEntity
  8
細線
100
AcDbLine
 10
5876.061783348446
 20
7199.11460238596
 30
0.0
 11
5810.724859929973
 21
7199.11460238595
 31
0.0
  0
LINE
  5
1C321
330
747D
100
AcDbEntity
  8
細線
100
AcDbLine
 10
5878.393321639213
 20
7194.114602385974
 30
0.0
 11
5876.061783348444
 21
7199.11460238596
 31
0.0
  0
LINE
  5
1C322
330
747D
100
AcDbEntity
  8
細線
100
AcDbLine
 10
5808.393321639218
 20
7194.114602385993
 30
0.0
 11
5810.724859929986
 21
7199.114602385979
 31
0.0
  0
LINE
  5
1C333
330
747D
100
AcDbEntity
  8
細線
100
AcDbLine
 10
5683.893321639219
 20
7212.114602385972
 30
0.0
 11
5683.893321639219
 21
7194.114602385949
 31
0.0
  0
LINE
  5
1C334
330
747D
100
AcDbEntity
  8
細線
100
AcDbLine
 10
5642.893321639219
 20
7212.114602385966
 30
0.0
 11
5642.893321639219
 21
7194.114602385949
 31
0.0
  0
LINE
  5
1C335
330
747D
100
AcDbEntity
  8
細線
100
AcDbLine
 10
5683.893321639219
 20
7212.114602385972
 30
0.0
 11
5642.893321639219
 21
7212.114602385966
 31
0.0
  0
ARC
  5
1C337
330
747D
100
AcDbEntity
  8
部品1
100
AcDbCircle
 10
5645.437477516496
 20
7193.61460238597
 30
0.0
 40
1.0
100
AcDbArc
 50
270.0
 51
19.47122063447127
  0
LINE
  5
1C339
330
747D
100
AcDbEntity
  8
部品1
 48
0.01
100
AcDbLine
 10
5638.393321639212
 20
7194.114602385972
 30
0.0
 11
5638.393321639212
 21
7193.114602385971
 31
0.0
  0
LINE
  5
1C33C
330
747D
100
AcDbEntity
  8
部品1
 48
0.01
100
AcDbLine
 10
5638.893321639212
 20
7192.614602385972
 30
0.0
 11
5645.437477516496
 21
7192.61460238597
 31
0.0
  0
ARC
  5
1C33D
330
747D
100
AcDbEntity
  8
部品1
 48
0.01
100
AcDbCircle
 10
5638.893321639212
 20
7193.114602385971
 30
0.0
 40
0.5
100
AcDbArc
 50
180.0
 51
270.0
  0
ARC
  5
1C33F
330
747D
100
AcDbEntity
  8
部品1
100
AcDbCircle
 10
5670.893321639212
 20
7202.61460238597
 30
0.0
 40
26.0
100
AcDbArc
 50
180.0
 51
199.4712206344713
  0
ARC
  5
1C341
330
747D
100
AcDbEntity
  8
部品1
 48
0.01
100
AcDbCircle
 10
5646.893321639212
 20
7207.61460238597
 30
0.0
 40
2.0
100
AcDbArc
 50
90.0
 51
180.0
  0
LINE
  5
1C343
330
747D
100
AcDbEntity
  8
部品1
100
AcDbLine
 10
5644.893321639212
 20
7202.61460238597
 30
0.0
 11
5644.893321639212
 21
7207.61460238597
 31
0.0
  0
ARC
  5
1C344
330
747D
100
AcDbEntity
  8
部品1
100
AcDbCircle
 10
5663.393321639212
 20
7218.414602385971
 30
0.0
 40
16.0
100
AcDbArc
 50
218.3930440192126
 51
254.0576313943716
  0
ARC
  5
1C346
330
747D
100
AcDbEntity
  8
部品1
100
AcDbCircle
 10
5648.501713264025
 20
7206.61460238597
 30
0.0
 40
3.0
100
AcDbArc
 50
38.39304401921267
 51
90.0
  0
LINE
  5
1C347
330
747D
100
AcDbEntity
  8
部品1
 48
0.01
100
AcDbLine
 10
5646.893321639212
 20
7209.61460238597
 30
0.0
 11
5648.501713264025
 21
7209.61460238597
 31
0.0
  0
ARC
  5
1C358
330
747D
100
AcDbEntity
  8
部品1
100
AcDbCircle
 10
5663.393321639212
 20
7218.414602385971
 30
0.0
 40
16.0
100
AcDbArc
 50
285.9423686056284
 51
321.6069559807873
  0
LINE
  5
1C35E
330
747D
100
AcDbEntity
  8
部品1
100
AcDbLine
 10
5666.964035853483
 20
7202.914602385971
 30
0.0
 11
5659.82260742494
 21
7202.914602385971
 31
0.0
  0
ARC
  5
1C360
330
747D
100
AcDbEntity
  8
部品1
100
AcDbCircle
 10
5666.964035853483
 20
7205.914602385971
 30
0.0
 40
3.0
100
AcDbArc
 50
270.0
 51
285.9423686056284
  0
ARC
  5
1C362
330
747D
100
AcDbEntity
  8
部品1
100
AcDbCircle
 10
5659.82260742494
 20
7205.914602385971
 30
0.0
 40
3.0
100
AcDbArc
 50
254.0576313943716
 51
270.0
  0
LINE
  5
1C363
330
747D
100
AcDbEntity
  8
部品1
 48
0.01
100
AcDbLine
 10
5679.893321639212
 20
7209.61460238597
 30
0.0
 11
5678.284930014401
 21
7209.61460238597
 31
0.0
  0
ARC
  5
1C366
330
747D
100
AcDbEntity
  8
部品1
100
AcDbCircle
 10
5678.284930014401
 20
7206.61460238597
 30
0.0
 40
3.0
100
AcDbArc
 50
90.0
 51
141.6069559807873
  0
ARC
  5
1C368
330
747D
100
AcDbEntity
  8
部品1
 48
0.01
100
AcDbCircle
 10
5679.893321639212
 20
7207.61460238597
 30
0.0
 40
2.0
100
AcDbArc
 50
0.0
 51
90.0
  0
LINE
  5
1C369
330
747D
100
AcDbEntity
  8
部品1
100
AcDbLine
 10
5681.893321639212
 20
7202.61460238597
 30
0.0
 11
5681.893321639212
 21
7207.61460238597
 31
0.0
  0
ARC
  5
1C36C
330
747D
100
AcDbEntity
  8
部品1
100
AcDbCircle
 10
5655.893321639212
 20
7202.61460238597
 30
0.0
 40
26.0
100
AcDbArc
 50
340.5287793655287
 51
0.0
  0
ARC
  5
1C36D
330
747D
100
AcDbEntity
  8
部品1
100
AcDbCircle
 10
5681.349165761928
 20
7193.61460238597
 30
0.0
 40
1.0
100
AcDbArc
 50
160.5287793655287
 51
270.0
  0
LINE
  5
1C36F
330
747D
100
AcDbEntity
  8
部品1
 48
0.01
100
AcDbLine
 10
5687.893321639212
 20
7192.614602385972
 30
0.0
 11
5681.28081620915
 21
7192.61460238597
 31
0.0
  0
LINE
  5
1C372
330
747D
100
AcDbEntity
  8
部品1
 48
0.01
100
AcDbLine
 10
5688.393321639212
 20
7194.114602385972
 30
0.0
 11
5688.393321639212
 21
7193.114602385971
 31
0.0
  0
LINE
  5
1C373
330
747D
100
AcDbEntity
  8
部品1
 48
0.01
100
AcDbLine
 10
5688.393321639212
 20
7194.114602385972
 30
0.0
 11
5688.393321639212
 21
7193.114602385971
 31
0.0
  0
ARC
  5
1C374
330
747D
100
AcDbEntity
  8
部品1
 48
0.01
100
AcDbCircle
 10
5687.893321639212
 20
7193.114602385971
 30
0.0
 40
0.5
100
AcDbArc
 50
270.0
 51
0.0
  0
LINE
  5
1C389
330
747D
100
AcDbEntity
  8
細線
100
AcDbLine
 10
6055.893321639216
 20
7228.114602386042
 30
0.0
 11
6058.224859929984
 21
7233.114602386028
 31
0.0
  0
LINE
  5
1C38A
330
747D
100
AcDbEntity
  8
細線
100
AcDbLine
 10
6125.89332163921
 20
7228.114602386025
 30
0.0
 11
6123.561783348443
 21
7233.11460238601
 31
0.0
  0
LINE
  5
1C38B
330
747D
100
AcDbEntity
  8
細線
100
AcDbLine
 10
6123.561783348444
 20
7233.11460238601
 30
0.0
 11
6058.22485992997
 21
7233.114602386
 31
0.0
  0
LINE
  5
1C38C
330
747D
100
AcDbEntity
  8
細線
100
AcDbLine
 10
6195.893321639218
 20
7228.114602386064
 30
0.0
 11
6198.224859929986
 21
7233.114602386049
 31
0.0
  0
LINE
  5
1C38D
330
747D
100
AcDbEntity
  8
細線
100
AcDbLine
 10
6263.561783348446
 20
7233.114602386031
 30
0.0
 11
6198.224859929972
 21
7233.11460238602
 31
0.0
  0
LINE
  5
1C38E
330
747D
100
AcDbEntity
  8
細線
100
AcDbLine
 10
6265.893321639213
 20
7228.114602386046
 30
0.0
 11
6263.561783348445
 21
7233.114602386031
 31
0.0
  0
LINE
  5
1C3A8
330
747D
100
AcDbEntity
  8
細線
100
AcDbLine
 10
6681.893321639228
 20
7264.114602385994
 30
0.0
 11
6679.794937177532
 21
7268.614602385993
 31
0.0
  0
LINE
  5
1C3A9
330
747D
100
AcDbEntity
  8
細線
100
AcDbLine
 10
6611.893321639233
 20
7264.114602386012
 30
0.0
 11
6614.224859930001
 21
7269.114602385997
 31
0.0
  0
LINE
  5
1C3AB
330
747D
100
AcDbEntity
  8
細線
100
AcDbLine
 10
6541.893321639218
 20
7264.114602386003
 30
0.0
 11
6539.794937177525
 21
7268.614602385993
 31
0.0
  0
LINE
  5
1C3AC
330
747D
100
AcDbEntity
  8
細線
100
AcDbLine
 10
6471.893321639223
 20
7264.114602386022
 30
0.0
 11
6473.991706100905
 21
7268.614602385993
 31
0.0
  0
LINE
  5
1C3AE
330
747D
100
AcDbEntity
  8
細線
100
AcDbLine
 10
6611.893321639228
 20
7264.114602386001
 30
0.0
 11
6541.893321639218
 21
7264.114602386003
 31
0.0
  0
LINE
  5
1C3AF
330
747D
100
AcDbEntity
  8
細線
100
AcDbLine
 10
6471.893321639226
 20
7264.114602386029
 30
0.0
 11
6375.393321639224
 21
7264.114602386031
 31
0.0
  0
LINE
  5
1C3B0
330
747D
100
AcDbEntity
  8
細線
100
AcDbLine
 10
6195.893321639203
 20
7228.114602386032
 30
0.0
 11
6125.893321639208
 21
7228.114602386032
 31
0.0
  0
LINE
  5
1C3B2
330
747D
100
AcDbEntity
  8
細線
100
AcDbLine
 10
6055.893321639213
 20
7228.114602386034
 30
0.0
 11
5969.393321639229
 21
7228.114602386037
 31
0.0
  0
LINE
  5
1CF26
330
747D
100
AcDbEntity
  8
部品1
100
AcDbLine
 10
6809.393321639181
 20
8086.114602385979
 30
0.0
 11
6837.393321639182
 21
8086.114602385979
 31
0.0
  0
LINE
  5
1CF27
330
747D
100
AcDbEntity
  8
部品1
100
AcDbLine
 10
5495.393321639189
 20
8086.114602385906
 30
0.0
 11
5467.39332163919
 21
8086.114602385906
 31
0.0
  0
LINE
  5
1D0C3
330
747D
100
AcDbEntity
  8
仕様書枠
 48
50.0
100
AcDbLine
 10
16307.19999999998
 20
8349.600000000002
 30
0.0
 11
13127.19999999999
 21
8349.600000000004
 31
0.0
  0
TEXT
  5
1D0C4
330
747D
100
AcDbEntity
  8
文字
 62
     7
 48
50.0
100
AcDbText
 10
13248.77747366447
 20
8720.013745883731
 30
0.0
 40
100.0
  1
15
  7
STYLE1
100
AcDbText
  0
TEXT
  5
1D0C5
330
747D
100
AcDbEntity
  8
文字
 62
     7
 48
50.0
100
AcDbText
 10
13583.11819016569
 20
9570.013745883727
 30
0.0
 40
100.0
  1
母屋中
  7
STYLE1
100
AcDbText
  0
TEXT
  5
1D0C6
330
747D
100
AcDbEntity
  8
文字
 62
     7
 48
50.0
100
AcDbText
 10
15022.63965474516
 20
9570.013745883725
 30
0.0
 40
100.0
  1
F12            1.0
  7
STYLE1
100
AcDbText
  0
DIMENSION
  5
1D99A
330
747D
100
AcDbEntity
  8
寸法
 48
50.0
100
AcDbDimension
  2
*D14
 10
6737.393321639174
 20
2062.634829304279
 30
0.0
 11
6837.393321639175
 21
2062.634829304279
 31
0.0
 70
   160
 71
     5
 42
199.9999999999982
  3
INABA_S40G
100
AcDbAlignedDimension
 13
6937.393321639174
 23
2348.682158604655
 33
0.0
 14
6737.393321639174
 24
2348.682158604656
 34
0.0
100
AcDbRotatedDimension
  0
LINE
  5
1D99B
330
747D
100
AcDbEntity
  8
破線
 48
5.0
100
AcDbLine
 10
6737.393321639174
 20
2548.682158604658
 30
0.0
 11
6737.393321639174
 21
2348.682158604656
 31
0.0
  0
LINE
  5
1D99C
330
747D
100
AcDbEntity
  8
破線
 48
5.0
100
AcDbLine
 10
6937.393321639174
 20
2548.682158604658
 30
0.0
 11
6937.393321639174
 21
2348.682158604655
 31
0.0
  0
LINE
  5
1D99D
330
747D
100
AcDbEntity
  8
破線
 48
5.0
100
AcDbLine
 10
6937.393321639174
 20
2348.682158604655
 30
0.0
 11
6737.393321639174
 21
2348.682158604656
 31
0.0
  0
LINE
  5
1D99E
330
747D
100
AcDbEntity
  8
破線
 48
5.0
100
AcDbLine
 10
5557.393321639177
 20
2548.682158604658
 30
0.0
 11
5557.393321639176
 21
2348.682158604657
 31
0.0
  0
LINE
  5
1D99F
330
747D
100
AcDbEntity
  8
破線
 48
5.0
100
AcDbLine
 10
5557.393321639176
 20
2348.682158604657
 30
0.0
 11
5357.393321639178
 21
2348.682158604657
 31
0.0
  0
LINE
  5
1D9A0
330
747D
100
AcDbEntity
  8
破線
 48
5.0
100
AcDbLine
 10
5357.393321639177
 20
2548.682158604658
 30
0.0
 11
5357.393321639178
 21
2348.682158604657
 31
0.0
  0
LINE
  5
1D9E8
330
747D
100
AcDbEntity
  8
細線
100
AcDbLine
 10
5957.393321639201
 20
7224.114602385935
 30
0.0
 11
5957.393321639202
 21
7228.114602385936
 31
0.0
  0
LINE
  5
1D9E9
330
747D
100
AcDbEntity
  8
細線
100
AcDbLine
 10
5957.393321639201
 20
7224.114602385935
 30
0.0
 11
5937.393321639212
 21
7224.114602385935
 31
0.0
  0
LINE
  5
1D9EA
330
747D
100
AcDbEntity
  8
細線
100
AcDbLine
 10
5937.393321639212
 20
7224.114602385935
 30
0.0
 11
5937.393321639222
 21
7258.114602385941
 31
0.0
  0
LINE
  5
1D9EB
330
747D
100
AcDbEntity
  8
細線
100
AcDbLine
 10
5978.393321639219
 20
7194.114602385949
 30
0.0
 11
5978.393321639227
 21
7224.114602385949
 31
0.0
  0
LINE
  5
1D9EC
330
747D
100
AcDbEntity
  8
細線
100
AcDbLine
 10
5978.393321639226
 20
7224.114602385949
 30
0.0
 11
5963.393321639223
 21
7224.114602385944
 31
0.0
  0
LINE
  5
1D9ED
330
747D
100
AcDbEntity
  8
細線
100
AcDbLine
 10
5963.393321639221
 20
7217.114602385945
 30
0.0
 11
5963.393321639223
 21
7224.114602385944
 31
0.0
  0
LINE
  5
1D9EE
330
747D
100
AcDbEntity
  8
細線
100
AcDbLine
 10
5963.393321639202
 20
7228.11460238594
 30
0.0
 11
5957.393321639202
 21
7228.11460238594
 31
0.0
  0
LINE
  5
1D9EF
330
747D
100
AcDbEntity
  8
細線
100
AcDbLine
 10
5969.393321639228
 20
7227.41460238594
 30
0.0
 11
5969.393321639228
 21
7228.11460238594
 31
0.0
  0
ARC
  5
1D9F0
330
747D
100
AcDbEntity
  8
細線
100
AcDbCircle
 10
5967.393321639227
 20
7227.41460238594
 30
0.0
 40
2.0
100
AcDbArc
 50
270.0
 51
0.0
  0
LINE
  5
1D9F1
330
747D
100
AcDbEntity
  8
細線
100
AcDbLine
 10
5965.393321639228
 20
7225.41460238594
 30
0.0
 11
5967.393321639228
 21
7225.41460238594
 31
0.0
  0
LINE
  5
1D9F2
330
747D
100
AcDbEntity
  8
細線
100
AcDbLine
 10
5963.393321639228
 20
7227.41460238594
 30
0.0
 11
5963.393321639228
 21
7228.11460238594
 31
0.0
  0
ARC
  5
1D9F3
330
747D
100
AcDbEntity
  8
細線
100
AcDbCircle
 10
5965.393321639226
 20
7227.41460238594
 30
0.0
 40
2.0
100
AcDbArc
 50
180.0
 51
270.0
  0
LINE
  5
1D9F5
330
747D
100
AcDbEntity
  8
細線
100
AcDbLine
 10
5952.393321639218
 20
7251.114602385941
 30
0.0
 11
5952.39332163922
 21
7258.114602385943
 31
0.0
  0
ARC
  5
1D9FA
330
747D
100
AcDbEntity
  8
細線
100
AcDbCircle
 10
6371.393321639223
 20
7263.414602386031
 30
0.0
 40
2.0
100
AcDbArc
 50
180.0
 51
270.0
  0
LINE
  5
1D9FB
330
747D
100
AcDbEntity
  8
細線
100
AcDbLine
 10
6369.393321639223
 20
7263.414602386032
 30
0.0
 11
6369.393321639223
 21
7264.114602386031
 31
0.0
  0
LINE
  5
1D9FC
330
747D
100
AcDbEntity
  8
細線
100
AcDbLine
 10
6371.393321639224
 20
7261.414602386032
 30
0.0
 11
6373.393321639223
 21
7261.414602386032
 31
0.0
  0
ARC
  5
1D9FD
330
747D
100
AcDbEntity
  8
細線
100
AcDbCircle
 10
6373.393321639222
 20
7263.414602386031
 30
0.0
 40
2.0
100
AcDbArc
 50
270.0
 51
0.0
  0
LINE
  5
1D9FE
330
747D
100
AcDbEntity
  8
細線
100
AcDbLine
 10
6375.393321639223
 20
7263.414602386032
 30
0.0
 11
6375.393321639223
 21
7264.114602386031
 31
0.0
  0
LINE
  5
1DD51
330
747D
100
AcDbEntity
  8
細線
100
AcDbLine
 10
5952.39332163922
 20
7258.114602385943
 30
0.0
 11
5937.393321639221
 21
7258.114602385941
 31
0.0
  0
MTEXT
  5
1DD76
330
747D
100
AcDbEntity
  8
寸法
 62
     7
 48
50.0
100
AcDbMText
 10
6423.561062985706
 20
9128.341163699303
 30
0.0
 40
96.0
 41
0.0
 71
     5
 72
     1
  1
棚 2段
  7
STYLE1
 11
0.0000000000000001
 21
1.0
 31
0.0
 73
     1
 44
1.0
1001
ACAD
1000
MTEXTBEGIN
1070
    73
1070
     1
1070
    44
1040
1.0
1070
    74
1070
     0
1000
MTEXTEND
  0
LINE
  5
1F88C
330
747D
100
AcDbEntity
  8
細線
100
AcDbLine
 10
5878.393321639176
 20
4480.682158604657
 30
0.0
 11
5878.393321639176
 21
2697.682158604664
 31
0.0
  0
LINE
  5
1F88D
330
747D
100
AcDbEntity
  8
細線
100
AcDbLine
 10
5808.393321639176
 20
4480.682158604657
 30
0.0
 11
5808.393321639176
 21
2697.682158604664
 31
0.0
  0
LINE
  5
1F88F
330
747D
100
AcDbEntity
  8
部品1
100
AcDbLine
 10
6384.393321639175
 20
4480.68215860466
 30
0.0
 11
6384.393321639175
 21
2705.182158604679
 31
0.0
  0
LINE
  5
1FD0F
330
747D
100
AcDbEntity
  8
細線
100
AcDbLine
 10
6265.893321639175
 20
4480.682158604665
 30
0.0
 11
6265.893321639175
 21
2705.182158604679
 31
0.0
  0
LINE
  5
1FD10
330
747D
100
AcDbEntity
  8
細線
100
AcDbLine
 10
6195.893321639174
 20
4480.682158604665
 30
0.0
 11
6195.893321639174
 21
2705.182158604679
 31
0.0
  0
LINE
  5
1FD11
330
747D
100
AcDbEntity
  8
細線
100
AcDbLine
 10
6125.893321639175
 20
4480.682158604665
 30
0.0
 11
6125.893321639175
 21
2705.182158604679
 31
0.0
  0
LINE
  5
1FD12
330
747D
100
AcDbEntity
  8
細線
100
AcDbLine
 10
6055.893321639175
 20
4480.682158604665
 30
0.0
 11
6055.893321639175
 21
2705.182158604679
 31
0.0
  0
LINE
  5
1FD13
330
747D
100
AcDbEntity
  8
部品1
100
AcDbLine
 10
5942.393321639151
 20
9821.114602385996
 30
0.0
 11
5942.393321639151
 21
9793.114602385998
 31
0.0
  0
LINE
  5
20078
330
747D
100
AcDbEntity
  8
部品1
100
AcDbLine
 10
5523.893321639123
 20
9764.614602386004
 30
0.0
 11
6354.393321639168
 21
9764.614602385986
 31
0.0
  0
LINE
  5
20079
330
747D
100
AcDbEntity
  8
破線
 48
10.0
100
AcDbLine
 10
5547.39332163912
 20
9741.114602386005
 30
0.0
 11
6354.393321639174
 21
9741.114602385986
 31
0.0
  0
LINE
  5
2007A
330
747D
100
AcDbEntity
  8
部品1
 48
50.0
100
AcDbLine
 10
5495.393321639198
 20
9793.114602386005
 30
0.0
 11
5523.893321639131
 21
9764.614602386004
 31
0.0
  0
DIMENSION
  5
2007C
330
747D
100
AcDbEntity
  8
寸法
 48
50.0
100
AcDbDimension
  2
*D15
 10
6279.342003308322
 20
10068.70993557172
 30
0.0
 11
6482.829114031175
 21
10068.70993557172
 31
0.0
 70
   160
 71
     5
 42
449.9999999999982
  3
INABA_S40G
100
AcDbAlignedDimension
 13
6804.39332163916
 23
9788.614602385997
 33
0.0
 14
6354.393321639163
 24
9788.614602385997
 34
0.0
100
AcDbRotatedDimension
  0
LINE
  5
2007D
330
747D
100
AcDbEntity
  8
部品1
100
AcDbLine
 10
6354.393321639051
 20
9792.364602386008
 30
0.0
 11
6354.393321639262
 21
8519.364602386003
 31
0.0
  0
LINE
  5
2007E
330
747D
100
AcDbEntity
  8
細線
 48
50.0
100
AcDbLine
 10
6804.393321639266
 20
8519.364602386003
 30
0.0
 11
6354.393321639051
 21
9792.364602386008
 31
0.0
  0
LINE
  5
20080
330
747D
100
AcDbEntity
  8
細線
 48
50.0
100
AcDbLine
 10
6354.393321639262
 20
8519.364602386003
 30
0.0
 11
6804.393321639055
 21
9792.364602386012
 31
0.0
  0
LINE
  5
20081
330
747D
100
AcDbEntity
  8
部品1
100
AcDbLine
 10
6804.393321639055
 20
9792.364602386012
 30
0.0
 11
6804.393321639266
 21
8519.364602386003
 31
0.0
  0
LINE
  5
20082
330
747D
100
AcDbEntity
  8
部品1
100
AcDbLine
 10
6804.393321639299
 20
7268.614602385993
 30
0.0
 11
6354.3933216393
 21
7268.614602385993
 31
0.0
  0
LINE
  5
200C0
330
747D
100
AcDbEntity
  8
部品1
 48
50.0
100
AcDbLine
 10
5942.393321639117
 20
9764.614602385993
 30
0.0
 11
5942.393321639301
 21
7321.614602385928
 31
0.0
  0
LINE
  5
20BAF
330
747D
100
AcDbEntity
  8
破線
 48
5.0
100
AcDbLine
 10
11275.69070344666
 20
2548.682158604658
 30
0.0
 11
11275.69070344666
 21
2348.682158604657
 31
0.0
  0
LINE
  5
20BB0
330
747D
100
AcDbEntity
  8
破線
 48
5.0
100
AcDbLine
 10
11475.69070344666
 20
2348.682158604656
 30
0.0
 11
11275.69070344666
 21
2348.682158604657
 31
0.0
  0
LINE
  5
20BB1
330
747D
100
AcDbEntity
  8
破線
 48
5.0
100
AcDbLine
 10
11475.69070344666
 20
2548.682158604658
 30
0.0
 11
11475.69070344666
 21
2348.682158604656
 31
0.0
  0
DIMENSION
  5
20BB2
330
747D
100
AcDbEntity
  8
寸法
 48
50.0
100
AcDbDimension
  2
*D16
 10
8700.69070344666
 20
2062.634829304279
 30
0.0
 11
8800.69070344666
 21
2062.634829304279
 31
0.0
 70
   160
 71
     5
 42
199.9999999999963
  3
INABA_S40G
100
AcDbAlignedDimension
 13
8900.690703446656
 23
2348.682158604655
 33
0.0
 14
8700.69070344666
 24
2348.682158604656
 34
0.0
100
AcDbRotatedDimension
  0
LINE
  5
20BB3
330
747D
100
AcDbEntity
  8
破線
 48
5.0
100
AcDbLine
 10
8700.690703446657
 20
2548.682158604658
 30
0.0
 11
8700.69070344666
 21
2348.682158604655
 31
0.0
  0
LINE
  5
20BB4
330
747D
100
AcDbEntity
  8
破線
 48
5.0
100
AcDbLine
 10
8900.690703446656
 20
2548.682158604658
 30
0.0
 11
8900.690703446656
 21
2348.682158604655
 31
0.0
  0
LINE
  5
20BB5
330
747D
100
AcDbEntity
  8
破線
 48
5.0
100
AcDbLine
 10
8900.690703446656
 20
2348.682158604655
 30
0.0
 11
8700.69070344666
 21
2348.682158604655
 31
0.0
  0
DIMENSION
  5
20BB6
330
747D
100
AcDbEntity
  8
寸法
 48
50.0
100
AcDbDimension
  2
*D17
 10
8551.190700200022
 20
2548.682158604657
 30
0.0
 11
8551.190700200022
 21
2448.682158604658
 31
0.0
 70
   160
 71
     5
 42
200.0000000000009
  3
INABA_S40G
100
AcDbAlignedDimension
 13
8700.69070344666
 23
2348.682158604656
 33
0.0
 14
8675.690703446656
 24
2548.682158604657
 34
0.0
 50
90.0
100
AcDbRotatedDimension
1001
ACAD
1000
DSTYLE
1002
{
1070
   174
1070
     0
1070
   272
1070
     1
1070
   288
1070
     0
1070
   341
1005
0
1002
}
  0
DIMENSION
  5
20BBF
330
747D
100
AcDbEntity
  8
寸法
 48
50.0
100
AcDbDimension
  2
*D18
 10
8152.582296678293
 20
4598.027417477989
 30
0.0
 11
8163.247771937218
 21
4968.874080719686
 31
0.0
 70
   161
 71
     5
 42
141.0
  3
INABA_S40G
100
AcDbAlignedDimension
 13
8732.586723605235
 23
4722.404907439337
 33
0.0
 14
8728.533268048611
 24
4581.463183673625
 34
0.0
1001
ACAD
1000
DSTYLE
1002
{
1070
   174
1070
     0
1070
   272
1070
     1
1070
   288
1070
     0
1070
   341
1005
0
1002
}
  0
LINE
  5
20BC2
330
747D
100
AcDbEntity
  8
細線
 48
50.0
100
AcDbLine
 10
11270.69070344666
 20
4488.682158604658
 30
0.0
 11
11270.69070344666
 21
2698.682158604658
 31
0.0
  0
LINE
  5
20BC3
330
747D
100
AcDbEntity
  8
細線
 48
50.0
100
AcDbLine
 10
11285.69070344666
 20
4488.682158604658
 30
0.0
 11
11285.69070344666
 21
2698.682158604658
 31
0.0
  0
LINE
  5
20BC4
330
747D
100
AcDbEntity
  8
細線
 48
50.0
100
AcDbLine
 10
11145.69070344666
 20
4488.682158604658
 30
0.0
 11
11145.69070344666
 21
2698.682158604658
 31
0.0
  0
LINE
  5
20BC5
330
747D
100
AcDbEntity
  8
細線
 48
50.0
100
AcDbLine
 10
11130.69070344666
 20
4488.682158604658
 30
0.0
 11
11130.69070344666
 21
2698.682158604658
 31
0.0
  0
LINE
  5
20BC6
330
747D
100
AcDbEntity
  8
細線
 48
50.0
100
AcDbLine
 10
10990.69070344666
 20
4488.682158604658
 30
0.0
 11
10990.69070344666
 21
2698.682158604658
 31
0.0
  0
LINE
  5
20BC7
330
747D
100
AcDbEntity
  8
細線
 48
50.0
100
AcDbLine
 10
11005.69070344666
 20
4488.682158604658
 30
0.0
 11
11005.69070344666
 21
2698.682158604658
 31
0.0
  0
LINE
  5
20BC8
330
747D
100
AcDbEntity
  8
部品1
100
AcDbLine
 10
10088.19070344666
 20
4488.682158604657
 30
0.0
 11
10088.19070344666
 21
2698.682158604658
 31
0.0
  0
LINE
  5
20BC9
330
747D
100
AcDbEntity
  8
細線
 48
50.0
100
AcDbLine
 10
9745.690703446662
 20
4488.682158604657
 30
0.0
 11
9745.690703446662
 21
2698.682158604658
 31
0.0
  0
LINE
  5
20BCA
330
747D
100
AcDbEntity
  8
細線
 48
50.0
100
AcDbLine
 10
9730.690703446661
 20
4488.682158604657
 30
0.0
 11
9730.690703446661
 21
2698.682158604658
 31
0.0
  0
LINE
  5
20BCB
330
747D
100
AcDbEntity
  8
細線
 48
50.0
100
AcDbLine
 10
9870.690703446662
 20
4488.682158604657
 30
0.0
 11
9870.690703446662
 21
2698.682158604658
 31
0.0
  0
LINE
  5
20BCC
330
747D
100
AcDbEntity
  8
細線
 48
50.0
100
AcDbLine
 10
9885.690703446661
 20
4488.682158604657
 30
0.0
 11
9885.690703446661
 21
2698.682158604658
 31
0.0
  0
LINE
  5
20BCD
330
747D
100
AcDbEntity
  8
細線
 48
50.0
100
AcDbLine
 10
10025.69070344666
 20
4488.682158604657
 30
0.0
 11
10025.69070344666
 21
2698.682158604658
 31
0.0
  0
LINE
  5
20BCE
330
747D
100
AcDbEntity
  8
細線
 48
50.0
100
AcDbLine
 10
10010.69070344666
 20
4488.682158604657
 30
0.0
 11
10010.69070344666
 21
2698.682158604658
 31
0.0
  0
LINE
  5
20BCF
330
747D
100
AcDbEntity
  8
部品1
100
AcDbLine
 10
9668.190703446658
 20
4488.682158604657
 30
0.0
 11
9668.190703446658
 21
2698.682158604658
 31
0.0
  0
DIMENSION
  5
20C4D
330
747D
100
AcDbEntity
  8
寸法
 48
50.0
100
AcDbDimension
  2
*D19
 10
11483.19070344665
 20
5122.339612183963
 30
0.0
 11
11689.23794754114
 21
5122.339612183963
 31
0.0
 70
   160
 71
     5
 42
80.0
  3
INABA_S40G
100
AcDbAlignedDimension
 13
11403.19070344665
 23
4670.492838216311
 33
0.0
 14
11483.19070344665
 24
4668.682158604659
 34
0.0
100
AcDbRotatedDimension
1001
ACAD
1000
DSTYLE
1002
{
1070
   174
1070
     0
1070
   272
1070
     1
1070
   288
1070
     0
1070
   341
1005
0
1002
}
  0
LINE
  5
20C66
330
747D
100
AcDbEntity
  8
細線
 48
50.0
100
AcDbLine
 10
8905.690703446657
 20
4488.682158604657
 30
0.0
 11
8905.690703446657
 21
2698.682158604658
 31
0.0
  0
LINE
  5
20C67
330
747D
100
AcDbEntity
  8
細線
 48
50.0
100
AcDbLine
 10
8890.690703446656
 20
4488.682158604657
 30
0.0
 11
8890.690703446656
 21
2698.682158604658
 31
0.0
  0
LINE
  5
20C68
330
747D
100
AcDbEntity
  8
細線
 48
50.0
100
AcDbLine
 10
9030.690703446657
 20
4488.682158604657
 30
0.0
 11
9030.690703446657
 21
2698.682158604658
 31
0.0
  0
LINE
  5
20C69
330
747D
100
AcDbEntity
  8
細線
 48
50.0
100
AcDbLine
 10
9045.690703446657
 20
4488.682158604657
 30
0.0
 11
9045.690703446657
 21
2698.682158604658
 31
0.0
  0
LINE
  5
20C6A
330
747D
100
AcDbEntity
  8
細線
 48
50.0
100
AcDbLine
 10
9185.690703446658
 20
4488.682158604657
 30
0.0
 11
9185.690703446658
 21
2698.682158604658
 31
0.0
  0
LINE
  5
20C6B
330
747D
100
AcDbEntity
  8
細線
 48
50.0
100
AcDbLine
 10
9170.690703446657
 20
4488.682158604657
 30
0.0
 11
9170.690703446657
 21
2698.682158604658
 31
0.0
  0
LINE
  5
20C6C
330
747D
100
AcDbEntity
  8
細線
 48
50.0
100
AcDbLine
 10
9590.690703446657
 20
4488.682158604657
 30
0.0
 11
9590.690703446657
 21
2698.682158604658
 31
0.0
  0
LINE
  5
20C6D
330
747D
100
AcDbEntity
  8
細線
 48
50.0
100
AcDbLine
 10
9605.690703446658
 20
4488.682158604657
 30
0.0
 11
9605.690703446658
 21
2698.682158604658
 31
0.0
  0
LINE
  5
20C6E
330
747D
100
AcDbEntity
  8
細線
 48
50.0
100
AcDbLine
 10
9465.690703446657
 20
4488.682158604657
 30
0.0
 11
9465.690703446657
 21
2698.682158604658
 31
0.0
  0
LINE
  5
20C6F
330
747D
100
AcDbEntity
  8
細線
 48
50.0
100
AcDbLine
 10
9450.690703446657
 20
4488.682158604657
 30
0.0
 11
9450.690703446657
 21
2698.682158604658
 31
0.0
  0
LINE
  5
20C70
330
747D
100
AcDbEntity
  8
細線
 48
50.0
100
AcDbLine
 10
9310.690703446658
 20
4488.682158604657
 30
0.0
 11
9310.690703446658
 21
2698.682158604658
 31
0.0
  0
LINE
  5
20C71
330
747D
100
AcDbEntity
  8
細線
 48
50.0
100
AcDbLine
 10
9325.690703446657
 20
4488.682158604657
 30
0.0
 11
9325.690703446657
 21
2698.682158604658
 31
0.0
  0
LWPOLYLINE
  5
20C74
330
747D
100
AcDbEntity
  8
部品1
100
AcDbPolyline
 90
        4
 70
     1
 43
0.0
 10
9716.455370332438
 20
1798.702130334838
 10
9716.455370332438
 20
1558.809808789306
 10
10479.92603656088
 20
1558.809808789306
 10
10479.92603656088
 20
1798.702130334838
  0
TEXT
  5
20C75
330
747D
100
AcDbEntity
  8
部品1
100
AcDbText
 10
9805.901471756044
 20
1605.808601116315
 30
0.0
 40
135.0
  1
側面図
  7
STYLE2
100
AcDbText
  0
LINE
  5
20C7B
330
747D
100
AcDbEntity
  8
部品1
100
AcDbLine
 10
8820.690703446656
 20
2648.682158604657
 30
0.0
 11
11355.69070344665
 21
2648.682158604657
 31
0.0
  0
LINE
  5
20C7C
330
747D
100
AcDbEntity
  8
部品1
100
AcDbLine
 10
11395.69070344665
 20
2648.682158604658
 30
0.0
 11
11403.19070344666
 21
2648.682158604658
 31
0.0
  0
LINE
  5
20C81
330
747D
100
AcDbEntity
  8
破線
  6
HIDDEN
 48
5.0
100
AcDbLine
 10
8820.690703446656
 20
2548.682158604658
 30
0.0
 11
8820.690703446656
 21
2543.682158604657
 31
0.0
  0
LINE
  5
20C82
330
747D
100
AcDbEntity
  8
破線
  6
HIDDEN
 48
5.0
100
AcDbLine
 10
8780.690703446664
 20
2548.682158604658
 30
0.0
 11
8780.690703446664
 21
2543.682158604657
 31
0.0
  0
LINE
  5
20C83
330
747D
100
AcDbEntity
  8
破線
  6
HIDDEN
 48
5.0
100
AcDbLine
 10
11395.69070344665
 20
2548.682158604658
 30
0.0
 11
11395.69070344665
 21
2543.682158604658
 31
0.0
  0
LINE
  5
20C84
330
747D
100
AcDbEntity
  8
破線
  6
HIDDEN
 48
5.0
100
AcDbLine
 10
11355.69070344665
 20
2548.682158604658
 30
0.0
 11
11355.69070344665
 21
2543.682158604658
 31
0.0
  0
ARC
  5
20C85
330
747D
100
AcDbEntity
  8
部品1
 48
50.0
100
AcDbCircle
 10
11390.69070344665
 20
2688.682158604658
 30
0.0
 40
5.0
100
AcDbArc
 50
0.0
 51
90.0
  0
ARC
  5
20C86
330
747D
100
AcDbEntity
  8
部品1
 48
50.0
100
AcDbCircle
 10
11360.69070344665
 20
2688.682158604658
 30
0.0
 40
5.0
100
AcDbArc
 50
90.0
 51
180.0
  0
LINE
  5
20C87
330
747D
100
AcDbEntity
  8
部品1
100
AcDbLine
 10
11390.69070344665
 20
2693.682158604658
 30
0.0
 11
11360.69070344665
 21
2693.682158604658
 31
0.0
  0
LINE
  5
20C88
330
747D
100
AcDbEntity
  8
部品1
 48
50.0
100
AcDbLine
 10
11395.69070344665
 20
2688.682158604658
 30
0.0
 11
11395.69070344665
 21
2548.682158604658
 31
0.0
  0
LINE
  5
20C89
330
747D
100
AcDbEntity
  8
部品1
 48
50.0
100
AcDbLine
 10
11355.69070344665
 20
2688.682158604658
 30
0.0
 11
11355.69070344665
 21
2548.682158604658
 31
0.0
  0
ARC
  5
20C8A
330
747D
100
AcDbEntity
  8
部品1
 48
50.0
100
AcDbCircle
 10
8815.690703446657
 20
2688.682158604657
 30
0.0
 40
5.0
100
AcDbArc
 50
0.0
 51
90.0
  0
ARC
  5
20C8B
330
747D
100
AcDbEntity
  8
部品1
 48
50.0
100
AcDbCircle
 10
8785.690703446658
 20
2688.682158604657
 30
0.0
 40
5.0
100
AcDbArc
 50
90.0
 51
180.0
  0
LINE
  5
20C8C
330
747D
100
AcDbEntity
  8
部品1
100
AcDbLine
 10
8785.690703446658
 20
2693.682158604657
 30
0.0
 11
8815.690703446657
 21
2693.682158604657
 31
0.0
  0
LINE
  5
20C8D
330
747D
100
AcDbEntity
  8
部品1
 48
50.0
100
AcDbLine
 10
8820.690703446656
 20
2688.682158604657
 30
0.0
 11
8820.690703446656
 21
2548.682158604658
 31
0.0
  0
LINE
  5
20C8E
330
747D
100
AcDbEntity
  8
部品1
 48
50.0
100
AcDbLine
 10
8780.690703446657
 20
2688.682158604657
 30
0.0
 11
8780.690703446657
 21
2548.682158604658
 31
0.0
  0
LINE
  5
20C8F
330
747D
100
AcDbEntity
  8
破線
  6
HIDDEN
 48
5.0
100
AcDbLine
 10
8820.690703446656
 20
2543.682158604657
 30
0.0
 11
8835.690703446656
 21
2395.982158604657
 31
0.0
  0
LINE
  5
20C90
330
747D
100
AcDbEntity
  8
破線
  6
HIDDEN
 48
5.0
100
AcDbLine
 10
8780.690703446657
 20
2543.682158604657
 30
0.0
 11
8765.690703446656
 21
2395.982158604657
 31
0.0
  0
LINE
  5
20C91
330
747D
100
AcDbEntity
  8
破線
  6
HIDDEN
 48
5.0
100
AcDbLine
 10
8835.690703446656
 20
2395.982158604657
 30
0.0
 11
8835.690703446656
 21
2393.682158604657
 31
0.0
  0
LINE
  5
20C92
330
747D
100
AcDbEntity
  8
破線
  6
HIDDEN
 48
5.0
100
AcDbLine
 10
8765.690703446656
 20
2395.982158604657
 30
0.0
 11
8765.690703446656
 21
2393.682158604657
 31
0.0
  0
LINE
  5
20C93
330
747D
100
AcDbEntity
  8
破線
  6
HIDDEN
 48
5.0
100
AcDbLine
 10
8765.690703446656
 20
2393.682158604657
 30
0.0
 11
8835.690703446656
 21
2393.682158604657
 31
0.0
  0
LINE
  5
20C94
330
747D
100
AcDbEntity
  8
破線
  6
HIDDEN
 48
5.0
100
AcDbLine
 10
11410.69070344665
 20
2395.982158604658
 30
0.0
 11
11410.69070344665
 21
2393.682158604658
 31
0.0
  0
LINE
  5
20C95
330
747D
100
AcDbEntity
  8
破線
  6
HIDDEN
 48
5.0
100
AcDbLine
 10
11395.69070344665
 20
2543.682158604658
 30
0.0
 11
11410.69070344665
 21
2395.982158604658
 31
0.0
  0
LINE
  5
20C96
330
747D
100
AcDbEntity
  8
破線
  6
HIDDEN
 48
5.0
100
AcDbLine
 10
11340.69070344665
 20
2395.982158604658
 30
0.0
 11
11340.69070344665
 21
2393.682158604658
 31
0.0
  0
LINE
  5
20C97
330
747D
100
AcDbEntity
  8
破線
  6
HIDDEN
 48
5.0
100
AcDbLine
 10
11355.69070344665
 20
2543.682158604658
 30
0.0
 11
11340.69070344665
 21
2395.982158604658
 31
0.0
  0
LINE
  5
20C98
330
747D
100
AcDbEntity
  8
破線
  6
HIDDEN
 48
5.0
100
AcDbLine
 10
11410.69070344665
 20
2393.682158604658
 30
0.0
 11
11340.69070344665
 21
2393.682158604658
 31
0.0
  0
DIMENSION
  5
20CA8
330
747D
100
AcDbEntity
  8
寸法
 48
50.0
100
AcDbDimension
  2
*D20
 10
8713.190703446656
 20
5342.550298915579
 30
0.0
 11
10116.54962833403
 21
5342.550298915579
 31
0.0
 70
   160
 71
     5
 42
2770.0
  3
INABA_S40G
100
AcDbAlignedDimension
 13
11483.19070344665
 23
4668.682158604659
 33
0.0
 14
8713.190703446656
 24
4723.682158604662
 34
0.0
100
AcDbRotatedDimension
1001
ACAD
1000
DSTYLE
1002
{
1070
   174
1070
     0
1070
   272
1070
     1
1070
   288
1070
     0
1070
   341
1005
0
1002
}
  0
DIMENSION
  5
20CA9
330
747D
100
AcDbEntity
  8
寸法
 48
50.0
100
AcDbDimension
  2
*D21
 10
8713.190703446656
 20
5122.339612183961
 30
0.0
 11
8403.552908171066
 21
5122.339612183961
 31
0.0
 70
   160
 71
     5
 42
60.0
  3
INABA_S40G
100
AcDbAlignedDimension
 13
8773.190703446656
 23
4719.683776727634
 33
0.0
 14
8713.190703446656
 24
4723.682158604662
 34
0.0
100
AcDbRotatedDimension
1001
ACAD
1000
DSTYLE
1002
{
1070
   174
1070
     0
1070
   272
1070
     1
1070
   288
1070
     0
1070
   341
1005
0
1002
}
  0
DIMENSION
  5
20CAA
330
747D
100
AcDbEntity
  8
寸法
 48
50.0
100
AcDbDimension
  2
*D22
 10
8773.190703446656
 20
5122.339612183963
 30
0.0
 11
10127.96089447585
 21
5122.339612183963
 31
0.0
 70
   160
  1
柱外寸法<>
 71
     5
 42
2630.0
  3
INABA_S40G
100
AcDbAlignedDimension
 13
11403.19070344665
 23
4670.492838216311
 33
0.0
 14
8773.190703446656
 24
4719.683776727634
 34
0.0
100
AcDbRotatedDimension
1001
ACAD
1000
DSTYLE
1002
{
1070
   174
1070
     0
1070
   272
1070
     1
1070
   288
1070
     0
1070
   341
1005
0
1002
}
  0
LINE
  5
20CAB
330
747D
100
AcDbEntity
  8
部品1
100
AcDbLine
 10
11203.19070344666
 20
2648.682158604658
 30
0.0
 11
11203.19070344666
 21
2548.682158604658
 31
0.0
  0
LINE
  5
20CAC
330
747D
100
AcDbEntity
  8
部品1
100
AcDbLine
 10
8973.190703446658
 20
2648.682158604657
 30
0.0
 11
8973.190703446658
 21
2548.682158604658
 31
0.0
  0
DIMENSION
  5
20CAE
330
747D
100
AcDbEntity
  8
寸法
100
AcDbDimension
  2
*D23
 10
12108.11786141879
 20
4668.682158604659
 30
0.0
 11
12008.10605039516
 21
3658.682158604661
 31
0.0
 70
    32
 71
     5
 42
2020.000000000001
  3
INABA_S40G
100
AcDbAlignedDimension
 13
11403.19070344666
 23
2648.682158604658
 33
0.0
 14
11483.19070344665
 24
4668.682158604659
 34
0.0
 50
90.0
100
AcDbRotatedDimension
1001
ACAD
1000
DSTYLE
1002
{
1070
   174
1070
     0
1070
   272
1070
     1
1070
   288
1070
     0
1070
   341
1005
0
1002
}
  0
LINE
  5
20CAF
330
747D
100
AcDbEntity
  8
部品1
100
AcDbLine
 10
11348.19070344666
 20
4488.682158604658
 30
0.0
 11
11348.19070344666
 21
2698.682158604658
 31
0.0
  0
LINE
  5
20CB0
330
747D
100
AcDbEntity
  8
部品1
100
AcDbLine
 10
11403.19070344665
 20
4543.216431992396
 30
0.0
 11
11403.19070344666
 21
2548.682158604658
 31
0.0
  0
LINE
  5
20CB1
330
747D
100
AcDbEntity
  8
部品1
100
AcDbLine
 10
9248.190703446658
 20
4488.682158604657
 30
0.0
 11
9248.190703446658
 21
2698.682158604658
 31
0.0
  0
DIMENSION
  5
20CB2
330
747D
100
AcDbEntity
  8
寸法
100
AcDbDimension
  2
*D24
 10
7929.440574263399
 20
2648.682158604657
 30
0.0
 11
7929.440574263397
 21
2342.63491451017
 31
0.0
 70
   160
 71
     5
 42
50.0
  3
INABA_S40G
100
AcDbAlignedDimension
 13
8773.190703446656
 23
2698.682158604658
 33
0.0
 14
8718.190703446657
 24
2648.682158604657
 34
0.0
 50
90.0
100
AcDbRotatedDimension
1001
ACAD
1000
DSTYLE
1002
{
1070
   174
1070
     0
1070
   272
1070
     1
1070
   288
1070
     0
1070
   341
1005
0
1002
}
  0
DIMENSION
  5
20CB3
330
747D
100
AcDbEntity
  8
寸法
100
AcDbDimension
  2
*D25
 10
7629.440574263398
 20
2548.682158604658
 30
0.0
 11
7629.440574263397
 21
2312.634914510169
 31
0.0
 70
   160
 71
     5
 42
100.0
  3
INABA_S40G
100
AcDbAlignedDimension
 13
8718.190703446657
 23
2648.682158604657
 33
0.0
 14
7716.689627551524
 24
2548.682158604658
 34
0.0
 50
90.0
100
AcDbRotatedDimension
1001
ACAD
1000
DSTYLE
1002
{
1070
   174
1070
     0
1070
   272
1070
     1
1070
   288
1070
     0
1070
   341
1005
0
1002
}
  0
DIMENSION
  5
20CB4
330
747D
100
AcDbEntity
  8
寸法
100
AcDbDimension
  2
*D26
 10
7629.440574263397
 20
4723.682158604662
 30
0.0
 11
7529.428763239774
 21
3686.182158604661
 31
0.0
 70
    32
 71
     5
 42
2075.000000000005
  3
INABA_S40G
100
AcDbAlignedDimension
 13
8773.190703446656
 23
2648.682158604657
 33
0.0
 14
8713.190703446656
 24
4723.682158604662
 34
0.0
 50
90.0
100
AcDbRotatedDimension
1001
ACAD
1000
DSTYLE
1002
{
1070
   174
1070
     0
1070
   272
1070
     1
1070
   288
1070
     0
1070
   341
1005
0
1002
}
  0
DIMENSION
  5
20CB5
330
747D
100
AcDbEntity
  8
寸法
100
AcDbDimension
  2
*D27
 10
7929.440574263397
 20
2698.682158604658
 30
0.0
 11
7829.440574263397
 21
3593.682158604659
 31
0.0
 70
    32
 71
     5
 42
1790.0
  3
INABA_S40G
100
AcDbAlignedDimension
 13
8773.190703446656
 23
4488.682158604657
 33
0.0
 14
8773.190703446656
 24
2698.682158604658
 34
0.0
 50
90.0
100
AcDbRotatedDimension
1001
ACAD
1000
DSTYLE
1002
{
1070
   174
1070
     0
1070
   272
1070
     1
1070
   288
1070
     0
1070
   341
1005
0
1002
}
  0
DIMENSION
  5
20CB6
330
747D
100
AcDbEntity
  8
寸法
100
AcDbDimension
  2
*D28
 10
8228.282062049402
 20
2710.682158604657
 30
0.0
 11
8128.282062049402
 21
3595.682158604659
 31
0.0
 70
    32
  1
有効開口部高サ<>
 71
     5
 42
1770.0
  3
INABA_S40G
100
AcDbAlignedDimension
 13
8773.190703446656
 23
4480.682158604657
 33
0.0
 14
8773.190703446656
 24
2710.682158604657
 34
0.0
 50
90.0
100
AcDbRotatedDimension
1001
ACAD
1000
DSTYLE
1002
{
1070
   174
1070
     0
1070
   272
1070
     1
1070
   288
1070
     0
1070
   341
1005
0
1002
}
  0
LINE
  5
20CB7
330
747D
100
AcDbEntity
  8
部品1
100
AcDbLine
 10
8773.190703446656
 20
4580.540678046904
 30
0.0
 11
8773.190703446656
 21
2548.682158604658
 31
0.0
  0
LINE
  5
20CB8
330
747D
100
AcDbEntity
  8
部品1
100
AcDbLine
 10
8828.190703446656
 20
4488.682158604657
 30
0.0
 11
8828.190703446656
 21
2698.682158604658
 31
0.0
  0
LINE
  5
20CB9
330
747D
100
AcDbEntity
  8
部品1
100
AcDbLine
 10
8773.190703446656
 20
2648.682158604657
 30
0.0
 11
8780.690703446657
 21
2648.682158604657
 31
0.0
  0
LINE
  5
20CBA
330
747D
100
AcDbEntity
  8
部品1
100
AcDbLine
 10
8773.190703446656
 20
2698.682158604658
 30
0.0
 11
11403.19070344666
 21
2698.682158604658
 31
0.0
  0
LINE
  5
20CBB
330
747D
100
AcDbEntity
  8
部品1
100
AcDbLine
 10
8773.190703446656
 20
4488.682158604657
 30
0.0
 11
11403.19070344665
 21
4488.682158604657
 31
0.0
  0
LINE
  5
20EFF
330
747D
100
AcDbEntity
  8
部品1
100
AcDbLine
 10
6809.393321639181
 20
8926.114602385977
 30
0.0
 11
6837.393321639182
 21
8926.114602385977
 31
0.0
  0
LINE
  5
20F00
330
747D
100
AcDbEntity
  8
部品1
100
AcDbLine
 10
5495.393321639189
 20
8926.114602385906
 30
0.0
 11
5467.39332163919
 21
8926.114602385906
 31
0.0
  0
LINE
  5
20F5C
330
747D
100
AcDbEntity
  8
部品1
 48
50.0
100
AcDbLine
 10
6809.393321639156
 20
8493.614602385971
 30
0.0
 11
6357.393321639156
 21
8493.614602385971
 31
0.0
  0
LINE
  5
20F5D
330
747D
100
AcDbEntity
  8
部品1
 48
50.0
100
AcDbLine
 10
6809.393321639162
 20
8518.614602385973
 30
0.0
 11
6357.393321639156
 21
8518.614602385971
 31
0.0
  0
LINE
  5
20F5F
330
747D
100
AcDbEntity
  8
部品1
100
AcDbLine
 10
6357.393321639156
 20
8518.614602385971
 30
0.0
 11
6357.393321639156
 21
8493.614602385971
 31
0.0
  0
LINE
  5
20F60
330
747D
100
AcDbEntity
  8
部品1
100
AcDbLine
 10
6821.393321639154
 20
8532.114602385972
 30
0.0
 11
6809.393321639155
 21
8532.114602385972
 31
0.0
  0
LINE
  5
20F61
330
747D
100
AcDbEntity
  8
部品1
100
AcDbLine
 10
6779.393321639151
 20
8518.614602385971
 30
0.0
 11
6779.393321639154
 21
8493.614602385971
 31
0.0
  0
LINE
  5
20F62
330
747D
100
AcDbEntity
  8
部品1
100
AcDbLine
 10
6821.393321639154
 20
8480.114602385972
 30
0.0
 11
6809.393321639155
 21
8480.114602385972
 31
0.0
  0
DIMENSION
  5
20F75
330
747D
100
AcDbEntity
  8
寸法
 48
50.0
100
AcDbDimension
  2
*D29
 10
7217.118555228679
 20
8408.775209349816
 30
0.0
 11
7217.118555228677
 21
9008.672272154639
 31
0.0
 70
   160
 71
     5
 42
1273.000000000007
  3
INABA_S40G
100
AcDbAlignedDimension
 13
6804.393321639055
 23
9792.364602386012
 33
0.0
 14
6804.393321639416
 24
8519.364602386003
 34
0.0
 50
90.0
100
AcDbRotatedDimension
  0
LINE
  5
20F76
330
747D
100
AcDbEntity
  8
部品1
 48
50.0
100
AcDbLine
 10
6804.393321639055
 20
9792.364602386012
 30
0.0
 11
6354.393321639051
 21
9792.364602386008
 31
0.0
  0
LINE
  5
20F77
330
747D
100
AcDbEntity
  8
部品1
100
AcDbLine
 10
6804.393321639295
 20
8519.364602386003
 30
0.0
 11
6354.393321639297
 21
8519.364602386003
 31
0.0
  0
DIMENSION
  5
20F8D
330
747D
100
AcDbEntity
  8
寸法
 48
50.0
100
AcDbDimension
  2
*D30
 10
7216.520932592832
 20
7158.185341852425
 30
0.0
 11
7216.52093259283
 21
7808.284203961149
 31
0.0
 70
   160
 71
     5
 42
1216.000000000003
  3
INABA_S40G
100
AcDbAlignedDimension
 13
6804.393321639174
 23
8484.614602385997
 33
0.0
 14
6804.393321639299
 24
7268.614602385993
 34
0.0
 50
90.0
100
AcDbRotatedDimension
  0
LINE
  5
20F8E
330
747D
100
AcDbEntity
  8
細線
 48
50.0
100
AcDbLine
 10
6804.393321639494
 20
7268.614602385993
 30
0.0
 11
6354.393321639177
 21
8484.614602385994
 31
0.0
  0
LINE
  5
20F8F
330
747D
100
AcDbEntity
  8
細線
 48
50.0
100
AcDbLine
 10
6354.393321639493
 20
7268.614602385993
 30
0.0
 11
6804.393321639179
 21
8484.614602385997
 31
0.0
  0
LINE
  5
20F90
330
747D
100
AcDbEntity
  8
部品1
 48
50.0
100
AcDbLine
 10
6804.393321639174
 20
8484.614602385997
 30
0.0
 11
6354.393321639175
 21
8484.614602385994
 31
0.0
  0
LINE
  5
20F92
330
747D
100
AcDbEntity
  8
部品1
100
AcDbLine
 10
6354.393321639177
 20
8484.614602385994
 30
0.0
 11
6354.393321639493
 21
7268.614602385993
 31
0.0
  0
LINE
  5
20FA9
330
747D
100
AcDbEntity
  8
部品1
100
AcDbLine
 10
6804.393321639179
 20
8484.614602385997
 30
0.0
 11
6804.393321639494
 21
7268.614602385992
 31
0.0
  0
MTEXT
  5
20FAA
330
747D
100
AcDbEntity
  8
寸法
 62
     7
 48
50.0
100
AcDbMText
 10
6423.561062985791
 20
7881.41990628024
 30
0.0
 40
96.0
 41
0.0
 71
     5
 72
     1
  1
棚 2段
  7
STYLE1
 11
0.0000000000000001
 21
1.0
 31
0.0
 73
     1
 44
1.0
1001
ACAD
1000
MTEXTBEGIN
1070
    73
1070
     1
1070
    44
1040
1.0
1070
    74
1070
     0
1000
MTEXTEND
  0
LINE
  5
20FAD
330
747D
100
AcDbEntity
  8
破線
 48
10.0
100
AcDbLine
 10
5547.393321639189
 20
8116.114602385904
 30
0.0
 11
5547.393321639222
 21
7348.114602385907
 31
0.0
  0
LINE
  5
2177B
330
747D
100
AcDbEntity
  8
部品1
100
AcDbLine
 10
10928.19070344665
 20
4488.682158604658
 30
0.0
 11
10928.19070344665
 21
2698.682158604658
 31
0.0
  0
LINE
  5
217BB
330
747D
100
AcDbEntity
  8
細線
 48
50.0
100
AcDbLine
 10
10430.69070344666
 20
4488.682158604657
 30
0.0
 11
10430.69070344666
 21
2698.682158604658
 31
0.0
  0
LINE
  5
217BC
330
747D
100
AcDbEntity
  8
細線
 48
50.0
100
AcDbLine
 10
10445.69070344666
 20
4488.682158604657
 30
0.0
 11
10445.69070344666
 21
2698.682158604658
 31
0.0
  0
LINE
  5
217BD
330
747D
100
AcDbEntity
  8
細線
 48
50.0
100
AcDbLine
 10
10305.69070344666
 20
4488.682158604657
 30
0.0
 11
10305.69070344666
 21
2698.682158604658
 31
0.0
  0
LINE
  5
217BE
330
747D
100
AcDbEntity
  8
細線
 48
50.0
100
AcDbLine
 10
10290.69070344666
 20
4488.682158604657
 30
0.0
 11
10290.69070344666
 21
2698.682158604658
 31
0.0
  0
LINE
  5
217BF
330
747D
100
AcDbEntity
  8
細線
 48
50.0
100
AcDbLine
 10
10150.69070344666
 20
4488.682158604657
 30
0.0
 11
10150.69070344666
 21
2698.682158604658
 31
0.0
  0
LINE
  5
217C0
330
747D
100
AcDbEntity
  8
細線
 48
50.0
100
AcDbLine
 10
10165.69070344666
 20
4488.682158604657
 30
0.0
 11
10165.69070344666
 21
2698.682158604658
 31
0.0
  0
TEXT
  5
21A0B
330
747D
100
AcDbEntity
  8
部品1
 48
50.0
100
AcDbText
 10
10439.77170540775
 20
4745.951251542964
 30
0.0
 40
120.0
  1
37
 50
90.0
  7
STYLE1
100
AcDbText
  0
TEXT
  5
21A0C
330
747D
100
AcDbEntity
  8
部品1
 48
50.0
100
AcDbText
 10
9962.138682742661
 20
4883.452509761247
 30
0.0
 40
120.0
  1
1000
  7
STYLE1
100
AcDbText
  0
LINE
  5
21A0D
330
747D
100
AcDbEntity
  8
部品1
 48
50.0
100
AcDbLine
 10
10273.87084751893
 20
4847.568487608814
 30
0.0
 11
10273.87084751893
 21
4831.368487608814
 31
0.0
  0
LINE
  5
21A0E
330
747D
100
AcDbEntity
  8
部品1
 48
50.0
100
AcDbLine
 10
9973.870847518934
 20
4847.568487608814
 30
0.0
 11
10273.87084751893
 21
4847.568487608814
 31
0.0
  0
LINE
  5
21B81
330
747D
100
AcDbEntity
  8
部品1
100
AcDbLine
 10
8720.735689803619
 20
4722.399893938924
 30
0.0
 11
11475.80258030812
 21
4667.322956313796
 31
0.0
  0
LINE
  5
21B82
330
747D
100
AcDbEntity
  8
部品1
100
AcDbLine
 10
8728.533268048611
 20
4581.463183673625
 30
0.0
 11
11457.8544039865
 21
4542.434758439418
 31
0.0
  0
LINE
  5
21B83
330
747D
100
AcDbEntity
  8
細線
 48
50.0
100
AcDbLine
 10
8746.190703446655
 20
4721.081834980061
 30
0.0
 11
8740.901601891151
 21
4580.996202352707
 31
0.0
  0
LINE
  5
21B84
330
747D
100
AcDbEntity
  8
細線
 48
50.0
100
AcDbLine
 10
11450.15998664034
 20
4667.835581084126
 30
0.0
 11
11445.44302055866
 21
4542.90336514921
 31
0.0
  0
LINE
  5
21B85
330
747D
100
AcDbEntity
  8
部品1
 48
50.0
100
AcDbLine
 10
8713.374989359763
 20
4715.27570476935
 30
0.0
 11
8713.755249137575
 21
4695.348740322938
 31
0.0
  0
LINE
  5
21B86
330
747D
100
AcDbEntity
  8
部品1
 48
50.0
100
AcDbLine
 10
8716.824021243821
 20
4691.773458829466
 30
0.0
 11
8718.527922735185
 21
4602.482962122819
 31
0.0
  0
LINE
  5
21B87
330
747D
100
AcDbEntity
  8
細線
 48
50.0
100
AcDbLine
 10
8714.230126547471
 20
4694.699240446019
 30
0.0
 11
11479.86611129264
 21
4639.07503580519
 31
0.0
  0
LINE
  5
21B88
330
747D
100
AcDbEntity
  8
細線
 48
50.0
100
AcDbLine
 10
8718.990601784758
 20
4601.837728748155
 30
0.0
 11
11468.99426621539
 21
4562.028409773662
 31
0.0
  0
LINE
  5
21B89
330
747D
100
AcDbEntity
  8
部品1
 48
50.0
100
AcDbLine
 10
8721.596694841428
 20
4598.907680629347
 30
0.0
 11
8721.798647461859
 21
4588.324645236254
 31
0.0
  0
ARC
  5
21B8A
330
747D
100
AcDbEntity
  8
部品1
 48
50.0
100
AcDbCircle
 10
8720.373715188102
 20
4715.409259176778
 30
0.0
 40
7.0
100
AcDbArc
 50
87.03587545293501
 51
181.0932240292895
  0
ARC
  5
21B8B
330
747D
100
AcDbEntity
  8
部品1
 48
50.0
100
AcDbCircle
 10
8728.797373290198
 20
4588.458199643683
 30
0.0
 40
7.0
100
AcDbArc
 50
181.0932240292895
 51
267.8377559870533
  0
ARC
  5
21B8C
330
747D
100
AcDbEntity
  8
部品1
100
AcDbCircle
 10
8718.597240914998
 20
4598.850443026163
 30
0.0
 40
3.0
100
AcDbArc
 50
1.093224029289586
 51
80.18775403159162
  0
ARC
  5
21B8D
330
747D
100
AcDbEntity
  8
部品1
100
AcDbCircle
 10
8713.824567317391
 20
4691.716221226283
 30
0.0
 40
3.0
100
AcDbArc
 50
1.093224029289586
 51
80.18775403159162
  0
ARC
  5
21B8E
330
747D
100
AcDbEntity
  8
部品1
100
AcDbCircle
 10
8714.455121720414
 20
4695.36209576368
 30
0.0
 40
0.7
100
AcDbArc
 50
181.0932240292114
 51
260.1877540315916
  0
ARC
  5
21B8F
330
747D
100
AcDbEntity
  8
部品1
100
AcDbCircle
 10
8719.227795318024
 20
4602.496317563561
 30
0.0
 40
0.7
100
AcDbArc
 50
181.0932240292375
 51
260.1877540315916
  0
LINE
  5
21B90
330
747D
100
AcDbEntity
  8
部品1
 48
50.0
100
AcDbLine
 10
11482.40460625736
 20
4659.623310878877
 30
0.0
 11
11480.37398506639
 21
4639.678269621096
 31
0.0
  0
LINE
  5
21B91
330
747D
100
AcDbEntity
  8
部品1
 48
50.0
100
AcDbLine
 10
11477.02141858191
 20
4636.367635548188
 30
0.0
 11
11469.51463931707
 21
4562.635014803175
 31
0.0
  0
LINE
  5
21B92
330
747D
100
AcDbEntity
  8
部品1
 48
50.0
100
AcDbLine
 10
11466.16207283259
 20
4559.324380730263
 30
0.0
 11
11465.08250979284
 21
4548.720763736705
 31
0.0
  0
ARC
  5
21B93
330
747D
100
AcDbEntity
  8
部品1
 48
50.0
100
AcDbCircle
 10
11475.4406056926
 20
4660.332321551651
 30
0.0
 40
7.0
100
AcDbArc
 50
354.1866997665273
 51
87.03587545293501
  0
ARC
  5
21B94
330
747D
100
AcDbEntity
  8
部品1
 48
50.0
100
AcDbCircle
 10
11458.11850922809
 20
4549.429774409478
 30
0.0
 40
7.0
100
AcDbArc
 50
267.8377559870533
 51
354.1866997665273
  0
ARC
  5
21B95
330
747D
100
AcDbEntity
  8
部品1
100
AcDbCircle
 10
11469.14664450319
 20
4559.02051901336
 30
0.0
 40
3.0
100
AcDbArc
 50
95.0921697642102
 51
174.1866997665272
  0
ARC
  5
21B96
330
747D
100
AcDbEntity
  8
部品1
100
AcDbCircle
 10
11480.00599025252
 20
4636.063773831284
 30
0.0
 40
3.0
100
AcDbArc
 50
95.092169764314
 51
174.1866997665272
  0
ARC
  5
21B97
330
747D
100
AcDbEntity
  8
部品1
100
AcDbCircle
 10
11479.67758500992
 20
4639.749170688374
 30
0.0
 40
0.7
100
AcDbArc
 50
275.0921697642102
 51
354.1866997665273
  0
ARC
  5
21B98
330
747D
100
AcDbEntity
  8
部品1
100
AcDbCircle
 10
11468.8182392606
 20
4562.70591587045
 30
0.0
 40
0.7
100
AcDbArc
 50
275.0921697642102
 51
354.1866997666828
  0
LINE
  5
21D69
330
747D
100
AcDbEntity
  8
部品1
100
AcDbLine
 10
6809.39332163917
 20
9346.114602385979
 30
0.0
 11
6837.39332163917
 21
9346.114602385979
 31
0.0
  0
LINE
  5
21D6A
330
747D
100
AcDbEntity
  8
部品1
100
AcDbLine
 10
5495.393321639178
 20
9346.114602385906
 30
0.0
 11
5467.393321639178
 21
9346.114602385906
 31
0.0
  0
LINE
  5
21D7F
330
747D
100
AcDbEntity
  8
部品1
100
AcDbLine
 10
9948.415833875898
 20
4848.886546567675
 30
0.0
 11
10273.87084751893
 21
4831.368487608814
 31
0.0
  0
LINE
  5
21E4C
330
747D
100
AcDbEntity
  8
破線
 48
10.0
100
AcDbLine
 10
5547.393321639222
 20
7348.114602385907
 30
0.0
 11
5550.393321639222
 21
7345.114602385907
 31
0.0
  0
LINE
  5
2285F
330
747D
100
AcDbEntity
  8
破線
 48
10.0
100
AcDbLine
 10
6354.393321639189
 20
8921.114602385966
 30
0.0
 11
5523.893321639162
 21
8921.114602385904
 31
0.0
  0
LINE
  5
22860
330
747D
100
AcDbEntity
  8
破線
 48
10.0
100
AcDbLine
 10
6354.393321639189
 20
8971.114602385965
 30
0.0
 11
5523.89332163916
 21
8971.114602385904
 31
0.0
  0
LINE
  5
22861
330
747D
100
AcDbEntity
  8
破線
 48
10.0
100
AcDbLine
 10
6354.393321639189
 20
8166.114602385965
 30
0.0
 11
5523.89332163916
 21
8166.114602385903
 31
0.0
  0
LINE
  5
22862
330
747D
100
AcDbEntity
  8
破線
 48
10.0
100
AcDbLine
 10
6354.393321639189
 20
8116.114602385966
 30
0.0
 11
5523.893321639162
 21
8116.114602385904
 31
0.0
  0
LINE
  5
22863
330
747D
100
AcDbEntity
  8
破線
 48
10.0
100
AcDbLine
 10
5547.39332163918
 20
8921.114602385905
 30
0.0
 11
5547.393321639212
 21
8166.114602385906
 31
0.0
  0
LINE
  5
2288A
330
747D
100
AcDbEntity
  8
部品1
100
AcDbLine
 10
10508.19070344665
 20
4488.682158604659
 30
0.0
 11
10508.19070344665
 21
2698.682158604659
 31
0.0
  0
LINE
  5
2288B
330
747D
100
AcDbEntity
  8
細線
 48
50.0
100
AcDbLine
 10
10585.69070344666
 20
4488.682158604659
 30
0.0
 11
10585.69070344666
 21
2698.682158604659
 31
0.0
  0
LINE
  5
2288C
330
747D
100
AcDbEntity
  8
細線
 48
50.0
100
AcDbLine
 10
10570.69070344666
 20
4488.682158604659
 30
0.0
 11
10570.69070344666
 21
2698.682158604659
 31
0.0
  0
LINE
  5
2288D
330
747D
100
AcDbEntity
  8
細線
 48
50.0
100
AcDbLine
 10
10710.69070344666
 20
4488.682158604659
 30
0.0
 11
10710.69070344666
 21
2698.682158604659
 31
0.0
  0
LINE
  5
2288E
330
747D
100
AcDbEntity
  8
細線
 48
50.0
100
AcDbLine
 10
10725.69070344666
 20
4488.682158604659
 30
0.0
 11
10725.69070344666
 21
2698.682158604659
 31
0.0
  0
LINE
  5
2288F
330
747D
100
AcDbEntity
  8
細線
 48
50.0
100
AcDbLine
 10
10865.69070344666
 20
4488.682158604659
 30
0.0
 11
10865.69070344666
 21
2698.682158604659
 31
0.0
  0
LINE
  5
22890
330
747D
100
AcDbEntity
  8
細線
 48
50.0
100
AcDbLine
 10
10850.69070344666
 20
4488.682158604659
 30
0.0
 11
10850.69070344666
 21
2698.682158604659
 31
0.0
  0
LINE
  5
228BE
330
747D
100
AcDbEntity
  8
部品1
 48
50.0
100
AcDbLine
 10
9623.19070344666
 20
2648.682158604658
 30
0.0
 11
9623.19070344666
 21
2548.682158604659
 31
0.0
  0
LINE
  5
228BF
330
747D
100
AcDbEntity
  8
部品1
 48
50.0
100
AcDbLine
 10
9823.190703446659
 20
2648.682158604658
 30
0.0
 11
9823.190703446659
 21
2548.682158604659
 31
0.0
  0
LINE
  5
228C0
330
747D
100
AcDbEntity
  8
部品1
 48
50.0
100
AcDbLine
 10
10428.19070344666
 20
2648.682158604658
 30
0.0
 11
10428.19070344666
 21
2548.682158604659
 31
0.0
  0
LINE
  5
228C1
330
747D
100
AcDbEntity
  8
部品1
 48
50.0
100
AcDbLine
 10
10628.19070344666
 20
2648.682158604658
 30
0.0
 11
10628.19070344666
 21
2548.682158604659
 31
0.0
  0
LINE
  5
22B14
330
747D
100
AcDbEntity
  8
部品1
100
AcDbLine
 10
5495.393321639202
 20
7666.114602385906
 30
0.0
 11
5467.393321639201
 21
7666.114602385906
 31
0.0
  0
LINE
  5
22B15
330
747D
100
AcDbEntity
  8
部品1
100
AcDbLine
 10
6809.393321639193
 20
7666.114602385978
 30
0.0
 11
6837.393321639193
 21
7666.114602385978
 31
0.0
  0
TEXT
  5
23017
330
747D
100
AcDbEntity
  8
文字
 62
     7
 48
50.0
100
AcDbText
 10
13209.4053442172
 20
228.5435242569015
 30
0.0
 40
100.0
  1
○有効開口寸法 ： 686×1770(mm)
  7
STYLE2
100
AcDbText
  0
TEXT
  5
23018
330
747D
100
AcDbEntity
  8
文字
 62
     7
 48
50.0
100
AcDbText
 10
14524.131837222
 20
1031.557706291228
 30
0.0
 40
100.0
  1
NO.04      <縮尺> S=1/40
  7
STYLE2
100
AcDbText
  0
TEXT
  5
23019
330
747D
100
AcDbEntity
  8
文字
 62
     7
 48
50.0
100
AcDbText
 10
14641.2525855784
 20
871.1744590657925
 30
0.0
 40
100.0
  1
～一般型・多雪地型～
  7
STYLE2
100
AcDbText
  0
TEXT
  5
2301A
330
747D
100
AcDbEntity
  8
文字
 62
     7
 48
50.0
100
AcDbText
 10
13209.4053442172
 20
52.87949550329631
 30
0.0
 40
100.0
  1
○床面積 ： 3.60㎡(1.09坪) 　
  7
STYLE2
100
AcDbText
  0
LWPOLYLINE
  5
2307B
330
747D
100
AcDbEntity
  8
部品1
 48
50.0
100
AcDbPolyline
 90
        4
 70
     1
 43
0.0
 10
5587.443321639174
 20
3568.932158604669
 10
5590.343321639176
 20
3568.932158604669
 10
5590.343321639176
 20
3578.432158604669
 10
5587.443321639174
 20
3578.432158604669
  0
CIRCLE
  5
2307C
330
747D
100
AcDbEntity
  8
部品1
 48
50.0
100
AcDbCircle
 10
5588.893321639176
 20
3573.682158604669
 30
0.0
 40
9.0
  0
ARC
  5
2307D
330
747D
100
AcDbEntity
  8
細線
 48
50.0
100
AcDbCircle
 10
5588.893321639176
 20
3573.682158604669
 30
0.0
 40
4.0
100
AcDbArc
 50
111.2538091853132
 51
248.7461908146868
  0
ARC
  5
2307E
330
747D
100
AcDbEntity
  8
細線
 48
50.0
100
AcDbCircle
 10
5588.893321639176
 20
3573.682158604669
 30
0.0
 40
17.5
100
AcDbArc
 50
306.4837370612677
 51
233.5162629387323
  0
LINE
  5
2307F
330
747D
100
AcDbEntity
  8
細線
 48
50.0
100
AcDbLine
 10
5598.893321639171
 20
3549.823198023786
 30
0.0
 11
5598.893321639175
 21
3558.807683824028
 31
0.0
  0
LINE
  5
23080
330
747D
100
AcDbEntity
  8
細線
 48
50.0
100
AcDbLine
 10
5578.893321639175
 20
3549.823198023787
 30
0.0
 11
5578.893321639175
 21
3558.807683824023
 31
0.0
  0
ARC
  5
23081
330
747D
100
AcDbEntity
  8
細線
 48
50.0
100
AcDbCircle
 10
5588.893321639176
 20
3573.682158604669
 30
0.0
 40
26.5
100
AcDbArc
 50
249.3326835063939
 51
290.6673164933835
  0
ARC
  5
23082
330
747D
100
AcDbEntity
  8
細線
 48
50.0
100
AcDbCircle
 10
5597.893321639168
 20
3549.823198023786
 30
0.0
 40
1.0
100
AcDbArc
 50
290.6673164936062
 51
359.9999999998958
  0
ARC
  5
23083
330
747D
100
AcDbEntity
  8
細線
 48
50.0
100
AcDbCircle
 10
5579.893321639175
 20
3549.823198023787
 30
0.0
 40
1.0
100
AcDbArc
 50
180.0
 51
249.3326835066164
  0
ARC
  5
23084
330
747D
100
AcDbEntity
  8
細線
 48
50.0
100
AcDbCircle
 10
5577.893321639175
 20
3558.807683824023
 30
0.0
 40
1.0
100
AcDbArc
 50
0.0
 51
53.51626293873231
  0
ARC
  5
23085
330
747D
100
AcDbEntity
  8
細線
 48
50.0
100
AcDbCircle
 10
5599.893321639179
 20
3558.807683824028
 30
0.0
 40
1.0
100
AcDbArc
 50
126.4837370615127
 51
180.0
  0
ARC
  5
23086
330
747D
100
AcDbEntity
  8
細線
 48
50.0
100
AcDbCircle
 10
5588.893321639176
 20
3573.682158604669
 30
0.0
 40
21.5
100
AcDbArc
 50
255.8014401250294
 51
284.1985598749706
  0
ARC
  5
23087
330
747D
100
AcDbEntity
  8
細線
 48
50.0
100
AcDbCircle
 10
5588.893321639176
 20
3573.682158604669
 30
0.0
 40
16.5
100
AcDbArc
 50
251.9694646069326
 51
288.0305353930674
  0
LINE
  5
23088
330
747D
100
AcDbEntity
  8
細線
 48
50.0
100
AcDbLine
 10
5594.393321639175
 20
3553.129786478862
 30
0.0
 11
5594.393321639175
 21
3557.707178166199
 31
0.0
  0
LINE
  5
23089
330
747D
100
AcDbEntity
  8
細線
 48
50.0
100
AcDbLine
 10
5583.393321639175
 20
3553.129786478862
 30
0.0
 11
5583.393321639175
 21
3557.707178166197
 31
0.0
  0
ARC
  5
2308A
330
747D
100
AcDbEntity
  8
細線
 48
50.0
100
AcDbCircle
 10
5583.693321639178
 20
3557.707178166197
 30
0.0
 40
0.3
100
AcDbArc
 50
71.96946460693259
 51
180.0
  0
ARC
  5
2308B
330
747D
100
AcDbEntity
  8
細線
 48
50.0
100
AcDbCircle
 10
5594.093321639176
 20
3557.707178166199
 30
0.0
 40
0.3
100
AcDbArc
 50
0.0
 51
108.0305353930674
  0
ARC
  5
2308C
330
747D
100
AcDbEntity
  8
細線
 48
50.0
100
AcDbCircle
 10
5594.093321639173
 20
3553.129786478862
 30
0.0
 40
0.3
100
AcDbArc
 50
284.1985598747622
 51
0.0000000001042204
  0
ARC
  5
2308D
330
747D
100
AcDbEntity
  8
細線
 48
50.0
100
AcDbCircle
 10
5583.693321639178
 20
3553.129786478862
 30
0.0
 40
0.3
100
AcDbArc
 50
180.0
 51
255.8014401248081
  0
CIRCLE
  5
2308E
330
747D
100
AcDbEntity
  8
細線
 48
50.0
100
AcDbCircle
 10
5588.893321639176
 20
3573.682158604669
 30
0.0
 40
12.0
  0
ARC
  5
2308F
330
747D
100
AcDbEntity
  8
部品1
 48
50.0
100
AcDbCircle
 10
5588.893321639176
 20
3623.682158604669
 30
0.0
 40
8.5
100
AcDbArc
 50
114.315739171091
 51
245.684260828909
  0
CIRCLE
  5
23090
330
747D
100
AcDbEntity
  8
細線
 48
50.0
100
AcDbCircle
 10
5588.893321639176
 20
3623.682158604669
 30
0.0
 40
4.5
  0
LWPOLYLINE
  5
23091
330
747D
100
AcDbEntity
  8
部品1
 48
50.0
100
AcDbPolyline
 90
        2
 70
     0
 43
0.0
 10
5585.393321639175
 20
3642.357008001651
 10
5585.393321639175
 20
3631.428125297084
  0
CIRCLE
  5
23092
330
747D
100
AcDbEntity
  8
部品1
 48
50.0
100
AcDbCircle
 10
5588.893321639176
 20
3623.682158604669
 30
0.0
 40
19.0
  0
LWPOLYLINE
  5
23093
330
747D
100
AcDbEntity
  8
部品1
 48
50.0
100
AcDbPolyline
 90
        2
 70
     0
 43
0.0
 10
5585.393321639175
 20
3615.936191912254
 10
5585.393321639175
 20
3605.007309207686
  0
LWPOLYLINE
  5
23094
330
747D
100
AcDbEntity
  8
部品1
 48
50.0
100
AcDbPolyline
 90
        2
 70
     0
 43
0.0
 10
5592.393321639175
 20
3631.428125297084
 10
5592.393321639175
 20
3642.357008001651
  0
ARC
  5
23095
330
747D
100
AcDbEntity
  8
部品1
 48
50.0
100
AcDbCircle
 10
5588.893321639176
 20
3623.682158604669
 30
0.0
 40
8.5
100
AcDbArc
 50
294.315739171091
 51
65.68426082890896
  0
LWPOLYLINE
  5
23096
330
747D
100
AcDbEntity
  8
部品1
 48
50.0
100
AcDbPolyline
 90
        2
 70
     0
 43
0.0
 10
5592.393321639175
 20
3605.007309207686
 10
5592.393321639175
 20
3615.936191912254
  0
ARC
  5
23097
330
747D
100
AcDbEntity
  8
細線
 48
50.0
100
AcDbCircle
 10
5588.893321639176
 20
3623.682158604669
 30
0.0
 40
16.5
100
AcDbArc
 50
332.0012352654438
 51
27.99876473455621
  0
ARC
  5
23098
330
747D
100
AcDbEntity
  8
細線
 48
50.0
100
AcDbCircle
 10
5588.893321639176
 20
3623.682158604669
 30
0.0
 40
14.0
100
AcDbArc
 50
326.4074436112986
 51
33.59255638870134
  0
LINE
  5
23099
330
747D
100
AcDbEntity
  8
細線
 48
50.0
100
AcDbLine
 10
5574.324519354844
 20
3631.428125297084
 30
0.0
 11
5577.231417849486
 21
3631.428125297084
 31
0.0
  0
LINE
  5
2309A
330
747D
100
AcDbEntity
  8
細線
 48
50.0
100
AcDbLine
 10
5574.324519354844
 20
3615.936191912254
 30
0.0
 11
5577.231417849486
 21
3615.936191912254
 31
0.0
  0
LINE
  5
2309B
330
747D
100
AcDbEntity
  8
細線
 48
50.0
100
AcDbLine
 10
5600.555225428864
 20
3631.428125297084
 30
0.0
 11
5603.46212392351
 21
3631.428125297084
 31
0.0
  0
LINE
  5
2309C
330
747D
100
AcDbEntity
  8
細線
 48
50.0
100
AcDbLine
 10
5600.555225428864
 20
3615.936191912254
 30
0.0
 11
5603.46212392351
 21
3615.936191912254
 31
0.0
  0
ARC
  5
2309D
330
747D
100
AcDbEntity
  8
細線
 48
50.0
100
AcDbCircle
 10
5588.893321639176
 20
3623.682158604669
 30
0.0
 40
14.0
100
AcDbArc
 50
146.4074436112986
 51
213.5925563887013
  0
ARC
  5
2309E
330
747D
100
AcDbEntity
  8
細線
 48
50.0
100
AcDbCircle
 10
5588.893321639176
 20
3623.682158604669
 30
0.0
 40
16.5
100
AcDbArc
 50
152.0012352654438
 51
207.9987647345562
  0
ARC
  5
2309F
330
747D
100
AcDbEntity
  8
部品1
 48
50.0
100
AcDbCircle
 10
5562.393321639175
 20
3649.182158604669
 30
0.0
 40
5.0
100
AcDbArc
 50
90.0
 51
180.0
  0
ARC
  5
230A0
330
747D
100
AcDbEntity
  8
部品1
 48
50.0
100
AcDbCircle
 10
5562.393321639175
 20
3538.182158604668
 30
0.0
 40
5.0
100
AcDbArc
 50
180.0
 51
270.0
  0
ARC
  5
230A1
330
747D
100
AcDbEntity
  8
部品1
 48
50.0
100
AcDbCircle
 10
5615.393321639174
 20
3538.182158604668
 30
0.0
 40
5.0
100
AcDbArc
 50
270.0
 51
0.0
  0
ARC
  5
230A2
330
747D
100
AcDbEntity
  8
部品1
 48
50.0
100
AcDbCircle
 10
5615.393321639174
 20
3649.182158604669
 30
0.0
 40
5.0
100
AcDbArc
 50
0.0
 51
90.0
  0
LINE
  5
230A3
330
747D
100
AcDbEntity
  8
部品1
 48
50.0
100
AcDbLine
 10
5557.393321639175
 20
3538.182158604668
 30
0.0
 11
5557.393321639175
 21
3649.182158604669
 31
0.0
  0
LINE
  5
230A4
330
747D
100
AcDbEntity
  8
部品1
 48
50.0
100
AcDbLine
 10
5615.393321639174
 20
3533.182158604669
 30
0.0
 11
5562.393321639175
 21
3533.182158604669
 31
0.0
  0
LINE
  5
230A5
330
747D
100
AcDbEntity
  8
部品1
 48
50.0
100
AcDbLine
 10
5620.393321639175
 20
3649.182158604669
 30
0.0
 11
5620.393321639175
 21
3538.182158604668
 31
0.0
  0
ENDSEC
  0
SECTION
  2
OBJECTS
  0
DICTIONARY
  5
7471
330
0
100
AcDbDictionary
281
     1
  3
ACAD_COLOR
350
159B0
  3
ACAD_GROUP
350
7472
  3
ACAD_LAYOUT
350
159B1
  3
ACAD_MATERIAL
350
159AF
  3
ACAD_MLINESTYLE
350
7473
  3
ACAD_PLOTSETTINGS
350
159B2
  3
ACAD_PLOTSTYLENAME
350
159AD
  3
ACDBHEADERROUNDTRIPXREC
350
230B4
  3
AcDbVariableDictionary
350
230B0
  3
CONTENTDICTIONARY
350
E71C
  3
DRAWINGVARIABLESDICT
350
F3B9
  0
DICTIONARY
  5
1D35E
330
7467
100
AcDbDictionary
280
     1
281
     1
  3
ACAD_LAYERSTATES
360
1D35F
  0
DICTIONARY
  5
159B0
102
{ACAD_REACTORS
330
7471
102
}
330
7471
100
AcDbDictionary
281
     1
  0
DICTIONARY
  5
7472
102
{ACAD_REACTORS
330
7471
102
}
330
7471
100
AcDbDictionary
281
     1
  0
DICTIONARY
  5
159B1
102
{ACAD_REACTORS
330
7471
102
}
330
7471
100
AcDbDictionary
281
     1
  3
Model
350
159B3
  3
レイアウト1
350
159B4
  0
DICTIONARY
  5
159AF
102
{ACAD_REACTORS
330
7471
102
}
330
7471
100
AcDbDictionary
281
     1
  0
DICTIONARY
  5
7473
102
{ACAD_REACTORS
330
7471
102
}
330
7471
100
AcDbDictionary
281
     1
  3
STANDARD
350
7480
  0
DICTIONARY
  5
159B2
102
{ACAD_REACTORS
330
7471
102
}
330
7471
100
AcDbDictionary
281
     1
  0
ACDBDICTIONARYWDFLT
  5
159AD
102
{ACAD_REACTORS
330
7471
102
}
330
7471
100
AcDbDictionary
281
     1
  3
Normal
350
159AE
100
AcDbDictionaryWithDefault
340
159AE
  0
DICTIONARY
  5
230B4
102
{ACAD_REACTORS
330
7471
102
}
330
7471
100
AcDbDictionary
281
     1
  3
COLORDICT
350
230B6
  3
MATERIALDICT
350
230B5
  0
DICTIONARY
  5
230B0
102
{ACAD_REACTORS
330
7471
102
}
330
7471
100
AcDbDictionary
281
     1
  3
DIMASSOC
350
230B1
  3
PROJECTNAME
350
230B2
  0
DICTIONARY
  5
E71C
102
{ACAD_REACTORS
330
7471
102
}
330
7471
100
AcDbDictionary
281
     1
  0
DICTIONARY
  5
F3B9
102
{ACAD_REACTORS
330
7471
102
}
330
7471
100
AcDbDictionary
281
     1
1001
DRAWINGVARIABLESXDATA
1000
POLARMODE
1000
1
  0
DICTIONARY
  5
1D35F
102
{ACAD_REACTORS
330
1D35E
102
}
330
1D35E
100
AcDbDictionary
281
     1
  0
LAYOUT
  5
159B3
102
{ACAD_XDICTIONARY
360
230B7
102
}
102
{ACAD_REACTORS
330
159B1
102
}
330
159B1
100
AcDbPlotSettings
  1

  2
EPSON LP-8100
  4
A3
  6

 40
5.873749732971191
 41
5.873747825622558
 42
5.873748779296875
 43
5.873748779296875
 44
297.0106506347656
 45
419.9466552734374
 46
0.0
 47
0.0
 48
0.0
 49
0.0
140
0.0
141
0.0
142
1.0
143
40.0
 70
 11952
 72
     1
 73
     1
 74
     2
  7
inaba.ctb
 75
    24
147
0.025
148
0.0
149
0.0
100
AcDbLayout
  1
Model
 70
     1
 71
     0
 10
0.0
 20
0.0
 11
12.0
 21
9.0
 12
0.0
 22
0.0
 32
0.0
 14
0.0
 24
0.0
 34
0.0
 15
0.0
 25
0.0
 35
0.0
146
0.0
 13
0.0
 23
0.0
 33
0.0
 16
1.0
 26
0.0
 36
0.0
 17
0.0
 27
1.0
 37
0.0
 76
     0
330
747D
  0
LAYOUT
  5
159B4
102
{ACAD_XDICTIONARY
360
230B9
102
}
102
{ACAD_REACTORS
330
159B1
102
}
330
159B1
100
AcDbPlotSettings
  1

  2
自動 EPSON LP-8400FX (TATENO 上)
  4

  6

 40
0.0
 41
0.0
 42
0.0
 43
0.0
 44
0.0
 45
0.0
 46
0.0
 47
0.0
 48
0.0
 49
0.0
140
0.0
141
0.0
142
1.0
143
1.0
 70
   688
 72
     0
 73
     0
 74
     5
  7
inaba.ctb
 75
    16
147
1.0
148
0.0
149
0.0
100
AcDbLayout
  1
レイアウト1
 70
     0
 71
     1
 10
0.0
 20
0.0
 11
420.0
 21
297.0
 12
0.0
 22
0.0
 32
0.0
 14
1.000000000000000E+20
 24
1.000000000000000E+20
 34
1.000000000000000E+20
 15
-1.000000000000000E+20
 25
-1.000000000000000E+20
 35
-1.000000000000000E+20
146
0.0
 13
0.0
 23
0.0
 33
0.0
 16
1.0
 26
0.0
 36
0.0
 17
0.0
 27
1.0
 37
0.0
 76
     0
330
747A
  0
MLINESTYLE
  5
7480
102
{ACAD_REACTORS
330
7473
102
}
330
7473
100
AcDbMlineStyle
  2
STANDARD
 70
     0
  3

 62
     0
 51
90.0
 52
90.0
 71
     2
 49
0.5
 62
   256
  6
BYLAYER
 49
-0.5
 62
   256
  6
BYLAYER
  0
ACDBPLACEHOLDER
  5
159AE
102
{ACAD_REACTORS
330
159AD
102
}
330
159AD
  0
XRECORD
  5
230B6
102
{ACAD_REACTORS
330
230B4
102
}
330
230B4
100
AcDbXrecord
280
     1
340
159B0
  0
XRECORD
  5
230B5
102
{ACAD_REACTORS
330
230B4
102
}
330
230B4
100
AcDbXrecord
280
     1
340
159AF
  0
DICTIONARYVAR
  5
230B1
102
{ACAD_REACTORS
330
230B0
102
}
330
230B0
100
DictionaryVariables
280
     0
  1
1
  0
DICTIONARYVAR
  5
230B2
102
{ACAD_REACTORS
330
230B0
102
}
330
230B0
100
DictionaryVariables
280
     0
  1

  0
DICTIONARY
  5
230B7
330
159B3
100
AcDbDictionary
280
     1
281
     1
  3
ACAD_XREC_ROUNDTRIP
360
230B8
  0
DICTIONARY
  5
230B9
330
159B4
100
AcDbDictionary
280
     1
281
     1
  3
ACAD_XREC_ROUNDTRIP
360
230BA
  0
XRECORD
  5
230B8
102
{ACAD_REACTORS
330
230B7
102
}
330
230B7
100
AcDbXrecord
280
     1
102
SHADEPLOT
 70
     0
102
SHADEPLOTRESLEVEL
 70
     2
102
SHADEPLOTCUSTOMDPI
 70
   150
  0
XRECORD
  5
230BA
102
{ACAD_REACTORS
330
230B9
102
}
330
230B9
100
AcDbXrecord
280
     1
102
SHADEPLOT
 70
     0
102
SHADEPLOTRESLEVEL
 70
     2
102
SHADEPLOTCUSTOMDPI
 70
   300
  0
ENDSEC
  0
EOF
