  0
SECTION
  2
HEADER
  9
$ACADVER
  1
AC1015
  9
$ACADMAINTVER
 70
    20
  9
$DWGCODEPAGE
  3
ANSI_932
  9
$INSBASE
 10
0.0
 20
0.0
 30
0.0
  9
$EXTMIN
 10
139.9999999999995
 20
-0.0000000000000909
 30
0.0
  9
$EXTMAX
 10
16307.2
 20
11409.6
 30
0.0
  9
$LIMMIN
 10
0.0
 20
0.0
  9
$LIMMAX
 10
16800.0
 20
11880.0
  9
$ORTHOMODE
 70
     0
  9
$REGENMODE
 70
     1
  9
$FILLMODE
 70
     1
  9
$QTEXTMODE
 70
     0
  9
$MIRRTEXT
 70
     1
  9
$LTSCALE
 40
20.0
  9
$ATTMODE
 70
     1
  9
$TEXTSIZE
 40
100.0
  9
$TRACEWID
 40
1.0
  9
$TEXTSTYLE
  7
STYLE2
  9
$CLAYER
  8
寸法
  9
$CELTYPE
  6
BYLAYER
  9
$CECOLOR
 62
   256
  9
$CELTSCALE
 40
50.0
  9
$DISPSILH
 70
     0
  9
$DIMSCALE
 40
40.0
  9
$DIMASZ
 40
2.5
  9
$DIMEXO
 40
0.5
  9
$DIMDLI
 40
7.0
  9
$DIMRND
 40
0.0
  9
$DIMDLE
 40
0.0
  9
$DIMEXE
 40
1.5
  9
$DIMTP
 40
0.0
  9
$DIMTM
 40
0.0
  9
$DIMTXT
 40
3.0
  9
$DIMCEN
 40
0.0
  9
$DIMTSZ
 40
0.0
  9
$DIMTOL
 70
     0
  9
$DIMLIM
 70
     0
  9
$DIMTIH
 70
     0
  9
$DIMTOH
 70
     0
  9
$DIMSE1
 70
     0
  9
$DIMSE2
 70
     0
  9
$DIMTAD
 70
     3
  9
$DIMZIN
 70
     8
  9
$DIMBLK
  1

  9
$DIMASO
 70
     1
  9
$DIMSHO
 70
     1
  9
$DIMPOST
  1

  9
$DIMAPOST
  1

  9
$DIMALT
 70
     0
  9
$DIMALTD
 70
     2
  9
$DIMALTF
 40
0.0394
  9
$DIMLFAC
 40
1.0
  9
$DIMTOFL
 70
     1
  9
$DIMTVP
 40
0.0
  9
$DIMTIX
 70
     0
  9
$DIMSOXD
 70
     0
  9
$DIMSAH
 70
     1
  9
$DIMBLK1
  1
DOTSMALL
  9
$DIMBLK2
  1
DOTSMALL
  9
$DIMSTYLE
  2
INABA_S40G
  9
$DIMCLRD
 70
     0
  9
$DIMCLRE
 70
     0
  9
$DIMCLRT
 70
     7
  9
$DIMTFAC
 40
1.0
  9
$DIMGAP
 40
1.0
  9
$DIMJUST
 70
     0
  9
$DIMSD1
 70
     0
  9
$DIMSD2
 70
     0
  9
$DIMTOLJ
 70
     1
  9
$DIMTZIN
 70
     0
  9
$DIMALTZ
 70
     0
  9
$DIMALTTZ
 70
     0
  9
$DIMUPT
 70
     0
  9
$DIMDEC
 70
     1
  9
$DIMTDEC
 70
     1
  9
$DIMALTU
 70
     2
  9
$DIMALTTD
 70
     2
  9
$DIMTXSTY
  7
STYLE1
  9
$DIMAUNIT
 70
     0
  9
$DIMADEC
 70
     0
  9
$DIMALTRND
 40
0.0
  9
$DIMAZIN
 70
     0
  9
$DIMDSEP
 70
    46
  9
$DIMATFIT
 70
     3
  9
$DIMFRAC
 70
     0
  9
$DIMLDRBLK
  1

  9
$DIMLUNIT
 70
     2
  9
$DIMLWD
 70
    -2
  9
$DIMLWE
 70
    -2
  9
$DIMTMOVE
 70
     0
  9
$LUNITS
 70
     2
  9
$LUPREC
 70
     1
  9
$SKETCHINC
 40
1.0
  9
$FILLETRAD
 40
7.0
  9
$AUNITS
 70
     0
  9
$AUPREC
 70
     0
  9
$MENU
  1
acad
  9
$ELEVATION
 40
0.0
  9
$PELEVATION
 40
0.0
  9
$THICKNESS
 40
0.0
  9
$LIMCHECK
 70
     0
  9
$CHAMFERA
 40
3.0
  9
$CHAMFERB
 40
3.0
  9
$CHAMFERC
 40
0.0
  9
$CHAMFERD
 40
0.0
  9
$SKPOLY
 70
     0
  9
$TDCREATE
 40
2451368.612993866
  9
$TDUCREATE
 40
2451368.237993866
  9
$TDUPDATE
 40
2455575.697670347
  9
$TDUUPDATE
 40
2455575.322670347
  9
$TDINDWG
 40
1.2886737500
  9
$TDUSRTIMER
 40
1.2886737500
  9
$USRTIMER
 70
     1
  9
$ANGBASE
 50
0.0
  9
$ANGDIR
 70
     0
  9
$PDMODE
 70
     3
  9
$PDSIZE
 40
2.0
  9
$PLINEWID
 40
0.0
  9
$SPLFRAME
 70
     0
  9
$SPLINETYPE
 70
     6
  9
$SPLINESEGS
 70
     8
  9
$HANDSEED
  5
23096
  9
$SURFTAB1
 70
     6
  9
$SURFTAB2
 70
     6
  9
$SURFTYPE
 70
     6
  9
$SURFU
 70
     6
  9
$SURFV
 70
     6
  9
$UCSBASE
  2

  9
$UCSNAME
  2

  9
$UCSORG
 10
0.0
 20
0.0
 30
0.0
  9
$UCSXDIR
 10
1.0
 20
0.0
 30
0.0
  9
$UCSYDIR
 10
0.0
 20
1.0
 30
0.0
  9
$UCSORTHOREF
  2

  9
$UCSORTHOVIEW
 70
     0
  9
$UCSORGTOP
 10
0.0
 20
0.0
 30
0.0
  9
$UCSORGBOTTOM
 10
0.0
 20
0.0
 30
0.0
  9
$UCSORGLEFT
 10
0.0
 20
0.0
 30
0.0
  9
$UCSORGRIGHT
 10
0.0
 20
0.0
 30
0.0
  9
$UCSORGFRONT
 10
0.0
 20
0.0
 30
0.0
  9
$UCSORGBACK
 10
0.0
 20
0.0
 30
0.0
  9
$PUCSBASE
  2

  9
$PUCSNAME
  2

  9
$PUCSORG
 10
0.0
 20
0.0
 30
0.0
  9
$PUCSXDIR
 10
1.0
 20
0.0
 30
0.0
  9
$PUCSYDIR
 10
0.0
 20
1.0
 30
0.0
  9
$PUCSORTHOREF
  2

  9
$PUCSORTHOVIEW
 70
     0
  9
$PUCSORGTOP
 10
0.0
 20
0.0
 30
0.0
  9
$PUCSORGBOTTOM
 10
0.0
 20
0.0
 30
0.0
  9
$PUCSORGLEFT
 10
0.0
 20
0.0
 30
0.0
  9
$PUCSORGRIGHT
 10
0.0
 20
0.0
 30
0.0
  9
$PUCSORGFRONT
 10
0.0
 20
0.0
 30
0.0
  9
$PUCSORGBACK
 10
0.0
 20
0.0
 30
0.0
  9
$USERI1
 70
     0
  9
$USERI2
 70
     0
  9
$USERI3
 70
     0
  9
$USERI4
 70
     0
  9
$USERI5
 70
     0
  9
$USERR1
 40
0.0
  9
$USERR2
 40
0.0
  9
$USERR3
 40
0.0
  9
$USERR4
 40
0.0
  9
$USERR5
 40
0.0
  9
$WORLDVIEW
 70
     1
  9
$SHADEDGE
 70
     3
  9
$SHADEDIF
 70
    70
  9
$TILEMODE
 70
     1
  9
$MAXACTVP
 70
    16
  9
$PINSBASE
 10
0.0
 20
0.0
 30
0.0
  9
$PLIMCHECK
 70
     0
  9
$PEXTMIN
 10
1.000000000000000E+20
 20
1.000000000000000E+20
 30
1.000000000000000E+20
  9
$PEXTMAX
 10
-1.000000000000000E+20
 20
-1.000000000000000E+20
 30
-1.000000000000000E+20
  9
$PLIMMIN
 10
0.0
 20
0.0
  9
$PLIMMAX
 10
420.0
 20
297.0
  9
$UNITMODE
 70
     0
  9
$VISRETAIN
 70
     0
  9
$PLINEGEN
 70
     0
  9
$PSLTSCALE
 70
     0
  9
$TREEDEPTH
 70
  3020
  9
$CMLSTYLE
  2
STANDARD
  9
$CMLJUST
 70
     0
  9
$CMLSCALE
 40
1.0
  9
$PROXYGRAPHICS
 70
     1
  9
$MEASUREMENT
 70
     1
  9
$CELWEIGHT
370
    -1
  9
$ENDCAPS
280
     0
  9
$JOINSTYLE
280
     0
  9
$LWDISPLAY
290
     0
  9
$INSUNITS
 70
     0
  9
$HYPERLINKBASE
  1

  9
$STYLESHEET
  1
inaba.ctb
  9
$XEDIT
290
     1
  9
$CEPSNTYPE
380
     0
  9
$PSTYLEMODE
290
     1
  9
$FINGERPRINTGUID
  2
{3B57B35E-7D77-4BBF-81B7-6C583B9EB24C}
  9
$VERSIONGUID
  2
{BDFA0B15-935C-4FB4-A2EF-328FC4A4C59D}
  9
$EXTNAMES
290
     1
  9
$PSVPSCALE
 40
0.0
  9
$OLESTARTUP
290
     0
  0
ENDSEC
  0
SECTION
  2
CLASSES
  0
CLASS
  1
ACDBDICTIONARYWDFLT
  2
AcDbDictionaryWithDefault
  3
ObjectDBX Classes
 90
        0
280
     0
281
     0
  0
CLASS
  1
DICTIONARYVAR
  2
AcDbDictionaryVar
  3
ObjectDBX Classes
 90
        0
280
     0
281
     0
  0
CLASS
  1
ACDBPLACEHOLDER
  2
AcDbPlaceHolder
  3
ObjectDBX Classes
 90
        0
280
     0
281
     0
  0
CLASS
  1
LAYOUT
  2
AcDbLayout
  3
ObjectDBX Classes
 90
        0
280
     0
281
     0
  0
ENDSEC
  0
SECTION
  2
TABLES
  0
TABLE
  2
VPORT
  5
746D
330
0
100
AcDbSymbolTable
 70
     2
  0
VPORT
  5
2308E
330
746D
100
AcDbSymbolTableRecord
100
AcDbViewportTableRecord
  2
*Active
 70
     0
 10
0.0
 20
0.0
 11
1.0
 21
1.0
 12
8223.761025238502
 22
6348.534373990247
 13
0.0
 23
0.0
 14
10.0
 24
10.0
 15
10.0
 25
10.0
 16
0.0
 26
0.0
 36
1.0
 17
0.0
 27
0.0
 37
0.0
 40
12805.99765711426
 41
1.525925925925925
 42
50.0
 43
0.0
 44
0.0
 50
0.0
 51
0.0
 71
     0
 72
     0
 73
     1
 74
     0
 75
     0
 76
     0
 77
     0
 78
     0
281
     0
 65
     1
110
0.0
120
0.0
130
0.0
111
1.0
121
0.0
131
0.0
112
0.0
122
1.0
132
0.0
 79
     0
146
0.0
  0
ENDTAB
  0
TABLE
  2
LTYPE
  5
746A
330
0
100
AcDbSymbolTable
 70
     3
  0
LTYPE
  5
7477
330
746A
100
AcDbSymbolTableRecord
100
AcDbLinetypeTableRecord
  2
BYBLOCK
 70
     0
  3

 72
    65
 73
     0
 40
0.0
  0
LTYPE
  5
7478
330
746A
100
AcDbSymbolTableRecord
100
AcDbLinetypeTableRecord
  2
BYLAYER
 70
     0
  3

 72
    65
 73
     0
 40
0.0
  0
LTYPE
  5
7479
330
746A
100
AcDbSymbolTableRecord
100
AcDbLinetypeTableRecord
  2
CONTINUOUS
 70
     0
  3
Solid line
 72
    65
 73
     0
 40
0.0
  0
LTYPE
  5
781A
330
746A
100
AcDbSymbolTableRecord
100
AcDbLinetypeTableRecord
  2
HIDDEN
 70
     0
  3
__ __ __ __ __ __ __ __ __ __ __ __ __ __ __ __
 72
    65
 73
     2
 40
0.375
 49
0.25
 74
     0
 49
-0.125
 74
     0
  0
LTYPE
  5
781B
330
746A
100
AcDbSymbolTableRecord
100
AcDbLinetypeTableRecord
  2
PHANTOM
 70
     0
  3
______  __  __  ______  __  __  ______  __  __ 
 72
    65
 73
     6
 40
2.5
 49
1.25
 74
     0
 49
-0.25
 74
     0
 49
0.25
 74
     0
 49
-0.25
 74
     0
 49
0.25
 74
     0
 49
-0.25
 74
     0
  0
ENDTAB
  0
TABLE
  2
LAYER
  5
7467
102
{ACAD_XDICTIONARY
360
1C640
102
}
330
0
100
AcDbSymbolTable
 70
    10
  0
LAYER
  5
7474
330
7467
100
AcDbSymbolTableRecord
100
AcDbLayerTableRecord
  2
0
 70
     0
 62
     7
  6
CONTINUOUS
370
    -3
390
159AE
  0
LAYER
  5
DEB3
330
7467
100
AcDbSymbolTableRecord
100
AcDbLayerTableRecord
  2
寸法
 70
     0
 62
     4
  6
CONTINUOUS
370
    -3
390
159AE
  0
LAYER
  5
DEB4
330
7467
100
AcDbSymbolTableRecord
100
AcDbLayerTableRecord
  2
部品1
 70
     0
 62
     7
  6
CONTINUOUS
370
    -3
390
159AE
  0
LAYER
  5
DEB5
330
7467
100
AcDbSymbolTableRecord
100
AcDbLayerTableRecord
  2
補助
 70
     0
 62
    -1
  6
CONTINUOUS
370
    -3
390
159AE
  0
LAYER
  5
DEB6
330
7467
100
AcDbSymbolTableRecord
100
AcDbLayerTableRecord
  2
文字
 70
     0
 62
     7
  6
CONTINUOUS
370
    -3
390
159AE
  0
LAYER
  5
F255
330
7467
100
AcDbSymbolTableRecord
100
AcDbLayerTableRecord
  2
DEFPOINTS
 70
     0
 62
     7
  6
CONTINUOUS
290
     0
370
    -3
390
159AE
  0
LAYER
  5
10B54
330
7467
100
AcDbSymbolTableRecord
100
AcDbLayerTableRecord
  2
仕様書枠
 70
     0
 62
   230
  6
CONTINUOUS
370
    -3
390
159AE
  0
LAYER
  5
11729
330
7467
100
AcDbSymbolTableRecord
100
AcDbLayerTableRecord
  2
Ｇ．Ｌ
 70
     0
 62
    30
  6
CONTINUOUS
370
    -3
390
159AE
  0
LAYER
  5
1173F
330
7467
100
AcDbSymbolTableRecord
100
AcDbLayerTableRecord
  2
細線
 70
     0
 62
     5
  6
CONTINUOUS
370
    -3
390
159AE
  0
LAYER
  5
142E2
330
7467
100
AcDbSymbolTableRecord
100
AcDbLayerTableRecord
  2
破線
 70
     0
 62
     2
  6
HIDDEN
370
    -3
390
159AE
  0
ENDTAB
  0
TABLE
  2
STYLE
  5
7468
330
0
100
AcDbSymbolTable
 70
     4
  0
STYLE
  5
7475
330
7468
100
AcDbSymbolTableRecord
100
AcDbTextStyleTableRecord
  2
STANDARD
 70
     0
 40
0.0
 41
1.0
 50
0.0
 71
     0
 42
4.0
  3
txt
  4
C:\AutoCAD LT\bigfont.shx
  0
STYLE
  5
F706
330
7468
100
AcDbSymbolTableRecord
100
AcDbTextStyleTableRecord
  2
STYLE1
 70
     0
 40
0.0
 41
1.0
 50
0.0
 71
     0
 42
100.0
  3
isocp.shx
  4
bigfont.shx
  0
STYLE
  5
103BF
330
7468
100
AcDbSymbolTableRecord
100
AcDbTextStyleTableRecord
  2
STYLE2
 70
     0
 40
0.0
 41
1.0
 50
0.0
 71
     0
 42
100.0
  3
MS PGothic.ttf
  4

1001
ACAD
1000
MS PGothic
1071
    32818
  0
STYLE
  5
23025
330
7468
100
AcDbSymbolTableRecord
100
AcDbTextStyleTableRecord
  2
STYLE3
 70
     0
 40
0.0
 41
1.0
 50
0.0
 71
     0
 42
100.0
  3

  4

1001
ACAD
1000
DFPGothic-EB
1071
    32818
  0
ENDTAB
  0
TABLE
  2
VIEW
  5
746B
330
0
100
AcDbSymbolTable
 70
     0
  0
ENDTAB
  0
TABLE
  2
UCS
  5
746C
330
0
100
AcDbSymbolTable
 70
     0
  0
ENDTAB
  0
TABLE
  2
APPID
  5
746E
330
0
100
AcDbSymbolTable
 70
     6
  0
APPID
  5
7476
330
746E
100
AcDbSymbolTableRecord
100
AcDbRegAppTableRecord
  2
ACAD
 70
     0
  0
APPID
  5
DEA9
330
746E
100
AcDbSymbolTableRecord
100
AcDbRegAppTableRecord
  2
CONTENTBLOCKICON
 70
     0
  0
APPID
  5
DEAA
330
746E
100
AcDbSymbolTableRecord
100
AcDbRegAppTableRecord
  2
CONTENTBLOCKDESCRIPTION
 70
     0
  0
APPID
  5
E71D
330
746E
100
AcDbSymbolTableRecord
100
AcDbRegAppTableRecord
  2
CONTENTTABDATA
 70
     0
  0
APPID
  5
E71E
330
746E
100
AcDbSymbolTableRecord
100
AcDbRegAppTableRecord
  2
CONTENTCURRENTTAB
 70
     0
  0
APPID
  5
F3BA
330
746E
100
AcDbSymbolTableRecord
100
AcDbRegAppTableRecord
  2
DRAWINGVARIABLESXDATA
 70
     0
  0
ENDTAB
  0
TABLE
  2
DIMSTYLE
  5
746F
330
0
100
AcDbSymbolTable
 70
     2
100
AcDbDimStyleTable
 71
     1
340
F71F
  0
DIMSTYLE
105
F71F
102
{ACAD_REACTORS
330
141C3
330
14206
330
146E8
330
13BF0
330
14521
330
14526
330
1452E
330
14530
330
14531
330
14532
330
14533
330
14587
330
1EBC9
330
1EBD6
330
1EBE3
330
21F83
330
21F82
330
21F81
330
2224D
330
2224E
330
2224F
330
22250
330
22251
330
22255
330
22258
330
22259
330
2225A
330
22283
330
22292
330
22293
330
22297
330
22ECC
102
}
330
746F
100
AcDbSymbolTableRecord
100
AcDbDimStyleTableRecord
  2
INABA_S40G
 70
     0
 40
40.0
 41
2.5
 42
0.5
 43
7.0
 44
1.5
 73
     0
 74
     0
 77
     3
 78
     8
140
3.0
141
0.0
143
0.0394
147
1.0
172
     1
173
     1
174
     1
178
     7
271
     1
288
     1
340
F706
341
F770
343
F770
344
F770
  0
DIMSTYLE
105
23026
330
746F
100
AcDbSymbolTableRecord
100
AcDbDimStyleTableRecord
  2
INABA_S20G
 70
     0
 40
20.0
 41
2.5
 42
0.5
 43
7.0
 44
1.5
 73
     0
 74
     0
 77
     3
 78
     8
140
3.0
141
0.0
143
0.0394
147
1.0
172
     1
173
     1
174
     1
178
     7
271
     1
340
F706
341
F770
343
F770
344
F770
  0
ENDTAB
  0
TABLE
  2
BLOCK_RECORD
  5
7466
330
0
100
AcDbSymbolTable
 70
    33
  0
BLOCK_RECORD
  5
747D
330
7466
100
AcDbSymbolTableRecord
100
AcDbBlockTableRecord
  2
*MODEL_SPACE
340
159B3
  0
BLOCK_RECORD
  5
747A
330
7466
100
AcDbSymbolTableRecord
100
AcDbBlockTableRecord
  2
*PAPER_SPACE
340
159B4
  0
BLOCK_RECORD
  5
F770
330
7466
100
AcDbSymbolTableRecord
100
AcDbBlockTableRecord
  2
_DOTSMALL
340
0
102
{BLKREFS
331
1C487
331
1C488
331
1F266
331
1F267
331
1F29C
331
1F29D
331
1F2A5
331
1F2A6
331
1F5F3
331
1F5F4
331
1F607
331
1F608
331
21FC6
331
21FC7
331
22DA3
331
22DA4
331
22DAC
331
22DAD
331
22DB6
331
22DB7
331
22DC0
331
22DC1
331
22DC9
331
22DCA
331
22DD4
331
22DD5
331
22DDD
331
22DDE
331
22DE6
331
22DE7
331
22DF1
331
22DF2
331
22DFB
331
22DFC
331
22E04
331
22E05
331
22E0D
331
22E0E
331
22E16
331
22E17
331
22EDC
331
22EDD
331
22EEA
331
22EEB
331
22EF3
331
22EF4
331
22EFC
331
22EFD
331
22F05
331
22F06
331
22F10
331
22F11
331
22F1B
331
22F1C
331
22F26
331
22F27
331
22F77
331
22F78
331
22F98
331
22F99
331
22FC8
331
22FC9
331
22FD6
331
22FD7
102
}
  0
BLOCK_RECORD
  5
13DA8
330
7466
100
AcDbSymbolTableRecord
100
AcDbBlockTableRecord
  2
*D1
340
0
  0
BLOCK_RECORD
  5
141B5
330
7466
100
AcDbSymbolTableRecord
100
AcDbBlockTableRecord
  2
*D2
340
0
  0
BLOCK_RECORD
  5
141F9
330
7466
100
AcDbSymbolTableRecord
100
AcDbBlockTableRecord
  2
*D3
340
0
  0
BLOCK_RECORD
  5
1458A
330
7466
100
AcDbSymbolTableRecord
100
AcDbBlockTableRecord
  2
*D4
340
0
  0
BLOCK_RECORD
  5
14598
330
7466
100
AcDbSymbolTableRecord
100
AcDbBlockTableRecord
  2
*D5
340
0
  0
BLOCK_RECORD
  5
145A4
330
7466
100
AcDbSymbolTableRecord
100
AcDbBlockTableRecord
  2
*D6
340
0
  0
BLOCK_RECORD
  5
145BE
330
7466
100
AcDbSymbolTableRecord
100
AcDbBlockTableRecord
  2
*D7
340
0
  0
BLOCK_RECORD
  5
145CC
330
7466
100
AcDbSymbolTableRecord
100
AcDbBlockTableRecord
  2
*D8
340
0
  0
BLOCK_RECORD
  5
145D8
330
7466
100
AcDbSymbolTableRecord
100
AcDbBlockTableRecord
  2
*D9
340
0
  0
BLOCK_RECORD
  5
145E4
330
7466
100
AcDbSymbolTableRecord
100
AcDbBlockTableRecord
  2
*D10
340
0
  0
BLOCK_RECORD
  5
14608
330
7466
100
AcDbSymbolTableRecord
100
AcDbBlockTableRecord
  2
*D11
340
0
  0
BLOCK_RECORD
  5
146DC
330
7466
100
AcDbSymbolTableRecord
100
AcDbBlockTableRecord
  2
*D12
340
0
  0
BLOCK_RECORD
  5
1EBCA
330
7466
100
AcDbSymbolTableRecord
100
AcDbBlockTableRecord
  2
*D13
340
0
  0
BLOCK_RECORD
  5
1EBD7
330
7466
100
AcDbSymbolTableRecord
100
AcDbBlockTableRecord
  2
*D14
340
0
  0
BLOCK_RECORD
  5
1EBE4
330
7466
100
AcDbSymbolTableRecord
100
AcDbBlockTableRecord
  2
*D15
340
0
  0
BLOCK_RECORD
  5
21F96
330
7466
100
AcDbSymbolTableRecord
100
AcDbBlockTableRecord
  2
*D16
340
0
  0
BLOCK_RECORD
  5
21FA2
330
7466
100
AcDbSymbolTableRecord
100
AcDbBlockTableRecord
  2
*D17
340
0
  0
BLOCK_RECORD
  5
21FAE
330
7466
100
AcDbSymbolTableRecord
100
AcDbBlockTableRecord
  2
*D18
340
0
  0
BLOCK_RECORD
  5
22361
330
7466
100
AcDbSymbolTableRecord
100
AcDbBlockTableRecord
  2
*D19
340
0
  0
BLOCK_RECORD
  5
2236D
330
7466
100
AcDbSymbolTableRecord
100
AcDbBlockTableRecord
  2
*D20
340
0
  0
BLOCK_RECORD
  5
22379
330
7466
100
AcDbSymbolTableRecord
100
AcDbBlockTableRecord
  2
*D21
340
0
  0
BLOCK_RECORD
  5
22385
330
7466
100
AcDbSymbolTableRecord
100
AcDbBlockTableRecord
  2
*D22
340
0
  0
BLOCK_RECORD
  5
22392
330
7466
100
AcDbSymbolTableRecord
100
AcDbBlockTableRecord
  2
*D23
340
0
  0
BLOCK_RECORD
  5
223A0
330
7466
100
AcDbSymbolTableRecord
100
AcDbBlockTableRecord
  2
*D24
340
0
  0
BLOCK_RECORD
  5
223AC
330
7466
100
AcDbSymbolTableRecord
100
AcDbBlockTableRecord
  2
*D25
340
0
  0
BLOCK_RECORD
  5
223B8
330
7466
100
AcDbSymbolTableRecord
100
AcDbBlockTableRecord
  2
*D26
340
0
  0
BLOCK_RECORD
  5
223C6
330
7466
100
AcDbSymbolTableRecord
100
AcDbBlockTableRecord
  2
*D27
340
0
  0
BLOCK_RECORD
  5
223D2
330
7466
100
AcDbSymbolTableRecord
100
AcDbBlockTableRecord
  2
*D28
340
0
  0
BLOCK_RECORD
  5
223DF
330
7466
100
AcDbSymbolTableRecord
100
AcDbBlockTableRecord
  2
*D29
340
0
  0
BLOCK_RECORD
  5
223EC
330
7466
100
AcDbSymbolTableRecord
100
AcDbBlockTableRecord
  2
*D30
340
0
  0
BLOCK_RECORD
  5
223F8
330
7466
100
AcDbSymbolTableRecord
100
AcDbBlockTableRecord
  2
*D31
340
0
  0
BLOCK_RECORD
  5
22ECD
330
7466
100
AcDbSymbolTableRecord
100
AcDbBlockTableRecord
  2
*D32
340
0
  0
ENDTAB
  0
ENDSEC
  0
SECTION
  2
BLOCKS
  0
BLOCK
  5
7489
330
747D
100
AcDbEntity
  8
0
100
AcDbBlockBegin
  2
*MODEL_SPACE
 70
     0
 10
0.0
 20
0.0
 30
0.0
  3
*MODEL_SPACE
  1

  0
ENDBLK
  5
748A
330
747D
100
AcDbEntity
  8
0
100
AcDbBlockEnd
  0
BLOCK
  5
7487
330
747A
100
AcDbEntity
 67
     1
  8
0
100
AcDbBlockBegin
  2
*PAPER_SPACE
 70
     0
 10
0.0
 20
0.0
 30
0.0
  3
*PAPER_SPACE
  1

  0
ENDBLK
  5
7488
330
747A
100
AcDbEntity
 67
     1
  8
0
100
AcDbBlockEnd
  0
BLOCK
  5
F771
330
F770
100
AcDbEntity
  8
0
 48
50.0
100
AcDbBlockBegin
  2
_DOTSMALL
 70
     0
 10
0.0
 20
0.0
 30
0.0
  3
_DOTSMALL
  1

  0
LWPOLYLINE
  5
F772
330
F770
100
AcDbEntity
  8
0
  6
ByBlock
 62
     0
 48
50.0
100
AcDbPolyline
 90
        2
 70
     1
 43
0.5
 10
-0.0625
 20
0.0
 42
1.0
 10
0.0625
 20
0.0
 42
1.0
  0
ENDBLK
  5
F776
330
F770
100
AcDbEntity
  8
0
 48
50.0
100
AcDbBlockEnd
  0
BLOCK
  5
14A98
330
13DA8
100
AcDbEntity
  8
0
 48
50.0
100
AcDbBlockBegin
  2
*D1
 70
     1
 10
0.0
 20
0.0
 30
0.0
  3
*D1
  1

  0
LINE
  5
1F299
330
13DA8
100
AcDbEntity
  8
寸法
 62
     0
 48
50.0
370
    -2
100
AcDbLine
 10
5579.896575106992
 20
5195.000000000005
 30
0.0
 11
5579.896575106992
 21
5647.664021579934
 31
0.0
  0
LINE
  5
1F29A
330
13DA8
100
AcDbEntity
  8
寸法
 62
     0
 48
50.0
370
    -2
100
AcDbLine
 10
7209.896575106991
 20
5195.000000000004
 30
0.0
 11
7209.896575106991
 21
5647.664021579934
 31
0.0
  0
LINE
  5
1F29B
330
13DA8
100
AcDbEntity
  8
寸法
 62
     0
 48
50.0
370
    -2
100
AcDbLine
 10
5579.896575106992
 20
5587.664021579934
 30
0.0
 11
7209.896575106991
 21
5587.664021579934
 31
0.0
  0
INSERT
  5
1F29C
330
13DA8
100
AcDbEntity
  8
寸法
 62
     0
 48
50.0
370
    -2
100
AcDbBlockReference
  2
_DOTSMALL
 10
5579.896575106992
 20
5587.664021579934
 30
0.0
 41
100.0
 42
100.0
 43
100.0
 50
180.0
  0
INSERT
  5
1F29D
330
13DA8
100
AcDbEntity
  8
寸法
 62
     0
 48
50.0
370
    -2
100
AcDbBlockReference
  2
_DOTSMALL
 10
7209.896575106991
 20
5587.664021579934
 30
0.0
 41
100.0
 42
100.0
 43
100.0
  0
MTEXT
  5
1F29E
330
13DA8
100
AcDbEntity
  8
寸法
 62
     7
 48
50.0
100
AcDbMText
 10
6398.236415372987
 20
5687.664021579934
 30
0.0
 40
120.0
 41
0.0
 71
     5
 72
     1
  1
\A1;1630
  7
STYLE1
 73
     1
 44
1.0
1001
ACAD
1000
MTEXTBEGIN
1070
    73
1070
     1
1070
    44
1040
1.0
1070
    74
1070
     0
1000
MTEXTEND
  0
POINT
  5
1F29F
330
13DA8
100
AcDbEntity
  8
DEFPOINTS
 62
     0
 48
50.0
100
AcDbPoint
 10
5579.896575106992
 20
5175.000000000006
 30
0.0
  0
POINT
  5
1F2A0
330
13DA8
100
AcDbEntity
  8
DEFPOINTS
 62
     0
 48
50.0
100
AcDbPoint
 10
7209.896575106991
 20
5175.000000000005
 30
0.0
  0
POINT
  5
1F2A1
330
13DA8
100
AcDbEntity
  8
DEFPOINTS
 62
     0
 48
50.0
100
AcDbPoint
 10
7209.896575106991
 20
5587.664021579934
 30
0.0
  0
ENDBLK
  5
14AA2
330
13DA8
100
AcDbEntity
  8
0
 48
50.0
100
AcDbBlockEnd
  0
BLOCK
  5
14A8A
330
141B5
100
AcDbEntity
  8
0
 48
50.0
100
AcDbBlockBegin
  2
*D2
 70
     1
 10
0.0
 20
0.0
 30
0.0
  3
*D2
  1

  0
LINE
  5
1F261
330
141B5
100
AcDbEntity
  8
寸法
 62
     0
 48
50.0
370
    -2
100
AcDbLine
 10
7209.896575106991
 20
5195.000000000004
 30
0.0
 11
7209.896575106991
 21
5439.620259427274
 31
0.0
  0
LINE
  5
1F262
330
141B5
100
AcDbEntity
  8
寸法
 62
     0
 48
50.0
370
    -2
100
AcDbLine
 10
7159.896575106992
 20
5195.000000000007
 30
0.0
 11
7159.896575106992
 21
5439.620259427274
 31
0.0
  0
LINE
  5
1F263
330
141B5
100
AcDbEntity
  8
寸法
 62
     0
 48
50.0
370
    -2
100
AcDbLine
 10
7159.896575106992
 20
5379.620259427275
 30
0.0
 11
7059.896575106993
 21
5379.620259427275
 31
0.0
  0
LINE
  5
1F264
330
141B5
100
AcDbEntity
  8
寸法
 62
     0
 48
50.0
370
    -2
100
AcDbLine
 10
7209.896575106991
 20
5379.620259427275
 30
0.0
 11
7629.429100575717
 21
5379.620259427275
 31
0.0
  0
LINE
  5
1F265
330
141B5
100
AcDbEntity
  8
寸法
 62
     0
 48
50.0
370
    -2
100
AcDbLine
 10
7159.896575106992
 20
5379.620259427275
 30
0.0
 11
7209.896575106991
 21
5379.620259427275
 31
0.0
  0
INSERT
  5
1F266
330
141B5
100
AcDbEntity
  8
寸法
 62
     0
 48
50.0
370
    -2
100
AcDbBlockReference
  2
_DOTSMALL
 10
7159.896575106992
 20
5379.620259427275
 30
0.0
 41
100.0
 42
100.0
 43
100.0
  0
INSERT
  5
1F267
330
141B5
100
AcDbEntity
  8
寸法
 62
     0
 48
50.0
370
    -2
100
AcDbBlockReference
  2
_DOTSMALL
 10
7209.896575106991
 20
5379.620259427275
 30
0.0
 41
100.0
 42
100.0
 43
100.0
 50
180.0
  0
MTEXT
  5
1F268
330
141B5
100
AcDbEntity
  8
寸法
 62
     7
 48
50.0
100
AcDbMText
 10
7523.381856481229
 20
5479.620259427274
 30
0.0
 40
120.0
 41
0.0
 71
     5
 72
     1
  1
\A1;50
  7
STYLE1
 73
     1
 44
1.0
1001
ACAD
1000
MTEXTBEGIN
1070
    73
1070
     1
1070
    44
1040
1.0
1070
    74
1070
     0
1000
MTEXTEND
  0
POINT
  5
1F269
330
141B5
100
AcDbEntity
  8
DEFPOINTS
 62
     0
 48
50.0
100
AcDbPoint
 10
7209.896575106991
 20
5175.000000000005
 30
0.0
  0
POINT
  5
1F26A
330
141B5
100
AcDbEntity
  8
DEFPOINTS
 62
     0
 48
50.0
100
AcDbPoint
 10
7159.896575106992
 20
5175.000000000007
 30
0.0
  0
POINT
  5
1F26B
330
141B5
100
AcDbEntity
  8
DEFPOINTS
 62
     0
 48
50.0
100
AcDbPoint
 10
7159.896575106992
 20
5379.620259427275
 30
0.0
  0
ENDBLK
  5
14A96
330
141B5
100
AcDbEntity
  8
0
 48
50.0
100
AcDbBlockEnd
  0
BLOCK
  5
14A7D
330
141F9
100
AcDbEntity
  8
0
 48
50.0
100
AcDbBlockBegin
  2
*D3
 70
     1
 10
0.0
 20
0.0
 30
0.0
  3
*D3
  1

  0
LINE
  5
1C482
330
141F9
100
AcDbEntity
  8
寸法
 62
     0
 48
50.0
370
    -2
100
AcDbLine
 10
5629.896575106992
 20
5195.000000000007
 30
0.0
 11
5629.896575106992
 21
5439.620259427273
 31
0.0
  0
LINE
  5
1C483
330
141F9
100
AcDbEntity
  8
寸法
 62
     0
 48
50.0
370
    -2
100
AcDbLine
 10
5579.896575106992
 20
5195.000000000005
 30
0.0
 11
5579.896575106992
 21
5439.620259427273
 31
0.0
  0
LINE
  5
1C484
330
141F9
100
AcDbEntity
  8
寸法
 62
     0
 48
50.0
370
    -2
100
AcDbLine
 10
5629.896575106992
 20
5379.620259427273
 30
0.0
 11
5729.896575106992
 21
5379.620259427273
 31
0.0
  0
LINE
  5
1C485
330
141F9
100
AcDbEntity
  8
寸法
 62
     0
 48
50.0
370
    -2
100
AcDbLine
 10
5579.896575106992
 20
5379.620259427273
 30
0.0
 11
5160.364049638259
 21
5379.620259427273
 31
0.0
  0
LINE
  5
1C486
330
141F9
100
AcDbEntity
  8
寸法
 62
     0
 48
50.0
370
    -2
100
AcDbLine
 10
5629.896575106992
 20
5379.620259427273
 30
0.0
 11
5579.896575106992
 21
5379.620259427273
 31
0.0
  0
INSERT
  5
1C487
330
141F9
100
AcDbEntity
  8
寸法
 62
     0
 48
50.0
370
    -2
100
AcDbBlockReference
  2
_DOTSMALL
 10
5629.896575106992
 20
5379.620259427273
 30
0.0
 41
100.0
 42
100.0
 43
100.0
 50
180.0
  0
INSERT
  5
1C488
330
141F9
100
AcDbEntity
  8
寸法
 62
     0
 48
50.0
370
    -2
100
AcDbBlockReference
  2
_DOTSMALL
 10
5579.896575106992
 20
5379.620259427273
 30
0.0
 41
100.0
 42
100.0
 43
100.0
  0
MTEXT
  5
1C489
330
141F9
100
AcDbEntity
  8
寸法
 62
     7
 48
50.0
100
AcDbMText
 10
5266.411293732747
 20
5479.620259427273
 30
0.0
 40
120.0
 41
0.0
 71
     5
 72
     1
  1
\A1;50
  7
STYLE1
 73
     1
 44
1.0
1001
ACAD
1000
MTEXTBEGIN
1070
    73
1070
     1
1070
    44
1040
1.0
1070
    74
1070
     0
1000
MTEXTEND
  0
POINT
  5
1C48A
330
141F9
100
AcDbEntity
  8
DEFPOINTS
 62
     0
 48
50.0
100
AcDbPoint
 10
5629.896575106992
 20
5175.000000000006
 30
0.0
  0
POINT
  5
1C48B
330
141F9
100
AcDbEntity
  8
DEFPOINTS
 62
     0
 48
50.0
100
AcDbPoint
 10
5579.896575106992
 20
5175.000000000006
 30
0.0
  0
POINT
  5
1C48C
330
141F9
100
AcDbEntity
  8
DEFPOINTS
 62
     0
 48
50.0
100
AcDbPoint
 10
5579.896575106992
 20
5379.620259427273
 30
0.0
  0
ENDBLK
  5
14A89
330
141F9
100
AcDbEntity
  8
0
 48
50.0
100
AcDbBlockEnd
  0
BLOCK
  5
148C8
330
1458A
100
AcDbEntity
  8
0
 48
50.0
100
AcDbBlockBegin
  2
*D4
 70
     1
 10
0.0
 20
0.0
 30
0.0
  3
*D4
  1

  0
LINE
  5
22F21
330
1458A
100
AcDbEntity
  8
寸法
 62
     0
 48
50.0
370
    -2
100
AcDbLine
 10
5629.896575106963
 20
9971.158584484086
 30
0.0
 11
5629.896575106963
 21
10435.13487548581
 31
0.0
  0
LINE
  5
22F22
330
1458A
100
AcDbEntity
  8
寸法
 62
     0
 48
50.0
370
    -2
100
AcDbLine
 10
5684.896575106997
 20
9971.158584484086
 30
0.0
 11
5684.896575106997
 21
10435.13487548581
 31
0.0
  0
LINE
  5
22F23
330
1458A
100
AcDbEntity
  8
寸法
 62
     0
 48
50.0
370
    -2
100
AcDbLine
 10
5684.896575106997
 20
10375.13487548581
 30
0.0
 11
5784.896575106998
 21
10375.13487548581
 31
0.0
  0
LINE
  5
22F24
330
1458A
100
AcDbEntity
  8
寸法
 62
     0
 48
50.0
370
    -2
100
AcDbLine
 10
5629.896575106963
 20
10375.13487548581
 30
0.0
 11
5212.926012358451
 21
10375.13487548581
 31
0.0
  0
LINE
  5
22F25
330
1458A
100
AcDbEntity
  8
寸法
 62
     0
 48
50.0
370
    -2
100
AcDbLine
 10
5684.896575106997
 20
10375.13487548581
 30
0.0
 11
5629.896575106963
 21
10375.13487548581
 31
0.0
  0
INSERT
  5
22F26
330
1458A
100
AcDbEntity
  8
寸法
 62
     0
 48
50.0
370
    -2
100
AcDbBlockReference
  2
_DOTSMALL
 10
5684.896575106997
 20
10375.13487548581
 30
0.0
 41
100.0
 42
100.0
 43
100.0
 50
180.0
  0
INSERT
  5
22F27
330
1458A
100
AcDbEntity
  8
寸法
 62
     0
 48
50.0
370
    -2
100
AcDbBlockReference
  2
_DOTSMALL
 10
5629.896575106963
 20
10375.13487548581
 30
0.0
 41
100.0
 42
100.0
 43
100.0
  0
MTEXT
  5
22F28
330
1458A
100
AcDbEntity
  8
寸法
 62
     7
 48
50.0
100
AcDbMText
 10
5321.41129373269
 20
10475.13487548581
 30
0.0
 40
120.0
 41
0.0
 71
     5
 72
     1
  1
\A1;55
  7
STYLE1
 73
     1
 44
1.0
1001
ACAD
1000
MTEXTBEGIN
1070
    73
1070
     1
1070
    44
1040
1.0
1070
    74
1070
     0
1000
MTEXTEND
  0
POINT
  5
22F29
330
1458A
100
AcDbEntity
  8
DEFPOINTS
 62
     0
 48
50.0
100
AcDbPoint
 10
5629.896575106963
 20
9951.158584484087
 30
0.0
  0
POINT
  5
22F2A
330
1458A
100
AcDbEntity
  8
DEFPOINTS
 62
     0
 48
50.0
100
AcDbPoint
 10
5684.896575106997
 20
9951.158584484087
 30
0.0
  0
POINT
  5
22F2B
330
1458A
100
AcDbEntity
  8
DEFPOINTS
 62
     0
 48
50.0
100
AcDbPoint
 10
5684.896575106997
 20
10375.13487548581
 30
0.0
  0
ENDBLK
  5
148D4
330
1458A
100
AcDbEntity
  8
0
 48
50.0
100
AcDbBlockEnd
  0
BLOCK
  5
14D6F
330
14598
100
AcDbEntity
  8
0
 48
50.0
100
AcDbBlockBegin
  2
*D5
 70
     1
 10
0.0
 20
0.0
 30
0.0
  3
*D5
  1

  0
LINE
  5
22FC5
330
14598
100
AcDbEntity
  8
寸法
 62
     0
 48
50.0
370
    -2
100
AcDbLine
 10
7179.896575107017
 20
9951.158584484183
 30
0.0
 11
8150.346392871552
 21
9951.158584484183
 31
0.0
  0
LINE
  5
22FC6
330
14598
100
AcDbEntity
  8
寸法
 62
     0
 48
50.0
370
    -2
100
AcDbLine
 10
7179.896575106991
 20
7741.158584484167
 30
0.0
 11
8150.346392871552
 21
7741.158584484167
 31
0.0
  0
LINE
  5
22FC7
330
14598
100
AcDbEntity
  8
寸法
 62
     0
 48
50.0
370
    -2
100
AcDbLine
 10
8090.346392871552
 20
9951.158584484183
 30
0.0
 11
8090.346392871552
 21
7741.158584484167
 31
0.0
  0
INSERT
  5
22FC8
330
14598
100
AcDbEntity
  8
寸法
 62
     0
 48
50.0
370
    -2
100
AcDbBlockReference
  2
_DOTSMALL
 10
8090.346392871552
 20
9951.158584484183
 30
0.0
 41
100.0
 42
100.0
 43
100.0
 50
90.0
  0
INSERT
  5
22FC9
330
14598
100
AcDbEntity
  8
寸法
 62
     0
 48
50.0
370
    -2
100
AcDbBlockReference
  2
_DOTSMALL
 10
8090.346392871552
 20
7741.158584484167
 30
0.0
 41
100.0
 42
100.0
 43
100.0
 50
270.0
  0
MTEXT
  5
22FCA
330
14598
100
AcDbEntity
  8
寸法
 62
     7
 48
50.0
100
AcDbMText
 10
7990.334581847929
 20
8846.158584484173
 30
0.0
 40
120.0
 41
0.0
 71
     5
 72
     1
  1
\A1;2210
  7
STYLE1
 11
0.0000000000000001
 21
1.0
 31
0.0
 73
     1
 44
1.0
1001
ACAD
1000
MTEXTBEGIN
1070
    73
1070
     1
1070
    44
1040
1.0
1070
    74
1070
     0
1000
MTEXTEND
  0
POINT
  5
22FCB
330
14598
100
AcDbEntity
  8
DEFPOINTS
 62
     0
 48
50.0
100
AcDbPoint
 10
7159.896575107016
 20
9951.158584484183
 30
0.0
  0
POINT
  5
22FCC
330
14598
100
AcDbEntity
  8
DEFPOINTS
 62
     0
 48
50.0
100
AcDbPoint
 10
7159.896575106991
 20
7741.158584484167
 30
0.0
  0
POINT
  5
22FCD
330
14598
100
AcDbEntity
  8
DEFPOINTS
 62
     0
 48
50.0
100
AcDbPoint
 10
8090.346392871552
 20
7741.158584484167
 30
0.0
  0
ENDBLK
  5
14D79
330
14598
100
AcDbEntity
  8
0
 48
50.0
100
AcDbBlockEnd
  0
BLOCK
  5
1492F
330
145A4
100
AcDbEntity
  8
0
 48
50.0
100
AcDbBlockBegin
  2
*D6
 70
     1
 10
0.0
 20
0.0
 30
0.0
  3
*D6
  1

  0
LINE
  5
22F16
330
145A4
100
AcDbEntity
  8
寸法
 62
     0
 48
50.0
370
    -2
100
AcDbLine
 10
7179.896575107017
 20
9951.158584484183
 30
0.0
 11
7867.322920841427
 21
9951.158584484183
 31
0.0
  0
LINE
  5
22F17
330
145A4
100
AcDbEntity
  8
寸法
 62
     0
 48
50.0
370
    -2
100
AcDbLine
 10
7179.896575107017
 20
9896.158584484185
 30
0.0
 11
7867.322920841427
 21
9896.158584484185
 31
0.0
  0
LINE
  5
22F18
330
145A4
100
AcDbEntity
  8
寸法
 62
     0
 48
50.0
370
    -2
100
AcDbLine
 10
7807.322920841428
 20
9896.158584484185
 30
0.0
 11
7807.322920841428
 21
9796.158584484185
 31
0.0
  0
LINE
  5
22F19
330
145A4
100
AcDbEntity
  8
寸法
 62
     0
 48
50.0
370
    -2
100
AcDbLine
 10
7807.322920841428
 20
9951.158584484183
 30
0.0
 11
7807.322920841428
 21
10368.12914723266
 31
0.0
  0
LINE
  5
22F1A
330
145A4
100
AcDbEntity
  8
寸法
 62
     0
 48
50.0
370
    -2
100
AcDbLine
 10
7807.322920841428
 20
9896.158584484185
 30
0.0
 11
7807.322920841428
 21
9951.158584484183
 31
0.0
  0
INSERT
  5
22F1B
330
145A4
100
AcDbEntity
  8
寸法
 62
     0
 48
50.0
370
    -2
100
AcDbBlockReference
  2
_DOTSMALL
 10
7807.322920841428
 20
9896.158584484185
 30
0.0
 41
100.0
 42
100.0
 43
100.0
 50
90.0
  0
INSERT
  5
22F1C
330
145A4
100
AcDbEntity
  8
寸法
 62
     0
 48
50.0
370
    -2
100
AcDbBlockReference
  2
_DOTSMALL
 10
7807.322920841428
 20
9951.158584484183
 30
0.0
 41
100.0
 42
100.0
 43
100.0
 50
270.0
  0
MTEXT
  5
22F1D
330
145A4
100
AcDbEntity
  8
寸法
 62
     7
 48
50.0
100
AcDbMText
 10
7707.322920841426
 20
10259.64386585842
 30
0.0
 40
120.0
 41
0.0
 71
     5
 72
     1
  1
\A1;55
  7
STYLE1
 11
0.0000000000000001
 21
1.0
 31
0.0
 73
     1
 44
1.0
1001
ACAD
1000
MTEXTBEGIN
1070
    73
1070
     1
1070
    44
1040
1.0
1070
    74
1070
     0
1000
MTEXTEND
  0
POINT
  5
22F1E
330
145A4
100
AcDbEntity
  8
DEFPOINTS
 62
     0
 48
50.0
100
AcDbPoint
 10
7159.896575107016
 20
9951.158584484183
 30
0.0
  0
POINT
  5
22F1F
330
145A4
100
AcDbEntity
  8
DEFPOINTS
 62
     0
 48
50.0
100
AcDbPoint
 10
7159.896575107016
 20
9896.158584484185
 30
0.0
  0
POINT
  5
22F20
330
145A4
100
AcDbEntity
  8
DEFPOINTS
 62
     0
 48
50.0
100
AcDbPoint
 10
7807.322920841428
 20
9896.158584484185
 30
0.0
  0
ENDBLK
  5
1493B
330
145A4
100
AcDbEntity
  8
0
 48
50.0
100
AcDbBlockEnd
  0
BLOCK
  5
1496A
330
145BE
100
AcDbEntity
  8
0
 48
50.0
100
AcDbBlockBegin
  2
*D7
 70
     1
 10
0.0
 20
0.0
 30
0.0
  3
*D7
  1

  0
LINE
  5
1F602
330
145BE
100
AcDbEntity
  8
寸法
 62
     0
 48
50.0
370
    -2
100
AcDbLine
 10
7179.896575106991
 20
7796.158584484164
 30
0.0
 11
7867.322920841402
 21
7796.158584484164
 31
0.0
  0
LINE
  5
1F603
330
145BE
100
AcDbEntity
  8
寸法
 62
     0
 48
50.0
370
    -2
100
AcDbLine
 10
7179.896575106991
 20
7741.158584484167
 30
0.0
 11
7867.322920841402
 21
7741.158584484167
 31
0.0
  0
LINE
  5
1F604
330
145BE
100
AcDbEntity
  8
寸法
 62
     0
 48
50.0
370
    -2
100
AcDbLine
 10
7807.322920841402
 20
7796.158584484164
 30
0.0
 11
7807.322920841402
 21
7896.158584484163
 31
0.0
  0
LINE
  5
1F605
330
145BE
100
AcDbEntity
  8
寸法
 62
     0
 48
50.0
370
    -2
100
AcDbLine
 10
7807.322920841402
 20
7741.158584484167
 30
0.0
 11
7807.322920841402
 21
7254.811836205066
 31
0.0
  0
LINE
  5
1F606
330
145BE
100
AcDbEntity
  8
寸法
 62
     0
 48
50.0
370
    -2
100
AcDbLine
 10
7807.322920841402
 20
7796.158584484164
 30
0.0
 11
7807.322920841402
 21
7741.158584484167
 31
0.0
  0
INSERT
  5
1F607
330
145BE
100
AcDbEntity
  8
寸法
 62
     0
 48
50.0
370
    -2
100
AcDbBlockReference
  2
_DOTSMALL
 10
7807.322920841402
 20
7796.158584484164
 30
0.0
 41
100.0
 42
100.0
 43
100.0
 50
270.0
  0
INSERT
  5
1F608
330
145BE
100
AcDbEntity
  8
寸法
 62
     0
 48
50.0
370
    -2
100
AcDbBlockReference
  2
_DOTSMALL
 10
7807.322920841402
 20
7741.158584484167
 30
0.0
 41
100.0
 42
100.0
 43
100.0
 50
90.0
  0
MTEXT
  5
1F609
330
145BE
100
AcDbEntity
  8
寸法
 62
     7
 48
50.0
100
AcDbMText
 10
7707.3229208414
 20
7363.297117579306
 30
0.0
 40
120.0
 41
0.0
 71
     5
 72
     1
  1
\A1;55
  7
STYLE1
 11
0.0000000000000001
 21
1.0
 31
0.0
 73
     1
 44
1.0
1001
ACAD
1000
MTEXTBEGIN
1070
    73
1070
     1
1070
    44
1040
1.0
1070
    74
1070
     0
1000
MTEXTEND
  0
POINT
  5
1F60A
330
145BE
100
AcDbEntity
  8
DEFPOINTS
 62
     0
 48
50.0
100
AcDbPoint
 10
7159.896575106991
 20
7796.158584484164
 30
0.0
  0
POINT
  5
1F60B
330
145BE
100
AcDbEntity
  8
DEFPOINTS
 62
     0
 48
50.0
100
AcDbPoint
 10
7159.896575106991
 20
7741.158584484167
 30
0.0
  0
POINT
  5
1F60C
330
145BE
100
AcDbEntity
  8
DEFPOINTS
 62
     0
 48
50.0
100
AcDbPoint
 10
7807.322920841402
 20
7741.158584484167
 30
0.0
  0
ENDBLK
  5
14976
330
145BE
100
AcDbEntity
  8
0
 48
50.0
100
AcDbBlockEnd
  0
BLOCK
  5
14D4C
330
145CC
100
AcDbEntity
  8
0
 48
50.0
100
AcDbBlockBegin
  2
*D8
 70
     1
 10
0.0
 20
0.0
 30
0.0
  3
*D8
  1

  0
LINE
  5
22F74
330
145CC
100
AcDbEntity
  8
寸法
 62
     0
 48
50.0
370
    -2
100
AcDbLine
 10
7179.896575107017
 20
9896.158584484185
 30
0.0
 11
7867.322920841427
 21
9896.158584484185
 31
0.0
  0
LINE
  5
22F75
330
145CC
100
AcDbEntity
  8
寸法
 62
     0
 48
50.0
370
    -2
100
AcDbLine
 10
7179.896575106991
 20
7796.158584484164
 30
0.0
 11
7867.322920841427
 21
7796.158584484164
 31
0.0
  0
LINE
  5
22F76
330
145CC
100
AcDbEntity
  8
寸法
 62
     0
 48
50.0
370
    -2
100
AcDbLine
 10
7807.322920841428
 20
9896.158584484185
 30
0.0
 11
7807.322920841428
 21
7796.158584484164
 31
0.0
  0
INSERT
  5
22F77
330
145CC
100
AcDbEntity
  8
寸法
 62
     0
 48
50.0
370
    -2
100
AcDbBlockReference
  2
_DOTSMALL
 10
7807.322920841428
 20
9896.158584484185
 30
0.0
 41
100.0
 42
100.0
 43
100.0
 50
90.0
  0
INSERT
  5
22F78
330
145CC
100
AcDbEntity
  8
寸法
 62
     0
 48
50.0
370
    -2
100
AcDbBlockReference
  2
_DOTSMALL
 10
7807.322920841428
 20
7796.158584484164
 30
0.0
 41
100.0
 42
100.0
 43
100.0
 50
270.0
  0
MTEXT
  5
22F79
330
145CC
100
AcDbEntity
  8
寸法
 62
     7
 48
50.0
100
AcDbMText
 10
7707.311109817805
 20
8801.195903122417
 30
0.0
 40
120.0
 41
0.0
 71
     5
 72
     1
  1
\A1;5X420=2100
  7
STYLE1
 11
0.0000000000000001
 21
1.0
 31
0.0
 73
     1
 44
1.0
1001
ACAD
1000
MTEXTBEGIN
1070
    73
1070
     1
1070
    44
1040
1.0
1070
    74
1070
     0
1000
MTEXTEND
  0
POINT
  5
22F7A
330
145CC
100
AcDbEntity
  8
DEFPOINTS
 62
     0
 48
50.0
100
AcDbPoint
 10
7159.896575107016
 20
9896.158584484185
 30
0.0
  0
POINT
  5
22F7B
330
145CC
100
AcDbEntity
  8
DEFPOINTS
 62
     0
 48
50.0
100
AcDbPoint
 10
7159.896575106991
 20
7796.158584484164
 30
0.0
  0
POINT
  5
22F7C
330
145CC
100
AcDbEntity
  8
DEFPOINTS
 62
     0
 48
50.0
100
AcDbPoint
 10
7807.322920841428
 20
7796.158584484164
 30
0.0
  0
ENDBLK
  5
14D56
330
145CC
100
AcDbEntity
  8
0
 48
50.0
100
AcDbBlockEnd
  0
BLOCK
  5
14954
330
145D8
100
AcDbEntity
  8
0
 48
50.0
100
AcDbBlockBegin
  2
*D9
 70
     1
 10
0.0
 20
0.0
 30
0.0
  3
*D9
  1

  0
LINE
  5
1F5F0
330
145D8
100
AcDbEntity
  8
寸法
 62
     0
 48
50.0
370
    -2
100
AcDbLine
 10
5629.89657510699
 20
7721.158584484003
 30
0.0
 11
5629.89657510699
 21
6886.380197916202
 31
0.0
  0
LINE
  5
1F5F1
330
145D8
100
AcDbEntity
  8
寸法
 62
     0
 48
50.0
370
    -2
100
AcDbLine
 10
7159.896575106991
 20
7721.158584484166
 30
0.0
 11
7159.896575106991
 21
6886.380197916202
 31
0.0
  0
LINE
  5
1F5F2
330
145D8
100
AcDbEntity
  8
寸法
 62
     0
 48
50.0
370
    -2
100
AcDbLine
 10
5629.89657510699
 20
6946.380197916202
 30
0.0
 11
7159.896575106991
 21
6946.380197916202
 31
0.0
  0
INSERT
  5
1F5F3
330
145D8
100
AcDbEntity
  8
寸法
 62
     0
 48
50.0
370
    -2
100
AcDbBlockReference
  2
_DOTSMALL
 10
5629.89657510699
 20
6946.380197916202
 30
0.0
 41
100.0
 42
100.0
 43
100.0
 50
180.0
  0
INSERT
  5
1F5F4
330
145D8
100
AcDbEntity
  8
寸法
 62
     0
 48
50.0
370
    -2
100
AcDbBlockReference
  2
_DOTSMALL
 10
7159.896575106991
 20
6946.380197916202
 30
0.0
 41
100.0
 42
100.0
 43
100.0
  0
MTEXT
  5
1F5F5
330
145D8
100
AcDbEntity
  8
寸法
 62
     7
 48
50.0
100
AcDbMText
 10
6414.367781762833
 20
7046.380197916201
 30
0.0
 40
120.0
 41
0.0
 71
     5
 72
     1
  1
\A1;1530
  7
STYLE1
 73
     1
 44
1.0
1001
ACAD
1000
MTEXTBEGIN
1070
    73
1070
     1
1070
    44
1040
1.0
1070
    74
1070
     0
1000
MTEXTEND
  0
POINT
  5
1F5F6
330
145D8
100
AcDbEntity
  8
DEFPOINTS
 62
     0
 48
50.0
100
AcDbPoint
 10
5629.89657510699
 20
7741.158584484003
 30
0.0
  0
POINT
  5
1F5F7
330
145D8
100
AcDbEntity
  8
DEFPOINTS
 62
     0
 48
50.0
100
AcDbPoint
 10
7159.896575106991
 20
7741.158584484167
 30
0.0
  0
POINT
  5
1F5F8
330
145D8
100
AcDbEntity
  8
DEFPOINTS
 62
     0
 48
50.0
100
AcDbPoint
 10
7159.896575106991
 20
6946.380197916202
 30
0.0
  0
ENDBLK
  5
1495E
330
145D8
100
AcDbEntity
  8
0
 48
50.0
100
AcDbBlockEnd
  0
BLOCK
  5
14D90
330
145E4
100
AcDbEntity
  8
0
 48
50.0
100
AcDbBlockBegin
  2
*D10
 70
     1
 10
0.0
 20
0.0
 30
0.0
  3
*D10
  1

  0
LINE
  5
22FD3
330
145E4
100
AcDbEntity
  8
寸法
 62
     0
 48
50.0
370
    -2
100
AcDbLine
 10
6514.496575106992
 20
7721.158584484145
 30
0.0
 11
6514.496575106992
 21
7121.599178715621
 31
0.0
  0
LINE
  5
22FD4
330
145E4
100
AcDbEntity
  8
寸法
 62
     0
 48
50.0
370
    -2
100
AcDbLine
 10
5689.896575106991
 20
7721.158584484036
 30
0.0
 11
5689.896575106991
 21
7121.599178715621
 31
0.0
  0
LINE
  5
22FD5
330
145E4
100
AcDbEntity
  8
寸法
 62
     0
 48
50.0
370
    -2
100
AcDbLine
 10
6514.496575106992
 20
7181.599178715621
 30
0.0
 11
5689.896575106991
 21
7181.599178715621
 31
0.0
  0
INSERT
  5
22FD6
330
145E4
100
AcDbEntity
  8
寸法
 62
     0
 48
50.0
370
    -2
100
AcDbBlockReference
  2
_DOTSMALL
 10
6514.496575106992
 20
7181.599178715621
 30
0.0
 41
100.0
 42
100.0
 43
100.0
  0
INSERT
  5
22FD7
330
145E4
100
AcDbEntity
  8
寸法
 62
     0
 48
50.0
370
    -2
100
AcDbBlockReference
  2
_DOTSMALL
 10
5689.896575106991
 20
7181.599178715621
 30
0.0
 41
100.0
 42
100.0
 43
100.0
 50
180.0
  0
MTEXT
  5
22FD8
330
145E4
100
AcDbEntity
  8
寸法
 62
     7
 48
50.0
100
AcDbMText
 10
6102.196575106991
 20
7381.610989739242
 30
0.0
 40
120.0
 41
0.0
 71
     5
 72
     1
  1
\A1;有効開口部間口\P824
  7
STYLE1
 73
     1
 44
1.0
1001
ACAD
1000
MTEXTBEGIN
1070
    73
1070
     1
1070
    44
1040
1.0
1070
    74
1070
     0
1000
MTEXTEND
  0
POINT
  5
22FD9
330
145E4
100
AcDbEntity
  8
DEFPOINTS
 62
     0
 48
50.0
100
AcDbPoint
 10
6514.496575106992
 20
7741.158584484145
 30
0.0
  0
POINT
  5
22FDA
330
145E4
100
AcDbEntity
  8
DEFPOINTS
 62
     0
 48
50.0
100
AcDbPoint
 10
5689.896575106991
 20
7741.158584484036
 30
0.0
  0
POINT
  5
22FDB
330
145E4
100
AcDbEntity
  8
DEFPOINTS
 62
     0
 48
50.0
100
AcDbPoint
 10
5689.896575106991
 20
7181.599178715621
 30
0.0
  0
ENDBLK
  5
14D9A
330
145E4
100
AcDbEntity
  8
0
 48
50.0
100
AcDbBlockEnd
  0
BLOCK
  5
148D5
330
14608
100
AcDbEntity
  8
0
 48
50.0
100
AcDbBlockBegin
  2
*D11
 70
     1
 10
0.0
 20
0.0
 30
0.0
  3
*D11
  1

  0
LINE
  5
22F0B
330
14608
100
AcDbEntity
  8
寸法
 62
     0
 48
50.0
370
    -2
100
AcDbLine
 10
7104.896575107017
 20
9971.158584484181
 30
0.0
 11
7104.896575107017
 21
10435.13487548581
 31
0.0
  0
LINE
  5
22F0C
330
14608
100
AcDbEntity
  8
寸法
 62
     0
 48
50.0
370
    -2
100
AcDbLine
 10
7159.896575107016
 20
9971.158584484181
 30
0.0
 11
7159.896575107016
 21
10435.13487548581
 31
0.0
  0
LINE
  5
22F0D
330
14608
100
AcDbEntity
  8
寸法
 62
     0
 48
50.0
370
    -2
100
AcDbLine
 10
7104.896575107017
 20
10375.13487548581
 30
0.0
 11
7004.896575107017
 21
10375.13487548581
 31
0.0
  0
LINE
  5
22F0E
330
14608
100
AcDbEntity
  8
寸法
 62
     0
 48
50.0
370
    -2
100
AcDbLine
 10
7159.896575107016
 20
10375.13487548581
 30
0.0
 11
7576.867137855494
 21
10375.13487548581
 31
0.0
  0
LINE
  5
22F0F
330
14608
100
AcDbEntity
  8
寸法
 62
     0
 48
50.0
370
    -2
100
AcDbLine
 10
7104.896575107017
 20
10375.13487548581
 30
0.0
 11
7159.896575107016
 21
10375.13487548581
 31
0.0
  0
INSERT
  5
22F10
330
14608
100
AcDbEntity
  8
寸法
 62
     0
 48
50.0
370
    -2
100
AcDbBlockReference
  2
_DOTSMALL
 10
7104.896575107017
 20
10375.13487548581
 30
0.0
 41
100.0
 42
100.0
 43
100.0
  0
INSERT
  5
22F11
330
14608
100
AcDbEntity
  8
寸法
 62
     0
 48
50.0
370
    -2
100
AcDbBlockReference
  2
_DOTSMALL
 10
7159.896575107016
 20
10375.13487548581
 30
0.0
 41
100.0
 42
100.0
 43
100.0
 50
180.0
  0
MTEXT
  5
22F12
330
14608
100
AcDbEntity
  8
寸法
 62
     7
 48
50.0
100
AcDbMText
 10
7468.381856481254
 20
10475.13487548581
 30
0.0
 40
120.0
 41
0.0
 71
     5
 72
     1
  1
\A1;55
  7
STYLE1
 73
     1
 44
1.0
1001
ACAD
1000
MTEXTBEGIN
1070
    73
1070
     1
1070
    44
1040
1.0
1070
    74
1070
     0
1000
MTEXTEND
  0
POINT
  5
22F13
330
14608
100
AcDbEntity
  8
DEFPOINTS
 62
     0
 48
50.0
100
AcDbPoint
 10
7104.896575107017
 20
9951.158584484183
 30
0.0
  0
POINT
  5
22F14
330
14608
100
AcDbEntity
  8
DEFPOINTS
 62
     0
 48
50.0
100
AcDbPoint
 10
7159.896575107016
 20
9951.158584484183
 30
0.0
  0
POINT
  5
22F15
330
14608
100
AcDbEntity
  8
DEFPOINTS
 62
     0
 48
50.0
100
AcDbPoint
 10
7159.896575107016
 20
10375.13487548581
 30
0.0
  0
ENDBLK
  5
148E1
330
14608
100
AcDbEntity
  8
0
 48
50.0
100
AcDbBlockEnd
  0
BLOCK
  5
14A72
330
146DC
100
AcDbEntity
  8
0
 48
50.0
100
AcDbBlockBegin
  2
*D12
 70
     1
 10
0.0
 20
0.0
 30
0.0
  3
*D12
  1

  0
LINE
  5
1F2A2
330
146DC
100
AcDbEntity
  8
寸法
 62
     0
 48
50.0
370
    -2
100
AcDbLine
 10
7159.896575106992
 20
5195.000000000003
 30
0.0
 11
7159.896575106992
 21
5439.620259427273
 31
0.0
  0
LINE
  5
1F2A3
330
146DC
100
AcDbEntity
  8
寸法
 62
     0
 48
50.0
370
    -2
100
AcDbLine
 10
5629.896575106992
 20
5195.000000000007
 30
0.0
 11
5629.896575106992
 21
5439.620259427273
 31
0.0
  0
LINE
  5
1F2A4
330
146DC
100
AcDbEntity
  8
寸法
 62
     0
 48
50.0
370
    -2
100
AcDbLine
 10
7159.896575106992
 20
5379.620259427273
 30
0.0
 11
5629.896575106992
 21
5379.620259427273
 31
0.0
  0
INSERT
  5
1F2A5
330
146DC
100
AcDbEntity
  8
寸法
 62
     0
 48
50.0
370
    -2
100
AcDbBlockReference
  2
_DOTSMALL
 10
7159.896575106992
 20
5379.620259427273
 30
0.0
 41
100.0
 42
100.0
 43
100.0
  0
INSERT
  5
1F2A6
330
146DC
100
AcDbEntity
  8
寸法
 62
     0
 48
50.0
370
    -2
100
AcDbBlockReference
  2
_DOTSMALL
 10
5629.896575106992
 20
5379.620259427273
 30
0.0
 41
100.0
 42
100.0
 43
100.0
 50
180.0
  0
MTEXT
  5
1F2A7
330
146DC
100
AcDbEntity
  8
寸法
 62
     7
 48
50.0
100
AcDbMText
 10
6408.150518267866
 20
5479.620259427273
 30
0.0
 40
120.0
 41
0.0
 71
     5
 72
     1
  1
\A1;柱外寸法1530
  7
STYLE1
 73
     1
 44
1.0
1001
ACAD
1000
MTEXTBEGIN
1070
    73
1070
     1
1070
    44
1040
1.0
1070
    74
1070
     0
1000
MTEXTEND
  0
POINT
  5
1F2A8
330
146DC
100
AcDbEntity
  8
DEFPOINTS
 62
     0
 48
50.0
100
AcDbPoint
 10
7159.896575106992
 20
5175.000000000004
 30
0.0
  0
POINT
  5
1F2A9
330
146DC
100
AcDbEntity
  8
DEFPOINTS
 62
     0
 48
50.0
100
AcDbPoint
 10
5629.896575106992
 20
5175.000000000006
 30
0.0
  0
POINT
  5
1F2AA
330
146DC
100
AcDbEntity
  8
DEFPOINTS
 62
     0
 48
50.0
100
AcDbPoint
 10
5629.896575106992
 20
5379.620259427273
 30
0.0
  0
ENDBLK
  5
14A7C
330
146DC
100
AcDbEntity
  8
0
 48
50.0
100
AcDbBlockEnd
  0
BLOCK
  5
1EBD4
330
1EBCA
100
AcDbEntity
  8
0
 48
50.0
100
AcDbBlockBegin
  2
*D13
 70
     1
 10
0.0
 20
0.0
 30
0.0
  3
*D13
  1

  0
LINE
  5
22F02
330
1EBCA
100
AcDbEntity
  8
寸法
 62
     0
 48
50.0
370
    -2
100
AcDbLine
 10
5684.896575106963
 20
9971.158584484054
 30
0.0
 11
5684.896575106963
 21
10435.13487548581
 31
0.0
  0
LINE
  5
22F03
330
1EBCA
100
AcDbEntity
  8
寸法
 62
     0
 48
50.0
370
    -2
100
AcDbLine
 10
6104.896575106997
 20
9971.158584484202
 30
0.0
 11
6104.896575106997
 21
10435.13487548581
 31
0.0
  0
LINE
  5
22F04
330
1EBCA
100
AcDbEntity
  8
寸法
 62
     0
 48
50.0
370
    -2
100
AcDbLine
 10
5684.896575106963
 20
10375.13487548581
 30
0.0
 11
6104.896575106997
 21
10375.13487548581
 31
0.0
  0
INSERT
  5
22F05
330
1EBCA
100
AcDbEntity
  8
寸法
 62
     0
 48
50.0
370
    -2
100
AcDbBlockReference
  2
_DOTSMALL
 10
5684.896575106963
 20
10375.13487548581
 30
0.0
 41
100.0
 42
100.0
 43
100.0
 50
180.0
  0
INSERT
  5
22F06
330
1EBCA
100
AcDbEntity
  8
寸法
 62
     0
 48
50.0
370
    -2
100
AcDbBlockReference
  2
_DOTSMALL
 10
6104.896575106997
 20
10375.13487548581
 30
0.0
 41
100.0
 42
100.0
 43
100.0
  0
MTEXT
  5
22F07
330
1EBCA
100
AcDbEntity
  8
寸法
 62
     7
 48
50.0
100
AcDbMText
 10
5894.896575106979
 20
10475.14668650943
 30
0.0
 40
120.0
 41
0.0
 71
     5
 72
     1
  1
\A1;420
  7
STYLE1
 73
     1
 44
1.0
1001
ACAD
1000
MTEXTBEGIN
1070
    73
1070
     1
1070
    44
1040
1.0
1070
    74
1070
     0
1000
MTEXTEND
  0
POINT
  5
22F08
330
1EBCA
100
AcDbEntity
  8
DEFPOINTS
 62
     0
 48
50.0
100
AcDbPoint
 10
5684.896575106963
 20
9951.158584484055
 30
0.0
  0
POINT
  5
22F09
330
1EBCA
100
AcDbEntity
  8
DEFPOINTS
 62
     0
 48
50.0
100
AcDbPoint
 10
6104.896575106997
 20
9951.158584484202
 30
0.0
  0
POINT
  5
22F0A
330
1EBCA
100
AcDbEntity
  8
DEFPOINTS
 62
     0
 48
50.0
100
AcDbPoint
 10
6104.896575106997
 20
10375.13487548581
 30
0.0
  0
ENDBLK
  5
1EBD5
330
1EBCA
100
AcDbEntity
  8
0
 48
50.0
100
AcDbBlockEnd
  0
BLOCK
  5
1EBE1
330
1EBD7
100
AcDbEntity
  8
0
 48
50.0
100
AcDbBlockBegin
  2
*D14
 70
     1
 10
0.0
 20
0.0
 30
0.0
  3
*D14
  1

  0
LINE
  5
22EF9
330
1EBD7
100
AcDbEntity
  8
寸法
 62
     0
 48
50.0
370
    -2
100
AcDbLine
 10
6104.896575106997
 20
9971.158584484202
 30
0.0
 11
6104.896575106997
 21
10435.13487548581
 31
0.0
  0
LINE
  5
22EFA
330
1EBD7
100
AcDbEntity
  8
寸法
 62
     0
 48
50.0
370
    -2
100
AcDbLine
 10
6684.896575107015
 20
9971.158584484141
 30
0.0
 11
6684.896575107015
 21
10435.13487548581
 31
0.0
  0
LINE
  5
22EFB
330
1EBD7
100
AcDbEntity
  8
寸法
 62
     0
 48
50.0
370
    -2
100
AcDbLine
 10
6104.896575106997
 20
10375.13487548581
 30
0.0
 11
6684.896575107015
 21
10375.13487548581
 31
0.0
  0
INSERT
  5
22EFC
330
1EBD7
100
AcDbEntity
  8
寸法
 62
     0
 48
50.0
370
    -2
100
AcDbBlockReference
  2
_DOTSMALL
 10
6104.896575106997
 20
10375.13487548581
 30
0.0
 41
100.0
 42
100.0
 43
100.0
 50
180.0
  0
INSERT
  5
22EFD
330
1EBD7
100
AcDbEntity
  8
寸法
 62
     0
 48
50.0
370
    -2
100
AcDbBlockReference
  2
_DOTSMALL
 10
6684.896575107015
 20
10375.13487548581
 30
0.0
 41
100.0
 42
100.0
 43
100.0
  0
MTEXT
  5
22EFE
330
1EBD7
100
AcDbEntity
  8
寸法
 62
     7
 48
50.0
100
AcDbMText
 10
6393.572241974834
 20
10475.13487548581
 30
0.0
 40
120.0
 41
0.0
 71
     5
 72
     1
  1
\A1;580
  7
STYLE1
 73
     1
 44
1.0
1001
ACAD
1000
MTEXTBEGIN
1070
    73
1070
     1
1070
    44
1040
1.0
1070
    74
1070
     0
1000
MTEXTEND
  0
POINT
  5
22EFF
330
1EBD7
100
AcDbEntity
  8
DEFPOINTS
 62
     0
 48
50.0
100
AcDbPoint
 10
6104.896575106997
 20
9951.158584484202
 30
0.0
  0
POINT
  5
22F00
330
1EBD7
100
AcDbEntity
  8
DEFPOINTS
 62
     0
 48
50.0
100
AcDbPoint
 10
6684.896575107015
 20
9951.158584484142
 30
0.0
  0
POINT
  5
22F01
330
1EBD7
100
AcDbEntity
  8
DEFPOINTS
 62
     0
 48
50.0
100
AcDbPoint
 10
6684.896575107015
 20
10375.13487548581
 30
0.0
  0
ENDBLK
  5
1EBE2
330
1EBD7
100
AcDbEntity
  8
0
 48
50.0
100
AcDbBlockEnd
  0
BLOCK
  5
1EBEE
330
1EBE4
100
AcDbEntity
  8
0
 48
50.0
100
AcDbBlockBegin
  2
*D15
 70
     1
 10
0.0
 20
0.0
 30
0.0
  3
*D15
  1

  0
LINE
  5
22EF0
330
1EBE4
100
AcDbEntity
  8
寸法
 62
     0
 48
50.0
370
    -2
100
AcDbLine
 10
6684.896575107015
 20
9971.158584484202
 30
0.0
 11
6684.896575107015
 21
10435.13487548581
 31
0.0
  0
LINE
  5
22EF1
330
1EBE4
100
AcDbEntity
  8
寸法
 62
     0
 48
50.0
370
    -2
100
AcDbLine
 10
7104.896575107017
 20
9971.158584484165
 30
0.0
 11
7104.896575107017
 21
10435.13487548581
 31
0.0
  0
LINE
  5
22EF2
330
1EBE4
100
AcDbEntity
  8
寸法
 62
     0
 48
50.0
370
    -2
100
AcDbLine
 10
6684.896575107015
 20
10375.13487548581
 30
0.0
 11
7104.896575107017
 21
10375.13487548581
 31
0.0
  0
INSERT
  5
22EF3
330
1EBE4
100
AcDbEntity
  8
寸法
 62
     0
 48
50.0
370
    -2
100
AcDbBlockReference
  2
_DOTSMALL
 10
6684.896575107015
 20
10375.13487548581
 30
0.0
 41
100.0
 42
100.0
 43
100.0
 50
180.0
  0
INSERT
  5
22EF4
330
1EBE4
100
AcDbEntity
  8
寸法
 62
     0
 48
50.0
370
    -2
100
AcDbBlockReference
  2
_DOTSMALL
 10
7104.896575107017
 20
10375.13487548581
 30
0.0
 41
100.0
 42
100.0
 43
100.0
  0
MTEXT
  5
22EF5
330
1EBE4
100
AcDbEntity
  8
寸法
 62
     7
 48
50.0
100
AcDbMText
 10
6894.896575107016
 20
10475.14668650943
 30
0.0
 40
120.0
 41
0.0
 71
     5
 72
     1
  1
\A1;420
  7
STYLE1
 73
     1
 44
1.0
1001
ACAD
1000
MTEXTBEGIN
1070
    73
1070
     1
1070
    44
1040
1.0
1070
    74
1070
     0
1000
MTEXTEND
  0
POINT
  5
22EF6
330
1EBE4
100
AcDbEntity
  8
DEFPOINTS
 62
     0
 48
50.0
100
AcDbPoint
 10
6684.896575107015
 20
9951.158584484202
 30
0.0
  0
POINT
  5
22EF7
330
1EBE4
100
AcDbEntity
  8
DEFPOINTS
 62
     0
 48
50.0
100
AcDbPoint
 10
7104.896575107017
 20
9951.158584484163
 30
0.0
  0
POINT
  5
22EF8
330
1EBE4
100
AcDbEntity
  8
DEFPOINTS
 62
     0
 48
50.0
100
AcDbPoint
 10
7104.896575107017
 20
10375.13487548581
 30
0.0
  0
ENDBLK
  5
1EBEF
330
1EBE4
100
AcDbEntity
  8
0
 48
50.0
100
AcDbBlockEnd
  0
BLOCK
  5
21FA0
330
21F96
100
AcDbEntity
  8
0
 48
50.0
100
AcDbBlockBegin
  2
*D16
 70
     1
 10
0.0
 20
0.0
 30
0.0
  3
*D16
  1

  0
LINE
  5
22EE7
330
21F96
100
AcDbEntity
  8
寸法
 62
     0
 48
50.0
370
    -2
100
AcDbLine
 10
7121.537591258378
 20
9942.408584484216
 30
0.0
 11
7046.394781998308
 21
10222.84536646625
 31
0.0
  0
LINE
  5
22EE8
330
21F96
100
AcDbEntity
  8
寸法
 62
     0
 48
50.0
370
    -2
100
AcDbLine
 10
6671.537591258381
 20
9942.408584484214
 30
0.0
 11
6596.394781998309
 21
10222.84536646625
 31
0.0
  0
LINE
  5
22EE9
330
21F96
100
AcDbEntity
  8
寸法
 62
     0
 48
50.0
370
    -2
100
AcDbLine
 10
7062.471733544175
 20
10162.84536646625
 30
0.0
 11
6612.471733544177
 21
10162.84536646625
 31
0.0
  0
INSERT
  5
22EEA
330
21F96
100
AcDbEntity
  8
寸法
 62
     0
 48
50.0
370
    -2
100
AcDbBlockReference
  2
_DOTSMALL
 10
7062.471733544175
 20
10162.84536646625
 30
0.0
 41
100.0
 42
100.0
 43
100.0
  0
INSERT
  5
22EEB
330
21F96
100
AcDbEntity
  8
寸法
 62
     0
 48
50.0
370
    -2
100
AcDbBlockReference
  2
_DOTSMALL
 10
6612.471733544177
 20
10162.84536646625
 30
0.0
 41
100.0
 42
100.0
 43
100.0
 50
180.0
  0
MTEXT
  5
22EEC
330
21F96
100
AcDbEntity
  8
寸法
 62
     7
 48
50.0
100
AcDbMText
 10
6871.229496569262
 20
10262.84536646625
 30
0.0
 40
120.0
 41
0.0
 71
     5
 72
     1
  1
\A1;450
  7
STYLE1
 73
     1
 44
1.0
1001
ACAD
1000
MTEXTBEGIN
1070
    73
1070
     1
1070
    44
1040
1.0
1070
    74
1070
     0
1000
MTEXTEND
  0
POINT
  5
22EED
330
21F96
100
AcDbEntity
  8
DEFPOINTS
 62
     0
 48
50.0
100
AcDbPoint
 10
7126.896575107001
 20
9922.408584484216
 30
0.0
  0
POINT
  5
22EEE
330
21F96
100
AcDbEntity
  8
DEFPOINTS
 62
     0
 48
50.0
100
AcDbPoint
 10
6676.896575107003
 20
9922.408584484214
 30
0.0
  0
POINT
  5
22EEF
330
21F96
100
AcDbEntity
  8
DEFPOINTS
 62
     0
 48
50.0
100
AcDbPoint
 10
6612.471733544177
 20
10162.84536646625
 30
0.0
  0
ENDBLK
  5
21FA1
330
21F96
100
AcDbEntity
  8
0
 48
50.0
100
AcDbBlockEnd
  0
BLOCK
  5
21FAC
330
21FA2
100
AcDbEntity
  8
0
 48
50.0
100
AcDbBlockBegin
  2
*D17
 70
     1
 10
0.0
 20
0.0
 30
0.0
  3
*D17
  1

  0
LINE
  5
21FC3
330
21FA2
100
AcDbEntity
  8
寸法
 62
     0
 48
50.0
370
    -2
100
AcDbLine
 10
7146.896575107003
 20
8609.299600635571
 30
0.0
 11
7602.079782507704
 21
8487.333627804343
 31
0.0
  0
LINE
  5
21FC4
330
21FA2
100
AcDbEntity
  8
寸法
 62
     0
 48
50.0
370
    -2
100
AcDbLine
 10
7146.896575107217
 20
7813.299600635566
 30
0.0
 11
7602.079782507704
 21
7691.333627804397
 31
0.0
  0
LINE
  5
21FC5
330
21FA2
100
AcDbEntity
  8
寸法
 62
     0
 48
50.0
370
    -2
100
AcDbLine
 10
7542.079782507703
 20
8503.410579350209
 30
0.0
 11
7542.079782507703
 21
7707.410579350264
 31
0.0
  0
INSERT
  5
21FC6
330
21FA2
100
AcDbEntity
  8
寸法
 62
     0
 48
50.0
370
    -2
100
AcDbBlockReference
  2
_DOTSMALL
 10
7542.079782507703
 20
8503.410579350209
 30
0.0
 41
100.0
 42
100.0
 43
100.0
 50
90.0
  0
INSERT
  5
21FC7
330
21FA2
100
AcDbEntity
  8
寸法
 62
     0
 48
50.0
370
    -2
100
AcDbBlockReference
  2
_DOTSMALL
 10
7542.079782507703
 20
7707.410579350264
 30
0.0
 41
100.0
 42
100.0
 43
100.0
 50
270.0
  0
MTEXT
  5
21FC8
330
21FA2
100
AcDbEntity
  8
寸法
 62
     7
 48
50.0
100
AcDbMText
 10
7442.079782507703
 20
8124.065292288289
 30
0.0
 40
120.0
 41
0.0
 71
     5
 72
     1
  1
\A1;796
  7
STYLE1
 11
0.0000000000000001
 21
1.0
 31
0.0
 73
     1
 44
1.0
1001
ACAD
1000
MTEXTBEGIN
1070
    73
1070
     1
1070
    44
1040
1.0
1070
    74
1070
     0
1000
MTEXTEND
  0
POINT
  5
21FC9
330
21FA2
100
AcDbEntity
  8
DEFPOINTS
 62
     0
 48
50.0
100
AcDbPoint
 10
7126.896575107003
 20
8614.658584484192
 30
0.0
  0
POINT
  5
21FCA
330
21FA2
100
AcDbEntity
  8
DEFPOINTS
 62
     0
 48
50.0
100
AcDbPoint
 10
7126.896575107217
 20
7818.658584484189
 30
0.0
  0
POINT
  5
21FCB
330
21FA2
100
AcDbEntity
  8
DEFPOINTS
 62
     0
 48
50.0
100
AcDbPoint
 10
7542.079782507703
 20
7707.410579350264
 30
0.0
  0
ENDBLK
  5
21FAD
330
21FA2
100
AcDbEntity
  8
0
 48
50.0
100
AcDbBlockEnd
  0
BLOCK
  5
21FB8
330
21FAE
100
AcDbEntity
  8
0
 48
50.0
100
AcDbBlockBegin
  2
*D18
 70
     1
 10
0.0
 20
0.0
 30
0.0
  3
*D18
  1

  0
LINE
  5
22F95
330
21FAE
100
AcDbEntity
  8
寸法
 62
     0
 48
50.0
370
    -2
100
AcDbLine
 10
7146.896575106904
 20
9917.049600635573
 30
0.0
 11
7601.142252168066
 21
9795.334838301705
 31
0.0
  0
LINE
  5
22F96
330
21FAE
100
AcDbEntity
  8
寸法
 62
     0
 48
50.0
370
    -2
100
AcDbLine
 10
7146.896575107219
 20
8644.049600635577
 30
0.0
 11
7601.142252168066
 21
8522.334838301793
 31
0.0
  0
LINE
  5
22F97
330
21FAE
100
AcDbEntity
  8
寸法
 62
     0
 48
50.0
370
    -2
100
AcDbLine
 10
7541.142252168066
 20
9811.411789847573
 30
0.0
 11
7541.142252168066
 21
8538.411789847662
 31
0.0
  0
INSERT
  5
22F98
330
21FAE
100
AcDbEntity
  8
寸法
 62
     0
 48
50.0
370
    -2
100
AcDbBlockReference
  2
_DOTSMALL
 10
7541.142252168066
 20
9811.411789847573
 30
0.0
 41
100.0
 42
100.0
 43
100.0
 50
90.0
  0
INSERT
  5
22F99
330
21FAE
100
AcDbEntity
  8
寸法
 62
     0
 48
50.0
370
    -2
100
AcDbBlockReference
  2
_DOTSMALL
 10
7541.142252168066
 20
8538.411789847662
 30
0.0
 41
100.0
 42
100.0
 43
100.0
 50
270.0
  0
MTEXT
  5
22F9A
330
21FAE
100
AcDbEntity
  8
寸法
 62
     7
 48
50.0
100
AcDbMText
 10
7441.130441144443
 20
9181.741606472424
 30
0.0
 40
120.0
 41
0.0
 71
     5
 72
     1
  1
\A1;1273
  7
STYLE1
 11
0.0000000000000001
 21
1.0
 31
0.0
 73
     1
 44
1.0
1001
ACAD
1000
MTEXTBEGIN
1070
    73
1070
     1
1070
    44
1040
1.0
1070
    74
1070
     0
1000
MTEXTEND
  0
POINT
  5
22F9B
330
21FAE
100
AcDbEntity
  8
DEFPOINTS
 62
     0
 48
50.0
100
AcDbPoint
 10
7126.896575106903
 20
9922.408584484196
 30
0.0
  0
POINT
  5
22F9C
330
21FAE
100
AcDbEntity
  8
DEFPOINTS
 62
     0
 48
50.0
100
AcDbPoint
 10
7126.896575107219
 20
8649.408584484199
 30
0.0
  0
POINT
  5
22F9D
330
21FAE
100
AcDbEntity
  8
DEFPOINTS
 62
     0
 48
50.0
100
AcDbPoint
 10
7541.142252168066
 20
8538.411789847662
 30
0.0
  0
ENDBLK
  5
21FB9
330
21FAE
100
AcDbEntity
  8
0
 48
50.0
100
AcDbBlockEnd
  0
BLOCK
  5
2236B
330
22361
100
AcDbEntity
  8
0
 48
50.0
100
AcDbBlockBegin
  2
*D19
 70
     1
 10
0.0
 20
0.0
 30
0.0
  3
*D19
  1

  0
LINE
  5
22E13
330
22361
100
AcDbEntity
  8
寸法
 62
     0
 48
50.0
370
    -2
100
AcDbLine
 10
9335.693956914473
 20
4932.0
 30
0.0
 11
8750.785315517221
 21
4932.0
 31
0.0
  0
LINE
  5
22E14
330
22361
100
AcDbEntity
  8
寸法
 62
     0
 48
50.0
370
    -2
100
AcDbLine
 10
9335.693956914473
 20
3162.0
 30
0.0
 11
8750.785315517219
 21
3162.000000000001
 31
0.0
  0
LINE
  5
22E15
330
22361
100
AcDbEntity
  8
寸法
 62
     0
 48
50.0
370
    -2
100
AcDbLine
 10
8810.785315517222
 20
4932.0
 30
0.0
 11
8810.78531551722
 21
3162.000000000001
 31
0.0
  0
INSERT
  5
22E16
330
22361
100
AcDbEntity
  8
寸法
 62
     0
 48
50.0
370
    -2
100
AcDbBlockReference
  2
_DOTSMALL
 10
8810.785315517222
 20
4932.0
 30
0.0
 41
100.0
 42
100.0
 43
100.0
 50
90.0
  0
INSERT
  5
22E17
330
22361
100
AcDbEntity
  8
寸法
 62
     0
 48
50.0
370
    -2
100
AcDbBlockReference
  2
_DOTSMALL
 10
8810.78531551722
 20
3162.000000000001
 30
0.0
 41
100.0
 42
100.0
 43
100.0
 50
270.0
  0
MTEXT
  5
22E18
330
22361
100
AcDbEntity
  8
寸法
 62
     7
 48
50.0
100
AcDbMText
 10
8710.785315517219
 20
4047.000000000001
 30
0.0
 40
120.0
 41
0.0
 71
     5
 72
     1
  1
\A1;有効開口部高サ1770
  7
STYLE1
 11
0.0000000000000001
 21
1.0
 31
0.0
 73
     1
 44
1.0
1001
ACAD
1000
MTEXTBEGIN
1070
    73
1070
     1
1070
    44
1040
1.0
1070
    74
1070
     0
1000
MTEXTEND
  0
POINT
  5
22E19
330
22361
100
AcDbEntity
  8
DEFPOINTS
 62
     0
 48
50.0
100
AcDbPoint
 10
9355.693956914475
 20
4932.0
 30
0.0
  0
POINT
  5
22E1A
330
22361
100
AcDbEntity
  8
DEFPOINTS
 62
     0
 48
50.0
100
AcDbPoint
 10
9355.693956914475
 20
3162.0
 30
0.0
  0
POINT
  5
22E1B
330
22361
100
AcDbEntity
  8
DEFPOINTS
 62
     0
 48
50.0
100
AcDbPoint
 10
8810.78531551722
 20
3162.000000000001
 30
0.0
  0
ENDBLK
  5
2236C
330
22361
100
AcDbEntity
  8
0
 48
50.0
100
AcDbBlockEnd
  0
BLOCK
  5
22377
330
2236D
100
AcDbEntity
  8
0
 48
50.0
100
AcDbBlockBegin
  2
*D20
 70
     1
 10
0.0
 20
0.0
 30
0.0
  3
*D20
  1

  0
LINE
  5
22E0A
330
2236D
100
AcDbEntity
  8
寸法
 62
     0
 48
50.0
370
    -2
100
AcDbLine
 10
9335.693956914473
 20
4940.0
 30
0.0
 11
8451.943827731216
 21
4940.0
 31
0.0
  0
LINE
  5
22E0B
330
2236D
100
AcDbEntity
  8
寸法
 62
     0
 48
50.0
370
    -2
100
AcDbLine
 10
9335.693956914473
 20
3150.0
 30
0.0
 11
8451.943827731215
 21
3150.0
 31
0.0
  0
LINE
  5
22E0C
330
2236D
100
AcDbEntity
  8
寸法
 62
     0
 48
50.0
370
    -2
100
AcDbLine
 10
8511.943827731217
 20
4940.0
 30
0.0
 11
8511.943827731213
 21
3150.0
 31
0.0
  0
INSERT
  5
22E0D
330
2236D
100
AcDbEntity
  8
寸法
 62
     0
 48
50.0
370
    -2
100
AcDbBlockReference
  2
_DOTSMALL
 10
8511.943827731217
 20
4940.0
 30
0.0
 41
100.0
 42
100.0
 43
100.0
 50
90.0
  0
INSERT
  5
22E0E
330
2236D
100
AcDbEntity
  8
寸法
 62
     0
 48
50.0
370
    -2
100
AcDbBlockReference
  2
_DOTSMALL
 10
8511.943827731213
 20
3150.0
 30
0.0
 41
100.0
 42
100.0
 43
100.0
 50
270.0
  0
MTEXT
  5
22E0F
330
2236D
100
AcDbEntity
  8
寸法
 62
     7
 48
50.0
100
AcDbMText
 10
8411.943827731214
 20
4045.000000000001
 30
0.0
 40
120.0
 41
0.0
 71
     5
 72
     1
  1
\A1;1790
  7
STYLE1
 11
0.0000000000000001
 21
1.0
 31
0.0
 73
     1
 44
1.0
1001
ACAD
1000
MTEXTBEGIN
1070
    73
1070
     1
1070
    44
1040
1.0
1070
    74
1070
     0
1000
MTEXTEND
  0
POINT
  5
22E10
330
2236D
100
AcDbEntity
  8
DEFPOINTS
 62
     0
 48
50.0
100
AcDbPoint
 10
9355.693956914475
 20
4940.0
 30
0.0
  0
POINT
  5
22E11
330
2236D
100
AcDbEntity
  8
DEFPOINTS
 62
     0
 48
50.0
100
AcDbPoint
 10
9355.693956914475
 20
3150.0
 30
0.0
  0
POINT
  5
22E12
330
2236D
100
AcDbEntity
  8
DEFPOINTS
 62
     0
 48
50.0
100
AcDbPoint
 10
8511.943827731213
 20
3150.0
 30
0.0
  0
ENDBLK
  5
22378
330
2236D
100
AcDbEntity
  8
0
 48
50.0
100
AcDbBlockEnd
  0
BLOCK
  5
22383
330
22379
100
AcDbEntity
  8
0
 48
50.0
100
AcDbBlockBegin
  2
*D21
 70
     1
 10
0.0
 20
0.0
 30
0.0
  3
*D21
  1

  0
LINE
  5
22E01
330
22379
100
AcDbEntity
  8
寸法
 62
     0
 48
50.0
370
    -2
100
AcDbLine
 10
9335.693956914473
 20
3100.0
 30
0.0
 11
8151.943827731214
 21
3100.0
 31
0.0
  0
LINE
  5
22E02
330
22379
100
AcDbEntity
  8
寸法
 62
     0
 48
50.0
370
    -2
100
AcDbLine
 10
9275.693956914475
 20
5175.000000000005
 30
0.0
 11
8151.943827731214
 21
5175.000000000005
 31
0.0
  0
LINE
  5
22E03
330
22379
100
AcDbEntity
  8
寸法
 62
     0
 48
50.0
370
    -2
100
AcDbLine
 10
8211.943827731213
 20
3100.0
 30
0.0
 11
8211.943827731214
 21
5175.000000000005
 31
0.0
  0
INSERT
  5
22E04
330
22379
100
AcDbEntity
  8
寸法
 62
     0
 48
50.0
370
    -2
100
AcDbBlockReference
  2
_DOTSMALL
 10
8211.943827731213
 20
3100.0
 30
0.0
 41
100.0
 42
100.0
 43
100.0
 50
270.0
  0
INSERT
  5
22E05
330
22379
100
AcDbEntity
  8
寸法
 62
     0
 48
50.0
370
    -2
100
AcDbBlockReference
  2
_DOTSMALL
 10
8211.943827731214
 20
5175.000000000005
 30
0.0
 41
100.0
 42
100.0
 43
100.0
 50
90.0
  0
MTEXT
  5
22E06
330
22379
100
AcDbEntity
  8
寸法
 62
     7
 48
50.0
100
AcDbMText
 10
8111.932016707591
 20
4137.500000000003
 30
0.0
 40
120.0
 41
0.0
 71
     5
 72
     1
  1
\A1;2075
  7
STYLE1
 11
0.0000000000000001
 21
1.0
 31
0.0
 73
     1
 44
1.0
1001
ACAD
1000
MTEXTBEGIN
1070
    73
1070
     1
1070
    44
1040
1.0
1070
    74
1070
     0
1000
MTEXTEND
  0
POINT
  5
22E07
330
22379
100
AcDbEntity
  8
DEFPOINTS
 62
     0
 48
50.0
100
AcDbPoint
 10
9355.693956914475
 20
3100.0
 30
0.0
  0
POINT
  5
22E08
330
22379
100
AcDbEntity
  8
DEFPOINTS
 62
     0
 48
50.0
100
AcDbPoint
 10
9295.693956914474
 20
5175.000000000005
 30
0.0
  0
POINT
  5
22E09
330
22379
100
AcDbEntity
  8
DEFPOINTS
 62
     0
 48
50.0
100
AcDbPoint
 10
8211.943827731214
 20
5175.000000000005
 30
0.0
  0
ENDBLK
  5
22384
330
22379
100
AcDbEntity
  8
0
 48
50.0
100
AcDbBlockEnd
  0
BLOCK
  5
22390
330
22385
100
AcDbEntity
  8
0
 48
50.0
100
AcDbBlockBegin
  2
*D22
 70
     1
 10
0.0
 20
0.0
 30
0.0
  3
*D22
  1

  0
LINE
  5
22DF7
330
22385
100
AcDbEntity
  8
寸法
 62
     0
 48
50.0
370
    -2
100
AcDbLine
 10
9280.693956914474
 20
3100.0
 30
0.0
 11
8151.943827731216
 21
3100.0
 31
0.0
  0
LINE
  5
22DF8
330
22385
100
AcDbEntity
  8
寸法
 62
     0
 48
50.0
370
    -2
100
AcDbLine
 10
8279.192881019342
 20
3000.0
 30
0.0
 11
8151.943827731216
 21
3000.0
 31
0.0
  0
LINE
  5
22DF9
330
22385
100
AcDbEntity
  8
寸法
 62
     0
 48
50.0
370
    -2
100
AcDbLine
 10
8211.943827731214
 20
3100.0
 30
0.0
 11
8211.943827731214
 21
3000.0
 31
0.0
  0
LINE
  5
22DFA
330
22385
100
AcDbEntity
  8
寸法
 62
     0
 48
50.0
370
    -2
100
AcDbLine
 10
8211.943827731214
 20
3000.0
 30
0.0
 11
8211.943827731214
 21
2627.90551181102
 31
0.0
  0
INSERT
  5
22DFB
330
22385
100
AcDbEntity
  8
寸法
 62
     0
 48
50.0
370
    -2
100
AcDbBlockReference
  2
_DOTSMALL
 10
8211.943827731214
 20
3100.0
 30
0.0
 41
100.0
 42
100.0
 43
100.0
 50
90.0
  0
INSERT
  5
22DFC
330
22385
100
AcDbEntity
  8
寸法
 62
     0
 48
50.0
370
    -2
100
AcDbBlockReference
  2
_DOTSMALL
 10
8211.943827731214
 20
3000.0
 30
0.0
 41
100.0
 42
100.0
 43
100.0
 50
270.0
  0
MTEXT
  5
22DFD
330
22385
100
AcDbEntity
  8
寸法
 62
     7
 48
50.0
100
AcDbMText
 10
8111.943827731215
 20
2763.95275590551
 30
0.0
 40
120.0
 41
0.0
 71
     5
 72
     1
  1
\A1;100
  7
STYLE1
 11
0.0000000000000001
 21
1.0
 31
0.0
 73
     1
 44
1.0
1001
ACAD
1000
MTEXTBEGIN
1070
    73
1070
     1
1070
    44
1040
1.0
1070
    74
1070
     0
1000
MTEXTEND
  0
POINT
  5
22DFE
330
22385
100
AcDbEntity
  8
DEFPOINTS
 62
     0
 48
50.0
100
AcDbPoint
 10
9300.693956914475
 20
3100.0
 30
0.0
  0
POINT
  5
22DFF
330
22385
100
AcDbEntity
  8
DEFPOINTS
 62
     0
 48
50.0
100
AcDbPoint
 10
8299.192881019342
 20
3000.0
 30
0.0
  0
POINT
  5
22E00
330
22385
100
AcDbEntity
  8
DEFPOINTS
 62
     0
 48
50.0
100
AcDbPoint
 10
8211.943827731214
 20
3000.0
 30
0.0
  0
ENDBLK
  5
22391
330
22385
100
AcDbEntity
  8
0
 48
50.0
100
AcDbBlockEnd
  0
BLOCK
  5
2239E
330
22392
100
AcDbEntity
  8
0
 48
50.0
100
AcDbBlockBegin
  2
*D23
 70
     1
 10
0.0
 20
0.0
 30
0.0
  3
*D23
  1

  0
LINE
  5
22DEC
330
22392
100
AcDbEntity
  8
寸法
 62
     0
 48
50.0
370
    -2
100
AcDbLine
 10
9335.693956914473
 20
3150.0
 30
0.0
 11
8451.943827731215
 21
3150.0
 31
0.0
  0
LINE
  5
22DED
330
22392
100
AcDbEntity
  8
寸法
 62
     0
 48
50.0
370
    -2
100
AcDbLine
 10
9280.693956914474
 20
3100.0
 30
0.0
 11
8451.943827731215
 21
3100.0
 31
0.0
  0
LINE
  5
22DEE
330
22392
100
AcDbEntity
  8
寸法
 62
     0
 48
50.0
370
    -2
100
AcDbLine
 10
8511.943827731213
 20
3150.0
 30
0.0
 11
8511.943827731213
 21
3250.000000000001
 31
0.0
  0
LINE
  5
22DEF
330
22392
100
AcDbEntity
  8
寸法
 62
     0
 48
50.0
370
    -2
100
AcDbLine
 10
8511.943827731213
 20
3100.0
 30
0.0
 11
8511.943827731213
 21
2687.905511811021
 31
0.0
  0
LINE
  5
22DF0
330
22392
100
AcDbEntity
  8
寸法
 62
     0
 48
50.0
370
    -2
100
AcDbLine
 10
8511.943827731213
 20
3150.0
 30
0.0
 11
8511.943827731213
 21
3100.0
 31
0.0
  0
INSERT
  5
22DF1
330
22392
100
AcDbEntity
  8
寸法
 62
     0
 48
50.0
370
    -2
100
AcDbBlockReference
  2
_DOTSMALL
 10
8511.943827731213
 20
3150.0
 30
0.0
 41
100.0
 42
100.0
 43
100.0
 50
270.0
  0
INSERT
  5
22DF2
330
22392
100
AcDbEntity
  8
寸法
 62
     0
 48
50.0
370
    -2
100
AcDbBlockReference
  2
_DOTSMALL
 10
8511.943827731213
 20
3100.0
 30
0.0
 41
100.0
 42
100.0
 43
100.0
 50
90.0
  0
MTEXT
  5
22DF3
330
22392
100
AcDbEntity
  8
寸法
 62
     7
 48
50.0
100
AcDbMText
 10
8411.943827731214
 20
2793.952755905511
 30
0.0
 40
120.0
 41
0.0
 71
     5
 72
     1
  1
\A1;50
  7
STYLE1
 11
0.0000000000000001
 21
1.0
 31
0.0
 73
     1
 44
1.0
1001
ACAD
1000
MTEXTBEGIN
1070
    73
1070
     1
1070
    44
1040
1.0
1070
    74
1070
     0
1000
MTEXTEND
  0
POINT
  5
22DF4
330
22392
100
AcDbEntity
  8
DEFPOINTS
 62
     0
 48
50.0
100
AcDbPoint
 10
9355.693956914475
 20
3150.0
 30
0.0
  0
POINT
  5
22DF5
330
22392
100
AcDbEntity
  8
DEFPOINTS
 62
     0
 48
50.0
100
AcDbPoint
 10
9300.693956914475
 20
3100.0
 30
0.0
  0
POINT
  5
22DF6
330
22392
100
AcDbEntity
  8
DEFPOINTS
 62
     0
 48
50.0
100
AcDbPoint
 10
8511.943827731213
 20
3100.0
 30
0.0
  0
ENDBLK
  5
2239F
330
22392
100
AcDbEntity
  8
0
 48
50.0
100
AcDbBlockEnd
  0
BLOCK
  5
223AA
330
223A0
100
AcDbEntity
  8
0
 48
50.0
100
AcDbBlockBegin
  2
*D24
 70
     1
 10
0.0
 20
0.0
 30
0.0
  3
*D24
  1

  0
LINE
  5
22DE3
330
223A0
100
AcDbEntity
  8
寸法
 62
     0
 48
50.0
370
    -2
100
AcDbLine
 10
11585.69395691448
 20
3100.0
 30
0.0
 11
12330.6211148866
 21
3100.0
 31
0.0
  0
LINE
  5
22DE4
330
223A0
100
AcDbEntity
  8
寸法
 62
     0
 48
50.0
370
    -2
100
AcDbLine
 10
11665.69395691447
 20
5120.0
 30
0.0
 11
12330.6211148866
 21
5120.0
 31
0.0
  0
LINE
  5
22DE5
330
223A0
100
AcDbEntity
  8
寸法
 62
     0
 48
50.0
370
    -2
100
AcDbLine
 10
12270.6211148866
 20
3100.0
 30
0.0
 11
12270.6211148866
 21
5120.0
 31
0.0
  0
INSERT
  5
22DE6
330
223A0
100
AcDbEntity
  8
寸法
 62
     0
 48
50.0
370
    -2
100
AcDbBlockReference
  2
_DOTSMALL
 10
12270.6211148866
 20
3100.0
 30
0.0
 41
100.0
 42
100.0
 43
100.0
 50
270.0
  0
INSERT
  5
22DE7
330
223A0
100
AcDbEntity
  8
寸法
 62
     0
 48
50.0
370
    -2
100
AcDbBlockReference
  2
_DOTSMALL
 10
12270.6211148866
 20
5120.0
 30
0.0
 41
100.0
 42
100.0
 43
100.0
 50
90.0
  0
MTEXT
  5
22DE8
330
223A0
100
AcDbEntity
  8
寸法
 62
     7
 48
50.0
100
AcDbMText
 10
12170.60930386298
 20
4110.000000000002
 30
0.0
 40
120.0
 41
0.0
 71
     5
 72
     1
  1
\A1;2020
  7
STYLE1
 11
0.0000000000000001
 21
1.0
 31
0.0
 73
     1
 44
1.0
1001
ACAD
1000
MTEXTBEGIN
1070
    73
1070
     1
1070
    44
1040
1.0
1070
    74
1070
     0
1000
MTEXTEND
  0
POINT
  5
22DE9
330
223A0
100
AcDbEntity
  8
DEFPOINTS
 62
     0
 48
50.0
100
AcDbPoint
 10
11565.69395691448
 20
3100.0
 30
0.0
  0
POINT
  5
22DEA
330
223A0
100
AcDbEntity
  8
DEFPOINTS
 62
     0
 48
50.0
100
AcDbPoint
 10
11645.69395691447
 20
5120.0
 30
0.0
  0
POINT
  5
22DEB
330
223A0
100
AcDbEntity
  8
DEFPOINTS
 62
     0
 48
50.0
100
AcDbPoint
 10
12270.6211148866
 20
5120.0
 30
0.0
  0
ENDBLK
  5
223AB
330
223A0
100
AcDbEntity
  8
0
 48
50.0
100
AcDbBlockEnd
  0
BLOCK
  5
223B6
330
223AC
100
AcDbEntity
  8
0
 48
50.0
100
AcDbBlockBegin
  2
*D25
 70
     1
 10
0.0
 20
0.0
 30
0.0
  3
*D25
  1

  0
LINE
  5
22DDA
330
223AC
100
AcDbEntity
  8
寸法
 62
     0
 48
50.0
370
    -2
100
AcDbLine
 10
11565.69395691447
 20
5141.810679611654
 30
0.0
 11
11565.69395691447
 21
5633.657453579304
 31
0.0
  0
LINE
  5
22DDB
330
223AC
100
AcDbEntity
  8
寸法
 62
     0
 48
50.0
370
    -2
100
AcDbLine
 10
9355.693956914475
 20
5191.001618122976
 30
0.0
 11
9355.693956914475
 21
5633.657453579304
 31
0.0
  0
LINE
  5
22DDC
330
223AC
100
AcDbEntity
  8
寸法
 62
     0
 48
50.0
370
    -2
100
AcDbLine
 10
11565.69395691447
 20
5573.657453579304
 30
0.0
 11
9355.693956914475
 21
5573.657453579304
 31
0.0
  0
INSERT
  5
22DDD
330
223AC
100
AcDbEntity
  8
寸法
 62
     0
 48
50.0
370
    -2
100
AcDbBlockReference
  2
_DOTSMALL
 10
11565.69395691447
 20
5573.657453579304
 30
0.0
 41
100.0
 42
100.0
 43
100.0
  0
INSERT
  5
22DDE
330
223AC
100
AcDbEntity
  8
寸法
 62
     0
 48
50.0
370
    -2
100
AcDbBlockReference
  2
_DOTSMALL
 10
9355.693956914475
 20
5573.657453579304
 30
0.0
 41
100.0
 42
100.0
 43
100.0
 50
180.0
  0
MTEXT
  5
22DDF
330
223AC
100
AcDbEntity
  8
寸法
 62
     7
 48
50.0
100
AcDbMText
 10
10450.33869398499
 20
5673.669264602926
 30
0.0
 40
120.0
 41
0.0
 71
     5
 72
     1
  1
\A1;柱外寸法2210
  7
STYLE1
 73
     1
 44
1.0
1001
ACAD
1000
MTEXTBEGIN
1070
    73
1070
     1
1070
    44
1040
1.0
1070
    74
1070
     0
1000
MTEXTEND
  0
POINT
  5
22DE0
330
223AC
100
AcDbEntity
  8
DEFPOINTS
 62
     0
 48
50.0
100
AcDbPoint
 10
11565.69395691447
 20
5121.810679611654
 30
0.0
  0
POINT
  5
22DE1
330
223AC
100
AcDbEntity
  8
DEFPOINTS
 62
     0
 48
50.0
100
AcDbPoint
 10
9355.693956914475
 20
5171.001618122977
 30
0.0
  0
POINT
  5
22DE2
330
223AC
100
AcDbEntity
  8
DEFPOINTS
 62
     0
 48
50.0
100
AcDbPoint
 10
9355.693956914475
 20
5573.657453579304
 30
0.0
  0
ENDBLK
  5
223B7
330
223AC
100
AcDbEntity
  8
0
 48
50.0
100
AcDbBlockEnd
  0
BLOCK
  5
223C4
330
223B8
100
AcDbEntity
  8
0
 48
50.0
100
AcDbBlockBegin
  2
*D26
 70
     1
 10
0.0
 20
0.0
 30
0.0
  3
*D26
  1

  0
LINE
  5
22DCF
330
223B8
100
AcDbEntity
  8
寸法
 62
     0
 48
50.0
370
    -2
100
AcDbLine
 10
9355.693956914475
 20
5191.001618122976
 30
0.0
 11
9355.693956914475
 21
5633.657453579304
 31
0.0
  0
LINE
  5
22DD0
330
223B8
100
AcDbEntity
  8
寸法
 62
     0
 48
50.0
370
    -2
100
AcDbLine
 10
9295.693956914474
 20
5195.000000000004
 30
0.0
 11
9295.693956914474
 21
5633.657453579304
 31
0.0
  0
LINE
  5
22DD1
330
223B8
100
AcDbEntity
  8
寸法
 62
     0
 48
50.0
370
    -2
100
AcDbLine
 10
9355.693956914475
 20
5573.657453579304
 30
0.0
 11
9455.693956914474
 21
5573.657453579304
 31
0.0
  0
LINE
  5
22DD2
330
223B8
100
AcDbEntity
  8
寸法
 62
     0
 48
50.0
370
    -2
100
AcDbLine
 10
9295.693956914474
 20
5573.657453579304
 30
0.0
 11
8876.418366363294
 21
5573.657453579304
 31
0.0
  0
LINE
  5
22DD3
330
223B8
100
AcDbEntity
  8
寸法
 62
     0
 48
50.0
370
    -2
100
AcDbLine
 10
9355.693956914475
 20
5573.657453579304
 30
0.0
 11
9295.693956914474
 21
5573.657453579304
 31
0.0
  0
INSERT
  5
22DD4
330
223B8
100
AcDbEntity
  8
寸法
 62
     0
 48
50.0
370
    -2
100
AcDbBlockReference
  2
_DOTSMALL
 10
9355.693956914475
 20
5573.657453579304
 30
0.0
 41
100.0
 42
100.0
 43
100.0
 50
180.0
  0
INSERT
  5
22DD5
330
223B8
100
AcDbEntity
  8
寸法
 62
     0
 48
50.0
370
    -2
100
AcDbBlockReference
  2
_DOTSMALL
 10
9295.693956914474
 20
5573.657453579304
 30
0.0
 41
100.0
 42
100.0
 43
100.0
  0
MTEXT
  5
22DD6
330
223B8
100
AcDbEntity
  8
寸法
 62
     7
 48
50.0
100
AcDbMText
 10
8986.056161638883
 20
5673.657453579305
 30
0.0
 40
120.0
 41
0.0
 71
     5
 72
     1
  1
\A1;60
  7
STYLE1
 73
     1
 44
1.0
1001
ACAD
1000
MTEXTBEGIN
1070
    73
1070
     1
1070
    44
1040
1.0
1070
    74
1070
     0
1000
MTEXTEND
  0
POINT
  5
22DD7
330
223B8
100
AcDbEntity
  8
DEFPOINTS
 62
     0
 48
50.0
100
AcDbPoint
 10
9355.693956914475
 20
5171.001618122977
 30
0.0
  0
POINT
  5
22DD8
330
223B8
100
AcDbEntity
  8
DEFPOINTS
 62
     0
 48
50.0
100
AcDbPoint
 10
9295.693956914474
 20
5175.000000000005
 30
0.0
  0
POINT
  5
22DD9
330
223B8
100
AcDbEntity
  8
DEFPOINTS
 62
     0
 48
50.0
100
AcDbPoint
 10
9295.693956914474
 20
5573.657453579304
 30
0.0
  0
ENDBLK
  5
223C5
330
223B8
100
AcDbEntity
  8
0
 48
50.0
100
AcDbBlockEnd
  0
BLOCK
  5
223D0
330
223C6
100
AcDbEntity
  8
0
 48
50.0
100
AcDbBlockBegin
  2
*D27
 70
     1
 10
0.0
 20
0.0
 30
0.0
  3
*D27
  1

  0
LINE
  5
22DC6
330
223C6
100
AcDbEntity
  8
寸法
 62
     0
 48
50.0
370
    -2
100
AcDbLine
 10
11645.69395691447
 20
5140.000000000001
 30
0.0
 11
11645.69395691447
 21
5852.859287253596
 31
0.0
  0
LINE
  5
22DC7
330
223C6
100
AcDbEntity
  8
寸法
 62
     0
 48
50.0
370
    -2
100
AcDbLine
 10
9295.693956914474
 20
5195.000000000004
 30
0.0
 11
9295.693956914474
 21
5852.859287253596
 31
0.0
  0
LINE
  5
22DC8
330
223C6
100
AcDbEntity
  8
寸法
 62
     0
 48
50.0
370
    -2
100
AcDbLine
 10
11645.69395691447
 20
5792.859287253596
 30
0.0
 11
9295.693956914474
 21
5792.859287253596
 31
0.0
  0
INSERT
  5
22DC9
330
223C6
100
AcDbEntity
  8
寸法
 62
     0
 48
50.0
370
    -2
100
AcDbBlockReference
  2
_DOTSMALL
 10
11645.69395691447
 20
5792.859287253596
 30
0.0
 41
100.0
 42
100.0
 43
100.0
  0
INSERT
  5
22DCA
330
223C6
100
AcDbEntity
  8
寸法
 62
     0
 48
50.0
370
    -2
100
AcDbBlockReference
  2
_DOTSMALL
 10
9295.693956914474
 20
5792.859287253596
 30
0.0
 41
100.0
 42
100.0
 43
100.0
 50
180.0
  0
MTEXT
  5
22DCB
330
223C6
100
AcDbEntity
  8
寸法
 62
     7
 48
50.0
100
AcDbMText
 10
10530.03781100694
 20
5892.871098277217
 30
0.0
 40
120.0
 41
0.0
 71
     5
 72
     1
  1
\A1;2350
  7
STYLE1
 73
     1
 44
1.0
1001
ACAD
1000
MTEXTBEGIN
1070
    73
1070
     1
1070
    44
1040
1.0
1070
    74
1070
     0
1000
MTEXTEND
  0
POINT
  5
22DCC
330
223C6
100
AcDbEntity
  8
DEFPOINTS
 62
     0
 48
50.0
100
AcDbPoint
 10
11645.69395691447
 20
5120.0
 30
0.0
  0
POINT
  5
22DCD
330
223C6
100
AcDbEntity
  8
DEFPOINTS
 62
     0
 48
50.0
100
AcDbPoint
 10
9295.693956914474
 20
5175.000000000005
 30
0.0
  0
POINT
  5
22DCE
330
223C6
100
AcDbEntity
  8
DEFPOINTS
 62
     0
 48
50.0
100
AcDbPoint
 10
9295.693956914474
 20
5792.859287253596
 30
0.0
  0
ENDBLK
  5
223D1
330
223C6
100
AcDbEntity
  8
0
 48
50.0
100
AcDbBlockEnd
  0
BLOCK
  5
223DD
330
223D2
100
AcDbEntity
  8
0
 48
50.0
100
AcDbBlockBegin
  2
*D28
 70
     1
 10
0.0
 20
0.0
 30
0.0
  3
*D28
  1

  0
LINE
  5
22DBC
330
223D2
100
AcDbEntity
  8
寸法
 62
     0
 48
50.0
370
    -2
100
AcDbLine
 10
11565.69395691447
 20
5141.810679611654
 30
0.0
 11
11565.69395691447
 21
5633.657453579304
 31
0.0
  0
LINE
  5
22DBD
330
223D2
100
AcDbEntity
  8
寸法
 62
     0
 48
50.0
370
    -2
100
AcDbLine
 10
11645.69395691447
 20
5140.000000000001
 30
0.0
 11
11645.69395691447
 21
5633.657453579304
 31
0.0
  0
LINE
  5
22DBE
330
223D2
100
AcDbEntity
  8
寸法
 62
     0
 48
50.0
370
    -2
100
AcDbLine
 10
11565.69395691447
 20
5573.657453579304
 30
0.0
 11
11645.69395691447
 21
5573.657453579304
 31
0.0
  0
LINE
  5
22DBF
330
223D2
100
AcDbEntity
  8
寸法
 62
     0
 48
50.0
370
    -2
100
AcDbLine
 10
11645.69395691447
 20
5573.657453579304
 30
0.0
 11
11957.78844510345
 21
5573.657453579304
 31
0.0
  0
INSERT
  5
22DC0
330
223D2
100
AcDbEntity
  8
寸法
 62
     0
 48
50.0
370
    -2
100
AcDbBlockReference
  2
_DOTSMALL
 10
11565.69395691447
 20
5573.657453579304
 30
0.0
 41
100.0
 42
100.0
 43
100.0
 50
180.0
  0
INSERT
  5
22DC1
330
223D2
100
AcDbEntity
  8
寸法
 62
     0
 48
50.0
370
    -2
100
AcDbBlockReference
  2
_DOTSMALL
 10
11645.69395691447
 20
5573.657453579304
 30
0.0
 41
100.0
 42
100.0
 43
100.0
  0
MTEXT
  5
22DC2
330
223D2
100
AcDbEntity
  8
寸法
 62
     7
 48
50.0
100
AcDbMText
 10
11851.74120100896
 20
5673.657453579305
 30
0.0
 40
120.0
 41
0.0
 71
     5
 72
     1
  1
\A1;80
  7
STYLE1
 73
     1
 44
1.0
1001
ACAD
1000
MTEXTBEGIN
1070
    73
1070
     1
1070
    44
1040
1.0
1070
    74
1070
     0
1000
MTEXTEND
  0
POINT
  5
22DC3
330
223D2
100
AcDbEntity
  8
DEFPOINTS
 62
     0
 48
50.0
100
AcDbPoint
 10
11565.69395691447
 20
5121.810679611654
 30
0.0
  0
POINT
  5
22DC4
330
223D2
100
AcDbEntity
  8
DEFPOINTS
 62
     0
 48
50.0
100
AcDbPoint
 10
11645.69395691447
 20
5120.0
 30
0.0
  0
POINT
  5
22DC5
330
223D2
100
AcDbEntity
  8
DEFPOINTS
 62
     0
 48
50.0
100
AcDbPoint
 10
11645.69395691447
 20
5573.657453579304
 30
0.0
  0
ENDBLK
  5
223DE
330
223D2
100
AcDbEntity
  8
0
 48
50.0
100
AcDbBlockEnd
  0
BLOCK
  5
223EA
330
223DF
100
AcDbEntity
  8
0
 48
50.0
100
AcDbBlockBegin
  2
*D29
 70
     1
 10
0.0
 20
0.0
 30
0.0
  3
*D29
  1

  0
LINE
  5
22DB2
330
223DF
100
AcDbEntity
  8
寸法
 62
     0
 48
50.0
370
    -2
100
AcDbLine
 10
9295.098243205575
 20
5174.297707069662
 30
0.0
 11
8679.16380410031
 21
5192.011857343992
 31
0.0
  0
LINE
  5
22DB3
330
223DF
100
AcDbEntity
  8
寸法
 62
     0
 48
50.0
370
    -2
100
AcDbLine
 10
9291.044787648948
 20
5033.355983303948
 30
0.0
 11
8675.110348543682
 21
5051.070133578279
 31
0.0
  0
LINE
  5
22DB4
330
223DF
100
AcDbEntity
  8
寸法
 62
     0
 48
50.0
370
    -2
100
AcDbLine
 10
8735.085550146115
 20
5049.34525887333
 30
0.0
 11
8739.139005702741
 21
5190.286982639044
 31
0.0
  0
LINE
  5
22DB5
330
223DF
100
AcDbEntity
  8
寸法
 62
     0
 48
50.0
370
    -2
100
AcDbLine
 10
8739.139005702741
 20
5190.286982639044
 30
0.0
 11
8749.488253932424
 21
5550.13819225363
 31
0.0
  0
INSERT
  5
22DB6
330
223DF
100
AcDbEntity
  8
寸法
 62
     0
 48
50.0
370
    -2
100
AcDbBlockReference
  2
_DOTSMALL
 10
8735.085550146115
 20
5049.34525887333
 30
0.0
 41
100.0
 42
100.0
 43
100.0
 50
268.3526390256378
  0
INSERT
  5
22DB7
330
223DF
100
AcDbEntity
  8
寸法
 62
     0
 48
50.0
370
    -2
100
AcDbBlockReference
  2
_DOTSMALL
 10
8739.139005702741
 20
5190.286982639044
 30
0.0
 41
100.0
 42
100.0
 43
100.0
 50
88.35263902563776
  0
MTEXT
  5
22DB8
330
223DF
100
AcDbEntity
  8
寸法
 62
     7
 48
50.0
100
AcDbMText
 10
8645.792356067651
 20
5423.066713289943
 30
0.0
 40
120.0
 41
0.0
 71
     5
 72
     1
  1
\A1;141
  7
STYLE1
 11
0.0287479117491237
 21
0.9995866933738488
 31
0.0
 73
     1
 44
1.0
1001
ACAD
1000
MTEXTBEGIN
1070
    73
1070
     1
1070
    44
1040
1.0
1070
    74
1070
     0
1000
MTEXTEND
  0
POINT
  5
22DB9
330
223DF
100
AcDbEntity
  8
DEFPOINTS
 62
     0
 48
50.0
100
AcDbPoint
 10
9315.089977073052
 20
5173.72274883468
 30
0.0
  0
POINT
  5
22DBA
330
223DF
100
AcDbEntity
  8
DEFPOINTS
 62
     0
 48
50.0
100
AcDbPoint
 10
9311.036521516426
 20
5032.781025068967
 30
0.0
  0
POINT
  5
22DBB
330
223DF
100
AcDbEntity
  8
DEFPOINTS
 62
     0
 48
50.0
100
AcDbPoint
 10
8735.085550146115
 20
5049.34525887333
 30
0.0
  0
ENDBLK
  5
223EB
330
223DF
100
AcDbEntity
  8
0
 48
50.0
100
AcDbBlockEnd
  0
BLOCK
  5
223F6
330
223EC
100
AcDbEntity
  8
0
 48
50.0
100
AcDbBlockBegin
  2
*D30
 70
     1
 10
0.0
 20
0.0
 30
0.0
  3
*D30
  1

  0
LINE
  5
22DA9
330
223EC
100
AcDbEntity
  8
寸法
 62
     0
 48
50.0
370
    -2
100
AcDbLine
 10
9263.193956914477
 20
2799.999999999999
 30
0.0
 11
9073.69395366784
 21
2799.999999999999
 31
0.0
  0
LINE
  5
22DAA
330
223EC
100
AcDbEntity
  8
寸法
 62
     0
 48
50.0
370
    -2
100
AcDbLine
 10
9238.193956914475
 20
3000.0
 30
0.0
 11
9073.69395366784
 21
3000.0
 31
0.0
  0
LINE
  5
22DAB
330
223EC
100
AcDbEntity
  8
寸法
 62
     0
 48
50.0
370
    -2
100
AcDbLine
 10
9133.69395366784
 20
2799.999999999999
 30
0.0
 11
9133.69395366784
 21
3000.0
 31
0.0
  0
INSERT
  5
22DAC
330
223EC
100
AcDbEntity
  8
寸法
 62
     0
 48
50.0
370
    -2
100
AcDbBlockReference
  2
_DOTSMALL
 10
9133.69395366784
 20
2799.999999999999
 30
0.0
 41
100.0
 42
100.0
 43
100.0
 50
270.0
  0
INSERT
  5
22DAD
330
223EC
100
AcDbEntity
  8
寸法
 62
     0
 48
50.0
370
    -2
100
AcDbBlockReference
  2
_DOTSMALL
 10
9133.69395366784
 20
3000.0
 30
0.0
 41
100.0
 42
100.0
 43
100.0
 50
90.0
  0
MTEXT
  5
22DAE
330
223EC
100
AcDbEntity
  8
寸法
 62
     7
 48
50.0
100
AcDbMText
 10
9033.682142644218
 20
2900.000000000001
 30
0.0
 40
120.0
 41
0.0
 71
     5
 72
     1
  1
\A1;200
  7
STYLE1
 11
0.0000000000000001
 21
1.0
 31
0.0
 73
     1
 44
1.0
1001
ACAD
1000
MTEXTBEGIN
1070
    73
1070
     1
1070
    44
1040
1.0
1070
    74
1070
     0
1000
MTEXTEND
  0
POINT
  5
22DAF
330
223EC
100
AcDbEntity
  8
DEFPOINTS
 62
     0
 48
50.0
100
AcDbPoint
 10
9283.193956914479
 20
2799.999999999999
 30
0.0
  0
POINT
  5
22DB0
330
223EC
100
AcDbEntity
  8
DEFPOINTS
 62
     0
 48
50.0
100
AcDbPoint
 10
9258.193956914475
 20
3000.0
 30
0.0
  0
POINT
  5
22DB1
330
223EC
100
AcDbEntity
  8
DEFPOINTS
 62
     0
 48
50.0
100
AcDbPoint
 10
9133.69395366784
 20
3000.0
 30
0.0
  0
ENDBLK
  5
223F7
330
223EC
100
AcDbEntity
  8
0
 48
50.0
100
AcDbBlockEnd
  0
BLOCK
  5
22402
330
223F8
100
AcDbEntity
  8
0
 48
50.0
100
AcDbBlockBegin
  2
*D31
 70
     1
 10
0.0
 20
0.0
 30
0.0
  3
*D31
  1

  0
LINE
  5
22DA0
330
223F8
100
AcDbEntity
  8
寸法
 62
     0
 48
50.0
370
    -2
100
AcDbLine
 10
9483.193956914474
 20
2779.999999999998
 30
0.0
 11
9483.193956914474
 21
2453.952670699622
 31
0.0
  0
LINE
  5
22DA1
330
223F8
100
AcDbEntity
  8
寸法
 62
     0
 48
50.0
370
    -2
100
AcDbLine
 10
9283.193956914479
 20
2779.999999999999
 30
0.0
 11
9283.193956914479
 21
2453.952670699622
 31
0.0
  0
LINE
  5
22DA2
330
223F8
100
AcDbEntity
  8
寸法
 62
     0
 48
50.0
370
    -2
100
AcDbLine
 10
9483.193956914474
 20
2513.952670699622
 30
0.0
 11
9283.193956914479
 21
2513.952670699622
 31
0.0
  0
INSERT
  5
22DA3
330
223F8
100
AcDbEntity
  8
寸法
 62
     0
 48
50.0
370
    -2
100
AcDbBlockReference
  2
_DOTSMALL
 10
9483.193956914474
 20
2513.952670699622
 30
0.0
 41
100.0
 42
100.0
 43
100.0
  0
INSERT
  5
22DA4
330
223F8
100
AcDbEntity
  8
寸法
 62
     0
 48
50.0
370
    -2
100
AcDbBlockReference
  2
_DOTSMALL
 10
9283.193956914479
 20
2513.952670699622
 30
0.0
 41
100.0
 42
100.0
 43
100.0
 50
180.0
  0
MTEXT
  5
22DA5
330
223F8
100
AcDbEntity
  8
寸法
 62
     7
 48
50.0
100
AcDbMText
 10
9383.193956914476
 20
2613.964481723244
 30
0.0
 40
120.0
 41
0.0
 71
     5
 72
     1
  1
\A1;200
  7
STYLE1
 73
     1
 44
1.0
1001
ACAD
1000
MTEXTBEGIN
1070
    73
1070
     1
1070
    44
1040
1.0
1070
    74
1070
     0
1000
MTEXTEND
  0
POINT
  5
22DA6
330
223F8
100
AcDbEntity
  8
DEFPOINTS
 62
     0
 48
50.0
100
AcDbPoint
 10
9483.193956914474
 20
2799.999999999998
 30
0.0
  0
POINT
  5
22DA7
330
223F8
100
AcDbEntity
  8
DEFPOINTS
 62
     0
 48
50.0
100
AcDbPoint
 10
9283.193956914479
 20
2799.999999999999
 30
0.0
  0
POINT
  5
22DA8
330
223F8
100
AcDbEntity
  8
DEFPOINTS
 62
     0
 48
50.0
100
AcDbPoint
 10
9283.193956914479
 20
2513.952670699622
 30
0.0
  0
ENDBLK
  5
22403
330
223F8
100
AcDbEntity
  8
0
 48
50.0
100
AcDbBlockEnd
  0
BLOCK
  5
22ED7
330
22ECD
100
AcDbEntity
  8
0
 48
50.0
100
AcDbBlockBegin
  2
*D32
 70
     1
 10
0.0
 20
0.0
 30
0.0
  3
*D32
  1

  0
LINE
  5
22ED9
330
22ECD
100
AcDbEntity
  8
寸法
 62
     0
 48
50.0
370
    -2
100
AcDbLine
 10
7259.896575106991
 20
2780.000000000002
 30
0.0
 11
7259.896575106991
 21
2453.952670699624
 31
0.0
  0
LINE
  5
22EDA
330
22ECD
100
AcDbEntity
  8
寸法
 62
     0
 48
50.0
370
    -2
100
AcDbLine
 10
7059.896575106989
 20
2780.000000000002
 30
0.0
 11
7059.896575106989
 21
2453.952670699624
 31
0.0
  0
LINE
  5
22EDB
330
22ECD
100
AcDbEntity
  8
寸法
 62
     0
 48
50.0
370
    -2
100
AcDbLine
 10
7259.896575106991
 20
2513.952670699624
 30
0.0
 11
7059.896575106989
 21
2513.952670699624
 31
0.0
  0
INSERT
  5
22EDC
330
22ECD
100
AcDbEntity
  8
寸法
 62
     0
 48
50.0
370
    -2
100
AcDbBlockReference
  2
_DOTSMALL
 10
7259.896575106991
 20
2513.952670699624
 30
0.0
 41
100.0
 42
100.0
 43
100.0
  0
INSERT
  5
22EDD
330
22ECD
100
AcDbEntity
  8
寸法
 62
     0
 48
50.0
370
    -2
100
AcDbBlockReference
  2
_DOTSMALL
 10
7059.896575106989
 20
2513.952670699624
 30
0.0
 41
100.0
 42
100.0
 43
100.0
 50
180.0
  0
MTEXT
  5
22EDE
330
22ECD
100
AcDbEntity
  8
寸法
 62
     7
 48
50.0
100
AcDbMText
 10
7159.89657510699
 20
2613.964481723246
 30
0.0
 40
120.0
 41
0.0
 71
     5
 72
     1
  1
\A1;200
  7
STYLE1
 73
     1
 44
1.0
1001
ACAD
1000
MTEXTBEGIN
1070
    73
1070
     1
1070
    44
1040
1.0
1070
    74
1070
     0
1000
MTEXTEND
  0
POINT
  5
22EDF
330
22ECD
100
AcDbEntity
  8
DEFPOINTS
 62
     0
 48
50.0
100
AcDbPoint
 10
7259.896575106991
 20
2800.000000000002
 30
0.0
  0
POINT
  5
22EE0
330
22ECD
100
AcDbEntity
  8
DEFPOINTS
 62
     0
 48
50.0
100
AcDbPoint
 10
7059.896575106989
 20
2800.000000000002
 30
0.0
  0
POINT
  5
22EE1
330
22ECD
100
AcDbEntity
  8
DEFPOINTS
 62
     0
 48
50.0
100
AcDbPoint
 10
7059.896575106989
 20
2513.952670699624
 30
0.0
  0
ENDBLK
  5
22ED8
330
22ECD
100
AcDbEntity
  8
0
 48
50.0
100
AcDbBlockEnd
  0
ENDSEC
  0
SECTION
  2
ENTITIES
  0
LINE
  5
10B57
330
747D
100
AcDbEntity
  8
補助
  6
PHANTOM
 62
   230
 48
50.0
100
AcDbLine
 10
139.9999999999995
 20
11409.6
 30
0.0
 11
16307.2
 21
11409.6
 31
0.0
  0
LINE
  5
10B59
330
747D
100
AcDbEntity
  8
仕様書枠
  6
Continuous
 48
50.0
100
AcDbLine
 10
13107.2
 20
1200.0
 30
0.0
 11
13107.2
 21
-0.0000000000000729
 31
0.0
  0
LINE
  5
10B5C
330
747D
100
AcDbEntity
  8
仕様書枠
 48
50.0
100
AcDbLine
 10
16307.2
 20
1200.0
 30
0.0
 11
16307.2
 21
-0.0000000000000909
 31
0.0
  0
LINE
  5
10B5D
330
747D
100
AcDbEntity
  8
仕様書枠
 48
50.0
100
AcDbLine
 10
140.0
 20
0.0
 30
0.0
 11
16307.2
 21
-0.0000000000000909
 31
0.0
  0
LINE
  5
10B5E
330
747D
100
AcDbEntity
  8
補助
  6
PHANTOM
 62
   230
 48
50.0
100
AcDbLine
 10
16307.2
 20
11409.6
 30
0.0
 11
16307.2
 21
1200.0
 31
0.0
  0
LINE
  5
10B6C
330
747D
100
AcDbEntity
  8
仕様書枠
 48
50.0
100
AcDbLine
 10
13107.2
 20
1200.0
 30
0.0
 11
16307.2
 21
1200.0
 31
0.0
  0
LINE
  5
10B6D
330
747D
100
AcDbEntity
  8
補助
  6
PHANTOM
 62
   230
 48
50.0
100
AcDbLine
 10
13107.2
 20
11409.6
 30
0.0
 11
13107.2
 21
4800.0
 31
0.0
  0
LINE
  5
10B6F
330
747D
100
AcDbEntity
  8
補助
  6
PHANTOM
 62
   230
 48
50.0
100
AcDbLine
 10
13107.2
 20
4800.0
 30
0.0
 11
16307.2
 21
4800.0
 31
0.0
  0
LINE
  5
10B72
330
747D
100
AcDbEntity
  8
文字
 62
     7
 48
50.0
100
AcDbLine
 10
13187.2
 20
400.0
 30
0.0
 11
16227.2
 21
400.0
 31
0.0
  0
TEXT
  5
10B73
330
747D
100
AcDbEntity
  8
文字
 62
     7
 48
50.0
100
AcDbText
 10
13162.9790565769
 20
895.0906074299405
 30
0.0
 40
200.0
  1
外 形 図
  7
STYLE2
100
AcDbText
  0
TEXT
  5
10B74
330
747D
100
AcDbEntity
  8
文字
 62
     7
 48
50.0
100
AcDbText
 10
13201.43669998441
 20
477.2740661031255
 30
0.0
 40
160.0
  1
機種名
  7
STYLE2
100
AcDbText
  0
TEXT
  5
10B75
330
747D
100
AcDbEntity
  8
文字
 62
     7
 48
50.0
100
AcDbText
 10
13209.4053442172
 20
228.5435242569016
 30
0.0
 40
100.0
  1
○有効開口寸法 ： 824×1770(mm)
  7
STYLE2
100
AcDbText
  0
TEXT
  5
10B79
330
747D
100
AcDbEntity
  8
文字
 62
     7
 48
50.0
100
AcDbText
 10
14524.131837222
 20
1031.557706291228
 30
0.0
 40
100.0
  1
NO.08      <縮尺> S=1/40
  7
STYLE2
100
AcDbText
  0
LINE
  5
10B7B
330
747D
100
AcDbEntity
  8
仕様書枠
 48
50.0
100
AcDbLine
 10
13107.2
 20
800.0
 30
0.0
 11
14251.2
 21
800.0
 31
0.0
  0
LINE
  5
10B88
330
747D
100
AcDbEntity
  8
仕様書枠
  6
Continuous
 48
50.0
100
AcDbLine
 10
14251.2
 20
1200.0
 30
0.0
 11
14251.2
 21
800.0
 31
0.0
  0
LINE
  5
12765
330
747D
100
AcDbEntity
  8
Ｇ．Ｌ
100
AcDbLine
 10
4541.629972436509
 20
3000.0
 30
0.0
 11
12222.12352004013
 21
3000.0
 31
0.0
  0
TEXT
  5
127AA
330
747D
100
AcDbEntity
  8
部品1
100
AcDbText
 10
4599.545247166584
 20
3013.953728039225
 30
0.0
 40
125.0
  1
▽G.L
  7
STYLE2
100
AcDbText
  0
LINE
  5
13BE8
330
747D
100
AcDbEntity
  8
部品1
100
AcDbLine
 10
5629.896575106992
 20
3100.0
 30
0.0
 11
7159.89657510699
 21
3100.0
 31
0.0
  0
LINE
  5
13BE9
330
747D
100
AcDbEntity
  8
部品1
100
AcDbLine
 10
5629.896575106992
 20
4940.0
 30
0.0
 11
7159.89657510699
 21
4939.999999999999
 31
0.0
  0
LINE
  5
13BEF
330
747D
100
AcDbEntity
  8
部品1
100
AcDbLine
 10
5689.896575106992
 20
3149.000000000004
 30
0.0
 11
6258.196575106993
 21
3149.000000000009
 31
0.0
  0
DIMENSION
  5
13BF0
330
747D
100
AcDbEntity
  8
寸法
 48
50.0
100
AcDbDimension
  2
*D1
 10
7209.896575106991
 20
5587.664021579934
 30
0.0
 11
6398.236415372987
 21
5587.664021579934
 31
0.0
 70
   160
 71
     5
 42
1629.999999999998
  3
INABA_S40G
100
AcDbAlignedDimension
 13
5579.896575106992
 23
5175.000000000006
 33
0.0
 14
7209.896575106991
 24
5175.000000000005
 34
0.0
100
AcDbRotatedDimension
  0
LINE
  5
13C1F
330
747D
100
AcDbEntity
  8
部品1
100
AcDbLine
 10
5629.896575106993
 20
5034.000000000004
 30
0.0
 11
5629.896575106992
 21
3000.0
 31
0.0
  0
LINE
  5
13CFC
330
747D
100
AcDbEntity
  8
部品1
100
AcDbLine
 10
7099.896575106992
 20
4940.000000000002
 30
0.0
 11
7099.896575106992
 21
3142.000000000022
 31
0.0
  0
LINE
  5
13CFE
330
747D
100
AcDbEntity
  8
部品1
100
AcDbLine
 10
5689.896575106992
 20
4940.0
 30
0.0
 11
5689.896575106992
 21
3142.000000000004
 31
0.0
  0
LINE
  5
13D18
330
747D
100
AcDbEntity
  8
部品1
100
AcDbLine
 10
7159.896575106991
 20
5034.000000000006
 30
0.0
 11
7159.896575106991
 21
3000.000000000002
 31
0.0
  0
LINE
  5
13E0D
330
747D
100
AcDbEntity
  8
部品1
100
AcDbLine
 10
6029.896575106992
 20
3100.0
 30
0.0
 11
6029.896575106992
 21
3000.0
 31
0.0
  0
DIMENSION
  5
141C3
330
747D
100
AcDbEntity
  8
寸法
 48
50.0
100
AcDbDimension
  2
*D2
 10
7159.896575106992
 20
5379.620259427275
 30
0.0
 11
7523.381856481229
 21
5379.620259427275
 31
0.0
 70
   160
 71
     5
 42
49.99999999999909
  3
INABA_S40G
100
AcDbAlignedDimension
 13
7209.896575106991
 23
5175.000000000005
 33
0.0
 14
7159.896575106992
 24
5175.000000000007
 34
0.0
100
AcDbRotatedDimension
  0
DIMENSION
  5
14206
330
747D
100
AcDbEntity
  8
寸法
 48
50.0
100
AcDbDimension
  2
*D3
 10
5579.896575106992
 20
5379.620259427273
 30
0.0
 11
5266.411293732747
 21
5379.620259427273
 31
0.0
 70
   160
 71
     5
 42
49.99999999999909
  3
INABA_S40G
100
AcDbAlignedDimension
 13
5629.896575106992
 23
5175.000000000006
 33
0.0
 14
5579.896575106992
 24
5175.000000000006
 34
0.0
100
AcDbRotatedDimension
1001
ACAD
1000
DSTYLE
1002
{
1002
}
  0
LINE
  5
1427D
330
747D
100
AcDbEntity
  8
部品1
100
AcDbLine
 10
6258.196575106993
 20
3156.500000000009
 30
0.0
 11
7099.896575106992
 21
3156.500000000018
 31
0.0
  0
LINE
  5
14517
330
747D
100
AcDbEntity
  8
部品1
100
AcDbLine
 10
7164.896575106991
 20
3145.000000000003
 30
0.0
 11
7164.896575106991
 21
3000.000000000002
 31
0.0
  0
LINE
  5
1451B
330
747D
100
AcDbEntity
  8
破線
 48
5.0
100
AcDbLine
 10
7184.896575106991
 20
2845.000000000002
 30
0.0
 11
7164.89657510699
 21
2845.000000000002
 31
0.0
  0
LINE
  5
1451C
330
747D
100
AcDbEntity
  8
部品1
100
AcDbLine
 10
5624.896575106991
 20
3145.000000000002
 30
0.0
 11
5624.896575106993
 21
3000.0
 31
0.0
  0
LINE
  5
1451F
330
747D
100
AcDbEntity
  8
破線
 48
5.0
100
AcDbLine
 10
5604.896575106992
 20
2845.000000000001
 30
0.0
 11
5624.896575106994
 21
2845.000000000001
 31
0.0
  0
DIMENSION
  5
14521
330
747D
100
AcDbEntity
  8
寸法
100
AcDbDimension
  2
*D4
 10
5684.896575106997
 20
10375.13487548581
 30
0.0
 11
5321.41129373269
 21
10375.13487548581
 31
0.0
 70
   160
 71
     5
 42
55.00000000003456
  3
INABA_S40G
100
AcDbAlignedDimension
 13
5629.896575106963
 23
9951.158584484087
 33
0.0
 14
5684.896575106997
 24
9951.158584484087
 34
0.0
100
AcDbRotatedDimension
1001
ACAD
1000
DSTYLE
1002
{
1002
}
  0
LINE
  5
14522
330
747D
100
AcDbEntity
  8
部品1
100
AcDbLine
 10
5684.896575106963
 20
9951.158584484055
 30
0.0
 11
5684.896575106964
 21
9923.158584484054
 31
0.0
  0
LINE
  5
14523
330
747D
100
AcDbEntity
  8
部品1
100
AcDbLine
 10
5629.896575106922
 20
9951.158584484085
 30
0.0
 11
5629.89657510699
 21
7741.158584484037
 31
0.0
  0
LINE
  5
14524
330
747D
100
AcDbEntity
  8
部品1
100
AcDbLine
 10
7104.896575107017
 20
9951.158584484183
 30
0.0
 11
7104.896575107017
 21
9923.158584484182
 31
0.0
  0
LINE
  5
14525
330
747D
100
AcDbEntity
  8
部品1
100
AcDbLine
 10
7104.896575107017
 20
9951.158584484202
 30
0.0
 11
7104.896575107017
 21
9923.158584484202
 31
0.0
  0
DIMENSION
  5
14526
330
747D
100
AcDbEntity
  8
寸法
100
AcDbDimension
  2
*D5
 10
8090.346392871552
 20
7741.158584484167
 30
0.0
 11
8090.34639287155
 21
8846.158584484173
 31
0.0
 70
   160
 71
     5
 42
2210.000000000015
  3
INABA_S40G
100
AcDbAlignedDimension
 13
7159.896575107016
 23
9951.158584484183
 33
0.0
 14
7159.896575106991
 24
7741.158584484167
 34
0.0
 50
90.0
100
AcDbRotatedDimension
1001
ACAD
1000
DSTYLE
1002
{
1002
}
  0
LINE
  5
14527
330
747D
100
AcDbEntity
  8
部品1
100
AcDbLine
 10
7159.89657510704
 20
9951.158584484165
 30
0.0
 11
7159.896575106991
 21
7741.158584484151
 31
0.0
  0
LINE
  5
14528
330
747D
100
AcDbEntity
  8
部品1
100
AcDbLine
 10
6684.896575107015
 20
9951.158584484202
 30
0.0
 11
6684.896575107015
 21
9923.158584484202
 31
0.0
  0
LINE
  5
1452A
330
747D
100
AcDbEntity
  8
部品1
100
AcDbLine
 10
6104.896575106997
 20
9951.158584484202
 30
0.0
 11
6104.896575106997
 21
9923.158584484202
 31
0.0
  0
LINE
  5
1452B
330
747D
100
AcDbEntity
  8
部品1
100
AcDbLine
 10
6104.896575106997
 20
9951.158584484085
 30
0.0
 11
6104.896575106997
 21
9923.158584484085
 31
0.0
  0
LINE
  5
1452C
330
747D
100
AcDbEntity
  8
部品1
100
AcDbLine
 10
6104.896575106997
 20
9951.158584484087
 30
0.0
 11
6104.896575106997
 21
9923.158584484086
 31
0.0
  0
LINE
  5
1452D
330
747D
100
AcDbEntity
  8
部品1
100
AcDbLine
 10
5684.896575106997
 20
9951.158584484087
 30
0.0
 11
5684.896575106997
 21
9923.158584484086
 31
0.0
  0
DIMENSION
  5
1452E
330
747D
100
AcDbEntity
  8
寸法
100
AcDbDimension
  2
*D6
 10
7807.322920841428
 20
9896.158584484185
 30
0.0
 11
7807.322920841426
 21
10259.64386585842
 31
0.0
 70
   160
 71
     5
 42
54.99999999999636
  3
INABA_S40G
100
AcDbAlignedDimension
 13
7159.896575107016
 23
9951.158584484183
 33
0.0
 14
7159.896575107016
 24
9896.158584484185
 34
0.0
 50
90.0
100
AcDbRotatedDimension
1001
ACAD
1000
DSTYLE
1002
{
1002
}
  0
DIMENSION
  5
14530
330
747D
100
AcDbEntity
  8
寸法
100
AcDbDimension
  2
*D7
 10
7807.322920841402
 20
7741.158584484167
 30
0.0
 11
7807.3229208414
 21
7363.297117579306
 31
0.0
 70
   160
 71
     5
 42
54.99999999999636
  3
INABA_S40G
100
AcDbAlignedDimension
 13
7159.896575106991
 23
7796.158584484164
 33
0.0
 14
7159.896575106991
 24
7741.158584484167
 34
0.0
 50
90.0
100
AcDbRotatedDimension
1001
ACAD
1000
DSTYLE
1002
{
1002
}
  0
DIMENSION
  5
14531
330
747D
100
AcDbEntity
  8
寸法
100
AcDbDimension
  2
*D8
 10
7807.322920841428
 20
7796.158584484164
 30
0.0
 11
7807.322920841426
 21
8801.195903122417
 31
0.0
 70
   160
  1
5X420=<>
 71
     5
 42
2100.000000000022
  3
INABA_S40G
100
AcDbAlignedDimension
 13
7159.896575107016
 23
9896.158584484185
 33
0.0
 14
7159.896575106991
 24
7796.158584484164
 34
0.0
 50
90.0
100
AcDbRotatedDimension
1001
ACAD
1000
DSTYLE
1002
{
1002
}
  0
DIMENSION
  5
14532
330
747D
100
AcDbEntity
  8
寸法
100
AcDbDimension
  2
*D9
 10
7159.896575106991
 20
6946.380197916202
 30
0.0
 11
6414.367781762833
 21
6946.380197916202
 31
0.0
 70
   160
 71
     5
 42
1530.0
  3
INABA_S40G
100
AcDbAlignedDimension
 13
5629.89657510699
 23
7741.158584484003
 33
0.0
 14
7159.896575106991
 24
7741.158584484167
 34
0.0
100
AcDbRotatedDimension
1001
ACAD
1000
DSTYLE
1002
{
1002
}
  0
DIMENSION
  5
14533
330
747D
100
AcDbEntity
  8
寸法
100
AcDbDimension
  2
*D10
 10
5689.896575106991
 20
7181.599178715621
 30
0.0
 11
6102.196575106991
 21
7181.599178715621
 31
0.0
 70
   160
  1
有効開口部間口\P824
 71
     5
 42
824.6000000000003
  3
INABA_S40G
100
AcDbAlignedDimension
 13
6514.496575106992
 23
7741.158584484145
 33
0.0
 14
5689.896575106991
 24
7741.158584484036
 34
0.0
100
AcDbRotatedDimension
1001
ACAD
1000
DSTYLE
1002
{
1002
}
  0
LWPOLYLINE
  5
14534
330
747D
100
AcDbEntity
  8
部品1
100
AcDbPolyline
 90
        4
 70
     1
 43
0.0
 10
6013.161241992772
 20
6833.284877349234
 10
6013.161241992772
 20
6593.392555803702
 10
6776.631908221211
 20
6593.392555803702
 10
6776.631908221211
 20
6833.284877349234
  0
TEXT
  5
14535
330
747D
100
AcDbEntity
  8
部品1
100
AcDbText
 10
6103.08085182181
 20
6640.391348130711
 30
0.0
 40
135.0
  1
平面図
  7
STYLE2
100
AcDbText
  0
LINE
  5
14538
330
747D
100
AcDbEntity
  8
部品1
100
AcDbLine
 10
6676.896575107207
 20
7843.158584484131
 30
0.0
 11
5657.896575106971
 21
7843.158584484069
 31
0.0
  0
LINE
  5
1453A
330
747D
100
AcDbEntity
  8
細線
100
AcDbLine
 10
6685.496575106985
 20
7778.158584484167
 30
0.0
 11
6556.346575106963
 21
7778.158584484167
 31
0.0
  0
LINE
  5
1453B
330
747D
100
AcDbEntity
  8
細線
100
AcDbLine
 10
6670.49657510698
 20
7801.15858448417
 30
0.0
 11
6232.196575106981
 21
7801.158584484173
 31
0.0
  0
LINE
  5
1453C
330
747D
100
AcDbEntity
  8
細線
 48
50.0
100
AcDbLine
 10
7099.896575106992
 20
7757.158584484168
 30
0.0
 11
6258.196575106984
 21
7757.158584484166
 31
0.0
  0
LINE
  5
14543
330
747D
100
AcDbEntity
  8
部品1
100
AcDbLine
 10
5684.896575106997
 20
9923.158584484204
 30
0.0
 11
7131.896575107039
 21
9923.1585844842
 31
0.0
  0
LINE
  5
14544
330
747D
100
AcDbEntity
  8
部品1
100
AcDbLine
 10
7159.896575106991
 20
7741.158584484151
 30
0.0
 11
5629.89657510699
 21
7741.158584484072
 31
0.0
  0
LINE
  5
14546
330
747D
100
AcDbEntity
  8
部品1
100
AcDbLine
 10
5657.896575106973
 20
7796.158584484034
 30
0.0
 11
5657.896575107033
 21
9923.158584484092
 31
0.0
  0
LINE
  5
14547
330
747D
100
AcDbEntity
  8
細線
 48
50.0
100
AcDbLine
 10
6217.196575106979
 20
7791.15858448414
 30
0.0
 11
5689.896575106987
 21
7791.158584484051
 31
0.0
  0
LINE
  5
14548
330
747D
100
AcDbEntity
  8
細線
100
AcDbLine
 10
6258.196575106989
 20
7744.158584484084
 30
0.0
 11
6158.196575106982
 21
7744.15858448407
 31
0.0
  0
LINE
  5
14549
330
747D
100
AcDbEntity
  8
細線
100
AcDbLine
 10
6243.196575106986
 20
7767.158584484163
 30
0.0
 11
5704.896575106989
 21
7767.158584484083
 31
0.0
  0
LINE
  5
1454A
330
747D
100
AcDbEntity
  8
部品1
100
AcDbLine
 10
5680.896575106991
 20
7741.158584484037
 30
0.0
 11
5629.89657510699
 21
7741.158584484037
 31
0.0
  0
LINE
  5
1454B
330
747D
100
AcDbEntity
  8
部品1
100
AcDbLine
 10
5657.896575106973
 20
7796.158584484001
 30
0.0
 11
5629.89657510699
 21
7796.158584484001
 31
0.0
  0
LINE
  5
1454C
330
747D
100
AcDbEntity
  8
部品1
100
AcDbLine
 10
5657.896575106973
 20
7796.158584484036
 30
0.0
 11
5629.89657510699
 21
7796.158584484036
 31
0.0
  0
LINE
  5
1454D
330
747D
100
AcDbEntity
  8
部品1
100
AcDbLine
 10
5657.896575106989
 20
7796.15858448405
 30
0.0
 11
5629.89657510699
 21
7796.15858448405
 31
0.0
  0
LINE
  5
1454E
330
747D
100
AcDbEntity
  8
部品1
100
AcDbLine
 10
5629.89657510699
 20
7796.158584484001
 30
0.0
 11
5629.89657510699
 21
7741.158584484003
 31
0.0
  0
LINE
  5
1454F
330
747D
100
AcDbEntity
  8
部品1
100
AcDbLine
 10
5689.896575106987
 20
7796.158584483999
 30
0.0
 11
5661.896575106987
 21
7796.158584483999
 31
0.0
  0
LINE
  5
14550
330
747D
100
AcDbEntity
  8
部品1
100
AcDbLine
 10
5680.896575106991
 20
7741.158584484002
 30
0.0
 11
5680.896575106989
 21
7748.158584484038
 31
0.0
  0
LINE
  5
14551
330
747D
100
AcDbEntity
  8
部品1
100
AcDbLine
 10
5689.896575106989
 20
7748.158584484035
 30
0.0
 11
5680.896575106989
 21
7748.158584484038
 31
0.0
  0
LINE
  5
14552
330
747D
100
AcDbEntity
  8
部品1
100
AcDbLine
 10
5689.896575106989
 20
7748.158584484035
 30
0.0
 11
5689.896575106987
 21
7796.158584484001
 31
0.0
  0
LINE
  5
14553
330
747D
100
AcDbEntity
  8
細線
100
AcDbLine
 10
5704.896575106989
 20
7774.158584484083
 30
0.0
 11
5704.896575106989
 21
7767.158584484083
 31
0.0
  0
LINE
  5
14554
330
747D
100
AcDbEntity
  8
細線
100
AcDbLine
 10
5704.896575106989
 20
7774.158584484083
 30
0.0
 11
5689.896575106988
 21
7774.158584484083
 31
0.0
  0
LINE
  5
14559
330
747D
100
AcDbEntity
  8
細線
100
AcDbLine
 10
6237.196575106963
 20
7774.158584484069
 30
0.0
 11
6237.196575106966
 21
7778.158584484071
 31
0.0
  0
LINE
  5
1455A
330
747D
100
AcDbEntity
  8
細線
100
AcDbLine
 10
6237.196575106963
 20
7774.158584484069
 30
0.0
 11
6217.196575106974
 21
7774.158584484069
 31
0.0
  0
LINE
  5
1455B
330
747D
100
AcDbEntity
  8
細線
100
AcDbLine
 10
6217.196575106974
 20
7774.158584484069
 30
0.0
 11
6217.196575106984
 21
7808.158584484077
 31
0.0
  0
LINE
  5
1455C
330
747D
100
AcDbEntity
  8
細線
100
AcDbLine
 10
6258.196575106982
 20
7744.158584484084
 30
0.0
 11
6258.19657510699
 21
7774.158584484085
 31
0.0
  0
LINE
  5
1455D
330
747D
100
AcDbEntity
  8
部品1
100
AcDbLine
 10
5657.89657510702
 20
9923.158584484088
 30
0.0
 11
6104.896575106997
 21
9923.158584484092
 31
0.0
  0
LINE
  5
1455F
330
747D
100
AcDbEntity
  8
部品1
100
AcDbLine
 10
5657.896575106971
 20
9056.158584484041
 30
0.0
 11
5629.896575106972
 21
9056.158584484041
 31
0.0
  0
LINE
  5
14560
330
747D
100
AcDbEntity
  8
部品1
100
AcDbLine
 10
5657.896575106964
 20
9896.158584484057
 30
0.0
 11
5629.896575106965
 21
9896.158584484057
 31
0.0
  0
LINE
  5
14562
330
747D
100
AcDbEntity
  8
部品1
100
AcDbLine
 10
7131.896575107051
 20
9923.158584484198
 30
0.0
 11
7131.896575107017
 21
8648.658584484147
 31
0.0
  0
LINE
  5
14563
330
747D
100
AcDbEntity
  8
細線
100
AcDbLine
 10
7097.89657510699
 20
7814.158584484165
 30
0.0
 11
6993.696575106975
 21
7814.158584484168
 31
0.0
  0
LINE
  5
14564
330
747D
100
AcDbEntity
  8
細線
 48
50.0
100
AcDbLine
 10
7099.89657510699
 20
7791.158584484171
 30
0.0
 11
6685.496575106988
 21
7791.158584484172
 31
0.0
  0
LINE
  5
14565
330
747D
100
AcDbEntity
  8
細線
100
AcDbLine
 10
6676.896575107209
 20
7842.158584484164
 30
0.0
 11
6644.496575106986
 21
7842.158584484164
 31
0.0
  0
LINE
  5
14566
330
747D
100
AcDbEntity
  8
細線
100
AcDbLine
 10
6664.496575106986
 20
7806.158584484169
 30
0.0
 11
6664.496575106986
 21
7814.158584484168
 31
0.0
  0
LINE
  5
14567
330
747D
100
AcDbEntity
  8
細線
100
AcDbLine
 10
6664.496575106986
 20
7806.158584484169
 30
0.0
 11
6644.496575106986
 21
7806.158584484169
 31
0.0
  0
LINE
  5
14568
330
747D
100
AcDbEntity
  8
細線
100
AcDbLine
 10
6644.496575106986
 20
7806.158584484169
 30
0.0
 11
6644.496575106986
 21
7842.158584484164
 31
0.0
  0
LINE
  5
14569
330
747D
100
AcDbEntity
  8
細線
100
AcDbLine
 10
6685.496575106985
 20
7778.158584484168
 30
0.0
 11
6685.496575106992
 21
7808.158584484168
 31
0.0
  0
LINE
  5
1456A
330
747D
100
AcDbEntity
  8
部品1
100
AcDbLine
 10
7159.896575106991
 20
7741.158584484167
 30
0.0
 11
7108.896575106991
 21
7741.158584484167
 31
0.0
  0
LINE
  5
1456B
330
747D
100
AcDbEntity
  8
部品1
100
AcDbLine
 10
7159.896575106992
 20
7796.158584484164
 30
0.0
 11
7159.896575106991
 21
7741.158584484167
 31
0.0
  0
LINE
  5
1456C
330
747D
100
AcDbEntity
  8
部品1
100
AcDbLine
 10
7131.896575106992
 20
7796.158584484164
 30
0.0
 11
7159.896575106991
 21
7796.158584484164
 31
0.0
  0
LINE
  5
1456E
330
747D
100
AcDbEntity
  8
部品1
100
AcDbLine
 10
7099.896575106992
 20
7796.158584484164
 30
0.0
 11
7131.896575106992
 21
7796.158584484164
 31
0.0
  0
LINE
  5
1456F
330
747D
100
AcDbEntity
  8
細線
100
AcDbLine
 10
7097.89657510699
 20
7796.158584484164
 30
0.0
 11
7097.89657510699
 21
7814.158584484163
 31
0.0
  0
LINE
  5
14570
330
747D
100
AcDbEntity
  8
部品1
100
AcDbLine
 10
7108.896575106991
 20
7741.158584484165
 30
0.0
 11
7108.896575106991
 21
7748.158584484166
 31
0.0
  0
LINE
  5
14571
330
747D
100
AcDbEntity
  8
部品1
100
AcDbLine
 10
7108.896575106991
 20
7748.158584484166
 30
0.0
 11
7099.896575106992
 21
7748.158584484166
 31
0.0
  0
LINE
  5
14572
330
747D
100
AcDbEntity
  8
部品1
100
AcDbLine
 10
7099.896575106992
 20
7748.158584484166
 30
0.0
 11
7099.896575106992
 21
7796.158584484164
 31
0.0
  0
LINE
  5
14573
330
747D
100
AcDbEntity
  8
部品1
100
AcDbLine
 10
7131.896575107024
 20
7796.158584484179
 30
0.0
 11
7159.896575107024
 21
7796.158584484179
 31
0.0
  0
LINE
  5
14585
330
747D
100
AcDbEntity
  8
部品1
100
AcDbLine
 10
7131.896575107017
 20
9056.158584484171
 30
0.0
 11
7159.896575107016
 21
9056.158584484171
 31
0.0
  0
LINE
  5
14586
330
747D
100
AcDbEntity
  8
部品1
100
AcDbLine
 10
7131.896575107017
 20
9896.158584484185
 30
0.0
 11
7159.896575107016
 21
9896.158584484185
 31
0.0
  0
DIMENSION
  5
14587
330
747D
100
AcDbEntity
  8
寸法
100
AcDbDimension
  2
*D11
 10
7159.896575107016
 20
10375.13487548581
 30
0.0
 11
7468.381856481254
 21
10375.13487548581
 31
0.0
 70
   160
 71
     5
 42
55.0
  3
INABA_S40G
100
AcDbAlignedDimension
 13
7104.896575107017
 23
9951.158584484183
 33
0.0
 14
7159.896575107016
 24
9951.158584484183
 34
0.0
100
AcDbRotatedDimension
1001
ACAD
1000
DSTYLE
1002
{
1002
}
  0
LINE
  5
14588
330
747D
100
AcDbEntity
  8
部品1
100
AcDbLine
 10
5629.896575106997
 20
9951.158584484087
 30
0.0
 11
7159.896575107014
 21
9951.158584484167
 31
0.0
  0
LINE
  5
146B2
330
747D
100
AcDbEntity
  8
破線
 48
5.0
100
AcDbLine
 10
7164.896575106991
 20
3000.000000000002
 30
0.0
 11
7164.896575106991
 21
2845.000000000002
 31
0.0
  0
LINE
  5
146B3
330
747D
100
AcDbEntity
  8
破線
 48
5.0
100
AcDbLine
 10
5624.896575106993
 20
3000.0
 30
0.0
 11
5624.896575106991
 21
2845.000000000001
 31
0.0
  0
DIMENSION
  5
146E8
330
747D
100
AcDbEntity
  8
寸法
 48
50.0
100
AcDbDimension
  2
*D12
 10
5629.896575106992
 20
5379.620259427273
 30
0.0
 11
6408.150518267866
 21
5379.620259427273
 31
0.0
 70
   160
  1
柱外寸法<>
 71
     5
 42
1530.0
  3
INABA_S40G
100
AcDbAlignedDimension
 13
7159.896575106992
 23
5175.000000000004
 33
0.0
 14
5629.896575106992
 24
5175.000000000006
 34
0.0
100
AcDbRotatedDimension
  0
LINE
  5
1483A
330
747D
100
AcDbEntity
  8
寸法
 48
50.0
100
AcDbLine
 10
6205.272159755243
 20
7671.486182097618
 30
0.0
 11
6424.424099930968
 21
7671.486182097618
 31
0.0
  0
LINE
  5
1483B
330
747D
100
AcDbEntity
  8
寸法
 48
50.0
100
AcDbLine
 10
6424.424099930968
 20
7671.486182097618
 30
0.0
 11
6335.139881335547
 21
7695.409816367105
 31
0.0
  0
LINE
  5
1483C
330
747D
100
AcDbEntity
  8
寸法
 48
50.0
100
AcDbLine
 10
6335.139881335547
 20
7695.409816367105
 30
0.0
 11
6335.139881335547
 21
7641.746181785315
 31
0.0
  0
LINE
  5
1483D
330
747D
100
AcDbEntity
  8
寸法
 48
50.0
100
AcDbLine
 10
5955.252704552265
 20
7638.264225612282
 30
0.0
 11
6006.658712462368
 21
7638.264225612282
 31
0.0
  0
LINE
  5
1483E
330
747D
100
AcDbEntity
  8
寸法
 48
50.0
100
AcDbLine
 10
6006.658712462368
 20
7638.264225612282
 30
0.0
 11
6006.658712462368
 21
7669.574384264447
 31
0.0
  0
LINE
  5
1483F
330
747D
100
AcDbEntity
  8
寸法
 48
50.0
100
AcDbLine
 10
6006.658712462368
 20
7669.574384264447
 30
0.0
 11
6036.420044453792
 21
7669.574384264447
 31
0.0
  0
LINE
  5
14840
330
747D
100
AcDbEntity
  8
寸法
 48
50.0
100
AcDbLine
 10
6036.420044453792
 20
7669.574384264447
 30
0.0
 11
5980.955708507317
 21
7707.15383519306
 31
0.0
  0
LINE
  5
14841
330
747D
100
AcDbEntity
  8
寸法
 48
50.0
100
AcDbLine
 10
5925.491372560841
 20
7669.574384264447
 30
0.0
 11
5980.955708507316
 21
7707.15383519306
 31
0.0
  0
LINE
  5
14842
330
747D
100
AcDbEntity
  8
寸法
 48
50.0
100
AcDbLine
 10
5955.252704552265
 20
7669.574384264447
 30
0.0
 11
5925.491372560841
 21
7669.574384264447
 31
0.0
  0
LINE
  5
14843
330
747D
100
AcDbEntity
  8
寸法
 48
50.0
100
AcDbLine
 10
5955.252704552265
 20
7638.264225612282
 30
0.0
 11
5955.252704552265
 21
7669.574384264447
 31
0.0
  0
LINE
  5
14844
330
747D
100
AcDbEntity
  8
寸法
 48
50.0
100
AcDbLine
 10
6006.658712462368
 20
7638.264225612282
 30
0.0
 11
5955.252704552265
 21
7638.264225612282
 31
0.0
  0
TEXT
  5
149A1
330
747D
100
AcDbEntity
  8
部品1
100
AcDbText
 10
6103.686645730728
 20
1927.790927806517
 30
0.0
 40
135.0
  1
正面図
  7
STYLE2
100
AcDbText
  0
LWPOLYLINE
  5
149A2
330
747D
100
AcDbEntity
  8
部品1
100
AcDbPolyline
 90
        4
 70
     1
 43
0.0
 10
6013.161241992772
 20
2120.684457025041
 10
6013.161241992772
 20
1880.792135479508
 10
6776.631908221211
 20
1880.792135479508
 10
6776.631908221211
 20
2120.684457025041
  0
LINE
  5
149E3
330
747D
100
AcDbEntity
  8
部品1
100
AcDbLine
 10
5629.896575106992
 20
3142.000000000004
 30
0.0
 11
7159.89657510699
 21
3142.000000000017
 31
0.0
  0
LINE
  5
14A30
330
747D
100
AcDbEntity
  8
細線
100
AcDbLine
 10
6258.196575106989
 20
7774.158584484084
 30
0.0
 11
6243.196575106987
 21
7774.15858448408
 31
0.0
  0
LINE
  5
14A31
330
747D
100
AcDbEntity
  8
細線
100
AcDbLine
 10
6243.196575106986
 20
7767.158584484163
 30
0.0
 11
6243.196575106987
 21
7774.15858448408
 31
0.0
  0
LINE
  5
14A32
330
747D
100
AcDbEntity
  8
細線
100
AcDbLine
 10
6685.496575106985
 20
7808.158584484168
 30
0.0
 11
6670.496575106982
 21
7808.158584484165
 31
0.0
  0
LINE
  5
14A33
330
747D
100
AcDbEntity
  8
細線
100
AcDbLine
 10
6670.49657510698
 20
7801.158584484166
 30
0.0
 11
6670.496575106982
 21
7808.158584484165
 31
0.0
  0
LINE
  5
14A54
330
747D
100
AcDbEntity
  8
細線
100
AcDbLine
 10
6243.196575106965
 20
7778.158584484076
 30
0.0
 11
6237.196575106966
 21
7778.158584484076
 31
0.0
  0
LINE
  5
14A58
330
747D
100
AcDbEntity
  8
細線
100
AcDbLine
 10
6670.496575106986
 20
7814.158584484168
 30
0.0
 11
6664.496575106986
 21
7814.158584484168
 31
0.0
  0
LINE
  5
14AA3
330
747D
100
AcDbEntity
  8
細線
 48
50.0
100
AcDbLine
 10
7097.89657510699
 20
7796.158584484164
 30
0.0
 11
7099.896575106992
 21
7796.158584484164
 31
0.0
  0
LINE
  5
14AE0
330
747D
100
AcDbEntity
  8
細線
100
AcDbLine
 10
6481.346575107008
 20
7778.158584484192
 30
0.0
 11
6473.846575107014
 21
7801.15858448412
 31
0.0
  0
LINE
  5
14AE1
330
747D
100
AcDbEntity
  8
細線
100
AcDbLine
 10
6421.346575107008
 20
7778.158584484202
 30
0.0
 11
6428.846575107015
 21
7801.15858448412
 31
0.0
  0
LINE
  5
14AE2
330
747D
100
AcDbEntity
  8
細線
100
AcDbLine
 10
6023.196575106915
 20
7744.158584484174
 30
0.0
 11
6030.696575106921
 21
7767.158584484092
 31
0.0
  0
LINE
  5
14AE3
330
747D
100
AcDbEntity
  8
細線
100
AcDbLine
 10
6083.196575106915
 20
7744.158584484162
 30
0.0
 11
6075.69657510692
 21
7767.158584484092
 31
0.0
  0
LINE
  5
14C0C
330
747D
100
AcDbEntity
  8
部品1
100
AcDbLine
 10
6676.8965751072
 20
7871.658584484129
 30
0.0
 11
5686.396575106892
 21
7871.658584484073
 31
0.0
  0
LINE
  5
14C0E
330
747D
100
AcDbEntity
  8
破線
 48
10.0
100
AcDbLine
 10
6676.896575107193
 20
7895.158584484128
 30
0.0
 11
5709.896575106984
 21
7895.158584484072
 31
0.0
  0
LINE
  5
14C31
330
747D
100
AcDbEntity
  8
部品1
100
AcDbLine
 10
5686.396575106913
 20
9894.658584484197
 30
0.0
 11
5686.396575106988
 21
7871.658584484167
 31
0.0
  0
LINE
  5
14C32
330
747D
100
AcDbEntity
  8
破線
 48
10.0
100
AcDbLine
 10
5709.896575106908
 20
9871.158584484199
 30
0.0
 11
5709.896575106933
 21
9241.158584484171
 31
0.0
  0
LINE
  5
14C33
330
747D
100
AcDbEntity
  8
部品1
 48
50.0
100
AcDbLine
 10
5686.396575106988
 20
7871.658584484169
 30
0.0
 11
5657.896575106989
 21
7843.158584484171
 31
0.0
  0
LINE
  5
14C5B
330
747D
100
AcDbEntity
  8
細線
100
AcDbLine
 10
5689.896575106989
 20
7748.158584484035
 30
0.0
 11
5689.896575106989
 21
7744.158584484084
 31
0.0
  0
LINE
  5
14D86
330
747D
100
AcDbEntity
  8
細線
100
AcDbLine
 10
5689.896575106992
 20
4932.000000000003
 30
0.0
 11
7099.896575106992
 21
4932.000000000003
 31
0.0
  0
TEXT
  5
14DEF
330
747D
100
AcDbEntity
  8
文字
 62
     7
 48
50.0
100
AcDbText
 10
14641.2525855784
 20
871.1744590657925
 30
0.0
 40
100.0
  1
～一般型・多雪地型～
  7
STYLE2
100
AcDbText
  0
TEXT
  5
15A76
330
747D
100
AcDbEntity
  8
文字
 62
     7
 48
50.0
100
AcDbText
 10
14497.44379311849
 20
483.8967129911411
 30
0.0
 40
160.0
  1
ＮＸＮ－３３CＳ
  7
STYLE2
100
AcDbText
  0
LINE
  5
1B03B
330
747D
100
AcDbEntity
  8
部品1
100
AcDbLine
 10
6258.196575106993
 20
4932.000000000002
 30
0.0
 11
6258.196575106993
 21
3149.000000000009
 31
0.0
  0
LINE
  5
1B557
330
747D
100
AcDbEntity
  8
細線
100
AcDbLine
 10
6158.196575106992
 20
4932.000000000002
 30
0.0
 11
6158.196575106991
 21
3149.000000000008
 31
0.0
  0
LINE
  5
1B558
330
747D
100
AcDbEntity
  8
細線
100
AcDbLine
 10
6088.196575106992
 20
4932.000000000002
 30
0.0
 11
6088.196575106991
 21
3149.000000000008
 31
0.0
  0
LINE
  5
1B559
330
747D
100
AcDbEntity
  8
細線
100
AcDbLine
 10
6018.196575106992
 20
4932.000000000002
 30
0.0
 11
6018.196575106991
 21
3149.000000000007
 31
0.0
  0
LINE
  5
1B55A
330
747D
100
AcDbEntity
  8
細線
100
AcDbLine
 10
5948.196575106992
 20
4932.000000000002
 30
0.0
 11
5948.196575106991
 21
3149.000000000006
 31
0.0
  0
LINE
  5
1B55D
330
747D
100
AcDbEntity
  8
部品1
100
AcDbLine
 10
5850.896575106991
 20
4932.000000000003
 30
0.0
 11
5850.896575106993
 21
3149.000000000006
 31
0.0
  0
LINE
  5
1B55E
330
747D
100
AcDbEntity
  8
部品1
100
AcDbLine
 10
5800.896575106991
 20
4932.000000000003
 30
0.0
 11
5800.896575106992
 21
3149.000000000005
 31
0.0
  0
LINE
  5
1B560
330
747D
100
AcDbEntity
  8
細線
100
AcDbLine
 10
5842.896575106991
 20
4932.000000000003
 30
0.0
 11
5842.896575106993
 21
3149.000000000006
 31
0.0
  0
LINE
  5
1B561
330
747D
100
AcDbEntity
  8
細線
100
AcDbLine
 10
5808.896575106991
 20
4932.000000000003
 30
0.0
 11
5808.896575106992
 21
3149.000000000005
 31
0.0
  0
LINE
  5
1B9FE
330
747D
100
AcDbEntity
  8
部品1
 48
50.0
100
AcDbLine
 10
5724.896575106992
 20
4105.500000000011
 30
0.0
 11
5777.896575106992
 21
4105.500000000012
 31
0.0
  0
ARC
  5
1BAB8
330
747D
100
AcDbEntity
  8
部品1
 48
0.01
100
AcDbCircle
 10
6696.896575106991
 20
4972.500000000001
 30
0.0
 40
2.0
100
AcDbArc
 50
180.0
 51
270.0
  0
ARC
  5
1BAB9
330
747D
100
AcDbEntity
  8
部品1
 48
0.01
100
AcDbCircle
 10
6696.896575106991
 20
5004.000000000001
 30
0.0
 40
2.0
100
AcDbArc
 50
90.0
 51
180.0
  0
ARC
  5
1BABA
330
747D
100
AcDbEntity
  8
部品1
 48
0.01
100
AcDbCircle
 10
6872.896575106991
 20
4972.500000000001
 30
0.0
 40
2.0
100
AcDbArc
 50
270.0
 51
0.0
  0
ARC
  5
1BABB
330
747D
100
AcDbEntity
  8
部品1
 48
0.01
100
AcDbCircle
 10
6872.896575106991
 20
5004.000000000001
 30
0.0
 40
2.0
100
AcDbArc
 50
0.0
 51
90.0
  0
LINE
  5
1BABC
330
747D
100
AcDbEntity
  8
細線
100
AcDbLine
 10
6784.896575106992
 20
4976.500000000001
 30
0.0
 11
6710.896575106992
 21
4976.500000000001
 31
0.0
  0
LINE
  5
1BABD
330
747D
100
AcDbEntity
  8
細線
100
AcDbLine
 10
6784.896575106991
 20
4999.500000000001
 30
0.0
 11
6858.896575106991
 21
4999.500000000001
 31
0.0
  0
LINE
  5
1BABE
330
747D
100
AcDbEntity
  8
細線
100
AcDbLine
 10
6858.896575106991
 20
4976.500000000001
 30
0.0
 11
6784.896575106991
 21
4976.500000000001
 31
0.0
  0
LINE
  5
1BABF
330
747D
100
AcDbEntity
  8
細線
100
AcDbLine
 10
6710.896575106992
 20
4999.500000000001
 30
0.0
 11
6784.896575106991
 21
4999.500000000001
 31
0.0
  0
LINE
  5
1BAC0
330
747D
100
AcDbEntity
  8
細線
100
AcDbLine
 10
6710.896575106992
 20
4976.500000000001
 30
0.0
 11
6710.896575106992
 21
4999.500000000001
 31
0.0
  0
LINE
  5
1BAC1
330
747D
100
AcDbEntity
  8
細線
100
AcDbLine
 10
6858.896575106991
 20
4999.500000000001
 30
0.0
 11
6858.896575106991
 21
4976.500000000001
 31
0.0
  0
LINE
  5
1BAC2
330
747D
100
AcDbEntity
  8
部品1
 48
0.01
100
AcDbLine
 10
6694.896575106992
 20
4972.500000000001
 30
0.0
 11
6694.896575106991
 21
5004.000000000001
 31
0.0
  0
LINE
  5
1BAC3
330
747D
100
AcDbEntity
  8
部品1
 48
0.01
100
AcDbLine
 10
6872.896575106991
 20
4970.500000000001
 30
0.0
 11
6696.896575106991
 21
4970.500000000001
 31
0.0
  0
LINE
  5
1BAC4
330
747D
100
AcDbEntity
  8
部品1
 48
0.01
100
AcDbLine
 10
6874.896575106991
 20
5004.000000000001
 30
0.0
 11
6874.896575106991
 21
4972.500000000001
 31
0.0
  0
LINE
  5
1BAC5
330
747D
100
AcDbEntity
  8
部品1
 48
0.01
100
AcDbLine
 10
6696.896575106991
 20
5006.000000000001
 30
0.0
 11
6872.896575106991
 21
5006.000000000001
 31
0.0
  0
LINE
  5
1BAD3
330
747D
100
AcDbEntity
  8
細線
100
AcDbLine
 10
6858.896575106991
 20
4993.5
 30
0.0
 11
6784.896575106991
 21
4993.5
 31
0.0
  0
LINE
  5
1BAD4
330
747D
100
AcDbEntity
  8
細線
100
AcDbLine
 10
6858.896575106991
 20
4987.5
 30
0.0
 11
6784.896575106991
 21
4987.5
 31
0.0
  0
LINE
  5
1BAD5
330
747D
100
AcDbEntity
  8
細線
100
AcDbLine
 10
6858.896575106992
 20
4981.500000000001
 30
0.0
 11
6784.896575106991
 21
4981.500000000001
 31
0.0
  0
LINE
  5
1BAD7
330
747D
100
AcDbEntity
  8
細線
100
AcDbLine
 10
6858.896575106991
 20
4993.5
 30
0.0
 11
6789.896575106991
 21
4993.5
 31
0.0
  0
LINE
  5
1BAE0
330
747D
100
AcDbEntity
  8
細線
100
AcDbLine
 10
6710.896575106992
 20
4993.5
 30
0.0
 11
6784.896575106991
 21
4993.5
 31
0.0
  0
LINE
  5
1BAE4
330
747D
100
AcDbEntity
  8
細線
100
AcDbLine
 10
6710.896575106992
 20
4981.5
 30
0.0
 11
6784.896575106991
 21
4981.500000000001
 31
0.0
  0
LINE
  5
1BAE5
330
747D
100
AcDbEntity
  8
細線
100
AcDbLine
 10
6710.896575106992
 20
4987.5
 30
0.0
 11
6784.896575106991
 21
4987.5
 31
0.0
  0
LINE
  5
1BDC6
330
747D
100
AcDbEntity
  8
細線
100
AcDbLine
 10
6784.896575106991
 20
4999.500000000001
 30
0.0
 11
6784.896575106992
 21
4976.500000000001
 31
0.0
  0
LINE
  5
1BDD2
330
747D
100
AcDbEntity
  8
細線
100
AcDbLine
 10
6004.896575106992
 20
4999.500000000001
 30
0.0
 11
6004.89657510699
 21
4976.5
 31
0.0
  0
LINE
  5
1BDD3
330
747D
100
AcDbEntity
  8
細線
100
AcDbLine
 10
6078.896575106991
 20
4987.5
 30
0.0
 11
6004.896575106992
 21
4987.5
 31
0.0
  0
LINE
  5
1BDD4
330
747D
100
AcDbEntity
  8
細線
100
AcDbLine
 10
6078.896575106991
 20
4981.499999999999
 30
0.0
 11
6004.896575106992
 21
4981.5
 31
0.0
  0
LINE
  5
1BDD5
330
747D
100
AcDbEntity
  8
細線
100
AcDbLine
 10
6078.896575106991
 20
4993.5
 30
0.0
 11
6004.896575106992
 21
4993.5
 31
0.0
  0
LINE
  5
1BDD6
330
747D
100
AcDbEntity
  8
細線
100
AcDbLine
 10
5930.896575106991
 20
4993.5
 30
0.0
 11
5999.896575106991
 21
4993.5
 31
0.0
  0
LINE
  5
1BDD7
330
747D
100
AcDbEntity
  8
細線
100
AcDbLine
 10
5930.896575106991
 20
4981.5
 30
0.0
 11
6004.896575106992
 21
4981.5
 31
0.0
  0
LINE
  5
1BDD8
330
747D
100
AcDbEntity
  8
細線
100
AcDbLine
 10
5930.896575106991
 20
4987.5
 30
0.0
 11
6004.896575106992
 21
4987.5
 31
0.0
  0
LINE
  5
1BDD9
330
747D
100
AcDbEntity
  8
細線
100
AcDbLine
 10
5930.896575106991
 20
4993.5
 30
0.0
 11
6004.896575106992
 21
4993.5
 31
0.0
  0
LINE
  5
1BDDA
330
747D
100
AcDbEntity
  8
部品1
 48
0.01
100
AcDbLine
 10
6092.896575106991
 20
5006.0
 30
0.0
 11
5916.896575106992
 21
5006.0
 31
0.0
  0
LINE
  5
1BDDB
330
747D
100
AcDbEntity
  8
部品1
 48
0.01
100
AcDbLine
 10
5914.896575106991
 20
5004.0
 30
0.0
 11
5914.896575106991
 21
4972.5
 31
0.0
  0
LINE
  5
1BDDC
330
747D
100
AcDbEntity
  8
部品1
 48
0.01
100
AcDbLine
 10
5916.896575106992
 20
4970.5
 30
0.0
 11
6092.896575106991
 21
4970.5
 31
0.0
  0
LINE
  5
1BDDD
330
747D
100
AcDbEntity
  8
部品1
 48
0.01
100
AcDbLine
 10
6094.896575106991
 20
4972.5
 30
0.0
 11
6094.896575106992
 21
5004.0
 31
0.0
  0
LINE
  5
1BDDE
330
747D
100
AcDbEntity
  8
細線
100
AcDbLine
 10
5930.896575106991
 20
4999.500000000001
 30
0.0
 11
5930.896575106991
 21
4976.5
 31
0.0
  0
LINE
  5
1BDDF
330
747D
100
AcDbEntity
  8
細線
100
AcDbLine
 10
6078.896575106991
 20
4976.5
 30
0.0
 11
6078.896575106991
 21
4999.500000000001
 31
0.0
  0
LINE
  5
1BDE0
330
747D
100
AcDbEntity
  8
細線
100
AcDbLine
 10
6078.896575106991
 20
4999.500000000001
 30
0.0
 11
6004.896575106992
 21
4999.500000000001
 31
0.0
  0
LINE
  5
1BDE1
330
747D
100
AcDbEntity
  8
細線
100
AcDbLine
 10
5930.896575106991
 20
4976.5
 30
0.0
 11
6004.896575106992
 21
4976.5
 31
0.0
  0
LINE
  5
1BDE2
330
747D
100
AcDbEntity
  8
細線
100
AcDbLine
 10
6004.896575106992
 20
4999.500000000001
 30
0.0
 11
5930.896575106991
 21
4999.500000000001
 31
0.0
  0
LINE
  5
1BDE3
330
747D
100
AcDbEntity
  8
細線
100
AcDbLine
 10
6004.89657510699
 20
4976.5
 30
0.0
 11
6078.896575106991
 21
4976.5
 31
0.0
  0
ARC
  5
1BDE4
330
747D
100
AcDbEntity
  8
部品1
 48
0.01
100
AcDbCircle
 10
5916.896575106992
 20
5004.0
 30
0.0
 40
2.0
100
AcDbArc
 50
90.0
 51
180.0
  0
ARC
  5
1BDE5
330
747D
100
AcDbEntity
  8
部品1
 48
0.01
100
AcDbCircle
 10
5916.896575106992
 20
4972.5
 30
0.0
 40
2.0
100
AcDbArc
 50
180.0
 51
270.0
  0
ARC
  5
1BDE6
330
747D
100
AcDbEntity
  8
部品1
 48
0.01
100
AcDbCircle
 10
6092.896575106991
 20
5004.0
 30
0.0
 40
2.0
100
AcDbArc
 50
0.000000000000007
 51
90.0
  0
ARC
  5
1BDE7
330
747D
100
AcDbEntity
  8
部品1
 48
0.01
100
AcDbCircle
 10
6092.896575106991
 20
4972.5
 30
0.0
 40
2.0
100
AcDbArc
 50
270.0
 51
0.000000000000007
  0
LINE
  5
1BDE8
330
747D
100
AcDbEntity
  8
部品1
 48
50.0
100
AcDbLine
 10
7202.488154000559
 20
5175.000000000006
 30
0.0
 11
5587.304996213424
 21
5175.000000000006
 31
0.0
  0
LINE
  5
1BDE9
330
747D
100
AcDbEntity
  8
部品1
 48
50.0
100
AcDbLine
 10
7189.272830539526
 20
5034.000000000007
 30
0.0
 11
5600.520319674457
 21
5034.000000000005
 31
0.0
  0
LINE
  5
1BDEA
330
747D
100
AcDbEntity
  8
細線
 48
50.0
100
AcDbLine
 10
7207.857036885541
 20
5147.000000000002
 30
0.0
 11
5581.936113328431
 21
5147.000000000003
 31
0.0
  0
LINE
  5
1BDEB
330
747D
100
AcDbEntity
  8
細線
 48
50.0
100
AcDbLine
 10
7199.501893570232
 20
5054.773242563472
 30
0.0
 11
5590.17214385326
 21
5054.800000000006
 31
0.0
  0
LINE
  5
1BDEC
330
747D
100
AcDbEntity
  8
部品1
100
AcDbLine
 10
7209.476914091658
 20
5167.603474604766
 30
0.0
 11
7208.343516759312
 21
5147.627346622168
 31
0.0
  0
LINE
  5
1BDEE
330
747D
100
AcDbEntity
  8
細線
 48
50.0
100
AcDbLine
 10
7176.896575106991
 20
5175.000000000006
 30
0.0
 11
7176.896575106991
 21
5034.000000000006
 31
0.0
  0
LINE
  5
1BDEF
330
747D
100
AcDbEntity
  8
細線
 48
50.0
100
AcDbLine
 10
5612.896575106993
 20
5175.000000000005
 30
0.0
 11
5612.896575106993
 21
5034.000000000005
 31
0.0
  0
LINE
  5
1BE41
330
747D
100
AcDbEntity
  8
部品1
100
AcDbLine
 10
7196.906496437735
 20
5051.969939455108
 30
0.0
 11
7196.261590630625
 21
5040.603474604768
 31
0.0
  0
LINE
  5
1BE42
330
747D
100
AcDbEntity
  8
部品1
100
AcDbLine
 10
7205.142526962581
 20
5144.16993945511
 30
0.0
 11
7200.107486234469
 21
5055.427346622166
 31
0.0
  0
ARC
  5
1BE44
330
747D
100
AcDbEntity
  8
部品1
 48
50.0
100
AcDbCircle
 10
7208.137709858765
 20
5144.000000000008
 30
0.0
 40
3.0
100
AcDbArc
 50
97.65812720738011
 51
176.7526572096774
  0
ARC
  5
1BE45
330
747D
100
AcDbEntity
  8
部品1
 48
50.0
100
AcDbCircle
 10
7199.901679333922
 20
5051.800000000005
 30
0.0
 40
3.0
100
AcDbArc
 50
97.6581272073629
 51
176.7526572096767
  0
ARC
  5
1BE46
330
747D
100
AcDbEntity
  8
部品1
 48
50.0
100
AcDbCircle
 10
7199.408610225361
 20
5055.466999161689
 30
0.0
 40
0.7
100
AcDbArc
 50
277.6581272073433
 51
356.7526572097019
  0
ARC
  5
1BE47
330
747D
100
AcDbEntity
  8
部品1
 48
50.0
100
AcDbCircle
 10
7207.644640750203
 20
5147.666999161692
 30
0.0
 40
0.7
100
AcDbArc
 50
277.6581272073433
 51
356.7526572096275
  0
ARC
  5
1BE48
330
747D
100
AcDbEntity
  8
部品1
100
AcDbCircle
 10
7189.272830539526
 20
5041.000000000007
 30
0.0
 40
7.0
100
AcDbArc
 50
270.0
 51
356.7526572096773
  0
ARC
  5
1BE49
330
747D
100
AcDbEntity
  8
部品1
100
AcDbCircle
 10
7202.488154000559
 20
5168.000000000006
 30
0.0
 40
7.0
100
AcDbArc
 50
356.752657209676
 51
89.99999999999998
  0
ARC
  5
1BE4A
330
747D
100
AcDbEntity
  8
部品1
100
AcDbCircle
 10
5587.304996213424
 20
5168.000000000005
 30
0.0
 40
7.0
100
AcDbArc
 50
90.00000000000003
 51
183.247342790324
  0
ARC
  5
1BE4B
330
747D
100
AcDbEntity
  8
部品1
100
AcDbCircle
 10
5600.520319674457
 20
5041.000000000005
 30
0.0
 40
7.0
100
AcDbArc
 50
183.2473427903227
 51
270.0
  0
ARC
  5
1BE4C
330
747D
100
AcDbEntity
  8
部品1
 48
50.0
100
AcDbCircle
 10
5582.148509463779
 20
5147.66699916169
 30
0.0
 40
0.7
100
AcDbArc
 50
183.2473427903725
 51
262.3418727926567
  0
ARC
  5
1BE4D
330
747D
100
AcDbEntity
  8
部品1
 48
50.0
100
AcDbCircle
 10
5590.384539988622
 20
5055.466999161687
 30
0.0
 40
0.7
100
AcDbArc
 50
183.2473427902981
 51
262.3418727926567
  0
ARC
  5
1BE4E
330
747D
100
AcDbEntity
  8
部品1
 48
50.0
100
AcDbCircle
 10
5589.89147088006
 20
5051.800000000003
 30
0.0
 40
3.0
100
AcDbArc
 50
3.247342790323342
 51
82.34187279263712
  0
ARC
  5
1BE4F
330
747D
100
AcDbEntity
  8
部品1
 48
50.0
100
AcDbCircle
 10
5581.655440355217
 20
5144.000000000005
 30
0.0
 40
3.0
100
AcDbArc
 50
3.247342790322579
 51
82.34187279261989
  0
LINE
  5
1BE50
330
747D
100
AcDbEntity
  8
部品1
100
AcDbLine
 10
5584.650623251402
 20
5144.169939455108
 30
0.0
 11
5589.685663979513
 21
5055.427346622163
 31
0.0
  0
LINE
  5
1BE51
330
747D
100
AcDbEntity
  8
部品1
100
AcDbLine
 10
5592.886653776248
 20
5051.969939455105
 30
0.0
 11
5593.531559583357
 21
5040.603474604766
 31
0.0
  0
LINE
  5
1BE52
330
747D
100
AcDbEntity
  8
部品1
100
AcDbLine
 10
5580.316236122325
 20
5167.603474604764
 30
0.0
 11
5581.449633454671
 21
5147.627346622165
 31
0.0
  0
LINE
  5
1C310
330
747D
100
AcDbEntity
  8
細線
100
AcDbLine
 10
6158.196575106986
 20
7744.158584484087
 30
0.0
 11
6155.865036816218
 21
7749.158584484073
 31
0.0
  0
LINE
  5
1C316
330
747D
100
AcDbEntity
  8
細線
100
AcDbLine
 10
6155.865036816219
 20
7749.158584484073
 30
0.0
 11
6090.528113397745
 21
7749.158584484061
 31
0.0
  0
LINE
  5
1C318
330
747D
100
AcDbEntity
  8
細線
100
AcDbLine
 10
6088.196575106991
 20
7744.158584484061
 30
0.0
 11
6018.196575106991
 21
7744.158584484051
 31
0.0
  0
LINE
  5
1C31B
330
747D
100
AcDbEntity
  8
細線
100
AcDbLine
 10
5948.196575107008
 20
7744.158584484122
 30
0.0
 11
5680.884268457939
 21
7744.158584484083
 31
0.0
  0
LINE
  5
1C31C
330
747D
100
AcDbEntity
  8
細線
100
AcDbLine
 10
6088.196575106991
 20
7744.158584484104
 30
0.0
 11
6090.528113397759
 21
7749.15858448409
 31
0.0
  0
LINE
  5
1C31D
330
747D
100
AcDbEntity
  8
細線
100
AcDbLine
 10
6015.865036816217
 20
7749.158584484051
 30
0.0
 11
5950.528113397743
 21
7749.15858448404
 31
0.0
  0
LINE
  5
1C31E
330
747D
100
AcDbEntity
  8
細線
100
AcDbLine
 10
6018.196575106983
 20
7744.158584484066
 30
0.0
 11
6015.865036816216
 21
7749.158584484051
 31
0.0
  0
LINE
  5
1C31F
330
747D
100
AcDbEntity
  8
細線
100
AcDbLine
 10
5948.196575106989
 20
7744.158584484084
 30
0.0
 11
5950.528113397757
 21
7749.15858448407
 31
0.0
  0
LINE
  5
1C333
330
747D
100
AcDbEntity
  8
細線
100
AcDbLine
 10
5846.396575106989
 20
7762.158584484108
 30
0.0
 11
5846.396575106989
 21
7744.158584484084
 31
0.0
  0
LINE
  5
1C334
330
747D
100
AcDbEntity
  8
細線
100
AcDbLine
 10
5805.396575106989
 20
7762.158584484102
 30
0.0
 11
5805.396575106989
 21
7744.158584484084
 31
0.0
  0
LINE
  5
1C335
330
747D
100
AcDbEntity
  8
細線
100
AcDbLine
 10
5846.396575106989
 20
7762.158584484108
 30
0.0
 11
5805.396575106989
 21
7762.158584484102
 31
0.0
  0
ARC
  5
1C337
330
747D
100
AcDbEntity
  8
部品1
100
AcDbCircle
 10
5807.940730984267
 20
7743.658584484106
 30
0.0
 40
1.0
100
AcDbArc
 50
270.0
 51
19.47122063447127
  0
LINE
  5
1C339
330
747D
100
AcDbEntity
  8
部品1
 48
0.01
100
AcDbLine
 10
5800.896575106983
 20
7744.158584484107
 30
0.0
 11
5800.896575106983
 21
7743.158584484106
 31
0.0
  0
LINE
  5
1C33C
330
747D
100
AcDbEntity
  8
部品1
 48
0.01
100
AcDbLine
 10
5801.396575106982
 20
7742.658584484107
 30
0.0
 11
5807.940730984267
 21
7742.658584484106
 31
0.0
  0
ARC
  5
1C33D
330
747D
100
AcDbEntity
  8
部品1
 48
0.01
100
AcDbCircle
 10
5801.396575106982
 20
7743.158584484106
 30
0.0
 40
0.5
100
AcDbArc
 50
180.0
 51
270.0
  0
ARC
  5
1C33F
330
747D
100
AcDbEntity
  8
部品1
100
AcDbCircle
 10
5833.396575106982
 20
7752.658584484105
 30
0.0
 40
26.0
100
AcDbArc
 50
180.0
 51
199.4712206344713
  0
ARC
  5
1C341
330
747D
100
AcDbEntity
  8
部品1
 48
0.01
100
AcDbCircle
 10
5809.396575106983
 20
7757.658584484106
 30
0.0
 40
2.0
100
AcDbArc
 50
90.0
 51
180.0
  0
LINE
  5
1C343
330
747D
100
AcDbEntity
  8
部品1
100
AcDbLine
 10
5807.396575106983
 20
7752.658584484105
 30
0.0
 11
5807.396575106983
 21
7757.658584484106
 31
0.0
  0
ARC
  5
1C344
330
747D
100
AcDbEntity
  8
部品1
100
AcDbCircle
 10
5825.896575106983
 20
7768.458584484107
 30
0.0
 40
16.0
100
AcDbArc
 50
218.3930440192126
 51
254.0576313943716
  0
ARC
  5
1C346
330
747D
100
AcDbEntity
  8
部品1
100
AcDbCircle
 10
5811.004966731794
 20
7756.658584484106
 30
0.0
 40
3.0
100
AcDbArc
 50
38.39304401921267
 51
90.0
  0
LINE
  5
1C347
330
747D
100
AcDbEntity
  8
部品1
 48
0.01
100
AcDbLine
 10
5809.396575106983
 20
7759.658584484106
 30
0.0
 11
5811.004966731794
 21
7759.658584484106
 31
0.0
  0
ARC
  5
1C358
330
747D
100
AcDbEntity
  8
部品1
100
AcDbCircle
 10
5825.896575106983
 20
7768.458584484107
 30
0.0
 40
16.0
100
AcDbArc
 50
285.9423686056284
 51
321.6069559807873
  0
LINE
  5
1C35E
330
747D
100
AcDbEntity
  8
部品1
100
AcDbLine
 10
5829.467289321254
 20
7752.958584484106
 30
0.0
 11
5822.325860892711
 21
7752.958584484106
 31
0.0
  0
ARC
  5
1C360
330
747D
100
AcDbEntity
  8
部品1
100
AcDbCircle
 10
5829.467289321254
 20
7755.958584484107
 30
0.0
 40
3.0
100
AcDbArc
 50
270.0
 51
285.9423686056284
  0
ARC
  5
1C362
330
747D
100
AcDbEntity
  8
部品1
100
AcDbCircle
 10
5822.325860892711
 20
7755.958584484107
 30
0.0
 40
3.0
100
AcDbArc
 50
254.0576313943716
 51
270.0
  0
LINE
  5
1C363
330
747D
100
AcDbEntity
  8
部品1
 48
0.01
100
AcDbLine
 10
5842.396575106983
 20
7759.658584484106
 30
0.0
 11
5840.788183482171
 21
7759.658584484106
 31
0.0
  0
ARC
  5
1C366
330
747D
100
AcDbEntity
  8
部品1
100
AcDbCircle
 10
5840.788183482171
 20
7756.658584484106
 30
0.0
 40
3.0
100
AcDbArc
 50
90.0
 51
141.6069559807873
  0
ARC
  5
1C368
330
747D
100
AcDbEntity
  8
部品1
 48
0.01
100
AcDbCircle
 10
5842.396575106983
 20
7757.658584484106
 30
0.0
 40
2.0
100
AcDbArc
 50
0.0
 51
90.0
  0
LINE
  5
1C369
330
747D
100
AcDbEntity
  8
部品1
100
AcDbLine
 10
5844.396575106983
 20
7752.658584484105
 30
0.0
 11
5844.396575106983
 21
7757.658584484106
 31
0.0
  0
ARC
  5
1C36C
330
747D
100
AcDbEntity
  8
部品1
100
AcDbCircle
 10
5818.396575106983
 20
7752.658584484105
 30
0.0
 40
26.0
100
AcDbArc
 50
340.5287793655287
 51
0.0
  0
ARC
  5
1C36D
330
747D
100
AcDbEntity
  8
部品1
100
AcDbCircle
 10
5843.852419229698
 20
7743.658584484106
 30
0.0
 40
1.0
100
AcDbArc
 50
160.5287793655287
 51
270.0
  0
LINE
  5
1C36F
330
747D
100
AcDbEntity
  8
部品1
 48
0.01
100
AcDbLine
 10
5850.396575106983
 20
7742.658584484107
 30
0.0
 11
5843.78406967692
 21
7742.658584484106
 31
0.0
  0
LINE
  5
1C372
330
747D
100
AcDbEntity
  8
部品1
 48
0.01
100
AcDbLine
 10
5850.896575106983
 20
7744.158584484107
 30
0.0
 11
5850.896575106983
 21
7743.158584484106
 31
0.0
  0
LINE
  5
1C373
330
747D
100
AcDbEntity
  8
部品1
 48
0.01
100
AcDbLine
 10
5850.896575106983
 20
7744.158584484107
 30
0.0
 11
5850.896575106983
 21
7743.158584484106
 31
0.0
  0
ARC
  5
1C374
330
747D
100
AcDbEntity
  8
部品1
 48
0.01
100
AcDbCircle
 10
5850.396575106983
 20
7743.158584484106
 30
0.0
 40
0.5
100
AcDbArc
 50
270.0
 51
0.0
  0
LINE
  5
1C386
330
747D
100
AcDbEntity
  8
細線
100
AcDbLine
 10
6346.346575106983
 20
7778.158584484135
 30
0.0
 11
6348.678113397751
 21
7783.15858448412
 31
0.0
  0
LINE
  5
1C387
330
747D
100
AcDbEntity
  8
細線
100
AcDbLine
 10
6416.346575106977
 20
7778.158584484116
 30
0.0
 11
6414.015036816211
 21
7783.158584484102
 31
0.0
  0
LINE
  5
1C388
330
747D
100
AcDbEntity
  8
細線
100
AcDbLine
 10
6414.015036816211
 20
7783.158584484102
 30
0.0
 11
6348.678113397737
 21
7783.15858448409
 31
0.0
  0
LINE
  5
1C389
330
747D
100
AcDbEntity
  8
細線
100
AcDbLine
 10
6486.346575106982
 20
7778.158584484152
 30
0.0
 11
6488.67811339775
 21
7783.158584484138
 31
0.0
  0
LINE
  5
1C38A
330
747D
100
AcDbEntity
  8
細線
100
AcDbLine
 10
6556.346575106977
 20
7778.158584484135
 30
0.0
 11
6554.01503681621
 21
7783.15858448412
 31
0.0
  0
LINE
  5
1C38B
330
747D
100
AcDbEntity
  8
細線
100
AcDbLine
 10
6554.01503681621
 20
7783.15858448412
 30
0.0
 11
6488.678113397736
 21
7783.15858448411
 31
0.0
  0
LINE
  5
1C3A8
330
747D
100
AcDbEntity
  8
細線
100
AcDbLine
 10
6993.696575106992
 20
7814.158584484129
 30
0.0
 11
6991.59819064528
 21
7818.658584484167
 31
0.0
  0
LINE
  5
1C3A9
330
747D
100
AcDbEntity
  8
細線
100
AcDbLine
 10
6923.696575106998
 20
7814.158584484147
 30
0.0
 11
6925.794959568704
 21
7818.658584484167
 31
0.0
  0
LINE
  5
1C3AB
330
747D
100
AcDbEntity
  8
細線
100
AcDbLine
 10
6853.696575106981
 20
7814.158584484139
 30
0.0
 11
6851.598190645272
 21
7818.658584484167
 31
0.0
  0
LINE
  5
1C3AC
330
747D
100
AcDbEntity
  8
細線
100
AcDbLine
 10
6783.696575106986
 20
7814.158584484157
 30
0.0
 11
6785.794959568689
 21
7818.658584484167
 31
0.0
  0
LINE
  5
1C3AE
330
747D
100
AcDbEntity
  8
細線
100
AcDbLine
 10
6923.696575106991
 20
7814.158584484137
 30
0.0
 11
6853.696575106981
 21
7814.158584484139
 31
0.0
  0
LINE
  5
1C3AF
330
747D
100
AcDbEntity
  8
細線
100
AcDbLine
 10
6783.696575106985
 20
7814.158584484167
 30
0.0
 11
6676.496575106987
 21
7814.158584484168
 31
0.0
  0
LINE
  5
1C3B1
330
747D
100
AcDbEntity
  8
細線
100
AcDbLine
 10
6486.346575106977
 20
7778.158584484142
 30
0.0
 11
6416.346575106965
 21
7778.158584484143
 31
0.0
  0
LINE
  5
1C3B2
330
747D
100
AcDbEntity
  8
細線
100
AcDbLine
 10
6346.346575106984
 20
7778.158584484133
 30
0.0
 11
6249.196575106991
 21
7778.158584484076
 31
0.0
  0
ARC
  5
1C8BC
330
747D
100
AcDbEntity
  8
細線
100
AcDbCircle
 10
6451.346581606973
 20
7803.65858448412
 30
0.0
 40
6.0
100
AcDbArc
 50
204.6243183521779
 51
335.3756816478222
  0
ARC
  5
1C8BD
330
747D
100
AcDbEntity
  8
細線
100
AcDbCircle
 10
6053.196581606889
 20
7769.658584484064
 30
0.0
 40
6.0
100
AcDbArc
 50
204.6243183521779
 51
335.3756816478222
  0
ARC
  5
1C998
330
747D
100
AcDbEntity
  8
細線
100
AcDbCircle
 10
6672.496575106986
 20
7813.458584484168
 30
0.0
 40
2.0
100
AcDbArc
 50
180.0
 51
270.0
  0
LINE
  5
1C999
330
747D
100
AcDbEntity
  8
細線
100
AcDbLine
 10
6670.496575106986
 20
7813.458584484168
 30
0.0
 11
6670.496575106986
 21
7814.158584484168
 31
0.0
  0
LINE
  5
1C99A
330
747D
100
AcDbEntity
  8
細線
100
AcDbLine
 10
6672.496575106987
 20
7811.458584484168
 30
0.0
 11
6674.496575106987
 21
7811.458584484168
 31
0.0
  0
ARC
  5
1C99B
330
747D
100
AcDbEntity
  8
細線
100
AcDbCircle
 10
6674.496575106985
 20
7813.458584484168
 30
0.0
 40
2.0
100
AcDbArc
 50
270.0
 51
0.0
  0
LINE
  5
1C99C
330
747D
100
AcDbEntity
  8
細線
100
AcDbLine
 10
6676.496575106987
 20
7813.458584484168
 30
0.0
 11
6676.496575106987
 21
7814.158584484168
 31
0.0
  0
LINE
  5
1CA39
330
747D
100
AcDbEntity
  8
細線
100
AcDbLine
 10
6249.196575106991
 20
7777.458584484076
 30
0.0
 11
6249.196575106991
 21
7778.158584484076
 31
0.0
  0
ARC
  5
1CA3A
330
747D
100
AcDbEntity
  8
細線
100
AcDbCircle
 10
6247.19657510699
 20
7777.458584484076
 30
0.0
 40
2.0
100
AcDbArc
 50
270.0
 51
0.0
  0
LINE
  5
1CA3B
330
747D
100
AcDbEntity
  8
細線
100
AcDbLine
 10
6245.196575106991
 20
7775.458584484076
 30
0.0
 11
6247.196575106991
 21
7775.458584484076
 31
0.0
  0
LINE
  5
1CA3C
330
747D
100
AcDbEntity
  8
細線
100
AcDbLine
 10
6243.196575106991
 20
7777.458584484076
 30
0.0
 11
6243.196575106991
 21
7778.158584484076
 31
0.0
  0
ARC
  5
1CA3D
330
747D
100
AcDbEntity
  8
細線
100
AcDbCircle
 10
6245.196575106991
 20
7777.458584484076
 30
0.0
 40
2.0
100
AcDbArc
 50
180.0
 51
270.0
  0
LINE
  5
1CA3F
330
747D
100
AcDbEntity
  8
細線
100
AcDbLine
 10
6232.196575106981
 20
7801.158584484078
 30
0.0
 11
6232.196575106983
 21
7808.158584484079
 31
0.0
  0
LINE
  5
1CA4B
330
747D
100
AcDbEntity
  8
細線
100
AcDbLine
 10
6659.496575106986
 20
7837.65858448417
 30
0.0
 11
6659.496575106986
 21
7842.158584484164
 31
0.0
  0
LINE
  5
1CA4E
330
747D
100
AcDbEntity
  8
細線
100
AcDbLine
 10
6232.196575106983
 20
7808.158584484079
 30
0.0
 11
6217.196575106984
 21
7808.158584484077
 31
0.0
  0
MTEXT
  5
1CB00
330
747D
100
AcDbEntity
  8
寸法
 62
     7
 48
50.0
100
AcDbMText
 10
6740.821695652655
 20
8209.577293245429
 30
0.0
 40
96.0
 41
0.0
 71
     5
 72
     1
  1
棚 2段
  7
STYLE1
 11
0.0000000000000001
 21
1.0
 31
0.0
 73
     1
 44
1.0
1001
ACAD
1000
MTEXTBEGIN
1070
    73
1070
     1
1070
    44
1040
1.0
1070
    74
1070
     0
1000
MTEXTEND
  0
LINE
  5
1EB98
330
747D
100
AcDbEntity
  8
細線
100
AcDbLine
 10
6676.896575106986
 20
7815.864435546888
 30
0.0
 11
6676.896575106986
 21
7840.764435546886
 31
0.0
  0
LINE
  5
1EB9C
330
747D
100
AcDbEntity
  8
細線
100
AcDbLine
 10
6688.896575106986
 20
7815.864435546888
 30
0.0
 11
6676.896575106986
 21
7815.864435546888
 31
0.0
  0
LINE
  5
1EB9E
330
747D
100
AcDbEntity
  8
細線
100
AcDbLine
 10
6676.896575106986
 20
7840.764435546886
 30
0.0
 11
6645.710523690245
 21
7840.764435546887
 31
0.0
  0
DIMENSION
  5
1EBC9
330
747D
100
AcDbEntity
  8
寸法
 48
50.0
100
AcDbDimension
  2
*D13
 10
6104.896575106997
 20
10375.13487548581
 30
0.0
 11
5894.896575106979
 21
10475.14668650943
 31
0.0
 70
    32
 71
     5
 42
420.0000000000345
  3
INABA_S40G
100
AcDbAlignedDimension
 13
5684.896575106963
 23
9951.158584484055
 33
0.0
 14
6104.896575106997
 24
9951.158584484202
 34
0.0
100
AcDbRotatedDimension
1001
ACAD
1000
DSTYLE
1002
{
1070
   174
1070
     0
1070
   272
1070
     1
1070
   288
1070
     0
1070
   341
1005
0
1002
}
  0
DIMENSION
  5
1EBD6
330
747D
100
AcDbEntity
  8
寸法
 48
50.0
100
AcDbDimension
  2
*D14
 10
6684.896575107015
 20
10375.13487548581
 30
0.0
 11
6393.572241974834
 21
10375.13487548581
 31
0.0
 70
   160
 71
     5
 42
580.0000000000181
  3
INABA_S40G
100
AcDbAlignedDimension
 13
6104.896575106997
 23
9951.158584484202
 33
0.0
 14
6684.896575107015
 24
9951.158584484142
 34
0.0
100
AcDbRotatedDimension
1001
ACAD
1000
DSTYLE
1002
{
1070
   174
1070
     0
1070
   272
1070
     1
1070
   288
1070
     0
1070
   341
1005
0
1002
}
  0
DIMENSION
  5
1EBE3
330
747D
100
AcDbEntity
  8
寸法
 48
50.0
100
AcDbDimension
  2
*D15
 10
7104.896575107017
 20
10375.13487548581
 30
0.0
 11
6894.896575107016
 21
10475.14668650943
 31
0.0
 70
    32
 71
     5
 42
420.0000000000009
  3
INABA_S40G
100
AcDbAlignedDimension
 13
6684.896575107015
 23
9951.158584484202
 33
0.0
 14
7104.896575107017
 24
9951.158584484163
 34
0.0
100
AcDbRotatedDimension
1001
ACAD
1000
DSTYLE
1002
{
1070
   174
1070
     0
1070
   272
1070
     1
1070
   288
1070
     0
1070
   341
1005
0
1002
}
  0
LINE
  5
1F22A
330
747D
100
AcDbEntity
  8
細線
100
AcDbLine
 10
6346.346575106991
 20
4932.000000000002
 30
0.0
 11
6346.346575106991
 21
3156.50000000001
 31
0.0
  0
LINE
  5
1F22B
330
747D
100
AcDbEntity
  8
細線
100
AcDbLine
 10
6416.346575106992
 20
4932.000000000002
 30
0.0
 11
6416.346575106992
 21
3156.50000000001
 31
0.0
  0
LINE
  5
1F22C
330
747D
100
AcDbEntity
  8
細線
100
AcDbLine
 10
6486.346575106992
 20
4932.000000000002
 30
0.0
 11
6486.346575106992
 21
3156.50000000001
 31
0.0
  0
LINE
  5
1F22D
330
747D
100
AcDbEntity
  8
細線
100
AcDbLine
 10
6556.346575106991
 20
4932.000000000002
 30
0.0
 11
6556.346575106991
 21
3156.50000000001
 31
0.0
  0
LINE
  5
1F22E
330
747D
100
AcDbEntity
  8
部品1
100
AcDbLine
 10
6685.496575106991
 20
4932.000000000002
 30
0.0
 11
6685.496575106991
 21
3156.50000000001
 31
0.0
  0
LINE
  5
1F2AB
330
747D
100
AcDbEntity
  8
部品1
100
AcDbLine
 10
6759.896575106992
 20
3100.0
 30
0.0
 11
6759.896575106992
 21
3000.000000000001
 31
0.0
  0
LINE
  5
1F2BB
330
747D
100
AcDbEntity
  8
細線
100
AcDbLine
 10
6986.196575106991
 20
4932.000000000003
 30
0.0
 11
6986.196575106991
 21
3156.500000000016
 31
0.0
  0
LINE
  5
1F2BC
330
747D
100
AcDbEntity
  8
細線
100
AcDbLine
 10
6916.196575106991
 20
4932.000000000003
 30
0.0
 11
6916.196575106993
 21
3156.500000000016
 31
0.0
  0
LINE
  5
1F2BD
330
747D
100
AcDbEntity
  8
細線
100
AcDbLine
 10
6846.196575106991
 20
4932.000000000003
 30
0.0
 11
6846.196575106993
 21
3156.500000000016
 31
0.0
  0
LINE
  5
1F2BE
330
747D
100
AcDbEntity
  8
細線
100
AcDbLine
 10
6776.196575106991
 20
4932.000000000003
 30
0.0
 11
6776.196575106992
 21
3156.500000000016
 31
0.0
  0
LINE
  5
1F2CF
330
747D
100
AcDbEntity
  8
部品1
 48
50.0
100
AcDbLine
 10
6157.896575106851
 20
9894.658584484165
 30
0.0
 11
6157.896575107084
 21
7871.658584484094
 31
0.0
  0
TEXT
  5
20F99
330
747D
100
AcDbEntity
  8
文字
 62
     7
 48
50.0
100
AcDbText
 10
13583.11819016568
 20
8720.013745883726
 30
0.0
 40
100.0
  1
アンカープレート
  7
STYLE1
100
AcDbText
  0
TEXT
  5
20F9A
330
747D
100
AcDbEntity
  8
文字
 62
     7
 48
50.0
100
AcDbText
 10
15022.63965474514
 20
8720.013745883717
 30
0.0
 40
100.0
  1
F12            2.3
  7
STYLE1
100
AcDbText
  0
LINE
  5
20F9B
330
747D
100
AcDbEntity
  8
仕様書枠
 48
50.0
100
AcDbLine
 10
16307.19999999999
 20
10049.59999999999
 30
0.0
 11
13127.19999999999
 21
10049.59999999999
 31
0.0
  0
LINE
  5
20F9C
330
747D
100
AcDbEntity
  8
仕様書枠
 48
50.0
100
AcDbLine
 10
16307.19999999999
 20
11409.59999999999
 30
0.0
 11
13127.19999999999
 21
11409.59999999999
 31
0.0
  0
LINE
  5
20F9D
330
747D
100
AcDbEntity
  8
仕様書枠
 48
50.0
100
AcDbLine
 10
16307.19999999998
 20
8349.6
 30
0.0
 11
16307.19999999999
 21
11409.59999999999
 31
0.0
  0
LINE
  5
20F9E
330
747D
100
AcDbEntity
  8
仕様書枠
 48
50.0
100
AcDbLine
 10
14785.19999999999
 20
11409.59999999999
 30
0.0
 11
14785.19999999999
 21
8689.600000000003
 31
0.0
  0
LINE
  5
20F9F
330
747D
100
AcDbEntity
  8
仕様書枠
 48
50.0
100
AcDbLine
 10
13490.19999999999
 20
11409.59999999999
 30
0.0
 11
13490.2
 21
8689.6
 31
0.0
  0
LINE
  5
20FA0
330
747D
100
AcDbEntity
  8
仕様書枠
 48
50.0
100
AcDbLine
 10
16307.19999999999
 20
11239.59999999999
 30
0.0
 11
13127.19999999999
 21
11239.59999999999
 31
0.0
  0
LINE
  5
20FA1
330
747D
100
AcDbEntity
  8
仕様書枠
 48
50.0
100
AcDbLine
 10
16307.19999999999
 20
10899.6
 30
0.0
 11
13127.19999999999
 21
10899.6
 31
0.0
  0
LINE
  5
20FA2
330
747D
100
AcDbEntity
  8
仕様書枠
 48
50.0
100
AcDbLine
 10
16307.19999999999
 20
11069.59999999999
 30
0.0
 11
13127.19999999999
 21
11069.59999999999
 31
0.0
  0
LINE
  5
20FA3
330
747D
100
AcDbEntity
  8
仕様書枠
 48
50.0
100
AcDbLine
 10
16307.19999999998
 20
10559.6
 30
0.0
 11
13127.19999999999
 21
10559.6
 31
0.0
  0
LINE
  5
20FA4
330
747D
100
AcDbEntity
  8
仕様書枠
 48
50.0
100
AcDbLine
 10
16307.19999999998
 20
10389.59999999999
 30
0.0
 11
13127.19999999999
 21
10389.59999999999
 31
0.0
  0
LINE
  5
20FA5
330
747D
100
AcDbEntity
  8
仕様書枠
 48
50.0
100
AcDbLine
 10
16307.19999999998
 20
10729.59999999999
 30
0.0
 11
13127.19999999999
 21
10729.59999999999
 31
0.0
  0
TEXT
  5
20FA6
330
747D
100
AcDbEntity
  8
文字
 62
     7
 48
50.0
100
AcDbText
 10
13197.42518560406
 20
11270.01374588372
 30
0.0
 40
100.0
  1
品番
  7
STYLE1
100
AcDbText
  0
TEXT
  5
20FA7
330
747D
100
AcDbEntity
  8
文字
 62
     7
 48
50.0
100
AcDbText
 10
13271.19032244791
 20
11100.01374588372
 30
0.0
 40
100.0
  1
1
  7
STYLE1
100
AcDbText
  0
TEXT
  5
20FA8
330
747D
100
AcDbEntity
  8
文字
 62
     7
 48
50.0
100
AcDbText
 10
13271.19032244791
 20
10930.01374588372
 30
0.0
 40
100.0
  1
2
  7
STYLE1
100
AcDbText
  0
TEXT
  5
20FA9
330
747D
100
AcDbEntity
  8
文字
 62
     7
 48
50.0
100
AcDbText
 10
13271.19032244791
 20
10590.01374588372
 30
0.0
 40
100.0
  1
4
  7
STYLE1
100
AcDbText
  0
TEXT
  5
20FAA
330
747D
100
AcDbEntity
  8
文字
 62
     7
 48
50.0
100
AcDbText
 10
13271.19032244791
 20
10760.01374588372
 30
0.0
 40
100.0
  1
3
  7
STYLE1
100
AcDbText
  0
TEXT
  5
20FAB
330
747D
100
AcDbEntity
  8
文字
 62
     7
 48
50.0
100
AcDbText
 10
13732.03840939434
 20
11270.01374588372
 30
0.0
 40
100.0
  1
部　　品　　名
  7
STYLE1
100
AcDbText
  0
TEXT
  5
20FAC
330
747D
100
AcDbEntity
  8
文字
 62
     7
 48
50.0
100
AcDbText
 10
14859.79774614481
 20
11270.01374588372
 30
0.0
 40
100.0
  1
材料（材質）　　単位mm
  7
STYLE1
100
AcDbText
  0
TEXT
  5
20FAD
330
747D
100
AcDbEntity
  8
文字
 62
     7
 48
50.0
100
AcDbText
 10
13583.11819016568
 20
11100.01374588372
 30
0.0
 40
100.0
  1
土台枠
  7
STYLE1
100
AcDbText
  0
TEXT
  5
20FAE
330
747D
100
AcDbEntity
  8
文字
 62
     7
 48
50.0
100
AcDbText
 10
13583.11819016569
 20
10760.01374588372
 30
0.0
 40
100.0
  1
柱
  7
STYLE1
100
AcDbText
  0
TEXT
  5
20FAF
330
747D
100
AcDbEntity
  8
文字
 62
     7
 48
50.0
100
AcDbText
 10
13583.11819016569
 20
10420.01374588372
 30
0.0
 40
100.0
  1
鴨居
  7
STYLE1
100
AcDbText
  0
TEXT
  5
20FB0
330
747D
100
AcDbEntity
  8
文字
 62
     7
 48
50.0
100
AcDbText
 10
13583.11819016569
 20
10250.01374588372
 30
0.0
 40
100.0
  1
桁後
  7
STYLE1
100
AcDbText
  0
TEXT
  5
20FB1
330
747D
100
AcDbEntity
  8
文字
 62
     7
 48
50.0
100
AcDbText
 10
13271.19032244791
 20
10420.01374588372
 30
0.0
 40
100.0
  1
5
  7
STYLE1
100
AcDbText
  0
TEXT
  5
20FB2
330
747D
100
AcDbEntity
  8
文字
 62
     7
 48
50.0
100
AcDbText
 10
13583.11819016569
 20
10080.01374588372
 30
0.0
 40
100.0
  1
妻板左右
  7
STYLE1
100
AcDbText
  0
TEXT
  5
20FB3
330
747D
100
AcDbEntity
  8
文字
 62
     7
 48
50.0
100
AcDbText
 10
13248.77747366447
 20
9570.013745883725
 30
0.0
 40
100.0
  1
10
  7
STYLE1
100
AcDbText
  0
TEXT
  5
20FB4
330
747D
100
AcDbEntity
  8
文字
 62
     7
 48
50.0
100
AcDbText
 10
13583.11819016568
 20
9400.013745883725
 30
0.0
 40
100.0
  1
壁パネル
  7
STYLE1
100
AcDbText
  0
TEXT
  5
20FB5
330
747D
100
AcDbEntity
  8
文字
 62
     7
 48
50.0
100
AcDbText
 10
13583.11819016568
 20
9740.013745883725
 30
0.0
 40
100.0
  1
屋根パネル
  7
STYLE1
100
AcDbText
  0
TEXT
  5
20FB6
330
747D
100
AcDbEntity
  8
文字
 62
     7
 48
50.0
100
AcDbText
 10
13583.11819016569
 20
9910.013745883725
 30
0.0
 40
100.0
  1
鼻隠シ前後
  7
STYLE1
100
AcDbText
  0
TEXT
  5
20FB7
330
747D
100
AcDbEntity
  8
文字
 62
     7
 48
50.0
100
AcDbText
 10
13271.19032244791
 20
9910.013745883725
 30
0.0
 40
100.0
  1
8
  7
STYLE1
100
AcDbText
  0
TEXT
  5
20FB8
330
747D
100
AcDbEntity
  8
文字
 62
     7
 48
50.0
100
AcDbText
 10
13271.19032244791
 20
9740.013745883725
 30
0.0
 40
100.0
  1
9
  7
STYLE1
100
AcDbText
  0
TEXT
  5
20FB9
330
747D
100
AcDbEntity
  8
文字
 62
     7
 48
50.0
100
AcDbText
 10
13271.19032244791
 20
10080.01374588372
 30
0.0
 40
100.0
  1
7
  7
STYLE1
100
AcDbText
  0
TEXT
  5
20FBA
330
747D
100
AcDbEntity
  8
文字
 62
     7
 48
50.0
100
AcDbText
 10
13271.19032244791
 20
10250.01374588372
 30
0.0
 40
100.0
  1
6
  7
STYLE1
100
AcDbText
  0
LINE
  5
20FBB
330
747D
100
AcDbEntity
  8
仕様書枠
 48
50.0
100
AcDbLine
 10
16307.19999999998
 20
9709.599999999998
 30
0.0
 11
13127.19999999999
 21
9709.599999999998
 31
0.0
  0
LINE
  5
20FBC
330
747D
100
AcDbEntity
  8
仕様書枠
 48
50.0
100
AcDbLine
 10
16307.19999999998
 20
9369.599999999996
 30
0.0
 11
13127.19999999999
 21
9369.599999999996
 31
0.0
  0
LINE
  5
20FBD
330
747D
100
AcDbEntity
  8
仕様書枠
 48
50.0
100
AcDbLine
 10
16307.19999999998
 20
9539.599999999998
 30
0.0
 11
13127.19999999999
 21
9539.599999999998
 31
0.0
  0
LINE
  5
20FBE
330
747D
100
AcDbEntity
  8
仕様書枠
 48
50.0
100
AcDbLine
 10
16307.19999999999
 20
10219.59999999999
 30
0.0
 11
13127.19999999999
 21
10219.59999999999
 31
0.0
  0
LINE
  5
20FBF
330
747D
100
AcDbEntity
  8
仕様書枠
 48
50.0
100
AcDbLine
 10
16307.19999999999
 20
9879.599999999996
 30
0.0
 11
13127.19999999999
 21
9879.599999999996
 31
0.0
  0
TEXT
  5
20FC0
330
747D
100
AcDbEntity
  8
文字
 62
     7
 48
50.0
100
AcDbText
 10
13248.77747366447
 20
9400.013745883725
 30
0.0
 40
100.0
  1
11
  7
STYLE1
100
AcDbText
  0
LINE
  5
20FC1
330
747D
100
AcDbEntity
  8
仕様書枠
 48
50.0
100
AcDbLine
 10
16307.19999999998
 20
9199.599999999996
 30
0.0
 11
13127.19999999999
 21
9199.599999999996
 31
0.0
  0
LINE
  5
20FC2
330
747D
100
AcDbEntity
  8
仕様書枠
 48
50.0
100
AcDbLine
 10
16307.19999999998
 20
8859.599999999998
 30
0.0
 11
13127.19999999999
 21
8859.6
 31
0.0
  0
TEXT
  5
20FC3
330
747D
100
AcDbEntity
  8
文字
 62
     7
 48
50.0
100
AcDbText
 10
13248.77747366447
 20
9060.013745883725
 30
0.0
 40
100.0
  1
13
  7
STYLE1
100
AcDbText
  0
TEXT
  5
20FC4
330
747D
100
AcDbEntity
  8
文字
 62
     7
 48
50.0
100
AcDbText
 10
13248.77747366447
 20
9230.013745883725
 30
0.0
 40
100.0
  1
12
  7
STYLE1
100
AcDbText
  0
TEXT
  5
20FC5
330
747D
100
AcDbEntity
  8
文字
 62
     7
 48
50.0
100
AcDbText
 10
15022.63965474516
 20
11100.01374588372
 30
0.0
 40
100.0
  1
F12            1.2
  7
STYLE1
100
AcDbText
  0
TEXT
  5
20FC6
330
747D
100
AcDbEntity
  8
文字
 62
     7
 48
50.0
100
AcDbText
 10
15022.63965474517
 20
10760.01374588372
 30
0.0
 40
100.0
  1
F12            1.0
  7
STYLE1
100
AcDbText
  0
TEXT
  5
20FC7
330
747D
100
AcDbEntity
  8
文字
 62
     7
 48
50.0
100
AcDbText
 10
15022.63965474516
 20
10420.01374588372
 30
0.0
 40
100.0
  1
Y10            1.0
  7
STYLE1
100
AcDbText
  0
TEXT
  5
20FC8
330
747D
100
AcDbEntity
  8
文字
 62
     7
 48
50.0
100
AcDbText
 10
15022.63965474516
 20
10250.01374588372
 30
0.0
 40
100.0
  1
Y10            1.0
  7
STYLE1
100
AcDbText
  0
TEXT
  5
20FC9
330
747D
100
AcDbEntity
  8
文字
 62
     7
 48
50.0
100
AcDbText
 10
15022.63965474516
 20
10080.01374588372
 30
0.0
 40
100.0
  1
Y10            0.7
  7
STYLE1
100
AcDbText
  0
TEXT
  5
20FCA
330
747D
100
AcDbEntity
  8
文字
 62
     7
 48
50.0
100
AcDbText
 10
15022.63965474516
 20
9910.013745883723
 30
0.0
 40
100.0
  1
Y10            0.7
  7
STYLE1
100
AcDbText
  0
TEXT
  5
20FCB
330
747D
100
AcDbEntity
  8
文字
 62
     7
 48
50.0
100
AcDbText
 10
15022.63965474516
 20
9740.013745883722
 30
0.0
 40
100.0
  1
Y10            0.5
  7
STYLE1
100
AcDbText
  0
TEXT
  5
20FCC
330
747D
100
AcDbEntity
  8
文字
 62
     7
 48
50.0
100
AcDbText
 10
15022.63965474515
 20
9400.013745883722
 30
0.0
 40
100.0
  1
F12            0.6
  7
STYLE1
100
AcDbText
  0
LINE
  5
20FCD
330
747D
100
AcDbEntity
  8
仕様書枠
 48
50.0
100
AcDbLine
 10
16307.19999999998
 20
8689.6
 30
0.0
 11
13127.19999999998
 21
8689.6
 31
0.0
  0
LINE
  5
20FCE
330
747D
100
AcDbEntity
  8
仕様書枠
 48
50.0
100
AcDbLine
 10
16307.19999999998
 20
8519.600000000002
 30
0.0
 11
13127.19999999998
 21
8519.600000000002
 31
0.0
  0
TEXT
  5
20FCF
330
747D
100
AcDbEntity
  8
文字
 62
     7
 48
50.0
100
AcDbText
 10
13229.83081656553
 20
8550.013745883729
 30
0.0
 40
100.0
  1
F12→溶融亜鉛めっき鋼板(JIS G 3302)
  7
STYLE1
100
AcDbText
  0
TEXT
  5
20FD0
330
747D
100
AcDbEntity
  8
文字
 62
     7
 48
50.0
100
AcDbText
 10
13229.83081656553
 20
8380.013745883728
 30
0.0
 40
100.0
  1
Y10→溶融亜鉛-5％アルミニウム合金めっき鋼板(JIS G 3317)
 41
0.9
  7
STYLE1
100
AcDbText
  0
LINE
  5
20FD1
330
747D
100
AcDbEntity
  8
仕様書枠
 48
50.0
100
AcDbLine
 10
13127.19999999999
 20
11409.59999999999
 30
0.0
 11
13127.19999999998
 21
8349.6
 31
0.0
  0
LINE
  5
20FD2
330
747D
100
AcDbEntity
  8
仕様書枠
 48
50.0
100
AcDbLine
 10
16307.19999999998
 20
9029.599999999996
 30
0.0
 11
13127.19999999999
 21
9029.6
 31
0.0
  0
TEXT
  5
20FD3
330
747D
100
AcDbEntity
  8
文字
 62
     7
 48
50.0
100
AcDbText
 10
13583.11819016569
 20
10590.01374588372
 30
0.0
 40
100.0
  1
床パネル
 41
0.9
  7
STYLE1
100
AcDbText
  0
TEXT
  5
20FD4
330
747D
100
AcDbEntity
  8
文字
 62
     7
 48
50.0
100
AcDbText
 10
13583.11819016568
 20
10930.01374588372
 30
0.0
 40
100.0
  1
根太
  7
STYLE1
100
AcDbText
  0
TEXT
  5
20FD5
330
747D
100
AcDbEntity
  8
文字
 62
     7
 48
50.0
100
AcDbText
 10
13248.77747366447
 20
8890.013745883726
 30
0.0
 40
100.0
  1
14
  7
STYLE1
100
AcDbText
  0
TEXT
  5
20FD6
330
747D
100
AcDbEntity
  8
文字
 62
     7
 48
50.0
100
AcDbText
 10
15022.63965474515
 20
10930.01374588372
 30
0.0
 40
100.0
  1
F12            1.2
  7
STYLE1
100
AcDbText
  0
TEXT
  5
20FD7
330
747D
100
AcDbEntity
  8
文字
 62
     7
 48
50.0
100
AcDbText
 10
15022.63965474516
 20
10590.01374588372
 30
0.0
 40
100.0
  1
F12            1.0
  7
STYLE1
100
AcDbText
  0
TEXT
  5
20FD8
330
747D
100
AcDbEntity
  8
文字
 62
     7
 48
50.0
100
AcDbText
 10
15022.63965474514
 20
9230.013745883722
 30
0.0
 40
100.0
  1
F12            0.7
  7
STYLE1
100
AcDbText
  0
TEXT
  5
20FD9
330
747D
100
AcDbEntity
  8
文字
 62
     7
 48
50.0
100
AcDbText
 10
13583.11819016567
 20
9230.013745883725
 30
0.0
 40
100.0
  1
正面パネル
  7
STYLE1
100
AcDbText
  0
TEXT
  5
20FDA
330
747D
100
AcDbEntity
  8
文字
 62
     7
 48
50.0
100
AcDbText
 10
15022.63965474515
 20
9060.013745883722
 30
0.0
 40
100.0
  1
F12            0.8
  7
STYLE1
100
AcDbText
  0
TEXT
  5
20FDB
330
747D
100
AcDbEntity
  8
文字
 62
     7
 48
50.0
100
AcDbText
 10
13583.11819016568
 20
9060.013745883725
 30
0.0
 40
100.0
  1
扉
  7
STYLE1
100
AcDbText
  0
TEXT
  5
20FDC
330
747D
100
AcDbEntity
  8
文字
 62
     7
 48
50.0
100
AcDbText
 10
15022.63965474515
 20
8890.013745883726
 30
0.0
 40
100.0
  1
F12            0.6
  7
STYLE1
100
AcDbText
  0
TEXT
  5
20FDD
330
747D
100
AcDbEntity
  8
文字
 62
     7
 48
50.0
100
AcDbText
 10
13583.11819016568
 20
8890.013745883729
 30
0.0
 40
100.0
  1
棚板
  7
STYLE1
100
AcDbText
  0
LINE
  5
20FDE
330
747D
100
AcDbEntity
  8
仕様書枠
 48
50.0
100
AcDbLine
 10
16307.19999999998
 20
8349.6
 30
0.0
 11
13127.19999999998
 21
8349.6
 31
0.0
  0
TEXT
  5
20FDF
330
747D
100
AcDbEntity
  8
文字
 62
     7
 48
50.0
100
AcDbText
 10
13248.77747366446
 20
8720.013745883729
 30
0.0
 40
100.0
  1
15
  7
STYLE1
100
AcDbText
  0
TEXT
  5
20FE0
330
747D
100
AcDbEntity
  8
文字
 62
     7
 48
50.0
100
AcDbText
 10
13583.11819016568
 20
9570.013745883725
 30
0.0
 40
100.0
  1
母屋中
  7
STYLE1
100
AcDbText
  0
TEXT
  5
20FE1
330
747D
100
AcDbEntity
  8
文字
 62
     7
 48
50.0
100
AcDbText
 10
15022.63965474516
 20
9570.013745883722
 30
0.0
 40
100.0
  1
F12            1.0
  7
STYLE1
100
AcDbText
  0
DIMENSION
  5
21F81
330
747D
100
AcDbEntity
  8
寸法
 48
50.0
100
AcDbDimension
  2
*D18
 10
7541.142252168066
 20
8538.411789847662
 30
0.0
 11
7541.142252168064
 21
9181.741606472424
 31
0.0
 70
   160
 71
     5
 42
1272.999999999996
  3
INABA_S40G
100
AcDbAlignedDimension
 13
7126.896575106903
 23
9922.408584484196
 33
0.0
 14
7126.896575107219
 24
8649.408584484199
 34
0.0
 50
90.0
100
AcDbRotatedDimension
  0
DIMENSION
  5
21F82
330
747D
100
AcDbEntity
  8
寸法
 48
50.0
100
AcDbDimension
  2
*D17
 10
7542.079782507703
 20
7707.410579350264
 30
0.0
 11
7542.079782507703
 21
8124.065292288289
 31
0.0
 70
   160
 71
     5
 42
796.0000000000036
  3
INABA_S40G
100
AcDbAlignedDimension
 13
7126.896575107003
 23
8614.658584484192
 33
0.0
 14
7126.896575107217
 24
7818.658584484189
 34
0.0
 50
90.0
100
AcDbRotatedDimension
  0
DIMENSION
  5
21F83
330
747D
100
AcDbEntity
  8
寸法
 48
50.0
100
AcDbDimension
  2
*D16
 10
6612.471733544177
 20
10162.84536646625
 30
0.0
 11
6871.229496569262
 21
10162.84536646625
 31
0.0
 70
   160
 71
     5
 42
449.9999999999982
  3
INABA_S40G
100
AcDbAlignedDimension
 13
7126.896575107001
 23
9922.408584484216
 33
0.0
 14
6676.896575107003
 24
9922.408584484214
 34
0.0
100
AcDbRotatedDimension
  0
LINE
  5
21F84
330
747D
100
AcDbEntity
  8
細線
 48
50.0
100
AcDbLine
 10
7126.896575107209
 20
8649.408584484191
 30
0.0
 11
6676.896575106898
 21
9922.408584484195
 31
0.0
  0
LINE
  5
21F85
330
747D
100
AcDbEntity
  8
細線
 48
50.0
100
AcDbLine
 10
6676.89657510721
 20
8649.408584484191
 30
0.0
 11
7126.896575106903
 21
9922.408584484196
 31
0.0
  0
LINE
  5
21F86
330
747D
100
AcDbEntity
  8
細線
 48
50.0
100
AcDbLine
 10
7126.896575107211
 20
7818.658584484182
 30
0.0
 11
6676.896575107007
 21
8614.658584484168
 31
0.0
  0
LINE
  5
21F87
330
747D
100
AcDbEntity
  8
細線
 48
50.0
100
AcDbLine
 10
6676.896575107214
 20
7818.658584484182
 30
0.0
 11
7126.896575107008
 21
8614.658584484171
 31
0.0
  0
LINE
  5
21F88
330
747D
100
AcDbEntity
  8
部品1
 48
50.0
100
AcDbLine
 10
7131.896575106982
 20
8623.658584484145
 30
0.0
 11
6679.896575106983
 21
8623.658584484145
 31
0.0
  0
LINE
  5
21F89
330
747D
100
AcDbEntity
  8
部品1
 48
50.0
100
AcDbLine
 10
7126.896575107003
 20
8614.658584484171
 30
0.0
 11
6676.896575107004
 21
8614.658584484168
 31
0.0
  0
LINE
  5
21F8A
330
747D
100
AcDbEntity
  8
部品1
 48
50.0
100
AcDbLine
 10
7131.896575106989
 20
8648.658584484147
 30
0.0
 11
6679.896575106983
 21
8648.658584484143
 31
0.0
  0
LINE
  5
21F8B
330
747D
100
AcDbEntity
  8
部品1
100
AcDbLine
 10
7126.896575107098
 20
8649.408584484177
 30
0.0
 11
6676.896575107099
 21
8649.408584484177
 31
0.0
  0
LINE
  5
21F8C
330
747D
100
AcDbEntity
  8
部品1
100
AcDbLine
 10
6679.896575106983
 20
8648.658584484143
 30
0.0
 11
6679.896575106983
 21
8623.658584484145
 31
0.0
  0
LINE
  5
21F8D
330
747D
100
AcDbEntity
  8
部品1
100
AcDbLine
 10
6676.896575106898
 20
9922.408584484195
 30
0.0
 11
6676.896575107211
 21
8649.408584484177
 31
0.0
  0
LINE
  5
21F8E
330
747D
100
AcDbEntity
  8
部品1
100
AcDbLine
 10
6676.896575107007
 20
8614.658584484166
 30
0.0
 11
6676.896575107214
 21
7818.658584484182
 31
0.0
  0
LINE
  5
21F8F
330
747D
100
AcDbEntity
  8
部品1
100
AcDbLine
 10
7126.8965751071
 20
7818.658584484167
 30
0.0
 11
6676.896575107102
 21
7818.658584484167
 31
0.0
  0
LINE
  5
21F90
330
747D
100
AcDbEntity
  8
部品1
100
AcDbLine
 10
7126.896575107008
 20
8614.658584484171
 30
0.0
 11
7126.896575107216
 21
7818.658584484182
 31
0.0
  0
LINE
  5
21F91
330
747D
100
AcDbEntity
  8
部品1
100
AcDbLine
 10
7101.896575106978
 20
8648.658584484143
 30
0.0
 11
7101.896575106983
 21
8623.658584484145
 31
0.0
  0
LINE
  5
21F92
330
747D
100
AcDbEntity
  8
部品1
100
AcDbLine
 10
7143.896575106983
 20
8662.158584484144
 30
0.0
 11
7131.896575106982
 21
8662.158584484144
 31
0.0
  0
LINE
  5
21F93
330
747D
100
AcDbEntity
  8
部品1
100
AcDbLine
 10
7143.896575106983
 20
8610.158584484144
 30
0.0
 11
7131.896575106982
 21
8610.158584484144
 31
0.0
  0
LINE
  5
21F94
330
747D
100
AcDbEntity
  8
部品1
100
AcDbLine
 10
7126.896575106903
 20
9922.408584484196
 30
0.0
 11
7126.896575107211
 21
8649.408584484191
 31
0.0
  0
LINE
  5
21F95
330
747D
100
AcDbEntity
  8
部品1
 48
50.0
100
AcDbLine
 10
7126.896575107
 20
9922.408584484196
 30
0.0
 11
6676.896575107001
 21
9922.408584484195
 31
0.0
  0
LINE
  5
2200F
330
747D
100
AcDbEntity
  8
部品1
100
AcDbLine
 10
6676.896575107026
 20
9894.658584484128
 30
0.0
 11
5686.396575106927
 21
9894.658584484197
 31
0.0
  0
LINE
  5
22010
330
747D
100
AcDbEntity
  8
破線
 48
10.0
100
AcDbLine
 10
6676.896575107029
 20
9871.158584484128
 30
0.0
 11
5709.896575106924
 21
9871.158584484199
 31
0.0
  0
LINE
  5
22011
330
747D
100
AcDbEntity
  8
部品1
 48
50.0
100
AcDbLine
 10
5686.396575107011
 20
9894.658584484099
 30
0.0
 11
5657.89657510701
 21
9923.158584484099
 31
0.0
  0
LINE
  5
22012
330
747D
100
AcDbEntity
  8
部品1
100
AcDbLine
 10
6631.896575106854
 20
9894.658584484131
 30
0.0
 11
6631.89657510685
 21
7873.658584484207
 31
0.0
  0
LINE
  5
22013
330
747D
100
AcDbEntity
  8
部品1
100
AcDbLine
 10
7131.896575107017
 20
8636.158584484169
 30
0.0
 11
7159.896575107016
 21
8636.158584484169
 31
0.0
  0
LINE
  5
22014
330
747D
100
AcDbEntity
  8
部品1
100
AcDbLine
 10
7131.896575107017
 20
8216.158584484171
 30
0.0
 11
7159.896575107016
 21
8216.158584484171
 31
0.0
  0
LINE
  5
22015
330
747D
100
AcDbEntity
  8
部品1
100
AcDbLine
 10
5657.896575106971
 20
8636.158584484041
 30
0.0
 11
5629.896575106972
 21
8636.158584484041
 31
0.0
  0
LINE
  5
22016
330
747D
100
AcDbEntity
  8
部品1
100
AcDbLine
 10
5657.896575106971
 20
8216.158584484041
 30
0.0
 11
5629.896575106972
 21
8216.158584484041
 31
0.0
  0
LINE
  5
22017
330
747D
100
AcDbEntity
  8
部品1
100
AcDbLine
 10
7131.896575107017
 20
8623.658584484143
 30
0.0
 11
7131.896575106992
 21
7796.158584484164
 31
0.0
  0
MTEXT
  5
22018
330
747D
100
AcDbEntity
  8
寸法
 62
     7
 48
50.0
100
AcDbMText
 10
6740.821695652652
 20
9285.967519341792
 30
0.0
 40
96.0
 41
0.0
 71
     5
 72
     1
  1
棚 2段
  7
STYLE1
 11
0.0000000000000001
 21
1.0
 31
0.0
 73
     1
 44
1.0
1001
ACAD
1000
MTEXTBEGIN
1070
    73
1070
     1
1070
    44
1040
1.0
1070
    74
1070
     0
1000
MTEXTEND
  0
LINE
  5
2201B
330
747D
100
AcDbEntity
  8
破線
 48
10.0
100
AcDbLine
 10
5709.896575106961
 20
8526.15858448417
 30
0.0
 11
5709.896575106985
 21
7895.158584484072
 31
0.0
  0
LINE
  5
22222
330
747D
100
AcDbEntity
  8
部品1
100
AcDbLine
 10
10285.23894327143
 20
5306.750482299973
 30
0.0
 11
10610.69395691447
 21
5289.232423341111
 31
0.0
  0
LINE
  5
22223
330
747D
100
AcDbEntity
  8
部品1
 48
50.0
100
AcDbLine
 10
10265.69395691447
 20
3100.0
 30
0.0
 11
10265.69395691447
 21
3000.0
 31
0.0
  0
LINE
  5
22224
330
747D
100
AcDbEntity
  8
部品1
 48
50.0
100
AcDbLine
 10
10065.69395691447
 20
3100.0
 30
0.0
 11
10065.69395691447
 21
3000.0
 31
0.0
  0
ARC
  5
22225
330
747D
100
AcDbEntity
  8
部品1
100
AcDbCircle
 10
11631.32149272841
 20
5014.023757265793
 30
0.0
 40
0.7
100
AcDbArc
 50
275.0921697642102
 51
354.1866997666828
  0
ARC
  5
22226
330
747D
100
AcDbEntity
  8
部品1
100
AcDbCircle
 10
11642.18083847773
 20
5091.067012083716
 30
0.0
 40
0.7
100
AcDbArc
 50
275.0921697642102
 51
354.1866997665273
  0
ARC
  5
22227
330
747D
100
AcDbEntity
  8
部品1
100
AcDbCircle
 10
11642.50924372034
 20
5087.381615226626
 30
0.0
 40
3.0
100
AcDbArc
 50
95.09216976431458
 51
174.1866997665272
  0
ARC
  5
22228
330
747D
100
AcDbEntity
  8
部品1
100
AcDbCircle
 10
11631.64989797101
 20
5010.338360408702
 30
0.0
 40
3.0
100
AcDbArc
 50
95.0921697642102
 51
174.1866997665272
  0
ARC
  5
22229
330
747D
100
AcDbEntity
  8
部品1
 48
50.0
100
AcDbCircle
 10
11620.62176269591
 20
5000.74761580482
 30
0.0
 40
7.0
100
AcDbArc
 50
267.837755987053
 51
354.1866997665273
  0
ARC
  5
2222A
330
747D
100
AcDbEntity
  8
部品1
 48
50.0
100
AcDbCircle
 10
11637.94385916042
 20
5111.650162946993
 30
0.0
 40
7.0
100
AcDbArc
 50
354.1866997665273
 51
87.03587545293535
  0
LINE
  5
2222B
330
747D
100
AcDbEntity
  8
部品1
 48
50.0
100
AcDbLine
 10
11628.6653263004
 20
5010.642222125605
 30
0.0
 11
11627.58576326066
 21
5000.038605132047
 31
0.0
  0
LINE
  5
2222C
330
747D
100
AcDbEntity
  8
部品1
 48
50.0
100
AcDbLine
 10
11639.52467204973
 20
5087.68547694353
 30
0.0
 11
11632.01789278489
 21
5013.952856198518
 31
0.0
  0
LINE
  5
2222D
330
747D
100
AcDbEntity
  8
部品1
 48
50.0
100
AcDbLine
 10
11644.90785972518
 20
5110.941152274218
 30
0.0
 11
11642.87723853421
 21
5090.996111016439
 31
0.0
  0
ARC
  5
2222E
330
747D
100
AcDbEntity
  8
部品1
100
AcDbCircle
 10
9301.731048785841
 20
5053.814158958903
 30
0.0
 40
0.7
100
AcDbArc
 50
181.0932240292375
 51
260.1877540315916
  0
ARC
  5
2222F
330
747D
100
AcDbEntity
  8
部品1
100
AcDbCircle
 10
9296.95837518823
 20
5146.679937159023
 30
0.0
 40
0.7
100
AcDbArc
 50
181.0932240292114
 51
260.1877540315916
  0
ARC
  5
22230
330
747D
100
AcDbEntity
  8
部品1
100
AcDbCircle
 10
9296.32782078521
 20
5143.034062621626
 30
0.0
 40
3.0
100
AcDbArc
 50
1.093224029289586
 51
80.18775403159162
  0
ARC
  5
22231
330
747D
100
AcDbEntity
  8
部品1
100
AcDbCircle
 10
9301.100494382815
 20
5050.168284421507
 30
0.0
 40
3.0
100
AcDbArc
 50
1.093224029289586
 51
80.18775403159162
  0
ARC
  5
22232
330
747D
100
AcDbEntity
  8
部品1
 48
50.0
100
AcDbCircle
 10
9311.300626758017
 20
5039.776041039026
 30
0.0
 40
7.0
100
AcDbArc
 50
181.0932240292895
 51
267.837755987053
  0
ARC
  5
22233
330
747D
100
AcDbEntity
  8
部品1
 48
50.0
100
AcDbCircle
 10
9302.876968655921
 20
5166.727100572121
 30
0.0
 40
7.0
100
AcDbArc
 50
87.03587545293535
 51
181.0932240292895
  0
LINE
  5
22234
330
747D
100
AcDbEntity
  8
部品1
 48
50.0
100
AcDbLine
 10
9304.099948309247
 20
5050.22552202469
 30
0.0
 11
9304.301900929678
 21
5039.642486631597
 31
0.0
  0
LINE
  5
22235
330
747D
100
AcDbEntity
  8
細線
 48
50.0
100
AcDbLine
 10
9301.493855252575
 20
5053.155570143498
 30
0.0
 11
11631.49751968321
 21
5013.346251169005
 31
0.0
  0
LINE
  5
22236
330
747D
100
AcDbEntity
  8
細線
 48
50.0
100
AcDbLine
 10
9296.733380015288
 20
5146.017081841361
 30
0.0
 11
11642.36936476046
 21
5090.392877200534
 31
0.0
  0
LINE
  5
22237
330
747D
100
AcDbEntity
  8
部品1
 48
50.0
100
AcDbLine
 10
9299.32727471164
 20
5143.091300224809
 30
0.0
 11
9301.031176203002
 21
5053.800803518162
 31
0.0
  0
LINE
  5
22238
330
747D
100
AcDbEntity
  8
部品1
 48
50.0
100
AcDbLine
 10
9295.878242827582
 20
5166.593546164693
 30
0.0
 11
9296.258502605393
 21
5146.666581718282
 31
0.0
  0
LINE
  5
22239
330
747D
100
AcDbEntity
  8
細線
 48
50.0
100
AcDbLine
 10
11612.69395691448
 20
5119.966979035297
 30
0.0
 11
11607.94627402648
 21
4994.221206544551
 31
0.0
  0
LINE
  5
2223A
330
747D
100
AcDbEntity
  8
細線
 48
50.0
100
AcDbLine
 10
9328.693956914476
 20
5172.399676375405
 30
0.0
 11
9323.404855358967
 21
5032.31404374805
 31
0.0
  0
LINE
  5
2223B
330
747D
100
AcDbEntity
  8
部品1
100
AcDbLine
 10
9311.036521516427
 20
5032.781025068967
 30
0.0
 11
11620.35765745432
 21
4993.752599834762
 31
0.0
  0
LINE
  5
2223C
330
747D
100
AcDbEntity
  8
部品1
100
AcDbLine
 10
9303.238943271436
 20
5173.717735334267
 30
0.0
 11
11638.30583377594
 21
5118.640797709139
 31
0.0
  0
LINE
  5
2223D
330
747D
100
AcDbEntity
  8
部品1
 48
50.0
100
AcDbLine
 10
10310.69395691447
 20
5305.432423341111
 30
0.0
 11
10610.69395691447
 21
5305.432423341111
 31
0.0
  0
LINE
  5
2223E
330
747D
100
AcDbEntity
  8
部品1
 48
50.0
100
AcDbLine
 10
10610.69395691447
 20
5305.432423341111
 30
0.0
 11
10610.69395691447
 21
5289.232423341111
 31
0.0
  0
TEXT
  5
2223F
330
747D
100
AcDbEntity
  8
部品1
 48
50.0
100
AcDbText
 10
10298.9617921382
 20
5341.316445493544
 30
0.0
 40
120.0
  1
1000
  7
STYLE1
100
AcDbText
  0
TEXT
  5
22240
330
747D
100
AcDbEntity
  8
部品1
 48
50.0
100
AcDbText
 10
10776.59481480329
 20
5203.815187275261
 30
0.0
 40
120.0
  1
44
 50
90.0
  7
STYLE1
100
AcDbText
  0
LINE
  5
22241
330
747D
100
AcDbEntity
  8
細線
 48
50.0
100
AcDbLine
 10
10748.19395691448
 20
4940.0
 30
0.0
 11
10748.19395691448
 21
3150.0
 31
0.0
  0
LINE
  5
22242
330
747D
100
AcDbEntity
  8
細線
 48
50.0
100
AcDbLine
 10
10733.19395691447
 20
4940.0
 30
0.0
 11
10733.19395691447
 21
3150.0
 31
0.0
  0
LINE
  5
22243
330
747D
100
AcDbEntity
  8
細線
 48
50.0
100
AcDbLine
 10
10873.19395691447
 20
4940.0
 30
0.0
 11
10873.19395691447
 21
3150.0
 31
0.0
  0
LINE
  5
22244
330
747D
100
AcDbEntity
  8
細線
 48
50.0
100
AcDbLine
 10
10888.19395691448
 20
4940.0
 30
0.0
 11
10888.19395691448
 21
3150.0
 31
0.0
  0
LINE
  5
22245
330
747D
100
AcDbEntity
  8
細線
 48
50.0
100
AcDbLine
 10
11028.19395691448
 20
4940.0
 30
0.0
 11
11028.19395691448
 21
3150.0
 31
0.0
  0
LINE
  5
22246
330
747D
100
AcDbEntity
  8
細線
 48
50.0
100
AcDbLine
 10
11013.19395691447
 20
4940.0
 30
0.0
 11
11013.19395691447
 21
3150.0
 31
0.0
  0
LINE
  5
22247
330
747D
100
AcDbEntity
  8
部品1
100
AcDbLine
 10
11090.69395691447
 20
4940.0
 30
0.0
 11
11090.69395691447
 21
3150.0
 31
0.0
  0
LINE
  5
22248
330
747D
100
AcDbEntity
  8
部品1
100
AcDbLine
 10
9355.693956914475
 20
4940.0
 30
0.0
 11
11565.69395691447
 21
4940.0
 31
0.0
  0
LINE
  5
22249
330
747D
100
AcDbEntity
  8
部品1
100
AcDbLine
 10
9355.693956914475
 20
3150.0
 30
0.0
 11
11565.69395691448
 21
3150.000000000001
 31
0.0
  0
LINE
  5
2224A
330
747D
100
AcDbEntity
  8
部品1
100
AcDbLine
 10
9355.693956914475
 20
3100.0
 30
0.0
 11
9363.193956914475
 21
3100.0
 31
0.0
  0
LINE
  5
2224B
330
747D
100
AcDbEntity
  8
部品1
100
AcDbLine
 10
9410.693956914474
 20
4940.0
 30
0.0
 11
9410.693956914474
 21
3150.0
 31
0.0
  0
LINE
  5
2224C
330
747D
100
AcDbEntity
  8
部品1
100
AcDbLine
 10
9355.693956914475
 20
5031.858519442248
 30
0.0
 11
9355.693956914475
 21
3000.0
 31
0.0
  0
DIMENSION
  5
2224D
330
747D
100
AcDbEntity
  8
寸法
100
AcDbDimension
  2
*D19
 10
8810.78531551722
 20
3162.000000000001
 30
0.0
 11
8710.785315517219
 21
4047.000000000001
 31
0.0
 70
    32
  1
有効開口部高サ<>
 71
     5
 42
1769.999999999999
  3
INABA_S40G
100
AcDbAlignedDimension
 13
9355.693956914475
 23
4932.0
 33
0.0
 14
9355.693956914475
 24
3162.0
 34
0.0
 50
90.0
100
AcDbRotatedDimension
1001
ACAD
1000
DSTYLE
1002
{
1070
   174
1070
     0
1070
   272
1070
     1
1070
   288
1070
     0
1070
   341
1005
0
1002
}
  0
DIMENSION
  5
2224E
330
747D
100
AcDbEntity
  8
寸法
100
AcDbDimension
  2
*D20
 10
8511.943827731213
 20
3150.0
 30
0.0
 11
8411.943827731214
 21
4045.000000000001
 31
0.0
 70
    32
 71
     5
 42
1789.999999999999
  3
INABA_S40G
100
AcDbAlignedDimension
 13
9355.693956914475
 23
4940.0
 33
0.0
 14
9355.693956914475
 24
3150.0
 34
0.0
 50
90.0
100
AcDbRotatedDimension
1001
ACAD
1000
DSTYLE
1002
{
1070
   174
1070
     0
1070
   272
1070
     1
1070
   288
1070
     0
1070
   341
1005
0
1002
}
  0
DIMENSION
  5
2224F
330
747D
100
AcDbEntity
  8
寸法
100
AcDbDimension
  2
*D21
 10
8211.943827731214
 20
5175.000000000005
 30
0.0
 11
8111.932016707591
 21
4137.500000000003
 31
0.0
 70
    32
 71
     5
 42
2075.000000000004
  3
INABA_S40G
100
AcDbAlignedDimension
 13
9355.693956914475
 23
3100.0
 33
0.0
 14
9295.693956914474
 24
5175.000000000005
 34
0.0
 50
90.0
100
AcDbRotatedDimension
1001
ACAD
1000
DSTYLE
1002
{
1070
   174
1070
     0
1070
   272
1070
     1
1070
   288
1070
     0
1070
   341
1005
0
1002
}
  0
DIMENSION
  5
22250
330
747D
100
AcDbEntity
  8
寸法
100
AcDbDimension
  2
*D22
 10
8211.943827731214
 20
3000.0
 30
0.0
 11
8211.943827731214
 21
2763.95275590551
 31
0.0
 70
   160
 71
     5
 42
100.0000000000004
  3
INABA_S40G
100
AcDbAlignedDimension
 13
9300.693956914475
 23
3100.0
 33
0.0
 14
8299.192881019342
 24
3000.0
 34
0.0
 50
90.0
100
AcDbRotatedDimension
1001
ACAD
1000
DSTYLE
1002
{
1070
   174
1070
     0
1070
   272
1070
     1
1070
   288
1070
     0
1070
   341
1005
0
1002
}
  0
DIMENSION
  5
22251
330
747D
100
AcDbEntity
  8
寸法
100
AcDbDimension
  2
*D23
 10
8511.943827731213
 20
3100.0
 30
0.0
 11
8511.943827731213
 21
2793.952755905511
 31
0.0
 70
   160
 71
     5
 42
50.0
  3
INABA_S40G
100
AcDbAlignedDimension
 13
9355.693956914475
 23
3150.0
 33
0.0
 14
9300.693956914475
 24
3100.0
 34
0.0
 50
90.0
100
AcDbRotatedDimension
1001
ACAD
1000
DSTYLE
1002
{
1070
   174
1070
     0
1070
   272
1070
     1
1070
   288
1070
     0
1070
   341
1005
0
1002
}
  0
LINE
  5
22252
330
747D
100
AcDbEntity
  8
部品1
100
AcDbLine
 10
9830.693956914474
 20
4940.0
 30
0.0
 11
9830.693956914474
 21
3150.0
 31
0.0
  0
LINE
  5
22253
330
747D
100
AcDbEntity
  8
部品1
100
AcDbLine
 10
11565.69395691447
 20
4994.676437631222
 30
0.0
 11
11565.69395691448
 21
3000.0
 31
0.0
  0
LINE
  5
22254
330
747D
100
AcDbEntity
  8
部品1
100
AcDbLine
 10
11510.69395691448
 20
4940.0
 30
0.0
 11
11510.69395691448
 21
3150.0
 31
0.0
  0
DIMENSION
  5
22255
330
747D
100
AcDbEntity
  8
寸法
100
AcDbDimension
  2
*D24
 10
12270.6211148866
 20
5120.0
 30
0.0
 11
12170.60930386298
 21
4110.000000000002
 31
0.0
 70
    32
 71
     5
 42
2020.000000000001
  3
INABA_S40G
100
AcDbAlignedDimension
 13
11565.69395691448
 23
3100.0
 33
0.0
 14
11645.69395691447
 24
5120.0
 34
0.0
 50
90.0
100
AcDbRotatedDimension
1001
ACAD
1000
DSTYLE
1002
{
1070
   174
1070
     0
1070
   272
1070
     1
1070
   288
1070
     0
1070
   341
1005
0
1002
}
  0
LINE
  5
22256
330
747D
100
AcDbEntity
  8
部品1
100
AcDbLine
 10
9555.693956914474
 20
3100.0
 30
0.0
 11
9555.693956914474
 21
3000.0
 31
0.0
  0
LINE
  5
22257
330
747D
100
AcDbEntity
  8
部品1
100
AcDbLine
 10
11365.69395691447
 20
3100.0
 30
0.0
 11
11365.69395691447
 21
3000.0
 31
0.0
  0
DIMENSION
  5
22258
330
747D
100
AcDbEntity
  8
寸法
 48
50.0
100
AcDbDimension
  2
*D25
 10
9355.693956914475
 20
5573.657453579304
 30
0.0
 11
10450.33869398499
 21
5573.657453579304
 31
0.0
 70
   160
  1
柱外寸法<>
 71
     5
 42
2210.0
  3
INABA_S40G
100
AcDbAlignedDimension
 13
11565.69395691447
 23
5121.810679611654
 33
0.0
 14
9355.693956914475
 24
5171.001618122977
 34
0.0
100
AcDbRotatedDimension
1001
ACAD
1000
DSTYLE
1002
{
1070
   174
1070
     0
1070
   272
1070
     1
1070
   288
1070
     0
1070
   341
1005
0
1002
}
  0
DIMENSION
  5
22259
330
747D
100
AcDbEntity
  8
寸法
 48
50.0
100
AcDbDimension
  2
*D26
 10
9295.693956914474
 20
5573.657453579304
 30
0.0
 11
8986.056161638883
 21
5573.657453579304
 31
0.0
 70
   160
 71
     5
 42
60.0
  3
INABA_S40G
100
AcDbAlignedDimension
 13
9355.693956914475
 23
5171.001618122977
 33
0.0
 14
9295.693956914474
 24
5175.000000000005
 34
0.0
100
AcDbRotatedDimension
1001
ACAD
1000
DSTYLE
1002
{
1070
   174
1070
     0
1070
   272
1070
     1
1070
   288
1070
     0
1070
   341
1005
0
1002
}
  0
DIMENSION
  5
2225A
330
747D
100
AcDbEntity
  8
寸法
 48
50.0
100
AcDbDimension
  2
*D27
 10
9295.693956914474
 20
5792.859287253596
 30
0.0
 11
10530.03781100694
 21
5792.859287253596
 31
0.0
 70
   160
 71
     5
 42
2350.0
  3
INABA_S40G
100
AcDbAlignedDimension
 13
11645.69395691447
 23
5120.0
 33
0.0
 14
9295.693956914474
 24
5175.000000000005
 34
0.0
100
AcDbRotatedDimension
1001
ACAD
1000
DSTYLE
1002
{
1070
   174
1070
     0
1070
   272
1070
     1
1070
   288
1070
     0
1070
   341
1005
0
1002
}
  0
LINE
  5
2225B
330
747D
100
AcDbEntity
  8
破線
  6
HIDDEN
 48
5.0
100
AcDbLine
 10
11573.19395691447
 20
2845.0
 30
0.0
 11
11503.19395691447
 21
2845.0
 31
0.0
  0
LINE
  5
2225C
330
747D
100
AcDbEntity
  8
破線
  6
HIDDEN
 48
5.0
100
AcDbLine
 10
11518.19395691447
 20
2995.0
 30
0.0
 11
11503.19395691447
 21
2847.3
 31
0.0
  0
LINE
  5
2225D
330
747D
100
AcDbEntity
  8
破線
  6
HIDDEN
 48
5.0
100
AcDbLine
 10
11503.19395691447
 20
2847.3
 30
0.0
 11
11503.19395691447
 21
2845.0
 31
0.0
  0
LINE
  5
2225E
330
747D
100
AcDbEntity
  8
破線
  6
HIDDEN
 48
5.0
100
AcDbLine
 10
11558.19395691447
 20
2995.0
 30
0.0
 11
11573.19395691447
 21
2847.3
 31
0.0
  0
LINE
  5
2225F
330
747D
100
AcDbEntity
  8
破線
  6
HIDDEN
 48
5.0
100
AcDbLine
 10
11573.19395691447
 20
2847.3
 30
0.0
 11
11573.19395691447
 21
2845.0
 31
0.0
  0
LINE
  5
22260
330
747D
100
AcDbEntity
  8
破線
  6
HIDDEN
 48
5.0
100
AcDbLine
 10
9348.193956914474
 20
2845.0
 30
0.0
 11
9418.193956914475
 21
2845.0
 31
0.0
  0
LINE
  5
22261
330
747D
100
AcDbEntity
  8
破線
  6
HIDDEN
 48
5.0
100
AcDbLine
 10
9348.193956914474
 20
2847.299999999999
 30
0.0
 11
9348.193956914474
 21
2845.0
 31
0.0
  0
LINE
  5
22262
330
747D
100
AcDbEntity
  8
破線
  6
HIDDEN
 48
5.0
100
AcDbLine
 10
9418.193956914475
 20
2847.299999999999
 30
0.0
 11
9418.193956914475
 21
2845.0
 31
0.0
  0
LINE
  5
22263
330
747D
100
AcDbEntity
  8
破線
  6
HIDDEN
 48
5.0
100
AcDbLine
 10
9363.193956914475
 20
2995.000000000001
 30
0.0
 11
9348.193956914474
 21
2847.299999999999
 31
0.0
  0
LINE
  5
22264
330
747D
100
AcDbEntity
  8
破線
  6
HIDDEN
 48
5.0
100
AcDbLine
 10
9403.193956914474
 20
2995.0
 30
0.0
 11
9418.193956914475
 21
2847.299999999999
 31
0.0
  0
LINE
  5
22265
330
747D
100
AcDbEntity
  8
部品1
 48
50.0
100
AcDbLine
 10
9363.193956914475
 20
3140.000000000001
 30
0.0
 11
9363.193956914475
 21
3000.0
 31
0.0
  0
LINE
  5
22266
330
747D
100
AcDbEntity
  8
部品1
 48
50.0
100
AcDbLine
 10
9403.193956914474
 20
3140.0
 30
0.0
 11
9403.193956914474
 21
3000.0
 31
0.0
  0
LINE
  5
22267
330
747D
100
AcDbEntity
  8
部品1
100
AcDbLine
 10
9368.193956914474
 20
3145.000000000001
 30
0.0
 11
9398.193956914473
 21
3145.0
 31
0.0
  0
ARC
  5
22268
330
747D
100
AcDbEntity
  8
部品1
 48
50.0
100
AcDbCircle
 10
9368.193956914474
 20
3140.000000000001
 30
0.0
 40
5.0
100
AcDbArc
 50
90.0
 51
180.0
  0
ARC
  5
22269
330
747D
100
AcDbEntity
  8
部品1
 48
50.0
100
AcDbCircle
 10
9398.193956914473
 20
3140.0
 30
0.0
 40
5.0
100
AcDbArc
 50
0.0
 51
90.0
  0
LINE
  5
2226A
330
747D
100
AcDbEntity
  8
部品1
 48
50.0
100
AcDbLine
 10
11518.19395691447
 20
3140.0
 30
0.0
 11
11518.19395691447
 21
3000.0
 31
0.0
  0
LINE
  5
2226B
330
747D
100
AcDbEntity
  8
部品1
 48
50.0
100
AcDbLine
 10
11558.19395691447
 20
3140.0
 30
0.0
 11
11558.19395691447
 21
3000.0
 31
0.0
  0
LINE
  5
2226C
330
747D
100
AcDbEntity
  8
部品1
100
AcDbLine
 10
11553.19395691447
 20
3145.0
 30
0.0
 11
11523.19395691447
 21
3145.0
 31
0.0
  0
ARC
  5
2226D
330
747D
100
AcDbEntity
  8
部品1
 48
50.0
100
AcDbCircle
 10
11523.19395691447
 20
3140.0
 30
0.0
 40
5.0
100
AcDbArc
 50
90.0
 51
180.0
  0
ARC
  5
2226E
330
747D
100
AcDbEntity
  8
部品1
 48
50.0
100
AcDbCircle
 10
11553.19395691447
 20
3140.0
 30
0.0
 40
5.0
100
AcDbArc
 50
0.0
 51
90.0
  0
LINE
  5
2226F
330
747D
100
AcDbEntity
  8
破線
  6
HIDDEN
 48
5.0
100
AcDbLine
 10
11518.19395691447
 20
3000.0
 30
0.0
 11
11518.19395691447
 21
2995.0
 31
0.0
  0
LINE
  5
22270
330
747D
100
AcDbEntity
  8
破線
  6
HIDDEN
 48
5.0
100
AcDbLine
 10
11558.19395691447
 20
3000.0
 30
0.0
 11
11558.19395691447
 21
2995.0
 31
0.0
  0
LINE
  5
22271
330
747D
100
AcDbEntity
  8
破線
  6
HIDDEN
 48
5.0
100
AcDbLine
 10
9363.193956914482
 20
3000.0
 30
0.0
 11
9363.193956914482
 21
2995.000000000001
 31
0.0
  0
LINE
  5
22272
330
747D
100
AcDbEntity
  8
破線
  6
HIDDEN
 48
5.0
100
AcDbLine
 10
9403.193956914474
 20
3000.0
 30
0.0
 11
9403.193956914474
 21
2995.0
 31
0.0
  0
LINE
  5
22273
330
747D
100
AcDbEntity
  8
部品1
100
AcDbLine
 10
11558.19395691447
 20
3100.0
 30
0.0
 11
11565.69395691448
 21
3100.0
 31
0.0
  0
LINE
  5
22274
330
747D
100
AcDbEntity
  8
部品1
100
AcDbLine
 10
9403.193956914474
 20
3100.0
 30
0.0
 11
11518.19395691447
 21
3100.0
 31
0.0
  0
TEXT
  5
22275
330
747D
100
AcDbEntity
  8
部品1
100
AcDbText
 10
10178.40472522386
 20
2057.126442511658
 30
0.0
 40
135.0
  1
側面図
  7
STYLE2
100
AcDbText
  0
LWPOLYLINE
  5
22276
330
747D
100
AcDbEntity
  8
部品1
100
AcDbPolyline
 90
        4
 70
     1
 43
0.0
 10
10088.95862380025
 20
2250.019971730181
 10
10088.95862380025
 20
2010.127650184649
 10
10852.42929002869
 20
2010.127650184649
 10
10852.42929002869
 20
2250.019971730181
  0
LINE
  5
22277
330
747D
100
AcDbEntity
  8
細線
 48
50.0
100
AcDbLine
 10
9908.193956914475
 20
4940.0
 30
0.0
 11
9908.193956914475
 21
3150.0
 31
0.0
  0
LINE
  5
22278
330
747D
100
AcDbEntity
  8
細線
 48
50.0
100
AcDbLine
 10
9893.193956914474
 20
4940.0
 30
0.0
 11
9893.193956914474
 21
3150.0
 31
0.0
  0
LINE
  5
22279
330
747D
100
AcDbEntity
  8
細線
 48
50.0
100
AcDbLine
 10
10033.19395691447
 20
4940.0
 30
0.0
 11
10033.19395691447
 21
3150.0
 31
0.0
  0
LINE
  5
2227A
330
747D
100
AcDbEntity
  8
細線
 48
50.0
100
AcDbLine
 10
10048.19395691447
 20
4940.0
 30
0.0
 11
10048.19395691447
 21
3150.0
 31
0.0
  0
LINE
  5
2227B
330
747D
100
AcDbEntity
  8
細線
 48
50.0
100
AcDbLine
 10
10188.19395691447
 20
4940.0
 30
0.0
 11
10188.19395691447
 21
3150.0
 31
0.0
  0
LINE
  5
2227C
330
747D
100
AcDbEntity
  8
細線
 48
50.0
100
AcDbLine
 10
10173.19395691447
 20
4940.0
 30
0.0
 11
10173.19395691447
 21
3150.0
 31
0.0
  0
LINE
  5
2227D
330
747D
100
AcDbEntity
  8
細線
 48
50.0
100
AcDbLine
 10
9753.193956914474
 20
4940.0
 30
0.0
 11
9753.193956914474
 21
3150.0
 31
0.0
  0
LINE
  5
2227E
330
747D
100
AcDbEntity
  8
細線
 48
50.0
100
AcDbLine
 10
9768.193956914474
 20
4940.0
 30
0.0
 11
9768.193956914474
 21
3150.0
 31
0.0
  0
LINE
  5
2227F
330
747D
100
AcDbEntity
  8
細線
 48
50.0
100
AcDbLine
 10
9628.193956914474
 20
4940.0
 30
0.0
 11
9628.193956914474
 21
3150.0
 31
0.0
  0
LINE
  5
22280
330
747D
100
AcDbEntity
  8
細線
 48
50.0
100
AcDbLine
 10
9613.193956914475
 20
4940.0
 30
0.0
 11
9613.193956914475
 21
3150.0
 31
0.0
  0
LINE
  5
22281
330
747D
100
AcDbEntity
  8
細線
 48
50.0
100
AcDbLine
 10
9473.193956914474
 20
4940.0
 30
0.0
 11
9473.193956914474
 21
3150.0
 31
0.0
  0
LINE
  5
22282
330
747D
100
AcDbEntity
  8
細線
 48
50.0
100
AcDbLine
 10
9488.193956914475
 20
4940.0
 30
0.0
 11
9488.193956914475
 21
3150.0
 31
0.0
  0
DIMENSION
  5
22283
330
747D
100
AcDbEntity
  8
寸法
 48
50.0
100
AcDbDimension
  2
*D28
 10
11645.69395691447
 20
5573.657453579304
 30
0.0
 11
11851.74120100896
 21
5573.657453579304
 31
0.0
 70
   160
 71
     5
 42
80.0
  3
INABA_S40G
100
AcDbAlignedDimension
 13
11565.69395691447
 23
5121.810679611654
 33
0.0
 14
11645.69395691447
 24
5120.0
 34
0.0
100
AcDbRotatedDimension
1001
ACAD
1000
DSTYLE
1002
{
1070
   174
1070
     0
1070
   272
1070
     1
1070
   288
1070
     0
1070
   341
1005
0
1002
}
  0
LINE
  5
22284
330
747D
100
AcDbEntity
  8
部品1
100
AcDbLine
 10
10250.69395691447
 20
4940.0
 30
0.0
 11
10250.69395691447
 21
3150.0
 31
0.0
  0
LINE
  5
22285
330
747D
100
AcDbEntity
  8
細線
 48
50.0
100
AcDbLine
 10
10593.19395691447
 20
4940.0
 30
0.0
 11
10593.19395691447
 21
3150.0
 31
0.0
  0
LINE
  5
22286
330
747D
100
AcDbEntity
  8
細線
 48
50.0
100
AcDbLine
 10
10608.19395691448
 20
4940.0
 30
0.0
 11
10608.19395691448
 21
3150.0
 31
0.0
  0
LINE
  5
22287
330
747D
100
AcDbEntity
  8
細線
 48
50.0
100
AcDbLine
 10
10468.19395691447
 20
4940.0
 30
0.0
 11
10468.19395691447
 21
3150.0
 31
0.0
  0
LINE
  5
22288
330
747D
100
AcDbEntity
  8
細線
 48
50.0
100
AcDbLine
 10
10453.19395691448
 20
4940.0
 30
0.0
 11
10453.19395691448
 21
3150.0
 31
0.0
  0
LINE
  5
22289
330
747D
100
AcDbEntity
  8
細線
 48
50.0
100
AcDbLine
 10
10313.19395691448
 20
4940.0
 30
0.0
 11
10313.19395691448
 21
3150.0
 31
0.0
  0
LINE
  5
2228A
330
747D
100
AcDbEntity
  8
細線
 48
50.0
100
AcDbLine
 10
10328.19395691447
 20
4940.0
 30
0.0
 11
10328.19395691447
 21
3150.0
 31
0.0
  0
LINE
  5
2228B
330
747D
100
AcDbEntity
  8
部品1
100
AcDbLine
 10
10670.69395691447
 20
4940.0
 30
0.0
 11
10670.69395691447
 21
3150.0
 31
0.0
  0
LINE
  5
2228C
330
747D
100
AcDbEntity
  8
細線
 48
50.0
100
AcDbLine
 10
11168.19395691448
 20
4940.0
 30
0.0
 11
11168.19395691448
 21
3150.0
 31
0.0
  0
LINE
  5
2228D
330
747D
100
AcDbEntity
  8
細線
 48
50.0
100
AcDbLine
 10
11153.19395691448
 20
4940.0
 30
0.0
 11
11153.19395691448
 21
3150.0
 31
0.0
  0
LINE
  5
2228E
330
747D
100
AcDbEntity
  8
細線
 48
50.0
100
AcDbLine
 10
11293.19395691448
 20
4940.0
 30
0.0
 11
11293.19395691448
 21
3150.0
 31
0.0
  0
LINE
  5
2228F
330
747D
100
AcDbEntity
  8
細線
 48
50.0
100
AcDbLine
 10
11308.19395691448
 20
4940.0
 30
0.0
 11
11308.19395691448
 21
3150.0
 31
0.0
  0
LINE
  5
22290
330
747D
100
AcDbEntity
  8
細線
 48
50.0
100
AcDbLine
 10
11448.19395691448
 20
4940.0
 30
0.0
 11
11448.19395691448
 21
3150.0
 31
0.0
  0
LINE
  5
22291
330
747D
100
AcDbEntity
  8
細線
 48
50.0
100
AcDbLine
 10
11433.19395691448
 20
4940.0
 30
0.0
 11
11433.19395691448
 21
3150.0
 31
0.0
  0
DIMENSION
  5
22292
330
747D
100
AcDbEntity
  8
寸法
 48
50.0
100
AcDbDimension
  2
*D29
 10
8735.085550146115
 20
5049.34525887333
 30
0.0
 11
8745.751025405038
 21
5420.19192211503
 31
0.0
 70
   161
 71
     5
 42
141.0000000000009
  3
INABA_S40G
100
AcDbAlignedDimension
 13
9315.089977073055
 23
5173.72274883468
 33
0.0
 14
9311.036521516427
 24
5032.781025068967
 34
0.0
1001
ACAD
1000
DSTYLE
1002
{
1070
   174
1070
     0
1070
   272
1070
     1
1070
   288
1070
     0
1070
   341
1005
0
1002
}
  0
DIMENSION
  5
22293
330
747D
100
AcDbEntity
  8
寸法
 48
50.0
100
AcDbDimension
  2
*D30
 10
9133.69395366784
 20
3000.0
 30
0.0
 11
9133.69395366784
 21
2900.000000000001
 31
0.0
 70
   160
 71
     5
 42
200.0000000000009
  3
INABA_S40G
100
AcDbAlignedDimension
 13
9283.193956914479
 23
2799.999999999999
 33
0.0
 14
9258.193956914475
 24
3000.0
 34
0.0
 50
90.0
100
AcDbRotatedDimension
1001
ACAD
1000
DSTYLE
1002
{
1070
   174
1070
     0
1070
   272
1070
     1
1070
   288
1070
     0
1070
   341
1005
0
1002
}
  0
LINE
  5
22294
330
747D
100
AcDbEntity
  8
破線
 48
5.0
100
AcDbLine
 10
9483.193956914474
 20
2799.999999999998
 30
0.0
 11
9283.193956914479
 21
2799.999999999998
 31
0.0
  0
LINE
  5
22295
330
747D
100
AcDbEntity
  8
破線
 48
5.0
100
AcDbLine
 10
9483.193956914474
 20
3000.0
 30
0.0
 11
9483.193956914474
 21
2799.999999999998
 31
0.0
  0
LINE
  5
22296
330
747D
100
AcDbEntity
  8
破線
 48
5.0
100
AcDbLine
 10
9283.193956914475
 20
3000.0
 30
0.0
 11
9283.193956914479
 21
2799.999999999998
 31
0.0
  0
DIMENSION
  5
22297
330
747D
100
AcDbEntity
  8
寸法
 48
50.0
100
AcDbDimension
  2
*D31
 10
9283.193956914479
 20
2513.952670699622
 30
0.0
 11
9383.193956914476
 21
2513.952670699622
 31
0.0
 70
   160
 71
     5
 42
199.9999999999963
  3
INABA_S40G
100
AcDbAlignedDimension
 13
9483.193956914474
 23
2799.999999999998
 33
0.0
 14
9283.193956914479
 24
2799.999999999999
 34
0.0
100
AcDbRotatedDimension
  0
LINE
  5
22298
330
747D
100
AcDbEntity
  8
破線
 48
5.0
100
AcDbLine
 10
11638.19395691448
 20
3000.0
 30
0.0
 11
11638.19395691447
 21
2799.999999999998
 31
0.0
  0
LINE
  5
22299
330
747D
100
AcDbEntity
  8
破線
 48
5.0
100
AcDbLine
 10
11638.19395691447
 20
2799.999999999998
 30
0.0
 11
11438.19395691448
 21
2799.999999999999
 31
0.0
  0
LINE
  5
2229A
330
747D
100
AcDbEntity
  8
破線
 48
5.0
100
AcDbLine
 10
11438.19395691448
 20
3000.0
 30
0.0
 11
11438.19395691448
 21
2799.999999999999
 31
0.0
  0
TEXT
  5
227FF
330
747D
100
AcDbEntity
  8
文字
 62
     7
 48
50.0
100
AcDbText
 10
13209.4053442172
 20
50.98855793707116
 30
0.0
 40
100.0
  1
○床面積 ： 3.38㎡(1.02坪) 　
  7
STYLE2
100
AcDbText
  0
LINE
  5
22EC9
330
747D
100
AcDbEntity
  8
破線
 48
5.0
100
AcDbLine
 10
7259.896575106991
 20
2800.000000000002
 30
0.0
 11
7059.896575106989
 21
2800.000000000002
 31
0.0
  0
LINE
  5
22ECA
330
747D
100
AcDbEntity
  8
破線
 48
5.0
100
AcDbLine
 10
7059.896575106991
 20
3000.000000000002
 30
0.0
 11
7059.896575106991
 21
2800.000000000002
 31
0.0
  0
LINE
  5
22ECB
330
747D
100
AcDbEntity
  8
破線
 48
5.0
100
AcDbLine
 10
7259.896575106991
 20
3000.000000000002
 30
0.0
 11
7259.896575106991
 21
2800.000000000002
 31
0.0
  0
DIMENSION
  5
22ECC
330
747D
100
AcDbEntity
  8
寸法
 48
50.0
100
AcDbDimension
  2
*D32
 10
7059.896575106989
 20
2513.952670699624
 30
0.0
 11
7159.89657510699
 21
2513.952670699624
 31
0.0
 70
   160
 71
     5
 42
200.0000000000018
  3
INABA_S40G
100
AcDbAlignedDimension
 13
7259.896575106991
 23
2800.000000000002
 33
0.0
 14
7059.896575106989
 24
2800.000000000002
 34
0.0
100
AcDbRotatedDimension
  0
LINE
  5
22EE2
330
747D
100
AcDbEntity
  8
破線
 48
5.0
100
AcDbLine
 10
5529.896575106992
 20
2800.0
 30
0.0
 11
5729.896575106994
 21
2800.0
 31
0.0
  0
LINE
  5
22EE3
330
747D
100
AcDbEntity
  8
破線
 48
5.0
100
AcDbLine
 10
5529.896575106992
 20
3000.0
 30
0.0
 11
5529.896575106992
 21
2800.0
 31
0.0
  0
LINE
  5
22EE4
330
747D
100
AcDbEntity
  8
破線
 48
5.0
100
AcDbLine
 10
5729.896575106992
 20
3000.0
 30
0.0
 11
5729.896575106992
 21
2800.0
 31
0.0
  0
LINE
  5
22F7D
330
747D
100
AcDbEntity
  8
部品1
100
AcDbLine
 10
5657.896575106971
 20
9476.158584484041
 30
0.0
 11
5629.896575106972
 21
9476.158584484041
 31
0.0
  0
LINE
  5
22F7E
330
747D
100
AcDbEntity
  8
部品1
100
AcDbLine
 10
7131.896575107017
 20
9476.158584484171
 30
0.0
 11
7159.896575107016
 21
9476.158584484171
 31
0.0
  0
LINE
  5
22F7F
330
747D
100
AcDbEntity
  8
破線
 48
10.0
100
AcDbLine
 10
6676.896575107118
 20
9241.158584484237
 30
0.0
 11
5686.39657510694
 21
9241.158584484168
 31
0.0
  0
LINE
  5
22F80
330
747D
100
AcDbEntity
  8
破線
 48
10.0
100
AcDbLine
 10
6676.896575107126
 20
9191.158584484236
 30
0.0
 11
5686.39657510694
 21
9191.158584484167
 31
0.0
  0
LINE
  5
22FB8
330
747D
100
AcDbEntity
  8
破線
 48
10.0
100
AcDbLine
 10
6676.896575107161
 20
8526.158584484235
 30
0.0
 11
5686.396575106973
 21
8526.158584484166
 31
0.0
  0
LINE
  5
22FB9
330
747D
100
AcDbEntity
  8
破線
 48
10.0
100
AcDbLine
 10
6676.896575107154
 20
8576.158584484238
 30
0.0
 11
5686.396575106973
 21
8576.158584484169
 31
0.0
  0
LINE
  5
22FBA
330
747D
100
AcDbEntity
  8
破線
 48
10.0
100
AcDbLine
 10
5709.896575106957
 20
9191.158584484169
 30
0.0
 11
5709.896575106979
 21
8576.15858448417
 31
0.0
  0
LINE
  5
22FD1
330
747D
100
AcDbEntity
  8
部品1
 48
50.0
100
AcDbLine
 10
10730.69395691447
 20
3100.0
 30
0.0
 11
10730.69395691447
 21
3000.0
 31
0.0
  0
LINE
  5
22FD2
330
747D
100
AcDbEntity
  8
部品1
 48
50.0
100
AcDbLine
 10
10930.69395691447
 20
3100.0
 30
0.0
 11
10930.69395691447
 21
3000.0
 31
0.0
  0
LWPOLYLINE
  5
23056
330
747D
100
AcDbEntity
  8
部品1
 48
50.0
100
AcDbPolyline
 90
        4
 70
     1
 43
0.0
 10
5749.946575106991
 20
4020.25000000001
 10
5752.846575106993
 20
4020.25000000001
 10
5752.846575106993
 20
4029.750000000011
 10
5749.946575106991
 20
4029.750000000011
  0
CIRCLE
  5
23057
330
747D
100
AcDbEntity
  8
部品1
 48
50.0
100
AcDbCircle
 10
5751.396575106991
 20
4025.000000000011
 30
0.0
 40
9.0
  0
ARC
  5
23058
330
747D
100
AcDbEntity
  8
細線
 48
50.0
100
AcDbCircle
 10
5751.396575106991
 20
4025.000000000011
 30
0.0
 40
4.0
100
AcDbArc
 50
111.2538091853132
 51
248.7461908146868
  0
ARC
  5
23059
330
747D
100
AcDbEntity
  8
細線
 48
50.0
100
AcDbCircle
 10
5751.396575106991
 20
4025.000000000011
 30
0.0
 40
17.5
100
AcDbArc
 50
306.4837370612677
 51
233.5162629387323
  0
LINE
  5
2305A
330
747D
100
AcDbEntity
  8
細線
 48
50.0
100
AcDbLine
 10
5761.396575106989
 20
4001.141039419128
 30
0.0
 11
5761.396575106992
 21
4010.125525219369
 31
0.0
  0
LINE
  5
2305B
330
747D
100
AcDbEntity
  8
細線
 48
50.0
100
AcDbLine
 10
5741.396575106992
 20
4001.14103941913
 30
0.0
 11
5741.396575106992
 21
4010.125525219366
 31
0.0
  0
ARC
  5
2305C
330
747D
100
AcDbEntity
  8
細線
 48
50.0
100
AcDbCircle
 10
5751.396575106991
 20
4025.000000000011
 30
0.0
 40
26.5
100
AcDbArc
 50
249.332683506403
 51
290.6673164933835
  0
ARC
  5
2305D
330
747D
100
AcDbEntity
  8
細線
 48
50.0
100
AcDbCircle
 10
5760.396575106984
 20
4001.141039419128
 30
0.0
 40
1.0
100
AcDbArc
 50
290.667316493597
 51
359.9999999998958
  0
ARC
  5
2305E
330
747D
100
AcDbEntity
  8
細線
 48
50.0
100
AcDbCircle
 10
5742.396575106992
 20
4001.14103941913
 30
0.0
 40
1.0
100
AcDbArc
 50
180.0
 51
249.3326835066164
  0
ARC
  5
2305F
330
747D
100
AcDbEntity
  8
細線
 48
50.0
100
AcDbCircle
 10
5740.396575106991
 20
4010.125525219366
 30
0.0
 40
1.0
100
AcDbArc
 50
0.0
 51
53.51626293873231
  0
ARC
  5
23060
330
747D
100
AcDbEntity
  8
細線
 48
50.0
100
AcDbCircle
 10
5762.396575106995
 20
4010.125525219369
 30
0.0
 40
1.0
100
AcDbArc
 50
126.4837370615282
 51
180.0
  0
ARC
  5
23061
330
747D
100
AcDbEntity
  8
細線
 48
50.0
100
AcDbCircle
 10
5751.396575106991
 20
4025.000000000011
 30
0.0
 40
21.5
100
AcDbArc
 50
255.8014401250294
 51
284.1985598749706
  0
ARC
  5
23062
330
747D
100
AcDbEntity
  8
細線
 48
50.0
100
AcDbCircle
 10
5751.396575106991
 20
4025.000000000011
 30
0.0
 40
16.5
100
AcDbArc
 50
251.9694646069326
 51
288.0305353930674
  0
LINE
  5
23063
330
747D
100
AcDbEntity
  8
細線
 48
50.0
100
AcDbLine
 10
5756.896575106992
 20
4004.447627874204
 30
0.0
 11
5756.896575106992
 21
4009.025019561541
 31
0.0
  0
LINE
  5
23064
330
747D
100
AcDbEntity
  8
細線
 48
50.0
100
AcDbLine
 10
5745.896575106992
 20
4004.447627874204
 30
0.0
 11
5745.896575106992
 21
4009.025019561539
 31
0.0
  0
ARC
  5
23065
330
747D
100
AcDbEntity
  8
細線
 48
50.0
100
AcDbCircle
 10
5746.196575106995
 20
4009.025019561539
 30
0.0
 40
0.3
100
AcDbArc
 50
71.96946460693259
 51
180.0
  0
ARC
  5
23066
330
747D
100
AcDbEntity
  8
細線
 48
50.0
100
AcDbCircle
 10
5756.596575106993
 20
4009.025019561541
 30
0.0
 40
0.3
100
AcDbArc
 50
0.0
 51
108.0305353930674
  0
ARC
  5
23067
330
747D
100
AcDbEntity
  8
細線
 48
50.0
100
AcDbCircle
 10
5756.596575106989
 20
4004.447627874204
 30
0.0
 40
0.3
100
AcDbArc
 50
284.1985598747557
 51
0.0000000001042204
  0
ARC
  5
23068
330
747D
100
AcDbEntity
  8
細線
 48
50.0
100
AcDbCircle
 10
5746.196575106995
 20
4004.447627874204
 30
0.0
 40
0.3
100
AcDbArc
 50
180.0
 51
255.8014401248145
  0
CIRCLE
  5
23069
330
747D
100
AcDbEntity
  8
細線
 48
50.0
100
AcDbCircle
 10
5751.396575106991
 20
4025.000000000011
 30
0.0
 40
12.0
  0
ARC
  5
2306A
330
747D
100
AcDbEntity
  8
部品1
 48
50.0
100
AcDbCircle
 10
5751.396575106991
 20
4075.00000000001
 30
0.0
 40
8.5
100
AcDbArc
 50
114.315739171091
 51
245.684260828909
  0
CIRCLE
  5
2306B
330
747D
100
AcDbEntity
  8
細線
 48
50.0
100
AcDbCircle
 10
5751.396575106991
 20
4075.00000000001
 30
0.0
 40
4.5
  0
LWPOLYLINE
  5
2306C
330
747D
100
AcDbEntity
  8
部品1
 48
50.0
100
AcDbPolyline
 90
        2
 70
     0
 43
0.0
 10
5747.896575106992
 20
4093.674849396993
 10
5747.896575106992
 20
4082.745966692426
  0
CIRCLE
  5
2306D
330
747D
100
AcDbEntity
  8
部品1
 48
50.0
100
AcDbCircle
 10
5751.396575106991
 20
4075.00000000001
 30
0.0
 40
19.0
  0
LWPOLYLINE
  5
2306E
330
747D
100
AcDbEntity
  8
部品1
 48
50.0
100
AcDbPolyline
 90
        2
 70
     0
 43
0.0
 10
5747.896575106992
 20
4067.254033307595
 10
5747.896575106992
 20
4056.325150603028
  0
LWPOLYLINE
  5
2306F
330
747D
100
AcDbEntity
  8
部品1
 48
50.0
100
AcDbPolyline
 90
        2
 70
     0
 43
0.0
 10
5754.896575106992
 20
4082.745966692426
 10
5754.896575106992
 20
4093.674849396993
  0
ARC
  5
23070
330
747D
100
AcDbEntity
  8
部品1
 48
50.0
100
AcDbCircle
 10
5751.396575106991
 20
4075.00000000001
 30
0.0
 40
8.5
100
AcDbArc
 50
294.315739171091
 51
65.68426082890896
  0
LWPOLYLINE
  5
23071
330
747D
100
AcDbEntity
  8
部品1
 48
50.0
100
AcDbPolyline
 90
        2
 70
     0
 43
0.0
 10
5754.896575106992
 20
4056.325150603028
 10
5754.896575106992
 20
4067.254033307595
  0
ARC
  5
23072
330
747D
100
AcDbEntity
  8
細線
 48
50.0
100
AcDbCircle
 10
5751.396575106991
 20
4075.00000000001
 30
0.0
 40
16.5
100
AcDbArc
 50
332.0012352654438
 51
27.99876473455621
  0
ARC
  5
23073
330
747D
100
AcDbEntity
  8
細線
 48
50.0
100
AcDbCircle
 10
5751.396575106991
 20
4075.00000000001
 30
0.0
 40
14.0
100
AcDbArc
 50
326.407443611277
 51
33.59255638872305
  0
LINE
  5
23074
330
747D
100
AcDbEntity
  8
細線
 48
50.0
100
AcDbLine
 10
5736.82777282266
 20
4082.745966692426
 30
0.0
 11
5739.734671317303
 21
4082.745966692426
 31
0.0
  0
LINE
  5
23075
330
747D
100
AcDbEntity
  8
細線
 48
50.0
100
AcDbLine
 10
5736.82777282266
 20
4067.254033307595
 30
0.0
 11
5739.734671317303
 21
4067.254033307595
 31
0.0
  0
LINE
  5
23076
330
747D
100
AcDbEntity
  8
細線
 48
50.0
100
AcDbLine
 10
5763.058478896681
 20
4082.745966692426
 30
0.0
 11
5765.965377391327
 21
4082.745966692426
 31
0.0
  0
LINE
  5
23077
330
747D
100
AcDbEntity
  8
細線
 48
50.0
100
AcDbLine
 10
5763.058478896681
 20
4067.254033307595
 30
0.0
 11
5765.965377391327
 21
4067.254033307595
 31
0.0
  0
ARC
  5
23078
330
747D
100
AcDbEntity
  8
細線
 48
50.0
100
AcDbCircle
 10
5751.396575106991
 20
4075.00000000001
 30
0.0
 40
14.0
100
AcDbArc
 50
146.4074436112769
 51
213.592556388723
  0
ARC
  5
23079
330
747D
100
AcDbEntity
  8
細線
 48
50.0
100
AcDbCircle
 10
5751.396575106991
 20
4075.00000000001
 30
0.0
 40
16.5
100
AcDbArc
 50
152.0012352654438
 51
207.9987647345562
  0
ARC
  5
2307A
330
747D
100
AcDbEntity
  8
部品1
 48
50.0
100
AcDbCircle
 10
5724.896575106992
 20
4100.50000000001
 30
0.0
 40
5.0
100
AcDbArc
 50
90.0
 51
180.0
  0
ARC
  5
2307B
330
747D
100
AcDbEntity
  8
部品1
 48
50.0
100
AcDbCircle
 10
5724.896575106992
 20
3989.500000000011
 30
0.0
 40
5.0
100
AcDbArc
 50
180.0
 51
270.0
  0
ARC
  5
2307C
330
747D
100
AcDbEntity
  8
部品1
 48
50.0
100
AcDbCircle
 10
5777.896575106992
 20
3989.500000000011
 30
0.0
 40
5.0
100
AcDbArc
 50
270.0
 51
0.0
  0
ARC
  5
2307D
330
747D
100
AcDbEntity
  8
部品1
 48
50.0
100
AcDbCircle
 10
5777.896575106992
 20
4100.50000000001
 30
0.0
 40
5.0
100
AcDbArc
 50
0.0
 51
90.0
  0
LINE
  5
2307E
330
747D
100
AcDbEntity
  8
部品1
 48
50.0
100
AcDbLine
 10
5719.896575106992
 20
3989.500000000011
 30
0.0
 11
5719.896575106992
 21
4100.50000000001
 31
0.0
  0
LINE
  5
2307F
330
747D
100
AcDbEntity
  8
部品1
 48
50.0
100
AcDbLine
 10
5777.896575106992
 20
3984.500000000011
 30
0.0
 11
5724.896575106992
 21
3984.500000000011
 31
0.0
  0
LINE
  5
23080
330
747D
100
AcDbEntity
  8
部品1
 48
50.0
100
AcDbLine
 10
5782.896575106992
 20
4100.50000000001
 30
0.0
 11
5782.896575106992
 21
3989.500000000011
 31
0.0
  0
ENDSEC
  0
SECTION
  2
OBJECTS
  0
DICTIONARY
  5
7471
330
0
100
AcDbDictionary
281
     1
  3
ACAD_COLOR
350
159B0
  3
ACAD_GROUP
350
7472
  3
ACAD_LAYOUT
350
159B1
  3
ACAD_MATERIAL
350
159AF
  3
ACAD_MLINESTYLE
350
7473
  3
ACAD_PLOTSETTINGS
350
159B2
  3
ACAD_PLOTSTYLENAME
350
159AD
  3
ACDBHEADERROUNDTRIPXREC
350
2308F
  3
AcDbVariableDictionary
350
2308B
  3
CONTENTDICTIONARY
350
E71C
  3
DRAWINGVARIABLESDICT
350
F3B9
  0
DICTIONARY
  5
1C640
330
7467
100
AcDbDictionary
280
     1
281
     1
  3
ACAD_LAYERSTATES
360
1C641
  0
DICTIONARY
  5
159B0
102
{ACAD_REACTORS
330
7471
102
}
330
7471
100
AcDbDictionary
281
     1
  0
DICTIONARY
  5
7472
102
{ACAD_REACTORS
330
7471
102
}
330
7471
100
AcDbDictionary
281
     1
  0
DICTIONARY
  5
159B1
102
{ACAD_REACTORS
330
7471
102
}
330
7471
100
AcDbDictionary
281
     1
  3
Model
350
159B3
  3
レイアウト1
350
159B4
  0
DICTIONARY
  5
159AF
102
{ACAD_REACTORS
330
7471
102
}
330
7471
100
AcDbDictionary
281
     1
  0
DICTIONARY
  5
7473
102
{ACAD_REACTORS
330
7471
102
}
330
7471
100
AcDbDictionary
281
     1
  3
STANDARD
350
7480
  0
DICTIONARY
  5
159B2
102
{ACAD_REACTORS
330
7471
102
}
330
7471
100
AcDbDictionary
281
     1
  0
ACDBDICTIONARYWDFLT
  5
159AD
102
{ACAD_REACTORS
330
7471
102
}
330
7471
100
AcDbDictionary
281
     1
  3
Normal
350
159AE
100
AcDbDictionaryWithDefault
340
159AE
  0
DICTIONARY
  5
2308F
102
{ACAD_REACTORS
330
7471
102
}
330
7471
100
AcDbDictionary
281
     1
  3
COLORDICT
350
23091
  3
MATERIALDICT
350
23090
  0
DICTIONARY
  5
2308B
102
{ACAD_REACTORS
330
7471
102
}
330
7471
100
AcDbDictionary
281
     1
  3
DIMASSOC
350
2308C
  3
PROJECTNAME
350
2308D
  0
DICTIONARY
  5
E71C
102
{ACAD_REACTORS
330
7471
102
}
330
7471
100
AcDbDictionary
281
     1
  0
DICTIONARY
  5
F3B9
102
{ACAD_REACTORS
330
7471
102
}
330
7471
100
AcDbDictionary
281
     1
1001
DRAWINGVARIABLESXDATA
1000
POLARMODE
1000
1
  0
DICTIONARY
  5
1C641
102
{ACAD_REACTORS
330
1C640
102
}
330
1C640
100
AcDbDictionary
281
     1
  0
LAYOUT
  5
159B3
102
{ACAD_XDICTIONARY
360
23092
102
}
102
{ACAD_REACTORS
330
159B1
102
}
330
159B1
100
AcDbPlotSettings
  1

  2
none_device
  4
Letter_(8.50_x_11.00_Inches)
  6

 40
6.349999904632568
 41
6.349999904632568
 42
6.350006103515625
 43
6.350006103515625
 44
215.8999938964844
 45
279.3999938964844
 46
0.0
 47
0.0
 48
0.0
 49
0.0
140
0.0
141
0.0
142
1.0
143
1.0
 70
 11952
 72
     1
 73
     1
 74
     0
  7

 75
     0
147
1.0
148
-4149.571981164617
149
65.56433826894044
100
AcDbLayout
  1
Model
 70
     1
 71
     0
 10
0.0
 20
0.0
 11
12.0
 21
9.0
 12
0.0
 22
0.0
 32
0.0
 14
0.0
 24
0.0
 34
0.0
 15
0.0
 25
0.0
 35
0.0
146
0.0
 13
0.0
 23
0.0
 33
0.0
 16
1.0
 26
0.0
 36
0.0
 17
0.0
 27
1.0
 37
0.0
 76
     0
330
747D
  0
LAYOUT
  5
159B4
102
{ACAD_XDICTIONARY
360
23094
102
}
102
{ACAD_REACTORS
330
159B1
102
}
330
159B1
100
AcDbPlotSettings
  1

  2
自動 EPSON LP-8400FX (TATENO 上)
  4

  6

 40
0.0
 41
0.0
 42
0.0
 43
0.0
 44
0.0
 45
0.0
 46
0.0
 47
0.0
 48
0.0
 49
0.0
140
0.0
141
0.0
142
1.0
143
1.0
 70
   688
 72
     0
 73
     0
 74
     5
  7
inaba.ctb
 75
    16
147
1.0
148
0.0
149
0.0
100
AcDbLayout
  1
レイアウト1
 70
     0
 71
     1
 10
0.0
 20
0.0
 11
420.0
 21
297.0
 12
0.0
 22
0.0
 32
0.0
 14
1.000000000000000E+20
 24
1.000000000000000E+20
 34
1.000000000000000E+20
 15
-1.000000000000000E+20
 25
-1.000000000000000E+20
 35
-1.000000000000000E+20
146
0.0
 13
0.0
 23
0.0
 33
0.0
 16
1.0
 26
0.0
 36
0.0
 17
0.0
 27
1.0
 37
0.0
 76
     0
330
747A
  0
MLINESTYLE
  5
7480
102
{ACAD_REACTORS
330
7473
102
}
330
7473
100
AcDbMlineStyle
  2
STANDARD
 70
     0
  3

 62
     0
 51
90.0
 52
90.0
 71
     2
 49
0.5
 62
   256
  6
BYLAYER
 49
-0.5
 62
   256
  6
BYLAYER
  0
ACDBPLACEHOLDER
  5
159AE
102
{ACAD_REACTORS
330
159AD
102
}
330
159AD
  0
XRECORD
  5
23091
102
{ACAD_REACTORS
330
2308F
102
}
330
2308F
100
AcDbXrecord
280
     1
340
159B0
  0
XRECORD
  5
23090
102
{ACAD_REACTORS
330
2308F
102
}
330
2308F
100
AcDbXrecord
280
     1
340
159AF
  0
DICTIONARYVAR
  5
2308C
102
{ACAD_REACTORS
330
2308B
102
}
330
2308B
100
DictionaryVariables
280
     0
  1
1
  0
DICTIONARYVAR
  5
2308D
102
{ACAD_REACTORS
330
2308B
102
}
330
2308B
100
DictionaryVariables
280
     0
  1

  0
DICTIONARY
  5
23092
330
159B3
100
AcDbDictionary
280
     1
281
     1
  3
ACAD_XREC_ROUNDTRIP
360
23093
  0
DICTIONARY
  5
23094
330
159B4
100
AcDbDictionary
280
     1
281
     1
  3
ACAD_XREC_ROUNDTRIP
360
23095
  0
XRECORD
  5
23093
102
{ACAD_REACTORS
330
23092
102
}
330
23092
100
AcDbXrecord
280
     1
102
SHADEPLOT
 70
     0
102
SHADEPLOTRESLEVEL
 70
     2
102
SHADEPLOTCUSTOMDPI
 70
   300
  0
XRECORD
  5
23095
102
{ACAD_REACTORS
330
23094
102
}
330
23094
100
AcDbXrecord
280
     1
102
SHADEPLOT
 70
     0
102
SHADEPLOTRESLEVEL
 70
     2
102
SHADEPLOTCUSTOMDPI
 70
   300
  0
ENDSEC
  0
EOF
