  0
SECTION
  2
HEADER
  9
$ACADVER
  1
AC1015
  9
$ACADMAINTVER
 70
    20
  9
$DWGCODEPAGE
  3
ANSI_932
  9
$INSBASE
 10
0.0
 20
0.0
 30
0.0
  9
$EXTMIN
 10
139.9999999999995
 20
-0.0000000000000909
 30
0.0
  9
$EXTMAX
 10
16307.2
 20
11409.6
 30
0.0
  9
$LIMMIN
 10
-25.79074261211281
 20
-125.8223078213959
  9
$LIMMAX
 10
16471.10331197129
 20
11496.44801950658
  9
$ORTHOMODE
 70
     0
  9
$REGENMODE
 70
     1
  9
$FILLMODE
 70
     1
  9
$QTEXTMODE
 70
     0
  9
$MIRRTEXT
 70
     1
  9
$LTSCALE
 40
20.0
  9
$ATTMODE
 70
     1
  9
$TEXTSIZE
 40
4.0
  9
$TRACEWID
 40
1.0
  9
$TEXTSTYLE
  7
STYLE1
  9
$CLAYER
  8
部品1
  9
$CELTYPE
  6
BYLAYER
  9
$CECOLOR
 62
   256
  9
$CELTSCALE
 40
50.0
  9
$DISPSILH
 70
     0
  9
$DIMSCALE
 40
40.0
  9
$DIMASZ
 40
2.5
  9
$DIMEXO
 40
0.5
  9
$DIMDLI
 40
7.0
  9
$DIMRND
 40
0.0
  9
$DIMDLE
 40
0.0
  9
$DIMEXE
 40
1.5
  9
$DIMTP
 40
0.0
  9
$DIMTM
 40
0.0
  9
$DIMTXT
 40
3.0
  9
$DIMCEN
 40
0.0
  9
$DIMTSZ
 40
0.0
  9
$DIMTOL
 70
     0
  9
$DIMLIM
 70
     0
  9
$DIMTIH
 70
     0
  9
$DIMTOH
 70
     0
  9
$DIMSE1
 70
     0
  9
$DIMSE2
 70
     0
  9
$DIMTAD
 70
     3
  9
$DIMZIN
 70
     8
  9
$DIMBLK
  1

  9
$DIMASO
 70
     1
  9
$DIMSHO
 70
     1
  9
$DIMPOST
  1

  9
$DIMAPOST
  1

  9
$DIMALT
 70
     0
  9
$DIMALTD
 70
     2
  9
$DIMALTF
 40
0.0394
  9
$DIMLFAC
 40
1.0
  9
$DIMTOFL
 70
     1
  9
$DIMTVP
 40
0.0
  9
$DIMTIX
 70
     1
  9
$DIMSOXD
 70
     0
  9
$DIMSAH
 70
     1
  9
$DIMBLK1
  1
DOTSMALL
  9
$DIMBLK2
  1
DOTSMALL
  9
$DIMSTYLE
  2
INABA_S40G
  9
$DIMCLRD
 70
     0
  9
$DIMCLRE
 70
     0
  9
$DIMCLRT
 70
     7
  9
$DIMTFAC
 40
1.0
  9
$DIMGAP
 40
1.0
  9
$DIMJUST
 70
     0
  9
$DIMSD1
 70
     0
  9
$DIMSD2
 70
     0
  9
$DIMTOLJ
 70
     1
  9
$DIMTZIN
 70
     0
  9
$DIMALTZ
 70
     0
  9
$DIMALTTZ
 70
     0
  9
$DIMUPT
 70
     1
  9
$DIMDEC
 70
     1
  9
$DIMTDEC
 70
     4
  9
$DIMALTU
 70
     2
  9
$DIMALTTD
 70
     2
  9
$DIMTXSTY
  7
STYLE1
  9
$DIMAUNIT
 70
     0
  9
$DIMADEC
 70
     0
  9
$DIMALTRND
 40
0.0
  9
$DIMAZIN
 70
     0
  9
$DIMDSEP
 70
    46
  9
$DIMATFIT
 70
     3
  9
$DIMFRAC
 70
     0
  9
$DIMLDRBLK
  1

  9
$DIMLUNIT
 70
     2
  9
$DIMLWD
 70
    -2
  9
$DIMLWE
 70
    -2
  9
$DIMTMOVE
 70
     0
  9
$LUNITS
 70
     2
  9
$LUPREC
 70
     1
  9
$SKETCHINC
 40
1.0
  9
$FILLETRAD
 40
3.0
  9
$AUNITS
 70
     0
  9
$AUPREC
 70
     0
  9
$MENU
  1
acad
  9
$ELEVATION
 40
0.0
  9
$PELEVATION
 40
0.0
  9
$THICKNESS
 40
0.0
  9
$LIMCHECK
 70
     0
  9
$CHAMFERA
 40
0.0
  9
$CHAMFERB
 40
0.0
  9
$CHAMFERC
 40
0.0
  9
$CHAMFERD
 40
0.0
  9
$SKPOLY
 70
     0
  9
$TDCREATE
 40
2451368.612993866
  9
$TDUCREATE
 40
2451368.237993866
  9
$TDUPDATE
 40
2455575.682503796
  9
$TDUUPDATE
 40
2455575.307503796
  9
$TDINDWG
 40
0.5944292593
  9
$TDUSRTIMER
 40
0.5944292593
  9
$USRTIMER
 70
     1
  9
$ANGBASE
 50
0.0
  9
$ANGDIR
 70
     0
  9
$PDMODE
 70
     3
  9
$PDSIZE
 40
2.0
  9
$PLINEWID
 40
0.0
  9
$SPLFRAME
 70
     0
  9
$SPLINETYPE
 70
     6
  9
$SPLINESEGS
 70
     8
  9
$HANDSEED
  5
17682
  9
$SURFTAB1
 70
     6
  9
$SURFTAB2
 70
     6
  9
$SURFTYPE
 70
     6
  9
$SURFU
 70
     6
  9
$SURFV
 70
     6
  9
$UCSBASE
  2

  9
$UCSNAME
  2

  9
$UCSORG
 10
0.0
 20
0.0
 30
0.0
  9
$UCSXDIR
 10
1.0
 20
0.0
 30
0.0
  9
$UCSYDIR
 10
0.0
 20
1.0
 30
0.0
  9
$UCSORTHOREF
  2

  9
$UCSORTHOVIEW
 70
     0
  9
$UCSORGTOP
 10
0.0
 20
0.0
 30
0.0
  9
$UCSORGBOTTOM
 10
0.0
 20
0.0
 30
0.0
  9
$UCSORGLEFT
 10
0.0
 20
0.0
 30
0.0
  9
$UCSORGRIGHT
 10
0.0
 20
0.0
 30
0.0
  9
$UCSORGFRONT
 10
0.0
 20
0.0
 30
0.0
  9
$UCSORGBACK
 10
0.0
 20
0.0
 30
0.0
  9
$PUCSBASE
  2

  9
$PUCSNAME
  2

  9
$PUCSORG
 10
0.0
 20
0.0
 30
0.0
  9
$PUCSXDIR
 10
1.0
 20
0.0
 30
0.0
  9
$PUCSYDIR
 10
0.0
 20
1.0
 30
0.0
  9
$PUCSORTHOREF
  2

  9
$PUCSORTHOVIEW
 70
     0
  9
$PUCSORGTOP
 10
0.0
 20
0.0
 30
0.0
  9
$PUCSORGBOTTOM
 10
0.0
 20
0.0
 30
0.0
  9
$PUCSORGLEFT
 10
0.0
 20
0.0
 30
0.0
  9
$PUCSORGRIGHT
 10
0.0
 20
0.0
 30
0.0
  9
$PUCSORGFRONT
 10
0.0
 20
0.0
 30
0.0
  9
$PUCSORGBACK
 10
0.0
 20
0.0
 30
0.0
  9
$USERI1
 70
     0
  9
$USERI2
 70
     0
  9
$USERI3
 70
     0
  9
$USERI4
 70
     0
  9
$USERI5
 70
     0
  9
$USERR1
 40
0.0
  9
$USERR2
 40
0.0
  9
$USERR3
 40
0.0
  9
$USERR4
 40
0.0
  9
$USERR5
 40
0.0
  9
$WORLDVIEW
 70
     1
  9
$SHADEDGE
 70
     3
  9
$SHADEDIF
 70
    70
  9
$TILEMODE
 70
     1
  9
$MAXACTVP
 70
    16
  9
$PINSBASE
 10
0.0
 20
0.0
 30
0.0
  9
$PLIMCHECK
 70
     0
  9
$PEXTMIN
 10
1.000000000000000E+20
 20
1.000000000000000E+20
 30
1.000000000000000E+20
  9
$PEXTMAX
 10
-1.000000000000000E+20
 20
-1.000000000000000E+20
 30
-1.000000000000000E+20
  9
$PLIMMIN
 10
0.0
 20
0.0
  9
$PLIMMAX
 10
420.0
 20
297.0
  9
$UNITMODE
 70
     0
  9
$VISRETAIN
 70
     0
  9
$PLINEGEN
 70
     0
  9
$PSLTSCALE
 70
     0
  9
$TREEDEPTH
 70
  3020
  9
$CMLSTYLE
  2
STANDARD
  9
$CMLJUST
 70
     0
  9
$CMLSCALE
 40
1.0
  9
$PROXYGRAPHICS
 70
     1
  9
$MEASUREMENT
 70
     1
  9
$CELWEIGHT
370
    -1
  9
$ENDCAPS
280
     0
  9
$JOINSTYLE
280
     0
  9
$LWDISPLAY
290
     0
  9
$INSUNITS
 70
     0
  9
$HYPERLINKBASE
  1

  9
$STYLESHEET
  1
inaba.ctb
  9
$XEDIT
290
     1
  9
$CEPSNTYPE
380
     0
  9
$PSTYLEMODE
290
     1
  9
$FINGERPRINTGUID
  2
{1B4F40B0-BEC5-4398-932B-FE838675E985}
  9
$VERSIONGUID
  2
{87C87548-0488-4C68-97EA-2143ED1BD04B}
  9
$EXTNAMES
290
     1
  9
$PSVPSCALE
 40
0.0
  9
$OLESTARTUP
290
     0
  0
ENDSEC
  0
SECTION
  2
CLASSES
  0
CLASS
  1
ACDBDICTIONARYWDFLT
  2
AcDbDictionaryWithDefault
  3
ObjectDBX Classes
 90
        0
280
     0
281
     0
  0
CLASS
  1
DICTIONARYVAR
  2
AcDbDictionaryVar
  3
ObjectDBX Classes
 90
        0
280
     0
281
     0
  0
CLASS
  1
ACDBPLACEHOLDER
  2
AcDbPlaceHolder
  3
ObjectDBX Classes
 90
        0
280
     0
281
     0
  0
CLASS
  1
LAYOUT
  2
AcDbLayout
  3
ObjectDBX Classes
 90
        0
280
     0
281
     0
  0
ENDSEC
  0
SECTION
  2
TABLES
  0
TABLE
  2
VPORT
  5
746D
330
0
100
AcDbSymbolTable
 70
     2
  0
VPORT
  5
1767A
330
746D
100
AcDbSymbolTableRecord
100
AcDbViewportTableRecord
  2
*Active
 70
     0
 10
0.0
 20
0.0
 11
1.0
 21
1.0
 12
8223.761025238504
 22
5704.608037261908
 13
0.0
 23
0.0
 14
10.0
 24
10.0
 15
10.0
 25
10.0
 16
0.0
 26
0.0
 36
1.0
 17
0.0
 27
0.0
 37
0.0
 40
11495.08541324274
 41
1.525925925925925
 42
50.0
 43
0.0
 44
0.0
 50
0.0
 51
0.0
 71
     0
 72
     0
 73
     1
 74
     0
 75
     0
 76
     0
 77
     0
 78
     0
281
     0
 65
     1
110
0.0
120
0.0
130
0.0
111
1.0
121
0.0
131
0.0
112
0.0
122
1.0
132
0.0
 79
     0
146
0.0
  0
ENDTAB
  0
TABLE
  2
LTYPE
  5
746A
330
0
100
AcDbSymbolTable
 70
     4
  0
LTYPE
  5
7477
330
746A
100
AcDbSymbolTableRecord
100
AcDbLinetypeTableRecord
  2
BYBLOCK
 70
     0
  3

 72
    65
 73
     0
 40
0.0
  0
LTYPE
  5
7478
330
746A
100
AcDbSymbolTableRecord
100
AcDbLinetypeTableRecord
  2
BYLAYER
 70
     0
  3

 72
    65
 73
     0
 40
0.0
  0
LTYPE
  5
7479
330
746A
100
AcDbSymbolTableRecord
100
AcDbLinetypeTableRecord
  2
CONTINUOUS
 70
     0
  3
Solid line
 72
    65
 73
     0
 40
0.0
  0
LTYPE
  5
7816
330
746A
100
AcDbSymbolTableRecord
100
AcDbLinetypeTableRecord
  2
CENTER
 70
     0
  3
____ _ ____ _ ____ _ ____ _ ____ _ ____ _ ____ 
 72
    65
 73
     4
 40
2.0
 49
1.25
 74
     0
 49
-0.25
 74
     0
 49
0.25
 74
     0
 49
-0.25
 74
     0
  0
LTYPE
  5
781A
330
746A
100
AcDbSymbolTableRecord
100
AcDbLinetypeTableRecord
  2
HIDDEN
 70
     0
  3
__ __ __ __ __ __ __ __ __ __ __ __ __ __ __ __
 72
    65
 73
     2
 40
0.375
 49
0.25
 74
     0
 49
-0.125
 74
     0
  0
LTYPE
  5
781B
330
746A
100
AcDbSymbolTableRecord
100
AcDbLinetypeTableRecord
  2
PHANTOM
 70
     0
  3
______  __  __  ______  __  __  ______  __  __ 
 72
    65
 73
     6
 40
2.5
 49
1.25
 74
     0
 49
-0.25
 74
     0
 49
0.25
 74
     0
 49
-0.25
 74
     0
 49
0.25
 74
     0
 49
-0.25
 74
     0
  0
ENDTAB
  0
TABLE
  2
LAYER
  5
7467
102
{ACAD_XDICTIONARY
360
15E91
102
}
330
0
100
AcDbSymbolTable
 70
    12
  0
LAYER
  5
7474
330
7467
100
AcDbSymbolTableRecord
100
AcDbLayerTableRecord
  2
0
 70
     0
 62
     7
  6
CONTINUOUS
370
    -3
390
15CF5
  0
LAYER
  5
DEB2
330
7467
100
AcDbSymbolTableRecord
100
AcDbLayerTableRecord
  2
センター
 70
     0
 62
     3
  6
CENTER
370
    -3
390
15CF5
  0
LAYER
  5
DEB3
330
7467
100
AcDbSymbolTableRecord
100
AcDbLayerTableRecord
  2
寸法
 70
     0
 62
     4
  6
CONTINUOUS
370
    -3
390
15CF5
  0
LAYER
  5
DEB4
330
7467
100
AcDbSymbolTableRecord
100
AcDbLayerTableRecord
  2
部品1
 70
     0
 62
     7
  6
CONTINUOUS
370
    -3
390
15CF5
  0
LAYER
  5
DEB5
330
7467
100
AcDbSymbolTableRecord
100
AcDbLayerTableRecord
  2
補助
 70
     0
 62
    -1
  6
CONTINUOUS
370
    -3
390
15CF5
  0
LAYER
  5
DEB6
330
7467
100
AcDbSymbolTableRecord
100
AcDbLayerTableRecord
  2
文字
 70
     0
 62
     7
  6
CONTINUOUS
370
    -3
390
15CF5
  0
LAYER
  5
F255
330
7467
100
AcDbSymbolTableRecord
100
AcDbLayerTableRecord
  2
DEFPOINTS
 70
     0
 62
     7
  6
CONTINUOUS
290
     0
370
    -3
390
15CF5
  0
LAYER
  5
10B54
330
7467
100
AcDbSymbolTableRecord
100
AcDbLayerTableRecord
  2
仕様書枠
 70
     0
 62
   230
  6
CONTINUOUS
370
    -3
390
15CF5
  0
LAYER
  5
11729
330
7467
100
AcDbSymbolTableRecord
100
AcDbLayerTableRecord
  2
Ｇ．Ｌ
 70
     0
 62
    30
  6
CONTINUOUS
370
    -3
390
15CF5
  0
LAYER
  5
1173F
330
7467
100
AcDbSymbolTableRecord
100
AcDbLayerTableRecord
  2
細線
 70
     0
 62
     5
  6
CONTINUOUS
370
    -3
390
15CF5
  0
LAYER
  5
12CC4
330
7467
100
AcDbSymbolTableRecord
100
AcDbLayerTableRecord
  2
想像線
 70
     0
 62
     6
  6
PHANTOM
370
    -3
390
15CF5
  0
LAYER
  5
142E2
330
7467
100
AcDbSymbolTableRecord
100
AcDbLayerTableRecord
  2
破線
 70
     0
 62
     2
  6
HIDDEN
370
    -3
390
15CF5
  0
ENDTAB
  0
TABLE
  2
STYLE
  5
7468
330
0
100
AcDbSymbolTable
 70
     4
  0
STYLE
  5
7475
330
7468
100
AcDbSymbolTableRecord
100
AcDbTextStyleTableRecord
  2
STANDARD
 70
     0
 40
0.0
 41
1.0
 50
0.0
 71
     0
 42
4.0
  3
txt
  4
C:\AutoCAD LT\bigfont.shx
  0
STYLE
  5
F706
330
7468
100
AcDbSymbolTableRecord
100
AcDbTextStyleTableRecord
  2
STYLE1
 70
     0
 40
0.0
 41
1.0
 50
0.0
 71
     0
 42
4.0
  3
isocp.shx
  4
bigfont.shx
  0
STYLE
  5
103BF
330
7468
100
AcDbSymbolTableRecord
100
AcDbTextStyleTableRecord
  2
STYLE2
 70
     0
 40
0.0
 41
1.0
 50
0.0
 71
     0
 42
100.0
  3
MS PGothic.ttf
  4

1001
ACAD
1000
MS PGothic
1071
    32818
  0
STYLE
  5
16F3F
330
7468
100
AcDbSymbolTableRecord
100
AcDbTextStyleTableRecord
  2
STYLE3
 70
     0
 40
0.0
 41
1.0
 50
0.0
 71
     0
 42
100.0
  3
DFPGothic-EB.ttf
  4

1001
ACAD
1000
DFPGothic-EB
1071
    32818
  0
ENDTAB
  0
TABLE
  2
VIEW
  5
746B
330
0
100
AcDbSymbolTable
 70
     0
  0
ENDTAB
  0
TABLE
  2
UCS
  5
746C
330
0
100
AcDbSymbolTable
 70
     0
  0
ENDTAB
  0
TABLE
  2
APPID
  5
746E
330
0
100
AcDbSymbolTable
 70
     6
  0
APPID
  5
7476
330
746E
100
AcDbSymbolTableRecord
100
AcDbRegAppTableRecord
  2
ACAD
 70
     0
  0
APPID
  5
DEA9
330
746E
100
AcDbSymbolTableRecord
100
AcDbRegAppTableRecord
  2
CONTENTBLOCKICON
 70
     0
  0
APPID
  5
DEAA
330
746E
100
AcDbSymbolTableRecord
100
AcDbRegAppTableRecord
  2
CONTENTBLOCKDESCRIPTION
 70
     0
  0
APPID
  5
E71D
330
746E
100
AcDbSymbolTableRecord
100
AcDbRegAppTableRecord
  2
CONTENTTABDATA
 70
     0
  0
APPID
  5
E71E
330
746E
100
AcDbSymbolTableRecord
100
AcDbRegAppTableRecord
  2
CONTENTCURRENTTAB
 70
     0
  0
APPID
  5
F3BA
330
746E
100
AcDbSymbolTableRecord
100
AcDbRegAppTableRecord
  2
DRAWINGVARIABLESXDATA
 70
     0
  0
ENDTAB
  0
TABLE
  2
DIMSTYLE
  5
746F
330
0
100
AcDbSymbolTable
 70
     5
100
AcDbDimStyleTable
 71
     0
  0
DIMSTYLE
105
7484
330
746F
100
AcDbSymbolTableRecord
100
AcDbDimStyleTableRecord
  2
JIS
 70
     0
 41
2.5
 42
1.0
 43
7.0
 44
1.0
 73
     0
 74
     0
 77
     1
 78
     8
140
2.5
141
0.0
143
0.0394
147
0.0
172
     1
174
     1
175
     1
340
7475
  0
DIMSTYLE
105
F71F
102
{ACAD_REACTORS
330
162C1
330
162C2
330
1631E
330
1631F
330
16320
330
16396
330
1639D
330
163A0
330
163A2
330
163C0
330
163C4
330
163C5
330
163C6
330
163C7
330
163CF
330
163D4
330
16B56
330
16B5A
330
16B5C
330
16B6F
330
16BAE
330
16BAF
330
16BB0
330
16BB1
330
16BB5
330
16BB6
330
16BB7
330
16BB8
330
17295
330
17375
102
}
330
746F
100
AcDbSymbolTableRecord
100
AcDbDimStyleTableRecord
  2
INABA_S40G
 70
     0
 40
40.0
 41
2.5
 42
0.5
 43
7.0
 44
1.5
 73
     0
 74
     0
 77
     3
 78
     8
140
3.0
141
0.0
143
0.0394
147
1.0
172
     1
173
     1
174
     1
178
     7
271
     1
288
     1
340
F706
341
F770
343
F770
344
F770
  0
DIMSTYLE
105
15E90
102
{ACAD_REACTORS
330
17042
330
17296
102
}
330
746F
100
AcDbSymbolTableRecord
100
AcDbDimStyleTableRecord
  2
INABA_S40
 70
     0
 40
40.0
 41
2.5
 42
0.5
 43
7.0
 44
1.5
 73
     0
 74
     0
 77
     3
 78
     8
140
3.0
141
0.0
143
0.0394
147
1.0
172
     1
173
     1
174
     1
175
     1
178
     7
340
7475
  0
DIMSTYLE
105
16F40
330
746F
100
AcDbSymbolTableRecord
100
AcDbDimStyleTableRecord
  2
INABA_S50G
 70
     0
 41
125.0
 42
25.0
 43
7.0
 44
75.0
 73
     0
 74
     0
 77
     3
 78
     8
140
150.0
141
0.0
143
0.0394
147
25.0
172
     1
173
     1
174
     1
175
     1
178
     7
271
     1
340
F706
341
F770
343
F770
344
F770
  0
DIMSTYLE
105
17600
330
746F
100
AcDbSymbolTableRecord
100
AcDbDimStyleTableRecord
  2
INABA_S20G
 70
     0
 40
20.0
 41
2.5
 42
0.5
 43
7.0
 44
1.5
 73
     0
 74
     0
 77
     3
 78
     8
140
3.0
141
0.0
143
0.0394
147
1.0
172
     1
173
     1
174
     1
178
     7
271
     1
340
F706
341
F770
343
F770
344
F770
  0
ENDTAB
  0
TABLE
  2
BLOCK_RECORD
  5
7466
330
0
100
AcDbSymbolTable
 70
    34
  0
BLOCK_RECORD
  5
747D
330
7466
100
AcDbSymbolTableRecord
100
AcDbBlockTableRecord
  2
*MODEL_SPACE
340
15CFA
  0
BLOCK_RECORD
  5
747A
330
7466
100
AcDbSymbolTableRecord
100
AcDbBlockTableRecord
  2
*PAPER_SPACE
340
15CFB
  0
BLOCK_RECORD
  5
F770
330
7466
100
AcDbSymbolTableRecord
100
AcDbBlockTableRecord
  2
_DOTSMALL
340
0
102
{BLKREFS
331
16DD3
331
16DD4
331
16DDC
331
16DDD
331
16DE6
331
16DE7
331
16DF1
331
16DF2
331
16DFA
331
16DFB
331
16E03
331
16E04
331
16E0E
331
16E0F
331
16E17
331
16E18
331
16E21
331
16E22
331
16E2B
331
16E2C
331
16E34
331
16E35
331
16E3D
331
16E3E
331
16EA8
331
16EA9
331
16EC5
331
16EC6
331
16ED0
331
16ED1
331
16ED9
331
16EDA
331
16EE2
331
16EE3
331
16EED
331
16EEE
331
17560
331
17561
331
17574
331
17575
331
17588
331
17589
331
1759C
331
1759D
331
175A5
331
175A6
331
175B0
331
175B1
331
175B9
331
175BA
331
175C2
331
175C3
331
175CD
331
175CE
331
175D6
331
175D7
331
175DF
331
175E0
331
175F1
331
175F2
102
}
  0
BLOCK_RECORD
  5
15D9A
330
7466
100
AcDbSymbolTableRecord
100
AcDbBlockTableRecord
  2
_DOT
340
0
102
{BLKREFS
331
1756B
331
1756C
331
1757D
331
1757E
102
}
  0
BLOCK_RECORD
  5
163F5
330
7466
100
AcDbSymbolTableRecord
100
AcDbBlockTableRecord
  2
*D2
340
0
  0
BLOCK_RECORD
  5
16403
330
7466
100
AcDbSymbolTableRecord
100
AcDbBlockTableRecord
  2
*D3
340
0
  0
BLOCK_RECORD
  5
1640F
330
7466
100
AcDbSymbolTableRecord
100
AcDbBlockTableRecord
  2
*D4
340
0
  0
BLOCK_RECORD
  5
1641B
330
7466
100
AcDbSymbolTableRecord
100
AcDbBlockTableRecord
  2
*D5
340
0
  0
BLOCK_RECORD
  5
16429
330
7466
100
AcDbSymbolTableRecord
100
AcDbBlockTableRecord
  2
*D6
340
0
  0
BLOCK_RECORD
  5
16443
330
7466
100
AcDbSymbolTableRecord
100
AcDbBlockTableRecord
  2
*D7
340
0
  0
BLOCK_RECORD
  5
1644F
330
7466
100
AcDbSymbolTableRecord
100
AcDbBlockTableRecord
  2
*D8
340
0
  0
BLOCK_RECORD
  5
1645B
330
7466
100
AcDbSymbolTableRecord
100
AcDbBlockTableRecord
  2
*D9
340
0
  0
BLOCK_RECORD
  5
16467
330
7466
100
AcDbSymbolTableRecord
100
AcDbBlockTableRecord
  2
*D10
340
0
  0
BLOCK_RECORD
  5
16475
330
7466
100
AcDbSymbolTableRecord
100
AcDbBlockTableRecord
  2
*D11
340
0
  0
BLOCK_RECORD
  5
1648D
330
7466
100
AcDbSymbolTableRecord
100
AcDbBlockTableRecord
  2
*D12
340
0
  0
BLOCK_RECORD
  5
16499
330
7466
100
AcDbSymbolTableRecord
100
AcDbBlockTableRecord
  2
*D13
340
0
  0
BLOCK_RECORD
  5
164A7
330
7466
100
AcDbSymbolTableRecord
100
AcDbBlockTableRecord
  2
*D14
340
0
  0
BLOCK_RECORD
  5
164B3
330
7466
100
AcDbSymbolTableRecord
100
AcDbBlockTableRecord
  2
*D15
340
0
  0
BLOCK_RECORD
  5
164C1
330
7466
100
AcDbSymbolTableRecord
100
AcDbBlockTableRecord
  2
*D16
340
0
  0
BLOCK_RECORD
  5
164CD
330
7466
100
AcDbSymbolTableRecord
100
AcDbBlockTableRecord
  2
*D17
340
0
  0
BLOCK_RECORD
  5
16C01
330
7466
100
AcDbSymbolTableRecord
100
AcDbBlockTableRecord
  2
*D18
340
0
  0
BLOCK_RECORD
  5
16C0D
330
7466
100
AcDbSymbolTableRecord
100
AcDbBlockTableRecord
  2
*D19
340
0
  0
BLOCK_RECORD
  5
16C19
330
7466
100
AcDbSymbolTableRecord
100
AcDbBlockTableRecord
  2
*D20
340
0
  0
BLOCK_RECORD
  5
16C26
330
7466
100
AcDbSymbolTableRecord
100
AcDbBlockTableRecord
  2
*D21
340
0
  0
BLOCK_RECORD
  5
16C33
330
7466
100
AcDbSymbolTableRecord
100
AcDbBlockTableRecord
  2
*D22
340
0
  0
BLOCK_RECORD
  5
16C3F
330
7466
100
AcDbSymbolTableRecord
100
AcDbBlockTableRecord
  2
*D23
340
0
  0
BLOCK_RECORD
  5
16C4D
330
7466
100
AcDbSymbolTableRecord
100
AcDbBlockTableRecord
  2
*D24
340
0
  0
BLOCK_RECORD
  5
16C59
330
7466
100
AcDbSymbolTableRecord
100
AcDbBlockTableRecord
  2
*D25
340
0
  0
BLOCK_RECORD
  5
16C65
330
7466
100
AcDbSymbolTableRecord
100
AcDbBlockTableRecord
  2
*D26
340
0
  0
BLOCK_RECORD
  5
16C73
330
7466
100
AcDbSymbolTableRecord
100
AcDbBlockTableRecord
  2
*D27
340
0
  0
BLOCK_RECORD
  5
16C80
330
7466
100
AcDbSymbolTableRecord
100
AcDbBlockTableRecord
  2
*D28
340
0
  0
BLOCK_RECORD
  5
16C8C
330
7466
100
AcDbSymbolTableRecord
100
AcDbBlockTableRecord
  2
*D29
340
0
  0
BLOCK_RECORD
  5
170A6
330
7466
100
AcDbSymbolTableRecord
100
AcDbBlockTableRecord
  2
*D30
340
0
  0
BLOCK_RECORD
  5
17387
330
7466
100
AcDbSymbolTableRecord
100
AcDbBlockTableRecord
  2
*D31
340
0
  0
BLOCK_RECORD
  5
17393
330
7466
100
AcDbSymbolTableRecord
100
AcDbBlockTableRecord
  2
*D32
340
0
  0
BLOCK_RECORD
  5
173DF
330
7466
100
AcDbSymbolTableRecord
100
AcDbBlockTableRecord
  2
*D33
340
0
  0
ENDTAB
  0
ENDSEC
  0
SECTION
  2
BLOCKS
  0
BLOCK
  5
7489
330
747D
100
AcDbEntity
  8
0
100
AcDbBlockBegin
  2
*MODEL_SPACE
 70
     0
 10
0.0
 20
0.0
 30
0.0
  3
*MODEL_SPACE
  1

  0
ENDBLK
  5
748A
330
747D
100
AcDbEntity
  8
0
100
AcDbBlockEnd
  0
BLOCK
  5
7487
330
747A
100
AcDbEntity
 67
     1
  8
0
100
AcDbBlockBegin
  2
*PAPER_SPACE
 70
     0
 10
0.0
 20
0.0
 30
0.0
  3
*PAPER_SPACE
  1

  0
ENDBLK
  5
7488
330
747A
100
AcDbEntity
 67
     1
  8
0
100
AcDbBlockEnd
  0
BLOCK
  5
F771
330
F770
100
AcDbEntity
  8
0
 48
50.0
100
AcDbBlockBegin
  2
_DOTSMALL
 70
     0
 10
0.0
 20
0.0
 30
0.0
  3
_DOTSMALL
  1

  0
LWPOLYLINE
  5
F772
330
F770
100
AcDbEntity
  8
0
  6
ByBlock
 62
     0
 48
50.0
100
AcDbPolyline
 90
        2
 70
     1
 43
0.5
 10
-0.0625
 20
0.0
 42
1.0
 10
0.0625
 20
0.0
 42
1.0
  0
ENDBLK
  5
F776
330
F770
100
AcDbEntity
  8
0
 48
50.0
100
AcDbBlockEnd
  0
BLOCK
  5
15D9B
330
15D9A
100
AcDbEntity
  8
0
 48
50.0
100
AcDbBlockBegin
  2
_DOT
 70
     0
 10
0.0
 20
0.0
 30
0.0
  3
_DOT
  1

  0
LWPOLYLINE
  5
15D9C
330
15D9A
100
AcDbEntity
  8
0
  6
ByBlock
 62
     0
 48
50.0
100
AcDbPolyline
 90
        2
 70
     1
 43
0.5
 10
-0.25
 20
0.0
 42
1.0
 10
0.25
 20
0.0
 42
1.0
  0
LINE
  5
15D9D
330
15D9A
100
AcDbEntity
  8
0
  6
ByBlock
 62
     0
 48
50.0
100
AcDbLine
 10
-0.5
 20
0.0
 30
0.0
 11
-1.0
 21
0.0
 31
0.0
  0
ENDBLK
  5
15D9E
330
15D9A
100
AcDbEntity
  8
0
 48
50.0
100
AcDbBlockEnd
  0
BLOCK
  5
16401
330
163F5
100
AcDbEntity
  8
0
 48
50.0
100
AcDbBlockBegin
  2
*D2
 70
     1
 10
0.0
 20
0.0
 30
0.0
  3
*D2
  1

  0
LINE
  5
16EE8
330
163F5
100
AcDbEntity
  8
寸法
 62
     0
 48
50.0
370
    -2
100
AcDbLine
 10
10784.95389271235
 20
4954.537219015429
 30
0.0
 11
10784.95389271235
 21
5393.6303883549
 31
0.0
  0
LINE
  5
16EE9
330
163F5
100
AcDbEntity
  8
寸法
 62
     0
 48
50.0
370
    -2
100
AcDbLine
 10
10734.95389271235
 20
4954.537219015432
 30
0.0
 11
10734.95389271235
 21
5393.6303883549
 31
0.0
  0
LINE
  5
16EEA
330
163F5
100
AcDbEntity
  8
寸法
 62
     0
 48
50.0
370
    -2
100
AcDbLine
 10
10734.95389271235
 20
5333.6303883549
 30
0.0
 11
10634.95389271235
 21
5333.6303883549
 31
0.0
  0
LINE
  5
16EEB
330
163F5
100
AcDbEntity
  8
寸法
 62
     0
 48
50.0
370
    -2
100
AcDbLine
 10
10784.95389271235
 20
5333.6303883549
 30
0.0
 11
11204.48641818107
 21
5333.6303883549
 31
0.0
  0
LINE
  5
16EEC
330
163F5
100
AcDbEntity
  8
寸法
 62
     0
 48
50.0
370
    -2
100
AcDbLine
 10
10734.95389271235
 20
5333.6303883549
 30
0.0
 11
10784.95389271235
 21
5333.6303883549
 31
0.0
  0
INSERT
  5
16EED
330
163F5
100
AcDbEntity
  8
寸法
 62
     0
 48
50.0
370
    -2
100
AcDbBlockReference
  2
_DOTSMALL
 10
10734.95389271235
 20
5333.6303883549
 30
0.0
 41
100.0
 42
100.0
 43
100.0
  0
INSERT
  5
16EEE
330
163F5
100
AcDbEntity
  8
寸法
 62
     0
 48
50.0
370
    -2
100
AcDbBlockReference
  2
_DOTSMALL
 10
10784.95389271235
 20
5333.6303883549
 30
0.0
 41
100.0
 42
100.0
 43
100.0
 50
180.0
  0
MTEXT
  5
16EEF
330
163F5
100
AcDbEntity
  8
寸法
 62
     7
 48
50.0
100
AcDbMText
 10
11098.43917408658
 20
5433.6303883549
 30
0.0
 40
120.0
 41
0.0
 71
     5
 72
     1
  1
\A1;50
  7
STYLE1
 73
     1
 44
1.0
1001
ACAD
1000
MTEXTBEGIN
1070
    73
1070
     1
1070
    44
1040
1.0
1070
    74
1070
     0
1000
MTEXTEND
  0
POINT
  5
16EF0
330
163F5
100
AcDbEntity
  8
DEFPOINTS
 62
     0
 48
50.0
100
AcDbPoint
 10
10784.95389271235
 20
4934.537219015429
 30
0.0
  0
POINT
  5
16EF1
330
163F5
100
AcDbEntity
  8
DEFPOINTS
 62
     0
 48
50.0
100
AcDbPoint
 10
10734.95389271235
 20
4934.537219015432
 30
0.0
  0
POINT
  5
16EF2
330
163F5
100
AcDbEntity
  8
DEFPOINTS
 62
     0
 48
50.0
100
AcDbPoint
 10
10734.95389271235
 20
5333.6303883549
 30
0.0
  0
ENDBLK
  5
16402
330
163F5
100
AcDbEntity
  8
0
 48
50.0
100
AcDbBlockEnd
  0
BLOCK
  5
1640D
330
16403
100
AcDbEntity
  8
0
 48
50.0
100
AcDbBlockBegin
  2
*D3
 70
     1
 10
0.0
 20
0.0
 30
0.0
  3
*D3
  1

  0
LINE
  5
16EDF
330
16403
100
AcDbEntity
  8
寸法
 62
     0
 48
50.0
370
    -2
100
AcDbLine
 10
8952.953892712367
 20
4642.537219015427
 30
0.0
 11
8613.747863500217
 21
4642.537219015427
 31
0.0
  0
LINE
  5
16EE0
330
16403
100
AcDbEntity
  8
寸法
 62
     0
 48
50.0
370
    -2
100
AcDbLine
 10
8952.953892712367
 20
2917.537219015427
 30
0.0
 11
8613.747863500215
 21
2917.537219015427
 31
0.0
  0
LINE
  5
16EE1
330
16403
100
AcDbEntity
  8
寸法
 62
     0
 48
50.0
370
    -2
100
AcDbLine
 10
8673.747863500217
 20
4642.537219015427
 30
0.0
 11
8673.747863500215
 21
2917.537219015427
 31
0.0
  0
INSERT
  5
16EE2
330
16403
100
AcDbEntity
  8
寸法
 62
     0
 48
50.0
370
    -2
100
AcDbBlockReference
  2
_DOTSMALL
 10
8673.747863500217
 20
4642.537219015427
 30
0.0
 41
100.0
 42
100.0
 43
100.0
 50
90.0
  0
INSERT
  5
16EE3
330
16403
100
AcDbEntity
  8
寸法
 62
     0
 48
50.0
370
    -2
100
AcDbBlockReference
  2
_DOTSMALL
 10
8673.747863500215
 20
2917.537219015427
 30
0.0
 41
100.0
 42
100.0
 43
100.0
 50
270.0
  0
MTEXT
  5
16EE4
330
16403
100
AcDbEntity
  8
寸法
 62
     7
 48
50.0
100
AcDbMText
 10
8573.736052476593
 20
3771.170238032952
 30
0.0
 40
120.0
 41
0.0
 71
     5
 72
     1
  1
\A1;有効開口部高サ1725
  7
STYLE1
 11
0.0000000000000001
 21
1.0
 31
0.0
 73
     1
 44
1.0
1001
ACAD
1000
MTEXTBEGIN
1070
    73
1070
     1
1070
    44
1040
1.0
1070
    74
1070
     0
1000
MTEXTEND
  0
POINT
  5
16EE5
330
16403
100
AcDbEntity
  8
DEFPOINTS
 62
     0
 48
50.0
100
AcDbPoint
 10
8972.953892712366
 20
4642.537219015427
 30
0.0
  0
POINT
  5
16EE6
330
16403
100
AcDbEntity
  8
DEFPOINTS
 62
     0
 48
50.0
100
AcDbPoint
 10
8972.953892712366
 20
2917.537219015427
 30
0.0
  0
POINT
  5
16EE7
330
16403
100
AcDbEntity
  8
DEFPOINTS
 62
     0
 48
50.0
100
AcDbPoint
 10
8673.747863500215
 20
2917.537219015427
 30
0.0
  0
ENDBLK
  5
1640E
330
16403
100
AcDbEntity
  8
0
 48
50.0
100
AcDbBlockEnd
  0
BLOCK
  5
16419
330
1640F
100
AcDbEntity
  8
0
 48
50.0
100
AcDbBlockBegin
  2
*D4
 70
     1
 10
0.0
 20
0.0
 30
0.0
  3
*D4
  1

  0
LINE
  5
16ED6
330
1640F
100
AcDbEntity
  8
寸法
 62
     0
 48
50.0
370
    -2
100
AcDbLine
 10
8894.953892712349
 20
4954.537219015432
 30
0.0
 11
8894.953892712349
 21
5610.156487973345
 31
0.0
  0
LINE
  5
16ED7
330
1640F
100
AcDbEntity
  8
寸法
 62
     0
 48
50.0
370
    -2
100
AcDbLine
 10
10784.95389271235
 20
4954.537219015429
 30
0.0
 11
10784.95389271235
 21
5610.156487973345
 31
0.0
  0
LINE
  5
16ED8
330
1640F
100
AcDbEntity
  8
寸法
 62
     0
 48
50.0
370
    -2
100
AcDbLine
 10
8894.953892712349
 20
5550.156487973345
 30
0.0
 11
10784.95389271235
 21
5550.156487973345
 31
0.0
  0
INSERT
  5
16ED9
330
1640F
100
AcDbEntity
  8
寸法
 62
     0
 48
50.0
370
    -2
100
AcDbBlockReference
  2
_DOTSMALL
 10
8894.953892712349
 20
5550.156487973345
 30
0.0
 41
100.0
 42
100.0
 43
100.0
 50
180.0
  0
INSERT
  5
16EDA
330
1640F
100
AcDbEntity
  8
寸法
 62
     0
 48
50.0
370
    -2
100
AcDbBlockReference
  2
_DOTSMALL
 10
10784.95389271235
 20
5550.156487973345
 30
0.0
 41
100.0
 42
100.0
 43
100.0
  0
MTEXT
  5
16EDB
330
1640F
100
AcDbEntity
  8
寸法
 62
     7
 48
50.0
100
AcDbMText
 10
9839.953892712351
 20
5650.156487973345
 30
0.0
 40
120.0
 41
0.0
 71
     5
 72
     1
  1
\A1;1890
  7
STYLE1
 73
     1
 44
1.0
1001
ACAD
1000
MTEXTBEGIN
1070
    73
1070
     1
1070
    44
1040
1.0
1070
    74
1070
     0
1000
MTEXTEND
  0
POINT
  5
16EDC
330
1640F
100
AcDbEntity
  8
DEFPOINTS
 62
     0
 48
50.0
100
AcDbPoint
 10
8894.953892712349
 20
4934.537219015432
 30
0.0
  0
POINT
  5
16EDD
330
1640F
100
AcDbEntity
  8
DEFPOINTS
 62
     0
 48
50.0
100
AcDbPoint
 10
10784.95389271235
 20
4934.537219015429
 30
0.0
  0
POINT
  5
16EDE
330
1640F
100
AcDbEntity
  8
DEFPOINTS
 62
     0
 48
50.0
100
AcDbPoint
 10
10784.95389271235
 20
5550.156487973345
 30
0.0
  0
ENDBLK
  5
1641A
330
1640F
100
AcDbEntity
  8
0
 48
50.0
100
AcDbBlockEnd
  0
BLOCK
  5
16427
330
1641B
100
AcDbEntity
  8
0
 48
50.0
100
AcDbBlockBegin
  2
*D5
 70
     1
 10
0.0
 20
0.0
 30
0.0
  3
*D5
  1

  0
LINE
  5
16ECB
330
1641B
100
AcDbEntity
  8
寸法
 62
     0
 48
50.0
370
    -2
100
AcDbLine
 10
8944.95389271235
 20
4954.537219015433
 30
0.0
 11
8944.95389271235
 21
5393.6303883549
 31
0.0
  0
LINE
  5
16ECC
330
1641B
100
AcDbEntity
  8
寸法
 62
     0
 48
50.0
370
    -2
100
AcDbLine
 10
8894.953892712349
 20
4954.537219015432
 30
0.0
 11
8894.953892712349
 21
5393.6303883549
 31
0.0
  0
LINE
  5
16ECD
330
1641B
100
AcDbEntity
  8
寸法
 62
     0
 48
50.0
370
    -2
100
AcDbLine
 10
8944.95389271235
 20
5333.6303883549
 30
0.0
 11
9044.953892712349
 21
5333.6303883549
 31
0.0
  0
LINE
  5
16ECE
330
1641B
100
AcDbEntity
  8
寸法
 62
     0
 48
50.0
370
    -2
100
AcDbLine
 10
8894.953892712349
 20
5333.6303883549
 30
0.0
 11
8475.421367243617
 21
5333.6303883549
 31
0.0
  0
LINE
  5
16ECF
330
1641B
100
AcDbEntity
  8
寸法
 62
     0
 48
50.0
370
    -2
100
AcDbLine
 10
8944.95389271235
 20
5333.6303883549
 30
0.0
 11
8894.953892712349
 21
5333.6303883549
 31
0.0
  0
INSERT
  5
16ED0
330
1641B
100
AcDbEntity
  8
寸法
 62
     0
 48
50.0
370
    -2
100
AcDbBlockReference
  2
_DOTSMALL
 10
8944.95389271235
 20
5333.6303883549
 30
0.0
 41
100.0
 42
100.0
 43
100.0
 50
180.0
  0
INSERT
  5
16ED1
330
1641B
100
AcDbEntity
  8
寸法
 62
     0
 48
50.0
370
    -2
100
AcDbBlockReference
  2
_DOTSMALL
 10
8894.953892712349
 20
5333.6303883549
 30
0.0
 41
100.0
 42
100.0
 43
100.0
  0
MTEXT
  5
16ED2
330
1641B
100
AcDbEntity
  8
寸法
 62
     7
 48
50.0
100
AcDbMText
 10
8581.468611338102
 20
5433.6303883549
 30
0.0
 40
120.0
 41
0.0
 71
     5
 72
     1
  1
\A1;50
  7
STYLE1
 73
     1
 44
1.0
1001
ACAD
1000
MTEXTBEGIN
1070
    73
1070
     1
1070
    44
1040
1.0
1070
    74
1070
     0
1000
MTEXTEND
  0
POINT
  5
16ED3
330
1641B
100
AcDbEntity
  8
DEFPOINTS
 62
     0
 48
50.0
100
AcDbPoint
 10
8944.95389271235
 20
4934.537219015433
 30
0.0
  0
POINT
  5
16ED4
330
1641B
100
AcDbEntity
  8
DEFPOINTS
 62
     0
 48
50.0
100
AcDbPoint
 10
8894.953892712349
 20
4934.537219015432
 30
0.0
  0
POINT
  5
16ED5
330
1641B
100
AcDbEntity
  8
DEFPOINTS
 62
     0
 48
50.0
100
AcDbPoint
 10
8894.953892712349
 20
5333.6303883549
 30
0.0
  0
ENDBLK
  5
16428
330
1641B
100
AcDbEntity
  8
0
 48
50.0
100
AcDbBlockEnd
  0
BLOCK
  5
16433
330
16429
100
AcDbEntity
  8
0
 48
50.0
100
AcDbBlockBegin
  2
*D6
 70
     1
 10
0.0
 20
0.0
 30
0.0
  3
*D6
  1

  0
LINE
  5
16EC2
330
16429
100
AcDbEntity
  8
寸法
 62
     0
 48
50.0
370
    -2
100
AcDbLine
 10
10734.95389271235
 20
4954.537219015432
 30
0.0
 11
10734.95389271235
 21
5393.6303883549
 31
0.0
  0
LINE
  5
16EC3
330
16429
100
AcDbEntity
  8
寸法
 62
     0
 48
50.0
370
    -2
100
AcDbLine
 10
8944.95389271235
 20
4954.537219015433
 30
0.0
 11
8944.95389271235
 21
5393.6303883549
 31
0.0
  0
LINE
  5
16EC4
330
16429
100
AcDbEntity
  8
寸法
 62
     0
 48
50.0
370
    -2
100
AcDbLine
 10
10734.95389271235
 20
5333.6303883549
 30
0.0
 11
8944.95389271235
 21
5333.6303883549
 31
0.0
  0
INSERT
  5
16EC5
330
16429
100
AcDbEntity
  8
寸法
 62
     0
 48
50.0
370
    -2
100
AcDbBlockReference
  2
_DOTSMALL
 10
10734.95389271235
 20
5333.6303883549
 30
0.0
 41
100.0
 42
100.0
 43
100.0
  0
INSERT
  5
16EC6
330
16429
100
AcDbEntity
  8
寸法
 62
     0
 48
50.0
370
    -2
100
AcDbBlockReference
  2
_DOTSMALL
 10
8944.95389271235
 20
5333.6303883549
 30
0.0
 41
100.0
 42
100.0
 43
100.0
 50
180.0
  0
MTEXT
  5
16EC7
330
16429
100
AcDbEntity
  8
寸法
 62
     7
 48
50.0
100
AcDbMText
 10
9839.953892712351
 20
5433.6303883549
 30
0.0
 40
120.0
 41
0.0
 71
     5
 72
     1
  1
\A1;柱外寸法1790
  7
STYLE1
 73
     1
 44
1.0
1001
ACAD
1000
MTEXTBEGIN
1070
    73
1070
     1
1070
    44
1040
1.0
1070
    74
1070
     0
1000
MTEXTEND
  0
POINT
  5
16EC8
330
16429
100
AcDbEntity
  8
DEFPOINTS
 62
     0
 48
50.0
100
AcDbPoint
 10
10734.95389271235
 20
4934.537219015432
 30
0.0
  0
POINT
  5
16EC9
330
16429
100
AcDbEntity
  8
DEFPOINTS
 62
     0
 48
50.0
100
AcDbPoint
 10
8944.95389271235
 20
4934.537219015433
 30
0.0
  0
POINT
  5
16ECA
330
16429
100
AcDbEntity
  8
DEFPOINTS
 62
     0
 48
50.0
100
AcDbPoint
 10
8944.95389271235
 20
5333.6303883549
 30
0.0
  0
ENDBLK
  5
16434
330
16429
100
AcDbEntity
  8
0
 48
50.0
100
AcDbBlockEnd
  0
BLOCK
  5
1644D
330
16443
100
AcDbEntity
  8
0
 48
50.0
100
AcDbBlockBegin
  2
*D7
 70
     1
 10
0.0
 20
0.0
 30
0.0
  3
*D7
  1

  0
LINE
  5
175DC
330
16443
100
AcDbEntity
  8
寸法
 62
     0
 48
50.0
370
    -2
100
AcDbLine
 10
8968.094908863735
 20
9307.045602913268
 30
0.0
 11
8878.808167610058
 21
8973.822948112294
 31
0.0
  0
LINE
  5
175DD
330
16443
100
AcDbEntity
  8
寸法
 62
     0
 48
50.0
370
    -2
100
AcDbLine
 10
9821.094908863747
 20
9307.045602913261
 30
0.0
 11
9731.808167610072
 21
8973.822948112294
 31
0.0
  0
LINE
  5
175DE
330
16443
100
AcDbEntity
  8
寸法
 62
     0
 48
50.0
370
    -2
100
AcDbLine
 10
8894.885119155926
 20
9033.822948112295
 30
0.0
 11
9747.885119155938
 21
9033.822948112295
 31
0.0
  0
INSERT
  5
175DF
330
16443
100
AcDbEntity
  8
寸法
 62
     0
 48
50.0
370
    -2
100
AcDbBlockReference
  2
_DOTSMALL
 10
8894.885119155926
 20
9033.822948112295
 30
0.0
 41
100.0
 42
100.0
 43
100.0
 50
180.0
  0
INSERT
  5
175E0
330
16443
100
AcDbEntity
  8
寸法
 62
     0
 48
50.0
370
    -2
100
AcDbBlockReference
  2
_DOTSMALL
 10
9747.885119155938
 20
9033.822948112295
 30
0.0
 41
100.0
 42
100.0
 43
100.0
  0
MTEXT
  5
175E1
330
16443
100
AcDbEntity
  8
寸法
 62
     7
 48
50.0
100
AcDbMText
 10
9352.800954830625
 20
9133.822948112294
 30
0.0
 40
120.0
 41
0.0
 71
     5
 72
     1
  1
\A1;853
  7
STYLE1
 73
     1
 44
1.0
1001
ACAD
1000
MTEXTBEGIN
1070
    73
1070
     1
1070
    44
1040
1.0
1070
    74
1070
     0
1000
MTEXTEND
  0
POINT
  5
175E2
330
16443
100
AcDbEntity
  8
DEFPOINTS
 62
     0
 48
50.0
100
AcDbPoint
 10
8973.453892712358
 20
9327.045602913267
 30
0.0
  0
POINT
  5
175E3
330
16443
100
AcDbEntity
  8
DEFPOINTS
 62
     0
 48
50.0
100
AcDbPoint
 10
9826.453892712368
 20
9327.045602913262
 30
0.0
  0
POINT
  5
175E4
330
16443
100
AcDbEntity
  8
DEFPOINTS
 62
     0
 48
50.0
100
AcDbPoint
 10
9747.885119155938
 20
9033.822948112295
 30
0.0
  0
ENDBLK
  5
1644E
330
16443
100
AcDbEntity
  8
0
 48
50.0
100
AcDbBlockEnd
  0
BLOCK
  5
16459
330
1644F
100
AcDbEntity
  8
0
 48
50.0
100
AcDbBlockBegin
  2
*D8
 70
     1
 10
0.0
 20
0.0
 30
0.0
  3
*D8
  1

  0
LINE
  5
16EA5
330
1644F
100
AcDbEntity
  8
寸法
 62
     0
 48
50.0
370
    -2
100
AcDbLine
 10
9044.953892712353
 20
2539.537219015426
 30
0.0
 11
9044.953892712353
 21
2213.489889715049
 31
0.0
  0
LINE
  5
16EA6
330
1644F
100
AcDbEntity
  8
寸法
 62
     0
 48
50.0
370
    -2
100
AcDbLine
 10
8844.95389271235
 20
2539.537219015426
 30
0.0
 11
8844.95389271235
 21
2213.489889715049
 31
0.0
  0
LINE
  5
16EA7
330
1644F
100
AcDbEntity
  8
寸法
 62
     0
 48
50.0
370
    -2
100
AcDbLine
 10
9044.953892712353
 20
2273.489889715049
 30
0.0
 11
8844.95389271235
 21
2273.489889715049
 31
0.0
  0
INSERT
  5
16EA8
330
1644F
100
AcDbEntity
  8
寸法
 62
     0
 48
50.0
370
    -2
100
AcDbBlockReference
  2
_DOTSMALL
 10
9044.953892712353
 20
2273.489889715049
 30
0.0
 41
100.0
 42
100.0
 43
100.0
  0
INSERT
  5
16EA9
330
1644F
100
AcDbEntity
  8
寸法
 62
     0
 48
50.0
370
    -2
100
AcDbBlockReference
  2
_DOTSMALL
 10
8844.95389271235
 20
2273.489889715049
 30
0.0
 41
100.0
 42
100.0
 43
100.0
 50
180.0
  0
MTEXT
  5
16EAA
330
1644F
100
AcDbEntity
  8
寸法
 62
     7
 48
50.0
100
AcDbMText
 10
8944.95389271235
 20
2373.501700738671
 30
0.0
 40
120.0
 41
0.0
 71
     5
 72
     1
  1
\A1;200
  7
STYLE1
 73
     1
 44
1.0
1001
ACAD
1000
MTEXTBEGIN
1070
    73
1070
     1
1070
    44
1040
1.0
1070
    74
1070
     0
1000
MTEXTEND
  0
POINT
  5
16EAB
330
1644F
100
AcDbEntity
  8
DEFPOINTS
 62
     0
 48
50.0
100
AcDbPoint
 10
9044.953892712353
 20
2559.537219015426
 30
0.0
  0
POINT
  5
16EAC
330
1644F
100
AcDbEntity
  8
DEFPOINTS
 62
     0
 48
50.0
100
AcDbPoint
 10
8844.95389271235
 20
2559.537219015426
 30
0.0
  0
POINT
  5
16EAD
330
1644F
100
AcDbEntity
  8
DEFPOINTS
 62
     0
 48
50.0
100
AcDbPoint
 10
8844.95389271235
 20
2273.489889715049
 30
0.0
  0
ENDBLK
  5
1645A
330
1644F
100
AcDbEntity
  8
0
 48
50.0
100
AcDbBlockEnd
  0
BLOCK
  5
16465
330
1645B
100
AcDbEntity
  8
0
 48
50.0
100
AcDbBlockBegin
  2
*D9
 70
     1
 10
0.0
 20
0.0
 30
0.0
  3
*D9
  1

  0
LINE
  5
175D3
330
1645B
100
AcDbEntity
  8
寸法
 62
     0
 48
50.0
370
    -2
100
AcDbLine
 10
8999.953892712358
 20
9827.045602913269
 30
0.0
 11
8999.953892712358
 21
10163.85262972159
 31
0.0
  0
LINE
  5
175D4
330
1645B
100
AcDbEntity
  8
寸法
 62
     0
 48
50.0
370
    -2
100
AcDbLine
 10
10679.95389271235
 20
9827.045602913365
 30
0.0
 11
10679.95389271235
 21
10163.85262972159
 31
0.0
  0
LINE
  5
175D5
330
1645B
100
AcDbEntity
  8
寸法
 62
     0
 48
50.0
370
    -2
100
AcDbLine
 10
8999.953892712358
 20
10103.85262972159
 30
0.0
 11
10679.95389271235
 21
10103.85262972159
 31
0.0
  0
INSERT
  5
175D6
330
1645B
100
AcDbEntity
  8
寸法
 62
     0
 48
50.0
370
    -2
100
AcDbBlockReference
  2
_DOTSMALL
 10
8999.953892712358
 20
10103.85262972159
 30
0.0
 41
100.0
 42
100.0
 43
100.0
 50
180.0
  0
INSERT
  5
175D7
330
1645B
100
AcDbEntity
  8
寸法
 62
     0
 48
50.0
370
    -2
100
AcDbBlockReference
  2
_DOTSMALL
 10
10679.95389271235
 20
10103.85262972159
 30
0.0
 41
100.0
 42
100.0
 43
100.0
  0
MTEXT
  5
175D8
330
1645B
100
AcDbEntity
  8
寸法
 62
     7
 48
50.0
100
AcDbMText
 10
9839.953892712356
 20
10203.86444074521
 30
0.0
 40
120.0
 41
0.0
 71
     5
 72
     1
  1
\A1;4X420=1680
  7
STYLE1
 73
     1
 44
1.0
1001
ACAD
1000
MTEXTBEGIN
1070
    73
1070
     1
1070
    44
1040
1.0
1070
    74
1070
     0
1000
MTEXTEND
  0
POINT
  5
175D9
330
1645B
100
AcDbEntity
  8
DEFPOINTS
 62
     0
 48
50.0
100
AcDbPoint
 10
8999.953892712358
 20
9807.045602913269
 30
0.0
  0
POINT
  5
175DA
330
1645B
100
AcDbEntity
  8
DEFPOINTS
 62
     0
 48
50.0
100
AcDbPoint
 10
10679.95389271235
 20
9807.045602913364
 30
0.0
  0
POINT
  5
175DB
330
1645B
100
AcDbEntity
  8
DEFPOINTS
 62
     0
 48
50.0
100
AcDbPoint
 10
10679.95389271235
 20
10103.85262972159
 30
0.0
  0
ENDBLK
  5
16466
330
1645B
100
AcDbEntity
  8
0
 48
50.0
100
AcDbBlockEnd
  0
BLOCK
  5
16473
330
16467
100
AcDbEntity
  8
0
 48
50.0
100
AcDbBlockBegin
  2
*D10
 70
     1
 10
0.0
 20
0.0
 30
0.0
  3
*D10
  1

  0
LINE
  5
175C8
330
16467
100
AcDbEntity
  8
寸法
 62
     0
 48
50.0
370
    -2
100
AcDbLine
 10
10679.95389271235
 20
9827.045602913365
 30
0.0
 11
10679.95389271235
 21
10163.85262972157
 31
0.0
  0
LINE
  5
175C9
330
16467
100
AcDbEntity
  8
寸法
 62
     0
 48
50.0
370
    -2
100
AcDbLine
 10
10734.95389271236
 20
9827.045602913365
 30
0.0
 11
10734.95389271236
 21
10163.85262972157
 31
0.0
  0
LINE
  5
175CA
330
16467
100
AcDbEntity
  8
寸法
 62
     0
 48
50.0
370
    -2
100
AcDbLine
 10
10679.95389271235
 20
10103.85262972157
 30
0.0
 11
10579.95389271235
 21
10103.85262972157
 31
0.0
  0
LINE
  5
175CB
330
16467
100
AcDbEntity
  8
寸法
 62
     0
 48
50.0
370
    -2
100
AcDbLine
 10
10734.95389271236
 20
10103.85262972157
 30
0.0
 11
11151.92445546083
 21
10103.85262972157
 31
0.0
  0
LINE
  5
175CC
330
16467
100
AcDbEntity
  8
寸法
 62
     0
 48
50.0
370
    -2
100
AcDbLine
 10
10679.95389271235
 20
10103.85262972157
 30
0.0
 11
10734.95389271236
 21
10103.85262972157
 31
0.0
  0
INSERT
  5
175CD
330
16467
100
AcDbEntity
  8
寸法
 62
     0
 48
50.0
370
    -2
100
AcDbBlockReference
  2
_DOTSMALL
 10
10679.95389271235
 20
10103.85262972157
 30
0.0
 41
100.0
 42
100.0
 43
100.0
  0
INSERT
  5
175CE
330
16467
100
AcDbEntity
  8
寸法
 62
     0
 48
50.0
370
    -2
100
AcDbBlockReference
  2
_DOTSMALL
 10
10734.95389271236
 20
10103.85262972157
 30
0.0
 41
100.0
 42
100.0
 43
100.0
 50
180.0
  0
MTEXT
  5
175CF
330
16467
100
AcDbEntity
  8
寸法
 62
     7
 48
50.0
100
AcDbMText
 10
11043.43917408659
 20
10203.85262972157
 30
0.0
 40
120.0
 41
0.0
 71
     5
 72
     1
  1
\A1;55
  7
STYLE1
 73
     1
 44
1.0
1001
ACAD
1000
MTEXTBEGIN
1070
    73
1070
     1
1070
    44
1040
1.0
1070
    74
1070
     0
1000
MTEXTEND
  0
POINT
  5
175D0
330
16467
100
AcDbEntity
  8
DEFPOINTS
 62
     0
 48
50.0
100
AcDbPoint
 10
10679.95389271235
 20
9807.045602913364
 30
0.0
  0
POINT
  5
175D1
330
16467
100
AcDbEntity
  8
DEFPOINTS
 62
     0
 48
50.0
100
AcDbPoint
 10
10734.95389271236
 20
9807.045602913364
 30
0.0
  0
POINT
  5
175D2
330
16467
100
AcDbEntity
  8
DEFPOINTS
 62
     0
 48
50.0
100
AcDbPoint
 10
10734.95389271236
 20
10103.85262972157
 30
0.0
  0
ENDBLK
  5
16474
330
16467
100
AcDbEntity
  8
0
 48
50.0
100
AcDbBlockEnd
  0
BLOCK
  5
1647F
330
16475
100
AcDbEntity
  8
0
 48
50.0
100
AcDbBlockBegin
  2
*D11
 70
     1
 10
0.0
 20
0.0
 30
0.0
  3
*D11
  1

  0
LINE
  5
175BF
330
16475
100
AcDbEntity
  8
寸法
 62
     0
 48
50.0
370
    -2
100
AcDbLine
 10
9848.094908863735
 20
9307.045602913374
 30
0.0
 11
9758.808167610061
 21
8973.822948112399
 31
0.0
  0
LINE
  5
175C0
330
16475
100
AcDbEntity
  8
寸法
 62
     0
 48
50.0
370
    -2
100
AcDbLine
 10
10701.09490886374
 20
9307.045602913367
 30
0.0
 11
10611.80816761007
 21
8973.822948112399
 31
0.0
  0
LINE
  5
175C1
330
16475
100
AcDbEntity
  8
寸法
 62
     0
 48
50.0
370
    -2
100
AcDbLine
 10
9774.885119155927
 20
9033.822948112399
 30
0.0
 11
10627.88511915594
 21
9033.822948112399
 31
0.0
  0
INSERT
  5
175C2
330
16475
100
AcDbEntity
  8
寸法
 62
     0
 48
50.0
370
    -2
100
AcDbBlockReference
  2
_DOTSMALL
 10
9774.885119155927
 20
9033.822948112399
 30
0.0
 41
100.0
 42
100.0
 43
100.0
 50
180.0
  0
INSERT
  5
175C3
330
16475
100
AcDbEntity
  8
寸法
 62
     0
 48
50.0
370
    -2
100
AcDbBlockReference
  2
_DOTSMALL
 10
10627.88511915594
 20
9033.822948112399
 30
0.0
 41
100.0
 42
100.0
 43
100.0
  0
MTEXT
  5
175C4
330
16475
100
AcDbEntity
  8
寸法
 62
     7
 48
50.0
100
AcDbMText
 10
10232.80095483062
 20
9133.822948112401
 30
0.0
 40
120.0
 41
0.0
 71
     5
 72
     1
  1
\A1;853
  7
STYLE1
 73
     1
 44
1.0
1001
ACAD
1000
MTEXTBEGIN
1070
    73
1070
     1
1070
    44
1040
1.0
1070
    74
1070
     0
1000
MTEXTEND
  0
POINT
  5
175C5
330
16475
100
AcDbEntity
  8
DEFPOINTS
 62
     0
 48
50.0
100
AcDbPoint
 10
9853.453892712359
 20
9327.045602913372
 30
0.0
  0
POINT
  5
175C6
330
16475
100
AcDbEntity
  8
DEFPOINTS
 62
     0
 48
50.0
100
AcDbPoint
 10
10706.45389271237
 20
9327.045602913369
 30
0.0
  0
POINT
  5
175C7
330
16475
100
AcDbEntity
  8
DEFPOINTS
 62
     0
 48
50.0
100
AcDbPoint
 10
10627.88511915594
 20
9033.822948112399
 30
0.0
  0
ENDBLK
  5
16480
330
16475
100
AcDbEntity
  8
0
 48
50.0
100
AcDbBlockEnd
  0
BLOCK
  5
16497
330
1648D
100
AcDbEntity
  8
0
 48
50.0
100
AcDbBlockBegin
  2
*D12
 70
     1
 10
0.0
 20
0.0
 30
0.0
  3
*D12
  1

  0
LINE
  5
175B6
330
1648D
100
AcDbEntity
  8
寸法
 62
     0
 48
50.0
370
    -2
100
AcDbLine
 10
10754.95389271236
 20
9752.045602913369
 30
0.0
 11
11442.38023844677
 21
9752.045602913369
 31
0.0
  0
LINE
  5
175B7
330
1648D
100
AcDbEntity
  8
寸法
 62
     0
 48
50.0
370
    -2
100
AcDbLine
 10
10754.95389271233
 20
8072.045602913352
 30
0.0
 11
11442.38023844677
 21
8072.045602913352
 31
0.0
  0
LINE
  5
175B8
330
1648D
100
AcDbEntity
  8
寸法
 62
     0
 48
50.0
370
    -2
100
AcDbLine
 10
11382.38023844677
 20
9752.045602913369
 30
0.0
 11
11382.38023844677
 21
8072.045602913352
 31
0.0
  0
INSERT
  5
175B9
330
1648D
100
AcDbEntity
  8
寸法
 62
     0
 48
50.0
370
    -2
100
AcDbBlockReference
  2
_DOTSMALL
 10
11382.38023844677
 20
9752.045602913369
 30
0.0
 41
100.0
 42
100.0
 43
100.0
 50
90.0
  0
INSERT
  5
175BA
330
1648D
100
AcDbEntity
  8
寸法
 62
     0
 48
50.0
370
    -2
100
AcDbBlockReference
  2
_DOTSMALL
 10
11382.38023844677
 20
8072.045602913352
 30
0.0
 41
100.0
 42
100.0
 43
100.0
 50
270.0
  0
MTEXT
  5
175BB
330
1648D
100
AcDbEntity
  8
寸法
 62
     7
 48
50.0
100
AcDbMText
 10
11282.36842742315
 20
8912.045602913359
 30
0.0
 40
120.0
 41
0.0
 71
     5
 72
     1
  1
\A1;4X420=1680
  7
STYLE1
 11
0.0000000000000001
 21
1.0
 31
0.0
 73
     1
 44
1.0
1001
ACAD
1000
MTEXTBEGIN
1070
    73
1070
     1
1070
    44
1040
1.0
1070
    74
1070
     0
1000
MTEXTEND
  0
POINT
  5
175BC
330
1648D
100
AcDbEntity
  8
DEFPOINTS
 62
     0
 48
50.0
100
AcDbPoint
 10
10734.95389271236
 20
9752.045602913369
 30
0.0
  0
POINT
  5
175BD
330
1648D
100
AcDbEntity
  8
DEFPOINTS
 62
     0
 48
50.0
100
AcDbPoint
 10
10734.95389271233
 20
8072.045602913352
 30
0.0
  0
POINT
  5
175BE
330
1648D
100
AcDbEntity
  8
DEFPOINTS
 62
     0
 48
50.0
100
AcDbPoint
 10
11382.38023844677
 20
8072.045602913352
 30
0.0
  0
ENDBLK
  5
16498
330
1648D
100
AcDbEntity
  8
0
 48
50.0
100
AcDbBlockEnd
  0
BLOCK
  5
164A5
330
16499
100
AcDbEntity
  8
0
 48
50.0
100
AcDbBlockBegin
  2
*D13
 70
     1
 10
0.0
 20
0.0
 30
0.0
  3
*D13
  1

  0
LINE
  5
175AB
330
16499
100
AcDbEntity
  8
寸法
 62
     0
 48
50.0
370
    -2
100
AcDbLine
 10
10754.95389271233
 20
8072.045602913352
 30
0.0
 11
11442.38023844674
 21
8072.045602913352
 31
0.0
  0
LINE
  5
175AC
330
16499
100
AcDbEntity
  8
寸法
 62
     0
 48
50.0
370
    -2
100
AcDbLine
 10
10754.95389271233
 20
8017.045602913354
 30
0.0
 11
11442.38023844674
 21
8017.045602913354
 31
0.0
  0
LINE
  5
175AD
330
16499
100
AcDbEntity
  8
寸法
 62
     0
 48
50.0
370
    -2
100
AcDbLine
 10
11382.38023844674
 20
8072.045602913352
 30
0.0
 11
11382.38023844674
 21
8172.045602913351
 31
0.0
  0
LINE
  5
175AE
330
16499
100
AcDbEntity
  8
寸法
 62
     0
 48
50.0
370
    -2
100
AcDbLine
 10
11382.38023844674
 20
8017.045602913354
 30
0.0
 11
11382.38023844674
 21
7530.698854634252
 31
0.0
  0
LINE
  5
175AF
330
16499
100
AcDbEntity
  8
寸法
 62
     0
 48
50.0
370
    -2
100
AcDbLine
 10
11382.38023844674
 20
8072.045602913352
 30
0.0
 11
11382.38023844674
 21
8017.045602913354
 31
0.0
  0
INSERT
  5
175B0
330
16499
100
AcDbEntity
  8
寸法
 62
     0
 48
50.0
370
    -2
100
AcDbBlockReference
  2
_DOTSMALL
 10
11382.38023844674
 20
8072.045602913352
 30
0.0
 41
100.0
 42
100.0
 43
100.0
 50
270.0
  0
INSERT
  5
175B1
330
16499
100
AcDbEntity
  8
寸法
 62
     0
 48
50.0
370
    -2
100
AcDbBlockReference
  2
_DOTSMALL
 10
11382.38023844674
 20
8017.045602913354
 30
0.0
 41
100.0
 42
100.0
 43
100.0
 50
90.0
  0
MTEXT
  5
175B2
330
16499
100
AcDbEntity
  8
寸法
 62
     7
 48
50.0
100
AcDbMText
 10
11282.38023844674
 20
7639.184136008494
 30
0.0
 40
120.0
 41
0.0
 71
     5
 72
     1
  1
\A1;55
  7
STYLE1
 11
0.0000000000000001
 21
1.0
 31
0.0
 73
     1
 44
1.0
1001
ACAD
1000
MTEXTBEGIN
1070
    73
1070
     1
1070
    44
1040
1.0
1070
    74
1070
     0
1000
MTEXTEND
  0
POINT
  5
175B3
330
16499
100
AcDbEntity
  8
DEFPOINTS
 62
     0
 48
50.0
100
AcDbPoint
 10
10734.95389271233
 20
8072.045602913352
 30
0.0
  0
POINT
  5
175B4
330
16499
100
AcDbEntity
  8
DEFPOINTS
 62
     0
 48
50.0
100
AcDbPoint
 10
10734.95389271233
 20
8017.045602913354
 30
0.0
  0
POINT
  5
175B5
330
16499
100
AcDbEntity
  8
DEFPOINTS
 62
     0
 48
50.0
100
AcDbPoint
 10
11382.38023844674
 20
8017.045602913354
 30
0.0
  0
ENDBLK
  5
164A6
330
16499
100
AcDbEntity
  8
0
 48
50.0
100
AcDbBlockEnd
  0
BLOCK
  5
164B1
330
164A7
100
AcDbEntity
  8
0
 48
50.0
100
AcDbBlockBegin
  2
*D14
 70
     1
 10
0.0
 20
0.0
 30
0.0
  3
*D14
  1

  0
LINE
  5
175A2
330
164A7
100
AcDbEntity
  8
寸法
 62
     0
 48
50.0
370
    -2
100
AcDbLine
 10
10726.45389271235
 20
9771.686619064743
 30
0.0
 11
11121.81161857438
 21
9665.750835698608
 31
0.0
  0
LINE
  5
175A3
330
164A7
100
AcDbEntity
  8
寸法
 62
     0
 48
50.0
370
    -2
100
AcDbLine
 10
10726.45389271235
 20
9321.686619064744
 30
0.0
 11
11121.81161857438
 21
9215.75083569861
 31
0.0
  0
LINE
  5
175A4
330
164A7
100
AcDbEntity
  8
寸法
 62
     0
 48
50.0
370
    -2
100
AcDbLine
 10
11061.81161857438
 20
9681.827787244474
 30
0.0
 11
11061.81161857438
 21
9231.827787244476
 31
0.0
  0
INSERT
  5
175A5
330
164A7
100
AcDbEntity
  8
寸法
 62
     0
 48
50.0
370
    -2
100
AcDbBlockReference
  2
_DOTSMALL
 10
11061.81161857438
 20
9681.827787244474
 30
0.0
 41
100.0
 42
100.0
 43
100.0
 50
90.0
  0
INSERT
  5
175A6
330
164A7
100
AcDbEntity
  8
寸法
 62
     0
 48
50.0
370
    -2
100
AcDbBlockReference
  2
_DOTSMALL
 10
11061.81161857438
 20
9231.827787244476
 30
0.0
 41
100.0
 42
100.0
 43
100.0
 50
270.0
  0
MTEXT
  5
175A7
330
164A7
100
AcDbEntity
  8
寸法
 62
     7
 48
50.0
100
AcDbMText
 10
10961.81161857438
 20
9456.827787244478
 30
0.0
 40
120.0
 41
0.0
 71
     5
 72
     1
  1
\A1;450
  7
STYLE1
 11
0.0000000000000001
 21
1.0
 31
0.0
 73
     1
 44
1.0
1001
ACAD
1000
MTEXTBEGIN
1070
    73
1070
     1
1070
    44
1040
1.0
1070
    74
1070
     0
1000
MTEXTEND
  0
POINT
  5
175A8
330
164A7
100
AcDbEntity
  8
DEFPOINTS
 62
     0
 48
50.0
100
AcDbPoint
 10
10706.45389271235
 20
9777.045602913364
 30
0.0
  0
POINT
  5
175A9
330
164A7
100
AcDbEntity
  8
DEFPOINTS
 62
     0
 48
50.0
100
AcDbPoint
 10
10706.45389271235
 20
9327.045602913365
 30
0.0
  0
POINT
  5
175AA
330
164A7
100
AcDbEntity
  8
DEFPOINTS
 62
     0
 48
50.0
100
AcDbPoint
 10
11061.81161857438
 20
9231.827787244476
 30
0.0
  0
ENDBLK
  5
164B2
330
164A7
100
AcDbEntity
  8
0
 48
50.0
100
AcDbBlockEnd
  0
BLOCK
  5
164BF
330
164B3
100
AcDbEntity
  8
0
 48
50.0
100
AcDbBlockBegin
  2
*D15
 70
     1
 10
0.0
 20
0.0
 30
0.0
  3
*D15
  1

  0
LINE
  5
17597
330
164B3
100
AcDbEntity
  8
寸法
 62
     0
 48
50.0
370
    -2
100
AcDbLine
 10
10754.95389271236
 20
9807.045602913364
 30
0.0
 11
11442.38023844677
 21
9807.045602913364
 31
0.0
  0
LINE
  5
17598
330
164B3
100
AcDbEntity
  8
寸法
 62
     0
 48
50.0
370
    -2
100
AcDbLine
 10
10754.95389271236
 20
9752.045602913369
 30
0.0
 11
11442.38023844677
 21
9752.045602913369
 31
0.0
  0
LINE
  5
17599
330
164B3
100
AcDbEntity
  8
寸法
 62
     0
 48
50.0
370
    -2
100
AcDbLine
 10
11382.38023844677
 20
9752.045602913369
 30
0.0
 11
11382.38023844677
 21
9652.045602913368
 31
0.0
  0
LINE
  5
1759A
330
164B3
100
AcDbEntity
  8
寸法
 62
     0
 48
50.0
370
    -2
100
AcDbLine
 10
11382.38023844677
 20
9807.045602913364
 30
0.0
 11
11382.38023844677
 21
10224.01616566184
 31
0.0
  0
LINE
  5
1759B
330
164B3
100
AcDbEntity
  8
寸法
 62
     0
 48
50.0
370
    -2
100
AcDbLine
 10
11382.38023844677
 20
9752.045602913369
 30
0.0
 11
11382.38023844677
 21
9807.045602913364
 31
0.0
  0
INSERT
  5
1759C
330
164B3
100
AcDbEntity
  8
寸法
 62
     0
 48
50.0
370
    -2
100
AcDbBlockReference
  2
_DOTSMALL
 10
11382.38023844677
 20
9752.045602913369
 30
0.0
 41
100.0
 42
100.0
 43
100.0
 50
90.0
  0
INSERT
  5
1759D
330
164B3
100
AcDbEntity
  8
寸法
 62
     0
 48
50.0
370
    -2
100
AcDbBlockReference
  2
_DOTSMALL
 10
11382.38023844677
 20
9807.045602913364
 30
0.0
 41
100.0
 42
100.0
 43
100.0
 50
270.0
  0
MTEXT
  5
1759E
330
164B3
100
AcDbEntity
  8
寸法
 62
     7
 48
50.0
100
AcDbMText
 10
11282.38023844676
 20
10115.5308842876
 30
0.0
 40
120.0
 41
0.0
 71
     5
 72
     1
  1
\A1;55
  7
STYLE1
 11
0.0000000000000001
 21
1.0
 31
0.0
 73
     1
 44
1.0
1001
ACAD
1000
MTEXTBEGIN
1070
    73
1070
     1
1070
    44
1040
1.0
1070
    74
1070
     0
1000
MTEXTEND
  0
POINT
  5
1759F
330
164B3
100
AcDbEntity
  8
DEFPOINTS
 62
     0
 48
50.0
100
AcDbPoint
 10
10734.95389271236
 20
9807.045602913364
 30
0.0
  0
POINT
  5
175A0
330
164B3
100
AcDbEntity
  8
DEFPOINTS
 62
     0
 48
50.0
100
AcDbPoint
 10
10734.95389271236
 20
9752.045602913369
 30
0.0
  0
POINT
  5
175A1
330
164B3
100
AcDbEntity
  8
DEFPOINTS
 62
     0
 48
50.0
100
AcDbPoint
 10
11382.38023844677
 20
9752.045602913369
 30
0.0
  0
ENDBLK
  5
164C0
330
164B3
100
AcDbEntity
  8
0
 48
50.0
100
AcDbBlockEnd
  0
BLOCK
  5
164CB
330
164C1
100
AcDbEntity
  8
0
 48
50.0
100
AcDbBlockBegin
  2
*D16
 70
     1
 10
0.0
 20
0.0
 30
0.0
  3
*D16
  1

  0
LINE
  5
175EE
330
164C1
100
AcDbEntity
  8
寸法
 62
     0
 48
50.0
370
    -2
100
AcDbLine
 10
10754.95389271236
 20
9807.045602913364
 30
0.0
 11
11713.62377249063
 21
9807.045602913364
 31
0.0
  0
LINE
  5
175EF
330
164C1
100
AcDbEntity
  8
寸法
 62
     0
 48
50.0
370
    -2
100
AcDbLine
 10
10754.95389271233
 20
8017.045602913354
 30
0.0
 11
11713.62377249063
 21
8017.045602913354
 31
0.0
  0
LINE
  5
175F0
330
164C1
100
AcDbEntity
  8
寸法
 62
     0
 48
50.0
370
    -2
100
AcDbLine
 10
11653.62377249063
 20
9807.045602913364
 30
0.0
 11
11653.62377249063
 21
8017.045602913354
 31
0.0
  0
INSERT
  5
175F1
330
164C1
100
AcDbEntity
  8
寸法
 62
     0
 48
50.0
370
    -2
100
AcDbBlockReference
  2
_DOTSMALL
 10
11653.62377249063
 20
9807.045602913364
 30
0.0
 41
100.0
 42
100.0
 43
100.0
 50
90.0
  0
INSERT
  5
175F2
330
164C1
100
AcDbEntity
  8
寸法
 62
     0
 48
50.0
370
    -2
100
AcDbBlockReference
  2
_DOTSMALL
 10
11653.62377249063
 20
8017.045602913354
 30
0.0
 41
100.0
 42
100.0
 43
100.0
 50
270.0
  0
MTEXT
  5
175F3
330
164C1
100
AcDbEntity
  8
寸法
 62
     7
 48
50.0
100
AcDbMText
 10
11553.62377249063
 20
8939.936087713904
 30
0.0
 40
120.0
 41
0.0
 71
     5
 72
     1
  1
\A1;1790
  7
STYLE1
 11
0.0000000000000001
 21
1.0
 31
0.0
 73
     1
 44
1.0
1001
ACAD
1000
MTEXTBEGIN
1070
    73
1070
     1
1070
    44
1040
1.0
1070
    74
1070
     0
1000
MTEXTEND
  0
POINT
  5
175F4
330
164C1
100
AcDbEntity
  8
DEFPOINTS
 62
     0
 48
50.0
100
AcDbPoint
 10
10734.95389271236
 20
9807.045602913364
 30
0.0
  0
POINT
  5
175F5
330
164C1
100
AcDbEntity
  8
DEFPOINTS
 62
     0
 48
50.0
100
AcDbPoint
 10
10734.95389271233
 20
8017.045602913354
 30
0.0
  0
POINT
  5
175F6
330
164C1
100
AcDbEntity
  8
DEFPOINTS
 62
     0
 48
50.0
100
AcDbPoint
 10
11653.62377249063
 20
8017.045602913354
 30
0.0
  0
ENDBLK
  5
164CC
330
164C1
100
AcDbEntity
  8
0
 48
50.0
100
AcDbBlockEnd
  0
BLOCK
  5
164D9
330
164CD
100
AcDbEntity
  8
0
 48
50.0
100
AcDbBlockBegin
  2
*D17
 70
     1
 10
0.0
 20
0.0
 30
0.0
  3
*D17
  1

  0
LINE
  5
17583
330
164CD
100
AcDbEntity
  8
寸法
 62
     0
 48
50.0
370
    -2
100
AcDbLine
 10
8944.953892712321
 20
9827.045602913269
 30
0.0
 11
8944.953892712321
 21
10163.85262972147
 31
0.0
  0
LINE
  5
17584
330
164CD
100
AcDbEntity
  8
寸法
 62
     0
 48
50.0
370
    -2
100
AcDbLine
 10
8999.953892712358
 20
9827.045602913269
 30
0.0
 11
8999.953892712358
 21
10163.85262972147
 31
0.0
  0
LINE
  5
17585
330
164CD
100
AcDbEntity
  8
寸法
 62
     0
 48
50.0
370
    -2
100
AcDbLine
 10
8999.953892712358
 20
10103.85262972147
 30
0.0
 11
9099.953892712358
 21
10103.85262972147
 31
0.0
  0
LINE
  5
17586
330
164CD
100
AcDbEntity
  8
寸法
 62
     0
 48
50.0
370
    -2
100
AcDbLine
 10
8944.953892712321
 20
10103.85262972147
 30
0.0
 11
8527.983329963845
 21
10103.85262972147
 31
0.0
  0
LINE
  5
17587
330
164CD
100
AcDbEntity
  8
寸法
 62
     0
 48
50.0
370
    -2
100
AcDbLine
 10
8999.953892712358
 20
10103.85262972147
 30
0.0
 11
8944.953892712321
 21
10103.85262972147
 31
0.0
  0
INSERT
  5
17588
330
164CD
100
AcDbEntity
  8
寸法
 62
     0
 48
50.0
370
    -2
100
AcDbBlockReference
  2
_DOTSMALL
 10
8999.953892712358
 20
10103.85262972147
 30
0.0
 41
100.0
 42
100.0
 43
100.0
 50
180.0
  0
INSERT
  5
17589
330
164CD
100
AcDbEntity
  8
寸法
 62
     0
 48
50.0
370
    -2
100
AcDbBlockReference
  2
_DOTSMALL
 10
8944.953892712321
 20
10103.85262972147
 30
0.0
 41
100.0
 42
100.0
 43
100.0
  0
MTEXT
  5
1758A
330
164CD
100
AcDbEntity
  8
寸法
 62
     7
 48
50.0
100
AcDbMText
 10
8636.468611338083
 20
10203.85262972147
 30
0.0
 40
120.0
 41
0.0
 71
     5
 72
     1
  1
\A1;55
  7
STYLE1
 73
     1
 44
1.0
1001
ACAD
1000
MTEXTBEGIN
1070
    73
1070
     1
1070
    44
1040
1.0
1070
    74
1070
     0
1000
MTEXTEND
  0
POINT
  5
1758B
330
164CD
100
AcDbEntity
  8
DEFPOINTS
 62
     0
 48
50.0
100
AcDbPoint
 10
8944.953892712321
 20
9807.045602913269
 30
0.0
  0
POINT
  5
1758C
330
164CD
100
AcDbEntity
  8
DEFPOINTS
 62
     0
 48
50.0
100
AcDbPoint
 10
8999.953892712358
 20
9807.045602913269
 30
0.0
  0
POINT
  5
1758D
330
164CD
100
AcDbEntity
  8
DEFPOINTS
 62
     0
 48
50.0
100
AcDbPoint
 10
8999.953892712358
 20
10103.85262972147
 30
0.0
  0
ENDBLK
  5
164DA
330
164CD
100
AcDbEntity
  8
0
 48
50.0
100
AcDbBlockEnd
  0
BLOCK
  5
16C0B
330
16C01
100
AcDbEntity
  8
0
 48
50.0
100
AcDbBlockBegin
  2
*D18
 70
     1
 10
0.0
 20
0.0
 30
0.0
  3
*D18
  1

  0
LINE
  5
16E3A
330
16C01
100
AcDbEntity
  8
寸法
 62
     0
 48
50.0
370
    -2
100
AcDbLine
 10
5155.993546614812
 20
2539.537219015424
 30
0.0
 11
5155.993546614812
 21
2213.489889715048
 31
0.0
  0
LINE
  5
16E3B
330
16C01
100
AcDbEntity
  8
寸法
 62
     0
 48
50.0
370
    -2
100
AcDbLine
 10
4955.993546614816
 20
2539.537219015426
 30
0.0
 11
4955.993546614816
 21
2213.489889715048
 31
0.0
  0
LINE
  5
16E3C
330
16C01
100
AcDbEntity
  8
寸法
 62
     0
 48
50.0
370
    -2
100
AcDbLine
 10
5155.993546614812
 20
2273.489889715048
 30
0.0
 11
4955.993546614816
 21
2273.489889715048
 31
0.0
  0
INSERT
  5
16E3D
330
16C01
100
AcDbEntity
  8
寸法
 62
     0
 48
50.0
370
    -2
100
AcDbBlockReference
  2
_DOTSMALL
 10
5155.993546614812
 20
2273.489889715048
 30
0.0
 41
100.0
 42
100.0
 43
100.0
  0
INSERT
  5
16E3E
330
16C01
100
AcDbEntity
  8
寸法
 62
     0
 48
50.0
370
    -2
100
AcDbBlockReference
  2
_DOTSMALL
 10
4955.993546614816
 20
2273.489889715048
 30
0.0
 41
100.0
 42
100.0
 43
100.0
 50
180.0
  0
MTEXT
  5
16E3F
330
16C01
100
AcDbEntity
  8
寸法
 62
     7
 48
50.0
100
AcDbMText
 10
5055.993546614814
 20
2373.50170073867
 30
0.0
 40
120.0
 41
0.0
 71
     5
 72
     1
  1
\A1;200
  7
STYLE1
 73
     1
 44
1.0
1001
ACAD
1000
MTEXTBEGIN
1070
    73
1070
     1
1070
    44
1040
1.0
1070
    74
1070
     0
1000
MTEXTEND
  0
POINT
  5
16E40
330
16C01
100
AcDbEntity
  8
DEFPOINTS
 62
     0
 48
50.0
100
AcDbPoint
 10
5155.993546614812
 20
2559.537219015424
 30
0.0
  0
POINT
  5
16E41
330
16C01
100
AcDbEntity
  8
DEFPOINTS
 62
     0
 48
50.0
100
AcDbPoint
 10
4955.993546614816
 20
2559.537219015426
 30
0.0
  0
POINT
  5
16E42
330
16C01
100
AcDbEntity
  8
DEFPOINTS
 62
     0
 48
50.0
100
AcDbPoint
 10
4955.993546614816
 20
2273.489889715048
 30
0.0
  0
ENDBLK
  5
16C0C
330
16C01
100
AcDbEntity
  8
0
 48
50.0
100
AcDbBlockEnd
  0
BLOCK
  5
16C17
330
16C0D
100
AcDbEntity
  8
0
 48
50.0
100
AcDbBlockBegin
  2
*D19
 70
     1
 10
0.0
 20
0.0
 30
0.0
  3
*D19
  1

  0
LINE
  5
16E31
330
16C0D
100
AcDbEntity
  8
寸法
 62
     0
 48
50.0
370
    -2
100
AcDbLine
 10
4935.993546614817
 20
2559.537219015426
 30
0.0
 11
4746.493543368179
 21
2559.537219015426
 31
0.0
  0
LINE
  5
16E32
330
16C0D
100
AcDbEntity
  8
寸法
 62
     0
 48
50.0
370
    -2
100
AcDbLine
 10
4910.993546614813
 20
2759.537219015426
 30
0.0
 11
4746.493543368179
 21
2759.537219015426
 31
0.0
  0
LINE
  5
16E33
330
16C0D
100
AcDbEntity
  8
寸法
 62
     0
 48
50.0
370
    -2
100
AcDbLine
 10
4806.49354336818
 20
2559.537219015426
 30
0.0
 11
4806.49354336818
 21
2759.537219015426
 31
0.0
  0
INSERT
  5
16E34
330
16C0D
100
AcDbEntity
  8
寸法
 62
     0
 48
50.0
370
    -2
100
AcDbBlockReference
  2
_DOTSMALL
 10
4806.49354336818
 20
2559.537219015426
 30
0.0
 41
100.0
 42
100.0
 43
100.0
 50
270.0
  0
INSERT
  5
16E35
330
16C0D
100
AcDbEntity
  8
寸法
 62
     0
 48
50.0
370
    -2
100
AcDbBlockReference
  2
_DOTSMALL
 10
4806.49354336818
 20
2759.537219015426
 30
0.0
 41
100.0
 42
100.0
 43
100.0
 50
90.0
  0
MTEXT
  5
16E36
330
16C0D
100
AcDbEntity
  8
寸法
 62
     7
 48
50.0
100
AcDbMText
 10
4706.481732344556
 20
2659.537219015426
 30
0.0
 40
120.0
 41
0.0
 71
     5
 72
     1
  1
\A1;200
  7
STYLE1
 11
0.0000000000000001
 21
1.0
 31
0.0
 73
     1
 44
1.0
1001
ACAD
1000
MTEXTBEGIN
1070
    73
1070
     1
1070
    44
1040
1.0
1070
    74
1070
     0
1000
MTEXTEND
  0
POINT
  5
16E37
330
16C0D
100
AcDbEntity
  8
DEFPOINTS
 62
     0
 48
50.0
100
AcDbPoint
 10
4955.993546614816
 20
2559.537219015426
 30
0.0
  0
POINT
  5
16E38
330
16C0D
100
AcDbEntity
  8
DEFPOINTS
 62
     0
 48
50.0
100
AcDbPoint
 10
4930.993546614812
 20
2759.537219015426
 30
0.0
  0
POINT
  5
16E39
330
16C0D
100
AcDbEntity
  8
DEFPOINTS
 62
     0
 48
50.0
100
AcDbPoint
 10
4806.49354336818
 20
2759.537219015426
 30
0.0
  0
ENDBLK
  5
16C18
330
16C0D
100
AcDbEntity
  8
0
 48
50.0
100
AcDbBlockEnd
  0
BLOCK
  5
16C24
330
16C19
100
AcDbEntity
  8
0
 48
50.0
100
AcDbBlockBegin
  2
*D20
 70
     1
 10
0.0
 20
0.0
 30
0.0
  3
*D20
  1

  0
LINE
  5
16E27
330
16C19
100
AcDbEntity
  8
寸法
 62
     0
 48
50.0
370
    -2
100
AcDbLine
 10
4967.897832905913
 20
4933.834926085088
 30
0.0
 11
4351.963393800644
 21
4951.549076359418
 31
0.0
  0
LINE
  5
16E28
330
16C19
100
AcDbEntity
  8
寸法
 62
     0
 48
50.0
370
    -2
100
AcDbLine
 10
4963.844377349288
 20
4792.893202319375
 30
0.0
 11
4347.909938244018
 21
4810.607352593706
 31
0.0
  0
LINE
  5
16E29
330
16C19
100
AcDbEntity
  8
寸法
 62
     0
 48
50.0
370
    -2
100
AcDbLine
 10
4407.885139846449
 20
4808.882477888758
 30
0.0
 11
4411.938595403076
 21
4949.82420165447
 31
0.0
  0
LINE
  5
16E2A
330
16C19
100
AcDbEntity
  8
寸法
 62
     0
 48
50.0
370
    -2
100
AcDbLine
 10
4411.938595403076
 20
4949.82420165447
 30
0.0
 11
4422.287843632761
 21
5309.675411269055
 31
0.0
  0
INSERT
  5
16E2B
330
16C19
100
AcDbEntity
  8
寸法
 62
     0
 48
50.0
370
    -2
100
AcDbBlockReference
  2
_DOTSMALL
 10
4407.885139846449
 20
4808.882477888758
 30
0.0
 41
100.0
 42
100.0
 43
100.0
 50
268.3526390256378
  0
INSERT
  5
16E2C
330
16C19
100
AcDbEntity
  8
寸法
 62
     0
 48
50.0
370
    -2
100
AcDbBlockReference
  2
_DOTSMALL
 10
4411.938595403076
 20
4949.82420165447
 30
0.0
 41
100.0
 42
100.0
 43
100.0
 50
88.35263902563776
  0
MTEXT
  5
16E2D
330
16C19
100
AcDbEntity
  8
寸法
 62
     7
 48
50.0
100
AcDbMText
 10
4318.591945767989
 20
5182.603932305369
 30
0.0
 40
120.0
 41
0.0
 71
     5
 72
     1
  1
\A1;141
  7
STYLE1
 11
0.0287479117491237
 21
0.9995866933738488
 31
0.0
 73
     1
 44
1.0
1001
ACAD
1000
MTEXTBEGIN
1070
    73
1070
     1
1070
    44
1040
1.0
1070
    74
1070
     0
1000
MTEXTEND
  0
POINT
  5
16E2E
330
16C19
100
AcDbEntity
  8
DEFPOINTS
 62
     0
 48
50.0
100
AcDbPoint
 10
4987.889566773391
 20
4933.259967850105
 30
0.0
  0
POINT
  5
16E2F
330
16C19
100
AcDbEntity
  8
DEFPOINTS
 62
     0
 48
50.0
100
AcDbPoint
 10
4983.836111216766
 20
4792.318244084393
 30
0.0
  0
POINT
  5
16E30
330
16C19
100
AcDbEntity
  8
DEFPOINTS
 62
     0
 48
50.0
100
AcDbPoint
 10
4407.885139846449
 20
4808.882477888758
 30
0.0
  0
ENDBLK
  5
16C25
330
16C19
100
AcDbEntity
  8
0
 48
50.0
100
AcDbBlockEnd
  0
BLOCK
  5
16C31
330
16C26
100
AcDbEntity
  8
0
 48
50.0
100
AcDbBlockBegin
  2
*D21
 70
     1
 10
0.0
 20
0.0
 30
0.0
  3
*D21
  1

  0
LINE
  5
16E1D
330
16C26
100
AcDbEntity
  8
寸法
 62
     0
 48
50.0
370
    -2
100
AcDbLine
 10
6818.493546614813
 20
4901.34789862708
 30
0.0
 11
6818.493546614813
 21
5393.194672594731
 31
0.0
  0
LINE
  5
16E1E
330
16C26
100
AcDbEntity
  8
寸法
 62
     0
 48
50.0
370
    -2
100
AcDbLine
 10
6898.493546614813
 20
4899.537219015428
 30
0.0
 11
6898.493546614813
 21
5393.194672594731
 31
0.0
  0
LINE
  5
16E1F
330
16C26
100
AcDbEntity
  8
寸法
 62
     0
 48
50.0
370
    -2
100
AcDbLine
 10
6818.493546614813
 20
5333.194672594731
 30
0.0
 11
6898.493546614813
 21
5333.194672594731
 31
0.0
  0
LINE
  5
16E20
330
16C26
100
AcDbEntity
  8
寸法
 62
     0
 48
50.0
370
    -2
100
AcDbLine
 10
6898.493546614813
 20
5333.194672594731
 30
0.0
 11
7210.588034803791
 21
5333.194672594731
 31
0.0
  0
INSERT
  5
16E21
330
16C26
100
AcDbEntity
  8
寸法
 62
     0
 48
50.0
370
    -2
100
AcDbBlockReference
  2
_DOTSMALL
 10
6818.493546614813
 20
5333.194672594731
 30
0.0
 41
100.0
 42
100.0
 43
100.0
 50
180.0
  0
INSERT
  5
16E22
330
16C26
100
AcDbEntity
  8
寸法
 62
     0
 48
50.0
370
    -2
100
AcDbBlockReference
  2
_DOTSMALL
 10
6898.493546614813
 20
5333.194672594731
 30
0.0
 41
100.0
 42
100.0
 43
100.0
  0
MTEXT
  5
16E23
330
16C26
100
AcDbEntity
  8
寸法
 62
     7
 48
50.0
100
AcDbMText
 10
7104.540790709304
 20
5433.194672594731
 30
0.0
 40
120.0
 41
0.0
 71
     5
 72
     1
  1
\A1;80
  7
STYLE1
 73
     1
 44
1.0
1001
ACAD
1000
MTEXTBEGIN
1070
    73
1070
     1
1070
    44
1040
1.0
1070
    74
1070
     0
1000
MTEXTEND
  0
POINT
  5
16E24
330
16C26
100
AcDbEntity
  8
DEFPOINTS
 62
     0
 48
50.0
100
AcDbPoint
 10
6818.493546614813
 20
4881.34789862708
 30
0.0
  0
POINT
  5
16E25
330
16C26
100
AcDbEntity
  8
DEFPOINTS
 62
     0
 48
50.0
100
AcDbPoint
 10
6898.493546614813
 20
4879.537219015428
 30
0.0
  0
POINT
  5
16E26
330
16C26
100
AcDbEntity
  8
DEFPOINTS
 62
     0
 48
50.0
100
AcDbPoint
 10
6898.493546614813
 20
5333.194672594731
 30
0.0
  0
ENDBLK
  5
16C32
330
16C26
100
AcDbEntity
  8
0
 48
50.0
100
AcDbBlockEnd
  0
BLOCK
  5
16C3D
330
16C33
100
AcDbEntity
  8
0
 48
50.0
100
AcDbBlockBegin
  2
*D22
 70
     1
 10
0.0
 20
0.0
 30
0.0
  3
*D22
  1

  0
LINE
  5
16E14
330
16C33
100
AcDbEntity
  8
寸法
 62
     0
 48
50.0
370
    -2
100
AcDbLine
 10
6898.493546614813
 20
4899.537219015428
 30
0.0
 11
6898.493546614813
 21
5610.156487973345
 31
0.0
  0
LINE
  5
16E15
330
16C33
100
AcDbEntity
  8
寸法
 62
     0
 48
50.0
370
    -2
100
AcDbLine
 10
4968.493546614812
 20
4954.537219015431
 30
0.0
 11
4968.493546614812
 21
5610.156487973345
 31
0.0
  0
LINE
  5
16E16
330
16C33
100
AcDbEntity
  8
寸法
 62
     0
 48
50.0
370
    -2
100
AcDbLine
 10
6898.493546614813
 20
5550.156487973345
 30
0.0
 11
4968.493546614812
 21
5550.156487973345
 31
0.0
  0
INSERT
  5
16E17
330
16C33
100
AcDbEntity
  8
寸法
 62
     0
 48
50.0
370
    -2
100
AcDbBlockReference
  2
_DOTSMALL
 10
6898.493546614813
 20
5550.156487973345
 30
0.0
 41
100.0
 42
100.0
 43
100.0
  0
INSERT
  5
16E18
330
16C33
100
AcDbEntity
  8
寸法
 62
     0
 48
50.0
370
    -2
100
AcDbBlockReference
  2
_DOTSMALL
 10
4968.493546614812
 20
5550.156487973345
 30
0.0
 41
100.0
 42
100.0
 43
100.0
 50
180.0
  0
MTEXT
  5
16E19
330
16C33
100
AcDbEntity
  8
寸法
 62
     7
 48
50.0
100
AcDbMText
 10
5874.299297865782
 20
5650.156487973345
 30
0.0
 40
120.0
 41
0.0
 71
     5
 72
     1
  1
\A1;1930
  7
STYLE1
 73
     1
 44
1.0
1001
ACAD
1000
MTEXTBEGIN
1070
    73
1070
     1
1070
    44
1040
1.0
1070
    74
1070
     0
1000
MTEXTEND
  0
POINT
  5
16E1A
330
16C33
100
AcDbEntity
  8
DEFPOINTS
 62
     0
 48
50.0
100
AcDbPoint
 10
6898.493546614813
 20
4879.537219015428
 30
0.0
  0
POINT
  5
16E1B
330
16C33
100
AcDbEntity
  8
DEFPOINTS
 62
     0
 48
50.0
100
AcDbPoint
 10
4968.493546614812
 20
4934.537219015432
 30
0.0
  0
POINT
  5
16E1C
330
16C33
100
AcDbEntity
  8
DEFPOINTS
 62
     0
 48
50.0
100
AcDbPoint
 10
4968.493546614812
 20
5550.156487973345
 30
0.0
  0
ENDBLK
  5
16C3E
330
16C33
100
AcDbEntity
  8
0
 48
50.0
100
AcDbBlockEnd
  0
BLOCK
  5
16C4B
330
16C3F
100
AcDbEntity
  8
0
 48
50.0
100
AcDbBlockBegin
  2
*D23
 70
     1
 10
0.0
 20
0.0
 30
0.0
  3
*D23
  1

  0
LINE
  5
16E09
330
16C3F
100
AcDbEntity
  8
寸法
 62
     0
 48
50.0
370
    -2
100
AcDbLine
 10
5028.493546614813
 20
4950.538837138403
 30
0.0
 11
5028.493546614813
 21
5393.194672594731
 31
0.0
  0
LINE
  5
16E0A
330
16C3F
100
AcDbEntity
  8
寸法
 62
     0
 48
50.0
370
    -2
100
AcDbLine
 10
4968.493546614812
 20
4954.537219015431
 30
0.0
 11
4968.493546614812
 21
5393.194672594731
 31
0.0
  0
LINE
  5
16E0B
330
16C3F
100
AcDbEntity
  8
寸法
 62
     0
 48
50.0
370
    -2
100
AcDbLine
 10
5028.493546614813
 20
5333.194672594731
 30
0.0
 11
5128.493546614812
 21
5333.194672594731
 31
0.0
  0
LINE
  5
16E0C
330
16C3F
100
AcDbEntity
  8
寸法
 62
     0
 48
50.0
370
    -2
100
AcDbLine
 10
4968.493546614812
 20
5333.194672594731
 30
0.0
 11
4549.217956063631
 21
5333.194672594731
 31
0.0
  0
LINE
  5
16E0D
330
16C3F
100
AcDbEntity
  8
寸法
 62
     0
 48
50.0
370
    -2
100
AcDbLine
 10
5028.493546614813
 20
5333.194672594731
 30
0.0
 11
4968.493546614812
 21
5333.194672594731
 31
0.0
  0
INSERT
  5
16E0E
330
16C3F
100
AcDbEntity
  8
寸法
 62
     0
 48
50.0
370
    -2
100
AcDbBlockReference
  2
_DOTSMALL
 10
5028.493546614813
 20
5333.194672594731
 30
0.0
 41
100.0
 42
100.0
 43
100.0
 50
180.0
  0
INSERT
  5
16E0F
330
16C3F
100
AcDbEntity
  8
寸法
 62
     0
 48
50.0
370
    -2
100
AcDbBlockReference
  2
_DOTSMALL
 10
4968.493546614812
 20
5333.194672594731
 30
0.0
 41
100.0
 42
100.0
 43
100.0
  0
MTEXT
  5
16E10
330
16C3F
100
AcDbEntity
  8
寸法
 62
     7
 48
50.0
100
AcDbMText
 10
4658.855751339222
 20
5433.194672594731
 30
0.0
 40
120.0
 41
0.0
 71
     5
 72
     1
  1
\A1;60
  7
STYLE1
 73
     1
 44
1.0
1001
ACAD
1000
MTEXTBEGIN
1070
    73
1070
     1
1070
    44
1040
1.0
1070
    74
1070
     0
1000
MTEXTEND
  0
POINT
  5
16E11
330
16C3F
100
AcDbEntity
  8
DEFPOINTS
 62
     0
 48
50.0
100
AcDbPoint
 10
5028.493546614813
 20
4930.538837138403
 30
0.0
  0
POINT
  5
16E12
330
16C3F
100
AcDbEntity
  8
DEFPOINTS
 62
     0
 48
50.0
100
AcDbPoint
 10
4968.493546614812
 20
4934.537219015432
 30
0.0
  0
POINT
  5
16E13
330
16C3F
100
AcDbEntity
  8
DEFPOINTS
 62
     0
 48
50.0
100
AcDbPoint
 10
4968.493546614812
 20
5333.194672594731
 30
0.0
  0
ENDBLK
  5
16C4C
330
16C3F
100
AcDbEntity
  8
0
 48
50.0
100
AcDbBlockEnd
  0
BLOCK
  5
16C57
330
16C4D
100
AcDbEntity
  8
0
 48
50.0
100
AcDbBlockBegin
  2
*D24
 70
     1
 10
0.0
 20
0.0
 30
0.0
  3
*D24
  1

  0
LINE
  5
16E00
330
16C4D
100
AcDbEntity
  8
寸法
 62
     0
 48
50.0
370
    -2
100
AcDbLine
 10
6818.493546614813
 20
4901.34789862708
 30
0.0
 11
6818.493546614813
 21
5393.6303883549
 31
0.0
  0
LINE
  5
16E01
330
16C4D
100
AcDbEntity
  8
寸法
 62
     0
 48
50.0
370
    -2
100
AcDbLine
 10
5028.493546614813
 20
4950.538837138403
 30
0.0
 11
5028.493546614813
 21
5393.6303883549
 31
0.0
  0
LINE
  5
16E02
330
16C4D
100
AcDbEntity
  8
寸法
 62
     0
 48
50.0
370
    -2
100
AcDbLine
 10
6818.493546614813
 20
5333.6303883549
 30
0.0
 11
5028.493546614813
 21
5333.6303883549
 31
0.0
  0
INSERT
  5
16E03
330
16C4D
100
AcDbEntity
  8
寸法
 62
     0
 48
50.0
370
    -2
100
AcDbBlockReference
  2
_DOTSMALL
 10
6818.493546614813
 20
5333.6303883549
 30
0.0
 41
100.0
 42
100.0
 43
100.0
  0
INSERT
  5
16E04
330
16C4D
100
AcDbEntity
  8
寸法
 62
     0
 48
50.0
370
    -2
100
AcDbBlockReference
  2
_DOTSMALL
 10
5028.493546614813
 20
5333.6303883549
 30
0.0
 41
100.0
 42
100.0
 43
100.0
 50
180.0
  0
MTEXT
  5
16E05
330
16C4D
100
AcDbEntity
  8
寸法
 62
     7
 48
50.0
100
AcDbMText
 10
5938.089195291293
 20
5433.6303883549
 30
0.0
 40
120.0
 41
0.0
 71
     5
 72
     1
  1
\A1;柱外寸法1790
  7
STYLE1
 73
     1
 44
1.0
1001
ACAD
1000
MTEXTBEGIN
1070
    73
1070
     1
1070
    44
1040
1.0
1070
    74
1070
     0
1000
MTEXTEND
  0
POINT
  5
16E06
330
16C4D
100
AcDbEntity
  8
DEFPOINTS
 62
     0
 48
50.0
100
AcDbPoint
 10
6818.493546614813
 20
4881.34789862708
 30
0.0
  0
POINT
  5
16E07
330
16C4D
100
AcDbEntity
  8
DEFPOINTS
 62
     0
 48
50.0
100
AcDbPoint
 10
5028.493546614813
 20
4930.538837138403
 30
0.0
  0
POINT
  5
16E08
330
16C4D
100
AcDbEntity
  8
DEFPOINTS
 62
     0
 48
50.0
100
AcDbPoint
 10
5028.493546614813
 20
5333.6303883549
 30
0.0
  0
ENDBLK
  5
16C58
330
16C4D
100
AcDbEntity
  8
0
 48
50.0
100
AcDbBlockEnd
  0
BLOCK
  5
16C63
330
16C59
100
AcDbEntity
  8
0
 48
50.0
100
AcDbBlockBegin
  2
*D25
 70
     1
 10
0.0
 20
0.0
 30
0.0
  3
*D25
  1

  0
LINE
  5
16DF7
330
16C59
100
AcDbEntity
  8
寸法
 62
     0
 48
50.0
370
    -2
100
AcDbLine
 10
6915.493546614816
 20
2859.537219015427
 30
0.0
 11
7490.663642377241
 21
2859.537219015426
 31
0.0
  0
LINE
  5
16DF8
330
16C59
100
AcDbEntity
  8
寸法
 62
     0
 48
50.0
370
    -2
100
AcDbLine
 10
6918.493546614813
 20
4879.537219015428
 30
0.0
 11
7490.663642377241
 21
4879.537219015428
 31
0.0
  0
LINE
  5
16DF9
330
16C59
100
AcDbEntity
  8
寸法
 62
     0
 48
50.0
370
    -2
100
AcDbLine
 10
7430.66364237724
 20
2859.537219015426
 30
0.0
 11
7430.66364237724
 21
4879.537219015428
 31
0.0
  0
INSERT
  5
16DFA
330
16C59
100
AcDbEntity
  8
寸法
 62
     0
 48
50.0
370
    -2
100
AcDbBlockReference
  2
_DOTSMALL
 10
7430.66364237724
 20
2859.537219015426
 30
0.0
 41
100.0
 42
100.0
 43
100.0
 50
270.0
  0
INSERT
  5
16DFB
330
16C59
100
AcDbEntity
  8
寸法
 62
     0
 48
50.0
370
    -2
100
AcDbBlockReference
  2
_DOTSMALL
 10
7430.66364237724
 20
4879.537219015428
 30
0.0
 41
100.0
 42
100.0
 43
100.0
 50
90.0
  0
MTEXT
  5
16DFC
330
16C59
100
AcDbEntity
  8
寸法
 62
     7
 48
50.0
100
AcDbMText
 10
7330.651831353619
 20
3841.793546445115
 30
0.0
 40
120.0
 41
0.0
 71
     5
 72
     1
  1
\A1;2020
  7
STYLE1
 11
0.0000000000000001
 21
1.0
 31
0.0
 73
     1
 44
1.0
1001
ACAD
1000
MTEXTBEGIN
1070
    73
1070
     1
1070
    44
1040
1.0
1070
    74
1070
     0
1000
MTEXTEND
  0
POINT
  5
16DFD
330
16C59
100
AcDbEntity
  8
DEFPOINTS
 62
     0
 48
50.0
100
AcDbPoint
 10
6895.493546614817
 20
2859.537219015427
 30
0.0
  0
POINT
  5
16DFE
330
16C59
100
AcDbEntity
  8
DEFPOINTS
 62
     0
 48
50.0
100
AcDbPoint
 10
6898.493546614813
 20
4879.537219015428
 30
0.0
  0
POINT
  5
16DFF
330
16C59
100
AcDbEntity
  8
DEFPOINTS
 62
     0
 48
50.0
100
AcDbPoint
 10
7430.66364237724
 20
4879.537219015428
 30
0.0
  0
ENDBLK
  5
16C64
330
16C59
100
AcDbEntity
  8
0
 48
50.0
100
AcDbBlockEnd
  0
BLOCK
  5
16C71
330
16C65
100
AcDbEntity
  8
0
 48
50.0
100
AcDbBlockBegin
  2
*D26
 70
     1
 10
0.0
 20
0.0
 30
0.0
  3
*D26
  1

  0
LINE
  5
16DEC
330
16C65
100
AcDbEntity
  8
寸法
 62
     0
 48
50.0
370
    -2
100
AcDbLine
 10
5008.493546614812
 20
2909.537219015427
 30
0.0
 11
4344.840837456516
 21
2909.537219015427
 31
0.0
  0
LINE
  5
16DED
330
16C65
100
AcDbEntity
  8
寸法
 62
     0
 48
50.0
370
    -2
100
AcDbLine
 10
4953.493546614812
 20
2859.537219015427
 30
0.0
 11
4344.840837456516
 21
2859.537219015427
 31
0.0
  0
LINE
  5
16DEE
330
16C65
100
AcDbEntity
  8
寸法
 62
     0
 48
50.0
370
    -2
100
AcDbLine
 10
4404.840837456516
 20
2909.537219015427
 30
0.0
 11
4404.840837456516
 21
3009.537219015427
 31
0.0
  0
LINE
  5
16DEF
330
16C65
100
AcDbEntity
  8
寸法
 62
     0
 48
50.0
370
    -2
100
AcDbLine
 10
4404.840837456516
 20
2859.537219015427
 30
0.0
 11
4404.840837456516
 21
2447.442730826449
 31
0.0
  0
LINE
  5
16DF0
330
16C65
100
AcDbEntity
  8
寸法
 62
     0
 48
50.0
370
    -2
100
AcDbLine
 10
4404.840837456516
 20
2909.537219015427
 30
0.0
 11
4404.840837456516
 21
2859.537219015427
 31
0.0
  0
INSERT
  5
16DF1
330
16C65
100
AcDbEntity
  8
寸法
 62
     0
 48
50.0
370
    -2
100
AcDbBlockReference
  2
_DOTSMALL
 10
4404.840837456516
 20
2909.537219015427
 30
0.0
 41
100.0
 42
100.0
 43
100.0
 50
270.0
  0
INSERT
  5
16DF2
330
16C65
100
AcDbEntity
  8
寸法
 62
     0
 48
50.0
370
    -2
100
AcDbBlockReference
  2
_DOTSMALL
 10
4404.840837456516
 20
2859.537219015427
 30
0.0
 41
100.0
 42
100.0
 43
100.0
 50
90.0
  0
MTEXT
  5
16DF3
330
16C65
100
AcDbEntity
  8
寸法
 62
     7
 48
50.0
100
AcDbMText
 10
4304.840837456515
 20
2553.489974920938
 30
0.0
 40
120.0
 41
0.0
 71
     5
 72
     1
  1
\A1;50
  7
STYLE1
 11
0.0000000000000001
 21
1.0
 31
0.0
 73
     1
 44
1.0
1001
ACAD
1000
MTEXTBEGIN
1070
    73
1070
     1
1070
    44
1040
1.0
1070
    74
1070
     0
1000
MTEXTEND
  0
POINT
  5
16DF4
330
16C65
100
AcDbEntity
  8
DEFPOINTS
 62
     0
 48
50.0
100
AcDbPoint
 10
5028.493546614813
 20
2909.537219015427
 30
0.0
  0
POINT
  5
16DF5
330
16C65
100
AcDbEntity
  8
DEFPOINTS
 62
     0
 48
50.0
100
AcDbPoint
 10
4973.493546614813
 20
2859.537219015427
 30
0.0
  0
POINT
  5
16DF6
330
16C65
100
AcDbEntity
  8
DEFPOINTS
 62
     0
 48
50.0
100
AcDbPoint
 10
4404.840837456516
 20
2859.537219015427
 30
0.0
  0
ENDBLK
  5
16C72
330
16C65
100
AcDbEntity
  8
0
 48
50.0
100
AcDbBlockEnd
  0
BLOCK
  5
16C7E
330
16C73
100
AcDbEntity
  8
0
 48
50.0
100
AcDbBlockBegin
  2
*D27
 70
     1
 10
0.0
 20
0.0
 30
0.0
  3
*D27
  1

  0
LINE
  5
16DE2
330
16C73
100
AcDbEntity
  8
寸法
 62
     0
 48
50.0
370
    -2
100
AcDbLine
 10
4953.493546614812
 20
2859.537219015427
 30
0.0
 11
4059.854164685454
 21
2859.537219015427
 31
0.0
  0
LINE
  5
16DE3
330
16C73
100
AcDbEntity
  8
寸法
 62
     0
 48
50.0
370
    -2
100
AcDbLine
 10
4384.840837456515
 20
2759.537219015427
 30
0.0
 11
4059.854164685454
 21
2759.537219015427
 31
0.0
  0
LINE
  5
16DE4
330
16C73
100
AcDbEntity
  8
寸法
 62
     0
 48
50.0
370
    -2
100
AcDbLine
 10
4119.854164685454
 20
2859.537219015427
 30
0.0
 11
4119.854164685454
 21
2759.537219015427
 31
0.0
  0
LINE
  5
16DE5
330
16C73
100
AcDbEntity
  8
寸法
 62
     0
 48
50.0
370
    -2
100
AcDbLine
 10
4119.854164685454
 20
2759.537219015427
 30
0.0
 11
4119.854164685454
 21
2387.442730826449
 31
0.0
  0
INSERT
  5
16DE6
330
16C73
100
AcDbEntity
  8
寸法
 62
     0
 48
50.0
370
    -2
100
AcDbBlockReference
  2
_DOTSMALL
 10
4119.854164685454
 20
2859.537219015427
 30
0.0
 41
100.0
 42
100.0
 43
100.0
 50
90.0
  0
INSERT
  5
16DE7
330
16C73
100
AcDbEntity
  8
寸法
 62
     0
 48
50.0
370
    -2
100
AcDbBlockReference
  2
_DOTSMALL
 10
4119.854164685454
 20
2759.537219015427
 30
0.0
 41
100.0
 42
100.0
 43
100.0
 50
270.0
  0
MTEXT
  5
16DE8
330
16C73
100
AcDbEntity
  8
寸法
 62
     7
 48
50.0
100
AcDbMText
 10
4019.854164685454
 20
2523.489974920937
 30
0.0
 40
120.0
 41
0.0
 71
     5
 72
     1
  1
\A1;100
  7
STYLE1
 11
0.0000000000000001
 21
1.0
 31
0.0
 73
     1
 44
1.0
1001
ACAD
1000
MTEXTBEGIN
1070
    73
1070
     1
1070
    44
1040
1.0
1070
    74
1070
     0
1000
MTEXTEND
  0
POINT
  5
16DE9
330
16C73
100
AcDbEntity
  8
DEFPOINTS
 62
     0
 48
50.0
100
AcDbPoint
 10
4973.493546614813
 20
2859.537219015427
 30
0.0
  0
POINT
  5
16DEA
330
16C73
100
AcDbEntity
  8
DEFPOINTS
 62
     0
 48
50.0
100
AcDbPoint
 10
4404.840837456514
 20
2759.537219015427
 30
0.0
  0
POINT
  5
16DEB
330
16C73
100
AcDbEntity
  8
DEFPOINTS
 62
     0
 48
50.0
100
AcDbPoint
 10
4119.854164685454
 20
2759.537219015427
 30
0.0
  0
ENDBLK
  5
16C7F
330
16C73
100
AcDbEntity
  8
0
 48
50.0
100
AcDbBlockEnd
  0
BLOCK
  5
16C8A
330
16C80
100
AcDbEntity
  8
0
 48
50.0
100
AcDbBlockBegin
  2
*D28
 70
     1
 10
0.0
 20
0.0
 30
0.0
  3
*D28
  1

  0
LINE
  5
16DD9
330
16C80
100
AcDbEntity
  8
寸法
 62
     0
 48
50.0
370
    -2
100
AcDbLine
 10
5008.493546614812
 20
2859.537219015427
 30
0.0
 11
4059.854164685454
 21
2859.537219015427
 31
0.0
  0
LINE
  5
16DDA
330
16C80
100
AcDbEntity
  8
寸法
 62
     0
 48
50.0
370
    -2
100
AcDbLine
 10
4948.493546614812
 20
4934.537219015432
 30
0.0
 11
4059.854164685455
 21
4934.537219015432
 31
0.0
  0
LINE
  5
16DDB
330
16C80
100
AcDbEntity
  8
寸法
 62
     0
 48
50.0
370
    -2
100
AcDbLine
 10
4119.854164685454
 20
2859.537219015427
 30
0.0
 11
4119.854164685454
 21
4934.537219015432
 31
0.0
  0
INSERT
  5
16DDC
330
16C80
100
AcDbEntity
  8
寸法
 62
     0
 48
50.0
370
    -2
100
AcDbBlockReference
  2
_DOTSMALL
 10
4119.854164685454
 20
2859.537219015427
 30
0.0
 41
100.0
 42
100.0
 43
100.0
 50
270.0
  0
INSERT
  5
16DDD
330
16C80
100
AcDbEntity
  8
寸法
 62
     0
 48
50.0
370
    -2
100
AcDbBlockReference
  2
_DOTSMALL
 10
4119.854164685454
 20
4934.537219015432
 30
0.0
 41
100.0
 42
100.0
 43
100.0
 50
90.0
  0
MTEXT
  5
16DDE
330
16C80
100
AcDbEntity
  8
寸法
 62
     7
 48
50.0
100
AcDbMText
 10
4019.842353661831
 20
3853.743096508537
 30
0.0
 40
120.0
 41
0.0
 71
     5
 72
     1
  1
\A1;2075
  7
STYLE1
 11
0.0000000000000001
 21
1.0
 31
0.0
 73
     1
 44
1.0
1001
ACAD
1000
MTEXTBEGIN
1070
    73
1070
     1
1070
    44
1040
1.0
1070
    74
1070
     0
1000
MTEXTEND
  0
POINT
  5
16DDF
330
16C80
100
AcDbEntity
  8
DEFPOINTS
 62
     0
 48
50.0
100
AcDbPoint
 10
5028.493546614813
 20
2859.537219015427
 30
0.0
  0
POINT
  5
16DE0
330
16C80
100
AcDbEntity
  8
DEFPOINTS
 62
     0
 48
50.0
100
AcDbPoint
 10
4968.493546614812
 20
4934.537219015432
 30
0.0
  0
POINT
  5
16DE1
330
16C80
100
AcDbEntity
  8
DEFPOINTS
 62
     0
 48
50.0
100
AcDbPoint
 10
4119.854164685454
 20
4934.537219015432
 30
0.0
  0
ENDBLK
  5
16C8B
330
16C80
100
AcDbEntity
  8
0
 48
50.0
100
AcDbBlockEnd
  0
BLOCK
  5
16C96
330
16C8C
100
AcDbEntity
  8
0
 48
50.0
100
AcDbBlockBegin
  2
*D29
 70
     1
 10
0.0
 20
0.0
 30
0.0
  3
*D29
  1

  0
LINE
  5
16DD0
330
16C8C
100
AcDbEntity
  8
寸法
 62
     0
 48
50.0
370
    -2
100
AcDbLine
 10
5008.493546614812
 20
4699.537219015427
 30
0.0
 11
4344.840837456516
 21
4699.537219015427
 31
0.0
  0
LINE
  5
16DD1
330
16C8C
100
AcDbEntity
  8
寸法
 62
     0
 48
50.0
370
    -2
100
AcDbLine
 10
5008.493546614812
 20
2909.537219015427
 30
0.0
 11
4344.840837456516
 21
2909.537219015427
 31
0.0
  0
LINE
  5
16DD2
330
16C8C
100
AcDbEntity
  8
寸法
 62
     0
 48
50.0
370
    -2
100
AcDbLine
 10
4404.840837456516
 20
4699.537219015427
 30
0.0
 11
4404.840837456516
 21
2909.537219015427
 31
0.0
  0
INSERT
  5
16DD3
330
16C8C
100
AcDbEntity
  8
寸法
 62
     0
 48
50.0
370
    -2
100
AcDbBlockReference
  2
_DOTSMALL
 10
4404.840837456516
 20
4699.537219015427
 30
0.0
 41
100.0
 42
100.0
 43
100.0
 50
90.0
  0
INSERT
  5
16DD4
330
16C8C
100
AcDbEntity
  8
寸法
 62
     0
 48
50.0
370
    -2
100
AcDbBlockReference
  2
_DOTSMALL
 10
4404.840837456516
 20
2909.537219015427
 30
0.0
 41
100.0
 42
100.0
 43
100.0
 50
270.0
  0
MTEXT
  5
16DD5
330
16C8C
100
AcDbEntity
  8
寸法
 62
     7
 48
50.0
100
AcDbMText
 10
4304.840837456515
 20
3799.991517557384
 30
0.0
 40
120.0
 41
0.0
 71
     5
 72
     1
  1
\A1;1790
  7
STYLE1
 11
0.0000000000000001
 21
1.0
 31
0.0
 73
     1
 44
1.0
1001
ACAD
1000
MTEXTBEGIN
1070
    73
1070
     1
1070
    44
1040
1.0
1070
    74
1070
     0
1000
MTEXTEND
  0
POINT
  5
16DD6
330
16C8C
100
AcDbEntity
  8
DEFPOINTS
 62
     0
 48
50.0
100
AcDbPoint
 10
5028.493546614813
 20
4699.537219015427
 30
0.0
  0
POINT
  5
16DD7
330
16C8C
100
AcDbEntity
  8
DEFPOINTS
 62
     0
 48
50.0
100
AcDbPoint
 10
5028.493546614813
 20
2909.537219015427
 30
0.0
  0
POINT
  5
16DD8
330
16C8C
100
AcDbEntity
  8
DEFPOINTS
 62
     0
 48
50.0
100
AcDbPoint
 10
4404.840837456516
 20
2909.537219015427
 30
0.0
  0
ENDBLK
  5
16C97
330
16C8C
100
AcDbEntity
  8
0
 48
50.0
100
AcDbBlockEnd
  0
BLOCK
  5
170B0
330
170A6
100
AcDbEntity
  8
0
 48
50.0
100
AcDbBlockBegin
  2
*D30
 70
     1
 10
0.0
 20
0.0
 30
0.0
  3
*D30
  1

  0
LINE
  5
1757A
330
170A6
100
AcDbEntity
  8
寸法
 62
     0
 48
50.0
370
    -2
100
AcDbLine
 10
9011.953892712321
 20
7920.045602913197
 30
0.0
 11
9011.953892712321
 21
7274.970584864973
 31
0.0
  0
LINE
  5
1757B
330
170A6
100
AcDbEntity
  8
寸法
 62
     0
 48
50.0
370
    -2
100
AcDbLine
 10
9961.953892712323
 20
7920.045602913197
 30
0.0
 11
9961.953892712323
 21
7274.970584864973
 31
0.0
  0
LINE
  5
1757C
330
170A6
100
AcDbEntity
  8
寸法
 62
     0
 48
50.0
370
    -2
100
AcDbLine
 10
9031.953892712321
 20
7314.970584864972
 30
0.0
 11
9941.953892712321
 21
7314.970584864972
 31
0.0
  0
INSERT
  5
1757D
330
170A6
100
AcDbEntity
  8
寸法
 62
     0
 48
50.0
370
    -2
100
AcDbBlockReference
  2
_DOT
 10
9011.953892712321
 20
7314.970584864972
 30
0.0
 41
20.0
 42
20.0
 43
20.0
 50
180.0
  0
INSERT
  5
1757E
330
170A6
100
AcDbEntity
  8
寸法
 62
     0
 48
50.0
370
    -2
100
AcDbBlockReference
  2
_DOT
 10
9961.953892712323
 20
7314.970584864972
 30
0.0
 41
20.0
 42
20.0
 43
20.0
  0
MTEXT
  5
1757F
330
170A6
100
AcDbEntity
  8
寸法
 62
     7
 48
50.0
100
AcDbMText
 10
9486.953892712321
 20
7506.970584864972
 30
0.0
 40
120.0
 41
0.0
 71
     5
 72
     1
  1
\A1;有効開口部間口\P950
  7
STYLE1
 73
     1
 44
1.0
1001
ACAD
1000
MTEXTBEGIN
1070
    73
1070
     1
1070
    44
1040
1.0
1070
    74
1070
     0
1000
MTEXTEND
  0
POINT
  5
17580
330
170A6
100
AcDbEntity
  8
DEFPOINTS
 62
     0
 48
50.0
100
AcDbPoint
 10
9011.953892712321
 20
7940.045602913198
 30
0.0
  0
POINT
  5
17581
330
170A6
100
AcDbEntity
  8
DEFPOINTS
 62
     0
 48
50.0
100
AcDbPoint
 10
9961.953892712323
 20
7940.045602913198
 30
0.0
  0
POINT
  5
17582
330
170A6
100
AcDbEntity
  8
DEFPOINTS
 62
     0
 48
50.0
100
AcDbPoint
 10
9961.953892712323
 20
7314.970584864972
 30
0.0
  0
ENDBLK
  5
170B1
330
170A6
100
AcDbEntity
  8
0
 48
50.0
100
AcDbBlockEnd
  0
BLOCK
  5
17391
330
17387
100
AcDbEntity
  8
0
 48
50.0
100
AcDbBlockBegin
  2
*D31
 70
     1
 10
0.0
 20
0.0
 30
0.0
  3
*D31
  1

  0
LINE
  5
17571
330
17387
100
AcDbEntity
  8
寸法
 62
     0
 48
50.0
370
    -2
100
AcDbLine
 10
8972.953892712322
 20
7920.045602913197
 30
0.0
 11
8972.953892712322
 21
7004.975333062415
 31
0.0
  0
LINE
  5
17572
330
17387
100
AcDbEntity
  8
寸法
 62
     0
 48
50.0
370
    -2
100
AcDbLine
 10
10706.95389271232
 20
7920.045602913194
 30
0.0
 11
10706.95389271232
 21
7004.975333062415
 31
0.0
  0
LINE
  5
17573
330
17387
100
AcDbEntity
  8
寸法
 62
     0
 48
50.0
370
    -2
100
AcDbLine
 10
8972.953892712322
 20
7064.975333062415
 30
0.0
 11
10706.95389271232
 21
7064.975333062415
 31
0.0
  0
INSERT
  5
17574
330
17387
100
AcDbEntity
  8
寸法
 62
     0
 48
50.0
370
    -2
100
AcDbBlockReference
  2
_DOTSMALL
 10
8972.953892712322
 20
7064.975333062415
 30
0.0
 41
100.0
 42
100.0
 43
100.0
 50
180.0
  0
INSERT
  5
17575
330
17387
100
AcDbEntity
  8
寸法
 62
     0
 48
50.0
370
    -2
100
AcDbBlockReference
  2
_DOTSMALL
 10
10706.95389271232
 20
7064.975333062415
 30
0.0
 41
100.0
 42
100.0
 43
100.0
  0
MTEXT
  5
17576
330
17387
100
AcDbEntity
  8
寸法
 62
     7
 48
50.0
100
AcDbMText
 10
9830.535636664144
 20
7164.975333062415
 30
0.0
 40
120.0
 41
0.0
 71
     5
 72
     1
  1
\A1;1734
  7
STYLE1
 73
     1
 44
1.0
1001
ACAD
1000
MTEXTBEGIN
1070
    73
1070
     1
1070
    44
1040
1.0
1070
    74
1070
     0
1000
MTEXTEND
  0
POINT
  5
17577
330
17387
100
AcDbEntity
  8
DEFPOINTS
 62
     0
 48
50.0
100
AcDbPoint
 10
8972.953892712322
 20
7940.045602913198
 30
0.0
  0
POINT
  5
17578
330
17387
100
AcDbEntity
  8
DEFPOINTS
 62
     0
 48
50.0
100
AcDbPoint
 10
10706.95389271232
 20
7940.045602913194
 30
0.0
  0
POINT
  5
17579
330
17387
100
AcDbEntity
  8
DEFPOINTS
 62
     0
 48
50.0
100
AcDbPoint
 10
10706.95389271232
 20
7064.975333062415
 30
0.0
  0
ENDBLK
  5
17392
330
17387
100
AcDbEntity
  8
0
 48
50.0
100
AcDbBlockEnd
  0
BLOCK
  5
1739F
330
17393
100
AcDbEntity
  8
0
 48
50.0
100
AcDbBlockBegin
  2
*D32
 70
     1
 10
0.0
 20
0.0
 30
0.0
  3
*D32
  1

  0
LINE
  5
17566
330
17393
100
AcDbEntity
  8
寸法
 62
     0
 48
50.0
370
    -2
100
AcDbLine
 10
8924.95389271235
 20
8017.04560291319
 30
0.0
 11
8610.342647085634
 21
8017.04560291319
 31
0.0
  0
LINE
  5
17567
330
17393
100
AcDbEntity
  8
寸法
 62
     0
 48
50.0
370
    -2
100
AcDbLine
 10
8952.953892712327
 20
7942.045602913191
 30
0.0
 11
8610.342647085634
 21
7942.045602913191
 31
0.0
  0
LINE
  5
17568
330
17393
100
AcDbEntity
  8
寸法
 62
     0
 48
50.0
370
    -2
100
AcDbLine
 10
8650.342647085635
 20
8037.045602913192
 30
0.0
 11
8650.342647085635
 21
8057.045602913191
 31
0.0
  0
LINE
  5
17569
330
17393
100
AcDbEntity
  8
寸法
 62
     0
 48
50.0
370
    -2
100
AcDbLine
 10
8650.342647085635
 20
7922.045602913191
 30
0.0
 11
8650.342647085635
 21
7701.075040164713
 31
0.0
  0
LINE
  5
1756A
330
17393
100
AcDbEntity
  8
寸法
 62
     0
 48
50.0
370
    -2
100
AcDbLine
 10
8650.342647085635
 20
8017.04560291319
 30
0.0
 11
8650.342647085635
 21
7942.045602913191
 31
0.0
  0
INSERT
  5
1756B
330
17393
100
AcDbEntity
  8
寸法
 62
     0
 48
50.0
370
    -2
100
AcDbBlockReference
  2
_DOT
 10
8650.342647085635
 20
8017.04560291319
 30
0.0
 41
20.0
 42
20.0
 43
20.0
 50
270.0
  0
INSERT
  5
1756C
330
17393
100
AcDbEntity
  8
寸法
 62
     0
 48
50.0
370
    -2
100
AcDbBlockReference
  2
_DOT
 10
8650.342647085635
 20
7942.045602913191
 30
0.0
 41
20.0
 42
20.0
 43
20.0
 50
90.0
  0
MTEXT
  5
1756D
330
17393
100
AcDbEntity
  8
寸法
 62
     7
 48
50.0
100
AcDbMText
 10
8558.342647085632
 20
7801.560321538953
 30
0.0
 40
120.0
 41
0.0
 71
     5
 72
     1
  1
\A1;75
  7
STYLE1
 11
0.0000000000000001
 21
1.0
 31
0.0
 73
     1
 44
1.0
1001
ACAD
1000
MTEXTBEGIN
1070
    73
1070
     1
1070
    44
1040
1.0
1070
    74
1070
     0
1000
MTEXTEND
  0
POINT
  5
1756E
330
17393
100
AcDbEntity
  8
DEFPOINTS
 62
     0
 48
50.0
100
AcDbPoint
 10
8944.95389271235
 20
8017.04560291319
 30
0.0
  0
POINT
  5
1756F
330
17393
100
AcDbEntity
  8
DEFPOINTS
 62
     0
 48
50.0
100
AcDbPoint
 10
8972.953892712329
 20
7942.045602913191
 30
0.0
  0
POINT
  5
17570
330
17393
100
AcDbEntity
  8
DEFPOINTS
 62
     0
 48
50.0
100
AcDbPoint
 10
8650.342647085635
 20
7942.045602913191
 30
0.0
  0
ENDBLK
  5
173A0
330
17393
100
AcDbEntity
  8
0
 48
50.0
100
AcDbBlockEnd
  0
BLOCK
  5
173E9
330
173DF
100
AcDbEntity
  8
0
 48
50.0
100
AcDbBlockBegin
  2
*D33
 70
     1
 10
0.0
 20
0.0
 30
0.0
  3
*D33
  1

  0
LINE
  5
1755D
330
173DF
100
AcDbEntity
  8
寸法
 62
     0
 48
50.0
370
    -2
100
AcDbLine
 10
8944.95389271235
 20
7997.045602913191
 30
0.0
 11
8944.95389271235
 21
6765.217812168287
 31
0.0
  0
LINE
  5
1755E
330
173DF
100
AcDbEntity
  8
寸法
 62
     0
 48
50.0
370
    -2
100
AcDbLine
 10
10734.95389271233
 20
7997.045602913321
 30
0.0
 11
10734.95389271233
 21
6765.217812168287
 31
0.0
  0
LINE
  5
1755F
330
173DF
100
AcDbEntity
  8
寸法
 62
     0
 48
50.0
370
    -2
100
AcDbLine
 10
8944.95389271235
 20
6825.217812168289
 30
0.0
 11
10734.95389271233
 21
6825.217812168289
 31
0.0
  0
INSERT
  5
17560
330
173DF
100
AcDbEntity
  8
寸法
 62
     0
 48
50.0
370
    -2
100
AcDbBlockReference
  2
_DOTSMALL
 10
8944.95389271235
 20
6825.217812168289
 30
0.0
 41
100.0
 42
100.0
 43
100.0
 50
180.0
  0
INSERT
  5
17561
330
173DF
100
AcDbEntity
  8
寸法
 62
     0
 48
50.0
370
    -2
100
AcDbBlockReference
  2
_DOTSMALL
 10
10734.95389271233
 20
6825.217812168289
 30
0.0
 41
100.0
 42
100.0
 43
100.0
  0
MTEXT
  5
17562
330
173DF
100
AcDbEntity
  8
寸法
 62
     7
 48
50.0
100
AcDbMText
 10
9828.100643043704
 20
6925.217812168289
 30
0.0
 40
120.0
 41
0.0
 71
     5
 72
     1
  1
\A1;1790
  7
STYLE1
 73
     1
 44
1.0
1001
ACAD
1000
MTEXTBEGIN
1070
    73
1070
     1
1070
    44
1040
1.0
1070
    74
1070
     0
1000
MTEXTEND
  0
POINT
  5
17563
330
173DF
100
AcDbEntity
  8
DEFPOINTS
 62
     0
 48
50.0
100
AcDbPoint
 10
8944.95389271235
 20
8017.04560291319
 30
0.0
  0
POINT
  5
17564
330
173DF
100
AcDbEntity
  8
DEFPOINTS
 62
     0
 48
50.0
100
AcDbPoint
 10
10734.95389271233
 20
8017.04560291332
 30
0.0
  0
POINT
  5
17565
330
173DF
100
AcDbEntity
  8
DEFPOINTS
 62
     0
 48
50.0
100
AcDbPoint
 10
10734.95389271233
 20
6825.217812168289
 30
0.0
  0
ENDBLK
  5
173EA
330
173DF
100
AcDbEntity
  8
0
 48
50.0
100
AcDbBlockEnd
  0
ENDSEC
  0
SECTION
  2
ENTITIES
  0
LINE
  5
10B57
330
747D
100
AcDbEntity
  8
補助
  6
PHANTOM
 62
   230
 48
50.0
100
AcDbLine
 10
139.9999999999995
 20
11409.6
 30
0.0
 11
16307.2
 21
11409.6
 31
0.0
  0
LINE
  5
10B59
330
747D
100
AcDbEntity
  8
仕様書枠
  6
Continuous
 48
50.0
100
AcDbLine
 10
13107.2
 20
1200.0
 30
0.0
 11
13107.2
 21
-0.0000000000000729
 31
0.0
  0
LINE
  5
10B5C
330
747D
100
AcDbEntity
  8
仕様書枠
 48
50.0
100
AcDbLine
 10
16307.2
 20
1200.0
 30
0.0
 11
16307.2
 21
-0.0000000000000909
 31
0.0
  0
LINE
  5
10B5D
330
747D
100
AcDbEntity
  8
仕様書枠
 48
50.0
100
AcDbLine
 10
140.0
 20
0.0
 30
0.0
 11
16307.2
 21
-0.0000000000000909
 31
0.0
  0
LINE
  5
10B5E
330
747D
100
AcDbEntity
  8
補助
  6
PHANTOM
 62
   230
 48
50.0
100
AcDbLine
 10
16307.2
 20
11409.6
 30
0.0
 11
16307.2
 21
1200.0
 31
0.0
  0
LINE
  5
10B6C
330
747D
100
AcDbEntity
  8
仕様書枠
 48
50.0
100
AcDbLine
 10
13107.2
 20
1200.0
 30
0.0
 11
16307.2
 21
1200.0
 31
0.0
  0
LINE
  5
10B6D
330
747D
100
AcDbEntity
  8
補助
  6
PHANTOM
 62
   230
 48
50.0
100
AcDbLine
 10
13107.2
 20
11409.6
 30
0.0
 11
13107.2
 21
4800.0
 31
0.0
  0
LINE
  5
10B6F
330
747D
100
AcDbEntity
  8
補助
  6
PHANTOM
 62
   230
 48
50.0
100
AcDbLine
 10
13107.2
 20
4800.0
 30
0.0
 11
16307.2
 21
4800.0
 31
0.0
  0
LINE
  5
10B72
330
747D
100
AcDbEntity
  8
文字
 62
     7
 48
50.0
100
AcDbLine
 10
13187.2
 20
400.0
 30
0.0
 11
16227.2
 21
400.0
 31
0.0
  0
TEXT
  5
10B73
330
747D
100
AcDbEntity
  8
文字
 62
     7
 48
50.0
100
AcDbText
 10
13162.9790565769
 20
895.0906074299405
 30
0.0
 40
200.0
  1
外 形 図
  7
STYLE2
100
AcDbText
  0
TEXT
  5
10B74
330
747D
100
AcDbEntity
  8
文字
 62
     7
 48
50.0
100
AcDbText
 10
13201.43669998441
 20
477.2740661031255
 30
0.0
 40
160.0
  1
機種名
  7
STYLE2
100
AcDbText
  0
TEXT
  5
10B76
330
747D
100
AcDbEntity
  8
文字
 62
     7
 48
50.0
100
AcDbText
 10
13209.4053442172
 20
76.09434707649343
 30
0.0
 40
100.0
  1
○床面積 ： 3.33㎡(1.00坪) 　
  7
STYLE2
100
AcDbText
  0
TEXT
  5
10B79
330
747D
100
AcDbEntity
  8
文字
 62
     7
 48
50.0
100
AcDbText
 10
14524.131837222
 20
1031.557706291228
 30
0.0
 40
100.0
  1
NO.06      <縮尺> S=1/40
  7
STYLE2
100
AcDbText
  0
LINE
  5
10B7B
330
747D
100
AcDbEntity
  8
仕様書枠
 48
50.0
100
AcDbLine
 10
13107.2
 20
800.0
 30
0.0
 11
14251.2
 21
800.0
 31
0.0
  0
LINE
  5
10B88
330
747D
100
AcDbEntity
  8
仕様書枠
  6
Continuous
 48
50.0
100
AcDbLine
 10
14251.2
 20
1200.0
 30
0.0
 11
14251.2
 21
800.0
 31
0.0
  0
TEXT
  5
14D2F
330
747D
100
AcDbEntity
  8
文字
 62
     7
 48
50.0
100
AcDbText
 10
14644.07818602837
 20
876.4448062548634
 30
0.0
 40
100.0
  1
～一般型・多雪地型～
  7
STYLE2
100
AcDbText
  0
MTEXT
  5
16146
330
747D
100
AcDbEntity
  8
寸法
 62
     7
 48
50.0
100
AcDbMText
 10
10295.05642980549
 20
9393.280421110674
 30
0.0
 40
96.0
 41
0.0
 71
     5
 72
     1
  1
棚 2段
  7
STYLE1
 73
     1
 44
1.0
1001
ACAD
1000
MTEXTBEGIN
1070
    73
1070
     1
1070
    44
1040
1.0
1070
    74
1070
     0
1000
MTEXTEND
  0
LINE
  5
161B2
330
747D
100
AcDbEntity
  8
細線
100
AcDbLine
 10
10279.95392803124
 20
4642.537219015408
 30
0.0
 11
10279.95392803124
 21
2917.037219015427
 31
0.0
  0
LINE
  5
161B3
330
747D
100
AcDbEntity
  8
細線
100
AcDbLine
 10
10209.95392803124
 20
4642.537219015408
 30
0.0
 11
10209.95392803124
 21
2917.037219015427
 31
0.0
  0
LINE
  5
161B4
330
747D
100
AcDbEntity
  8
細線
100
AcDbLine
 10
10349.95389271235
 20
4642.537219015408
 30
0.0
 11
10349.95389271235
 21
2917.037219015427
 31
0.0
  0
LINE
  5
161B5
330
747D
100
AcDbEntity
  8
細線
100
AcDbLine
 10
9691.953892712351
 20
4642.537219015419
 30
0.0
 11
9691.953892712353
 21
2917.037219015434
 31
0.0
  0
LINE
  5
161B6
330
747D
100
AcDbEntity
  8
細線
100
AcDbLine
 10
9761.95389271235
 20
4642.537219015419
 30
0.0
 11
9761.953892712353
 21
2917.037219015434
 31
0.0
  0
LINE
  5
161B7
330
747D
100
AcDbEntity
  8
細線
100
AcDbLine
 10
9312.953884526935
 20
4642.537219015419
 30
0.0
 11
9312.953884526935
 21
2909.537219015423
 31
0.0
  0
LINE
  5
161B8
330
747D
100
AcDbEntity
  8
細線
100
AcDbLine
 10
10419.95389271235
 20
4642.537219015408
 30
0.0
 11
10419.95389271235
 21
2917.037219015427
 31
0.0
  0
LINE
  5
161B9
330
747D
100
AcDbEntity
  8
細線
100
AcDbLine
 10
10489.95389271235
 20
4642.537219015408
 30
0.0
 11
10489.95389271235
 21
2917.037219015427
 31
0.0
  0
LINE
  5
161BA
330
747D
100
AcDbEntity
  8
細線
100
AcDbLine
 10
10559.95389271235
 20
4642.537219015408
 30
0.0
 11
10559.95389271235
 21
2917.037219015427
 31
0.0
  0
LINE
  5
161BB
330
747D
100
AcDbEntity
  8
細線
100
AcDbLine
 10
9831.95389271235
 20
4642.537219015419
 30
0.0
 11
9831.953892712352
 21
2917.037219015434
 31
0.0
  0
LINE
  5
161BC
330
747D
100
AcDbEntity
  8
細線
100
AcDbLine
 10
9901.95389271235
 20
4642.537219015419
 30
0.0
 11
9901.953892712352
 21
2917.037219015434
 31
0.0
  0
LINE
  5
161BD
330
747D
100
AcDbEntity
  8
細線
100
AcDbLine
 10
9971.953892712351
 20
4642.537219015419
 30
0.0
 11
9971.953892712352
 21
2917.037219015434
 31
0.0
  0
LINE
  5
161BE
330
747D
100
AcDbEntity
  8
細線
100
AcDbLine
 10
10041.95389271235
 20
4642.537219015419
 30
0.0
 11
10041.95389271235
 21
2917.037219015434
 31
0.0
  0
LINE
  5
161BF
330
747D
100
AcDbEntity
  8
細線
100
AcDbLine
 10
9130.953892712353
 20
4642.537219015419
 30
0.0
 11
9130.953892712353
 21
2909.537219015427
 31
0.0
  0
LINE
  5
161C0
330
747D
100
AcDbEntity
  8
細線
100
AcDbLine
 10
9164.953892712352
 20
4642.537219015419
 30
0.0
 11
9164.953892712352
 21
2909.537219015427
 31
0.0
  0
LINE
  5
161C1
330
747D
100
AcDbEntity
  8
部品1
100
AcDbLine
 10
9122.953892712352
 20
4642.537219015419
 30
0.0
 11
9122.953892712352
 21
2909.537219015427
 31
0.0
  0
LINE
  5
161C2
330
747D
100
AcDbEntity
  8
部品1
100
AcDbLine
 10
9172.953892712353
 20
4642.537219015419
 30
0.0
 11
9172.953892712353
 21
2909.537219015427
 31
0.0
  0
LINE
  5
161C3
330
747D
100
AcDbEntity
  8
細線
100
AcDbLine
 10
9382.953884526934
 20
4642.537219015419
 30
0.0
 11
9382.953884526934
 21
2909.537219015423
 31
0.0
  0
LINE
  5
161C4
330
747D
100
AcDbEntity
  8
細線
100
AcDbLine
 10
9452.953884526934
 20
4642.537219015419
 30
0.0
 11
9452.953884526934
 21
2909.537219015423
 31
0.0
  0
LINE
  5
161C5
330
747D
100
AcDbEntity
  8
細線
100
AcDbLine
 10
9522.953884526934
 20
4642.537219015419
 30
0.0
 11
9522.953884526934
 21
2909.537219015423
 31
0.0
  0
LINE
  5
161C6
330
747D
100
AcDbEntity
  8
部品1
 48
50.0
100
AcDbLine
 10
10133.45389271235
 20
4642.537219015427
 30
0.0
 11
10133.45389271235
 21
2917.037219015427
 31
0.0
  0
LINE
  5
161C7
330
747D
100
AcDbEntity
  8
部品1
 48
50.0
100
AcDbLine
 10
9641.453892712357
 20
4642.537219015427
 30
0.0
 11
9641.453892712355
 21
2909.537219015427
 31
0.0
  0
LINE
  5
161C8
330
747D
100
AcDbEntity
  8
部品1
 48
50.0
100
AcDbLine
 10
8972.953892712348
 20
4694.537219015426
 30
0.0
 11
8972.953892712348
 21
2859.537219015427
 31
0.0
  0
LINE
  5
161C9
330
747D
100
AcDbEntity
  8
細線
 48
50.0
100
AcDbLine
 10
9002.953892712353
 20
4652.037219015427
 30
0.0
 11
9002.953892712348
 21
2859.537219015427
 31
0.0
  0
LINE
  5
161CA
330
747D
100
AcDbEntity
  8
部品1
 48
50.0
100
AcDbLine
 10
9002.953892712351
 20
2909.537219015427
 30
0.0
 11
9002.953892712353
 21
4642.537219015427
 31
0.0
  0
LINE
  5
161CB
330
747D
100
AcDbEntity
  8
部品1
 48
50.0
100
AcDbLine
 10
10667.95389271235
 20
2906.537219015427
 30
0.0
 11
10667.95389271235
 21
4642.537219015427
 31
0.0
  0
LINE
  5
161CC
330
747D
100
AcDbEntity
  8
細線
 48
50.0
100
AcDbLine
 10
10676.95389271235
 20
2859.537219015427
 30
0.0
 11
10676.95389271235
 21
4652.037219015427
 31
0.0
  0
LINE
  5
161CD
330
747D
100
AcDbEntity
  8
部品1
 48
50.0
100
AcDbLine
 10
10706.95389271235
 20
2859.537219015427
 30
0.0
 11
10706.95389271235
 21
4694.537219015426
 31
0.0
  0
LINE
  5
161CE
330
747D
100
AcDbEntity
  8
細線
 48
50.0
100
AcDbLine
 10
9641.453892712355
 20
2917.037219015427
 30
0.0
 11
10650.95389271235
 21
2917.037219015427
 31
0.0
  0
LINE
  5
161CF
330
747D
100
AcDbEntity
  8
細線
 48
50.0
100
AcDbLine
 10
9002.953892712351
 20
2906.537219015427
 30
0.0
 11
10676.95389271235
 21
2906.537219015427
 31
0.0
  0
LINE
  5
161D0
330
747D
100
AcDbEntity
  8
細線
 48
50.0
100
AcDbLine
 10
9002.953892712351
 20
2902.537219015427
 30
0.0
 11
10676.95389271235
 21
2902.537219015427
 31
0.0
  0
LINE
  5
161D1
330
747D
100
AcDbEntity
  8
部品1
 48
50.0
100
AcDbLine
 10
8972.953892712348
 20
2859.537219015427
 30
0.0
 11
10706.95389271235
 21
2859.537219015427
 31
0.0
  0
LINE
  5
161D2
330
747D
100
AcDbEntity
  8
部品1
 48
50.0
100
AcDbLine
 10
9002.953892712351
 20
2909.537219015427
 30
0.0
 11
9641.453892712355
 21
2909.537219015427
 31
0.0
  0
LINE
  5
161D3
330
747D
100
AcDbEntity
  8
部品1
 48
50.0
100
AcDbLine
 10
9011.95389271235
 20
2909.537219015427
 30
0.0
 11
9011.95389271235
 21
2906.537219015427
 31
0.0
  0
LINE
  5
161D4
330
747D
100
AcDbEntity
  8
細線
 48
50.0
100
AcDbLine
 10
10654.95389271235
 20
2906.537219015427
 30
0.0
 11
10650.95389271235
 21
2917.037219015427
 31
0.0
  0
LINE
  5
161D5
330
747D
100
AcDbEntity
  8
部品1
 48
50.0
100
AcDbLine
 10
10706.95389271235
 20
4694.537219015426
 30
0.0
 11
8972.953892712348
 21
4694.537219015426
 31
0.0
  0
LINE
  5
161D6
330
747D
100
AcDbEntity
  8
細線
 48
50.0
100
AcDbLine
 10
10706.95389271235
 20
4684.537219015426
 30
0.0
 11
8972.953892712348
 21
4684.537219015426
 31
0.0
  0
LINE
  5
161D7
330
747D
100
AcDbEntity
  8
細線
 48
50.0
100
AcDbLine
 10
10676.95389271235
 20
4642.537219015427
 30
0.0
 11
9002.953892712351
 21
4642.537219015427
 31
0.0
  0
LINE
  5
161D8
330
747D
100
AcDbEntity
  8
細線
 48
50.0
100
AcDbLine
 10
10676.95389271235
 20
4652.037219015427
 30
0.0
 11
9002.953892712351
 21
4652.037219015427
 31
0.0
  0
LINE
  5
161D9
330
747D
100
AcDbEntity
  8
部品1
 48
50.0
100
AcDbLine
 10
9002.953892712351
 20
4650.537219015427
 30
0.0
 11
8972.953892712348
 21
4650.537219015427
 31
0.0
  0
LINE
  5
161DA
330
747D
100
AcDbEntity
  8
部品1
 48
50.0
100
AcDbLine
 10
10706.95389271235
 20
4650.537219015427
 30
0.0
 11
10676.95389271235
 21
4650.537219015427
 31
0.0
  0
LINE
  5
161DE
330
747D
100
AcDbEntity
  8
部品1
 48
50.0
100
AcDbLine
 10
9046.953892712348
 20
3841.037219015427
 30
0.0
 11
9099.953892712347
 21
3841.037219015427
 31
0.0
  0
LINE
  5
16299
330
747D
100
AcDbEntity
  8
部品1
100
AcDbLine
 10
10527.95389271236
 20
4929.537219023899
 30
0.0
 11
10527.95389271237
 21
4832.126151515327
 31
0.0
  0
LINE
  5
1629A
330
747D
100
AcDbEntity
  8
部品1
100
AcDbLine
 10
10502.95389271237
 20
4929.537219023899
 30
0.0
 11
10502.95389271237
 21
4832.126151515327
 31
0.0
  0
LINE
  5
1629B
330
747D
100
AcDbEntity
  8
部品1
100
AcDbLine
 10
10429.95389271236
 20
4929.537219023899
 30
0.0
 11
10429.95389271236
 21
4832.126151515327
 31
0.0
  0
LINE
  5
1629C
330
747D
100
AcDbEntity
  8
部品1
100
AcDbLine
 10
10454.95389271236
 20
4929.537219023899
 30
0.0
 11
10454.95389271236
 21
4832.126151515327
 31
0.0
  0
LINE
  5
1629D
330
747D
100
AcDbEntity
  8
部品1
100
AcDbLine
 10
10417.95389271235
 20
4910.137219023898
 30
0.0
 11
10274.45389271235
 21
4910.137219023898
 31
0.0
  0
LINE
  5
1629E
330
747D
100
AcDbEntity
  8
部品1
100
AcDbLine
 10
10651.45389271235
 20
4910.137219023884
 30
0.0
 11
10539.95389271237
 21
4910.137219023884
 31
0.0
  0
LINE
  5
1629F
330
747D
100
AcDbEntity
  8
部品1
 48
50.0
100
AcDbLine
 10
10501.45389271236
 20
4929.537219023903
 30
0.0
 11
10529.45389271235
 21
4929.537219023903
 31
0.0
  0
LINE
  5
162A0
330
747D
100
AcDbEntity
  8
部品1
 48
50.0
100
AcDbLine
 10
10529.45389271236
 20
4929.537219023903
 30
0.0
 11
10539.95389271236
 21
4910.137219023901
 31
0.0
  0
LINE
  5
162A1
330
747D
100
AcDbEntity
  8
部品1
 48
50.0
100
AcDbLine
 10
10501.45389271236
 20
4929.537219023903
 30
0.0
 11
10490.95389271236
 21
4910.137219023901
 31
0.0
  0
LINE
  5
162A2
330
747D
100
AcDbEntity
  8
部品1
 48
50.0
100
AcDbLine
 10
10428.45389271236
 20
4929.537219023903
 30
0.0
 11
10456.45389271235
 21
4929.537219023903
 31
0.0
  0
LINE
  5
162A3
330
747D
100
AcDbEntity
  8
部品1
 48
50.0
100
AcDbLine
 10
10428.45389271236
 20
4929.537219023903
 30
0.0
 11
10417.95389271236
 21
4910.137219023901
 31
0.0
  0
LINE
  5
162A4
330
747D
100
AcDbEntity
  8
部品1
 48
50.0
100
AcDbLine
 10
10456.45389271236
 20
4929.537219023903
 30
0.0
 11
10466.95389271236
 21
4910.137219023901
 31
0.0
  0
LINE
  5
162A5
330
747D
100
AcDbEntity
  8
部品1
100
AcDbLine
 10
10490.95389271235
 20
4910.137219023898
 30
0.0
 11
10466.95389271236
 21
4910.137219023898
 31
0.0
  0
LINE
  5
162A6
330
747D
100
AcDbEntity
  8
部品1
100
AcDbLine
 10
10735.02452070555
 20
4910.137219023894
 30
0.0
 11
10694.45389271234
 21
4910.137219023894
 31
0.0
  0
LINE
  5
162A7
330
747D
100
AcDbEntity
  8
部品1
 48
50.0
100
AcDbLine
 10
10691.95389271234
 20
4929.537219023899
 30
0.0
 11
10694.45389271234
 21
4910.137219023898
 31
0.0
  0
LINE
  5
162A8
330
747D
100
AcDbEntity
  8
部品1
 48
50.0
100
AcDbLine
 10
10652.74255250615
 20
4920.137219023899
 30
0.0
 11
10651.45389271234
 21
4910.137219023898
 31
0.0
  0
LINE
  5
162A9
330
747D
100
AcDbEntity
  8
部品1
 48
50.0
100
AcDbLine
 10
10652.74255250615
 20
4920.137219023899
 30
0.0
 11
10666.74255250615
 21
4920.137219023899
 31
0.0
  0
LINE
  5
162AA
330
747D
100
AcDbEntity
  8
部品1
 48
50.0
100
AcDbLine
 10
10667.95389271234
 20
4929.537219023899
 30
0.0
 11
10666.74255250615
 21
4920.137219023899
 31
0.0
  0
LINE
  5
162AB
330
747D
100
AcDbEntity
  8
細線
 48
50.0
100
AcDbLine
 10
10735.02452070555
 20
4851.509051763376
 30
0.0
 11
10783.08776198949
 21
4851.509051763383
 31
0.0
  0
LINE
  5
162AC
330
747D
100
AcDbEntity
  8
細線
 48
50.0
100
AcDbLine
 10
10752.46498261662
 20
4879.537219015427
 30
0.0
 11
10752.46498261662
 21
4753.037219015427
 31
0.0
  0
ARC
  5
162AD
330
747D
100
AcDbEntity
  8
部品1
100
AcDbCircle
 10
10777.96784889513
 20
4927.537219032325
 30
0.0
 40
7.0
100
AcDbArc
 50
356.3813705198622
 51
90.0
  0
LINE
  5
162AE
330
747D
100
AcDbEntity
  8
部品1
100
AcDbLine
 10
10740.02452070555
 20
4934.537219032325
 30
0.0
 11
10777.96784889513
 21
4934.537219032325
 31
0.0
  0
ARC
  5
162AF
330
747D
100
AcDbEntity
  8
部品1
100
AcDbCircle
 10
10740.02452070555
 20
4929.537219032325
 30
0.0
 40
5.0
100
AcDbArc
 50
90.0
 51
180.0
  0
LINE
  5
162B0
330
747D
100
AcDbEntity
  8
部品1
 48
50.0
100
AcDbLine
 10
10784.95389271234
 20
4872.095413872838
 30
0.0
 11
10784.95389271234
 21
4927.095413889736
 31
0.0
  0
LINE
  5
162B1
330
747D
100
AcDbEntity
  8
部品1
100
AcDbLine
 10
10735.02452070555
 20
4929.537219032325
 30
0.0
 11
10735.02452070554
 21
4832.126151515324
 31
0.0
  0
ARC
  5
162B2
330
747D
100
AcDbEntity
  8
部品1
100
AcDbCircle
 10
10740.02452070555
 20
4874.537219015427
 30
0.0
 40
5.0
100
AcDbArc
 50
90.0
 51
180.0
  0
LINE
  5
162B3
330
747D
100
AcDbEntity
  8
部品1
100
AcDbLine
 10
10740.02452070555
 20
4879.537219015427
 30
0.0
 11
10777.96784889513
 21
4879.537219015427
 31
0.0
  0
LINE
  5
162B4
330
747D
100
AcDbEntity
  8
部品1
100
AcDbLine
 10
10783.69335465377
 20
4852.163155821756
 30
0.0
 11
10784.95389271234
 21
4872.095413872838
 31
0.0
  0
LINE
  5
162B5
330
747D
100
AcDbEntity
  8
部品1
100
AcDbLine
 10
10771.82728186637
 20
4759.595413872837
 30
0.0
 11
10772.49960757095
 21
4770.226564076538
 31
0.0
  0
ARC
  5
162B6
330
747D
100
AcDbEntity
  8
部品1
100
AcDbCircle
 10
10777.96784889513
 20
4872.537219015427
 30
0.0
 40
7.0
100
AcDbArc
 50
356.3813705198622
 51
90.0
  0
ARC
  5
162B7
330
747D
100
AcDbEntity
  8
部品1
100
AcDbCircle
 10
10764.84123804916
 20
4760.037219015426
 30
0.0
 40
7.0
100
AcDbArc
 50
270.0
 51
356.3813705198622
  0
ARC
  5
162B8
330
747D
100
AcDbEntity
  8
部品1
100
AcDbCircle
 10
10775.49362634976
 20
4770.037219015427
 30
0.0
 40
3.0
100
AcDbArc
 50
90.0
 51
176.3813705198622
  0
ARC
  5
162B9
330
747D
100
AcDbEntity
  8
部品1
100
AcDbCircle
 10
10775.02433022456
 20
4773.707336336015
 30
0.0
 40
0.7
100
AcDbArc
 50
277.2868405166456
 51
356.3813705198622
  0
LINE
  5
162BA
330
747D
100
AcDbEntity
  8
部品1
100
AcDbLine
 10
10780.47002761844
 20
4848.726564076538
 30
0.0
 11
10775.72293460628
 21
4773.663155821756
 31
0.0
  0
ARC
  5
162BB
330
747D
100
AcDbEntity
  8
部品1
100
AcDbCircle
 10
10783.46404639725
 20
4848.537219015426
 30
0.0
 40
3.0
100
AcDbArc
 50
90.0
 51
176.3813705198622
  0
ARC
  5
162BC
330
747D
100
AcDbEntity
  8
部品1
100
AcDbCircle
 10
10782.99475027205
 20
4852.207336336016
 30
0.0
 40
0.7
100
AcDbArc
 50
277.2868405166456
 51
356.3813705198622
  0
LINE
  5
162BD
330
747D
100
AcDbEntity
  8
部品1
 48
50.0
100
AcDbLine
 10
10740.02452070555
 20
4879.537219015427
 30
0.0
 11
10777.96784889513
 21
4879.537219015427
 31
0.0
  0
LINE
  5
162BE
330
747D
100
AcDbEntity
  8
部品1
 48
50.0
100
AcDbLine
 10
10667.95389271234
 20
4929.537219023899
 30
0.0
 11
10691.95389271234
 21
4929.537219023899
 31
0.0
  0
LINE
  5
162BF
330
747D
100
AcDbEntity
  8
部品1
100
AcDbLine
 10
10688.95389271233
 20
4929.537219023899
 30
0.0
 11
10688.95389271233
 21
4832.126151515324
 31
0.0
  0
LINE
  5
162C0
330
747D
100
AcDbEntity
  8
部品1
100
AcDbLine
 10
10670.95389271233
 20
4929.537219023888
 30
0.0
 11
10670.95389271233
 21
4832.126151515324
 31
0.0
  0
DIMENSION
  5
162C1
330
747D
100
AcDbEntity
  8
寸法
 48
50.0
100
AcDbDimension
  2
*D2
 10
10734.95389271235
 20
5333.6303883549
 30
0.0
 11
11098.43917408658
 21
5333.6303883549
 31
0.0
 70
   160
 71
     5
 42
50.0
  3
INABA_S40G
100
AcDbAlignedDimension
 13
10784.95389271235
 23
4934.537219015429
 33
0.0
 14
10734.95389271235
 24
4934.537219015432
 34
0.0
100
AcDbRotatedDimension
  0
DIMENSION
  5
162C2
330
747D
100
AcDbEntity
  8
寸法
 48
50.0
100
AcDbDimension
  2
*D3
 10
8673.747863500215
 20
2917.537219015427
 30
0.0
 11
8673.747863500215
 21
3771.170238032952
 31
0.0
 70
   160
  1
有効開口部高サ<>
 71
     5
 42
1725.0
  3
INABA_S40G
100
AcDbAlignedDimension
 13
8972.953892712366
 23
4642.537219015427
 33
0.0
 14
8972.953892712366
 24
2917.537219015427
 34
0.0
 50
90.0
100
AcDbRotatedDimension
1001
ACAD
1000
DSTYLE
1002
{
1070
   341
1005
0
1002
}
  0
LINE
  5
162C3
330
747D
100
AcDbEntity
  8
部品1
 48
50.0
100
AcDbLine
 10
8927.442802808077
 20
4832.126151515324
 30
0.0
 11
10752.46498261662
 21
4832.126151515324
 31
0.0
  0
LINE
  5
162C4
330
747D
100
AcDbEntity
  8
部品1
 48
50.0
100
AcDbLine
 10
10271.95389271236
 20
4929.537219023899
 30
0.0
 11
10274.45389271236
 21
4910.137219023898
 31
0.0
  0
LINE
  5
162C5
330
747D
100
AcDbEntity
  8
部品1
 48
50.0
100
AcDbLine
 10
10232.74255250617
 20
4920.137219023899
 30
0.0
 11
10231.45389271236
 21
4910.137219023898
 31
0.0
  0
LINE
  5
162C6
330
747D
100
AcDbEntity
  8
部品1
 48
50.0
100
AcDbLine
 10
10232.74255250617
 20
4920.137219023899
 30
0.0
 11
10246.74255250617
 21
4920.137219023899
 31
0.0
  0
LINE
  5
162C7
330
747D
100
AcDbEntity
  8
部品1
 48
50.0
100
AcDbLine
 10
10247.95389271236
 20
4929.537219023899
 30
0.0
 11
10246.74255250617
 21
4920.137219023899
 31
0.0
  0
LINE
  5
162C8
330
747D
100
AcDbEntity
  8
部品1
 48
50.0
100
AcDbLine
 10
10247.95389271236
 20
4929.537219023899
 30
0.0
 11
10271.95389271236
 21
4929.537219023899
 31
0.0
  0
LINE
  5
162C9
330
747D
100
AcDbEntity
  8
部品1
100
AcDbLine
 10
10268.95389271235
 20
4929.537219023899
 30
0.0
 11
10268.95389271235
 21
4832.126151515324
 31
0.0
  0
LINE
  5
162CA
330
747D
100
AcDbEntity
  8
部品1
100
AcDbLine
 10
10250.95389271235
 20
4929.537219023888
 30
0.0
 11
10250.95389271235
 21
4832.126151515324
 31
0.0
  0
LINE
  5
162CB
330
747D
100
AcDbEntity
  8
細線
 48
50.0
100
AcDbLine
 10
8944.88326471915
 20
4851.509051763376
 30
0.0
 11
8896.820023435203
 21
4851.509051763383
 31
0.0
  0
LINE
  5
162CC
330
747D
100
AcDbEntity
  8
細線
 48
50.0
100
AcDbLine
 10
8927.442802808075
 20
4879.537219015427
 30
0.0
 11
8927.442802808075
 21
4753.037219015427
 31
0.0
  0
LINE
  5
162CD
330
747D
100
AcDbEntity
  8
細線
 48
50.0
100
AcDbLine
 10
10775.73225038541
 20
4773.810461579212
 30
0.0
 11
8904.837484344877
 21
4773.810461579212
 31
0.0
  0
ARC
  5
162CE
330
747D
100
AcDbEntity
  8
部品1
100
AcDbCircle
 10
8901.939936529569
 20
4927.537219032325
 30
0.0
 40
7.0
100
AcDbArc
 50
90.0
 51
183.6186294801377
  0
LINE
  5
162CF
330
747D
100
AcDbEntity
  8
部品1
100
AcDbLine
 10
8939.883264719153
 20
4934.537219032325
 30
0.0
 11
8901.939936529569
 21
4934.537219032325
 31
0.0
  0
ARC
  5
162D0
330
747D
100
AcDbEntity
  8
部品1
100
AcDbCircle
 10
8939.883264719153
 20
4929.537219032325
 30
0.0
 40
5.0
100
AcDbArc
 50
0.0
 51
90.0
  0
LINE
  5
162D1
330
747D
100
AcDbEntity
  8
部品1
 48
50.0
100
AcDbLine
 10
8894.953892712358
 20
4872.095413872838
 30
0.0
 11
8894.953892712358
 21
4927.095413889736
 31
0.0
  0
LINE
  5
162D2
330
747D
100
AcDbEntity
  8
部品1
100
AcDbLine
 10
10764.84123804916
 20
4753.037219015427
 30
0.0
 11
8915.066547375539
 21
4753.037219015427
 31
0.0
  0
LINE
  5
162D3
330
747D
100
AcDbEntity
  8
部品1
100
AcDbLine
 10
8944.883264719152
 20
4929.537219032325
 30
0.0
 11
8944.88326471915
 21
4832.133190342756
 31
0.0
  0
ARC
  5
162D4
330
747D
100
AcDbEntity
  8
部品1
100
AcDbCircle
 10
8939.883264719153
 20
4874.537219015427
 30
0.0
 40
5.0
100
AcDbArc
 50
0.0
 51
90.0
  0
LINE
  5
162D5
330
747D
100
AcDbEntity
  8
部品1
100
AcDbLine
 10
8939.883264719153
 20
4879.537219015427
 30
0.0
 11
8901.939936529569
 21
4879.537219015427
 31
0.0
  0
LINE
  5
162D6
330
747D
100
AcDbEntity
  8
部品1
100
AcDbLine
 10
8896.214430770923
 20
4852.163155821756
 30
0.0
 11
8894.953892712358
 21
4872.095413872838
 31
0.0
  0
LINE
  5
162D7
330
747D
100
AcDbEntity
  8
部品1
100
AcDbLine
 10
8908.080503558329
 20
4759.595413872837
 30
0.0
 11
8907.408177853747
 21
4770.226564076538
 31
0.0
  0
ARC
  5
162D8
330
747D
100
AcDbEntity
  8
部品1
100
AcDbCircle
 10
8901.939936529569
 20
4872.537219015427
 30
0.0
 40
7.0
100
AcDbArc
 50
90.0
 51
183.6186294801377
  0
ARC
  5
162D9
330
747D
100
AcDbEntity
  8
部品1
100
AcDbCircle
 10
8915.066547375539
 20
4760.037219015426
 30
0.0
 40
7.0
100
AcDbArc
 50
183.6186294801377
 51
270.0
  0
ARC
  5
162DA
330
747D
100
AcDbEntity
  8
部品1
100
AcDbCircle
 10
8904.414159074942
 20
4770.037219015427
 30
0.0
 40
3.0
100
AcDbArc
 50
3.618629480137788
 51
90.0
  0
ARC
  5
162DB
330
747D
100
AcDbEntity
  8
部品1
100
AcDbCircle
 10
8904.883455200137
 20
4773.707336336015
 30
0.0
 40
0.7
100
AcDbArc
 50
183.6186294801377
 51
262.7131594833544
  0
LINE
  5
162DC
330
747D
100
AcDbEntity
  8
部品1
100
AcDbLine
 10
8899.437757806255
 20
4848.726564076538
 30
0.0
 11
8904.184850818415
 21
4773.663155821756
 31
0.0
  0
ARC
  5
162DD
330
747D
100
AcDbEntity
  8
部品1
100
AcDbCircle
 10
8896.443739027452
 20
4848.537219015426
 30
0.0
 40
3.0
100
AcDbArc
 50
3.618629480137788
 51
90.0
  0
ARC
  5
162DE
330
747D
100
AcDbEntity
  8
部品1
100
AcDbCircle
 10
8896.913035152646
 20
4852.207336336016
 30
0.0
 40
0.7
100
AcDbArc
 50
183.6186294801377
 51
262.7131594833544
  0
LINE
  5
162DF
330
747D
100
AcDbEntity
  8
部品1
 48
50.0
100
AcDbLine
 10
8939.883264719153
 20
4879.537219015427
 30
0.0
 11
8901.939936529569
 21
4879.537219015427
 31
0.0
  0
LINE
  5
162E0
330
747D
100
AcDbEntity
  8
部品1
100
AcDbLine
 10
10231.45389271235
 20
4910.13721902388
 30
0.0
 11
10119.95389271236
 21
4910.13721902388
 31
0.0
  0
LINE
  5
162E1
330
747D
100
AcDbEntity
  8
部品1
100
AcDbLine
 10
10740.02423010549
 20
4934.537219023881
 30
0.0
 11
8919.386053093266
 21
4934.5372190239
 31
0.0
  0
LINE
  5
162E2
330
747D
100
AcDbEntity
  8
部品1
 48
50.0
100
AcDbLine
 10
9392.74255250617
 20
4920.137219023899
 30
0.0
 11
9406.74255250617
 21
4920.137219023899
 31
0.0
  0
LINE
  5
162E3
330
747D
100
AcDbEntity
  8
部品1
100
AcDbLine
 10
9157.953892712358
 20
4910.137219023894
 30
0.0
 11
9014.453892712358
 21
4910.137219023898
 31
0.0
  0
LINE
  5
162E4
330
747D
100
AcDbEntity
  8
部品1
 48
50.0
100
AcDbLine
 10
9011.953892712357
 20
4929.537219023899
 30
0.0
 11
8987.953892712358
 21
4929.537219023899
 31
0.0
  0
LINE
  5
162E5
330
747D
100
AcDbEntity
  8
部品1
 48
50.0
100
AcDbLine
 10
8987.953892712358
 20
4929.537219023899
 30
0.0
 11
8986.74255250617
 21
4920.137219023899
 31
0.0
  0
LINE
  5
162E6
330
747D
100
AcDbEntity
  8
部品1
 48
50.0
100
AcDbLine
 10
8972.74255250617
 20
4920.137219023899
 30
0.0
 11
8971.453892712359
 21
4910.137219023898
 31
0.0
  0
LINE
  5
162E7
330
747D
100
AcDbEntity
  8
部品1
 48
50.0
100
AcDbLine
 10
8972.74255250617
 20
4920.137219023899
 30
0.0
 11
8986.74255250617
 21
4920.137219023899
 31
0.0
  0
LINE
  5
162E8
330
747D
100
AcDbEntity
  8
部品1
100
AcDbLine
 10
8971.453892712359
 20
4910.137219023898
 30
0.0
 11
8944.953892712359
 21
4910.137219023898
 31
0.0
  0
LINE
  5
162E9
330
747D
100
AcDbEntity
  8
部品1
 48
50.0
100
AcDbLine
 10
9011.953892712357
 20
4929.537219023899
 30
0.0
 11
9014.453892712358
 21
4910.137219023898
 31
0.0
  0
LINE
  5
162EA
330
747D
100
AcDbEntity
  8
部品1
100
AcDbLine
 10
8990.953892712365
 20
4929.537219023899
 30
0.0
 11
8990.953892712367
 21
4832.126151515324
 31
0.0
  0
LINE
  5
162EB
330
747D
100
AcDbEntity
  8
部品1
100
AcDbLine
 10
9008.953892712366
 20
4929.537219023888
 30
0.0
 11
9008.953892712366
 21
4832.126151515324
 31
0.0
  0
LINE
  5
162EC
330
747D
100
AcDbEntity
  8
部品1
 48
50.0
100
AcDbLine
 10
9241.453892712357
 20
4929.537219023899
 30
0.0
 11
9230.953892712358
 21
4910.137219023898
 31
0.0
  0
LINE
  5
162ED
330
747D
100
AcDbEntity
  8
部品1
 48
50.0
100
AcDbLine
 10
9168.453892712358
 20
4929.537219023899
 30
0.0
 11
9196.453892712353
 21
4929.537219023899
 31
0.0
  0
LINE
  5
162EE
330
747D
100
AcDbEntity
  8
部品1
 48
50.0
100
AcDbLine
 10
9168.453892712358
 20
4929.537219023899
 30
0.0
 11
9157.953892712358
 21
4910.137219023898
 31
0.0
  0
LINE
  5
162EF
330
747D
100
AcDbEntity
  8
部品1
100
AcDbLine
 10
9169.953892712365
 20
4929.537219023895
 30
0.0
 11
9169.953892712362
 21
4832.126151515324
 31
0.0
  0
LINE
  5
162F0
330
747D
100
AcDbEntity
  8
部品1
 48
50.0
100
AcDbLine
 10
9196.453892712359
 20
4929.537219023899
 30
0.0
 11
9206.953892712357
 21
4910.137219023898
 31
0.0
  0
LINE
  5
162F1
330
747D
100
AcDbEntity
  8
部品1
100
AcDbLine
 10
9194.953892712366
 20
4929.537219023895
 30
0.0
 11
9194.953892712367
 21
4832.126151515324
 31
0.0
  0
LINE
  5
162F2
330
747D
100
AcDbEntity
  8
部品1
100
AcDbLine
 10
9230.953892712355
 20
4910.137219023894
 30
0.0
 11
9206.953892712357
 21
4910.137219023898
 31
0.0
  0
LINE
  5
162F3
330
747D
100
AcDbEntity
  8
部品1
 48
50.0
100
AcDbLine
 10
9392.74255250617
 20
4920.137219023899
 30
0.0
 11
9391.453892712357
 21
4910.137219023898
 31
0.0
  0
LINE
  5
162F4
330
747D
100
AcDbEntity
  8
部品1
 48
50.0
100
AcDbLine
 10
9241.453892712357
 20
4929.537219023899
 30
0.0
 11
9269.453892712354
 21
4929.537219023899
 31
0.0
  0
LINE
  5
162F5
330
747D
100
AcDbEntity
  8
部品1
 48
50.0
100
AcDbLine
 10
9269.453892712357
 20
4929.537219023899
 30
0.0
 11
9279.953892712358
 21
4910.137219023898
 31
0.0
  0
LINE
  5
162F6
330
747D
100
AcDbEntity
  8
部品1
100
AcDbLine
 10
9267.953892712364
 20
4929.537219023895
 30
0.0
 11
9267.953892712364
 21
4832.126151515324
 31
0.0
  0
LINE
  5
162F7
330
747D
100
AcDbEntity
  8
部品1
100
AcDbLine
 10
9242.953892712364
 20
4929.537219023895
 30
0.0
 11
9242.953892712364
 21
4832.126151515324
 31
0.0
  0
LINE
  5
162F8
330
747D
100
AcDbEntity
  8
部品1
100
AcDbLine
 10
9391.453892712357
 20
4910.137219023894
 30
0.0
 11
9279.953892712358
 21
4910.137219023894
 31
0.0
  0
LINE
  5
162F9
330
747D
100
AcDbEntity
  8
部品1
100
AcDbLine
 10
10070.95389271235
 20
4910.137219023894
 30
0.0
 11
10046.95389271236
 21
4910.137219023894
 31
0.0
  0
LINE
  5
162FA
330
747D
100
AcDbEntity
  8
部品1
100
AcDbLine
 10
9811.453892712357
 20
4910.137219023894
 30
0.0
 11
9699.953892712358
 21
4910.137219023894
 31
0.0
  0
LINE
  5
162FB
330
747D
100
AcDbEntity
  8
部品1
100
AcDbLine
 10
9577.953892712354
 20
4910.137219023894
 30
0.0
 11
9434.453892712353
 21
4910.137219023894
 31
0.0
  0
LINE
  5
162FC
330
747D
100
AcDbEntity
  8
部品1
 48
50.0
100
AcDbLine
 10
9431.953892712357
 20
4929.537219023899
 30
0.0
 11
9434.453892712358
 21
4910.137219023898
 31
0.0
  0
LINE
  5
162FD
330
747D
100
AcDbEntity
  8
部品1
 48
50.0
100
AcDbLine
 10
9407.953892712358
 20
4929.537219023899
 30
0.0
 11
9406.74255250617
 21
4920.137219023899
 31
0.0
  0
LINE
  5
162FE
330
747D
100
AcDbEntity
  8
部品1
 48
50.0
100
AcDbLine
 10
9431.953892712357
 20
4929.537219023899
 30
0.0
 11
9407.953892712358
 21
4929.537219023899
 31
0.0
  0
LINE
  5
162FF
330
747D
100
AcDbEntity
  8
部品1
100
AcDbLine
 10
9410.953892712365
 20
4929.537219023888
 30
0.0
 11
9410.953892712367
 21
4832.126151515324
 31
0.0
  0
LINE
  5
16300
330
747D
100
AcDbEntity
  8
部品1
100
AcDbLine
 10
9428.953892712364
 20
4929.537219023888
 30
0.0
 11
9428.953892712367
 21
4832.126151515324
 31
0.0
  0
LINE
  5
16301
330
747D
100
AcDbEntity
  8
部品1
 48
50.0
100
AcDbLine
 10
9661.453892712358
 20
4929.537219023899
 30
0.0
 11
9689.453892712355
 21
4929.537219023899
 31
0.0
  0
LINE
  5
16302
330
747D
100
AcDbEntity
  8
部品1
 48
50.0
100
AcDbLine
 10
9588.453892712356
 20
4929.537219023899
 30
0.0
 11
9616.453892712355
 21
4929.537219023899
 31
0.0
  0
LINE
  5
16303
330
747D
100
AcDbEntity
  8
部品1
 48
50.0
100
AcDbLine
 10
9661.453892712358
 20
4929.537219023899
 30
0.0
 11
9650.953892712358
 21
4910.137219023898
 31
0.0
  0
LINE
  5
16304
330
747D
100
AcDbEntity
  8
部品1
 48
50.0
100
AcDbLine
 10
9616.453892712357
 20
4929.537219023899
 30
0.0
 11
9626.953892712357
 21
4910.137219023898
 31
0.0
  0
LINE
  5
16305
330
747D
100
AcDbEntity
  8
部品1
100
AcDbLine
 10
9650.953892712355
 20
4910.137219023894
 30
0.0
 11
9626.953892712357
 21
4910.137219023894
 31
0.0
  0
LINE
  5
16306
330
747D
100
AcDbEntity
  8
部品1
 48
50.0
100
AcDbLine
 10
9588.453892712356
 20
4929.537219023899
 30
0.0
 11
9577.953892712358
 21
4910.137219023898
 31
0.0
  0
LINE
  5
16307
330
747D
100
AcDbEntity
  8
部品1
100
AcDbLine
 10
9662.953892712366
 20
4929.537219023895
 30
0.0
 11
9662.953892712366
 21
4832.126151515324
 31
0.0
  0
LINE
  5
16308
330
747D
100
AcDbEntity
  8
部品1
100
AcDbLine
 10
9614.953892712366
 20
4929.537219023895
 30
0.0
 11
9614.953892712366
 21
4832.126151515324
 31
0.0
  0
LINE
  5
16309
330
747D
100
AcDbEntity
  8
部品1
100
AcDbLine
 10
9589.953892712365
 20
4929.537219023895
 30
0.0
 11
9589.953892712365
 21
4832.126151515324
 31
0.0
  0
LINE
  5
1630A
330
747D
100
AcDbEntity
  8
部品1
 48
50.0
100
AcDbLine
 10
9689.453892712357
 20
4929.537219023899
 30
0.0
 11
9699.953892712358
 21
4910.137219023898
 31
0.0
  0
LINE
  5
1630B
330
747D
100
AcDbEntity
  8
部品1
100
AcDbLine
 10
9687.953892712364
 20
4929.537219023895
 30
0.0
 11
9687.953892712368
 21
4832.126151515324
 31
0.0
  0
LINE
  5
1630C
330
747D
100
AcDbEntity
  8
部品1
100
AcDbLine
 10
9997.953892712354
 20
4910.137219023894
 30
0.0
 11
9854.453892712355
 21
4910.137219023894
 31
0.0
  0
LINE
  5
1630D
330
747D
100
AcDbEntity
  8
部品1
 48
50.0
100
AcDbLine
 10
9851.953892712359
 20
4929.537219023899
 30
0.0
 11
9827.953892712358
 21
4929.537219023899
 31
0.0
  0
LINE
  5
1630E
330
747D
100
AcDbEntity
  8
部品1
 48
50.0
100
AcDbLine
 10
9827.953892712358
 20
4929.537219023899
 30
0.0
 11
9826.74255250617
 21
4920.137219023899
 31
0.0
  0
LINE
  5
1630F
330
747D
100
AcDbEntity
  8
部品1
 48
50.0
100
AcDbLine
 10
9812.74255250617
 20
4920.137219023899
 30
0.0
 11
9826.74255250617
 21
4920.137219023899
 31
0.0
  0
LINE
  5
16310
330
747D
100
AcDbEntity
  8
部品1
 48
50.0
100
AcDbLine
 10
9812.74255250617
 20
4920.137219023899
 30
0.0
 11
9811.453892712357
 21
4910.137219023898
 31
0.0
  0
LINE
  5
16311
330
747D
100
AcDbEntity
  8
部品1
100
AcDbLine
 10
9830.953892712365
 20
4929.537219023888
 30
0.0
 11
9830.953892712367
 21
4832.126151515324
 31
0.0
  0
LINE
  5
16312
330
747D
100
AcDbEntity
  8
部品1
 48
50.0
100
AcDbLine
 10
9851.953892712359
 20
4929.537219023899
 30
0.0
 11
9854.453892712358
 21
4910.137219023898
 31
0.0
  0
LINE
  5
16313
330
747D
100
AcDbEntity
  8
部品1
100
AcDbLine
 10
9848.953892712366
 20
4929.537219023888
 30
0.0
 11
9848.953892712367
 21
4832.126151515324
 31
0.0
  0
LINE
  5
16314
330
747D
100
AcDbEntity
  8
部品1
 48
50.0
100
AcDbLine
 10
10036.45389271236
 20
4929.537219023899
 30
0.0
 11
10046.95389271236
 21
4910.137219023898
 31
0.0
  0
LINE
  5
16315
330
747D
100
AcDbEntity
  8
部品1
100
AcDbLine
 10
10034.95389271236
 20
4929.537219023895
 30
0.0
 11
10034.95389271236
 21
4832.126151515324
 31
0.0
  0
LINE
  5
16316
330
747D
100
AcDbEntity
  8
部品1
 48
50.0
100
AcDbLine
 10
10008.45389271236
 20
4929.537219023899
 30
0.0
 11
9997.953892712359
 21
4910.137219023898
 31
0.0
  0
LINE
  5
16317
330
747D
100
AcDbEntity
  8
部品1
100
AcDbLine
 10
10009.95389271236
 20
4929.537219023895
 30
0.0
 11
10009.95389271236
 21
4832.126151515324
 31
0.0
  0
LINE
  5
16318
330
747D
100
AcDbEntity
  8
部品1
 48
50.0
100
AcDbLine
 10
10008.45389271236
 20
4929.537219023899
 30
0.0
 11
10036.45389271235
 21
4929.537219023899
 31
0.0
  0
LINE
  5
16319
330
747D
100
AcDbEntity
  8
部品1
 48
50.0
100
AcDbLine
 10
10081.45389271235
 20
4929.537219023899
 30
0.0
 11
10070.95389271235
 21
4910.137219023898
 31
0.0
  0
LINE
  5
1631A
330
747D
100
AcDbEntity
  8
部品1
 48
50.0
100
AcDbLine
 10
10109.45389271236
 20
4929.537219023899
 30
0.0
 11
10119.95389271236
 21
4910.137219023898
 31
0.0
  0
LINE
  5
1631B
330
747D
100
AcDbEntity
  8
部品1
 48
50.0
100
AcDbLine
 10
10081.45389271235
 20
4929.537219023899
 30
0.0
 11
10109.45389271235
 21
4929.537219023899
 31
0.0
  0
LINE
  5
1631C
330
747D
100
AcDbEntity
  8
部品1
100
AcDbLine
 10
10082.95389271236
 20
4929.537219023895
 30
0.0
 11
10082.95389271236
 21
4832.126151515324
 31
0.0
  0
LINE
  5
1631D
330
747D
100
AcDbEntity
  8
部品1
100
AcDbLine
 10
10107.95389271236
 20
4929.537219023895
 30
0.0
 11
10107.95389271236
 21
4832.126151515324
 31
0.0
  0
DIMENSION
  5
1631E
330
747D
100
AcDbEntity
  8
寸法
 48
50.0
100
AcDbDimension
  2
*D4
 10
10784.95389271235
 20
5550.156487973345
 30
0.0
 11
9839.953892712351
 21
5550.156487973345
 31
0.0
 70
   160
 71
     5
 42
1890.0
  3
INABA_S40G
100
AcDbAlignedDimension
 13
8894.953892712349
 23
4934.537219015432
 33
0.0
 14
10784.95389271235
 24
4934.537219015429
 34
0.0
100
AcDbRotatedDimension
  0
DIMENSION
  5
1631F
330
747D
100
AcDbEntity
  8
寸法
 48
50.0
100
AcDbDimension
  2
*D5
 10
8894.953892712349
 20
5333.6303883549
 30
0.0
 11
8581.468611338102
 21
5333.6303883549
 31
0.0
 70
   160
 71
     5
 42
50.0
  3
INABA_S40G
100
AcDbAlignedDimension
 13
8944.95389271235
 23
4934.537219015433
 33
0.0
 14
8894.953892712349
 24
4934.537219015432
 34
0.0
100
AcDbRotatedDimension
1001
ACAD
1000
DSTYLE
1002
{
1002
}
  0
DIMENSION
  5
16320
330
747D
100
AcDbEntity
  8
寸法
 48
50.0
100
AcDbDimension
  2
*D6
 10
8944.95389271235
 20
5333.6303883549
 30
0.0
 11
9839.953892712351
 21
5333.6303883549
 31
0.0
 70
   160
  1
柱外寸法<>
 71
     5
 42
1790.0
  3
INABA_S40G
100
AcDbAlignedDimension
 13
10734.95389271235
 23
4934.537219015432
 33
0.0
 14
8944.95389271235
 24
4934.537219015433
 34
0.0
100
AcDbRotatedDimension
  0
MTEXT
  5
16321
330
747D
100
AcDbEntity
  8
寸法
 62
     7
 48
50.0
100
AcDbMText
 10
9415.056429805494
 20
9393.280421110627
 30
0.0
 40
96.0
 41
0.0
 71
     5
 72
     1
  1
棚 2段
  7
STYLE1
 73
     1
 44
1.0
1001
ACAD
1000
MTEXTBEGIN
1070
    73
1070
     1
1070
    44
1040
1.0
1070
    74
1070
     0
1000
MTEXTEND
  0
TEXT
  5
16323
330
747D
100
AcDbEntity
  8
文字
 62
     7
 48
50.0
100
AcDbText
 10
14491.96323844892
 20
483.8967129911416
 30
0.0
 40
160.0
  1
ＮＸＮ－３２ＳＡ
  7
STYLE2
100
AcDbText
  0
TEXT
  5
16324
330
747D
100
AcDbEntity
  8
文字
 62
     7
 48
50.0
100
AcDbText
 10
13583.11819016569
 20
8550.013745883731
 30
0.0
 40
100.0
  1
棚板
  7
STYLE1
100
AcDbText
  0
TEXT
  5
16325
330
747D
100
AcDbEntity
  8
文字
 62
     7
 48
50.0
100
AcDbText
 10
15022.63965474516
 20
8550.013745883727
 30
0.0
 40
100.0
  1
F12            0.6
  7
STYLE1
100
AcDbText
  0
TEXT
  5
16326
330
747D
100
AcDbEntity
  8
文字
 62
     7
 48
50.0
100
AcDbText
 10
15022.63965474515
 20
9740.013745883723
 30
0.0
 40
100.0
  1
F12            1.0
  7
STYLE1
100
AcDbText
  0
TEXT
  5
16327
330
747D
100
AcDbEntity
  8
文字
 62
     7
 48
50.0
100
AcDbText
 10
13583.11819016569
 20
9740.013745883729
 30
0.0
 40
100.0
  1
母屋中
  7
STYLE1
100
AcDbText
  0
TEXT
  5
16328
330
747D
100
AcDbEntity
  8
文字
 62
     7
 48
50.0
100
AcDbText
 10
13248.77747366447
 20
8720.013745883729
 30
0.0
 40
100.0
  1
15
  7
STYLE1
100
AcDbText
  0
LINE
  5
16329
330
747D
100
AcDbEntity
  8
仕様書枠
 48
50.0
100
AcDbLine
 10
16307.19999999999
 20
8009.600000000004
 30
0.0
 11
13127.19999999999
 21
8009.600000000006
 31
0.0
  0
TEXT
  5
1632A
330
747D
100
AcDbEntity
  8
文字
 62
     7
 48
50.0
100
AcDbText
 10
13583.11819016569
 20
8720.013745883731
 30
0.0
 40
100.0
  1
扉
  7
STYLE1
100
AcDbText
  0
TEXT
  5
1632B
330
747D
100
AcDbEntity
  8
文字
 62
     7
 48
50.0
100
AcDbText
 10
15022.63965474516
 20
8720.013745883727
 30
0.0
 40
100.0
  1
F12            0.8
  7
STYLE1
100
AcDbText
  0
TEXT
  5
1632C
330
747D
100
AcDbEntity
  8
文字
 62
     7
 48
50.0
100
AcDbText
 10
13583.11819016568
 20
8890.013745883731
 30
0.0
 40
100.0
  1
正面パネル
  7
STYLE1
100
AcDbText
  0
TEXT
  5
1632D
330
747D
100
AcDbEntity
  8
文字
 62
     7
 48
50.0
100
AcDbText
 10
15022.63965474515
 20
8890.013745883727
 30
0.0
 40
100.0
  1
F12            0.7
  7
STYLE1
100
AcDbText
  0
TEXT
  5
1632E
330
747D
100
AcDbEntity
  8
文字
 62
     7
 48
50.0
100
AcDbText
 10
15022.63965474517
 20
10590.01374588372
 30
0.0
 40
100.0
  1
F12            1.0
  7
STYLE1
100
AcDbText
  0
TEXT
  5
1632F
330
747D
100
AcDbEntity
  8
文字
 62
     7
 48
50.0
100
AcDbText
 10
15022.63965474516
 20
10930.01374588372
 30
0.0
 40
100.0
  1
F12            1.2
  7
STYLE1
100
AcDbText
  0
TEXT
  5
16330
330
747D
100
AcDbEntity
  8
文字
 62
     7
 48
50.0
100
AcDbText
 10
13248.77747366448
 20
8890.013745883727
 30
0.0
 40
100.0
  1
14
  7
STYLE1
100
AcDbText
  0
TEXT
  5
16331
330
747D
100
AcDbEntity
  8
文字
 62
     7
 48
50.0
100
AcDbText
 10
13583.11819016569
 20
10930.01374588372
 30
0.0
 40
100.0
  1
根太
  7
STYLE1
100
AcDbText
  0
TEXT
  5
16332
330
747D
100
AcDbEntity
  8
文字
 62
     7
 48
50.0
100
AcDbText
 10
13583.1181901657
 20
10590.01374588372
 30
0.0
 40
100.0
  1
床パネル
 41
0.9
  7
STYLE1
100
AcDbText
  0
LINE
  5
16333
330
747D
100
AcDbEntity
  8
仕様書枠
 48
50.0
100
AcDbLine
 10
16307.19999999999
 20
9029.6
 30
0.0
 11
13127.2
 21
9029.600000000002
 31
0.0
  0
LINE
  5
16334
330
747D
100
AcDbEntity
  8
仕様書枠
 48
50.0
100
AcDbLine
 10
13127.2
 20
11409.6
 30
0.0
 11
13127.19999999999
 21
8009.600000000006
 31
0.0
  0
TEXT
  5
16335
330
747D
100
AcDbEntity
  8
文字
 62
     7
 48
50.0
100
AcDbText
 10
13229.83081656554
 20
8040.013745883731
 30
0.0
 40
100.0
  1
Y10→溶融亜鉛-5％アルミニウム合金めっき鋼板(JIS G 3317)
 41
0.9
  7
STYLE1
100
AcDbText
  0
TEXT
  5
16336
330
747D
100
AcDbEntity
  8
文字
 62
     7
 48
50.0
100
AcDbText
 10
13229.83081656554
 20
8210.013745883733
 30
0.0
 40
100.0
  1
F12→溶融亜鉛めっき鋼板(JIS G 3302)
  7
STYLE1
100
AcDbText
  0
LINE
  5
16337
330
747D
100
AcDbEntity
  8
仕様書枠
 48
50.0
100
AcDbLine
 10
16307.19999999999
 20
8179.600000000004
 30
0.0
 11
13127.19999999999
 21
8179.600000000005
 31
0.0
  0
LINE
  5
16338
330
747D
100
AcDbEntity
  8
仕様書枠
 48
50.0
100
AcDbLine
 10
16307.19999999999
 20
8349.600000000004
 30
0.0
 11
13127.19999999999
 21
8349.600000000007
 31
0.0
  0
TEXT
  5
16339
330
747D
100
AcDbEntity
  8
文字
 62
     7
 48
50.0
100
AcDbText
 10
15022.63965474515
 20
9570.013745883725
 30
0.0
 40
100.0
  1
F12            0.6
  7
STYLE1
100
AcDbText
  0
TEXT
  5
1633A
330
747D
100
AcDbEntity
  8
文字
 62
     7
 48
50.0
100
AcDbText
 10
15022.63965474517
 20
9910.013745883725
 30
0.0
 40
100.0
  1
Y10            0.5
  7
STYLE1
100
AcDbText
  0
TEXT
  5
1633B
330
747D
100
AcDbEntity
  8
文字
 62
     7
 48
50.0
100
AcDbText
 10
15022.63965474516
 20
10080.01374588372
 30
0.0
 40
100.0
  1
Y10            0.7
  7
STYLE1
100
AcDbText
  0
TEXT
  5
1633C
330
747D
100
AcDbEntity
  8
文字
 62
     7
 48
50.0
100
AcDbText
 10
15022.63965474516
 20
10250.01374588372
 30
0.0
 40
100.0
  1
Y10            0.7
  7
STYLE1
100
AcDbText
  0
TEXT
  5
1633D
330
747D
100
AcDbEntity
  8
文字
 62
     7
 48
50.0
100
AcDbText
 10
15022.63965474516
 20
10420.01374588372
 30
0.0
 40
100.0
  1
Y10            1.0
  7
STYLE1
100
AcDbText
  0
TEXT
  5
1633E
330
747D
100
AcDbEntity
  8
文字
 62
     7
 48
50.0
100
AcDbText
 10
15022.63965474518
 20
10760.01374588372
 30
0.0
 40
100.0
  1
F12            1.0
  7
STYLE1
100
AcDbText
  0
TEXT
  5
1633F
330
747D
100
AcDbEntity
  8
文字
 62
     7
 48
50.0
100
AcDbText
 10
15022.63965474517
 20
11100.01374588372
 30
0.0
 40
100.0
  1
F12            1.2
  7
STYLE1
100
AcDbText
  0
TEXT
  5
16340
330
747D
100
AcDbEntity
  8
文字
 62
     7
 48
50.0
100
AcDbText
 10
13248.77747366448
 20
9230.013745883727
 30
0.0
 40
100.0
  1
12
  7
STYLE1
100
AcDbText
  0
TEXT
  5
16341
330
747D
100
AcDbEntity
  8
文字
 62
     7
 48
50.0
100
AcDbText
 10
13248.77747366448
 20
9060.013745883727
 30
0.0
 40
100.0
  1
13
  7
STYLE1
100
AcDbText
  0
LINE
  5
16342
330
747D
100
AcDbEntity
  8
仕様書枠
 48
50.0
100
AcDbLine
 10
16307.19999999999
 20
8859.6
 30
0.0
 11
13127.2
 21
8859.600000000002
 31
0.0
  0
LINE
  5
16343
330
747D
100
AcDbEntity
  8
仕様書枠
 48
50.0
100
AcDbLine
 10
16307.19999999999
 20
9199.599999999998
 30
0.0
 11
13127.2
 21
9199.600000000001
 31
0.0
  0
TEXT
  5
16344
330
747D
100
AcDbEntity
  8
文字
 62
     7
 48
50.0
100
AcDbText
 10
13248.77747366447
 20
9400.013745883727
 30
0.0
 40
100.0
  1
11
  7
STYLE1
100
AcDbText
  0
LINE
  5
16345
330
747D
100
AcDbEntity
  8
仕様書枠
 48
50.0
100
AcDbLine
 10
16307.2
 20
9879.599999999999
 30
0.0
 11
13127.2
 21
9879.600000000001
 31
0.0
  0
LINE
  5
16346
330
747D
100
AcDbEntity
  8
仕様書枠
 48
50.0
100
AcDbLine
 10
16307.2
 20
10219.6
 30
0.0
 11
13127.2
 21
10219.6
 31
0.0
  0
LINE
  5
16347
330
747D
100
AcDbEntity
  8
仕様書枠
 48
50.0
100
AcDbLine
 10
16307.19999999999
 20
9539.599999999998
 30
0.0
 11
13127.2
 21
9539.6
 31
0.0
  0
LINE
  5
16348
330
747D
100
AcDbEntity
  8
仕様書枠
 48
50.0
100
AcDbLine
 10
16307.19999999999
 20
9369.599999999998
 30
0.0
 11
13127.2
 21
9369.600000000001
 31
0.0
  0
LINE
  5
16349
330
747D
100
AcDbEntity
  8
仕様書枠
 48
50.0
100
AcDbLine
 10
16307.19999999999
 20
9709.6
 30
0.0
 11
13127.2
 21
9709.600000000001
 31
0.0
  0
TEXT
  5
1634A
330
747D
100
AcDbEntity
  8
文字
 62
     7
 48
50.0
100
AcDbText
 10
13271.19032244792
 20
10250.01374588373
 30
0.0
 40
100.0
  1
6
  7
STYLE1
100
AcDbText
  0
TEXT
  5
1634B
330
747D
100
AcDbEntity
  8
文字
 62
     7
 48
50.0
100
AcDbText
 10
13271.19032244792
 20
10080.01374588373
 30
0.0
 40
100.0
  1
7
  7
STYLE1
100
AcDbText
  0
TEXT
  5
1634C
330
747D
100
AcDbEntity
  8
文字
 62
     7
 48
50.0
100
AcDbText
 10
13271.19032244792
 20
9740.013745883729
 30
0.0
 40
100.0
  1
9
  7
STYLE1
100
AcDbText
  0
TEXT
  5
1634D
330
747D
100
AcDbEntity
  8
文字
 62
     7
 48
50.0
100
AcDbText
 10
13271.19032244792
 20
9910.01374588373
 30
0.0
 40
100.0
  1
8
  7
STYLE1
100
AcDbText
  0
TEXT
  5
1634E
330
747D
100
AcDbEntity
  8
文字
 62
     7
 48
50.0
100
AcDbText
 10
13583.11819016569
 20
10080.01374588372
 30
0.0
 40
100.0
  1
鼻隠シ前後
  7
STYLE1
100
AcDbText
  0
TEXT
  5
1634F
330
747D
100
AcDbEntity
  8
文字
 62
     7
 48
50.0
100
AcDbText
 10
13583.11819016569
 20
9910.013745883727
 30
0.0
 40
100.0
  1
屋根パネル
  7
STYLE1
100
AcDbText
  0
TEXT
  5
16350
330
747D
100
AcDbEntity
  8
文字
 62
     7
 48
50.0
100
AcDbText
 10
13583.11819016568
 20
9570.013745883729
 30
0.0
 40
100.0
  1
壁パネル
  7
STYLE1
100
AcDbText
  0
TEXT
  5
16351
330
747D
100
AcDbEntity
  8
文字
 62
     7
 48
50.0
100
AcDbText
 10
13248.77747366447
 20
9570.013745883727
 30
0.0
 40
100.0
  1
10
  7
STYLE1
100
AcDbText
  0
TEXT
  5
16352
330
747D
100
AcDbEntity
  8
文字
 62
     7
 48
50.0
100
AcDbText
 10
13583.11819016569
 20
10250.01374588373
 30
0.0
 40
100.0
  1
妻板左右
  7
STYLE1
100
AcDbText
  0
TEXT
  5
16353
330
747D
100
AcDbEntity
  8
文字
 62
     7
 48
50.0
100
AcDbText
 10
13271.19032244792
 20
10420.01374588372
 30
0.0
 40
100.0
  1
5
  7
STYLE1
100
AcDbText
  0
TEXT
  5
16354
330
747D
100
AcDbEntity
  8
文字
 62
     7
 48
50.0
100
AcDbText
 10
13583.11819016569
 20
10420.01374588373
 30
0.0
 40
100.0
  1
桁前後
  7
STYLE1
100
AcDbText
  0
TEXT
  5
16355
330
747D
100
AcDbEntity
  8
文字
 62
     7
 48
50.0
100
AcDbText
 10
13583.1181901657
 20
10760.01374588372
 30
0.0
 40
100.0
  1
柱
  7
STYLE1
100
AcDbText
  0
TEXT
  5
16356
330
747D
100
AcDbEntity
  8
文字
 62
     7
 48
50.0
100
AcDbText
 10
13583.11819016569
 20
11100.01374588372
 30
0.0
 40
100.0
  1
土台枠
  7
STYLE1
100
AcDbText
  0
TEXT
  5
16357
330
747D
100
AcDbEntity
  8
文字
 62
     7
 48
50.0
100
AcDbText
 10
14859.79774614482
 20
11270.01374588372
 30
0.0
 40
100.0
  1
材料（材質）　　単位mm
  7
STYLE1
100
AcDbText
  0
TEXT
  5
16358
330
747D
100
AcDbEntity
  8
文字
 62
     7
 48
50.0
100
AcDbText
 10
13732.03840939434
 20
11270.01374588372
 30
0.0
 40
100.0
  1
部　　品　　名
  7
STYLE1
100
AcDbText
  0
TEXT
  5
16359
330
747D
100
AcDbEntity
  8
文字
 62
     7
 48
50.0
100
AcDbText
 10
13271.19032244792
 20
10760.01374588373
 30
0.0
 40
100.0
  1
3
  7
STYLE1
100
AcDbText
  0
TEXT
  5
1635A
330
747D
100
AcDbEntity
  8
文字
 62
     7
 48
50.0
100
AcDbText
 10
13271.19032244792
 20
10590.01374588373
 30
0.0
 40
100.0
  1
4
  7
STYLE1
100
AcDbText
  0
TEXT
  5
1635B
330
747D
100
AcDbEntity
  8
文字
 62
     7
 48
50.0
100
AcDbText
 10
13271.19032244792
 20
10930.01374588373
 30
0.0
 40
100.0
  1
2
  7
STYLE1
100
AcDbText
  0
TEXT
  5
1635C
330
747D
100
AcDbEntity
  8
文字
 62
     7
 48
50.0
100
AcDbText
 10
13271.19032244792
 20
11100.01374588373
 30
0.0
 40
100.0
  1
1
  7
STYLE1
100
AcDbText
  0
TEXT
  5
1635D
330
747D
100
AcDbEntity
  8
文字
 62
     7
 48
50.0
100
AcDbText
 10
13197.42518560407
 20
11270.01374588372
 30
0.0
 40
100.0
  1
品番
  7
STYLE1
100
AcDbText
  0
LINE
  5
1635E
330
747D
100
AcDbEntity
  8
仕様書枠
 48
50.0
100
AcDbLine
 10
16307.19999999999
 20
10729.59999999999
 30
0.0
 11
13127.2
 21
10729.6
 31
0.0
  0
LINE
  5
1635F
330
747D
100
AcDbEntity
  8
仕様書枠
 48
50.0
100
AcDbLine
 10
16307.19999999999
 20
10389.6
 30
0.0
 11
13127.2
 21
10389.6
 31
0.0
  0
LINE
  5
16360
330
747D
100
AcDbEntity
  8
仕様書枠
 48
50.0
100
AcDbLine
 10
16307.19999999999
 20
10559.6
 30
0.0
 11
13127.2
 21
10559.6
 31
0.0
  0
LINE
  5
16361
330
747D
100
AcDbEntity
  8
仕様書枠
 48
50.0
100
AcDbLine
 10
16307.2
 20
11069.59999999999
 30
0.0
 11
13127.2
 21
11069.6
 31
0.0
  0
LINE
  5
16362
330
747D
100
AcDbEntity
  8
仕様書枠
 48
50.0
100
AcDbLine
 10
16307.2
 20
10899.6
 30
0.0
 11
13127.2
 21
10899.6
 31
0.0
  0
LINE
  5
16363
330
747D
100
AcDbEntity
  8
仕様書枠
 48
50.0
100
AcDbLine
 10
16307.2
 20
11239.59999999999
 30
0.0
 11
13127.2
 21
11239.6
 31
0.0
  0
LINE
  5
16364
330
747D
100
AcDbEntity
  8
仕様書枠
 48
50.0
100
AcDbLine
 10
13490.2
 20
11409.59999999999
 30
0.0
 11
13490.20000000001
 21
8349.600000000007
 31
0.0
  0
LINE
  5
16365
330
747D
100
AcDbEntity
  8
仕様書枠
 48
50.0
100
AcDbLine
 10
14785.2
 20
11409.59999999999
 30
0.0
 11
14785.2
 21
8349.600000000004
 31
0.0
  0
LINE
  5
16366
330
747D
100
AcDbEntity
  8
仕様書枠
 48
50.0
100
AcDbLine
 10
16307.19999999999
 20
8009.600000000004
 30
0.0
 11
16307.2
 21
11409.6
 31
0.0
  0
LINE
  5
16367
330
747D
100
AcDbEntity
  8
仕様書枠
 48
50.0
100
AcDbLine
 10
16307.2
 20
11409.59999999999
 30
0.0
 11
13127.2
 21
11409.6
 31
0.0
  0
LINE
  5
16368
330
747D
100
AcDbEntity
  8
仕様書枠
 48
50.0
100
AcDbLine
 10
16307.2
 20
10049.6
 30
0.0
 11
13127.2
 21
10049.6
 31
0.0
  0
TEXT
  5
16369
330
747D
100
AcDbEntity
  8
文字
 62
     7
 48
50.0
100
AcDbText
 10
15022.63965474515
 20
8380.013745883724
 30
0.0
 40
100.0
  1
F12            2.3
  7
STYLE1
100
AcDbText
  0
TEXT
  5
1636A
330
747D
100
AcDbEntity
  8
文字
 62
     7
 48
50.0
100
AcDbText
 10
13583.11819016569
 20
8380.013745883728
 30
0.0
 40
100.0
  1
アンカープレート
  7
STYLE1
100
AcDbText
  0
LINE
  5
1636B
330
747D
100
AcDbEntity
  8
仕様書枠
 48
50.0
100
AcDbLine
 10
16307.19999999999
 20
8519.600000000004
 30
0.0
 11
13127.2
 21
8519.600000000005
 31
0.0
  0
LINE
  5
1636C
330
747D
100
AcDbEntity
  8
仕様書枠
 48
50.0
100
AcDbLine
 10
16307.19999999999
 20
8689.600000000003
 30
0.0
 11
13127.2
 21
8689.600000000005
 31
0.0
  0
TEXT
  5
1636D
330
747D
100
AcDbEntity
  8
文字
 62
     7
 48
50.0
100
AcDbText
 10
13583.11819016569
 20
9400.013745883729
 30
0.0
 40
100.0
  1
壁面扉鴨居
  7
STYLE1
100
AcDbText
  0
TEXT
  5
1636E
330
747D
100
AcDbEntity
  8
文字
 62
     7
 48
50.0
100
AcDbText
 10
13583.11819016569
 20
9230.013745883733
 30
0.0
 40
100.0
  1
壁面扉敷居
  7
STYLE1
100
AcDbText
  0
TEXT
  5
1636F
330
747D
100
AcDbEntity
  8
文字
 62
     7
 48
50.0
100
AcDbText
 10
15022.63965474515
 20
9400.013745883727
 30
0.0
 40
100.0
  1
F12            0.7
  7
STYLE1
100
AcDbText
  0
TEXT
  5
16370
330
747D
100
AcDbEntity
  8
文字
 62
     7
 48
50.0
100
AcDbText
 10
15022.63965474517
 20
9230.013745883725
 30
0.0
 40
100.0
  1
F12            1.0
  7
STYLE1
100
AcDbText
  0
TEXT
  5
16371
330
747D
100
AcDbEntity
  8
文字
 62
     7
 48
50.0
100
AcDbText
 10
13583.11819016569
 20
9060.013745883733
 30
0.0
 40
100.0
  1
壁面扉枠左右
  7
STYLE1
100
AcDbText
  0
TEXT
  5
16372
330
747D
100
AcDbEntity
  8
文字
 62
     7
 48
50.0
100
AcDbText
 10
15022.63965474517
 20
9060.013745883725
 30
0.0
 40
100.0
  1
F12            1.0
  7
STYLE1
100
AcDbText
  0
TEXT
  5
16373
330
747D
100
AcDbEntity
  8
文字
 62
     7
 48
50.0
100
AcDbText
 10
13248.77747366447
 20
8550.013745883729
 30
0.0
 40
100.0
  1
16
  7
STYLE1
100
AcDbText
  0
TEXT
  5
16374
330
747D
100
AcDbEntity
  8
文字
 62
     7
 48
50.0
100
AcDbText
 10
13248.77747366447
 20
8380.013745883728
 30
0.0
 40
100.0
  1
17
  7
STYLE1
100
AcDbText
  0
LINE
  5
16379
330
747D
100
AcDbEntity
  8
部品1
100
AcDbLine
 10
10221.68922582656
 20
2070.498956038017
 30
0.0
 11
9458.218559598128
 21
2070.498956038017
 31
0.0
  0
LINE
  5
1637A
330
747D
100
AcDbEntity
  8
部品1
100
AcDbLine
 10
10221.68922582656
 20
1830.606634492484
 30
0.0
 11
10221.68922582656
 21
2070.498956038017
 31
0.0
  0
LINE
  5
1637B
330
747D
100
AcDbEntity
  8
部品1
100
AcDbLine
 10
9458.218559598128
 20
1830.606634492484
 30
0.0
 11
10221.68922582656
 21
1830.606634492484
 31
0.0
  0
LINE
  5
1637C
330
747D
100
AcDbEntity
  8
部品1
100
AcDbLine
 10
9458.218559598128
 20
2070.498956038017
 30
0.0
 11
9458.218559598128
 21
1830.606634492484
 31
0.0
  0
LINE
  5
16381
330
747D
100
AcDbEntity
  8
部品1
100
AcDbLine
 10
10706.95389271235
 20
2909.537219015447
 30
0.0
 11
10734.95389271235
 21
2909.537219015447
 31
0.0
  0
LINE
  5
16382
330
747D
100
AcDbEntity
  8
部品1
 48
50.0
100
AcDbLine
 10
8972.95389271235
 20
2859.537219015427
 30
0.0
 11
10706.95389271235
 21
2859.537219015427
 31
0.0
  0
LINE
  5
16383
330
747D
100
AcDbEntity
  8
部品1
 48
50.0
100
AcDbLine
 10
10679.95389271232
 20
8017.045602913349
 30
0.0
 11
10679.95389271232
 21
8045.045602913349
 31
0.0
  0
LINE
  5
16384
330
747D
100
AcDbEntity
  8
部品1
 48
50.0
100
AcDbLine
 10
8999.953892712321
 20
8017.045602913198
 30
0.0
 11
8999.953892712325
 21
8045.045602913193
 31
0.0
  0
LINE
  5
16385
330
747D
100
AcDbEntity
  8
部品1
100
AcDbLine
 10
8999.953892712348
 20
4699.537219015422
 30
0.0
 11
8999.953892712348
 21
4694.537219015426
 31
0.0
  0
LINE
  5
16386
330
747D
100
AcDbEntity
  8
部品1
100
AcDbLine
 10
10679.95389271235
 20
4699.537219015427
 30
0.0
 11
10679.95389271235
 21
4694.537219015426
 31
0.0
  0
LINE
  5
16387
330
747D
100
AcDbEntity
  8
部品1
 48
50.0
100
AcDbLine
 10
10679.95389271235
 20
8017.045602913349
 30
0.0
 11
10734.95389271233
 21
8017.045602913354
 31
0.0
  0
LINE
  5
16388
330
747D
100
AcDbEntity
  8
部品1
 48
50.0
100
AcDbLine
 10
8972.953892712329
 20
8045.045602913193
 30
0.0
 11
10706.95389271233
 21
8045.045602913353
 31
0.0
  0
LINE
  5
16389
330
747D
100
AcDbEntity
  8
部品1
 48
50.0
100
AcDbLine
 10
8944.95389271235
 20
8017.04560291319
 30
0.0
 11
8999.953892712321
 21
8017.045602913198
 31
0.0
  0
LINE
  5
1638A
330
747D
100
AcDbEntity
  8
部品1
100
AcDbLine
 10
8972.953892712324
 20
8072.045602913222
 30
0.0
 11
8944.953892712325
 21
8072.045602913222
 31
0.0
  0
LINE
  5
1638B
330
747D
100
AcDbEntity
  8
部品1
100
AcDbLine
 10
10706.95389271236
 20
8072.045602913094
 30
0.0
 11
10734.95389271236
 21
8072.045602913094
 31
0.0
  0
LINE
  5
1638D
330
747D
100
AcDbEntity
  8
部品1
 48
50.0
100
AcDbLine
 10
9001.453892712344
 20
8073.545602913348
 30
0.0
 11
8972.953892712345
 21
8045.045602913353
 31
0.0
  0
LINE
  5
1638E
330
747D
100
AcDbEntity
  8
破線
 48
10.0
100
AcDbLine
 10
9024.953892712332
 20
9327.045602913369
 30
0.0
 11
9024.953892712346
 21
8097.045602913254
 31
0.0
  0
LINE
  5
1638F
330
747D
100
AcDbEntity
  8
部品1
100
AcDbLine
 10
9001.453892712333
 20
9327.045602913365
 30
0.0
 11
9001.453892712346
 21
8073.545602913354
 31
0.0
  0
LINE
  5
16390
330
747D
100
AcDbEntity
  8
部品1
 48
50.0
100
AcDbLine
 10
10678.45389271233
 20
8073.545602913348
 30
0.0
 11
10706.95389271233
 21
8045.045602913353
 31
0.0
  0
LINE
  5
16391
330
747D
100
AcDbEntity
  8
破線
 48
10.0
100
AcDbLine
 10
10654.95389271235
 20
9327.045602913369
 30
0.0
 11
10654.95389271233
 21
8097.04560291335
 31
0.0
  0
LINE
  5
16392
330
747D
100
AcDbEntity
  8
部品1
100
AcDbLine
 10
10678.45389271235
 20
9327.045602913365
 30
0.0
 11
10678.45389271233
 21
8073.545602913348
 31
0.0
  0
LINE
  5
16393
330
747D
100
AcDbEntity
  8
破線
 48
10.0
100
AcDbLine
 10
9814.953892712324
 20
8097.045602913301
 30
0.0
 11
9024.953892712339
 21
8097.045602913253
 31
0.0
  0
LINE
  5
16394
330
747D
100
AcDbEntity
  8
破線
 48
10.0
100
AcDbLine
 10
10654.95389271233
 20
8097.04560291335
 30
0.0
 11
9864.953892712325
 21
8097.045602913304
 31
0.0
  0
LINE
  5
16395
330
747D
100
AcDbEntity
  8
部品1
100
AcDbLine
 10
10678.45389271233
 20
8073.545602913348
 30
0.0
 11
9001.453892712248
 21
8073.545602913254
 31
0.0
  0
DIMENSION
  5
16396
330
747D
100
AcDbEntity
  8
寸法
100
AcDbDimension
  2
*D7
 10
9747.885119155938
 20
9033.822948112295
 30
0.0
 11
9352.800954830625
 21
9033.822948112295
 31
0.0
 70
   160
 71
     5
 42
853.0000000000109
  3
INABA_S40G
100
AcDbAlignedDimension
 13
8973.453892712358
 23
9327.045602913267
 33
0.0
 14
9826.453892712368
 24
9327.045602913262
 34
0.0
100
AcDbRotatedDimension
1001
ACAD
1000
DSTYLE
1002
{
1002
}
  0
LINE
  5
16397
330
747D
100
AcDbEntity
  8
破線
 48
10.0
100
AcDbLine
 10
9814.953892712331
 20
8073.545602913302
 30
0.0
 11
9814.953892712329
 21
9327.045602913372
 31
0.0
  0
LINE
  5
16398
330
747D
100
AcDbEntity
  8
破線
 48
10.0
100
AcDbLine
 10
9864.953892712328
 20
8073.545602913306
 30
0.0
 11
9864.953892712328
 21
9327.045602913372
 31
0.0
  0
LINE
  5
16399
330
747D
100
AcDbEntity
  8
部品1
100
AcDbLine
 10
8944.95389271235
 20
2909.53721901543
 30
0.0
 11
8972.95389271235
 21
2909.53721901543
 31
0.0
  0
LINE
  5
1639A
330
747D
100
AcDbEntity
  8
部品1
 48
50.0
100
AcDbLine
 10
10678.45389271234
 20
8912.045602913368
 30
0.0
 11
9001.453892712341
 21
8912.045602913455
 31
0.0
  0
TEXT
  5
1639C
330
747D
100
AcDbEntity
  8
部品1
100
AcDbText
 10
9548.743963336084
 20
1877.605426819494
 30
0.0
 40
135.0
  1
正面図
  7
STYLE2
100
AcDbText
  0
DIMENSION
  5
1639D
330
747D
100
AcDbEntity
  8
寸法
 48
50.0
100
AcDbDimension
  2
*D8
 10
8844.95389271235
 20
2273.489889715049
 30
0.0
 11
8944.95389271235
 21
2273.489889715049
 31
0.0
 70
   160
 71
     5
 42
200.0000000000018
  3
INABA_S40G
100
AcDbAlignedDimension
 13
9044.953892712353
 23
2559.537219015426
 33
0.0
 14
8844.95389271235
 24
2559.537219015426
 34
0.0
100
AcDbRotatedDimension
  0
LINE
  5
1639E
330
747D
100
AcDbEntity
  8
破線
 48
5.0
100
AcDbLine
 10
8939.953892712351
 20
2759.537219015427
 30
0.0
 11
8939.953892712351
 21
2604.537219015427
 31
0.0
  0
LINE
  5
1639F
330
747D
100
AcDbEntity
  8
破線
 48
5.0
100
AcDbLine
 10
10739.95389271235
 20
2759.537219015427
 30
0.0
 11
10739.95389271235
 21
2604.537219015427
 31
0.0
  0
DIMENSION
  5
163A0
330
747D
100
AcDbEntity
  8
寸法
100
AcDbDimension
  2
*D9
 10
10679.95389271235
 20
10103.85262972159
 30
0.0
 11
9839.953892712356
 21
10103.85262972159
 31
0.0
 70
   160
  1
4X420=<>
 71
     5
 42
1680.0
  3
INABA_S40G
100
AcDbAlignedDimension
 13
8999.953892712358
 23
9807.045602913269
 33
0.0
 14
10679.95389271235
 24
9807.045602913364
 34
0.0
100
AcDbRotatedDimension
1001
ACAD
1000
DSTYLE
1002
{
1002
}
  0
LINE
  5
163A1
330
747D
100
AcDbEntity
  8
部品1
100
AcDbLine
 10
8944.953892712359
 20
9807.045602913269
 30
0.0
 11
10734.95389271236
 21
9807.045602913364
 31
0.0
  0
DIMENSION
  5
163A2
330
747D
100
AcDbEntity
  8
寸法
100
AcDbDimension
  2
*D10
 10
10734.95389271236
 20
10103.85262972157
 30
0.0
 11
11043.43917408659
 21
10103.85262972157
 31
0.0
 70
   160
 71
     5
 42
55.0
  3
INABA_S40G
100
AcDbAlignedDimension
 13
10679.95389271235
 23
9807.045602913364
 33
0.0
 14
10734.95389271236
 24
9807.045602913364
 34
0.0
100
AcDbRotatedDimension
1001
ACAD
1000
DSTYLE
1002
{
1002
}
  0
LINE
  5
163A3
330
747D
100
AcDbEntity
  8
部品1
100
AcDbLine
 10
10706.95389271236
 20
9752.045602913369
 30
0.0
 11
10734.95389271236
 21
9752.045602913369
 31
0.0
  0
LINE
  5
163A4
330
747D
100
AcDbEntity
  8
部品1
100
AcDbLine
 10
10706.95389271236
 20
9332.045602913368
 30
0.0
 11
10734.95389271236
 21
9332.045602913368
 31
0.0
  0
LINE
  5
163A5
330
747D
100
AcDbEntity
  8
部品1
100
AcDbLine
 10
10706.45389271235
 20
9777.045602913364
 30
0.0
 11
10706.45389271235
 21
9327.045602913365
 31
0.0
  0
LINE
  5
163A6
330
747D
100
AcDbEntity
  8
部品1
100
AcDbLine
 10
9804.953892712358
 20
9797.045602913371
 30
0.0
 11
9804.953892712358
 21
9779.04560291337
 31
0.0
  0
LINE
  5
163A7
330
747D
100
AcDbEntity
  8
部品1
100
AcDbLine
 10
9804.953892712358
 20
9797.045602913371
 30
0.0
 11
9810.953892712358
 21
9797.045602913371
 31
0.0
  0
LINE
  5
163A8
330
747D
100
AcDbEntity
  8
部品1
100
AcDbLine
 10
9874.953892712358
 20
9797.045602913371
 30
0.0
 11
9874.953892712358
 21
9779.04560291337
 31
0.0
  0
LINE
  5
163A9
330
747D
100
AcDbEntity
  8
部品1
100
AcDbLine
 10
9868.953892712358
 20
9797.045602913371
 30
0.0
 11
9874.953892712358
 21
9797.045602913371
 31
0.0
  0
LINE
  5
163AA
330
747D
100
AcDbEntity
  8
部品1
100
AcDbLine
 10
9827.453892712357
 20
9771.045602913368
 30
0.0
 11
9852.453892712357
 21
9771.045602913371
 31
0.0
  0
LINE
  5
163AB
330
747D
100
AcDbEntity
  8
部品1
100
AcDbLine
 10
9827.453892712357
 20
9327.045602913372
 30
0.0
 11
9852.453892712357
 21
9327.045602913372
 31
0.0
  0
LINE
  5
163AC
330
747D
100
AcDbEntity
  8
部品1
 48
50.0
100
AcDbLine
 10
9827.453892712355
 20
9779.045602913379
 30
0.0
 11
9827.453892712357
 21
9327.045602913372
 31
0.0
  0
LINE
  5
163AD
330
747D
100
AcDbEntity
  8
部品1
 48
50.0
100
AcDbLine
 10
9852.453892712357
 20
9779.045602913374
 30
0.0
 11
9852.453892712357
 21
9327.045602913372
 31
0.0
  0
LINE
  5
163AE
330
747D
100
AcDbEntity
  8
部品1
 48
50.0
100
AcDbLine
 10
9826.453892712358
 20
9777.045602913371
 30
0.0
 11
9826.453892712358
 21
9327.045602913372
 31
0.0
  0
LINE
  5
163AF
330
747D
100
AcDbEntity
  8
部品1
 48
50.0
100
AcDbLine
 10
9853.453892712359
 20
9777.045602913368
 30
0.0
 11
9853.453892712359
 21
9327.045602913372
 31
0.0
  0
LINE
  5
163B0
330
747D
100
AcDbEntity
  8
部品1
100
AcDbLine
 10
9852.453892712357
 20
9779.045602913383
 30
0.0
 11
10706.95389271236
 21
9779.045602913363
 31
0.0
  0
LINE
  5
163B1
330
747D
100
AcDbEntity
  8
部品1
100
AcDbLine
 10
9853.453892712359
 20
9777.045602913371
 30
0.0
 11
10706.45389271235
 21
9777.045602913364
 31
0.0
  0
LINE
  5
163B2
330
747D
100
AcDbEntity
  8
細線
 48
50.0
100
AcDbLine
 10
10706.45389271235
 20
9327.045602913365
 30
0.0
 11
9853.453892712359
 21
9777.045602913368
 31
0.0
  0
LINE
  5
163B3
330
747D
100
AcDbEntity
  8
細線
 48
50.0
100
AcDbLine
 10
10706.45389271235
 20
9777.045602913364
 30
0.0
 11
9853.453892712357
 21
9327.045602913372
 31
0.0
  0
LINE
  5
163B4
330
747D
100
AcDbEntity
  8
部品1
100
AcDbLine
 10
9853.453892712357
 20
9327.045602913372
 30
0.0
 11
10706.45389271235
 21
9327.045602913365
 31
0.0
  0
LINE
  5
163B5
330
747D
100
AcDbEntity
  8
部品1
100
AcDbLine
 10
10706.95389271236
 20
8912.045602913368
 30
0.0
 11
10734.95389271236
 21
8912.045602913368
 31
0.0
  0
LINE
  5
163B6
330
747D
100
AcDbEntity
  8
部品1
100
AcDbLine
 10
10706.95389271236
 20
9779.045602913363
 30
0.0
 11
10706.95389271233
 21
8045.045602913353
 31
0.0
  0
LINE
  5
163B7
330
747D
100
AcDbEntity
  8
部品1
100
AcDbLine
 10
8972.953892712324
 20
9752.045602913241
 30
0.0
 11
8944.953892712325
 21
9752.045602913241
 31
0.0
  0
LINE
  5
163B8
330
747D
100
AcDbEntity
  8
部品1
100
AcDbLine
 10
8972.953892712332
 20
9332.045602913238
 30
0.0
 11
8944.953892712332
 21
9332.045602913238
 31
0.0
  0
LINE
  5
163B9
330
747D
100
AcDbEntity
  8
部品1
 48
50.0
100
AcDbLine
 10
8973.453892712356
 20
9777.045602913265
 30
0.0
 11
8973.453892712358
 21
9327.045602913266
 31
0.0
  0
LINE
  5
163BA
330
747D
100
AcDbEntity
  8
部品1
100
AcDbLine
 10
8972.953892712336
 20
8912.045602913238
 30
0.0
 11
8944.953892712335
 21
8912.045602913238
 31
0.0
  0
LINE
  5
163BB
330
747D
100
AcDbEntity
  8
部品1
100
AcDbLine
 10
8972.953892712331
 20
8045.045602913193
 30
0.0
 11
8972.953892712359
 21
9779.045602913271
 31
0.0
  0
LINE
  5
163BC
330
747D
100
AcDbEntity
  8
部品1
100
AcDbLine
 10
8972.953892712359
 20
9779.045602913386
 30
0.0
 11
9827.453892712355
 21
9779.045602913384
 31
0.0
  0
LINE
  5
163BD
330
747D
100
AcDbEntity
  8
部品1
100
AcDbLine
 10
8973.453892712356
 20
9777.045602913268
 30
0.0
 11
9826.453892712358
 21
9777.045602913375
 31
0.0
  0
LINE
  5
163BE
330
747D
100
AcDbEntity
  8
細線
 48
50.0
100
AcDbLine
 10
9826.453892712358
 20
9327.045602913372
 30
0.0
 11
8973.453892712356
 21
9777.045602913268
 31
0.0
  0
LINE
  5
163BF
330
747D
100
AcDbEntity
  8
細線
 48
50.0
100
AcDbLine
 10
9826.453892712358
 20
9777.045602913371
 30
0.0
 11
8973.453892712358
 21
9327.045602913267
 31
0.0
  0
DIMENSION
  5
163C0
330
747D
100
AcDbEntity
  8
寸法
100
AcDbDimension
  2
*D11
 10
10627.88511915594
 20
9033.822948112399
 30
0.0
 11
10232.80095483062
 21
9033.822948112399
 31
0.0
 70
   160
 71
     5
 42
853.0000000000109
  3
INABA_S40G
100
AcDbAlignedDimension
 13
9853.453892712359
 23
9327.045602913372
 33
0.0
 14
10706.45389271237
 24
9327.045602913369
 34
0.0
100
AcDbRotatedDimension
1001
ACAD
1000
DSTYLE
1002
{
1002
}
  0
LINE
  5
163C1
330
747D
100
AcDbEntity
  8
部品1
100
AcDbLine
 10
8973.453892712358
 20
9327.045602913267
 30
0.0
 11
9826.453892712358
 21
9327.045602913372
 31
0.0
  0
DIMENSION
  5
163C4
330
747D
100
AcDbEntity
  8
寸法
100
AcDbDimension
  2
*D12
 10
11382.38023844677
 20
8072.045602913352
 30
0.0
 11
11382.38023844677
 21
8912.045602913359
 31
0.0
 70
   160
  1
4X420=<>
 71
     5
 42
1680.000000000015
  3
INABA_S40G
100
AcDbAlignedDimension
 13
10734.95389271236
 23
9752.045602913369
 33
0.0
 14
10734.95389271233
 24
8072.045602913352
 34
0.0
 50
90.0
100
AcDbRotatedDimension
1001
ACAD
1000
DSTYLE
1002
{
1002
}
  0
DIMENSION
  5
163C5
330
747D
100
AcDbEntity
  8
寸法
100
AcDbDimension
  2
*D13
 10
11382.38023844674
 20
8017.045602913354
 30
0.0
 11
11382.38023844674
 21
7639.184136008494
 31
0.0
 70
   160
 71
     5
 42
54.99999999999636
  3
INABA_S40G
100
AcDbAlignedDimension
 13
10734.95389271233
 23
8072.045602913352
 33
0.0
 14
10734.95389271233
 24
8017.045602913354
 34
0.0
 50
90.0
100
AcDbRotatedDimension
1001
ACAD
1000
DSTYLE
1002
{
1002
}
  0
DIMENSION
  5
163C6
330
747D
100
AcDbEntity
  8
寸法
100
AcDbDimension
  2
*D14
 10
11061.81161857438
 20
9231.827787244476
 30
0.0
 11
10961.81161857438
 21
9456.827787244478
 31
0.0
 70
    32
 71
     5
 42
449.9999999999982
  3
INABA_S40G
100
AcDbAlignedDimension
 13
10706.45389271235
 23
9777.045602913364
 33
0.0
 14
10706.45389271235
 24
9327.045602913365
 34
0.0
 50
90.0
100
AcDbRotatedDimension
1001
ACAD
1000
DSTYLE
1002
{
1002
}
  0
DIMENSION
  5
163C7
330
747D
100
AcDbEntity
  8
寸法
100
AcDbDimension
  2
*D15
 10
11382.38023844677
 20
9752.045602913369
 30
0.0
 11
11382.38023844676
 21
10115.5308842876
 31
0.0
 70
   160
 71
     5
 42
54.99999999999636
  3
INABA_S40G
100
AcDbAlignedDimension
 13
10734.95389271236
 23
9807.045602913364
 33
0.0
 14
10734.95389271236
 24
9752.045602913369
 34
0.0
 50
90.0
100
AcDbRotatedDimension
1001
ACAD
1000
DSTYLE
1002
{
1002
}
  0
LINE
  5
163C8
330
747D
100
AcDbEntity
  8
部品1
100
AcDbLine
 10
8999.953892712358
 20
9807.045602913269
 30
0.0
 11
8999.953892712358
 21
9779.045602913271
 31
0.0
  0
LINE
  5
163C9
330
747D
100
AcDbEntity
  8
部品1
100
AcDbLine
 10
9419.953892712358
 20
9807.045602913269
 30
0.0
 11
9419.953892712358
 21
9779.045602913271
 31
0.0
  0
LINE
  5
163CA
330
747D
100
AcDbEntity
  8
部品1
100
AcDbLine
 10
9419.953892712358
 20
9807.045602913268
 30
0.0
 11
9419.953892712358
 21
9779.045602913267
 31
0.0
  0
LINE
  5
163CB
330
747D
100
AcDbEntity
  8
部品1
100
AcDbLine
 10
9419.953892712358
 20
9807.045602913383
 30
0.0
 11
9419.953892712358
 21
9779.045602913384
 31
0.0
  0
LINE
  5
163CC
330
747D
100
AcDbEntity
  8
部品1
100
AcDbLine
 10
9839.953892712358
 20
9807.045602913383
 30
0.0
 11
9839.953892712358
 21
9779.045602913384
 31
0.0
  0
LINE
  5
163CD
330
747D
100
AcDbEntity
  8
部品1
100
AcDbLine
 10
10259.95389271236
 20
9807.045602913383
 30
0.0
 11
10259.95389271236
 21
9779.045602913384
 31
0.0
  0
LINE
  5
163CE
330
747D
100
AcDbEntity
  8
部品1
100
AcDbLine
 10
10734.95389271236
 20
9807.045602913364
 30
0.0
 11
10734.95389271233
 21
8017.045602913354
 31
0.0
  0
DIMENSION
  5
163CF
330
747D
100
AcDbEntity
  8
寸法
100
AcDbDimension
  2
*D16
 10
11653.62377249063
 20
8017.045602913354
 30
0.0
 11
11653.62377249063
 21
8939.936087713904
 31
0.0
 70
   160
 71
     5
 42
1790.000000000008
  3
INABA_S40G
100
AcDbAlignedDimension
 13
10734.95389271236
 23
9807.045602913364
 33
0.0
 14
10734.95389271233
 24
8017.045602913354
 34
0.0
 50
90.0
100
AcDbRotatedDimension
1001
ACAD
1000
DSTYLE
1002
{
1002
}
  0
LINE
  5
163D0
330
747D
100
AcDbEntity
  8
部品1
100
AcDbLine
 10
10679.95389271235
 20
9807.045602913383
 30
0.0
 11
10679.95389271235
 21
9779.045602913384
 31
0.0
  0
LINE
  5
163D1
330
747D
100
AcDbEntity
  8
部品1
100
AcDbLine
 10
10679.95389271235
 20
9807.045602913364
 30
0.0
 11
10679.95389271235
 21
9779.045602913363
 31
0.0
  0
LINE
  5
163D2
330
747D
100
AcDbEntity
  8
部品1
100
AcDbLine
 10
8944.953892712321
 20
9807.045602913238
 30
0.0
 11
8944.95389271235
 21
8017.045602913226
 31
0.0
  0
LINE
  5
163D3
330
747D
100
AcDbEntity
  8
部品1
100
AcDbLine
 10
8999.953892712321
 20
9807.045602913238
 30
0.0
 11
8999.953892712325
 21
9779.045602913237
 31
0.0
  0
DIMENSION
  5
163D4
330
747D
100
AcDbEntity
  8
寸法
100
AcDbDimension
  2
*D17
 10
8999.953892712358
 20
10103.85262972147
 30
0.0
 11
8636.468611338083
 21
10103.85262972147
 31
0.0
 70
   160
 71
     5
 42
55.00000000003637
  3
INABA_S40G
100
AcDbAlignedDimension
 13
8944.953892712321
 23
9807.045602913269
 33
0.0
 14
8999.953892712358
 24
9807.045602913269
 34
0.0
100
AcDbRotatedDimension
1001
ACAD
1000
DSTYLE
1002
{
1002
}
  0
LINE
  5
163D5
330
747D
100
AcDbEntity
  8
破線
 48
5.0
100
AcDbLine
 10
9044.953892712349
 20
2759.537219015427
 30
0.0
 11
9044.953892712349
 21
2559.537219015427
 31
0.0
  0
LINE
  5
163D6
330
747D
100
AcDbEntity
  8
破線
 48
5.0
100
AcDbLine
 10
8919.953892712349
 20
2604.537219015427
 30
0.0
 11
8939.953892712352
 21
2604.537219015427
 31
0.0
  0
LINE
  5
163D7
330
747D
100
AcDbEntity
  8
破線
 48
5.0
100
AcDbLine
 10
8844.95389271235
 20
2759.537219015427
 30
0.0
 11
8844.95389271235
 21
2559.537219015427
 31
0.0
  0
LINE
  5
163D8
330
747D
100
AcDbEntity
  8
破線
 48
5.0
100
AcDbLine
 10
8844.95389271235
 20
2559.537219015427
 30
0.0
 11
9044.953892712353
 21
2559.537219015427
 31
0.0
  0
LINE
  5
163D9
330
747D
100
AcDbEntity
  8
部品1
100
AcDbLine
 10
8939.953892712351
 20
2904.537219015429
 30
0.0
 11
8939.953892712351
 21
2759.537219015427
 31
0.0
  0
LINE
  5
163DA
330
747D
100
AcDbEntity
  8
破線
 48
5.0
100
AcDbLine
 10
10759.95389271235
 20
2604.537219015427
 30
0.0
 11
10739.95389271235
 21
2604.537219015427
 31
0.0
  0
LINE
  5
163DB
330
747D
100
AcDbEntity
  8
破線
 48
5.0
100
AcDbLine
 10
10834.95389271235
 20
2759.537219015427
 30
0.0
 11
10834.95389271235
 21
2559.537219015427
 31
0.0
  0
LINE
  5
163DC
330
747D
100
AcDbEntity
  8
破線
 48
5.0
100
AcDbLine
 10
10634.95389271235
 20
2759.537219015427
 30
0.0
 11
10634.95389271235
 21
2559.537219015427
 31
0.0
  0
LINE
  5
163DD
330
747D
100
AcDbEntity
  8
破線
 48
5.0
100
AcDbLine
 10
10834.95389271235
 20
2559.537219015427
 30
0.0
 11
10634.95389271235
 21
2559.537219015427
 31
0.0
  0
LINE
  5
163DE
330
747D
100
AcDbEntity
  8
部品1
100
AcDbLine
 10
10739.95389271235
 20
2904.537219015427
 30
0.0
 11
10739.95389271235
 21
2759.537219015427
 31
0.0
  0
LINE
  5
163DF
330
747D
100
AcDbEntity
  8
部品1
 48
50.0
100
AcDbLine
 10
9939.953892712351
 20
2859.537219015427
 30
0.0
 11
9939.953892712351
 21
2759.537219015427
 31
0.0
  0
LINE
  5
163E0
330
747D
100
AcDbEntity
  8
部品1
 48
50.0
100
AcDbLine
 10
9739.95389271235
 20
2859.537219015427
 30
0.0
 11
9739.95389271235
 21
2759.537219015427
 31
0.0
  0
LINE
  5
163E1
330
747D
100
AcDbEntity
  8
部品1
100
AcDbLine
 10
9344.95389271235
 20
2859.537219015427
 30
0.0
 11
9344.95389271235
 21
2759.537219015427
 31
0.0
  0
LINE
  5
163E2
330
747D
100
AcDbEntity
  8
部品1
100
AcDbLine
 10
10334.95389271235
 20
2859.537219015427
 30
0.0
 11
10334.95389271235
 21
2759.537219015427
 31
0.0
  0
LINE
  5
163E3
330
747D
100
AcDbEntity
  8
部品1
100
AcDbLine
 10
10734.95389271235
 20
4753.037219015427
 30
0.0
 11
10734.95389271235
 21
2759.537219015427
 31
0.0
  0
LINE
  5
163E4
330
747D
100
AcDbEntity
  8
部品1
100
AcDbLine
 10
8944.953892712353
 20
4753.037219015427
 30
0.0
 11
8944.95389271235
 21
2759.537219015427
 31
0.0
  0
LINE
  5
163E5
330
747D
100
AcDbEntity
  8
部品1
100
AcDbLine
 10
8944.95389271235
 20
4699.537219015427
 30
0.0
 11
10734.95389271235
 21
4699.537219015427
 31
0.0
  0
LINE
  5
163E6
330
747D
100
AcDbEntity
  8
部品1
100
AcDbLine
 10
8944.95389271235
 20
2859.537219015427
 30
0.0
 11
10734.95389271235
 21
2859.537219015427
 31
0.0
  0
LINE
  5
163E8
330
747D
100
AcDbEntity
  8
Ｇ．Ｌ
100
AcDbLine
 10
3023.970488245403
 20
2759.537219015427
 30
0.0
 11
11368.9754664811
 21
2759.537219015427
 31
0.0
  0
TEXT
  5
163ED
330
747D
100
AcDbEntity
  8
文字
 62
     7
 48
50.0
100
AcDbText
 10
13209.4053442172
 20
228.543524256902
 30
0.0
 40
100.0
  1
○有効開口寸法 ： 950×1725(mm)
  7
STYLE2
100
AcDbText
  0
LINE
  5
166AA
330
747D
100
AcDbEntity
  8
補助
  6
PHANTOM
 62
   230
 48
50.0
100
AcDbLine
 10
140.0
 20
0.0
 30
0.0
 11
139.9999999999995
 21
11409.6
 31
0.0
  0
LINE
  5
1682F
330
747D
100
AcDbEntity
  8
部品1
100
AcDbLine
 10
8972.953892712336
 20
8492.045602913238
 30
0.0
 11
8944.953892712335
 21
8492.045602913238
 31
0.0
  0
LINE
  5
16830
330
747D
100
AcDbEntity
  8
部品1
100
AcDbLine
 10
10706.95389271236
 20
8492.045602913368
 30
0.0
 11
10734.95389271236
 21
8492.045602913368
 31
0.0
  0
LINE
  5
16831
330
747D
100
AcDbEntity
  8
部品1
 48
50.0
100
AcDbLine
 10
10678.45389271234
 20
8492.045602913368
 30
0.0
 11
9001.453892712341
 21
8492.045602913455
 31
0.0
  0
LINE
  5
16AC1
330
747D
100
AcDbEntity
  8
部品1
100
AcDbLine
 10
5228.493546614813
 20
2859.537219015427
 30
0.0
 11
5228.493546614813
 21
2759.537219015427
 31
0.0
  0
LINE
  5
16AC2
330
747D
100
AcDbEntity
  8
部品1
 48
50.0
100
AcDbLine
 10
5823.493546614812
 20
2859.537219015427
 30
0.0
 11
5823.493546614812
 21
2759.537219015427
 31
0.0
  0
LINE
  5
16AC3
330
747D
100
AcDbEntity
  8
部品1
 48
50.0
100
AcDbLine
 10
6023.493546614813
 20
2859.537219015427
 30
0.0
 11
6023.493546614813
 21
2759.537219015427
 31
0.0
  0
LINE
  5
16AC4
330
747D
100
AcDbEntity
  8
部品1
100
AcDbLine
 10
6618.493546614813
 20
2859.537219015427
 30
0.0
 11
6618.493546614813
 21
2759.537219015427
 31
0.0
  0
LINE
  5
16AC5
330
747D
100
AcDbEntity
  8
部品1
 48
50.0
100
AcDbLine
 10
6895.493546614817
 20
2859.537219015427
 30
0.0
 11
6810.993546614816
 21
2859.537219015427
 31
0.0
  0
LINE
  5
16AC6
330
747D
100
AcDbEntity
  8
部品1
 48
50.0
100
AcDbLine
 10
6895.493546614817
 20
4684.537219015427
 30
0.0
 11
6895.493546614817
 21
2759.537219015427
 31
0.0
  0
LINE
  5
16AC7
330
747D
100
AcDbEntity
  8
部品1
 48
50.0
100
AcDbLine
 10
6818.493546614816
 20
4694.537219015427
 30
0.0
 11
6895.493546614817
 21
4684.537219015427
 31
0.0
  0
LINE
  5
16B53
330
747D
100
AcDbEntity
  8
破線
 48
5.0
100
AcDbLine
 10
6690.993546614819
 20
2759.537219015427
 30
0.0
 11
6690.993546614819
 21
2559.537219015427
 31
0.0
  0
LINE
  5
16B54
330
747D
100
AcDbEntity
  8
破線
 48
5.0
100
AcDbLine
 10
6890.993546614817
 20
2559.537219015425
 30
0.0
 11
6690.993546614819
 21
2559.537219015427
 31
0.0
  0
LINE
  5
16B55
330
747D
100
AcDbEntity
  8
破線
 48
5.0
100
AcDbLine
 10
6890.993546614819
 20
2759.537219015427
 30
0.0
 11
6890.993546614817
 21
2559.537219015425
 31
0.0
  0
DIMENSION
  5
16B56
330
747D
100
AcDbEntity
  8
寸法
 48
50.0
100
AcDbDimension
  2
*D18
 10
4955.993546614816
 20
2273.489889715048
 30
0.0
 11
5055.993546614814
 21
2273.489889715048
 31
0.0
 70
   160
 71
     5
 42
199.9999999999963
  3
INABA_S40G
100
AcDbAlignedDimension
 13
5155.993546614812
 23
2559.537219015424
 33
0.0
 14
4955.993546614816
 24
2559.537219015426
 34
0.0
100
AcDbRotatedDimension
  0
LINE
  5
16B57
330
747D
100
AcDbEntity
  8
破線
 48
5.0
100
AcDbLine
 10
4955.993546614813
 20
2759.537219015427
 30
0.0
 11
4955.993546614816
 21
2559.537219015425
 31
0.0
  0
LINE
  5
16B58
330
747D
100
AcDbEntity
  8
破線
 48
5.0
100
AcDbLine
 10
5155.993546614812
 20
2759.537219015427
 30
0.0
 11
5155.993546614812
 21
2559.537219015425
 31
0.0
  0
LINE
  5
16B59
330
747D
100
AcDbEntity
  8
破線
 48
5.0
100
AcDbLine
 10
5155.993546614812
 20
2559.537219015425
 30
0.0
 11
4955.993546614816
 21
2559.537219015425
 31
0.0
  0
DIMENSION
  5
16B5A
330
747D
100
AcDbEntity
  8
寸法
 48
50.0
100
AcDbDimension
  2
*D19
 10
4806.49354336818
 20
2759.537219015426
 30
0.0
 11
4806.493543368179
 21
2659.537219015426
 31
0.0
 70
   160
 71
     5
 42
200.0000000000004
  3
INABA_S40G
100
AcDbAlignedDimension
 13
4955.993546614816
 23
2559.537219015426
 33
0.0
 14
4930.993546614812
 24
2759.537219015426
 34
0.0
 50
90.0
100
AcDbRotatedDimension
1001
ACAD
1000
DSTYLE
1002
{
1070
   174
1070
     0
1070
   272
1070
     1
1070
   288
1070
     0
1070
   341
1005
0
1002
}
  0
LINE
  5
16B5B
330
747D
100
AcDbEntity
  8
部品1
 48
50.0
100
AcDbLine
 10
5773.493546614813
 20
5065.405358116706
 30
0.0
 11
6073.493546614812
 21
5049.205358116708
 31
0.0
  0
DIMENSION
  5
16B5C
330
747D
100
AcDbEntity
  8
寸法
 48
50.0
100
AcDbDimension
  2
*D20
 10
4407.885139846449
 20
4808.882477888758
 30
0.0
 11
4418.550615105374
 21
5179.729141130456
 31
0.0
 70
   161
 71
     5
 42
140.9999999999991
  3
INABA_S40G
100
AcDbAlignedDimension
 13
4987.889566773392
 23
4933.259967850107
 33
0.0
 14
4983.836111216766
 24
4792.318244084394
 34
0.0
1001
ACAD
1000
DSTYLE
1002
{
1070
   174
1070
     0
1070
   272
1070
     1
1070
   288
1070
     0
1070
   341
1005
0
1002
}
  0
LINE
  5
16B5D
330
747D
100
AcDbEntity
  8
細線
 48
50.0
100
AcDbLine
 10
6685.99354661482
 20
4699.537219015427
 30
0.0
 11
6685.99354661482
 21
2909.537219015427
 31
0.0
  0
LINE
  5
16B5E
330
747D
100
AcDbEntity
  8
細線
 48
50.0
100
AcDbLine
 10
6700.993546614821
 20
4699.537219015427
 30
0.0
 11
6700.993546614821
 21
2909.537219015427
 31
0.0
  0
LINE
  5
16B5F
330
747D
100
AcDbEntity
  8
細線
 48
50.0
100
AcDbLine
 10
6560.99354661482
 20
4699.537219015427
 30
0.0
 11
6560.99354661482
 21
2909.537219015427
 31
0.0
  0
LINE
  5
16B60
330
747D
100
AcDbEntity
  8
細線
 48
50.0
100
AcDbLine
 10
6545.99354661482
 20
4699.537219015427
 30
0.0
 11
6545.99354661482
 21
2909.537219015427
 31
0.0
  0
LINE
  5
16B61
330
747D
100
AcDbEntity
  8
細線
 48
50.0
100
AcDbLine
 10
6405.99354661482
 20
4699.537219015427
 30
0.0
 11
6405.99354661482
 21
2909.537219015427
 31
0.0
  0
LINE
  5
16B62
330
747D
100
AcDbEntity
  8
細線
 48
50.0
100
AcDbLine
 10
6420.99354661482
 20
4699.537219015427
 30
0.0
 11
6420.99354661482
 21
2909.537219015427
 31
0.0
  0
LINE
  5
16B63
330
747D
100
AcDbEntity
  8
部品1
100
AcDbLine
 10
6343.493546614812
 20
4699.537219015427
 30
0.0
 11
6343.493546614812
 21
2909.537219015427
 31
0.0
  0
LINE
  5
16B64
330
747D
100
AcDbEntity
  8
細線
 48
50.0
100
AcDbLine
 10
6000.993546614816
 20
4699.537219015427
 30
0.0
 11
6000.993546614816
 21
2909.537219015427
 31
0.0
  0
LINE
  5
16B65
330
747D
100
AcDbEntity
  8
細線
 48
50.0
100
AcDbLine
 10
5985.993546614817
 20
4699.537219015427
 30
0.0
 11
5985.993546614817
 21
2909.537219015427
 31
0.0
  0
LINE
  5
16B66
330
747D
100
AcDbEntity
  8
細線
 48
50.0
100
AcDbLine
 10
6125.993546614816
 20
4699.537219015427
 30
0.0
 11
6125.993546614816
 21
2909.537219015427
 31
0.0
  0
LINE
  5
16B67
330
747D
100
AcDbEntity
  8
細線
 48
50.0
100
AcDbLine
 10
6140.993546614816
 20
4699.537219015427
 30
0.0
 11
6140.993546614816
 21
2909.537219015427
 31
0.0
  0
LINE
  5
16B68
330
747D
100
AcDbEntity
  8
細線
 48
50.0
100
AcDbLine
 10
6280.993546614816
 20
4699.537219015427
 30
0.0
 11
6280.993546614816
 21
2909.537219015427
 31
0.0
  0
LINE
  5
16B69
330
747D
100
AcDbEntity
  8
細線
 48
50.0
100
AcDbLine
 10
6265.993546614816
 20
4699.537219015427
 30
0.0
 11
6265.993546614816
 21
2909.537219015427
 31
0.0
  0
LINE
  5
16B6A
330
747D
100
AcDbEntity
  8
部品1
100
AcDbLine
 10
5923.493546614813
 20
4699.537219015427
 30
0.0
 11
5923.493546614813
 21
2909.537219015427
 31
0.0
  0
TEXT
  5
16B6B
330
747D
100
AcDbEntity
  8
部品1
 48
50.0
100
AcDbText
 10
6250.586393902672
 20
4963.788122050857
 30
0.0
 40
120.0
  1
54
 50
90.0
  7
STYLE1
100
AcDbText
  0
TEXT
  5
16B6C
330
747D
100
AcDbEntity
  8
部品1
 48
50.0
100
AcDbText
 10
5761.76138183854
 20
5101.28938026914
 30
0.0
 40
120.0
  1
1000
  7
STYLE1
100
AcDbText
  0
LINE
  5
16B6D
330
747D
100
AcDbEntity
  8
部品1
 48
50.0
100
AcDbLine
 10
6073.493546614812
 20
5065.405358116706
 30
0.0
 11
6073.493546614812
 21
5049.205358116708
 31
0.0
  0
LINE
  5
16B6E
330
747D
100
AcDbEntity
  8
部品1
 48
50.0
100
AcDbLine
 10
5773.493546614813
 20
5065.405358116706
 30
0.0
 11
6073.493546614812
 21
5065.405358116706
 31
0.0
  0
DIMENSION
  5
16B6F
330
747D
100
AcDbEntity
  8
寸法
 48
50.0
100
AcDbDimension
  2
*D21
 10
6898.493546614813
 20
5333.194672594731
 30
0.0
 11
7104.540790709304
 21
5333.194672594731
 31
0.0
 70
   160
 71
     5
 42
80.0
  3
INABA_S40G
100
AcDbAlignedDimension
 13
6818.493546614813
 23
4881.34789862708
 33
0.0
 14
6898.493546614813
 24
4879.537219015428
 34
0.0
100
AcDbRotatedDimension
1001
ACAD
1000
DSTYLE
1002
{
1070
   174
1070
     0
1070
   272
1070
     1
1070
   288
1070
     0
1070
   341
1005
0
1002
}
  0
ARC
  5
16B70
330
747D
100
AcDbEntity
  8
部品1
100
AcDbCircle
 10
6884.121082428752
 20
4773.56097628122
 30
0.0
 40
0.7
100
AcDbArc
 50
275.0921697642079
 51
354.1866997667087
  0
ARC
  5
16B71
330
747D
100
AcDbEntity
  8
部品1
100
AcDbCircle
 10
6894.980428178071
 20
4850.604231099143
 30
0.0
 40
0.7
100
AcDbArc
 50
275.0921697642079
 51
354.1866997665532
  0
ARC
  5
16B72
330
747D
100
AcDbEntity
  8
部品1
100
AcDbCircle
 10
6895.308833420674
 20
4846.918834242053
 30
0.0
 40
3.0
100
AcDbArc
 50
95.09216976420788
 51
174.1866997665532
  0
ARC
  5
16B73
330
747D
100
AcDbEntity
  8
部品1
100
AcDbCircle
 10
6884.449487671346
 20
4769.875579424129
 30
0.0
 40
3.0
100
AcDbArc
 50
95.09216976420788
 51
174.1866997665532
  0
ARC
  5
16B74
330
747D
100
AcDbEntity
  8
部品1
 48
50.0
100
AcDbCircle
 10
6873.421352396242
 20
4760.284834820246
 30
0.0
 40
7.0
100
AcDbArc
 50
267.8377559869492
 51
354.1866997665532
  0
ARC
  5
16B75
330
747D
100
AcDbEntity
  8
部品1
 48
50.0
100
AcDbCircle
 10
6890.743448860757
 20
4871.18738196242
 30
0.0
 40
7.0
100
AcDbArc
 50
354.1866997665532
 51
87.03587545283228
  0
LINE
  5
16B76
330
747D
100
AcDbEntity
  8
部品1
 48
50.0
100
AcDbLine
 10
6881.464916000739
 20
4770.179441141031
 30
0.0
 11
6880.385352960999
 21
4759.575824147472
 31
0.0
  0
LINE
  5
16B77
330
747D
100
AcDbEntity
  8
部品1
 48
50.0
100
AcDbLine
 10
6892.324261750061
 20
4847.222695958957
 30
0.0
 11
6884.817482485225
 21
4773.490075213944
 31
0.0
  0
LINE
  5
16B78
330
747D
100
AcDbEntity
  8
部品1
 48
50.0
100
AcDbLine
 10
6897.707449425514
 20
4870.478371289646
 30
0.0
 11
6895.676828234543
 21
4850.533330031865
 31
0.0
  0
ARC
  5
16B79
330
747D
100
AcDbEntity
  8
部品1
100
AcDbCircle
 10
4974.53063848618
 20
4813.351377974329
 30
0.0
 40
0.7
100
AcDbArc
 50
181.0932240292114
 51
260.1877540314845
  0
ARC
  5
16B7A
330
747D
100
AcDbEntity
  8
部品1
100
AcDbCircle
 10
4969.757964888569
 20
4906.21715617445
 30
0.0
 40
0.7
100
AcDbArc
 50
181.0932240292114
 51
260.1877540314845
  0
ARC
  5
16B7B
330
747D
100
AcDbEntity
  8
部品1
100
AcDbCircle
 10
4969.127410485548
 20
4902.571281637052
 30
0.0
 40
3.0
100
AcDbArc
 50
1.093224029263536
 51
80.18775403169875
  0
ARC
  5
16B7C
330
747D
100
AcDbEntity
  8
部品1
100
AcDbCircle
 10
4973.900084083155
 20
4809.705503436934
 30
0.0
 40
3.0
100
AcDbArc
 50
1.093224029263536
 51
80.18775403148449
  0
ARC
  5
16B7D
330
747D
100
AcDbEntity
  8
部品1
 48
50.0
100
AcDbCircle
 10
4984.100216458354
 20
4799.313260054453
 30
0.0
 40
7.0
100
AcDbArc
 50
181.0932240292635
 51
267.8377559869492
  0
ARC
  5
16B7E
330
747D
100
AcDbEntity
  8
部品1
 48
50.0
100
AcDbCircle
 10
4975.676558356258
 20
4926.264319587546
 30
0.0
 40
7.0
100
AcDbArc
 50
87.03587545283228
 51
181.0932240292635
  0
LINE
  5
16B7F
330
747D
100
AcDbEntity
  8
部品1
 48
50.0
100
AcDbLine
 10
4976.899538009583
 20
4809.762741040117
 30
0.0
 11
4977.101490630015
 21
4799.179705647024
 31
0.0
  0
LINE
  5
16B80
330
747D
100
AcDbEntity
  8
細線
 48
50.0
100
AcDbLine
 10
4974.293444952913
 20
4812.692789158926
 30
0.0
 11
6884.297109383547
 21
4772.883470184432
 31
0.0
  0
LINE
  5
16B81
330
747D
100
AcDbEntity
  8
細線
 48
50.0
100
AcDbLine
 10
4969.532969715626
 20
4905.554300856787
 30
0.0
 11
6895.168954460794
 21
4849.930096215961
 31
0.0
  0
LINE
  5
16B82
330
747D
100
AcDbEntity
  8
部品1
 48
50.0
100
AcDbLine
 10
4972.126864411977
 20
4902.628519240235
 30
0.0
 11
4973.830765903342
 21
4813.338022533589
 31
0.0
  0
LINE
  5
16B83
330
747D
100
AcDbEntity
  8
部品1
 48
50.0
100
AcDbLine
 10
4968.677832527919
 20
4926.130765180119
 30
0.0
 11
4969.058092305732
 21
4906.203800733707
 31
0.0
  0
LINE
  5
16B84
330
747D
100
AcDbEntity
  8
細線
 48
50.0
100
AcDbLine
 10
6865.493546614813
 20
4879.504198050723
 30
0.0
 11
6860.745863726814
 21
4753.758425559979
 31
0.0
  0
LINE
  5
16B85
330
747D
100
AcDbEntity
  8
細線
 48
50.0
100
AcDbLine
 10
5001.493546614813
 20
4931.936895390831
 30
0.0
 11
4996.204445059305
 21
4791.851262763477
 31
0.0
  0
LINE
  5
16B86
330
747D
100
AcDbEntity
  8
部品1
100
AcDbLine
 10
4983.836111216766
 20
4792.318244084394
 30
0.0
 11
6873.157247154657
 21
4753.289818850189
 31
0.0
  0
LINE
  5
16B87
330
747D
100
AcDbEntity
  8
部品1
100
AcDbLine
 10
4976.038532971776
 20
4933.254954349694
 30
0.0
 11
6891.105423476274
 21
4878.178016724567
 31
0.0
  0
LINE
  5
16B88
330
747D
100
AcDbEntity
  8
細線
 48
50.0
100
AcDbLine
 10
5160.993546614813
 20
4699.537219015427
 30
0.0
 11
5160.993546614813
 21
2909.537219015427
 31
0.0
  0
LINE
  5
16B89
330
747D
100
AcDbEntity
  8
細線
 48
50.0
100
AcDbLine
 10
5145.993546614812
 20
4699.537219015427
 30
0.0
 11
5145.993546614812
 21
2909.537219015427
 31
0.0
  0
LINE
  5
16B8A
330
747D
100
AcDbEntity
  8
細線
 48
50.0
100
AcDbLine
 10
5285.993546614813
 20
4699.537219015427
 30
0.0
 11
5285.993546614813
 21
2909.537219015427
 31
0.0
  0
LINE
  5
16B8B
330
747D
100
AcDbEntity
  8
細線
 48
50.0
100
AcDbLine
 10
5300.993546614813
 20
4699.537219015427
 30
0.0
 11
5300.993546614813
 21
2909.537219015427
 31
0.0
  0
LINE
  5
16B8C
330
747D
100
AcDbEntity
  8
細線
 48
50.0
100
AcDbLine
 10
5440.993546614812
 20
4699.537219015427
 30
0.0
 11
5440.993546614812
 21
2909.537219015427
 31
0.0
  0
LINE
  5
16B8D
330
747D
100
AcDbEntity
  8
細線
 48
50.0
100
AcDbLine
 10
5425.993546614813
 20
4699.537219015427
 30
0.0
 11
5425.993546614813
 21
2909.537219015427
 31
0.0
  0
LINE
  5
16B8E
330
747D
100
AcDbEntity
  8
細線
 48
50.0
100
AcDbLine
 10
5845.993546614812
 20
4699.537219015427
 30
0.0
 11
5845.993546614812
 21
2909.537219015427
 31
0.0
  0
LINE
  5
16B8F
330
747D
100
AcDbEntity
  8
細線
 48
50.0
100
AcDbLine
 10
5860.993546614813
 20
4699.537219015427
 30
0.0
 11
5860.993546614813
 21
2909.537219015427
 31
0.0
  0
LINE
  5
16B90
330
747D
100
AcDbEntity
  8
細線
 48
50.0
100
AcDbLine
 10
5720.993546614812
 20
4699.537219015427
 30
0.0
 11
5720.993546614812
 21
2909.537219015427
 31
0.0
  0
LINE
  5
16B91
330
747D
100
AcDbEntity
  8
細線
 48
50.0
100
AcDbLine
 10
5705.993546614813
 20
4699.537219015427
 30
0.0
 11
5705.993546614813
 21
2909.537219015427
 31
0.0
  0
LINE
  5
16B92
330
747D
100
AcDbEntity
  8
細線
 48
50.0
100
AcDbLine
 10
5565.993546614812
 20
4699.537219015427
 30
0.0
 11
5565.993546614812
 21
2909.537219015427
 31
0.0
  0
LINE
  5
16B93
330
747D
100
AcDbEntity
  8
細線
 48
50.0
100
AcDbLine
 10
5580.993546614813
 20
4699.537219015427
 30
0.0
 11
5580.993546614813
 21
2909.537219015427
 31
0.0
  0
LINE
  5
16B94
330
747D
100
AcDbEntity
  8
部品1
100
AcDbLine
 10
5075.993546614813
 20
2859.537219015427
 30
0.0
 11
6770.993546614812
 21
2859.537219015427
 31
0.0
  0
LINE
  5
16B95
330
747D
100
AcDbEntity
  8
部品1
100
AcDbLine
 10
6810.993546614813
 20
2859.537219015427
 30
0.0
 11
6818.493546614816
 21
2859.537219015427
 31
0.0
  0
LINE
  5
16B96
330
747D
100
AcDbEntity
  8
破線
  6
HIDDEN
 48
5.0
100
AcDbLine
 10
5075.993546614813
 20
2759.537219015427
 30
0.0
 11
5075.993546614813
 21
2754.537219015427
 31
0.0
  0
LINE
  5
16B97
330
747D
100
AcDbEntity
  8
破線
  6
HIDDEN
 48
5.0
100
AcDbLine
 10
5035.99354661482
 20
2759.537219015427
 30
0.0
 11
5035.99354661482
 21
2754.537219015427
 31
0.0
  0
LINE
  5
16B98
330
747D
100
AcDbEntity
  8
破線
  6
HIDDEN
 48
5.0
100
AcDbLine
 10
6810.993546614813
 20
2759.537219015427
 30
0.0
 11
6810.993546614813
 21
2754.537219015427
 31
0.0
  0
LINE
  5
16B99
330
747D
100
AcDbEntity
  8
破線
  6
HIDDEN
 48
5.0
100
AcDbLine
 10
6770.993546614812
 20
2759.537219015427
 30
0.0
 11
6770.993546614812
 21
2754.537219015427
 31
0.0
  0
ARC
  5
16B9A
330
747D
100
AcDbEntity
  8
部品1
 48
50.0
100
AcDbCircle
 10
6805.993546614813
 20
2899.537219015427
 30
0.0
 40
5.0
100
AcDbArc
 50
0.0
 51
90.0
  0
ARC
  5
16B9B
330
747D
100
AcDbEntity
  8
部品1
 48
50.0
100
AcDbCircle
 10
6775.993546614812
 20
2899.537219015427
 30
0.0
 40
5.0
100
AcDbArc
 50
90.0
 51
180.0
  0
LINE
  5
16B9C
330
747D
100
AcDbEntity
  8
部品1
100
AcDbLine
 10
6805.993546614813
 20
2904.537219015427
 30
0.0
 11
6775.993546614812
 21
2904.537219015427
 31
0.0
  0
LINE
  5
16B9D
330
747D
100
AcDbEntity
  8
部品1
 48
50.0
100
AcDbLine
 10
6810.993546614813
 20
2899.537219015427
 30
0.0
 11
6810.993546614813
 21
2759.537219015427
 31
0.0
  0
LINE
  5
16B9E
330
747D
100
AcDbEntity
  8
部品1
 48
50.0
100
AcDbLine
 10
6770.993546614812
 20
2899.537219015427
 30
0.0
 11
6770.993546614812
 21
2759.537219015427
 31
0.0
  0
ARC
  5
16B9F
330
747D
100
AcDbEntity
  8
部品1
 48
50.0
100
AcDbCircle
 10
5070.993546614812
 20
2899.537219015427
 30
0.0
 40
5.0
100
AcDbArc
 50
0.0
 51
90.0
  0
ARC
  5
16BA0
330
747D
100
AcDbEntity
  8
部品1
 48
50.0
100
AcDbCircle
 10
5040.993546614813
 20
2899.537219015427
 30
0.0
 40
5.0
100
AcDbArc
 50
90.0
 51
180.0
  0
LINE
  5
16BA1
330
747D
100
AcDbEntity
  8
部品1
100
AcDbLine
 10
5040.993546614813
 20
2904.537219015427
 30
0.0
 11
5070.993546614812
 21
2904.537219015427
 31
0.0
  0
LINE
  5
16BA2
330
747D
100
AcDbEntity
  8
部品1
 48
50.0
100
AcDbLine
 10
5075.993546614813
 20
2899.537219015427
 30
0.0
 11
5075.993546614813
 21
2759.537219015427
 31
0.0
  0
LINE
  5
16BA3
330
747D
100
AcDbEntity
  8
部品1
 48
50.0
100
AcDbLine
 10
5035.993546614813
 20
2899.537219015427
 30
0.0
 11
5035.993546614813
 21
2759.537219015427
 31
0.0
  0
LINE
  5
16BA4
330
747D
100
AcDbEntity
  8
破線
  6
HIDDEN
 48
5.0
100
AcDbLine
 10
5075.993546614813
 20
2754.537219015427
 30
0.0
 11
5090.993546614813
 21
2606.837219015426
 31
0.0
  0
LINE
  5
16BA5
330
747D
100
AcDbEntity
  8
破線
  6
HIDDEN
 48
5.0
100
AcDbLine
 10
5035.993546614813
 20
2754.537219015427
 30
0.0
 11
5020.993546614812
 21
2606.837219015426
 31
0.0
  0
LINE
  5
16BA6
330
747D
100
AcDbEntity
  8
破線
  6
HIDDEN
 48
5.0
100
AcDbLine
 10
5090.993546614813
 20
2606.837219015426
 30
0.0
 11
5090.993546614813
 21
2604.537219015427
 31
0.0
  0
LINE
  5
16BA7
330
747D
100
AcDbEntity
  8
破線
  6
HIDDEN
 48
5.0
100
AcDbLine
 10
5020.993546614812
 20
2606.837219015426
 30
0.0
 11
5020.993546614812
 21
2604.537219015427
 31
0.0
  0
LINE
  5
16BA8
330
747D
100
AcDbEntity
  8
破線
  6
HIDDEN
 48
5.0
100
AcDbLine
 10
5020.993546614812
 20
2604.537219015427
 30
0.0
 11
5090.993546614813
 21
2604.537219015427
 31
0.0
  0
LINE
  5
16BA9
330
747D
100
AcDbEntity
  8
破線
  6
HIDDEN
 48
5.0
100
AcDbLine
 10
6825.993546614812
 20
2606.837219015426
 30
0.0
 11
6825.993546614812
 21
2604.537219015427
 31
0.0
  0
LINE
  5
16BAA
330
747D
100
AcDbEntity
  8
破線
  6
HIDDEN
 48
5.0
100
AcDbLine
 10
6810.993546614813
 20
2754.537219015427
 30
0.0
 11
6825.993546614812
 21
2606.837219015426
 31
0.0
  0
LINE
  5
16BAB
330
747D
100
AcDbEntity
  8
破線
  6
HIDDEN
 48
5.0
100
AcDbLine
 10
6755.993546614813
 20
2606.837219015426
 30
0.0
 11
6755.993546614813
 21
2604.537219015427
 31
0.0
  0
LINE
  5
16BAC
330
747D
100
AcDbEntity
  8
破線
  6
HIDDEN
 48
5.0
100
AcDbLine
 10
6770.993546614812
 20
2754.537219015427
 30
0.0
 11
6755.993546614813
 21
2606.837219015426
 31
0.0
  0
LINE
  5
16BAD
330
747D
100
AcDbEntity
  8
破線
  6
HIDDEN
 48
5.0
100
AcDbLine
 10
6825.993546614812
 20
2604.537219015427
 30
0.0
 11
6755.993546614813
 21
2604.537219015427
 31
0.0
  0
DIMENSION
  5
16BAE
330
747D
100
AcDbEntity
  8
寸法
 48
50.0
100
AcDbDimension
  2
*D22
 10
4968.493546614812
 20
5550.156487973345
 30
0.0
 11
5874.299297865782
 21
5550.156487973345
 31
0.0
 70
   160
 71
     5
 42
1930.0
  3
INABA_S40G
100
AcDbAlignedDimension
 13
6898.493546614813
 23
4879.537219015428
 33
0.0
 14
4968.493546614812
 24
4934.537219015432
 34
0.0
100
AcDbRotatedDimension
1001
ACAD
1000
DSTYLE
1002
{
1070
   174
1070
     0
1070
   272
1070
     1
1070
   288
1070
     0
1070
   341
1005
0
1002
}
  0
DIMENSION
  5
16BAF
330
747D
100
AcDbEntity
  8
寸法
 48
50.0
100
AcDbDimension
  2
*D23
 10
4968.493546614812
 20
5333.194672594731
 30
0.0
 11
4658.855751339222
 21
5333.194672594731
 31
0.0
 70
   160
 71
     5
 42
60.0
  3
INABA_S40G
100
AcDbAlignedDimension
 13
5028.493546614813
 23
4930.538837138403
 33
0.0
 14
4968.493546614812
 24
4934.537219015432
 34
0.0
100
AcDbRotatedDimension
1001
ACAD
1000
DSTYLE
1002
{
1070
   174
1070
     0
1070
   272
1070
     1
1070
   288
1070
     0
1070
   341
1005
0
1002
}
  0
DIMENSION
  5
16BB0
330
747D
100
AcDbEntity
  8
寸法
 48
50.0
100
AcDbDimension
  2
*D24
 10
5028.493546614813
 20
5333.6303883549
 30
0.0
 11
5938.089195291293
 21
5333.6303883549
 31
0.0
 70
   160
  1
柱外寸法<>
 71
     5
 42
1790.0
  3
INABA_S40G
100
AcDbAlignedDimension
 13
6818.493546614813
 23
4881.34789862708
 33
0.0
 14
5028.493546614813
 24
4930.538837138403
 34
0.0
100
AcDbRotatedDimension
1001
ACAD
1000
DSTYLE
1002
{
1070
   174
1070
     0
1070
   272
1070
     1
1070
   288
1070
     0
1070
   341
1005
0
1002
}
  0
DIMENSION
  5
16BB1
330
747D
100
AcDbEntity
  8
寸法
100
AcDbDimension
  2
*D25
 10
7430.66364237724
 20
4879.537219015428
 30
0.0
 11
7430.66364237724
 21
3841.793546445115
 31
0.0
 70
   160
 71
     5
 42
2020.000000000001
  3
INABA_S40G
100
AcDbAlignedDimension
 13
6895.493546614817
 23
2859.537219015427
 33
0.0
 14
6898.493546614813
 24
4879.537219015428
 34
0.0
 50
90.0
100
AcDbRotatedDimension
1001
ACAD
1000
DSTYLE
1002
{
1070
   174
1070
     0
1070
   272
1070
     1
1070
   288
1070
     0
1070
   341
1005
0
1002
}
  0
LINE
  5
16BB2
330
747D
100
AcDbEntity
  8
部品1
100
AcDbLine
 10
6763.493546614816
 20
4699.537219015427
 30
0.0
 11
6763.493546614816
 21
2909.537219015427
 31
0.0
  0
LINE
  5
16BB3
330
747D
100
AcDbEntity
  8
部品1
100
AcDbLine
 10
6818.493546614813
 20
4754.419027701433
 30
0.0
 11
6818.493546614816
 21
2759.537219015427
 31
0.0
  0
LINE
  5
16BB4
330
747D
100
AcDbEntity
  8
部品1
100
AcDbLine
 10
5503.493546614812
 20
4699.537219015427
 30
0.0
 11
5503.493546614812
 21
2909.537219015427
 31
0.0
  0
DIMENSION
  5
16BB5
330
747D
100
AcDbEntity
  8
寸法
100
AcDbDimension
  2
*D26
 10
4404.840837456516
 20
2859.537219015427
 30
0.0
 11
4404.840837456514
 21
2553.489974920938
 31
0.0
 70
   160
 71
     5
 42
50.0
  3
INABA_S40G
100
AcDbAlignedDimension
 13
5028.493546614813
 23
2909.537219015427
 33
0.0
 14
4973.493546614813
 24
2859.537219015427
 34
0.0
 50
90.0
100
AcDbRotatedDimension
1001
ACAD
1000
DSTYLE
1002
{
1070
   174
1070
     0
1070
   272
1070
     1
1070
   288
1070
     0
1070
   341
1005
0
1002
}
  0
DIMENSION
  5
16BB6
330
747D
100
AcDbEntity
  8
寸法
100
AcDbDimension
  2
*D27
 10
4119.854164685454
 20
2759.537219015427
 30
0.0
 11
4119.854164685453
 21
2523.489974920937
 31
0.0
 70
   160
 71
     5
 42
100.0
  3
INABA_S40G
100
AcDbAlignedDimension
 13
4973.493546614813
 23
2859.537219015427
 33
0.0
 14
4404.840837456514
 24
2759.537219015427
 34
0.0
 50
90.0
100
AcDbRotatedDimension
1001
ACAD
1000
DSTYLE
1002
{
1070
   174
1070
     0
1070
   272
1070
     1
1070
   288
1070
     0
1070
   341
1005
0
1002
}
  0
DIMENSION
  5
16BB7
330
747D
100
AcDbEntity
  8
寸法
100
AcDbDimension
  2
*D28
 10
4119.854164685454
 20
4934.537219015432
 30
0.0
 11
4119.854164685453
 21
3853.743096508537
 31
0.0
 70
   160
 71
     5
 42
2075.000000000005
  3
INABA_S40G
100
AcDbAlignedDimension
 13
5028.493546614813
 23
2859.537219015427
 33
0.0
 14
4968.493546614812
 24
4934.537219015432
 34
0.0
 50
90.0
100
AcDbRotatedDimension
1001
ACAD
1000
DSTYLE
1002
{
1070
   174
1070
     0
1070
   272
1070
     1
1070
   288
1070
     0
1070
   341
1005
0
1002
}
  0
DIMENSION
  5
16BB8
330
747D
100
AcDbEntity
  8
寸法
100
AcDbDimension
  2
*D29
 10
4404.840837456516
 20
2909.537219015427
 30
0.0
 11
4404.840837456514
 21
3799.991517557384
 31
0.0
 70
   160
 71
     5
 42
1790.0
  3
INABA_S40G
100
AcDbAlignedDimension
 13
5028.493546614813
 23
4699.537219015427
 33
0.0
 14
5028.493546614813
 24
2909.537219015427
 34
0.0
 50
90.0
100
AcDbRotatedDimension
1001
ACAD
1000
DSTYLE
1002
{
1070
   174
1070
     0
1070
   272
1070
     1
1070
   288
1070
     0
1070
   341
1005
0
1002
}
  0
LINE
  5
16BB9
330
747D
100
AcDbEntity
  8
部品1
100
AcDbLine
 10
5028.493546614813
 20
4791.395738457675
 30
0.0
 11
5028.493546614813
 21
2759.537219015427
 31
0.0
  0
LINE
  5
16BBA
330
747D
100
AcDbEntity
  8
部品1
100
AcDbLine
 10
5083.493546614812
 20
4699.537219015427
 30
0.0
 11
5083.493546614812
 21
2909.537219015427
 31
0.0
  0
LINE
  5
16BBB
330
747D
100
AcDbEntity
  8
部品1
100
AcDbLine
 10
5028.493546614813
 20
2859.537219015427
 30
0.0
 11
5035.993546614813
 21
2859.537219015427
 31
0.0
  0
LINE
  5
16BBC
330
747D
100
AcDbEntity
  8
部品1
100
AcDbLine
 10
5028.493546614813
 20
2909.537219015427
 30
0.0
 11
6818.493546614816
 21
2909.537219015427
 31
0.0
  0
LINE
  5
16BBD
330
747D
100
AcDbEntity
  8
部品1
100
AcDbLine
 10
5028.493546614813
 20
4699.537219015427
 30
0.0
 11
6818.493546614813
 21
4699.537219015427
 31
0.0
  0
LINE
  5
16BC0
330
747D
100
AcDbEntity
  8
部品1
100
AcDbLine
 10
6305.228879729032
 20
2070.498956038017
 30
0.0
 11
5541.758213500592
 21
2070.498956038017
 31
0.0
  0
LINE
  5
16BC1
330
747D
100
AcDbEntity
  8
部品1
100
AcDbLine
 10
6305.228879729032
 20
1830.606634492484
 30
0.0
 11
6305.228879729032
 21
2070.498956038017
 31
0.0
  0
LINE
  5
16BC2
330
747D
100
AcDbEntity
  8
部品1
100
AcDbLine
 10
5541.758213500592
 20
1830.606634492484
 30
0.0
 11
6305.228879729032
 21
1830.606634492484
 31
0.0
  0
LINE
  5
16BC3
330
747D
100
AcDbEntity
  8
部品1
100
AcDbLine
 10
5541.758213500592
 20
2070.498956038017
 30
0.0
 11
5541.758213500592
 21
1830.606634492484
 31
0.0
  0
TEXT
  5
16BC9
330
747D
100
AcDbEntity
  8
部品1
100
AcDbText
 10
5631.2043149242
 20
1877.605426819493
 30
0.0
 40
135.0
  1
側面図
  7
STYLE2
100
AcDbText
  0
TEXT
  5
16BCB
330
747D
100
AcDbEntity
  8
部品1
100
AcDbText
 10
3147.92550504364
 20
2795.644122621328
 30
0.0
 40
125.0
  1
▽G.L
  7
STYLE2
100
AcDbText
  0
LINE
  5
16FEA
330
747D
100
AcDbEntity
  8
細線
 48
50.0
100
AcDbLine
 10
9522.953892712321
 20
7945.045777090152
 30
0.0
 11
9641.45389271232
 21
7945.045777090152
 31
0.0
  0
LINE
  5
16FEB
330
747D
100
AcDbEntity
  8
細線
 48
50.0
100
AcDbLine
 10
9611.453892712324
 20
7962.19577709015
 30
0.0
 11
9611.453892712324
 21
7967.045777090152
 31
0.0
  0
LINE
  5
16FEC
330
747D
100
AcDbEntity
  8
細線
 48
50.0
100
AcDbLine
 10
9611.453892712324
 20
7967.045777090152
 30
0.0
 11
9626.453892712323
 21
7967.045777090152
 31
0.0
  0
LINE
  5
16FED
330
747D
100
AcDbEntity
  8
細線
 48
50.0
100
AcDbLine
 10
9626.453892712323
 20
7967.045777090152
 30
0.0
 11
9626.453892712326
 21
7974.045777090153
 31
0.0
  0
LINE
  5
16FEE
330
747D
100
AcDbEntity
  8
細線
 48
50.0
100
AcDbLine
 10
9626.453892712326
 20
7974.045777090153
 30
0.0
 11
9641.453892712323
 21
7974.045777090153
 31
0.0
  0
LINE
  5
16FEF
330
747D
100
AcDbEntity
  8
細線
 48
50.0
100
AcDbLine
 10
9641.453892712323
 20
7974.045777090153
 30
0.0
 11
9641.453892712323
 21
7945.045777090152
 31
0.0
  0
LINE
  5
16FF0
330
747D
100
AcDbEntity
  8
細線
 48
50.0
100
AcDbLine
 10
9630.453892712324
 20
7996.541971355658
 30
0.0
 11
9630.453892712324
 21
8001.041971355659
 31
0.0
  0
LINE
  5
16FF1
330
747D
100
AcDbEntity
  8
細線
 48
50.0
100
AcDbLine
 10
9630.453892712324
 20
8001.041971355659
 30
0.0
 11
9615.453892712324
 21
8001.041971355659
 31
0.0
  0
LINE
  5
16FF2
330
747D
100
AcDbEntity
  8
細線
 48
50.0
100
AcDbLine
 10
9615.453892712324
 20
8001.041971355659
 30
0.0
 11
9615.453892712324
 21
8008.041971355657
 31
0.0
  0
LINE
  5
16FF3
330
747D
100
AcDbEntity
  8
細線
 48
50.0
100
AcDbLine
 10
9615.453892712324
 20
8008.041971355657
 30
0.0
 11
9600.453892712325
 21
8008.041971355655
 31
0.0
  0
LINE
  5
16FF4
330
747D
100
AcDbEntity
  8
細線
 48
50.0
100
AcDbLine
 10
9600.453892712325
 20
8008.041971355655
 30
0.0
 11
9600.453892712325
 21
7970.441743252544
 31
0.0
  0
LINE
  5
16FF5
330
747D
100
AcDbEntity
  8
細線
 48
50.0
100
AcDbLine
 10
9600.453892712325
 20
7970.441743252544
 30
0.0
 11
9620.453900013501
 21
7970.441784802085
 31
0.0
  0
LINE
  5
16FF6
330
747D
100
AcDbEntity
  8
細線
 48
50.0
100
AcDbLine
 10
9620.453855144559
 20
7979.045246437895
 30
0.0
 11
9620.453900013501
 21
7970.441784802085
 31
0.0
  0
LINE
  5
16FF7
330
747D
100
AcDbEntity
  8
細線
 48
50.0
100
AcDbLine
 10
9620.453855144559
 20
7979.045246437895
 30
0.0
 11
9631.686544499267
 21
7979.045429391041
 31
0.0
  0
ARC
  5
16FF8
330
747D
100
AcDbEntity
  8
細線
 48
50.0
100
AcDbCircle
 10
9638.268836806602
 20
7977.845593304653
 30
0.0
 40
1.8
100
AcDbArc
 50
270.0006665777295
 51
345.0005554812987
  0
LINE
  5
16FF9
330
747D
100
AcDbEntity
  8
細線
 48
50.0
100
AcDbLine
 10
9640.255270252684
 20
7978.304433761933
 30
0.0
 11
9640.007507810484
 21
7977.379735879826
 31
0.0
  0
LINE
  5
16FFA
330
747D
100
AcDbEntity
  8
細線
 48
50.0
100
AcDbLine
 10
9638.268857747759
 20
7976.045593304774
 30
0.0
 11
9634.638930328991
 21
7976.045551074294
 31
0.0
  0
ARC
  5
16FFB
330
747D
100
AcDbEntity
  8
細線
 48
50.0
100
AcDbCircle
 10
9634.638909387838
 20
7977.845551074174
 30
0.0
 40
1.8
100
AcDbArc
 50
195.0010443049394
 51
270.0006665777295
  0
LINE
  5
16FFC
330
747D
100
AcDbEntity
  8
細線
 48
50.0
100
AcDbLine
 10
9632.652481895579
 20
7978.304266041738
 30
0.0
 11
9632.900251392092
 21
7977.379645103155
 31
0.0
  0
ARC
  5
16FFD
330
747D
100
AcDbEntity
  8
細線
 48
50.0
100
AcDbCircle
 10
9631.686560786832
 20
7978.045429391176
 30
0.0
 40
1.0
100
AcDbArc
 50
15.00104430493943
 51
90.00093320877969
  0
LINE
  5
16FFE
330
747D
100
AcDbEntity
  8
細線
 48
50.0
100
AcDbLine
 10
9641.221191607787
 20
7979.045624081447
 30
0.0
 11
9642.162951758692
 21
7979.045630655296
 31
0.0
  0
ARC
  5
16FFF
330
747D
100
AcDbEntity
  8
細線
 48
50.0
100
AcDbCircle
 10
9641.221198588171
 20
7978.045624081471
 30
0.0
 40
1.0
100
AcDbArc
 50
90.0003999466794
 51
165.0005554812987
  0
LINE
  5
17000
330
747D
100
AcDbEntity
  8
細線
 48
50.0
100
AcDbLine
 10
10677.45389271232
 20
8038.0456029132
 30
0.0
 11
10677.45389271232
 21
8013.045602913196
 31
0.0
  0
LINE
  5
17001
330
747D
100
AcDbEntity
  8
細線
100
AcDbLine
 10
10667.95389271232
 20
8013.045602913196
 30
0.0
 11
10559.95389271232
 21
8013.045602913196
 31
0.0
  0
LINE
  5
17002
330
747D
100
AcDbEntity
  8
細線
 48
50.0
100
AcDbLine
 10
10092.45389786323
 20
8005.045602913201
 30
0.0
 11
10092.45389786323
 21
8043.045602913194
 31
0.0
  0
LINE
  5
17003
330
747D
100
AcDbEntity
  8
細線
 48
50.0
100
AcDbLine
 10
10092.45389786323
 20
8043.045602913194
 30
0.0
 11
10107.45389786323
 21
8043.045602913196
 31
0.0
  0
LINE
  5
17004
330
747D
100
AcDbEntity
  8
細線
 48
50.0
100
AcDbLine
 10
10107.45389786323
 20
8043.045602913196
 30
0.0
 11
10107.45389786323
 21
8038.045602913197
 31
0.0
  0
LINE
  5
17005
330
747D
100
AcDbEntity
  8
細線
 48
50.0
100
AcDbLine
 10
10092.45389786323
 20
8005.045602913201
 30
0.0
 11
10112.45389786323
 21
8005.045602913197
 31
0.0
  0
LINE
  5
17006
330
747D
100
AcDbEntity
  8
細線
 48
50.0
100
AcDbLine
 10
10112.45389786323
 20
8005.045602913197
 30
0.0
 11
10112.45389786323
 21
8013.045602913196
 31
0.0
  0
LINE
  5
17007
330
747D
100
AcDbEntity
  8
細線
100
AcDbLine
 10
10349.95389271232
 20
8013.045602913196
 30
0.0
 11
10279.95389271232
 21
8013.045602913196
 31
0.0
  0
LINE
  5
17008
330
747D
100
AcDbEntity
  8
細線
 48
50.0
100
AcDbLine
 10
10209.95389271232
 20
8013.045602913196
 30
0.0
 11
10125.24967743607
 21
8013.045602913196
 31
0.0
  0
LINE
  5
17009
330
747D
100
AcDbEntity
  8
細線
100
AcDbLine
 10
10489.95389271232
 20
8013.045602913196
 30
0.0
 11
10419.95389271232
 21
8013.045602913196
 31
0.0
  0
LINE
  5
1700A
330
747D
100
AcDbEntity
  8
細線
100
AcDbLine
 10
10317.95389271232
 20
8013.045602913196
 30
0.0
 11
10317.95389271232
 21
8042.345602913195
 31
0.0
  0
LINE
  5
1700B
330
747D
100
AcDbEntity
  8
細線
100
AcDbLine
 10
10297.95389271232
 20
8042.345602913195
 30
0.0
 11
10317.95389271232
 21
8042.345602913195
 31
0.0
  0
LINE
  5
1700C
330
747D
100
AcDbEntity
  8
細線
100
AcDbLine
 10
10297.95389271232
 20
8013.045602913196
 30
0.0
 11
10297.95389271232
 21
8042.345602913195
 31
0.0
  0
LINE
  5
1700D
330
747D
100
AcDbEntity
  8
細線
 48
50.0
100
AcDbLine
 10
10661.55389271232
 20
8038.045602913197
 30
0.0
 11
10651.55389271232
 21
8043.045602913196
 31
0.0
  0
LINE
  5
1700E
330
747D
100
AcDbEntity
  8
細線
 48
50.0
100
AcDbLine
 10
10677.45389271232
 20
8038.0456029132
 30
0.0
 11
10661.55389271232
 21
8038.045602913197
 31
0.0
  0
LINE
  5
1700F
330
747D
100
AcDbEntity
  8
細線
 48
50.0
100
AcDbLine
 10
10651.55389271232
 20
8043.045602913194
 30
0.0
 11
10107.45389786323
 21
8043.045602913194
 31
0.0
  0
LINE
  5
17010
330
747D
100
AcDbEntity
  8
細線
 48
50.0
100
AcDbLine
 10
10118.45389786323
 20
8012.245602913196
 30
0.0
 11
10118.45389786323
 21
8010.745602913196
 31
0.0
  0
LINE
  5
17011
330
747D
100
AcDbEntity
  8
細線
 48
50.0
100
AcDbLine
 10
10119.15389786323
 20
8010.045602913196
 30
0.0
 11
10123.75389786323
 21
8010.045602913196
 31
0.0
  0
LINE
  5
17012
330
747D
100
AcDbEntity
  8
細線
 48
50.0
100
AcDbLine
 10
10124.45389786323
 20
8010.745602913196
 30
0.0
 11
10124.45390468834
 21
8012.245617804685
 31
0.0
  0
ARC
  5
17013
330
747D
100
AcDbEntity
  8
細線
 48
50.0
100
AcDbCircle
 10
10123.75389786323
 20
8010.745602913196
 30
0.0
 40
0.7
100
AcDbArc
 50
270.0
 51
0.0
  0
ARC
  5
17014
330
747D
100
AcDbEntity
  8
細線
 48
50.0
100
AcDbCircle
 10
10119.15389786323
 20
8010.745602913196
 30
0.0
 40
0.7
100
AcDbArc
 50
180.0
 51
270.0
  0
LINE
  5
17015
330
747D
100
AcDbEntity
  8
細線
 48
50.0
100
AcDbLine
 10
10117.65389972467
 20
8013.045602913196
 30
0.0
 11
10112.45389786323
 21
8013.045602913196
 31
0.0
  0
ARC
  5
17016
330
747D
100
AcDbEntity
  8
細線
 48
50.0
100
AcDbCircle
 10
10125.25390468833
 20
8012.245614081814
 30
0.0
 40
0.8
100
AcDbArc
 50
90.00014387753465
 51
179.9997333689498
  0
ARC
  5
17017
330
747D
100
AcDbEntity
  8
細線
 48
50.0
100
AcDbCircle
 10
10117.65389786324
 20
8012.245602913196
 30
0.0
 40
0.8
100
AcDbArc
 50
359.9997333689499
 51
89.99986668437072
  0
LINE
  5
17018
330
747D
100
AcDbEntity
  8
細線
 48
50.0
100
AcDbLine
 10
9831.953857393429
 20
7979.045614775784
 30
0.0
 11
9761.953840105553
 21
7979.045614775791
 31
0.0
  0
LINE
  5
17019
330
747D
100
AcDbEntity
  8
細線
 48
50.0
100
AcDbLine
 10
9691.953892712321
 20
7979.045622963153
 30
0.0
 11
9642.162951758692
 21
7979.045630655296
 31
0.0
  0
LINE
  5
1701A
330
747D
100
AcDbEntity
  8
細線
 48
50.0
100
AcDbLine
 10
10041.95388447556
 20
7979.045614775786
 30
0.0
 11
10133.45389271232
 21
7979.045614775786
 31
0.0
  0
LINE
  5
1701B
330
747D
100
AcDbEntity
  8
細線
 48
50.0
100
AcDbLine
 10
9971.953892712321
 20
7979.04561202578
 30
0.0
 11
9901.954136609321
 21
7979.045617525816
 31
0.0
  0
LINE
  5
1701C
330
747D
100
AcDbEntity
  8
細線
 48
50.0
100
AcDbLine
 10
10133.45390301414
 20
8008.04582094806
 30
0.0
 11
10133.45389271232
 21
7979.045614775786
 31
0.0
  0
LINE
  5
1701D
330
747D
100
AcDbEntity
  8
細線
 48
50.0
100
AcDbLine
 10
10118.45390484361
 20
8008.04582094806
 30
0.0
 11
10133.45390301414
 21
8008.04582094806
 31
0.0
  0
LINE
  5
1701E
330
747D
100
AcDbEntity
  8
細線
 48
50.0
100
AcDbLine
 10
10118.45389320964
 20
8001.045820948016
 30
0.0
 11
10118.45390484361
 21
8008.04582094806
 31
0.0
  0
LINE
  5
1701F
330
747D
100
AcDbEntity
  8
細線
 48
50.0
100
AcDbLine
 10
10103.45389320964
 20
8001.045820948016
 30
0.0
 11
10118.45389320964
 21
8001.045820948016
 31
0.0
  0
LINE
  5
17020
330
747D
100
AcDbEntity
  8
細線
 48
50.0
100
AcDbLine
 10
10103.45389320964
 20
7996.195820948019
 30
0.0
 11
10103.45389320964
 21
8001.045820948016
 31
0.0
  0
LINE
  5
17021
330
747D
100
AcDbEntity
  8
細線
 48
50.0
100
AcDbLine
 10
10103.45389320964
 20
7999.645820948019
 30
0.0
 11
9630.453892712324
 21
7999.645820948015
 31
0.0
  0
LINE
  5
17022
330
747D
100
AcDbEntity
  8
細線
 48
50.0
100
AcDbLine
 10
9611.453892712324
 20
7965.645777090151
 30
0.0
 11
9025.953897365914
 21
7965.645777090151
 31
0.0
  0
LINE
  5
17023
330
747D
100
AcDbEntity
  8
細線
 48
50.0
100
AcDbLine
 10
9434.336984383014
 20
7963.316628380646
 30
0.0
 11
9440.092501965684
 21
7945.045777090152
 31
0.0
  0
LINE
  5
17024
330
747D
100
AcDbEntity
  8
細線
 48
50.0
100
AcDbLine
 10
9423.408535902582
 20
7963.316628380642
 30
0.0
 11
9434.336984383014
 21
7963.316628380646
 31
0.0
  0
ARC
  5
17025
330
747D
100
AcDbEntity
  8
細線
 48
50.0
100
AcDbCircle
 10
9417.954179845265
 20
7964.816628380642
 30
0.0
 40
5.0
100
AcDbArc
 50
204.6243183521304
 51
335.3756816478695
  0
ARC
  5
17026
330
747D
100
AcDbEntity
  8
細線
 48
50.0
100
AcDbCircle
 10
9423.408535902582
 20
7962.316628380643
 30
0.0
 40
1.0
100
AcDbArc
 50
90.0
 51
155.3756816478695
  0
ARC
  5
17027
330
747D
100
AcDbEntity
  8
細線
 48
50.0
100
AcDbCircle
 10
9412.499823787948
 20
7962.316628380643
 30
0.0
 40
1.0
100
AcDbArc
 50
24.62431835213048
 51
90.0
  0
LINE
  5
17028
330
747D
100
AcDbEntity
  8
細線
 48
50.0
100
AcDbLine
 10
9401.571375307517
 20
7963.316628380646
 30
0.0
 11
9412.499823787948
 21
7963.316628380642
 31
0.0
  0
LINE
  5
17029
330
747D
100
AcDbEntity
  8
細線
 48
50.0
100
AcDbLine
 10
9395.815857724846
 20
7945.045777090152
 30
0.0
 11
9401.571375307517
 21
7963.316628380646
 31
0.0
  0
LINE
  5
1702A
330
747D
100
AcDbEntity
  8
細線
 48
50.0
100
AcDbLine
 10
9382.95389271232
 20
7945.045777090152
 30
0.0
 11
9452.95389271232
 21
7945.045777090152
 31
0.0
  0
LINE
  5
1702B
330
747D
100
AcDbEntity
  8
細線
 48
50.0
100
AcDbLine
 10
9002.953892712321
 20
7945.043111433621
 30
0.0
 11
9312.95444581675
 21
7945.046998333817
 31
0.0
  0
LINE
  5
1702C
330
747D
100
AcDbEntity
  8
細線
 48
50.0
100
AcDbLine
 10
9025.953897365914
 20
7974.041927497791
 30
0.0
 11
9011.953892712321
 21
7974.041927497786
 31
0.0
  0
LINE
  5
1702D
330
747D
100
AcDbEntity
  8
細線
 48
50.0
100
AcDbLine
 10
9025.953897365914
 20
7965.645777090151
 30
0.0
 11
9025.953897365914
 21
7974.041927497791
 31
0.0
  0
LINE
  5
1702E
330
747D
100
AcDbEntity
  8
細線
  6
Continuous
 62
     5
100
AcDbLine
 10
10105.45389786323
 20
7998.045602913193
 30
0.0
 11
10105.45389786323
 21
7998.045602913193
 31
0.0
  0
LINE
  5
1702F
330
747D
100
AcDbEntity
  8
部品1
100
AcDbLine
 10
9002.953892712321
 20
7940.045602913198
 30
0.0
 11
10706.95389271232
 21
7940.045602913194
 31
0.0
  0
LINE
  5
17030
330
747D
100
AcDbEntity
  8
部品1
100
AcDbLine
 10
10676.95389271232
 20
7940.045602913198
 30
0.0
 11
10706.95389271232
 21
7940.045602913198
 31
0.0
  0
LINE
  5
17031
330
747D
100
AcDbEntity
  8
部品1
100
AcDbLine
 10
8999.953892712321
 20
8044.045602913193
 30
0.0
 11
10679.95389271232
 21
8044.045602913197
 31
0.0
  0
LINE
  5
17032
330
747D
100
AcDbEntity
  8
部品1
100
AcDbLine
 10
8999.953892712321
 20
8044.045602913193
 30
0.0
 11
8999.953892712321
 21
8013.045602913196
 31
0.0
  0
LINE
  5
17033
330
747D
100
AcDbEntity
  8
部品1
100
AcDbLine
 10
9011.953892712321
 20
8013.045602913196
 30
0.0
 11
9011.953892712321
 21
7949.045602913196
 31
0.0
  0
LINE
  5
17034
330
747D
100
AcDbEntity
  8
部品1
100
AcDbLine
 10
8972.953892712322
 20
7940.045602913198
 30
0.0
 11
8972.953892712322
 21
8017.045602913198
 31
0.0
  0
LINE
  5
17035
330
747D
100
AcDbEntity
  8
部品1
100
AcDbLine
 10
9002.953892712321
 20
7940.045602913198
 30
0.0
 11
8972.953892712322
 21
7940.045602913198
 31
0.0
  0
LINE
  5
17036
330
747D
100
AcDbEntity
  8
部品1
100
AcDbLine
 10
9011.953892712321
 20
7949.045602913196
 30
0.0
 11
9002.953892712321
 21
7949.045602913196
 31
0.0
  0
LINE
  5
17037
330
747D
100
AcDbEntity
  8
部品1
100
AcDbLine
 10
9002.953892712321
 20
7949.045602913196
 30
0.0
 11
9002.953892712321
 21
7940.045602913198
 31
0.0
  0
LINE
  5
17038
330
747D
100
AcDbEntity
  8
部品1
100
AcDbLine
 10
8972.953892712322
 20
8017.045602913198
 30
0.0
 11
8999.953892712321
 21
8017.045602913198
 31
0.0
  0
LINE
  5
17039
330
747D
100
AcDbEntity
  8
部品1
100
AcDbLine
 10
9011.953892712321
 20
8013.045602913196
 30
0.0
 11
8999.953892712321
 21
8013.045602913196
 31
0.0
  0
LINE
  5
1703A
330
747D
100
AcDbEntity
  8
部品1
100
AcDbLine
 10
10679.95389271232
 20
8044.045602913197
 30
0.0
 11
10679.95389271232
 21
8013.045602913196
 31
0.0
  0
LINE
  5
1703B
330
747D
100
AcDbEntity
  8
部品1
100
AcDbLine
 10
10667.95389271232
 20
8013.045602913196
 30
0.0
 11
10667.95389271232
 21
7949.045602913196
 31
0.0
  0
LINE
  5
1703C
330
747D
100
AcDbEntity
  8
部品1
100
AcDbLine
 10
10667.95389271232
 20
7949.045602913196
 30
0.0
 11
10676.95389271232
 21
7949.045602913196
 31
0.0
  0
LINE
  5
1703D
330
747D
100
AcDbEntity
  8
部品1
100
AcDbLine
 10
10676.95389271232
 20
7949.045602913196
 30
0.0
 11
10676.95389271232
 21
7940.045602913198
 31
0.0
  0
LINE
  5
1703E
330
747D
100
AcDbEntity
  8
部品1
100
AcDbLine
 10
10667.95389271232
 20
8013.045602913196
 30
0.0
 11
10679.95389271232
 21
8013.045602913196
 31
0.0
  0
LINE
  5
1703F
330
747D
100
AcDbEntity
  8
部品1
100
AcDbLine
 10
10706.95389271232
 20
7940.045602913198
 30
0.0
 11
10706.95389271232
 21
8017.045602913198
 31
0.0
  0
LINE
  5
17041
330
747D
100
AcDbEntity
  8
部品1
100
AcDbLine
 10
10679.95389271232
 20
8017.045602913198
 30
0.0
 11
10706.95389271232
 21
8017.045602913198
 31
0.0
  0
DIMENSION
  5
17042
330
747D
100
AcDbEntity
  8
寸法
 48
50.0
100
AcDbDimension
  2
*D30
 10
9961.953892712323
 20
7314.970584864972
 30
0.0
 11
9486.953892712321
 21
7314.970584864972
 31
0.0
 70
   160
  1
有効開口部間口\P<>
 71
     5
 42
950.0
  3
INABA_S40
100
AcDbAlignedDimension
 13
9011.953892712321
 23
7940.045602913198
 33
0.0
 14
9961.953892712323
 24
7940.045602913198
 34
0.0
100
AcDbRotatedDimension
1001
ACAD
1000
DSTYLE
1002
{
1070
    41
1040
0.5
1070
    44
1040
1.0
1070
   147
1040
0.8
1070
   271
1070
     2
1070
   272
1070
     2
1070
   289
1070
     3
1070
   340
1005
F706
1070
   343
1005
15D9A
1070
   344
1005
15D9A
1002
}
  0
LINE
  5
17043
330
747D
100
AcDbEntity
  8
細線
100
AcDbLine
 10
9011.953892712321
 20
7949.045602913196
 30
0.0
 11
9011.953892712321
 21
7945.045602913244
 31
0.0
  0
LINE
  5
17044
330
747D
100
AcDbEntity
  8
細線
100
AcDbLine
 10
9168.453786113584
 20
7963.044672458797
 30
0.0
 11
9168.453786113584
 21
7945.04467245877
 31
0.0
  0
LINE
  5
17045
330
747D
100
AcDbEntity
  8
細線
100
AcDbLine
 10
9127.453786113584
 20
7963.044672458789
 30
0.0
 11
9127.453786113584
 21
7945.04467245877
 31
0.0
  0
LINE
  5
17046
330
747D
100
AcDbEntity
  8
細線
100
AcDbLine
 10
9168.453786113584
 20
7963.044672458797
 30
0.0
 11
9127.453786113584
 21
7963.044672458789
 31
0.0
  0
ARC
  5
17047
330
747D
100
AcDbEntity
  8
部品1
100
AcDbCircle
 10
9129.997941990859
 20
7944.544672458793
 30
0.0
 40
1.0
100
AcDbArc
 50
270.0
 51
19.47122063442214
  0
LINE
  5
17048
330
747D
100
AcDbEntity
  8
部品1
 48
0.01
100
AcDbLine
 10
9122.953786113576
 20
7945.044672458793
 30
0.0
 11
9122.953786113576
 21
7944.044672458793
 31
0.0
  0
LINE
  5
17049
330
747D
100
AcDbEntity
  8
部品1
 48
0.01
100
AcDbLine
 10
9123.453786113577
 20
7943.544672458793
 30
0.0
 11
9129.997941990859
 21
7943.544672458793
 31
0.0
  0
ARC
  5
1704A
330
747D
100
AcDbEntity
  8
部品1
 48
0.01
100
AcDbCircle
 10
9123.453786113577
 20
7944.044672458793
 30
0.0
 40
0.5
100
AcDbArc
 50
180.0
 51
270.0
  0
ARC
  5
1704B
330
747D
100
AcDbEntity
  8
部品1
100
AcDbCircle
 10
9155.453786113575
 20
7953.544672458793
 30
0.0
 40
26.0
100
AcDbArc
 50
180.0
 51
199.4712206344221
  0
ARC
  5
1704C
330
747D
100
AcDbEntity
  8
部品1
 48
0.01
100
AcDbCircle
 10
9131.453786113576
 20
7958.544672458792
 30
0.0
 40
2.0
100
AcDbArc
 50
90.0
 51
180.0
  0
LINE
  5
1704D
330
747D
100
AcDbEntity
  8
部品1
100
AcDbLine
 10
9129.453786113577
 20
7953.544672458793
 30
0.0
 11
9129.453786113577
 21
7958.544672458792
 31
0.0
  0
ARC
  5
1704E
330
747D
100
AcDbEntity
  8
部品1
100
AcDbCircle
 10
9147.953786113577
 20
7969.344672458795
 30
0.0
 40
16.0
100
AcDbArc
 50
218.3930440192126
 51
254.0576313943215
  0
ARC
  5
1704F
330
747D
100
AcDbEntity
  8
部品1
100
AcDbCircle
 10
9133.062177738388
 20
7957.544672458793
 30
0.0
 40
3.0
100
AcDbArc
 50
38.39304401921267
 51
90.0
  0
LINE
  5
17050
330
747D
100
AcDbEntity
  8
部品1
 48
0.01
100
AcDbLine
 10
9131.453786113576
 20
7960.544672458794
 30
0.0
 11
9133.062177738388
 21
7960.544672458794
 31
0.0
  0
ARC
  5
17051
330
747D
100
AcDbEntity
  8
部品1
100
AcDbCircle
 10
9147.953786113577
 20
7969.344672458795
 30
0.0
 40
16.0
100
AcDbArc
 50
285.9423686056786
 51
321.6069559807873
  0
LINE
  5
17052
330
747D
100
AcDbEntity
  8
部品1
100
AcDbLine
 10
9151.524500327846
 20
7953.844672458796
 30
0.0
 11
9144.383071899305
 21
7953.844672458796
 31
0.0
  0
ARC
  5
17053
330
747D
100
AcDbEntity
  8
部品1
100
AcDbCircle
 10
9151.524500327846
 20
7956.844672458796
 30
0.0
 40
3.0
100
AcDbArc
 50
270.0
 51
285.9423686056786
  0
ARC
  5
17054
330
747D
100
AcDbEntity
  8
部品1
100
AcDbCircle
 10
9144.383071899305
 20
7956.844672458796
 30
0.0
 40
3.0
100
AcDbArc
 50
254.0576313943215
 51
270.0
  0
LINE
  5
17055
330
747D
100
AcDbEntity
  8
部品1
 48
0.01
100
AcDbLine
 10
9164.453786113575
 20
7960.544672458794
 30
0.0
 11
9162.845394488764
 21
7960.544672458794
 31
0.0
  0
ARC
  5
17056
330
747D
100
AcDbEntity
  8
部品1
100
AcDbCircle
 10
9162.845394488764
 20
7957.544672458793
 30
0.0
 40
3.0
100
AcDbArc
 50
90.0
 51
141.6069559807873
  0
ARC
  5
17057
330
747D
100
AcDbEntity
  8
部品1
 48
0.01
100
AcDbCircle
 10
9164.453786113575
 20
7958.544672458792
 30
0.0
 40
2.0
100
AcDbArc
 50
0.0
 51
90.0
  0
LINE
  5
17058
330
747D
100
AcDbEntity
  8
部品1
100
AcDbLine
 10
9166.453786113576
 20
7953.544672458793
 30
0.0
 11
9166.453786113576
 21
7958.544672458792
 31
0.0
  0
ARC
  5
17059
330
747D
100
AcDbEntity
  8
部品1
100
AcDbCircle
 10
9140.453786113576
 20
7953.544672458793
 30
0.0
 40
26.0
100
AcDbArc
 50
340.5287793655779
 51
0.0
  0
ARC
  5
1705A
330
747D
100
AcDbEntity
  8
部品1
100
AcDbCircle
 10
9165.909630236292
 20
7944.544672458793
 30
0.0
 40
1.0
100
AcDbArc
 50
160.5287793655778
 51
270.0
  0
LINE
  5
1705B
330
747D
100
AcDbEntity
  8
部品1
 48
0.01
100
AcDbLine
 10
9172.453786113576
 20
7943.544672458793
 30
0.0
 11
9165.841280683514
 21
7943.544672458793
 31
0.0
  0
LINE
  5
1705C
330
747D
100
AcDbEntity
  8
部品1
 48
0.01
100
AcDbLine
 10
9172.953786113577
 20
7945.044672458793
 30
0.0
 11
9172.953786113577
 21
7944.044672458793
 31
0.0
  0
LINE
  5
1705D
330
747D
100
AcDbEntity
  8
部品1
 48
0.01
100
AcDbLine
 10
9172.953786113577
 20
7945.044672458793
 30
0.0
 11
9172.953786113577
 21
7944.044672458793
 31
0.0
  0
ARC
  5
1705E
330
747D
100
AcDbEntity
  8
部品1
 48
0.01
100
AcDbCircle
 10
9172.453786113576
 20
7944.044672458793
 30
0.0
 40
0.5
100
AcDbArc
 50
270.0
 51
0.0
  0
LINE
  5
1705F
330
747D
100
AcDbEntity
  8
細線
100
AcDbLine
 10
9312.953884526903
 20
7945.045794643862
 30
0.0
 11
9315.285422817671
 21
7950.045794643847
 31
0.0
  0
LINE
  5
17060
330
747D
100
AcDbEntity
  8
細線
100
AcDbLine
 10
9382.95389271232
 20
7945.045777090152
 30
0.0
 11
9380.622346236133
 21
7950.045794643829
 31
0.0
  0
LINE
  5
17061
330
747D
100
AcDbEntity
  8
細線
100
AcDbLine
 10
9380.622346236133
 20
7950.045794643829
 30
0.0
 11
9315.285422817657
 21
7950.045794643819
 31
0.0
  0
LINE
  5
17062
330
747D
100
AcDbEntity
  8
細線
100
AcDbLine
 10
9520.622346236132
 20
7950.045794643829
 30
0.0
 11
9455.285422817658
 21
7950.045794643822
 31
0.0
  0
LINE
  5
17063
330
747D
100
AcDbEntity
  8
細線
100
AcDbLine
 10
9522.953892712321
 20
7945.045777090152
 30
0.0
 11
9520.622346236132
 21
7950.045794643829
 31
0.0
  0
LINE
  5
17064
330
747D
100
AcDbEntity
  8
細線
100
AcDbLine
 10
9452.953884526904
 20
7945.045794643866
 30
0.0
 11
9455.285422817672
 21
7950.045794643852
 31
0.0
  0
LINE
  5
17065
330
747D
100
AcDbEntity
  8
細線
100
AcDbLine
 10
9759.62235442155
 20
7984.04562296312
 30
0.0
 11
9694.285431003073
 21
7984.045622963108
 31
0.0
  0
LINE
  5
17066
330
747D
100
AcDbEntity
  8
細線
100
AcDbLine
 10
9761.953900897736
 20
7979.045605409443
 30
0.0
 11
9759.62235442155
 21
7984.04562296312
 31
0.0
  0
LINE
  5
17067
330
747D
100
AcDbEntity
  8
細線
100
AcDbLine
 10
9691.953892712321
 20
7979.045622963153
 30
0.0
 11
9694.285431003089
 21
7984.045622963138
 31
0.0
  0
LINE
  5
17068
330
747D
100
AcDbEntity
  8
細線
100
AcDbLine
 10
9831.953857393429
 20
7979.045614775784
 30
0.0
 11
9834.285395684197
 21
7984.045614775769
 31
0.0
  0
LINE
  5
17069
330
747D
100
AcDbEntity
  8
細線
100
AcDbLine
 10
9901.953865578844
 20
7979.045597222074
 30
0.0
 11
9899.622319102654
 21
7984.045614775753
 31
0.0
  0
LINE
  5
1706A
330
747D
100
AcDbEntity
  8
細線
100
AcDbLine
 10
9899.622319102657
 20
7984.045614775753
 30
0.0
 11
9834.285395684181
 21
7984.045614775739
 31
0.0
  0
LINE
  5
1706B
330
747D
100
AcDbEntity
  8
細線
100
AcDbLine
 10
10039.62235565259
 20
7984.045594472012
 30
0.0
 11
9974.285432234118
 21
7984.045594471997
 31
0.0
  0
LINE
  5
1706C
330
747D
100
AcDbEntity
  8
細線
100
AcDbLine
 10
10041.95390212878
 20
7979.045576918332
 30
0.0
 11
10039.62235565259
 21
7984.045594472012
 31
0.0
  0
LINE
  5
1706D
330
747D
100
AcDbEntity
  8
細線
100
AcDbLine
 10
9971.953892712321
 20
7979.045591832066
 30
0.0
 11
9974.285432234132
 21
7984.045594472028
 31
0.0
  0
LINE
  5
1706E
330
747D
100
AcDbEntity
  8
細線
 48
50.0
100
AcDbLine
 10
9914.81611463687
 20
7979.045614775784
 30
0.0
 11
9920.571632219539
 21
7997.316466066277
 31
0.0
  0
LINE
  5
1706F
330
747D
100
AcDbEntity
  8
細線
 48
50.0
100
AcDbLine
 10
9920.571632219539
 20
7997.316466066277
 30
0.0
 11
9931.50008069997
 21
7997.316466066277
 31
0.0
  0
ARC
  5
17070
330
747D
100
AcDbEntity
  8
細線
 48
50.0
100
AcDbCircle
 10
9931.50008069997
 20
7996.316466066277
 30
0.0
 40
1.0
100
AcDbArc
 50
24.62431835213048
 51
90.0
  0
ARC
  5
17071
330
747D
100
AcDbEntity
  8
細線
 48
50.0
100
AcDbCircle
 10
9942.408792814608
 20
7996.316466066277
 30
0.0
 40
1.0
100
AcDbArc
 50
90.0
 51
155.3756816478695
  0
ARC
  5
17072
330
747D
100
AcDbEntity
  8
細線
 48
50.0
100
AcDbCircle
 10
9936.954436757289
 20
7998.816466066277
 30
0.0
 40
5.0
100
AcDbArc
 50
204.6243183521304
 51
335.3756816478695
  0
LINE
  5
17073
330
747D
100
AcDbEntity
  8
細線
 48
50.0
100
AcDbLine
 10
9942.408792814608
 20
7997.316466066277
 30
0.0
 11
9953.337241295038
 21
7997.316466066277
 31
0.0
  0
LINE
  5
17074
330
747D
100
AcDbEntity
  8
細線
 48
50.0
100
AcDbLine
 10
9953.337241295038
 20
7997.316466066277
 30
0.0
 11
9959.092758877707
 21
7979.045614775791
 31
0.0
  0
LINE
  5
17075
330
747D
100
AcDbEntity
  8
細線
100
AcDbLine
 10
10277.62235565259
 20
8018.045605553144
 30
0.0
 11
10212.28543223412
 21
8018.045605553128
 31
0.0
  0
LINE
  5
17076
330
747D
100
AcDbEntity
  8
細線
100
AcDbLine
 10
10279.95390212878
 20
8013.045587999462
 30
0.0
 11
10277.62235565259
 21
8018.045605553144
 31
0.0
  0
LINE
  5
17077
330
747D
100
AcDbEntity
  8
細線
100
AcDbLine
 10
10209.95389271232
 20
8013.045602913196
 30
0.0
 11
10212.28543223413
 21
8018.045605553158
 31
0.0
  0
LINE
  5
17078
330
747D
100
AcDbEntity
  8
細線
100
AcDbLine
 10
10349.95388329586
 20
8013.04561782693
 30
0.0
 11
10352.28542281767
 21
8018.045620466891
 31
0.0
  0
LINE
  5
17079
330
747D
100
AcDbEntity
  8
細線
100
AcDbLine
 10
10419.95389271232
 20
8013.045602913196
 30
0.0
 11
10417.62234623613
 21
8018.045620466876
 31
0.0
  0
LINE
  5
1707A
330
747D
100
AcDbEntity
  8
細線
100
AcDbLine
 10
10417.62234623613
 20
8018.045620466876
 30
0.0
 11
10352.28542281766
 21
8018.045620466862
 31
0.0
  0
LINE
  5
1707B
330
747D
100
AcDbEntity
  8
細線
100
AcDbLine
 10
10557.62234623613
 20
8018.045620466876
 30
0.0
 11
10492.28542281766
 21
8018.045620466862
 31
0.0
  0
LINE
  5
1707C
330
747D
100
AcDbEntity
  8
細線
100
AcDbLine
 10
10559.95389271232
 20
8013.045602913196
 30
0.0
 11
10557.62234623613
 21
8018.045620466876
 31
0.0
  0
LINE
  5
1707D
330
747D
100
AcDbEntity
  8
細線
100
AcDbLine
 10
10489.95388329586
 20
8013.04561782693
 30
0.0
 11
10492.28542281767
 21
8018.045620466891
 31
0.0
  0
LINE
  5
1707E
330
747D
100
AcDbEntity
  8
細線
 48
50.0
100
AcDbLine
 10
9600.453892712325
 20
7989.2418573041
 30
0.0
 11
9011.953892712321
 21
7989.241857304095
 31
0.0
  0
LINE
  5
1707F
330
747D
100
AcDbEntity
  8
細線
 48
50.0
100
AcDbLine
 10
9641.453892712323
 20
7959.836949307846
 30
0.0
 11
10667.95389271232
 21
7959.836949307846
 31
0.0
  0
LINE
  5
17080
330
747D
100
AcDbEntity
  8
細線
 48
50.0
100
AcDbLine
 10
10133.45389786323
 20
7993.545717861922
 30
0.0
 11
10667.95389271232
 21
7993.545717861922
 31
0.0
  0
LINE
  5
17081
330
747D
100
AcDbEntity
  8
寸法
 48
50.0
100
AcDbLine
 10
9584.454711690719
 20
7828.304310967396
 30
0.0
 11
9803.606651866443
 21
7828.304310967396
 31
0.0
  0
LINE
  5
17082
330
747D
100
AcDbEntity
  8
寸法
 48
50.0
100
AcDbLine
 10
9803.606651866443
 20
7828.304310967396
 30
0.0
 11
9714.322433271021
 21
7852.227945236882
 31
0.0
  0
LINE
  5
17083
330
747D
100
AcDbEntity
  8
寸法
 48
50.0
100
AcDbLine
 10
9714.322433271021
 20
7852.227945236882
 30
0.0
 11
9714.322433271021
 21
7798.564310655092
 31
0.0
  0
LINE
  5
17084
330
747D
100
AcDbEntity
  8
寸法
 48
50.0
100
AcDbLine
 10
9383.750891084062
 20
7795.082354482059
 30
0.0
 11
9435.156898994167
 21
7795.082354482059
 31
0.0
  0
LINE
  5
17085
330
747D
100
AcDbEntity
  8
寸法
 48
50.0
100
AcDbLine
 10
9435.156898994167
 20
7795.082354482059
 30
0.0
 11
9435.156898994167
 21
7826.392513134226
 31
0.0
  0
LINE
  5
17086
330
747D
100
AcDbEntity
  8
寸法
 48
50.0
100
AcDbLine
 10
9435.156898994167
 20
7826.392513134226
 30
0.0
 11
9464.91823098559
 21
7826.392513134226
 31
0.0
  0
LINE
  5
17087
330
747D
100
AcDbEntity
  8
寸法
 48
50.0
100
AcDbLine
 10
9464.91823098559
 20
7826.392513134226
 30
0.0
 11
9409.453895039114
 21
7863.971964062836
 31
0.0
  0
LINE
  5
17088
330
747D
100
AcDbEntity
  8
寸法
 48
50.0
100
AcDbLine
 10
9353.989559092639
 20
7826.392513134226
 30
0.0
 11
9409.453895039114
 21
7863.971964062836
 31
0.0
  0
LINE
  5
17089
330
747D
100
AcDbEntity
  8
寸法
 48
50.0
100
AcDbLine
 10
9383.750891084062
 20
7826.392513134226
 30
0.0
 11
9353.989559092639
 21
7826.392513134226
 31
0.0
  0
LINE
  5
1708A
330
747D
100
AcDbEntity
  8
寸法
 48
50.0
100
AcDbLine
 10
9383.750891084062
 20
7795.082354482059
 30
0.0
 11
9383.750891084062
 21
7826.392513134226
 31
0.0
  0
LINE
  5
1708B
330
747D
100
AcDbEntity
  8
寸法
 48
50.0
100
AcDbLine
 10
9435.156898994167
 20
7795.082354482059
 30
0.0
 11
9383.750891084062
 21
7795.082354482059
 31
0.0
  0
DIMENSION
  5
17295
330
747D
100
AcDbEntity
  8
寸法
 48
50.0
100
AcDbDimension
  2
*D31
 10
10706.95389271232
 20
7064.975333062415
 30
0.0
 11
9830.535636664144
 21
7064.975333062415
 31
0.0
 70
   160
 71
     5
 42
1734.0
  3
INABA_S40G
100
AcDbAlignedDimension
 13
8972.953892712322
 23
7940.045602913198
 33
0.0
 14
10706.95389271232
 24
7940.045602913194
 34
0.0
100
AcDbRotatedDimension
1001
ACAD
1000
DSTYLE
1002
{
1070
   341
1005
0
1002
}
  0
DIMENSION
  5
17296
330
747D
100
AcDbEntity
  8
寸法
100
AcDbDimension
  2
*D32
 10
8650.342647085635
 20
7942.045602913191
 30
0.0
 11
8650.342647085633
 21
7801.560321538953
 31
0.0
 70
   160
 71
     5
 42
75.0
  3
INABA_S40
100
AcDbAlignedDimension
 13
8944.95389271235
 23
8017.04560291319
 33
0.0
 14
8972.953892712329
 24
7942.045602913191
 34
0.0
 50
90.0
100
AcDbRotatedDimension
1001
ACAD
1000
DSTYLE
1002
{
1070
    41
1040
0.5
1070
    44
1040
1.0
1070
   147
1040
0.8
1070
   271
1070
     2
1070
   272
1070
     2
1070
   289
1070
     3
1070
   340
1005
F706
1070
   343
1005
15D9A
1070
   344
1005
15D9A
1002
}
  0
LINE
  5
1733A
330
747D
100
AcDbEntity
  8
部品1
100
AcDbLine
 10
10221.68922582657
 20
6545.969468525925
 30
0.0
 11
9458.21855959813
 21
6545.969468525925
 31
0.0
  0
LINE
  5
1733B
330
747D
100
AcDbEntity
  8
部品1
100
AcDbLine
 10
10221.68922582657
 20
6306.077146980392
 30
0.0
 11
10221.68922582657
 21
6545.969468525925
 31
0.0
  0
LINE
  5
1733C
330
747D
100
AcDbEntity
  8
部品1
100
AcDbLine
 10
9458.21855959813
 20
6306.077146980392
 30
0.0
 11
10221.68922582657
 21
6306.077146980392
 31
0.0
  0
LINE
  5
1733D
330
747D
100
AcDbEntity
  8
部品1
100
AcDbLine
 10
9458.21855959813
 20
6545.969468525925
 30
0.0
 11
9458.21855959813
 21
6306.077146980392
 31
0.0
  0
TEXT
  5
17374
330
747D
100
AcDbEntity
  8
部品1
100
AcDbText
 10
9548.138169427167
 20
6353.075939307402
 30
0.0
 40
135.0
  1
平面図
  7
STYLE2
100
AcDbText
  0
DIMENSION
  5
17375
330
747D
100
AcDbEntity
  8
寸法
100
AcDbDimension
  2
*D33
 10
10734.95389271233
 20
6825.217812168289
 30
0.0
 11
9828.100643043704
 21
6825.217812168289
 31
0.0
 70
   160
 71
     5
 42
1789.999999999982
  3
INABA_S40G
100
AcDbAlignedDimension
 13
8944.95389271235
 23
8017.04560291319
 33
0.0
 14
10734.95389271233
 24
8017.04560291332
 34
0.0
100
AcDbRotatedDimension
1001
ACAD
1000
DSTYLE
1002
{
1002
}
  0
LWPOLYLINE
  5
17631
330
747D
100
AcDbEntity
  8
部品1
 48
50.0
100
AcDbPolyline
 90
        4
 70
     1
 43
0.0
 10
9072.003892712348
 20
3755.787219015427
 10
9074.903892712349
 20
3755.787219015427
 10
9074.903892712349
 20
3765.287219015427
 10
9072.003892712348
 20
3765.287219015427
  0
CIRCLE
  5
17632
330
747D
100
AcDbEntity
  8
部品1
 48
50.0
100
AcDbCircle
 10
9073.453892712349
 20
3760.537219015427
 30
0.0
 40
9.0
  0
ARC
  5
17633
330
747D
100
AcDbEntity
  8
細線
 48
50.0
100
AcDbCircle
 10
9073.453892712349
 20
3760.537219015427
 30
0.0
 40
4.0
100
AcDbArc
 50
111.2538091853132
 51
248.7461908146868
  0
ARC
  5
17634
330
747D
100
AcDbEntity
  8
細線
 48
50.0
100
AcDbCircle
 10
9073.453892712349
 20
3760.537219015427
 30
0.0
 40
17.5
100
AcDbArc
 50
306.4837370612677
 51
233.5162629387323
  0
LINE
  5
17635
330
747D
100
AcDbEntity
  8
細線
 48
50.0
100
AcDbLine
 10
9083.453892712345
 20
3736.678258434544
 30
0.0
 11
9083.453892712348
 21
3745.662744234785
 31
0.0
  0
LINE
  5
17636
330
747D
100
AcDbEntity
  8
細線
 48
50.0
100
AcDbLine
 10
9063.453892712349
 20
3736.678258434546
 30
0.0
 11
9063.453892712349
 21
3745.662744234782
 31
0.0
  0
ARC
  5
17637
330
747D
100
AcDbEntity
  8
細線
 48
50.0
100
AcDbCircle
 10
9073.453892712349
 20
3760.537219015427
 30
0.0
 40
26.5
100
AcDbArc
 50
249.3326835063939
 51
290.6673164933835
  0
ARC
  5
17638
330
747D
100
AcDbEntity
  8
細線
 48
50.0
100
AcDbCircle
 10
9082.453892712342
 20
3736.678258434544
 30
0.0
 40
1.0
100
AcDbArc
 50
290.6673164936062
 51
359.9999999998958
  0
ARC
  5
17639
330
747D
100
AcDbEntity
  8
細線
 48
50.0
100
AcDbCircle
 10
9064.453892712348
 20
3736.678258434546
 30
0.0
 40
1.0
100
AcDbArc
 50
180.0
 51
249.3326835066164
  0
ARC
  5
1763A
330
747D
100
AcDbEntity
  8
細線
 48
50.0
100
AcDbCircle
 10
9062.453892712348
 20
3745.662744234782
 30
0.0
 40
1.0
100
AcDbArc
 50
0.0
 51
53.51626293873231
  0
ARC
  5
1763B
330
747D
100
AcDbEntity
  8
細線
 48
50.0
100
AcDbCircle
 10
9084.453892712351
 20
3745.662744234785
 30
0.0
 40
1.0
100
AcDbArc
 50
126.4837370615127
 51
180.0
  0
ARC
  5
1763C
330
747D
100
AcDbEntity
  8
細線
 48
50.0
100
AcDbCircle
 10
9073.453892712349
 20
3760.537219015427
 30
0.0
 40
21.5
100
AcDbArc
 50
255.8014401250294
 51
284.1985598749706
  0
ARC
  5
1763D
330
747D
100
AcDbEntity
  8
細線
 48
50.0
100
AcDbCircle
 10
9073.453892712349
 20
3760.537219015427
 30
0.0
 40
16.5
100
AcDbArc
 50
251.9694646069326
 51
288.0305353930674
  0
LINE
  5
1763E
330
747D
100
AcDbEntity
  8
細線
 48
50.0
100
AcDbLine
 10
9078.953892712348
 20
3739.98484688962
 30
0.0
 11
9078.953892712348
 21
3744.562238576957
 31
0.0
  0
LINE
  5
1763F
330
747D
100
AcDbEntity
  8
細線
 48
50.0
100
AcDbLine
 10
9067.953892712349
 20
3739.98484688962
 30
0.0
 11
9067.953892712349
 21
3744.562238576955
 31
0.0
  0
ARC
  5
17640
330
747D
100
AcDbEntity
  8
細線
 48
50.0
100
AcDbCircle
 10
9068.253892712352
 20
3744.562238576955
 30
0.0
 40
0.3
100
AcDbArc
 50
71.96946460693259
 51
180.0
  0
ARC
  5
17641
330
747D
100
AcDbEntity
  8
細線
 48
50.0
100
AcDbCircle
 10
9078.653892712349
 20
3744.562238576957
 30
0.0
 40
0.3
100
AcDbArc
 50
0.0
 51
108.0305353930674
  0
ARC
  5
17642
330
747D
100
AcDbEntity
  8
細線
 48
50.0
100
AcDbCircle
 10
9078.653892712345
 20
3739.98484688962
 30
0.0
 40
0.3
100
AcDbArc
 50
284.1985598747622
 51
0.0000000001042204
  0
ARC
  5
17643
330
747D
100
AcDbEntity
  8
細線
 48
50.0
100
AcDbCircle
 10
9068.253892712352
 20
3739.98484688962
 30
0.0
 40
0.3
100
AcDbArc
 50
180.0
 51
255.8014401248081
  0
CIRCLE
  5
17644
330
747D
100
AcDbEntity
  8
細線
 48
50.0
100
AcDbCircle
 10
9073.453892712349
 20
3760.537219015427
 30
0.0
 40
12.0
  0
ARC
  5
17645
330
747D
100
AcDbEntity
  8
部品1
 48
50.0
100
AcDbCircle
 10
9073.453892712349
 20
3810.537219015427
 30
0.0
 40
8.5
100
AcDbArc
 50
114.315739171091
 51
245.684260828909
  0
CIRCLE
  5
17646
330
747D
100
AcDbEntity
  8
細線
 48
50.0
100
AcDbCircle
 10
9073.453892712349
 20
3810.537219015427
 30
0.0
 40
4.5
  0
LWPOLYLINE
  5
17647
330
747D
100
AcDbEntity
  8
部品1
 48
50.0
100
AcDbPolyline
 90
        2
 70
     0
 43
0.0
 10
9069.953892712348
 20
3829.21206841241
 10
9069.953892712348
 20
3818.283185707842
  0
CIRCLE
  5
17648
330
747D
100
AcDbEntity
  8
部品1
 48
50.0
100
AcDbCircle
 10
9073.453892712349
 20
3810.537219015427
 30
0.0
 40
19.0
  0
LWPOLYLINE
  5
17649
330
747D
100
AcDbEntity
  8
部品1
 48
50.0
100
AcDbPolyline
 90
        2
 70
     0
 43
0.0
 10
9069.953892712348
 20
3802.791252323011
 10
9069.953892712348
 20
3791.862369618444
  0
LWPOLYLINE
  5
1764A
330
747D
100
AcDbEntity
  8
部品1
 48
50.0
100
AcDbPolyline
 90
        2
 70
     0
 43
0.0
 10
9076.953892712349
 20
3818.283185707842
 10
9076.953892712349
 20
3829.21206841241
  0
ARC
  5
1764B
330
747D
100
AcDbEntity
  8
部品1
 48
50.0
100
AcDbCircle
 10
9073.453892712349
 20
3810.537219015427
 30
0.0
 40
8.5
100
AcDbArc
 50
294.315739171091
 51
65.68426082890896
  0
LWPOLYLINE
  5
1764C
330
747D
100
AcDbEntity
  8
部品1
 48
50.0
100
AcDbPolyline
 90
        2
 70
     0
 43
0.0
 10
9076.953892712349
 20
3791.862369618444
 10
9076.953892712349
 20
3802.791252323011
  0
ARC
  5
1764D
330
747D
100
AcDbEntity
  8
細線
 48
50.0
100
AcDbCircle
 10
9073.453892712349
 20
3810.537219015427
 30
0.0
 40
16.5
100
AcDbArc
 50
332.0012352654438
 51
27.99876473455621
  0
ARC
  5
1764E
330
747D
100
AcDbEntity
  8
細線
 48
50.0
100
AcDbCircle
 10
9073.453892712349
 20
3810.537219015427
 30
0.0
 40
14.0
100
AcDbArc
 50
326.4074436112986
 51
33.59255638870134
  0
LINE
  5
1764F
330
747D
100
AcDbEntity
  8
細線
 48
50.0
100
AcDbLine
 10
9058.885090428018
 20
3818.283185707842
 30
0.0
 11
9061.79198892266
 21
3818.283185707842
 31
0.0
  0
LINE
  5
17650
330
747D
100
AcDbEntity
  8
細線
 48
50.0
100
AcDbLine
 10
9058.885090428018
 20
3802.791252323011
 30
0.0
 11
9061.79198892266
 21
3802.791252323011
 31
0.0
  0
LINE
  5
17651
330
747D
100
AcDbEntity
  8
細線
 48
50.0
100
AcDbLine
 10
9085.115796502037
 20
3818.283185707842
 30
0.0
 11
9088.022694996684
 21
3818.283185707842
 31
0.0
  0
LINE
  5
17652
330
747D
100
AcDbEntity
  8
細線
 48
50.0
100
AcDbLine
 10
9085.115796502037
 20
3802.791252323011
 30
0.0
 11
9088.022694996684
 21
3802.791252323011
 31
0.0
  0
ARC
  5
17653
330
747D
100
AcDbEntity
  8
細線
 48
50.0
100
AcDbCircle
 10
9073.453892712349
 20
3810.537219015427
 30
0.0
 40
14.0
100
AcDbArc
 50
146.4074436112986
 51
213.5925563887013
  0
ARC
  5
17654
330
747D
100
AcDbEntity
  8
細線
 48
50.0
100
AcDbCircle
 10
9073.453892712349
 20
3810.537219015427
 30
0.0
 40
16.5
100
AcDbArc
 50
152.0012352654438
 51
207.9987647345562
  0
ARC
  5
17655
330
747D
100
AcDbEntity
  8
部品1
 48
50.0
100
AcDbCircle
 10
9046.953892712348
 20
3836.037219015427
 30
0.0
 40
5.0
100
AcDbArc
 50
90.0
 51
180.0
  0
ARC
  5
17656
330
747D
100
AcDbEntity
  8
部品1
 48
50.0
100
AcDbCircle
 10
9046.953892712348
 20
3725.037219015427
 30
0.0
 40
5.0
100
AcDbArc
 50
180.0
 51
270.0
  0
ARC
  5
17657
330
747D
100
AcDbEntity
  8
部品1
 48
50.0
100
AcDbCircle
 10
9099.953892712347
 20
3725.037219015427
 30
0.0
 40
5.0
100
AcDbArc
 50
270.0
 51
0.0
  0
ARC
  5
17658
330
747D
100
AcDbEntity
  8
部品1
 48
50.0
100
AcDbCircle
 10
9099.953892712347
 20
3836.037219015427
 30
0.0
 40
5.0
100
AcDbArc
 50
0.0
 51
90.0
  0
LINE
  5
1765A
330
747D
100
AcDbEntity
  8
部品1
 48
50.0
100
AcDbLine
 10
9041.953892712347
 20
3725.037219015427
 30
0.0
 11
9041.953892712347
 21
3836.037219015427
 31
0.0
  0
LINE
  5
1765B
330
747D
100
AcDbEntity
  8
部品1
 48
50.0
100
AcDbLine
 10
9099.953892712347
 20
3720.037219015427
 30
0.0
 11
9046.953892712348
 21
3720.037219015427
 31
0.0
  0
LINE
  5
1765C
330
747D
100
AcDbEntity
  8
部品1
 48
50.0
100
AcDbLine
 10
9104.95389271235
 20
3836.037219015427
 30
0.0
 11
9104.95389271235
 21
3725.037219015427
 31
0.0
  0
ENDSEC
  0
SECTION
  2
OBJECTS
  0
DICTIONARY
  5
7471
330
0
100
AcDbDictionary
281
     1
  3
ACAD_COLOR
350
15CF7
  3
ACAD_GROUP
350
7472
  3
ACAD_LAYOUT
350
15CF8
  3
ACAD_MATERIAL
350
15CF6
  3
ACAD_MLINESTYLE
350
7473
  3
ACAD_PLOTSETTINGS
350
15CF9
  3
ACAD_PLOTSTYLENAME
350
15CF4
  3
ACDBHEADERROUNDTRIPXREC
350
1767B
  3
AcDbVariableDictionary
350
17677
  3
CONTENTDICTIONARY
350
E71C
  3
DRAWINGVARIABLESDICT
350
F3B9
  0
DICTIONARY
  5
15E91
330
7467
100
AcDbDictionary
280
     1
281
     1
  3
ACAD_LAYERSTATES
360
15E92
  0
DICTIONARY
  5
15CF7
102
{ACAD_REACTORS
330
7471
102
}
330
7471
100
AcDbDictionary
281
     1
  0
DICTIONARY
  5
7472
102
{ACAD_REACTORS
330
7471
102
}
330
7471
100
AcDbDictionary
281
     1
  0
DICTIONARY
  5
15CF8
102
{ACAD_REACTORS
330
7471
102
}
330
7471
100
AcDbDictionary
281
     1
  3
Model
350
15CFA
  3
レイアウト1
350
15CFB
  0
DICTIONARY
  5
15CF6
102
{ACAD_REACTORS
330
7471
102
}
330
7471
100
AcDbDictionary
281
     1
  0
DICTIONARY
  5
7473
102
{ACAD_REACTORS
330
7471
102
}
330
7471
100
AcDbDictionary
281
     1
  3
STANDARD
350
7480
  0
DICTIONARY
  5
15CF9
102
{ACAD_REACTORS
330
7471
102
}
330
7471
100
AcDbDictionary
281
     1
  0
ACDBDICTIONARYWDFLT
  5
15CF4
102
{ACAD_REACTORS
330
7471
102
}
330
7471
100
AcDbDictionary
281
     1
  3
Normal
350
15CF5
100
AcDbDictionaryWithDefault
340
15CF5
  0
DICTIONARY
  5
1767B
102
{ACAD_REACTORS
330
7471
102
}
330
7471
100
AcDbDictionary
281
     1
  3
COLORDICT
350
1767D
  3
MATERIALDICT
350
1767C
  0
DICTIONARY
  5
17677
102
{ACAD_REACTORS
330
7471
102
}
330
7471
100
AcDbDictionary
281
     1
  3
DIMASSOC
350
17678
  3
PROJECTNAME
350
17679
  0
DICTIONARY
  5
E71C
102
{ACAD_REACTORS
330
7471
102
}
330
7471
100
AcDbDictionary
281
     1
  0
DICTIONARY
  5
F3B9
102
{ACAD_REACTORS
330
7471
102
}
330
7471
100
AcDbDictionary
281
     1
1001
DRAWINGVARIABLESXDATA
1000
POLARMODE
1000
1
  0
DICTIONARY
  5
15E92
102
{ACAD_REACTORS
330
15E91
102
}
330
15E91
100
AcDbDictionary
281
     1
  0
LAYOUT
  5
15CFA
102
{ACAD_XDICTIONARY
360
1767E
102
}
102
{ACAD_REACTORS
330
15CF8
102
}
330
15CF8
100
AcDbPlotSettings
  1

  2
クセロPDF
  4
A3
  6

 40
3.174999952316284
 41
3.174999952316284
 42
3.17498779296875
 43
3.17498779296875
 44
419.9466552734374
 45
296.9259948730469
 46
0.0
 47
0.0
 48
3.619013395666115
 49
-4.192117100517862
140
820.022926294543
141
573.2392198881443
142
1.0
143
39.99735023620806
 70
 11952
 72
     1
 73
     0
 74
     2
  7
inaba.ctb
 75
     0
147
0.0250016562120842
148
25.79074261211281
149
125.8223078213959
100
AcDbLayout
  1
Model
 70
     1
 71
     0
 10
0.0
 20
0.0
 11
12.0
 21
9.0
 12
0.0
 22
0.0
 32
0.0
 14
0.0
 24
0.0
 34
0.0
 15
0.0
 25
0.0
 35
0.0
146
0.0
 13
0.0
 23
0.0
 33
0.0
 16
1.0
 26
0.0
 36
0.0
 17
0.0
 27
1.0
 37
0.0
 76
     0
330
747D
  0
LAYOUT
  5
15CFB
102
{ACAD_XDICTIONARY
360
17680
102
}
102
{ACAD_REACTORS
330
15CF8
102
}
330
15CF8
100
AcDbPlotSettings
  1

  2
Microsoft Office Document Image Writer
  4

  6

 40
0.0
 41
0.0
 42
0.0
 43
0.0
 44
0.0
 45
0.0
 46
0.0
 47
0.0
 48
0.0
 49
0.0
140
0.0
141
0.0
142
1.0
143
1.0
 70
   688
 72
     0
 73
     0
 74
     5
  7

 75
    16
147
1.0
148
0.0
149
0.0
100
AcDbLayout
  1
レイアウト1
 70
     0
 71
     1
 10
0.0
 20
0.0
 11
420.0
 21
297.0
 12
0.0
 22
0.0
 32
0.0
 14
1.000000000000000E+20
 24
1.000000000000000E+20
 34
1.000000000000000E+20
 15
-1.000000000000000E+20
 25
-1.000000000000000E+20
 35
-1.000000000000000E+20
146
0.0
 13
0.0
 23
0.0
 33
0.0
 16
1.0
 26
0.0
 36
0.0
 17
0.0
 27
1.0
 37
0.0
 76
     0
330
747A
  0
MLINESTYLE
  5
7480
102
{ACAD_REACTORS
330
7473
102
}
330
7473
100
AcDbMlineStyle
  2
STANDARD
 70
     0
  3

 62
     0
 51
90.0
 52
90.0
 71
     2
 49
0.5
 62
   256
  6
BYLAYER
 49
-0.5
 62
   256
  6
BYLAYER
  0
ACDBPLACEHOLDER
  5
15CF5
102
{ACAD_REACTORS
330
15CF4
102
}
330
15CF4
  0
XRECORD
  5
1767D
102
{ACAD_REACTORS
330
1767B
102
}
330
1767B
100
AcDbXrecord
280
     1
340
15CF7
  0
XRECORD
  5
1767C
102
{ACAD_REACTORS
330
1767B
102
}
330
1767B
100
AcDbXrecord
280
     1
340
15CF6
  0
DICTIONARYVAR
  5
17678
102
{ACAD_REACTORS
330
17677
102
}
330
17677
100
DictionaryVariables
280
     0
  1
1
  0
DICTIONARYVAR
  5
17679
102
{ACAD_REACTORS
330
17677
102
}
330
17677
100
DictionaryVariables
280
     0
  1

  0
DICTIONARY
  5
1767E
330
15CFA
100
AcDbDictionary
280
     1
281
     1
  3
ACAD_XREC_ROUNDTRIP
360
1767F
  0
DICTIONARY
  5
17680
330
15CFB
100
AcDbDictionary
280
     1
281
     1
  3
ACAD_XREC_ROUNDTRIP
360
17681
  0
XRECORD
  5
1767F
102
{ACAD_REACTORS
330
1767E
102
}
330
1767E
100
AcDbXrecord
280
     1
102
SHADEPLOT
 70
     0
102
SHADEPLOTRESLEVEL
 70
     2
102
SHADEPLOTCUSTOMDPI
 70
   150
  0
XRECORD
  5
17681
102
{ACAD_REACTORS
330
17680
102
}
330
17680
100
AcDbXrecord
280
     1
102
SHADEPLOT
 70
     0
102
SHADEPLOTRESLEVEL
 70
     2
102
SHADEPLOTCUSTOMDPI
 70
   300
  0
ENDSEC
  0
EOF
