  0
SECTION
  2
HEADER
  9
$ACADVER
  1
AC1015
  9
$ACADMAINTVER
 70
    20
  9
$DWGCODEPAGE
  3
ANSI_932
  9
$INSBASE
 10
0.0
 20
0.0
 30
0.0
  9
$EXTMIN
 10
139.9999999999995
 20
-0.0000000000000909
 30
0.0
  9
$EXTMAX
 10
16307.2
 20
11409.6
 30
0.0
  9
$LIMMIN
 10
0.0
 20
0.0
  9
$LIMMAX
 10
16800.0
 20
11880.0
  9
$ORTHOMODE
 70
     0
  9
$REGENMODE
 70
     1
  9
$FILLMODE
 70
     1
  9
$QTEXTMODE
 70
     0
  9
$MIRRTEXT
 70
     1
  9
$LTSCALE
 40
20.0
  9
$ATTMODE
 70
     1
  9
$TEXTSIZE
 40
4.0
  9
$TRACEWID
 40
1.0
  9
$TEXTSTYLE
  7
STYLE1
  9
$CLAYER
  8
部品1
  9
$CELTYPE
  6
BYLAYER
  9
$CECOLOR
 62
   256
  9
$CELTSCALE
 40
50.0
  9
$DISPSILH
 70
     0
  9
$DIMSCALE
 40
40.0
  9
$DIMASZ
 40
2.5
  9
$DIMEXO
 40
0.5
  9
$DIMDLI
 40
7.0
  9
$DIMRND
 40
0.0
  9
$DIMDLE
 40
0.0
  9
$DIMEXE
 40
1.5
  9
$DIMTP
 40
0.0
  9
$DIMTM
 40
0.0
  9
$DIMTXT
 40
3.0
  9
$DIMCEN
 40
0.0
  9
$DIMTSZ
 40
0.0
  9
$DIMTOL
 70
     0
  9
$DIMLIM
 70
     0
  9
$DIMTIH
 70
     0
  9
$DIMTOH
 70
     0
  9
$DIMSE1
 70
     0
  9
$DIMSE2
 70
     0
  9
$DIMTAD
 70
     3
  9
$DIMZIN
 70
     8
  9
$DIMBLK
  1

  9
$DIMASO
 70
     1
  9
$DIMSHO
 70
     1
  9
$DIMPOST
  1

  9
$DIMAPOST
  1

  9
$DIMALT
 70
     0
  9
$DIMALTD
 70
     2
  9
$DIMALTF
 40
0.0394
  9
$DIMLFAC
 40
1.0
  9
$DIMTOFL
 70
     1
  9
$DIMTVP
 40
0.0
  9
$DIMTIX
 70
     1
  9
$DIMSOXD
 70
     0
  9
$DIMSAH
 70
     1
  9
$DIMBLK1
  1
DOTSMALL
  9
$DIMBLK2
  1
DOTSMALL
  9
$DIMSTYLE
  2
INABA_S40G
  9
$DIMCLRD
 70
     0
  9
$DIMCLRE
 70
     0
  9
$DIMCLRT
 70
     7
  9
$DIMTFAC
 40
1.0
  9
$DIMGAP
 40
1.0
  9
$DIMJUST
 70
     0
  9
$DIMSD1
 70
     0
  9
$DIMSD2
 70
     0
  9
$DIMTOLJ
 70
     1
  9
$DIMTZIN
 70
     0
  9
$DIMALTZ
 70
     0
  9
$DIMALTTZ
 70
     0
  9
$DIMUPT
 70
     1
  9
$DIMDEC
 70
     1
  9
$DIMTDEC
 70
     4
  9
$DIMALTU
 70
     2
  9
$DIMALTTD
 70
     2
  9
$DIMTXSTY
  7
STYLE1
  9
$DIMAUNIT
 70
     0
  9
$DIMADEC
 70
     0
  9
$DIMALTRND
 40
0.0
  9
$DIMAZIN
 70
     0
  9
$DIMDSEP
 70
    46
  9
$DIMATFIT
 70
     3
  9
$DIMFRAC
 70
     0
  9
$DIMLDRBLK
  1

  9
$DIMLUNIT
 70
     2
  9
$DIMLWD
 70
    -2
  9
$DIMLWE
 70
    -2
  9
$DIMTMOVE
 70
     0
  9
$LUNITS
 70
     2
  9
$LUPREC
 70
     1
  9
$SKETCHINC
 40
1.0
  9
$FILLETRAD
 40
3.0
  9
$AUNITS
 70
     0
  9
$AUPREC
 70
     0
  9
$MENU
  1
acad
  9
$ELEVATION
 40
0.0
  9
$PELEVATION
 40
0.0
  9
$THICKNESS
 40
0.0
  9
$LIMCHECK
 70
     0
  9
$CHAMFERA
 40
0.0
  9
$CHAMFERB
 40
0.0
  9
$CHAMFERC
 40
0.0
  9
$CHAMFERD
 40
0.0
  9
$SKPOLY
 70
     0
  9
$TDCREATE
 40
2451368.612993866
  9
$TDUCREATE
 40
2451368.237993866
  9
$TDUPDATE
 40
2455575.685838391
  9
$TDUUPDATE
 40
2455575.310838391
  9
$TDINDWG
 40
0.6702489583
  9
$TDUSRTIMER
 40
0.6702489583
  9
$USRTIMER
 70
     1
  9
$ANGBASE
 50
0.0
  9
$ANGDIR
 70
     0
  9
$PDMODE
 70
     3
  9
$PDSIZE
 40
2.0
  9
$PLINEWID
 40
0.0
  9
$SPLFRAME
 70
     0
  9
$SPLINETYPE
 70
     6
  9
$SPLINESEGS
 70
     8
  9
$HANDSEED
  5
1938E
  9
$SURFTAB1
 70
     6
  9
$SURFTAB2
 70
     6
  9
$SURFTYPE
 70
     6
  9
$SURFU
 70
     6
  9
$SURFV
 70
     6
  9
$UCSBASE
  2

  9
$UCSNAME
  2

  9
$UCSORG
 10
0.0
 20
0.0
 30
0.0
  9
$UCSXDIR
 10
1.0
 20
0.0
 30
0.0
  9
$UCSYDIR
 10
0.0
 20
1.0
 30
0.0
  9
$UCSORTHOREF
  2

  9
$UCSORTHOVIEW
 70
     0
  9
$UCSORGTOP
 10
0.0
 20
0.0
 30
0.0
  9
$UCSORGBOTTOM
 10
0.0
 20
0.0
 30
0.0
  9
$UCSORGLEFT
 10
0.0
 20
0.0
 30
0.0
  9
$UCSORGRIGHT
 10
0.0
 20
0.0
 30
0.0
  9
$UCSORGFRONT
 10
0.0
 20
0.0
 30
0.0
  9
$UCSORGBACK
 10
0.0
 20
0.0
 30
0.0
  9
$PUCSBASE
  2

  9
$PUCSNAME
  2

  9
$PUCSORG
 10
0.0
 20
0.0
 30
0.0
  9
$PUCSXDIR
 10
1.0
 20
0.0
 30
0.0
  9
$PUCSYDIR
 10
0.0
 20
1.0
 30
0.0
  9
$PUCSORTHOREF
  2

  9
$PUCSORTHOVIEW
 70
     0
  9
$PUCSORGTOP
 10
0.0
 20
0.0
 30
0.0
  9
$PUCSORGBOTTOM
 10
0.0
 20
0.0
 30
0.0
  9
$PUCSORGLEFT
 10
0.0
 20
0.0
 30
0.0
  9
$PUCSORGRIGHT
 10
0.0
 20
0.0
 30
0.0
  9
$PUCSORGFRONT
 10
0.0
 20
0.0
 30
0.0
  9
$PUCSORGBACK
 10
0.0
 20
0.0
 30
0.0
  9
$USERI1
 70
     0
  9
$USERI2
 70
     0
  9
$USERI3
 70
     0
  9
$USERI4
 70
     0
  9
$USERI5
 70
     0
  9
$USERR1
 40
0.0
  9
$USERR2
 40
0.0
  9
$USERR3
 40
0.0
  9
$USERR4
 40
0.0
  9
$USERR5
 40
0.0
  9
$WORLDVIEW
 70
     1
  9
$SHADEDGE
 70
     3
  9
$SHADEDIF
 70
    70
  9
$TILEMODE
 70
     1
  9
$MAXACTVP
 70
    16
  9
$PINSBASE
 10
0.0
 20
0.0
 30
0.0
  9
$PLIMCHECK
 70
     0
  9
$PEXTMIN
 10
1.000000000000000E+20
 20
1.000000000000000E+20
 30
1.000000000000000E+20
  9
$PEXTMAX
 10
-1.000000000000000E+20
 20
-1.000000000000000E+20
 30
-1.000000000000000E+20
  9
$PLIMMIN
 10
0.0
 20
0.0
  9
$PLIMMAX
 10
420.0
 20
297.0
  9
$UNITMODE
 70
     0
  9
$VISRETAIN
 70
     0
  9
$PLINEGEN
 70
     0
  9
$PSLTSCALE
 70
     0
  9
$TREEDEPTH
 70
  3020
  9
$CMLSTYLE
  2
STANDARD
  9
$CMLJUST
 70
     0
  9
$CMLSCALE
 40
1.0
  9
$PROXYGRAPHICS
 70
     1
  9
$MEASUREMENT
 70
     1
  9
$CELWEIGHT
370
    -1
  9
$ENDCAPS
280
     0
  9
$JOINSTYLE
280
     0
  9
$LWDISPLAY
290
     0
  9
$INSUNITS
 70
     0
  9
$HYPERLINKBASE
  1

  9
$STYLESHEET
  1

  9
$XEDIT
290
     1
  9
$CEPSNTYPE
380
     0
  9
$PSTYLEMODE
290
     1
  9
$FINGERPRINTGUID
  2
{C5394D49-D8CE-482C-81C3-42AD6887BCFE}
  9
$VERSIONGUID
  2
{0EA26B64-0A95-474C-BF23-3AE4832BF79C}
  9
$EXTNAMES
290
     1
  9
$PSVPSCALE
 40
0.0
  9
$OLESTARTUP
290
     0
  0
ENDSEC
  0
SECTION
  2
CLASSES
  0
CLASS
  1
ACDBDICTIONARYWDFLT
  2
AcDbDictionaryWithDefault
  3
ObjectDBX Classes
 90
        0
280
     0
281
     0
  0
CLASS
  1
DICTIONARYVAR
  2
AcDbDictionaryVar
  3
ObjectDBX Classes
 90
        0
280
     0
281
     0
  0
CLASS
  1
ACDBPLACEHOLDER
  2
AcDbPlaceHolder
  3
ObjectDBX Classes
 90
        0
280
     0
281
     0
  0
CLASS
  1
LAYOUT
  2
AcDbLayout
  3
ObjectDBX Classes
 90
        0
280
     0
281
     0
  0
ENDSEC
  0
SECTION
  2
TABLES
  0
TABLE
  2
VPORT
  5
746D
330
0
100
AcDbSymbolTable
 70
     2
  0
VPORT
  5
19386
330
746D
100
AcDbSymbolTableRecord
100
AcDbViewportTableRecord
  2
*Active
 70
     0
 10
0.0
 20
0.0
 11
1.0
 21
1.0
 12
8223.761025238502
 22
6348.703162895247
 13
0.0
 23
0.0
 14
10.0
 24
10.0
 15
10.0
 25
10.0
 16
0.0
 26
0.0
 36
1.0
 17
0.0
 27
0.0
 37
0.0
 40
12805.60689082044
 41
1.525925925925925
 42
50.0
 43
0.0
 44
0.0
 50
0.0
 51
0.0
 71
     0
 72
     0
 73
     1
 74
     0
 75
     0
 76
     0
 77
     0
 78
     0
281
     0
 65
     1
110
0.0
120
0.0
130
0.0
111
1.0
121
0.0
131
0.0
112
0.0
122
1.0
132
0.0
 79
     0
146
0.0
  0
ENDTAB
  0
TABLE
  2
LTYPE
  5
746A
330
0
100
AcDbSymbolTable
 70
     4
  0
LTYPE
  5
7477
330
746A
100
AcDbSymbolTableRecord
100
AcDbLinetypeTableRecord
  2
BYBLOCK
 70
     0
  3

 72
    65
 73
     0
 40
0.0
  0
LTYPE
  5
7478
330
746A
100
AcDbSymbolTableRecord
100
AcDbLinetypeTableRecord
  2
BYLAYER
 70
     0
  3

 72
    65
 73
     0
 40
0.0
  0
LTYPE
  5
7479
330
746A
100
AcDbSymbolTableRecord
100
AcDbLinetypeTableRecord
  2
CONTINUOUS
 70
     0
  3
Solid line
 72
    65
 73
     0
 40
0.0
  0
LTYPE
  5
7816
330
746A
100
AcDbSymbolTableRecord
100
AcDbLinetypeTableRecord
  2
CENTER
 70
     0
  3
____ _ ____ _ ____ _ ____ _ ____ _ ____ _ ____ 
 72
    65
 73
     4
 40
2.0
 49
1.25
 74
     0
 49
-0.25
 74
     0
 49
0.25
 74
     0
 49
-0.25
 74
     0
  0
LTYPE
  5
781A
330
746A
100
AcDbSymbolTableRecord
100
AcDbLinetypeTableRecord
  2
HIDDEN
 70
     0
  3
__ __ __ __ __ __ __ __ __ __ __ __ __ __ __ __
 72
    65
 73
     2
 40
0.375
 49
0.25
 74
     0
 49
-0.125
 74
     0
  0
LTYPE
  5
781B
330
746A
100
AcDbSymbolTableRecord
100
AcDbLinetypeTableRecord
  2
PHANTOM
 70
     0
  3
______  __  __  ______  __  __  ______  __  __ 
 72
    65
 73
     6
 40
2.5
 49
1.25
 74
     0
 49
-0.25
 74
     0
 49
0.25
 74
     0
 49
-0.25
 74
     0
 49
0.25
 74
     0
 49
-0.25
 74
     0
  0
ENDTAB
  0
TABLE
  2
LAYER
  5
7467
102
{ACAD_XDICTIONARY
360
180F1
102
}
330
0
100
AcDbSymbolTable
 70
    12
  0
LAYER
  5
7474
330
7467
100
AcDbSymbolTableRecord
100
AcDbLayerTableRecord
  2
0
 70
     0
 62
     7
  6
CONTINUOUS
370
    -3
390
17F62
  0
LAYER
  5
DEB2
330
7467
100
AcDbSymbolTableRecord
100
AcDbLayerTableRecord
  2
センター
 70
     0
 62
     3
  6
CENTER
370
    -3
390
17F62
  0
LAYER
  5
DEB3
330
7467
100
AcDbSymbolTableRecord
100
AcDbLayerTableRecord
  2
寸法
 70
     0
 62
     4
  6
CONTINUOUS
370
    -3
390
17F62
  0
LAYER
  5
DEB4
330
7467
100
AcDbSymbolTableRecord
100
AcDbLayerTableRecord
  2
部品1
 70
     0
 62
     7
  6
CONTINUOUS
370
    -3
390
17F62
  0
LAYER
  5
DEB5
330
7467
100
AcDbSymbolTableRecord
100
AcDbLayerTableRecord
  2
補助
 70
     0
 62
    -1
  6
CONTINUOUS
370
    -3
390
17F62
  0
LAYER
  5
DEB6
330
7467
100
AcDbSymbolTableRecord
100
AcDbLayerTableRecord
  2
文字
 70
     0
 62
     7
  6
CONTINUOUS
370
    -3
390
17F62
  0
LAYER
  5
F255
330
7467
100
AcDbSymbolTableRecord
100
AcDbLayerTableRecord
  2
DEFPOINTS
 70
     0
 62
     7
  6
CONTINUOUS
290
     0
370
    -3
390
17F62
  0
LAYER
  5
10B54
330
7467
100
AcDbSymbolTableRecord
100
AcDbLayerTableRecord
  2
仕様書枠
 70
     0
 62
   230
  6
CONTINUOUS
370
    -3
390
17F62
  0
LAYER
  5
11729
330
7467
100
AcDbSymbolTableRecord
100
AcDbLayerTableRecord
  2
Ｇ．Ｌ
 70
     0
 62
    30
  6
CONTINUOUS
370
    -3
390
17F62
  0
LAYER
  5
1173F
330
7467
100
AcDbSymbolTableRecord
100
AcDbLayerTableRecord
  2
細線
 70
     0
 62
     5
  6
CONTINUOUS
370
    -3
390
17F62
  0
LAYER
  5
12CC4
330
7467
100
AcDbSymbolTableRecord
100
AcDbLayerTableRecord
  2
想像線
 70
     0
 62
     6
  6
PHANTOM
370
    -3
390
17F62
  0
LAYER
  5
142E2
330
7467
100
AcDbSymbolTableRecord
100
AcDbLayerTableRecord
  2
破線
 70
     0
 62
     2
  6
HIDDEN
370
    -3
390
17F62
  0
ENDTAB
  0
TABLE
  2
STYLE
  5
7468
330
0
100
AcDbSymbolTable
 70
     4
  0
STYLE
  5
7475
330
7468
100
AcDbSymbolTableRecord
100
AcDbTextStyleTableRecord
  2
STANDARD
 70
     0
 40
0.0
 41
1.0
 50
0.0
 71
     0
 42
4.0
  3
txt
  4
C:\AutoCAD LT\bigfont.shx
  0
STYLE
  5
F706
330
7468
100
AcDbSymbolTableRecord
100
AcDbTextStyleTableRecord
  2
STYLE1
 70
     0
 40
0.0
 41
1.0
 50
0.0
 71
     0
 42
4.0
  3
isocp.shx
  4
bigfont.shx
  0
STYLE
  5
103BF
330
7468
100
AcDbSymbolTableRecord
100
AcDbTextStyleTableRecord
  2
STYLE2
 70
     0
 40
0.0
 41
1.0
 50
0.0
 71
     0
 42
100.0
  3
MS PGothic.ttf
  4

1001
ACAD
1000
MS PGothic
1071
    32818
  0
STYLE
  5
18AA9
330
7468
100
AcDbSymbolTableRecord
100
AcDbTextStyleTableRecord
  2
STYLE3
 70
     0
 40
0.0
 41
1.0
 50
0.0
 71
     0
 42
100.0
  3

  4

1001
ACAD
1000
DFPGothic-EB
1071
    32818
  0
ENDTAB
  0
TABLE
  2
VIEW
  5
746B
330
0
100
AcDbSymbolTable
 70
     0
  0
ENDTAB
  0
TABLE
  2
UCS
  5
746C
330
0
100
AcDbSymbolTable
 70
     0
  0
ENDTAB
  0
TABLE
  2
APPID
  5
746E
330
0
100
AcDbSymbolTable
 70
     6
  0
APPID
  5
7476
330
746E
100
AcDbSymbolTableRecord
100
AcDbRegAppTableRecord
  2
ACAD
 70
     0
  0
APPID
  5
DEA9
330
746E
100
AcDbSymbolTableRecord
100
AcDbRegAppTableRecord
  2
CONTENTBLOCKICON
 70
     0
  0
APPID
  5
DEAA
330
746E
100
AcDbSymbolTableRecord
100
AcDbRegAppTableRecord
  2
CONTENTBLOCKDESCRIPTION
 70
     0
  0
APPID
  5
E71D
330
746E
100
AcDbSymbolTableRecord
100
AcDbRegAppTableRecord
  2
CONTENTTABDATA
 70
     0
  0
APPID
  5
E71E
330
746E
100
AcDbSymbolTableRecord
100
AcDbRegAppTableRecord
  2
CONTENTCURRENTTAB
 70
     0
  0
APPID
  5
F3BA
330
746E
100
AcDbSymbolTableRecord
100
AcDbRegAppTableRecord
  2
DRAWINGVARIABLESXDATA
 70
     0
  0
ENDTAB
  0
TABLE
  2
DIMSTYLE
  5
746F
330
0
100
AcDbSymbolTable
 70
     5
100
AcDbDimStyleTable
 71
     0
  0
DIMSTYLE
105
7484
330
746F
100
AcDbSymbolTableRecord
100
AcDbDimStyleTableRecord
  2
JIS
 70
     0
 41
2.5
 42
1.0
 43
7.0
 44
1.0
 73
     0
 74
     0
 77
     1
 78
     8
140
2.5
141
0.0
143
0.0394
147
0.0
172
     1
174
     1
175
     1
340
7475
  0
DIMSTYLE
105
F71F
102
{ACAD_REACTORS
330
1837A
330
183B5
330
183B6
330
183B7
330
18470
330
18474
330
18476
330
18494
330
18498
330
18499
330
1849A
330
1849B
330
184A3
330
184A8
330
184B6
330
184BA
330
18543
330
185A0
330
185B7
330
185B8
330
185B9
330
185BA
330
185D8
330
185D9
330
185DA
330
185DB
330
185DC
330
1903F
330
19046
102
}
330
746F
100
AcDbSymbolTableRecord
100
AcDbDimStyleTableRecord
  2
INABA_S40G
 70
     0
 40
40.0
 41
2.5
 42
0.5
 43
7.0
 44
1.5
 73
     0
 74
     0
 77
     3
 78
     8
140
3.0
141
0.0
143
0.0394
147
1.0
172
     1
173
     1
174
     1
178
     7
271
     1
288
     1
340
F706
341
F770
343
F770
344
F770
  0
DIMSTYLE
105
180F0
102
{ACAD_REACTORS
330
18DE9
330
19045
102
}
330
746F
100
AcDbSymbolTableRecord
100
AcDbDimStyleTableRecord
  2
INABA_S40
 70
     0
 40
40.0
 41
2.5
 42
0.5
 43
7.0
 44
1.5
 73
     0
 74
     0
 77
     3
 78
     8
140
3.0
141
0.0
143
0.0394
147
1.0
172
     1
173
     1
174
     1
175
     1
178
     7
340
7475
  0
DIMSTYLE
105
18AAA
330
746F
100
AcDbSymbolTableRecord
100
AcDbDimStyleTableRecord
  2
INABA_S50G
 70
     0
 41
125.0
 42
25.0
 43
7.0
 44
75.0
 73
     0
 74
     0
 77
     3
 78
     8
140
150.0
141
0.0
143
0.0394
147
25.0
172
     1
173
     1
174
     1
175
     1
178
     7
271
     1
340
F706
341
F770
343
F770
344
F770
  0
DIMSTYLE
105
1931C
330
746F
100
AcDbSymbolTableRecord
100
AcDbDimStyleTableRecord
  2
INABA_S20G
 70
     0
 40
20.0
 41
2.5
 42
0.5
 43
7.0
 44
1.5
 73
     0
 74
     0
 77
     3
 78
     8
140
3.0
141
0.0
143
0.0394
147
1.0
172
     1
173
     1
174
     1
178
     7
271
     1
340
F706
341
F770
343
F770
344
F770
  0
ENDTAB
  0
TABLE
  2
BLOCK_RECORD
  5
7466
330
0
100
AcDbSymbolTable
 70
    33
  0
BLOCK_RECORD
  5
747D
330
7466
100
AcDbSymbolTableRecord
100
AcDbBlockTableRecord
  2
*MODEL_SPACE
340
17F67
  0
BLOCK_RECORD
  5
747A
330
7466
100
AcDbSymbolTableRecord
100
AcDbBlockTableRecord
  2
*PAPER_SPACE
340
17F68
  0
BLOCK_RECORD
  5
F770
330
7466
100
AcDbSymbolTableRecord
100
AcDbBlockTableRecord
  2
_DOTSMALL
340
0
102
{BLKREFS
331
18B9A
331
18B9B
331
18BA4
331
18BA5
331
18BAF
331
18BB0
331
18BB8
331
18BB9
331
18BC1
331
18BC2
331
18BCB
331
18BCC
331
18BD4
331
18BD5
331
18BDF
331
18BE0
331
18BE8
331
18BE9
331
18BF1
331
18BF2
331
18BFA
331
18BFB
331
18C03
331
18C04
331
18C0C
331
18C0D
331
18C94
331
18C95
331
18C9D
331
18C9E
331
18CA8
331
18CA9
331
18CB3
331
18CB4
331
1928E
331
1928F
331
192A2
331
192A3
331
192B6
331
192B7
331
192BF
331
192C0
331
192CA
331
192CB
331
192D3
331
192D4
331
192DE
331
192DF
331
192E7
331
192E8
331
192F0
331
192F1
331
192FB
331
192FC
331
19304
331
19305
331
1930D
331
1930E
102
}
  0
BLOCK_RECORD
  5
17F6F
330
7466
100
AcDbSymbolTableRecord
100
AcDbBlockTableRecord
  2
_DOT
340
0
102
{BLKREFS
331
19299
331
1929A
331
192AB
331
192AC
102
}
  0
BLOCK_RECORD
  5
185E9
330
7466
100
AcDbSymbolTableRecord
100
AcDbBlockTableRecord
  2
*D2
340
0
  0
BLOCK_RECORD
  5
185F7
330
7466
100
AcDbSymbolTableRecord
100
AcDbBlockTableRecord
  2
*D3
340
0
  0
BLOCK_RECORD
  5
18605
330
7466
100
AcDbSymbolTableRecord
100
AcDbBlockTableRecord
  2
*D4
340
0
  0
BLOCK_RECORD
  5
18611
330
7466
100
AcDbSymbolTableRecord
100
AcDbBlockTableRecord
  2
*D5
340
0
  0
BLOCK_RECORD
  5
18637
330
7466
100
AcDbSymbolTableRecord
100
AcDbBlockTableRecord
  2
*D6
340
0
  0
BLOCK_RECORD
  5
18643
330
7466
100
AcDbSymbolTableRecord
100
AcDbBlockTableRecord
  2
*D7
340
0
  0
BLOCK_RECORD
  5
1864F
330
7466
100
AcDbSymbolTableRecord
100
AcDbBlockTableRecord
  2
*D8
340
0
  0
BLOCK_RECORD
  5
1865D
330
7466
100
AcDbSymbolTableRecord
100
AcDbBlockTableRecord
  2
*D9
340
0
  0
BLOCK_RECORD
  5
18675
330
7466
100
AcDbSymbolTableRecord
100
AcDbBlockTableRecord
  2
*D10
340
0
  0
BLOCK_RECORD
  5
18681
330
7466
100
AcDbSymbolTableRecord
100
AcDbBlockTableRecord
  2
*D11
340
0
  0
BLOCK_RECORD
  5
1868F
330
7466
100
AcDbSymbolTableRecord
100
AcDbBlockTableRecord
  2
*D12
340
0
  0
BLOCK_RECORD
  5
1869B
330
7466
100
AcDbSymbolTableRecord
100
AcDbBlockTableRecord
  2
*D13
340
0
  0
BLOCK_RECORD
  5
186A9
330
7466
100
AcDbSymbolTableRecord
100
AcDbBlockTableRecord
  2
*D14
340
0
  0
BLOCK_RECORD
  5
186B5
330
7466
100
AcDbSymbolTableRecord
100
AcDbBlockTableRecord
  2
*D15
340
0
  0
BLOCK_RECORD
  5
186C3
330
7466
100
AcDbSymbolTableRecord
100
AcDbBlockTableRecord
  2
*D16
340
0
  0
BLOCK_RECORD
  5
186CF
330
7466
100
AcDbSymbolTableRecord
100
AcDbBlockTableRecord
  2
*D17
340
0
  0
BLOCK_RECORD
  5
186DB
330
7466
100
AcDbSymbolTableRecord
100
AcDbBlockTableRecord
  2
*D18
340
0
  0
BLOCK_RECORD
  5
186E7
330
7466
100
AcDbSymbolTableRecord
100
AcDbBlockTableRecord
  2
*D19
340
0
  0
BLOCK_RECORD
  5
186F3
330
7466
100
AcDbSymbolTableRecord
100
AcDbBlockTableRecord
  2
*D20
340
0
  0
BLOCK_RECORD
  5
186FF
330
7466
100
AcDbSymbolTableRecord
100
AcDbBlockTableRecord
  2
*D21
340
0
  0
BLOCK_RECORD
  5
1870D
330
7466
100
AcDbSymbolTableRecord
100
AcDbBlockTableRecord
  2
*D22
340
0
  0
BLOCK_RECORD
  5
18719
330
7466
100
AcDbSymbolTableRecord
100
AcDbBlockTableRecord
  2
*D23
340
0
  0
BLOCK_RECORD
  5
18726
330
7466
100
AcDbSymbolTableRecord
100
AcDbBlockTableRecord
  2
*D24
340
0
  0
BLOCK_RECORD
  5
18732
330
7466
100
AcDbSymbolTableRecord
100
AcDbBlockTableRecord
  2
*D25
340
0
  0
BLOCK_RECORD
  5
1873E
330
7466
100
AcDbSymbolTableRecord
100
AcDbBlockTableRecord
  2
*D26
340
0
  0
BLOCK_RECORD
  5
1874C
330
7466
100
AcDbSymbolTableRecord
100
AcDbBlockTableRecord
  2
*D27
340
0
  0
BLOCK_RECORD
  5
18759
330
7466
100
AcDbSymbolTableRecord
100
AcDbBlockTableRecord
  2
*D28
340
0
  0
BLOCK_RECORD
  5
18E4D
330
7466
100
AcDbSymbolTableRecord
100
AcDbBlockTableRecord
  2
*D29
340
0
  0
BLOCK_RECORD
  5
19134
330
7466
100
AcDbSymbolTableRecord
100
AcDbBlockTableRecord
  2
*D30
340
0
  0
BLOCK_RECORD
  5
19140
330
7466
100
AcDbSymbolTableRecord
100
AcDbBlockTableRecord
  2
*D31
340
0
  0
BLOCK_RECORD
  5
1914E
330
7466
100
AcDbSymbolTableRecord
100
AcDbBlockTableRecord
  2
*D32
340
0
  0
ENDTAB
  0
ENDSEC
  0
SECTION
  2
BLOCKS
  0
BLOCK
  5
7489
330
747D
100
AcDbEntity
  8
0
100
AcDbBlockBegin
  2
*MODEL_SPACE
 70
     0
 10
0.0
 20
0.0
 30
0.0
  3
*MODEL_SPACE
  1

  0
ENDBLK
  5
748A
330
747D
100
AcDbEntity
  8
0
100
AcDbBlockEnd
  0
BLOCK
  5
7487
330
747A
100
AcDbEntity
 67
     1
  8
0
100
AcDbBlockBegin
  2
*PAPER_SPACE
 70
     0
 10
0.0
 20
0.0
 30
0.0
  3
*PAPER_SPACE
  1

  0
ENDBLK
  5
7488
330
747A
100
AcDbEntity
 67
     1
  8
0
100
AcDbBlockEnd
  0
BLOCK
  5
F771
330
F770
100
AcDbEntity
  8
0
 48
50.0
100
AcDbBlockBegin
  2
_DOTSMALL
 70
     0
 10
0.0
 20
0.0
 30
0.0
  3
_DOTSMALL
  1

  0
LWPOLYLINE
  5
F772
330
F770
100
AcDbEntity
  8
0
  6
ByBlock
 62
     0
 48
50.0
100
AcDbPolyline
 90
        2
 70
     1
 43
0.5
 10
-0.0625
 20
0.0
 42
1.0
 10
0.0625
 20
0.0
 42
1.0
  0
ENDBLK
  5
F776
330
F770
100
AcDbEntity
  8
0
 48
50.0
100
AcDbBlockEnd
  0
BLOCK
  5
17F70
330
17F6F
100
AcDbEntity
  8
0
 48
50.0
100
AcDbBlockBegin
  2
_DOT
 70
     0
 10
0.0
 20
0.0
 30
0.0
  3
_DOT
  1

  0
LWPOLYLINE
  5
17F71
330
17F6F
100
AcDbEntity
  8
0
  6
ByBlock
 62
     0
 48
50.0
100
AcDbPolyline
 90
        2
 70
     1
 43
0.5
 10
-0.25
 20
0.0
 42
1.0
 10
0.25
 20
0.0
 42
1.0
  0
LINE
  5
17F72
330
17F6F
100
AcDbEntity
  8
0
  6
ByBlock
 62
     0
 48
50.0
100
AcDbLine
 10
-0.5
 20
0.0
 30
0.0
 11
-1.0
 21
0.0
 31
0.0
  0
ENDBLK
  5
17F73
330
17F6F
100
AcDbEntity
  8
0
 48
50.0
100
AcDbBlockEnd
  0
BLOCK
  5
185F5
330
185E9
100
AcDbEntity
  8
0
 48
50.0
100
AcDbBlockBegin
  2
*D2
 70
     1
 10
0.0
 20
0.0
 30
0.0
  3
*D2
  1

  0
LINE
  5
18CAE
330
185E9
100
AcDbEntity
  8
寸法
 62
     0
 48
50.0
370
    -2
100
AcDbLine
 10
6768.81272988041
 20
5105.395635910359
 30
0.0
 11
6768.81272988041
 21
5550.015895337629
 31
0.0
  0
LINE
  5
18CAF
330
185E9
100
AcDbEntity
  8
寸法
 62
     0
 48
50.0
370
    -2
100
AcDbLine
 10
6718.812729880411
 20
5105.395635910362
 30
0.0
 11
6718.812729880411
 21
5550.015895337629
 31
0.0
  0
LINE
  5
18CB0
330
185E9
100
AcDbEntity
  8
寸法
 62
     0
 48
50.0
370
    -2
100
AcDbLine
 10
6718.812729880411
 20
5490.01589533763
 30
0.0
 11
6618.81272988041
 21
5490.01589533763
 31
0.0
  0
LINE
  5
18CB1
330
185E9
100
AcDbEntity
  8
寸法
 62
     0
 48
50.0
370
    -2
100
AcDbLine
 10
6768.81272988041
 20
5490.01589533763
 30
0.0
 11
7188.345255349133
 21
5490.01589533763
 31
0.0
  0
LINE
  5
18CB2
330
185E9
100
AcDbEntity
  8
寸法
 62
     0
 48
50.0
370
    -2
100
AcDbLine
 10
6718.812729880411
 20
5490.01589533763
 30
0.0
 11
6768.81272988041
 21
5490.01589533763
 31
0.0
  0
INSERT
  5
18CB3
330
185E9
100
AcDbEntity
  8
寸法
 62
     0
 48
50.0
370
    -2
100
AcDbBlockReference
  2
_DOTSMALL
 10
6718.812729880411
 20
5490.01589533763
 30
0.0
 41
100.0
 42
100.0
 43
100.0
  0
INSERT
  5
18CB4
330
185E9
100
AcDbEntity
  8
寸法
 62
     0
 48
50.0
370
    -2
100
AcDbBlockReference
  2
_DOTSMALL
 10
6768.81272988041
 20
5490.01589533763
 30
0.0
 41
100.0
 42
100.0
 43
100.0
 50
180.0
  0
MTEXT
  5
18CB5
330
185E9
100
AcDbEntity
  8
寸法
 62
     7
 48
50.0
100
AcDbMText
 10
7082.298011254646
 20
5590.015895337629
 30
0.0
 40
120.0
 41
0.0
 71
     5
 72
     1
  1
\A1;50
  7
STYLE1
 73
     1
 44
1.0
1001
ACAD
1000
MTEXTBEGIN
1070
    73
1070
     1
1070
    44
1040
1.0
1070
    74
1070
     0
1000
MTEXTEND
  0
POINT
  5
18CB6
330
185E9
100
AcDbEntity
  8
DEFPOINTS
 62
     0
 48
50.0
100
AcDbPoint
 10
6768.81272988041
 20
5085.39563591036
 30
0.0
  0
POINT
  5
18CB7
330
185E9
100
AcDbEntity
  8
DEFPOINTS
 62
     0
 48
50.0
100
AcDbPoint
 10
6718.812729880411
 20
5085.395635910362
 30
0.0
  0
POINT
  5
18CB8
330
185E9
100
AcDbEntity
  8
DEFPOINTS
 62
     0
 48
50.0
100
AcDbPoint
 10
6718.812729880411
 20
5490.01589533763
 30
0.0
  0
ENDBLK
  5
185F6
330
185E9
100
AcDbEntity
  8
0
 48
50.0
100
AcDbBlockEnd
  0
BLOCK
  5
18603
330
185F7
100
AcDbEntity
  8
0
 48
50.0
100
AcDbBlockBegin
  2
*D3
 70
     1
 10
0.0
 20
0.0
 30
0.0
  3
*D3
  1

  0
LINE
  5
18CA3
330
185F7
100
AcDbEntity
  8
寸法
 62
     0
 48
50.0
370
    -2
100
AcDbLine
 10
4928.812729880419
 20
5105.395635910363
 30
0.0
 11
4928.812729880419
 21
5550.015895337629
 31
0.0
  0
LINE
  5
18CA4
330
185F7
100
AcDbEntity
  8
寸法
 62
     0
 48
50.0
370
    -2
100
AcDbLine
 10
4878.812729880419
 20
5105.395635910362
 30
0.0
 11
4878.812729880419
 21
5550.015895337629
 31
0.0
  0
LINE
  5
18CA5
330
185F7
100
AcDbEntity
  8
寸法
 62
     0
 48
50.0
370
    -2
100
AcDbLine
 10
4928.812729880419
 20
5490.01589533763
 30
0.0
 11
5028.812729880419
 21
5490.01589533763
 31
0.0
  0
LINE
  5
18CA6
330
185F7
100
AcDbEntity
  8
寸法
 62
     0
 48
50.0
370
    -2
100
AcDbLine
 10
4878.812729880419
 20
5490.01589533763
 30
0.0
 11
4459.280204411684
 21
5490.01589533763
 31
0.0
  0
LINE
  5
18CA7
330
185F7
100
AcDbEntity
  8
寸法
 62
     0
 48
50.0
370
    -2
100
AcDbLine
 10
4928.812729880419
 20
5490.01589533763
 30
0.0
 11
4878.812729880419
 21
5490.01589533763
 31
0.0
  0
INSERT
  5
18CA8
330
185F7
100
AcDbEntity
  8
寸法
 62
     0
 48
50.0
370
    -2
100
AcDbBlockReference
  2
_DOTSMALL
 10
4928.812729880419
 20
5490.01589533763
 30
0.0
 41
100.0
 42
100.0
 43
100.0
 50
180.0
  0
INSERT
  5
18CA9
330
185F7
100
AcDbEntity
  8
寸法
 62
     0
 48
50.0
370
    -2
100
AcDbBlockReference
  2
_DOTSMALL
 10
4878.812729880419
 20
5490.01589533763
 30
0.0
 41
100.0
 42
100.0
 43
100.0
  0
MTEXT
  5
18CAA
330
185F7
100
AcDbEntity
  8
寸法
 62
     7
 48
50.0
100
AcDbMText
 10
4565.327448506172
 20
5590.015895337629
 30
0.0
 40
120.0
 41
0.0
 71
     5
 72
     1
  1
\A1;50
  7
STYLE1
 73
     1
 44
1.0
1001
ACAD
1000
MTEXTBEGIN
1070
    73
1070
     1
1070
    44
1040
1.0
1070
    74
1070
     0
1000
MTEXTEND
  0
POINT
  5
18CAB
330
185F7
100
AcDbEntity
  8
DEFPOINTS
 62
     0
 48
50.0
100
AcDbPoint
 10
4928.812729880419
 20
5085.395635910363
 30
0.0
  0
POINT
  5
18CAC
330
185F7
100
AcDbEntity
  8
DEFPOINTS
 62
     0
 48
50.0
100
AcDbPoint
 10
4878.812729880419
 20
5085.395635910362
 30
0.0
  0
POINT
  5
18CAD
330
185F7
100
AcDbEntity
  8
DEFPOINTS
 62
     0
 48
50.0
100
AcDbPoint
 10
4878.812729880419
 20
5490.01589533763
 30
0.0
  0
ENDBLK
  5
18604
330
185F7
100
AcDbEntity
  8
0
 48
50.0
100
AcDbBlockEnd
  0
BLOCK
  5
1860F
330
18605
100
AcDbEntity
  8
0
 48
50.0
100
AcDbBlockBegin
  2
*D4
 70
     1
 10
0.0
 20
0.0
 30
0.0
  3
*D4
  1

  0
LINE
  5
18C9A
330
18605
100
AcDbEntity
  8
寸法
 62
     0
 48
50.0
370
    -2
100
AcDbLine
 10
4878.812729880419
 20
5105.395635910362
 30
0.0
 11
4878.812729880419
 21
5759.60976975908
 31
0.0
  0
LINE
  5
18C9B
330
18605
100
AcDbEntity
  8
寸法
 62
     0
 48
50.0
370
    -2
100
AcDbLine
 10
6768.81272988041
 20
5105.395635910359
 30
0.0
 11
6768.81272988041
 21
5759.60976975908
 31
0.0
  0
LINE
  5
18C9C
330
18605
100
AcDbEntity
  8
寸法
 62
     0
 48
50.0
370
    -2
100
AcDbLine
 10
4878.812729880419
 20
5699.609769759081
 30
0.0
 11
6768.81272988041
 21
5699.609769759081
 31
0.0
  0
INSERT
  5
18C9D
330
18605
100
AcDbEntity
  8
寸法
 62
     0
 48
50.0
370
    -2
100
AcDbBlockReference
  2
_DOTSMALL
 10
4878.812729880419
 20
5699.609769759081
 30
0.0
 41
100.0
 42
100.0
 43
100.0
 50
180.0
  0
INSERT
  5
18C9E
330
18605
100
AcDbEntity
  8
寸法
 62
     0
 48
50.0
370
    -2
100
AcDbBlockReference
  2
_DOTSMALL
 10
6768.81272988041
 20
5699.609769759081
 30
0.0
 41
100.0
 42
100.0
 43
100.0
  0
MTEXT
  5
18C9F
330
18605
100
AcDbEntity
  8
寸法
 62
     7
 48
50.0
100
AcDbMText
 10
5823.812729880414
 20
5799.60976975908
 30
0.0
 40
120.0
 41
0.0
 71
     5
 72
     1
  1
\A1;1890
  7
STYLE1
 73
     1
 44
1.0
1001
ACAD
1000
MTEXTBEGIN
1070
    73
1070
     1
1070
    44
1040
1.0
1070
    74
1070
     0
1000
MTEXTEND
  0
POINT
  5
18CA0
330
18605
100
AcDbEntity
  8
DEFPOINTS
 62
     0
 48
50.0
100
AcDbPoint
 10
4878.812729880419
 20
5085.395635910362
 30
0.0
  0
POINT
  5
18CA1
330
18605
100
AcDbEntity
  8
DEFPOINTS
 62
     0
 48
50.0
100
AcDbPoint
 10
6768.81272988041
 20
5085.39563591036
 30
0.0
  0
POINT
  5
18CA2
330
18605
100
AcDbEntity
  8
DEFPOINTS
 62
     0
 48
50.0
100
AcDbPoint
 10
6768.81272988041
 20
5699.609769759081
 30
0.0
  0
ENDBLK
  5
18610
330
18605
100
AcDbEntity
  8
0
 48
50.0
100
AcDbBlockEnd
  0
BLOCK
  5
1861B
330
18611
100
AcDbEntity
  8
0
 48
50.0
100
AcDbBlockBegin
  2
*D5
 70
     1
 10
0.0
 20
0.0
 30
0.0
  3
*D5
  1

  0
LINE
  5
18C91
330
18611
100
AcDbEntity
  8
寸法
 62
     0
 48
50.0
370
    -2
100
AcDbLine
 10
6718.812729880411
 20
5105.395635910362
 30
0.0
 11
6718.812729880411
 21
5550.015895337629
 31
0.0
  0
LINE
  5
18C92
330
18611
100
AcDbEntity
  8
寸法
 62
     0
 48
50.0
370
    -2
100
AcDbLine
 10
4928.812729880419
 20
5105.395635910363
 30
0.0
 11
4928.812729880419
 21
5550.015895337629
 31
0.0
  0
LINE
  5
18C93
330
18611
100
AcDbEntity
  8
寸法
 62
     0
 48
50.0
370
    -2
100
AcDbLine
 10
6718.812729880411
 20
5490.01589533763
 30
0.0
 11
4928.812729880419
 21
5490.01589533763
 31
0.0
  0
INSERT
  5
18C94
330
18611
100
AcDbEntity
  8
寸法
 62
     0
 48
50.0
370
    -2
100
AcDbBlockReference
  2
_DOTSMALL
 10
6718.812729880411
 20
5490.01589533763
 30
0.0
 41
100.0
 42
100.0
 43
100.0
  0
INSERT
  5
18C95
330
18611
100
AcDbEntity
  8
寸法
 62
     0
 48
50.0
370
    -2
100
AcDbBlockReference
  2
_DOTSMALL
 10
4928.812729880419
 20
5490.01589533763
 30
0.0
 41
100.0
 42
100.0
 43
100.0
 50
180.0
  0
MTEXT
  5
18C96
330
18611
100
AcDbEntity
  8
寸法
 62
     7
 48
50.0
100
AcDbMText
 10
5823.812729880414
 20
5590.015895337629
 30
0.0
 40
120.0
 41
0.0
 71
     5
 72
     1
  1
\A1;柱外寸法1790
  7
STYLE1
 73
     1
 44
1.0
1001
ACAD
1000
MTEXTBEGIN
1070
    73
1070
     1
1070
    44
1040
1.0
1070
    74
1070
     0
1000
MTEXTEND
  0
POINT
  5
18C97
330
18611
100
AcDbEntity
  8
DEFPOINTS
 62
     0
 48
50.0
100
AcDbPoint
 10
6718.812729880411
 20
5085.395635910362
 30
0.0
  0
POINT
  5
18C98
330
18611
100
AcDbEntity
  8
DEFPOINTS
 62
     0
 48
50.0
100
AcDbPoint
 10
4928.812729880419
 20
5085.395635910363
 30
0.0
  0
POINT
  5
18C99
330
18611
100
AcDbEntity
  8
DEFPOINTS
 62
     0
 48
50.0
100
AcDbPoint
 10
4928.812729880419
 20
5490.01589533763
 30
0.0
  0
ENDBLK
  5
1861C
330
18611
100
AcDbEntity
  8
0
 48
50.0
100
AcDbBlockEnd
  0
BLOCK
  5
18641
330
18637
100
AcDbEntity
  8
0
 48
50.0
100
AcDbBlockBegin
  2
*D6
 70
     1
 10
0.0
 20
0.0
 30
0.0
  3
*D6
  1

  0
LINE
  5
1930A
330
18637
100
AcDbEntity
  8
寸法
 62
     0
 48
50.0
370
    -2
100
AcDbLine
 10
8868.414092129354
 20
9264.991346858941
 30
0.0
 11
8779.127350875679
 21
8931.768692057969
 31
0.0
  0
LINE
  5
1930B
330
18637
100
AcDbEntity
  8
寸法
 62
     0
 48
50.0
370
    -2
100
AcDbLine
 10
9721.414092129366
 20
9264.991346858936
 30
0.0
 11
9632.127350875691
 21
8931.768692057969
 31
0.0
  0
LINE
  5
1930C
330
18637
100
AcDbEntity
  8
寸法
 62
     0
 48
50.0
370
    -2
100
AcDbLine
 10
8795.204302421545
 20
8991.76869205797
 30
0.0
 11
9648.204302421559
 21
8991.76869205797
 31
0.0
  0
INSERT
  5
1930D
330
18637
100
AcDbEntity
  8
寸法
 62
     0
 48
50.0
370
    -2
100
AcDbBlockReference
  2
_DOTSMALL
 10
8795.204302421545
 20
8991.76869205797
 30
0.0
 41
100.0
 42
100.0
 43
100.0
 50
180.0
  0
INSERT
  5
1930E
330
18637
100
AcDbEntity
  8
寸法
 62
     0
 48
50.0
370
    -2
100
AcDbBlockReference
  2
_DOTSMALL
 10
9648.204302421559
 20
8991.76869205797
 30
0.0
 41
100.0
 42
100.0
 43
100.0
  0
MTEXT
  5
1930F
330
18637
100
AcDbEntity
  8
寸法
 62
     7
 48
50.0
100
AcDbMText
 10
9253.120138096244
 20
9091.76869205797
 30
0.0
 40
120.0
 41
0.0
 71
     5
 72
     1
  1
\A1;853
  7
STYLE1
 73
     1
 44
1.0
1001
ACAD
1000
MTEXTBEGIN
1070
    73
1070
     1
1070
    44
1040
1.0
1070
    74
1070
     0
1000
MTEXTEND
  0
POINT
  5
19310
330
18637
100
AcDbEntity
  8
DEFPOINTS
 62
     0
 48
50.0
100
AcDbPoint
 10
8873.773075977977
 20
9284.991346858943
 30
0.0
  0
POINT
  5
19311
330
18637
100
AcDbEntity
  8
DEFPOINTS
 62
     0
 48
50.0
100
AcDbPoint
 10
9726.773075977988
 20
9284.991346858936
 30
0.0
  0
POINT
  5
19312
330
18637
100
AcDbEntity
  8
DEFPOINTS
 62
     0
 48
50.0
100
AcDbPoint
 10
9648.204302421559
 20
8991.76869205797
 30
0.0
  0
ENDBLK
  5
18642
330
18637
100
AcDbEntity
  8
0
 48
50.0
100
AcDbBlockEnd
  0
BLOCK
  5
1864D
330
18643
100
AcDbEntity
  8
0
 48
50.0
100
AcDbBlockBegin
  2
*D7
 70
     1
 10
0.0
 20
0.0
 30
0.0
  3
*D7
  1

  0
LINE
  5
19301
330
18643
100
AcDbEntity
  8
寸法
 62
     0
 48
50.0
370
    -2
100
AcDbLine
 10
8900.273075977976
 20
9784.991346858944
 30
0.0
 11
8900.273075977976
 21
10121.79837366727
 31
0.0
  0
LINE
  5
19302
330
18643
100
AcDbEntity
  8
寸法
 62
     0
 48
50.0
370
    -2
100
AcDbLine
 10
10580.27307597797
 20
9784.991346859039
 30
0.0
 11
10580.27307597797
 21
10121.79837366727
 31
0.0
  0
LINE
  5
19303
330
18643
100
AcDbEntity
  8
寸法
 62
     0
 48
50.0
370
    -2
100
AcDbLine
 10
8900.273075977976
 20
10061.79837366727
 30
0.0
 11
10580.27307597797
 21
10061.79837366727
 31
0.0
  0
INSERT
  5
19304
330
18643
100
AcDbEntity
  8
寸法
 62
     0
 48
50.0
370
    -2
100
AcDbBlockReference
  2
_DOTSMALL
 10
8900.273075977976
 20
10061.79837366727
 30
0.0
 41
100.0
 42
100.0
 43
100.0
 50
180.0
  0
INSERT
  5
19305
330
18643
100
AcDbEntity
  8
寸法
 62
     0
 48
50.0
370
    -2
100
AcDbBlockReference
  2
_DOTSMALL
 10
10580.27307597797
 20
10061.79837366727
 30
0.0
 41
100.0
 42
100.0
 43
100.0
  0
MTEXT
  5
19306
330
18643
100
AcDbEntity
  8
寸法
 62
     7
 48
50.0
100
AcDbMText
 10
9740.273075977976
 20
10161.81018469089
 30
0.0
 40
120.0
 41
0.0
 71
     5
 72
     1
  1
\A1;4X420=1680
  7
STYLE1
 73
     1
 44
1.0
1001
ACAD
1000
MTEXTBEGIN
1070
    73
1070
     1
1070
    44
1040
1.0
1070
    74
1070
     0
1000
MTEXTEND
  0
POINT
  5
19307
330
18643
100
AcDbEntity
  8
DEFPOINTS
 62
     0
 48
50.0
100
AcDbPoint
 10
8900.273075977976
 20
9764.991346858945
 30
0.0
  0
POINT
  5
19308
330
18643
100
AcDbEntity
  8
DEFPOINTS
 62
     0
 48
50.0
100
AcDbPoint
 10
10580.27307597797
 20
9764.991346859039
 30
0.0
  0
POINT
  5
19309
330
18643
100
AcDbEntity
  8
DEFPOINTS
 62
     0
 48
50.0
100
AcDbPoint
 10
10580.27307597797
 20
10061.79837366727
 30
0.0
  0
ENDBLK
  5
1864E
330
18643
100
AcDbEntity
  8
0
 48
50.0
100
AcDbBlockEnd
  0
BLOCK
  5
1865B
330
1864F
100
AcDbEntity
  8
0
 48
50.0
100
AcDbBlockBegin
  2
*D8
 70
     1
 10
0.0
 20
0.0
 30
0.0
  3
*D8
  1

  0
LINE
  5
192F6
330
1864F
100
AcDbEntity
  8
寸法
 62
     0
 48
50.0
370
    -2
100
AcDbLine
 10
10580.27307597797
 20
9784.991346859039
 30
0.0
 11
10580.27307597797
 21
10121.79837366725
 31
0.0
  0
LINE
  5
192F7
330
1864F
100
AcDbEntity
  8
寸法
 62
     0
 48
50.0
370
    -2
100
AcDbLine
 10
10635.27307597798
 20
9784.991346859039
 30
0.0
 11
10635.27307597798
 21
10121.79837366725
 31
0.0
  0
LINE
  5
192F8
330
1864F
100
AcDbEntity
  8
寸法
 62
     0
 48
50.0
370
    -2
100
AcDbLine
 10
10580.27307597797
 20
10061.79837366725
 30
0.0
 11
10480.27307597797
 21
10061.79837366725
 31
0.0
  0
LINE
  5
192F9
330
1864F
100
AcDbEntity
  8
寸法
 62
     0
 48
50.0
370
    -2
100
AcDbLine
 10
10635.27307597798
 20
10061.79837366725
 30
0.0
 11
11052.24363872645
 21
10061.79837366725
 31
0.0
  0
LINE
  5
192FA
330
1864F
100
AcDbEntity
  8
寸法
 62
     0
 48
50.0
370
    -2
100
AcDbLine
 10
10580.27307597797
 20
10061.79837366725
 30
0.0
 11
10635.27307597798
 21
10061.79837366725
 31
0.0
  0
INSERT
  5
192FB
330
1864F
100
AcDbEntity
  8
寸法
 62
     0
 48
50.0
370
    -2
100
AcDbBlockReference
  2
_DOTSMALL
 10
10580.27307597797
 20
10061.79837366725
 30
0.0
 41
100.0
 42
100.0
 43
100.0
  0
INSERT
  5
192FC
330
1864F
100
AcDbEntity
  8
寸法
 62
     0
 48
50.0
370
    -2
100
AcDbBlockReference
  2
_DOTSMALL
 10
10635.27307597798
 20
10061.79837366725
 30
0.0
 41
100.0
 42
100.0
 43
100.0
 50
180.0
  0
MTEXT
  5
192FD
330
1864F
100
AcDbEntity
  8
寸法
 62
     7
 48
50.0
100
AcDbMText
 10
10943.75835735221
 20
10161.79837366725
 30
0.0
 40
120.0
 41
0.0
 71
     5
 72
     1
  1
\A1;55
  7
STYLE1
 73
     1
 44
1.0
1001
ACAD
1000
MTEXTBEGIN
1070
    73
1070
     1
1070
    44
1040
1.0
1070
    74
1070
     0
1000
MTEXTEND
  0
POINT
  5
192FE
330
1864F
100
AcDbEntity
  8
DEFPOINTS
 62
     0
 48
50.0
100
AcDbPoint
 10
10580.27307597797
 20
9764.991346859039
 30
0.0
  0
POINT
  5
192FF
330
1864F
100
AcDbEntity
  8
DEFPOINTS
 62
     0
 48
50.0
100
AcDbPoint
 10
10635.27307597798
 20
9764.991346859039
 30
0.0
  0
POINT
  5
19300
330
1864F
100
AcDbEntity
  8
DEFPOINTS
 62
     0
 48
50.0
100
AcDbPoint
 10
10635.27307597798
 20
10061.79837366725
 30
0.0
  0
ENDBLK
  5
1865C
330
1864F
100
AcDbEntity
  8
0
 48
50.0
100
AcDbBlockEnd
  0
BLOCK
  5
18667
330
1865D
100
AcDbEntity
  8
0
 48
50.0
100
AcDbBlockBegin
  2
*D9
 70
     1
 10
0.0
 20
0.0
 30
0.0
  3
*D9
  1

  0
LINE
  5
192ED
330
1865D
100
AcDbEntity
  8
寸法
 62
     0
 48
50.0
370
    -2
100
AcDbLine
 10
9748.414092129355
 20
9264.991346859048
 30
0.0
 11
9659.127350875678
 21
8931.768692058074
 31
0.0
  0
LINE
  5
192EE
330
1865D
100
AcDbEntity
  8
寸法
 62
     0
 48
50.0
370
    -2
100
AcDbLine
 10
10601.41409212936
 20
9264.991346859043
 30
0.0
 11
10512.12735087569
 21
8931.768692058074
 31
0.0
  0
LINE
  5
192EF
330
1865D
100
AcDbEntity
  8
寸法
 62
     0
 48
50.0
370
    -2
100
AcDbLine
 10
9675.204302421546
 20
8991.768692058075
 30
0.0
 11
10528.20430242155
 21
8991.768692058075
 31
0.0
  0
INSERT
  5
192F0
330
1865D
100
AcDbEntity
  8
寸法
 62
     0
 48
50.0
370
    -2
100
AcDbBlockReference
  2
_DOTSMALL
 10
9675.204302421546
 20
8991.768692058075
 30
0.0
 41
100.0
 42
100.0
 43
100.0
 50
180.0
  0
INSERT
  5
192F1
330
1865D
100
AcDbEntity
  8
寸法
 62
     0
 48
50.0
370
    -2
100
AcDbBlockReference
  2
_DOTSMALL
 10
10528.20430242155
 20
8991.768692058075
 30
0.0
 41
100.0
 42
100.0
 43
100.0
  0
MTEXT
  5
192F2
330
1865D
100
AcDbEntity
  8
寸法
 62
     7
 48
50.0
100
AcDbMText
 10
10133.12013809624
 20
9091.768692058074
 30
0.0
 40
120.0
 41
0.0
 71
     5
 72
     1
  1
\A1;853
  7
STYLE1
 73
     1
 44
1.0
1001
ACAD
1000
MTEXTBEGIN
1070
    73
1070
     1
1070
    44
1040
1.0
1070
    74
1070
     0
1000
MTEXTEND
  0
POINT
  5
192F3
330
1865D
100
AcDbEntity
  8
DEFPOINTS
 62
     0
 48
50.0
100
AcDbPoint
 10
9753.773075977978
 20
9284.991346859047
 30
0.0
  0
POINT
  5
192F4
330
1865D
100
AcDbEntity
  8
DEFPOINTS
 62
     0
 48
50.0
100
AcDbPoint
 10
10606.77307597799
 20
9284.991346859042
 30
0.0
  0
POINT
  5
192F5
330
1865D
100
AcDbEntity
  8
DEFPOINTS
 62
     0
 48
50.0
100
AcDbPoint
 10
10528.20430242155
 20
8991.768692058075
 30
0.0
  0
ENDBLK
  5
18668
330
1865D
100
AcDbEntity
  8
0
 48
50.0
100
AcDbBlockEnd
  0
BLOCK
  5
1867F
330
18675
100
AcDbEntity
  8
0
 48
50.0
100
AcDbBlockBegin
  2
*D10
 70
     1
 10
0.0
 20
0.0
 30
0.0
  3
*D10
  1

  0
LINE
  5
192E4
330
18675
100
AcDbEntity
  8
寸法
 62
     0
 48
50.0
370
    -2
100
AcDbLine
 10
10655.27307597798
 20
9709.991346859043
 30
0.0
 11
11342.69942171239
 21
9709.991346859043
 31
0.0
  0
LINE
  5
192E5
330
18675
100
AcDbEntity
  8
寸法
 62
     0
 48
50.0
370
    -2
100
AcDbLine
 10
10655.27307597795
 20
8029.991346859025
 30
0.0
 11
11342.69942171239
 21
8029.991346859025
 31
0.0
  0
LINE
  5
192E6
330
18675
100
AcDbEntity
  8
寸法
 62
     0
 48
50.0
370
    -2
100
AcDbLine
 10
11282.69942171239
 20
9709.991346859043
 30
0.0
 11
11282.69942171239
 21
8029.991346859025
 31
0.0
  0
INSERT
  5
192E7
330
18675
100
AcDbEntity
  8
寸法
 62
     0
 48
50.0
370
    -2
100
AcDbBlockReference
  2
_DOTSMALL
 10
11282.69942171239
 20
9709.991346859043
 30
0.0
 41
100.0
 42
100.0
 43
100.0
 50
90.0
  0
INSERT
  5
192E8
330
18675
100
AcDbEntity
  8
寸法
 62
     0
 48
50.0
370
    -2
100
AcDbBlockReference
  2
_DOTSMALL
 10
11282.69942171239
 20
8029.991346859025
 30
0.0
 41
100.0
 42
100.0
 43
100.0
 50
270.0
  0
MTEXT
  5
192E9
330
18675
100
AcDbEntity
  8
寸法
 62
     7
 48
50.0
100
AcDbMText
 10
11182.68761068876
 20
8869.991346859034
 30
0.0
 40
120.0
 41
0.0
 71
     5
 72
     1
  1
\A1;4X420=1680
  7
STYLE1
 11
0.0000000000000001
 21
1.0
 31
0.0
 73
     1
 44
1.0
1001
ACAD
1000
MTEXTBEGIN
1070
    73
1070
     1
1070
    44
1040
1.0
1070
    74
1070
     0
1000
MTEXTEND
  0
POINT
  5
192EA
330
18675
100
AcDbEntity
  8
DEFPOINTS
 62
     0
 48
50.0
100
AcDbPoint
 10
10635.27307597798
 20
9709.991346859043
 30
0.0
  0
POINT
  5
192EB
330
18675
100
AcDbEntity
  8
DEFPOINTS
 62
     0
 48
50.0
100
AcDbPoint
 10
10635.27307597795
 20
8029.991346859025
 30
0.0
  0
POINT
  5
192EC
330
18675
100
AcDbEntity
  8
DEFPOINTS
 62
     0
 48
50.0
100
AcDbPoint
 10
11282.69942171239
 20
8029.991346859025
 30
0.0
  0
ENDBLK
  5
18680
330
18675
100
AcDbEntity
  8
0
 48
50.0
100
AcDbBlockEnd
  0
BLOCK
  5
1868D
330
18681
100
AcDbEntity
  8
0
 48
50.0
100
AcDbBlockBegin
  2
*D11
 70
     1
 10
0.0
 20
0.0
 30
0.0
  3
*D11
  1

  0
LINE
  5
192D9
330
18681
100
AcDbEntity
  8
寸法
 62
     0
 48
50.0
370
    -2
100
AcDbLine
 10
10655.27307597795
 20
8029.991346859025
 30
0.0
 11
11342.69942171236
 21
8029.991346859025
 31
0.0
  0
LINE
  5
192DA
330
18681
100
AcDbEntity
  8
寸法
 62
     0
 48
50.0
370
    -2
100
AcDbLine
 10
10655.27307597795
 20
7974.991346859029
 30
0.0
 11
11342.69942171236
 21
7974.991346859029
 31
0.0
  0
LINE
  5
192DB
330
18681
100
AcDbEntity
  8
寸法
 62
     0
 48
50.0
370
    -2
100
AcDbLine
 10
11282.69942171236
 20
8029.991346859025
 30
0.0
 11
11282.69942171236
 21
8129.991346859027
 31
0.0
  0
LINE
  5
192DC
330
18681
100
AcDbEntity
  8
寸法
 62
     0
 48
50.0
370
    -2
100
AcDbLine
 10
11282.69942171236
 20
7974.991346859029
 30
0.0
 11
11282.69942171236
 21
7488.644598579927
 31
0.0
  0
LINE
  5
192DD
330
18681
100
AcDbEntity
  8
寸法
 62
     0
 48
50.0
370
    -2
100
AcDbLine
 10
11282.69942171236
 20
8029.991346859025
 30
0.0
 11
11282.69942171236
 21
7974.991346859029
 31
0.0
  0
INSERT
  5
192DE
330
18681
100
AcDbEntity
  8
寸法
 62
     0
 48
50.0
370
    -2
100
AcDbBlockReference
  2
_DOTSMALL
 10
11282.69942171236
 20
8029.991346859025
 30
0.0
 41
100.0
 42
100.0
 43
100.0
 50
270.0
  0
INSERT
  5
192DF
330
18681
100
AcDbEntity
  8
寸法
 62
     0
 48
50.0
370
    -2
100
AcDbBlockReference
  2
_DOTSMALL
 10
11282.69942171236
 20
7974.991346859029
 30
0.0
 41
100.0
 42
100.0
 43
100.0
 50
90.0
  0
MTEXT
  5
192E0
330
18681
100
AcDbEntity
  8
寸法
 62
     7
 48
50.0
100
AcDbMText
 10
11182.69942171236
 20
7597.129879954168
 30
0.0
 40
120.0
 41
0.0
 71
     5
 72
     1
  1
\A1;55
  7
STYLE1
 11
0.0000000000000001
 21
1.0
 31
0.0
 73
     1
 44
1.0
1001
ACAD
1000
MTEXTBEGIN
1070
    73
1070
     1
1070
    44
1040
1.0
1070
    74
1070
     0
1000
MTEXTEND
  0
POINT
  5
192E1
330
18681
100
AcDbEntity
  8
DEFPOINTS
 62
     0
 48
50.0
100
AcDbPoint
 10
10635.27307597795
 20
8029.991346859025
 30
0.0
  0
POINT
  5
192E2
330
18681
100
AcDbEntity
  8
DEFPOINTS
 62
     0
 48
50.0
100
AcDbPoint
 10
10635.27307597795
 20
7974.991346859029
 30
0.0
  0
POINT
  5
192E3
330
18681
100
AcDbEntity
  8
DEFPOINTS
 62
     0
 48
50.0
100
AcDbPoint
 10
11282.69942171236
 20
7974.991346859029
 30
0.0
  0
ENDBLK
  5
1868E
330
18681
100
AcDbEntity
  8
0
 48
50.0
100
AcDbBlockEnd
  0
BLOCK
  5
18699
330
1868F
100
AcDbEntity
  8
0
 48
50.0
100
AcDbBlockBegin
  2
*D12
 70
     1
 10
0.0
 20
0.0
 30
0.0
  3
*D12
  1

  0
LINE
  5
192D0
330
1868F
100
AcDbEntity
  8
寸法
 62
     0
 48
50.0
370
    -2
100
AcDbLine
 10
10626.77307597797
 20
9729.632363010416
 30
0.0
 11
11022.13080184
 21
9623.696579644281
 31
0.0
  0
LINE
  5
192D1
330
1868F
100
AcDbEntity
  8
寸法
 62
     0
 48
50.0
370
    -2
100
AcDbLine
 10
10626.77307597797
 20
9279.632363010419
 30
0.0
 11
11022.13080184
 21
9173.696579644284
 31
0.0
  0
LINE
  5
192D2
330
1868F
100
AcDbEntity
  8
寸法
 62
     0
 48
50.0
370
    -2
100
AcDbLine
 10
10962.13080184
 20
9639.773531190149
 30
0.0
 11
10962.13080184
 21
9189.773531190152
 31
0.0
  0
INSERT
  5
192D3
330
1868F
100
AcDbEntity
  8
寸法
 62
     0
 48
50.0
370
    -2
100
AcDbBlockReference
  2
_DOTSMALL
 10
10962.13080184
 20
9639.773531190149
 30
0.0
 41
100.0
 42
100.0
 43
100.0
 50
90.0
  0
INSERT
  5
192D4
330
1868F
100
AcDbEntity
  8
寸法
 62
     0
 48
50.0
370
    -2
100
AcDbBlockReference
  2
_DOTSMALL
 10
10962.13080184
 20
9189.773531190152
 30
0.0
 41
100.0
 42
100.0
 43
100.0
 50
270.0
  0
MTEXT
  5
192D5
330
1868F
100
AcDbEntity
  8
寸法
 62
     7
 48
50.0
100
AcDbMText
 10
10862.13080184
 20
9414.773531190153
 30
0.0
 40
120.0
 41
0.0
 71
     5
 72
     1
  1
\A1;450
  7
STYLE1
 11
0.0000000000000001
 21
1.0
 31
0.0
 73
     1
 44
1.0
1001
ACAD
1000
MTEXTBEGIN
1070
    73
1070
     1
1070
    44
1040
1.0
1070
    74
1070
     0
1000
MTEXTEND
  0
POINT
  5
192D6
330
1868F
100
AcDbEntity
  8
DEFPOINTS
 62
     0
 48
50.0
100
AcDbPoint
 10
10606.77307597797
 20
9734.99134685904
 30
0.0
  0
POINT
  5
192D7
330
1868F
100
AcDbEntity
  8
DEFPOINTS
 62
     0
 48
50.0
100
AcDbPoint
 10
10606.77307597797
 20
9284.99134685904
 30
0.0
  0
POINT
  5
192D8
330
1868F
100
AcDbEntity
  8
DEFPOINTS
 62
     0
 48
50.0
100
AcDbPoint
 10
10962.13080184
 20
9189.773531190152
 30
0.0
  0
ENDBLK
  5
1869A
330
1868F
100
AcDbEntity
  8
0
 48
50.0
100
AcDbBlockEnd
  0
BLOCK
  5
186A7
330
1869B
100
AcDbEntity
  8
0
 48
50.0
100
AcDbBlockBegin
  2
*D13
 70
     1
 10
0.0
 20
0.0
 30
0.0
  3
*D13
  1

  0
LINE
  5
192C5
330
1869B
100
AcDbEntity
  8
寸法
 62
     0
 48
50.0
370
    -2
100
AcDbLine
 10
10655.27307597798
 20
9764.991346859039
 30
0.0
 11
11342.69942171239
 21
9764.991346859039
 31
0.0
  0
LINE
  5
192C6
330
1869B
100
AcDbEntity
  8
寸法
 62
     0
 48
50.0
370
    -2
100
AcDbLine
 10
10655.27307597798
 20
9709.991346859043
 30
0.0
 11
11342.69942171239
 21
9709.991346859043
 31
0.0
  0
LINE
  5
192C7
330
1869B
100
AcDbEntity
  8
寸法
 62
     0
 48
50.0
370
    -2
100
AcDbLine
 10
11282.69942171239
 20
9709.991346859043
 30
0.0
 11
11282.69942171239
 21
9609.991346859043
 31
0.0
  0
LINE
  5
192C8
330
1869B
100
AcDbEntity
  8
寸法
 62
     0
 48
50.0
370
    -2
100
AcDbLine
 10
11282.69942171239
 20
9764.991346859039
 30
0.0
 11
11282.69942171239
 21
10181.96190960751
 31
0.0
  0
LINE
  5
192C9
330
1869B
100
AcDbEntity
  8
寸法
 62
     0
 48
50.0
370
    -2
100
AcDbLine
 10
11282.69942171239
 20
9709.991346859043
 30
0.0
 11
11282.69942171239
 21
9764.991346859039
 31
0.0
  0
INSERT
  5
192CA
330
1869B
100
AcDbEntity
  8
寸法
 62
     0
 48
50.0
370
    -2
100
AcDbBlockReference
  2
_DOTSMALL
 10
11282.69942171239
 20
9709.991346859043
 30
0.0
 41
100.0
 42
100.0
 43
100.0
 50
90.0
  0
INSERT
  5
192CB
330
1869B
100
AcDbEntity
  8
寸法
 62
     0
 48
50.0
370
    -2
100
AcDbBlockReference
  2
_DOTSMALL
 10
11282.69942171239
 20
9764.991346859039
 30
0.0
 41
100.0
 42
100.0
 43
100.0
 50
270.0
  0
MTEXT
  5
192CC
330
1869B
100
AcDbEntity
  8
寸法
 62
     7
 48
50.0
100
AcDbMText
 10
11182.69942171238
 20
10073.47662823328
 30
0.0
 40
120.0
 41
0.0
 71
     5
 72
     1
  1
\A1;55
  7
STYLE1
 11
0.0000000000000001
 21
1.0
 31
0.0
 73
     1
 44
1.0
1001
ACAD
1000
MTEXTBEGIN
1070
    73
1070
     1
1070
    44
1040
1.0
1070
    74
1070
     0
1000
MTEXTEND
  0
POINT
  5
192CD
330
1869B
100
AcDbEntity
  8
DEFPOINTS
 62
     0
 48
50.0
100
AcDbPoint
 10
10635.27307597798
 20
9764.991346859039
 30
0.0
  0
POINT
  5
192CE
330
1869B
100
AcDbEntity
  8
DEFPOINTS
 62
     0
 48
50.0
100
AcDbPoint
 10
10635.27307597798
 20
9709.991346859043
 30
0.0
  0
POINT
  5
192CF
330
1869B
100
AcDbEntity
  8
DEFPOINTS
 62
     0
 48
50.0
100
AcDbPoint
 10
11282.69942171239
 20
9709.991346859043
 30
0.0
  0
ENDBLK
  5
186A8
330
1869B
100
AcDbEntity
  8
0
 48
50.0
100
AcDbBlockEnd
  0
BLOCK
  5
186B3
330
186A9
100
AcDbEntity
  8
0
 48
50.0
100
AcDbBlockBegin
  2
*D14
 70
     1
 10
0.0
 20
0.0
 30
0.0
  3
*D14
  1

  0
LINE
  5
192BC
330
186A9
100
AcDbEntity
  8
寸法
 62
     0
 48
50.0
370
    -2
100
AcDbLine
 10
10655.27307597798
 20
9764.991346859039
 30
0.0
 11
11707.80636345202
 21
9764.991346859039
 31
0.0
  0
LINE
  5
192BD
330
186A9
100
AcDbEntity
  8
寸法
 62
     0
 48
50.0
370
    -2
100
AcDbLine
 10
10655.27307597795
 20
7974.991346859029
 30
0.0
 11
11707.80636345202
 21
7974.991346859029
 31
0.0
  0
LINE
  5
192BE
330
186A9
100
AcDbEntity
  8
寸法
 62
     0
 48
50.0
370
    -2
100
AcDbLine
 10
11647.80636345202
 20
9764.991346859039
 30
0.0
 11
11647.80636345202
 21
7974.991346859029
 31
0.0
  0
INSERT
  5
192BF
330
186A9
100
AcDbEntity
  8
寸法
 62
     0
 48
50.0
370
    -2
100
AcDbBlockReference
  2
_DOTSMALL
 10
11647.80636345202
 20
9764.991346859039
 30
0.0
 41
100.0
 42
100.0
 43
100.0
 50
90.0
  0
INSERT
  5
192C0
330
186A9
100
AcDbEntity
  8
寸法
 62
     0
 48
50.0
370
    -2
100
AcDbBlockReference
  2
_DOTSMALL
 10
11647.80636345202
 20
7974.991346859029
 30
0.0
 41
100.0
 42
100.0
 43
100.0
 50
270.0
  0
MTEXT
  5
192C1
330
186A9
100
AcDbEntity
  8
寸法
 62
     7
 48
50.0
100
AcDbMText
 10
11547.80636345202
 20
8869.991346859034
 30
0.0
 40
120.0
 41
0.0
 71
     5
 72
     1
  1
\A1;1790
  7
STYLE1
 11
0.0000000000000001
 21
1.0
 31
0.0
 73
     1
 44
1.0
1001
ACAD
1000
MTEXTBEGIN
1070
    73
1070
     1
1070
    44
1040
1.0
1070
    74
1070
     0
1000
MTEXTEND
  0
POINT
  5
192C2
330
186A9
100
AcDbEntity
  8
DEFPOINTS
 62
     0
 48
50.0
100
AcDbPoint
 10
10635.27307597798
 20
9764.991346859039
 30
0.0
  0
POINT
  5
192C3
330
186A9
100
AcDbEntity
  8
DEFPOINTS
 62
     0
 48
50.0
100
AcDbPoint
 10
10635.27307597795
 20
7974.991346859029
 30
0.0
  0
POINT
  5
192C4
330
186A9
100
AcDbEntity
  8
DEFPOINTS
 62
     0
 48
50.0
100
AcDbPoint
 10
11647.80636345202
 20
7974.991346859029
 30
0.0
  0
ENDBLK
  5
186B4
330
186A9
100
AcDbEntity
  8
0
 48
50.0
100
AcDbBlockEnd
  0
BLOCK
  5
186C1
330
186B5
100
AcDbEntity
  8
0
 48
50.0
100
AcDbBlockBegin
  2
*D15
 70
     1
 10
0.0
 20
0.0
 30
0.0
  3
*D15
  1

  0
LINE
  5
192B1
330
186B5
100
AcDbEntity
  8
寸法
 62
     0
 48
50.0
370
    -2
100
AcDbLine
 10
8845.27307597794
 20
9784.991346858944
 30
0.0
 11
8845.27307597794
 21
10121.79837366715
 31
0.0
  0
LINE
  5
192B2
330
186B5
100
AcDbEntity
  8
寸法
 62
     0
 48
50.0
370
    -2
100
AcDbLine
 10
8900.273075977976
 20
9784.991346858944
 30
0.0
 11
8900.273075977976
 21
10121.79837366715
 31
0.0
  0
LINE
  5
192B3
330
186B5
100
AcDbEntity
  8
寸法
 62
     0
 48
50.0
370
    -2
100
AcDbLine
 10
8900.273075977976
 20
10061.79837366715
 30
0.0
 11
9000.273075977977
 21
10061.79837366715
 31
0.0
  0
LINE
  5
192B4
330
186B5
100
AcDbEntity
  8
寸法
 62
     0
 48
50.0
370
    -2
100
AcDbLine
 10
8845.27307597794
 20
10061.79837366715
 30
0.0
 11
8428.302513229462
 21
10061.79837366715
 31
0.0
  0
LINE
  5
192B5
330
186B5
100
AcDbEntity
  8
寸法
 62
     0
 48
50.0
370
    -2
100
AcDbLine
 10
8900.273075977976
 20
10061.79837366715
 30
0.0
 11
8845.27307597794
 21
10061.79837366715
 31
0.0
  0
INSERT
  5
192B6
330
186B5
100
AcDbEntity
  8
寸法
 62
     0
 48
50.0
370
    -2
100
AcDbBlockReference
  2
_DOTSMALL
 10
8900.273075977976
 20
10061.79837366715
 30
0.0
 41
100.0
 42
100.0
 43
100.0
 50
180.0
  0
INSERT
  5
192B7
330
186B5
100
AcDbEntity
  8
寸法
 62
     0
 48
50.0
370
    -2
100
AcDbBlockReference
  2
_DOTSMALL
 10
8845.27307597794
 20
10061.79837366715
 30
0.0
 41
100.0
 42
100.0
 43
100.0
  0
MTEXT
  5
192B8
330
186B5
100
AcDbEntity
  8
寸法
 62
     7
 48
50.0
100
AcDbMText
 10
8536.787794603702
 20
10161.79837366715
 30
0.0
 40
120.0
 41
0.0
 71
     5
 72
     1
  1
\A1;55
  7
STYLE1
 73
     1
 44
1.0
1001
ACAD
1000
MTEXTBEGIN
1070
    73
1070
     1
1070
    44
1040
1.0
1070
    74
1070
     0
1000
MTEXTEND
  0
POINT
  5
192B9
330
186B5
100
AcDbEntity
  8
DEFPOINTS
 62
     0
 48
50.0
100
AcDbPoint
 10
8845.27307597794
 20
9764.991346858945
 30
0.0
  0
POINT
  5
192BA
330
186B5
100
AcDbEntity
  8
DEFPOINTS
 62
     0
 48
50.0
100
AcDbPoint
 10
8900.273075977976
 20
9764.991346858945
 30
0.0
  0
POINT
  5
192BB
330
186B5
100
AcDbEntity
  8
DEFPOINTS
 62
     0
 48
50.0
100
AcDbPoint
 10
8900.273075977976
 20
10061.79837366715
 30
0.0
  0
ENDBLK
  5
186C2
330
186B5
100
AcDbEntity
  8
0
 48
50.0
100
AcDbBlockEnd
  0
BLOCK
  5
186CD
330
186C3
100
AcDbEntity
  8
0
 48
50.0
100
AcDbBlockBegin
  2
*D16
 70
     1
 10
0.0
 20
0.0
 30
0.0
  3
*D16
  1

  0
LINE
  5
18C09
330
186C3
100
AcDbEntity
  8
寸法
 62
     0
 48
50.0
370
    -2
100
AcDbLine
 10
5056.312729880414
 20
2390.395635910355
 30
0.0
 11
5056.312729880414
 21
2064.348306609979
 31
0.0
  0
LINE
  5
18C0A
330
186C3
100
AcDbEntity
  8
寸法
 62
     0
 48
50.0
370
    -2
100
AcDbLine
 10
4856.312729880418
 20
2390.395635910357
 30
0.0
 11
4856.312729880418
 21
2064.348306609979
 31
0.0
  0
LINE
  5
18C0B
330
186C3
100
AcDbEntity
  8
寸法
 62
     0
 48
50.0
370
    -2
100
AcDbLine
 10
5056.312729880414
 20
2124.348306609979
 30
0.0
 11
4856.312729880418
 21
2124.348306609979
 31
0.0
  0
INSERT
  5
18C0C
330
186C3
100
AcDbEntity
  8
寸法
 62
     0
 48
50.0
370
    -2
100
AcDbBlockReference
  2
_DOTSMALL
 10
5056.312729880414
 20
2124.348306609979
 30
0.0
 41
100.0
 42
100.0
 43
100.0
  0
INSERT
  5
18C0D
330
186C3
100
AcDbEntity
  8
寸法
 62
     0
 48
50.0
370
    -2
100
AcDbBlockReference
  2
_DOTSMALL
 10
4856.312729880418
 20
2124.348306609979
 30
0.0
 41
100.0
 42
100.0
 43
100.0
 50
180.0
  0
MTEXT
  5
18C0E
330
186C3
100
AcDbEntity
  8
寸法
 62
     7
 48
50.0
100
AcDbMText
 10
4956.312729880416
 20
2224.360117633601
 30
0.0
 40
120.0
 41
0.0
 71
     5
 72
     1
  1
\A1;200
  7
STYLE1
 73
     1
 44
1.0
1001
ACAD
1000
MTEXTBEGIN
1070
    73
1070
     1
1070
    44
1040
1.0
1070
    74
1070
     0
1000
MTEXTEND
  0
POINT
  5
18C0F
330
186C3
100
AcDbEntity
  8
DEFPOINTS
 62
     0
 48
50.0
100
AcDbPoint
 10
5056.312729880414
 20
2410.395635910355
 30
0.0
  0
POINT
  5
18C10
330
186C3
100
AcDbEntity
  8
DEFPOINTS
 62
     0
 48
50.0
100
AcDbPoint
 10
4856.312729880418
 20
2410.395635910357
 30
0.0
  0
POINT
  5
18C11
330
186C3
100
AcDbEntity
  8
DEFPOINTS
 62
     0
 48
50.0
100
AcDbPoint
 10
4856.312729880418
 20
2124.348306609979
 30
0.0
  0
ENDBLK
  5
186CE
330
186C3
100
AcDbEntity
  8
0
 48
50.0
100
AcDbBlockEnd
  0
BLOCK
  5
186D9
330
186CF
100
AcDbEntity
  8
0
 48
50.0
100
AcDbBlockBegin
  2
*D17
 70
     1
 10
0.0
 20
0.0
 30
0.0
  3
*D17
  1

  0
LINE
  5
18C00
330
186CF
100
AcDbEntity
  8
寸法
 62
     0
 48
50.0
370
    -2
100
AcDbLine
 10
4836.312729880417
 20
2410.395635910357
 30
0.0
 11
4646.812726633781
 21
2410.395635910357
 31
0.0
  0
LINE
  5
18C01
330
186CF
100
AcDbEntity
  8
寸法
 62
     0
 48
50.0
370
    -2
100
AcDbLine
 10
4811.312729880413
 20
2610.395635910358
 30
0.0
 11
4646.812726633781
 21
2610.395635910358
 31
0.0
  0
LINE
  5
18C02
330
186CF
100
AcDbEntity
  8
寸法
 62
     0
 48
50.0
370
    -2
100
AcDbLine
 10
4706.81272663378
 20
2410.395635910357
 30
0.0
 11
4706.81272663378
 21
2610.395635910358
 31
0.0
  0
INSERT
  5
18C03
330
186CF
100
AcDbEntity
  8
寸法
 62
     0
 48
50.0
370
    -2
100
AcDbBlockReference
  2
_DOTSMALL
 10
4706.81272663378
 20
2410.395635910357
 30
0.0
 41
100.0
 42
100.0
 43
100.0
 50
270.0
  0
INSERT
  5
18C04
330
186CF
100
AcDbEntity
  8
寸法
 62
     0
 48
50.0
370
    -2
100
AcDbBlockReference
  2
_DOTSMALL
 10
4706.81272663378
 20
2610.395635910358
 30
0.0
 41
100.0
 42
100.0
 43
100.0
 50
90.0
  0
MTEXT
  5
18C05
330
186CF
100
AcDbEntity
  8
寸法
 62
     7
 48
50.0
100
AcDbMText
 10
4606.800915610158
 20
2510.395635910358
 30
0.0
 40
120.0
 41
0.0
 71
     5
 72
     1
  1
\A1;200
  7
STYLE1
 11
0.0000000000000001
 21
1.0
 31
0.0
 73
     1
 44
1.0
1001
ACAD
1000
MTEXTBEGIN
1070
    73
1070
     1
1070
    44
1040
1.0
1070
    74
1070
     0
1000
MTEXTEND
  0
POINT
  5
18C06
330
186CF
100
AcDbEntity
  8
DEFPOINTS
 62
     0
 48
50.0
100
AcDbPoint
 10
4856.312729880418
 20
2410.395635910357
 30
0.0
  0
POINT
  5
18C07
330
186CF
100
AcDbEntity
  8
DEFPOINTS
 62
     0
 48
50.0
100
AcDbPoint
 10
4831.312729880414
 20
2610.395635910358
 30
0.0
  0
POINT
  5
18C08
330
186CF
100
AcDbEntity
  8
DEFPOINTS
 62
     0
 48
50.0
100
AcDbPoint
 10
4706.81272663378
 20
2610.395635910358
 30
0.0
  0
ENDBLK
  5
186DA
330
186CF
100
AcDbEntity
  8
0
 48
50.0
100
AcDbBlockEnd
  0
BLOCK
  5
186E5
330
186DB
100
AcDbEntity
  8
0
 48
50.0
100
AcDbBlockBegin
  2
*D18
 70
     1
 10
0.0
 20
0.0
 30
0.0
  3
*D18
  1

  0
LINE
  5
18BF7
330
186DB
100
AcDbEntity
  8
寸法
 62
     0
 48
50.0
370
    -2
100
AcDbLine
 10
8853.273075977968
 20
4793.395635910357
 30
0.0
 11
8514.067046765818
 21
4793.395635910357
 31
0.0
  0
LINE
  5
18BF8
330
186DB
100
AcDbEntity
  8
寸法
 62
     0
 48
50.0
370
    -2
100
AcDbLine
 10
8853.273075977968
 20
2768.395635910358
 30
0.0
 11
8514.067046765816
 21
2768.395635910358
 31
0.0
  0
LINE
  5
18BF9
330
186DB
100
AcDbEntity
  8
寸法
 62
     0
 48
50.0
370
    -2
100
AcDbLine
 10
8574.067046765819
 20
4793.395635910357
 30
0.0
 11
8574.067046765817
 21
2768.395635910358
 31
0.0
  0
INSERT
  5
18BFA
330
186DB
100
AcDbEntity
  8
寸法
 62
     0
 48
50.0
370
    -2
100
AcDbBlockReference
  2
_DOTSMALL
 10
8574.067046765819
 20
4793.395635910357
 30
0.0
 41
100.0
 42
100.0
 43
100.0
 50
90.0
  0
INSERT
  5
18BFB
330
186DB
100
AcDbEntity
  8
寸法
 62
     0
 48
50.0
370
    -2
100
AcDbBlockReference
  2
_DOTSMALL
 10
8574.067046765817
 20
2768.395635910358
 30
0.0
 41
100.0
 42
100.0
 43
100.0
 50
270.0
  0
MTEXT
  5
18BFC
330
186DB
100
AcDbEntity
  8
寸法
 62
     7
 48
50.0
100
AcDbMText
 10
8474.055235742195
 20
3780.895635910358
 30
0.0
 40
120.0
 41
0.0
 71
     5
 72
     1
  1
\A1;有効開口部高サ2025
  7
STYLE1
 11
0.0000000000000001
 21
1.0
 31
0.0
 73
     1
 44
1.0
1001
ACAD
1000
MTEXTBEGIN
1070
    73
1070
     1
1070
    44
1040
1.0
1070
    74
1070
     0
1000
MTEXTEND
  0
POINT
  5
18BFD
330
186DB
100
AcDbEntity
  8
DEFPOINTS
 62
     0
 48
50.0
100
AcDbPoint
 10
8873.273075977968
 20
4793.395635910357
 30
0.0
  0
POINT
  5
18BFE
330
186DB
100
AcDbEntity
  8
DEFPOINTS
 62
     0
 48
50.0
100
AcDbPoint
 10
8873.273075977968
 20
2768.395635910358
 30
0.0
  0
POINT
  5
18BFF
330
186DB
100
AcDbEntity
  8
DEFPOINTS
 62
     0
 48
50.0
100
AcDbPoint
 10
8574.067046765817
 20
2768.395635910358
 30
0.0
  0
ENDBLK
  5
186E6
330
186DB
100
AcDbEntity
  8
0
 48
50.0
100
AcDbBlockEnd
  0
BLOCK
  5
186F1
330
186E7
100
AcDbEntity
  8
0
 48
50.0
100
AcDbBlockBegin
  2
*D19
 70
     1
 10
0.0
 20
0.0
 30
0.0
  3
*D19
  1

  0
LINE
  5
18BEE
330
186E7
100
AcDbEntity
  8
寸法
 62
     0
 48
50.0
370
    -2
100
AcDbLine
 10
8945.273075977954
 20
2390.395635910356
 30
0.0
 11
8945.273075977954
 21
2064.34830660998
 31
0.0
  0
LINE
  5
18BEF
330
186E7
100
AcDbEntity
  8
寸法
 62
     0
 48
50.0
370
    -2
100
AcDbLine
 10
8745.273075977952
 20
2390.395635910356
 30
0.0
 11
8745.273075977952
 21
2064.34830660998
 31
0.0
  0
LINE
  5
18BF0
330
186E7
100
AcDbEntity
  8
寸法
 62
     0
 48
50.0
370
    -2
100
AcDbLine
 10
8945.273075977954
 20
2124.34830660998
 30
0.0
 11
8745.273075977952
 21
2124.34830660998
 31
0.0
  0
INSERT
  5
18BF1
330
186E7
100
AcDbEntity
  8
寸法
 62
     0
 48
50.0
370
    -2
100
AcDbBlockReference
  2
_DOTSMALL
 10
8945.273075977954
 20
2124.34830660998
 30
0.0
 41
100.0
 42
100.0
 43
100.0
  0
INSERT
  5
18BF2
330
186E7
100
AcDbEntity
  8
寸法
 62
     0
 48
50.0
370
    -2
100
AcDbBlockReference
  2
_DOTSMALL
 10
8745.273075977952
 20
2124.34830660998
 30
0.0
 41
100.0
 42
100.0
 43
100.0
 50
180.0
  0
MTEXT
  5
18BF3
330
186E7
100
AcDbEntity
  8
寸法
 62
     7
 48
50.0
100
AcDbMText
 10
8845.273075977951
 20
2224.360117633602
 30
0.0
 40
120.0
 41
0.0
 71
     5
 72
     1
  1
\A1;200
  7
STYLE1
 73
     1
 44
1.0
1001
ACAD
1000
MTEXTBEGIN
1070
    73
1070
     1
1070
    44
1040
1.0
1070
    74
1070
     0
1000
MTEXTEND
  0
POINT
  5
18BF4
330
186E7
100
AcDbEntity
  8
DEFPOINTS
 62
     0
 48
50.0
100
AcDbPoint
 10
8945.273075977954
 20
2410.395635910356
 30
0.0
  0
POINT
  5
18BF5
330
186E7
100
AcDbEntity
  8
DEFPOINTS
 62
     0
 48
50.0
100
AcDbPoint
 10
8745.273075977952
 20
2410.395635910356
 30
0.0
  0
POINT
  5
18BF6
330
186E7
100
AcDbEntity
  8
DEFPOINTS
 62
     0
 48
50.0
100
AcDbPoint
 10
8745.273075977952
 20
2124.34830660998
 30
0.0
  0
ENDBLK
  5
186F2
330
186E7
100
AcDbEntity
  8
0
 48
50.0
100
AcDbBlockEnd
  0
BLOCK
  5
186FD
330
186F3
100
AcDbEntity
  8
0
 48
50.0
100
AcDbBlockBegin
  2
*D20
 70
     1
 10
0.0
 20
0.0
 30
0.0
  3
*D20
  1

  0
LINE
  5
18BE5
330
186F3
100
AcDbEntity
  8
寸法
 62
     0
 48
50.0
370
    -2
100
AcDbLine
 10
10635.27307597795
 20
5052.206315522011
 30
0.0
 11
10635.27307597795
 21
5544.48880524983
 31
0.0
  0
LINE
  5
18BE6
330
186F3
100
AcDbEntity
  8
寸法
 62
     0
 48
50.0
370
    -2
100
AcDbLine
 10
8845.273075977955
 20
5101.397254033334
 30
0.0
 11
8845.273075977955
 21
5544.48880524983
 31
0.0
  0
LINE
  5
18BE7
330
186F3
100
AcDbEntity
  8
寸法
 62
     0
 48
50.0
370
    -2
100
AcDbLine
 10
10635.27307597795
 20
5484.488805249831
 30
0.0
 11
8845.273075977955
 21
5484.488805249831
 31
0.0
  0
INSERT
  5
18BE8
330
186F3
100
AcDbEntity
  8
寸法
 62
     0
 48
50.0
370
    -2
100
AcDbBlockReference
  2
_DOTSMALL
 10
10635.27307597795
 20
5484.488805249831
 30
0.0
 41
100.0
 42
100.0
 43
100.0
  0
INSERT
  5
18BE9
330
186F3
100
AcDbEntity
  8
寸法
 62
     0
 48
50.0
370
    -2
100
AcDbBlockReference
  2
_DOTSMALL
 10
8845.273075977955
 20
5484.488805249831
 30
0.0
 41
100.0
 42
100.0
 43
100.0
 50
180.0
  0
MTEXT
  5
18BEA
330
186F3
100
AcDbEntity
  8
寸法
 62
     7
 48
50.0
100
AcDbMText
 10
9754.868724654436
 20
5584.488805249831
 30
0.0
 40
120.0
 41
0.0
 71
     5
 72
     1
  1
\A1;柱外寸法1790
  7
STYLE1
 73
     1
 44
1.0
1001
ACAD
1000
MTEXTBEGIN
1070
    73
1070
     1
1070
    44
1040
1.0
1070
    74
1070
     0
1000
MTEXTEND
  0
POINT
  5
18BEB
330
186F3
100
AcDbEntity
  8
DEFPOINTS
 62
     0
 48
50.0
100
AcDbPoint
 10
10635.27307597795
 20
5032.206315522011
 30
0.0
  0
POINT
  5
18BEC
330
186F3
100
AcDbEntity
  8
DEFPOINTS
 62
     0
 48
50.0
100
AcDbPoint
 10
8845.273075977955
 20
5081.397254033334
 30
0.0
  0
POINT
  5
18BED
330
186F3
100
AcDbEntity
  8
DEFPOINTS
 62
     0
 48
50.0
100
AcDbPoint
 10
8845.273075977955
 20
5484.488805249831
 30
0.0
  0
ENDBLK
  5
186FE
330
186F3
100
AcDbEntity
  8
0
 48
50.0
100
AcDbBlockEnd
  0
BLOCK
  5
1870B
330
186FF
100
AcDbEntity
  8
0
 48
50.0
100
AcDbBlockBegin
  2
*D21
 70
     1
 10
0.0
 20
0.0
 30
0.0
  3
*D21
  1

  0
LINE
  5
18BDA
330
186FF
100
AcDbEntity
  8
寸法
 62
     0
 48
50.0
370
    -2
100
AcDbLine
 10
8845.273075977955
 20
5101.397254033334
 30
0.0
 11
8845.273075977955
 21
5544.48880524983
 31
0.0
  0
LINE
  5
18BDB
330
186FF
100
AcDbEntity
  8
寸法
 62
     0
 48
50.0
370
    -2
100
AcDbLine
 10
8785.273075977954
 20
5105.395635910362
 30
0.0
 11
8785.273075977954
 21
5544.48880524983
 31
0.0
  0
LINE
  5
18BDC
330
186FF
100
AcDbEntity
  8
寸法
 62
     0
 48
50.0
370
    -2
100
AcDbLine
 10
8845.273075977955
 20
5484.488805249831
 30
0.0
 11
8945.273075977956
 21
5484.488805249831
 31
0.0
  0
LINE
  5
18BDD
330
186FF
100
AcDbEntity
  8
寸法
 62
     0
 48
50.0
370
    -2
100
AcDbLine
 10
8785.273075977954
 20
5484.488805249831
 30
0.0
 11
8365.997485426774
 21
5484.488805249831
 31
0.0
  0
LINE
  5
18BDE
330
186FF
100
AcDbEntity
  8
寸法
 62
     0
 48
50.0
370
    -2
100
AcDbLine
 10
8845.273075977955
 20
5484.488805249831
 30
0.0
 11
8785.273075977954
 21
5484.488805249831
 31
0.0
  0
INSERT
  5
18BDF
330
186FF
100
AcDbEntity
  8
寸法
 62
     0
 48
50.0
370
    -2
100
AcDbBlockReference
  2
_DOTSMALL
 10
8845.273075977955
 20
5484.488805249831
 30
0.0
 41
100.0
 42
100.0
 43
100.0
 50
180.0
  0
INSERT
  5
18BE0
330
186FF
100
AcDbEntity
  8
寸法
 62
     0
 48
50.0
370
    -2
100
AcDbBlockReference
  2
_DOTSMALL
 10
8785.273075977954
 20
5484.488805249831
 30
0.0
 41
100.0
 42
100.0
 43
100.0
  0
MTEXT
  5
18BE1
330
186FF
100
AcDbEntity
  8
寸法
 62
     7
 48
50.0
100
AcDbMText
 10
8475.635280702364
 20
5584.488805249831
 30
0.0
 40
120.0
 41
0.0
 71
     5
 72
     1
  1
\A1;60
  7
STYLE1
 73
     1
 44
1.0
1001
ACAD
1000
MTEXTBEGIN
1070
    73
1070
     1
1070
    44
1040
1.0
1070
    74
1070
     0
1000
MTEXTEND
  0
POINT
  5
18BE2
330
186FF
100
AcDbEntity
  8
DEFPOINTS
 62
     0
 48
50.0
100
AcDbPoint
 10
8845.273075977955
 20
5081.397254033334
 30
0.0
  0
POINT
  5
18BE3
330
186FF
100
AcDbEntity
  8
DEFPOINTS
 62
     0
 48
50.0
100
AcDbPoint
 10
8785.273075977954
 20
5085.395635910362
 30
0.0
  0
POINT
  5
18BE4
330
186FF
100
AcDbEntity
  8
DEFPOINTS
 62
     0
 48
50.0
100
AcDbPoint
 10
8785.273075977954
 20
5484.488805249831
 30
0.0
  0
ENDBLK
  5
1870C
330
186FF
100
AcDbEntity
  8
0
 48
50.0
100
AcDbBlockEnd
  0
BLOCK
  5
18717
330
1870D
100
AcDbEntity
  8
0
 48
50.0
100
AcDbBlockBegin
  2
*D22
 70
     1
 10
0.0
 20
0.0
 30
0.0
  3
*D22
  1

  0
LINE
  5
18BD1
330
1870D
100
AcDbEntity
  8
寸法
 62
     0
 48
50.0
370
    -2
100
AcDbLine
 10
10715.27307597795
 20
5050.395635910359
 30
0.0
 11
10715.27307597795
 21
5761.014904868276
 31
0.0
  0
LINE
  5
18BD2
330
1870D
100
AcDbEntity
  8
寸法
 62
     0
 48
50.0
370
    -2
100
AcDbLine
 10
8785.273075977954
 20
5105.395635910362
 30
0.0
 11
8785.273075977954
 21
5761.014904868276
 31
0.0
  0
LINE
  5
18BD3
330
1870D
100
AcDbEntity
  8
寸法
 62
     0
 48
50.0
370
    -2
100
AcDbLine
 10
10715.27307597795
 20
5701.014904868277
 30
0.0
 11
8785.273075977954
 21
5701.014904868277
 31
0.0
  0
INSERT
  5
18BD4
330
1870D
100
AcDbEntity
  8
寸法
 62
     0
 48
50.0
370
    -2
100
AcDbBlockReference
  2
_DOTSMALL
 10
10715.27307597795
 20
5701.014904868277
 30
0.0
 41
100.0
 42
100.0
 43
100.0
  0
INSERT
  5
18BD5
330
1870D
100
AcDbEntity
  8
寸法
 62
     0
 48
50.0
370
    -2
100
AcDbBlockReference
  2
_DOTSMALL
 10
8785.273075977954
 20
5701.014904868277
 30
0.0
 41
100.0
 42
100.0
 43
100.0
 50
180.0
  0
MTEXT
  5
18BD6
330
1870D
100
AcDbEntity
  8
寸法
 62
     7
 48
50.0
100
AcDbMText
 10
9691.078827228922
 20
5801.014904868276
 30
0.0
 40
120.0
 41
0.0
 71
     5
 72
     1
  1
\A1;1930
  7
STYLE1
 73
     1
 44
1.0
1001
ACAD
1000
MTEXTBEGIN
1070
    73
1070
     1
1070
    44
1040
1.0
1070
    74
1070
     0
1000
MTEXTEND
  0
POINT
  5
18BD7
330
1870D
100
AcDbEntity
  8
DEFPOINTS
 62
     0
 48
50.0
100
AcDbPoint
 10
10715.27307597795
 20
5030.395635910359
 30
0.0
  0
POINT
  5
18BD8
330
1870D
100
AcDbEntity
  8
DEFPOINTS
 62
     0
 48
50.0
100
AcDbPoint
 10
8785.273075977954
 20
5085.395635910362
 30
0.0
  0
POINT
  5
18BD9
330
1870D
100
AcDbEntity
  8
DEFPOINTS
 62
     0
 48
50.0
100
AcDbPoint
 10
8785.273075977954
 20
5701.014904868277
 30
0.0
  0
ENDBLK
  5
18718
330
1870D
100
AcDbEntity
  8
0
 48
50.0
100
AcDbBlockEnd
  0
BLOCK
  5
18724
330
18719
100
AcDbEntity
  8
0
 48
50.0
100
AcDbBlockBegin
  2
*D23
 70
     1
 10
0.0
 20
0.0
 30
0.0
  3
*D23
  1

  0
LINE
  5
18BC7
330
18719
100
AcDbEntity
  8
寸法
 62
     0
 48
50.0
370
    -2
100
AcDbLine
 10
10635.27307597795
 20
5052.206315522011
 30
0.0
 11
10635.27307597795
 21
5544.48880524983
 31
0.0
  0
LINE
  5
18BC8
330
18719
100
AcDbEntity
  8
寸法
 62
     0
 48
50.0
370
    -2
100
AcDbLine
 10
10715.27307597795
 20
5050.395635910359
 30
0.0
 11
10715.27307597795
 21
5544.48880524983
 31
0.0
  0
LINE
  5
18BC9
330
18719
100
AcDbEntity
  8
寸法
 62
     0
 48
50.0
370
    -2
100
AcDbLine
 10
10635.27307597795
 20
5484.488805249831
 30
0.0
 11
10715.27307597795
 21
5484.488805249831
 31
0.0
  0
LINE
  5
18BCA
330
18719
100
AcDbEntity
  8
寸法
 62
     0
 48
50.0
370
    -2
100
AcDbLine
 10
10715.27307597795
 20
5484.488805249831
 30
0.0
 11
11027.36756416693
 21
5484.488805249831
 31
0.0
  0
INSERT
  5
18BCB
330
18719
100
AcDbEntity
  8
寸法
 62
     0
 48
50.0
370
    -2
100
AcDbBlockReference
  2
_DOTSMALL
 10
10635.27307597795
 20
5484.488805249831
 30
0.0
 41
100.0
 42
100.0
 43
100.0
 50
180.0
  0
INSERT
  5
18BCC
330
18719
100
AcDbEntity
  8
寸法
 62
     0
 48
50.0
370
    -2
100
AcDbBlockReference
  2
_DOTSMALL
 10
10715.27307597795
 20
5484.488805249831
 30
0.0
 41
100.0
 42
100.0
 43
100.0
  0
MTEXT
  5
18BCD
330
18719
100
AcDbEntity
  8
寸法
 62
     7
 48
50.0
100
AcDbMText
 10
10921.32032007244
 20
5584.488805249831
 30
0.0
 40
120.0
 41
0.0
 71
     5
 72
     1
  1
\A1;80
  7
STYLE1
 73
     1
 44
1.0
1001
ACAD
1000
MTEXTBEGIN
1070
    73
1070
     1
1070
    44
1040
1.0
1070
    74
1070
     0
1000
MTEXTEND
  0
POINT
  5
18BCE
330
18719
100
AcDbEntity
  8
DEFPOINTS
 62
     0
 48
50.0
100
AcDbPoint
 10
10635.27307597795
 20
5032.206315522011
 30
0.0
  0
POINT
  5
18BCF
330
18719
100
AcDbEntity
  8
DEFPOINTS
 62
     0
 48
50.0
100
AcDbPoint
 10
10715.27307597795
 20
5030.395635910359
 30
0.0
  0
POINT
  5
18BD0
330
18719
100
AcDbEntity
  8
DEFPOINTS
 62
     0
 48
50.0
100
AcDbPoint
 10
10715.27307597795
 20
5484.488805249831
 30
0.0
  0
ENDBLK
  5
18725
330
18719
100
AcDbEntity
  8
0
 48
50.0
100
AcDbBlockEnd
  0
BLOCK
  5
18730
330
18726
100
AcDbEntity
  8
0
 48
50.0
100
AcDbBlockBegin
  2
*D24
 70
     1
 10
0.0
 20
0.0
 30
0.0
  3
*D24
  1

  0
LINE
  5
18BBE
330
18726
100
AcDbEntity
  8
寸法
 62
     0
 48
50.0
370
    -2
100
AcDbLine
 10
8825.273075977952
 20
2710.395635910358
 30
0.0
 11
7876.633694048594
 21
2710.395635910358
 31
0.0
  0
LINE
  5
18BBF
330
18726
100
AcDbEntity
  8
寸法
 62
     0
 48
50.0
370
    -2
100
AcDbLine
 10
8765.273075977951
 20
5085.395635910362
 30
0.0
 11
7876.633694048594
 21
5085.395635910362
 31
0.0
  0
LINE
  5
18BC0
330
18726
100
AcDbEntity
  8
寸法
 62
     0
 48
50.0
370
    -2
100
AcDbLine
 10
7936.633694048595
 20
2710.395635910358
 30
0.0
 11
7936.633694048595
 21
5085.395635910362
 31
0.0
  0
INSERT
  5
18BC1
330
18726
100
AcDbEntity
  8
寸法
 62
     0
 48
50.0
370
    -2
100
AcDbBlockReference
  2
_DOTSMALL
 10
7936.633694048595
 20
2710.395635910358
 30
0.0
 41
100.0
 42
100.0
 43
100.0
 50
270.0
  0
INSERT
  5
18BC2
330
18726
100
AcDbEntity
  8
寸法
 62
     0
 48
50.0
370
    -2
100
AcDbBlockReference
  2
_DOTSMALL
 10
7936.633694048595
 20
5085.395635910362
 30
0.0
 41
100.0
 42
100.0
 43
100.0
 50
90.0
  0
MTEXT
  5
18BC3
330
18726
100
AcDbEntity
  8
寸法
 62
     7
 48
50.0
100
AcDbMText
 10
7836.621883024972
 20
3780.895635910358
 30
0.0
 40
120.0
 41
0.0
 71
     5
 72
     1
  1
\A1;2375
  7
STYLE1
 11
0.0000000000000001
 21
1.0
 31
0.0
 73
     1
 44
1.0
1001
ACAD
1000
MTEXTBEGIN
1070
    73
1070
     1
1070
    44
1040
1.0
1070
    74
1070
     0
1000
MTEXTEND
  0
POINT
  5
18BC4
330
18726
100
AcDbEntity
  8
DEFPOINTS
 62
     0
 48
50.0
100
AcDbPoint
 10
8845.273075977951
 20
2710.395635910358
 30
0.0
  0
POINT
  5
18BC5
330
18726
100
AcDbEntity
  8
DEFPOINTS
 62
     0
 48
50.0
100
AcDbPoint
 10
8785.273075977952
 20
5085.395635910362
 30
0.0
  0
POINT
  5
18BC6
330
18726
100
AcDbEntity
  8
DEFPOINTS
 62
     0
 48
50.0
100
AcDbPoint
 10
7936.633694048595
 20
5085.395635910362
 30
0.0
  0
ENDBLK
  5
18731
330
18726
100
AcDbEntity
  8
0
 48
50.0
100
AcDbBlockEnd
  0
BLOCK
  5
1873C
330
18732
100
AcDbEntity
  8
0
 48
50.0
100
AcDbBlockBegin
  2
*D25
 70
     1
 10
0.0
 20
0.0
 30
0.0
  3
*D25
  1

  0
LINE
  5
18BB5
330
18732
100
AcDbEntity
  8
寸法
 62
     0
 48
50.0
370
    -2
100
AcDbLine
 10
8825.273075977952
 20
4850.395635910357
 30
0.0
 11
8161.620366819654
 21
4850.395635910357
 31
0.0
  0
LINE
  5
18BB6
330
18732
100
AcDbEntity
  8
寸法
 62
     0
 48
50.0
370
    -2
100
AcDbLine
 10
8825.273075977952
 20
2760.395635910358
 30
0.0
 11
8161.620366819654
 21
2760.395635910358
 31
0.0
  0
LINE
  5
18BB7
330
18732
100
AcDbEntity
  8
寸法
 62
     0
 48
50.0
370
    -2
100
AcDbLine
 10
8221.620366819655
 20
4850.395635910357
 30
0.0
 11
8221.620366819655
 21
2760.395635910358
 31
0.0
  0
INSERT
  5
18BB8
330
18732
100
AcDbEntity
  8
寸法
 62
     0
 48
50.0
370
    -2
100
AcDbBlockReference
  2
_DOTSMALL
 10
8221.620366819655
 20
4850.395635910357
 30
0.0
 41
100.0
 42
100.0
 43
100.0
 50
90.0
  0
INSERT
  5
18BB9
330
18732
100
AcDbEntity
  8
寸法
 62
     0
 48
50.0
370
    -2
100
AcDbBlockReference
  2
_DOTSMALL
 10
8221.620366819655
 20
2760.395635910358
 30
0.0
 41
100.0
 42
100.0
 43
100.0
 50
270.0
  0
MTEXT
  5
18BBA
330
18732
100
AcDbEntity
  8
寸法
 62
     7
 48
50.0
100
AcDbMText
 10
8121.608555796033
 20
3780.895635910358
 30
0.0
 40
120.0
 41
0.0
 71
     5
 72
     1
  1
\A1;2090
  7
STYLE1
 11
0.0000000000000001
 21
1.0
 31
0.0
 73
     1
 44
1.0
1001
ACAD
1000
MTEXTBEGIN
1070
    73
1070
     1
1070
    44
1040
1.0
1070
    74
1070
     0
1000
MTEXTEND
  0
POINT
  5
18BBB
330
18732
100
AcDbEntity
  8
DEFPOINTS
 62
     0
 48
50.0
100
AcDbPoint
 10
8845.273075977951
 20
4850.395635910357
 30
0.0
  0
POINT
  5
18BBC
330
18732
100
AcDbEntity
  8
DEFPOINTS
 62
     0
 48
50.0
100
AcDbPoint
 10
8845.273075977951
 20
2760.395635910358
 30
0.0
  0
POINT
  5
18BBD
330
18732
100
AcDbEntity
  8
DEFPOINTS
 62
     0
 48
50.0
100
AcDbPoint
 10
8221.620366819655
 20
2760.395635910358
 30
0.0
  0
ENDBLK
  5
1873D
330
18732
100
AcDbEntity
  8
0
 48
50.0
100
AcDbBlockEnd
  0
BLOCK
  5
1874A
330
1873E
100
AcDbEntity
  8
0
 48
50.0
100
AcDbBlockBegin
  2
*D26
 70
     1
 10
0.0
 20
0.0
 30
0.0
  3
*D26
  1

  0
LINE
  5
18BAA
330
1873E
100
AcDbEntity
  8
寸法
 62
     0
 48
50.0
370
    -2
100
AcDbLine
 10
8825.273075977952
 20
2760.395635910358
 30
0.0
 11
8161.620366819654
 21
2760.395635910358
 31
0.0
  0
LINE
  5
18BAB
330
1873E
100
AcDbEntity
  8
寸法
 62
     0
 48
50.0
370
    -2
100
AcDbLine
 10
8770.273075977952
 20
2710.395635910358
 30
0.0
 11
8161.620366819654
 21
2710.395635910358
 31
0.0
  0
LINE
  5
18BAC
330
1873E
100
AcDbEntity
  8
寸法
 62
     0
 48
50.0
370
    -2
100
AcDbLine
 10
8221.620366819655
 20
2760.395635910358
 30
0.0
 11
8221.620366819655
 21
2860.395635910358
 31
0.0
  0
LINE
  5
18BAD
330
1873E
100
AcDbEntity
  8
寸法
 62
     0
 48
50.0
370
    -2
100
AcDbLine
 10
8221.620366819655
 20
2710.395635910358
 30
0.0
 11
8221.620366819655
 21
2298.301147721378
 31
0.0
  0
LINE
  5
18BAE
330
1873E
100
AcDbEntity
  8
寸法
 62
     0
 48
50.0
370
    -2
100
AcDbLine
 10
8221.620366819655
 20
2760.395635910358
 30
0.0
 11
8221.620366819655
 21
2710.395635910358
 31
0.0
  0
INSERT
  5
18BAF
330
1873E
100
AcDbEntity
  8
寸法
 62
     0
 48
50.0
370
    -2
100
AcDbBlockReference
  2
_DOTSMALL
 10
8221.620366819655
 20
2760.395635910358
 30
0.0
 41
100.0
 42
100.0
 43
100.0
 50
270.0
  0
INSERT
  5
18BB0
330
1873E
100
AcDbEntity
  8
寸法
 62
     0
 48
50.0
370
    -2
100
AcDbBlockReference
  2
_DOTSMALL
 10
8221.620366819655
 20
2710.395635910358
 30
0.0
 41
100.0
 42
100.0
 43
100.0
 50
90.0
  0
MTEXT
  5
18BB1
330
1873E
100
AcDbEntity
  8
寸法
 62
     7
 48
50.0
100
AcDbMText
 10
8121.620366819653
 20
2404.348391815867
 30
0.0
 40
120.0
 41
0.0
 71
     5
 72
     1
  1
\A1;50
  7
STYLE1
 11
0.0000000000000001
 21
1.0
 31
0.0
 73
     1
 44
1.0
1001
ACAD
1000
MTEXTBEGIN
1070
    73
1070
     1
1070
    44
1040
1.0
1070
    74
1070
     0
1000
MTEXTEND
  0
POINT
  5
18BB2
330
1873E
100
AcDbEntity
  8
DEFPOINTS
 62
     0
 48
50.0
100
AcDbPoint
 10
8845.273075977951
 20
2760.395635910358
 30
0.0
  0
POINT
  5
18BB3
330
1873E
100
AcDbEntity
  8
DEFPOINTS
 62
     0
 48
50.0
100
AcDbPoint
 10
8790.273075977951
 20
2710.395635910358
 30
0.0
  0
POINT
  5
18BB4
330
1873E
100
AcDbEntity
  8
DEFPOINTS
 62
     0
 48
50.0
100
AcDbPoint
 10
8221.620366819655
 20
2710.395635910358
 30
0.0
  0
ENDBLK
  5
1874B
330
1873E
100
AcDbEntity
  8
0
 48
50.0
100
AcDbBlockEnd
  0
BLOCK
  5
18757
330
1874C
100
AcDbEntity
  8
0
 48
50.0
100
AcDbBlockBegin
  2
*D27
 70
     1
 10
0.0
 20
0.0
 30
0.0
  3
*D27
  1

  0
LINE
  5
18BA0
330
1874C
100
AcDbEntity
  8
寸法
 62
     0
 48
50.0
370
    -2
100
AcDbLine
 10
8770.273075977952
 20
2710.395635910358
 30
0.0
 11
7876.633694048594
 21
2710.395635910358
 31
0.0
  0
LINE
  5
18BA1
330
1874C
100
AcDbEntity
  8
寸法
 62
     0
 48
50.0
370
    -2
100
AcDbLine
 10
8201.620366819653
 20
2610.395635910358
 30
0.0
 11
7876.633694048594
 21
2610.395635910358
 31
0.0
  0
LINE
  5
18BA2
330
1874C
100
AcDbEntity
  8
寸法
 62
     0
 48
50.0
370
    -2
100
AcDbLine
 10
7936.633694048594
 20
2710.395635910358
 30
0.0
 11
7936.633694048594
 21
2610.395635910358
 31
0.0
  0
LINE
  5
18BA3
330
1874C
100
AcDbEntity
  8
寸法
 62
     0
 48
50.0
370
    -2
100
AcDbLine
 10
7936.633694048594
 20
2610.395635910358
 30
0.0
 11
7936.633694048594
 21
2238.301147721378
 31
0.0
  0
INSERT
  5
18BA4
330
1874C
100
AcDbEntity
  8
寸法
 62
     0
 48
50.0
370
    -2
100
AcDbBlockReference
  2
_DOTSMALL
 10
7936.633694048594
 20
2710.395635910358
 30
0.0
 41
100.0
 42
100.0
 43
100.0
 50
90.0
  0
INSERT
  5
18BA5
330
1874C
100
AcDbEntity
  8
寸法
 62
     0
 48
50.0
370
    -2
100
AcDbBlockReference
  2
_DOTSMALL
 10
7936.633694048594
 20
2610.395635910358
 30
0.0
 41
100.0
 42
100.0
 43
100.0
 50
270.0
  0
MTEXT
  5
18BA6
330
1874C
100
AcDbEntity
  8
寸法
 62
     7
 48
50.0
100
AcDbMText
 10
7836.633694048592
 20
2374.348391815868
 30
0.0
 40
120.0
 41
0.0
 71
     5
 72
     1
  1
\A1;100
  7
STYLE1
 11
0.0000000000000001
 21
1.0
 31
0.0
 73
     1
 44
1.0
1001
ACAD
1000
MTEXTBEGIN
1070
    73
1070
     1
1070
    44
1040
1.0
1070
    74
1070
     0
1000
MTEXTEND
  0
POINT
  5
18BA7
330
1874C
100
AcDbEntity
  8
DEFPOINTS
 62
     0
 48
50.0
100
AcDbPoint
 10
8790.273075977951
 20
2710.395635910358
 30
0.0
  0
POINT
  5
18BA8
330
1874C
100
AcDbEntity
  8
DEFPOINTS
 62
     0
 48
50.0
100
AcDbPoint
 10
8221.620366819655
 20
2610.395635910358
 30
0.0
  0
POINT
  5
18BA9
330
1874C
100
AcDbEntity
  8
DEFPOINTS
 62
     0
 48
50.0
100
AcDbPoint
 10
7936.633694048594
 20
2610.395635910358
 30
0.0
  0
ENDBLK
  5
18758
330
1874C
100
AcDbEntity
  8
0
 48
50.0
100
AcDbBlockEnd
  0
BLOCK
  5
18763
330
18759
100
AcDbEntity
  8
0
 48
50.0
100
AcDbBlockBegin
  2
*D28
 70
     1
 10
0.0
 20
0.0
 30
0.0
  3
*D28
  1

  0
LINE
  5
18B97
330
18759
100
AcDbEntity
  8
寸法
 62
     0
 48
50.0
370
    -2
100
AcDbLine
 10
10655.27307597795
 20
2710.395635910358
 30
0.0
 11
11224.43788464915
 21
2710.395635910358
 31
0.0
  0
LINE
  5
18B98
330
18759
100
AcDbEntity
  8
寸法
 62
     0
 48
50.0
370
    -2
100
AcDbLine
 10
10735.27307597793
 20
5030.395635910359
 30
0.0
 11
11224.43788464915
 21
5030.395635910359
 31
0.0
  0
LINE
  5
18B99
330
18759
100
AcDbEntity
  8
寸法
 62
     0
 48
50.0
370
    -2
100
AcDbLine
 10
11164.43788464915
 20
2710.395635910358
 30
0.0
 11
11164.43788464915
 21
5030.395635910359
 31
0.0
  0
INSERT
  5
18B9A
330
18759
100
AcDbEntity
  8
寸法
 62
     0
 48
50.0
370
    -2
100
AcDbBlockReference
  2
_DOTSMALL
 10
11164.43788464915
 20
2710.395635910358
 30
0.0
 41
100.0
 42
100.0
 43
100.0
 50
270.0
  0
INSERT
  5
18B9B
330
18759
100
AcDbEntity
  8
寸法
 62
     0
 48
50.0
370
    -2
100
AcDbBlockReference
  2
_DOTSMALL
 10
11164.43788464915
 20
5030.395635910359
 30
0.0
 41
100.0
 42
100.0
 43
100.0
 50
90.0
  0
MTEXT
  5
18B9C
330
18759
100
AcDbEntity
  8
寸法
 62
     7
 48
50.0
100
AcDbMText
 10
11064.42607362553
 20
3863.147539516205
 30
0.0
 40
120.0
 41
0.0
 71
     5
 72
     1
  1
\A1;2320
  7
STYLE1
 11
0.0000000000000001
 21
1.0
 31
0.0
 73
     1
 44
1.0
1001
ACAD
1000
MTEXTBEGIN
1070
    73
1070
     1
1070
    44
1040
1.0
1070
    74
1070
     0
1000
MTEXTEND
  0
POINT
  5
18B9D
330
18759
100
AcDbEntity
  8
DEFPOINTS
 62
     0
 48
50.0
100
AcDbPoint
 10
10635.27307597795
 20
2710.395635910358
 30
0.0
  0
POINT
  5
18B9E
330
18759
100
AcDbEntity
  8
DEFPOINTS
 62
     0
 48
50.0
100
AcDbPoint
 10
10715.27307597793
 20
5030.395635910359
 30
0.0
  0
POINT
  5
18B9F
330
18759
100
AcDbEntity
  8
DEFPOINTS
 62
     0
 48
50.0
100
AcDbPoint
 10
11164.43788464915
 20
5030.395635910359
 30
0.0
  0
ENDBLK
  5
18764
330
18759
100
AcDbEntity
  8
0
 48
50.0
100
AcDbBlockEnd
  0
BLOCK
  5
18E57
330
18E4D
100
AcDbEntity
  8
0
 48
50.0
100
AcDbBlockBegin
  2
*D29
 70
     1
 10
0.0
 20
0.0
 30
0.0
  3
*D29
  1

  0
LINE
  5
192A8
330
18E4D
100
AcDbEntity
  8
寸法
 62
     0
 48
50.0
370
    -2
100
AcDbLine
 10
8912.273075977941
 20
7877.991346858872
 30
0.0
 11
8912.273075977941
 21
7232.916328810647
 31
0.0
  0
LINE
  5
192A9
330
18E4D
100
AcDbEntity
  8
寸法
 62
     0
 48
50.0
370
    -2
100
AcDbLine
 10
9862.273075977942
 20
7877.991346858872
 30
0.0
 11
9862.273075977942
 21
7232.916328810647
 31
0.0
  0
LINE
  5
192AA
330
18E4D
100
AcDbEntity
  8
寸法
 62
     0
 48
50.0
370
    -2
100
AcDbLine
 10
8932.27307597794
 20
7272.916328810646
 30
0.0
 11
9842.273075977942
 21
7272.916328810646
 31
0.0
  0
INSERT
  5
192AB
330
18E4D
100
AcDbEntity
  8
寸法
 62
     0
 48
50.0
370
    -2
100
AcDbBlockReference
  2
_DOT
 10
8912.273075977941
 20
7272.916328810646
 30
0.0
 41
20.0
 42
20.0
 43
20.0
 50
180.0
  0
INSERT
  5
192AC
330
18E4D
100
AcDbEntity
  8
寸法
 62
     0
 48
50.0
370
    -2
100
AcDbBlockReference
  2
_DOT
 10
9862.273075977942
 20
7272.916328810646
 30
0.0
 41
20.0
 42
20.0
 43
20.0
  0
MTEXT
  5
192AD
330
18E4D
100
AcDbEntity
  8
寸法
 62
     7
 48
50.0
100
AcDbMText
 10
9387.27307597794
 20
7464.916328810646
 30
0.0
 40
120.0
 41
0.0
 71
     5
 72
     1
  1
\A1;有効開口部間口\P950
  7
STYLE1
 73
     1
 44
1.0
1001
ACAD
1000
MTEXTBEGIN
1070
    73
1070
     1
1070
    44
1040
1.0
1070
    74
1070
     0
1000
MTEXTEND
  0
POINT
  5
192AE
330
18E4D
100
AcDbEntity
  8
DEFPOINTS
 62
     0
 48
50.0
100
AcDbPoint
 10
8912.273075977941
 20
7897.991346858872
 30
0.0
  0
POINT
  5
192AF
330
18E4D
100
AcDbEntity
  8
DEFPOINTS
 62
     0
 48
50.0
100
AcDbPoint
 10
9862.273075977942
 20
7897.991346858872
 30
0.0
  0
POINT
  5
192B0
330
18E4D
100
AcDbEntity
  8
DEFPOINTS
 62
     0
 48
50.0
100
AcDbPoint
 10
9862.273075977942
 20
7272.916328810646
 30
0.0
  0
ENDBLK
  5
18E58
330
18E4D
100
AcDbEntity
  8
0
 48
50.0
100
AcDbBlockEnd
  0
BLOCK
  5
1913E
330
19134
100
AcDbEntity
  8
0
 48
50.0
100
AcDbBlockBegin
  2
*D30
 70
     1
 10
0.0
 20
0.0
 30
0.0
  3
*D30
  1

  0
LINE
  5
1929F
330
19134
100
AcDbEntity
  8
寸法
 62
     0
 48
50.0
370
    -2
100
AcDbLine
 10
8845.273075977969
 20
7954.9913468589
 30
0.0
 11
8845.273075977969
 21
6723.163556113998
 31
0.0
  0
LINE
  5
192A0
330
19134
100
AcDbEntity
  8
寸法
 62
     0
 48
50.0
370
    -2
100
AcDbLine
 10
10635.27307597795
 20
7954.991346859029
 30
0.0
 11
10635.27307597795
 21
6723.163556113998
 31
0.0
  0
LINE
  5
192A1
330
19134
100
AcDbEntity
  8
寸法
 62
     0
 48
50.0
370
    -2
100
AcDbLine
 10
8845.273075977969
 20
6783.163556113997
 30
0.0
 11
10635.27307597795
 21
6783.163556113997
 31
0.0
  0
INSERT
  5
192A2
330
19134
100
AcDbEntity
  8
寸法
 62
     0
 48
50.0
370
    -2
100
AcDbBlockReference
  2
_DOTSMALL
 10
8845.273075977969
 20
6783.163556113997
 30
0.0
 41
100.0
 42
100.0
 43
100.0
 50
180.0
  0
INSERT
  5
192A3
330
19134
100
AcDbEntity
  8
寸法
 62
     0
 48
50.0
370
    -2
100
AcDbBlockReference
  2
_DOTSMALL
 10
10635.27307597795
 20
6783.163556113997
 30
0.0
 41
100.0
 42
100.0
 43
100.0
  0
MTEXT
  5
192A4
330
19134
100
AcDbEntity
  8
寸法
 62
     7
 48
50.0
100
AcDbMText
 10
9728.419826309325
 20
6883.163556113998
 30
0.0
 40
120.0
 41
0.0
 71
     5
 72
     1
  1
\A1;1790
  7
STYLE1
 73
     1
 44
1.0
1001
ACAD
1000
MTEXTBEGIN
1070
    73
1070
     1
1070
    44
1040
1.0
1070
    74
1070
     0
1000
MTEXTEND
  0
POINT
  5
192A5
330
19134
100
AcDbEntity
  8
DEFPOINTS
 62
     0
 48
50.0
100
AcDbPoint
 10
8845.273075977969
 20
7974.991346858899
 30
0.0
  0
POINT
  5
192A6
330
19134
100
AcDbEntity
  8
DEFPOINTS
 62
     0
 48
50.0
100
AcDbPoint
 10
10635.27307597795
 20
7974.991346859029
 30
0.0
  0
POINT
  5
192A7
330
19134
100
AcDbEntity
  8
DEFPOINTS
 62
     0
 48
50.0
100
AcDbPoint
 10
10635.27307597795
 20
6783.163556113997
 30
0.0
  0
ENDBLK
  5
1913F
330
19134
100
AcDbEntity
  8
0
 48
50.0
100
AcDbBlockEnd
  0
BLOCK
  5
1914C
330
19140
100
AcDbEntity
  8
0
 48
50.0
100
AcDbBlockBegin
  2
*D31
 70
     1
 10
0.0
 20
0.0
 30
0.0
  3
*D31
  1

  0
LINE
  5
19294
330
19140
100
AcDbEntity
  8
寸法
 62
     0
 48
50.0
370
    -2
100
AcDbLine
 10
8825.273075977969
 20
7974.991346858899
 30
0.0
 11
8510.661830351253
 21
7974.991346858899
 31
0.0
  0
LINE
  5
19295
330
19140
100
AcDbEntity
  8
寸法
 62
     0
 48
50.0
370
    -2
100
AcDbLine
 10
8853.273075977948
 20
7899.9913468589
 30
0.0
 11
8510.661830351253
 21
7899.9913468589
 31
0.0
  0
LINE
  5
19296
330
19140
100
AcDbEntity
  8
寸法
 62
     0
 48
50.0
370
    -2
100
AcDbLine
 10
8550.661830351254
 20
7994.9913468589
 30
0.0
 11
8550.661830351254
 21
8014.9913468589
 31
0.0
  0
LINE
  5
19297
330
19140
100
AcDbEntity
  8
寸法
 62
     0
 48
50.0
370
    -2
100
AcDbLine
 10
8550.661830351254
 20
7879.9913468589
 30
0.0
 11
8550.661830351254
 21
7659.020784110421
 31
0.0
  0
LINE
  5
19298
330
19140
100
AcDbEntity
  8
寸法
 62
     0
 48
50.0
370
    -2
100
AcDbLine
 10
8550.661830351254
 20
7974.991346858899
 30
0.0
 11
8550.661830351254
 21
7899.9913468589
 31
0.0
  0
INSERT
  5
19299
330
19140
100
AcDbEntity
  8
寸法
 62
     0
 48
50.0
370
    -2
100
AcDbBlockReference
  2
_DOT
 10
8550.661830351254
 20
7974.991346858899
 30
0.0
 41
20.0
 42
20.0
 43
20.0
 50
270.0
  0
INSERT
  5
1929A
330
19140
100
AcDbEntity
  8
寸法
 62
     0
 48
50.0
370
    -2
100
AcDbBlockReference
  2
_DOT
 10
8550.661830351254
 20
7899.9913468589
 30
0.0
 41
20.0
 42
20.0
 43
20.0
 50
90.0
  0
MTEXT
  5
1929B
330
19140
100
AcDbEntity
  8
寸法
 62
     7
 48
50.0
100
AcDbMText
 10
8458.661830351251
 20
7759.506065484662
 30
0.0
 40
120.0
 41
0.0
 71
     5
 72
     1
  1
\A1;75
  7
STYLE1
 11
0.0000000000000001
 21
1.0
 31
0.0
 73
     1
 44
1.0
1001
ACAD
1000
MTEXTBEGIN
1070
    73
1070
     1
1070
    44
1040
1.0
1070
    74
1070
     0
1000
MTEXTEND
  0
POINT
  5
1929C
330
19140
100
AcDbEntity
  8
DEFPOINTS
 62
     0
 48
50.0
100
AcDbPoint
 10
8845.273075977969
 20
7974.991346858899
 30
0.0
  0
POINT
  5
1929D
330
19140
100
AcDbEntity
  8
DEFPOINTS
 62
     0
 48
50.0
100
AcDbPoint
 10
8873.273075977948
 20
7899.9913468589
 30
0.0
  0
POINT
  5
1929E
330
19140
100
AcDbEntity
  8
DEFPOINTS
 62
     0
 48
50.0
100
AcDbPoint
 10
8550.661830351254
 20
7899.9913468589
 30
0.0
  0
ENDBLK
  5
1914D
330
19140
100
AcDbEntity
  8
0
 48
50.0
100
AcDbBlockEnd
  0
BLOCK
  5
19158
330
1914E
100
AcDbEntity
  8
0
 48
50.0
100
AcDbBlockBegin
  2
*D32
 70
     1
 10
0.0
 20
0.0
 30
0.0
  3
*D32
  1

  0
LINE
  5
1928B
330
1914E
100
AcDbEntity
  8
寸法
 62
     0
 48
50.0
370
    -2
100
AcDbLine
 10
8873.273075977941
 20
7877.991346858905
 30
0.0
 11
8873.273075977941
 21
6962.921077008124
 31
0.0
  0
LINE
  5
1928C
330
1914E
100
AcDbEntity
  8
寸法
 62
     0
 48
50.0
370
    -2
100
AcDbLine
 10
10607.27307597794
 20
7877.991346858904
 30
0.0
 11
10607.27307597794
 21
6962.921077008124
 31
0.0
  0
LINE
  5
1928D
330
1914E
100
AcDbEntity
  8
寸法
 62
     0
 48
50.0
370
    -2
100
AcDbLine
 10
8873.273075977941
 20
7022.921077008125
 30
0.0
 11
10607.27307597794
 21
7022.921077008125
 31
0.0
  0
INSERT
  5
1928E
330
1914E
100
AcDbEntity
  8
寸法
 62
     0
 48
50.0
370
    -2
100
AcDbBlockReference
  2
_DOTSMALL
 10
8873.273075977941
 20
7022.921077008125
 30
0.0
 41
100.0
 42
100.0
 43
100.0
 50
180.0
  0
INSERT
  5
1928F
330
1914E
100
AcDbEntity
  8
寸法
 62
     0
 48
50.0
370
    -2
100
AcDbBlockReference
  2
_DOTSMALL
 10
10607.27307597794
 20
7022.921077008125
 30
0.0
 41
100.0
 42
100.0
 43
100.0
  0
MTEXT
  5
19290
330
1914E
100
AcDbEntity
  8
寸法
 62
     7
 48
50.0
100
AcDbMText
 10
9730.854819929762
 20
7122.921077008125
 30
0.0
 40
120.0
 41
0.0
 71
     5
 72
     1
  1
\A1;1734
  7
STYLE1
 73
     1
 44
1.0
1001
ACAD
1000
MTEXTBEGIN
1070
    73
1070
     1
1070
    44
1040
1.0
1070
    74
1070
     0
1000
MTEXTEND
  0
POINT
  5
19291
330
1914E
100
AcDbEntity
  8
DEFPOINTS
 62
     0
 48
50.0
100
AcDbPoint
 10
8873.273075977941
 20
7897.991346858906
 30
0.0
  0
POINT
  5
19292
330
1914E
100
AcDbEntity
  8
DEFPOINTS
 62
     0
 48
50.0
100
AcDbPoint
 10
10607.27307597794
 20
7897.991346858905
 30
0.0
  0
POINT
  5
19293
330
1914E
100
AcDbEntity
  8
DEFPOINTS
 62
     0
 48
50.0
100
AcDbPoint
 10
10607.27307597794
 20
7022.921077008125
 30
0.0
  0
ENDBLK
  5
19159
330
1914E
100
AcDbEntity
  8
0
 48
50.0
100
AcDbBlockEnd
  0
ENDSEC
  0
SECTION
  2
ENTITIES
  0
LINE
  5
10B57
330
747D
100
AcDbEntity
  8
補助
  6
PHANTOM
 62
   230
 48
50.0
100
AcDbLine
 10
139.9999999999995
 20
11409.6
 30
0.0
 11
16307.2
 21
11409.6
 31
0.0
  0
LINE
  5
10B59
330
747D
100
AcDbEntity
  8
仕様書枠
  6
Continuous
 48
50.0
100
AcDbLine
 10
13107.2
 20
1200.0
 30
0.0
 11
13107.2
 21
-0.0000000000000729
 31
0.0
  0
LINE
  5
10B5C
330
747D
100
AcDbEntity
  8
仕様書枠
 48
50.0
100
AcDbLine
 10
16307.2
 20
1200.0
 30
0.0
 11
16307.2
 21
-0.0000000000000909
 31
0.0
  0
LINE
  5
10B5D
330
747D
100
AcDbEntity
  8
仕様書枠
 48
50.0
100
AcDbLine
 10
140.0
 20
0.0
 30
0.0
 11
16307.2
 21
-0.0000000000000909
 31
0.0
  0
LINE
  5
10B5E
330
747D
100
AcDbEntity
  8
補助
  6
PHANTOM
 62
   230
 48
50.0
100
AcDbLine
 10
16307.2
 20
11409.6
 30
0.0
 11
16307.2
 21
1200.0
 31
0.0
  0
LINE
  5
10B6C
330
747D
100
AcDbEntity
  8
仕様書枠
 48
50.0
100
AcDbLine
 10
13107.2
 20
1200.0
 30
0.0
 11
16307.2
 21
1200.0
 31
0.0
  0
LINE
  5
10B6D
330
747D
100
AcDbEntity
  8
補助
  6
PHANTOM
 62
   230
 48
50.0
100
AcDbLine
 10
13107.2
 20
11409.6
 30
0.0
 11
13107.2
 21
4800.0
 31
0.0
  0
LINE
  5
10B6F
330
747D
100
AcDbEntity
  8
補助
  6
PHANTOM
 62
   230
 48
50.0
100
AcDbLine
 10
13107.2
 20
4800.0
 30
0.0
 11
16307.2
 21
4800.0
 31
0.0
  0
LINE
  5
10B72
330
747D
100
AcDbEntity
  8
文字
 62
     7
 48
50.0
100
AcDbLine
 10
13187.2
 20
400.0
 30
0.0
 11
16227.2
 21
400.0
 31
0.0
  0
TEXT
  5
10B73
330
747D
100
AcDbEntity
  8
文字
 62
     7
 48
50.0
100
AcDbText
 10
13162.9790565769
 20
895.0906074299405
 30
0.0
 40
200.0
  1
外 形 図
  7
STYLE2
100
AcDbText
  0
TEXT
  5
10B74
330
747D
100
AcDbEntity
  8
文字
 62
     7
 48
50.0
100
AcDbText
 10
13201.43669998441
 20
477.2740661031255
 30
0.0
 40
160.0
  1
機種名
  7
STYLE2
100
AcDbText
  0
TEXT
  5
10B76
330
747D
100
AcDbEntity
  8
文字
 62
     7
 48
50.0
100
AcDbText
 10
13209.4053442172
 20
76.09434707649343
 30
0.0
 40
100.0
  1
○床面積 ： 3.33㎡(1.00坪) 　
  7
STYLE2
100
AcDbText
  0
TEXT
  5
10B79
330
747D
100
AcDbEntity
  8
文字
 62
     7
 48
50.0
100
AcDbText
 10
14524.131837222
 20
1031.557706291228
 30
0.0
 40
100.0
  1
NO.07      <縮尺> S=1/40
  7
STYLE2
100
AcDbText
  0
LINE
  5
10B7B
330
747D
100
AcDbEntity
  8
仕様書枠
 48
50.0
100
AcDbLine
 10
13107.2
 20
800.0
 30
0.0
 11
14251.2
 21
800.0
 31
0.0
  0
LINE
  5
10B88
330
747D
100
AcDbEntity
  8
仕様書枠
  6
Continuous
 48
50.0
100
AcDbLine
 10
14251.2
 20
1200.0
 30
0.0
 11
14251.2
 21
800.0
 31
0.0
  0
TEXT
  5
14D2F
330
747D
100
AcDbEntity
  8
文字
 62
     7
 48
50.0
100
AcDbText
 10
14644.07818602837
 20
876.4448062548634
 30
0.0
 40
100.0
  1
～一般型・多雪地型～
  7
STYLE2
100
AcDbText
  0
ARC
  5
18370
330
747D
100
AcDbEntity
  8
部品1
100
AcDbCircle
 10
6761.404308773977
 20
5078.395635910361
 30
0.0
 40
7.0
100
AcDbArc
 50
356.7526572096623
 51
90.0
  0
ARC
  5
18371
330
747D
100
AcDbEntity
  8
部品1
100
AcDbCircle
 10
6748.188985312943
 20
4951.395635910363
 30
0.0
 40
7.0
100
AcDbArc
 50
270.0
 51
356.7526572096623
  0
ARC
  5
18372
330
747D
100
AcDbEntity
  8
部品1
 48
50.0
100
AcDbCircle
 10
6766.560795523623
 20
5058.062635072047
 30
0.0
 40
0.7
100
AcDbArc
 50
277.6581272073652
 51
356.7526572096103
  0
ARC
  5
18373
330
747D
100
AcDbEntity
  8
部品1
 48
50.0
100
AcDbCircle
 10
6758.324764998778
 20
4965.862635072045
 30
0.0
 40
0.7
100
AcDbArc
 50
277.6581272073652
 51
356.7526572096623
  0
ARC
  5
18374
330
747D
100
AcDbEntity
  8
部品1
 48
50.0
100
AcDbCircle
 10
6758.81783410734
 20
4962.195635910359
 30
0.0
 40
3.0
100
AcDbArc
 50
97.65812720736519
 51
176.7526572096623
  0
ARC
  5
18375
330
747D
100
AcDbEntity
  8
部品1
 48
50.0
100
AcDbCircle
 10
6767.053864632185
 20
5054.395635910363
 30
0.0
 40
3.0
100
AcDbArc
 50
97.65812720736519
 51
176.7526572096623
  0
LINE
  5
18376
330
747D
100
AcDbEntity
  8
部品1
100
AcDbLine
 10
6764.058681735999
 20
5054.565575365465
 30
0.0
 11
6759.023641007887
 21
4965.82298253252
 31
0.0
  0
LINE
  5
18377
330
747D
100
AcDbEntity
  8
部品1
100
AcDbLine
 10
6755.822651211154
 20
4962.365575365462
 30
0.0
 11
6755.177745404042
 21
4950.999110515122
 31
0.0
  0
LINE
  5
18378
330
747D
100
AcDbEntity
  8
細線
 48
50.0
100
AcDbLine
 10
6735.812729880411
 20
5085.395635910361
 30
0.0
 11
6735.812729880411
 21
4944.395635910361
 31
0.0
  0
LINE
  5
18379
330
747D
100
AcDbEntity
  8
部品1
100
AcDbLine
 10
6768.393068865076
 20
5077.999110515122
 30
0.0
 11
6767.259671532731
 21
5058.022982532523
 31
0.0
  0
DIMENSION
  5
1837A
330
747D
100
AcDbEntity
  8
寸法
 48
50.0
100
AcDbDimension
  2
*D2
 10
6718.812729880411
 20
5490.01589533763
 30
0.0
 11
7082.298011254646
 21
5490.01589533763
 31
0.0
 70
   160
 71
     5
 42
50.0
  3
INABA_S40G
100
AcDbAlignedDimension
 13
6768.81272988041
 23
5085.39563591036
 33
0.0
 14
6718.812729880411
 24
5085.395635910362
 34
0.0
100
AcDbRotatedDimension
  0
LINE
  5
1837B
330
747D
100
AcDbEntity
  8
部品1
 48
0.01
100
AcDbLine
 10
6318.812729880414
 20
4914.395635910356
 30
0.0
 11
6318.812729880414
 21
4882.895635910355
 31
0.0
  0
LINE
  5
1837C
330
747D
100
AcDbEntity
  8
部品1
 48
0.01
100
AcDbLine
 10
6316.812729880414
 20
4880.895635910356
 30
0.0
 11
6140.812729880414
 21
4880.895635910356
 31
0.0
  0
LINE
  5
1837D
330
747D
100
AcDbEntity
  8
部品1
 48
0.01
100
AcDbLine
 10
6138.812729880413
 20
4882.895635910355
 30
0.0
 11
6138.812729880413
 21
4914.395635910356
 31
0.0
  0
ARC
  5
1837E
330
747D
100
AcDbEntity
  8
部品1
 48
0.01
100
AcDbCircle
 10
6316.812729880414
 20
4882.895635910355
 30
0.0
 40
2.0
100
AcDbArc
 50
270.0
 51
0.0
  0
ARC
  5
1837F
330
747D
100
AcDbEntity
  8
部品1
 48
0.01
100
AcDbCircle
 10
6140.812729880414
 20
4882.895635910355
 30
0.0
 40
2.0
100
AcDbArc
 50
180.0
 51
270.0
  0
LINE
  5
18380
330
747D
100
AcDbEntity
  8
細線
100
AcDbLine
 10
6228.812729880414
 20
4909.895635910356
 30
0.0
 11
6228.812729880414
 21
4886.895635910356
 31
0.0
  0
LINE
  5
18381
330
747D
100
AcDbEntity
  8
細線
100
AcDbLine
 10
6154.812729880414
 20
4897.895635910356
 30
0.0
 11
6228.812729880414
 21
4897.895635910356
 31
0.0
  0
LINE
  5
18382
330
747D
100
AcDbEntity
  8
細線
100
AcDbLine
 10
6154.812729880414
 20
4891.895635910356
 30
0.0
 11
6228.812729880414
 21
4891.895635910356
 31
0.0
  0
LINE
  5
18383
330
747D
100
AcDbEntity
  8
細線
100
AcDbLine
 10
6154.812729880414
 20
4903.895635910355
 30
0.0
 11
6228.812729880414
 21
4903.895635910355
 31
0.0
  0
LINE
  5
18384
330
747D
100
AcDbEntity
  8
細線
100
AcDbLine
 10
6302.812729880414
 20
4903.895635910355
 30
0.0
 11
6233.812729880414
 21
4903.895635910355
 31
0.0
  0
LINE
  5
18385
330
747D
100
AcDbEntity
  8
細線
100
AcDbLine
 10
6302.812729880414
 20
4891.895635910356
 30
0.0
 11
6228.812729880414
 21
4891.895635910356
 31
0.0
  0
LINE
  5
18386
330
747D
100
AcDbEntity
  8
細線
100
AcDbLine
 10
6302.812729880414
 20
4897.895635910356
 30
0.0
 11
6228.812729880414
 21
4897.895635910356
 31
0.0
  0
LINE
  5
18387
330
747D
100
AcDbEntity
  8
細線
100
AcDbLine
 10
6302.812729880414
 20
4903.895635910355
 30
0.0
 11
6228.812729880414
 21
4903.895635910355
 31
0.0
  0
LINE
  5
18388
330
747D
100
AcDbEntity
  8
部品1
 48
0.01
100
AcDbLine
 10
6140.812729880414
 20
4916.395635910355
 30
0.0
 11
6316.812729880414
 21
4916.395635910355
 31
0.0
  0
LINE
  5
18389
330
747D
100
AcDbEntity
  8
細線
100
AcDbLine
 10
6302.812729880414
 20
4909.895635910356
 30
0.0
 11
6302.812729880414
 21
4886.895635910356
 31
0.0
  0
LINE
  5
1838A
330
747D
100
AcDbEntity
  8
細線
100
AcDbLine
 10
6154.812729880414
 20
4886.895635910356
 30
0.0
 11
6154.812729880414
 21
4909.895635910356
 31
0.0
  0
LINE
  5
1838B
330
747D
100
AcDbEntity
  8
細線
100
AcDbLine
 10
6154.812729880414
 20
4909.895635910356
 30
0.0
 11
6228.812729880414
 21
4909.895635910356
 31
0.0
  0
LINE
  5
1838C
330
747D
100
AcDbEntity
  8
細線
100
AcDbLine
 10
6302.812729880414
 20
4886.895635910356
 30
0.0
 11
6228.812729880414
 21
4886.895635910356
 31
0.0
  0
LINE
  5
1838D
330
747D
100
AcDbEntity
  8
細線
100
AcDbLine
 10
6228.812729880414
 20
4909.895635910356
 30
0.0
 11
6302.812729880414
 21
4909.895635910356
 31
0.0
  0
LINE
  5
1838E
330
747D
100
AcDbEntity
  8
細線
100
AcDbLine
 10
6228.812729880414
 20
4886.895635910356
 30
0.0
 11
6154.812729880414
 21
4886.895635910356
 31
0.0
  0
ARC
  5
1838F
330
747D
100
AcDbEntity
  8
部品1
 48
0.01
100
AcDbCircle
 10
6316.812729880414
 20
4914.395635910356
 30
0.0
 40
2.0
100
AcDbArc
 50
0.0
 51
90.0
  0
ARC
  5
18390
330
747D
100
AcDbEntity
  8
部品1
 48
0.01
100
AcDbCircle
 10
6140.812729880414
 20
4914.395635910356
 30
0.0
 40
2.0
100
AcDbArc
 50
90.0
 51
180.0
  0
ARC
  5
18391
330
747D
100
AcDbEntity
  8
部品1
 48
0.01
100
AcDbCircle
 10
5506.81272988041
 20
4882.895635910355
 30
0.0
 40
2.0
100
AcDbArc
 50
270.0
 51
0.0
  0
ARC
  5
18392
330
747D
100
AcDbEntity
  8
部品1
 48
0.01
100
AcDbCircle
 10
5506.812729880414
 20
4914.395635910356
 30
0.0
 40
2.0
100
AcDbArc
 50
0.0
 51
90.0
  0
ARC
  5
18393
330
747D
100
AcDbEntity
  8
部品1
 48
0.01
100
AcDbCircle
 10
5330.812729880413
 20
4882.895635910355
 30
0.0
 40
2.0
100
AcDbArc
 50
180.0
 51
270.0
  0
ARC
  5
18394
330
747D
100
AcDbEntity
  8
部品1
 48
0.01
100
AcDbCircle
 10
5330.812729880413
 20
4914.395635910356
 30
0.0
 40
2.0
100
AcDbArc
 50
90.0
 51
180.0
  0
LINE
  5
18395
330
747D
100
AcDbEntity
  8
細線
100
AcDbLine
 10
5418.812729880411
 20
4886.895635910356
 30
0.0
 11
5492.812729880414
 21
4886.895635910356
 31
0.0
  0
LINE
  5
18396
330
747D
100
AcDbEntity
  8
細線
100
AcDbLine
 10
5418.812729880414
 20
4909.895635910356
 30
0.0
 11
5344.812729880414
 21
4909.895635910356
 31
0.0
  0
LINE
  5
18397
330
747D
100
AcDbEntity
  8
細線
100
AcDbLine
 10
5344.812729880414
 20
4886.895635910356
 30
0.0
 11
5418.812729880414
 21
4886.895635910356
 31
0.0
  0
LINE
  5
18398
330
747D
100
AcDbEntity
  8
細線
100
AcDbLine
 10
5492.812729880414
 20
4909.895635910356
 30
0.0
 11
5418.812729880414
 21
4909.895635910356
 31
0.0
  0
LINE
  5
18399
330
747D
100
AcDbEntity
  8
細線
100
AcDbLine
 10
5492.812729880414
 20
4886.895635910356
 30
0.0
 11
5492.812729880414
 21
4909.895635910356
 31
0.0
  0
LINE
  5
1839A
330
747D
100
AcDbEntity
  8
細線
100
AcDbLine
 10
5344.812729880414
 20
4909.895635910356
 30
0.0
 11
5344.812729880414
 21
4886.895635910356
 31
0.0
  0
LINE
  5
1839B
330
747D
100
AcDbEntity
  8
部品1
 48
0.01
100
AcDbLine
 10
5508.812729880411
 20
4882.895635910355
 30
0.0
 11
5508.812729880414
 21
4914.395635910356
 31
0.0
  0
LINE
  5
1839C
330
747D
100
AcDbEntity
  8
部品1
 48
0.01
100
AcDbLine
 10
5330.812729880413
 20
4880.895635910356
 30
0.0
 11
5506.81272988041
 21
4880.895635910356
 31
0.0
  0
LINE
  5
1839D
330
747D
100
AcDbEntity
  8
部品1
 48
0.01
100
AcDbLine
 10
5328.812729880414
 20
4914.395635910356
 30
0.0
 11
5328.812729880414
 21
4882.895635910355
 31
0.0
  0
LINE
  5
1839E
330
747D
100
AcDbEntity
  8
部品1
 48
0.01
100
AcDbLine
 10
5506.812729880414
 20
4916.395635910355
 30
0.0
 11
5330.812729880413
 21
4916.395635910355
 31
0.0
  0
LINE
  5
1839F
330
747D
100
AcDbEntity
  8
細線
100
AcDbLine
 10
5344.812729880414
 20
4903.895635910355
 30
0.0
 11
5418.812729880414
 21
4903.895635910355
 31
0.0
  0
LINE
  5
183A0
330
747D
100
AcDbEntity
  8
細線
100
AcDbLine
 10
5344.812729880414
 20
4897.895635910356
 30
0.0
 11
5418.812729880414
 21
4897.895635910356
 31
0.0
  0
LINE
  5
183A1
330
747D
100
AcDbEntity
  8
細線
100
AcDbLine
 10
5344.81272988041
 20
4891.895635910356
 30
0.0
 11
5418.812729880414
 21
4891.895635910356
 31
0.0
  0
LINE
  5
183A2
330
747D
100
AcDbEntity
  8
細線
100
AcDbLine
 10
5344.812729880414
 20
4903.895635910355
 30
0.0
 11
5413.812729880413
 21
4903.895635910355
 31
0.0
  0
LINE
  5
183A3
330
747D
100
AcDbEntity
  8
細線
100
AcDbLine
 10
5492.81272988041
 20
4903.895635910355
 30
0.0
 11
5418.812729880414
 21
4903.895635910355
 31
0.0
  0
LINE
  5
183A4
330
747D
100
AcDbEntity
  8
細線
100
AcDbLine
 10
5492.81272988041
 20
4891.895635910356
 30
0.0
 11
5418.812729880414
 21
4891.895635910356
 31
0.0
  0
LINE
  5
183A5
330
747D
100
AcDbEntity
  8
細線
100
AcDbLine
 10
5492.81272988041
 20
4897.895635910356
 30
0.0
 11
5418.812729880414
 21
4897.895635910356
 31
0.0
  0
LINE
  5
183A6
330
747D
100
AcDbEntity
  8
細線
100
AcDbLine
 10
5418.812729880414
 20
4909.895635910356
 30
0.0
 11
5418.812729880411
 21
4886.895635910356
 31
0.0
  0
LINE
  5
183A7
330
747D
100
AcDbEntity
  8
細線
 48
50.0
100
AcDbLine
 10
6758.537161134128
 20
4965.195635910358
 30
0.0
 11
4889.088298626686
 21
4965.195635910362
 31
0.0
  0
LINE
  5
183A8
330
747D
100
AcDbEntity
  8
細線
 48
50.0
100
AcDbLine
 10
6766.773191658974
 20
5057.395635910364
 30
0.0
 11
4880.852268101857
 21
5057.39563591036
 31
0.0
  0
LINE
  5
183A9
330
747D
100
AcDbEntity
  8
部品1
 48
50.0
100
AcDbLine
 10
6748.188985312943
 20
4944.395635910363
 30
0.0
 11
4899.436474447883
 21
4944.395635910361
 31
0.0
  0
LINE
  5
183AA
330
747D
100
AcDbEntity
  8
部品1
 48
50.0
100
AcDbLine
 10
6761.404308773977
 20
5085.39563591036
 30
0.0
 11
4886.221150986848
 21
5085.395635910363
 31
0.0
  0
LINE
  5
183AB
330
747D
100
AcDbEntity
  8
部品1
100
AcDbLine
 10
4879.232390895754
 20
5077.999110515122
 30
0.0
 11
4880.365788228099
 21
5058.022982532523
 31
0.0
  0
LINE
  5
183AC
330
747D
100
AcDbEntity
  8
部品1
100
AcDbLine
 10
4891.802808549676
 20
4962.365575365462
 30
0.0
 11
4892.447714356784
 21
4950.999110515122
 31
0.0
  0
LINE
  5
183AD
330
747D
100
AcDbEntity
  8
部品1
100
AcDbLine
 10
4883.566778024828
 20
5054.565575365465
 30
0.0
 11
4888.601818752938
 21
4965.82298253252
 31
0.0
  0
ARC
  5
183AE
330
747D
100
AcDbEntity
  8
部品1
 48
50.0
100
AcDbCircle
 10
4880.571595128646
 20
5054.395635910363
 30
0.0
 40
3.0
100
AcDbArc
 50
3.247342790337682
 51
82.3418727926348
  0
ARC
  5
183AF
330
747D
100
AcDbEntity
  8
部品1
 48
50.0
100
AcDbCircle
 10
4888.807625653486
 20
4962.195635910359
 30
0.0
 40
3.0
100
AcDbArc
 50
3.247342790337682
 51
82.3418727926348
  0
ARC
  5
183B0
330
747D
100
AcDbEntity
  8
部品1
 48
50.0
100
AcDbCircle
 10
4889.300694762047
 20
4965.862635072045
 30
0.0
 40
0.7
100
AcDbArc
 50
183.2473427903377
 51
262.3418727926349
  0
ARC
  5
183B1
330
747D
100
AcDbEntity
  8
部品1
 48
50.0
100
AcDbCircle
 10
4881.064664237207
 20
5058.062635072047
 30
0.0
 40
0.7
100
AcDbArc
 50
183.2473427903897
 51
262.3418727926349
  0
ARC
  5
183B2
330
747D
100
AcDbEntity
  8
部品1
100
AcDbCircle
 10
4899.436474447883
 20
4951.395635910363
 30
0.0
 40
7.0
100
AcDbArc
 50
183.2473427903377
 51
270.0
  0
ARC
  5
183B3
330
747D
100
AcDbEntity
  8
部品1
100
AcDbCircle
 10
4886.221150986848
 20
5078.395635910361
 30
0.0
 40
7.0
100
AcDbArc
 50
90.0
 51
183.2473427903377
  0
LINE
  5
183B4
330
747D
100
AcDbEntity
  8
細線
 48
50.0
100
AcDbLine
 10
4911.81272988042
 20
5085.395635910361
 30
0.0
 11
4911.81272988042
 21
4944.395635910361
 31
0.0
  0
DIMENSION
  5
183B5
330
747D
100
AcDbEntity
  8
寸法
 48
50.0
100
AcDbDimension
  2
*D3
 10
4878.812729880419
 20
5490.01589533763
 30
0.0
 11
4565.327448506172
 21
5490.01589533763
 31
0.0
 70
   160
 71
     5
 42
50.0
  3
INABA_S40G
100
AcDbAlignedDimension
 13
4928.812729880419
 23
5085.395635910363
 33
0.0
 14
4878.812729880419
 24
5085.395635910362
 34
0.0
100
AcDbRotatedDimension
1001
ACAD
1000
DSTYLE
1002
{
1002
}
  0
DIMENSION
  5
183B6
330
747D
100
AcDbEntity
  8
寸法
 48
50.0
100
AcDbDimension
  2
*D4
 10
6768.81272988041
 20
5699.609769759081
 30
0.0
 11
5823.812729880414
 21
5699.609769759081
 31
0.0
 70
   160
 71
     5
 42
1889.999999999991
  3
INABA_S40G
100
AcDbAlignedDimension
 13
4878.812729880419
 23
5085.395635910362
 33
0.0
 14
6768.81272988041
 24
5085.39563591036
 34
0.0
100
AcDbRotatedDimension
  0
DIMENSION
  5
183B7
330
747D
100
AcDbEntity
  8
寸法
 48
50.0
100
AcDbDimension
  2
*D5
 10
4928.812729880419
 20
5490.01589533763
 30
0.0
 11
5823.812729880414
 21
5490.01589533763
 31
0.0
 70
   160
  1
柱外寸法<>
 71
     5
 42
1789.999999999991
  3
INABA_S40G
100
AcDbAlignedDimension
 13
6718.812729880411
 23
5085.395635910362
 33
0.0
 14
4928.812729880419
 24
5085.395635910363
 34
0.0
100
AcDbRotatedDimension
  0
MTEXT
  5
183B8
330
747D
100
AcDbEntity
  8
寸法
 62
     7
 48
50.0
100
AcDbMText
 10
10195.37561307111
 20
9351.226165056349
 30
0.0
 40
96.0
 41
0.0
 71
     5
 72
     1
  1
棚 3段
  7
STYLE1
 73
     1
 44
1.0
1001
ACAD
1000
MTEXTBEGIN
1070
    73
1070
     1
1070
    44
1040
1.0
1070
    74
1070
     0
1000
MTEXTEND
  0
LINE
  5
18460
330
747D
100
AcDbEntity
  8
部品1
 48
50.0
100
AcDbLine
 10
10580.27307597794
 20
7974.991346859024
 30
0.0
 11
10580.27307597794
 21
8002.991346859024
 31
0.0
  0
LINE
  5
18461
330
747D
100
AcDbEntity
  8
部品1
 48
50.0
100
AcDbLine
 10
8900.27307597794
 20
7974.991346858871
 30
0.0
 11
8900.273075977944
 21
8002.991346858868
 31
0.0
  0
LINE
  5
18462
330
747D
100
AcDbEntity
  8
部品1
 48
50.0
100
AcDbLine
 10
10580.27307597797
 20
7974.991346859024
 30
0.0
 11
10635.27307597795
 21
7974.991346859029
 31
0.0
  0
LINE
  5
18463
330
747D
100
AcDbEntity
  8
部品1
 48
50.0
100
AcDbLine
 10
8873.273075977948
 20
8002.991346858868
 30
0.0
 11
10607.27307597795
 21
8002.991346859026
 31
0.0
  0
LINE
  5
18464
330
747D
100
AcDbEntity
  8
部品1
 48
50.0
100
AcDbLine
 10
8845.273075977969
 20
7974.991346858866
 30
0.0
 11
8900.27307597794
 21
7974.991346858871
 31
0.0
  0
LINE
  5
18465
330
747D
100
AcDbEntity
  8
部品1
100
AcDbLine
 10
8873.273075977945
 20
8029.991346858897
 30
0.0
 11
8845.273075977944
 21
8029.991346858897
 31
0.0
  0
LINE
  5
18466
330
747D
100
AcDbEntity
  8
部品1
100
AcDbLine
 10
10607.27307597797
 20
8029.99134685877
 30
0.0
 11
10635.27307597798
 21
8029.99134685877
 31
0.0
  0
LINE
  5
18467
330
747D
100
AcDbEntity
  8
部品1
 48
50.0
100
AcDbLine
 10
8901.773075977962
 20
8031.491346859024
 30
0.0
 11
8873.273075977962
 21
8002.991346859026
 31
0.0
  0
LINE
  5
18468
330
747D
100
AcDbEntity
  8
破線
 48
10.0
100
AcDbLine
 10
8925.273075977951
 20
9284.991346859042
 30
0.0
 11
8925.273075977967
 21
8054.99134685893
 31
0.0
  0
LINE
  5
18469
330
747D
100
AcDbEntity
  8
部品1
100
AcDbLine
 10
8901.773075977954
 20
9284.99134685904
 30
0.0
 11
8901.773075977967
 21
8031.491346859027
 31
0.0
  0
LINE
  5
1846A
330
747D
100
AcDbEntity
  8
部品1
 48
50.0
100
AcDbLine
 10
10578.77307597795
 20
8031.491346859024
 30
0.0
 11
10607.27307597795
 21
8002.991346859026
 31
0.0
  0
LINE
  5
1846B
330
747D
100
AcDbEntity
  8
破線
 48
10.0
100
AcDbLine
 10
10555.27307597797
 20
9284.991346859042
 30
0.0
 11
10555.27307597796
 21
8054.991346859024
 31
0.0
  0
LINE
  5
1846C
330
747D
100
AcDbEntity
  8
部品1
100
AcDbLine
 10
10578.77307597796
 20
9284.99134685904
 30
0.0
 11
10578.77307597795
 21
8031.491346859024
 31
0.0
  0
LINE
  5
1846D
330
747D
100
AcDbEntity
  8
破線
 48
10.0
100
AcDbLine
 10
9715.273075977945
 20
8054.991346858974
 30
0.0
 11
8925.27307597796
 21
8054.991346858928
 31
0.0
  0
LINE
  5
1846E
330
747D
100
AcDbEntity
  8
破線
 48
10.0
100
AcDbLine
 10
10555.27307597795
 20
8054.991346859024
 30
0.0
 11
9765.273075977944
 21
8054.991346858979
 31
0.0
  0
LINE
  5
1846F
330
747D
100
AcDbEntity
  8
部品1
100
AcDbLine
 10
10578.77307597795
 20
8031.491346859024
 30
0.0
 11
8901.773075977869
 21
8031.491346858929
 31
0.0
  0
DIMENSION
  5
18470
330
747D
100
AcDbEntity
  8
寸法
100
AcDbDimension
  2
*D6
 10
9648.204302421559
 20
8991.76869205797
 30
0.0
 11
9253.120138096244
 21
8991.76869205797
 31
0.0
 70
   160
 71
     5
 42
853.0000000000109
  3
INABA_S40G
100
AcDbAlignedDimension
 13
8873.773075977977
 23
9284.991346858943
 33
0.0
 14
9726.773075977988
 24
9284.991346858936
 34
0.0
100
AcDbRotatedDimension
1001
ACAD
1000
DSTYLE
1002
{
1002
}
  0
LINE
  5
18471
330
747D
100
AcDbEntity
  8
破線
 48
10.0
100
AcDbLine
 10
9715.27307597795
 20
8031.491346858976
 30
0.0
 11
9715.273075977949
 21
9284.991346859047
 31
0.0
  0
LINE
  5
18472
330
747D
100
AcDbEntity
  8
破線
 48
10.0
100
AcDbLine
 10
9765.273075977946
 20
8031.491346858981
 30
0.0
 11
9765.273075977949
 21
9284.991346859047
 31
0.0
  0
LINE
  5
18473
330
747D
100
AcDbEntity
  8
部品1
 48
50.0
100
AcDbLine
 10
10578.77307597796
 20
8869.991346859043
 30
0.0
 11
8901.773075977962
 21
8869.991346859128
 31
0.0
  0
DIMENSION
  5
18474
330
747D
100
AcDbEntity
  8
寸法
100
AcDbDimension
  2
*D7
 10
10580.27307597797
 20
10061.79837366727
 30
0.0
 11
9740.273075977976
 21
10061.79837366727
 31
0.0
 70
   160
  1
4X420=<>
 71
     5
 42
1680.0
  3
INABA_S40G
100
AcDbAlignedDimension
 13
8900.273075977976
 23
9764.991346858945
 33
0.0
 14
10580.27307597797
 24
9764.991346859039
 34
0.0
100
AcDbRotatedDimension
1001
ACAD
1000
DSTYLE
1002
{
1002
}
  0
LINE
  5
18475
330
747D
100
AcDbEntity
  8
部品1
100
AcDbLine
 10
8845.273075977976
 20
9764.991346858945
 30
0.0
 11
10635.27307597798
 21
9764.991346859039
 31
0.0
  0
DIMENSION
  5
18476
330
747D
100
AcDbEntity
  8
寸法
100
AcDbDimension
  2
*D8
 10
10635.27307597798
 20
10061.79837366725
 30
0.0
 11
10943.75835735221
 21
10061.79837366725
 31
0.0
 70
   160
 71
     5
 42
55.0
  3
INABA_S40G
100
AcDbAlignedDimension
 13
10580.27307597797
 23
9764.991346859039
 33
0.0
 14
10635.27307597798
 24
9764.991346859039
 34
0.0
100
AcDbRotatedDimension
1001
ACAD
1000
DSTYLE
1002
{
1002
}
  0
LINE
  5
18477
330
747D
100
AcDbEntity
  8
部品1
100
AcDbLine
 10
10607.27307597797
 20
9709.991346859043
 30
0.0
 11
10635.27307597798
 21
9709.991346859043
 31
0.0
  0
LINE
  5
18478
330
747D
100
AcDbEntity
  8
部品1
100
AcDbLine
 10
10607.27307597797
 20
9289.991346859043
 30
0.0
 11
10635.27307597798
 21
9289.991346859043
 31
0.0
  0
LINE
  5
18479
330
747D
100
AcDbEntity
  8
部品1
100
AcDbLine
 10
10606.77307597797
 20
9734.99134685904
 30
0.0
 11
10606.77307597797
 21
9284.99134685904
 31
0.0
  0
LINE
  5
1847A
330
747D
100
AcDbEntity
  8
部品1
100
AcDbLine
 10
9705.273075977977
 20
9754.991346859046
 30
0.0
 11
9705.273075977977
 21
9736.991346859046
 31
0.0
  0
LINE
  5
1847B
330
747D
100
AcDbEntity
  8
部品1
100
AcDbLine
 10
9705.273075977977
 20
9754.991346859046
 30
0.0
 11
9711.273075977977
 21
9754.991346859046
 31
0.0
  0
LINE
  5
1847C
330
747D
100
AcDbEntity
  8
部品1
100
AcDbLine
 10
9775.273075977978
 20
9754.991346859046
 30
0.0
 11
9775.273075977978
 21
9736.991346859046
 31
0.0
  0
LINE
  5
1847D
330
747D
100
AcDbEntity
  8
部品1
100
AcDbLine
 10
9769.273075977977
 20
9754.991346859046
 30
0.0
 11
9775.273075977978
 21
9754.991346859046
 31
0.0
  0
LINE
  5
1847E
330
747D
100
AcDbEntity
  8
部品1
100
AcDbLine
 10
9727.773075977978
 20
9728.991346859043
 30
0.0
 11
9752.773075977977
 21
9728.991346859046
 31
0.0
  0
LINE
  5
1847F
330
747D
100
AcDbEntity
  8
部品1
100
AcDbLine
 10
9727.773075977978
 20
9284.991346859047
 30
0.0
 11
9752.773075977977
 21
9284.991346859047
 31
0.0
  0
LINE
  5
18480
330
747D
100
AcDbEntity
  8
部品1
 48
50.0
100
AcDbLine
 10
9727.773075977976
 20
9736.991346859054
 30
0.0
 11
9727.773075977978
 21
9284.991346859047
 31
0.0
  0
LINE
  5
18481
330
747D
100
AcDbEntity
  8
部品1
 48
50.0
100
AcDbLine
 10
9752.773075977977
 20
9736.991346859049
 30
0.0
 11
9752.773075977977
 21
9284.991346859047
 31
0.0
  0
LINE
  5
18482
330
747D
100
AcDbEntity
  8
部品1
 48
50.0
100
AcDbLine
 10
9726.773075977977
 20
9734.991346859047
 30
0.0
 11
9726.773075977977
 21
9284.991346859047
 31
0.0
  0
LINE
  5
18483
330
747D
100
AcDbEntity
  8
部品1
 48
50.0
100
AcDbLine
 10
9753.773075977978
 20
9734.991346859043
 30
0.0
 11
9753.773075977978
 21
9284.991346859047
 31
0.0
  0
LINE
  5
18484
330
747D
100
AcDbEntity
  8
部品1
100
AcDbLine
 10
9752.773075977977
 20
9736.991346859056
 30
0.0
 11
10607.27307597797
 21
9736.991346859038
 31
0.0
  0
LINE
  5
18485
330
747D
100
AcDbEntity
  8
部品1
100
AcDbLine
 10
9753.773075977978
 20
9734.991346859047
 30
0.0
 11
10606.77307597797
 21
9734.99134685904
 31
0.0
  0
LINE
  5
18486
330
747D
100
AcDbEntity
  8
細線
 48
50.0
100
AcDbLine
 10
10606.77307597797
 20
9284.99134685904
 30
0.0
 11
9753.773075977978
 21
9734.991346859043
 31
0.0
  0
LINE
  5
18487
330
747D
100
AcDbEntity
  8
細線
 48
50.0
100
AcDbLine
 10
10606.77307597797
 20
9734.99134685904
 30
0.0
 11
9753.773075977974
 21
9284.991346859047
 31
0.0
  0
LINE
  5
18488
330
747D
100
AcDbEntity
  8
部品1
100
AcDbLine
 10
9753.773075977974
 20
9284.991346859047
 30
0.0
 11
10606.77307597797
 21
9284.99134685904
 31
0.0
  0
LINE
  5
18489
330
747D
100
AcDbEntity
  8
部品1
100
AcDbLine
 10
10607.27307597798
 20
8869.991346859043
 30
0.0
 11
10635.27307597798
 21
8869.991346859043
 31
0.0
  0
LINE
  5
1848A
330
747D
100
AcDbEntity
  8
部品1
100
AcDbLine
 10
10607.27307597797
 20
9736.991346859038
 30
0.0
 11
10607.27307597795
 21
8002.991346859026
 31
0.0
  0
LINE
  5
1848B
330
747D
100
AcDbEntity
  8
部品1
100
AcDbLine
 10
8873.273075977945
 20
9709.991346858915
 30
0.0
 11
8845.273075977944
 21
9709.991346858915
 31
0.0
  0
LINE
  5
1848C
330
747D
100
AcDbEntity
  8
部品1
100
AcDbLine
 10
8873.273075977952
 20
9289.991346858913
 30
0.0
 11
8845.273075977951
 21
9289.991346858913
 31
0.0
  0
LINE
  5
1848D
330
747D
100
AcDbEntity
  8
部品1
 48
50.0
100
AcDbLine
 10
8873.773075977977
 20
9734.99134685894
 30
0.0
 11
8873.773075977977
 21
9284.991346858941
 31
0.0
  0
LINE
  5
1848E
330
747D
100
AcDbEntity
  8
部品1
100
AcDbLine
 10
8873.273075977955
 20
8869.991346858913
 30
0.0
 11
8845.273075977955
 21
8869.991346858913
 31
0.0
  0
LINE
  5
1848F
330
747D
100
AcDbEntity
  8
部品1
100
AcDbLine
 10
8873.273075977948
 20
8002.991346858868
 30
0.0
 11
8873.273075977976
 21
9736.991346858944
 31
0.0
  0
LINE
  5
18490
330
747D
100
AcDbEntity
  8
部品1
100
AcDbLine
 10
8873.273075977976
 20
9736.991346859062
 30
0.0
 11
9727.773075977973
 21
9736.991346859058
 31
0.0
  0
LINE
  5
18491
330
747D
100
AcDbEntity
  8
部品1
100
AcDbLine
 10
8873.773075977977
 20
9734.991346858944
 30
0.0
 11
9726.773075977977
 21
9734.99134685905
 31
0.0
  0
LINE
  5
18492
330
747D
100
AcDbEntity
  8
細線
 48
50.0
100
AcDbLine
 10
9726.773075977975
 20
9284.991346859047
 30
0.0
 11
8873.773075977977
 21
9734.991346858944
 31
0.0
  0
LINE
  5
18493
330
747D
100
AcDbEntity
  8
細線
 48
50.0
100
AcDbLine
 10
9726.773075977977
 20
9734.991346859047
 30
0.0
 11
8873.773075977977
 21
9284.991346858943
 31
0.0
  0
DIMENSION
  5
18494
330
747D
100
AcDbEntity
  8
寸法
100
AcDbDimension
  2
*D9
 10
10528.20430242155
 20
8991.768692058075
 30
0.0
 11
10133.12013809624
 21
8991.768692058075
 31
0.0
 70
   160
 71
     5
 42
853.0000000000109
  3
INABA_S40G
100
AcDbAlignedDimension
 13
9753.773075977978
 23
9284.991346859047
 33
0.0
 14
10606.77307597799
 24
9284.991346859042
 34
0.0
100
AcDbRotatedDimension
1001
ACAD
1000
DSTYLE
1002
{
1002
}
  0
LINE
  5
18495
330
747D
100
AcDbEntity
  8
部品1
100
AcDbLine
 10
8873.773075977977
 20
9284.991346858943
 30
0.0
 11
9726.773075977975
 21
9284.991346859047
 31
0.0
  0
DIMENSION
  5
18498
330
747D
100
AcDbEntity
  8
寸法
100
AcDbDimension
  2
*D10
 10
11282.69942171239
 20
8029.991346859025
 30
0.0
 11
11282.69942171239
 21
8869.991346859034
 31
0.0
 70
   160
  1
4X420=<>
 71
     5
 42
1680.000000000015
  3
INABA_S40G
100
AcDbAlignedDimension
 13
10635.27307597798
 23
9709.991346859043
 33
0.0
 14
10635.27307597795
 24
8029.991346859025
 34
0.0
 50
90.0
100
AcDbRotatedDimension
1001
ACAD
1000
DSTYLE
1002
{
1002
}
  0
DIMENSION
  5
18499
330
747D
100
AcDbEntity
  8
寸法
100
AcDbDimension
  2
*D11
 10
11282.69942171236
 20
7974.991346859029
 30
0.0
 11
11282.69942171236
 21
7597.129879954168
 31
0.0
 70
   160
 71
     5
 42
54.99999999999636
  3
INABA_S40G
100
AcDbAlignedDimension
 13
10635.27307597795
 23
8029.991346859025
 33
0.0
 14
10635.27307597795
 24
7974.991346859029
 34
0.0
 50
90.0
100
AcDbRotatedDimension
1001
ACAD
1000
DSTYLE
1002
{
1002
}
  0
DIMENSION
  5
1849A
330
747D
100
AcDbEntity
  8
寸法
100
AcDbDimension
  2
*D12
 10
10962.13080184
 20
9189.773531190152
 30
0.0
 11
10862.13080184
 21
9414.773531190153
 31
0.0
 70
    32
 71
     5
 42
449.9999999999982
  3
INABA_S40G
100
AcDbAlignedDimension
 13
10606.77307597797
 23
9734.99134685904
 33
0.0
 14
10606.77307597797
 24
9284.99134685904
 34
0.0
 50
90.0
100
AcDbRotatedDimension
1001
ACAD
1000
DSTYLE
1002
{
1002
}
  0
DIMENSION
  5
1849B
330
747D
100
AcDbEntity
  8
寸法
100
AcDbDimension
  2
*D13
 10
11282.69942171239
 20
9709.991346859043
 30
0.0
 11
11282.69942171238
 21
10073.47662823328
 31
0.0
 70
   160
 71
     5
 42
54.99999999999636
  3
INABA_S40G
100
AcDbAlignedDimension
 13
10635.27307597798
 23
9764.991346859039
 33
0.0
 14
10635.27307597798
 24
9709.991346859043
 34
0.0
 50
90.0
100
AcDbRotatedDimension
1001
ACAD
1000
DSTYLE
1002
{
1002
}
  0
LINE
  5
1849C
330
747D
100
AcDbEntity
  8
部品1
100
AcDbLine
 10
8900.273075977976
 20
9764.991346858945
 30
0.0
 11
8900.273075977976
 21
9736.991346858944
 31
0.0
  0
LINE
  5
1849D
330
747D
100
AcDbEntity
  8
部品1
100
AcDbLine
 10
9320.273075977977
 20
9764.991346858945
 30
0.0
 11
9320.273075977977
 21
9736.991346858944
 31
0.0
  0
LINE
  5
1849E
330
747D
100
AcDbEntity
  8
部品1
100
AcDbLine
 10
9320.273075977977
 20
9764.991346858941
 30
0.0
 11
9320.273075977977
 21
9736.991346858943
 31
0.0
  0
LINE
  5
1849F
330
747D
100
AcDbEntity
  8
部品1
100
AcDbLine
 10
9320.273075977977
 20
9764.991346859059
 30
0.0
 11
9320.273075977977
 21
9736.991346859058
 31
0.0
  0
LINE
  5
184A0
330
747D
100
AcDbEntity
  8
部品1
100
AcDbLine
 10
9740.273075977977
 20
9764.991346859059
 30
0.0
 11
9740.273075977977
 21
9736.991346859058
 31
0.0
  0
LINE
  5
184A1
330
747D
100
AcDbEntity
  8
部品1
100
AcDbLine
 10
10160.27307597797
 20
9764.991346859059
 30
0.0
 11
10160.27307597797
 21
9736.991346859058
 31
0.0
  0
LINE
  5
184A2
330
747D
100
AcDbEntity
  8
部品1
100
AcDbLine
 10
10635.27307597798
 20
9764.991346859039
 30
0.0
 11
10635.27307597795
 21
7974.991346859029
 31
0.0
  0
DIMENSION
  5
184A3
330
747D
100
AcDbEntity
  8
寸法
100
AcDbDimension
  2
*D14
 10
11647.80636345202
 20
7974.991346859029
 30
0.0
 11
11647.80636345202
 21
8869.991346859034
 31
0.0
 70
   160
 71
     5
 42
1790.000000000008
  3
INABA_S40G
100
AcDbAlignedDimension
 13
10635.27307597798
 23
9764.991346859039
 33
0.0
 14
10635.27307597795
 24
7974.991346859029
 34
0.0
 50
90.0
100
AcDbRotatedDimension
1001
ACAD
1000
DSTYLE
1002
{
1002
}
  0
LINE
  5
184A4
330
747D
100
AcDbEntity
  8
部品1
100
AcDbLine
 10
10580.27307597797
 20
9764.991346859059
 30
0.0
 11
10580.27307597797
 21
9736.991346859058
 31
0.0
  0
LINE
  5
184A5
330
747D
100
AcDbEntity
  8
部品1
100
AcDbLine
 10
10580.27307597797
 20
9764.991346859039
 30
0.0
 11
10580.27307597797
 21
9736.991346859038
 31
0.0
  0
LINE
  5
184A6
330
747D
100
AcDbEntity
  8
部品1
100
AcDbLine
 10
8845.27307597794
 20
9764.991346858913
 30
0.0
 11
8845.273075977969
 21
7974.991346858899
 31
0.0
  0
LINE
  5
184A7
330
747D
100
AcDbEntity
  8
部品1
100
AcDbLine
 10
8900.27307597794
 20
9764.991346858913
 30
0.0
 11
8900.273075977944
 21
9736.991346858912
 31
0.0
  0
DIMENSION
  5
184A8
330
747D
100
AcDbEntity
  8
寸法
100
AcDbDimension
  2
*D15
 10
8900.273075977976
 20
10061.79837366715
 30
0.0
 11
8536.787794603702
 21
10061.79837366715
 31
0.0
 70
   160
 71
     5
 42
55.00000000003637
  3
INABA_S40G
100
AcDbAlignedDimension
 13
8845.27307597794
 23
9764.991346858945
 33
0.0
 14
8900.273075977976
 24
9764.991346858945
 34
0.0
100
AcDbRotatedDimension
1001
ACAD
1000
DSTYLE
1002
{
1002
}
  0
LINE
  5
184A9
330
747D
100
AcDbEntity
  8
部品1
100
AcDbLine
 10
8873.273075977955
 20
8449.991346858913
 30
0.0
 11
8845.273075977955
 21
8449.991346858913
 31
0.0
  0
LINE
  5
184AA
330
747D
100
AcDbEntity
  8
部品1
100
AcDbLine
 10
10607.27307597798
 20
8449.991346859041
 30
0.0
 11
10635.27307597798
 21
8449.991346859041
 31
0.0
  0
LINE
  5
184AB
330
747D
100
AcDbEntity
  8
部品1
 48
50.0
100
AcDbLine
 10
10578.77307597796
 20
8449.991346859041
 30
0.0
 11
8901.773075977962
 21
8449.99134685913
 31
0.0
  0
LINE
  5
184AC
330
747D
100
AcDbEntity
  8
部品1
100
AcDbLine
 10
5128.812729880414
 20
2710.395635910358
 30
0.0
 11
5128.812729880414
 21
2610.395635910358
 31
0.0
  0
LINE
  5
184AD
330
747D
100
AcDbEntity
  8
部品1
 48
50.0
100
AcDbLine
 10
5723.812729880414
 20
2710.395635910358
 30
0.0
 11
5723.812729880414
 21
2610.395635910358
 31
0.0
  0
LINE
  5
184AE
330
747D
100
AcDbEntity
  8
部品1
 48
50.0
100
AcDbLine
 10
5923.812729880413
 20
2710.395635910358
 30
0.0
 11
5923.812729880413
 21
2610.395635910358
 31
0.0
  0
LINE
  5
184AF
330
747D
100
AcDbEntity
  8
部品1
100
AcDbLine
 10
6518.812729880413
 20
2710.395635910358
 30
0.0
 11
6518.812729880413
 21
2610.395635910358
 31
0.0
  0
LINE
  5
184B0
330
747D
100
AcDbEntity
  8
部品1
 48
50.0
100
AcDbLine
 10
6795.812729880417
 20
2710.395635910358
 30
0.0
 11
6711.312729880417
 21
2710.395635910358
 31
0.0
  0
LINE
  5
184B1
330
747D
100
AcDbEntity
  8
部品1
 48
50.0
100
AcDbLine
 10
6795.812729880417
 20
4835.39563591036
 30
0.0
 11
6795.812729880417
 21
2610.395635910358
 31
0.0
  0
LINE
  5
184B2
330
747D
100
AcDbEntity
  8
部品1
 48
50.0
100
AcDbLine
 10
6718.812729880418
 20
4845.395635910359
 30
0.0
 11
6795.812729880417
 21
4835.39563591036
 31
0.0
  0
LINE
  5
184B3
330
747D
100
AcDbEntity
  8
破線
 48
5.0
100
AcDbLine
 10
6591.312729880421
 20
2610.395635910358
 30
0.0
 11
6591.312729880421
 21
2410.395635910358
 31
0.0
  0
LINE
  5
184B4
330
747D
100
AcDbEntity
  8
破線
 48
5.0
100
AcDbLine
 10
6791.312729880417
 20
2410.395635910356
 30
0.0
 11
6591.312729880421
 21
2410.395635910358
 31
0.0
  0
LINE
  5
184B5
330
747D
100
AcDbEntity
  8
破線
 48
5.0
100
AcDbLine
 10
6791.312729880421
 20
2610.395635910358
 30
0.0
 11
6791.312729880417
 21
2410.395635910356
 31
0.0
  0
DIMENSION
  5
184B6
330
747D
100
AcDbEntity
  8
寸法
 48
50.0
100
AcDbDimension
  2
*D16
 10
4856.312729880418
 20
2124.348306609979
 30
0.0
 11
4956.312729880416
 21
2124.348306609979
 31
0.0
 70
   160
 71
     5
 42
199.9999999999963
  3
INABA_S40G
100
AcDbAlignedDimension
 13
5056.312729880414
 23
2410.395635910355
 33
0.0
 14
4856.312729880418
 24
2410.395635910357
 34
0.0
100
AcDbRotatedDimension
  0
LINE
  5
184B7
330
747D
100
AcDbEntity
  8
破線
 48
5.0
100
AcDbLine
 10
4856.312729880414
 20
2610.395635910358
 30
0.0
 11
4856.312729880418
 21
2410.395635910356
 31
0.0
  0
LINE
  5
184B8
330
747D
100
AcDbEntity
  8
破線
 48
5.0
100
AcDbLine
 10
5056.312729880414
 20
2610.395635910358
 30
0.0
 11
5056.312729880414
 21
2410.395635910356
 31
0.0
  0
LINE
  5
184B9
330
747D
100
AcDbEntity
  8
破線
 48
5.0
100
AcDbLine
 10
5056.312729880414
 20
2410.395635910356
 30
0.0
 11
4856.312729880418
 21
2410.395635910356
 31
0.0
  0
DIMENSION
  5
184BA
330
747D
100
AcDbEntity
  8
寸法
 48
50.0
100
AcDbDimension
  2
*D17
 10
4706.81272663378
 20
2610.395635910358
 30
0.0
 11
4706.81272663378
 21
2510.395635910358
 31
0.0
 70
   160
 71
     5
 42
200.0000000000004
  3
INABA_S40G
100
AcDbAlignedDimension
 13
4856.312729880418
 23
2410.395635910357
 33
0.0
 14
4831.312729880414
 24
2610.395635910358
 34
0.0
 50
90.0
100
AcDbRotatedDimension
1001
ACAD
1000
DSTYLE
1002
{
1070
   174
1070
     0
1070
   272
1070
     1
1070
   288
1070
     0
1070
   341
1005
0
1002
}
  0
LINE
  5
184BB
330
747D
100
AcDbEntity
  8
細線
 48
50.0
100
AcDbLine
 10
6586.312729880422
 20
4850.395635910357
 30
0.0
 11
6586.312729880422
 21
2760.395635910358
 31
0.0
  0
LINE
  5
184BC
330
747D
100
AcDbEntity
  8
細線
 48
50.0
100
AcDbLine
 10
6601.312729880421
 20
4850.395635910357
 30
0.0
 11
6601.312729880421
 21
2760.395635910358
 31
0.0
  0
LINE
  5
184BD
330
747D
100
AcDbEntity
  8
細線
 48
50.0
100
AcDbLine
 10
6461.312729880422
 20
4850.395635910357
 30
0.0
 11
6461.312729880422
 21
2760.395635910358
 31
0.0
  0
LINE
  5
184BE
330
747D
100
AcDbEntity
  8
細線
 48
50.0
100
AcDbLine
 10
6446.312729880421
 20
4850.395635910357
 30
0.0
 11
6446.312729880421
 21
2760.395635910358
 31
0.0
  0
LINE
  5
184BF
330
747D
100
AcDbEntity
  8
細線
 48
50.0
100
AcDbLine
 10
6306.312729880421
 20
4850.395635910357
 30
0.0
 11
6306.312729880421
 21
2760.395635910358
 31
0.0
  0
LINE
  5
184C0
330
747D
100
AcDbEntity
  8
細線
 48
50.0
100
AcDbLine
 10
6321.312729880421
 20
4850.395635910357
 30
0.0
 11
6321.312729880421
 21
2760.395635910358
 31
0.0
  0
LINE
  5
184C1
330
747D
100
AcDbEntity
  8
部品1
100
AcDbLine
 10
6243.812729880414
 20
4850.395635910357
 30
0.0
 11
6243.812729880414
 21
2760.395635910358
 31
0.0
  0
LINE
  5
184C2
330
747D
100
AcDbEntity
  8
細線
 48
50.0
100
AcDbLine
 10
5901.312729880418
 20
4850.395635910357
 30
0.0
 11
5901.312729880418
 21
2760.395635910358
 31
0.0
  0
LINE
  5
184C3
330
747D
100
AcDbEntity
  8
細線
 48
50.0
100
AcDbLine
 10
5886.312729880417
 20
4850.395635910357
 30
0.0
 11
5886.312729880417
 21
2760.395635910358
 31
0.0
  0
LINE
  5
184C4
330
747D
100
AcDbEntity
  8
細線
 48
50.0
100
AcDbLine
 10
6026.312729880418
 20
4850.395635910357
 30
0.0
 11
6026.312729880418
 21
2760.395635910358
 31
0.0
  0
LINE
  5
184C5
330
747D
100
AcDbEntity
  8
細線
 48
50.0
100
AcDbLine
 10
6041.312729880417
 20
4850.395635910357
 30
0.0
 11
6041.312729880417
 21
2760.395635910358
 31
0.0
  0
LINE
  5
184C6
330
747D
100
AcDbEntity
  8
細線
 48
50.0
100
AcDbLine
 10
6181.312729880417
 20
4850.395635910357
 30
0.0
 11
6181.312729880417
 21
2760.395635910358
 31
0.0
  0
LINE
  5
184C7
330
747D
100
AcDbEntity
  8
細線
 48
50.0
100
AcDbLine
 10
6166.312729880417
 20
4850.395635910357
 30
0.0
 11
6166.312729880417
 21
2760.395635910358
 31
0.0
  0
LINE
  5
184C8
330
747D
100
AcDbEntity
  8
部品1
100
AcDbLine
 10
5823.812729880414
 20
4850.395635910357
 30
0.0
 11
5823.812729880414
 21
2760.395635910358
 31
0.0
  0
LINE
  5
184C9
330
747D
100
AcDbEntity
  8
細線
 48
50.0
100
AcDbLine
 10
5061.312729880413
 20
4850.395635910357
 30
0.0
 11
5061.312729880413
 21
2760.395635910358
 31
0.0
  0
LINE
  5
184CA
330
747D
100
AcDbEntity
  8
細線
 48
50.0
100
AcDbLine
 10
5046.312729880414
 20
4850.395635910357
 30
0.0
 11
5046.312729880414
 21
2760.395635910358
 31
0.0
  0
LINE
  5
184CB
330
747D
100
AcDbEntity
  8
細線
 48
50.0
100
AcDbLine
 10
5186.312729880413
 20
4850.395635910357
 30
0.0
 11
5186.312729880413
 21
2760.395635910358
 31
0.0
  0
LINE
  5
184CC
330
747D
100
AcDbEntity
  8
細線
 48
50.0
100
AcDbLine
 10
5201.312729880413
 20
4850.395635910357
 30
0.0
 11
5201.312729880413
 21
2760.395635910358
 31
0.0
  0
LINE
  5
184CD
330
747D
100
AcDbEntity
  8
細線
 48
50.0
100
AcDbLine
 10
5341.312729880414
 20
4850.395635910357
 30
0.0
 11
5341.312729880414
 21
2760.395635910358
 31
0.0
  0
LINE
  5
184CE
330
747D
100
AcDbEntity
  8
細線
 48
50.0
100
AcDbLine
 10
5326.312729880413
 20
4850.395635910357
 30
0.0
 11
5326.312729880413
 21
2760.395635910358
 31
0.0
  0
LINE
  5
184CF
330
747D
100
AcDbEntity
  8
細線
 48
50.0
100
AcDbLine
 10
5746.312729880414
 20
4850.395635910357
 30
0.0
 11
5746.312729880414
 21
2760.395635910358
 31
0.0
  0
LINE
  5
184D0
330
747D
100
AcDbEntity
  8
細線
 48
50.0
100
AcDbLine
 10
5761.312729880414
 20
4850.395635910357
 30
0.0
 11
5761.312729880414
 21
2760.395635910358
 31
0.0
  0
LINE
  5
184D1
330
747D
100
AcDbEntity
  8
細線
 48
50.0
100
AcDbLine
 10
5621.312729880414
 20
4850.395635910357
 30
0.0
 11
5621.312729880414
 21
2760.395635910358
 31
0.0
  0
LINE
  5
184D2
330
747D
100
AcDbEntity
  8
細線
 48
50.0
100
AcDbLine
 10
5606.312729880414
 20
4850.395635910357
 30
0.0
 11
5606.312729880414
 21
2760.395635910358
 31
0.0
  0
LINE
  5
184D3
330
747D
100
AcDbEntity
  8
細線
 48
50.0
100
AcDbLine
 10
5466.312729880414
 20
4850.395635910357
 30
0.0
 11
5466.312729880414
 21
2760.395635910358
 31
0.0
  0
LINE
  5
184D4
330
747D
100
AcDbEntity
  8
細線
 48
50.0
100
AcDbLine
 10
5481.312729880414
 20
4850.395635910357
 30
0.0
 11
5481.312729880414
 21
2760.395635910358
 31
0.0
  0
LINE
  5
184D5
330
747D
100
AcDbEntity
  8
部品1
100
AcDbLine
 10
4976.312729880413
 20
2710.395635910358
 30
0.0
 11
6671.312729880414
 21
2710.395635910358
 31
0.0
  0
LINE
  5
184D6
330
747D
100
AcDbEntity
  8
部品1
100
AcDbLine
 10
6711.312729880415
 20
2710.395635910358
 30
0.0
 11
6718.812729880418
 21
2710.395635910358
 31
0.0
  0
LINE
  5
184D7
330
747D
100
AcDbEntity
  8
破線
  6
HIDDEN
 48
5.0
100
AcDbLine
 10
4976.312729880413
 20
2610.395635910358
 30
0.0
 11
4976.312729880413
 21
2605.395635910358
 31
0.0
  0
LINE
  5
184D8
330
747D
100
AcDbEntity
  8
破線
  6
HIDDEN
 48
5.0
100
AcDbLine
 10
4936.312729880421
 20
2610.395635910358
 30
0.0
 11
4936.312729880421
 21
2605.395635910358
 31
0.0
  0
LINE
  5
184D9
330
747D
100
AcDbEntity
  8
破線
  6
HIDDEN
 48
5.0
100
AcDbLine
 10
6711.312729880415
 20
2610.395635910358
 30
0.0
 11
6711.312729880415
 21
2605.395635910358
 31
0.0
  0
LINE
  5
184DA
330
747D
100
AcDbEntity
  8
破線
  6
HIDDEN
 48
5.0
100
AcDbLine
 10
6671.312729880414
 20
2610.395635910358
 30
0.0
 11
6671.312729880414
 21
2605.395635910358
 31
0.0
  0
ARC
  5
184DB
330
747D
100
AcDbEntity
  8
部品1
 48
50.0
100
AcDbCircle
 10
6706.312729880413
 20
2750.395635910358
 30
0.0
 40
5.0
100
AcDbArc
 50
0.0
 51
90.0
  0
ARC
  5
184DC
330
747D
100
AcDbEntity
  8
部品1
 48
50.0
100
AcDbCircle
 10
6676.312729880414
 20
2750.395635910358
 30
0.0
 40
5.0
100
AcDbArc
 50
90.0
 51
180.0
  0
LINE
  5
184DD
330
747D
100
AcDbEntity
  8
部品1
100
AcDbLine
 10
6706.312729880413
 20
2755.395635910358
 30
0.0
 11
6676.312729880414
 21
2755.395635910358
 31
0.0
  0
LINE
  5
184DE
330
747D
100
AcDbEntity
  8
部品1
 48
50.0
100
AcDbLine
 10
6711.312729880415
 20
2750.395635910358
 30
0.0
 11
6711.312729880415
 21
2610.395635910358
 31
0.0
  0
LINE
  5
184DF
330
747D
100
AcDbEntity
  8
部品1
 48
50.0
100
AcDbLine
 10
6671.312729880414
 20
2750.395635910358
 30
0.0
 11
6671.312729880414
 21
2610.395635910358
 31
0.0
  0
ARC
  5
184E0
330
747D
100
AcDbEntity
  8
部品1
 48
50.0
100
AcDbCircle
 10
4971.312729880414
 20
2750.395635910358
 30
0.0
 40
5.0
100
AcDbArc
 50
0.0
 51
90.0
  0
ARC
  5
184E1
330
747D
100
AcDbEntity
  8
部品1
 48
50.0
100
AcDbCircle
 10
4941.312729880414
 20
2750.395635910358
 30
0.0
 40
5.0
100
AcDbArc
 50
90.0
 51
180.0
  0
LINE
  5
184E2
330
747D
100
AcDbEntity
  8
部品1
100
AcDbLine
 10
4941.312729880414
 20
2755.395635910358
 30
0.0
 11
4971.312729880414
 21
2755.395635910358
 31
0.0
  0
LINE
  5
184E3
330
747D
100
AcDbEntity
  8
部品1
 48
50.0
100
AcDbLine
 10
4976.312729880413
 20
2750.395635910358
 30
0.0
 11
4976.312729880413
 21
2610.395635910358
 31
0.0
  0
LINE
  5
184E4
330
747D
100
AcDbEntity
  8
部品1
 48
50.0
100
AcDbLine
 10
4936.312729880413
 20
2750.395635910358
 30
0.0
 11
4936.312729880413
 21
2610.395635910358
 31
0.0
  0
LINE
  5
184E5
330
747D
100
AcDbEntity
  8
破線
  6
HIDDEN
 48
5.0
100
AcDbLine
 10
4976.312729880413
 20
2605.395635910358
 30
0.0
 11
4991.312729880414
 21
2457.695635910357
 31
0.0
  0
LINE
  5
184E6
330
747D
100
AcDbEntity
  8
破線
  6
HIDDEN
 48
5.0
100
AcDbLine
 10
4936.312729880413
 20
2605.395635910358
 30
0.0
 11
4921.312729880414
 21
2457.695635910357
 31
0.0
  0
LINE
  5
184E7
330
747D
100
AcDbEntity
  8
破線
  6
HIDDEN
 48
5.0
100
AcDbLine
 10
4991.312729880414
 20
2457.695635910357
 30
0.0
 11
4991.312729880414
 21
2455.395635910358
 31
0.0
  0
LINE
  5
184E8
330
747D
100
AcDbEntity
  8
破線
  6
HIDDEN
 48
5.0
100
AcDbLine
 10
4921.312729880414
 20
2457.695635910357
 30
0.0
 11
4921.312729880414
 21
2455.395635910358
 31
0.0
  0
LINE
  5
184E9
330
747D
100
AcDbEntity
  8
破線
  6
HIDDEN
 48
5.0
100
AcDbLine
 10
4921.312729880414
 20
2455.395635910358
 30
0.0
 11
4991.312729880414
 21
2455.395635910358
 31
0.0
  0
LINE
  5
184EA
330
747D
100
AcDbEntity
  8
破線
  6
HIDDEN
 48
5.0
100
AcDbLine
 10
6726.312729880413
 20
2457.695635910357
 30
0.0
 11
6726.312729880413
 21
2455.395635910358
 31
0.0
  0
LINE
  5
184EB
330
747D
100
AcDbEntity
  8
破線
  6
HIDDEN
 48
5.0
100
AcDbLine
 10
6711.312729880415
 20
2605.395635910358
 30
0.0
 11
6726.312729880413
 21
2457.695635910357
 31
0.0
  0
LINE
  5
184EC
330
747D
100
AcDbEntity
  8
破線
  6
HIDDEN
 48
5.0
100
AcDbLine
 10
6656.312729880413
 20
2457.695635910357
 30
0.0
 11
6656.312729880413
 21
2455.395635910358
 31
0.0
  0
LINE
  5
184ED
330
747D
100
AcDbEntity
  8
破線
  6
HIDDEN
 48
5.0
100
AcDbLine
 10
6671.312729880414
 20
2605.395635910358
 30
0.0
 11
6656.312729880413
 21
2457.695635910357
 31
0.0
  0
LINE
  5
184EE
330
747D
100
AcDbEntity
  8
破線
  6
HIDDEN
 48
5.0
100
AcDbLine
 10
6726.312729880413
 20
2455.395635910358
 30
0.0
 11
6656.312729880413
 21
2455.395635910358
 31
0.0
  0
LINE
  5
184EF
330
747D
100
AcDbEntity
  8
部品1
100
AcDbLine
 10
6663.812729880418
 20
4850.395635910357
 30
0.0
 11
6663.812729880418
 21
2760.395635910358
 31
0.0
  0
LINE
  5
184F0
330
747D
100
AcDbEntity
  8
部品1
100
AcDbLine
 10
6718.812729880413
 20
4944.395635910363
 30
0.0
 11
6718.812729880418
 21
2610.395635910358
 31
0.0
  0
LINE
  5
184F1
330
747D
100
AcDbEntity
  8
部品1
100
AcDbLine
 10
5403.812729880414
 20
4850.395635910357
 30
0.0
 11
5403.812729880414
 21
2760.395635910358
 31
0.0
  0
LINE
  5
184F2
330
747D
100
AcDbEntity
  8
部品1
100
AcDbLine
 10
4928.812729880414
 20
4944.395635910361
 30
0.0
 11
4928.812729880414
 21
2610.395635910358
 31
0.0
  0
LINE
  5
184F3
330
747D
100
AcDbEntity
  8
部品1
100
AcDbLine
 10
4983.812729880414
 20
4850.395635910357
 30
0.0
 11
4983.812729880414
 21
2760.395635910358
 31
0.0
  0
LINE
  5
184F4
330
747D
100
AcDbEntity
  8
部品1
100
AcDbLine
 10
4928.812729880414
 20
2710.395635910358
 30
0.0
 11
4936.312729880413
 21
2710.395635910358
 31
0.0
  0
LINE
  5
184F5
330
747D
100
AcDbEntity
  8
部品1
100
AcDbLine
 10
4928.812729880414
 20
2760.395635910358
 30
0.0
 11
6718.812729880418
 21
2760.395635910358
 31
0.0
  0
LINE
  5
184F6
330
747D
100
AcDbEntity
  8
部品1
100
AcDbLine
 10
4928.812729880414
 20
4850.395635910357
 30
0.0
 11
6718.812729880413
 21
4850.395635910357
 31
0.0
  0
LINE
  5
184F7
330
747D
100
AcDbEntity
  8
部品1
100
AcDbLine
 10
6205.548062994632
 20
1921.357372932949
 30
0.0
 11
5442.077396766195
 21
1921.357372932949
 31
0.0
  0
LINE
  5
184F8
330
747D
100
AcDbEntity
  8
部品1
100
AcDbLine
 10
6205.548062994632
 20
1681.465051387417
 30
0.0
 11
6205.548062994632
 21
1921.357372932949
 31
0.0
  0
LINE
  5
184F9
330
747D
100
AcDbEntity
  8
部品1
100
AcDbLine
 10
5442.077396766195
 20
1681.465051387417
 30
0.0
 11
6205.548062994632
 21
1681.465051387417
 31
0.0
  0
LINE
  5
184FA
330
747D
100
AcDbEntity
  8
部品1
100
AcDbLine
 10
5442.077396766195
 20
1921.357372932949
 30
0.0
 11
5442.077396766195
 21
1681.465051387417
 31
0.0
  0
TEXT
  5
184FB
330
747D
100
AcDbEntity
  8
部品1
100
AcDbText
 10
5531.523498189803
 20
1728.463843714424
 30
0.0
 40
135.0
  1
側面図
  7
STYLE2
100
AcDbText
  0
TEXT
  5
184FC
330
747D
100
AcDbEntity
  8
部品1
100
AcDbText
 10
3914.313449839217
 20
2646.50253951626
 30
0.0
 40
125.0
  1
▽G.L
  7
STYLE2
100
AcDbText
  0
LINE
  5
184FD
330
747D
100
AcDbEntity
  8
細線
100
AcDbLine
 10
10180.27311129684
 20
4793.395635910339
 30
0.0
 11
10180.27311129684
 21
2767.895635910358
 31
0.0
  0
LINE
  5
184FE
330
747D
100
AcDbEntity
  8
細線
100
AcDbLine
 10
10110.27311129685
 20
4793.395635910339
 30
0.0
 11
10110.27311129685
 21
2767.895635910358
 31
0.0
  0
LINE
  5
184FF
330
747D
100
AcDbEntity
  8
細線
100
AcDbLine
 10
10250.27307597795
 20
4793.395635910339
 30
0.0
 11
10250.27307597795
 21
2767.895635910358
 31
0.0
  0
LINE
  5
18500
330
747D
100
AcDbEntity
  8
細線
100
AcDbLine
 10
9592.273075977951
 20
4793.39563591035
 30
0.0
 11
9592.273075977955
 21
2767.895635910365
 31
0.0
  0
LINE
  5
18501
330
747D
100
AcDbEntity
  8
細線
100
AcDbLine
 10
9662.273075977951
 20
4793.39563591035
 30
0.0
 11
9662.273075977953
 21
2767.895635910365
 31
0.0
  0
LINE
  5
18502
330
747D
100
AcDbEntity
  8
細線
100
AcDbLine
 10
9213.273067792535
 20
4793.39563591035
 30
0.0
 11
9213.273067792535
 21
2760.395635910354
 31
0.0
  0
LINE
  5
18503
330
747D
100
AcDbEntity
  8
細線
100
AcDbLine
 10
10320.27307597795
 20
4793.395635910339
 30
0.0
 11
10320.27307597795
 21
2767.895635910358
 31
0.0
  0
LINE
  5
18504
330
747D
100
AcDbEntity
  8
細線
100
AcDbLine
 10
10390.27307597795
 20
4793.395635910339
 30
0.0
 11
10390.27307597795
 21
2767.895635910358
 31
0.0
  0
LINE
  5
18505
330
747D
100
AcDbEntity
  8
細線
100
AcDbLine
 10
10460.27307597795
 20
4793.395635910339
 30
0.0
 11
10460.27307597795
 21
2767.895635910358
 31
0.0
  0
LINE
  5
18506
330
747D
100
AcDbEntity
  8
細線
100
AcDbLine
 10
9732.273075977952
 20
4793.39563591035
 30
0.0
 11
9732.273075977953
 21
2767.895635910365
 31
0.0
  0
LINE
  5
18507
330
747D
100
AcDbEntity
  8
細線
100
AcDbLine
 10
9802.273075977952
 20
4793.39563591035
 30
0.0
 11
9802.273075977954
 21
2767.895635910365
 31
0.0
  0
LINE
  5
18508
330
747D
100
AcDbEntity
  8
細線
100
AcDbLine
 10
9872.273075977952
 20
4793.39563591035
 30
0.0
 11
9872.273075977954
 21
2767.895635910365
 31
0.0
  0
LINE
  5
18509
330
747D
100
AcDbEntity
  8
細線
100
AcDbLine
 10
9942.273075977951
 20
4793.39563591035
 30
0.0
 11
9942.273075977954
 21
2767.895635910365
 31
0.0
  0
LINE
  5
1850A
330
747D
100
AcDbEntity
  8
細線
100
AcDbLine
 10
9031.273075977955
 20
4793.39563591035
 30
0.0
 11
9031.273075977955
 21
2760.395635910358
 31
0.0
  0
LINE
  5
1850B
330
747D
100
AcDbEntity
  8
細線
100
AcDbLine
 10
9065.273075977954
 20
4793.39563591035
 30
0.0
 11
9065.273075977954
 21
2760.395635910358
 31
0.0
  0
LINE
  5
1850C
330
747D
100
AcDbEntity
  8
部品1
100
AcDbLine
 10
9023.273075977952
 20
4793.39563591035
 30
0.0
 11
9023.273075977952
 21
2760.395635910358
 31
0.0
  0
LINE
  5
1850D
330
747D
100
AcDbEntity
  8
部品1
100
AcDbLine
 10
9073.273075977953
 20
4793.39563591035
 30
0.0
 11
9073.273075977953
 21
2760.395635910358
 31
0.0
  0
LINE
  5
1850E
330
747D
100
AcDbEntity
  8
細線
100
AcDbLine
 10
9283.273067792535
 20
4793.39563591035
 30
0.0
 11
9283.273067792535
 21
2760.395635910354
 31
0.0
  0
LINE
  5
1850F
330
747D
100
AcDbEntity
  8
細線
100
AcDbLine
 10
9353.273067792535
 20
4793.39563591035
 30
0.0
 11
9353.273067792535
 21
2760.395635910354
 31
0.0
  0
LINE
  5
18510
330
747D
100
AcDbEntity
  8
細線
100
AcDbLine
 10
9423.273067792536
 20
4793.39563591035
 30
0.0
 11
9423.273067792536
 21
2760.395635910354
 31
0.0
  0
LINE
  5
18511
330
747D
100
AcDbEntity
  8
部品1
 48
50.0
100
AcDbLine
 10
10033.77307597795
 20
4793.395635910357
 30
0.0
 11
10033.77307597795
 21
2767.895635910358
 31
0.0
  0
LINE
  5
18512
330
747D
100
AcDbEntity
  8
部品1
 48
50.0
100
AcDbLine
 10
9541.773075977959
 20
4793.395635910357
 30
0.0
 11
9541.773075977955
 21
2760.395635910358
 31
0.0
  0
LINE
  5
18513
330
747D
100
AcDbEntity
  8
部品1
 48
50.0
100
AcDbLine
 10
8873.27307597795
 20
4845.395635910358
 30
0.0
 11
8873.27307597795
 21
2710.395635910358
 31
0.0
  0
LINE
  5
18514
330
747D
100
AcDbEntity
  8
細線
 48
50.0
100
AcDbLine
 10
8903.273075977955
 20
4802.895635910357
 30
0.0
 11
8903.273075977949
 21
2710.395635910358
 31
0.0
  0
LINE
  5
18515
330
747D
100
AcDbEntity
  8
部品1
 48
50.0
100
AcDbLine
 10
8903.273075977951
 20
2760.395635910358
 30
0.0
 11
8903.273075977955
 21
4793.395635910357
 31
0.0
  0
LINE
  5
18516
330
747D
100
AcDbEntity
  8
部品1
 48
50.0
100
AcDbLine
 10
10568.27307597795
 20
2757.395635910358
 30
0.0
 11
10568.27307597795
 21
4793.395635910357
 31
0.0
  0
LINE
  5
18517
330
747D
100
AcDbEntity
  8
細線
 48
50.0
100
AcDbLine
 10
10577.27307597795
 20
2710.395635910358
 30
0.0
 11
10577.27307597795
 21
4802.895635910357
 31
0.0
  0
LINE
  5
18518
330
747D
100
AcDbEntity
  8
部品1
 48
50.0
100
AcDbLine
 10
10607.27307597795
 20
2710.395635910358
 30
0.0
 11
10607.27307597795
 21
4845.395635910358
 31
0.0
  0
LINE
  5
18519
330
747D
100
AcDbEntity
  8
細線
 48
50.0
100
AcDbLine
 10
9541.773075977955
 20
2767.895635910358
 30
0.0
 11
10551.27307597795
 21
2767.895635910358
 31
0.0
  0
LINE
  5
1851A
330
747D
100
AcDbEntity
  8
細線
 48
50.0
100
AcDbLine
 10
8903.273075977951
 20
2757.395635910358
 30
0.0
 11
10577.27307597795
 21
2757.395635910358
 31
0.0
  0
LINE
  5
1851B
330
747D
100
AcDbEntity
  8
細線
 48
50.0
100
AcDbLine
 10
8903.273075977951
 20
2753.395635910358
 30
0.0
 11
10577.27307597795
 21
2753.395635910358
 31
0.0
  0
LINE
  5
1851C
330
747D
100
AcDbEntity
  8
部品1
 48
50.0
100
AcDbLine
 10
8873.27307597795
 20
2710.395635910358
 30
0.0
 11
10607.27307597795
 21
2710.395635910358
 31
0.0
  0
LINE
  5
1851D
330
747D
100
AcDbEntity
  8
部品1
 48
50.0
100
AcDbLine
 10
8903.273075977951
 20
2760.395635910358
 30
0.0
 11
9541.773075977955
 21
2760.395635910358
 31
0.0
  0
LINE
  5
1851E
330
747D
100
AcDbEntity
  8
部品1
 48
50.0
100
AcDbLine
 10
8912.273075977951
 20
2760.395635910358
 30
0.0
 11
8912.273075977951
 21
2757.395635910358
 31
0.0
  0
LINE
  5
1851F
330
747D
100
AcDbEntity
  8
細線
 48
50.0
100
AcDbLine
 10
10555.27307597795
 20
2757.395635910358
 30
0.0
 11
10551.27307597795
 21
2767.895635910358
 31
0.0
  0
LINE
  5
18520
330
747D
100
AcDbEntity
  8
部品1
 48
50.0
100
AcDbLine
 10
10607.27307597795
 20
4845.395635910358
 30
0.0
 11
8873.27307597795
 21
4845.395635910358
 31
0.0
  0
LINE
  5
18521
330
747D
100
AcDbEntity
  8
細線
 48
50.0
100
AcDbLine
 10
10607.27307597795
 20
4835.395635910358
 30
0.0
 11
8873.27307597795
 21
4835.395635910358
 31
0.0
  0
LINE
  5
18522
330
747D
100
AcDbEntity
  8
細線
 48
50.0
100
AcDbLine
 10
10577.27307597795
 20
4793.395635910357
 30
0.0
 11
8903.273075977951
 21
4793.395635910357
 31
0.0
  0
LINE
  5
18523
330
747D
100
AcDbEntity
  8
細線
 48
50.0
100
AcDbLine
 10
10577.27307597795
 20
4802.895635910357
 30
0.0
 11
8903.273075977951
 21
4802.895635910357
 31
0.0
  0
LINE
  5
18524
330
747D
100
AcDbEntity
  8
部品1
 48
50.0
100
AcDbLine
 10
8903.273075977951
 20
4801.395635910358
 30
0.0
 11
8873.27307597795
 21
4801.395635910358
 31
0.0
  0
LINE
  5
18525
330
747D
100
AcDbEntity
  8
部品1
 48
50.0
100
AcDbLine
 10
10607.27307597795
 20
4801.395635910358
 30
0.0
 11
10577.27307597795
 21
4801.395635910358
 31
0.0
  0
DIMENSION
  5
18543
330
747D
100
AcDbEntity
  8
寸法
 48
50.0
100
AcDbDimension
  2
*D18
 10
8574.067046765817
 20
2768.395635910358
 30
0.0
 11
8574.067046765817
 21
3780.895635910358
 31
0.0
 70
   160
  1
有効開口部高サ<>
 71
     5
 42
2025.0
  3
INABA_S40G
100
AcDbAlignedDimension
 13
8873.273075977968
 23
4793.395635910357
 33
0.0
 14
8873.273075977968
 24
2768.395635910358
 34
0.0
 50
90.0
100
AcDbRotatedDimension
1001
ACAD
1000
DSTYLE
1002
{
1070
   341
1005
0
1002
}
  0
TEXT
  5
18544
330
747D
100
AcDbEntity
  8
文字
 62
     7
 48
50.0
100
AcDbText
 10
14491.96323844892
 20
483.8967129911416
 30
0.0
 40
160.0
  1
ＮＸＮ－３２ＨＢ
  7
STYLE2
100
AcDbText
  0
TEXT
  5
18545
330
747D
100
AcDbEntity
  8
文字
 62
     7
 48
50.0
100
AcDbText
 10
13583.11819016569
 20
8550.013745883731
 30
0.0
 40
100.0
  1
棚板
  7
STYLE1
100
AcDbText
  0
TEXT
  5
18546
330
747D
100
AcDbEntity
  8
文字
 62
     7
 48
50.0
100
AcDbText
 10
15022.63965474516
 20
8550.013745883727
 30
0.0
 40
100.0
  1
F12            0.6
  7
STYLE1
100
AcDbText
  0
TEXT
  5
18547
330
747D
100
AcDbEntity
  8
文字
 62
     7
 48
50.0
100
AcDbText
 10
15022.63965474515
 20
9740.013745883723
 30
0.0
 40
100.0
  1
F12            1.0
  7
STYLE1
100
AcDbText
  0
TEXT
  5
18548
330
747D
100
AcDbEntity
  8
文字
 62
     7
 48
50.0
100
AcDbText
 10
13583.11819016569
 20
9740.013745883729
 30
0.0
 40
100.0
  1
母屋中
  7
STYLE1
100
AcDbText
  0
TEXT
  5
18549
330
747D
100
AcDbEntity
  8
文字
 62
     7
 48
50.0
100
AcDbText
 10
13248.77747366447
 20
8720.013745883729
 30
0.0
 40
100.0
  1
15
  7
STYLE1
100
AcDbText
  0
LINE
  5
1854A
330
747D
100
AcDbEntity
  8
仕様書枠
 48
50.0
100
AcDbLine
 10
16307.19999999999
 20
8009.600000000004
 30
0.0
 11
13127.19999999999
 21
8009.600000000006
 31
0.0
  0
TEXT
  5
1854B
330
747D
100
AcDbEntity
  8
文字
 62
     7
 48
50.0
100
AcDbText
 10
13583.11819016569
 20
8720.013745883731
 30
0.0
 40
100.0
  1
扉
  7
STYLE1
100
AcDbText
  0
TEXT
  5
1854C
330
747D
100
AcDbEntity
  8
文字
 62
     7
 48
50.0
100
AcDbText
 10
15022.63965474516
 20
8720.013745883727
 30
0.0
 40
100.0
  1
F12            0.8
  7
STYLE1
100
AcDbText
  0
TEXT
  5
1854D
330
747D
100
AcDbEntity
  8
文字
 62
     7
 48
50.0
100
AcDbText
 10
13583.11819016568
 20
8890.013745883731
 30
0.0
 40
100.0
  1
正面パネル
  7
STYLE1
100
AcDbText
  0
TEXT
  5
1854E
330
747D
100
AcDbEntity
  8
文字
 62
     7
 48
50.0
100
AcDbText
 10
15022.63965474515
 20
8890.013745883727
 30
0.0
 40
100.0
  1
F12            0.7
  7
STYLE1
100
AcDbText
  0
TEXT
  5
1854F
330
747D
100
AcDbEntity
  8
文字
 62
     7
 48
50.0
100
AcDbText
 10
15022.63965474517
 20
10590.01374588372
 30
0.0
 40
100.0
  1
F12            1.0
  7
STYLE1
100
AcDbText
  0
TEXT
  5
18550
330
747D
100
AcDbEntity
  8
文字
 62
     7
 48
50.0
100
AcDbText
 10
15022.63965474516
 20
10930.01374588372
 30
0.0
 40
100.0
  1
F12            1.2
  7
STYLE1
100
AcDbText
  0
TEXT
  5
18551
330
747D
100
AcDbEntity
  8
文字
 62
     7
 48
50.0
100
AcDbText
 10
13248.77747366448
 20
8890.013745883727
 30
0.0
 40
100.0
  1
14
  7
STYLE1
100
AcDbText
  0
TEXT
  5
18552
330
747D
100
AcDbEntity
  8
文字
 62
     7
 48
50.0
100
AcDbText
 10
13583.11819016569
 20
10930.01374588372
 30
0.0
 40
100.0
  1
根太
  7
STYLE1
100
AcDbText
  0
TEXT
  5
18553
330
747D
100
AcDbEntity
  8
文字
 62
     7
 48
50.0
100
AcDbText
 10
13583.1181901657
 20
10590.01374588372
 30
0.0
 40
100.0
  1
床パネル
 41
0.9
  7
STYLE1
100
AcDbText
  0
LINE
  5
18554
330
747D
100
AcDbEntity
  8
仕様書枠
 48
50.0
100
AcDbLine
 10
16307.19999999999
 20
9029.6
 30
0.0
 11
13127.2
 21
9029.600000000002
 31
0.0
  0
LINE
  5
18555
330
747D
100
AcDbEntity
  8
仕様書枠
 48
50.0
100
AcDbLine
 10
13127.2
 20
11409.6
 30
0.0
 11
13127.19999999999
 21
8009.600000000006
 31
0.0
  0
TEXT
  5
18556
330
747D
100
AcDbEntity
  8
文字
 62
     7
 48
50.0
100
AcDbText
 10
13229.83081656554
 20
8040.013745883731
 30
0.0
 40
100.0
  1
Y10→溶融亜鉛-5％アルミニウム合金めっき鋼板(JIS G 3317)
 41
0.9
  7
STYLE1
100
AcDbText
  0
TEXT
  5
18557
330
747D
100
AcDbEntity
  8
文字
 62
     7
 48
50.0
100
AcDbText
 10
13229.83081656554
 20
8210.013745883733
 30
0.0
 40
100.0
  1
F12→溶融亜鉛めっき鋼板(JIS G 3302)
  7
STYLE1
100
AcDbText
  0
LINE
  5
18558
330
747D
100
AcDbEntity
  8
仕様書枠
 48
50.0
100
AcDbLine
 10
16307.19999999999
 20
8179.600000000004
 30
0.0
 11
13127.19999999999
 21
8179.600000000005
 31
0.0
  0
LINE
  5
18559
330
747D
100
AcDbEntity
  8
仕様書枠
 48
50.0
100
AcDbLine
 10
16307.19999999999
 20
8349.600000000004
 30
0.0
 11
13127.19999999999
 21
8349.600000000007
 31
0.0
  0
TEXT
  5
1855A
330
747D
100
AcDbEntity
  8
文字
 62
     7
 48
50.0
100
AcDbText
 10
15022.63965474515
 20
9570.013745883725
 30
0.0
 40
100.0
  1
F12            0.7
  7
STYLE1
100
AcDbText
  0
TEXT
  5
1855B
330
747D
100
AcDbEntity
  8
文字
 62
     7
 48
50.0
100
AcDbText
 10
15022.63965474517
 20
9910.013745883725
 30
0.0
 40
100.0
  1
Y10            0.5
  7
STYLE1
100
AcDbText
  0
TEXT
  5
1855C
330
747D
100
AcDbEntity
  8
文字
 62
     7
 48
50.0
100
AcDbText
 10
15022.63965474516
 20
10080.01374588372
 30
0.0
 40
100.0
  1
Y10            0.7
  7
STYLE1
100
AcDbText
  0
TEXT
  5
1855D
330
747D
100
AcDbEntity
  8
文字
 62
     7
 48
50.0
100
AcDbText
 10
15022.63965474516
 20
10250.01374588372
 30
0.0
 40
100.0
  1
Y10            0.7
  7
STYLE1
100
AcDbText
  0
TEXT
  5
1855E
330
747D
100
AcDbEntity
  8
文字
 62
     7
 48
50.0
100
AcDbText
 10
15022.63965474516
 20
10420.01374588372
 30
0.0
 40
100.0
  1
Y10            1.0
  7
STYLE1
100
AcDbText
  0
TEXT
  5
1855F
330
747D
100
AcDbEntity
  8
文字
 62
     7
 48
50.0
100
AcDbText
 10
15022.63965474518
 20
10760.01374588372
 30
0.0
 40
100.0
  1
F12            1.0
  7
STYLE1
100
AcDbText
  0
TEXT
  5
18560
330
747D
100
AcDbEntity
  8
文字
 62
     7
 48
50.0
100
AcDbText
 10
15022.63965474517
 20
11100.01374588372
 30
0.0
 40
100.0
  1
F12            1.2
  7
STYLE1
100
AcDbText
  0
TEXT
  5
18561
330
747D
100
AcDbEntity
  8
文字
 62
     7
 48
50.0
100
AcDbText
 10
13248.77747366448
 20
9230.013745883727
 30
0.0
 40
100.0
  1
12
  7
STYLE1
100
AcDbText
  0
TEXT
  5
18562
330
747D
100
AcDbEntity
  8
文字
 62
     7
 48
50.0
100
AcDbText
 10
13248.77747366448
 20
9060.013745883727
 30
0.0
 40
100.0
  1
13
  7
STYLE1
100
AcDbText
  0
LINE
  5
18563
330
747D
100
AcDbEntity
  8
仕様書枠
 48
50.0
100
AcDbLine
 10
16307.19999999999
 20
8859.6
 30
0.0
 11
13127.2
 21
8859.600000000002
 31
0.0
  0
LINE
  5
18564
330
747D
100
AcDbEntity
  8
仕様書枠
 48
50.0
100
AcDbLine
 10
16307.19999999999
 20
9199.599999999998
 30
0.0
 11
13127.2
 21
9199.600000000001
 31
0.0
  0
TEXT
  5
18565
330
747D
100
AcDbEntity
  8
文字
 62
     7
 48
50.0
100
AcDbText
 10
13248.77747366447
 20
9400.013745883727
 30
0.0
 40
100.0
  1
11
  7
STYLE1
100
AcDbText
  0
LINE
  5
18566
330
747D
100
AcDbEntity
  8
仕様書枠
 48
50.0
100
AcDbLine
 10
16307.2
 20
9879.599999999999
 30
0.0
 11
13127.2
 21
9879.600000000001
 31
0.0
  0
LINE
  5
18567
330
747D
100
AcDbEntity
  8
仕様書枠
 48
50.0
100
AcDbLine
 10
16307.2
 20
10219.6
 30
0.0
 11
13127.2
 21
10219.6
 31
0.0
  0
LINE
  5
18568
330
747D
100
AcDbEntity
  8
仕様書枠
 48
50.0
100
AcDbLine
 10
16307.19999999999
 20
9539.599999999998
 30
0.0
 11
13127.2
 21
9539.6
 31
0.0
  0
LINE
  5
18569
330
747D
100
AcDbEntity
  8
仕様書枠
 48
50.0
100
AcDbLine
 10
16307.19999999999
 20
9369.599999999998
 30
0.0
 11
13127.2
 21
9369.600000000001
 31
0.0
  0
LINE
  5
1856A
330
747D
100
AcDbEntity
  8
仕様書枠
 48
50.0
100
AcDbLine
 10
16307.19999999999
 20
9709.6
 30
0.0
 11
13127.2
 21
9709.600000000001
 31
0.0
  0
TEXT
  5
1856B
330
747D
100
AcDbEntity
  8
文字
 62
     7
 48
50.0
100
AcDbText
 10
13271.19032244792
 20
10250.01374588373
 30
0.0
 40
100.0
  1
6
  7
STYLE1
100
AcDbText
  0
TEXT
  5
1856C
330
747D
100
AcDbEntity
  8
文字
 62
     7
 48
50.0
100
AcDbText
 10
13271.19032244792
 20
10080.01374588373
 30
0.0
 40
100.0
  1
7
  7
STYLE1
100
AcDbText
  0
TEXT
  5
1856D
330
747D
100
AcDbEntity
  8
文字
 62
     7
 48
50.0
100
AcDbText
 10
13271.19032244792
 20
9740.013745883729
 30
0.0
 40
100.0
  1
9
  7
STYLE1
100
AcDbText
  0
TEXT
  5
1856E
330
747D
100
AcDbEntity
  8
文字
 62
     7
 48
50.0
100
AcDbText
 10
13271.19032244792
 20
9910.01374588373
 30
0.0
 40
100.0
  1
8
  7
STYLE1
100
AcDbText
  0
TEXT
  5
1856F
330
747D
100
AcDbEntity
  8
文字
 62
     7
 48
50.0
100
AcDbText
 10
13583.11819016569
 20
10080.01374588372
 30
0.0
 40
100.0
  1
鼻隠シ前後
  7
STYLE1
100
AcDbText
  0
TEXT
  5
18570
330
747D
100
AcDbEntity
  8
文字
 62
     7
 48
50.0
100
AcDbText
 10
13583.11819016569
 20
9910.013745883727
 30
0.0
 40
100.0
  1
屋根パネル
  7
STYLE1
100
AcDbText
  0
TEXT
  5
18571
330
747D
100
AcDbEntity
  8
文字
 62
     7
 48
50.0
100
AcDbText
 10
13583.11819016568
 20
9570.013745883729
 30
0.0
 40
100.0
  1
壁パネル
  7
STYLE1
100
AcDbText
  0
TEXT
  5
18572
330
747D
100
AcDbEntity
  8
文字
 62
     7
 48
50.0
100
AcDbText
 10
13248.77747366447
 20
9570.013745883727
 30
0.0
 40
100.0
  1
10
  7
STYLE1
100
AcDbText
  0
TEXT
  5
18573
330
747D
100
AcDbEntity
  8
文字
 62
     7
 48
50.0
100
AcDbText
 10
13583.11819016569
 20
10250.01374588373
 30
0.0
 40
100.0
  1
妻板左右
  7
STYLE1
100
AcDbText
  0
TEXT
  5
18574
330
747D
100
AcDbEntity
  8
文字
 62
     7
 48
50.0
100
AcDbText
 10
13271.19032244792
 20
10420.01374588372
 30
0.0
 40
100.0
  1
5
  7
STYLE1
100
AcDbText
  0
TEXT
  5
18575
330
747D
100
AcDbEntity
  8
文字
 62
     7
 48
50.0
100
AcDbText
 10
13583.11819016569
 20
10420.01374588373
 30
0.0
 40
100.0
  1
桁前後
  7
STYLE1
100
AcDbText
  0
TEXT
  5
18576
330
747D
100
AcDbEntity
  8
文字
 62
     7
 48
50.0
100
AcDbText
 10
13583.1181901657
 20
10760.01374588372
 30
0.0
 40
100.0
  1
柱
  7
STYLE1
100
AcDbText
  0
TEXT
  5
18577
330
747D
100
AcDbEntity
  8
文字
 62
     7
 48
50.0
100
AcDbText
 10
13583.11819016569
 20
11100.01374588372
 30
0.0
 40
100.0
  1
土台枠
  7
STYLE1
100
AcDbText
  0
TEXT
  5
18578
330
747D
100
AcDbEntity
  8
文字
 62
     7
 48
50.0
100
AcDbText
 10
14859.79774614482
 20
11270.01374588372
 30
0.0
 40
100.0
  1
材料（材質）　　単位mm
  7
STYLE1
100
AcDbText
  0
TEXT
  5
18579
330
747D
100
AcDbEntity
  8
文字
 62
     7
 48
50.0
100
AcDbText
 10
13732.03840939434
 20
11270.01374588372
 30
0.0
 40
100.0
  1
部　　品　　名
  7
STYLE1
100
AcDbText
  0
TEXT
  5
1857A
330
747D
100
AcDbEntity
  8
文字
 62
     7
 48
50.0
100
AcDbText
 10
13271.19032244792
 20
10760.01374588373
 30
0.0
 40
100.0
  1
3
  7
STYLE1
100
AcDbText
  0
TEXT
  5
1857B
330
747D
100
AcDbEntity
  8
文字
 62
     7
 48
50.0
100
AcDbText
 10
13271.19032244792
 20
10590.01374588373
 30
0.0
 40
100.0
  1
4
  7
STYLE1
100
AcDbText
  0
TEXT
  5
1857C
330
747D
100
AcDbEntity
  8
文字
 62
     7
 48
50.0
100
AcDbText
 10
13271.19032244792
 20
10930.01374588373
 30
0.0
 40
100.0
  1
2
  7
STYLE1
100
AcDbText
  0
TEXT
  5
1857D
330
747D
100
AcDbEntity
  8
文字
 62
     7
 48
50.0
100
AcDbText
 10
13271.19032244792
 20
11100.01374588373
 30
0.0
 40
100.0
  1
1
  7
STYLE1
100
AcDbText
  0
TEXT
  5
1857E
330
747D
100
AcDbEntity
  8
文字
 62
     7
 48
50.0
100
AcDbText
 10
13197.42518560407
 20
11270.01374588372
 30
0.0
 40
100.0
  1
品番
  7
STYLE1
100
AcDbText
  0
LINE
  5
1857F
330
747D
100
AcDbEntity
  8
仕様書枠
 48
50.0
100
AcDbLine
 10
16307.19999999999
 20
10729.59999999999
 30
0.0
 11
13127.2
 21
10729.6
 31
0.0
  0
LINE
  5
18580
330
747D
100
AcDbEntity
  8
仕様書枠
 48
50.0
100
AcDbLine
 10
16307.19999999999
 20
10389.6
 30
0.0
 11
13127.2
 21
10389.6
 31
0.0
  0
LINE
  5
18581
330
747D
100
AcDbEntity
  8
仕様書枠
 48
50.0
100
AcDbLine
 10
16307.19999999999
 20
10559.6
 30
0.0
 11
13127.2
 21
10559.6
 31
0.0
  0
LINE
  5
18582
330
747D
100
AcDbEntity
  8
仕様書枠
 48
50.0
100
AcDbLine
 10
16307.2
 20
11069.59999999999
 30
0.0
 11
13127.2
 21
11069.6
 31
0.0
  0
LINE
  5
18583
330
747D
100
AcDbEntity
  8
仕様書枠
 48
50.0
100
AcDbLine
 10
16307.2
 20
10899.6
 30
0.0
 11
13127.2
 21
10899.6
 31
0.0
  0
LINE
  5
18584
330
747D
100
AcDbEntity
  8
仕様書枠
 48
50.0
100
AcDbLine
 10
16307.2
 20
11239.59999999999
 30
0.0
 11
13127.2
 21
11239.6
 31
0.0
  0
LINE
  5
18585
330
747D
100
AcDbEntity
  8
仕様書枠
 48
50.0
100
AcDbLine
 10
13490.2
 20
11409.59999999999
 30
0.0
 11
13490.20000000001
 21
8349.600000000007
 31
0.0
  0
LINE
  5
18586
330
747D
100
AcDbEntity
  8
仕様書枠
 48
50.0
100
AcDbLine
 10
14785.2
 20
11409.59999999999
 30
0.0
 11
14785.2
 21
8349.600000000004
 31
0.0
  0
LINE
  5
18587
330
747D
100
AcDbEntity
  8
仕様書枠
 48
50.0
100
AcDbLine
 10
16307.19999999999
 20
8009.600000000004
 30
0.0
 11
16307.2
 21
11409.6
 31
0.0
  0
LINE
  5
18588
330
747D
100
AcDbEntity
  8
仕様書枠
 48
50.0
100
AcDbLine
 10
16307.2
 20
11409.59999999999
 30
0.0
 11
13127.2
 21
11409.6
 31
0.0
  0
LINE
  5
18589
330
747D
100
AcDbEntity
  8
仕様書枠
 48
50.0
100
AcDbLine
 10
16307.2
 20
10049.6
 30
0.0
 11
13127.2
 21
10049.6
 31
0.0
  0
TEXT
  5
1858A
330
747D
100
AcDbEntity
  8
文字
 62
     7
 48
50.0
100
AcDbText
 10
15022.63965474515
 20
8380.013745883724
 30
0.0
 40
100.0
  1
F12            2.3
  7
STYLE1
100
AcDbText
  0
TEXT
  5
1858B
330
747D
100
AcDbEntity
  8
文字
 62
     7
 48
50.0
100
AcDbText
 10
13583.11819016569
 20
8380.013745883728
 30
0.0
 40
100.0
  1
アンカープレート
  7
STYLE1
100
AcDbText
  0
LINE
  5
1858C
330
747D
100
AcDbEntity
  8
仕様書枠
 48
50.0
100
AcDbLine
 10
16307.19999999999
 20
8519.600000000004
 30
0.0
 11
13127.2
 21
8519.600000000005
 31
0.0
  0
LINE
  5
1858D
330
747D
100
AcDbEntity
  8
仕様書枠
 48
50.0
100
AcDbLine
 10
16307.19999999999
 20
8689.600000000003
 30
0.0
 11
13127.2
 21
8689.600000000005
 31
0.0
  0
TEXT
  5
1858E
330
747D
100
AcDbEntity
  8
文字
 62
     7
 48
50.0
100
AcDbText
 10
13583.11819016569
 20
9400.013745883729
 30
0.0
 40
100.0
  1
壁面扉鴨居
  7
STYLE1
100
AcDbText
  0
TEXT
  5
1858F
330
747D
100
AcDbEntity
  8
文字
 62
     7
 48
50.0
100
AcDbText
 10
13583.11819016569
 20
9230.013745883733
 30
0.0
 40
100.0
  1
壁面扉敷居
  7
STYLE1
100
AcDbText
  0
TEXT
  5
18590
330
747D
100
AcDbEntity
  8
文字
 62
     7
 48
50.0
100
AcDbText
 10
15022.63965474515
 20
9400.013745883727
 30
0.0
 40
100.0
  1
F12            0.7
  7
STYLE1
100
AcDbText
  0
TEXT
  5
18591
330
747D
100
AcDbEntity
  8
文字
 62
     7
 48
50.0
100
AcDbText
 10
15022.63965474517
 20
9230.013745883725
 30
0.0
 40
100.0
  1
F12            1.0
  7
STYLE1
100
AcDbText
  0
TEXT
  5
18592
330
747D
100
AcDbEntity
  8
文字
 62
     7
 48
50.0
100
AcDbText
 10
13583.11819016569
 20
9060.013745883733
 30
0.0
 40
100.0
  1
壁面扉枠左右
  7
STYLE1
100
AcDbText
  0
TEXT
  5
18593
330
747D
100
AcDbEntity
  8
文字
 62
     7
 48
50.0
100
AcDbText
 10
15022.63965474517
 20
9060.013745883725
 30
0.0
 40
100.0
  1
F12            1.0
  7
STYLE1
100
AcDbText
  0
TEXT
  5
18594
330
747D
100
AcDbEntity
  8
文字
 62
     7
 48
50.0
100
AcDbText
 10
13248.77747366447
 20
8550.013745883729
 30
0.0
 40
100.0
  1
16
  7
STYLE1
100
AcDbText
  0
TEXT
  5
18595
330
747D
100
AcDbEntity
  8
文字
 62
     7
 48
50.0
100
AcDbText
 10
13248.77747366447
 20
8380.013745883728
 30
0.0
 40
100.0
  1
17
  7
STYLE1
100
AcDbText
  0
LINE
  5
18596
330
747D
100
AcDbEntity
  8
部品1
100
AcDbLine
 10
10122.00840909217
 20
1921.357372932949
 30
0.0
 11
9358.537742863731
 21
1921.357372932949
 31
0.0
  0
LINE
  5
18597
330
747D
100
AcDbEntity
  8
部品1
100
AcDbLine
 10
10122.00840909217
 20
1681.465051387417
 30
0.0
 11
10122.00840909217
 21
1921.357372932949
 31
0.0
  0
LINE
  5
18598
330
747D
100
AcDbEntity
  8
部品1
100
AcDbLine
 10
9358.537742863731
 20
1681.465051387417
 30
0.0
 11
10122.00840909217
 21
1681.465051387417
 31
0.0
  0
LINE
  5
18599
330
747D
100
AcDbEntity
  8
部品1
100
AcDbLine
 10
9358.537742863731
 20
1921.357372932949
 30
0.0
 11
9358.537742863731
 21
1681.465051387417
 31
0.0
  0
LINE
  5
1859A
330
747D
100
AcDbEntity
  8
部品1
100
AcDbLine
 10
10607.27307597795
 20
2760.395635910378
 30
0.0
 11
10635.27307597795
 21
2760.395635910378
 31
0.0
  0
LINE
  5
1859B
330
747D
100
AcDbEntity
  8
部品1
 48
50.0
100
AcDbLine
 10
8873.273075977952
 20
2710.395635910356
 30
0.0
 11
10607.27307597795
 21
2710.395635910356
 31
0.0
  0
LINE
  5
1859C
330
747D
100
AcDbEntity
  8
部品1
100
AcDbLine
 10
8900.273075977949
 20
4850.395635910352
 30
0.0
 11
8900.273075977949
 21
4845.395635910358
 31
0.0
  0
LINE
  5
1859D
330
747D
100
AcDbEntity
  8
部品1
100
AcDbLine
 10
10580.27307597795
 20
4850.395635910357
 30
0.0
 11
10580.27307597795
 21
4845.395635910358
 31
0.0
  0
LINE
  5
1859E
330
747D
100
AcDbEntity
  8
部品1
100
AcDbLine
 10
8845.273075977951
 20
2760.395635910362
 30
0.0
 11
8873.273075977952
 21
2760.395635910362
 31
0.0
  0
TEXT
  5
1859F
330
747D
100
AcDbEntity
  8
部品1
100
AcDbText
 10
9449.063146601686
 20
1728.463843714426
 30
0.0
 40
135.0
  1
正面図
  7
STYLE2
100
AcDbText
  0
DIMENSION
  5
185A0
330
747D
100
AcDbEntity
  8
寸法
 48
50.0
100
AcDbDimension
  2
*D19
 10
8745.273075977952
 20
2124.34830660998
 30
0.0
 11
8845.273075977951
 21
2124.34830660998
 31
0.0
 70
   160
 71
     5
 42
200.0000000000018
  3
INABA_S40G
100
AcDbAlignedDimension
 13
8945.273075977954
 23
2410.395635910356
 33
0.0
 14
8745.273075977952
 24
2410.395635910356
 34
0.0
100
AcDbRotatedDimension
  0
LINE
  5
185A1
330
747D
100
AcDbEntity
  8
破線
 48
5.0
100
AcDbLine
 10
8840.273075977952
 20
2610.395635910358
 30
0.0
 11
8840.273075977952
 21
2455.39563591036
 31
0.0
  0
LINE
  5
185A2
330
747D
100
AcDbEntity
  8
破線
 48
5.0
100
AcDbLine
 10
10640.27307597795
 20
2610.395635910358
 30
0.0
 11
10640.27307597795
 21
2455.395635910358
 31
0.0
  0
LINE
  5
185A3
330
747D
100
AcDbEntity
  8
破線
 48
5.0
100
AcDbLine
 10
8945.273075977951
 20
2610.395635910359
 30
0.0
 11
8945.273075977951
 21
2410.395635910358
 31
0.0
  0
LINE
  5
185A4
330
747D
100
AcDbEntity
  8
破線
 48
5.0
100
AcDbLine
 10
8820.273075977951
 20
2455.39563591036
 30
0.0
 11
8840.273075977952
 21
2455.39563591036
 31
0.0
  0
LINE
  5
185A5
330
747D
100
AcDbEntity
  8
破線
 48
5.0
100
AcDbLine
 10
8745.273075977952
 20
2610.395635910359
 30
0.0
 11
8745.273075977952
 21
2410.395635910358
 31
0.0
  0
LINE
  5
185A6
330
747D
100
AcDbEntity
  8
破線
 48
5.0
100
AcDbLine
 10
8745.273075977952
 20
2410.395635910358
 30
0.0
 11
8945.273075977954
 21
2410.395635910358
 31
0.0
  0
LINE
  5
185A7
330
747D
100
AcDbEntity
  8
部品1
100
AcDbLine
 10
8840.273075977952
 20
2755.395635910359
 30
0.0
 11
8840.273075977952
 21
2610.395635910358
 31
0.0
  0
LINE
  5
185A8
330
747D
100
AcDbEntity
  8
破線
 48
5.0
100
AcDbLine
 10
10660.27307597795
 20
2455.395635910358
 30
0.0
 11
10640.27307597795
 21
2455.395635910358
 31
0.0
  0
LINE
  5
185A9
330
747D
100
AcDbEntity
  8
破線
 48
5.0
100
AcDbLine
 10
10735.27307597795
 20
2610.395635910358
 30
0.0
 11
10735.27307597795
 21
2410.395635910356
 31
0.0
  0
LINE
  5
185AA
330
747D
100
AcDbEntity
  8
破線
 48
5.0
100
AcDbLine
 10
10535.27307597795
 20
2610.395635910358
 30
0.0
 11
10535.27307597795
 21
2410.395635910356
 31
0.0
  0
LINE
  5
185AB
330
747D
100
AcDbEntity
  8
破線
 48
5.0
100
AcDbLine
 10
10735.27307597795
 20
2410.395635910356
 30
0.0
 11
10535.27307597795
 21
2410.395635910356
 31
0.0
  0
LINE
  5
185AC
330
747D
100
AcDbEntity
  8
部品1
100
AcDbLine
 10
10640.27307597795
 20
2755.395635910359
 30
0.0
 11
10640.27307597795
 21
2610.395635910358
 31
0.0
  0
LINE
  5
185AD
330
747D
100
AcDbEntity
  8
部品1
 48
50.0
100
AcDbLine
 10
9840.273075977952
 20
2710.395635910358
 30
0.0
 11
9840.273075977952
 21
2610.395635910358
 31
0.0
  0
LINE
  5
185AE
330
747D
100
AcDbEntity
  8
部品1
 48
50.0
100
AcDbLine
 10
9640.273075977951
 20
2710.395635910358
 30
0.0
 11
9640.273075977951
 21
2610.395635910358
 31
0.0
  0
LINE
  5
185AF
330
747D
100
AcDbEntity
  8
部品1
100
AcDbLine
 10
9245.273075977952
 20
2710.395635910358
 30
0.0
 11
9245.273075977952
 21
2610.395635910358
 31
0.0
  0
LINE
  5
185B0
330
747D
100
AcDbEntity
  8
部品1
100
AcDbLine
 10
10235.27307597795
 20
2710.395635910358
 30
0.0
 11
10235.27307597795
 21
2610.395635910358
 31
0.0
  0
LINE
  5
185B1
330
747D
100
AcDbEntity
  8
部品1
100
AcDbLine
 10
10635.27307597795
 20
4905.277444596364
 30
0.0
 11
10635.27307597795
 21
2610.395635910358
 31
0.0
  0
LINE
  5
185B2
330
747D
100
AcDbEntity
  8
部品1
100
AcDbLine
 10
8845.273075977951
 20
4942.254155352604
 30
0.0
 11
8845.273075977951
 21
2610.395635910358
 31
0.0
  0
LINE
  5
185B3
330
747D
100
AcDbEntity
  8
部品1
100
AcDbLine
 10
8845.273075977951
 20
4850.395635910357
 30
0.0
 11
10635.27307597795
 21
4850.395635910357
 31
0.0
  0
LINE
  5
185B4
330
747D
100
AcDbEntity
  8
部品1
100
AcDbLine
 10
8845.273075977951
 20
2710.395635910358
 30
0.0
 11
10635.27307597795
 21
2710.395635910358
 31
0.0
  0
LINE
  5
185B5
330
747D
100
AcDbEntity
  8
Ｇ．Ｌ
100
AcDbLine
 10
3759.172478517289
 20
2610.395635910358
 30
0.0
 11
11269.2946497467
 21
2610.395635910358
 31
0.0
  0
TEXT
  5
185B6
330
747D
100
AcDbEntity
  8
文字
 62
     7
 48
50.0
100
AcDbText
 10
13209.4053442172
 20
228.543524256902
 30
0.0
 40
100.0
  1
○有効開口寸法 ： 950×2025(mm)
  7
STYLE2
100
AcDbText
  0
DIMENSION
  5
185B7
330
747D
100
AcDbEntity
  8
寸法
 48
50.0
100
AcDbDimension
  2
*D20
 10
8845.273075977955
 20
5484.488805249831
 30
0.0
 11
9754.868724654436
 21
5484.488805249831
 31
0.0
 70
   160
  1
柱外寸法<>
 71
     5
 42
1790.0
  3
INABA_S40G
100
AcDbAlignedDimension
 13
10635.27307597795
 23
5032.206315522011
 33
0.0
 14
8845.273075977955
 24
5081.397254033334
 34
0.0
100
AcDbRotatedDimension
1001
ACAD
1000
DSTYLE
1002
{
1070
   174
1070
     0
1070
   272
1070
     1
1070
   288
1070
     0
1070
   341
1005
0
1002
}
  0
DIMENSION
  5
185B8
330
747D
100
AcDbEntity
  8
寸法
 48
50.0
100
AcDbDimension
  2
*D21
 10
8785.273075977954
 20
5484.488805249831
 30
0.0
 11
8475.635280702364
 21
5484.488805249831
 31
0.0
 70
   160
 71
     5
 42
60.0
  3
INABA_S40G
100
AcDbAlignedDimension
 13
8845.273075977955
 23
5081.397254033334
 33
0.0
 14
8785.273075977954
 24
5085.395635910362
 34
0.0
100
AcDbRotatedDimension
1001
ACAD
1000
DSTYLE
1002
{
1070
   174
1070
     0
1070
   272
1070
     1
1070
   288
1070
     0
1070
   341
1005
0
1002
}
  0
DIMENSION
  5
185B9
330
747D
100
AcDbEntity
  8
寸法
 48
50.0
100
AcDbDimension
  2
*D22
 10
8785.273075977954
 20
5701.014904868277
 30
0.0
 11
9691.078827228922
 21
5701.014904868277
 31
0.0
 70
   160
 71
     5
 42
1930.0
  3
INABA_S40G
100
AcDbAlignedDimension
 13
10715.27307597795
 23
5030.395635910359
 33
0.0
 14
8785.273075977954
 24
5085.395635910362
 34
0.0
100
AcDbRotatedDimension
1001
ACAD
1000
DSTYLE
1002
{
1070
   174
1070
     0
1070
   272
1070
     1
1070
   288
1070
     0
1070
   341
1005
0
1002
}
  0
DIMENSION
  5
185BA
330
747D
100
AcDbEntity
  8
寸法
 48
50.0
100
AcDbDimension
  2
*D23
 10
10715.27307597795
 20
5484.488805249831
 30
0.0
 11
10921.32032007244
 21
5484.488805249831
 31
0.0
 70
   160
 71
     5
 42
80.0
  3
INABA_S40G
100
AcDbAlignedDimension
 13
10635.27307597795
 23
5032.206315522011
 33
0.0
 14
10715.27307597795
 24
5030.395635910359
 34
0.0
100
AcDbRotatedDimension
1001
ACAD
1000
DSTYLE
1002
{
1070
   174
1070
     0
1070
   272
1070
     1
1070
   288
1070
     0
1070
   341
1005
0
1002
}
  0
TEXT
  5
185BB
330
747D
100
AcDbEntity
  8
部品1
 48
50.0
100
AcDbText
 10
9578.540911201681
 20
5252.14779716407
 30
0.0
 40
120.0
  1
1000
  7
STYLE1
100
AcDbText
  0
LINE
  5
185BC
330
747D
100
AcDbEntity
  8
部品1
 48
50.0
100
AcDbLine
 10
9590.273075977952
 20
5216.263775011637
 30
0.0
 11
9890.273075977953
 21
5216.263775011637
 31
0.0
  0
LINE
  5
185BD
330
747D
100
AcDbEntity
  8
部品1
 48
50.0
100
AcDbLine
 10
9890.273075977953
 20
5216.263775011637
 30
0.0
 11
9890.273075977953
 21
5200.063775011638
 31
0.0
  0
TEXT
  5
185BE
330
747D
100
AcDbEntity
  8
部品1
 48
50.0
100
AcDbText
 10
10067.36592326581
 20
5114.646538945788
 30
0.0
 40
120.0
  1
54
 50
90.0
  7
STYLE1
100
AcDbText
  0
LINE
  5
185BF
330
747D
100
AcDbEntity
  8
部品1
 48
50.0
100
AcDbLine
 10
9590.273075977952
 20
5216.263775011637
 30
0.0
 11
9890.273075977953
 21
5200.063775011638
 31
0.0
  0
LINE
  5
185C0
330
747D
100
AcDbEntity
  8
部品1
100
AcDbLine
 10
8792.818062334916
 20
5084.113371244624
 30
0.0
 11
10707.88495283941
 21
5029.036433619496
 31
0.0
  0
LINE
  5
185C1
330
747D
100
AcDbEntity
  8
部品1
100
AcDbLine
 10
8800.615640579909
 20
4943.176660979325
 30
0.0
 11
10689.9367765178
 21
4904.148235745118
 31
0.0
  0
LINE
  5
185C2
330
747D
100
AcDbEntity
  8
細線
 48
50.0
100
AcDbLine
 10
8786.312499078768
 20
5056.412717751721
 30
0.0
 11
10711.94848382393
 21
5000.78851311089
 31
0.0
  0
LINE
  5
185C3
330
747D
100
AcDbEntity
  8
細線
 48
50.0
100
AcDbLine
 10
8791.072974316055
 20
4963.551206053855
 30
0.0
 11
10701.07663874669
 21
4923.741887079362
 31
0.0
  0
LINE
  5
185C4
330
747D
100
AcDbEntity
  8
細線
 48
50.0
100
AcDbLine
 10
8818.273075977955
 20
5082.795312285764
 30
0.0
 11
8812.983974422444
 21
4942.709679658408
 31
0.0
  0
LINE
  5
185C5
330
747D
100
AcDbEntity
  8
部品1
 48
50.0
100
AcDbLine
 10
8785.457361891062
 20
5076.989182075051
 30
0.0
 11
8785.837621668873
 21
5057.06221762864
 31
0.0
  0
LINE
  5
185C6
330
747D
100
AcDbEntity
  8
部品1
 48
50.0
100
AcDbLine
 10
8788.906393775118
 20
5053.486936135167
 30
0.0
 11
8790.610295266484
 21
4964.196439428519
 31
0.0
  0
LINE
  5
185C7
330
747D
100
AcDbEntity
  8
部品1
 48
50.0
100
AcDbLine
 10
8793.679067372725
 20
4960.621157935047
 30
0.0
 11
8793.881019993158
 21
4950.038122541955
 31
0.0
  0
ARC
  5
185C8
330
747D
100
AcDbEntity
  8
部品1
 48
50.0
100
AcDbCircle
 10
8792.456087719399
 20
5077.122736482479
 30
0.0
 40
7.0
100
AcDbArc
 50
87.03587545304044
 51
181.0932240292635
  0
ARC
  5
185C9
330
747D
100
AcDbEntity
  8
部品1
 48
50.0
100
AcDbCircle
 10
8800.879745821495
 20
4950.171676949383
 30
0.0
 40
7.0
100
AcDbArc
 50
181.0932240293156
 51
267.8377559869492
  0
ARC
  5
185CA
330
747D
100
AcDbEntity
  8
部品1
100
AcDbCircle
 10
8790.679613446293
 20
4960.563920331864
 30
0.0
 40
3.0
100
AcDbArc
 50
1.093224029315636
 51
80.18775403148449
  0
ARC
  5
185CB
330
747D
100
AcDbEntity
  8
部品1
100
AcDbCircle
 10
8785.906939848688
 20
5053.429698531983
 30
0.0
 40
3.0
100
AcDbArc
 50
1.093224029263536
 51
80.18775403148449
  0
ARC
  5
185CC
330
747D
100
AcDbEntity
  8
部品1
100
AcDbCircle
 10
8786.53749425171
 20
5057.07557306938
 30
0.0
 40
0.7
100
AcDbArc
 50
181.0932240292114
 51
260.1877540314845
  0
ARC
  5
185CD
330
747D
100
AcDbEntity
  8
部品1
100
AcDbCircle
 10
8791.310167849319
 20
4964.209794869263
 30
0.0
 40
0.7
100
AcDbArc
 50
181.0932240292114
 51
260.1877540314845
  0
LINE
  5
185CE
330
747D
100
AcDbEntity
  8
細線
 48
50.0
100
AcDbLine
 10
10682.27307597795
 20
5030.362614945654
 30
0.0
 11
10677.52539308995
 21
4904.616842454909
 31
0.0
  0
LINE
  5
185CF
330
747D
100
AcDbEntity
  8
部品1
 48
50.0
100
AcDbLine
 10
10714.48697878865
 20
5021.336788184576
 30
0.0
 11
10712.45635759768
 21
5001.391746926796
 31
0.0
  0
LINE
  5
185D0
330
747D
100
AcDbEntity
  8
部品1
 48
50.0
100
AcDbLine
 10
10709.1037911132
 20
4998.081112853886
 30
0.0
 11
10701.59701184836
 21
4924.348492108875
 31
0.0
  0
LINE
  5
185D1
330
747D
100
AcDbEntity
  8
部品1
 48
50.0
100
AcDbLine
 10
10698.24444536388
 20
4921.037858035963
 30
0.0
 11
10697.16488232414
 21
4910.434241042406
 31
0.0
  0
ARC
  5
185D2
330
747D
100
AcDbEntity
  8
部品1
 48
50.0
100
AcDbCircle
 10
10707.5229782239
 20
5022.045798857351
 30
0.0
 40
7.0
100
AcDbArc
 50
354.1866997665013
 51
87.03587545304044
  0
ARC
  5
185D3
330
747D
100
AcDbEntity
  8
部品1
 48
50.0
100
AcDbCircle
 10
10690.20088175938
 20
4911.143251715179
 30
0.0
 40
7.0
100
AcDbArc
 50
267.8377559869492
 51
354.1866997665532
  0
ARC
  5
185D4
330
747D
100
AcDbEntity
  8
部品1
100
AcDbCircle
 10
10701.22901703449
 20
4920.733996319059
 30
0.0
 40
3.0
100
AcDbArc
 50
95.09216976420788
 51
174.1866997665532
  0
ARC
  5
185D5
330
747D
100
AcDbEntity
  8
部品1
100
AcDbCircle
 10
10712.08836278381
 20
4997.777251136984
 30
0.0
 40
3.0
100
AcDbArc
 50
95.09216976442012
 51
174.1866997665532
  0
ARC
  5
185D6
330
747D
100
AcDbEntity
  8
部品1
100
AcDbCircle
 10
10711.75995754121
 20
5001.462647994072
 30
0.0
 40
0.7
100
AcDbArc
 50
275.0921697642079
 51
354.1866997665532
  0
ARC
  5
185D7
330
747D
100
AcDbEntity
  8
部品1
100
AcDbCircle
 10
10700.90061179189
 20
4924.419393176149
 30
0.0
 40
0.7
100
AcDbArc
 50
275.0921697642079
 51
354.1866997667087
  0
DIMENSION
  5
185D8
330
747D
100
AcDbEntity
  8
寸法
100
AcDbDimension
  2
*D24
 10
7936.633694048595
 20
5085.395635910362
 30
0.0
 11
7936.633694048594
 21
3780.895635910358
 31
0.0
 70
   160
 71
     5
 42
2375.000000000005
  3
INABA_S40G
100
AcDbAlignedDimension
 13
8845.273075977951
 23
2710.395635910358
 33
0.0
 14
8785.273075977952
 24
5085.395635910362
 34
0.0
 50
90.0
100
AcDbRotatedDimension
1001
ACAD
1000
DSTYLE
1002
{
1070
   174
1070
     0
1070
   272
1070
     1
1070
   288
1070
     0
1070
   341
1005
0
1002
}
  0
DIMENSION
  5
185D9
330
747D
100
AcDbEntity
  8
寸法
100
AcDbDimension
  2
*D25
 10
8221.620366819655
 20
2760.395635910358
 30
0.0
 11
8221.620366819655
 21
3780.895635910358
 31
0.0
 70
   160
 71
     5
 42
2090.0
  3
INABA_S40G
100
AcDbAlignedDimension
 13
8845.273075977951
 23
4850.395635910357
 33
0.0
 14
8845.273075977951
 24
2760.395635910358
 34
0.0
 50
90.0
100
AcDbRotatedDimension
1001
ACAD
1000
DSTYLE
1002
{
1070
   174
1070
     0
1070
   272
1070
     1
1070
   288
1070
     0
1070
   341
1005
0
1002
}
  0
DIMENSION
  5
185DA
330
747D
100
AcDbEntity
  8
寸法
100
AcDbDimension
  2
*D26
 10
8221.620366819655
 20
2710.395635910358
 30
0.0
 11
8221.620366819655
 21
2404.348391815867
 31
0.0
 70
   160
 71
     5
 42
50.0
  3
INABA_S40G
100
AcDbAlignedDimension
 13
8845.273075977951
 23
2760.395635910358
 33
0.0
 14
8790.273075977951
 24
2710.395635910358
 34
0.0
 50
90.0
100
AcDbRotatedDimension
1001
ACAD
1000
DSTYLE
1002
{
1070
   174
1070
     0
1070
   272
1070
     1
1070
   288
1070
     0
1070
   341
1005
0
1002
}
  0
DIMENSION
  5
185DB
330
747D
100
AcDbEntity
  8
寸法
100
AcDbDimension
  2
*D27
 10
7936.633694048594
 20
2610.395635910358
 30
0.0
 11
7936.633694048592
 21
2374.348391815868
 31
0.0
 70
   160
 71
     5
 42
100.0
  3
INABA_S40G
100
AcDbAlignedDimension
 13
8790.273075977951
 23
2710.395635910358
 33
0.0
 14
8221.620366819655
 24
2610.395635910358
 34
0.0
 50
90.0
100
AcDbRotatedDimension
1001
ACAD
1000
DSTYLE
1002
{
1070
   174
1070
     0
1070
   272
1070
     1
1070
   288
1070
     0
1070
   341
1005
0
1002
}
  0
DIMENSION
  5
185DC
330
747D
100
AcDbEntity
  8
寸法
100
AcDbDimension
  2
*D28
 10
11164.43788464915
 20
5030.395635910359
 30
0.0
 11
11164.43788464915
 21
3863.147539516205
 31
0.0
 70
   160
 71
     5
 42
2320.000000000002
  3
INABA_S40G
100
AcDbAlignedDimension
 13
10635.27307597795
 23
2710.395635910358
 33
0.0
 14
10715.27307597793
 24
5030.395635910359
 34
0.0
 50
90.0
100
AcDbRotatedDimension
1001
ACAD
1000
DSTYLE
1002
{
1070
   174
1070
     0
1070
   272
1070
     1
1070
   288
1070
     0
1070
   341
1005
0
1002
}
  0
LINE
  5
18887
330
747D
100
AcDbEntity
  8
補助
  6
PHANTOM
 62
   230
 48
50.0
100
AcDbLine
 10
140.0
 20
0.0
 30
0.0
 11
139.9999999999995
 21
11409.6
 31
0.0
  0
MTEXT
  5
189AA
330
747D
100
AcDbEntity
  8
寸法
 62
     7
 48
50.0
100
AcDbMText
 10
9315.375613071116
 20
9351.226165056301
 30
0.0
 40
96.0
 41
0.0
 71
     5
 72
     1
  1
棚 3段
  7
STYLE1
 73
     1
 44
1.0
1001
ACAD
1000
MTEXTBEGIN
1070
    73
1070
     1
1070
    44
1040
1.0
1070
    74
1070
     0
1000
MTEXTEND
  0
LINE
  5
18B1C
330
747D
100
AcDbEntity
  8
部品1
 48
50.0
100
AcDbLine
 10
8947.273075977951
 20
3841.895635910358
 30
0.0
 11
9000.273075977951
 21
3841.895635910358
 31
0.0
  0
LINE
  5
18D91
330
747D
100
AcDbEntity
  8
細線
 48
50.0
100
AcDbLine
 10
9423.273075977938
 20
7902.991521035827
 30
0.0
 11
9541.773075977939
 21
7902.991521035827
 31
0.0
  0
LINE
  5
18D92
330
747D
100
AcDbEntity
  8
細線
 48
50.0
100
AcDbLine
 10
9511.773075977941
 20
7920.141521035825
 30
0.0
 11
9511.773075977941
 21
7924.991521035827
 31
0.0
  0
LINE
  5
18D93
330
747D
100
AcDbEntity
  8
細線
 48
50.0
100
AcDbLine
 10
9511.773075977941
 20
7924.991521035827
 30
0.0
 11
9526.773075977942
 21
7924.991521035827
 31
0.0
  0
LINE
  5
18D94
330
747D
100
AcDbEntity
  8
細線
 48
50.0
100
AcDbLine
 10
9526.773075977942
 20
7924.991521035827
 30
0.0
 11
9526.773075977944
 21
7931.991521035827
 31
0.0
  0
LINE
  5
18D95
330
747D
100
AcDbEntity
  8
細線
 48
50.0
100
AcDbLine
 10
9526.773075977944
 20
7931.991521035827
 30
0.0
 11
9541.773075977943
 21
7931.991521035827
 31
0.0
  0
LINE
  5
18D96
330
747D
100
AcDbEntity
  8
細線
 48
50.0
100
AcDbLine
 10
9541.773075977943
 20
7931.991521035827
 30
0.0
 11
9541.773075977943
 21
7902.991521035827
 31
0.0
  0
LINE
  5
18D97
330
747D
100
AcDbEntity
  8
細線
 48
50.0
100
AcDbLine
 10
9530.773075977943
 20
7954.487715301333
 30
0.0
 11
9530.773075977943
 21
7958.987715301333
 31
0.0
  0
LINE
  5
18D98
330
747D
100
AcDbEntity
  8
細線
 48
50.0
100
AcDbLine
 10
9530.773075977943
 20
7958.987715301333
 30
0.0
 11
9515.773075977943
 21
7958.987715301333
 31
0.0
  0
LINE
  5
18D99
330
747D
100
AcDbEntity
  8
細線
 48
50.0
100
AcDbLine
 10
9515.773075977943
 20
7958.987715301333
 30
0.0
 11
9515.773075977943
 21
7965.987715301332
 31
0.0
  0
LINE
  5
18D9A
330
747D
100
AcDbEntity
  8
細線
 48
50.0
100
AcDbLine
 10
9515.773075977943
 20
7965.987715301332
 30
0.0
 11
9500.773075977944
 21
7965.98771530133
 31
0.0
  0
LINE
  5
18D9B
330
747D
100
AcDbEntity
  8
細線
 48
50.0
100
AcDbLine
 10
9500.773075977944
 20
7965.98771530133
 30
0.0
 11
9500.773075977944
 21
7928.387487198219
 31
0.0
  0
LINE
  5
18D9C
330
747D
100
AcDbEntity
  8
細線
 48
50.0
100
AcDbLine
 10
9500.773075977944
 20
7928.387487198219
 30
0.0
 11
9520.773083279118
 21
7928.38752874776
 31
0.0
  0
LINE
  5
18D9D
330
747D
100
AcDbEntity
  8
細線
 48
50.0
100
AcDbLine
 10
9520.773038410178
 20
7936.990990383569
 30
0.0
 11
9520.773083279118
 21
7928.38752874776
 31
0.0
  0
LINE
  5
18D9E
330
747D
100
AcDbEntity
  8
細線
 48
50.0
100
AcDbLine
 10
9520.773038410178
 20
7936.990990383569
 30
0.0
 11
9532.005727764888
 21
7936.991173336716
 31
0.0
  0
ARC
  5
18D9F
330
747D
100
AcDbEntity
  8
細線
 48
50.0
100
AcDbCircle
 10
9538.588020072223
 20
7935.791337250328
 30
0.0
 40
1.8
100
AcDbArc
 50
270.0006665777295
 51
345.0005554812987
  0
LINE
  5
18DA0
330
747D
100
AcDbEntity
  8
細線
 48
50.0
100
AcDbLine
 10
9540.574453518301
 20
7936.250177707607
 30
0.0
 11
9540.326691076103
 21
7935.3254798255
 31
0.0
  0
LINE
  5
18DA1
330
747D
100
AcDbEntity
  8
細線
 48
50.0
100
AcDbLine
 10
9538.588041013378
 20
7933.991337250448
 30
0.0
 11
9534.95811359461
 21
7933.991295019969
 31
0.0
  0
ARC
  5
18DA2
330
747D
100
AcDbEntity
  8
細線
 48
50.0
100
AcDbCircle
 10
9534.958092653457
 20
7935.791295019848
 30
0.0
 40
1.8
100
AcDbArc
 50
195.0010443049394
 51
270.0006665777295
  0
LINE
  5
18DA3
330
747D
100
AcDbEntity
  8
細線
 48
50.0
100
AcDbLine
 10
9532.971665161197
 20
7936.250009987412
 30
0.0
 11
9533.219434657711
 21
7935.325389048831
 31
0.0
  0
ARC
  5
18DA4
330
747D
100
AcDbEntity
  8
細線
 48
50.0
100
AcDbCircle
 10
9532.005744052451
 20
7935.991173336851
 30
0.0
 40
1.0
100
AcDbArc
 50
15.00104430493943
 51
90.00093320877969
  0
LINE
  5
18DA5
330
747D
100
AcDbEntity
  8
細線
 48
50.0
100
AcDbLine
 10
9541.540374873406
 20
7936.991368027121
 30
0.0
 11
9542.482135024311
 21
7936.99137460097
 31
0.0
  0
ARC
  5
18DA6
330
747D
100
AcDbEntity
  8
細線
 48
50.0
100
AcDbCircle
 10
9541.54038185379
 20
7935.991368027146
 30
0.0
 40
1.0
100
AcDbArc
 50
90.0003999466794
 51
165.0005554812987
  0
LINE
  5
18DA7
330
747D
100
AcDbEntity
  8
細線
 48
50.0
100
AcDbLine
 10
10577.77307597794
 20
7995.991346858875
 30
0.0
 11
10577.77307597794
 21
7970.991346858871
 31
0.0
  0
LINE
  5
18DA8
330
747D
100
AcDbEntity
  8
細線
100
AcDbLine
 10
10568.27307597794
 20
7970.991346858871
 30
0.0
 11
10460.27307597794
 21
7970.991346858871
 31
0.0
  0
LINE
  5
18DA9
330
747D
100
AcDbEntity
  8
細線
 48
50.0
100
AcDbLine
 10
9992.773081128849
 20
7962.991346858875
 30
0.0
 11
9992.77308112885
 21
8000.991346858867
 31
0.0
  0
LINE
  5
18DAA
330
747D
100
AcDbEntity
  8
細線
 48
50.0
100
AcDbLine
 10
9992.77308112885
 20
8000.991346858867
 30
0.0
 11
10007.77308112885
 21
8000.991346858871
 31
0.0
  0
LINE
  5
18DAB
330
747D
100
AcDbEntity
  8
細線
 48
50.0
100
AcDbLine
 10
10007.77308112885
 20
8000.991346858871
 30
0.0
 11
10007.77308112885
 21
7995.991346858871
 31
0.0
  0
LINE
  5
18DAC
330
747D
100
AcDbEntity
  8
細線
 48
50.0
100
AcDbLine
 10
9992.773081128849
 20
7962.991346858875
 30
0.0
 11
10012.77308112885
 21
7962.991346858871
 31
0.0
  0
LINE
  5
18DAD
330
747D
100
AcDbEntity
  8
細線
 48
50.0
100
AcDbLine
 10
10012.77308112885
 20
7962.991346858871
 30
0.0
 11
10012.77308112885
 21
7970.991346858871
 31
0.0
  0
LINE
  5
18DAE
330
747D
100
AcDbEntity
  8
細線
100
AcDbLine
 10
10250.27307597794
 20
7970.991346858871
 30
0.0
 11
10180.27307597794
 21
7970.991346858871
 31
0.0
  0
LINE
  5
18DAF
330
747D
100
AcDbEntity
  8
細線
 48
50.0
100
AcDbLine
 10
10110.27307597794
 20
7970.991346858871
 30
0.0
 11
10025.56886070169
 21
7970.991346858871
 31
0.0
  0
LINE
  5
18DB0
330
747D
100
AcDbEntity
  8
細線
100
AcDbLine
 10
10390.27307597794
 20
7970.991346858871
 30
0.0
 11
10320.27307597794
 21
7970.991346858871
 31
0.0
  0
LINE
  5
18DB1
330
747D
100
AcDbEntity
  8
細線
100
AcDbLine
 10
10218.27307597794
 20
7970.991346858871
 30
0.0
 11
10218.27307597794
 21
8000.291346858871
 31
0.0
  0
LINE
  5
18DB2
330
747D
100
AcDbEntity
  8
細線
100
AcDbLine
 10
10198.27307597794
 20
8000.291346858871
 30
0.0
 11
10218.27307597794
 21
8000.291346858871
 31
0.0
  0
LINE
  5
18DB3
330
747D
100
AcDbEntity
  8
細線
100
AcDbLine
 10
10198.27307597794
 20
7970.991346858871
 30
0.0
 11
10198.27307597794
 21
8000.291346858871
 31
0.0
  0
LINE
  5
18DB4
330
747D
100
AcDbEntity
  8
細線
 48
50.0
100
AcDbLine
 10
10561.87307597794
 20
7995.991346858871
 30
0.0
 11
10551.87307597794
 21
8000.991346858871
 31
0.0
  0
LINE
  5
18DB5
330
747D
100
AcDbEntity
  8
細線
 48
50.0
100
AcDbLine
 10
10577.77307597794
 20
7995.991346858875
 30
0.0
 11
10561.87307597794
 21
7995.991346858871
 31
0.0
  0
LINE
  5
18DB6
330
747D
100
AcDbEntity
  8
細線
 48
50.0
100
AcDbLine
 10
10551.87307597794
 20
8000.991346858869
 30
0.0
 11
10007.77308112885
 21
8000.991346858867
 31
0.0
  0
LINE
  5
18DB7
330
747D
100
AcDbEntity
  8
細線
 48
50.0
100
AcDbLine
 10
10018.77308112885
 20
7970.191346858872
 30
0.0
 11
10018.77308112885
 21
7968.691346858872
 31
0.0
  0
LINE
  5
18DB8
330
747D
100
AcDbEntity
  8
細線
 48
50.0
100
AcDbLine
 10
10019.47308112885
 20
7967.991346858871
 30
0.0
 11
10024.07308112885
 21
7967.991346858871
 31
0.0
  0
LINE
  5
18DB9
330
747D
100
AcDbEntity
  8
細線
 48
50.0
100
AcDbLine
 10
10024.77308112885
 20
7968.691346858872
 30
0.0
 11
10024.77308795396
 21
7970.191361750359
 31
0.0
  0
ARC
  5
18DBA
330
747D
100
AcDbEntity
  8
細線
 48
50.0
100
AcDbCircle
 10
10024.07308112885
 20
7968.691346858872
 30
0.0
 40
0.7
100
AcDbArc
 50
270.0
 51
0.0
  0
ARC
  5
18DBB
330
747D
100
AcDbEntity
  8
細線
 48
50.0
100
AcDbCircle
 10
10019.47308112885
 20
7968.691346858872
 30
0.0
 40
0.7
100
AcDbArc
 50
180.0
 51
270.0
  0
LINE
  5
18DBC
330
747D
100
AcDbEntity
  8
細線
 48
50.0
100
AcDbLine
 10
10017.97308299029
 20
7970.991346858871
 30
0.0
 11
10012.77308112885
 21
7970.991346858871
 31
0.0
  0
ARC
  5
18DBD
330
747D
100
AcDbEntity
  8
細線
 48
50.0
100
AcDbCircle
 10
10025.57308795395
 20
7970.191358027489
 30
0.0
 40
0.8
100
AcDbArc
 50
90.00014387753465
 51
179.9997333689498
  0
ARC
  5
18DBE
330
747D
100
AcDbEntity
  8
細線
 48
50.0
100
AcDbCircle
 10
10017.97308112885
 20
7970.191346858872
 30
0.0
 40
0.8
100
AcDbArc
 50
359.9997333689499
 51
89.99986668437072
  0
LINE
  5
18DBF
330
747D
100
AcDbEntity
  8
細線
 48
50.0
100
AcDbLine
 10
9732.273040659048
 20
7936.991358721458
 30
0.0
 11
9662.273023371172
 21
7936.991358721465
 31
0.0
  0
LINE
  5
18DC0
330
747D
100
AcDbEntity
  8
細線
 48
50.0
100
AcDbLine
 10
9592.27307597794
 20
7936.991366908827
 30
0.0
 11
9542.482135024311
 21
7936.99137460097
 31
0.0
  0
LINE
  5
18DC1
330
747D
100
AcDbEntity
  8
細線
 48
50.0
100
AcDbLine
 10
9942.273067741178
 20
7936.991358721461
 30
0.0
 11
10033.77307597794
 21
7936.991358721461
 31
0.0
  0
LINE
  5
18DC2
330
747D
100
AcDbEntity
  8
細線
 48
50.0
100
AcDbLine
 10
9872.273075977942
 20
7936.991355971454
 30
0.0
 11
9802.27331987494
 21
7936.99136147149
 31
0.0
  0
LINE
  5
18DC3
330
747D
100
AcDbEntity
  8
細線
 48
50.0
100
AcDbLine
 10
10033.77308627976
 20
7965.991564893736
 30
0.0
 11
10033.77307597794
 21
7936.991358721461
 31
0.0
  0
LINE
  5
18DC4
330
747D
100
AcDbEntity
  8
細線
 48
50.0
100
AcDbLine
 10
10018.77308810923
 20
7965.991564893736
 30
0.0
 11
10033.77308627976
 21
7965.991564893736
 31
0.0
  0
LINE
  5
18DC5
330
747D
100
AcDbEntity
  8
細線
 48
50.0
100
AcDbLine
 10
10018.77307647526
 20
7958.991564893691
 30
0.0
 11
10018.77308810923
 21
7965.991564893736
 31
0.0
  0
LINE
  5
18DC6
330
747D
100
AcDbEntity
  8
細線
 48
50.0
100
AcDbLine
 10
10003.77307647526
 20
7958.991564893691
 30
0.0
 11
10018.77307647526
 21
7958.991564893691
 31
0.0
  0
LINE
  5
18DC7
330
747D
100
AcDbEntity
  8
細線
 48
50.0
100
AcDbLine
 10
10003.77307647526
 20
7954.141564893693
 30
0.0
 11
10003.77307647526
 21
7958.991564893691
 31
0.0
  0
LINE
  5
18DC8
330
747D
100
AcDbEntity
  8
細線
 48
50.0
100
AcDbLine
 10
10003.77307647526
 20
7957.591564893694
 30
0.0
 11
9530.773075977943
 21
7957.591564893689
 31
0.0
  0
LINE
  5
18DC9
330
747D
100
AcDbEntity
  8
細線
 48
50.0
100
AcDbLine
 10
9511.773075977941
 20
7923.591521035826
 30
0.0
 11
8926.273080631531
 21
7923.591521035826
 31
0.0
  0
LINE
  5
18DCA
330
747D
100
AcDbEntity
  8
細線
 48
50.0
100
AcDbLine
 10
9334.656167648635
 20
7921.262372326321
 30
0.0
 11
9340.411685231304
 21
7902.991521035827
 31
0.0
  0
LINE
  5
18DCB
330
747D
100
AcDbEntity
  8
細線
 48
50.0
100
AcDbLine
 10
9323.727719168202
 20
7921.262372326316
 30
0.0
 11
9334.656167648635
 21
7921.262372326321
 31
0.0
  0
ARC
  5
18DCC
330
747D
100
AcDbEntity
  8
細線
 48
50.0
100
AcDbCircle
 10
9318.273363110884
 20
7922.762372326316
 30
0.0
 40
5.0
100
AcDbArc
 50
204.6243183521304
 51
335.3756816478695
  0
ARC
  5
18DCD
330
747D
100
AcDbEntity
  8
細線
 48
50.0
100
AcDbCircle
 10
9323.727719168202
 20
7920.262372326317
 30
0.0
 40
1.0
100
AcDbArc
 50
90.0
 51
155.3756816478695
  0
ARC
  5
18DCE
330
747D
100
AcDbEntity
  8
細線
 48
50.0
100
AcDbCircle
 10
9312.819007053567
 20
7920.262372326317
 30
0.0
 40
1.0
100
AcDbArc
 50
24.62431835213048
 51
90.0
  0
LINE
  5
18DCF
330
747D
100
AcDbEntity
  8
細線
 48
50.0
100
AcDbLine
 10
9301.890558573136
 20
7921.262372326321
 30
0.0
 11
9312.819007053567
 21
7921.262372326316
 31
0.0
  0
LINE
  5
18DD0
330
747D
100
AcDbEntity
  8
細線
 48
50.0
100
AcDbLine
 10
9296.135040990467
 20
7902.991521035827
 30
0.0
 11
9301.890558573136
 21
7921.262372326321
 31
0.0
  0
LINE
  5
18DD1
330
747D
100
AcDbEntity
  8
細線
 48
50.0
100
AcDbLine
 10
9283.273075977939
 20
7902.991521035827
 30
0.0
 11
9353.273075977938
 21
7902.991521035827
 31
0.0
  0
LINE
  5
18DD2
330
747D
100
AcDbEntity
  8
細線
 48
50.0
100
AcDbLine
 10
8903.27307597794
 20
7902.988855379295
 30
0.0
 11
9213.273629082369
 21
7902.992742279491
 31
0.0
  0
LINE
  5
18DD3
330
747D
100
AcDbEntity
  8
細線
 48
50.0
100
AcDbLine
 10
8926.273080631531
 20
7931.987671443465
 30
0.0
 11
8912.273075977941
 21
7931.987671443462
 31
0.0
  0
LINE
  5
18DD4
330
747D
100
AcDbEntity
  8
細線
 48
50.0
100
AcDbLine
 10
8926.273080631531
 20
7923.591521035826
 30
0.0
 11
8926.273080631531
 21
7931.987671443465
 31
0.0
  0
LINE
  5
18DD5
330
747D
100
AcDbEntity
  8
細線
  6
Continuous
 62
     5
100
AcDbLine
 10
10005.77308112885
 20
7955.991346858867
 30
0.0
 11
10005.77308112885
 21
7955.991346858867
 31
0.0
  0
LINE
  5
18DD6
330
747D
100
AcDbEntity
  8
部品1
100
AcDbLine
 10
8903.27307597794
 20
7897.991346858872
 30
0.0
 11
10607.27307597794
 21
7897.991346858869
 31
0.0
  0
LINE
  5
18DD7
330
747D
100
AcDbEntity
  8
部品1
100
AcDbLine
 10
10577.27307597794
 20
7897.991346858872
 30
0.0
 11
10607.27307597794
 21
7897.991346858872
 31
0.0
  0
LINE
  5
18DD8
330
747D
100
AcDbEntity
  8
部品1
100
AcDbLine
 10
8900.27307597794
 20
8001.991346858869
 30
0.0
 11
10580.27307597794
 21
8001.99134685887
 31
0.0
  0
LINE
  5
18DD9
330
747D
100
AcDbEntity
  8
部品1
100
AcDbLine
 10
8900.27307597794
 20
8001.991346858869
 30
0.0
 11
8900.27307597794
 21
7970.991346858871
 31
0.0
  0
LINE
  5
18DDA
330
747D
100
AcDbEntity
  8
部品1
100
AcDbLine
 10
8912.273075977941
 20
7970.991346858871
 30
0.0
 11
8912.273075977941
 21
7906.991346858871
 31
0.0
  0
LINE
  5
18DDB
330
747D
100
AcDbEntity
  8
部品1
100
AcDbLine
 10
8873.273075977941
 20
7897.991346858872
 30
0.0
 11
8873.273075977941
 21
7974.991346858871
 31
0.0
  0
LINE
  5
18DDC
330
747D
100
AcDbEntity
  8
部品1
100
AcDbLine
 10
8903.27307597794
 20
7897.991346858872
 30
0.0
 11
8873.273075977941
 21
7897.991346858872
 31
0.0
  0
LINE
  5
18DDD
330
747D
100
AcDbEntity
  8
部品1
100
AcDbLine
 10
8912.273075977941
 20
7906.991346858871
 30
0.0
 11
8903.27307597794
 21
7906.991346858871
 31
0.0
  0
LINE
  5
18DDE
330
747D
100
AcDbEntity
  8
部品1
100
AcDbLine
 10
8903.27307597794
 20
7906.991346858871
 30
0.0
 11
8903.27307597794
 21
7897.991346858872
 31
0.0
  0
LINE
  5
18DDF
330
747D
100
AcDbEntity
  8
部品1
100
AcDbLine
 10
8873.273075977941
 20
7974.991346858871
 30
0.0
 11
8900.27307597794
 21
7974.991346858871
 31
0.0
  0
LINE
  5
18DE0
330
747D
100
AcDbEntity
  8
部品1
100
AcDbLine
 10
8912.273075977941
 20
7970.991346858871
 30
0.0
 11
8900.27307597794
 21
7970.991346858871
 31
0.0
  0
LINE
  5
18DE1
330
747D
100
AcDbEntity
  8
部品1
100
AcDbLine
 10
10580.27307597794
 20
8001.99134685887
 30
0.0
 11
10580.27307597794
 21
7970.991346858871
 31
0.0
  0
LINE
  5
18DE2
330
747D
100
AcDbEntity
  8
部品1
100
AcDbLine
 10
10568.27307597794
 20
7970.991346858871
 30
0.0
 11
10568.27307597794
 21
7906.991346858871
 31
0.0
  0
LINE
  5
18DE3
330
747D
100
AcDbEntity
  8
部品1
100
AcDbLine
 10
10568.27307597794
 20
7906.991346858871
 30
0.0
 11
10577.27307597794
 21
7906.991346858871
 31
0.0
  0
LINE
  5
18DE4
330
747D
100
AcDbEntity
  8
部品1
100
AcDbLine
 10
10577.27307597794
 20
7906.991346858871
 30
0.0
 11
10577.27307597794
 21
7897.991346858872
 31
0.0
  0
LINE
  5
18DE5
330
747D
100
AcDbEntity
  8
部品1
100
AcDbLine
 10
10568.27307597794
 20
7970.991346858871
 30
0.0
 11
10580.27307597794
 21
7970.991346858871
 31
0.0
  0
LINE
  5
18DE6
330
747D
100
AcDbEntity
  8
部品1
100
AcDbLine
 10
10607.27307597794
 20
7897.991346858872
 30
0.0
 11
10607.27307597794
 21
7974.991346858871
 31
0.0
  0
LINE
  5
18DE8
330
747D
100
AcDbEntity
  8
部品1
100
AcDbLine
 10
10580.27307597794
 20
7974.991346858871
 30
0.0
 11
10607.27307597794
 21
7974.991346858871
 31
0.0
  0
DIMENSION
  5
18DE9
330
747D
100
AcDbEntity
  8
寸法
 48
50.0
100
AcDbDimension
  2
*D29
 10
9862.273075977942
 20
7272.916328810646
 30
0.0
 11
9387.27307597794
 21
7272.916328810646
 31
0.0
 70
   160
  1
有効開口部間口\P<>
 71
     5
 42
950.0
  3
INABA_S40
100
AcDbAlignedDimension
 13
8912.273075977941
 23
7897.991346858872
 33
0.0
 14
9862.273075977942
 24
7897.991346858872
 34
0.0
100
AcDbRotatedDimension
1001
ACAD
1000
DSTYLE
1002
{
1070
    41
1040
0.5
1070
    44
1040
1.0
1070
   147
1040
0.8
1070
   271
1070
     2
1070
   272
1070
     2
1070
   289
1070
     3
1070
   340
1005
F706
1070
   343
1005
17F6F
1070
   344
1005
17F6F
1002
}
  0
LINE
  5
18DEA
330
747D
100
AcDbEntity
  8
細線
100
AcDbLine
 10
8912.273075977941
 20
7906.991346858871
 30
0.0
 11
8912.273075977941
 21
7902.991346858918
 31
0.0
  0
LINE
  5
18DEB
330
747D
100
AcDbEntity
  8
細線
100
AcDbLine
 10
9068.772969379201
 20
7920.990416404471
 30
0.0
 11
9068.772969379201
 21
7902.990416404445
 31
0.0
  0
LINE
  5
18DEC
330
747D
100
AcDbEntity
  8
細線
100
AcDbLine
 10
9027.772969379203
 20
7920.990416404464
 30
0.0
 11
9027.772969379203
 21
7902.990416404445
 31
0.0
  0
LINE
  5
18DED
330
747D
100
AcDbEntity
  8
細線
100
AcDbLine
 10
9068.772969379201
 20
7920.990416404471
 30
0.0
 11
9027.772969379203
 21
7920.990416404464
 31
0.0
  0
ARC
  5
18DEE
330
747D
100
AcDbEntity
  8
部品1
100
AcDbCircle
 10
9030.317125256479
 20
7902.490416404467
 30
0.0
 40
1.0
100
AcDbArc
 50
270.0
 51
19.47122063442214
  0
LINE
  5
18DEF
330
747D
100
AcDbEntity
  8
部品1
 48
0.01
100
AcDbLine
 10
9023.272969379195
 20
7902.990416404468
 30
0.0
 11
9023.272969379195
 21
7901.990416404467
 31
0.0
  0
LINE
  5
18DF0
330
747D
100
AcDbEntity
  8
部品1
 48
0.01
100
AcDbLine
 10
9023.772969379194
 20
7901.490416404468
 30
0.0
 11
9030.317125256479
 21
7901.490416404468
 31
0.0
  0
ARC
  5
18DF1
330
747D
100
AcDbEntity
  8
部品1
 48
0.01
100
AcDbCircle
 10
9023.772969379194
 20
7901.990416404467
 30
0.0
 40
0.5
100
AcDbArc
 50
180.0
 51
270.0
  0
ARC
  5
18DF2
330
747D
100
AcDbEntity
  8
部品1
100
AcDbCircle
 10
9055.772969379196
 20
7911.490416404467
 30
0.0
 40
26.0
100
AcDbArc
 50
180.0
 51
199.4712206344221
  0
ARC
  5
18DF3
330
747D
100
AcDbEntity
  8
部品1
 48
0.01
100
AcDbCircle
 10
9031.772969379195
 20
7916.490416404467
 30
0.0
 40
2.0
100
AcDbArc
 50
90.0
 51
180.0
  0
LINE
  5
18DF4
330
747D
100
AcDbEntity
  8
部品1
100
AcDbLine
 10
9029.772969379195
 20
7911.490416404467
 30
0.0
 11
9029.772969379195
 21
7916.490416404467
 31
0.0
  0
ARC
  5
18DF5
330
747D
100
AcDbEntity
  8
部品1
100
AcDbCircle
 10
9048.272969379196
 20
7927.290416404471
 30
0.0
 40
16.0
100
AcDbArc
 50
218.3930440192126
 51
254.0576313943215
  0
ARC
  5
18DF6
330
747D
100
AcDbEntity
  8
部品1
100
AcDbCircle
 10
9033.381361004007
 20
7915.490416404468
 30
0.0
 40
3.0
100
AcDbArc
 50
38.39304401921267
 51
90.0
  0
LINE
  5
18DF7
330
747D
100
AcDbEntity
  8
部品1
 48
0.01
100
AcDbLine
 10
9031.772969379195
 20
7918.490416404468
 30
0.0
 11
9033.381361004007
 21
7918.490416404468
 31
0.0
  0
ARC
  5
18DF8
330
747D
100
AcDbEntity
  8
部品1
100
AcDbCircle
 10
9048.272969379196
 20
7927.290416404471
 30
0.0
 40
16.0
100
AcDbArc
 50
285.9423686056786
 51
321.6069559807873
  0
LINE
  5
18DF9
330
747D
100
AcDbEntity
  8
部品1
100
AcDbLine
 10
9051.843683593466
 20
7911.79041640447
 30
0.0
 11
9044.702255164924
 21
7911.79041640447
 31
0.0
  0
ARC
  5
18DFA
330
747D
100
AcDbEntity
  8
部品1
100
AcDbCircle
 10
9051.843683593466
 20
7914.79041640447
 30
0.0
 40
3.0
100
AcDbArc
 50
270.0
 51
285.9423686056786
  0
ARC
  5
18DFB
330
747D
100
AcDbEntity
  8
部品1
100
AcDbCircle
 10
9044.702255164924
 20
7914.79041640447
 30
0.0
 40
3.0
100
AcDbArc
 50
254.0576313943215
 51
270.0
  0
LINE
  5
18DFC
330
747D
100
AcDbEntity
  8
部品1
 48
0.01
100
AcDbLine
 10
9064.772969379196
 20
7918.490416404468
 30
0.0
 11
9063.164577754383
 21
7918.490416404468
 31
0.0
  0
ARC
  5
18DFD
330
747D
100
AcDbEntity
  8
部品1
100
AcDbCircle
 10
9063.164577754383
 20
7915.490416404468
 30
0.0
 40
3.0
100
AcDbArc
 50
90.0
 51
141.6069559807873
  0
ARC
  5
18DFE
330
747D
100
AcDbEntity
  8
部品1
 48
0.01
100
AcDbCircle
 10
9064.772969379196
 20
7916.490416404467
 30
0.0
 40
2.0
100
AcDbArc
 50
0.0
 51
90.0
  0
LINE
  5
18DFF
330
747D
100
AcDbEntity
  8
部品1
100
AcDbLine
 10
9066.772969379195
 20
7911.490416404467
 30
0.0
 11
9066.772969379195
 21
7916.490416404467
 31
0.0
  0
ARC
  5
18E00
330
747D
100
AcDbEntity
  8
部品1
100
AcDbCircle
 10
9040.772969379196
 20
7911.490416404467
 30
0.0
 40
26.0
100
AcDbArc
 50
340.5287793655779
 51
0.0
  0
ARC
  5
18E01
330
747D
100
AcDbEntity
  8
部品1
100
AcDbCircle
 10
9066.228813501913
 20
7902.490416404467
 30
0.0
 40
1.0
100
AcDbArc
 50
160.5287793655778
 51
270.0
  0
LINE
  5
18E02
330
747D
100
AcDbEntity
  8
部品1
 48
0.01
100
AcDbLine
 10
9072.772969379196
 20
7901.490416404468
 30
0.0
 11
9066.160463949133
 21
7901.490416404468
 31
0.0
  0
LINE
  5
18E03
330
747D
100
AcDbEntity
  8
部品1
 48
0.01
100
AcDbLine
 10
9073.272969379194
 20
7902.990416404468
 30
0.0
 11
9073.272969379194
 21
7901.990416404467
 31
0.0
  0
LINE
  5
18E04
330
747D
100
AcDbEntity
  8
部品1
 48
0.01
100
AcDbLine
 10
9073.272969379194
 20
7902.990416404468
 30
0.0
 11
9073.272969379194
 21
7901.990416404467
 31
0.0
  0
ARC
  5
18E05
330
747D
100
AcDbEntity
  8
部品1
 48
0.01
100
AcDbCircle
 10
9072.772969379196
 20
7901.990416404467
 30
0.0
 40
0.5
100
AcDbArc
 50
270.0
 51
0.0
  0
LINE
  5
18E06
330
747D
100
AcDbEntity
  8
細線
100
AcDbLine
 10
9213.273067792522
 20
7902.991538589536
 30
0.0
 11
9215.604606083291
 21
7907.991538589522
 31
0.0
  0
LINE
  5
18E07
330
747D
100
AcDbEntity
  8
細線
100
AcDbLine
 10
9283.273075977939
 20
7902.991521035827
 30
0.0
 11
9280.941529501751
 21
7907.991538589503
 31
0.0
  0
LINE
  5
18E08
330
747D
100
AcDbEntity
  8
細線
100
AcDbLine
 10
9280.941529501751
 20
7907.991538589503
 30
0.0
 11
9215.604606083278
 21
7907.991538589493
 31
0.0
  0
LINE
  5
18E09
330
747D
100
AcDbEntity
  8
細線
100
AcDbLine
 10
9420.941529501751
 20
7907.991538589503
 30
0.0
 11
9355.604606083279
 21
7907.991538589496
 31
0.0
  0
LINE
  5
18E0A
330
747D
100
AcDbEntity
  8
細線
100
AcDbLine
 10
9423.273075977938
 20
7902.991521035827
 30
0.0
 11
9420.941529501751
 21
7907.991538589503
 31
0.0
  0
LINE
  5
18E0B
330
747D
100
AcDbEntity
  8
細線
100
AcDbLine
 10
9353.273067792523
 20
7902.991538589541
 30
0.0
 11
9355.604606083291
 21
7907.991538589526
 31
0.0
  0
LINE
  5
18E0C
330
747D
100
AcDbEntity
  8
細線
100
AcDbLine
 10
9659.941537687167
 20
7941.991366908794
 30
0.0
 11
9594.604614268694
 21
7941.991366908784
 31
0.0
  0
LINE
  5
18E0D
330
747D
100
AcDbEntity
  8
細線
100
AcDbLine
 10
9662.273084163357
 20
7936.991349355118
 30
0.0
 11
9659.941537687167
 21
7941.991366908794
 31
0.0
  0
LINE
  5
18E0E
330
747D
100
AcDbEntity
  8
細線
100
AcDbLine
 10
9592.27307597794
 20
7936.991366908827
 30
0.0
 11
9594.604614268709
 21
7941.991366908813
 31
0.0
  0
LINE
  5
18E0F
330
747D
100
AcDbEntity
  8
細線
100
AcDbLine
 10
9732.273040659048
 20
7936.991358721458
 30
0.0
 11
9734.604578949815
 21
7941.991358721444
 31
0.0
  0
LINE
  5
18E10
330
747D
100
AcDbEntity
  8
細線
100
AcDbLine
 10
9802.273048844464
 20
7936.991341167749
 30
0.0
 11
9799.941502368275
 21
7941.991358721428
 31
0.0
  0
LINE
  5
18E11
330
747D
100
AcDbEntity
  8
細線
100
AcDbLine
 10
9799.941502368277
 20
7941.991358721428
 30
0.0
 11
9734.604578949801
 21
7941.991358721414
 31
0.0
  0
LINE
  5
18E12
330
747D
100
AcDbEntity
  8
細線
100
AcDbLine
 10
9939.941538918212
 20
7941.991338417686
 30
0.0
 11
9874.604615499739
 21
7941.991338417672
 31
0.0
  0
LINE
  5
18E13
330
747D
100
AcDbEntity
  8
細線
100
AcDbLine
 10
9942.273085394401
 20
7936.991320864007
 30
0.0
 11
9939.941538918212
 21
7941.991338417686
 31
0.0
  0
LINE
  5
18E14
330
747D
100
AcDbEntity
  8
細線
100
AcDbLine
 10
9872.273075977942
 20
7936.99133577774
 30
0.0
 11
9874.604615499752
 21
7941.991338417702
 31
0.0
  0
LINE
  5
18E15
330
747D
100
AcDbEntity
  8
細線
 48
50.0
100
AcDbLine
 10
9815.135297902491
 20
7936.991358721458
 30
0.0
 11
9820.890815485158
 21
7955.262210011952
 31
0.0
  0
LINE
  5
18E16
330
747D
100
AcDbEntity
  8
細線
 48
50.0
100
AcDbLine
 10
9820.890815485158
 20
7955.262210011952
 30
0.0
 11
9831.819263965591
 21
7955.262210011952
 31
0.0
  0
ARC
  5
18E17
330
747D
100
AcDbEntity
  8
細線
 48
50.0
100
AcDbCircle
 10
9831.819263965591
 20
7954.262210011951
 30
0.0
 40
1.0
100
AcDbArc
 50
24.62431835213048
 51
90.0
  0
ARC
  5
18E18
330
747D
100
AcDbEntity
  8
細線
 48
50.0
100
AcDbCircle
 10
9842.727976080226
 20
7954.262210011951
 30
0.0
 40
1.0
100
AcDbArc
 50
90.0
 51
155.3756816478695
  0
ARC
  5
18E19
330
747D
100
AcDbEntity
  8
細線
 48
50.0
100
AcDbCircle
 10
9837.273620022909
 20
7956.762210011952
 30
0.0
 40
5.0
100
AcDbArc
 50
204.6243183521304
 51
335.3756816478695
  0
LINE
  5
18E1A
330
747D
100
AcDbEntity
  8
細線
 48
50.0
100
AcDbLine
 10
9842.727976080226
 20
7955.262210011952
 30
0.0
 11
9853.656424560657
 21
7955.262210011952
 31
0.0
  0
LINE
  5
18E1B
330
747D
100
AcDbEntity
  8
細線
 48
50.0
100
AcDbLine
 10
9853.656424560657
 20
7955.262210011952
 30
0.0
 11
9859.411942143326
 21
7936.991358721465
 31
0.0
  0
LINE
  5
18E1C
330
747D
100
AcDbEntity
  8
細線
100
AcDbLine
 10
10177.94153891821
 20
7975.991349498818
 30
0.0
 11
10112.60461549973
 21
7975.991349498802
 31
0.0
  0
LINE
  5
18E1D
330
747D
100
AcDbEntity
  8
細線
100
AcDbLine
 10
10180.2730853944
 20
7970.991331945137
 30
0.0
 11
10177.94153891821
 21
7975.991349498818
 31
0.0
  0
LINE
  5
18E1E
330
747D
100
AcDbEntity
  8
細線
100
AcDbLine
 10
10110.27307597794
 20
7970.991346858871
 30
0.0
 11
10112.60461549975
 21
7975.991349498833
 31
0.0
  0
LINE
  5
18E1F
330
747D
100
AcDbEntity
  8
細線
100
AcDbLine
 10
10250.27306656148
 20
7970.991361772606
 30
0.0
 11
10252.60460608329
 21
7975.991364412566
 31
0.0
  0
LINE
  5
18E20
330
747D
100
AcDbEntity
  8
細線
100
AcDbLine
 10
10320.27307597794
 20
7970.991346858871
 30
0.0
 11
10317.94152950175
 21
7975.991364412552
 31
0.0
  0
LINE
  5
18E21
330
747D
100
AcDbEntity
  8
細線
100
AcDbLine
 10
10317.94152950175
 20
7975.991364412552
 30
0.0
 11
10252.60460608327
 21
7975.991364412537
 31
0.0
  0
LINE
  5
18E22
330
747D
100
AcDbEntity
  8
細線
100
AcDbLine
 10
10457.94152950175
 20
7975.991364412552
 30
0.0
 11
10392.60460608327
 21
7975.991364412537
 31
0.0
  0
LINE
  5
18E23
330
747D
100
AcDbEntity
  8
細線
100
AcDbLine
 10
10460.27307597794
 20
7970.991346858871
 30
0.0
 11
10457.94152950175
 21
7975.991364412552
 31
0.0
  0
LINE
  5
18E24
330
747D
100
AcDbEntity
  8
細線
100
AcDbLine
 10
10390.27306656148
 20
7970.991361772606
 30
0.0
 11
10392.60460608329
 21
7975.991364412566
 31
0.0
  0
LINE
  5
18E25
330
747D
100
AcDbEntity
  8
細線
 48
50.0
100
AcDbLine
 10
9500.773075977944
 20
7947.187601249774
 30
0.0
 11
8912.273075977941
 21
7947.18760124977
 31
0.0
  0
LINE
  5
18E26
330
747D
100
AcDbEntity
  8
細線
 48
50.0
100
AcDbLine
 10
9541.773075977943
 20
7917.782693253521
 30
0.0
 11
10568.27307597794
 21
7917.782693253521
 31
0.0
  0
LINE
  5
18E27
330
747D
100
AcDbEntity
  8
細線
 48
50.0
100
AcDbLine
 10
10033.77308112885
 20
7951.491461807596
 30
0.0
 11
10568.27307597794
 21
7951.491461807596
 31
0.0
  0
LINE
  5
18E28
330
747D
100
AcDbEntity
  8
寸法
 48
50.0
100
AcDbLine
 10
9484.773894956338
 20
7786.250054913072
 30
0.0
 11
9703.925835132062
 21
7786.250054913072
 31
0.0
  0
LINE
  5
18E29
330
747D
100
AcDbEntity
  8
寸法
 48
50.0
100
AcDbLine
 10
9703.925835132062
 20
7786.250054913072
 30
0.0
 11
9614.641616536642
 21
7810.173689182557
 31
0.0
  0
LINE
  5
18E2A
330
747D
100
AcDbEntity
  8
寸法
 48
50.0
100
AcDbLine
 10
9614.641616536642
 20
7810.173689182557
 30
0.0
 11
9614.641616536642
 21
7756.510054600767
 31
0.0
  0
LINE
  5
18E2B
330
747D
100
AcDbEntity
  8
寸法
 48
50.0
100
AcDbLine
 10
9284.070074349683
 20
7753.028098427733
 30
0.0
 11
9335.476082259786
 21
7753.028098427733
 31
0.0
  0
LINE
  5
18E2C
330
747D
100
AcDbEntity
  8
寸法
 48
50.0
100
AcDbLine
 10
9335.476082259786
 20
7753.028098427733
 30
0.0
 11
9335.476082259786
 21
7784.338257079901
 31
0.0
  0
LINE
  5
18E2D
330
747D
100
AcDbEntity
  8
寸法
 48
50.0
100
AcDbLine
 10
9335.476082259786
 20
7784.338257079901
 30
0.0
 11
9365.237414251209
 21
7784.338257079901
 31
0.0
  0
LINE
  5
18E2E
330
747D
100
AcDbEntity
  8
寸法
 48
50.0
100
AcDbLine
 10
9365.237414251209
 20
7784.338257079901
 30
0.0
 11
9309.773078304734
 21
7821.91770800851
 31
0.0
  0
LINE
  5
18E2F
330
747D
100
AcDbEntity
  8
寸法
 48
50.0
100
AcDbLine
 10
9254.30874235826
 20
7784.338257079901
 30
0.0
 11
9309.773078304734
 21
7821.91770800851
 31
0.0
  0
LINE
  5
18E30
330
747D
100
AcDbEntity
  8
寸法
 48
50.0
100
AcDbLine
 10
9284.070074349683
 20
7784.338257079901
 30
0.0
 11
9254.30874235826
 21
7784.338257079901
 31
0.0
  0
LINE
  5
18E31
330
747D
100
AcDbEntity
  8
寸法
 48
50.0
100
AcDbLine
 10
9284.070074349683
 20
7753.028098427733
 30
0.0
 11
9284.070074349683
 21
7784.338257079901
 31
0.0
  0
LINE
  5
18E32
330
747D
100
AcDbEntity
  8
寸法
 48
50.0
100
AcDbLine
 10
9335.476082259786
 20
7753.028098427733
 30
0.0
 11
9284.070074349683
 21
7753.028098427733
 31
0.0
  0
DIMENSION
  5
1903F
330
747D
100
AcDbEntity
  8
寸法
100
AcDbDimension
  2
*D30
 10
10635.27307597795
 20
6783.163556113997
 30
0.0
 11
9728.419826309325
 21
6783.163556113997
 31
0.0
 70
   160
 71
     5
 42
1789.999999999982
  3
INABA_S40G
100
AcDbAlignedDimension
 13
8845.273075977969
 23
7974.991346858899
 33
0.0
 14
10635.27307597795
 24
7974.991346859029
 34
0.0
100
AcDbRotatedDimension
1001
ACAD
1000
DSTYLE
1002
{
1002
}
  0
TEXT
  5
19040
330
747D
100
AcDbEntity
  8
部品1
100
AcDbText
 10
9448.457352692788
 20
6311.021683253111
 30
0.0
 40
135.0
  1
平面図
  7
STYLE2
100
AcDbText
  0
LINE
  5
19041
330
747D
100
AcDbEntity
  8
部品1
100
AcDbLine
 10
9358.537742863751
 20
6503.915212471634
 30
0.0
 11
9358.537742863751
 21
6264.022890926101
 31
0.0
  0
LINE
  5
19042
330
747D
100
AcDbEntity
  8
部品1
100
AcDbLine
 10
9358.537742863751
 20
6264.022890926101
 30
0.0
 11
10122.00840909219
 21
6264.022890926101
 31
0.0
  0
LINE
  5
19043
330
747D
100
AcDbEntity
  8
部品1
100
AcDbLine
 10
10122.00840909219
 20
6264.022890926101
 30
0.0
 11
10122.00840909219
 21
6503.915212471634
 31
0.0
  0
LINE
  5
19044
330
747D
100
AcDbEntity
  8
部品1
100
AcDbLine
 10
10122.00840909219
 20
6503.915212471634
 30
0.0
 11
9358.537742863751
 21
6503.915212471634
 31
0.0
  0
DIMENSION
  5
19045
330
747D
100
AcDbEntity
  8
寸法
100
AcDbDimension
  2
*D31
 10
8550.661830351254
 20
7899.9913468589
 30
0.0
 11
8550.66183035125
 21
7759.506065484662
 31
0.0
 70
   160
 71
     5
 42
75.0
  3
INABA_S40
100
AcDbAlignedDimension
 13
8845.273075977969
 23
7974.991346858899
 33
0.0
 14
8873.273075977948
 24
7899.9913468589
 34
0.0
 50
90.0
100
AcDbRotatedDimension
1001
ACAD
1000
DSTYLE
1002
{
1070
    41
1040
0.5
1070
    44
1040
1.0
1070
   147
1040
0.8
1070
   271
1070
     2
1070
   272
1070
     2
1070
   289
1070
     3
1070
   340
1005
F706
1070
   343
1005
17F6F
1070
   344
1005
17F6F
1002
}
  0
DIMENSION
  5
19046
330
747D
100
AcDbEntity
  8
寸法
 48
50.0
100
AcDbDimension
  2
*D32
 10
10607.27307597794
 20
7022.921077008125
 30
0.0
 11
9730.854819929762
 21
7022.921077008125
 31
0.0
 70
   160
 71
     5
 42
1734.0
  3
INABA_S40G
100
AcDbAlignedDimension
 13
8873.273075977941
 23
7897.991346858906
 33
0.0
 14
10607.27307597794
 24
7897.991346858905
 34
0.0
100
AcDbRotatedDimension
1001
ACAD
1000
DSTYLE
1002
{
1070
   341
1005
0
1002
}
  0
LWPOLYLINE
  5
1934D
330
747D
100
AcDbEntity
  8
部品1
 48
50.0
100
AcDbPolyline
 90
        4
 70
     1
 43
0.0
 10
8972.323075977952
 20
3756.645635910358
 10
8975.223075977952
 20
3756.645635910358
 10
8975.223075977952
 20
3766.145635910358
 10
8972.323075977952
 20
3766.145635910358
  0
CIRCLE
  5
1934E
330
747D
100
AcDbEntity
  8
部品1
 48
50.0
100
AcDbCircle
 10
8973.773075977952
 20
3761.395635910357
 30
0.0
 40
9.0
  0
ARC
  5
1934F
330
747D
100
AcDbEntity
  8
細線
 48
50.0
100
AcDbCircle
 10
8973.773075977952
 20
3761.395635910357
 30
0.0
 40
4.0
100
AcDbArc
 50
111.2538091853132
 51
248.7461908146868
  0
ARC
  5
19350
330
747D
100
AcDbEntity
  8
細線
 48
50.0
100
AcDbCircle
 10
8973.773075977952
 20
3761.395635910357
 30
0.0
 40
17.5
100
AcDbArc
 50
306.4837370612677
 51
233.5162629387323
  0
LINE
  5
19351
330
747D
100
AcDbEntity
  8
細線
 48
50.0
100
AcDbLine
 10
8983.773075977948
 20
3737.536675329475
 30
0.0
 11
8983.773075977952
 21
3746.521161129717
 31
0.0
  0
LINE
  5
19352
330
747D
100
AcDbEntity
  8
細線
 48
50.0
100
AcDbLine
 10
8963.773075977952
 20
3737.536675329476
 30
0.0
 11
8963.773075977952
 21
3746.521161129713
 31
0.0
  0
ARC
  5
19353
330
747D
100
AcDbEntity
  8
細線
 48
50.0
100
AcDbCircle
 10
8973.773075977952
 20
3761.395635910357
 30
0.0
 40
26.5
100
AcDbArc
 50
249.3326835063939
 51
290.6673164933835
  0
ARC
  5
19354
330
747D
100
AcDbEntity
  8
細線
 48
50.0
100
AcDbCircle
 10
8982.773075977943
 20
3737.536675329475
 30
0.0
 40
1.0
100
AcDbArc
 50
290.6673164936062
 51
359.9999999998958
  0
ARC
  5
19355
330
747D
100
AcDbEntity
  8
細線
 48
50.0
100
AcDbCircle
 10
8964.773075977952
 20
3737.536675329476
 30
0.0
 40
1.0
100
AcDbArc
 50
180.0
 51
249.3326835066164
  0
ARC
  5
19356
330
747D
100
AcDbEntity
  8
細線
 48
50.0
100
AcDbCircle
 10
8962.773075977951
 20
3746.521161129713
 30
0.0
 40
1.0
100
AcDbArc
 50
0.0
 51
53.51626293873231
  0
ARC
  5
19357
330
747D
100
AcDbEntity
  8
細線
 48
50.0
100
AcDbCircle
 10
8984.773075977955
 20
3746.521161129717
 30
0.0
 40
1.0
100
AcDbArc
 50
126.4837370615127
 51
180.0
  0
ARC
  5
19358
330
747D
100
AcDbEntity
  8
細線
 48
50.0
100
AcDbCircle
 10
8973.773075977952
 20
3761.395635910357
 30
0.0
 40
21.5
100
AcDbArc
 50
255.8014401250294
 51
284.1985598749706
  0
ARC
  5
19359
330
747D
100
AcDbEntity
  8
細線
 48
50.0
100
AcDbCircle
 10
8973.773075977952
 20
3761.395635910357
 30
0.0
 40
16.5
100
AcDbArc
 50
251.9694646069326
 51
288.0305353930674
  0
LINE
  5
1935A
330
747D
100
AcDbEntity
  8
細線
 48
50.0
100
AcDbLine
 10
8979.273075977951
 20
3740.843263784551
 30
0.0
 11
8979.273075977951
 21
3745.420655471888
 31
0.0
  0
LINE
  5
1935B
330
747D
100
AcDbEntity
  8
細線
 48
50.0
100
AcDbLine
 10
8968.273075977952
 20
3740.843263784551
 30
0.0
 11
8968.273075977952
 21
3745.420655471886
 31
0.0
  0
ARC
  5
1935C
330
747D
100
AcDbEntity
  8
細線
 48
50.0
100
AcDbCircle
 10
8968.573075977955
 20
3745.420655471886
 30
0.0
 40
0.3
100
AcDbArc
 50
71.96946460693259
 51
180.0
  0
ARC
  5
1935D
330
747D
100
AcDbEntity
  8
細線
 48
50.0
100
AcDbCircle
 10
8978.973075977952
 20
3745.420655471888
 30
0.0
 40
0.3
100
AcDbArc
 50
0.0
 51
108.0305353930674
  0
ARC
  5
1935E
330
747D
100
AcDbEntity
  8
細線
 48
50.0
100
AcDbCircle
 10
8978.973075977949
 20
3740.843263784551
 30
0.0
 40
0.3
100
AcDbArc
 50
284.1985598747622
 51
0.0000000001042204
  0
ARC
  5
1935F
330
747D
100
AcDbEntity
  8
細線
 48
50.0
100
AcDbCircle
 10
8968.573075977955
 20
3740.843263784551
 30
0.0
 40
0.3
100
AcDbArc
 50
180.0
 51
255.8014401248081
  0
CIRCLE
  5
19360
330
747D
100
AcDbEntity
  8
細線
 48
50.0
100
AcDbCircle
 10
8973.773075977952
 20
3761.395635910357
 30
0.0
 40
12.0
  0
ARC
  5
19361
330
747D
100
AcDbEntity
  8
部品1
 48
50.0
100
AcDbCircle
 10
8973.773075977952
 20
3811.395635910358
 30
0.0
 40
8.5
100
AcDbArc
 50
114.315739171091
 51
245.684260828909
  0
CIRCLE
  5
19362
330
747D
100
AcDbEntity
  8
細線
 48
50.0
100
AcDbCircle
 10
8973.773075977952
 20
3811.395635910358
 30
0.0
 40
4.5
  0
LWPOLYLINE
  5
19363
330
747D
100
AcDbEntity
  8
部品1
 48
50.0
100
AcDbPolyline
 90
        2
 70
     0
 43
0.0
 10
8970.273075977951
 20
3830.070485307341
 10
8970.273075977951
 20
3819.141602602773
  0
CIRCLE
  5
19364
330
747D
100
AcDbEntity
  8
部品1
 48
50.0
100
AcDbCircle
 10
8973.773075977952
 20
3811.395635910358
 30
0.0
 40
19.0
  0
LWPOLYLINE
  5
19365
330
747D
100
AcDbEntity
  8
部品1
 48
50.0
100
AcDbPolyline
 90
        2
 70
     0
 43
0.0
 10
8970.273075977951
 20
3803.649669217943
 10
8970.273075977951
 20
3792.720786513375
  0
LWPOLYLINE
  5
19366
330
747D
100
AcDbEntity
  8
部品1
 48
50.0
100
AcDbPolyline
 90
        2
 70
     0
 43
0.0
 10
8977.273075977953
 20
3819.141602602773
 10
8977.273075977953
 20
3830.070485307341
  0
ARC
  5
19367
330
747D
100
AcDbEntity
  8
部品1
 48
50.0
100
AcDbCircle
 10
8973.773075977952
 20
3811.395635910358
 30
0.0
 40
8.5
100
AcDbArc
 50
294.315739171091
 51
65.68426082890896
  0
LWPOLYLINE
  5
19368
330
747D
100
AcDbEntity
  8
部品1
 48
50.0
100
AcDbPolyline
 90
        2
 70
     0
 43
0.0
 10
8977.273075977953
 20
3792.720786513375
 10
8977.273075977953
 20
3803.649669217943
  0
ARC
  5
19369
330
747D
100
AcDbEntity
  8
細線
 48
50.0
100
AcDbCircle
 10
8973.773075977952
 20
3811.395635910358
 30
0.0
 40
16.5
100
AcDbArc
 50
332.0012352654438
 51
27.99876473455621
  0
ARC
  5
1936A
330
747D
100
AcDbEntity
  8
細線
 48
50.0
100
AcDbCircle
 10
8973.773075977952
 20
3811.395635910358
 30
0.0
 40
14.0
100
AcDbArc
 50
326.4074436112986
 51
33.59255638870134
  0
LINE
  5
1936B
330
747D
100
AcDbEntity
  8
細線
 48
50.0
100
AcDbLine
 10
8959.20427369362
 20
3819.141602602773
 30
0.0
 11
8962.111172188263
 21
3819.141602602773
 31
0.0
  0
LINE
  5
1936C
330
747D
100
AcDbEntity
  8
細線
 48
50.0
100
AcDbLine
 10
8959.20427369362
 20
3803.649669217943
 30
0.0
 11
8962.111172188263
 21
3803.649669217943
 31
0.0
  0
LINE
  5
1936D
330
747D
100
AcDbEntity
  8
細線
 48
50.0
100
AcDbLine
 10
8985.43497976764
 20
3819.141602602773
 30
0.0
 11
8988.341878262287
 21
3819.141602602773
 31
0.0
  0
LINE
  5
1936E
330
747D
100
AcDbEntity
  8
細線
 48
50.0
100
AcDbLine
 10
8985.43497976764
 20
3803.649669217943
 30
0.0
 11
8988.341878262287
 21
3803.649669217943
 31
0.0
  0
ARC
  5
1936F
330
747D
100
AcDbEntity
  8
細線
 48
50.0
100
AcDbCircle
 10
8973.773075977952
 20
3811.395635910358
 30
0.0
 40
14.0
100
AcDbArc
 50
146.4074436112986
 51
213.5925563887013
  0
ARC
  5
19370
330
747D
100
AcDbEntity
  8
細線
 48
50.0
100
AcDbCircle
 10
8973.773075977952
 20
3811.395635910358
 30
0.0
 40
16.5
100
AcDbArc
 50
152.0012352654438
 51
207.9987647345562
  0
ARC
  5
19371
330
747D
100
AcDbEntity
  8
部品1
 48
50.0
100
AcDbCircle
 10
8947.273075977951
 20
3836.895635910358
 30
0.0
 40
5.0
100
AcDbArc
 50
90.0
 51
180.0
  0
ARC
  5
19372
330
747D
100
AcDbEntity
  8
部品1
 48
50.0
100
AcDbCircle
 10
8947.273075977951
 20
3725.895635910358
 30
0.0
 40
5.0
100
AcDbArc
 50
180.0
 51
270.0
  0
ARC
  5
19373
330
747D
100
AcDbEntity
  8
部品1
 48
50.0
100
AcDbCircle
 10
9000.273075977951
 20
3725.895635910358
 30
0.0
 40
5.0
100
AcDbArc
 50
270.0
 51
0.0
  0
ARC
  5
19374
330
747D
100
AcDbEntity
  8
部品1
 48
50.0
100
AcDbCircle
 10
9000.273075977951
 20
3836.895635910358
 30
0.0
 40
5.0
100
AcDbArc
 50
0.0
 51
90.0
  0
LINE
  5
19376
330
747D
100
AcDbEntity
  8
部品1
 48
50.0
100
AcDbLine
 10
8942.273075977951
 20
3725.895635910358
 30
0.0
 11
8942.273075977951
 21
3836.895635910358
 31
0.0
  0
LINE
  5
19377
330
747D
100
AcDbEntity
  8
部品1
 48
50.0
100
AcDbLine
 10
9000.273075977951
 20
3720.895635910358
 30
0.0
 11
8947.273075977951
 21
3720.895635910358
 31
0.0
  0
LINE
  5
19378
330
747D
100
AcDbEntity
  8
部品1
 48
50.0
100
AcDbLine
 10
9005.273075977951
 20
3836.895635910358
 30
0.0
 11
9005.273075977951
 21
3725.895635910358
 31
0.0
  0
ENDSEC
  0
SECTION
  2
OBJECTS
  0
DICTIONARY
  5
7471
330
0
100
AcDbDictionary
281
     1
  3
ACAD_COLOR
350
17F64
  3
ACAD_GROUP
350
7472
  3
ACAD_LAYOUT
350
17F65
  3
ACAD_MATERIAL
350
17F63
  3
ACAD_MLINESTYLE
350
7473
  3
ACAD_PLOTSETTINGS
350
17F66
  3
ACAD_PLOTSTYLENAME
350
17F61
  3
ACDBHEADERROUNDTRIPXREC
350
19387
  3
AcDbVariableDictionary
350
19383
  3
CONTENTDICTIONARY
350
E71C
  3
DRAWINGVARIABLESDICT
350
F3B9
  0
DICTIONARY
  5
180F1
330
7467
100
AcDbDictionary
280
     1
281
     1
  3
ACAD_LAYERSTATES
360
180F2
  0
DICTIONARY
  5
17F64
102
{ACAD_REACTORS
330
7471
102
}
330
7471
100
AcDbDictionary
281
     1
  0
DICTIONARY
  5
7472
102
{ACAD_REACTORS
330
7471
102
}
330
7471
100
AcDbDictionary
281
     1
  0
DICTIONARY
  5
17F65
102
{ACAD_REACTORS
330
7471
102
}
330
7471
100
AcDbDictionary
281
     1
  3
Model
350
17F67
  3
レイアウト1
350
17F68
  0
DICTIONARY
  5
17F63
102
{ACAD_REACTORS
330
7471
102
}
330
7471
100
AcDbDictionary
281
     1
  0
DICTIONARY
  5
7473
102
{ACAD_REACTORS
330
7471
102
}
330
7471
100
AcDbDictionary
281
     1
  3
STANDARD
350
7480
  0
DICTIONARY
  5
17F66
102
{ACAD_REACTORS
330
7471
102
}
330
7471
100
AcDbDictionary
281
     1
  0
ACDBDICTIONARYWDFLT
  5
17F61
102
{ACAD_REACTORS
330
7471
102
}
330
7471
100
AcDbDictionary
281
     1
  3
Normal
350
17F62
100
AcDbDictionaryWithDefault
340
17F62
  0
DICTIONARY
  5
19387
102
{ACAD_REACTORS
330
7471
102
}
330
7471
100
AcDbDictionary
281
     1
  3
COLORDICT
350
19389
  3
MATERIALDICT
350
19388
  0
DICTIONARY
  5
19383
102
{ACAD_REACTORS
330
7471
102
}
330
7471
100
AcDbDictionary
281
     1
  3
DIMASSOC
350
19384
  3
PROJECTNAME
350
19385
  0
DICTIONARY
  5
E71C
102
{ACAD_REACTORS
330
7471
102
}
330
7471
100
AcDbDictionary
281
     1
  0
DICTIONARY
  5
F3B9
102
{ACAD_REACTORS
330
7471
102
}
330
7471
100
AcDbDictionary
281
     1
1001
DRAWINGVARIABLESXDATA
1000
POLARMODE
1000
1
  0
DICTIONARY
  5
180F2
102
{ACAD_REACTORS
330
180F1
102
}
330
180F1
100
AcDbDictionary
281
     1
  0
LAYOUT
  5
17F67
102
{ACAD_XDICTIONARY
360
1938A
102
}
102
{ACAD_REACTORS
330
17F65
102
}
330
17F65
100
AcDbPlotSettings
  1

  2
Microsoft Office Document Image Writer
  4

  6

 40
0.0
 41
0.0
 42
0.0
 43
0.0
 44
0.0
 45
0.0
 46
0.0
 47
0.0
 48
0.0
 49
0.0
140
0.0
141
0.0
142
1.0
143
1.0
 70
  1712
 72
     0
 73
     0
 74
     0
  7

 75
     0
147
1.0
148
0.0
149
0.0
100
AcDbLayout
  1
Model
 70
     1
 71
     0
 10
0.0
 20
0.0
 11
12.0
 21
9.0
 12
0.0
 22
0.0
 32
0.0
 14
0.0
 24
0.0
 34
0.0
 15
0.0
 25
0.0
 35
0.0
146
0.0
 13
0.0
 23
0.0
 33
0.0
 16
1.0
 26
0.0
 36
0.0
 17
0.0
 27
1.0
 37
0.0
 76
     0
330
747D
  0
LAYOUT
  5
17F68
102
{ACAD_XDICTIONARY
360
1938C
102
}
102
{ACAD_REACTORS
330
17F65
102
}
330
17F65
100
AcDbPlotSettings
  1

  2
Microsoft Office Document Image Writer
  4

  6

 40
0.0
 41
0.0
 42
0.0
 43
0.0
 44
0.0
 45
0.0
 46
0.0
 47
0.0
 48
0.0
 49
0.0
140
0.0
141
0.0
142
1.0
143
1.0
 70
   688
 72
     0
 73
     0
 74
     5
  7

 75
    16
147
1.0
148
0.0
149
0.0
100
AcDbLayout
  1
レイアウト1
 70
     0
 71
     1
 10
0.0
 20
0.0
 11
420.0
 21
297.0
 12
0.0
 22
0.0
 32
0.0
 14
1.000000000000000E+20
 24
1.000000000000000E+20
 34
1.000000000000000E+20
 15
-1.000000000000000E+20
 25
-1.000000000000000E+20
 35
-1.000000000000000E+20
146
0.0
 13
0.0
 23
0.0
 33
0.0
 16
1.0
 26
0.0
 36
0.0
 17
0.0
 27
1.0
 37
0.0
 76
     0
330
747A
  0
MLINESTYLE
  5
7480
102
{ACAD_REACTORS
330
7473
102
}
330
7473
100
AcDbMlineStyle
  2
STANDARD
 70
     0
  3

 62
     0
 51
90.0
 52
90.0
 71
     2
 49
0.5
 62
   256
  6
BYLAYER
 49
-0.5
 62
   256
  6
BYLAYER
  0
ACDBPLACEHOLDER
  5
17F62
102
{ACAD_REACTORS
330
17F61
102
}
330
17F61
  0
XRECORD
  5
19389
102
{ACAD_REACTORS
330
19387
102
}
330
19387
100
AcDbXrecord
280
     1
340
17F64
  0
XRECORD
  5
19388
102
{ACAD_REACTORS
330
19387
102
}
330
19387
100
AcDbXrecord
280
     1
340
17F63
  0
DICTIONARYVAR
  5
19384
102
{ACAD_REACTORS
330
19383
102
}
330
19383
100
DictionaryVariables
280
     0
  1
1
  0
DICTIONARYVAR
  5
19385
102
{ACAD_REACTORS
330
19383
102
}
330
19383
100
DictionaryVariables
280
     0
  1

  0
DICTIONARY
  5
1938A
330
17F67
100
AcDbDictionary
280
     1
281
     1
  3
ACAD_XREC_ROUNDTRIP
360
1938B
  0
DICTIONARY
  5
1938C
330
17F68
100
AcDbDictionary
280
     1
281
     1
  3
ACAD_XREC_ROUNDTRIP
360
1938D
  0
XRECORD
  5
1938B
102
{ACAD_REACTORS
330
1938A
102
}
330
1938A
100
AcDbXrecord
280
     1
102
SHADEPLOT
 70
     0
102
SHADEPLOTRESLEVEL
 70
     2
102
SHADEPLOTCUSTOMDPI
 70
   300
  0
XRECORD
  5
1938D
102
{ACAD_REACTORS
330
1938C
102
}
330
1938C
100
AcDbXrecord
280
     1
102
SHADEPLOT
 70
     0
102
SHADEPLOTRESLEVEL
 70
     2
102
SHADEPLOTCUSTOMDPI
 70
   300
  0
ENDSEC
  0
EOF
