  0
SECTION
  2
HEADER
  9
$ACADVER
  1
AC1015
  9
$ACADMAINTVER
 70
    20
  9
$DWGCODEPAGE
  3
ANSI_932
  9
$INSBASE
 10
0.0
 20
0.0
 30
0.0
  9
$EXTMIN
 10
139.9999999999995
 20
-0.0000000000000909
 30
0.0
  9
$EXTMAX
 10
16307.2
 20
11409.6
 30
0.0
  9
$LIMMIN
 10
-25.79074261211281
 20
-125.8223078213959
  9
$LIMMAX
 10
16471.10331197129
 20
11496.44801950658
  9
$ORTHOMODE
 70
     0
  9
$REGENMODE
 70
     1
  9
$FILLMODE
 70
     1
  9
$QTEXTMODE
 70
     0
  9
$MIRRTEXT
 70
     1
  9
$LTSCALE
 40
20.0
  9
$ATTMODE
 70
     1
  9
$TEXTSIZE
 40
4.0
  9
$TRACEWID
 40
1.0
  9
$TEXTSTYLE
  7
STYLE1
  9
$CLAYER
  8
寸法
  9
$CELTYPE
  6
BYLAYER
  9
$CECOLOR
 62
   256
  9
$CELTSCALE
 40
50.0
  9
$DISPSILH
 70
     0
  9
$DIMSCALE
 40
40.0
  9
$DIMASZ
 40
2.5
  9
$DIMEXO
 40
0.5
  9
$DIMDLI
 40
7.0
  9
$DIMRND
 40
0.0
  9
$DIMDLE
 40
0.0
  9
$DIMEXE
 40
1.5
  9
$DIMTP
 40
0.0
  9
$DIMTM
 40
0.0
  9
$DIMTXT
 40
3.0
  9
$DIMCEN
 40
0.0
  9
$DIMTSZ
 40
0.0
  9
$DIMTOL
 70
     0
  9
$DIMLIM
 70
     0
  9
$DIMTIH
 70
     0
  9
$DIMTOH
 70
     0
  9
$DIMSE1
 70
     0
  9
$DIMSE2
 70
     0
  9
$DIMTAD
 70
     3
  9
$DIMZIN
 70
     8
  9
$DIMBLK
  1

  9
$DIMASO
 70
     1
  9
$DIMSHO
 70
     1
  9
$DIMPOST
  1

  9
$DIMAPOST
  1

  9
$DIMALT
 70
     0
  9
$DIMALTD
 70
     2
  9
$DIMALTF
 40
0.0394
  9
$DIMLFAC
 40
1.0
  9
$DIMTOFL
 70
     1
  9
$DIMTVP
 40
0.0
  9
$DIMTIX
 70
     1
  9
$DIMSOXD
 70
     0
  9
$DIMSAH
 70
     1
  9
$DIMBLK1
  1
DOTSMALL
  9
$DIMBLK2
  1
DOTSMALL
  9
$DIMSTYLE
  2
INABA_S40G
  9
$DIMCLRD
 70
     0
  9
$DIMCLRE
 70
     0
  9
$DIMCLRT
 70
     7
  9
$DIMTFAC
 40
1.0
  9
$DIMGAP
 40
1.0
  9
$DIMJUST
 70
     0
  9
$DIMSD1
 70
     0
  9
$DIMSD2
 70
     0
  9
$DIMTOLJ
 70
     1
  9
$DIMTZIN
 70
     0
  9
$DIMALTZ
 70
     0
  9
$DIMALTTZ
 70
     0
  9
$DIMUPT
 70
     1
  9
$DIMDEC
 70
     1
  9
$DIMTDEC
 70
     4
  9
$DIMALTU
 70
     2
  9
$DIMALTTD
 70
     2
  9
$DIMTXSTY
  7
STYLE1
  9
$DIMAUNIT
 70
     0
  9
$DIMADEC
 70
     0
  9
$DIMALTRND
 40
0.0
  9
$DIMAZIN
 70
     0
  9
$DIMDSEP
 70
    46
  9
$DIMATFIT
 70
     3
  9
$DIMFRAC
 70
     0
  9
$DIMLDRBLK
  1

  9
$DIMLUNIT
 70
     2
  9
$DIMLWD
 70
    -2
  9
$DIMLWE
 70
    -2
  9
$DIMTMOVE
 70
     0
  9
$LUNITS
 70
     2
  9
$LUPREC
 70
     1
  9
$SKETCHINC
 40
1.0
  9
$FILLETRAD
 40
3.0
  9
$AUNITS
 70
     0
  9
$AUPREC
 70
     0
  9
$MENU
  1
acad
  9
$ELEVATION
 40
0.0
  9
$PELEVATION
 40
0.0
  9
$THICKNESS
 40
0.0
  9
$LIMCHECK
 70
     0
  9
$CHAMFERA
 40
0.0
  9
$CHAMFERB
 40
0.0
  9
$CHAMFERC
 40
0.0
  9
$CHAMFERD
 40
0.0
  9
$SKPOLY
 70
     0
  9
$TDCREATE
 40
2451368.612993866
  9
$TDUCREATE
 40
2451368.237993866
  9
$TDUPDATE
 40
2455575.682534722
  9
$TDUUPDATE
 40
2455575.307534722
  9
$TDINDWG
 40
0.4378456481
  9
$TDUSRTIMER
 40
0.4378456481
  9
$USRTIMER
 70
     1
  9
$ANGBASE
 50
0.0
  9
$ANGDIR
 70
     0
  9
$PDMODE
 70
     3
  9
$PDSIZE
 40
2.0
  9
$PLINEWID
 40
0.0
  9
$SPLFRAME
 70
     0
  9
$SPLINETYPE
 70
     6
  9
$SPLINESEGS
 70
     8
  9
$HANDSEED
  5
16F3C
  9
$SURFTAB1
 70
     6
  9
$SURFTAB2
 70
     6
  9
$SURFTYPE
 70
     6
  9
$SURFU
 70
     6
  9
$SURFV
 70
     6
  9
$UCSBASE
  2

  9
$UCSNAME
  2

  9
$UCSORG
 10
0.0
 20
0.0
 30
0.0
  9
$UCSXDIR
 10
1.0
 20
0.0
 30
0.0
  9
$UCSYDIR
 10
0.0
 20
1.0
 30
0.0
  9
$UCSORTHOREF
  2

  9
$UCSORTHOVIEW
 70
     0
  9
$UCSORGTOP
 10
0.0
 20
0.0
 30
0.0
  9
$UCSORGBOTTOM
 10
0.0
 20
0.0
 30
0.0
  9
$UCSORGLEFT
 10
0.0
 20
0.0
 30
0.0
  9
$UCSORGRIGHT
 10
0.0
 20
0.0
 30
0.0
  9
$UCSORGFRONT
 10
0.0
 20
0.0
 30
0.0
  9
$UCSORGBACK
 10
0.0
 20
0.0
 30
0.0
  9
$PUCSBASE
  2

  9
$PUCSNAME
  2

  9
$PUCSORG
 10
0.0
 20
0.0
 30
0.0
  9
$PUCSXDIR
 10
1.0
 20
0.0
 30
0.0
  9
$PUCSYDIR
 10
0.0
 20
1.0
 30
0.0
  9
$PUCSORTHOREF
  2

  9
$PUCSORTHOVIEW
 70
     0
  9
$PUCSORGTOP
 10
0.0
 20
0.0
 30
0.0
  9
$PUCSORGBOTTOM
 10
0.0
 20
0.0
 30
0.0
  9
$PUCSORGLEFT
 10
0.0
 20
0.0
 30
0.0
  9
$PUCSORGRIGHT
 10
0.0
 20
0.0
 30
0.0
  9
$PUCSORGFRONT
 10
0.0
 20
0.0
 30
0.0
  9
$PUCSORGBACK
 10
0.0
 20
0.0
 30
0.0
  9
$USERI1
 70
     0
  9
$USERI2
 70
     0
  9
$USERI3
 70
     0
  9
$USERI4
 70
     0
  9
$USERI5
 70
     0
  9
$USERR1
 40
0.0
  9
$USERR2
 40
0.0
  9
$USERR3
 40
0.0
  9
$USERR4
 40
0.0
  9
$USERR5
 40
0.0
  9
$WORLDVIEW
 70
     1
  9
$SHADEDGE
 70
     3
  9
$SHADEDIF
 70
    70
  9
$TILEMODE
 70
     1
  9
$MAXACTVP
 70
    16
  9
$PINSBASE
 10
0.0
 20
0.0
 30
0.0
  9
$PLIMCHECK
 70
     0
  9
$PEXTMIN
 10
1.000000000000000E+20
 20
1.000000000000000E+20
 30
1.000000000000000E+20
  9
$PEXTMAX
 10
-1.000000000000000E+20
 20
-1.000000000000000E+20
 30
-1.000000000000000E+20
  9
$PLIMMIN
 10
0.0
 20
0.0
  9
$PLIMMAX
 10
420.0
 20
297.0
  9
$UNITMODE
 70
     0
  9
$VISRETAIN
 70
     0
  9
$PLINEGEN
 70
     0
  9
$PSLTSCALE
 70
     0
  9
$TREEDEPTH
 70
  3020
  9
$CMLSTYLE
  2
STANDARD
  9
$CMLJUST
 70
     0
  9
$CMLSCALE
 40
1.0
  9
$PROXYGRAPHICS
 70
     1
  9
$MEASUREMENT
 70
     1
  9
$CELWEIGHT
370
    -1
  9
$ENDCAPS
280
     0
  9
$JOINSTYLE
280
     0
  9
$LWDISPLAY
290
     0
  9
$INSUNITS
 70
     0
  9
$HYPERLINKBASE
  1

  9
$STYLESHEET
  1
inaba.ctb
  9
$XEDIT
290
     1
  9
$CEPSNTYPE
380
     0
  9
$PSTYLEMODE
290
     1
  9
$FINGERPRINTGUID
  2
{F059C841-AB76-4D4A-A95A-7A6531F0DA08}
  9
$VERSIONGUID
  2
{BDEDC72F-66F4-4ADF-B51D-00FE4C1B12D1}
  9
$EXTNAMES
290
     1
  9
$PSVPSCALE
 40
0.0
  9
$OLESTARTUP
290
     0
  0
ENDSEC
  0
SECTION
  2
CLASSES
  0
CLASS
  1
ACDBDICTIONARYWDFLT
  2
AcDbDictionaryWithDefault
  3
ObjectDBX Classes
 90
        0
280
     0
281
     0
  0
CLASS
  1
DICTIONARYVAR
  2
AcDbDictionaryVar
  3
ObjectDBX Classes
 90
        0
280
     0
281
     0
  0
CLASS
  1
ACDBPLACEHOLDER
  2
AcDbPlaceHolder
  3
ObjectDBX Classes
 90
        0
280
     0
281
     0
  0
CLASS
  1
LAYOUT
  2
AcDbLayout
  3
ObjectDBX Classes
 90
        0
280
     0
281
     0
  0
ENDSEC
  0
SECTION
  2
TABLES
  0
TABLE
  2
VPORT
  5
746D
330
0
100
AcDbSymbolTable
 70
     2
  0
VPORT
  5
16F34
330
746D
100
AcDbSymbolTableRecord
100
AcDbViewportTableRecord
  2
*Active
 70
     0
 10
0.0
 20
0.0
 11
1.0
 21
1.0
 12
8223.761025238504
 22
5704.608037261908
 13
0.0
 23
0.0
 14
10.0
 24
10.0
 15
10.0
 25
10.0
 16
0.0
 26
0.0
 36
1.0
 17
0.0
 27
0.0
 37
0.0
 40
11495.08541324274
 41
1.525925925925925
 42
50.0
 43
0.0
 44
0.0
 50
0.0
 51
0.0
 71
     0
 72
     0
 73
     1
 74
     0
 75
     0
 76
     0
 77
     0
 78
     0
281
     0
 65
     1
110
0.0
120
0.0
130
0.0
111
1.0
121
0.0
131
0.0
112
0.0
122
1.0
132
0.0
 79
     0
146
0.0
  0
ENDTAB
  0
TABLE
  2
LTYPE
  5
746A
330
0
100
AcDbSymbolTable
 70
     4
  0
LTYPE
  5
7477
330
746A
100
AcDbSymbolTableRecord
100
AcDbLinetypeTableRecord
  2
BYBLOCK
 70
     0
  3

 72
    65
 73
     0
 40
0.0
  0
LTYPE
  5
7478
330
746A
100
AcDbSymbolTableRecord
100
AcDbLinetypeTableRecord
  2
BYLAYER
 70
     0
  3

 72
    65
 73
     0
 40
0.0
  0
LTYPE
  5
7479
330
746A
100
AcDbSymbolTableRecord
100
AcDbLinetypeTableRecord
  2
CONTINUOUS
 70
     0
  3
Solid line
 72
    65
 73
     0
 40
0.0
  0
LTYPE
  5
7816
330
746A
100
AcDbSymbolTableRecord
100
AcDbLinetypeTableRecord
  2
CENTER
 70
     0
  3
____ _ ____ _ ____ _ ____ _ ____ _ ____ _ ____ 
 72
    65
 73
     4
 40
2.0
 49
1.25
 74
     0
 49
-0.25
 74
     0
 49
0.25
 74
     0
 49
-0.25
 74
     0
  0
LTYPE
  5
781A
330
746A
100
AcDbSymbolTableRecord
100
AcDbLinetypeTableRecord
  2
HIDDEN
 70
     0
  3
__ __ __ __ __ __ __ __ __ __ __ __ __ __ __ __
 72
    65
 73
     2
 40
0.375
 49
0.25
 74
     0
 49
-0.125
 74
     0
  0
LTYPE
  5
781B
330
746A
100
AcDbSymbolTableRecord
100
AcDbLinetypeTableRecord
  2
PHANTOM
 70
     0
  3
______  __  __  ______  __  __  ______  __  __ 
 72
    65
 73
     6
 40
2.5
 49
1.25
 74
     0
 49
-0.25
 74
     0
 49
0.25
 74
     0
 49
-0.25
 74
     0
 49
0.25
 74
     0
 49
-0.25
 74
     0
  0
ENDTAB
  0
TABLE
  2
LAYER
  5
7467
102
{ACAD_XDICTIONARY
360
15B98
102
}
330
0
100
AcDbSymbolTable
 70
    12
  0
LAYER
  5
7474
330
7467
100
AcDbSymbolTableRecord
100
AcDbLayerTableRecord
  2
0
 70
     0
 62
     7
  6
CONTINUOUS
370
    -3
390
159FC
  0
LAYER
  5
DEB2
330
7467
100
AcDbSymbolTableRecord
100
AcDbLayerTableRecord
  2
センター
 70
     0
 62
     3
  6
CENTER
370
    -3
390
159FC
  0
LAYER
  5
DEB3
330
7467
100
AcDbSymbolTableRecord
100
AcDbLayerTableRecord
  2
寸法
 70
     0
 62
     4
  6
CONTINUOUS
370
    -3
390
159FC
  0
LAYER
  5
DEB4
330
7467
100
AcDbSymbolTableRecord
100
AcDbLayerTableRecord
  2
部品1
 70
     0
 62
     7
  6
CONTINUOUS
370
    -3
390
159FC
  0
LAYER
  5
DEB5
330
7467
100
AcDbSymbolTableRecord
100
AcDbLayerTableRecord
  2
補助
 70
     0
 62
    -1
  6
CONTINUOUS
370
    -3
390
159FC
  0
LAYER
  5
DEB6
330
7467
100
AcDbSymbolTableRecord
100
AcDbLayerTableRecord
  2
文字
 70
     0
 62
     7
  6
CONTINUOUS
370
    -3
390
159FC
  0
LAYER
  5
F255
330
7467
100
AcDbSymbolTableRecord
100
AcDbLayerTableRecord
  2
DEFPOINTS
 70
     0
 62
     7
  6
CONTINUOUS
290
     0
370
    -3
390
159FC
  0
LAYER
  5
10B54
330
7467
100
AcDbSymbolTableRecord
100
AcDbLayerTableRecord
  2
仕様書枠
 70
     0
 62
   230
  6
CONTINUOUS
370
    -3
390
159FC
  0
LAYER
  5
11729
330
7467
100
AcDbSymbolTableRecord
100
AcDbLayerTableRecord
  2
Ｇ．Ｌ
 70
     0
 62
    30
  6
CONTINUOUS
370
    -3
390
159FC
  0
LAYER
  5
1173F
330
7467
100
AcDbSymbolTableRecord
100
AcDbLayerTableRecord
  2
細線
 70
     0
 62
     5
  6
CONTINUOUS
370
    -3
390
159FC
  0
LAYER
  5
12CC4
330
7467
100
AcDbSymbolTableRecord
100
AcDbLayerTableRecord
  2
想像線
 70
     0
 62
     6
  6
PHANTOM
370
    -3
390
159FC
  0
LAYER
  5
142E2
330
7467
100
AcDbSymbolTableRecord
100
AcDbLayerTableRecord
  2
破線
 70
     0
 62
     2
  6
HIDDEN
370
    -3
390
159FC
  0
ENDTAB
  0
TABLE
  2
STYLE
  5
7468
330
0
100
AcDbSymbolTable
 70
     4
  0
STYLE
  5
7475
330
7468
100
AcDbSymbolTableRecord
100
AcDbTextStyleTableRecord
  2
STANDARD
 70
     0
 40
0.0
 41
1.0
 50
0.0
 71
     0
 42
4.0
  3
txt
  4
C:\AutoCAD LT\bigfont.shx
  0
STYLE
  5
F706
330
7468
100
AcDbSymbolTableRecord
100
AcDbTextStyleTableRecord
  2
STYLE1
 70
     0
 40
0.0
 41
1.0
 50
0.0
 71
     0
 42
4.0
  3
isocp.shx
  4
bigfont.shx
  0
STYLE
  5
103BF
330
7468
100
AcDbSymbolTableRecord
100
AcDbTextStyleTableRecord
  2
STYLE2
 70
     0
 40
0.0
 41
1.0
 50
0.0
 71
     0
 42
100.0
  3
MS PGothic.ttf
  4

1001
ACAD
1000
MS PGothic
1071
    32818
  0
STYLE
  5
164FF
330
7468
100
AcDbSymbolTableRecord
100
AcDbTextStyleTableRecord
  2
STYLE3
 70
     0
 40
0.0
 41
1.0
 50
0.0
 71
     0
 42
100.0
  3
DFPGothic-EB.ttf
  4

1001
ACAD
1000
DFPGothic-EB
1071
    32818
  0
ENDTAB
  0
TABLE
  2
VIEW
  5
746B
330
0
100
AcDbSymbolTable
 70
     0
  0
ENDTAB
  0
TABLE
  2
UCS
  5
746C
330
0
100
AcDbSymbolTable
 70
     0
  0
ENDTAB
  0
TABLE
  2
APPID
  5
746E
330
0
100
AcDbSymbolTable
 70
     6
  0
APPID
  5
7476
330
746E
100
AcDbSymbolTableRecord
100
AcDbRegAppTableRecord
  2
ACAD
 70
     0
  0
APPID
  5
DEA9
330
746E
100
AcDbSymbolTableRecord
100
AcDbRegAppTableRecord
  2
CONTENTBLOCKICON
 70
     0
  0
APPID
  5
DEAA
330
746E
100
AcDbSymbolTableRecord
100
AcDbRegAppTableRecord
  2
CONTENTBLOCKDESCRIPTION
 70
     0
  0
APPID
  5
E71D
330
746E
100
AcDbSymbolTableRecord
100
AcDbRegAppTableRecord
  2
CONTENTTABDATA
 70
     0
  0
APPID
  5
E71E
330
746E
100
AcDbSymbolTableRecord
100
AcDbRegAppTableRecord
  2
CONTENTCURRENTTAB
 70
     0
  0
APPID
  5
F3BA
330
746E
100
AcDbSymbolTableRecord
100
AcDbRegAppTableRecord
  2
DRAWINGVARIABLESXDATA
 70
     0
  0
ENDTAB
  0
TABLE
  2
DIMSTYLE
  5
746F
330
0
100
AcDbSymbolTable
 70
     5
100
AcDbDimStyleTable
 71
     0
  0
DIMSTYLE
105
7484
330
746F
100
AcDbSymbolTableRecord
100
AcDbDimStyleTableRecord
  2
JIS
 70
     0
 41
2.5
 42
1.0
 43
7.0
 44
1.0
 73
     0
 74
     0
 77
     1
 78
     8
140
2.5
141
0.0
143
0.0394
147
0.0
172
     1
174
     1
175
     1
340
7475
  0
DIMSTYLE
105
F71F
102
{ACAD_REACTORS
330
15E62
330
15E63
330
15E64
330
15E65
330
15E69
330
15E6A
330
15E6B
330
15E6C
330
15EAB
330
15EBE
330
15EC0
330
15EC4
330
15EE6
330
15EEB
330
15EF3
330
15EF4
330
15EF5
330
15EF6
330
15EFA
330
15F18
330
15F1A
330
15F1D
330
15F23
330
15F94
330
15F95
330
15F96
330
15FF2
330
15FF3
330
16BD7
330
16CB7
102
}
330
746F
100
AcDbSymbolTableRecord
100
AcDbDimStyleTableRecord
  2
INABA_S40G
 70
     0
 40
40.0
 41
2.5
 42
0.5
 43
7.0
 44
1.5
 73
     0
 74
     0
 77
     3
 78
     8
140
3.0
141
0.0
143
0.0394
147
1.0
172
     1
173
     1
174
     1
178
     7
271
     1
288
     1
340
F706
341
F770
343
F770
344
F770
  0
DIMSTYLE
105
15B97
102
{ACAD_REACTORS
330
16984
330
16BD8
102
}
330
746F
100
AcDbSymbolTableRecord
100
AcDbDimStyleTableRecord
  2
INABA_S40
 70
     0
 40
40.0
 41
2.5
 42
0.5
 43
7.0
 44
1.5
 73
     0
 74
     0
 77
     3
 78
     8
140
3.0
141
0.0
143
0.0394
147
1.0
172
     1
173
     1
174
     1
175
     1
178
     7
340
7475
  0
DIMSTYLE
105
16500
330
746F
100
AcDbSymbolTableRecord
100
AcDbDimStyleTableRecord
  2
INABA_S50G
 70
     0
 41
125.0
 42
25.0
 43
7.0
 44
75.0
 73
     0
 74
     0
 77
     3
 78
     8
140
150.0
141
0.0
143
0.0394
147
25.0
172
     1
173
     1
174
     1
175
     1
178
     7
271
     1
340
F706
341
F770
343
F770
344
F770
  0
DIMSTYLE
105
16EBA
330
746F
100
AcDbSymbolTableRecord
100
AcDbDimStyleTableRecord
  2
INABA_S20G
 70
     0
 40
20.0
 41
2.5
 42
0.5
 43
7.0
 44
1.5
 73
     0
 74
     0
 77
     3
 78
     8
140
3.0
141
0.0
143
0.0394
147
1.0
172
     1
173
     1
174
     1
178
     7
271
     1
340
F706
341
F770
343
F770
344
F770
  0
ENDTAB
  0
TABLE
  2
BLOCK_RECORD
  5
7466
330
0
100
AcDbSymbolTable
 70
    34
  0
BLOCK_RECORD
  5
747D
330
7466
100
AcDbSymbolTableRecord
100
AcDbBlockTableRecord
  2
*MODEL_SPACE
340
15A01
  0
BLOCK_RECORD
  5
747A
330
7466
100
AcDbSymbolTableRecord
100
AcDbBlockTableRecord
  2
*PAPER_SPACE
340
15A02
  0
BLOCK_RECORD
  5
F770
330
7466
100
AcDbSymbolTableRecord
100
AcDbBlockTableRecord
  2
_DOTSMALL
340
0
102
{BLKREFS
331
166D6
331
166D7
331
166E8
331
166E9
331
166F3
331
166F4
331
166FC
331
166FD
331
16719
331
1671A
331
16784
331
16785
331
1678D
331
1678E
331
16797
331
16798
331
167A1
331
167A2
331
167AA
331
167AB
331
167B5
331
167B6
331
167BE
331
167BF
331
167D2
331
167D3
331
167DC
331
167DD
331
16829
331
1682A
331
16833
331
16834
331
1683C
331
1683D
331
1684E
331
1684F
331
16E1A
331
16E1B
331
16E23
331
16E24
331
16E2E
331
16E2F
331
16E37
331
16E38
331
16E49
331
16E4A
331
16E54
331
16E55
331
16E5D
331
16E5E
331
16E68
331
16E69
331
16E7C
331
16E7D
331
16E85
331
16E86
331
16E8E
331
16E8F
331
16EAB
331
16EAC
102
}
  0
BLOCK_RECORD
  5
15A09
330
7466
100
AcDbSymbolTableRecord
100
AcDbBlockTableRecord
  2
_DOT
340
0
102
{BLKREFS
331
16E06
331
16E07
331
16E99
331
16E9A
102
}
  0
BLOCK_RECORD
  5
16110
330
7466
100
AcDbSymbolTableRecord
100
AcDbBlockTableRecord
  2
*D2
340
0
  0
BLOCK_RECORD
  5
1611C
330
7466
100
AcDbSymbolTableRecord
100
AcDbBlockTableRecord
  2
*D3
340
0
  0
BLOCK_RECORD
  5
16128
330
7466
100
AcDbSymbolTableRecord
100
AcDbBlockTableRecord
  2
*D4
340
0
  0
BLOCK_RECORD
  5
16135
330
7466
100
AcDbSymbolTableRecord
100
AcDbBlockTableRecord
  2
*D5
340
0
  0
BLOCK_RECORD
  5
16143
330
7466
100
AcDbSymbolTableRecord
100
AcDbBlockTableRecord
  2
*D6
340
0
  0
BLOCK_RECORD
  5
1614F
330
7466
100
AcDbSymbolTableRecord
100
AcDbBlockTableRecord
  2
*D7
340
0
  0
BLOCK_RECORD
  5
1615B
330
7466
100
AcDbSymbolTableRecord
100
AcDbBlockTableRecord
  2
*D8
340
0
  0
BLOCK_RECORD
  5
16169
330
7466
100
AcDbSymbolTableRecord
100
AcDbBlockTableRecord
  2
*D9
340
0
  0
BLOCK_RECORD
  5
16175
330
7466
100
AcDbSymbolTableRecord
100
AcDbBlockTableRecord
  2
*D10
340
0
  0
BLOCK_RECORD
  5
16182
330
7466
100
AcDbSymbolTableRecord
100
AcDbBlockTableRecord
  2
*D11
340
0
  0
BLOCK_RECORD
  5
1618F
330
7466
100
AcDbSymbolTableRecord
100
AcDbBlockTableRecord
  2
*D12
340
0
  0
BLOCK_RECORD
  5
1619B
330
7466
100
AcDbSymbolTableRecord
100
AcDbBlockTableRecord
  2
*D13
340
0
  0
BLOCK_RECORD
  5
161A7
330
7466
100
AcDbSymbolTableRecord
100
AcDbBlockTableRecord
  2
*D14
340
0
  0
BLOCK_RECORD
  5
161B5
330
7466
100
AcDbSymbolTableRecord
100
AcDbBlockTableRecord
  2
*D15
340
0
  0
BLOCK_RECORD
  5
161C1
330
7466
100
AcDbSymbolTableRecord
100
AcDbBlockTableRecord
  2
*D16
340
0
  0
BLOCK_RECORD
  5
161CF
330
7466
100
AcDbSymbolTableRecord
100
AcDbBlockTableRecord
  2
*D17
340
0
  0
BLOCK_RECORD
  5
161DB
330
7466
100
AcDbSymbolTableRecord
100
AcDbBlockTableRecord
  2
*D18
340
0
  0
BLOCK_RECORD
  5
161E9
330
7466
100
AcDbSymbolTableRecord
100
AcDbBlockTableRecord
  2
*D19
340
0
  0
BLOCK_RECORD
  5
16201
330
7466
100
AcDbSymbolTableRecord
100
AcDbBlockTableRecord
  2
*D20
340
0
  0
BLOCK_RECORD
  5
1620D
330
7466
100
AcDbSymbolTableRecord
100
AcDbBlockTableRecord
  2
*D21
340
0
  0
BLOCK_RECORD
  5
1621B
330
7466
100
AcDbSymbolTableRecord
100
AcDbBlockTableRecord
  2
*D22
340
0
  0
BLOCK_RECORD
  5
16227
330
7466
100
AcDbSymbolTableRecord
100
AcDbBlockTableRecord
  2
*D23
340
0
  0
BLOCK_RECORD
  5
16233
330
7466
100
AcDbSymbolTableRecord
100
AcDbBlockTableRecord
  2
*D24
340
0
  0
BLOCK_RECORD
  5
1624D
330
7466
100
AcDbSymbolTableRecord
100
AcDbBlockTableRecord
  2
*D25
340
0
  0
BLOCK_RECORD
  5
16259
330
7466
100
AcDbSymbolTableRecord
100
AcDbBlockTableRecord
  2
*D26
340
0
  0
BLOCK_RECORD
  5
16267
330
7466
100
AcDbSymbolTableRecord
100
AcDbBlockTableRecord
  2
*D27
340
0
  0
BLOCK_RECORD
  5
16273
330
7466
100
AcDbSymbolTableRecord
100
AcDbBlockTableRecord
  2
*D28
340
0
  0
BLOCK_RECORD
  5
1627F
330
7466
100
AcDbSymbolTableRecord
100
AcDbBlockTableRecord
  2
*D29
340
0
  0
BLOCK_RECORD
  5
169E8
330
7466
100
AcDbSymbolTableRecord
100
AcDbBlockTableRecord
  2
*D30
340
0
  0
BLOCK_RECORD
  5
16CC9
330
7466
100
AcDbSymbolTableRecord
100
AcDbBlockTableRecord
  2
*D31
340
0
  0
BLOCK_RECORD
  5
16CD5
330
7466
100
AcDbSymbolTableRecord
100
AcDbBlockTableRecord
  2
*D32
340
0
  0
BLOCK_RECORD
  5
16D21
330
7466
100
AcDbSymbolTableRecord
100
AcDbBlockTableRecord
  2
*D33
340
0
  0
ENDTAB
  0
ENDSEC
  0
SECTION
  2
BLOCKS
  0
BLOCK
  5
7489
330
747D
100
AcDbEntity
  8
0
100
AcDbBlockBegin
  2
*MODEL_SPACE
 70
     0
 10
0.0
 20
0.0
 30
0.0
  3
*MODEL_SPACE
  1

  0
ENDBLK
  5
748A
330
747D
100
AcDbEntity
  8
0
100
AcDbBlockEnd
  0
BLOCK
  5
7487
330
747A
100
AcDbEntity
 67
     1
  8
0
100
AcDbBlockBegin
  2
*PAPER_SPACE
 70
     0
 10
0.0
 20
0.0
 30
0.0
  3
*PAPER_SPACE
  1

  0
ENDBLK
  5
7488
330
747A
100
AcDbEntity
 67
     1
  8
0
100
AcDbBlockEnd
  0
BLOCK
  5
F771
330
F770
100
AcDbEntity
  8
0
 48
50.0
100
AcDbBlockBegin
  2
_DOTSMALL
 70
     0
 10
0.0
 20
0.0
 30
0.0
  3
_DOTSMALL
  1

  0
LWPOLYLINE
  5
F772
330
F770
100
AcDbEntity
  8
0
  6
ByBlock
 62
     0
 48
50.0
100
AcDbPolyline
 90
        2
 70
     1
 43
0.5
 10
-0.0625
 20
0.0
 42
1.0
 10
0.0625
 20
0.0
 42
1.0
  0
ENDBLK
  5
F776
330
F770
100
AcDbEntity
  8
0
 48
50.0
100
AcDbBlockEnd
  0
BLOCK
  5
15A0A
330
15A09
100
AcDbEntity
  8
0
 48
50.0
100
AcDbBlockBegin
  2
_DOT
 70
     0
 10
0.0
 20
0.0
 30
0.0
  3
_DOT
  1

  0
LWPOLYLINE
  5
15A0B
330
15A09
100
AcDbEntity
  8
0
  6
ByBlock
 62
     0
 48
50.0
100
AcDbPolyline
 90
        2
 70
     1
 43
0.5
 10
-0.25
 20
0.0
 42
1.0
 10
0.25
 20
0.0
 42
1.0
  0
LINE
  5
15A0C
330
15A09
100
AcDbEntity
  8
0
  6
ByBlock
 62
     0
 48
50.0
100
AcDbLine
 10
-0.5
 20
0.0
 30
0.0
 11
-1.0
 21
0.0
 31
0.0
  0
ENDBLK
  5
15A0D
330
15A09
100
AcDbEntity
  8
0
 48
50.0
100
AcDbBlockEnd
  0
BLOCK
  5
1611A
330
16110
100
AcDbEntity
  8
0
 48
50.0
100
AcDbBlockBegin
  2
*D2
 70
     1
 10
0.0
 20
0.0
 30
0.0
  3
*D2
  1

  0
LINE
  5
16830
330
16110
100
AcDbEntity
  8
寸法
 62
     0
 48
50.0
370
    -2
100
AcDbLine
 10
5164.217820046175
 20
4669.781546153951
 30
0.0
 11
4500.565110887879
 21
4669.781546153951
 31
0.0
  0
LINE
  5
16831
330
16110
100
AcDbEntity
  8
寸法
 62
     0
 48
50.0
370
    -2
100
AcDbLine
 10
5164.217820046175
 20
2579.781546153952
 30
0.0
 11
4500.565110887879
 21
2579.781546153953
 31
0.0
  0
LINE
  5
16832
330
16110
100
AcDbEntity
  8
寸法
 62
     0
 48
50.0
370
    -2
100
AcDbLine
 10
4560.565110887879
 20
4669.781546153951
 30
0.0
 11
4560.565110887879
 21
2579.781546153953
 31
0.0
  0
INSERT
  5
16833
330
16110
100
AcDbEntity
  8
寸法
 62
     0
 48
50.0
370
    -2
100
AcDbBlockReference
  2
_DOTSMALL
 10
4560.565110887879
 20
4669.781546153951
 30
0.0
 41
100.0
 42
100.0
 43
100.0
 50
90.0
  0
INSERT
  5
16834
330
16110
100
AcDbEntity
  8
寸法
 62
     0
 48
50.0
370
    -2
100
AcDbBlockReference
  2
_DOTSMALL
 10
4560.565110887879
 20
2579.781546153953
 30
0.0
 41
100.0
 42
100.0
 43
100.0
 50
270.0
  0
MTEXT
  5
16835
330
16110
100
AcDbEntity
  8
寸法
 62
     7
 48
50.0
100
AcDbMText
 10
4460.553299864256
 20
3624.781546153953
 30
0.0
 40
120.0
 41
0.0
 71
     5
 72
     1
  1
\A1;2090
  7
STYLE1
 11
0.0000000000000001
 21
1.0
 31
0.0
 73
     1
 44
1.0
1001
ACAD
1000
MTEXTBEGIN
1070
    73
1070
     1
1070
    44
1040
1.0
1070
    74
1070
     0
1000
MTEXTEND
  0
POINT
  5
16836
330
16110
100
AcDbEntity
  8
DEFPOINTS
 62
     0
 48
50.0
100
AcDbPoint
 10
5184.217820046175
 20
4669.781546153951
 30
0.0
  0
POINT
  5
16837
330
16110
100
AcDbEntity
  8
DEFPOINTS
 62
     0
 48
50.0
100
AcDbPoint
 10
5184.217820046175
 20
2579.781546153952
 30
0.0
  0
POINT
  5
16838
330
16110
100
AcDbEntity
  8
DEFPOINTS
 62
     0
 48
50.0
100
AcDbPoint
 10
4560.565110887879
 20
2579.781546153953
 30
0.0
  0
ENDBLK
  5
1611B
330
16110
100
AcDbEntity
  8
0
 48
50.0
100
AcDbBlockEnd
  0
BLOCK
  5
16126
330
1611C
100
AcDbEntity
  8
0
 48
50.0
100
AcDbBlockBegin
  2
*D3
 70
     1
 10
0.0
 20
0.0
 30
0.0
  3
*D3
  1

  0
LINE
  5
16839
330
1611C
100
AcDbEntity
  8
寸法
 62
     0
 48
50.0
370
    -2
100
AcDbLine
 10
5164.217820046175
 20
2529.781546153952
 30
0.0
 11
4215.578438116817
 21
2529.781546153953
 31
0.0
  0
LINE
  5
1683A
330
1611C
100
AcDbEntity
  8
寸法
 62
     0
 48
50.0
370
    -2
100
AcDbLine
 10
5104.217820046175
 20
4904.781546153957
 30
0.0
 11
4215.578438116817
 21
4904.781546153957
 31
0.0
  0
LINE
  5
1683B
330
1611C
100
AcDbEntity
  8
寸法
 62
     0
 48
50.0
370
    -2
100
AcDbLine
 10
4275.578438116816
 20
2529.781546153953
 30
0.0
 11
4275.578438116816
 21
4904.781546153957
 31
0.0
  0
INSERT
  5
1683C
330
1611C
100
AcDbEntity
  8
寸法
 62
     0
 48
50.0
370
    -2
100
AcDbBlockReference
  2
_DOTSMALL
 10
4275.578438116816
 20
2529.781546153953
 30
0.0
 41
100.0
 42
100.0
 43
100.0
 50
270.0
  0
INSERT
  5
1683D
330
1611C
100
AcDbEntity
  8
寸法
 62
     0
 48
50.0
370
    -2
100
AcDbBlockReference
  2
_DOTSMALL
 10
4275.578438116816
 20
4904.781546153957
 30
0.0
 41
100.0
 42
100.0
 43
100.0
 50
90.0
  0
MTEXT
  5
1683E
330
1611C
100
AcDbEntity
  8
寸法
 62
     7
 48
50.0
100
AcDbMText
 10
4175.566627093195
 20
3624.781546153953
 30
0.0
 40
120.0
 41
0.0
 71
     5
 72
     1
  1
\A1;2375
  7
STYLE1
 11
0.0000000000000001
 21
1.0
 31
0.0
 73
     1
 44
1.0
1001
ACAD
1000
MTEXTBEGIN
1070
    73
1070
     1
1070
    44
1040
1.0
1070
    74
1070
     0
1000
MTEXTEND
  0
POINT
  5
1683F
330
1611C
100
AcDbEntity
  8
DEFPOINTS
 62
     0
 48
50.0
100
AcDbPoint
 10
5184.217820046175
 20
2529.781546153952
 30
0.0
  0
POINT
  5
16840
330
1611C
100
AcDbEntity
  8
DEFPOINTS
 62
     0
 48
50.0
100
AcDbPoint
 10
5124.217820046175
 20
4904.781546153957
 30
0.0
  0
POINT
  5
16841
330
1611C
100
AcDbEntity
  8
DEFPOINTS
 62
     0
 48
50.0
100
AcDbPoint
 10
4275.578438116816
 20
4904.781546153957
 30
0.0
  0
ENDBLK
  5
16127
330
1611C
100
AcDbEntity
  8
0
 48
50.0
100
AcDbBlockEnd
  0
BLOCK
  5
16133
330
16128
100
AcDbEntity
  8
0
 48
50.0
100
AcDbBlockBegin
  2
*D4
 70
     1
 10
0.0
 20
0.0
 30
0.0
  3
*D4
  1

  0
LINE
  5
167D8
330
16128
100
AcDbEntity
  8
寸法
 62
     0
 48
50.0
370
    -2
100
AcDbLine
 10
5109.217820046175
 20
2529.781546153953
 30
0.0
 11
4215.578438116817
 21
2529.781546153953
 31
0.0
  0
LINE
  5
167D9
330
16128
100
AcDbEntity
  8
寸法
 62
     0
 48
50.0
370
    -2
100
AcDbLine
 10
4540.565110887877
 20
2429.781546153952
 30
0.0
 11
4215.578438116817
 21
2429.781546153952
 31
0.0
  0
LINE
  5
167DA
330
16128
100
AcDbEntity
  8
寸法
 62
     0
 48
50.0
370
    -2
100
AcDbLine
 10
4275.578438116816
 20
2529.781546153953
 30
0.0
 11
4275.578438116816
 21
2429.781546153952
 31
0.0
  0
LINE
  5
167DB
330
16128
100
AcDbEntity
  8
寸法
 62
     0
 48
50.0
370
    -2
100
AcDbLine
 10
4275.578438116816
 20
2429.781546153952
 30
0.0
 11
4275.578438116816
 21
2057.687057964973
 31
0.0
  0
INSERT
  5
167DC
330
16128
100
AcDbEntity
  8
寸法
 62
     0
 48
50.0
370
    -2
100
AcDbBlockReference
  2
_DOTSMALL
 10
4275.578438116816
 20
2529.781546153953
 30
0.0
 41
100.0
 42
100.0
 43
100.0
 50
90.0
  0
INSERT
  5
167DD
330
16128
100
AcDbEntity
  8
寸法
 62
     0
 48
50.0
370
    -2
100
AcDbBlockReference
  2
_DOTSMALL
 10
4275.578438116816
 20
2429.781546153952
 30
0.0
 41
100.0
 42
100.0
 43
100.0
 50
270.0
  0
MTEXT
  5
167DE
330
16128
100
AcDbEntity
  8
寸法
 62
     7
 48
50.0
100
AcDbMText
 10
4175.578438116816
 20
2193.734302059462
 30
0.0
 40
120.0
 41
0.0
 71
     5
 72
     1
  1
\A1;100
  7
STYLE1
 11
0.0000000000000001
 21
1.0
 31
0.0
 73
     1
 44
1.0
1001
ACAD
1000
MTEXTBEGIN
1070
    73
1070
     1
1070
    44
1040
1.0
1070
    74
1070
     0
1000
MTEXTEND
  0
POINT
  5
167DF
330
16128
100
AcDbEntity
  8
DEFPOINTS
 62
     0
 48
50.0
100
AcDbPoint
 10
5129.217820046175
 20
2529.781546153952
 30
0.0
  0
POINT
  5
167E0
330
16128
100
AcDbEntity
  8
DEFPOINTS
 62
     0
 48
50.0
100
AcDbPoint
 10
4560.565110887877
 20
2429.781546153952
 30
0.0
  0
POINT
  5
167E1
330
16128
100
AcDbEntity
  8
DEFPOINTS
 62
     0
 48
50.0
100
AcDbPoint
 10
4275.578438116816
 20
2429.781546153952
 30
0.0
  0
ENDBLK
  5
16134
330
16128
100
AcDbEntity
  8
0
 48
50.0
100
AcDbBlockEnd
  0
BLOCK
  5
16141
330
16135
100
AcDbEntity
  8
0
 48
50.0
100
AcDbBlockBegin
  2
*D5
 70
     1
 10
0.0
 20
0.0
 30
0.0
  3
*D5
  1

  0
LINE
  5
167CD
330
16135
100
AcDbEntity
  8
寸法
 62
     0
 48
50.0
370
    -2
100
AcDbLine
 10
5164.217820046175
 20
2579.781546153952
 30
0.0
 11
4500.565110887879
 21
2579.781546153953
 31
0.0
  0
LINE
  5
167CE
330
16135
100
AcDbEntity
  8
寸法
 62
     0
 48
50.0
370
    -2
100
AcDbLine
 10
5109.217820046175
 20
2529.781546153953
 30
0.0
 11
4500.565110887879
 21
2529.781546153953
 31
0.0
  0
LINE
  5
167CF
330
16135
100
AcDbEntity
  8
寸法
 62
     0
 48
50.0
370
    -2
100
AcDbLine
 10
4560.565110887877
 20
2579.781546153953
 30
0.0
 11
4560.565110887877
 21
2679.781546153953
 31
0.0
  0
LINE
  5
167D0
330
16135
100
AcDbEntity
  8
寸法
 62
     0
 48
50.0
370
    -2
100
AcDbLine
 10
4560.565110887877
 20
2529.781546153953
 30
0.0
 11
4560.565110887877
 21
2117.687057964973
 31
0.0
  0
LINE
  5
167D1
330
16135
100
AcDbEntity
  8
寸法
 62
     0
 48
50.0
370
    -2
100
AcDbLine
 10
4560.565110887877
 20
2579.781546153953
 30
0.0
 11
4560.565110887877
 21
2529.781546153953
 31
0.0
  0
INSERT
  5
167D2
330
16135
100
AcDbEntity
  8
寸法
 62
     0
 48
50.0
370
    -2
100
AcDbBlockReference
  2
_DOTSMALL
 10
4560.565110887877
 20
2579.781546153953
 30
0.0
 41
100.0
 42
100.0
 43
100.0
 50
270.0
  0
INSERT
  5
167D3
330
16135
100
AcDbEntity
  8
寸法
 62
     0
 48
50.0
370
    -2
100
AcDbBlockReference
  2
_DOTSMALL
 10
4560.565110887877
 20
2529.781546153953
 30
0.0
 41
100.0
 42
100.0
 43
100.0
 50
90.0
  0
MTEXT
  5
167D4
330
16135
100
AcDbEntity
  8
寸法
 62
     7
 48
50.0
100
AcDbMText
 10
4460.565110887877
 20
2223.734302059462
 30
0.0
 40
120.0
 41
0.0
 71
     5
 72
     1
  1
\A1;50
  7
STYLE1
 11
0.0000000000000001
 21
1.0
 31
0.0
 73
     1
 44
1.0
1001
ACAD
1000
MTEXTBEGIN
1070
    73
1070
     1
1070
    44
1040
1.0
1070
    74
1070
     0
1000
MTEXTEND
  0
POINT
  5
167D5
330
16135
100
AcDbEntity
  8
DEFPOINTS
 62
     0
 48
50.0
100
AcDbPoint
 10
5184.217820046175
 20
2579.781546153952
 30
0.0
  0
POINT
  5
167D6
330
16135
100
AcDbEntity
  8
DEFPOINTS
 62
     0
 48
50.0
100
AcDbPoint
 10
5129.217820046175
 20
2529.781546153952
 30
0.0
  0
POINT
  5
167D7
330
16135
100
AcDbEntity
  8
DEFPOINTS
 62
     0
 48
50.0
100
AcDbPoint
 10
4560.565110887877
 20
2529.781546153953
 30
0.0
  0
ENDBLK
  5
16142
330
16135
100
AcDbEntity
  8
0
 48
50.0
100
AcDbBlockEnd
  0
BLOCK
  5
1614D
330
16143
100
AcDbEntity
  8
0
 48
50.0
100
AcDbBlockBegin
  2
*D6
 70
     1
 10
0.0
 20
0.0
 30
0.0
  3
*D6
  1

  0
LINE
  5
1684B
330
16143
100
AcDbEntity
  8
寸法
 62
     0
 48
50.0
370
    -2
100
AcDbLine
 10
7071.217820046179
 20
2529.781546153952
 30
0.0
 11
7645.753633536997
 21
2529.781546153952
 31
0.0
  0
LINE
  5
1684C
330
16143
100
AcDbEntity
  8
寸法
 62
     0
 48
50.0
370
    -2
100
AcDbLine
 10
7074.217820046175
 20
4849.781546153953
 30
0.0
 11
7645.753633536997
 21
4849.781546153953
 31
0.0
  0
LINE
  5
1684D
330
16143
100
AcDbEntity
  8
寸法
 62
     0
 48
50.0
370
    -2
100
AcDbLine
 10
7585.753633536995
 20
2529.781546153952
 30
0.0
 11
7585.753633536995
 21
4849.781546153953
 31
0.0
  0
INSERT
  5
1684E
330
16143
100
AcDbEntity
  8
寸法
 62
     0
 48
50.0
370
    -2
100
AcDbBlockReference
  2
_DOTSMALL
 10
7585.753633536995
 20
2529.781546153952
 30
0.0
 41
100.0
 42
100.0
 43
100.0
 50
270.0
  0
INSERT
  5
1684F
330
16143
100
AcDbEntity
  8
寸法
 62
     0
 48
50.0
370
    -2
100
AcDbBlockReference
  2
_DOTSMALL
 10
7585.753633536995
 20
4849.781546153953
 30
0.0
 41
100.0
 42
100.0
 43
100.0
 50
90.0
  0
MTEXT
  5
16850
330
16143
100
AcDbEntity
  8
寸法
 62
     7
 48
50.0
100
AcDbMText
 10
7485.741822513374
 20
3688.15714265981
 30
0.0
 40
120.0
 41
0.0
 71
     5
 72
     1
  1
\A1;2320
  7
STYLE1
 11
0.0000000000000001
 21
1.0
 31
0.0
 73
     1
 44
1.0
1001
ACAD
1000
MTEXTBEGIN
1070
    73
1070
     1
1070
    44
1040
1.0
1070
    74
1070
     0
1000
MTEXTEND
  0
POINT
  5
16851
330
16143
100
AcDbEntity
  8
DEFPOINTS
 62
     0
 48
50.0
100
AcDbPoint
 10
7051.217820046179
 20
2529.781546153952
 30
0.0
  0
POINT
  5
16852
330
16143
100
AcDbEntity
  8
DEFPOINTS
 62
     0
 48
50.0
100
AcDbPoint
 10
7054.217820046175
 20
4849.781546153953
 30
0.0
  0
POINT
  5
16853
330
16143
100
AcDbEntity
  8
DEFPOINTS
 62
     0
 48
50.0
100
AcDbPoint
 10
7585.753633536995
 20
4849.781546153953
 30
0.0
  0
ENDBLK
  5
1614E
330
16143
100
AcDbEntity
  8
0
 48
50.0
100
AcDbBlockEnd
  0
BLOCK
  5
16159
330
1614F
100
AcDbEntity
  8
0
 48
50.0
100
AcDbBlockBegin
  2
*D7
 70
     1
 10
0.0
 20
0.0
 30
0.0
  3
*D7
  1

  0
LINE
  5
167BB
330
1614F
100
AcDbEntity
  8
寸法
 62
     0
 48
50.0
370
    -2
100
AcDbLine
 10
6974.217820046175
 20
4871.592225765606
 30
0.0
 11
6974.217820046175
 21
5363.874715493426
 31
0.0
  0
LINE
  5
167BC
330
1614F
100
AcDbEntity
  8
寸法
 62
     0
 48
50.0
370
    -2
100
AcDbLine
 10
5184.217820046175
 20
4920.783164276929
 30
0.0
 11
5184.217820046175
 21
5363.874715493426
 31
0.0
  0
LINE
  5
167BD
330
1614F
100
AcDbEntity
  8
寸法
 62
     0
 48
50.0
370
    -2
100
AcDbLine
 10
6974.217820046175
 20
5303.874715493425
 30
0.0
 11
5184.217820046175
 21
5303.874715493425
 31
0.0
  0
INSERT
  5
167BE
330
1614F
100
AcDbEntity
  8
寸法
 62
     0
 48
50.0
370
    -2
100
AcDbBlockReference
  2
_DOTSMALL
 10
6974.217820046175
 20
5303.874715493425
 30
0.0
 41
100.0
 42
100.0
 43
100.0
  0
INSERT
  5
167BF
330
1614F
100
AcDbEntity
  8
寸法
 62
     0
 48
50.0
370
    -2
100
AcDbBlockReference
  2
_DOTSMALL
 10
5184.217820046175
 20
5303.874715493425
 30
0.0
 41
100.0
 42
100.0
 43
100.0
 50
180.0
  0
MTEXT
  5
167C0
330
1614F
100
AcDbEntity
  8
寸法
 62
     7
 48
50.0
100
AcDbMText
 10
6093.813468722656
 20
5403.874715493426
 30
0.0
 40
120.0
 41
0.0
 71
     5
 72
     1
  1
\A1;柱外寸法1790
  7
STYLE1
 73
     1
 44
1.0
1001
ACAD
1000
MTEXTBEGIN
1070
    73
1070
     1
1070
    44
1040
1.0
1070
    74
1070
     0
1000
MTEXTEND
  0
POINT
  5
167C1
330
1614F
100
AcDbEntity
  8
DEFPOINTS
 62
     0
 48
50.0
100
AcDbPoint
 10
6974.217820046175
 20
4851.592225765606
 30
0.0
  0
POINT
  5
167C2
330
1614F
100
AcDbEntity
  8
DEFPOINTS
 62
     0
 48
50.0
100
AcDbPoint
 10
5184.217820046175
 20
4900.783164276929
 30
0.0
  0
POINT
  5
167C3
330
1614F
100
AcDbEntity
  8
DEFPOINTS
 62
     0
 48
50.0
100
AcDbPoint
 10
5184.217820046175
 20
5303.874715493425
 30
0.0
  0
ENDBLK
  5
1615A
330
1614F
100
AcDbEntity
  8
0
 48
50.0
100
AcDbBlockEnd
  0
BLOCK
  5
16167
330
1615B
100
AcDbEntity
  8
0
 48
50.0
100
AcDbBlockBegin
  2
*D8
 70
     1
 10
0.0
 20
0.0
 30
0.0
  3
*D8
  1

  0
LINE
  5
167B0
330
1615B
100
AcDbEntity
  8
寸法
 62
     0
 48
50.0
370
    -2
100
AcDbLine
 10
5184.217820046175
 20
4920.783164276929
 30
0.0
 11
5184.217820046175
 21
5363.438999733256
 31
0.0
  0
LINE
  5
167B1
330
1615B
100
AcDbEntity
  8
寸法
 62
     0
 48
50.0
370
    -2
100
AcDbLine
 10
5124.217820046175
 20
4924.781546153957
 30
0.0
 11
5124.217820046175
 21
5363.438999733256
 31
0.0
  0
LINE
  5
167B2
330
1615B
100
AcDbEntity
  8
寸法
 62
     0
 48
50.0
370
    -2
100
AcDbLine
 10
5184.217820046175
 20
5303.438999733256
 30
0.0
 11
5284.217820046175
 21
5303.438999733256
 31
0.0
  0
LINE
  5
167B3
330
1615B
100
AcDbEntity
  8
寸法
 62
     0
 48
50.0
370
    -2
100
AcDbLine
 10
5124.217820046175
 20
5303.438999733256
 30
0.0
 11
4704.942229494993
 21
5303.438999733256
 31
0.0
  0
LINE
  5
167B4
330
1615B
100
AcDbEntity
  8
寸法
 62
     0
 48
50.0
370
    -2
100
AcDbLine
 10
5184.217820046175
 20
5303.438999733256
 30
0.0
 11
5124.217820046175
 21
5303.438999733256
 31
0.0
  0
INSERT
  5
167B5
330
1615B
100
AcDbEntity
  8
寸法
 62
     0
 48
50.0
370
    -2
100
AcDbBlockReference
  2
_DOTSMALL
 10
5184.217820046175
 20
5303.438999733256
 30
0.0
 41
100.0
 42
100.0
 43
100.0
 50
180.0
  0
INSERT
  5
167B6
330
1615B
100
AcDbEntity
  8
寸法
 62
     0
 48
50.0
370
    -2
100
AcDbBlockReference
  2
_DOTSMALL
 10
5124.217820046175
 20
5303.438999733256
 30
0.0
 41
100.0
 42
100.0
 43
100.0
  0
MTEXT
  5
167B7
330
1615B
100
AcDbEntity
  8
寸法
 62
     7
 48
50.0
100
AcDbMText
 10
4814.580024770584
 20
5403.438999733257
 30
0.0
 40
120.0
 41
0.0
 71
     5
 72
     1
  1
\A1;60
  7
STYLE1
 73
     1
 44
1.0
1001
ACAD
1000
MTEXTBEGIN
1070
    73
1070
     1
1070
    44
1040
1.0
1070
    74
1070
     0
1000
MTEXTEND
  0
POINT
  5
167B8
330
1615B
100
AcDbEntity
  8
DEFPOINTS
 62
     0
 48
50.0
100
AcDbPoint
 10
5184.217820046175
 20
4900.783164276929
 30
0.0
  0
POINT
  5
167B9
330
1615B
100
AcDbEntity
  8
DEFPOINTS
 62
     0
 48
50.0
100
AcDbPoint
 10
5124.217820046175
 20
4904.781546153957
 30
0.0
  0
POINT
  5
167BA
330
1615B
100
AcDbEntity
  8
DEFPOINTS
 62
     0
 48
50.0
100
AcDbPoint
 10
5124.217820046175
 20
5303.438999733256
 30
0.0
  0
ENDBLK
  5
16168
330
1615B
100
AcDbEntity
  8
0
 48
50.0
100
AcDbBlockEnd
  0
BLOCK
  5
16173
330
16169
100
AcDbEntity
  8
0
 48
50.0
100
AcDbBlockBegin
  2
*D9
 70
     1
 10
0.0
 20
0.0
 30
0.0
  3
*D9
  1

  0
LINE
  5
167A7
330
16169
100
AcDbEntity
  8
寸法
 62
     0
 48
50.0
370
    -2
100
AcDbLine
 10
7054.217820046175
 20
4869.781546153953
 30
0.0
 11
7054.217820046175
 21
5580.400815111871
 31
0.0
  0
LINE
  5
167A8
330
16169
100
AcDbEntity
  8
寸法
 62
     0
 48
50.0
370
    -2
100
AcDbLine
 10
5124.217820046175
 20
4924.781546153957
 30
0.0
 11
5124.217820046175
 21
5580.400815111871
 31
0.0
  0
LINE
  5
167A9
330
16169
100
AcDbEntity
  8
寸法
 62
     0
 48
50.0
370
    -2
100
AcDbLine
 10
7054.217820046175
 20
5520.40081511187
 30
0.0
 11
5124.217820046175
 21
5520.40081511187
 31
0.0
  0
INSERT
  5
167AA
330
16169
100
AcDbEntity
  8
寸法
 62
     0
 48
50.0
370
    -2
100
AcDbBlockReference
  2
_DOTSMALL
 10
7054.217820046175
 20
5520.40081511187
 30
0.0
 41
100.0
 42
100.0
 43
100.0
  0
INSERT
  5
167AB
330
16169
100
AcDbEntity
  8
寸法
 62
     0
 48
50.0
370
    -2
100
AcDbBlockReference
  2
_DOTSMALL
 10
5124.217820046175
 20
5520.40081511187
 30
0.0
 41
100.0
 42
100.0
 43
100.0
 50
180.0
  0
MTEXT
  5
167AC
330
16169
100
AcDbEntity
  8
寸法
 62
     7
 48
50.0
100
AcDbMText
 10
6030.023571297144
 20
5620.400815111871
 30
0.0
 40
120.0
 41
0.0
 71
     5
 72
     1
  1
\A1;1930
  7
STYLE1
 73
     1
 44
1.0
1001
ACAD
1000
MTEXTBEGIN
1070
    73
1070
     1
1070
    44
1040
1.0
1070
    74
1070
     0
1000
MTEXTEND
  0
POINT
  5
167AD
330
16169
100
AcDbEntity
  8
DEFPOINTS
 62
     0
 48
50.0
100
AcDbPoint
 10
7054.217820046175
 20
4849.781546153953
 30
0.0
  0
POINT
  5
167AE
330
16169
100
AcDbEntity
  8
DEFPOINTS
 62
     0
 48
50.0
100
AcDbPoint
 10
5124.217820046175
 20
4904.781546153957
 30
0.0
  0
POINT
  5
167AF
330
16169
100
AcDbEntity
  8
DEFPOINTS
 62
     0
 48
50.0
100
AcDbPoint
 10
5124.217820046175
 20
5520.40081511187
 30
0.0
  0
ENDBLK
  5
16174
330
16169
100
AcDbEntity
  8
0
 48
50.0
100
AcDbBlockEnd
  0
BLOCK
  5
16180
330
16175
100
AcDbEntity
  8
0
 48
50.0
100
AcDbBlockBegin
  2
*D10
 70
     1
 10
0.0
 20
0.0
 30
0.0
  3
*D10
  1

  0
LINE
  5
1679D
330
16175
100
AcDbEntity
  8
寸法
 62
     0
 48
50.0
370
    -2
100
AcDbLine
 10
6974.217820046175
 20
4871.592225765606
 30
0.0
 11
6974.217820046175
 21
5363.438999733256
 31
0.0
  0
LINE
  5
1679E
330
16175
100
AcDbEntity
  8
寸法
 62
     0
 48
50.0
370
    -2
100
AcDbLine
 10
7054.217820046175
 20
4869.781546153953
 30
0.0
 11
7054.217820046175
 21
5363.438999733256
 31
0.0
  0
LINE
  5
1679F
330
16175
100
AcDbEntity
  8
寸法
 62
     0
 48
50.0
370
    -2
100
AcDbLine
 10
6974.217820046175
 20
5303.438999733256
 30
0.0
 11
7054.217820046175
 21
5303.438999733256
 31
0.0
  0
LINE
  5
167A0
330
16175
100
AcDbEntity
  8
寸法
 62
     0
 48
50.0
370
    -2
100
AcDbLine
 10
7054.217820046175
 20
5303.438999733256
 30
0.0
 11
7366.312308235153
 21
5303.438999733256
 31
0.0
  0
INSERT
  5
167A1
330
16175
100
AcDbEntity
  8
寸法
 62
     0
 48
50.0
370
    -2
100
AcDbBlockReference
  2
_DOTSMALL
 10
6974.217820046175
 20
5303.438999733256
 30
0.0
 41
100.0
 42
100.0
 43
100.0
 50
180.0
  0
INSERT
  5
167A2
330
16175
100
AcDbEntity
  8
寸法
 62
     0
 48
50.0
370
    -2
100
AcDbBlockReference
  2
_DOTSMALL
 10
7054.217820046175
 20
5303.438999733256
 30
0.0
 41
100.0
 42
100.0
 43
100.0
  0
MTEXT
  5
167A3
330
16175
100
AcDbEntity
  8
寸法
 62
     7
 48
50.0
100
AcDbMText
 10
7260.265064140665
 20
5403.438999733257
 30
0.0
 40
120.0
 41
0.0
 71
     5
 72
     1
  1
\A1;80
  7
STYLE1
 73
     1
 44
1.0
1001
ACAD
1000
MTEXTBEGIN
1070
    73
1070
     1
1070
    44
1040
1.0
1070
    74
1070
     0
1000
MTEXTEND
  0
POINT
  5
167A4
330
16175
100
AcDbEntity
  8
DEFPOINTS
 62
     0
 48
50.0
100
AcDbPoint
 10
6974.217820046175
 20
4851.592225765606
 30
0.0
  0
POINT
  5
167A5
330
16175
100
AcDbEntity
  8
DEFPOINTS
 62
     0
 48
50.0
100
AcDbPoint
 10
7054.217820046175
 20
4849.781546153953
 30
0.0
  0
POINT
  5
167A6
330
16175
100
AcDbEntity
  8
DEFPOINTS
 62
     0
 48
50.0
100
AcDbPoint
 10
7054.217820046175
 20
5303.438999733256
 30
0.0
  0
ENDBLK
  5
16181
330
16175
100
AcDbEntity
  8
0
 48
50.0
100
AcDbBlockEnd
  0
BLOCK
  5
1618D
330
16182
100
AcDbEntity
  8
0
 48
50.0
100
AcDbBlockBegin
  2
*D11
 70
     1
 10
0.0
 20
0.0
 30
0.0
  3
*D11
  1

  0
LINE
  5
16793
330
16182
100
AcDbEntity
  8
寸法
 62
     0
 48
50.0
370
    -2
100
AcDbLine
 10
5123.622106337278
 20
4904.079253223614
 30
0.0
 11
4507.68766723201
 21
4921.793403497943
 31
0.0
  0
LINE
  5
16794
330
16182
100
AcDbEntity
  8
寸法
 62
     0
 48
50.0
370
    -2
100
AcDbLine
 10
5119.56865078065
 20
4763.137529457902
 30
0.0
 11
4503.634211675384
 21
4780.851679732231
 31
0.0
  0
LINE
  5
16795
330
16182
100
AcDbEntity
  8
寸法
 62
     0
 48
50.0
370
    -2
100
AcDbLine
 10
4563.609413277815
 20
4779.126805027284
 30
0.0
 11
4567.662868834442
 21
4920.068528792996
 31
0.0
  0
LINE
  5
16796
330
16182
100
AcDbEntity
  8
寸法
 62
     0
 48
50.0
370
    -2
100
AcDbLine
 10
4567.662868834442
 20
4920.068528792996
 30
0.0
 11
4578.012117064125
 21
5279.919738407581
 31
0.0
  0
INSERT
  5
16797
330
16182
100
AcDbEntity
  8
寸法
 62
     0
 48
50.0
370
    -2
100
AcDbBlockReference
  2
_DOTSMALL
 10
4563.609413277815
 20
4779.126805027284
 30
0.0
 41
100.0
 42
100.0
 43
100.0
 50
268.3526390256378
  0
INSERT
  5
16798
330
16182
100
AcDbEntity
  8
寸法
 62
     0
 48
50.0
370
    -2
100
AcDbBlockReference
  2
_DOTSMALL
 10
4567.662868834442
 20
4920.068528792996
 30
0.0
 41
100.0
 42
100.0
 43
100.0
 50
88.35263902563776
  0
MTEXT
  5
16799
330
16182
100
AcDbEntity
  8
寸法
 62
     7
 48
50.0
100
AcDbMText
 10
4474.316219199355
 20
5152.848259443894
 30
0.0
 40
120.0
 41
0.0
 71
     5
 72
     1
  1
\A1;141
  7
STYLE1
 11
0.0287479117491237
 21
0.9995866933738488
 31
0.0
 73
     1
 44
1.0
1001
ACAD
1000
MTEXTBEGIN
1070
    73
1070
     1
1070
    44
1040
1.0
1070
    74
1070
     0
1000
MTEXTEND
  0
POINT
  5
1679A
330
16182
100
AcDbEntity
  8
DEFPOINTS
 62
     0
 48
50.0
100
AcDbPoint
 10
5143.613840204754
 20
4903.504294988632
 30
0.0
  0
POINT
  5
1679B
330
16182
100
AcDbEntity
  8
DEFPOINTS
 62
     0
 48
50.0
100
AcDbPoint
 10
5139.560384648127
 20
4762.562571222919
 30
0.0
  0
POINT
  5
1679C
330
16182
100
AcDbEntity
  8
DEFPOINTS
 62
     0
 48
50.0
100
AcDbPoint
 10
4563.609413277815
 20
4779.126805027284
 30
0.0
  0
ENDBLK
  5
1618E
330
16182
100
AcDbEntity
  8
0
 48
50.0
100
AcDbBlockEnd
  0
BLOCK
  5
16199
330
1618F
100
AcDbEntity
  8
0
 48
50.0
100
AcDbBlockBegin
  2
*D12
 70
     1
 10
0.0
 20
0.0
 30
0.0
  3
*D12
  1

  0
LINE
  5
1678A
330
1618F
100
AcDbEntity
  8
寸法
 62
     0
 48
50.0
370
    -2
100
AcDbLine
 10
5091.717820046178
 20
2229.781546153951
 30
0.0
 11
4902.217816799542
 21
2229.781546153951
 31
0.0
  0
LINE
  5
1678B
330
1618F
100
AcDbEntity
  8
寸法
 62
     0
 48
50.0
370
    -2
100
AcDbLine
 10
5066.717820046175
 20
2429.781546153952
 30
0.0
 11
4902.217816799542
 21
2429.781546153952
 31
0.0
  0
LINE
  5
1678C
330
1618F
100
AcDbEntity
  8
寸法
 62
     0
 48
50.0
370
    -2
100
AcDbLine
 10
4962.217816799541
 20
2229.781546153951
 30
0.0
 11
4962.217816799541
 21
2429.781546153952
 31
0.0
  0
INSERT
  5
1678D
330
1618F
100
AcDbEntity
  8
寸法
 62
     0
 48
50.0
370
    -2
100
AcDbBlockReference
  2
_DOTSMALL
 10
4962.217816799541
 20
2229.781546153951
 30
0.0
 41
100.0
 42
100.0
 43
100.0
 50
270.0
  0
INSERT
  5
1678E
330
1618F
100
AcDbEntity
  8
寸法
 62
     0
 48
50.0
370
    -2
100
AcDbBlockReference
  2
_DOTSMALL
 10
4962.217816799541
 20
2429.781546153952
 30
0.0
 41
100.0
 42
100.0
 43
100.0
 50
90.0
  0
MTEXT
  5
1678F
330
1618F
100
AcDbEntity
  8
寸法
 62
     7
 48
50.0
100
AcDbMText
 10
4862.206005775919
 20
2329.781546153952
 30
0.0
 40
120.0
 41
0.0
 71
     5
 72
     1
  1
\A1;200
  7
STYLE1
 11
0.0000000000000001
 21
1.0
 31
0.0
 73
     1
 44
1.0
1001
ACAD
1000
MTEXTBEGIN
1070
    73
1070
     1
1070
    44
1040
1.0
1070
    74
1070
     0
1000
MTEXTEND
  0
POINT
  5
16790
330
1618F
100
AcDbEntity
  8
DEFPOINTS
 62
     0
 48
50.0
100
AcDbPoint
 10
5111.717820046179
 20
2229.781546153951
 30
0.0
  0
POINT
  5
16791
330
1618F
100
AcDbEntity
  8
DEFPOINTS
 62
     0
 48
50.0
100
AcDbPoint
 10
5086.717820046175
 20
2429.781546153952
 30
0.0
  0
POINT
  5
16792
330
1618F
100
AcDbEntity
  8
DEFPOINTS
 62
     0
 48
50.0
100
AcDbPoint
 10
4962.217816799541
 20
2429.781546153952
 30
0.0
  0
ENDBLK
  5
1619A
330
1618F
100
AcDbEntity
  8
0
 48
50.0
100
AcDbBlockEnd
  0
BLOCK
  5
161A5
330
1619B
100
AcDbEntity
  8
0
 48
50.0
100
AcDbBlockBegin
  2
*D13
 70
     1
 10
0.0
 20
0.0
 30
0.0
  3
*D13
  1

  0
LINE
  5
16781
330
1619B
100
AcDbEntity
  8
寸法
 62
     0
 48
50.0
370
    -2
100
AcDbLine
 10
5311.717820046175
 20
2209.78154615395
 30
0.0
 11
5311.717820046175
 21
1883.734216853573
 31
0.0
  0
LINE
  5
16782
330
1619B
100
AcDbEntity
  8
寸法
 62
     0
 48
50.0
370
    -2
100
AcDbLine
 10
5111.717820046179
 20
2209.781546153951
 30
0.0
 11
5111.717820046179
 21
1883.734216853573
 31
0.0
  0
LINE
  5
16783
330
1619B
100
AcDbEntity
  8
寸法
 62
     0
 48
50.0
370
    -2
100
AcDbLine
 10
5311.717820046175
 20
1943.734216853573
 30
0.0
 11
5111.717820046179
 21
1943.734216853573
 31
0.0
  0
INSERT
  5
16784
330
1619B
100
AcDbEntity
  8
寸法
 62
     0
 48
50.0
370
    -2
100
AcDbBlockReference
  2
_DOTSMALL
 10
5311.717820046175
 20
1943.734216853573
 30
0.0
 41
100.0
 42
100.0
 43
100.0
  0
INSERT
  5
16785
330
1619B
100
AcDbEntity
  8
寸法
 62
     0
 48
50.0
370
    -2
100
AcDbBlockReference
  2
_DOTSMALL
 10
5111.717820046179
 20
1943.734216853573
 30
0.0
 41
100.0
 42
100.0
 43
100.0
 50
180.0
  0
MTEXT
  5
16786
330
1619B
100
AcDbEntity
  8
寸法
 62
     7
 48
50.0
100
AcDbMText
 10
5211.717820046176
 20
2043.746027877196
 30
0.0
 40
120.0
 41
0.0
 71
     5
 72
     1
  1
\A1;200
  7
STYLE1
 73
     1
 44
1.0
1001
ACAD
1000
MTEXTBEGIN
1070
    73
1070
     1
1070
    44
1040
1.0
1070
    74
1070
     0
1000
MTEXTEND
  0
POINT
  5
16787
330
1619B
100
AcDbEntity
  8
DEFPOINTS
 62
     0
 48
50.0
100
AcDbPoint
 10
5311.717820046175
 20
2229.78154615395
 30
0.0
  0
POINT
  5
16788
330
1619B
100
AcDbEntity
  8
DEFPOINTS
 62
     0
 48
50.0
100
AcDbPoint
 10
5111.717820046179
 20
2229.781546153951
 30
0.0
  0
POINT
  5
16789
330
1619B
100
AcDbEntity
  8
DEFPOINTS
 62
     0
 48
50.0
100
AcDbPoint
 10
5111.717820046179
 20
1943.734216853573
 30
0.0
  0
ENDBLK
  5
161A6
330
1619B
100
AcDbEntity
  8
0
 48
50.0
100
AcDbBlockEnd
  0
BLOCK
  5
161B3
330
161A7
100
AcDbEntity
  8
0
 48
50.0
100
AcDbBlockBegin
  2
*D14
 70
     1
 10
0.0
 20
0.0
 30
0.0
  3
*D14
  1

  0
LINE
  5
16E77
330
161A7
100
AcDbEntity
  8
寸法
 62
     0
 48
50.0
370
    -2
100
AcDbLine
 10
9100.678166143683
 20
9828.092956259503
 30
0.0
 11
9100.678166143683
 21
10164.89998306771
 31
0.0
  0
LINE
  5
16E78
330
161A7
100
AcDbEntity
  8
寸法
 62
     0
 48
50.0
370
    -2
100
AcDbLine
 10
9155.67816614372
 20
9828.092956259503
 30
0.0
 11
9155.67816614372
 21
10164.89998306771
 31
0.0
  0
LINE
  5
16E79
330
161A7
100
AcDbEntity
  8
寸法
 62
     0
 48
50.0
370
    -2
100
AcDbLine
 10
9155.67816614372
 20
10104.89998306771
 30
0.0
 11
9255.67816614372
 21
10104.89998306771
 31
0.0
  0
LINE
  5
16E7A
330
161A7
100
AcDbEntity
  8
寸法
 62
     0
 48
50.0
370
    -2
100
AcDbLine
 10
9100.678166143683
 20
10104.89998306771
 30
0.0
 11
8683.707603395207
 21
10104.89998306771
 31
0.0
  0
LINE
  5
16E7B
330
161A7
100
AcDbEntity
  8
寸法
 62
     0
 48
50.0
370
    -2
100
AcDbLine
 10
9155.67816614372
 20
10104.89998306771
 30
0.0
 11
9100.678166143683
 21
10104.89998306771
 31
0.0
  0
INSERT
  5
16E7C
330
161A7
100
AcDbEntity
  8
寸法
 62
     0
 48
50.0
370
    -2
100
AcDbBlockReference
  2
_DOTSMALL
 10
9155.67816614372
 20
10104.89998306771
 30
0.0
 41
100.0
 42
100.0
 43
100.0
 50
180.0
  0
INSERT
  5
16E7D
330
161A7
100
AcDbEntity
  8
寸法
 62
     0
 48
50.0
370
    -2
100
AcDbBlockReference
  2
_DOTSMALL
 10
9100.678166143683
 20
10104.89998306771
 30
0.0
 41
100.0
 42
100.0
 43
100.0
  0
MTEXT
  5
16E7E
330
161A7
100
AcDbEntity
  8
寸法
 62
     7
 48
50.0
100
AcDbMText
 10
8792.192884769447
 20
10204.89998306771
 30
0.0
 40
120.0
 41
0.0
 71
     5
 72
     1
  1
\A1;55
  7
STYLE1
 73
     1
 44
1.0
1001
ACAD
1000
MTEXTBEGIN
1070
    73
1070
     1
1070
    44
1040
1.0
1070
    74
1070
     0
1000
MTEXTEND
  0
POINT
  5
16E7F
330
161A7
100
AcDbEntity
  8
DEFPOINTS
 62
     0
 48
50.0
100
AcDbPoint
 10
9100.678166143683
 20
9808.092956259503
 30
0.0
  0
POINT
  5
16E80
330
161A7
100
AcDbEntity
  8
DEFPOINTS
 62
     0
 48
50.0
100
AcDbPoint
 10
9155.67816614372
 20
9808.092956259503
 30
0.0
  0
POINT
  5
16E81
330
161A7
100
AcDbEntity
  8
DEFPOINTS
 62
     0
 48
50.0
100
AcDbPoint
 10
9155.67816614372
 20
10104.89998306771
 30
0.0
  0
ENDBLK
  5
161B4
330
161A7
100
AcDbEntity
  8
0
 48
50.0
100
AcDbBlockEnd
  0
BLOCK
  5
161BF
330
161B5
100
AcDbEntity
  8
0
 48
50.0
100
AcDbBlockBegin
  2
*D15
 70
     1
 10
0.0
 20
0.0
 30
0.0
  3
*D15
  1

  0
LINE
  5
16EA8
330
161B5
100
AcDbEntity
  8
寸法
 62
     0
 48
50.0
370
    -2
100
AcDbLine
 10
10910.67816614372
 20
9808.092956259599
 30
0.0
 11
11875.04207965899
 21
9808.092956259599
 31
0.0
  0
LINE
  5
16EA9
330
161B5
100
AcDbEntity
  8
寸法
 62
     0
 48
50.0
370
    -2
100
AcDbLine
 10
10910.67816614369
 20
8018.092956259589
 30
0.0
 11
11875.04207965899
 21
8018.092956259589
 31
0.0
  0
LINE
  5
16EAA
330
161B5
100
AcDbEntity
  8
寸法
 62
     0
 48
50.0
370
    -2
100
AcDbLine
 10
11815.04207965899
 20
9808.092956259599
 30
0.0
 11
11815.04207965899
 21
8018.092956259589
 31
0.0
  0
INSERT
  5
16EAB
330
161B5
100
AcDbEntity
  8
寸法
 62
     0
 48
50.0
370
    -2
100
AcDbBlockReference
  2
_DOTSMALL
 10
11815.04207965899
 20
9808.092956259599
 30
0.0
 41
100.0
 42
100.0
 43
100.0
 50
90.0
  0
INSERT
  5
16EAC
330
161B5
100
AcDbEntity
  8
寸法
 62
     0
 48
50.0
370
    -2
100
AcDbBlockReference
  2
_DOTSMALL
 10
11815.04207965899
 20
8018.092956259589
 30
0.0
 41
100.0
 42
100.0
 43
100.0
 50
270.0
  0
MTEXT
  5
16EAD
330
161B5
100
AcDbEntity
  8
寸法
 62
     7
 48
50.0
100
AcDbMText
 10
11715.04207965899
 20
8893.36669819869
 30
0.0
 40
120.0
 41
0.0
 71
     5
 72
     1
  1
\A1;1790
  7
STYLE1
 11
0.0000000000000001
 21
1.0
 31
0.0
 73
     1
 44
1.0
1001
ACAD
1000
MTEXTBEGIN
1070
    73
1070
     1
1070
    44
1040
1.0
1070
    74
1070
     0
1000
MTEXTEND
  0
POINT
  5
16EAE
330
161B5
100
AcDbEntity
  8
DEFPOINTS
 62
     0
 48
50.0
100
AcDbPoint
 10
10890.67816614372
 20
9808.092956259599
 30
0.0
  0
POINT
  5
16EAF
330
161B5
100
AcDbEntity
  8
DEFPOINTS
 62
     0
 48
50.0
100
AcDbPoint
 10
10890.67816614369
 20
8018.092956259589
 30
0.0
  0
POINT
  5
16EB0
330
161B5
100
AcDbEntity
  8
DEFPOINTS
 62
     0
 48
50.0
100
AcDbPoint
 10
11815.04207965899
 20
8018.092956259589
 30
0.0
  0
ENDBLK
  5
161C0
330
161B5
100
AcDbEntity
  8
0
 48
50.0
100
AcDbBlockEnd
  0
BLOCK
  5
161CD
330
161C1
100
AcDbEntity
  8
0
 48
50.0
100
AcDbBlockBegin
  2
*D16
 70
     1
 10
0.0
 20
0.0
 30
0.0
  3
*D16
  1

  0
LINE
  5
16E63
330
161C1
100
AcDbEntity
  8
寸法
 62
     0
 48
50.0
370
    -2
100
AcDbLine
 10
10910.67816614372
 20
9808.092956259599
 30
0.0
 11
11598.10451187813
 21
9808.092956259599
 31
0.0
  0
LINE
  5
16E64
330
161C1
100
AcDbEntity
  8
寸法
 62
     0
 48
50.0
370
    -2
100
AcDbLine
 10
10910.67816614372
 20
9753.092956259601
 30
0.0
 11
11598.10451187813
 21
9753.092956259601
 31
0.0
  0
LINE
  5
16E65
330
161C1
100
AcDbEntity
  8
寸法
 62
     0
 48
50.0
370
    -2
100
AcDbLine
 10
11538.10451187813
 20
9753.092956259601
 30
0.0
 11
11538.10451187813
 21
9653.092956259602
 31
0.0
  0
LINE
  5
16E66
330
161C1
100
AcDbEntity
  8
寸法
 62
     0
 48
50.0
370
    -2
100
AcDbLine
 10
11538.10451187813
 20
9808.092956259599
 30
0.0
 11
11538.10451187813
 21
10225.06351900807
 31
0.0
  0
LINE
  5
16E67
330
161C1
100
AcDbEntity
  8
寸法
 62
     0
 48
50.0
370
    -2
100
AcDbLine
 10
11538.10451187813
 20
9753.092956259601
 30
0.0
 11
11538.10451187813
 21
9808.092956259599
 31
0.0
  0
INSERT
  5
16E68
330
161C1
100
AcDbEntity
  8
寸法
 62
     0
 48
50.0
370
    -2
100
AcDbBlockReference
  2
_DOTSMALL
 10
11538.10451187813
 20
9753.092956259601
 30
0.0
 41
100.0
 42
100.0
 43
100.0
 50
90.0
  0
INSERT
  5
16E69
330
161C1
100
AcDbEntity
  8
寸法
 62
     0
 48
50.0
370
    -2
100
AcDbBlockReference
  2
_DOTSMALL
 10
11538.10451187813
 20
9808.092956259599
 30
0.0
 41
100.0
 42
100.0
 43
100.0
 50
270.0
  0
MTEXT
  5
16E6A
330
161C1
100
AcDbEntity
  8
寸法
 62
     7
 48
50.0
100
AcDbMText
 10
11438.10451187813
 20
10116.57823763383
 30
0.0
 40
120.0
 41
0.0
 71
     5
 72
     1
  1
\A1;55
  7
STYLE1
 11
0.0000000000000001
 21
1.0
 31
0.0
 73
     1
 44
1.0
1001
ACAD
1000
MTEXTBEGIN
1070
    73
1070
     1
1070
    44
1040
1.0
1070
    74
1070
     0
1000
MTEXTEND
  0
POINT
  5
16E6B
330
161C1
100
AcDbEntity
  8
DEFPOINTS
 62
     0
 48
50.0
100
AcDbPoint
 10
10890.67816614372
 20
9808.092956259599
 30
0.0
  0
POINT
  5
16E6C
330
161C1
100
AcDbEntity
  8
DEFPOINTS
 62
     0
 48
50.0
100
AcDbPoint
 10
10890.67816614372
 20
9753.092956259601
 30
0.0
  0
POINT
  5
16E6D
330
161C1
100
AcDbEntity
  8
DEFPOINTS
 62
     0
 48
50.0
100
AcDbPoint
 10
11538.10451187813
 20
9753.092956259601
 30
0.0
  0
ENDBLK
  5
161CE
330
161C1
100
AcDbEntity
  8
0
 48
50.0
100
AcDbBlockEnd
  0
BLOCK
  5
161D9
330
161CF
100
AcDbEntity
  8
0
 48
50.0
100
AcDbBlockBegin
  2
*D17
 70
     1
 10
0.0
 20
0.0
 30
0.0
  3
*D17
  1

  0
LINE
  5
16E5A
330
161CF
100
AcDbEntity
  8
寸法
 62
     0
 48
50.0
370
    -2
100
AcDbLine
 10
10882.17816614372
 20
9772.733972410975
 30
0.0
 11
11277.53589200574
 21
9666.798189044842
 31
0.0
  0
LINE
  5
16E5B
330
161CF
100
AcDbEntity
  8
寸法
 62
     0
 48
50.0
370
    -2
100
AcDbLine
 10
10882.17816614372
 20
9322.733972410977
 30
0.0
 11
11277.53589200574
 21
9216.798189044842
 31
0.0
  0
LINE
  5
16E5C
330
161CF
100
AcDbEntity
  8
寸法
 62
     0
 48
50.0
370
    -2
100
AcDbLine
 10
11217.53589200574
 20
9682.875140590709
 30
0.0
 11
11217.53589200574
 21
9232.87514059071
 31
0.0
  0
INSERT
  5
16E5D
330
161CF
100
AcDbEntity
  8
寸法
 62
     0
 48
50.0
370
    -2
100
AcDbBlockReference
  2
_DOTSMALL
 10
11217.53589200574
 20
9682.875140590709
 30
0.0
 41
100.0
 42
100.0
 43
100.0
 50
90.0
  0
INSERT
  5
16E5E
330
161CF
100
AcDbEntity
  8
寸法
 62
     0
 48
50.0
370
    -2
100
AcDbBlockReference
  2
_DOTSMALL
 10
11217.53589200574
 20
9232.87514059071
 30
0.0
 41
100.0
 42
100.0
 43
100.0
 50
270.0
  0
MTEXT
  5
16E5F
330
161CF
100
AcDbEntity
  8
寸法
 62
     7
 48
50.0
100
AcDbMText
 10
11117.53589200574
 20
9457.87514059071
 30
0.0
 40
120.0
 41
0.0
 71
     5
 72
     1
  1
\A1;450
  7
STYLE1
 11
0.0000000000000001
 21
1.0
 31
0.0
 73
     1
 44
1.0
1001
ACAD
1000
MTEXTBEGIN
1070
    73
1070
     1
1070
    44
1040
1.0
1070
    74
1070
     0
1000
MTEXTEND
  0
POINT
  5
16E60
330
161CF
100
AcDbEntity
  8
DEFPOINTS
 62
     0
 48
50.0
100
AcDbPoint
 10
10862.17816614372
 20
9778.092956259598
 30
0.0
  0
POINT
  5
16E61
330
161CF
100
AcDbEntity
  8
DEFPOINTS
 62
     0
 48
50.0
100
AcDbPoint
 10
10862.17816614372
 20
9328.092956259601
 30
0.0
  0
POINT
  5
16E62
330
161CF
100
AcDbEntity
  8
DEFPOINTS
 62
     0
 48
50.0
100
AcDbPoint
 10
11217.53589200574
 20
9232.87514059071
 30
0.0
  0
ENDBLK
  5
161DA
330
161CF
100
AcDbEntity
  8
0
 48
50.0
100
AcDbBlockEnd
  0
BLOCK
  5
161E7
330
161DB
100
AcDbEntity
  8
0
 48
50.0
100
AcDbBlockBegin
  2
*D18
 70
     1
 10
0.0
 20
0.0
 30
0.0
  3
*D18
  1

  0
LINE
  5
16E4F
330
161DB
100
AcDbEntity
  8
寸法
 62
     0
 48
50.0
370
    -2
100
AcDbLine
 10
10910.67816614369
 20
8073.092956259584
 30
0.0
 11
11598.1045118781
 21
8073.092956259584
 31
0.0
  0
LINE
  5
16E50
330
161DB
100
AcDbEntity
  8
寸法
 62
     0
 48
50.0
370
    -2
100
AcDbLine
 10
10910.67816614369
 20
8018.092956259589
 30
0.0
 11
11598.1045118781
 21
8018.092956259589
 31
0.0
  0
LINE
  5
16E51
330
161DB
100
AcDbEntity
  8
寸法
 62
     0
 48
50.0
370
    -2
100
AcDbLine
 10
11538.1045118781
 20
8073.092956259584
 30
0.0
 11
11538.1045118781
 21
8173.092956259585
 31
0.0
  0
LINE
  5
16E52
330
161DB
100
AcDbEntity
  8
寸法
 62
     0
 48
50.0
370
    -2
100
AcDbLine
 10
11538.1045118781
 20
8018.092956259589
 30
0.0
 11
11538.1045118781
 21
7531.746207980487
 31
0.0
  0
LINE
  5
16E53
330
161DB
100
AcDbEntity
  8
寸法
 62
     0
 48
50.0
370
    -2
100
AcDbLine
 10
11538.1045118781
 20
8073.092956259584
 30
0.0
 11
11538.1045118781
 21
8018.092956259589
 31
0.0
  0
INSERT
  5
16E54
330
161DB
100
AcDbEntity
  8
寸法
 62
     0
 48
50.0
370
    -2
100
AcDbBlockReference
  2
_DOTSMALL
 10
11538.1045118781
 20
8073.092956259584
 30
0.0
 41
100.0
 42
100.0
 43
100.0
 50
270.0
  0
INSERT
  5
16E55
330
161DB
100
AcDbEntity
  8
寸法
 62
     0
 48
50.0
370
    -2
100
AcDbBlockReference
  2
_DOTSMALL
 10
11538.1045118781
 20
8018.092956259589
 30
0.0
 41
100.0
 42
100.0
 43
100.0
 50
90.0
  0
MTEXT
  5
16E56
330
161DB
100
AcDbEntity
  8
寸法
 62
     7
 48
50.0
100
AcDbMText
 10
11438.1045118781
 20
7640.231489354727
 30
0.0
 40
120.0
 41
0.0
 71
     5
 72
     1
  1
\A1;55
  7
STYLE1
 11
0.0000000000000001
 21
1.0
 31
0.0
 73
     1
 44
1.0
1001
ACAD
1000
MTEXTBEGIN
1070
    73
1070
     1
1070
    44
1040
1.0
1070
    74
1070
     0
1000
MTEXTEND
  0
POINT
  5
16E57
330
161DB
100
AcDbEntity
  8
DEFPOINTS
 62
     0
 48
50.0
100
AcDbPoint
 10
10890.67816614369
 20
8073.092956259584
 30
0.0
  0
POINT
  5
16E58
330
161DB
100
AcDbEntity
  8
DEFPOINTS
 62
     0
 48
50.0
100
AcDbPoint
 10
10890.67816614369
 20
8018.092956259589
 30
0.0
  0
POINT
  5
16E59
330
161DB
100
AcDbEntity
  8
DEFPOINTS
 62
     0
 48
50.0
100
AcDbPoint
 10
11538.1045118781
 20
8018.092956259589
 30
0.0
  0
ENDBLK
  5
161E8
330
161DB
100
AcDbEntity
  8
0
 48
50.0
100
AcDbBlockEnd
  0
BLOCK
  5
161F3
330
161E9
100
AcDbEntity
  8
0
 48
50.0
100
AcDbBlockBegin
  2
*D19
 70
     1
 10
0.0
 20
0.0
 30
0.0
  3
*D19
  1

  0
LINE
  5
16E46
330
161E9
100
AcDbEntity
  8
寸法
 62
     0
 48
50.0
370
    -2
100
AcDbLine
 10
10910.67816614372
 20
9753.092956259601
 30
0.0
 11
11598.10451187813
 21
9753.092956259601
 31
0.0
  0
LINE
  5
16E47
330
161E9
100
AcDbEntity
  8
寸法
 62
     0
 48
50.0
370
    -2
100
AcDbLine
 10
10910.67816614369
 20
8073.092956259584
 30
0.0
 11
11598.10451187813
 21
8073.092956259584
 31
0.0
  0
LINE
  5
16E48
330
161E9
100
AcDbEntity
  8
寸法
 62
     0
 48
50.0
370
    -2
100
AcDbLine
 10
11538.10451187813
 20
9753.092956259601
 30
0.0
 11
11538.10451187813
 21
8073.092956259584
 31
0.0
  0
INSERT
  5
16E49
330
161E9
100
AcDbEntity
  8
寸法
 62
     0
 48
50.0
370
    -2
100
AcDbBlockReference
  2
_DOTSMALL
 10
11538.10451187813
 20
9753.092956259601
 30
0.0
 41
100.0
 42
100.0
 43
100.0
 50
90.0
  0
INSERT
  5
16E4A
330
161E9
100
AcDbEntity
  8
寸法
 62
     0
 48
50.0
370
    -2
100
AcDbBlockReference
  2
_DOTSMALL
 10
11538.10451187813
 20
8073.092956259584
 30
0.0
 41
100.0
 42
100.0
 43
100.0
 50
270.0
  0
MTEXT
  5
16E4B
330
161E9
100
AcDbEntity
  8
寸法
 62
     7
 48
50.0
100
AcDbMText
 10
11438.09270085451
 20
8913.092956259593
 30
0.0
 40
120.0
 41
0.0
 71
     5
 72
     1
  1
\A1;4X420=1680
  7
STYLE1
 11
0.0000000000000001
 21
1.0
 31
0.0
 73
     1
 44
1.0
1001
ACAD
1000
MTEXTBEGIN
1070
    73
1070
     1
1070
    44
1040
1.0
1070
    74
1070
     0
1000
MTEXTEND
  0
POINT
  5
16E4C
330
161E9
100
AcDbEntity
  8
DEFPOINTS
 62
     0
 48
50.0
100
AcDbPoint
 10
10890.67816614372
 20
9753.092956259601
 30
0.0
  0
POINT
  5
16E4D
330
161E9
100
AcDbEntity
  8
DEFPOINTS
 62
     0
 48
50.0
100
AcDbPoint
 10
10890.67816614369
 20
8073.092956259584
 30
0.0
  0
POINT
  5
16E4E
330
161E9
100
AcDbEntity
  8
DEFPOINTS
 62
     0
 48
50.0
100
AcDbPoint
 10
11538.10451187813
 20
8073.092956259584
 30
0.0
  0
ENDBLK
  5
161F4
330
161E9
100
AcDbEntity
  8
0
 48
50.0
100
AcDbBlockEnd
  0
BLOCK
  5
1620B
330
16201
100
AcDbEntity
  8
0
 48
50.0
100
AcDbBlockBegin
  2
*D20
 70
     1
 10
0.0
 20
0.0
 30
0.0
  3
*D20
  1

  0
LINE
  5
16E34
330
16201
100
AcDbEntity
  8
寸法
 62
     0
 48
50.0
370
    -2
100
AcDbLine
 10
10003.81918229509
 20
9308.092956259606
 30
0.0
 11
9914.532441041423
 21
8974.870301458635
 31
0.0
  0
LINE
  5
16E35
330
16201
100
AcDbEntity
  8
寸法
 62
     0
 48
50.0
370
    -2
100
AcDbLine
 10
10856.81918229511
 20
9308.092956259601
 30
0.0
 11
10767.53244104143
 21
8974.870301458635
 31
0.0
  0
LINE
  5
16E36
330
16201
100
AcDbEntity
  8
寸法
 62
     0
 48
50.0
370
    -2
100
AcDbLine
 10
9930.609392587289
 20
9034.870301458633
 30
0.0
 11
10783.6093925873
 21
9034.870301458633
 31
0.0
  0
INSERT
  5
16E37
330
16201
100
AcDbEntity
  8
寸法
 62
     0
 48
50.0
370
    -2
100
AcDbBlockReference
  2
_DOTSMALL
 10
9930.609392587289
 20
9034.870301458633
 30
0.0
 41
100.0
 42
100.0
 43
100.0
 50
180.0
  0
INSERT
  5
16E38
330
16201
100
AcDbEntity
  8
寸法
 62
     0
 48
50.0
370
    -2
100
AcDbBlockReference
  2
_DOTSMALL
 10
10783.6093925873
 20
9034.870301458633
 30
0.0
 41
100.0
 42
100.0
 43
100.0
  0
MTEXT
  5
16E39
330
16201
100
AcDbEntity
  8
寸法
 62
     7
 48
50.0
100
AcDbMText
 10
10388.52522826199
 20
9134.870301458633
 30
0.0
 40
120.0
 41
0.0
 71
     5
 72
     1
  1
\A1;853
  7
STYLE1
 73
     1
 44
1.0
1001
ACAD
1000
MTEXTBEGIN
1070
    73
1070
     1
1070
    44
1040
1.0
1070
    74
1070
     0
1000
MTEXTEND
  0
POINT
  5
16E3A
330
16201
100
AcDbEntity
  8
DEFPOINTS
 62
     0
 48
50.0
100
AcDbPoint
 10
10009.17816614372
 20
9328.092956259608
 30
0.0
  0
POINT
  5
16E3B
330
16201
100
AcDbEntity
  8
DEFPOINTS
 62
     0
 48
50.0
100
AcDbPoint
 10
10862.17816614373
 20
9328.092956259601
 30
0.0
  0
POINT
  5
16E3C
330
16201
100
AcDbEntity
  8
DEFPOINTS
 62
     0
 48
50.0
100
AcDbPoint
 10
10783.6093925873
 20
9034.870301458633
 30
0.0
  0
ENDBLK
  5
1620C
330
16201
100
AcDbEntity
  8
0
 48
50.0
100
AcDbBlockEnd
  0
BLOCK
  5
16219
330
1620D
100
AcDbEntity
  8
0
 48
50.0
100
AcDbBlockBegin
  2
*D21
 70
     1
 10
0.0
 20
0.0
 30
0.0
  3
*D21
  1

  0
LINE
  5
16E29
330
1620D
100
AcDbEntity
  8
寸法
 62
     0
 48
50.0
370
    -2
100
AcDbLine
 10
10835.67816614372
 20
9828.092956259597
 30
0.0
 11
10835.67816614372
 21
10164.8999830678
 31
0.0
  0
LINE
  5
16E2A
330
1620D
100
AcDbEntity
  8
寸法
 62
     0
 48
50.0
370
    -2
100
AcDbLine
 10
10890.67816614372
 20
9828.092956259597
 30
0.0
 11
10890.67816614372
 21
10164.8999830678
 31
0.0
  0
LINE
  5
16E2B
330
1620D
100
AcDbEntity
  8
寸法
 62
     0
 48
50.0
370
    -2
100
AcDbLine
 10
10835.67816614372
 20
10104.8999830678
 30
0.0
 11
10735.67816614372
 21
10104.8999830678
 31
0.0
  0
LINE
  5
16E2C
330
1620D
100
AcDbEntity
  8
寸法
 62
     0
 48
50.0
370
    -2
100
AcDbLine
 10
10890.67816614372
 20
10104.8999830678
 30
0.0
 11
11307.64872889219
 21
10104.8999830678
 31
0.0
  0
LINE
  5
16E2D
330
1620D
100
AcDbEntity
  8
寸法
 62
     0
 48
50.0
370
    -2
100
AcDbLine
 10
10835.67816614372
 20
10104.8999830678
 30
0.0
 11
10890.67816614372
 21
10104.8999830678
 31
0.0
  0
INSERT
  5
16E2E
330
1620D
100
AcDbEntity
  8
寸法
 62
     0
 48
50.0
370
    -2
100
AcDbBlockReference
  2
_DOTSMALL
 10
10835.67816614372
 20
10104.8999830678
 30
0.0
 41
100.0
 42
100.0
 43
100.0
  0
INSERT
  5
16E2F
330
1620D
100
AcDbEntity
  8
寸法
 62
     0
 48
50.0
370
    -2
100
AcDbBlockReference
  2
_DOTSMALL
 10
10890.67816614372
 20
10104.8999830678
 30
0.0
 41
100.0
 42
100.0
 43
100.0
 50
180.0
  0
MTEXT
  5
16E30
330
1620D
100
AcDbEntity
  8
寸法
 62
     7
 48
50.0
100
AcDbMText
 10
11199.16344751796
 20
10204.8999830678
 30
0.0
 40
120.0
 41
0.0
 71
     5
 72
     1
  1
\A1;55
  7
STYLE1
 73
     1
 44
1.0
1001
ACAD
1000
MTEXTBEGIN
1070
    73
1070
     1
1070
    44
1040
1.0
1070
    74
1070
     0
1000
MTEXTEND
  0
POINT
  5
16E31
330
1620D
100
AcDbEntity
  8
DEFPOINTS
 62
     0
 48
50.0
100
AcDbPoint
 10
10835.67816614372
 20
9808.092956259599
 30
0.0
  0
POINT
  5
16E32
330
1620D
100
AcDbEntity
  8
DEFPOINTS
 62
     0
 48
50.0
100
AcDbPoint
 10
10890.67816614372
 20
9808.092956259599
 30
0.0
  0
POINT
  5
16E33
330
1620D
100
AcDbEntity
  8
DEFPOINTS
 62
     0
 48
50.0
100
AcDbPoint
 10
10890.67816614372
 20
10104.8999830678
 30
0.0
  0
ENDBLK
  5
1621A
330
1620D
100
AcDbEntity
  8
0
 48
50.0
100
AcDbBlockEnd
  0
BLOCK
  5
16225
330
1621B
100
AcDbEntity
  8
0
 48
50.0
100
AcDbBlockBegin
  2
*D22
 70
     1
 10
0.0
 20
0.0
 30
0.0
  3
*D22
  1

  0
LINE
  5
16E20
330
1621B
100
AcDbEntity
  8
寸法
 62
     0
 48
50.0
370
    -2
100
AcDbLine
 10
9155.67816614372
 20
9828.092956259503
 30
0.0
 11
9155.67816614372
 21
10164.89998306782
 31
0.0
  0
LINE
  5
16E21
330
1621B
100
AcDbEntity
  8
寸法
 62
     0
 48
50.0
370
    -2
100
AcDbLine
 10
10835.67816614372
 20
9828.092956259597
 30
0.0
 11
10835.67816614372
 21
10164.89998306782
 31
0.0
  0
LINE
  5
16E22
330
1621B
100
AcDbEntity
  8
寸法
 62
     0
 48
50.0
370
    -2
100
AcDbLine
 10
9155.67816614372
 20
10104.89998306782
 30
0.0
 11
10835.67816614372
 21
10104.89998306782
 31
0.0
  0
INSERT
  5
16E23
330
1621B
100
AcDbEntity
  8
寸法
 62
     0
 48
50.0
370
    -2
100
AcDbBlockReference
  2
_DOTSMALL
 10
9155.67816614372
 20
10104.89998306782
 30
0.0
 41
100.0
 42
100.0
 43
100.0
 50
180.0
  0
INSERT
  5
16E24
330
1621B
100
AcDbEntity
  8
寸法
 62
     0
 48
50.0
370
    -2
100
AcDbBlockReference
  2
_DOTSMALL
 10
10835.67816614372
 20
10104.89998306782
 30
0.0
 41
100.0
 42
100.0
 43
100.0
  0
MTEXT
  5
16E25
330
1621B
100
AcDbEntity
  8
寸法
 62
     7
 48
50.0
100
AcDbMText
 10
9995.678166143719
 20
10204.91179409145
 30
0.0
 40
120.0
 41
0.0
 71
     5
 72
     1
  1
\A1;4X420=1680
  7
STYLE1
 73
     1
 44
1.0
1001
ACAD
1000
MTEXTBEGIN
1070
    73
1070
     1
1070
    44
1040
1.0
1070
    74
1070
     0
1000
MTEXTEND
  0
POINT
  5
16E26
330
1621B
100
AcDbEntity
  8
DEFPOINTS
 62
     0
 48
50.0
100
AcDbPoint
 10
9155.67816614372
 20
9808.092956259503
 30
0.0
  0
POINT
  5
16E27
330
1621B
100
AcDbEntity
  8
DEFPOINTS
 62
     0
 48
50.0
100
AcDbPoint
 10
10835.67816614372
 20
9808.092956259599
 30
0.0
  0
POINT
  5
16E28
330
1621B
100
AcDbEntity
  8
DEFPOINTS
 62
     0
 48
50.0
100
AcDbPoint
 10
10835.67816614372
 20
10104.89998306782
 30
0.0
  0
ENDBLK
  5
16226
330
1621B
100
AcDbEntity
  8
0
 48
50.0
100
AcDbBlockEnd
  0
BLOCK
  5
16231
330
16227
100
AcDbEntity
  8
0
 48
50.0
100
AcDbBlockBegin
  2
*D23
 70
     1
 10
0.0
 20
0.0
 30
0.0
  3
*D23
  1

  0
LINE
  5
16716
330
16227
100
AcDbEntity
  8
寸法
 62
     0
 48
50.0
370
    -2
100
AcDbLine
 10
9200.678166143715
 20
2209.781546153951
 30
0.0
 11
9200.678166143715
 21
1883.734216853574
 31
0.0
  0
LINE
  5
16717
330
16227
100
AcDbEntity
  8
寸法
 62
     0
 48
50.0
370
    -2
100
AcDbLine
 10
9000.678166143712
 20
2209.781546153951
 30
0.0
 11
9000.678166143712
 21
1883.734216853574
 31
0.0
  0
LINE
  5
16718
330
16227
100
AcDbEntity
  8
寸法
 62
     0
 48
50.0
370
    -2
100
AcDbLine
 10
9200.678166143715
 20
1943.734216853574
 30
0.0
 11
9000.678166143712
 21
1943.734216853574
 31
0.0
  0
INSERT
  5
16719
330
16227
100
AcDbEntity
  8
寸法
 62
     0
 48
50.0
370
    -2
100
AcDbBlockReference
  2
_DOTSMALL
 10
9200.678166143715
 20
1943.734216853574
 30
0.0
 41
100.0
 42
100.0
 43
100.0
  0
INSERT
  5
1671A
330
16227
100
AcDbEntity
  8
寸法
 62
     0
 48
50.0
370
    -2
100
AcDbBlockReference
  2
_DOTSMALL
 10
9000.678166143712
 20
1943.734216853574
 30
0.0
 41
100.0
 42
100.0
 43
100.0
 50
180.0
  0
MTEXT
  5
1671B
330
16227
100
AcDbEntity
  8
寸法
 62
     7
 48
50.0
100
AcDbMText
 10
9100.678166143714
 20
2043.746027877197
 30
0.0
 40
120.0
 41
0.0
 71
     5
 72
     1
  1
\A1;200
  7
STYLE1
 73
     1
 44
1.0
1001
ACAD
1000
MTEXTBEGIN
1070
    73
1070
     1
1070
    44
1040
1.0
1070
    74
1070
     0
1000
MTEXTEND
  0
POINT
  5
1671C
330
16227
100
AcDbEntity
  8
DEFPOINTS
 62
     0
 48
50.0
100
AcDbPoint
 10
9200.678166143715
 20
2229.781546153951
 30
0.0
  0
POINT
  5
1671D
330
16227
100
AcDbEntity
  8
DEFPOINTS
 62
     0
 48
50.0
100
AcDbPoint
 10
9000.678166143712
 20
2229.781546153951
 30
0.0
  0
POINT
  5
1671E
330
16227
100
AcDbEntity
  8
DEFPOINTS
 62
     0
 48
50.0
100
AcDbPoint
 10
9000.678166143712
 20
1943.734216853574
 30
0.0
  0
ENDBLK
  5
16232
330
16227
100
AcDbEntity
  8
0
 48
50.0
100
AcDbBlockEnd
  0
BLOCK
  5
1623D
330
16233
100
AcDbEntity
  8
0
 48
50.0
100
AcDbBlockBegin
  2
*D24
 70
     1
 10
0.0
 20
0.0
 30
0.0
  3
*D24
  1

  0
LINE
  5
16E17
330
16233
100
AcDbEntity
  8
寸法
 62
     0
 48
50.0
370
    -2
100
AcDbLine
 10
9123.819182295099
 20
9308.092956259502
 30
0.0
 11
9034.532441041422
 21
8974.870301458528
 31
0.0
  0
LINE
  5
16E18
330
16233
100
AcDbEntity
  8
寸法
 62
     0
 48
50.0
370
    -2
100
AcDbLine
 10
9976.819182295109
 20
9308.092956259496
 30
0.0
 11
9887.532441041436
 21
8974.870301458528
 31
0.0
  0
LINE
  5
16E19
330
16233
100
AcDbEntity
  8
寸法
 62
     0
 48
50.0
370
    -2
100
AcDbLine
 10
9050.609392587288
 20
9034.870301458528
 30
0.0
 11
9903.609392587302
 21
9034.870301458528
 31
0.0
  0
INSERT
  5
16E1A
330
16233
100
AcDbEntity
  8
寸法
 62
     0
 48
50.0
370
    -2
100
AcDbBlockReference
  2
_DOTSMALL
 10
9050.609392587288
 20
9034.870301458528
 30
0.0
 41
100.0
 42
100.0
 43
100.0
 50
180.0
  0
INSERT
  5
16E1B
330
16233
100
AcDbEntity
  8
寸法
 62
     0
 48
50.0
370
    -2
100
AcDbBlockReference
  2
_DOTSMALL
 10
9903.609392587302
 20
9034.870301458528
 30
0.0
 41
100.0
 42
100.0
 43
100.0
  0
MTEXT
  5
16E1C
330
16233
100
AcDbEntity
  8
寸法
 62
     7
 48
50.0
100
AcDbMText
 10
9508.525228261987
 20
9134.870301458528
 30
0.0
 40
120.0
 41
0.0
 71
     5
 72
     1
  1
\A1;853
  7
STYLE1
 73
     1
 44
1.0
1001
ACAD
1000
MTEXTBEGIN
1070
    73
1070
     1
1070
    44
1040
1.0
1070
    74
1070
     0
1000
MTEXTEND
  0
POINT
  5
16E1D
330
16233
100
AcDbEntity
  8
DEFPOINTS
 62
     0
 48
50.0
100
AcDbPoint
 10
9129.17816614372
 20
9328.092956259501
 30
0.0
  0
POINT
  5
16E1E
330
16233
100
AcDbEntity
  8
DEFPOINTS
 62
     0
 48
50.0
100
AcDbPoint
 10
9982.178166143732
 20
9328.092956259496
 30
0.0
  0
POINT
  5
16E1F
330
16233
100
AcDbEntity
  8
DEFPOINTS
 62
     0
 48
50.0
100
AcDbPoint
 10
9903.609392587302
 20
9034.870301458528
 30
0.0
  0
ENDBLK
  5
1623E
330
16233
100
AcDbEntity
  8
0
 48
50.0
100
AcDbBlockEnd
  0
BLOCK
  5
16257
330
1624D
100
AcDbEntity
  8
0
 48
50.0
100
AcDbBlockBegin
  2
*D25
 70
     1
 10
0.0
 20
0.0
 30
0.0
  3
*D25
  1

  0
LINE
  5
166F9
330
1624D
100
AcDbEntity
  8
寸法
 62
     0
 48
50.0
370
    -2
100
AcDbLine
 10
10890.67816614371
 20
4924.781546153957
 30
0.0
 11
10890.67816614371
 21
5363.874715493426
 31
0.0
  0
LINE
  5
166FA
330
1624D
100
AcDbEntity
  8
寸法
 62
     0
 48
50.0
370
    -2
100
AcDbLine
 10
9100.678166143714
 20
4924.781546153958
 30
0.0
 11
9100.678166143714
 21
5363.874715493426
 31
0.0
  0
LINE
  5
166FB
330
1624D
100
AcDbEntity
  8
寸法
 62
     0
 48
50.0
370
    -2
100
AcDbLine
 10
10890.67816614371
 20
5303.874715493425
 30
0.0
 11
9100.678166143714
 21
5303.874715493425
 31
0.0
  0
INSERT
  5
166FC
330
1624D
100
AcDbEntity
  8
寸法
 62
     0
 48
50.0
370
    -2
100
AcDbBlockReference
  2
_DOTSMALL
 10
10890.67816614371
 20
5303.874715493425
 30
0.0
 41
100.0
 42
100.0
 43
100.0
  0
INSERT
  5
166FD
330
1624D
100
AcDbEntity
  8
寸法
 62
     0
 48
50.0
370
    -2
100
AcDbBlockReference
  2
_DOTSMALL
 10
9100.678166143714
 20
5303.874715493425
 30
0.0
 41
100.0
 42
100.0
 43
100.0
 50
180.0
  0
MTEXT
  5
166FE
330
1624D
100
AcDbEntity
  8
寸法
 62
     7
 48
50.0
100
AcDbMText
 10
9995.678166143713
 20
5403.874715493426
 30
0.0
 40
120.0
 41
0.0
 71
     5
 72
     1
  1
\A1;柱外寸法1790
  7
STYLE1
 73
     1
 44
1.0
1001
ACAD
1000
MTEXTBEGIN
1070
    73
1070
     1
1070
    44
1040
1.0
1070
    74
1070
     0
1000
MTEXTEND
  0
POINT
  5
166FF
330
1624D
100
AcDbEntity
  8
DEFPOINTS
 62
     0
 48
50.0
100
AcDbPoint
 10
10890.67816614371
 20
4904.781546153958
 30
0.0
  0
POINT
  5
16700
330
1624D
100
AcDbEntity
  8
DEFPOINTS
 62
     0
 48
50.0
100
AcDbPoint
 10
9100.678166143714
 20
4904.781546153959
 30
0.0
  0
POINT
  5
16701
330
1624D
100
AcDbEntity
  8
DEFPOINTS
 62
     0
 48
50.0
100
AcDbPoint
 10
9100.678166143714
 20
5303.874715493425
 30
0.0
  0
ENDBLK
  5
16258
330
1624D
100
AcDbEntity
  8
0
 48
50.0
100
AcDbBlockEnd
  0
BLOCK
  5
16265
330
16259
100
AcDbEntity
  8
0
 48
50.0
100
AcDbBlockBegin
  2
*D26
 70
     1
 10
0.0
 20
0.0
 30
0.0
  3
*D26
  1

  0
LINE
  5
166EE
330
16259
100
AcDbEntity
  8
寸法
 62
     0
 48
50.0
370
    -2
100
AcDbLine
 10
9100.678166143714
 20
4924.781546153958
 30
0.0
 11
9100.678166143714
 21
5363.874715493426
 31
0.0
  0
LINE
  5
166EF
330
16259
100
AcDbEntity
  8
寸法
 62
     0
 48
50.0
370
    -2
100
AcDbLine
 10
9050.678166143713
 20
4924.781546153957
 30
0.0
 11
9050.678166143713
 21
5363.874715493426
 31
0.0
  0
LINE
  5
166F0
330
16259
100
AcDbEntity
  8
寸法
 62
     0
 48
50.0
370
    -2
100
AcDbLine
 10
9100.678166143714
 20
5303.874715493425
 30
0.0
 11
9200.678166143713
 21
5303.874715493425
 31
0.0
  0
LINE
  5
166F1
330
16259
100
AcDbEntity
  8
寸法
 62
     0
 48
50.0
370
    -2
100
AcDbLine
 10
9050.678166143713
 20
5303.874715493425
 30
0.0
 11
8631.145640674978
 21
5303.874715493425
 31
0.0
  0
LINE
  5
166F2
330
16259
100
AcDbEntity
  8
寸法
 62
     0
 48
50.0
370
    -2
100
AcDbLine
 10
9100.678166143714
 20
5303.874715493425
 30
0.0
 11
9050.678166143713
 21
5303.874715493425
 31
0.0
  0
INSERT
  5
166F3
330
16259
100
AcDbEntity
  8
寸法
 62
     0
 48
50.0
370
    -2
100
AcDbBlockReference
  2
_DOTSMALL
 10
9100.678166143714
 20
5303.874715493425
 30
0.0
 41
100.0
 42
100.0
 43
100.0
 50
180.0
  0
INSERT
  5
166F4
330
16259
100
AcDbEntity
  8
寸法
 62
     0
 48
50.0
370
    -2
100
AcDbBlockReference
  2
_DOTSMALL
 10
9050.678166143713
 20
5303.874715493425
 30
0.0
 41
100.0
 42
100.0
 43
100.0
  0
MTEXT
  5
166F5
330
16259
100
AcDbEntity
  8
寸法
 62
     7
 48
50.0
100
AcDbMText
 10
8737.192884769466
 20
5403.874715493426
 30
0.0
 40
120.0
 41
0.0
 71
     5
 72
     1
  1
\A1;50
  7
STYLE1
 73
     1
 44
1.0
1001
ACAD
1000
MTEXTBEGIN
1070
    73
1070
     1
1070
    44
1040
1.0
1070
    74
1070
     0
1000
MTEXTEND
  0
POINT
  5
166F6
330
16259
100
AcDbEntity
  8
DEFPOINTS
 62
     0
 48
50.0
100
AcDbPoint
 10
9100.678166143714
 20
4904.781546153959
 30
0.0
  0
POINT
  5
166F7
330
16259
100
AcDbEntity
  8
DEFPOINTS
 62
     0
 48
50.0
100
AcDbPoint
 10
9050.678166143713
 20
4904.781546153958
 30
0.0
  0
POINT
  5
166F8
330
16259
100
AcDbEntity
  8
DEFPOINTS
 62
     0
 48
50.0
100
AcDbPoint
 10
9050.678166143713
 20
5303.874715493425
 30
0.0
  0
ENDBLK
  5
16266
330
16259
100
AcDbEntity
  8
0
 48
50.0
100
AcDbBlockEnd
  0
BLOCK
  5
16271
330
16267
100
AcDbEntity
  8
0
 48
50.0
100
AcDbBlockBegin
  2
*D27
 70
     1
 10
0.0
 20
0.0
 30
0.0
  3
*D27
  1

  0
LINE
  5
166E5
330
16267
100
AcDbEntity
  8
寸法
 62
     0
 48
50.0
370
    -2
100
AcDbLine
 10
9050.678166143713
 20
4924.781546153957
 30
0.0
 11
9050.678166143713
 21
5580.400815111871
 31
0.0
  0
LINE
  5
166E6
330
16267
100
AcDbEntity
  8
寸法
 62
     0
 48
50.0
370
    -2
100
AcDbLine
 10
10940.67816614371
 20
4924.781546153955
 30
0.0
 11
10940.67816614371
 21
5580.400815111871
 31
0.0
  0
LINE
  5
166E7
330
16267
100
AcDbEntity
  8
寸法
 62
     0
 48
50.0
370
    -2
100
AcDbLine
 10
9050.678166143713
 20
5520.40081511187
 30
0.0
 11
10940.67816614371
 21
5520.40081511187
 31
0.0
  0
INSERT
  5
166E8
330
16267
100
AcDbEntity
  8
寸法
 62
     0
 48
50.0
370
    -2
100
AcDbBlockReference
  2
_DOTSMALL
 10
9050.678166143713
 20
5520.40081511187
 30
0.0
 41
100.0
 42
100.0
 43
100.0
 50
180.0
  0
INSERT
  5
166E9
330
16267
100
AcDbEntity
  8
寸法
 62
     0
 48
50.0
370
    -2
100
AcDbBlockReference
  2
_DOTSMALL
 10
10940.67816614371
 20
5520.40081511187
 30
0.0
 41
100.0
 42
100.0
 43
100.0
  0
MTEXT
  5
166EA
330
16267
100
AcDbEntity
  8
寸法
 62
     7
 48
50.0
100
AcDbMText
 10
9995.678166143713
 20
5620.400815111871
 30
0.0
 40
120.0
 41
0.0
 71
     5
 72
     1
  1
\A1;1890
  7
STYLE1
 73
     1
 44
1.0
1001
ACAD
1000
MTEXTBEGIN
1070
    73
1070
     1
1070
    44
1040
1.0
1070
    74
1070
     0
1000
MTEXTEND
  0
POINT
  5
166EB
330
16267
100
AcDbEntity
  8
DEFPOINTS
 62
     0
 48
50.0
100
AcDbPoint
 10
9050.678166143713
 20
4904.781546153958
 30
0.0
  0
POINT
  5
166EC
330
16267
100
AcDbEntity
  8
DEFPOINTS
 62
     0
 48
50.0
100
AcDbPoint
 10
10940.67816614371
 20
4904.781546153955
 30
0.0
  0
POINT
  5
166ED
330
16267
100
AcDbEntity
  8
DEFPOINTS
 62
     0
 48
50.0
100
AcDbPoint
 10
10940.67816614371
 20
5520.40081511187
 30
0.0
  0
ENDBLK
  5
16272
330
16267
100
AcDbEntity
  8
0
 48
50.0
100
AcDbBlockEnd
  0
BLOCK
  5
1627D
330
16273
100
AcDbEntity
  8
0
 48
50.0
100
AcDbBlockBegin
  2
*D28
 70
     1
 10
0.0
 20
0.0
 30
0.0
  3
*D28
  1

  0
LINE
  5
16826
330
16273
100
AcDbEntity
  8
寸法
 62
     0
 48
50.0
370
    -2
100
AcDbLine
 10
9108.678166143729
 20
4612.781546153952
 30
0.0
 11
8753.758722332817
 21
4612.781546153952
 31
0.0
  0
LINE
  5
16827
330
16273
100
AcDbEntity
  8
寸法
 62
     0
 48
50.0
370
    -2
100
AcDbLine
 10
9108.678166143729
 20
2587.781546153952
 30
0.0
 11
8753.758722332817
 21
2587.781546153952
 31
0.0
  0
LINE
  5
16828
330
16273
100
AcDbEntity
  8
寸法
 62
     0
 48
50.0
370
    -2
100
AcDbLine
 10
8813.758722332817
 20
4612.781546153952
 30
0.0
 11
8813.758722332815
 21
2587.781546153952
 31
0.0
  0
INSERT
  5
16829
330
16273
100
AcDbEntity
  8
寸法
 62
     0
 48
50.0
370
    -2
100
AcDbBlockReference
  2
_DOTSMALL
 10
8813.758722332817
 20
4612.781546153952
 30
0.0
 41
100.0
 42
100.0
 43
100.0
 50
90.0
  0
INSERT
  5
1682A
330
16273
100
AcDbEntity
  8
寸法
 62
     0
 48
50.0
370
    -2
100
AcDbBlockReference
  2
_DOTSMALL
 10
8813.758722332815
 20
2587.781546153952
 30
0.0
 41
100.0
 42
100.0
 43
100.0
 50
270.0
  0
MTEXT
  5
1682B
330
16273
100
AcDbEntity
  8
寸法
 62
     7
 48
50.0
100
AcDbMText
 10
8713.746911309193
 20
3581.314970085732
 30
0.0
 40
120.0
 41
0.0
 71
     5
 72
     1
  1
\A1;有効開口部高サ2025
  7
STYLE1
 11
0.0000000000000001
 21
1.0
 31
0.0
 73
     1
 44
1.0
1001
ACAD
1000
MTEXTBEGIN
1070
    73
1070
     1
1070
    44
1040
1.0
1070
    74
1070
     0
1000
MTEXTEND
  0
POINT
  5
1682C
330
16273
100
AcDbEntity
  8
DEFPOINTS
 62
     0
 48
50.0
100
AcDbPoint
 10
9128.678166143728
 20
4612.781546153952
 30
0.0
  0
POINT
  5
1682D
330
16273
100
AcDbEntity
  8
DEFPOINTS
 62
     0
 48
50.0
100
AcDbPoint
 10
9128.678166143728
 20
2587.781546153952
 30
0.0
  0
POINT
  5
1682E
330
16273
100
AcDbEntity
  8
DEFPOINTS
 62
     0
 48
50.0
100
AcDbPoint
 10
8813.758722332815
 20
2587.781546153952
 30
0.0
  0
ENDBLK
  5
1627E
330
16273
100
AcDbEntity
  8
0
 48
50.0
100
AcDbBlockEnd
  0
BLOCK
  5
1628B
330
1627F
100
AcDbEntity
  8
0
 48
50.0
100
AcDbBlockBegin
  2
*D29
 70
     1
 10
0.0
 20
0.0
 30
0.0
  3
*D29
  1

  0
LINE
  5
166D1
330
1627F
100
AcDbEntity
  8
寸法
 62
     0
 48
50.0
370
    -2
100
AcDbLine
 10
10940.67816614371
 20
4924.781546153955
 30
0.0
 11
10940.67816614371
 21
5363.874715493426
 31
0.0
  0
LINE
  5
166D2
330
1627F
100
AcDbEntity
  8
寸法
 62
     0
 48
50.0
370
    -2
100
AcDbLine
 10
10890.67816614371
 20
4924.781546153957
 30
0.0
 11
10890.67816614371
 21
5363.874715493426
 31
0.0
  0
LINE
  5
166D3
330
1627F
100
AcDbEntity
  8
寸法
 62
     0
 48
50.0
370
    -2
100
AcDbLine
 10
10890.67816614371
 20
5303.874715493425
 30
0.0
 11
10790.67816614371
 21
5303.874715493425
 31
0.0
  0
LINE
  5
166D4
330
1627F
100
AcDbEntity
  8
寸法
 62
     0
 48
50.0
370
    -2
100
AcDbLine
 10
10940.67816614371
 20
5303.874715493425
 30
0.0
 11
11360.21069161243
 21
5303.874715493425
 31
0.0
  0
LINE
  5
166D5
330
1627F
100
AcDbEntity
  8
寸法
 62
     0
 48
50.0
370
    -2
100
AcDbLine
 10
10890.67816614371
 20
5303.874715493425
 30
0.0
 11
10940.67816614371
 21
5303.874715493425
 31
0.0
  0
INSERT
  5
166D6
330
1627F
100
AcDbEntity
  8
寸法
 62
     0
 48
50.0
370
    -2
100
AcDbBlockReference
  2
_DOTSMALL
 10
10890.67816614371
 20
5303.874715493425
 30
0.0
 41
100.0
 42
100.0
 43
100.0
  0
INSERT
  5
166D7
330
1627F
100
AcDbEntity
  8
寸法
 62
     0
 48
50.0
370
    -2
100
AcDbBlockReference
  2
_DOTSMALL
 10
10940.67816614371
 20
5303.874715493425
 30
0.0
 41
100.0
 42
100.0
 43
100.0
 50
180.0
  0
MTEXT
  5
166D8
330
1627F
100
AcDbEntity
  8
寸法
 62
     7
 48
50.0
100
AcDbMText
 10
11254.16344751795
 20
5403.874715493426
 30
0.0
 40
120.0
 41
0.0
 71
     5
 72
     1
  1
\A1;50
  7
STYLE1
 73
     1
 44
1.0
1001
ACAD
1000
MTEXTBEGIN
1070
    73
1070
     1
1070
    44
1040
1.0
1070
    74
1070
     0
1000
MTEXTEND
  0
POINT
  5
166D9
330
1627F
100
AcDbEntity
  8
DEFPOINTS
 62
     0
 48
50.0
100
AcDbPoint
 10
10940.67816614371
 20
4904.781546153955
 30
0.0
  0
POINT
  5
166DA
330
1627F
100
AcDbEntity
  8
DEFPOINTS
 62
     0
 48
50.0
100
AcDbPoint
 10
10890.67816614371
 20
4904.781546153958
 30
0.0
  0
POINT
  5
166DB
330
1627F
100
AcDbEntity
  8
DEFPOINTS
 62
     0
 48
50.0
100
AcDbPoint
 10
10890.67816614371
 20
5303.874715493425
 30
0.0
  0
ENDBLK
  5
1628C
330
1627F
100
AcDbEntity
  8
0
 48
50.0
100
AcDbBlockEnd
  0
BLOCK
  5
169F2
330
169E8
100
AcDbEntity
  8
0
 48
50.0
100
AcDbBlockBegin
  2
*D30
 70
     1
 10
0.0
 20
0.0
 30
0.0
  3
*D30
  1

  0
LINE
  5
16E03
330
169E8
100
AcDbEntity
  8
寸法
 62
     0
 48
50.0
370
    -2
100
AcDbLine
 10
9167.678166143684
 20
7921.09295625943
 30
0.0
 11
9167.678166143684
 21
7276.017938211206
 31
0.0
  0
LINE
  5
16E04
330
169E8
100
AcDbEntity
  8
寸法
 62
     0
 48
50.0
370
    -2
100
AcDbLine
 10
10117.67816614368
 20
7921.09295625943
 30
0.0
 11
10117.67816614368
 21
7276.017938211206
 31
0.0
  0
LINE
  5
16E05
330
169E8
100
AcDbEntity
  8
寸法
 62
     0
 48
50.0
370
    -2
100
AcDbLine
 10
9187.678166143683
 20
7316.017938211206
 30
0.0
 11
10097.67816614368
 21
7316.017938211206
 31
0.0
  0
INSERT
  5
16E06
330
169E8
100
AcDbEntity
  8
寸法
 62
     0
 48
50.0
370
    -2
100
AcDbBlockReference
  2
_DOT
 10
9167.678166143684
 20
7316.017938211206
 30
0.0
 41
20.0
 42
20.0
 43
20.0
 50
180.0
  0
INSERT
  5
16E07
330
169E8
100
AcDbEntity
  8
寸法
 62
     0
 48
50.0
370
    -2
100
AcDbBlockReference
  2
_DOT
 10
10117.67816614368
 20
7316.017938211206
 30
0.0
 41
20.0
 42
20.0
 43
20.0
  0
MTEXT
  5
16E08
330
169E8
100
AcDbEntity
  8
寸法
 62
     7
 48
50.0
100
AcDbMText
 10
9642.678166143683
 20
7508.017938211207
 30
0.0
 40
120.0
 41
0.0
 71
     5
 72
     1
  1
\A1;有効開口部間口\P950
  7
STYLE1
 73
     1
 44
1.0
1001
ACAD
1000
MTEXTBEGIN
1070
    73
1070
     1
1070
    44
1040
1.0
1070
    74
1070
     0
1000
MTEXTEND
  0
POINT
  5
16E09
330
169E8
100
AcDbEntity
  8
DEFPOINTS
 62
     0
 48
50.0
100
AcDbPoint
 10
9167.678166143684
 20
7941.092956259431
 30
0.0
  0
POINT
  5
16E0A
330
169E8
100
AcDbEntity
  8
DEFPOINTS
 62
     0
 48
50.0
100
AcDbPoint
 10
10117.67816614368
 20
7941.092956259431
 30
0.0
  0
POINT
  5
16E0B
330
169E8
100
AcDbEntity
  8
DEFPOINTS
 62
     0
 48
50.0
100
AcDbPoint
 10
10117.67816614368
 20
7316.017938211206
 30
0.0
  0
ENDBLK
  5
169F3
330
169E8
100
AcDbEntity
  8
0
 48
50.0
100
AcDbBlockEnd
  0
BLOCK
  5
16CD3
330
16CC9
100
AcDbEntity
  8
0
 48
50.0
100
AcDbBlockBegin
  2
*D31
 70
     1
 10
0.0
 20
0.0
 30
0.0
  3
*D31
  1

  0
LINE
  5
16E8B
330
16CC9
100
AcDbEntity
  8
寸法
 62
     0
 48
50.0
370
    -2
100
AcDbLine
 10
9128.678166143684
 20
7921.092956259464
 30
0.0
 11
9128.678166143684
 21
7006.022686408684
 31
0.0
  0
LINE
  5
16E8C
330
16CC9
100
AcDbEntity
  8
寸法
 62
     0
 48
50.0
370
    -2
100
AcDbLine
 10
10862.67816614368
 20
7921.092956259463
 30
0.0
 11
10862.67816614368
 21
7006.022686408684
 31
0.0
  0
LINE
  5
16E8D
330
16CC9
100
AcDbEntity
  8
寸法
 62
     0
 48
50.0
370
    -2
100
AcDbLine
 10
9128.678166143684
 20
7066.022686408683
 30
0.0
 11
10862.67816614368
 21
7066.022686408683
 31
0.0
  0
INSERT
  5
16E8E
330
16CC9
100
AcDbEntity
  8
寸法
 62
     0
 48
50.0
370
    -2
100
AcDbBlockReference
  2
_DOTSMALL
 10
9128.678166143684
 20
7066.022686408683
 30
0.0
 41
100.0
 42
100.0
 43
100.0
 50
180.0
  0
INSERT
  5
16E8F
330
16CC9
100
AcDbEntity
  8
寸法
 62
     0
 48
50.0
370
    -2
100
AcDbBlockReference
  2
_DOTSMALL
 10
10862.67816614368
 20
7066.022686408683
 30
0.0
 41
100.0
 42
100.0
 43
100.0
  0
MTEXT
  5
16E90
330
16CC9
100
AcDbEntity
  8
寸法
 62
     7
 48
50.0
100
AcDbMText
 10
9986.259910095505
 20
7166.022686408684
 30
0.0
 40
120.0
 41
0.0
 71
     5
 72
     1
  1
\A1;1734
  7
STYLE1
 73
     1
 44
1.0
1001
ACAD
1000
MTEXTBEGIN
1070
    73
1070
     1
1070
    44
1040
1.0
1070
    74
1070
     0
1000
MTEXTEND
  0
POINT
  5
16E91
330
16CC9
100
AcDbEntity
  8
DEFPOINTS
 62
     0
 48
50.0
100
AcDbPoint
 10
9128.678166143684
 20
7941.092956259464
 30
0.0
  0
POINT
  5
16E92
330
16CC9
100
AcDbEntity
  8
DEFPOINTS
 62
     0
 48
50.0
100
AcDbPoint
 10
10862.67816614368
 20
7941.092956259463
 30
0.0
  0
POINT
  5
16E93
330
16CC9
100
AcDbEntity
  8
DEFPOINTS
 62
     0
 48
50.0
100
AcDbPoint
 10
10862.67816614368
 20
7066.022686408683
 30
0.0
  0
ENDBLK
  5
16CD4
330
16CC9
100
AcDbEntity
  8
0
 48
50.0
100
AcDbBlockEnd
  0
BLOCK
  5
16CE1
330
16CD5
100
AcDbEntity
  8
0
 48
50.0
100
AcDbBlockBegin
  2
*D32
 70
     1
 10
0.0
 20
0.0
 30
0.0
  3
*D32
  1

  0
LINE
  5
16E94
330
16CD5
100
AcDbEntity
  8
寸法
 62
     0
 48
50.0
370
    -2
100
AcDbLine
 10
9080.678166143712
 20
8018.09295625946
 30
0.0
 11
8766.066920516996
 21
8018.09295625946
 31
0.0
  0
LINE
  5
16E95
330
16CD5
100
AcDbEntity
  8
寸法
 62
     0
 48
50.0
370
    -2
100
AcDbLine
 10
9108.678166143691
 20
7943.09295625946
 30
0.0
 11
8766.066920516996
 21
7943.09295625946
 31
0.0
  0
LINE
  5
16E96
330
16CD5
100
AcDbEntity
  8
寸法
 62
     0
 48
50.0
370
    -2
100
AcDbLine
 10
8806.066920516995
 20
8038.092956259459
 30
0.0
 11
8806.066920516995
 21
8058.092956259459
 31
0.0
  0
LINE
  5
16E97
330
16CD5
100
AcDbEntity
  8
寸法
 62
     0
 48
50.0
370
    -2
100
AcDbLine
 10
8806.066920516995
 20
7923.092956259459
 30
0.0
 11
8806.066920516995
 21
7702.122393510982
 31
0.0
  0
LINE
  5
16E98
330
16CD5
100
AcDbEntity
  8
寸法
 62
     0
 48
50.0
370
    -2
100
AcDbLine
 10
8806.066920516995
 20
8018.09295625946
 30
0.0
 11
8806.066920516995
 21
7943.09295625946
 31
0.0
  0
INSERT
  5
16E99
330
16CD5
100
AcDbEntity
  8
寸法
 62
     0
 48
50.0
370
    -2
100
AcDbBlockReference
  2
_DOT
 10
8806.066920516995
 20
8018.09295625946
 30
0.0
 41
20.0
 42
20.0
 43
20.0
 50
270.0
  0
INSERT
  5
16E9A
330
16CD5
100
AcDbEntity
  8
寸法
 62
     0
 48
50.0
370
    -2
100
AcDbBlockReference
  2
_DOT
 10
8806.066920516995
 20
7943.09295625946
 30
0.0
 41
20.0
 42
20.0
 43
20.0
 50
90.0
  0
MTEXT
  5
16E9B
330
16CD5
100
AcDbEntity
  8
寸法
 62
     7
 48
50.0
100
AcDbMText
 10
8714.066920516994
 20
7802.607674885222
 30
0.0
 40
120.0
 41
0.0
 71
     5
 72
     1
  1
\A1;75
  7
STYLE1
 11
0.0000000000000001
 21
1.0
 31
0.0
 73
     1
 44
1.0
1001
ACAD
1000
MTEXTBEGIN
1070
    73
1070
     1
1070
    44
1040
1.0
1070
    74
1070
     0
1000
MTEXTEND
  0
POINT
  5
16E9C
330
16CD5
100
AcDbEntity
  8
DEFPOINTS
 62
     0
 48
50.0
100
AcDbPoint
 10
9100.678166143714
 20
8018.09295625946
 30
0.0
  0
POINT
  5
16E9D
330
16CD5
100
AcDbEntity
  8
DEFPOINTS
 62
     0
 48
50.0
100
AcDbPoint
 10
9128.678166143691
 20
7943.09295625946
 30
0.0
  0
POINT
  5
16E9E
330
16CD5
100
AcDbEntity
  8
DEFPOINTS
 62
     0
 48
50.0
100
AcDbPoint
 10
8806.066920516995
 20
7943.09295625946
 30
0.0
  0
ENDBLK
  5
16CE2
330
16CD5
100
AcDbEntity
  8
0
 48
50.0
100
AcDbBlockEnd
  0
BLOCK
  5
16D2B
330
16D21
100
AcDbEntity
  8
0
 48
50.0
100
AcDbBlockBegin
  2
*D33
 70
     1
 10
0.0
 20
0.0
 30
0.0
  3
*D33
  1

  0
LINE
  5
16E82
330
16D21
100
AcDbEntity
  8
寸法
 62
     0
 48
50.0
370
    -2
100
AcDbLine
 10
9100.678166143714
 20
7998.092956259459
 30
0.0
 11
9100.678166143714
 21
6766.265165514557
 31
0.0
  0
LINE
  5
16E83
330
16D21
100
AcDbEntity
  8
寸法
 62
     0
 48
50.0
370
    -2
100
AcDbLine
 10
10890.67816614369
 20
7998.092956259589
 30
0.0
 11
10890.67816614369
 21
6766.265165514557
 31
0.0
  0
LINE
  5
16E84
330
16D21
100
AcDbEntity
  8
寸法
 62
     0
 48
50.0
370
    -2
100
AcDbLine
 10
9100.678166143714
 20
6826.265165514556
 30
0.0
 11
10890.67816614369
 21
6826.265165514556
 31
0.0
  0
INSERT
  5
16E85
330
16D21
100
AcDbEntity
  8
寸法
 62
     0
 48
50.0
370
    -2
100
AcDbBlockReference
  2
_DOTSMALL
 10
9100.678166143714
 20
6826.265165514556
 30
0.0
 41
100.0
 42
100.0
 43
100.0
 50
180.0
  0
INSERT
  5
16E86
330
16D21
100
AcDbEntity
  8
寸法
 62
     0
 48
50.0
370
    -2
100
AcDbBlockReference
  2
_DOTSMALL
 10
10890.67816614369
 20
6826.265165514556
 30
0.0
 41
100.0
 42
100.0
 43
100.0
  0
MTEXT
  5
16E87
330
16D21
100
AcDbEntity
  8
寸法
 62
     7
 48
50.0
100
AcDbMText
 10
9983.824916475066
 20
6926.265165514556
 30
0.0
 40
120.0
 41
0.0
 71
     5
 72
     1
  1
\A1;1790
  7
STYLE1
 73
     1
 44
1.0
1001
ACAD
1000
MTEXTBEGIN
1070
    73
1070
     1
1070
    44
1040
1.0
1070
    74
1070
     0
1000
MTEXTEND
  0
POINT
  5
16E88
330
16D21
100
AcDbEntity
  8
DEFPOINTS
 62
     0
 48
50.0
100
AcDbPoint
 10
9100.678166143714
 20
8018.09295625946
 30
0.0
  0
POINT
  5
16E89
330
16D21
100
AcDbEntity
  8
DEFPOINTS
 62
     0
 48
50.0
100
AcDbPoint
 10
10890.67816614369
 20
8018.092956259589
 30
0.0
  0
POINT
  5
16E8A
330
16D21
100
AcDbEntity
  8
DEFPOINTS
 62
     0
 48
50.0
100
AcDbPoint
 10
10890.67816614369
 20
6826.265165514556
 30
0.0
  0
ENDBLK
  5
16D2C
330
16D21
100
AcDbEntity
  8
0
 48
50.0
100
AcDbBlockEnd
  0
ENDSEC
  0
SECTION
  2
ENTITIES
  0
LINE
  5
10B57
330
747D
100
AcDbEntity
  8
補助
  6
PHANTOM
 62
   230
 48
50.0
100
AcDbLine
 10
139.9999999999995
 20
11409.6
 30
0.0
 11
16307.2
 21
11409.6
 31
0.0
  0
LINE
  5
10B59
330
747D
100
AcDbEntity
  8
仕様書枠
  6
Continuous
 48
50.0
100
AcDbLine
 10
13107.2
 20
1200.0
 30
0.0
 11
13107.2
 21
-0.0000000000000729
 31
0.0
  0
LINE
  5
10B5C
330
747D
100
AcDbEntity
  8
仕様書枠
 48
50.0
100
AcDbLine
 10
16307.2
 20
1200.0
 30
0.0
 11
16307.2
 21
-0.0000000000000909
 31
0.0
  0
LINE
  5
10B5D
330
747D
100
AcDbEntity
  8
仕様書枠
 48
50.0
100
AcDbLine
 10
140.0
 20
0.0
 30
0.0
 11
16307.2
 21
-0.0000000000000909
 31
0.0
  0
LINE
  5
10B5E
330
747D
100
AcDbEntity
  8
補助
  6
PHANTOM
 62
   230
 48
50.0
100
AcDbLine
 10
16307.2
 20
11409.6
 30
0.0
 11
16307.2
 21
1200.0
 31
0.0
  0
LINE
  5
10B6C
330
747D
100
AcDbEntity
  8
仕様書枠
 48
50.0
100
AcDbLine
 10
13107.2
 20
1200.0
 30
0.0
 11
16307.2
 21
1200.0
 31
0.0
  0
LINE
  5
10B6D
330
747D
100
AcDbEntity
  8
補助
  6
PHANTOM
 62
   230
 48
50.0
100
AcDbLine
 10
13107.2
 20
11409.6
 30
0.0
 11
13107.2
 21
4800.0
 31
0.0
  0
LINE
  5
10B6F
330
747D
100
AcDbEntity
  8
補助
  6
PHANTOM
 62
   230
 48
50.0
100
AcDbLine
 10
13107.2
 20
4800.0
 30
0.0
 11
16307.2
 21
4800.0
 31
0.0
  0
LINE
  5
10B72
330
747D
100
AcDbEntity
  8
文字
 62
     7
 48
50.0
100
AcDbLine
 10
13187.2
 20
400.0
 30
0.0
 11
16227.2
 21
400.0
 31
0.0
  0
TEXT
  5
10B73
330
747D
100
AcDbEntity
  8
文字
 62
     7
 48
50.0
100
AcDbText
 10
13162.9790565769
 20
895.0906074299405
 30
0.0
 40
200.0
  1
外 形 図
  7
STYLE2
100
AcDbText
  0
TEXT
  5
10B74
330
747D
100
AcDbEntity
  8
文字
 62
     7
 48
50.0
100
AcDbText
 10
13201.43669998441
 20
477.2740661031255
 30
0.0
 40
160.0
  1
機種名
  7
STYLE2
100
AcDbText
  0
TEXT
  5
10B76
330
747D
100
AcDbEntity
  8
文字
 62
     7
 48
50.0
100
AcDbText
 10
13209.4053442172
 20
76.09434707649343
 30
0.0
 40
100.0
  1
○床面積 ： 3.33㎡(1.00坪) 　
  7
STYLE2
100
AcDbText
  0
TEXT
  5
10B79
330
747D
100
AcDbEntity
  8
文字
 62
     7
 48
50.0
100
AcDbText
 10
14524.131837222
 20
1031.557706291228
 30
0.0
 40
100.0
  1
NO.07      <縮尺> S=1/40
  7
STYLE2
100
AcDbText
  0
LINE
  5
10B7B
330
747D
100
AcDbEntity
  8
仕様書枠
 48
50.0
100
AcDbLine
 10
13107.2
 20
800.0
 30
0.0
 11
14251.2
 21
800.0
 31
0.0
  0
LINE
  5
10B88
330
747D
100
AcDbEntity
  8
仕様書枠
  6
Continuous
 48
50.0
100
AcDbLine
 10
14251.2
 20
1200.0
 30
0.0
 11
14251.2
 21
800.0
 31
0.0
  0
TEXT
  5
14D2F
330
747D
100
AcDbEntity
  8
文字
 62
     7
 48
50.0
100
AcDbText
 10
14644.07818602837
 20
876.4448062548634
 30
0.0
 40
100.0
  1
～一般型・多雪地型～
  7
STYLE2
100
AcDbText
  0
TEXT
  5
15E57
330
747D
100
AcDbEntity
  8
部品1
100
AcDbText
 10
3303.649778475003
 20
2465.888449759854
 30
0.0
 40
125.0
  1
▽G.L
  7
STYLE2
100
AcDbText
  0
TEXT
  5
15E58
330
747D
100
AcDbEntity
  8
部品1
100
AcDbText
 10
5786.928588355562
 20
1547.849753958018
 30
0.0
 40
135.0
  1
側面図
  7
STYLE2
100
AcDbText
  0
LINE
  5
15E59
330
747D
100
AcDbEntity
  8
部品1
100
AcDbLine
 10
5697.482486931955
 20
1740.743283176542
 30
0.0
 11
5697.482486931955
 21
1500.85096163101
 31
0.0
  0
LINE
  5
15E5A
330
747D
100
AcDbEntity
  8
部品1
100
AcDbLine
 10
5697.482486931955
 20
1500.85096163101
 30
0.0
 11
6460.953153160393
 21
1500.85096163101
 31
0.0
  0
LINE
  5
15E5B
330
747D
100
AcDbEntity
  8
部品1
100
AcDbLine
 10
6460.953153160393
 20
1500.85096163101
 30
0.0
 11
6460.953153160393
 21
1740.743283176542
 31
0.0
  0
LINE
  5
15E5C
330
747D
100
AcDbEntity
  8
部品1
100
AcDbLine
 10
6460.953153160393
 20
1740.743283176542
 30
0.0
 11
5697.482486931955
 21
1740.743283176542
 31
0.0
  0
LINE
  5
15E5D
330
747D
100
AcDbEntity
  8
部品1
100
AcDbLine
 10
5184.217820046175
 20
4669.781546153951
 30
0.0
 11
6974.217820046175
 21
4669.781546153951
 31
0.0
  0
LINE
  5
15E5E
330
747D
100
AcDbEntity
  8
部品1
100
AcDbLine
 10
5184.217820046175
 20
2579.781546153952
 30
0.0
 11
6974.217820046179
 21
2579.781546153952
 31
0.0
  0
LINE
  5
15E5F
330
747D
100
AcDbEntity
  8
部品1
100
AcDbLine
 10
5184.217820046175
 20
2529.781546153952
 30
0.0
 11
5191.717820046175
 21
2529.781546153952
 31
0.0
  0
LINE
  5
15E60
330
747D
100
AcDbEntity
  8
部品1
100
AcDbLine
 10
5239.217820046174
 20
4669.781546153951
 30
0.0
 11
5239.217820046174
 21
2579.781546153952
 31
0.0
  0
LINE
  5
15E61
330
747D
100
AcDbEntity
  8
部品1
100
AcDbLine
 10
5184.217820046175
 20
4761.640065596201
 30
0.0
 11
5184.217820046175
 21
2429.781546153952
 31
0.0
  0
DIMENSION
  5
15E62
330
747D
100
AcDbEntity
  8
寸法
100
AcDbDimension
  2
*D2
 10
4560.565110887879
 20
2579.781546153953
 30
0.0
 11
4560.565110887877
 21
3624.781546153953
 31
0.0
 70
   160
 71
     5
 42
2089.999999999999
  3
INABA_S40G
100
AcDbAlignedDimension
 13
5184.217820046175
 23
4669.781546153951
 33
0.0
 14
5184.217820046175
 24
2579.781546153952
 34
0.0
 50
90.0
100
AcDbRotatedDimension
1001
ACAD
1000
DSTYLE
1002
{
1070
   174
1070
     0
1070
   272
1070
     1
1070
   288
1070
     0
1070
   341
1005
0
1002
}
  0
DIMENSION
  5
15E63
330
747D
100
AcDbEntity
  8
寸法
100
AcDbDimension
  2
*D3
 10
4275.578438116816
 20
4904.781546153957
 30
0.0
 11
4275.578438116816
 21
3624.781546153953
 31
0.0
 70
   160
 71
     5
 42
2375.000000000004
  3
INABA_S40G
100
AcDbAlignedDimension
 13
5184.217820046175
 23
2529.781546153952
 33
0.0
 14
5124.217820046175
 24
4904.781546153957
 34
0.0
 50
90.0
100
AcDbRotatedDimension
1001
ACAD
1000
DSTYLE
1002
{
1070
   174
1070
     0
1070
   272
1070
     1
1070
   288
1070
     0
1070
   341
1005
0
1002
}
  0
DIMENSION
  5
15E64
330
747D
100
AcDbEntity
  8
寸法
100
AcDbDimension
  2
*D4
 10
4275.578438116816
 20
2429.781546153952
 30
0.0
 11
4275.578438116816
 21
2193.734302059462
 31
0.0
 70
   160
 71
     5
 42
100.0000000000004
  3
INABA_S40G
100
AcDbAlignedDimension
 13
5129.217820046175
 23
2529.781546153952
 33
0.0
 14
4560.565110887877
 24
2429.781546153952
 34
0.0
 50
90.0
100
AcDbRotatedDimension
1001
ACAD
1000
DSTYLE
1002
{
1070
   174
1070
     0
1070
   272
1070
     1
1070
   288
1070
     0
1070
   341
1005
0
1002
}
  0
DIMENSION
  5
15E65
330
747D
100
AcDbEntity
  8
寸法
100
AcDbDimension
  2
*D5
 10
4560.565110887877
 20
2529.781546153953
 30
0.0
 11
4560.565110887877
 21
2223.734302059462
 31
0.0
 70
   160
 71
     5
 42
50.0
  3
INABA_S40G
100
AcDbAlignedDimension
 13
5184.217820046175
 23
2579.781546153952
 33
0.0
 14
5129.217820046175
 24
2529.781546153952
 34
0.0
 50
90.0
100
AcDbRotatedDimension
1001
ACAD
1000
DSTYLE
1002
{
1070
   174
1070
     0
1070
   272
1070
     1
1070
   288
1070
     0
1070
   341
1005
0
1002
}
  0
LINE
  5
15E66
330
747D
100
AcDbEntity
  8
部品1
100
AcDbLine
 10
5659.217820046175
 20
4669.781546153951
 30
0.0
 11
5659.217820046175
 21
2579.781546153952
 31
0.0
  0
LINE
  5
15E67
330
747D
100
AcDbEntity
  8
部品1
100
AcDbLine
 10
6974.217820046175
 20
4724.663354839958
 30
0.0
 11
6974.217820046179
 21
2429.781546153952
 31
0.0
  0
LINE
  5
15E68
330
747D
100
AcDbEntity
  8
部品1
100
AcDbLine
 10
6919.217820046178
 20
4669.781546153951
 30
0.0
 11
6919.217820046178
 21
2579.781546153952
 31
0.0
  0
DIMENSION
  5
15E69
330
747D
100
AcDbEntity
  8
寸法
100
AcDbDimension
  2
*D6
 10
7585.753633536995
 20
4849.781546153953
 30
0.0
 11
7585.753633536995
 21
3688.15714265981
 31
0.0
 70
   160
 71
     5
 42
2320.000000000002
  3
INABA_S40G
100
AcDbAlignedDimension
 13
7051.217820046179
 23
2529.781546153952
 33
0.0
 14
7054.217820046175
 24
4849.781546153953
 34
0.0
 50
90.0
100
AcDbRotatedDimension
1001
ACAD
1000
DSTYLE
1002
{
1070
   174
1070
     0
1070
   272
1070
     1
1070
   288
1070
     0
1070
   341
1005
0
1002
}
  0
DIMENSION
  5
15E6A
330
747D
100
AcDbEntity
  8
寸法
 48
50.0
100
AcDbDimension
  2
*D7
 10
5184.217820046175
 20
5303.874715493425
 30
0.0
 11
6093.813468722656
 21
5303.874715493425
 31
0.0
 70
   160
  1
柱外寸法<>
 71
     5
 42
1790.0
  3
INABA_S40G
100
AcDbAlignedDimension
 13
6974.217820046175
 23
4851.592225765606
 33
0.0
 14
5184.217820046175
 24
4900.783164276929
 34
0.0
100
AcDbRotatedDimension
1001
ACAD
1000
DSTYLE
1002
{
1070
   174
1070
     0
1070
   272
1070
     1
1070
   288
1070
     0
1070
   341
1005
0
1002
}
  0
DIMENSION
  5
15E6B
330
747D
100
AcDbEntity
  8
寸法
 48
50.0
100
AcDbDimension
  2
*D8
 10
5124.217820046175
 20
5303.438999733256
 30
0.0
 11
4814.580024770584
 21
5303.438999733256
 31
0.0
 70
   160
 71
     5
 42
60.0
  3
INABA_S40G
100
AcDbAlignedDimension
 13
5184.217820046175
 23
4900.783164276929
 33
0.0
 14
5124.217820046175
 24
4904.781546153957
 34
0.0
100
AcDbRotatedDimension
1001
ACAD
1000
DSTYLE
1002
{
1070
   174
1070
     0
1070
   272
1070
     1
1070
   288
1070
     0
1070
   341
1005
0
1002
}
  0
DIMENSION
  5
15E6C
330
747D
100
AcDbEntity
  8
寸法
 48
50.0
100
AcDbDimension
  2
*D9
 10
5124.217820046175
 20
5520.40081511187
 30
0.0
 11
6030.023571297144
 21
5520.40081511187
 31
0.0
 70
   160
 71
     5
 42
1930.0
  3
INABA_S40G
100
AcDbAlignedDimension
 13
7054.217820046175
 23
4849.781546153953
 33
0.0
 14
5124.217820046175
 24
4904.781546153957
 34
0.0
100
AcDbRotatedDimension
1001
ACAD
1000
DSTYLE
1002
{
1070
   174
1070
     0
1070
   272
1070
     1
1070
   288
1070
     0
1070
   341
1005
0
1002
}
  0
LINE
  5
15E6D
330
747D
100
AcDbEntity
  8
破線
  6
HIDDEN
 48
5.0
100
AcDbLine
 10
6981.717820046175
 20
2274.781546153952
 30
0.0
 11
6911.717820046175
 21
2274.781546153952
 31
0.0
  0
LINE
  5
15E6E
330
747D
100
AcDbEntity
  8
破線
  6
HIDDEN
 48
5.0
100
AcDbLine
 10
6926.717820046175
 20
2424.781546153952
 30
0.0
 11
6911.717820046175
 21
2277.081546153951
 31
0.0
  0
LINE
  5
15E6F
330
747D
100
AcDbEntity
  8
破線
  6
HIDDEN
 48
5.0
100
AcDbLine
 10
6911.717820046175
 20
2277.081546153951
 30
0.0
 11
6911.717820046175
 21
2274.781546153952
 31
0.0
  0
LINE
  5
15E70
330
747D
100
AcDbEntity
  8
破線
  6
HIDDEN
 48
5.0
100
AcDbLine
 10
6966.717820046175
 20
2424.781546153952
 30
0.0
 11
6981.717820046175
 21
2277.081546153951
 31
0.0
  0
LINE
  5
15E71
330
747D
100
AcDbEntity
  8
破線
  6
HIDDEN
 48
5.0
100
AcDbLine
 10
6981.717820046175
 20
2277.081546153951
 30
0.0
 11
6981.717820046175
 21
2274.781546153952
 31
0.0
  0
LINE
  5
15E72
330
747D
100
AcDbEntity
  8
破線
  6
HIDDEN
 48
5.0
100
AcDbLine
 10
5176.717820046174
 20
2274.781546153952
 30
0.0
 11
5246.717820046175
 21
2274.781546153952
 31
0.0
  0
LINE
  5
15E73
330
747D
100
AcDbEntity
  8
破線
  6
HIDDEN
 48
5.0
100
AcDbLine
 10
5176.717820046174
 20
2277.081546153951
 30
0.0
 11
5176.717820046174
 21
2274.781546153952
 31
0.0
  0
LINE
  5
15E74
330
747D
100
AcDbEntity
  8
破線
  6
HIDDEN
 48
5.0
100
AcDbLine
 10
5246.717820046175
 20
2277.081546153951
 30
0.0
 11
5246.717820046175
 21
2274.781546153952
 31
0.0
  0
LINE
  5
15E75
330
747D
100
AcDbEntity
  8
破線
  6
HIDDEN
 48
5.0
100
AcDbLine
 10
5191.717820046175
 20
2424.781546153952
 30
0.0
 11
5176.717820046174
 21
2277.081546153951
 31
0.0
  0
LINE
  5
15E76
330
747D
100
AcDbEntity
  8
破線
  6
HIDDEN
 48
5.0
100
AcDbLine
 10
5231.717820046174
 20
2424.781546153952
 30
0.0
 11
5246.717820046175
 21
2277.081546153951
 31
0.0
  0
LINE
  5
15E77
330
747D
100
AcDbEntity
  8
部品1
 48
50.0
100
AcDbLine
 10
5191.717820046175
 20
2569.781546153953
 30
0.0
 11
5191.717820046175
 21
2429.781546153952
 31
0.0
  0
LINE
  5
15E78
330
747D
100
AcDbEntity
  8
部品1
 48
50.0
100
AcDbLine
 10
5231.717820046174
 20
2569.781546153953
 30
0.0
 11
5231.717820046174
 21
2429.781546153952
 31
0.0
  0
LINE
  5
15E79
330
747D
100
AcDbEntity
  8
部品1
100
AcDbLine
 10
5196.717820046175
 20
2574.781546153952
 30
0.0
 11
5226.717820046175
 21
2574.781546153952
 31
0.0
  0
ARC
  5
15E7A
330
747D
100
AcDbEntity
  8
部品1
 48
50.0
100
AcDbCircle
 10
5196.717820046175
 20
2569.781546153953
 30
0.0
 40
5.0
100
AcDbArc
 50
90.0
 51
180.0
  0
ARC
  5
15E7B
330
747D
100
AcDbEntity
  8
部品1
 48
50.0
100
AcDbCircle
 10
5226.717820046175
 20
2569.781546153953
 30
0.0
 40
5.0
100
AcDbArc
 50
0.0
 51
90.0
  0
LINE
  5
15E7C
330
747D
100
AcDbEntity
  8
部品1
 48
50.0
100
AcDbLine
 10
6926.717820046175
 20
2569.781546153953
 30
0.0
 11
6926.717820046175
 21
2429.781546153952
 31
0.0
  0
LINE
  5
15E7D
330
747D
100
AcDbEntity
  8
部品1
 48
50.0
100
AcDbLine
 10
6966.717820046175
 20
2569.781546153953
 30
0.0
 11
6966.717820046175
 21
2429.781546153952
 31
0.0
  0
LINE
  5
15E7E
330
747D
100
AcDbEntity
  8
部品1
100
AcDbLine
 10
6961.717820046175
 20
2574.781546153952
 30
0.0
 11
6931.717820046175
 21
2574.781546153952
 31
0.0
  0
ARC
  5
15E7F
330
747D
100
AcDbEntity
  8
部品1
 48
50.0
100
AcDbCircle
 10
6931.717820046175
 20
2569.781546153953
 30
0.0
 40
5.0
100
AcDbArc
 50
90.0
 51
180.0
  0
ARC
  5
15E80
330
747D
100
AcDbEntity
  8
部品1
 48
50.0
100
AcDbCircle
 10
6961.717820046175
 20
2569.781546153953
 30
0.0
 40
5.0
100
AcDbArc
 50
0.0
 51
90.0
  0
LINE
  5
15E81
330
747D
100
AcDbEntity
  8
破線
  6
HIDDEN
 48
5.0
100
AcDbLine
 10
6926.717820046175
 20
2429.781546153952
 30
0.0
 11
6926.717820046175
 21
2424.781546153952
 31
0.0
  0
LINE
  5
15E82
330
747D
100
AcDbEntity
  8
破線
  6
HIDDEN
 48
5.0
100
AcDbLine
 10
6966.717820046175
 20
2429.781546153952
 30
0.0
 11
6966.717820046175
 21
2424.781546153952
 31
0.0
  0
LINE
  5
15E83
330
747D
100
AcDbEntity
  8
破線
  6
HIDDEN
 48
5.0
100
AcDbLine
 10
5191.717820046182
 20
2429.781546153952
 30
0.0
 11
5191.717820046182
 21
2424.781546153952
 31
0.0
  0
LINE
  5
15E84
330
747D
100
AcDbEntity
  8
破線
  6
HIDDEN
 48
5.0
100
AcDbLine
 10
5231.717820046174
 20
2429.781546153952
 30
0.0
 11
5231.717820046174
 21
2424.781546153952
 31
0.0
  0
LINE
  5
15E85
330
747D
100
AcDbEntity
  8
部品1
100
AcDbLine
 10
6966.717820046175
 20
2529.781546153952
 30
0.0
 11
6974.217820046179
 21
2529.781546153952
 31
0.0
  0
LINE
  5
15E86
330
747D
100
AcDbEntity
  8
部品1
100
AcDbLine
 10
5231.717820046174
 20
2529.781546153952
 30
0.0
 11
6926.717820046175
 21
2529.781546153952
 31
0.0
  0
LINE
  5
15E87
330
747D
100
AcDbEntity
  8
細線
 48
50.0
100
AcDbLine
 10
5736.717820046175
 20
4669.781546153951
 30
0.0
 11
5736.717820046175
 21
2579.781546153952
 31
0.0
  0
LINE
  5
15E88
330
747D
100
AcDbEntity
  8
細線
 48
50.0
100
AcDbLine
 10
5721.717820046175
 20
4669.781546153951
 30
0.0
 11
5721.717820046175
 21
2579.781546153952
 31
0.0
  0
LINE
  5
15E89
330
747D
100
AcDbEntity
  8
細線
 48
50.0
100
AcDbLine
 10
5861.717820046175
 20
4669.781546153951
 30
0.0
 11
5861.717820046175
 21
2579.781546153952
 31
0.0
  0
LINE
  5
15E8A
330
747D
100
AcDbEntity
  8
細線
 48
50.0
100
AcDbLine
 10
5876.717820046175
 20
4669.781546153951
 30
0.0
 11
5876.717820046175
 21
2579.781546153952
 31
0.0
  0
LINE
  5
15E8B
330
747D
100
AcDbEntity
  8
細線
 48
50.0
100
AcDbLine
 10
6016.717820046174
 20
4669.781546153951
 30
0.0
 11
6016.717820046174
 21
2579.781546153952
 31
0.0
  0
LINE
  5
15E8C
330
747D
100
AcDbEntity
  8
細線
 48
50.0
100
AcDbLine
 10
6001.717820046175
 20
4669.781546153951
 30
0.0
 11
6001.717820046175
 21
2579.781546153952
 31
0.0
  0
LINE
  5
15E8D
330
747D
100
AcDbEntity
  8
細線
 48
50.0
100
AcDbLine
 10
5581.717820046175
 20
4669.781546153951
 30
0.0
 11
5581.717820046175
 21
2579.781546153952
 31
0.0
  0
LINE
  5
15E8E
330
747D
100
AcDbEntity
  8
細線
 48
50.0
100
AcDbLine
 10
5596.717820046175
 20
4669.781546153951
 30
0.0
 11
5596.717820046175
 21
2579.781546153952
 31
0.0
  0
LINE
  5
15E8F
330
747D
100
AcDbEntity
  8
細線
 48
50.0
100
AcDbLine
 10
5456.717820046175
 20
4669.781546153951
 30
0.0
 11
5456.717820046175
 21
2579.781546153952
 31
0.0
  0
LINE
  5
15E90
330
747D
100
AcDbEntity
  8
細線
 48
50.0
100
AcDbLine
 10
5441.717820046175
 20
4669.781546153951
 30
0.0
 11
5441.717820046175
 21
2579.781546153952
 31
0.0
  0
LINE
  5
15E91
330
747D
100
AcDbEntity
  8
細線
 48
50.0
100
AcDbLine
 10
5301.717820046174
 20
4669.781546153951
 30
0.0
 11
5301.717820046174
 21
2579.781546153952
 31
0.0
  0
LINE
  5
15E92
330
747D
100
AcDbEntity
  8
細線
 48
50.0
100
AcDbLine
 10
5316.717820046175
 20
4669.781546153951
 30
0.0
 11
5316.717820046175
 21
2579.781546153952
 31
0.0
  0
LINE
  5
15E93
330
747D
100
AcDbEntity
  8
部品1
100
AcDbLine
 10
5131.762806403138
 20
4903.499281488219
 30
0.0
 11
7046.829696907636
 21
4848.422343863092
 31
0.0
  0
LINE
  5
15E94
330
747D
100
AcDbEntity
  8
部品1
100
AcDbLine
 10
5139.560384648127
 20
4762.562571222919
 30
0.0
 11
7028.881520586018
 21
4723.534145988715
 31
0.0
  0
LINE
  5
15E95
330
747D
100
AcDbEntity
  8
細線
 48
50.0
100
AcDbLine
 10
5157.217820046175
 20
4902.181222529356
 30
0.0
 11
5151.928718490668
 21
4762.095589902002
 31
0.0
  0
LINE
  5
15E96
330
747D
100
AcDbEntity
  8
細線
 48
50.0
100
AcDbLine
 10
7021.217820046175
 20
4849.748525189248
 30
0.0
 11
7016.470137158176
 21
4724.002752698505
 31
0.0
  0
LINE
  5
15E97
330
747D
100
AcDbEntity
  8
部品1
 48
50.0
100
AcDbLine
 10
5124.402105959282
 20
4896.375092318645
 30
0.0
 11
5124.782365737093
 21
4876.448127872232
 31
0.0
  0
LINE
  5
15E98
330
747D
100
AcDbEntity
  8
部品1
 48
50.0
100
AcDbLine
 10
5127.85113784334
 20
4872.872846378761
 30
0.0
 11
5129.555039334704
 21
4783.582349672115
 31
0.0
  0
LINE
  5
15E99
330
747D
100
AcDbEntity
  8
細線
 48
50.0
100
AcDbLine
 10
5125.25724314699
 20
4875.798627995313
 30
0.0
 11
7050.893227892157
 21
4820.174423354487
 31
0.0
  0
LINE
  5
15E9A
330
747D
100
AcDbEntity
  8
細線
 48
50.0
100
AcDbLine
 10
5130.017718384276
 20
4782.937116297451
 30
0.0
 11
7040.02138281491
 21
4743.127797322957
 31
0.0
  0
LINE
  5
15E9B
330
747D
100
AcDbEntity
  8
部品1
 48
50.0
100
AcDbLine
 10
5132.623811440947
 20
4780.007068178642
 30
0.0
 11
5132.825764061378
 21
4769.42403278555
 31
0.0
  0
ARC
  5
15E9C
330
747D
100
AcDbEntity
  8
部品1
 48
50.0
100
AcDbCircle
 10
5131.400831787622
 20
4896.508646726072
 30
0.0
 40
7.0
100
AcDbArc
 50
87.03587545283093
 51
181.0932240292635
  0
ARC
  5
15E9D
330
747D
100
AcDbEntity
  8
部品1
 48
50.0
100
AcDbCircle
 10
5139.824489889718
 20
4769.557587192977
 30
0.0
 40
7.0
100
AcDbArc
 50
181.0932240292635
 51
267.8377559869492
  0
ARC
  5
15E9E
330
747D
100
AcDbEntity
  8
部品1
100
AcDbCircle
 10
5129.624357514516
 20
4779.949830575459
 30
0.0
 40
3.0
100
AcDbArc
 50
1.093224029263536
 51
80.18775403148449
  0
ARC
  5
15E9F
330
747D
100
AcDbEntity
  8
部品1
100
AcDbCircle
 10
5124.85168391691
 20
4872.815608775578
 30
0.0
 40
3.0
100
AcDbArc
 50
1.093224029263536
 51
80.18775403169875
  0
ARC
  5
15EA0
330
747D
100
AcDbEntity
  8
部品1
100
AcDbCircle
 10
5125.482238319932
 20
4876.461483312976
 30
0.0
 40
0.7
100
AcDbArc
 50
181.0932240292114
 51
260.1877540314845
  0
ARC
  5
15EA1
330
747D
100
AcDbEntity
  8
部品1
100
AcDbCircle
 10
5130.254911917542
 20
4783.595705112855
 30
0.0
 40
0.7
100
AcDbArc
 50
181.0932240292114
 51
260.1877540314845
  0
LINE
  5
15EA2
330
747D
100
AcDbEntity
  8
部品1
 48
50.0
100
AcDbLine
 10
7053.431722856877
 20
4840.722698428171
 30
0.0
 11
7051.401101665907
 21
4820.777657170391
 31
0.0
  0
LINE
  5
15EA3
330
747D
100
AcDbEntity
  8
部品1
 48
50.0
100
AcDbLine
 10
7048.048535181424
 20
4817.467023097482
 30
0.0
 11
7040.541755916587
 21
4743.734402352469
 31
0.0
  0
LINE
  5
15EA4
330
747D
100
AcDbEntity
  8
部品1
 48
50.0
100
AcDbLine
 10
7037.189189432102
 20
4740.423768279558
 30
0.0
 11
7036.109626392361
 21
4729.820151285998
 31
0.0
  0
ARC
  5
15EA5
330
747D
100
AcDbEntity
  8
部品1
 48
50.0
100
AcDbCircle
 10
7046.46772229212
 20
4841.431709100945
 30
0.0
 40
7.0
100
AcDbArc
 50
354.1866997665532
 51
87.03587545283093
  0
ARC
  5
15EA6
330
747D
100
AcDbEntity
  8
部品1
 48
50.0
100
AcDbCircle
 10
7029.145625827606
 20
4730.529161958771
 30
0.0
 40
7.0
100
AcDbArc
 50
267.8377559869492
 51
354.1866997665532
  0
ARC
  5
15EA7
330
747D
100
AcDbEntity
  8
部品1
100
AcDbCircle
 10
7040.173761102709
 20
4740.119906562655
 30
0.0
 40
3.0
100
AcDbArc
 50
95.0921697642102
 51
174.1866997665532
  0
ARC
  5
15EA8
330
747D
100
AcDbEntity
  8
部品1
100
AcDbCircle
 10
7051.033106852035
 20
4817.163161380578
 30
0.0
 40
3.0
100
AcDbArc
 50
95.0921697642102
 51
174.1866997665532
  0
ARC
  5
15EA9
330
747D
100
AcDbEntity
  8
部品1
100
AcDbCircle
 10
7050.704701609433
 20
4820.848558237669
 30
0.0
 40
0.7
100
AcDbArc
 50
275.0921697642102
 51
354.1866997665532
  0
ARC
  5
15EAA
330
747D
100
AcDbEntity
  8
部品1
100
AcDbCircle
 10
7039.845355860115
 20
4743.805303419746
 30
0.0
 40
0.7
100
AcDbArc
 50
275.0921697642102
 51
354.1866997667087
  0
DIMENSION
  5
15EAB
330
747D
100
AcDbEntity
  8
寸法
 48
50.0
100
AcDbDimension
  2
*D10
 10
7054.217820046175
 20
5303.438999733256
 30
0.0
 11
7260.265064140665
 21
5303.438999733256
 31
0.0
 70
   160
 71
     5
 42
80.0
  3
INABA_S40G
100
AcDbAlignedDimension
 13
6974.217820046175
 23
4851.592225765606
 33
0.0
 14
7054.217820046175
 24
4849.781546153953
 34
0.0
100
AcDbRotatedDimension
1001
ACAD
1000
DSTYLE
1002
{
1070
   174
1070
     0
1070
   272
1070
     1
1070
   288
1070
     0
1070
   341
1005
0
1002
}
  0
LINE
  5
15EAC
330
747D
100
AcDbEntity
  8
部品1
 48
50.0
100
AcDbLine
 10
5929.217820046175
 20
5035.649685255232
 30
0.0
 11
6229.217820046175
 21
5035.649685255232
 31
0.0
  0
LINE
  5
15EAD
330
747D
100
AcDbEntity
  8
部品1
 48
50.0
100
AcDbLine
 10
6229.217820046175
 20
5035.649685255232
 30
0.0
 11
6229.217820046175
 21
5019.449685255233
 31
0.0
  0
TEXT
  5
15EAE
330
747D
100
AcDbEntity
  8
部品1
 48
50.0
100
AcDbText
 10
5917.485655269902
 20
5071.533707407665
 30
0.0
 40
120.0
  1
1000
  7
STYLE1
100
AcDbText
  0
TEXT
  5
15EAF
330
747D
100
AcDbEntity
  8
部品1
 48
50.0
100
AcDbText
 10
6406.310667334034
 20
4934.032449189382
 30
0.0
 40
120.0
  1
54
 50
90.0
  7
STYLE1
100
AcDbText
  0
LINE
  5
15EB0
330
747D
100
AcDbEntity
  8
部品1
100
AcDbLine
 10
6079.217820046174
 20
4669.781546153951
 30
0.0
 11
6079.217820046174
 21
2579.781546153952
 31
0.0
  0
LINE
  5
15EB1
330
747D
100
AcDbEntity
  8
細線
 48
50.0
100
AcDbLine
 10
6421.717820046179
 20
4669.781546153951
 30
0.0
 11
6421.717820046179
 21
2579.781546153952
 31
0.0
  0
LINE
  5
15EB2
330
747D
100
AcDbEntity
  8
細線
 48
50.0
100
AcDbLine
 10
6436.717820046178
 20
4669.781546153951
 30
0.0
 11
6436.717820046178
 21
2579.781546153952
 31
0.0
  0
LINE
  5
15EB3
330
747D
100
AcDbEntity
  8
細線
 48
50.0
100
AcDbLine
 10
6296.717820046179
 20
4669.781546153951
 30
0.0
 11
6296.717820046179
 21
2579.781546153952
 31
0.0
  0
LINE
  5
15EB4
330
747D
100
AcDbEntity
  8
細線
 48
50.0
100
AcDbLine
 10
6281.717820046178
 20
4669.781546153951
 30
0.0
 11
6281.717820046178
 21
2579.781546153952
 31
0.0
  0
LINE
  5
15EB5
330
747D
100
AcDbEntity
  8
細線
 48
50.0
100
AcDbLine
 10
6141.717820046178
 20
4669.781546153951
 30
0.0
 11
6141.717820046178
 21
2579.781546153952
 31
0.0
  0
LINE
  5
15EB6
330
747D
100
AcDbEntity
  8
細線
 48
50.0
100
AcDbLine
 10
6156.717820046178
 20
4669.781546153951
 30
0.0
 11
6156.717820046178
 21
2579.781546153952
 31
0.0
  0
LINE
  5
15EB7
330
747D
100
AcDbEntity
  8
部品1
100
AcDbLine
 10
6499.217820046175
 20
4669.781546153951
 30
0.0
 11
6499.217820046175
 21
2579.781546153952
 31
0.0
  0
LINE
  5
15EB8
330
747D
100
AcDbEntity
  8
細線
 48
50.0
100
AcDbLine
 10
6576.717820046183
 20
4669.781546153951
 30
0.0
 11
6576.717820046183
 21
2579.781546153952
 31
0.0
  0
LINE
  5
15EB9
330
747D
100
AcDbEntity
  8
細線
 48
50.0
100
AcDbLine
 10
6561.717820046182
 20
4669.781546153951
 30
0.0
 11
6561.717820046182
 21
2579.781546153952
 31
0.0
  0
LINE
  5
15EBA
330
747D
100
AcDbEntity
  8
細線
 48
50.0
100
AcDbLine
 10
6701.717820046183
 20
4669.781546153951
 30
0.0
 11
6701.717820046183
 21
2579.781546153952
 31
0.0
  0
LINE
  5
15EBB
330
747D
100
AcDbEntity
  8
細線
 48
50.0
100
AcDbLine
 10
6716.717820046182
 20
4669.781546153951
 30
0.0
 11
6716.717820046182
 21
2579.781546153952
 31
0.0
  0
LINE
  5
15EBC
330
747D
100
AcDbEntity
  8
細線
 48
50.0
100
AcDbLine
 10
6856.717820046182
 20
4669.781546153951
 30
0.0
 11
6856.717820046182
 21
2579.781546153952
 31
0.0
  0
LINE
  5
15EBD
330
747D
100
AcDbEntity
  8
細線
 48
50.0
100
AcDbLine
 10
6841.717820046182
 20
4669.781546153951
 30
0.0
 11
6841.717820046182
 21
2579.781546153952
 31
0.0
  0
DIMENSION
  5
15EBE
330
747D
100
AcDbEntity
  8
寸法
 48
50.0
100
AcDbDimension
  2
*D11
 10
4563.609413277815
 20
4779.126805027284
 30
0.0
 11
4574.27488853674
 21
5149.973468268981
 31
0.0
 70
   161
 71
     5
 42
141.0
  3
INABA_S40G
100
AcDbAlignedDimension
 13
5143.613840204754
 23
4903.504294988632
 33
0.0
 14
5139.560384648127
 24
4762.562571222919
 34
0.0
1001
ACAD
1000
DSTYLE
1002
{
1070
   174
1070
     0
1070
   272
1070
     1
1070
   288
1070
     0
1070
   341
1005
0
1002
}
  0
LINE
  5
15EBF
330
747D
100
AcDbEntity
  8
部品1
 48
50.0
100
AcDbLine
 10
5929.217820046175
 20
5035.649685255232
 30
0.0
 11
6229.217820046175
 21
5019.449685255233
 31
0.0
  0
DIMENSION
  5
15EC0
330
747D
100
AcDbEntity
  8
寸法
 48
50.0
100
AcDbDimension
  2
*D12
 10
4962.217816799541
 20
2429.781546153952
 30
0.0
 11
4962.21781679954
 21
2329.781546153952
 31
0.0
 70
   160
 71
     5
 42
200.0000000000004
  3
INABA_S40G
100
AcDbAlignedDimension
 13
5111.717820046179
 23
2229.781546153951
 33
0.0
 14
5086.717820046175
 24
2429.781546153952
 34
0.0
 50
90.0
100
AcDbRotatedDimension
1001
ACAD
1000
DSTYLE
1002
{
1070
   174
1070
     0
1070
   272
1070
     1
1070
   288
1070
     0
1070
   341
1005
0
1002
}
  0
LINE
  5
15EC1
330
747D
100
AcDbEntity
  8
破線
 48
5.0
100
AcDbLine
 10
5311.717820046175
 20
2229.78154615395
 30
0.0
 11
5111.717820046179
 21
2229.78154615395
 31
0.0
  0
LINE
  5
15EC2
330
747D
100
AcDbEntity
  8
破線
 48
5.0
100
AcDbLine
 10
5311.717820046175
 20
2429.781546153952
 30
0.0
 11
5311.717820046175
 21
2229.78154615395
 31
0.0
  0
LINE
  5
15EC3
330
747D
100
AcDbEntity
  8
破線
 48
5.0
100
AcDbLine
 10
5111.717820046175
 20
2429.781546153952
 30
0.0
 11
5111.717820046179
 21
2229.78154615395
 31
0.0
  0
DIMENSION
  5
15EC4
330
747D
100
AcDbEntity
  8
寸法
 48
50.0
100
AcDbDimension
  2
*D13
 10
5111.717820046179
 20
1943.734216853573
 30
0.0
 11
5211.717820046176
 21
1943.734216853573
 31
0.0
 70
   160
 71
     5
 42
199.9999999999963
  3
INABA_S40G
100
AcDbAlignedDimension
 13
5311.717820046175
 23
2229.78154615395
 33
0.0
 14
5111.717820046179
 24
2229.781546153951
 34
0.0
100
AcDbRotatedDimension
  0
LINE
  5
15EC5
330
747D
100
AcDbEntity
  8
破線
 48
5.0
100
AcDbLine
 10
7046.717820046182
 20
2429.781546153952
 30
0.0
 11
7046.717820046179
 21
2229.78154615395
 31
0.0
  0
LINE
  5
15EC6
330
747D
100
AcDbEntity
  8
破線
 48
5.0
100
AcDbLine
 10
7046.717820046179
 20
2229.78154615395
 30
0.0
 11
6846.717820046182
 21
2229.781546153952
 31
0.0
  0
LINE
  5
15EC7
330
747D
100
AcDbEntity
  8
破線
 48
5.0
100
AcDbLine
 10
6846.717820046182
 20
2429.781546153952
 30
0.0
 11
6846.717820046182
 21
2229.781546153952
 31
0.0
  0
LINE
  5
15EC8
330
747D
100
AcDbEntity
  8
部品1
 48
50.0
100
AcDbLine
 10
6974.217820046179
 20
4664.781546153954
 30
0.0
 11
7051.217820046179
 21
4654.781546153954
 31
0.0
  0
LINE
  5
15EC9
330
747D
100
AcDbEntity
  8
部品1
 48
50.0
100
AcDbLine
 10
7051.217820046179
 20
4654.781546153954
 30
0.0
 11
7051.217820046179
 21
2429.781546153952
 31
0.0
  0
LINE
  5
15ECA
330
747D
100
AcDbEntity
  8
部品1
 48
50.0
100
AcDbLine
 10
7051.217820046179
 20
2529.781546153952
 30
0.0
 11
6966.717820046179
 21
2529.781546153952
 31
0.0
  0
LINE
  5
15ECB
330
747D
100
AcDbEntity
  8
部品1
100
AcDbLine
 10
6774.217820046175
 20
2529.781546153952
 30
0.0
 11
6774.217820046175
 21
2429.781546153952
 31
0.0
  0
LINE
  5
15ECC
330
747D
100
AcDbEntity
  8
部品1
 48
50.0
100
AcDbLine
 10
6179.217820046175
 20
2529.781546153952
 30
0.0
 11
6179.217820046175
 21
2429.781546153952
 31
0.0
  0
LINE
  5
15ECD
330
747D
100
AcDbEntity
  8
部品1
 48
50.0
100
AcDbLine
 10
5979.217820046175
 20
2529.781546153952
 30
0.0
 11
5979.217820046175
 21
2429.781546153952
 31
0.0
  0
LINE
  5
15ECE
330
747D
100
AcDbEntity
  8
部品1
100
AcDbLine
 10
5384.217820046175
 20
2529.781546153952
 30
0.0
 11
5384.217820046175
 21
2429.781546153952
 31
0.0
  0
LINE
  5
15ECF
330
747D
100
AcDbEntity
  8
部品1
 48
50.0
100
AcDbLine
 10
10834.1781661437
 20
8493.0929562596
 30
0.0
 11
9157.178166143705
 21
8493.092956259689
 31
0.0
  0
LINE
  5
15ED0
330
747D
100
AcDbEntity
  8
部品1
100
AcDbLine
 10
10862.67816614372
 20
8493.0929562596
 30
0.0
 11
10890.67816614372
 21
8493.0929562596
 31
0.0
  0
LINE
  5
15ED1
330
747D
100
AcDbEntity
  8
部品1
100
AcDbLine
 10
9128.678166143698
 20
8493.092956259472
 30
0.0
 11
9100.678166143699
 21
8493.092956259472
 31
0.0
  0
TEXT
  5
15ED2
330
747D
100
AcDbEntity
  8
文字
 62
     7
 48
50.0
100
AcDbText
 10
13209.4053442172
 20
228.543524256902
 30
0.0
 40
100.0
  1
○有効開口寸法 ： 950×2025(mm)
  7
STYLE2
100
AcDbText
  0
LINE
  5
15ED3
330
747D
100
AcDbEntity
  8
Ｇ．Ｌ
100
AcDbLine
 10
3179.694761676765
 20
2429.781546153952
 30
0.0
 11
11524.69973991246
 21
2429.781546153952
 31
0.0
  0
LINE
  5
15ED4
330
747D
100
AcDbEntity
  8
部品1
100
AcDbLine
 10
9100.678166143714
 20
2529.781546153952
 30
0.0
 11
10890.67816614371
 21
2529.781546153952
 31
0.0
  0
LINE
  5
15ED5
330
747D
100
AcDbEntity
  8
部品1
100
AcDbLine
 10
9100.678166143714
 20
4669.781546153951
 30
0.0
 11
10890.67816614371
 21
4669.781546153951
 31
0.0
  0
LINE
  5
15ED6
330
747D
100
AcDbEntity
  8
部品1
100
AcDbLine
 10
9100.678166143714
 20
4723.281546153952
 30
0.0
 11
9100.678166143714
 21
2429.781546153952
 31
0.0
  0
LINE
  5
15ED7
330
747D
100
AcDbEntity
  8
部品1
100
AcDbLine
 10
10890.67816614371
 20
4723.281546153952
 30
0.0
 11
10890.67816614371
 21
2429.781546153952
 31
0.0
  0
LINE
  5
15ED8
330
747D
100
AcDbEntity
  8
部品1
100
AcDbLine
 10
10490.67816614371
 20
2529.781546153952
 30
0.0
 11
10490.67816614371
 21
2429.781546153952
 31
0.0
  0
LINE
  5
15ED9
330
747D
100
AcDbEntity
  8
部品1
100
AcDbLine
 10
9500.678166143712
 20
2529.781546153952
 30
0.0
 11
9500.678166143712
 21
2429.781546153952
 31
0.0
  0
LINE
  5
15EDA
330
747D
100
AcDbEntity
  8
部品1
 48
50.0
100
AcDbLine
 10
9895.678166143714
 20
2529.781546153952
 30
0.0
 11
9895.678166143714
 21
2429.781546153952
 31
0.0
  0
LINE
  5
15EDB
330
747D
100
AcDbEntity
  8
部品1
 48
50.0
100
AcDbLine
 10
10095.67816614371
 20
2529.781546153952
 30
0.0
 11
10095.67816614371
 21
2429.781546153952
 31
0.0
  0
LINE
  5
15EDC
330
747D
100
AcDbEntity
  8
部品1
100
AcDbLine
 10
10895.67816614371
 20
2574.781546153952
 30
0.0
 11
10895.67816614371
 21
2429.781546153952
 31
0.0
  0
LINE
  5
15EDD
330
747D
100
AcDbEntity
  8
破線
 48
5.0
100
AcDbLine
 10
10990.67816614371
 20
2229.781546153952
 30
0.0
 11
10790.67816614371
 21
2229.781546153952
 31
0.0
  0
LINE
  5
15EDE
330
747D
100
AcDbEntity
  8
破線
 48
5.0
100
AcDbLine
 10
10790.67816614371
 20
2429.781546153952
 30
0.0
 11
10790.67816614371
 21
2229.781546153952
 31
0.0
  0
LINE
  5
15EDF
330
747D
100
AcDbEntity
  8
破線
 48
5.0
100
AcDbLine
 10
10990.67816614371
 20
2429.781546153952
 30
0.0
 11
10990.67816614371
 21
2229.781546153952
 31
0.0
  0
LINE
  5
15EE0
330
747D
100
AcDbEntity
  8
破線
 48
5.0
100
AcDbLine
 10
10915.67816614371
 20
2274.781546153952
 30
0.0
 11
10895.67816614371
 21
2274.781546153952
 31
0.0
  0
LINE
  5
15EE1
330
747D
100
AcDbEntity
  8
部品1
100
AcDbLine
 10
9095.678166143713
 20
2574.781546153954
 30
0.0
 11
9095.678166143713
 21
2429.781546153952
 31
0.0
  0
LINE
  5
15EE2
330
747D
100
AcDbEntity
  8
破線
 48
5.0
100
AcDbLine
 10
9000.678166143712
 20
2229.781546153952
 30
0.0
 11
9200.678166143715
 21
2229.781546153952
 31
0.0
  0
LINE
  5
15EE3
330
747D
100
AcDbEntity
  8
破線
 48
5.0
100
AcDbLine
 10
9000.678166143712
 20
2429.781546153952
 30
0.0
 11
9000.678166143712
 21
2229.781546153952
 31
0.0
  0
LINE
  5
15EE4
330
747D
100
AcDbEntity
  8
破線
 48
5.0
100
AcDbLine
 10
9075.678166143713
 20
2274.781546153952
 30
0.0
 11
9095.678166143715
 21
2274.781546153952
 31
0.0
  0
LINE
  5
15EE5
330
747D
100
AcDbEntity
  8
破線
 48
5.0
100
AcDbLine
 10
9200.678166143713
 20
2429.781546153952
 30
0.0
 11
9200.678166143713
 21
2229.781546153952
 31
0.0
  0
DIMENSION
  5
15EE6
330
747D
100
AcDbEntity
  8
寸法
100
AcDbDimension
  2
*D14
 10
9155.67816614372
 20
10104.89998306771
 30
0.0
 11
8792.192884769447
 21
10104.89998306771
 31
0.0
 70
   160
 71
     5
 42
55.00000000003637
  3
INABA_S40G
100
AcDbAlignedDimension
 13
9100.678166143683
 23
9808.092956259503
 33
0.0
 14
9155.67816614372
 24
9808.092956259503
 34
0.0
100
AcDbRotatedDimension
1001
ACAD
1000
DSTYLE
1002
{
1002
}
  0
LINE
  5
15EE7
330
747D
100
AcDbEntity
  8
部品1
100
AcDbLine
 10
9155.678166143683
 20
9808.092956259471
 30
0.0
 11
9155.678166143687
 21
9780.092956259471
 31
0.0
  0
LINE
  5
15EE8
330
747D
100
AcDbEntity
  8
部品1
100
AcDbLine
 10
9100.678166143683
 20
9808.092956259471
 30
0.0
 11
9100.678166143714
 21
8018.09295625946
 31
0.0
  0
LINE
  5
15EE9
330
747D
100
AcDbEntity
  8
部品1
100
AcDbLine
 10
10835.67816614372
 20
9808.092956259599
 30
0.0
 11
10835.67816614372
 21
9780.092956259599
 31
0.0
  0
LINE
  5
15EEA
330
747D
100
AcDbEntity
  8
部品1
100
AcDbLine
 10
10835.67816614372
 20
9808.092956259619
 30
0.0
 11
10835.67816614372
 21
9780.092956259618
 31
0.0
  0
DIMENSION
  5
15EEB
330
747D
100
AcDbEntity
  8
寸法
100
AcDbDimension
  2
*D15
 10
11815.04207965899
 20
8018.092956259589
 30
0.0
 11
11815.04207965899
 21
8893.36669819869
 31
0.0
 70
   160
 71
     5
 42
1790.000000000008
  3
INABA_S40G
100
AcDbAlignedDimension
 13
10890.67816614372
 23
9808.092956259599
 33
0.0
 14
10890.67816614369
 24
8018.092956259589
 34
0.0
 50
90.0
100
AcDbRotatedDimension
1001
ACAD
1000
DSTYLE
1002
{
1002
}
  0
LINE
  5
15EEC
330
747D
100
AcDbEntity
  8
部品1
100
AcDbLine
 10
10890.67816614372
 20
9808.092956259599
 30
0.0
 11
10890.67816614369
 21
8018.092956259589
 31
0.0
  0
LINE
  5
15EED
330
747D
100
AcDbEntity
  8
部品1
100
AcDbLine
 10
10415.67816614372
 20
9808.092956259619
 30
0.0
 11
10415.67816614372
 21
9780.092956259618
 31
0.0
  0
LINE
  5
15EEE
330
747D
100
AcDbEntity
  8
部品1
100
AcDbLine
 10
9995.67816614372
 20
9808.092956259619
 30
0.0
 11
9995.67816614372
 21
9780.092956259618
 31
0.0
  0
LINE
  5
15EEF
330
747D
100
AcDbEntity
  8
部品1
100
AcDbLine
 10
9575.67816614372
 20
9808.092956259619
 30
0.0
 11
9575.67816614372
 21
9780.092956259618
 31
0.0
  0
LINE
  5
15EF0
330
747D
100
AcDbEntity
  8
部品1
100
AcDbLine
 10
9575.67816614372
 20
9808.092956259502
 30
0.0
 11
9575.67816614372
 21
9780.092956259501
 31
0.0
  0
LINE
  5
15EF1
330
747D
100
AcDbEntity
  8
部品1
100
AcDbLine
 10
9575.67816614372
 20
9808.092956259503
 30
0.0
 11
9575.67816614372
 21
9780.092956259503
 31
0.0
  0
LINE
  5
15EF2
330
747D
100
AcDbEntity
  8
部品1
100
AcDbLine
 10
9155.67816614372
 20
9808.092956259503
 30
0.0
 11
9155.67816614372
 21
9780.092956259503
 31
0.0
  0
DIMENSION
  5
15EF3
330
747D
100
AcDbEntity
  8
寸法
100
AcDbDimension
  2
*D16
 10
11538.10451187813
 20
9753.092956259601
 30
0.0
 11
11538.10451187813
 21
10116.57823763383
 31
0.0
 70
   160
 71
     5
 42
54.99999999999636
  3
INABA_S40G
100
AcDbAlignedDimension
 13
10890.67816614372
 23
9808.092956259599
 33
0.0
 14
10890.67816614372
 24
9753.092956259601
 34
0.0
 50
90.0
100
AcDbRotatedDimension
1001
ACAD
1000
DSTYLE
1002
{
1002
}
  0
DIMENSION
  5
15EF4
330
747D
100
AcDbEntity
  8
寸法
100
AcDbDimension
  2
*D17
 10
11217.53589200574
 20
9232.87514059071
 30
0.0
 11
11117.53589200574
 21
9457.87514059071
 31
0.0
 70
    32
 71
     5
 42
449.9999999999982
  3
INABA_S40G
100
AcDbAlignedDimension
 13
10862.17816614372
 23
9778.092956259598
 33
0.0
 14
10862.17816614372
 24
9328.092956259601
 34
0.0
 50
90.0
100
AcDbRotatedDimension
1001
ACAD
1000
DSTYLE
1002
{
1002
}
  0
DIMENSION
  5
15EF5
330
747D
100
AcDbEntity
  8
寸法
100
AcDbDimension
  2
*D18
 10
11538.1045118781
 20
8018.092956259589
 30
0.0
 11
11538.1045118781
 21
7640.231489354727
 31
0.0
 70
   160
 71
     5
 42
54.99999999999636
  3
INABA_S40G
100
AcDbAlignedDimension
 13
10890.67816614369
 23
8073.092956259584
 33
0.0
 14
10890.67816614369
 24
8018.092956259589
 34
0.0
 50
90.0
100
AcDbRotatedDimension
1001
ACAD
1000
DSTYLE
1002
{
1002
}
  0
DIMENSION
  5
15EF6
330
747D
100
AcDbEntity
  8
寸法
100
AcDbDimension
  2
*D19
 10
11538.10451187813
 20
8073.092956259584
 30
0.0
 11
11538.10451187813
 21
8913.092956259593
 31
0.0
 70
   160
  1
4X420=<>
 71
     5
 42
1680.000000000015
  3
INABA_S40G
100
AcDbAlignedDimension
 13
10890.67816614372
 23
9753.092956259601
 33
0.0
 14
10890.67816614369
 24
8073.092956259584
 34
0.0
 50
90.0
100
AcDbRotatedDimension
1001
ACAD
1000
DSTYLE
1002
{
1002
}
  0
LINE
  5
15EF9
330
747D
100
AcDbEntity
  8
部品1
100
AcDbLine
 10
9129.17816614372
 20
9328.092956259501
 30
0.0
 11
9982.178166143718
 21
9328.092956259608
 31
0.0
  0
DIMENSION
  5
15EFA
330
747D
100
AcDbEntity
  8
寸法
100
AcDbDimension
  2
*D20
 10
10783.6093925873
 20
9034.870301458633
 30
0.0
 11
10388.52522826199
 21
9034.870301458633
 31
0.0
 70
   160
 71
     5
 42
853.0000000000109
  3
INABA_S40G
100
AcDbAlignedDimension
 13
10009.17816614372
 23
9328.092956259608
 33
0.0
 14
10862.17816614373
 24
9328.092956259601
 34
0.0
100
AcDbRotatedDimension
1001
ACAD
1000
DSTYLE
1002
{
1002
}
  0
LINE
  5
15EFB
330
747D
100
AcDbEntity
  8
細線
 48
50.0
100
AcDbLine
 10
9982.17816614372
 20
9778.092956259605
 30
0.0
 11
9129.17816614372
 21
9328.092956259501
 31
0.0
  0
LINE
  5
15EFC
330
747D
100
AcDbEntity
  8
細線
 48
50.0
100
AcDbLine
 10
9982.178166143718
 20
9328.092956259608
 30
0.0
 11
9129.178166143718
 21
9778.092956259504
 31
0.0
  0
LINE
  5
15EFD
330
747D
100
AcDbEntity
  8
部品1
100
AcDbLine
 10
9129.178166143718
 20
9778.092956259504
 30
0.0
 11
9982.17816614372
 21
9778.092956259609
 31
0.0
  0
LINE
  5
15EFE
330
747D
100
AcDbEntity
  8
部品1
100
AcDbLine
 10
9128.678166143719
 20
9780.09295625962
 30
0.0
 11
9983.178166143716
 21
9780.092956259618
 31
0.0
  0
LINE
  5
15EFF
330
747D
100
AcDbEntity
  8
部品1
100
AcDbLine
 10
9128.678166143693
 20
8046.092956259426
 30
0.0
 11
9128.678166143719
 21
9780.092956259503
 31
0.0
  0
LINE
  5
15F00
330
747D
100
AcDbEntity
  8
部品1
100
AcDbLine
 10
9128.678166143698
 20
8913.092956259472
 30
0.0
 11
9100.678166143699
 21
8913.092956259472
 31
0.0
  0
LINE
  5
15F01
330
747D
100
AcDbEntity
  8
部品1
 48
50.0
100
AcDbLine
 10
9129.178166143718
 20
9778.092956259499
 30
0.0
 11
9129.17816614372
 21
9328.092956259499
 31
0.0
  0
LINE
  5
15F02
330
747D
100
AcDbEntity
  8
部品1
100
AcDbLine
 10
9128.678166143695
 20
9333.092956259472
 30
0.0
 11
9100.678166143694
 21
9333.092956259472
 31
0.0
  0
LINE
  5
15F03
330
747D
100
AcDbEntity
  8
部品1
100
AcDbLine
 10
9128.678166143687
 20
9753.092956259473
 30
0.0
 11
9100.678166143687
 21
9753.092956259473
 31
0.0
  0
LINE
  5
15F04
330
747D
100
AcDbEntity
  8
部品1
100
AcDbLine
 10
10862.67816614372
 20
9780.092956259599
 30
0.0
 11
10862.67816614369
 21
8046.092956259585
 31
0.0
  0
LINE
  5
15F05
330
747D
100
AcDbEntity
  8
部品1
100
AcDbLine
 10
10862.67816614372
 20
8913.092956259601
 30
0.0
 11
10890.67816614372
 21
8913.092956259601
 31
0.0
  0
LINE
  5
15F06
330
747D
100
AcDbEntity
  8
部品1
100
AcDbLine
 10
10009.17816614372
 20
9328.092956259608
 30
0.0
 11
10862.17816614372
 21
9328.092956259601
 31
0.0
  0
LINE
  5
15F07
330
747D
100
AcDbEntity
  8
細線
 48
50.0
100
AcDbLine
 10
10862.17816614372
 20
9778.092956259598
 30
0.0
 11
10009.17816614372
 21
9328.092956259608
 31
0.0
  0
LINE
  5
15F08
330
747D
100
AcDbEntity
  8
細線
 48
50.0
100
AcDbLine
 10
10862.17816614372
 20
9328.092956259601
 30
0.0
 11
10009.17816614372
 21
9778.092956259602
 31
0.0
  0
LINE
  5
15F09
330
747D
100
AcDbEntity
  8
部品1
100
AcDbLine
 10
10009.17816614372
 20
9778.092956259605
 30
0.0
 11
10862.17816614372
 21
9778.092956259598
 31
0.0
  0
LINE
  5
15F0A
330
747D
100
AcDbEntity
  8
部品1
100
AcDbLine
 10
10008.17816614372
 20
9780.092956259615
 30
0.0
 11
10862.67816614372
 21
9780.092956259599
 31
0.0
  0
LINE
  5
15F0B
330
747D
100
AcDbEntity
  8
部品1
 48
50.0
100
AcDbLine
 10
10009.17816614372
 20
9778.092956259602
 30
0.0
 11
10009.17816614372
 21
9328.092956259608
 31
0.0
  0
LINE
  5
15F0C
330
747D
100
AcDbEntity
  8
部品1
 48
50.0
100
AcDbLine
 10
9982.17816614372
 20
9778.092956259605
 30
0.0
 11
9982.17816614372
 21
9328.092956259608
 31
0.0
  0
LINE
  5
15F0D
330
747D
100
AcDbEntity
  8
部品1
 48
50.0
100
AcDbLine
 10
10008.17816614372
 20
9780.092956259608
 30
0.0
 11
10008.17816614372
 21
9328.092956259608
 31
0.0
  0
LINE
  5
15F0E
330
747D
100
AcDbEntity
  8
部品1
 48
50.0
100
AcDbLine
 10
9983.178166143718
 20
9780.092956259613
 30
0.0
 11
9983.178166143721
 21
9328.092956259608
 31
0.0
  0
LINE
  5
15F0F
330
747D
100
AcDbEntity
  8
部品1
100
AcDbLine
 10
9983.178166143721
 20
9328.092956259608
 30
0.0
 11
10008.17816614372
 21
9328.092956259608
 31
0.0
  0
LINE
  5
15F10
330
747D
100
AcDbEntity
  8
部品1
100
AcDbLine
 10
9983.178166143721
 20
9772.092956259601
 30
0.0
 11
10008.17816614372
 21
9772.092956259605
 31
0.0
  0
LINE
  5
15F11
330
747D
100
AcDbEntity
  8
部品1
100
AcDbLine
 10
10024.67816614372
 20
9798.092956259605
 30
0.0
 11
10030.67816614372
 21
9798.092956259605
 31
0.0
  0
LINE
  5
15F12
330
747D
100
AcDbEntity
  8
部品1
100
AcDbLine
 10
10030.67816614372
 20
9798.092956259605
 30
0.0
 11
10030.67816614372
 21
9780.092956259606
 31
0.0
  0
LINE
  5
15F13
330
747D
100
AcDbEntity
  8
部品1
100
AcDbLine
 10
9960.67816614372
 20
9798.092956259605
 30
0.0
 11
9966.67816614372
 21
9798.092956259605
 31
0.0
  0
LINE
  5
15F14
330
747D
100
AcDbEntity
  8
部品1
100
AcDbLine
 10
9960.67816614372
 20
9798.092956259605
 30
0.0
 11
9960.67816614372
 21
9780.092956259606
 31
0.0
  0
LINE
  5
15F15
330
747D
100
AcDbEntity
  8
部品1
100
AcDbLine
 10
10862.17816614372
 20
9778.092956259598
 30
0.0
 11
10862.17816614372
 21
9328.092956259601
 31
0.0
  0
LINE
  5
15F16
330
747D
100
AcDbEntity
  8
部品1
100
AcDbLine
 10
10862.67816614372
 20
9333.092956259601
 30
0.0
 11
10890.67816614372
 21
9333.092956259601
 31
0.0
  0
LINE
  5
15F17
330
747D
100
AcDbEntity
  8
部品1
100
AcDbLine
 10
10862.67816614372
 20
9753.092956259601
 30
0.0
 11
10890.67816614372
 21
9753.092956259601
 31
0.0
  0
DIMENSION
  5
15F18
330
747D
100
AcDbEntity
  8
寸法
100
AcDbDimension
  2
*D21
 10
10890.67816614372
 20
10104.8999830678
 30
0.0
 11
11199.16344751796
 21
10104.8999830678
 31
0.0
 70
   160
 71
     5
 42
55.0
  3
INABA_S40G
100
AcDbAlignedDimension
 13
10835.67816614372
 23
9808.092956259599
 33
0.0
 14
10890.67816614372
 24
9808.092956259599
 34
0.0
100
AcDbRotatedDimension
1001
ACAD
1000
DSTYLE
1002
{
1002
}
  0
LINE
  5
15F19
330
747D
100
AcDbEntity
  8
部品1
100
AcDbLine
 10
9100.678166143721
 20
9808.092956259503
 30
0.0
 11
10890.67816614372
 21
9808.092956259599
 31
0.0
  0
DIMENSION
  5
15F1A
330
747D
100
AcDbEntity
  8
寸法
100
AcDbDimension
  2
*D22
 10
10835.67816614372
 20
10104.89998306782
 30
0.0
 11
9995.678166143719
 21
10104.89998306782
 31
0.0
 70
   160
  1
4X420=<>
 71
     5
 42
1680.0
  3
INABA_S40G
100
AcDbAlignedDimension
 13
9155.67816614372
 23
9808.092956259503
 33
0.0
 14
10835.67816614372
 24
9808.092956259599
 34
0.0
100
AcDbRotatedDimension
1001
ACAD
1000
DSTYLE
1002
{
1002
}
  0
LINE
  5
15F1B
330
747D
100
AcDbEntity
  8
破線
 48
5.0
100
AcDbLine
 10
10895.67816614371
 20
2429.781546153952
 30
0.0
 11
10895.67816614371
 21
2274.781546153952
 31
0.0
  0
LINE
  5
15F1C
330
747D
100
AcDbEntity
  8
破線
 48
5.0
100
AcDbLine
 10
9095.678166143713
 20
2429.781546153952
 30
0.0
 11
9095.678166143713
 21
2274.781546153952
 31
0.0
  0
DIMENSION
  5
15F1D
330
747D
100
AcDbEntity
  8
寸法
 48
50.0
100
AcDbDimension
  2
*D23
 10
9000.678166143712
 20
1943.734216853574
 30
0.0
 11
9100.678166143714
 21
1943.734216853574
 31
0.0
 70
   160
 71
     5
 42
200.0000000000018
  3
INABA_S40G
100
AcDbAlignedDimension
 13
9200.678166143715
 23
2229.781546153951
 33
0.0
 14
9000.678166143712
 24
2229.781546153951
 34
0.0
100
AcDbRotatedDimension
  0
TEXT
  5
15F1E
330
747D
100
AcDbEntity
  8
部品1
100
AcDbText
 10
9704.468236767446
 20
1547.849753958019
 30
0.0
 40
135.0
  1
正面図
  7
STYLE2
100
AcDbText
  0
LINE
  5
15F1F
330
747D
100
AcDbEntity
  8
部品1
 48
50.0
100
AcDbLine
 10
10834.1781661437
 20
8913.092956259601
 30
0.0
 11
9157.178166143705
 21
8913.092956259689
 31
0.0
  0
LINE
  5
15F20
330
747D
100
AcDbEntity
  8
部品1
100
AcDbLine
 10
9100.678166143714
 20
2579.781546153956
 30
0.0
 11
9128.678166143712
 21
2579.781546153956
 31
0.0
  0
LINE
  5
15F21
330
747D
100
AcDbEntity
  8
破線
 48
10.0
100
AcDbLine
 10
10020.67816614369
 20
8074.592956259539
 30
0.0
 11
10020.67816614369
 21
9328.092956259608
 31
0.0
  0
LINE
  5
15F22
330
747D
100
AcDbEntity
  8
破線
 48
10.0
100
AcDbLine
 10
9970.678166143693
 20
8074.592956259536
 30
0.0
 11
9970.678166143692
 21
9328.092956259608
 31
0.0
  0
DIMENSION
  5
15F23
330
747D
100
AcDbEntity
  8
寸法
100
AcDbDimension
  2
*D24
 10
9903.609392587302
 20
9034.870301458528
 30
0.0
 11
9508.525228261987
 21
9034.870301458528
 31
0.0
 70
   160
 71
     5
 42
853.0000000000109
  3
INABA_S40G
100
AcDbAlignedDimension
 13
9129.17816614372
 23
9328.092956259501
 33
0.0
 14
9982.178166143732
 24
9328.092956259496
 34
0.0
100
AcDbRotatedDimension
1001
ACAD
1000
DSTYLE
1002
{
1002
}
  0
LINE
  5
15F24
330
747D
100
AcDbEntity
  8
部品1
100
AcDbLine
 10
10834.17816614369
 20
8074.592956259584
 30
0.0
 11
9157.17816614361
 21
8074.592956259488
 31
0.0
  0
LINE
  5
15F25
330
747D
100
AcDbEntity
  8
破線
 48
10.0
100
AcDbLine
 10
10810.67816614369
 20
8098.092956259582
 30
0.0
 11
10020.67816614369
 21
8098.092956259538
 31
0.0
  0
LINE
  5
15F26
330
747D
100
AcDbEntity
  8
破線
 48
10.0
100
AcDbLine
 10
9970.678166143688
 20
8098.092956259533
 30
0.0
 11
9180.678166143701
 21
8098.092956259486
 31
0.0
  0
LINE
  5
15F27
330
747D
100
AcDbEntity
  8
部品1
100
AcDbLine
 10
10834.17816614371
 20
9328.092956259601
 30
0.0
 11
10834.17816614369
 21
8074.592956259584
 31
0.0
  0
LINE
  5
15F28
330
747D
100
AcDbEntity
  8
破線
 48
10.0
100
AcDbLine
 10
10810.67816614371
 20
9328.092956259601
 30
0.0
 11
10810.6781661437
 21
8098.092956259582
 31
0.0
  0
LINE
  5
15F29
330
747D
100
AcDbEntity
  8
部品1
 48
50.0
100
AcDbLine
 10
10834.17816614369
 20
8074.592956259584
 30
0.0
 11
10862.67816614369
 21
8046.092956259585
 31
0.0
  0
LINE
  5
15F2A
330
747D
100
AcDbEntity
  8
部品1
100
AcDbLine
 10
9157.178166143696
 20
9328.092956259601
 30
0.0
 11
9157.178166143708
 21
8074.592956259586
 31
0.0
  0
LINE
  5
15F2B
330
747D
100
AcDbEntity
  8
破線
 48
10.0
100
AcDbLine
 10
9180.678166143694
 20
9328.092956259601
 30
0.0
 11
9180.678166143708
 21
8098.092956259488
 31
0.0
  0
LINE
  5
15F2C
330
747D
100
AcDbEntity
  8
部品1
 48
50.0
100
AcDbLine
 10
9157.178166143706
 20
8074.592956259584
 30
0.0
 11
9128.678166143707
 21
8046.092956259585
 31
0.0
  0
LINE
  5
15F2D
330
747D
100
AcDbEntity
  8
部品1
100
AcDbLine
 10
10862.67816614372
 20
8073.092956259328
 30
0.0
 11
10890.67816614372
 21
8073.092956259328
 31
0.0
  0
LINE
  5
15F2E
330
747D
100
AcDbEntity
  8
部品1
100
AcDbLine
 10
9128.678166143687
 20
8073.092956259456
 30
0.0
 11
9100.678166143687
 21
8073.092956259456
 31
0.0
  0
LINE
  5
15F2F
330
747D
100
AcDbEntity
  8
部品1
 48
50.0
100
AcDbLine
 10
9100.678166143714
 20
8018.092956259424
 30
0.0
 11
9155.678166143683
 21
8018.09295625943
 31
0.0
  0
LINE
  5
15F30
330
747D
100
AcDbEntity
  8
部品1
 48
50.0
100
AcDbLine
 10
9128.678166143691
 20
8046.092956259426
 30
0.0
 11
10862.67816614369
 21
8046.092956259585
 31
0.0
  0
LINE
  5
15F31
330
747D
100
AcDbEntity
  8
部品1
 48
50.0
100
AcDbLine
 10
10835.67816614372
 20
8018.092956259584
 30
0.0
 11
10890.67816614369
 21
8018.092956259589
 31
0.0
  0
LINE
  5
15F32
330
747D
100
AcDbEntity
  8
部品1
100
AcDbLine
 10
10835.67816614371
 20
4669.781546153951
 30
0.0
 11
10835.67816614371
 21
4664.781546153952
 31
0.0
  0
LINE
  5
15F33
330
747D
100
AcDbEntity
  8
部品1
100
AcDbLine
 10
9155.678166143712
 20
4669.781546153948
 30
0.0
 11
9155.678166143712
 21
4664.781546153952
 31
0.0
  0
LINE
  5
15F34
330
747D
100
AcDbEntity
  8
部品1
 48
50.0
100
AcDbLine
 10
9155.678166143683
 20
8018.09295625943
 30
0.0
 11
9155.678166143687
 21
8046.092956259426
 31
0.0
  0
LINE
  5
15F35
330
747D
100
AcDbEntity
  8
部品1
 48
50.0
100
AcDbLine
 10
10835.67816614368
 20
8018.092956259584
 30
0.0
 11
10835.67816614368
 21
8046.092956259583
 31
0.0
  0
LINE
  5
15F36
330
747D
100
AcDbEntity
  8
部品1
 48
50.0
100
AcDbLine
 10
9128.678166143712
 20
2529.781546153952
 30
0.0
 11
10862.67816614371
 21
2529.781546153952
 31
0.0
  0
LINE
  5
15F37
330
747D
100
AcDbEntity
  8
部品1
100
AcDbLine
 10
10862.67816614371
 20
2579.781546153972
 30
0.0
 11
10890.67816614371
 21
2579.781546153972
 31
0.0
  0
LINE
  5
15F3C
330
747D
100
AcDbEntity
  8
部品1
100
AcDbLine
 10
9613.942833029492
 20
1740.743283176542
 30
0.0
 11
9613.942833029492
 21
1500.85096163101
 31
0.0
  0
LINE
  5
15F3D
330
747D
100
AcDbEntity
  8
部品1
100
AcDbLine
 10
9613.942833029492
 20
1500.85096163101
 30
0.0
 11
10377.41349925793
 21
1500.85096163101
 31
0.0
  0
LINE
  5
15F3E
330
747D
100
AcDbEntity
  8
部品1
100
AcDbLine
 10
10377.41349925793
 20
1500.85096163101
 30
0.0
 11
10377.41349925793
 21
1740.743283176542
 31
0.0
  0
LINE
  5
15F3F
330
747D
100
AcDbEntity
  8
部品1
100
AcDbLine
 10
10377.41349925793
 20
1740.743283176542
 30
0.0
 11
9613.942833029492
 21
1740.743283176542
 31
0.0
  0
TEXT
  5
15F40
330
747D
100
AcDbEntity
  8
文字
 62
     7
 48
50.0
100
AcDbText
 10
13248.77747366447
 20
8380.013745883728
 30
0.0
 40
100.0
  1
17
  7
STYLE1
100
AcDbText
  0
TEXT
  5
15F41
330
747D
100
AcDbEntity
  8
文字
 62
     7
 48
50.0
100
AcDbText
 10
13248.77747366447
 20
8550.013745883729
 30
0.0
 40
100.0
  1
16
  7
STYLE1
100
AcDbText
  0
TEXT
  5
15F42
330
747D
100
AcDbEntity
  8
文字
 62
     7
 48
50.0
100
AcDbText
 10
15022.63965474517
 20
9060.013745883725
 30
0.0
 40
100.0
  1
F12            1.0
  7
STYLE1
100
AcDbText
  0
TEXT
  5
15F43
330
747D
100
AcDbEntity
  8
文字
 62
     7
 48
50.0
100
AcDbText
 10
13583.11819016569
 20
9060.013745883733
 30
0.0
 40
100.0
  1
壁面扉枠左右
  7
STYLE1
100
AcDbText
  0
TEXT
  5
15F44
330
747D
100
AcDbEntity
  8
文字
 62
     7
 48
50.0
100
AcDbText
 10
15022.63965474517
 20
9230.013745883725
 30
0.0
 40
100.0
  1
F12            1.0
  7
STYLE1
100
AcDbText
  0
TEXT
  5
15F45
330
747D
100
AcDbEntity
  8
文字
 62
     7
 48
50.0
100
AcDbText
 10
15022.63965474515
 20
9400.013745883727
 30
0.0
 40
100.0
  1
F12            0.7
  7
STYLE1
100
AcDbText
  0
TEXT
  5
15F46
330
747D
100
AcDbEntity
  8
文字
 62
     7
 48
50.0
100
AcDbText
 10
13583.11819016569
 20
9230.013745883733
 30
0.0
 40
100.0
  1
壁面扉敷居
  7
STYLE1
100
AcDbText
  0
TEXT
  5
15F47
330
747D
100
AcDbEntity
  8
文字
 62
     7
 48
50.0
100
AcDbText
 10
13583.11819016569
 20
9400.013745883729
 30
0.0
 40
100.0
  1
壁面扉鴨居
  7
STYLE1
100
AcDbText
  0
LINE
  5
15F48
330
747D
100
AcDbEntity
  8
仕様書枠
 48
50.0
100
AcDbLine
 10
16307.19999999999
 20
8689.600000000003
 30
0.0
 11
13127.2
 21
8689.600000000005
 31
0.0
  0
LINE
  5
15F49
330
747D
100
AcDbEntity
  8
仕様書枠
 48
50.0
100
AcDbLine
 10
16307.19999999999
 20
8519.600000000004
 30
0.0
 11
13127.2
 21
8519.600000000005
 31
0.0
  0
TEXT
  5
15F4A
330
747D
100
AcDbEntity
  8
文字
 62
     7
 48
50.0
100
AcDbText
 10
13583.11819016569
 20
8380.013745883728
 30
0.0
 40
100.0
  1
アンカープレート
  7
STYLE1
100
AcDbText
  0
TEXT
  5
15F4B
330
747D
100
AcDbEntity
  8
文字
 62
     7
 48
50.0
100
AcDbText
 10
15022.63965474515
 20
8380.013745883724
 30
0.0
 40
100.0
  1
F12            2.3
  7
STYLE1
100
AcDbText
  0
LINE
  5
15F4C
330
747D
100
AcDbEntity
  8
仕様書枠
 48
50.0
100
AcDbLine
 10
16307.2
 20
10049.6
 30
0.0
 11
13127.2
 21
10049.6
 31
0.0
  0
LINE
  5
15F4D
330
747D
100
AcDbEntity
  8
仕様書枠
 48
50.0
100
AcDbLine
 10
16307.2
 20
11409.59999999999
 30
0.0
 11
13127.2
 21
11409.6
 31
0.0
  0
LINE
  5
15F4E
330
747D
100
AcDbEntity
  8
仕様書枠
 48
50.0
100
AcDbLine
 10
16307.19999999999
 20
8009.600000000004
 30
0.0
 11
16307.2
 21
11409.6
 31
0.0
  0
LINE
  5
15F4F
330
747D
100
AcDbEntity
  8
仕様書枠
 48
50.0
100
AcDbLine
 10
14785.2
 20
11409.59999999999
 30
0.0
 11
14785.2
 21
8349.600000000004
 31
0.0
  0
LINE
  5
15F50
330
747D
100
AcDbEntity
  8
仕様書枠
 48
50.0
100
AcDbLine
 10
13490.2
 20
11409.59999999999
 30
0.0
 11
13490.20000000001
 21
8349.600000000007
 31
0.0
  0
LINE
  5
15F51
330
747D
100
AcDbEntity
  8
仕様書枠
 48
50.0
100
AcDbLine
 10
16307.2
 20
11239.59999999999
 30
0.0
 11
13127.2
 21
11239.6
 31
0.0
  0
LINE
  5
15F52
330
747D
100
AcDbEntity
  8
仕様書枠
 48
50.0
100
AcDbLine
 10
16307.2
 20
10899.6
 30
0.0
 11
13127.2
 21
10899.6
 31
0.0
  0
LINE
  5
15F53
330
747D
100
AcDbEntity
  8
仕様書枠
 48
50.0
100
AcDbLine
 10
16307.2
 20
11069.59999999999
 30
0.0
 11
13127.2
 21
11069.6
 31
0.0
  0
LINE
  5
15F54
330
747D
100
AcDbEntity
  8
仕様書枠
 48
50.0
100
AcDbLine
 10
16307.19999999999
 20
10559.6
 30
0.0
 11
13127.2
 21
10559.6
 31
0.0
  0
LINE
  5
15F55
330
747D
100
AcDbEntity
  8
仕様書枠
 48
50.0
100
AcDbLine
 10
16307.19999999999
 20
10389.6
 30
0.0
 11
13127.2
 21
10389.6
 31
0.0
  0
LINE
  5
15F56
330
747D
100
AcDbEntity
  8
仕様書枠
 48
50.0
100
AcDbLine
 10
16307.19999999999
 20
10729.59999999999
 30
0.0
 11
13127.2
 21
10729.6
 31
0.0
  0
TEXT
  5
15F57
330
747D
100
AcDbEntity
  8
文字
 62
     7
 48
50.0
100
AcDbText
 10
13197.42518560407
 20
11270.01374588372
 30
0.0
 40
100.0
  1
品番
  7
STYLE1
100
AcDbText
  0
TEXT
  5
15F58
330
747D
100
AcDbEntity
  8
文字
 62
     7
 48
50.0
100
AcDbText
 10
13271.19032244792
 20
11100.01374588373
 30
0.0
 40
100.0
  1
1
  7
STYLE1
100
AcDbText
  0
TEXT
  5
15F59
330
747D
100
AcDbEntity
  8
文字
 62
     7
 48
50.0
100
AcDbText
 10
13271.19032244792
 20
10930.01374588373
 30
0.0
 40
100.0
  1
2
  7
STYLE1
100
AcDbText
  0
TEXT
  5
15F5A
330
747D
100
AcDbEntity
  8
文字
 62
     7
 48
50.0
100
AcDbText
 10
13271.19032244792
 20
10590.01374588373
 30
0.0
 40
100.0
  1
4
  7
STYLE1
100
AcDbText
  0
TEXT
  5
15F5B
330
747D
100
AcDbEntity
  8
文字
 62
     7
 48
50.0
100
AcDbText
 10
13271.19032244792
 20
10760.01374588373
 30
0.0
 40
100.0
  1
3
  7
STYLE1
100
AcDbText
  0
TEXT
  5
15F5C
330
747D
100
AcDbEntity
  8
文字
 62
     7
 48
50.0
100
AcDbText
 10
13732.03840939434
 20
11270.01374588372
 30
0.0
 40
100.0
  1
部　　品　　名
  7
STYLE1
100
AcDbText
  0
TEXT
  5
15F5D
330
747D
100
AcDbEntity
  8
文字
 62
     7
 48
50.0
100
AcDbText
 10
14859.79774614482
 20
11270.01374588372
 30
0.0
 40
100.0
  1
材料（材質）　　単位mm
  7
STYLE1
100
AcDbText
  0
TEXT
  5
15F5E
330
747D
100
AcDbEntity
  8
文字
 62
     7
 48
50.0
100
AcDbText
 10
13583.11819016569
 20
11100.01374588372
 30
0.0
 40
100.0
  1
土台枠
  7
STYLE1
100
AcDbText
  0
TEXT
  5
15F5F
330
747D
100
AcDbEntity
  8
文字
 62
     7
 48
50.0
100
AcDbText
 10
13583.1181901657
 20
10760.01374588372
 30
0.0
 40
100.0
  1
柱
  7
STYLE1
100
AcDbText
  0
TEXT
  5
15F60
330
747D
100
AcDbEntity
  8
文字
 62
     7
 48
50.0
100
AcDbText
 10
13583.11819016569
 20
10420.01374588373
 30
0.0
 40
100.0
  1
桁前後
  7
STYLE1
100
AcDbText
  0
TEXT
  5
15F61
330
747D
100
AcDbEntity
  8
文字
 62
     7
 48
50.0
100
AcDbText
 10
13271.19032244792
 20
10420.01374588372
 30
0.0
 40
100.0
  1
5
  7
STYLE1
100
AcDbText
  0
TEXT
  5
15F62
330
747D
100
AcDbEntity
  8
文字
 62
     7
 48
50.0
100
AcDbText
 10
13583.11819016569
 20
10250.01374588373
 30
0.0
 40
100.0
  1
妻板左右
  7
STYLE1
100
AcDbText
  0
TEXT
  5
15F63
330
747D
100
AcDbEntity
  8
文字
 62
     7
 48
50.0
100
AcDbText
 10
13248.77747366447
 20
9570.013745883727
 30
0.0
 40
100.0
  1
10
  7
STYLE1
100
AcDbText
  0
TEXT
  5
15F64
330
747D
100
AcDbEntity
  8
文字
 62
     7
 48
50.0
100
AcDbText
 10
13583.11819016568
 20
9570.013745883729
 30
0.0
 40
100.0
  1
壁パネル
  7
STYLE1
100
AcDbText
  0
TEXT
  5
15F65
330
747D
100
AcDbEntity
  8
文字
 62
     7
 48
50.0
100
AcDbText
 10
13583.11819016569
 20
9910.013745883727
 30
0.0
 40
100.0
  1
屋根パネル
  7
STYLE1
100
AcDbText
  0
TEXT
  5
15F66
330
747D
100
AcDbEntity
  8
文字
 62
     7
 48
50.0
100
AcDbText
 10
13583.11819016569
 20
10080.01374588372
 30
0.0
 40
100.0
  1
鼻隠シ前後
  7
STYLE1
100
AcDbText
  0
TEXT
  5
15F67
330
747D
100
AcDbEntity
  8
文字
 62
     7
 48
50.0
100
AcDbText
 10
13271.19032244792
 20
9910.01374588373
 30
0.0
 40
100.0
  1
8
  7
STYLE1
100
AcDbText
  0
TEXT
  5
15F68
330
747D
100
AcDbEntity
  8
文字
 62
     7
 48
50.0
100
AcDbText
 10
13271.19032244792
 20
9740.013745883729
 30
0.0
 40
100.0
  1
9
  7
STYLE1
100
AcDbText
  0
TEXT
  5
15F69
330
747D
100
AcDbEntity
  8
文字
 62
     7
 48
50.0
100
AcDbText
 10
13271.19032244792
 20
10080.01374588373
 30
0.0
 40
100.0
  1
7
  7
STYLE1
100
AcDbText
  0
TEXT
  5
15F6A
330
747D
100
AcDbEntity
  8
文字
 62
     7
 48
50.0
100
AcDbText
 10
13271.19032244792
 20
10250.01374588373
 30
0.0
 40
100.0
  1
6
  7
STYLE1
100
AcDbText
  0
LINE
  5
15F6B
330
747D
100
AcDbEntity
  8
仕様書枠
 48
50.0
100
AcDbLine
 10
16307.19999999999
 20
9709.6
 30
0.0
 11
13127.2
 21
9709.600000000001
 31
0.0
  0
LINE
  5
15F6C
330
747D
100
AcDbEntity
  8
仕様書枠
 48
50.0
100
AcDbLine
 10
16307.19999999999
 20
9369.599999999998
 30
0.0
 11
13127.2
 21
9369.600000000001
 31
0.0
  0
LINE
  5
15F6D
330
747D
100
AcDbEntity
  8
仕様書枠
 48
50.0
100
AcDbLine
 10
16307.19999999999
 20
9539.599999999998
 30
0.0
 11
13127.2
 21
9539.6
 31
0.0
  0
LINE
  5
15F6E
330
747D
100
AcDbEntity
  8
仕様書枠
 48
50.0
100
AcDbLine
 10
16307.2
 20
10219.6
 30
0.0
 11
13127.2
 21
10219.6
 31
0.0
  0
LINE
  5
15F6F
330
747D
100
AcDbEntity
  8
仕様書枠
 48
50.0
100
AcDbLine
 10
16307.2
 20
9879.599999999999
 30
0.0
 11
13127.2
 21
9879.600000000001
 31
0.0
  0
TEXT
  5
15F70
330
747D
100
AcDbEntity
  8
文字
 62
     7
 48
50.0
100
AcDbText
 10
13248.77747366447
 20
9400.013745883727
 30
0.0
 40
100.0
  1
11
  7
STYLE1
100
AcDbText
  0
LINE
  5
15F71
330
747D
100
AcDbEntity
  8
仕様書枠
 48
50.0
100
AcDbLine
 10
16307.19999999999
 20
9199.599999999998
 30
0.0
 11
13127.2
 21
9199.600000000001
 31
0.0
  0
LINE
  5
15F72
330
747D
100
AcDbEntity
  8
仕様書枠
 48
50.0
100
AcDbLine
 10
16307.19999999999
 20
8859.6
 30
0.0
 11
13127.2
 21
8859.600000000002
 31
0.0
  0
TEXT
  5
15F73
330
747D
100
AcDbEntity
  8
文字
 62
     7
 48
50.0
100
AcDbText
 10
13248.77747366448
 20
9060.013745883727
 30
0.0
 40
100.0
  1
13
  7
STYLE1
100
AcDbText
  0
TEXT
  5
15F74
330
747D
100
AcDbEntity
  8
文字
 62
     7
 48
50.0
100
AcDbText
 10
13248.77747366448
 20
9230.013745883727
 30
0.0
 40
100.0
  1
12
  7
STYLE1
100
AcDbText
  0
TEXT
  5
15F75
330
747D
100
AcDbEntity
  8
文字
 62
     7
 48
50.0
100
AcDbText
 10
15022.63965474517
 20
11100.01374588372
 30
0.0
 40
100.0
  1
F12            1.2
  7
STYLE1
100
AcDbText
  0
TEXT
  5
15F76
330
747D
100
AcDbEntity
  8
文字
 62
     7
 48
50.0
100
AcDbText
 10
15022.63965474518
 20
10760.01374588372
 30
0.0
 40
100.0
  1
F12            1.0
  7
STYLE1
100
AcDbText
  0
TEXT
  5
15F77
330
747D
100
AcDbEntity
  8
文字
 62
     7
 48
50.0
100
AcDbText
 10
15022.63965474516
 20
10420.01374588372
 30
0.0
 40
100.0
  1
Y10            1.0
  7
STYLE1
100
AcDbText
  0
TEXT
  5
15F78
330
747D
100
AcDbEntity
  8
文字
 62
     7
 48
50.0
100
AcDbText
 10
15022.63965474516
 20
10250.01374588372
 30
0.0
 40
100.0
  1
Y10            0.7
  7
STYLE1
100
AcDbText
  0
TEXT
  5
15F79
330
747D
100
AcDbEntity
  8
文字
 62
     7
 48
50.0
100
AcDbText
 10
15022.63965474516
 20
10080.01374588372
 30
0.0
 40
100.0
  1
Y10            0.7
  7
STYLE1
100
AcDbText
  0
TEXT
  5
15F7A
330
747D
100
AcDbEntity
  8
文字
 62
     7
 48
50.0
100
AcDbText
 10
15022.63965474517
 20
9910.013745883725
 30
0.0
 40
100.0
  1
Y10            0.5
  7
STYLE1
100
AcDbText
  0
TEXT
  5
15F7B
330
747D
100
AcDbEntity
  8
文字
 62
     7
 48
50.0
100
AcDbText
 10
15022.63965474515
 20
9570.013745883725
 30
0.0
 40
100.0
  1
F12            0.7
  7
STYLE1
100
AcDbText
  0
LINE
  5
15F7C
330
747D
100
AcDbEntity
  8
仕様書枠
 48
50.0
100
AcDbLine
 10
16307.19999999999
 20
8349.600000000004
 30
0.0
 11
13127.19999999999
 21
8349.600000000007
 31
0.0
  0
LINE
  5
15F7D
330
747D
100
AcDbEntity
  8
仕様書枠
 48
50.0
100
AcDbLine
 10
16307.19999999999
 20
8179.600000000004
 30
0.0
 11
13127.19999999999
 21
8179.600000000005
 31
0.0
  0
TEXT
  5
15F7E
330
747D
100
AcDbEntity
  8
文字
 62
     7
 48
50.0
100
AcDbText
 10
13229.83081656554
 20
8210.013745883733
 30
0.0
 40
100.0
  1
F12→溶融亜鉛めっき鋼板(JIS G 3302)
  7
STYLE1
100
AcDbText
  0
TEXT
  5
15F7F
330
747D
100
AcDbEntity
  8
文字
 62
     7
 48
50.0
100
AcDbText
 10
13229.83081656554
 20
8040.013745883731
 30
0.0
 40
100.0
  1
Y10→溶融亜鉛-5％アルミニウム合金めっき鋼板(JIS G 3317)
 41
0.9
  7
STYLE1
100
AcDbText
  0
LINE
  5
15F80
330
747D
100
AcDbEntity
  8
仕様書枠
 48
50.0
100
AcDbLine
 10
13127.2
 20
11409.6
 30
0.0
 11
13127.19999999999
 21
8009.600000000006
 31
0.0
  0
LINE
  5
15F81
330
747D
100
AcDbEntity
  8
仕様書枠
 48
50.0
100
AcDbLine
 10
16307.19999999999
 20
9029.6
 30
0.0
 11
13127.2
 21
9029.600000000002
 31
0.0
  0
TEXT
  5
15F82
330
747D
100
AcDbEntity
  8
文字
 62
     7
 48
50.0
100
AcDbText
 10
13583.1181901657
 20
10590.01374588372
 30
0.0
 40
100.0
  1
床パネル
 41
0.9
  7
STYLE1
100
AcDbText
  0
TEXT
  5
15F83
330
747D
100
AcDbEntity
  8
文字
 62
     7
 48
50.0
100
AcDbText
 10
13583.11819016569
 20
10930.01374588372
 30
0.0
 40
100.0
  1
根太
  7
STYLE1
100
AcDbText
  0
TEXT
  5
15F84
330
747D
100
AcDbEntity
  8
文字
 62
     7
 48
50.0
100
AcDbText
 10
13248.77747366448
 20
8890.013745883727
 30
0.0
 40
100.0
  1
14
  7
STYLE1
100
AcDbText
  0
TEXT
  5
15F85
330
747D
100
AcDbEntity
  8
文字
 62
     7
 48
50.0
100
AcDbText
 10
15022.63965474516
 20
10930.01374588372
 30
0.0
 40
100.0
  1
F12            1.2
  7
STYLE1
100
AcDbText
  0
TEXT
  5
15F86
330
747D
100
AcDbEntity
  8
文字
 62
     7
 48
50.0
100
AcDbText
 10
15022.63965474517
 20
10590.01374588372
 30
0.0
 40
100.0
  1
F12            1.0
  7
STYLE1
100
AcDbText
  0
TEXT
  5
15F87
330
747D
100
AcDbEntity
  8
文字
 62
     7
 48
50.0
100
AcDbText
 10
15022.63965474515
 20
8890.013745883727
 30
0.0
 40
100.0
  1
F12            0.7
  7
STYLE1
100
AcDbText
  0
TEXT
  5
15F88
330
747D
100
AcDbEntity
  8
文字
 62
     7
 48
50.0
100
AcDbText
 10
13583.11819016568
 20
8890.013745883731
 30
0.0
 40
100.0
  1
正面パネル
  7
STYLE1
100
AcDbText
  0
TEXT
  5
15F89
330
747D
100
AcDbEntity
  8
文字
 62
     7
 48
50.0
100
AcDbText
 10
15022.63965474516
 20
8720.013745883727
 30
0.0
 40
100.0
  1
F12            0.8
  7
STYLE1
100
AcDbText
  0
TEXT
  5
15F8A
330
747D
100
AcDbEntity
  8
文字
 62
     7
 48
50.0
100
AcDbText
 10
13583.11819016569
 20
8720.013745883731
 30
0.0
 40
100.0
  1
扉
  7
STYLE1
100
AcDbText
  0
LINE
  5
15F8B
330
747D
100
AcDbEntity
  8
仕様書枠
 48
50.0
100
AcDbLine
 10
16307.19999999999
 20
8009.600000000004
 30
0.0
 11
13127.19999999999
 21
8009.600000000006
 31
0.0
  0
TEXT
  5
15F8C
330
747D
100
AcDbEntity
  8
文字
 62
     7
 48
50.0
100
AcDbText
 10
13248.77747366447
 20
8720.013745883729
 30
0.0
 40
100.0
  1
15
  7
STYLE1
100
AcDbText
  0
TEXT
  5
15F8D
330
747D
100
AcDbEntity
  8
文字
 62
     7
 48
50.0
100
AcDbText
 10
13583.11819016569
 20
9740.013745883729
 30
0.0
 40
100.0
  1
母屋中
  7
STYLE1
100
AcDbText
  0
TEXT
  5
15F8E
330
747D
100
AcDbEntity
  8
文字
 62
     7
 48
50.0
100
AcDbText
 10
15022.63965474515
 20
9740.013745883723
 30
0.0
 40
100.0
  1
F12            1.0
  7
STYLE1
100
AcDbText
  0
TEXT
  5
15F8F
330
747D
100
AcDbEntity
  8
文字
 62
     7
 48
50.0
100
AcDbText
 10
15022.63965474516
 20
8550.013745883727
 30
0.0
 40
100.0
  1
F12            0.6
  7
STYLE1
100
AcDbText
  0
TEXT
  5
15F90
330
747D
100
AcDbEntity
  8
文字
 62
     7
 48
50.0
100
AcDbText
 10
13583.11819016569
 20
8550.013745883731
 30
0.0
 40
100.0
  1
棚板
  7
STYLE1
100
AcDbText
  0
TEXT
  5
15F91
330
747D
100
AcDbEntity
  8
文字
 62
     7
 48
50.0
100
AcDbText
 10
14491.96323844892
 20
483.8967129911416
 30
0.0
 40
160.0
  1
ＮＸＮ－３２ＨＡ
  7
STYLE2
100
AcDbText
  0
DIMENSION
  5
15F94
330
747D
100
AcDbEntity
  8
寸法
 48
50.0
100
AcDbDimension
  2
*D25
 10
9100.678166143714
 20
5303.874715493425
 30
0.0
 11
9995.678166143713
 21
5303.874715493425
 31
0.0
 70
   160
  1
柱外寸法<>
 71
     5
 42
1790.0
  3
INABA_S40G
100
AcDbAlignedDimension
 13
10890.67816614371
 23
4904.781546153958
 33
0.0
 14
9100.678166143714
 24
4904.781546153959
 34
0.0
100
AcDbRotatedDimension
  0
DIMENSION
  5
15F95
330
747D
100
AcDbEntity
  8
寸法
 48
50.0
100
AcDbDimension
  2
*D26
 10
9050.678166143713
 20
5303.874715493425
 30
0.0
 11
8737.192884769466
 21
5303.874715493425
 31
0.0
 70
   160
 71
     5
 42
50.0
  3
INABA_S40G
100
AcDbAlignedDimension
 13
9100.678166143714
 23
4904.781546153959
 33
0.0
 14
9050.678166143713
 24
4904.781546153958
 34
0.0
100
AcDbRotatedDimension
1001
ACAD
1000
DSTYLE
1002
{
1002
}
  0
DIMENSION
  5
15F96
330
747D
100
AcDbEntity
  8
寸法
 48
50.0
100
AcDbDimension
  2
*D27
 10
10940.67816614371
 20
5520.40081511187
 30
0.0
 11
9995.678166143713
 21
5520.40081511187
 31
0.0
 70
   160
 71
     5
 42
1890.0
  3
INABA_S40G
100
AcDbAlignedDimension
 13
9050.678166143713
 23
4904.781546153958
 33
0.0
 14
10940.67816614371
 24
4904.781546153955
 34
0.0
100
AcDbRotatedDimension
  0
LINE
  5
15F97
330
747D
100
AcDbEntity
  8
部品1
100
AcDbLine
 10
10263.67816614373
 20
4899.781546162421
 30
0.0
 11
10263.67816614373
 21
4802.370478653849
 31
0.0
  0
LINE
  5
15F98
330
747D
100
AcDbEntity
  8
部品1
100
AcDbLine
 10
10238.67816614373
 20
4899.781546162421
 30
0.0
 11
10238.67816614373
 21
4802.370478653849
 31
0.0
  0
LINE
  5
15F99
330
747D
100
AcDbEntity
  8
部品1
 48
50.0
100
AcDbLine
 10
10237.17816614372
 20
4899.781546162425
 30
0.0
 11
10265.17816614371
 21
4899.781546162425
 31
0.0
  0
LINE
  5
15F9A
330
747D
100
AcDbEntity
  8
部品1
 48
50.0
100
AcDbLine
 10
10265.17816614372
 20
4899.781546162425
 30
0.0
 11
10275.67816614372
 21
4880.381546162424
 31
0.0
  0
LINE
  5
15F9B
330
747D
100
AcDbEntity
  8
部品1
 48
50.0
100
AcDbLine
 10
10237.17816614372
 20
4899.781546162425
 30
0.0
 11
10226.67816614372
 21
4880.381546162424
 31
0.0
  0
LINE
  5
15F9C
330
747D
100
AcDbEntity
  8
部品1
 48
50.0
100
AcDbLine
 10
10164.17816614372
 20
4899.781546162425
 30
0.0
 11
10192.17816614371
 21
4899.781546162425
 31
0.0
  0
LINE
  5
15F9D
330
747D
100
AcDbEntity
  8
部品1
100
AcDbLine
 10
10165.67816614373
 20
4899.781546162421
 30
0.0
 11
10165.67816614373
 21
4802.370478653849
 31
0.0
  0
LINE
  5
15F9E
330
747D
100
AcDbEntity
  8
部品1
 48
50.0
100
AcDbLine
 10
10164.17816614372
 20
4899.781546162425
 30
0.0
 11
10153.67816614372
 21
4880.381546162424
 31
0.0
  0
LINE
  5
15F9F
330
747D
100
AcDbEntity
  8
部品1
100
AcDbLine
 10
10190.67816614372
 20
4899.781546162421
 30
0.0
 11
10190.67816614372
 21
4802.370478653849
 31
0.0
  0
LINE
  5
15FA0
330
747D
100
AcDbEntity
  8
部品1
 48
50.0
100
AcDbLine
 10
10192.17816614372
 20
4899.781546162425
 30
0.0
 11
10202.67816614372
 21
4880.381546162424
 31
0.0
  0
LINE
  5
15FA1
330
747D
100
AcDbEntity
  8
部品1
100
AcDbLine
 10
10004.67816614373
 20
4899.781546162414
 30
0.0
 11
10004.67816614373
 21
4802.370478653849
 31
0.0
  0
LINE
  5
15FA2
330
747D
100
AcDbEntity
  8
部品1
 48
50.0
100
AcDbLine
 10
10007.67816614372
 20
4899.781546162425
 30
0.0
 11
10010.17816614372
 21
4880.381546162424
 31
0.0
  0
LINE
  5
15FA3
330
747D
100
AcDbEntity
  8
部品1
100
AcDbLine
 10
9986.678166143727
 20
4899.781546162414
 30
0.0
 11
9986.678166143729
 21
4802.370478653849
 31
0.0
  0
LINE
  5
15FA4
330
747D
100
AcDbEntity
  8
部品1
 48
50.0
100
AcDbLine
 10
9968.466825937532
 20
4890.381546162423
 30
0.0
 11
9967.178166143719
 21
4880.381546162424
 31
0.0
  0
LINE
  5
15FA5
330
747D
100
AcDbEntity
  8
部品1
 48
50.0
100
AcDbLine
 10
9968.466825937532
 20
4890.381546162423
 30
0.0
 11
9982.466825937533
 21
4890.381546162423
 31
0.0
  0
LINE
  5
15FA6
330
747D
100
AcDbEntity
  8
部品1
 48
50.0
100
AcDbLine
 10
9983.67816614372
 20
4899.781546162425
 30
0.0
 11
9982.466825937533
 21
4890.381546162423
 31
0.0
  0
LINE
  5
15FA7
330
747D
100
AcDbEntity
  8
部品1
 48
50.0
100
AcDbLine
 10
10007.67816614372
 20
4899.781546162425
 30
0.0
 11
9983.67816614372
 21
4899.781546162425
 31
0.0
  0
LINE
  5
15FA8
330
747D
100
AcDbEntity
  8
部品1
100
AcDbLine
 10
10153.67816614371
 20
4880.38154616242
 30
0.0
 11
10010.17816614371
 21
4880.38154616242
 31
0.0
  0
LINE
  5
15FA9
330
747D
100
AcDbEntity
  8
部品1
100
AcDbLine
 10
9843.678166143728
 20
4899.781546162421
 30
0.0
 11
9843.67816614373
 21
4802.370478653849
 31
0.0
  0
LINE
  5
15FAA
330
747D
100
AcDbEntity
  8
部品1
 48
50.0
100
AcDbLine
 10
9845.178166143719
 20
4899.781546162425
 30
0.0
 11
9855.67816614372
 21
4880.381546162424
 31
0.0
  0
LINE
  5
15FAB
330
747D
100
AcDbEntity
  8
部品1
100
AcDbLine
 10
9745.678166143727
 20
4899.781546162421
 30
0.0
 11
9745.678166143727
 21
4802.370478653849
 31
0.0
  0
LINE
  5
15FAC
330
747D
100
AcDbEntity
  8
部品1
100
AcDbLine
 10
9770.678166143728
 20
4899.781546162421
 30
0.0
 11
9770.678166143728
 21
4802.370478653849
 31
0.0
  0
LINE
  5
15FAD
330
747D
100
AcDbEntity
  8
部品1
100
AcDbLine
 10
9818.678166143728
 20
4899.781546162421
 30
0.0
 11
9818.678166143728
 21
4802.370478653849
 31
0.0
  0
LINE
  5
15FAE
330
747D
100
AcDbEntity
  8
部品1
 48
50.0
100
AcDbLine
 10
9744.17816614372
 20
4899.781546162425
 30
0.0
 11
9733.67816614372
 21
4880.381546162424
 31
0.0
  0
LINE
  5
15FAF
330
747D
100
AcDbEntity
  8
部品1
100
AcDbLine
 10
9806.678166143717
 20
4880.38154616242
 30
0.0
 11
9782.678166143719
 21
4880.38154616242
 31
0.0
  0
LINE
  5
15FB0
330
747D
100
AcDbEntity
  8
部品1
 48
50.0
100
AcDbLine
 10
9772.178166143721
 20
4899.781546162425
 30
0.0
 11
9782.678166143719
 21
4880.381546162424
 31
0.0
  0
LINE
  5
15FB1
330
747D
100
AcDbEntity
  8
部品1
 48
50.0
100
AcDbLine
 10
9817.178166143719
 20
4899.781546162425
 30
0.0
 11
9806.67816614372
 21
4880.381546162424
 31
0.0
  0
LINE
  5
15FB2
330
747D
100
AcDbEntity
  8
部品1
 48
50.0
100
AcDbLine
 10
9744.17816614372
 20
4899.781546162425
 30
0.0
 11
9772.178166143717
 21
4899.781546162425
 31
0.0
  0
LINE
  5
15FB3
330
747D
100
AcDbEntity
  8
部品1
 48
50.0
100
AcDbLine
 10
9817.178166143719
 20
4899.781546162425
 30
0.0
 11
9845.178166143718
 21
4899.781546162425
 31
0.0
  0
LINE
  5
15FB4
330
747D
100
AcDbEntity
  8
部品1
100
AcDbLine
 10
9584.678166143728
 20
4899.781546162414
 30
0.0
 11
9584.67816614373
 21
4802.370478653849
 31
0.0
  0
LINE
  5
15FB5
330
747D
100
AcDbEntity
  8
部品1
100
AcDbLine
 10
9566.678166143727
 20
4899.781546162414
 30
0.0
 11
9566.678166143729
 21
4802.370478653849
 31
0.0
  0
LINE
  5
15FB6
330
747D
100
AcDbEntity
  8
部品1
 48
50.0
100
AcDbLine
 10
9587.678166143721
 20
4899.781546162425
 30
0.0
 11
9563.67816614372
 21
4899.781546162425
 31
0.0
  0
LINE
  5
15FB7
330
747D
100
AcDbEntity
  8
部品1
 48
50.0
100
AcDbLine
 10
9563.67816614372
 20
4899.781546162425
 30
0.0
 11
9562.466825937532
 21
4890.381546162423
 31
0.0
  0
LINE
  5
15FB8
330
747D
100
AcDbEntity
  8
部品1
 48
50.0
100
AcDbLine
 10
9587.678166143721
 20
4899.781546162425
 30
0.0
 11
9590.17816614372
 21
4880.381546162424
 31
0.0
  0
LINE
  5
15FB9
330
747D
100
AcDbEntity
  8
部品1
100
AcDbLine
 10
9733.678166143716
 20
4880.38154616242
 30
0.0
 11
9590.178166143717
 21
4880.38154616242
 31
0.0
  0
LINE
  5
15FBA
330
747D
100
AcDbEntity
  8
部品1
100
AcDbLine
 10
9967.178166143719
 20
4880.38154616242
 30
0.0
 11
9855.67816614372
 21
4880.38154616242
 31
0.0
  0
LINE
  5
15FBB
330
747D
100
AcDbEntity
  8
部品1
100
AcDbLine
 10
10226.67816614371
 20
4880.38154616242
 30
0.0
 11
10202.67816614372
 21
4880.38154616242
 31
0.0
  0
LINE
  5
15FBC
330
747D
100
AcDbEntity
  8
部品1
100
AcDbLine
 10
9547.178166143721
 20
4880.38154616242
 30
0.0
 11
9435.67816614372
 21
4880.38154616242
 31
0.0
  0
LINE
  5
15FBD
330
747D
100
AcDbEntity
  8
部品1
100
AcDbLine
 10
9398.678166143728
 20
4899.781546162421
 30
0.0
 11
9398.678166143728
 21
4802.370478653849
 31
0.0
  0
LINE
  5
15FBE
330
747D
100
AcDbEntity
  8
部品1
100
AcDbLine
 10
9423.678166143728
 20
4899.781546162421
 30
0.0
 11
9423.678166143728
 21
4802.370478653849
 31
0.0
  0
LINE
  5
15FBF
330
747D
100
AcDbEntity
  8
部品1
 48
50.0
100
AcDbLine
 10
9425.178166143721
 20
4899.781546162425
 30
0.0
 11
9435.67816614372
 21
4880.381546162424
 31
0.0
  0
LINE
  5
15FC0
330
747D
100
AcDbEntity
  8
部品1
 48
50.0
100
AcDbLine
 10
9397.178166143721
 20
4899.781546162425
 30
0.0
 11
9425.178166143716
 21
4899.781546162425
 31
0.0
  0
LINE
  5
15FC1
330
747D
100
AcDbEntity
  8
部品1
 48
50.0
100
AcDbLine
 10
9548.466825937532
 20
4890.381546162423
 30
0.0
 11
9547.178166143721
 21
4880.381546162424
 31
0.0
  0
LINE
  5
15FC2
330
747D
100
AcDbEntity
  8
部品1
100
AcDbLine
 10
9386.678166143715
 20
4880.38154616242
 30
0.0
 11
9362.678166143721
 21
4880.381546162424
 31
0.0
  0
LINE
  5
15FC3
330
747D
100
AcDbEntity
  8
部品1
100
AcDbLine
 10
9350.678166143728
 20
4899.781546162421
 30
0.0
 11
9350.678166143728
 21
4802.370478653849
 31
0.0
  0
LINE
  5
15FC4
330
747D
100
AcDbEntity
  8
部品1
 48
50.0
100
AcDbLine
 10
9352.178166143721
 20
4899.781546162425
 30
0.0
 11
9362.678166143721
 21
4880.381546162424
 31
0.0
  0
LINE
  5
15FC5
330
747D
100
AcDbEntity
  8
部品1
100
AcDbLine
 10
9325.678166143728
 20
4899.781546162421
 30
0.0
 11
9325.678166143726
 21
4802.370478653849
 31
0.0
  0
LINE
  5
15FC6
330
747D
100
AcDbEntity
  8
部品1
 48
50.0
100
AcDbLine
 10
9324.17816614372
 20
4899.781546162425
 30
0.0
 11
9313.67816614372
 21
4880.381546162424
 31
0.0
  0
LINE
  5
15FC7
330
747D
100
AcDbEntity
  8
部品1
 48
50.0
100
AcDbLine
 10
9324.17816614372
 20
4899.781546162425
 30
0.0
 11
9352.178166143715
 21
4899.781546162425
 31
0.0
  0
LINE
  5
15FC8
330
747D
100
AcDbEntity
  8
部品1
 48
50.0
100
AcDbLine
 10
9397.178166143721
 20
4899.781546162425
 30
0.0
 11
9386.67816614372
 21
4880.381546162424
 31
0.0
  0
LINE
  5
15FC9
330
747D
100
AcDbEntity
  8
部品1
100
AcDbLine
 10
9164.678166143728
 20
4899.781546162414
 30
0.0
 11
9164.678166143728
 21
4802.370478653849
 31
0.0
  0
LINE
  5
15FCA
330
747D
100
AcDbEntity
  8
部品1
100
AcDbLine
 10
9146.678166143727
 20
4899.781546162425
 30
0.0
 11
9146.678166143729
 21
4802.370478653849
 31
0.0
  0
LINE
  5
15FCB
330
747D
100
AcDbEntity
  8
部品1
 48
50.0
100
AcDbLine
 10
9167.678166143721
 20
4899.781546162425
 30
0.0
 11
9170.178166143719
 21
4880.381546162424
 31
0.0
  0
LINE
  5
15FCC
330
747D
100
AcDbEntity
  8
部品1
100
AcDbLine
 10
9127.178166143719
 20
4880.381546162424
 30
0.0
 11
9100.678166143721
 21
4880.381546162424
 31
0.0
  0
LINE
  5
15FCD
330
747D
100
AcDbEntity
  8
部品1
 48
50.0
100
AcDbLine
 10
9128.466825937533
 20
4890.381546162423
 30
0.0
 11
9142.466825937532
 21
4890.381546162423
 31
0.0
  0
LINE
  5
15FCE
330
747D
100
AcDbEntity
  8
部品1
 48
50.0
100
AcDbLine
 10
9128.466825937533
 20
4890.381546162423
 30
0.0
 11
9127.178166143719
 21
4880.381546162424
 31
0.0
  0
LINE
  5
15FCF
330
747D
100
AcDbEntity
  8
部品1
 48
50.0
100
AcDbLine
 10
9143.67816614372
 20
4899.781546162425
 30
0.0
 11
9142.466825937532
 21
4890.381546162423
 31
0.0
  0
LINE
  5
15FD0
330
747D
100
AcDbEntity
  8
部品1
 48
50.0
100
AcDbLine
 10
9167.678166143721
 20
4899.781546162425
 30
0.0
 11
9143.67816614372
 21
4899.781546162425
 31
0.0
  0
LINE
  5
15FD1
330
747D
100
AcDbEntity
  8
部品1
100
AcDbLine
 10
9313.67816614372
 20
4880.38154616242
 30
0.0
 11
9170.178166143719
 21
4880.381546162424
 31
0.0
  0
LINE
  5
15FD2
330
747D
100
AcDbEntity
  8
部品1
 48
50.0
100
AcDbLine
 10
9548.466825937532
 20
4890.381546162423
 30
0.0
 11
9562.466825937532
 21
4890.381546162423
 31
0.0
  0
LINE
  5
15FD3
330
747D
100
AcDbEntity
  8
部品1
100
AcDbLine
 10
10895.74850353685
 20
4904.781546162407
 30
0.0
 11
9075.110326524628
 21
4904.781546162425
 31
0.0
  0
LINE
  5
15FD4
330
747D
100
AcDbEntity
  8
部品1
100
AcDbLine
 10
10387.17816614371
 20
4880.381546162405
 30
0.0
 11
10275.67816614372
 21
4880.381546162405
 31
0.0
  0
LINE
  5
15FD5
330
747D
100
AcDbEntity
  8
部品1
 48
50.0
100
AcDbLine
 10
9095.607538150515
 20
4849.781546153952
 30
0.0
 11
9057.664209960931
 21
4849.781546153952
 31
0.0
  0
ARC
  5
15FD6
330
747D
100
AcDbEntity
  8
部品1
100
AcDbCircle
 10
9052.637308584008
 20
4822.451663474542
 30
0.0
 40
0.7
100
AcDbArc
 50
183.6186294801377
 51
262.7131594833544
  0
ARC
  5
15FD7
330
747D
100
AcDbEntity
  8
部品1
100
AcDbCircle
 10
9052.168012458812
 20
4818.781546153952
 30
0.0
 40
3.0
100
AcDbArc
 50
3.618629480137788
 51
90.0
  0
LINE
  5
15FD8
330
747D
100
AcDbEntity
  8
部品1
100
AcDbLine
 10
9055.162031237619
 20
4818.970891215063
 30
0.0
 11
9059.909124249777
 21
4743.907482960281
 31
0.0
  0
ARC
  5
15FD9
330
747D
100
AcDbEntity
  8
部品1
100
AcDbCircle
 10
9060.6077286315
 20
4743.951663474542
 30
0.0
 40
0.7
100
AcDbArc
 50
183.6186294801377
 51
262.7131594833544
  0
ARC
  5
15FDA
330
747D
100
AcDbEntity
  8
部品1
100
AcDbCircle
 10
9060.138432506304
 20
4740.281546153952
 30
0.0
 40
3.0
100
AcDbArc
 50
3.618629480137788
 51
90.0
  0
ARC
  5
15FDB
330
747D
100
AcDbEntity
  8
部品1
100
AcDbCircle
 10
9070.790820806903
 20
4730.281546153952
 30
0.0
 40
7.0
100
AcDbArc
 50
183.6186294801377
 51
270.0
  0
ARC
  5
15FDC
330
747D
100
AcDbEntity
  8
部品1
100
AcDbCircle
 10
9057.664209960931
 20
4842.781546153952
 30
0.0
 40
7.0
100
AcDbArc
 50
90.0
 51
183.6186294801377
  0
LINE
  5
15FDD
330
747D
100
AcDbEntity
  8
部品1
100
AcDbLine
 10
9063.804776989691
 20
4729.839741011363
 30
0.0
 11
9063.13245128511
 21
4740.470891215063
 31
0.0
  0
LINE
  5
15FDE
330
747D
100
AcDbEntity
  8
部品1
100
AcDbLine
 10
9051.938704202287
 20
4822.407482960281
 30
0.0
 11
9050.67816614372
 21
4842.339741011363
 31
0.0
  0
LINE
  5
15FDF
330
747D
100
AcDbEntity
  8
部品1
100
AcDbLine
 10
9095.607538150515
 20
4849.781546153952
 30
0.0
 11
9057.664209960931
 21
4849.781546153952
 31
0.0
  0
ARC
  5
15FE0
330
747D
100
AcDbEntity
  8
部品1
100
AcDbCircle
 10
9095.607538150515
 20
4844.781546153952
 30
0.0
 40
5.0
100
AcDbArc
 50
0.0
 51
90.0
  0
LINE
  5
15FE1
330
747D
100
AcDbEntity
  8
部品1
100
AcDbLine
 10
9100.607538150514
 20
4899.78154617085
 30
0.0
 11
9100.607538150512
 21
4802.377517481282
 31
0.0
  0
LINE
  5
15FE2
330
747D
100
AcDbEntity
  8
部品1
100
AcDbLine
 10
10920.56551148052
 20
4723.281546153952
 30
0.0
 11
9070.790820806903
 21
4723.281546153952
 31
0.0
  0
LINE
  5
15FE3
330
747D
100
AcDbEntity
  8
部品1
 48
50.0
100
AcDbLine
 10
9050.67816614372
 20
4842.339741011363
 30
0.0
 11
9050.67816614372
 21
4897.339741028261
 31
0.0
  0
ARC
  5
15FE4
330
747D
100
AcDbEntity
  8
部品1
100
AcDbCircle
 10
9095.607538150515
 20
4899.78154617085
 30
0.0
 40
5.0
100
AcDbArc
 50
0.0
 51
90.0
  0
LINE
  5
15FE5
330
747D
100
AcDbEntity
  8
部品1
100
AcDbLine
 10
9095.607538150515
 20
4904.781546170851
 30
0.0
 11
9057.664209960931
 21
4904.781546170851
 31
0.0
  0
ARC
  5
15FE6
330
747D
100
AcDbEntity
  8
部品1
100
AcDbCircle
 10
9057.664209960931
 20
4897.78154617085
 30
0.0
 40
7.0
100
AcDbArc
 50
90.0
 51
183.6186294801377
  0
LINE
  5
15FE7
330
747D
100
AcDbEntity
  8
細線
 48
50.0
100
AcDbLine
 10
10931.45652381677
 20
4744.054788717738
 30
0.0
 11
9060.561757776239
 21
4744.054788717738
 31
0.0
  0
LINE
  5
15FE8
330
747D
100
AcDbEntity
  8
細線
 48
50.0
100
AcDbLine
 10
9083.167076239437
 20
4849.781546153952
 30
0.0
 11
9083.167076239437
 21
4723.281546153952
 31
0.0
  0
LINE
  5
15FE9
330
747D
100
AcDbEntity
  8
細線
 48
50.0
100
AcDbLine
 10
9100.607538150512
 20
4821.753378901902
 30
0.0
 11
9052.544296866567
 21
4821.75337890191
 31
0.0
  0
LINE
  5
15FEA
330
747D
100
AcDbEntity
  8
部品1
100
AcDbLine
 10
10406.67816614371
 20
4899.781546162414
 30
0.0
 11
10406.67816614371
 21
4802.370478653849
 31
0.0
  0
LINE
  5
15FEB
330
747D
100
AcDbEntity
  8
部品1
100
AcDbLine
 10
10424.67816614371
 20
4899.781546162425
 30
0.0
 11
10424.67816614371
 21
4802.370478653849
 31
0.0
  0
LINE
  5
15FEC
330
747D
100
AcDbEntity
  8
部品1
 48
50.0
100
AcDbLine
 10
10403.67816614372
 20
4899.781546162425
 30
0.0
 11
10427.67816614372
 21
4899.781546162425
 31
0.0
  0
LINE
  5
15FED
330
747D
100
AcDbEntity
  8
部品1
 48
50.0
100
AcDbLine
 10
10403.67816614372
 20
4899.781546162425
 30
0.0
 11
10402.46682593753
 21
4890.381546162423
 31
0.0
  0
LINE
  5
15FEE
330
747D
100
AcDbEntity
  8
部品1
 48
50.0
100
AcDbLine
 10
10388.46682593753
 20
4890.381546162423
 30
0.0
 11
10402.46682593753
 21
4890.381546162423
 31
0.0
  0
LINE
  5
15FEF
330
747D
100
AcDbEntity
  8
部品1
 48
50.0
100
AcDbLine
 10
10388.46682593753
 20
4890.381546162423
 30
0.0
 11
10387.17816614372
 21
4880.381546162424
 31
0.0
  0
LINE
  5
15FF0
330
747D
100
AcDbEntity
  8
部品1
 48
50.0
100
AcDbLine
 10
10427.67816614372
 20
4899.781546162425
 30
0.0
 11
10430.17816614372
 21
4880.381546162424
 31
0.0
  0
LINE
  5
15FF1
330
747D
100
AcDbEntity
  8
部品1
 48
50.0
100
AcDbLine
 10
9083.167076239439
 20
4802.370478653849
 30
0.0
 11
10908.18925604799
 21
4802.370478653849
 31
0.0
  0
DIMENSION
  5
15FF2
330
747D
100
AcDbEntity
  8
寸法
 48
50.0
100
AcDbDimension
  2
*D28
 10
8813.758722332815
 20
2587.781546153952
 30
0.0
 11
8813.758722332815
 21
3581.314970085732
 31
0.0
 70
   160
  1
有効開口部高サ<>
 71
     5
 42
2025.0
  3
INABA_S40G
100
AcDbAlignedDimension
 13
9128.678166143728
 23
4612.781546153952
 33
0.0
 14
9128.678166143728
 24
2587.781546153952
 34
0.0
 50
90.0
100
AcDbRotatedDimension
1001
ACAD
1000
DSTYLE
1002
{
1070
   341
1005
0
1002
}
  0
DIMENSION
  5
15FF3
330
747D
100
AcDbEntity
  8
寸法
 48
50.0
100
AcDbDimension
  2
*D29
 10
10890.67816614371
 20
5303.874715493425
 30
0.0
 11
11254.16344751795
 21
5303.874715493425
 31
0.0
 70
   160
 71
     5
 42
50.0
  3
INABA_S40G
100
AcDbAlignedDimension
 13
10940.67816614371
 23
4904.781546153955
 33
0.0
 14
10890.67816614371
 24
4904.781546153958
 34
0.0
100
AcDbRotatedDimension
  0
LINE
  5
15FF4
330
747D
100
AcDbEntity
  8
部品1
100
AcDbLine
 10
10826.67816614369
 20
4899.781546162414
 30
0.0
 11
10826.67816614369
 21
4802.370478653849
 31
0.0
  0
LINE
  5
15FF5
330
747D
100
AcDbEntity
  8
部品1
100
AcDbLine
 10
10844.67816614369
 20
4899.781546162425
 30
0.0
 11
10844.67816614369
 21
4802.370478653849
 31
0.0
  0
LINE
  5
15FF6
330
747D
100
AcDbEntity
  8
部品1
 48
50.0
100
AcDbLine
 10
10823.6781661437
 20
4899.781546162425
 30
0.0
 11
10847.6781661437
 21
4899.781546162425
 31
0.0
  0
LINE
  5
15FF7
330
747D
100
AcDbEntity
  8
部品1
 48
50.0
100
AcDbLine
 10
10895.74879413691
 20
4849.781546153952
 30
0.0
 11
10933.69212232649
 21
4849.781546153952
 31
0.0
  0
ARC
  5
15FF8
330
747D
100
AcDbEntity
  8
部品1
100
AcDbCircle
 10
10938.71902370341
 20
4822.451663474542
 30
0.0
 40
0.7
100
AcDbArc
 50
277.2868405166456
 51
356.3813705198622
  0
ARC
  5
15FF9
330
747D
100
AcDbEntity
  8
部品1
100
AcDbCircle
 10
10939.18831982861
 20
4818.781546153952
 30
0.0
 40
3.0
100
AcDbArc
 50
90.0
 51
176.3813705198622
  0
LINE
  5
15FFA
330
747D
100
AcDbEntity
  8
部品1
100
AcDbLine
 10
10936.19430104981
 20
4818.970891215063
 30
0.0
 11
10931.44720803765
 21
4743.907482960281
 31
0.0
  0
ARC
  5
15FFB
330
747D
100
AcDbEntity
  8
部品1
100
AcDbCircle
 10
10930.74860365592
 20
4743.951663474542
 30
0.0
 40
0.7
100
AcDbArc
 50
277.2868405166456
 51
356.3813705198622
  0
ARC
  5
15FFC
330
747D
100
AcDbEntity
  8
部品1
100
AcDbCircle
 10
10931.21789978112
 20
4740.281546153952
 30
0.0
 40
3.0
100
AcDbArc
 50
90.0
 51
176.3813705198622
  0
ARC
  5
15FFD
330
747D
100
AcDbEntity
  8
部品1
100
AcDbCircle
 10
10920.56551148052
 20
4730.281546153952
 30
0.0
 40
7.0
100
AcDbArc
 50
270.0
 51
356.3813705198622
  0
ARC
  5
15FFE
330
747D
100
AcDbEntity
  8
部品1
100
AcDbCircle
 10
10933.69212232649
 20
4842.781546153952
 30
0.0
 40
7.0
100
AcDbArc
 50
356.3813705198622
 51
90.0
  0
LINE
  5
15FFF
330
747D
100
AcDbEntity
  8
部品1
100
AcDbLine
 10
10927.55155529773
 20
4729.839741011363
 30
0.0
 11
10928.22388100231
 21
4740.470891215063
 31
0.0
  0
LINE
  5
16000
330
747D
100
AcDbEntity
  8
部品1
100
AcDbLine
 10
10939.41762808514
 20
4822.407482960281
 30
0.0
 11
10940.6781661437
 21
4842.339741011363
 31
0.0
  0
LINE
  5
16001
330
747D
100
AcDbEntity
  8
部品1
100
AcDbLine
 10
10895.74879413691
 20
4849.781546153952
 30
0.0
 11
10933.69212232649
 21
4849.781546153952
 31
0.0
  0
ARC
  5
16002
330
747D
100
AcDbEntity
  8
部品1
100
AcDbCircle
 10
10895.74879413691
 20
4844.781546153952
 30
0.0
 40
5.0
100
AcDbArc
 50
90.0
 51
180.0
  0
LINE
  5
16003
330
747D
100
AcDbEntity
  8
部品1
100
AcDbLine
 10
10890.74879413691
 20
4899.78154617085
 30
0.0
 11
10890.74879413691
 21
4802.370478653849
 31
0.0
  0
LINE
  5
16004
330
747D
100
AcDbEntity
  8
部品1
 48
50.0
100
AcDbLine
 10
10940.6781661437
 20
4842.339741011363
 30
0.0
 11
10940.6781661437
 21
4897.339741028261
 31
0.0
  0
ARC
  5
16005
330
747D
100
AcDbEntity
  8
部品1
100
AcDbCircle
 10
10895.74879413691
 20
4899.78154617085
 30
0.0
 40
5.0
100
AcDbArc
 50
90.0
 51
180.0
  0
LINE
  5
16006
330
747D
100
AcDbEntity
  8
部品1
100
AcDbLine
 10
10895.74879413691
 20
4904.781546170851
 30
0.0
 11
10933.69212232649
 21
4904.781546170851
 31
0.0
  0
ARC
  5
16007
330
747D
100
AcDbEntity
  8
部品1
100
AcDbCircle
 10
10933.69212232649
 20
4897.78154617085
 30
0.0
 40
7.0
100
AcDbArc
 50
356.3813705198622
 51
90.0
  0
LINE
  5
16008
330
747D
100
AcDbEntity
  8
細線
 48
50.0
100
AcDbLine
 10
10908.18925604799
 20
4849.781546153952
 30
0.0
 11
10908.18925604798
 21
4723.281546153952
 31
0.0
  0
LINE
  5
16009
330
747D
100
AcDbEntity
  8
細線
 48
50.0
100
AcDbLine
 10
10890.74879413691
 20
4821.753378901902
 30
0.0
 11
10938.81203542085
 21
4821.75337890191
 31
0.0
  0
LINE
  5
1600A
330
747D
100
AcDbEntity
  8
部品1
 48
50.0
100
AcDbLine
 10
10823.6781661437
 20
4899.781546162425
 30
0.0
 11
10822.46682593751
 21
4890.381546162423
 31
0.0
  0
LINE
  5
1600B
330
747D
100
AcDbEntity
  8
部品1
 48
50.0
100
AcDbLine
 10
10808.46682593751
 20
4890.381546162423
 30
0.0
 11
10822.46682593751
 21
4890.381546162423
 31
0.0
  0
LINE
  5
1600C
330
747D
100
AcDbEntity
  8
部品1
 48
50.0
100
AcDbLine
 10
10808.46682593751
 20
4890.381546162423
 30
0.0
 11
10807.1781661437
 21
4880.381546162424
 31
0.0
  0
LINE
  5
1600D
330
747D
100
AcDbEntity
  8
部品1
 48
50.0
100
AcDbLine
 10
10847.6781661437
 20
4899.781546162425
 30
0.0
 11
10850.1781661437
 21
4880.381546162424
 31
0.0
  0
LINE
  5
1600E
330
747D
100
AcDbEntity
  8
部品1
100
AcDbLine
 10
10890.74879413691
 20
4880.38154616242
 30
0.0
 11
10850.1781661437
 21
4880.38154616242
 31
0.0
  0
LINE
  5
1600F
330
747D
100
AcDbEntity
  8
部品1
100
AcDbLine
 10
10646.67816614372
 20
4880.381546162424
 30
0.0
 11
10622.67816614372
 21
4880.381546162424
 31
0.0
  0
LINE
  5
16010
330
747D
100
AcDbEntity
  8
部品1
 48
50.0
100
AcDbLine
 10
10612.17816614372
 20
4899.781546162429
 30
0.0
 11
10622.67816614372
 21
4880.381546162428
 31
0.0
  0
LINE
  5
16011
330
747D
100
AcDbEntity
  8
部品1
 48
50.0
100
AcDbLine
 10
10584.17816614372
 20
4899.781546162429
 30
0.0
 11
10573.67816614372
 21
4880.381546162428
 31
0.0
  0
LINE
  5
16012
330
747D
100
AcDbEntity
  8
部品1
 48
50.0
100
AcDbLine
 10
10584.17816614372
 20
4899.781546162429
 30
0.0
 11
10612.17816614371
 21
4899.781546162429
 31
0.0
  0
LINE
  5
16013
330
747D
100
AcDbEntity
  8
部品1
 48
50.0
100
AcDbLine
 10
10657.17816614372
 20
4899.781546162429
 30
0.0
 11
10646.67816614372
 21
4880.381546162428
 31
0.0
  0
LINE
  5
16014
330
747D
100
AcDbEntity
  8
部品1
 48
50.0
100
AcDbLine
 10
10685.17816614372
 20
4899.781546162429
 30
0.0
 11
10695.67816614372
 21
4880.381546162428
 31
0.0
  0
LINE
  5
16015
330
747D
100
AcDbEntity
  8
部品1
 48
50.0
100
AcDbLine
 10
10657.17816614372
 20
4899.781546162429
 30
0.0
 11
10685.17816614372
 21
4899.781546162429
 31
0.0
  0
LINE
  5
16016
330
747D
100
AcDbEntity
  8
部品1
100
AcDbLine
 10
10807.17816614372
 20
4880.381546162409
 30
0.0
 11
10695.67816614373
 21
4880.381546162409
 31
0.0
  0
LINE
  5
16017
330
747D
100
AcDbEntity
  8
部品1
100
AcDbLine
 10
10573.67816614372
 20
4880.381546162424
 30
0.0
 11
10430.17816614371
 21
4880.381546162424
 31
0.0
  0
LINE
  5
16018
330
747D
100
AcDbEntity
  8
部品1
100
AcDbLine
 10
10610.67816614373
 20
4899.781546162425
 30
0.0
 11
10610.67816614373
 21
4802.370478653853
 31
0.0
  0
LINE
  5
16019
330
747D
100
AcDbEntity
  8
部品1
100
AcDbLine
 10
10585.67816614373
 20
4899.781546162425
 30
0.0
 11
10585.67816614373
 21
4802.370478653853
 31
0.0
  0
LINE
  5
1601A
330
747D
100
AcDbEntity
  8
部品1
100
AcDbLine
 10
10658.67816614373
 20
4899.781546162425
 30
0.0
 11
10658.67816614373
 21
4802.370478653853
 31
0.0
  0
LINE
  5
1601B
330
747D
100
AcDbEntity
  8
部品1
100
AcDbLine
 10
10683.67816614373
 20
4899.781546162425
 30
0.0
 11
10683.67816614373
 21
4802.370478653853
 31
0.0
  0
LINE
  5
160DA
330
747D
100
AcDbEntity
  8
部品1
 48
50.0
100
AcDbLine
 10
10862.67816614371
 20
4620.781546153952
 30
0.0
 11
10832.67816614371
 21
4620.781546153952
 31
0.0
  0
LINE
  5
160DB
330
747D
100
AcDbEntity
  8
部品1
 48
50.0
100
AcDbLine
 10
9158.678166143713
 20
4620.781546153952
 30
0.0
 11
9128.678166143711
 21
4620.781546153952
 31
0.0
  0
LINE
  5
160DC
330
747D
100
AcDbEntity
  8
細線
 48
50.0
100
AcDbLine
 10
10832.67816614371
 20
4622.281546153952
 30
0.0
 11
9158.678166143713
 21
4622.281546153952
 31
0.0
  0
LINE
  5
160DD
330
747D
100
AcDbEntity
  8
細線
 48
50.0
100
AcDbLine
 10
10832.67816614371
 20
4612.781546153952
 30
0.0
 11
9158.678166143713
 21
4612.781546153952
 31
0.0
  0
LINE
  5
160DE
330
747D
100
AcDbEntity
  8
細線
 48
50.0
100
AcDbLine
 10
10862.67816614371
 20
4654.781546153952
 30
0.0
 11
9128.678166143711
 21
4654.781546153952
 31
0.0
  0
LINE
  5
160DF
330
747D
100
AcDbEntity
  8
部品1
 48
50.0
100
AcDbLine
 10
10862.67816614371
 20
4664.781546153952
 30
0.0
 11
9128.678166143711
 21
4664.781546153952
 31
0.0
  0
LINE
  5
160E0
330
747D
100
AcDbEntity
  8
細線
 48
50.0
100
AcDbLine
 10
10810.67816614371
 20
2576.781546153953
 30
0.0
 11
10806.67816614371
 21
2587.281546153952
 31
0.0
  0
LINE
  5
160E1
330
747D
100
AcDbEntity
  8
部品1
 48
50.0
100
AcDbLine
 10
9167.678166143714
 20
2579.781546153952
 30
0.0
 11
9167.678166143714
 21
2576.781546153953
 31
0.0
  0
LINE
  5
160E2
330
747D
100
AcDbEntity
  8
部品1
 48
50.0
100
AcDbLine
 10
9158.678166143713
 20
2579.781546153952
 30
0.0
 11
9797.178166143716
 21
2579.781546153952
 31
0.0
  0
LINE
  5
160E3
330
747D
100
AcDbEntity
  8
部品1
 48
50.0
100
AcDbLine
 10
9128.678166143711
 20
2529.781546153952
 30
0.0
 11
10862.67816614371
 21
2529.781546153952
 31
0.0
  0
LINE
  5
160E4
330
747D
100
AcDbEntity
  8
細線
 48
50.0
100
AcDbLine
 10
9158.678166143713
 20
2572.781546153952
 30
0.0
 11
10832.67816614371
 21
2572.781546153952
 31
0.0
  0
LINE
  5
160E5
330
747D
100
AcDbEntity
  8
細線
 48
50.0
100
AcDbLine
 10
9158.678166143713
 20
2576.781546153953
 30
0.0
 11
10832.67816614371
 21
2576.781546153953
 31
0.0
  0
LINE
  5
160E6
330
747D
100
AcDbEntity
  8
細線
 48
50.0
100
AcDbLine
 10
9797.178166143716
 20
2587.281546153952
 30
0.0
 11
10806.67816614371
 21
2587.281546153952
 31
0.0
  0
LINE
  5
160E7
330
747D
100
AcDbEntity
  8
部品1
 48
50.0
100
AcDbLine
 10
10862.67816614371
 20
2529.781546153952
 30
0.0
 11
10862.67816614371
 21
4664.781546153952
 31
0.0
  0
LINE
  5
160E8
330
747D
100
AcDbEntity
  8
細線
 48
50.0
100
AcDbLine
 10
10832.67816614371
 20
2529.781546153952
 30
0.0
 11
10832.67816614371
 21
4622.281546153952
 31
0.0
  0
LINE
  5
160E9
330
747D
100
AcDbEntity
  8
部品1
 48
50.0
100
AcDbLine
 10
10823.67816614371
 20
2576.781546153953
 30
0.0
 11
10823.67816614371
 21
4612.781546153952
 31
0.0
  0
LINE
  5
160EA
330
747D
100
AcDbEntity
  8
部品1
 48
50.0
100
AcDbLine
 10
9158.678166143713
 20
2579.781546153952
 30
0.0
 11
9158.678166143713
 21
4612.781546153952
 31
0.0
  0
LINE
  5
160EB
330
747D
100
AcDbEntity
  8
細線
 48
50.0
100
AcDbLine
 10
9158.678166143713
 20
4622.281546153952
 30
0.0
 11
9158.678166143712
 21
2529.781546153952
 31
0.0
  0
LINE
  5
160EC
330
747D
100
AcDbEntity
  8
部品1
 48
50.0
100
AcDbLine
 10
9128.678166143711
 20
4664.781546153952
 30
0.0
 11
9128.678166143711
 21
2529.781546153952
 31
0.0
  0
LINE
  5
160ED
330
747D
100
AcDbEntity
  8
部品1
 48
50.0
100
AcDbLine
 10
9797.178166143721
 20
4612.781546153952
 30
0.0
 11
9797.178166143716
 21
2579.781546153952
 31
0.0
  0
LINE
  5
160EE
330
747D
100
AcDbEntity
  8
部品1
 48
50.0
100
AcDbLine
 10
10289.17816614371
 20
4612.781546153952
 30
0.0
 11
10289.17816614371
 21
2587.281546153952
 31
0.0
  0
LINE
  5
160EF
330
747D
100
AcDbEntity
  8
細線
100
AcDbLine
 10
9678.678157958296
 20
4612.781546153945
 30
0.0
 11
9678.678157958296
 21
2579.781546153949
 31
0.0
  0
LINE
  5
160F0
330
747D
100
AcDbEntity
  8
細線
100
AcDbLine
 10
9608.678157958298
 20
4612.781546153945
 30
0.0
 11
9608.678157958298
 21
2579.781546153949
 31
0.0
  0
LINE
  5
160F1
330
747D
100
AcDbEntity
  8
細線
100
AcDbLine
 10
9538.678157958297
 20
4612.781546153945
 30
0.0
 11
9538.678157958297
 21
2579.781546153949
 31
0.0
  0
LINE
  5
160F2
330
747D
100
AcDbEntity
  8
部品1
100
AcDbLine
 10
9328.678166143715
 20
4612.781546153945
 30
0.0
 11
9328.678166143715
 21
2579.781546153952
 31
0.0
  0
LINE
  5
160F3
330
747D
100
AcDbEntity
  8
部品1
100
AcDbLine
 10
9278.678166143714
 20
4612.781546153945
 30
0.0
 11
9278.678166143714
 21
2579.781546153952
 31
0.0
  0
LINE
  5
160F4
330
747D
100
AcDbEntity
  8
細線
100
AcDbLine
 10
9320.678166143714
 20
4612.781546153945
 30
0.0
 11
9320.678166143714
 21
2579.781546153952
 31
0.0
  0
LINE
  5
160F5
330
747D
100
AcDbEntity
  8
細線
100
AcDbLine
 10
9286.678166143714
 20
4612.781546153945
 30
0.0
 11
9286.678166143714
 21
2579.781546153952
 31
0.0
  0
LINE
  5
160F6
330
747D
100
AcDbEntity
  8
細線
100
AcDbLine
 10
10197.67816614371
 20
4612.781546153945
 30
0.0
 11
10197.67816614371
 21
2587.28154615396
 31
0.0
  0
LINE
  5
160F7
330
747D
100
AcDbEntity
  8
細線
100
AcDbLine
 10
10127.67816614371
 20
4612.781546153945
 30
0.0
 11
10127.67816614371
 21
2587.28154615396
 31
0.0
  0
LINE
  5
160F8
330
747D
100
AcDbEntity
  8
細線
100
AcDbLine
 10
10057.67816614371
 20
4612.781546153945
 30
0.0
 11
10057.67816614371
 21
2587.28154615396
 31
0.0
  0
LINE
  5
160F9
330
747D
100
AcDbEntity
  8
細線
100
AcDbLine
 10
9987.678166143712
 20
4612.781546153945
 30
0.0
 11
9987.678166143716
 21
2587.28154615396
 31
0.0
  0
LINE
  5
160FA
330
747D
100
AcDbEntity
  8
細線
100
AcDbLine
 10
10715.67816614371
 20
4612.781546153934
 30
0.0
 11
10715.67816614371
 21
2587.281546153952
 31
0.0
  0
LINE
  5
160FB
330
747D
100
AcDbEntity
  8
細線
100
AcDbLine
 10
10645.67816614371
 20
4612.781546153934
 30
0.0
 11
10645.67816614371
 21
2587.281546153952
 31
0.0
  0
LINE
  5
160FC
330
747D
100
AcDbEntity
  8
細線
100
AcDbLine
 10
10575.67816614371
 20
4612.781546153934
 30
0.0
 11
10575.67816614371
 21
2587.281546153952
 31
0.0
  0
LINE
  5
160FD
330
747D
100
AcDbEntity
  8
細線
100
AcDbLine
 10
9468.678157958297
 20
4612.781546153945
 30
0.0
 11
9468.678157958297
 21
2579.781546153949
 31
0.0
  0
LINE
  5
160FE
330
747D
100
AcDbEntity
  8
細線
100
AcDbLine
 10
9917.678166143714
 20
4612.781546153945
 30
0.0
 11
9917.678166143716
 21
2587.28154615396
 31
0.0
  0
LINE
  5
160FF
330
747D
100
AcDbEntity
  8
細線
100
AcDbLine
 10
9847.678166143714
 20
4612.781546153945
 30
0.0
 11
9847.678166143715
 21
2587.28154615396
 31
0.0
  0
LINE
  5
16100
330
747D
100
AcDbEntity
  8
細線
100
AcDbLine
 10
10505.67816614371
 20
4612.781546153934
 30
0.0
 11
10505.67816614371
 21
2587.281546153952
 31
0.0
  0
LINE
  5
16101
330
747D
100
AcDbEntity
  8
細線
100
AcDbLine
 10
10365.67820146261
 20
4612.781546153934
 30
0.0
 11
10365.67820146261
 21
2587.281546153952
 31
0.0
  0
LINE
  5
16102
330
747D
100
AcDbEntity
  8
細線
100
AcDbLine
 10
10435.67820146261
 20
4612.781546153934
 30
0.0
 11
10435.67820146261
 21
2587.281546153952
 31
0.0
  0
MTEXT
  5
16103
330
747D
100
AcDbEntity
  8
寸法
 62
     7
 48
50.0
100
AcDbMText
 10
10450.78070323685
 20
9394.327774456908
 30
0.0
 40
96.0
 41
0.0
 71
     5
 72
     1
  1
棚 3段
  7
STYLE1
 73
     1
 44
1.0
1001
ACAD
1000
MTEXTBEGIN
1070
    73
1070
     1
1070
    44
1040
1.0
1070
    74
1070
     0
1000
MTEXTEND
  0
LINE
  5
163C5
330
747D
100
AcDbEntity
  8
補助
  6
PHANTOM
 62
   230
 48
50.0
100
AcDbLine
 10
140.0
 20
0.0
 30
0.0
 11
140.0
 21
11409.6
 31
0.0
  0
MTEXT
  5
164F2
330
747D
100
AcDbEntity
  8
寸法
 62
     7
 48
50.0
100
AcDbMText
 10
9570.780703236858
 20
9394.32777445686
 30
0.0
 40
96.0
 41
0.0
 71
     5
 72
     1
  1
棚 3段
  7
STYLE1
 73
     1
 44
1.0
1001
ACAD
1000
MTEXTBEGIN
1070
    73
1070
     1
1070
    44
1040
1.0
1070
    74
1070
     0
1000
MTEXTEND
  0
LINE
  5
165B2
330
747D
100
AcDbEntity
  8
部品1
 48
50.0
100
AcDbLine
 10
9202.678166143714
 20
3661.281546153946
 30
0.0
 11
9255.678166143715
 21
3661.281546153946
 31
0.0
  0
LINE
  5
1692C
330
747D
100
AcDbEntity
  8
細線
 48
50.0
100
AcDbLine
 10
9678.678166143683
 20
7946.093130436385
 30
0.0
 11
9797.178166143682
 21
7946.093130436385
 31
0.0
  0
LINE
  5
1692D
330
747D
100
AcDbEntity
  8
細線
 48
50.0
100
AcDbLine
 10
9767.178166143686
 20
7963.243130436385
 30
0.0
 11
9767.178166143686
 21
7968.093130436386
 31
0.0
  0
LINE
  5
1692E
330
747D
100
AcDbEntity
  8
細線
 48
50.0
100
AcDbLine
 10
9767.178166143686
 20
7968.093130436386
 30
0.0
 11
9782.178166143687
 21
7968.093130436386
 31
0.0
  0
LINE
  5
1692F
330
747D
100
AcDbEntity
  8
細線
 48
50.0
100
AcDbLine
 10
9782.178166143687
 20
7968.093130436386
 30
0.0
 11
9782.178166143687
 21
7975.093130436386
 31
0.0
  0
LINE
  5
16930
330
747D
100
AcDbEntity
  8
細線
 48
50.0
100
AcDbLine
 10
9782.178166143687
 20
7975.093130436386
 30
0.0
 11
9797.178166143686
 21
7975.093130436386
 31
0.0
  0
LINE
  5
16931
330
747D
100
AcDbEntity
  8
細線
 48
50.0
100
AcDbLine
 10
9797.178166143686
 20
7975.093130436386
 30
0.0
 11
9797.178166143686
 21
7946.093130436387
 31
0.0
  0
LINE
  5
16932
330
747D
100
AcDbEntity
  8
細線
 48
50.0
100
AcDbLine
 10
9786.178166143685
 20
7997.589324701891
 30
0.0
 11
9786.178166143685
 21
8002.089324701891
 31
0.0
  0
LINE
  5
16933
330
747D
100
AcDbEntity
  8
細線
 48
50.0
100
AcDbLine
 10
9786.178166143685
 20
8002.089324701891
 30
0.0
 11
9771.178166143686
 21
8002.089324701891
 31
0.0
  0
LINE
  5
16934
330
747D
100
AcDbEntity
  8
細線
 48
50.0
100
AcDbLine
 10
9771.178166143686
 20
8002.089324701891
 30
0.0
 11
9771.178166143686
 21
8009.089324701893
 31
0.0
  0
LINE
  5
16935
330
747D
100
AcDbEntity
  8
細線
 48
50.0
100
AcDbLine
 10
9771.178166143686
 20
8009.089324701893
 30
0.0
 11
9756.178166143687
 21
8009.089324701887
 31
0.0
  0
LINE
  5
16936
330
747D
100
AcDbEntity
  8
細線
 48
50.0
100
AcDbLine
 10
9756.178166143687
 20
8009.089324701887
 30
0.0
 11
9756.178166143687
 21
7971.489096598779
 31
0.0
  0
LINE
  5
16937
330
747D
100
AcDbEntity
  8
細線
 48
50.0
100
AcDbLine
 10
9756.178166143687
 20
7971.489096598779
 30
0.0
 11
9776.178173444861
 21
7971.48913814832
 31
0.0
  0
LINE
  5
16938
330
747D
100
AcDbEntity
  8
細線
 48
50.0
100
AcDbLine
 10
9776.178128575921
 20
7980.092599784128
 30
0.0
 11
9776.178173444861
 21
7971.48913814832
 31
0.0
  0
LINE
  5
16939
330
747D
100
AcDbEntity
  8
細線
 48
50.0
100
AcDbLine
 10
9776.178128575921
 20
7980.092599784128
 30
0.0
 11
9787.410817930629
 21
7980.092782737274
 31
0.0
  0
ARC
  5
1693A
330
747D
100
AcDbEntity
  8
細線
 48
50.0
100
AcDbCircle
 10
9793.993110237966
 20
7978.892946650887
 30
0.0
 40
1.8
100
AcDbArc
 50
270.0006665777295
 51
345.0005554812987
  0
LINE
  5
1693B
330
747D
100
AcDbEntity
  8
細線
 48
50.0
100
AcDbLine
 10
9795.979543684046
 20
7979.351787108166
 30
0.0
 11
9795.731781241848
 21
7978.427089226059
 31
0.0
  0
LINE
  5
1693C
330
747D
100
AcDbEntity
  8
細線
 48
50.0
100
AcDbLine
 10
9793.993131179121
 20
7977.092946651008
 30
0.0
 11
9790.363203760353
 21
7977.092904420527
 31
0.0
  0
ARC
  5
1693D
330
747D
100
AcDbEntity
  8
細線
 48
50.0
100
AcDbCircle
 10
9790.363182819199
 20
7978.892904420407
 30
0.0
 40
1.8
100
AcDbArc
 50
195.0010443049394
 51
270.0006665777295
  0
LINE
  5
1693E
330
747D
100
AcDbEntity
  8
細線
 48
50.0
100
AcDbLine
 10
9788.376755326941
 20
7979.351619387971
 30
0.0
 11
9788.624524823454
 21
7978.426998449389
 31
0.0
  0
ARC
  5
1693F
330
747D
100
AcDbEntity
  8
細線
 48
50.0
100
AcDbCircle
 10
9787.410834218194
 20
7979.092782737409
 30
0.0
 40
1.0
100
AcDbArc
 50
15.00104430493943
 51
90.00093320877969
  0
LINE
  5
16940
330
747D
100
AcDbEntity
  8
細線
 48
50.0
100
AcDbLine
 10
9796.945465039151
 20
7980.09297742768
 30
0.0
 11
9797.887225190054
 21
7980.092984001529
 31
0.0
  0
ARC
  5
16941
330
747D
100
AcDbEntity
  8
細線
 48
50.0
100
AcDbCircle
 10
9796.945472019535
 20
7979.092977427704
 30
0.0
 40
1.0
100
AcDbArc
 50
90.0003999466794
 51
165.0005554812987
  0
LINE
  5
16942
330
747D
100
AcDbEntity
  8
細線
 48
50.0
100
AcDbLine
 10
10833.17816614368
 20
8039.092956259434
 30
0.0
 11
10833.17816614368
 21
8014.09295625943
 31
0.0
  0
LINE
  5
16943
330
747D
100
AcDbEntity
  8
細線
100
AcDbLine
 10
10823.67816614368
 20
8014.09295625943
 30
0.0
 11
10715.67816614368
 21
8014.09295625943
 31
0.0
  0
LINE
  5
16944
330
747D
100
AcDbEntity
  8
細線
 48
50.0
100
AcDbLine
 10
10248.17817129459
 20
8006.092956259434
 30
0.0
 11
10248.17817129459
 21
8044.092956259426
 31
0.0
  0
LINE
  5
16945
330
747D
100
AcDbEntity
  8
細線
 48
50.0
100
AcDbLine
 10
10248.17817129459
 20
8044.092956259426
 30
0.0
 11
10263.17817129459
 21
8044.092956259431
 31
0.0
  0
LINE
  5
16946
330
747D
100
AcDbEntity
  8
細線
 48
50.0
100
AcDbLine
 10
10263.17817129459
 20
8044.092956259431
 30
0.0
 11
10263.17817129459
 21
8039.09295625943
 31
0.0
  0
LINE
  5
16947
330
747D
100
AcDbEntity
  8
細線
 48
50.0
100
AcDbLine
 10
10248.17817129459
 20
8006.092956259434
 30
0.0
 11
10268.17817129459
 21
8006.092956259429
 31
0.0
  0
LINE
  5
16948
330
747D
100
AcDbEntity
  8
細線
 48
50.0
100
AcDbLine
 10
10268.17817129459
 20
8006.092956259429
 30
0.0
 11
10268.17817129459
 21
8014.09295625943
 31
0.0
  0
LINE
  5
16949
330
747D
100
AcDbEntity
  8
細線
100
AcDbLine
 10
10505.67816614368
 20
8014.09295625943
 30
0.0
 11
10435.67816614368
 21
8014.09295625943
 31
0.0
  0
LINE
  5
1694A
330
747D
100
AcDbEntity
  8
細線
 48
50.0
100
AcDbLine
 10
10365.67816614368
 20
8014.09295625943
 30
0.0
 11
10280.97395086743
 21
8014.09295625943
 31
0.0
  0
LINE
  5
1694B
330
747D
100
AcDbEntity
  8
細線
100
AcDbLine
 10
10645.67816614368
 20
8014.09295625943
 30
0.0
 11
10575.67816614368
 21
8014.09295625943
 31
0.0
  0
LINE
  5
1694C
330
747D
100
AcDbEntity
  8
細線
100
AcDbLine
 10
10473.67816614368
 20
8014.09295625943
 30
0.0
 11
10473.67816614368
 21
8043.392956259429
 31
0.0
  0
LINE
  5
1694D
330
747D
100
AcDbEntity
  8
細線
100
AcDbLine
 10
10453.67816614368
 20
8043.392956259429
 30
0.0
 11
10473.67816614368
 21
8043.392956259429
 31
0.0
  0
LINE
  5
1694E
330
747D
100
AcDbEntity
  8
細線
100
AcDbLine
 10
10453.67816614368
 20
8014.09295625943
 30
0.0
 11
10453.67816614368
 21
8043.392956259429
 31
0.0
  0
LINE
  5
1694F
330
747D
100
AcDbEntity
  8
細線
 48
50.0
100
AcDbLine
 10
10817.27816614368
 20
8039.09295625943
 30
0.0
 11
10807.27816614368
 21
8044.092956259431
 31
0.0
  0
LINE
  5
16950
330
747D
100
AcDbEntity
  8
細線
 48
50.0
100
AcDbLine
 10
10833.17816614368
 20
8039.092956259434
 30
0.0
 11
10817.27816614368
 21
8039.09295625943
 31
0.0
  0
LINE
  5
16951
330
747D
100
AcDbEntity
  8
細線
 48
50.0
100
AcDbLine
 10
10807.27816614369
 20
8044.092956259429
 30
0.0
 11
10263.17817129459
 21
8044.092956259426
 31
0.0
  0
LINE
  5
16952
330
747D
100
AcDbEntity
  8
細線
 48
50.0
100
AcDbLine
 10
10274.17817129459
 20
8013.292956259432
 30
0.0
 11
10274.17817129459
 21
8011.792956259432
 31
0.0
  0
LINE
  5
16953
330
747D
100
AcDbEntity
  8
細線
 48
50.0
100
AcDbLine
 10
10274.87817129459
 20
8011.09295625943
 30
0.0
 11
10279.47817129459
 21
8011.09295625943
 31
0.0
  0
LINE
  5
16954
330
747D
100
AcDbEntity
  8
細線
 48
50.0
100
AcDbLine
 10
10280.17817129459
 20
8011.792956259432
 30
0.0
 11
10280.1781781197
 21
8013.292971150919
 31
0.0
  0
ARC
  5
16955
330
747D
100
AcDbEntity
  8
細線
 48
50.0
100
AcDbCircle
 10
10279.47817129459
 20
8011.792956259432
 30
0.0
 40
0.7
100
AcDbArc
 50
270.0
 51
0.0
  0
ARC
  5
16956
330
747D
100
AcDbEntity
  8
細線
 48
50.0
100
AcDbCircle
 10
10274.87817129459
 20
8011.792956259432
 30
0.0
 40
0.7
100
AcDbArc
 50
180.0
 51
270.0
  0
LINE
  5
16957
330
747D
100
AcDbEntity
  8
細線
 48
50.0
100
AcDbLine
 10
10273.37817315603
 20
8014.09295625943
 30
0.0
 11
10268.17817129459
 21
8014.09295625943
 31
0.0
  0
ARC
  5
16958
330
747D
100
AcDbEntity
  8
細線
 48
50.0
100
AcDbCircle
 10
10280.97817811969
 20
8013.292967428048
 30
0.0
 40
0.8
100
AcDbArc
 50
90.00014387753465
 51
179.9997333689498
  0
ARC
  5
16959
330
747D
100
AcDbEntity
  8
細線
 48
50.0
100
AcDbCircle
 10
10273.3781712946
 20
8013.292956259432
 30
0.0
 40
0.8
100
AcDbArc
 50
359.9997333689499
 51
89.99986668437072
  0
LINE
  5
1695A
330
747D
100
AcDbEntity
  8
細線
 48
50.0
100
AcDbLine
 10
9987.678130824789
 20
7980.092968122017
 30
0.0
 11
9917.678113536915
 21
7980.092968122024
 31
0.0
  0
LINE
  5
1695B
330
747D
100
AcDbEntity
  8
細線
 48
50.0
100
AcDbLine
 10
9847.678166143683
 20
7980.092976309386
 30
0.0
 11
9797.887225190054
 21
7980.092984001529
 31
0.0
  0
LINE
  5
1695C
330
747D
100
AcDbEntity
  8
細線
 48
50.0
100
AcDbLine
 10
10197.67815790692
 20
7980.092968122021
 30
0.0
 11
10289.17816614368
 21
7980.092968122021
 31
0.0
  0
LINE
  5
1695D
330
747D
100
AcDbEntity
  8
細線
 48
50.0
100
AcDbLine
 10
10127.67816614368
 20
7980.092965372015
 30
0.0
 11
10057.67841004068
 21
7980.092970872049
 31
0.0
  0
LINE
  5
1695E
330
747D
100
AcDbEntity
  8
細線
 48
50.0
100
AcDbLine
 10
10289.1781764455
 20
8009.093174294294
 30
0.0
 11
10289.17816614368
 21
7980.092968122021
 31
0.0
  0
LINE
  5
1695F
330
747D
100
AcDbEntity
  8
細線
 48
50.0
100
AcDbLine
 10
10274.17817827497
 20
8009.093174294294
 30
0.0
 11
10289.1781764455
 21
8009.093174294294
 31
0.0
  0
LINE
  5
16960
330
747D
100
AcDbEntity
  8
細線
 48
50.0
100
AcDbLine
 10
10274.178166641
 20
8002.09317429425
 30
0.0
 11
10274.17817827497
 21
8009.093174294294
 31
0.0
  0
LINE
  5
16961
330
747D
100
AcDbEntity
  8
細線
 48
50.0
100
AcDbLine
 10
10259.178166641
 20
8002.09317429425
 30
0.0
 11
10274.178166641
 21
8002.09317429425
 31
0.0
  0
LINE
  5
16962
330
747D
100
AcDbEntity
  8
細線
 48
50.0
100
AcDbLine
 10
10259.178166641
 20
7997.243174294252
 30
0.0
 11
10259.178166641
 21
8002.09317429425
 31
0.0
  0
LINE
  5
16963
330
747D
100
AcDbEntity
  8
細線
 48
50.0
100
AcDbLine
 10
10259.178166641
 20
8000.693174294253
 30
0.0
 11
9786.178166143685
 21
8000.693174294248
 31
0.0
  0
LINE
  5
16964
330
747D
100
AcDbEntity
  8
細線
 48
50.0
100
AcDbLine
 10
9767.178166143686
 20
7966.693130436384
 30
0.0
 11
9181.678170797274
 21
7966.693130436384
 31
0.0
  0
LINE
  5
16965
330
747D
100
AcDbEntity
  8
細線
 48
50.0
100
AcDbLine
 10
9590.061257814378
 20
7964.363981726879
 30
0.0
 11
9595.816775397047
 21
7946.093130436385
 31
0.0
  0
LINE
  5
16966
330
747D
100
AcDbEntity
  8
細線
 48
50.0
100
AcDbLine
 10
9579.132809333946
 20
7964.363981726875
 30
0.0
 11
9590.061257814378
 21
7964.363981726879
 31
0.0
  0
ARC
  5
16967
330
747D
100
AcDbEntity
  8
細線
 48
50.0
100
AcDbCircle
 10
9573.678453276626
 20
7965.863981726875
 30
0.0
 40
5.0
100
AcDbArc
 50
204.6243183521304
 51
335.3756816478695
  0
ARC
  5
16968
330
747D
100
AcDbEntity
  8
細線
 48
50.0
100
AcDbCircle
 10
9579.132809333946
 20
7963.363981726875
 30
0.0
 40
1.0
100
AcDbArc
 50
90.0
 51
155.3756816478695
  0
ARC
  5
16969
330
747D
100
AcDbEntity
  8
細線
 48
50.0
100
AcDbCircle
 10
9568.22409721931
 20
7963.363981726875
 30
0.0
 40
1.0
100
AcDbArc
 50
24.62431835213048
 51
90.0
  0
LINE
  5
1696A
330
747D
100
AcDbEntity
  8
細線
 48
50.0
100
AcDbLine
 10
9557.295648738877
 20
7964.363981726879
 30
0.0
 11
9568.22409721931
 21
7964.363981726875
 31
0.0
  0
LINE
  5
1696B
330
747D
100
AcDbEntity
  8
細線
 48
50.0
100
AcDbLine
 10
9551.540131156208
 20
7946.093130436385
 30
0.0
 11
9557.295648738877
 21
7964.363981726879
 31
0.0
  0
LINE
  5
1696C
330
747D
100
AcDbEntity
  8
細線
 48
50.0
100
AcDbLine
 10
9538.678166143681
 20
7946.093130436385
 30
0.0
 11
9608.678166143683
 21
7946.093130436385
 31
0.0
  0
LINE
  5
1696D
330
747D
100
AcDbEntity
  8
細線
 48
50.0
100
AcDbLine
 10
9158.678166143683
 20
7946.090464779854
 30
0.0
 11
9468.678719248112
 21
7946.094351680051
 31
0.0
  0
LINE
  5
1696E
330
747D
100
AcDbEntity
  8
細線
 48
50.0
100
AcDbLine
 10
9181.678170797274
 20
7975.089280844024
 30
0.0
 11
9167.678166143684
 21
7975.08928084402
 31
0.0
  0
LINE
  5
1696F
330
747D
100
AcDbEntity
  8
細線
 48
50.0
100
AcDbLine
 10
9181.678170797274
 20
7966.693130436384
 30
0.0
 11
9181.678170797274
 21
7975.089280844024
 31
0.0
  0
LINE
  5
16970
330
747D
100
AcDbEntity
  8
細線
  6
Continuous
 62
     5
100
AcDbLine
 10
10261.17817129459
 20
7999.092956259426
 30
0.0
 11
10261.17817129459
 21
7999.092956259426
 31
0.0
  0
LINE
  5
16971
330
747D
100
AcDbEntity
  8
部品1
100
AcDbLine
 10
9158.678166143683
 20
7941.092956259431
 30
0.0
 11
10862.67816614368
 21
7941.092956259429
 31
0.0
  0
LINE
  5
16972
330
747D
100
AcDbEntity
  8
部品1
100
AcDbLine
 10
10832.67816614368
 20
7941.092956259431
 30
0.0
 11
10862.67816614368
 21
7941.092956259431
 31
0.0
  0
LINE
  5
16973
330
747D
100
AcDbEntity
  8
部品1
100
AcDbLine
 10
9155.678166143683
 20
8045.092956259427
 30
0.0
 11
10835.67816614368
 21
8045.092956259429
 31
0.0
  0
LINE
  5
16974
330
747D
100
AcDbEntity
  8
部品1
100
AcDbLine
 10
9155.678166143683
 20
8045.092956259427
 30
0.0
 11
9155.678166143683
 21
8014.09295625943
 31
0.0
  0
LINE
  5
16975
330
747D
100
AcDbEntity
  8
部品1
100
AcDbLine
 10
9167.678166143684
 20
8014.09295625943
 30
0.0
 11
9167.678166143684
 21
7950.092956259431
 31
0.0
  0
LINE
  5
16976
330
747D
100
AcDbEntity
  8
部品1
100
AcDbLine
 10
9128.678166143684
 20
7941.092956259431
 30
0.0
 11
9128.678166143684
 21
8018.09295625943
 31
0.0
  0
LINE
  5
16977
330
747D
100
AcDbEntity
  8
部品1
100
AcDbLine
 10
9158.678166143683
 20
7941.092956259431
 30
0.0
 11
9128.678166143684
 21
7941.092956259431
 31
0.0
  0
LINE
  5
16978
330
747D
100
AcDbEntity
  8
部品1
100
AcDbLine
 10
9167.678166143684
 20
7950.092956259431
 30
0.0
 11
9158.678166143683
 21
7950.092956259431
 31
0.0
  0
LINE
  5
16979
330
747D
100
AcDbEntity
  8
部品1
100
AcDbLine
 10
9158.678166143683
 20
7950.092956259431
 30
0.0
 11
9158.678166143683
 21
7941.092956259431
 31
0.0
  0
LINE
  5
1697A
330
747D
100
AcDbEntity
  8
部品1
100
AcDbLine
 10
9128.678166143684
 20
8018.09295625943
 30
0.0
 11
9155.678166143683
 21
8018.09295625943
 31
0.0
  0
LINE
  5
1697B
330
747D
100
AcDbEntity
  8
部品1
100
AcDbLine
 10
9167.678166143684
 20
8014.09295625943
 30
0.0
 11
9155.678166143683
 21
8014.09295625943
 31
0.0
  0
LINE
  5
1697C
330
747D
100
AcDbEntity
  8
部品1
100
AcDbLine
 10
10835.67816614368
 20
8045.092956259429
 30
0.0
 11
10835.67816614368
 21
8014.09295625943
 31
0.0
  0
LINE
  5
1697D
330
747D
100
AcDbEntity
  8
部品1
100
AcDbLine
 10
10823.67816614368
 20
8014.09295625943
 30
0.0
 11
10823.67816614368
 21
7950.092956259431
 31
0.0
  0
LINE
  5
1697E
330
747D
100
AcDbEntity
  8
部品1
100
AcDbLine
 10
10823.67816614368
 20
7950.092956259431
 30
0.0
 11
10832.67816614368
 21
7950.092956259431
 31
0.0
  0
LINE
  5
1697F
330
747D
100
AcDbEntity
  8
部品1
100
AcDbLine
 10
10832.67816614368
 20
7950.092956259431
 30
0.0
 11
10832.67816614368
 21
7941.092956259431
 31
0.0
  0
LINE
  5
16980
330
747D
100
AcDbEntity
  8
部品1
100
AcDbLine
 10
10823.67816614368
 20
8014.09295625943
 30
0.0
 11
10835.67816614368
 21
8014.09295625943
 31
0.0
  0
LINE
  5
16981
330
747D
100
AcDbEntity
  8
部品1
100
AcDbLine
 10
10862.67816614368
 20
7941.092956259431
 30
0.0
 11
10862.67816614368
 21
8018.09295625943
 31
0.0
  0
LINE
  5
16983
330
747D
100
AcDbEntity
  8
部品1
100
AcDbLine
 10
10835.67816614368
 20
8018.09295625943
 30
0.0
 11
10862.67816614368
 21
8018.09295625943
 31
0.0
  0
DIMENSION
  5
16984
330
747D
100
AcDbEntity
  8
寸法
 48
50.0
100
AcDbDimension
  2
*D30
 10
10117.67816614368
 20
7316.017938211206
 30
0.0
 11
9642.678166143683
 21
7316.017938211206
 31
0.0
 70
   160
  1
有効開口部間口\P<>
 71
     5
 42
950.0
  3
INABA_S40
100
AcDbAlignedDimension
 13
9167.678166143684
 23
7941.092956259431
 33
0.0
 14
10117.67816614368
 24
7941.092956259431
 34
0.0
100
AcDbRotatedDimension
1001
ACAD
1000
DSTYLE
1002
{
1070
    41
1040
0.5
1070
    44
1040
1.0
1070
   147
1040
0.8
1070
   271
1070
     2
1070
   272
1070
     2
1070
   289
1070
     3
1070
   340
1005
F706
1070
   343
1005
15A09
1070
   344
1005
15A09
1002
}
  0
LINE
  5
16985
330
747D
100
AcDbEntity
  8
細線
100
AcDbLine
 10
9167.678166143684
 20
7950.092956259431
 30
0.0
 11
9167.678166143684
 21
7946.092956259477
 31
0.0
  0
LINE
  5
16986
330
747D
100
AcDbEntity
  8
細線
100
AcDbLine
 10
9324.178059544946
 20
7964.09202580503
 30
0.0
 11
9324.178059544946
 21
7946.092025805005
 31
0.0
  0
LINE
  5
16987
330
747D
100
AcDbEntity
  8
細線
100
AcDbLine
 10
9283.178059544946
 20
7964.092025805022
 30
0.0
 11
9283.178059544946
 21
7946.092025805005
 31
0.0
  0
LINE
  5
16988
330
747D
100
AcDbEntity
  8
細線
100
AcDbLine
 10
9324.178059544946
 20
7964.09202580503
 30
0.0
 11
9283.178059544946
 21
7964.092025805022
 31
0.0
  0
ARC
  5
16989
330
747D
100
AcDbEntity
  8
部品1
100
AcDbCircle
 10
9285.722215422222
 20
7945.592025805026
 30
0.0
 40
1.0
100
AcDbArc
 50
270.0
 51
19.47122063442214
  0
LINE
  5
1698A
330
747D
100
AcDbEntity
  8
部品1
 48
0.01
100
AcDbLine
 10
9278.678059544938
 20
7946.092025805026
 30
0.0
 11
9278.678059544938
 21
7945.092025805026
 31
0.0
  0
LINE
  5
1698B
330
747D
100
AcDbEntity
  8
部品1
 48
0.01
100
AcDbLine
 10
9279.178059544937
 20
7944.592025805026
 30
0.0
 11
9285.722215422222
 21
7944.592025805026
 31
0.0
  0
ARC
  5
1698C
330
747D
100
AcDbEntity
  8
部品1
 48
0.01
100
AcDbCircle
 10
9279.178059544937
 20
7945.092025805026
 30
0.0
 40
0.5
100
AcDbArc
 50
180.0
 51
270.0
  0
ARC
  5
1698D
330
747D
100
AcDbEntity
  8
部品1
100
AcDbCircle
 10
9311.178059544939
 20
7954.592025805026
 30
0.0
 40
26.0
100
AcDbArc
 50
180.0
 51
199.4712206344221
  0
ARC
  5
1698E
330
747D
100
AcDbEntity
  8
部品1
 48
0.01
100
AcDbCircle
 10
9287.178059544938
 20
7959.592025805027
 30
0.0
 40
2.0
100
AcDbArc
 50
90.0
 51
180.0
  0
LINE
  5
1698F
330
747D
100
AcDbEntity
  8
部品1
100
AcDbLine
 10
9285.178059544938
 20
7954.592025805026
 30
0.0
 11
9285.178059544938
 21
7959.592025805027
 31
0.0
  0
ARC
  5
16990
330
747D
100
AcDbEntity
  8
部品1
100
AcDbCircle
 10
9303.678059544939
 20
7970.392025805029
 30
0.0
 40
16.0
100
AcDbArc
 50
218.3930440192126
 51
254.0576313943215
  0
ARC
  5
16991
330
747D
100
AcDbEntity
  8
部品1
100
AcDbCircle
 10
9288.78645116975
 20
7958.592025805026
 30
0.0
 40
3.0
100
AcDbArc
 50
38.39304401921267
 51
90.0
  0
LINE
  5
16992
330
747D
100
AcDbEntity
  8
部品1
 48
0.01
100
AcDbLine
 10
9287.178059544938
 20
7961.592025805027
 30
0.0
 11
9288.78645116975
 21
7961.592025805027
 31
0.0
  0
ARC
  5
16993
330
747D
100
AcDbEntity
  8
部品1
100
AcDbCircle
 10
9303.678059544939
 20
7970.392025805029
 30
0.0
 40
16.0
100
AcDbArc
 50
285.9423686056786
 51
321.6069559807873
  0
LINE
  5
16994
330
747D
100
AcDbEntity
  8
部品1
100
AcDbLine
 10
9307.24877375921
 20
7954.89202580503
 30
0.0
 11
9300.107345330667
 21
7954.89202580503
 31
0.0
  0
ARC
  5
16995
330
747D
100
AcDbEntity
  8
部品1
100
AcDbCircle
 10
9307.24877375921
 20
7957.892025805029
 30
0.0
 40
3.0
100
AcDbArc
 50
270.0
 51
285.9423686056786
  0
ARC
  5
16996
330
747D
100
AcDbEntity
  8
部品1
100
AcDbCircle
 10
9300.107345330667
 20
7957.892025805029
 30
0.0
 40
3.0
100
AcDbArc
 50
254.0576313943215
 51
270.0
  0
LINE
  5
16997
330
747D
100
AcDbEntity
  8
部品1
 48
0.01
100
AcDbLine
 10
9320.178059544938
 20
7961.592025805027
 30
0.0
 11
9318.569667920128
 21
7961.592025805027
 31
0.0
  0
ARC
  5
16998
330
747D
100
AcDbEntity
  8
部品1
100
AcDbCircle
 10
9318.569667920128
 20
7958.592025805026
 30
0.0
 40
3.0
100
AcDbArc
 50
90.0
 51
141.6069559807873
  0
ARC
  5
16999
330
747D
100
AcDbEntity
  8
部品1
 48
0.01
100
AcDbCircle
 10
9320.178059544938
 20
7959.592025805027
 30
0.0
 40
2.0
100
AcDbArc
 50
0.0
 51
90.0
  0
LINE
  5
1699A
330
747D
100
AcDbEntity
  8
部品1
100
AcDbLine
 10
9322.178059544938
 20
7954.592025805026
 30
0.0
 11
9322.178059544938
 21
7959.592025805027
 31
0.0
  0
ARC
  5
1699B
330
747D
100
AcDbEntity
  8
部品1
100
AcDbCircle
 10
9296.178059544939
 20
7954.592025805026
 30
0.0
 40
26.0
100
AcDbArc
 50
340.5287793655779
 51
0.0
  0
ARC
  5
1699C
330
747D
100
AcDbEntity
  8
部品1
100
AcDbCircle
 10
9321.633903667654
 20
7945.592025805026
 30
0.0
 40
1.0
100
AcDbArc
 50
160.5287793655778
 51
270.0
  0
LINE
  5
1699D
330
747D
100
AcDbEntity
  8
部品1
 48
0.01
100
AcDbLine
 10
9328.178059544937
 20
7944.592025805026
 30
0.0
 11
9321.565554114874
 21
7944.592025805026
 31
0.0
  0
LINE
  5
1699E
330
747D
100
AcDbEntity
  8
部品1
 48
0.01
100
AcDbLine
 10
9328.678059544939
 20
7946.092025805026
 30
0.0
 11
9328.678059544939
 21
7945.092025805026
 31
0.0
  0
LINE
  5
1699F
330
747D
100
AcDbEntity
  8
部品1
 48
0.01
100
AcDbLine
 10
9328.678059544939
 20
7946.092025805026
 30
0.0
 11
9328.678059544939
 21
7945.092025805026
 31
0.0
  0
ARC
  5
169A0
330
747D
100
AcDbEntity
  8
部品1
 48
0.01
100
AcDbCircle
 10
9328.178059544937
 20
7945.092025805026
 30
0.0
 40
0.5
100
AcDbArc
 50
270.0
 51
0.0
  0
LINE
  5
169A1
330
747D
100
AcDbEntity
  8
細線
100
AcDbLine
 10
9468.678157958265
 20
7946.093147990095
 30
0.0
 11
9471.009696249033
 21
7951.09314799008
 31
0.0
  0
LINE
  5
169A2
330
747D
100
AcDbEntity
  8
細線
100
AcDbLine
 10
9538.678166143681
 20
7946.093130436385
 30
0.0
 11
9536.346619667495
 21
7951.093147990062
 31
0.0
  0
LINE
  5
169A3
330
747D
100
AcDbEntity
  8
細線
100
AcDbLine
 10
9536.346619667495
 20
7951.093147990062
 30
0.0
 11
9471.009696249021
 21
7951.09314799005
 31
0.0
  0
LINE
  5
169A4
330
747D
100
AcDbEntity
  8
細線
100
AcDbLine
 10
9676.346619667494
 20
7951.093147990062
 30
0.0
 11
9611.00969624902
 21
7951.093147990055
 31
0.0
  0
LINE
  5
169A5
330
747D
100
AcDbEntity
  8
細線
100
AcDbLine
 10
9678.678166143683
 20
7946.093130436385
 30
0.0
 11
9676.346619667494
 21
7951.093147990062
 31
0.0
  0
LINE
  5
169A6
330
747D
100
AcDbEntity
  8
細線
100
AcDbLine
 10
9608.678157958266
 20
7946.093147990097
 30
0.0
 11
9611.009696249034
 21
7951.093147990083
 31
0.0
  0
LINE
  5
169A7
330
747D
100
AcDbEntity
  8
細線
100
AcDbLine
 10
9915.346627852912
 20
7985.092976309353
 30
0.0
 11
9850.009704434437
 21
7985.092976309343
 31
0.0
  0
LINE
  5
169A8
330
747D
100
AcDbEntity
  8
細線
100
AcDbLine
 10
9917.6781743291
 20
7980.092958755676
 30
0.0
 11
9915.346627852912
 21
7985.092976309353
 31
0.0
  0
LINE
  5
169A9
330
747D
100
AcDbEntity
  8
細線
100
AcDbLine
 10
9847.678166143683
 20
7980.092976309386
 30
0.0
 11
9850.009704434452
 21
7985.092976309371
 31
0.0
  0
LINE
  5
169AA
330
747D
100
AcDbEntity
  8
細線
100
AcDbLine
 10
9987.678130824789
 20
7980.092968122017
 30
0.0
 11
9990.009669115558
 21
7985.092968122002
 31
0.0
  0
LINE
  5
169AB
330
747D
100
AcDbEntity
  8
細線
100
AcDbLine
 10
10057.6781390102
 20
7980.092950568307
 30
0.0
 11
10055.34659253402
 21
7985.092968121988
 31
0.0
  0
LINE
  5
169AC
330
747D
100
AcDbEntity
  8
細線
100
AcDbLine
 10
10055.34659253402
 20
7985.092968121988
 30
0.0
 11
9990.009669115543
 21
7985.092968121974
 31
0.0
  0
LINE
  5
169AD
330
747D
100
AcDbEntity
  8
細線
100
AcDbLine
 10
10195.34662908395
 20
7985.092947818246
 30
0.0
 11
10130.00970566548
 21
7985.092947818232
 31
0.0
  0
LINE
  5
169AE
330
747D
100
AcDbEntity
  8
細線
100
AcDbLine
 10
10197.67817556014
 20
7980.092930264565
 30
0.0
 11
10195.34662908395
 21
7985.092947818246
 31
0.0
  0
LINE
  5
169AF
330
747D
100
AcDbEntity
  8
細線
100
AcDbLine
 10
10127.67816614368
 20
7980.092945178299
 30
0.0
 11
10130.00970566549
 21
7985.092947818261
 31
0.0
  0
LINE
  5
169B0
330
747D
100
AcDbEntity
  8
細線
 48
50.0
100
AcDbLine
 10
10070.54038806823
 20
7980.092968122017
 30
0.0
 11
10076.2959056509
 21
7998.36381941251
 31
0.0
  0
LINE
  5
169B1
330
747D
100
AcDbEntity
  8
細線
 48
50.0
100
AcDbLine
 10
10076.2959056509
 20
7998.36381941251
 30
0.0
 11
10087.22435413133
 21
7998.36381941251
 31
0.0
  0
ARC
  5
169B2
330
747D
100
AcDbEntity
  8
細線
 48
50.0
100
AcDbCircle
 10
10087.22435413133
 20
7997.36381941251
 30
0.0
 40
1.0
100
AcDbArc
 50
24.62431835213048
 51
90.0
  0
ARC
  5
169B3
330
747D
100
AcDbEntity
  8
細線
 48
50.0
100
AcDbCircle
 10
10098.13306624597
 20
7997.36381941251
 30
0.0
 40
1.0
100
AcDbArc
 50
90.0
 51
155.3756816478695
  0
ARC
  5
169B4
330
747D
100
AcDbEntity
  8
細線
 48
50.0
100
AcDbCircle
 10
10092.67871018865
 20
7999.86381941251
 30
0.0
 40
5.0
100
AcDbArc
 50
204.6243183521304
 51
335.3756816478695
  0
LINE
  5
169B5
330
747D
100
AcDbEntity
  8
細線
 48
50.0
100
AcDbLine
 10
10098.13306624597
 20
7998.36381941251
 30
0.0
 11
10109.0615147264
 21
7998.36381941251
 31
0.0
  0
LINE
  5
169B6
330
747D
100
AcDbEntity
  8
細線
 48
50.0
100
AcDbLine
 10
10109.0615147264
 20
7998.36381941251
 30
0.0
 11
10114.81703230907
 21
7980.092968122024
 31
0.0
  0
LINE
  5
169B7
330
747D
100
AcDbEntity
  8
細線
100
AcDbLine
 10
10433.34662908395
 20
8019.092958899376
 30
0.0
 11
10368.00970566548
 21
8019.092958899362
 31
0.0
  0
LINE
  5
169B8
330
747D
100
AcDbEntity
  8
細線
100
AcDbLine
 10
10435.67817556014
 20
8014.092941345696
 30
0.0
 11
10433.34662908395
 21
8019.092958899376
 31
0.0
  0
LINE
  5
169B9
330
747D
100
AcDbEntity
  8
細線
100
AcDbLine
 10
10365.67816614368
 20
8014.09295625943
 30
0.0
 11
10368.00970566549
 21
8019.09295889939
 31
0.0
  0
LINE
  5
169BA
330
747D
100
AcDbEntity
  8
細線
100
AcDbLine
 10
10505.67815672722
 20
8014.092971173164
 30
0.0
 11
10508.00969624903
 21
8019.092973813126
 31
0.0
  0
LINE
  5
169BB
330
747D
100
AcDbEntity
  8
細線
100
AcDbLine
 10
10575.67816614368
 20
8014.09295625943
 30
0.0
 11
10573.34661966749
 21
8019.09297381311
 31
0.0
  0
LINE
  5
169BC
330
747D
100
AcDbEntity
  8
細線
100
AcDbLine
 10
10573.34661966749
 20
8019.09297381311
 30
0.0
 11
10508.00969624902
 21
8019.092973813096
 31
0.0
  0
LINE
  5
169BD
330
747D
100
AcDbEntity
  8
細線
100
AcDbLine
 10
10713.34661966749
 20
8019.09297381311
 30
0.0
 11
10648.00969624902
 21
8019.092973813096
 31
0.0
  0
LINE
  5
169BE
330
747D
100
AcDbEntity
  8
細線
100
AcDbLine
 10
10715.67816614368
 20
8014.09295625943
 30
0.0
 11
10713.34661966749
 21
8019.09297381311
 31
0.0
  0
LINE
  5
169BF
330
747D
100
AcDbEntity
  8
細線
100
AcDbLine
 10
10645.67815672722
 20
8014.092971173164
 30
0.0
 11
10648.00969624903
 21
8019.092973813126
 31
0.0
  0
LINE
  5
169C0
330
747D
100
AcDbEntity
  8
細線
 48
50.0
100
AcDbLine
 10
9756.178166143687
 20
7990.289210650333
 30
0.0
 11
9167.678166143684
 21
7990.28921065033
 31
0.0
  0
LINE
  5
169C1
330
747D
100
AcDbEntity
  8
細線
 48
50.0
100
AcDbLine
 10
9797.178166143686
 20
7960.884302654081
 30
0.0
 11
10823.67816614368
 21
7960.884302654079
 31
0.0
  0
LINE
  5
169C2
330
747D
100
AcDbEntity
  8
細線
 48
50.0
100
AcDbLine
 10
10289.17817129459
 20
7994.593071208156
 30
0.0
 11
10823.67816614368
 21
7994.593071208156
 31
0.0
  0
LINE
  5
169C3
330
747D
100
AcDbEntity
  8
寸法
 48
50.0
100
AcDbLine
 10
9740.178985122083
 20
7829.35166431363
 30
0.0
 11
9959.330925297805
 21
7829.35166431363
 31
0.0
  0
LINE
  5
169C4
330
747D
100
AcDbEntity
  8
寸法
 48
50.0
100
AcDbLine
 10
9959.330925297805
 20
7829.35166431363
 30
0.0
 11
9870.046706702384
 21
7853.275298583115
 31
0.0
  0
LINE
  5
169C5
330
747D
100
AcDbEntity
  8
寸法
 48
50.0
100
AcDbLine
 10
9870.046706702384
 20
7853.275298583115
 30
0.0
 11
9870.046706702384
 21
7799.611664001325
 31
0.0
  0
LINE
  5
169C6
330
747D
100
AcDbEntity
  8
寸法
 48
50.0
100
AcDbLine
 10
9539.475164515424
 20
7796.129707828294
 30
0.0
 11
9590.881172425529
 21
7796.129707828294
 31
0.0
  0
LINE
  5
169C7
330
747D
100
AcDbEntity
  8
寸法
 48
50.0
100
AcDbLine
 10
9590.881172425529
 20
7796.129707828294
 30
0.0
 11
9590.881172425529
 21
7827.439866480459
 31
0.0
  0
LINE
  5
169C8
330
747D
100
AcDbEntity
  8
寸法
 48
50.0
100
AcDbLine
 10
9590.881172425529
 20
7827.439866480459
 30
0.0
 11
9620.642504416952
 21
7827.439866480459
 31
0.0
  0
LINE
  5
169C9
330
747D
100
AcDbEntity
  8
寸法
 48
50.0
100
AcDbLine
 10
9620.642504416952
 20
7827.439866480459
 30
0.0
 11
9565.178168470477
 21
7865.019317409069
 31
0.0
  0
LINE
  5
169CA
330
747D
100
AcDbEntity
  8
寸法
 48
50.0
100
AcDbLine
 10
9509.713832524001
 20
7827.439866480459
 30
0.0
 11
9565.178168470477
 21
7865.019317409069
 31
0.0
  0
LINE
  5
169CB
330
747D
100
AcDbEntity
  8
寸法
 48
50.0
100
AcDbLine
 10
9539.475164515424
 20
7827.439866480459
 30
0.0
 11
9509.713832524001
 21
7827.439866480459
 31
0.0
  0
LINE
  5
169CC
330
747D
100
AcDbEntity
  8
寸法
 48
50.0
100
AcDbLine
 10
9539.475164515424
 20
7796.129707828294
 30
0.0
 11
9539.475164515424
 21
7827.439866480459
 31
0.0
  0
LINE
  5
169CD
330
747D
100
AcDbEntity
  8
寸法
 48
50.0
100
AcDbLine
 10
9590.881172425529
 20
7796.129707828294
 30
0.0
 11
9539.475164515424
 21
7796.129707828294
 31
0.0
  0
DIMENSION
  5
16BD7
330
747D
100
AcDbEntity
  8
寸法
 48
50.0
100
AcDbDimension
  2
*D31
 10
10862.67816614368
 20
7066.022686408683
 30
0.0
 11
9986.259910095505
 21
7066.022686408683
 31
0.0
 70
   160
 71
     5
 42
1734.0
  3
INABA_S40G
100
AcDbAlignedDimension
 13
9128.678166143684
 23
7941.092956259464
 33
0.0
 14
10862.67816614368
 24
7941.092956259463
 34
0.0
100
AcDbRotatedDimension
1001
ACAD
1000
DSTYLE
1002
{
1070
   341
1005
0
1002
}
  0
DIMENSION
  5
16BD8
330
747D
100
AcDbEntity
  8
寸法
100
AcDbDimension
  2
*D32
 10
8806.066920516995
 20
7943.09295625946
 30
0.0
 11
8806.066920516995
 21
7802.607674885222
 31
0.0
 70
   160
 71
     5
 42
75.0
  3
INABA_S40
100
AcDbAlignedDimension
 13
9100.678166143714
 23
8018.09295625946
 33
0.0
 14
9128.678166143691
 24
7943.09295625946
 34
0.0
 50
90.0
100
AcDbRotatedDimension
1001
ACAD
1000
DSTYLE
1002
{
1070
    41
1040
0.5
1070
    44
1040
1.0
1070
   147
1040
0.8
1070
   271
1070
     2
1070
   272
1070
     2
1070
   289
1070
     3
1070
   340
1005
F706
1070
   343
1005
15A09
1070
   344
1005
15A09
1002
}
  0
LINE
  5
16C7C
330
747D
100
AcDbEntity
  8
部品1
100
AcDbLine
 10
10377.41349925793
 20
6547.016821872192
 30
0.0
 11
9613.942833029492
 21
6547.016821872192
 31
0.0
  0
LINE
  5
16C7D
330
747D
100
AcDbEntity
  8
部品1
100
AcDbLine
 10
10377.41349925793
 20
6307.12450032666
 30
0.0
 11
10377.41349925793
 21
6547.016821872192
 31
0.0
  0
LINE
  5
16C7E
330
747D
100
AcDbEntity
  8
部品1
100
AcDbLine
 10
9613.942833029492
 20
6307.12450032666
 30
0.0
 11
10377.41349925793
 21
6307.12450032666
 31
0.0
  0
LINE
  5
16C7F
330
747D
100
AcDbEntity
  8
部品1
100
AcDbLine
 10
9613.942833029492
 20
6547.016821872192
 30
0.0
 11
9613.942833029492
 21
6307.12450032666
 31
0.0
  0
TEXT
  5
16CB6
330
747D
100
AcDbEntity
  8
部品1
100
AcDbText
 10
9703.862442858531
 20
6354.123292653669
 30
0.0
 40
135.0
  1
平面図
  7
STYLE2
100
AcDbText
  0
DIMENSION
  5
16CB7
330
747D
100
AcDbEntity
  8
寸法
100
AcDbDimension
  2
*D33
 10
10890.67816614369
 20
6826.265165514556
 30
0.0
 11
9983.824916475066
 21
6826.265165514556
 31
0.0
 70
   160
 71
     5
 42
1789.999999999982
  3
INABA_S40G
100
AcDbAlignedDimension
 13
9100.678166143714
 23
8018.09295625946
 33
0.0
 14
10890.67816614369
 24
8018.092956259589
 34
0.0
100
AcDbRotatedDimension
1001
ACAD
1000
DSTYLE
1002
{
1002
}
  0
LWPOLYLINE
  5
16EEB
330
747D
100
AcDbEntity
  8
部品1
 48
50.0
100
AcDbPolyline
 90
        4
 70
     1
 43
0.0
 10
9227.728166143714
 20
3576.031546153946
 10
9230.628166143715
 20
3576.031546153946
 10
9230.628166143715
 20
3585.531546153946
 10
9227.728166143714
 20
3585.531546153946
  0
CIRCLE
  5
16EEC
330
747D
100
AcDbEntity
  8
部品1
 48
50.0
100
AcDbCircle
 10
9229.178166143714
 20
3580.781546153946
 30
0.0
 40
9.0
  0
ARC
  5
16EED
330
747D
100
AcDbEntity
  8
細線
 48
50.0
100
AcDbCircle
 10
9229.178166143714
 20
3580.781546153946
 30
0.0
 40
4.0
100
AcDbArc
 50
111.2538091853132
 51
248.7461908146868
  0
ARC
  5
16EEE
330
747D
100
AcDbEntity
  8
細線
 48
50.0
100
AcDbCircle
 10
9229.178166143714
 20
3580.781546153946
 30
0.0
 40
17.5
100
AcDbArc
 50
306.4837370612677
 51
233.5162629387323
  0
LINE
  5
16EEF
330
747D
100
AcDbEntity
  8
細線
 48
50.0
100
AcDbLine
 10
9239.178166143711
 20
3556.922585573063
 30
0.0
 11
9239.178166143714
 21
3565.907071373305
 31
0.0
  0
LINE
  5
16EF0
330
747D
100
AcDbEntity
  8
細線
 48
50.0
100
AcDbLine
 10
9219.178166143715
 20
3556.922585573065
 30
0.0
 11
9219.178166143715
 21
3565.907071373301
 31
0.0
  0
ARC
  5
16EF1
330
747D
100
AcDbEntity
  8
細線
 48
50.0
100
AcDbCircle
 10
9229.178166143714
 20
3580.781546153946
 30
0.0
 40
26.5
100
AcDbArc
 50
249.3326835063939
 51
290.6673164933835
  0
ARC
  5
16EF2
330
747D
100
AcDbEntity
  8
細線
 48
50.0
100
AcDbCircle
 10
9238.178166143708
 20
3556.922585573063
 30
0.0
 40
1.0
100
AcDbArc
 50
290.6673164936062
 51
359.9999999998958
  0
ARC
  5
16EF3
330
747D
100
AcDbEntity
  8
細線
 48
50.0
100
AcDbCircle
 10
9220.178166143716
 20
3556.922585573065
 30
0.0
 40
1.0
100
AcDbArc
 50
180.0
 51
249.3326835066164
  0
ARC
  5
16EF4
330
747D
100
AcDbEntity
  8
細線
 48
50.0
100
AcDbCircle
 10
9218.178166143713
 20
3565.907071373301
 30
0.0
 40
1.0
100
AcDbArc
 50
0.0
 51
53.51626293873231
  0
ARC
  5
16EF5
330
747D
100
AcDbEntity
  8
細線
 48
50.0
100
AcDbCircle
 10
9240.178166143719
 20
3565.907071373305
 30
0.0
 40
1.0
100
AcDbArc
 50
126.4837370615127
 51
180.0
  0
ARC
  5
16EF6
330
747D
100
AcDbEntity
  8
細線
 48
50.0
100
AcDbCircle
 10
9229.178166143714
 20
3580.781546153946
 30
0.0
 40
21.5
100
AcDbArc
 50
255.8014401250294
 51
284.1985598749706
  0
ARC
  5
16EF7
330
747D
100
AcDbEntity
  8
細線
 48
50.0
100
AcDbCircle
 10
9229.178166143714
 20
3580.781546153946
 30
0.0
 40
16.5
100
AcDbArc
 50
251.9694646069326
 51
288.0305353930674
  0
LINE
  5
16EF8
330
747D
100
AcDbEntity
  8
細線
 48
50.0
100
AcDbLine
 10
9234.678166143714
 20
3560.229174028139
 30
0.0
 11
9234.678166143714
 21
3564.806565715476
 31
0.0
  0
LINE
  5
16EF9
330
747D
100
AcDbEntity
  8
細線
 48
50.0
100
AcDbLine
 10
9223.678166143715
 20
3560.229174028139
 30
0.0
 11
9223.678166143715
 21
3564.806565715474
 31
0.0
  0
ARC
  5
16EFA
330
747D
100
AcDbEntity
  8
細線
 48
50.0
100
AcDbCircle
 10
9223.978166143718
 20
3564.806565715474
 30
0.0
 40
0.3
100
AcDbArc
 50
71.96946460693259
 51
180.0
  0
ARC
  5
16EFB
330
747D
100
AcDbEntity
  8
細線
 48
50.0
100
AcDbCircle
 10
9234.378166143715
 20
3564.806565715476
 30
0.0
 40
0.3
100
AcDbArc
 50
0.0
 51
108.0305353930674
  0
ARC
  5
16EFC
330
747D
100
AcDbEntity
  8
細線
 48
50.0
100
AcDbCircle
 10
9234.378166143711
 20
3560.229174028139
 30
0.0
 40
0.3
100
AcDbArc
 50
284.1985598747622
 51
0.0000000001042204
  0
ARC
  5
16EFD
330
747D
100
AcDbEntity
  8
細線
 48
50.0
100
AcDbCircle
 10
9223.978166143718
 20
3560.229174028139
 30
0.0
 40
0.3
100
AcDbArc
 50
180.0
 51
255.8014401248081
  0
CIRCLE
  5
16EFE
330
747D
100
AcDbEntity
  8
細線
 48
50.0
100
AcDbCircle
 10
9229.178166143714
 20
3580.781546153946
 30
0.0
 40
12.0
  0
ARC
  5
16EFF
330
747D
100
AcDbEntity
  8
部品1
 48
50.0
100
AcDbCircle
 10
9229.178166143714
 20
3630.781546153946
 30
0.0
 40
8.5
100
AcDbArc
 50
114.315739171091
 51
245.684260828909
  0
CIRCLE
  5
16F00
330
747D
100
AcDbEntity
  8
細線
 48
50.0
100
AcDbCircle
 10
9229.178166143714
 20
3630.781546153946
 30
0.0
 40
4.5
  0
LWPOLYLINE
  5
16F01
330
747D
100
AcDbEntity
  8
部品1
 48
50.0
100
AcDbPolyline
 90
        2
 70
     0
 43
0.0
 10
9225.678166143714
 20
3649.456395550929
 10
9225.678166143714
 20
3638.527512846361
  0
CIRCLE
  5
16F02
330
747D
100
AcDbEntity
  8
部品1
 48
50.0
100
AcDbCircle
 10
9229.178166143714
 20
3630.781546153946
 30
0.0
 40
19.0
  0
LWPOLYLINE
  5
16F03
330
747D
100
AcDbEntity
  8
部品1
 48
50.0
100
AcDbPolyline
 90
        2
 70
     0
 43
0.0
 10
9225.678166143714
 20
3623.035579461531
 10
9225.678166143714
 20
3612.106696756963
  0
LWPOLYLINE
  5
16F04
330
747D
100
AcDbEntity
  8
部品1
 48
50.0
100
AcDbPolyline
 90
        2
 70
     0
 43
0.0
 10
9232.678166143715
 20
3638.527512846361
 10
9232.678166143715
 20
3649.456395550929
  0
ARC
  5
16F05
330
747D
100
AcDbEntity
  8
部品1
 48
50.0
100
AcDbCircle
 10
9229.178166143714
 20
3630.781546153946
 30
0.0
 40
8.5
100
AcDbArc
 50
294.315739171091
 51
65.68426082890896
  0
LWPOLYLINE
  5
16F06
330
747D
100
AcDbEntity
  8
部品1
 48
50.0
100
AcDbPolyline
 90
        2
 70
     0
 43
0.0
 10
9232.678166143715
 20
3612.106696756963
 10
9232.678166143715
 20
3623.035579461531
  0
ARC
  5
16F07
330
747D
100
AcDbEntity
  8
細線
 48
50.0
100
AcDbCircle
 10
9229.178166143714
 20
3630.781546153946
 30
0.0
 40
16.5
100
AcDbArc
 50
332.0012352654438
 51
27.99876473455621
  0
ARC
  5
16F08
330
747D
100
AcDbEntity
  8
細線
 48
50.0
100
AcDbCircle
 10
9229.178166143714
 20
3630.781546153946
 30
0.0
 40
14.0
100
AcDbArc
 50
326.4074436112986
 51
33.59255638870134
  0
LINE
  5
16F09
330
747D
100
AcDbEntity
  8
細線
 48
50.0
100
AcDbLine
 10
9214.609363859382
 20
3638.527512846361
 30
0.0
 11
9217.516262354026
 21
3638.527512846361
 31
0.0
  0
LINE
  5
16F0A
330
747D
100
AcDbEntity
  8
細線
 48
50.0
100
AcDbLine
 10
9214.609363859382
 20
3623.035579461531
 30
0.0
 11
9217.516262354026
 21
3623.035579461531
 31
0.0
  0
LINE
  5
16F0B
330
747D
100
AcDbEntity
  8
細線
 48
50.0
100
AcDbLine
 10
9240.840069933403
 20
3638.527512846361
 30
0.0
 11
9243.74696842805
 21
3638.527512846361
 31
0.0
  0
LINE
  5
16F0C
330
747D
100
AcDbEntity
  8
細線
 48
50.0
100
AcDbLine
 10
9240.840069933403
 20
3623.035579461531
 30
0.0
 11
9243.74696842805
 21
3623.035579461531
 31
0.0
  0
ARC
  5
16F0D
330
747D
100
AcDbEntity
  8
細線
 48
50.0
100
AcDbCircle
 10
9229.178166143714
 20
3630.781546153946
 30
0.0
 40
14.0
100
AcDbArc
 50
146.4074436112986
 51
213.5925563887013
  0
ARC
  5
16F0E
330
747D
100
AcDbEntity
  8
細線
 48
50.0
100
AcDbCircle
 10
9229.178166143714
 20
3630.781546153946
 30
0.0
 40
16.5
100
AcDbArc
 50
152.0012352654438
 51
207.9987647345562
  0
ARC
  5
16F0F
330
747D
100
AcDbEntity
  8
部品1
 48
50.0
100
AcDbCircle
 10
9202.678166143714
 20
3656.281546153946
 30
0.0
 40
5.0
100
AcDbArc
 50
90.0
 51
180.0
  0
ARC
  5
16F10
330
747D
100
AcDbEntity
  8
部品1
 48
50.0
100
AcDbCircle
 10
9202.678166143714
 20
3545.281546153946
 30
0.0
 40
5.0
100
AcDbArc
 50
180.0
 51
270.0
  0
ARC
  5
16F11
330
747D
100
AcDbEntity
  8
部品1
 48
50.0
100
AcDbCircle
 10
9255.678166143715
 20
3545.281546153946
 30
0.0
 40
5.0
100
AcDbArc
 50
270.0
 51
0.0
  0
ARC
  5
16F12
330
747D
100
AcDbEntity
  8
部品1
 48
50.0
100
AcDbCircle
 10
9255.678166143715
 20
3656.281546153946
 30
0.0
 40
5.0
100
AcDbArc
 50
0.0
 51
90.0
  0
LINE
  5
16F14
330
747D
100
AcDbEntity
  8
部品1
 48
50.0
100
AcDbLine
 10
9197.678166143715
 20
3545.281546153946
 30
0.0
 11
9197.678166143715
 21
3656.281546153946
 31
0.0
  0
LINE
  5
16F15
330
747D
100
AcDbEntity
  8
部品1
 48
50.0
100
AcDbLine
 10
9255.678166143715
 20
3540.281546153946
 30
0.0
 11
9202.678166143714
 21
3540.281546153946
 31
0.0
  0
LINE
  5
16F16
330
747D
100
AcDbEntity
  8
部品1
 48
50.0
100
AcDbLine
 10
9260.678166143714
 20
3656.281546153946
 30
0.0
 11
9260.678166143714
 21
3545.281546153946
 31
0.0
  0
ENDSEC
  0
SECTION
  2
OBJECTS
  0
DICTIONARY
  5
7471
330
0
100
AcDbDictionary
281
     1
  3
ACAD_COLOR
350
159FE
  3
ACAD_GROUP
350
7472
  3
ACAD_LAYOUT
350
159FF
  3
ACAD_MATERIAL
350
159FD
  3
ACAD_MLINESTYLE
350
7473
  3
ACAD_PLOTSETTINGS
350
15A00
  3
ACAD_PLOTSTYLENAME
350
159FB
  3
ACDBHEADERROUNDTRIPXREC
350
16F35
  3
AcDbVariableDictionary
350
16F31
  3
CONTENTDICTIONARY
350
E71C
  3
DRAWINGVARIABLESDICT
350
F3B9
  0
DICTIONARY
  5
15B98
330
7467
100
AcDbDictionary
280
     1
281
     1
  3
ACAD_LAYERSTATES
360
15B99
  0
DICTIONARY
  5
159FE
102
{ACAD_REACTORS
330
7471
102
}
330
7471
100
AcDbDictionary
281
     1
  0
DICTIONARY
  5
7472
102
{ACAD_REACTORS
330
7471
102
}
330
7471
100
AcDbDictionary
281
     1
  0
DICTIONARY
  5
159FF
102
{ACAD_REACTORS
330
7471
102
}
330
7471
100
AcDbDictionary
281
     1
  3
Model
350
15A01
  3
レイアウト1
350
15A02
  0
DICTIONARY
  5
159FD
102
{ACAD_REACTORS
330
7471
102
}
330
7471
100
AcDbDictionary
281
     1
  0
DICTIONARY
  5
7473
102
{ACAD_REACTORS
330
7471
102
}
330
7471
100
AcDbDictionary
281
     1
  3
STANDARD
350
7480
  0
DICTIONARY
  5
15A00
102
{ACAD_REACTORS
330
7471
102
}
330
7471
100
AcDbDictionary
281
     1
  0
ACDBDICTIONARYWDFLT
  5
159FB
102
{ACAD_REACTORS
330
7471
102
}
330
7471
100
AcDbDictionary
281
     1
  3
Normal
350
159FC
100
AcDbDictionaryWithDefault
340
159FC
  0
DICTIONARY
  5
16F35
102
{ACAD_REACTORS
330
7471
102
}
330
7471
100
AcDbDictionary
281
     1
  3
COLORDICT
350
16F37
  3
MATERIALDICT
350
16F36
  0
DICTIONARY
  5
16F31
102
{ACAD_REACTORS
330
7471
102
}
330
7471
100
AcDbDictionary
281
     1
  3
DIMASSOC
350
16F32
  3
PROJECTNAME
350
16F33
  0
DICTIONARY
  5
E71C
102
{ACAD_REACTORS
330
7471
102
}
330
7471
100
AcDbDictionary
281
     1
  0
DICTIONARY
  5
F3B9
102
{ACAD_REACTORS
330
7471
102
}
330
7471
100
AcDbDictionary
281
     1
1001
DRAWINGVARIABLESXDATA
1000
POLARMODE
1000
1
  0
DICTIONARY
  5
15B99
102
{ACAD_REACTORS
330
15B98
102
}
330
15B98
100
AcDbDictionary
281
     1
  0
LAYOUT
  5
15A01
102
{ACAD_XDICTIONARY
360
16F38
102
}
102
{ACAD_REACTORS
330
159FF
102
}
330
159FF
100
AcDbPlotSettings
  1

  2
クセロPDF
  4
A3
  6

 40
3.174999952316284
 41
3.174999952316284
 42
3.17498779296875
 43
3.17498779296875
 44
419.9466552734374
 45
296.9259948730469
 46
0.0
 47
0.0
 48
3.619013395666115
 49
-4.192117100517862
140
820.022926294543
141
573.2392198881443
142
1.0
143
39.99735023620806
 70
 11952
 72
     1
 73
     0
 74
     2
  7
inaba.ctb
 75
     0
147
0.0250016562120842
148
25.79074261211281
149
125.8223078213959
100
AcDbLayout
  1
Model
 70
     1
 71
     0
 10
0.0
 20
0.0
 11
12.0
 21
9.0
 12
0.0
 22
0.0
 32
0.0
 14
0.0
 24
0.0
 34
0.0
 15
0.0
 25
0.0
 35
0.0
146
0.0
 13
0.0
 23
0.0
 33
0.0
 16
1.0
 26
0.0
 36
0.0
 17
0.0
 27
1.0
 37
0.0
 76
     0
330
747D
  0
LAYOUT
  5
15A02
102
{ACAD_XDICTIONARY
360
16F3A
102
}
102
{ACAD_REACTORS
330
159FF
102
}
330
159FF
100
AcDbPlotSettings
  1

  2
Microsoft Office Document Image Writer
  4

  6

 40
0.0
 41
0.0
 42
0.0
 43
0.0
 44
0.0
 45
0.0
 46
0.0
 47
0.0
 48
0.0
 49
0.0
140
0.0
141
0.0
142
1.0
143
1.0
 70
   688
 72
     0
 73
     0
 74
     5
  7

 75
    16
147
1.0
148
0.0
149
0.0
100
AcDbLayout
  1
レイアウト1
 70
     0
 71
     1
 10
0.0
 20
0.0
 11
420.0
 21
297.0
 12
0.0
 22
0.0
 32
0.0
 14
1.000000000000000E+20
 24
1.000000000000000E+20
 34
1.000000000000000E+20
 15
-1.000000000000000E+20
 25
-1.000000000000000E+20
 35
-1.000000000000000E+20
146
0.0
 13
0.0
 23
0.0
 33
0.0
 16
1.0
 26
0.0
 36
0.0
 17
0.0
 27
1.0
 37
0.0
 76
     0
330
747A
  0
MLINESTYLE
  5
7480
102
{ACAD_REACTORS
330
7473
102
}
330
7473
100
AcDbMlineStyle
  2
STANDARD
 70
     0
  3

 62
     0
 51
90.0
 52
90.0
 71
     2
 49
0.5
 62
   256
  6
BYLAYER
 49
-0.5
 62
   256
  6
BYLAYER
  0
ACDBPLACEHOLDER
  5
159FC
102
{ACAD_REACTORS
330
159FB
102
}
330
159FB
  0
XRECORD
  5
16F37
102
{ACAD_REACTORS
330
16F35
102
}
330
16F35
100
AcDbXrecord
280
     1
340
159FE
  0
XRECORD
  5
16F36
102
{ACAD_REACTORS
330
16F35
102
}
330
16F35
100
AcDbXrecord
280
     1
340
159FD
  0
DICTIONARYVAR
  5
16F32
102
{ACAD_REACTORS
330
16F31
102
}
330
16F31
100
DictionaryVariables
280
     0
  1
1
  0
DICTIONARYVAR
  5
16F33
102
{ACAD_REACTORS
330
16F31
102
}
330
16F31
100
DictionaryVariables
280
     0
  1

  0
DICTIONARY
  5
16F38
330
15A01
100
AcDbDictionary
280
     1
281
     1
  3
ACAD_XREC_ROUNDTRIP
360
16F39
  0
DICTIONARY
  5
16F3A
330
15A02
100
AcDbDictionary
280
     1
281
     1
  3
ACAD_XREC_ROUNDTRIP
360
16F3B
  0
XRECORD
  5
16F39
102
{ACAD_REACTORS
330
16F38
102
}
330
16F38
100
AcDbXrecord
280
     1
102
SHADEPLOT
 70
     0
102
SHADEPLOTRESLEVEL
 70
     2
102
SHADEPLOTCUSTOMDPI
 70
   150
  0
XRECORD
  5
16F3B
102
{ACAD_REACTORS
330
16F3A
102
}
330
16F3A
100
AcDbXrecord
280
     1
102
SHADEPLOT
 70
     0
102
SHADEPLOTRESLEVEL
 70
     2
102
SHADEPLOTCUSTOMDPI
 70
   300
  0
ENDSEC
  0
EOF
