  0
SECTION
  2
HEADER
  9
$ACADVER
  1
AC1015
  9
$ACADMAINTVER
 70
    20
  9
$DWGCODEPAGE
  3
ANSI_932
  9
$INSBASE
 10
0.0
 20
0.0
 30
0.0
  9
$EXTMIN
 10
139.9999999999995
 20
-0.0000000000000909
 30
0.0
  9
$EXTMAX
 10
16307.2
 20
11409.6
 30
0.0
  9
$LIMMIN
 10
0.0
 20
0.0
  9
$LIMMAX
 10
16800.0
 20
11880.0
  9
$ORTHOMODE
 70
     0
  9
$REGENMODE
 70
     1
  9
$FILLMODE
 70
     1
  9
$QTEXTMODE
 70
     0
  9
$MIRRTEXT
 70
     1
  9
$LTSCALE
 40
20.0
  9
$ATTMODE
 70
     1
  9
$TEXTSIZE
 40
4.0
  9
$TRACEWID
 40
1.0
  9
$TEXTSTYLE
  7
STYLE1
  9
$CLAYER
  8
寸法
  9
$CELTYPE
  6
BYLAYER
  9
$CECOLOR
 62
   256
  9
$CELTSCALE
 40
50.0
  9
$DISPSILH
 70
     0
  9
$DIMSCALE
 40
40.0
  9
$DIMASZ
 40
2.5
  9
$DIMEXO
 40
0.5
  9
$DIMDLI
 40
7.0
  9
$DIMRND
 40
0.0
  9
$DIMDLE
 40
0.0
  9
$DIMEXE
 40
1.5
  9
$DIMTP
 40
0.0
  9
$DIMTM
 40
0.0
  9
$DIMTXT
 40
3.0
  9
$DIMCEN
 40
0.0
  9
$DIMTSZ
 40
0.0
  9
$DIMTOL
 70
     0
  9
$DIMLIM
 70
     0
  9
$DIMTIH
 70
     0
  9
$DIMTOH
 70
     0
  9
$DIMSE1
 70
     0
  9
$DIMSE2
 70
     0
  9
$DIMTAD
 70
     3
  9
$DIMZIN
 70
     8
  9
$DIMBLK
  1

  9
$DIMASO
 70
     1
  9
$DIMSHO
 70
     1
  9
$DIMPOST
  1

  9
$DIMAPOST
  1

  9
$DIMALT
 70
     0
  9
$DIMALTD
 70
     2
  9
$DIMALTF
 40
0.0394
  9
$DIMLFAC
 40
1.0
  9
$DIMTOFL
 70
     1
  9
$DIMTVP
 40
0.0
  9
$DIMTIX
 70
     1
  9
$DIMSOXD
 70
     0
  9
$DIMSAH
 70
     1
  9
$DIMBLK1
  1
DOTSMALL
  9
$DIMBLK2
  1
DOTSMALL
  9
$DIMSTYLE
  2
INABA_S40G
  9
$DIMCLRD
 70
     0
  9
$DIMCLRE
 70
     0
  9
$DIMCLRT
 70
     7
  9
$DIMTFAC
 40
1.0
  9
$DIMGAP
 40
1.0
  9
$DIMJUST
 70
     0
  9
$DIMSD1
 70
     0
  9
$DIMSD2
 70
     0
  9
$DIMTOLJ
 70
     1
  9
$DIMTZIN
 70
     0
  9
$DIMALTZ
 70
     0
  9
$DIMALTTZ
 70
     0
  9
$DIMUPT
 70
     1
  9
$DIMDEC
 70
     1
  9
$DIMTDEC
 70
     4
  9
$DIMALTU
 70
     2
  9
$DIMALTTD
 70
     2
  9
$DIMTXSTY
  7
STYLE1
  9
$DIMAUNIT
 70
     0
  9
$DIMADEC
 70
     0
  9
$DIMALTRND
 40
0.0
  9
$DIMAZIN
 70
     0
  9
$DIMDSEP
 70
    46
  9
$DIMATFIT
 70
     3
  9
$DIMFRAC
 70
     0
  9
$DIMLDRBLK
  1

  9
$DIMLUNIT
 70
     2
  9
$DIMLWD
 70
    -2
  9
$DIMLWE
 70
    -2
  9
$DIMTMOVE
 70
     0
  9
$LUNITS
 70
     2
  9
$LUPREC
 70
     1
  9
$SKETCHINC
 40
1.0
  9
$FILLETRAD
 40
3.0
  9
$AUNITS
 70
     0
  9
$AUPREC
 70
     0
  9
$MENU
  1
acad
  9
$ELEVATION
 40
0.0
  9
$PELEVATION
 40
0.0
  9
$THICKNESS
 40
0.0
  9
$LIMCHECK
 70
     0
  9
$CHAMFERA
 40
0.0
  9
$CHAMFERB
 40
0.0
  9
$CHAMFERC
 40
0.0
  9
$CHAMFERD
 40
0.0
  9
$SKPOLY
 70
     0
  9
$TDCREATE
 40
2451368.612993866
  9
$TDUCREATE
 40
2451368.237993866
  9
$TDUPDATE
 40
2455575.685992106
  9
$TDUUPDATE
 40
2455575.310992106
  9
$TDINDWG
 40
0.6981117245
  9
$TDUSRTIMER
 40
0.6981117245
  9
$USRTIMER
 70
     1
  9
$ANGBASE
 50
0.0
  9
$ANGDIR
 70
     0
  9
$PDMODE
 70
     3
  9
$PDSIZE
 40
2.0
  9
$PLINEWID
 40
0.0
  9
$SPLFRAME
 70
     0
  9
$SPLINETYPE
 70
     6
  9
$SPLINESEGS
 70
     8
  9
$HANDSEED
  5
1A3D1
  9
$SURFTAB1
 70
     6
  9
$SURFTAB2
 70
     6
  9
$SURFTYPE
 70
     6
  9
$SURFU
 70
     6
  9
$SURFV
 70
     6
  9
$UCSBASE
  2

  9
$UCSNAME
  2

  9
$UCSORG
 10
0.0
 20
0.0
 30
0.0
  9
$UCSXDIR
 10
1.0
 20
0.0
 30
0.0
  9
$UCSYDIR
 10
0.0
 20
1.0
 30
0.0
  9
$UCSORTHOREF
  2

  9
$UCSORTHOVIEW
 70
     0
  9
$UCSORGTOP
 10
0.0
 20
0.0
 30
0.0
  9
$UCSORGBOTTOM
 10
0.0
 20
0.0
 30
0.0
  9
$UCSORGLEFT
 10
0.0
 20
0.0
 30
0.0
  9
$UCSORGRIGHT
 10
0.0
 20
0.0
 30
0.0
  9
$UCSORGFRONT
 10
0.0
 20
0.0
 30
0.0
  9
$UCSORGBACK
 10
0.0
 20
0.0
 30
0.0
  9
$PUCSBASE
  2

  9
$PUCSNAME
  2

  9
$PUCSORG
 10
0.0
 20
0.0
 30
0.0
  9
$PUCSXDIR
 10
1.0
 20
0.0
 30
0.0
  9
$PUCSYDIR
 10
0.0
 20
1.0
 30
0.0
  9
$PUCSORTHOREF
  2

  9
$PUCSORTHOVIEW
 70
     0
  9
$PUCSORGTOP
 10
0.0
 20
0.0
 30
0.0
  9
$PUCSORGBOTTOM
 10
0.0
 20
0.0
 30
0.0
  9
$PUCSORGLEFT
 10
0.0
 20
0.0
 30
0.0
  9
$PUCSORGRIGHT
 10
0.0
 20
0.0
 30
0.0
  9
$PUCSORGFRONT
 10
0.0
 20
0.0
 30
0.0
  9
$PUCSORGBACK
 10
0.0
 20
0.0
 30
0.0
  9
$USERI1
 70
     0
  9
$USERI2
 70
     0
  9
$USERI3
 70
     0
  9
$USERI4
 70
     0
  9
$USERI5
 70
     0
  9
$USERR1
 40
0.0
  9
$USERR2
 40
0.0
  9
$USERR3
 40
0.0
  9
$USERR4
 40
0.0
  9
$USERR5
 40
0.0
  9
$WORLDVIEW
 70
     1
  9
$SHADEDGE
 70
     3
  9
$SHADEDIF
 70
    70
  9
$TILEMODE
 70
     1
  9
$MAXACTVP
 70
    16
  9
$PINSBASE
 10
0.0
 20
0.0
 30
0.0
  9
$PLIMCHECK
 70
     0
  9
$PEXTMIN
 10
1.000000000000000E+20
 20
1.000000000000000E+20
 30
1.000000000000000E+20
  9
$PEXTMAX
 10
-1.000000000000000E+20
 20
-1.000000000000000E+20
 30
-1.000000000000000E+20
  9
$PLIMMIN
 10
0.0
 20
0.0
  9
$PLIMMAX
 10
420.0
 20
297.0
  9
$UNITMODE
 70
     0
  9
$VISRETAIN
 70
     0
  9
$PLINEGEN
 70
     0
  9
$PSLTSCALE
 70
     0
  9
$TREEDEPTH
 70
  3020
  9
$CMLSTYLE
  2
STANDARD
  9
$CMLJUST
 70
     0
  9
$CMLSCALE
 40
1.0
  9
$PROXYGRAPHICS
 70
     1
  9
$MEASUREMENT
 70
     1
  9
$CELWEIGHT
370
    -1
  9
$ENDCAPS
280
     0
  9
$JOINSTYLE
280
     0
  9
$LWDISPLAY
290
     0
  9
$INSUNITS
 70
     0
  9
$HYPERLINKBASE
  1

  9
$STYLESHEET
  1

  9
$XEDIT
290
     1
  9
$CEPSNTYPE
380
     0
  9
$PSTYLEMODE
290
     1
  9
$FINGERPRINTGUID
  2
{A031AA45-FAA5-4BCF-B12E-B7E299CED638}
  9
$VERSIONGUID
  2
{C49FCCE6-0E57-434B-80EC-17F1CBE83FDF}
  9
$EXTNAMES
290
     1
  9
$PSVPSCALE
 40
0.0
  9
$OLESTARTUP
290
     0
  0
ENDSEC
  0
SECTION
  2
CLASSES
  0
CLASS
  1
ACDBDICTIONARYWDFLT
  2
AcDbDictionaryWithDefault
  3
ObjectDBX Classes
 90
        0
280
     0
281
     0
  0
CLASS
  1
DICTIONARYVAR
  2
AcDbDictionaryVar
  3
ObjectDBX Classes
 90
        0
280
     0
281
     0
  0
CLASS
  1
ACDBPLACEHOLDER
  2
AcDbPlaceHolder
  3
ObjectDBX Classes
 90
        0
280
     0
281
     0
  0
CLASS
  1
LAYOUT
  2
AcDbLayout
  3
ObjectDBX Classes
 90
        0
280
     0
281
     0
  0
ENDSEC
  0
SECTION
  2
TABLES
  0
TABLE
  2
VPORT
  5
746D
330
0
100
AcDbSymbolTable
 70
     2
  0
VPORT
  5
1A3C9
330
746D
100
AcDbSymbolTableRecord
100
AcDbViewportTableRecord
  2
*Active
 70
     0
 10
0.0
 20
0.0
 11
1.0
 21
1.0
 12
8223.7610252385
 22
6348.586927792148
 13
0.0
 23
0.0
 14
10.0
 24
10.0
 15
10.0
 25
10.0
 16
0.0
 26
0.0
 36
1.0
 17
0.0
 27
0.0
 37
0.0
 40
12805.37746912804
 41
1.525925925925925
 42
50.0
 43
0.0
 44
0.0
 50
0.0
 51
0.0
 71
     0
 72
     0
 73
     1
 74
     0
 75
     0
 76
     0
 77
     0
 78
     0
281
     0
 65
     1
110
0.0
120
0.0
130
0.0
111
1.0
121
0.0
131
0.0
112
0.0
122
1.0
132
0.0
 79
     0
146
0.0
  0
ENDTAB
  0
TABLE
  2
LTYPE
  5
746A
330
0
100
AcDbSymbolTable
 70
     4
  0
LTYPE
  5
7477
330
746A
100
AcDbSymbolTableRecord
100
AcDbLinetypeTableRecord
  2
BYBLOCK
 70
     0
  3

 72
    65
 73
     0
 40
0.0
  0
LTYPE
  5
7478
330
746A
100
AcDbSymbolTableRecord
100
AcDbLinetypeTableRecord
  2
BYLAYER
 70
     0
  3

 72
    65
 73
     0
 40
0.0
  0
LTYPE
  5
7479
330
746A
100
AcDbSymbolTableRecord
100
AcDbLinetypeTableRecord
  2
CONTINUOUS
 70
     0
  3
Solid line
 72
    65
 73
     0
 40
0.0
  0
LTYPE
  5
7816
330
746A
100
AcDbSymbolTableRecord
100
AcDbLinetypeTableRecord
  2
CENTER
 70
     0
  3
____ _ ____ _ ____ _ ____ _ ____ _ ____ _ ____ 
 72
    65
 73
     4
 40
2.0
 49
1.25
 74
     0
 49
-0.25
 74
     0
 49
0.25
 74
     0
 49
-0.25
 74
     0
  0
LTYPE
  5
781A
330
746A
100
AcDbSymbolTableRecord
100
AcDbLinetypeTableRecord
  2
HIDDEN
 70
     0
  3
__ __ __ __ __ __ __ __ __ __ __ __ __ __ __ __
 72
    65
 73
     2
 40
0.375
 49
0.25
 74
     0
 49
-0.125
 74
     0
  0
LTYPE
  5
781B
330
746A
100
AcDbSymbolTableRecord
100
AcDbLinetypeTableRecord
  2
PHANTOM
 70
     0
  3
______  __  __  ______  __  __  ______  __  __ 
 72
    65
 73
     6
 40
2.5
 49
1.25
 74
     0
 49
-0.25
 74
     0
 49
0.25
 74
     0
 49
-0.25
 74
     0
 49
0.25
 74
     0
 49
-0.25
 74
     0
  0
ENDTAB
  0
TABLE
  2
LAYER
  5
7467
102
{ACAD_XDICTIONARY
360
17D76
102
}
330
0
100
AcDbSymbolTable
 70
    12
  0
LAYER
  5
7474
330
7467
100
AcDbSymbolTableRecord
100
AcDbLayerTableRecord
  2
0
 70
     0
 62
     7
  6
CONTINUOUS
370
    -3
390
17BD9
  0
LAYER
  5
DEB2
330
7467
100
AcDbSymbolTableRecord
100
AcDbLayerTableRecord
  2
センター
 70
     0
 62
     3
  6
CENTER
370
    -3
390
17BD9
  0
LAYER
  5
DEB3
330
7467
100
AcDbSymbolTableRecord
100
AcDbLayerTableRecord
  2
寸法
 70
     0
 62
     4
  6
CONTINUOUS
370
    -3
390
17BD9
  0
LAYER
  5
DEB4
330
7467
100
AcDbSymbolTableRecord
100
AcDbLayerTableRecord
  2
部品1
 70
     0
 62
     7
  6
CONTINUOUS
370
    -3
390
17BD9
  0
LAYER
  5
DEB5
330
7467
100
AcDbSymbolTableRecord
100
AcDbLayerTableRecord
  2
補助
 70
     0
 62
    -1
  6
CONTINUOUS
370
    -3
390
17BD9
  0
LAYER
  5
DEB6
330
7467
100
AcDbSymbolTableRecord
100
AcDbLayerTableRecord
  2
文字
 70
     0
 62
     7
  6
CONTINUOUS
370
    -3
390
17BD9
  0
LAYER
  5
F255
330
7467
100
AcDbSymbolTableRecord
100
AcDbLayerTableRecord
  2
DEFPOINTS
 70
     0
 62
     7
  6
CONTINUOUS
290
     0
370
    -3
390
17BD9
  0
LAYER
  5
10B54
330
7467
100
AcDbSymbolTableRecord
100
AcDbLayerTableRecord
  2
仕様書枠
 70
     0
 62
   230
  6
CONTINUOUS
370
    -3
390
17BD9
  0
LAYER
  5
11729
330
7467
100
AcDbSymbolTableRecord
100
AcDbLayerTableRecord
  2
Ｇ．Ｌ
 70
     0
 62
    30
  6
CONTINUOUS
370
    -3
390
17BD9
  0
LAYER
  5
1173F
330
7467
100
AcDbSymbolTableRecord
100
AcDbLayerTableRecord
  2
細線
 70
     0
 62
     5
  6
CONTINUOUS
370
    -3
390
17BD9
  0
LAYER
  5
12CC4
330
7467
100
AcDbSymbolTableRecord
100
AcDbLayerTableRecord
  2
想像線
 70
     0
 62
     6
  6
PHANTOM
370
    -3
390
17BD9
  0
LAYER
  5
142E2
330
7467
100
AcDbSymbolTableRecord
100
AcDbLayerTableRecord
  2
破線
 70
     0
 62
     2
  6
HIDDEN
370
    -3
390
17BD9
  0
ENDTAB
  0
TABLE
  2
STYLE
  5
7468
330
0
100
AcDbSymbolTable
 70
     4
  0
STYLE
  5
7475
330
7468
100
AcDbSymbolTableRecord
100
AcDbTextStyleTableRecord
  2
STANDARD
 70
     0
 40
0.0
 41
1.0
 50
0.0
 71
     0
 42
4.0
  3
txt
  4
C:\AutoCAD LT\bigfont.shx
  0
STYLE
  5
F706
330
7468
100
AcDbSymbolTableRecord
100
AcDbTextStyleTableRecord
  2
STYLE1
 70
     0
 40
0.0
 41
1.0
 50
0.0
 71
     0
 42
4.0
  3
isocp.shx
  4
bigfont.shx
  0
STYLE
  5
103BF
330
7468
100
AcDbSymbolTableRecord
100
AcDbTextStyleTableRecord
  2
STYLE2
 70
     0
 40
0.0
 41
1.0
 50
0.0
 71
     0
 42
100.0
  3
MS PGothic.ttf
  4

1001
ACAD
1000
MS PGothic
1071
    32818
  0
STYLE
  5
19885
330
7468
100
AcDbSymbolTableRecord
100
AcDbTextStyleTableRecord
  2
STYLE3
 70
     0
 40
0.0
 41
1.0
 50
0.0
 71
     0
 42
100.0
  3

  4

1001
ACAD
1000
DFPGothic-EB
1071
    32818
  0
ENDTAB
  0
TABLE
  2
VIEW
  5
746B
330
0
100
AcDbSymbolTable
 70
     0
  0
ENDTAB
  0
TABLE
  2
UCS
  5
746C
330
0
100
AcDbSymbolTable
 70
     0
  0
ENDTAB
  0
TABLE
  2
APPID
  5
746E
330
0
100
AcDbSymbolTable
 70
     6
  0
APPID
  5
7476
330
746E
100
AcDbSymbolTableRecord
100
AcDbRegAppTableRecord
  2
ACAD
 70
     0
  0
APPID
  5
DEA9
330
746E
100
AcDbSymbolTableRecord
100
AcDbRegAppTableRecord
  2
CONTENTBLOCKICON
 70
     0
  0
APPID
  5
DEAA
330
746E
100
AcDbSymbolTableRecord
100
AcDbRegAppTableRecord
  2
CONTENTBLOCKDESCRIPTION
 70
     0
  0
APPID
  5
E71D
330
746E
100
AcDbSymbolTableRecord
100
AcDbRegAppTableRecord
  2
CONTENTTABDATA
 70
     0
  0
APPID
  5
E71E
330
746E
100
AcDbSymbolTableRecord
100
AcDbRegAppTableRecord
  2
CONTENTCURRENTTAB
 70
     0
  0
APPID
  5
F3BA
330
746E
100
AcDbSymbolTableRecord
100
AcDbRegAppTableRecord
  2
DRAWINGVARIABLESXDATA
 70
     0
  0
ENDTAB
  0
TABLE
  2
DIMSTYLE
  5
746F
330
0
100
AcDbSymbolTable
 70
     5
100
AcDbDimStyleTable
 71
     0
  0
DIMSTYLE
105
7484
330
746F
100
AcDbSymbolTableRecord
100
AcDbDimStyleTableRecord
  2
JIS
 70
     0
 41
2.5
 42
1.0
 43
7.0
 44
1.0
 73
     0
 74
     0
 77
     1
 78
     8
140
2.5
141
0.0
143
0.0394
147
0.0
172
     1
174
     1
175
     1
340
7475
  0
DIMSTYLE
105
F71F
102
{ACAD_REACTORS
330
182D2
330
182EA
330
182EC
330
18303
330
18306
330
18311
330
18318
330
1831B
330
1831C
330
1831D
330
1831E
330
1831F
330
18322
330
18B1D
330
18D33
330
18D37
330
18B58
330
18B59
330
18B5A
330
195BA
330
195B0
330
195AF
330
195B1
330
195AE
330
19640
330
1965A
330
19659
330
19658
330
19657
330
1A26B
102
}
330
746F
100
AcDbSymbolTableRecord
100
AcDbDimStyleTableRecord
  2
INABA_S40G
 70
     0
 40
40.0
 41
2.5
 42
0.5
 43
7.0
 44
1.5
 73
     0
 74
     0
 77
     3
 78
     8
140
3.0
141
0.0
143
0.0394
147
1.0
172
     1
173
     1
174
     1
178
     7
271
     1
288
     1
340
F706
341
F770
343
F770
344
F770
  0
DIMSTYLE
105
17D75
102
{ACAD_REACTORS
330
19991
330
1A00F
102
}
330
746F
100
AcDbSymbolTableRecord
100
AcDbDimStyleTableRecord
  2
INABA_S40
 70
     0
 40
40.0
 41
2.5
 42
0.5
 43
7.0
 44
1.5
 73
     0
 74
     0
 77
     3
 78
     8
140
3.0
141
0.0
143
0.0394
147
1.0
172
     1
173
     1
174
     1
175
     1
178
     7
340
7475
  0
DIMSTYLE
105
19886
330
746F
100
AcDbSymbolTableRecord
100
AcDbDimStyleTableRecord
  2
INABA_S50G
 70
     0
 41
125.0
 42
25.0
 43
7.0
 44
75.0
 73
     0
 74
     0
 77
     3
 78
     8
140
150.0
141
0.0
143
0.0394
147
25.0
172
     1
173
     1
174
     1
175
     1
178
     7
271
     1
340
F706
341
F770
343
F770
344
F770
  0
DIMSTYLE
105
1A35F
330
746F
100
AcDbSymbolTableRecord
100
AcDbDimStyleTableRecord
  2
INABA_S20G
 70
     0
 40
20.0
 41
2.5
 42
0.5
 43
7.0
 44
1.5
 73
     0
 74
     0
 77
     3
 78
     8
140
3.0
141
0.0
143
0.0394
147
1.0
172
     1
173
     1
174
     1
178
     7
271
     1
340
F706
341
F770
343
F770
344
F770
  0
ENDTAB
  0
TABLE
  2
BLOCK_RECORD
  5
7466
330
0
100
AcDbSymbolTable
 70
    34
  0
BLOCK_RECORD
  5
747D
330
7466
100
AcDbSymbolTableRecord
100
AcDbBlockTableRecord
  2
*MODEL_SPACE
340
17BDE
  0
BLOCK_RECORD
  5
747A
330
7466
100
AcDbSymbolTableRecord
100
AcDbBlockTableRecord
  2
*PAPER_SPACE
340
17BDF
  0
BLOCK_RECORD
  5
F770
330
7466
100
AcDbSymbolTableRecord
100
AcDbBlockTableRecord
  2
_DOTSMALL
340
0
102
{BLKREFS
331
1971F
331
19720
331
1972A
331
1972B
331
19733
331
19734
331
1973C
331
1973D
331
19745
331
19746
331
1974F
331
19750
331
1975A
331
1975B
331
19764
331
19765
331
1976D
331
1976E
331
19776
331
19777
331
1977F
331
19780
331
19788
331
19789
331
19791
331
19792
331
1979C
331
1979D
331
197A5
331
197A6
331
197B0
331
197B1
331
197B9
331
197BA
331
1982D
331
1982E
331
1A2BE
331
1A2BF
331
1A2E4
331
1A2E5
331
1A2EF
331
1A2F0
331
1A2FA
331
1A2FB
331
1A305
331
1A306
331
1A30E
331
1A30F
331
1A317
331
1A318
331
1A322
331
1A323
331
1A32B
331
1A32C
331
1A334
331
1A335
331
1A33D
331
1A33E
331
1A34F
331
1A350
102
}
  0
BLOCK_RECORD
  5
17C8B
330
7466
100
AcDbSymbolTableRecord
100
AcDbBlockTableRecord
  2
_DOT
340
0
102
{BLKREFS
331
1A2C9
331
1A2CA
331
1A2D2
331
1A2D3
102
}
  0
BLOCK_RECORD
  5
18419
330
7466
100
AcDbSymbolTableRecord
100
AcDbBlockTableRecord
  2
*D2
340
0
  0
BLOCK_RECORD
  5
18425
330
7466
100
AcDbSymbolTableRecord
100
AcDbBlockTableRecord
  2
*D3
340
0
  0
BLOCK_RECORD
  5
18431
330
7466
100
AcDbSymbolTableRecord
100
AcDbBlockTableRecord
  2
*D4
340
0
  0
BLOCK_RECORD
  5
1843D
330
7466
100
AcDbSymbolTableRecord
100
AcDbBlockTableRecord
  2
*D5
340
0
  0
BLOCK_RECORD
  5
18449
330
7466
100
AcDbSymbolTableRecord
100
AcDbBlockTableRecord
  2
*D6
340
0
  0
BLOCK_RECORD
  5
18457
330
7466
100
AcDbSymbolTableRecord
100
AcDbBlockTableRecord
  2
*D7
340
0
  0
BLOCK_RECORD
  5
18463
330
7466
100
AcDbSymbolTableRecord
100
AcDbBlockTableRecord
  2
*D8
340
0
  0
BLOCK_RECORD
  5
1846F
330
7466
100
AcDbSymbolTableRecord
100
AcDbBlockTableRecord
  2
*D9
340
0
  0
BLOCK_RECORD
  5
1847D
330
7466
100
AcDbSymbolTableRecord
100
AcDbBlockTableRecord
  2
*D10
340
0
  0
BLOCK_RECORD
  5
1848B
330
7466
100
AcDbSymbolTableRecord
100
AcDbBlockTableRecord
  2
*D11
340
0
  0
BLOCK_RECORD
  5
18499
330
7466
100
AcDbSymbolTableRecord
100
AcDbBlockTableRecord
  2
*D12
340
0
  0
BLOCK_RECORD
  5
184A5
330
7466
100
AcDbSymbolTableRecord
100
AcDbBlockTableRecord
  2
*D13
340
0
  0
BLOCK_RECORD
  5
184B1
330
7466
100
AcDbSymbolTableRecord
100
AcDbBlockTableRecord
  2
*D14
340
0
  0
BLOCK_RECORD
  5
18D8D
330
7466
100
AcDbSymbolTableRecord
100
AcDbBlockTableRecord
  2
*D15
340
0
  0
BLOCK_RECORD
  5
18D9B
330
7466
100
AcDbSymbolTableRecord
100
AcDbBlockTableRecord
  2
*D16
340
0
  0
BLOCK_RECORD
  5
18DA7
330
7466
100
AcDbSymbolTableRecord
100
AcDbBlockTableRecord
  2
*D17
340
0
  0
BLOCK_RECORD
  5
18DB3
330
7466
100
AcDbSymbolTableRecord
100
AcDbBlockTableRecord
  2
*D18
340
0
  0
BLOCK_RECORD
  5
18DBF
330
7466
100
AcDbSymbolTableRecord
100
AcDbBlockTableRecord
  2
*D19
340
0
  0
BLOCK_RECORD
  5
18DCD
330
7466
100
AcDbSymbolTableRecord
100
AcDbBlockTableRecord
  2
*D20
340
0
  0
BLOCK_RECORD
  5
195CF
330
7466
100
AcDbSymbolTableRecord
100
AcDbBlockTableRecord
  2
*D21
340
0
  0
BLOCK_RECORD
  5
195DC
330
7466
100
AcDbSymbolTableRecord
100
AcDbBlockTableRecord
  2
*D22
340
0
  0
BLOCK_RECORD
  5
195E9
330
7466
100
AcDbSymbolTableRecord
100
AcDbBlockTableRecord
  2
*D23
340
0
  0
BLOCK_RECORD
  5
195F5
330
7466
100
AcDbSymbolTableRecord
100
AcDbBlockTableRecord
  2
*D24
340
0
  0
BLOCK_RECORD
  5
19603
330
7466
100
AcDbSymbolTableRecord
100
AcDbBlockTableRecord
  2
*D25
340
0
  0
BLOCK_RECORD
  5
19641
330
7466
100
AcDbSymbolTableRecord
100
AcDbBlockTableRecord
  2
*D26
340
0
  0
BLOCK_RECORD
  5
1965B
330
7466
100
AcDbSymbolTableRecord
100
AcDbBlockTableRecord
  2
*D27
340
0
  0
BLOCK_RECORD
  5
19668
330
7466
100
AcDbSymbolTableRecord
100
AcDbBlockTableRecord
  2
*D28
340
0
  0
BLOCK_RECORD
  5
19676
330
7466
100
AcDbSymbolTableRecord
100
AcDbBlockTableRecord
  2
*D29
340
0
  0
BLOCK_RECORD
  5
19682
330
7466
100
AcDbSymbolTableRecord
100
AcDbBlockTableRecord
  2
*D30
340
0
  0
BLOCK_RECORD
  5
199FC
330
7466
100
AcDbSymbolTableRecord
100
AcDbBlockTableRecord
  2
*D31
340
0
  0
BLOCK_RECORD
  5
1A12B
330
7466
100
AcDbSymbolTableRecord
100
AcDbBlockTableRecord
  2
*D32
340
0
  0
BLOCK_RECORD
  5
1A26C
330
7466
100
AcDbSymbolTableRecord
100
AcDbBlockTableRecord
  2
*D33
340
0
  0
ENDTAB
  0
ENDSEC
  0
SECTION
  2
BLOCKS
  0
BLOCK
  5
7489
330
747D
100
AcDbEntity
  8
0
100
AcDbBlockBegin
  2
*MODEL_SPACE
 70
     0
 10
0.0
 20
0.0
 30
0.0
  3
*MODEL_SPACE
  1

  0
ENDBLK
  5
748A
330
747D
100
AcDbEntity
  8
0
100
AcDbBlockEnd
  0
BLOCK
  5
7487
330
747A
100
AcDbEntity
 67
     1
  8
0
100
AcDbBlockBegin
  2
*PAPER_SPACE
 70
     0
 10
0.0
 20
0.0
 30
0.0
  3
*PAPER_SPACE
  1

  0
ENDBLK
  5
7488
330
747A
100
AcDbEntity
 67
     1
  8
0
100
AcDbBlockEnd
  0
BLOCK
  5
F771
330
F770
100
AcDbEntity
  8
0
 48
50.0
100
AcDbBlockBegin
  2
_DOTSMALL
 70
     0
 10
0.0
 20
0.0
 30
0.0
  3
_DOTSMALL
  1

  0
LWPOLYLINE
  5
F772
330
F770
100
AcDbEntity
  8
0
  6
ByBlock
 62
     0
 48
50.0
100
AcDbPolyline
 90
        2
 70
     1
 43
0.5
 10
-0.0625
 20
0.0
 42
1.0
 10
0.0625
 20
0.0
 42
1.0
  0
ENDBLK
  5
F776
330
F770
100
AcDbEntity
  8
0
 48
50.0
100
AcDbBlockEnd
  0
BLOCK
  5
17C8C
330
17C8B
100
AcDbEntity
  8
0
 48
50.0
100
AcDbBlockBegin
  2
_DOT
 70
     0
 10
0.0
 20
0.0
 30
0.0
  3
_DOT
  1

  0
LWPOLYLINE
  5
17C8D
330
17C8B
100
AcDbEntity
  8
0
  6
ByBlock
 62
     0
 48
50.0
100
AcDbPolyline
 90
        2
 70
     1
 43
0.5
 10
-0.25
 20
0.0
 42
1.0
 10
0.25
 20
0.0
 42
1.0
  0
LINE
  5
17C8E
330
17C8B
100
AcDbEntity
  8
0
  6
ByBlock
 62
     0
 48
50.0
100
AcDbLine
 10
-0.5
 20
0.0
 30
0.0
 11
-1.0
 21
0.0
 31
0.0
  0
ENDBLK
  5
17C8F
330
17C8B
100
AcDbEntity
  8
0
 48
50.0
100
AcDbBlockEnd
  0
BLOCK
  5
18423
330
18419
100
AcDbEntity
  8
0
 48
50.0
100
AcDbBlockBegin
  2
*D2
 70
     1
 10
0.0
 20
0.0
 30
0.0
  3
*D2
  1

  0
LINE
  5
1982A
330
18419
100
AcDbEntity
  8
寸法
 62
     0
 48
50.0
370
    -2
100
AcDbLine
 10
8905.251889744915
 20
4529.225007150096
 30
0.0
 11
8544.027083273903
 21
4529.225007150096
 31
0.0
  0
LINE
  5
1982B
330
18419
100
AcDbEntity
  8
寸法
 62
     0
 48
50.0
370
    -2
100
AcDbLine
 10
8905.251889744915
 20
2804.225007150096
 30
0.0
 11
8544.027083273901
 21
2804.225007150096
 31
0.0
  0
LINE
  5
1982C
330
18419
100
AcDbEntity
  8
寸法
 62
     0
 48
50.0
370
    -2
100
AcDbLine
 10
8604.027083273903
 20
4529.225007150096
 30
0.0
 11
8604.027083273901
 21
2804.225007150096
 31
0.0
  0
INSERT
  5
1982D
330
18419
100
AcDbEntity
  8
寸法
 62
     0
 48
50.0
370
    -2
100
AcDbBlockReference
  2
_DOTSMALL
 10
8604.027083273903
 20
4529.225007150096
 30
0.0
 41
100.0
 42
100.0
 43
100.0
 50
90.0
  0
INSERT
  5
1982E
330
18419
100
AcDbEntity
  8
寸法
 62
     0
 48
50.0
370
    -2
100
AcDbBlockReference
  2
_DOTSMALL
 10
8604.027083273901
 20
2804.225007150096
 30
0.0
 41
100.0
 42
100.0
 43
100.0
 50
270.0
  0
MTEXT
  5
1982F
330
18419
100
AcDbEntity
  8
寸法
 62
     7
 48
50.0
100
AcDbMText
 10
8504.015272250279
 20
3706.153627359058
 30
0.0
 40
120.0
 41
0.0
 71
     5
 72
     1
  1
\A1;有効開口部高サ1725
  7
STYLE1
 11
0.0000000000000001
 21
1.0
 31
0.0
 73
     1
 44
1.0
1001
ACAD
1000
MTEXTBEGIN
1070
    73
1070
     1
1070
    44
1040
1.0
1070
    74
1070
     0
1000
MTEXTEND
  0
POINT
  5
19830
330
18419
100
AcDbEntity
  8
DEFPOINTS
 62
     0
 48
50.0
100
AcDbPoint
 10
8925.251889744915
 20
4529.225007150096
 30
0.0
  0
POINT
  5
19831
330
18419
100
AcDbEntity
  8
DEFPOINTS
 62
     0
 48
50.0
100
AcDbPoint
 10
8925.251889744915
 20
2804.225007150096
 30
0.0
  0
POINT
  5
19832
330
18419
100
AcDbEntity
  8
DEFPOINTS
 62
     0
 48
50.0
100
AcDbPoint
 10
8604.027083273901
 20
2804.225007150096
 30
0.0
  0
ENDBLK
  5
18424
330
18419
100
AcDbEntity
  8
0
 48
50.0
100
AcDbBlockEnd
  0
BLOCK
  5
1842F
330
18425
100
AcDbEntity
  8
0
 48
50.0
100
AcDbBlockBegin
  2
*D3
 70
     1
 10
0.0
 20
0.0
 30
0.0
  3
*D3
  1

  0
LINE
  5
1A33A
330
18425
100
AcDbEntity
  8
寸法
 62
     0
 48
50.0
370
    -2
100
AcDbLine
 10
11127.25188974492
 20
9152.094063198077
 30
0.0
 11
11814.67823547933
 21
9152.094063198077
 31
0.0
  0
LINE
  5
1A33B
330
18425
100
AcDbEntity
  8
寸法
 62
     0
 48
50.0
370
    -2
100
AcDbLine
 10
11127.2518897449
 20
7892.094063198062
 30
0.0
 11
11814.67823547933
 21
7892.094063198062
 31
0.0
  0
LINE
  5
1A33C
330
18425
100
AcDbEntity
  8
寸法
 62
     0
 48
50.0
370
    -2
100
AcDbLine
 10
11754.67823547933
 20
9152.094063198077
 30
0.0
 11
11754.67823547933
 21
7892.094063198062
 31
0.0
  0
INSERT
  5
1A33D
330
18425
100
AcDbEntity
  8
寸法
 62
     0
 48
50.0
370
    -2
100
AcDbBlockReference
  2
_DOTSMALL
 10
11754.67823547933
 20
9152.094063198077
 30
0.0
 41
100.0
 42
100.0
 43
100.0
 50
90.0
  0
INSERT
  5
1A33E
330
18425
100
AcDbEntity
  8
寸法
 62
     0
 48
50.0
370
    -2
100
AcDbBlockReference
  2
_DOTSMALL
 10
11754.67823547933
 20
7892.094063198062
 30
0.0
 41
100.0
 42
100.0
 43
100.0
 50
270.0
  0
MTEXT
  5
1A33F
330
18425
100
AcDbEntity
  8
寸法
 62
     7
 48
50.0
100
AcDbMText
 10
11654.66642445571
 20
8522.094063198071
 30
0.0
 40
120.0
 41
0.0
 71
     5
 72
     1
  1
\A1;3X420=1260
  7
STYLE1
 11
0.0000000000000001
 21
1.0
 31
0.0
 73
     1
 44
1.0
1001
ACAD
1000
MTEXTBEGIN
1070
    73
1070
     1
1070
    44
1040
1.0
1070
    74
1070
     0
1000
MTEXTEND
  0
POINT
  5
1A340
330
18425
100
AcDbEntity
  8
DEFPOINTS
 62
     0
 48
50.0
100
AcDbPoint
 10
11107.25188974492
 20
9152.094063198077
 30
0.0
  0
POINT
  5
1A341
330
18425
100
AcDbEntity
  8
DEFPOINTS
 62
     0
 48
50.0
100
AcDbPoint
 10
11107.2518897449
 20
7892.094063198062
 30
0.0
  0
POINT
  5
1A342
330
18425
100
AcDbEntity
  8
DEFPOINTS
 62
     0
 48
50.0
100
AcDbPoint
 10
11754.67823547933
 20
7892.094063198062
 30
0.0
  0
ENDBLK
  5
18430
330
18425
100
AcDbEntity
  8
0
 48
50.0
100
AcDbBlockEnd
  0
BLOCK
  5
1843B
330
18431
100
AcDbEntity
  8
0
 48
50.0
100
AcDbBlockBegin
  2
*D4
 70
     1
 10
0.0
 20
0.0
 30
0.0
  3
*D4
  1

  0
LINE
  5
1A331
330
18431
100
AcDbEntity
  8
寸法
 62
     0
 48
50.0
370
    -2
100
AcDbLine
 10
11098.75188974492
 20
9171.735079349451
 30
0.0
 11
11494.10961560694
 21
9065.799295983318
 31
0.0
  0
LINE
  5
1A332
330
18431
100
AcDbEntity
  8
寸法
 62
     0
 48
50.0
370
    -2
100
AcDbLine
 10
11098.75188974492
 20
8721.735079349455
 30
0.0
 11
11494.10961560694
 21
8615.79929598332
 31
0.0
  0
LINE
  5
1A333
330
18431
100
AcDbEntity
  8
寸法
 62
     0
 48
50.0
370
    -2
100
AcDbLine
 10
11434.10961560694
 20
9081.876247529185
 30
0.0
 11
11434.10961560694
 21
8631.876247529188
 31
0.0
  0
INSERT
  5
1A334
330
18431
100
AcDbEntity
  8
寸法
 62
     0
 48
50.0
370
    -2
100
AcDbBlockReference
  2
_DOTSMALL
 10
11434.10961560694
 20
9081.876247529185
 30
0.0
 41
100.0
 42
100.0
 43
100.0
 50
90.0
  0
INSERT
  5
1A335
330
18431
100
AcDbEntity
  8
寸法
 62
     0
 48
50.0
370
    -2
100
AcDbBlockReference
  2
_DOTSMALL
 10
11434.10961560694
 20
8631.876247529188
 30
0.0
 41
100.0
 42
100.0
 43
100.0
 50
270.0
  0
MTEXT
  5
1A336
330
18431
100
AcDbEntity
  8
寸法
 62
     7
 48
50.0
100
AcDbMText
 10
11334.10961560694
 20
8856.876247529188
 30
0.0
 40
120.0
 41
0.0
 71
     5
 72
     1
  1
\A1;450
  7
STYLE1
 11
0.0000000000000001
 21
1.0
 31
0.0
 73
     1
 44
1.0
1001
ACAD
1000
MTEXTBEGIN
1070
    73
1070
     1
1070
    44
1040
1.0
1070
    74
1070
     0
1000
MTEXTEND
  0
POINT
  5
1A337
330
18431
100
AcDbEntity
  8
DEFPOINTS
 62
     0
 48
50.0
100
AcDbPoint
 10
11078.75188974492
 20
9177.094063198074
 30
0.0
  0
POINT
  5
1A338
330
18431
100
AcDbEntity
  8
DEFPOINTS
 62
     0
 48
50.0
100
AcDbPoint
 10
11078.75188974492
 20
8727.094063198078
 30
0.0
  0
POINT
  5
1A339
330
18431
100
AcDbEntity
  8
DEFPOINTS
 62
     0
 48
50.0
100
AcDbPoint
 10
11434.10961560694
 20
8631.876247529188
 30
0.0
  0
ENDBLK
  5
1843C
330
18431
100
AcDbEntity
  8
0
 48
50.0
100
AcDbBlockEnd
  0
BLOCK
  5
18447
330
1843D
100
AcDbEntity
  8
0
 48
50.0
100
AcDbBlockBegin
  2
*D5
 70
     1
 10
0.0
 20
0.0
 30
0.0
  3
*D5
  1

  0
LINE
  5
1A328
330
1843D
100
AcDbEntity
  8
寸法
 62
     0
 48
50.0
370
    -2
100
AcDbLine
 10
10220.3929058963
 20
8707.094063198084
 30
0.0
 11
10131.10616464262
 21
8373.871408397111
 31
0.0
  0
LINE
  5
1A329
330
1843D
100
AcDbEntity
  8
寸法
 62
     0
 48
50.0
370
    -2
100
AcDbLine
 10
11073.39290589631
 20
8707.094063198077
 30
0.0
 11
10984.10616464263
 21
8373.871408397111
 31
0.0
  0
LINE
  5
1A32A
330
1843D
100
AcDbEntity
  8
寸法
 62
     0
 48
50.0
370
    -2
100
AcDbLine
 10
10147.18311618849
 20
8433.871408397109
 30
0.0
 11
11000.1831161885
 21
8433.871408397109
 31
0.0
  0
INSERT
  5
1A32B
330
1843D
100
AcDbEntity
  8
寸法
 62
     0
 48
50.0
370
    -2
100
AcDbBlockReference
  2
_DOTSMALL
 10
10147.18311618849
 20
8433.871408397109
 30
0.0
 41
100.0
 42
100.0
 43
100.0
 50
180.0
  0
INSERT
  5
1A32C
330
1843D
100
AcDbEntity
  8
寸法
 62
     0
 48
50.0
370
    -2
100
AcDbBlockReference
  2
_DOTSMALL
 10
11000.1831161885
 20
8433.871408397109
 30
0.0
 41
100.0
 42
100.0
 43
100.0
  0
MTEXT
  5
1A32D
330
1843D
100
AcDbEntity
  8
寸法
 62
     7
 48
50.0
100
AcDbMText
 10
10605.09895186319
 20
8533.871408397109
 30
0.0
 40
120.0
 41
0.0
 71
     5
 72
     1
  1
\A1;853
  7
STYLE1
 73
     1
 44
1.0
1001
ACAD
1000
MTEXTBEGIN
1070
    73
1070
     1
1070
    44
1040
1.0
1070
    74
1070
     0
1000
MTEXTEND
  0
POINT
  5
1A32E
330
1843D
100
AcDbEntity
  8
DEFPOINTS
 62
     0
 48
50.0
100
AcDbPoint
 10
10225.75188974492
 20
8727.094063198086
 30
0.0
  0
POINT
  5
1A32F
330
1843D
100
AcDbEntity
  8
DEFPOINTS
 62
     0
 48
50.0
100
AcDbPoint
 10
11078.75188974493
 20
8727.094063198078
 30
0.0
  0
POINT
  5
1A330
330
1843D
100
AcDbEntity
  8
DEFPOINTS
 62
     0
 48
50.0
100
AcDbPoint
 10
11000.1831161885
 20
8433.871408397109
 30
0.0
  0
ENDBLK
  5
18448
330
1843D
100
AcDbEntity
  8
0
 48
50.0
100
AcDbBlockEnd
  0
BLOCK
  5
18455
330
18449
100
AcDbEntity
  8
0
 48
50.0
100
AcDbBlockBegin
  2
*D6
 70
     1
 10
0.0
 20
0.0
 30
0.0
  3
*D6
  1

  0
LINE
  5
1A31D
330
18449
100
AcDbEntity
  8
寸法
 62
     0
 48
50.0
370
    -2
100
AcDbLine
 10
11127.2518897449
 20
7892.094063198062
 30
0.0
 11
11814.67823547931
 21
7892.094063198062
 31
0.0
  0
LINE
  5
1A31E
330
18449
100
AcDbEntity
  8
寸法
 62
     0
 48
50.0
370
    -2
100
AcDbLine
 10
11127.2518897449
 20
7837.094063198065
 30
0.0
 11
11814.67823547931
 21
7837.094063198065
 31
0.0
  0
LINE
  5
1A31F
330
18449
100
AcDbEntity
  8
寸法
 62
     0
 48
50.0
370
    -2
100
AcDbLine
 10
11754.67823547931
 20
7892.094063198062
 30
0.0
 11
11754.67823547931
 21
7992.094063198063
 31
0.0
  0
LINE
  5
1A320
330
18449
100
AcDbEntity
  8
寸法
 62
     0
 48
50.0
370
    -2
100
AcDbLine
 10
11754.67823547931
 20
7837.094063198065
 30
0.0
 11
11754.67823547931
 21
7350.747314918963
 31
0.0
  0
LINE
  5
1A321
330
18449
100
AcDbEntity
  8
寸法
 62
     0
 48
50.0
370
    -2
100
AcDbLine
 10
11754.67823547931
 20
7892.094063198062
 30
0.0
 11
11754.67823547931
 21
7837.094063198065
 31
0.0
  0
INSERT
  5
1A322
330
18449
100
AcDbEntity
  8
寸法
 62
     0
 48
50.0
370
    -2
100
AcDbBlockReference
  2
_DOTSMALL
 10
11754.67823547931
 20
7892.094063198062
 30
0.0
 41
100.0
 42
100.0
 43
100.0
 50
270.0
  0
INSERT
  5
1A323
330
18449
100
AcDbEntity
  8
寸法
 62
     0
 48
50.0
370
    -2
100
AcDbBlockReference
  2
_DOTSMALL
 10
11754.67823547931
 20
7837.094063198065
 30
0.0
 41
100.0
 42
100.0
 43
100.0
 50
90.0
  0
MTEXT
  5
1A324
330
18449
100
AcDbEntity
  8
寸法
 62
     7
 48
50.0
100
AcDbMText
 10
11654.6782354793
 20
7459.232596293205
 30
0.0
 40
120.0
 41
0.0
 71
     5
 72
     1
  1
\A1;55
  7
STYLE1
 11
0.0000000000000001
 21
1.0
 31
0.0
 73
     1
 44
1.0
1001
ACAD
1000
MTEXTBEGIN
1070
    73
1070
     1
1070
    44
1040
1.0
1070
    74
1070
     0
1000
MTEXTEND
  0
POINT
  5
1A325
330
18449
100
AcDbEntity
  8
DEFPOINTS
 62
     0
 48
50.0
100
AcDbPoint
 10
11107.2518897449
 20
7892.094063198062
 30
0.0
  0
POINT
  5
1A326
330
18449
100
AcDbEntity
  8
DEFPOINTS
 62
     0
 48
50.0
100
AcDbPoint
 10
11107.2518897449
 20
7837.094063198065
 30
0.0
  0
POINT
  5
1A327
330
18449
100
AcDbEntity
  8
DEFPOINTS
 62
     0
 48
50.0
100
AcDbPoint
 10
11754.67823547931
 20
7837.094063198065
 30
0.0
  0
ENDBLK
  5
18456
330
18449
100
AcDbEntity
  8
0
 48
50.0
100
AcDbBlockEnd
  0
BLOCK
  5
18461
330
18457
100
AcDbEntity
  8
0
 48
50.0
100
AcDbBlockBegin
  2
*D7
 70
     1
 10
0.0
 20
0.0
 30
0.0
  3
*D7
  1

  0
LINE
  5
1A314
330
18457
100
AcDbEntity
  8
寸法
 62
     0
 48
50.0
370
    -2
100
AcDbLine
 10
8897.251889744914
 20
7817.094063197902
 30
0.0
 11
8897.251889744914
 21
6513.582833424822
 31
0.0
  0
LINE
  5
1A315
330
18457
100
AcDbEntity
  8
寸法
 62
     0
 48
50.0
370
    -2
100
AcDbLine
 10
11107.2518897449
 20
7817.094063198031
 30
0.0
 11
11107.2518897449
 21
6513.582833424822
 31
0.0
  0
LINE
  5
1A316
330
18457
100
AcDbEntity
  8
寸法
 62
     0
 48
50.0
370
    -2
100
AcDbLine
 10
8897.251889744914
 20
6573.582833424822
 30
0.0
 11
11107.2518897449
 21
6573.582833424822
 31
0.0
  0
INSERT
  5
1A317
330
18457
100
AcDbEntity
  8
寸法
 62
     0
 48
50.0
370
    -2
100
AcDbBlockReference
  2
_DOTSMALL
 10
8897.251889744914
 20
6573.582833424822
 30
0.0
 41
100.0
 42
100.0
 43
100.0
 50
180.0
  0
INSERT
  5
1A318
330
18457
100
AcDbEntity
  8
寸法
 62
     0
 48
50.0
370
    -2
100
AcDbBlockReference
  2
_DOTSMALL
 10
11107.2518897449
 20
6573.582833424822
 30
0.0
 41
100.0
 42
100.0
 43
100.0
  0
MTEXT
  5
1A319
330
18457
100
AcDbEntity
  8
寸法
 62
     7
 48
50.0
100
AcDbMText
 10
10024.38464649221
 20
6673.594644448444
 30
0.0
 40
120.0
 41
0.0
 71
     5
 72
     1
  1
\A1;2210
  7
STYLE1
 73
     1
 44
1.0
1001
ACAD
1000
MTEXTBEGIN
1070
    73
1070
     1
1070
    44
1040
1.0
1070
    74
1070
     0
1000
MTEXTEND
  0
POINT
  5
1A31A
330
18457
100
AcDbEntity
  8
DEFPOINTS
 62
     0
 48
50.0
100
AcDbPoint
 10
8897.251889744914
 20
7837.094063197902
 30
0.0
  0
POINT
  5
1A31B
330
18457
100
AcDbEntity
  8
DEFPOINTS
 62
     0
 48
50.0
100
AcDbPoint
 10
11107.2518897449
 20
7837.094063198032
 30
0.0
  0
POINT
  5
1A31C
330
18457
100
AcDbEntity
  8
DEFPOINTS
 62
     0
 48
50.0
100
AcDbPoint
 10
11107.2518897449
 20
6573.582833424822
 30
0.0
  0
ENDBLK
  5
18462
330
18457
100
AcDbEntity
  8
0
 48
50.0
100
AcDbBlockEnd
  0
BLOCK
  5
1846D
330
18463
100
AcDbEntity
  8
0
 48
50.0
100
AcDbBlockBegin
  2
*D8
 70
     1
 10
0.0
 20
0.0
 30
0.0
  3
*D8
  1

  0
LINE
  5
1A30B
330
18463
100
AcDbEntity
  8
寸法
 62
     0
 48
50.0
370
    -2
100
AcDbLine
 10
8920.392905896299
 20
8707.094063197979
 30
0.0
 11
8831.106164642653
 21
8373.871408397111
 31
0.0
  0
LINE
  5
1A30C
330
18463
100
AcDbEntity
  8
寸法
 62
     0
 48
50.0
370
    -2
100
AcDbLine
 10
10193.39290589631
 20
8707.094063197972
 30
0.0
 11
10104.10616464266
 21
8373.871408397111
 31
0.0
  0
LINE
  5
1A30D
330
18463
100
AcDbEntity
  8
寸法
 62
     0
 48
50.0
370
    -2
100
AcDbLine
 10
8847.183116188521
 20
8433.871408397109
 30
0.0
 11
10120.18311618853
 21
8433.871408397109
 31
0.0
  0
INSERT
  5
1A30E
330
18463
100
AcDbEntity
  8
寸法
 62
     0
 48
50.0
370
    -2
100
AcDbBlockReference
  2
_DOTSMALL
 10
8847.183116188521
 20
8433.871408397109
 30
0.0
 41
100.0
 42
100.0
 43
100.0
 50
180.0
  0
INSERT
  5
1A30F
330
18463
100
AcDbEntity
  8
寸法
 62
     0
 48
50.0
370
    -2
100
AcDbBlockReference
  2
_DOTSMALL
 10
10120.18311618853
 20
8433.871408397109
 30
0.0
 41
100.0
 42
100.0
 43
100.0
  0
MTEXT
  5
1A310
330
18463
100
AcDbEntity
  8
寸法
 62
     7
 48
50.0
100
AcDbMText
 10
9461.328666321305
 20
8533.883219420731
 30
0.0
 40
120.0
 41
0.0
 71
     5
 72
     1
  1
\A1;1273
  7
STYLE1
 73
     1
 44
1.0
1001
ACAD
1000
MTEXTBEGIN
1070
    73
1070
     1
1070
    44
1040
1.0
1070
    74
1070
     0
1000
MTEXTEND
  0
POINT
  5
1A311
330
18463
100
AcDbEntity
  8
DEFPOINTS
 62
     0
 48
50.0
100
AcDbPoint
 10
8925.751889744923
 20
8727.094063197979
 30
0.0
  0
POINT
  5
1A312
330
18463
100
AcDbEntity
  8
DEFPOINTS
 62
     0
 48
50.0
100
AcDbPoint
 10
10198.75188974493
 20
8727.094063197972
 30
0.0
  0
POINT
  5
1A313
330
18463
100
AcDbEntity
  8
DEFPOINTS
 62
     0
 48
50.0
100
AcDbPoint
 10
10120.18311618853
 20
8433.871408397109
 30
0.0
  0
ENDBLK
  5
1846E
330
18463
100
AcDbEntity
  8
0
 48
50.0
100
AcDbBlockEnd
  0
BLOCK
  5
1847B
330
1846F
100
AcDbEntity
  8
0
 48
50.0
100
AcDbBlockBegin
  2
*D9
 70
     1
 10
0.0
 20
0.0
 30
0.0
  3
*D9
  1

  0
LINE
  5
1A300
330
1846F
100
AcDbEntity
  8
寸法
 62
     0
 48
50.0
370
    -2
100
AcDbLine
 10
8897.251889744886
 20
9227.094063197979
 30
0.0
 11
8897.251889744886
 21
9570.139657773557
 31
0.0
  0
LINE
  5
1A301
330
1846F
100
AcDbEntity
  8
寸法
 62
     0
 48
50.0
370
    -2
100
AcDbLine
 10
8952.251889744923
 20
9227.094063197979
 30
0.0
 11
8952.251889744923
 21
9570.139657773557
 31
0.0
  0
LINE
  5
1A302
330
1846F
100
AcDbEntity
  8
寸法
 62
     0
 48
50.0
370
    -2
100
AcDbLine
 10
8952.251889744923
 20
9510.139657773558
 30
0.0
 11
9052.251889744923
 21
9510.139657773558
 31
0.0
  0
LINE
  5
1A303
330
1846F
100
AcDbEntity
  8
寸法
 62
     0
 48
50.0
370
    -2
100
AcDbLine
 10
8897.251889744886
 20
9510.139657773558
 30
0.0
 11
8480.28132699641
 21
9510.139657773558
 31
0.0
  0
LINE
  5
1A304
330
1846F
100
AcDbEntity
  8
寸法
 62
     0
 48
50.0
370
    -2
100
AcDbLine
 10
8952.251889744923
 20
9510.139657773558
 30
0.0
 11
8897.251889744886
 21
9510.139657773558
 31
0.0
  0
INSERT
  5
1A305
330
1846F
100
AcDbEntity
  8
寸法
 62
     0
 48
50.0
370
    -2
100
AcDbBlockReference
  2
_DOTSMALL
 10
8952.251889744923
 20
9510.139657773558
 30
0.0
 41
100.0
 42
100.0
 43
100.0
 50
180.0
  0
INSERT
  5
1A306
330
1846F
100
AcDbEntity
  8
寸法
 62
     0
 48
50.0
370
    -2
100
AcDbBlockReference
  2
_DOTSMALL
 10
8897.251889744886
 20
9510.139657773558
 30
0.0
 41
100.0
 42
100.0
 43
100.0
  0
MTEXT
  5
1A307
330
1846F
100
AcDbEntity
  8
寸法
 62
     7
 48
50.0
100
AcDbMText
 10
8588.766608370647
 20
9610.139657773558
 30
0.0
 40
120.0
 41
0.0
 71
     5
 72
     1
  1
\A1;55
  7
STYLE1
 73
     1
 44
1.0
1001
ACAD
1000
MTEXTBEGIN
1070
    73
1070
     1
1070
    44
1040
1.0
1070
    74
1070
     0
1000
MTEXTEND
  0
POINT
  5
1A308
330
1846F
100
AcDbEntity
  8
DEFPOINTS
 62
     0
 48
50.0
100
AcDbPoint
 10
8897.251889744886
 20
9207.094063197979
 30
0.0
  0
POINT
  5
1A309
330
1846F
100
AcDbEntity
  8
DEFPOINTS
 62
     0
 48
50.0
100
AcDbPoint
 10
8952.251889744923
 20
9207.094063197979
 30
0.0
  0
POINT
  5
1A30A
330
1846F
100
AcDbEntity
  8
DEFPOINTS
 62
     0
 48
50.0
100
AcDbPoint
 10
8952.251889744923
 20
9510.139657773558
 30
0.0
  0
ENDBLK
  5
1847C
330
1846F
100
AcDbEntity
  8
0
 48
50.0
100
AcDbBlockEnd
  0
BLOCK
  5
18489
330
1847D
100
AcDbEntity
  8
0
 48
50.0
100
AcDbBlockBegin
  2
*D10
 70
     1
 10
0.0
 20
0.0
 30
0.0
  3
*D10
  1

  0
LINE
  5
1A2F5
330
1847D
100
AcDbEntity
  8
寸法
 62
     0
 48
50.0
370
    -2
100
AcDbLine
 10
11127.25188974492
 20
9207.094063198075
 30
0.0
 11
11814.67823547933
 21
9207.094063198075
 31
0.0
  0
LINE
  5
1A2F6
330
1847D
100
AcDbEntity
  8
寸法
 62
     0
 48
50.0
370
    -2
100
AcDbLine
 10
11127.25188974492
 20
9152.094063198077
 30
0.0
 11
11814.67823547933
 21
9152.094063198077
 31
0.0
  0
LINE
  5
1A2F7
330
1847D
100
AcDbEntity
  8
寸法
 62
     0
 48
50.0
370
    -2
100
AcDbLine
 10
11754.67823547933
 20
9152.094063198077
 30
0.0
 11
11754.67823547933
 21
9052.094063198078
 31
0.0
  0
LINE
  5
1A2F8
330
1847D
100
AcDbEntity
  8
寸法
 62
     0
 48
50.0
370
    -2
100
AcDbLine
 10
11754.67823547933
 20
9207.094063198075
 30
0.0
 11
11754.67823547933
 21
9624.064625946552
 31
0.0
  0
LINE
  5
1A2F9
330
1847D
100
AcDbEntity
  8
寸法
 62
     0
 48
50.0
370
    -2
100
AcDbLine
 10
11754.67823547933
 20
9152.094063198077
 30
0.0
 11
11754.67823547933
 21
9207.094063198075
 31
0.0
  0
INSERT
  5
1A2FA
330
1847D
100
AcDbEntity
  8
寸法
 62
     0
 48
50.0
370
    -2
100
AcDbBlockReference
  2
_DOTSMALL
 10
11754.67823547933
 20
9152.094063198077
 30
0.0
 41
100.0
 42
100.0
 43
100.0
 50
90.0
  0
INSERT
  5
1A2FB
330
1847D
100
AcDbEntity
  8
寸法
 62
     0
 48
50.0
370
    -2
100
AcDbBlockReference
  2
_DOTSMALL
 10
11754.67823547933
 20
9207.094063198075
 30
0.0
 41
100.0
 42
100.0
 43
100.0
 50
270.0
  0
MTEXT
  5
1A2FC
330
1847D
100
AcDbEntity
  8
寸法
 62
     7
 48
50.0
100
AcDbMText
 10
11654.67823547933
 20
9515.579344572314
 30
0.0
 40
120.0
 41
0.0
 71
     5
 72
     1
  1
\A1;55
  7
STYLE1
 11
0.0000000000000001
 21
1.0
 31
0.0
 73
     1
 44
1.0
1001
ACAD
1000
MTEXTBEGIN
1070
    73
1070
     1
1070
    44
1040
1.0
1070
    74
1070
     0
1000
MTEXTEND
  0
POINT
  5
1A2FD
330
1847D
100
AcDbEntity
  8
DEFPOINTS
 62
     0
 48
50.0
100
AcDbPoint
 10
11107.25188974492
 20
9207.094063198075
 30
0.0
  0
POINT
  5
1A2FE
330
1847D
100
AcDbEntity
  8
DEFPOINTS
 62
     0
 48
50.0
100
AcDbPoint
 10
11107.25188974492
 20
9152.094063198077
 30
0.0
  0
POINT
  5
1A2FF
330
1847D
100
AcDbEntity
  8
DEFPOINTS
 62
     0
 48
50.0
100
AcDbPoint
 10
11754.67823547933
 20
9152.094063198077
 30
0.0
  0
ENDBLK
  5
1848A
330
1847D
100
AcDbEntity
  8
0
 48
50.0
100
AcDbBlockEnd
  0
BLOCK
  5
18497
330
1848B
100
AcDbEntity
  8
0
 48
50.0
100
AcDbBlockBegin
  2
*D11
 70
     1
 10
0.0
 20
0.0
 30
0.0
  3
*D11
  1

  0
LINE
  5
1A2EA
330
1848B
100
AcDbEntity
  8
寸法
 62
     0
 48
50.0
370
    -2
100
AcDbLine
 10
11052.25188974492
 20
9227.094063198073
 30
0.0
 11
11052.25188974492
 21
9570.139657773657
 31
0.0
  0
LINE
  5
1A2EB
330
1848B
100
AcDbEntity
  8
寸法
 62
     0
 48
50.0
370
    -2
100
AcDbLine
 10
11107.25188974492
 20
9227.094063198073
 30
0.0
 11
11107.25188974492
 21
9570.139657773657
 31
0.0
  0
LINE
  5
1A2EC
330
1848B
100
AcDbEntity
  8
寸法
 62
     0
 48
50.0
370
    -2
100
AcDbLine
 10
11052.25188974492
 20
9510.139657773656
 30
0.0
 11
10952.25188974492
 21
9510.139657773656
 31
0.0
  0
LINE
  5
1A2ED
330
1848B
100
AcDbEntity
  8
寸法
 62
     0
 48
50.0
370
    -2
100
AcDbLine
 10
11107.25188974492
 20
9510.139657773656
 30
0.0
 11
11524.2224524934
 21
9510.139657773656
 31
0.0
  0
LINE
  5
1A2EE
330
1848B
100
AcDbEntity
  8
寸法
 62
     0
 48
50.0
370
    -2
100
AcDbLine
 10
11052.25188974492
 20
9510.139657773656
 30
0.0
 11
11107.25188974492
 21
9510.139657773656
 31
0.0
  0
INSERT
  5
1A2EF
330
1848B
100
AcDbEntity
  8
寸法
 62
     0
 48
50.0
370
    -2
100
AcDbBlockReference
  2
_DOTSMALL
 10
11052.25188974492
 20
9510.139657773656
 30
0.0
 41
100.0
 42
100.0
 43
100.0
  0
INSERT
  5
1A2F0
330
1848B
100
AcDbEntity
  8
寸法
 62
     0
 48
50.0
370
    -2
100
AcDbBlockReference
  2
_DOTSMALL
 10
11107.25188974492
 20
9510.139657773656
 30
0.0
 41
100.0
 42
100.0
 43
100.0
 50
180.0
  0
MTEXT
  5
1A2F1
330
1848B
100
AcDbEntity
  8
寸法
 62
     7
 48
50.0
100
AcDbMText
 10
11415.73717111916
 20
9610.139657773657
 30
0.0
 40
120.0
 41
0.0
 71
     5
 72
     1
  1
\A1;55
  7
STYLE1
 73
     1
 44
1.0
1001
ACAD
1000
MTEXTBEGIN
1070
    73
1070
     1
1070
    44
1040
1.0
1070
    74
1070
     0
1000
MTEXTEND
  0
POINT
  5
1A2F2
330
1848B
100
AcDbEntity
  8
DEFPOINTS
 62
     0
 48
50.0
100
AcDbPoint
 10
11052.25188974492
 20
9207.094063198075
 30
0.0
  0
POINT
  5
1A2F3
330
1848B
100
AcDbEntity
  8
DEFPOINTS
 62
     0
 48
50.0
100
AcDbPoint
 10
11107.25188974492
 20
9207.094063198075
 30
0.0
  0
POINT
  5
1A2F4
330
1848B
100
AcDbEntity
  8
DEFPOINTS
 62
     0
 48
50.0
100
AcDbPoint
 10
11107.25188974492
 20
9510.139657773656
 30
0.0
  0
ENDBLK
  5
18498
330
1848B
100
AcDbEntity
  8
0
 48
50.0
100
AcDbBlockEnd
  0
BLOCK
  5
184A3
330
18499
100
AcDbEntity
  8
0
 48
50.0
100
AcDbBlockBegin
  2
*D12
 70
     1
 10
0.0
 20
0.0
 30
0.0
  3
*D12
  1

  0
LINE
  5
1A2E1
330
18499
100
AcDbEntity
  8
寸法
 62
     0
 48
50.0
370
    -2
100
AcDbLine
 10
8952.251889744923
 20
9227.094063197979
 30
0.0
 11
8952.251889744923
 21
9570.139657773674
 31
0.0
  0
LINE
  5
1A2E2
330
18499
100
AcDbEntity
  8
寸法
 62
     0
 48
50.0
370
    -2
100
AcDbLine
 10
11052.25188974492
 20
9227.094063198073
 30
0.0
 11
11052.25188974492
 21
9570.139657773674
 31
0.0
  0
LINE
  5
1A2E3
330
18499
100
AcDbEntity
  8
寸法
 62
     0
 48
50.0
370
    -2
100
AcDbLine
 10
8952.251889744923
 20
9510.139657773674
 30
0.0
 11
11052.25188974492
 21
9510.139657773674
 31
0.0
  0
INSERT
  5
1A2E4
330
18499
100
AcDbEntity
  8
寸法
 62
     0
 48
50.0
370
    -2
100
AcDbBlockReference
  2
_DOTSMALL
 10
8952.251889744923
 20
9510.139657773674
 30
0.0
 41
100.0
 42
100.0
 43
100.0
 50
180.0
  0
INSERT
  5
1A2E5
330
18499
100
AcDbEntity
  8
寸法
 62
     0
 48
50.0
370
    -2
100
AcDbBlockReference
  2
_DOTSMALL
 10
11052.25188974492
 20
9510.139657773674
 30
0.0
 41
100.0
 42
100.0
 43
100.0
  0
MTEXT
  5
1A2E6
330
18499
100
AcDbEntity
  8
寸法
 62
     7
 48
50.0
100
AcDbMText
 10
10002.25188974492
 20
9610.151468797297
 30
0.0
 40
120.0
 41
0.0
 71
     5
 72
     1
  1
\A1;5X420=2100
  7
STYLE1
 73
     1
 44
1.0
1001
ACAD
1000
MTEXTBEGIN
1070
    73
1070
     1
1070
    44
1040
1.0
1070
    74
1070
     0
1000
MTEXTEND
  0
POINT
  5
1A2E7
330
18499
100
AcDbEntity
  8
DEFPOINTS
 62
     0
 48
50.0
100
AcDbPoint
 10
8952.251889744923
 20
9207.094063197979
 30
0.0
  0
POINT
  5
1A2E8
330
18499
100
AcDbEntity
  8
DEFPOINTS
 62
     0
 48
50.0
100
AcDbPoint
 10
11052.25188974492
 20
9207.094063198075
 30
0.0
  0
POINT
  5
1A2E9
330
18499
100
AcDbEntity
  8
DEFPOINTS
 62
     0
 48
50.0
100
AcDbPoint
 10
11052.25188974492
 20
9510.139657773674
 30
0.0
  0
ENDBLK
  5
184A4
330
18499
100
AcDbEntity
  8
0
 48
50.0
100
AcDbBlockEnd
  0
BLOCK
  5
184AF
330
184A5
100
AcDbEntity
  8
0
 48
50.0
100
AcDbBlockBegin
  2
*D13
 70
     1
 10
0.0
 20
0.0
 30
0.0
  3
*D13
  1

  0
LINE
  5
1A34C
330
184A5
100
AcDbEntity
  8
寸法
 62
     0
 48
50.0
370
    -2
100
AcDbLine
 10
11127.25188974492
 20
9207.094063198075
 30
0.0
 11
12121.29467684464
 21
9207.094063198075
 31
0.0
  0
LINE
  5
1A34D
330
184A5
100
AcDbEntity
  8
寸法
 62
     0
 48
50.0
370
    -2
100
AcDbLine
 10
11127.2518897449
 20
7837.094063198065
 30
0.0
 11
12121.29467684464
 21
7837.094063198065
 31
0.0
  0
LINE
  5
1A34E
330
184A5
100
AcDbEntity
  8
寸法
 62
     0
 48
50.0
370
    -2
100
AcDbLine
 10
12061.29467684464
 20
9207.094063198075
 30
0.0
 11
12061.29467684464
 21
7837.094063198065
 31
0.0
  0
INSERT
  5
1A34F
330
184A5
100
AcDbEntity
  8
寸法
 62
     0
 48
50.0
370
    -2
100
AcDbBlockReference
  2
_DOTSMALL
 10
12061.29467684464
 20
9207.094063198075
 30
0.0
 41
100.0
 42
100.0
 43
100.0
 50
90.0
  0
INSERT
  5
1A350
330
184A5
100
AcDbEntity
  8
寸法
 62
     0
 48
50.0
370
    -2
100
AcDbBlockReference
  2
_DOTSMALL
 10
12061.29467684464
 20
7837.094063198065
 30
0.0
 41
100.0
 42
100.0
 43
100.0
 50
270.0
  0
MTEXT
  5
1A351
330
184A5
100
AcDbEntity
  8
寸法
 62
     7
 48
50.0
100
AcDbMText
 10
11961.29467684464
 20
8511.196729100069
 30
0.0
 40
120.0
 41
0.0
 71
     5
 72
     1
  1
\A1;1370
  7
STYLE1
 11
0.0000000000000001
 21
1.0
 31
0.0
 73
     1
 44
1.0
1001
ACAD
1000
MTEXTBEGIN
1070
    73
1070
     1
1070
    44
1040
1.0
1070
    74
1070
     0
1000
MTEXTEND
  0
POINT
  5
1A352
330
184A5
100
AcDbEntity
  8
DEFPOINTS
 62
     0
 48
50.0
100
AcDbPoint
 10
11107.25188974492
 20
9207.094063198075
 30
0.0
  0
POINT
  5
1A353
330
184A5
100
AcDbEntity
  8
DEFPOINTS
 62
     0
 48
50.0
100
AcDbPoint
 10
11107.2518897449
 20
7837.094063198065
 30
0.0
  0
POINT
  5
1A354
330
184A5
100
AcDbEntity
  8
DEFPOINTS
 62
     0
 48
50.0
100
AcDbPoint
 10
12061.29467684464
 20
7837.094063198065
 30
0.0
  0
ENDBLK
  5
184B0
330
184A5
100
AcDbEntity
  8
0
 48
50.0
100
AcDbBlockEnd
  0
BLOCK
  5
184BB
330
184B1
100
AcDbEntity
  8
0
 48
50.0
100
AcDbBlockBegin
  2
*D14
 70
     1
 10
0.0
 20
0.0
 30
0.0
  3
*D14
  1

  0
LINE
  5
197B6
330
184B1
100
AcDbEntity
  8
寸法
 62
     0
 48
50.0
370
    -2
100
AcDbLine
 10
8997.251889744918
 20
2426.225007150097
 30
0.0
 11
8997.251889744918
 21
2100.17767784972
 31
0.0
  0
LINE
  5
197B7
330
184B1
100
AcDbEntity
  8
寸法
 62
     0
 48
50.0
370
    -2
100
AcDbLine
 10
8797.251889744915
 20
2426.225007150097
 30
0.0
 11
8797.251889744915
 21
2100.17767784972
 31
0.0
  0
LINE
  5
197B8
330
184B1
100
AcDbEntity
  8
寸法
 62
     0
 48
50.0
370
    -2
100
AcDbLine
 10
8997.251889744918
 20
2160.17767784972
 30
0.0
 11
8797.251889744915
 21
2160.17767784972
 31
0.0
  0
INSERT
  5
197B9
330
184B1
100
AcDbEntity
  8
寸法
 62
     0
 48
50.0
370
    -2
100
AcDbBlockReference
  2
_DOTSMALL
 10
8997.251889744918
 20
2160.17767784972
 30
0.0
 41
100.0
 42
100.0
 43
100.0
  0
INSERT
  5
197BA
330
184B1
100
AcDbEntity
  8
寸法
 62
     0
 48
50.0
370
    -2
100
AcDbBlockReference
  2
_DOTSMALL
 10
8797.251889744915
 20
2160.17767784972
 30
0.0
 41
100.0
 42
100.0
 43
100.0
 50
180.0
  0
MTEXT
  5
197BB
330
184B1
100
AcDbEntity
  8
寸法
 62
     7
 48
50.0
100
AcDbMText
 10
8897.251889744914
 20
2260.189488873342
 30
0.0
 40
120.0
 41
0.0
 71
     5
 72
     1
  1
\A1;200
  7
STYLE1
 73
     1
 44
1.0
1001
ACAD
1000
MTEXTBEGIN
1070
    73
1070
     1
1070
    44
1040
1.0
1070
    74
1070
     0
1000
MTEXTEND
  0
POINT
  5
197BC
330
184B1
100
AcDbEntity
  8
DEFPOINTS
 62
     0
 48
50.0
100
AcDbPoint
 10
8997.251889744918
 20
2446.225007150097
 30
0.0
  0
POINT
  5
197BD
330
184B1
100
AcDbEntity
  8
DEFPOINTS
 62
     0
 48
50.0
100
AcDbPoint
 10
8797.251889744915
 20
2446.225007150097
 30
0.0
  0
POINT
  5
197BE
330
184B1
100
AcDbEntity
  8
DEFPOINTS
 62
     0
 48
50.0
100
AcDbPoint
 10
8797.251889744915
 20
2160.17767784972
 30
0.0
  0
ENDBLK
  5
184BC
330
184B1
100
AcDbEntity
  8
0
 48
50.0
100
AcDbBlockEnd
  0
BLOCK
  5
18D99
330
18D8D
100
AcDbEntity
  8
0
 48
50.0
100
AcDbBlockBegin
  2
*D15
 70
     1
 10
0.0
 20
0.0
 30
0.0
  3
*D15
  1

  0
LINE
  5
197AB
330
18D8D
100
AcDbEntity
  8
寸法
 62
     0
 48
50.0
370
    -2
100
AcDbLine
 10
6498.967472720353
 20
4841.225007150098
 30
0.0
 11
6498.967472720353
 21
5285.845266577368
 31
0.0
  0
LINE
  5
197AC
330
18D8D
100
AcDbEntity
  8
寸法
 62
     0
 48
50.0
370
    -2
100
AcDbLine
 10
6448.967472720354
 20
4841.225007150102
 30
0.0
 11
6448.967472720354
 21
5285.845266577368
 31
0.0
  0
LINE
  5
197AD
330
18D8D
100
AcDbEntity
  8
寸法
 62
     0
 48
50.0
370
    -2
100
AcDbLine
 10
6448.967472720354
 20
5225.845266577367
 30
0.0
 11
6348.967472720353
 21
5225.845266577367
 31
0.0
  0
LINE
  5
197AE
330
18D8D
100
AcDbEntity
  8
寸法
 62
     0
 48
50.0
370
    -2
100
AcDbLine
 10
6498.967472720353
 20
5225.845266577367
 30
0.0
 11
6918.499998189076
 21
5225.845266577367
 31
0.0
  0
LINE
  5
197AF
330
18D8D
100
AcDbEntity
  8
寸法
 62
     0
 48
50.0
370
    -2
100
AcDbLine
 10
6448.967472720354
 20
5225.845266577367
 30
0.0
 11
6498.967472720353
 21
5225.845266577367
 31
0.0
  0
INSERT
  5
197B0
330
18D8D
100
AcDbEntity
  8
寸法
 62
     0
 48
50.0
370
    -2
100
AcDbBlockReference
  2
_DOTSMALL
 10
6448.967472720354
 20
5225.845266577367
 30
0.0
 41
100.0
 42
100.0
 43
100.0
  0
INSERT
  5
197B1
330
18D8D
100
AcDbEntity
  8
寸法
 62
     0
 48
50.0
370
    -2
100
AcDbBlockReference
  2
_DOTSMALL
 10
6498.967472720353
 20
5225.845266577367
 30
0.0
 41
100.0
 42
100.0
 43
100.0
 50
180.0
  0
MTEXT
  5
197B2
330
18D8D
100
AcDbEntity
  8
寸法
 62
     7
 48
50.0
100
AcDbMText
 10
6812.452754094589
 20
5325.845266577367
 30
0.0
 40
120.0
 41
0.0
 71
     5
 72
     1
  1
\A1;50
  7
STYLE1
 73
     1
 44
1.0
1001
ACAD
1000
MTEXTBEGIN
1070
    73
1070
     1
1070
    44
1040
1.0
1070
    74
1070
     0
1000
MTEXTEND
  0
POINT
  5
197B3
330
18D8D
100
AcDbEntity
  8
DEFPOINTS
 62
     0
 48
50.0
100
AcDbPoint
 10
6498.967472720353
 20
4821.225007150099
 30
0.0
  0
POINT
  5
197B4
330
18D8D
100
AcDbEntity
  8
DEFPOINTS
 62
     0
 48
50.0
100
AcDbPoint
 10
6448.967472720354
 20
4821.225007150102
 30
0.0
  0
POINT
  5
197B5
330
18D8D
100
AcDbEntity
  8
DEFPOINTS
 62
     0
 48
50.0
100
AcDbPoint
 10
6448.967472720354
 20
5225.845266577367
 30
0.0
  0
ENDBLK
  5
18D9A
330
18D8D
100
AcDbEntity
  8
0
 48
50.0
100
AcDbBlockEnd
  0
BLOCK
  5
18DA5
330
18D9B
100
AcDbEntity
  8
0
 48
50.0
100
AcDbBlockBegin
  2
*D16
 70
     1
 10
0.0
 20
0.0
 30
0.0
  3
*D16
  1

  0
LINE
  5
19785
330
18D9B
100
AcDbEntity
  8
寸法
 62
     0
 48
50.0
370
    -2
100
AcDbLine
 10
5206.467472720353
 20
2426.225007150095
 30
0.0
 11
5206.467472720353
 21
2100.177677849719
 31
0.0
  0
LINE
  5
19786
330
18D9B
100
AcDbEntity
  8
寸法
 62
     0
 48
50.0
370
    -2
100
AcDbLine
 10
5006.467472720356
 20
2426.225007150095
 30
0.0
 11
5006.467472720356
 21
2100.177677849719
 31
0.0
  0
LINE
  5
19787
330
18D9B
100
AcDbEntity
  8
寸法
 62
     0
 48
50.0
370
    -2
100
AcDbLine
 10
5206.467472720353
 20
2160.177677849719
 30
0.0
 11
5006.467472720356
 21
2160.177677849719
 31
0.0
  0
INSERT
  5
19788
330
18D9B
100
AcDbEntity
  8
寸法
 62
     0
 48
50.0
370
    -2
100
AcDbBlockReference
  2
_DOTSMALL
 10
5206.467472720353
 20
2160.177677849719
 30
0.0
 41
100.0
 42
100.0
 43
100.0
  0
INSERT
  5
19789
330
18D9B
100
AcDbEntity
  8
寸法
 62
     0
 48
50.0
370
    -2
100
AcDbBlockReference
  2
_DOTSMALL
 10
5006.467472720356
 20
2160.177677849719
 30
0.0
 41
100.0
 42
100.0
 43
100.0
 50
180.0
  0
MTEXT
  5
1978A
330
18D9B
100
AcDbEntity
  8
寸法
 62
     7
 48
50.0
100
AcDbMText
 10
5106.467472720354
 20
2260.189488873341
 30
0.0
 40
120.0
 41
0.0
 71
     5
 72
     1
  1
\A1;200
  7
STYLE1
 73
     1
 44
1.0
1001
ACAD
1000
MTEXTBEGIN
1070
    73
1070
     1
1070
    44
1040
1.0
1070
    74
1070
     0
1000
MTEXTEND
  0
POINT
  5
1978B
330
18D9B
100
AcDbEntity
  8
DEFPOINTS
 62
     0
 48
50.0
100
AcDbPoint
 10
5206.467472720353
 20
2446.225007150095
 30
0.0
  0
POINT
  5
1978C
330
18D9B
100
AcDbEntity
  8
DEFPOINTS
 62
     0
 48
50.0
100
AcDbPoint
 10
5006.467472720356
 20
2446.225007150095
 30
0.0
  0
POINT
  5
1978D
330
18D9B
100
AcDbEntity
  8
DEFPOINTS
 62
     0
 48
50.0
100
AcDbPoint
 10
5006.467472720356
 20
2160.177677849719
 30
0.0
  0
ENDBLK
  5
18DA6
330
18D9B
100
AcDbEntity
  8
0
 48
50.0
100
AcDbBlockEnd
  0
BLOCK
  5
18DB1
330
18DA7
100
AcDbEntity
  8
0
 48
50.0
100
AcDbBlockBegin
  2
*D17
 70
     1
 10
0.0
 20
0.0
 30
0.0
  3
*D17
  1

  0
LINE
  5
1977C
330
18DA7
100
AcDbEntity
  8
寸法
 62
     0
 48
50.0
370
    -2
100
AcDbLine
 10
4986.467472720356
 20
2446.225007150095
 30
0.0
 11
4796.967469473719
 21
2446.225007150095
 31
0.0
  0
LINE
  5
1977D
330
18DA7
100
AcDbEntity
  8
寸法
 62
     0
 48
50.0
370
    -2
100
AcDbLine
 10
4961.467472720355
 20
2646.225007150097
 30
0.0
 11
4796.967469473719
 21
2646.225007150097
 31
0.0
  0
LINE
  5
1977E
330
18DA7
100
AcDbEntity
  8
寸法
 62
     0
 48
50.0
370
    -2
100
AcDbLine
 10
4856.967469473719
 20
2446.225007150095
 30
0.0
 11
4856.967469473719
 21
2646.225007150097
 31
0.0
  0
INSERT
  5
1977F
330
18DA7
100
AcDbEntity
  8
寸法
 62
     0
 48
50.0
370
    -2
100
AcDbBlockReference
  2
_DOTSMALL
 10
4856.967469473719
 20
2446.225007150095
 30
0.0
 41
100.0
 42
100.0
 43
100.0
 50
270.0
  0
INSERT
  5
19780
330
18DA7
100
AcDbEntity
  8
寸法
 62
     0
 48
50.0
370
    -2
100
AcDbBlockReference
  2
_DOTSMALL
 10
4856.967469473719
 20
2646.225007150097
 30
0.0
 41
100.0
 42
100.0
 43
100.0
 50
90.0
  0
MTEXT
  5
19781
330
18DA7
100
AcDbEntity
  8
寸法
 62
     7
 48
50.0
100
AcDbMText
 10
4756.955658450097
 20
2546.225007150096
 30
0.0
 40
120.0
 41
0.0
 71
     5
 72
     1
  1
\A1;200
  7
STYLE1
 11
0.0000000000000001
 21
1.0
 31
0.0
 73
     1
 44
1.0
1001
ACAD
1000
MTEXTBEGIN
1070
    73
1070
     1
1070
    44
1040
1.0
1070
    74
1070
     0
1000
MTEXTEND
  0
POINT
  5
19782
330
18DA7
100
AcDbEntity
  8
DEFPOINTS
 62
     0
 48
50.0
100
AcDbPoint
 10
5006.467472720356
 20
2446.225007150095
 30
0.0
  0
POINT
  5
19783
330
18DA7
100
AcDbEntity
  8
DEFPOINTS
 62
     0
 48
50.0
100
AcDbPoint
 10
4981.467472720354
 20
2646.225007150097
 30
0.0
  0
POINT
  5
19784
330
18DA7
100
AcDbEntity
  8
DEFPOINTS
 62
     0
 48
50.0
100
AcDbPoint
 10
4856.967469473719
 20
2646.225007150097
 30
0.0
  0
ENDBLK
  5
18DB2
330
18DA7
100
AcDbEntity
  8
0
 48
50.0
100
AcDbBlockEnd
  0
BLOCK
  5
18DBD
330
18DB3
100
AcDbEntity
  8
0
 48
50.0
100
AcDbBlockBegin
  2
*D18
 70
     1
 10
0.0
 20
0.0
 30
0.0
  3
*D18
  1

  0
LINE
  5
197A2
330
18DB3
100
AcDbEntity
  8
寸法
 62
     0
 48
50.0
370
    -2
100
AcDbLine
 10
6448.967472720354
 20
4841.225007150102
 30
0.0
 11
6448.967472720354
 21
5285.845266577368
 31
0.0
  0
LINE
  5
197A3
330
18DB3
100
AcDbEntity
  8
寸法
 62
     0
 48
50.0
370
    -2
100
AcDbLine
 10
5078.967472720358
 20
4841.225007150102
 30
0.0
 11
5078.967472720358
 21
5285.845266577368
 31
0.0
  0
LINE
  5
197A4
330
18DB3
100
AcDbEntity
  8
寸法
 62
     0
 48
50.0
370
    -2
100
AcDbLine
 10
6448.967472720354
 20
5225.845266577367
 30
0.0
 11
5078.967472720358
 21
5225.845266577367
 31
0.0
  0
INSERT
  5
197A5
330
18DB3
100
AcDbEntity
  8
寸法
 62
     0
 48
50.0
370
    -2
100
AcDbBlockReference
  2
_DOTSMALL
 10
6448.967472720354
 20
5225.845266577367
 30
0.0
 41
100.0
 42
100.0
 43
100.0
  0
INSERT
  5
197A6
330
18DB3
100
AcDbEntity
  8
寸法
 62
     0
 48
50.0
370
    -2
100
AcDbBlockReference
  2
_DOTSMALL
 10
5078.967472720358
 20
5225.845266577367
 30
0.0
 41
100.0
 42
100.0
 43
100.0
 50
180.0
  0
MTEXT
  5
197A7
330
18DB3
100
AcDbEntity
  8
寸法
 62
     7
 48
50.0
100
AcDbMText
 10
5763.967472720356
 20
5325.845266577367
 30
0.0
 40
120.0
 41
0.0
 71
     5
 72
     1
  1
\A1;柱外寸法1370
  7
STYLE1
 73
     1
 44
1.0
1001
ACAD
1000
MTEXTBEGIN
1070
    73
1070
     1
1070
    44
1040
1.0
1070
    74
1070
     0
1000
MTEXTEND
  0
POINT
  5
197A8
330
18DB3
100
AcDbEntity
  8
DEFPOINTS
 62
     0
 48
50.0
100
AcDbPoint
 10
6448.967472720354
 20
4821.225007150102
 30
0.0
  0
POINT
  5
197A9
330
18DB3
100
AcDbEntity
  8
DEFPOINTS
 62
     0
 48
50.0
100
AcDbPoint
 10
5078.967472720358
 20
4821.225007150102
 30
0.0
  0
POINT
  5
197AA
330
18DB3
100
AcDbEntity
  8
DEFPOINTS
 62
     0
 48
50.0
100
AcDbPoint
 10
5078.967472720358
 20
5225.845266577367
 30
0.0
  0
ENDBLK
  5
18DBE
330
18DB3
100
AcDbEntity
  8
0
 48
50.0
100
AcDbBlockEnd
  0
BLOCK
  5
18DCB
330
18DBF
100
AcDbEntity
  8
0
 48
50.0
100
AcDbBlockBegin
  2
*D19
 70
     1
 10
0.0
 20
0.0
 30
0.0
  3
*D19
  1

  0
LINE
  5
19797
330
18DBF
100
AcDbEntity
  8
寸法
 62
     0
 48
50.0
370
    -2
100
AcDbLine
 10
5078.967472720358
 20
4841.225007150102
 30
0.0
 11
5078.967472720358
 21
5285.845266577368
 31
0.0
  0
LINE
  5
19798
330
18DBF
100
AcDbEntity
  8
寸法
 62
     0
 48
50.0
370
    -2
100
AcDbLine
 10
5028.967472720358
 20
4841.225007150102
 30
0.0
 11
5028.967472720358
 21
5285.845266577368
 31
0.0
  0
LINE
  5
19799
330
18DBF
100
AcDbEntity
  8
寸法
 62
     0
 48
50.0
370
    -2
100
AcDbLine
 10
5078.967472720358
 20
5225.845266577367
 30
0.0
 11
5178.967472720358
 21
5225.845266577367
 31
0.0
  0
LINE
  5
1979A
330
18DBF
100
AcDbEntity
  8
寸法
 62
     0
 48
50.0
370
    -2
100
AcDbLine
 10
5028.967472720358
 20
5225.845266577367
 30
0.0
 11
4609.434947251624
 21
5225.845266577367
 31
0.0
  0
LINE
  5
1979B
330
18DBF
100
AcDbEntity
  8
寸法
 62
     0
 48
50.0
370
    -2
100
AcDbLine
 10
5078.967472720358
 20
5225.845266577367
 30
0.0
 11
5028.967472720358
 21
5225.845266577367
 31
0.0
  0
INSERT
  5
1979C
330
18DBF
100
AcDbEntity
  8
寸法
 62
     0
 48
50.0
370
    -2
100
AcDbBlockReference
  2
_DOTSMALL
 10
5078.967472720358
 20
5225.845266577367
 30
0.0
 41
100.0
 42
100.0
 43
100.0
 50
180.0
  0
INSERT
  5
1979D
330
18DBF
100
AcDbEntity
  8
寸法
 62
     0
 48
50.0
370
    -2
100
AcDbBlockReference
  2
_DOTSMALL
 10
5028.967472720358
 20
5225.845266577367
 30
0.0
 41
100.0
 42
100.0
 43
100.0
  0
MTEXT
  5
1979E
330
18DBF
100
AcDbEntity
  8
寸法
 62
     7
 48
50.0
100
AcDbMText
 10
4715.482191346111
 20
5325.845266577367
 30
0.0
 40
120.0
 41
0.0
 71
     5
 72
     1
  1
\A1;50
  7
STYLE1
 73
     1
 44
1.0
1001
ACAD
1000
MTEXTBEGIN
1070
    73
1070
     1
1070
    44
1040
1.0
1070
    74
1070
     0
1000
MTEXTEND
  0
POINT
  5
1979F
330
18DBF
100
AcDbEntity
  8
DEFPOINTS
 62
     0
 48
50.0
100
AcDbPoint
 10
5078.967472720358
 20
4821.225007150102
 30
0.0
  0
POINT
  5
197A0
330
18DBF
100
AcDbEntity
  8
DEFPOINTS
 62
     0
 48
50.0
100
AcDbPoint
 10
5028.967472720358
 20
4821.225007150102
 30
0.0
  0
POINT
  5
197A1
330
18DBF
100
AcDbEntity
  8
DEFPOINTS
 62
     0
 48
50.0
100
AcDbPoint
 10
5028.967472720358
 20
5225.845266577367
 30
0.0
  0
ENDBLK
  5
18DCC
330
18DBF
100
AcDbEntity
  8
0
 48
50.0
100
AcDbBlockEnd
  0
BLOCK
  5
18DD7
330
18DCD
100
AcDbEntity
  8
0
 48
50.0
100
AcDbBlockBegin
  2
*D20
 70
     1
 10
0.0
 20
0.0
 30
0.0
  3
*D20
  1

  0
LINE
  5
1978E
330
18DCD
100
AcDbEntity
  8
寸法
 62
     0
 48
50.0
370
    -2
100
AcDbLine
 10
5028.967472720358
 20
4841.225007150102
 30
0.0
 11
5028.967472720358
 21
5495.439140998819
 31
0.0
  0
LINE
  5
1978F
330
18DCD
100
AcDbEntity
  8
寸法
 62
     0
 48
50.0
370
    -2
100
AcDbLine
 10
6498.967472720353
 20
4841.225007150098
 30
0.0
 11
6498.967472720353
 21
5495.439140998819
 31
0.0
  0
LINE
  5
19790
330
18DCD
100
AcDbEntity
  8
寸法
 62
     0
 48
50.0
370
    -2
100
AcDbLine
 10
5028.967472720358
 20
5435.439140998818
 30
0.0
 11
6498.967472720353
 21
5435.439140998818
 31
0.0
  0
INSERT
  5
19791
330
18DCD
100
AcDbEntity
  8
寸法
 62
     0
 48
50.0
370
    -2
100
AcDbBlockReference
  2
_DOTSMALL
 10
5028.967472720358
 20
5435.439140998818
 30
0.0
 41
100.0
 42
100.0
 43
100.0
 50
180.0
  0
INSERT
  5
19792
330
18DCD
100
AcDbEntity
  8
寸法
 62
     0
 48
50.0
370
    -2
100
AcDbBlockReference
  2
_DOTSMALL
 10
6498.967472720353
 20
5435.439140998818
 30
0.0
 41
100.0
 42
100.0
 43
100.0
  0
MTEXT
  5
19793
330
18DCD
100
AcDbEntity
  8
寸法
 62
     7
 48
50.0
100
AcDbMText
 10
5763.967472720356
 20
5535.439140998818
 30
0.0
 40
120.0
 41
0.0
 71
     5
 72
     1
  1
\A1;1470
  7
STYLE1
 73
     1
 44
1.0
1001
ACAD
1000
MTEXTBEGIN
1070
    73
1070
     1
1070
    44
1040
1.0
1070
    74
1070
     0
1000
MTEXTEND
  0
POINT
  5
19794
330
18DCD
100
AcDbEntity
  8
DEFPOINTS
 62
     0
 48
50.0
100
AcDbPoint
 10
5028.967472720358
 20
4821.225007150102
 30
0.0
  0
POINT
  5
19795
330
18DCD
100
AcDbEntity
  8
DEFPOINTS
 62
     0
 48
50.0
100
AcDbPoint
 10
6498.967472720353
 20
4821.225007150099
 30
0.0
  0
POINT
  5
19796
330
18DCD
100
AcDbEntity
  8
DEFPOINTS
 62
     0
 48
50.0
100
AcDbPoint
 10
6498.967472720353
 20
5435.439140998818
 30
0.0
  0
ENDBLK
  5
18DD8
330
18DCD
100
AcDbEntity
  8
0
 48
50.0
100
AcDbBlockEnd
  0
BLOCK
  5
195DA
330
195CF
100
AcDbEntity
  8
0
 48
50.0
100
AcDbBlockBegin
  2
*D21
 70
     1
 10
0.0
 20
0.0
 30
0.0
  3
*D21
  1

  0
LINE
  5
1974B
330
195CF
100
AcDbEntity
  8
寸法
 62
     0
 48
50.0
370
    -2
100
AcDbLine
 10
8836.656176036017
 20
4820.522714219759
 30
0.0
 11
8220.721736930746
 21
4838.236864494087
 31
0.0
  0
LINE
  5
1974C
330
195CF
100
AcDbEntity
  8
寸法
 62
     0
 48
50.0
370
    -2
100
AcDbLine
 10
8832.602720479391
 20
4679.580990454044
 30
0.0
 11
8216.66828137412
 21
4697.295140728374
 31
0.0
  0
LINE
  5
1974D
330
195CF
100
AcDbEntity
  8
寸法
 62
     0
 48
50.0
370
    -2
100
AcDbLine
 10
8276.643482976552
 20
4695.570266023426
 30
0.0
 11
8280.696938533179
 21
4836.511989789141
 31
0.0
  0
LINE
  5
1974E
330
195CF
100
AcDbEntity
  8
寸法
 62
     0
 48
50.0
370
    -2
100
AcDbLine
 10
8280.696938533179
 20
4836.511989789141
 30
0.0
 11
8291.046186762864
 21
5196.363199403728
 31
0.0
  0
INSERT
  5
1974F
330
195CF
100
AcDbEntity
  8
寸法
 62
     0
 48
50.0
370
    -2
100
AcDbBlockReference
  2
_DOTSMALL
 10
8276.643482976552
 20
4695.570266023426
 30
0.0
 41
100.0
 42
100.0
 43
100.0
 50
268.3526390256379
  0
INSERT
  5
19750
330
195CF
100
AcDbEntity
  8
寸法
 62
     0
 48
50.0
370
    -2
100
AcDbBlockReference
  2
_DOTSMALL
 10
8280.696938533179
 20
4836.511989789141
 30
0.0
 41
100.0
 42
100.0
 43
100.0
 50
88.35263902563784
  0
MTEXT
  5
19751
330
195CF
100
AcDbEntity
  8
寸法
 62
     7
 48
50.0
100
AcDbMText
 10
8187.350288898093
 20
5069.291720440041
 30
0.0
 40
120.0
 41
0.0
 71
     5
 72
     1
  1
\A1;141
  7
STYLE1
 11
0.0287479117491228
 21
0.9995866933738486
 31
0.0
 73
     1
 44
1.0
1001
ACAD
1000
MTEXTBEGIN
1070
    73
1070
     1
1070
    44
1040
1.0
1070
    74
1070
     0
1000
MTEXTEND
  0
POINT
  5
19752
330
195CF
100
AcDbEntity
  8
DEFPOINTS
 62
     0
 48
50.0
100
AcDbPoint
 10
8856.647909903493
 20
4819.947755984776
 30
0.0
  0
POINT
  5
19753
330
195CF
100
AcDbEntity
  8
DEFPOINTS
 62
     0
 48
50.0
100
AcDbPoint
 10
8852.594454346867
 20
4679.006032219062
 30
0.0
  0
POINT
  5
19754
330
195CF
100
AcDbEntity
  8
DEFPOINTS
 62
     0
 48
50.0
100
AcDbPoint
 10
8276.643482976552
 20
4695.570266023426
 30
0.0
  0
ENDBLK
  5
195DB
330
195CF
100
AcDbEntity
  8
0
 48
50.0
100
AcDbBlockEnd
  0
BLOCK
  5
195E7
330
195DC
100
AcDbEntity
  8
0
 48
50.0
100
AcDbBlockBegin
  2
*D22
 70
     1
 10
0.0
 20
0.0
 30
0.0
  3
*D22
  1

  0
LINE
  5
19760
330
195DC
100
AcDbEntity
  8
寸法
 62
     0
 48
50.0
370
    -2
100
AcDbLine
 10
11107.25188974491
 20
4788.035686761748
 30
0.0
 11
11107.25188974491
 21
5279.8824607294
 31
0.0
  0
LINE
  5
19761
330
195DC
100
AcDbEntity
  8
寸法
 62
     0
 48
50.0
370
    -2
100
AcDbLine
 10
11187.25188974491
 20
4786.225007150096
 30
0.0
 11
11187.25188974491
 21
5279.8824607294
 31
0.0
  0
LINE
  5
19762
330
195DC
100
AcDbEntity
  8
寸法
 62
     0
 48
50.0
370
    -2
100
AcDbLine
 10
11107.25188974491
 20
5219.8824607294
 30
0.0
 11
11187.25188974491
 21
5219.8824607294
 31
0.0
  0
LINE
  5
19763
330
195DC
100
AcDbEntity
  8
寸法
 62
     0
 48
50.0
370
    -2
100
AcDbLine
 10
11187.25188974491
 20
5219.8824607294
 30
0.0
 11
11499.34637793389
 21
5219.8824607294
 31
0.0
  0
INSERT
  5
19764
330
195DC
100
AcDbEntity
  8
寸法
 62
     0
 48
50.0
370
    -2
100
AcDbBlockReference
  2
_DOTSMALL
 10
11107.25188974491
 20
5219.8824607294
 30
0.0
 41
100.0
 42
100.0
 43
100.0
 50
180.0
  0
INSERT
  5
19765
330
195DC
100
AcDbEntity
  8
寸法
 62
     0
 48
50.0
370
    -2
100
AcDbBlockReference
  2
_DOTSMALL
 10
11187.25188974491
 20
5219.8824607294
 30
0.0
 41
100.0
 42
100.0
 43
100.0
  0
MTEXT
  5
19766
330
195DC
100
AcDbEntity
  8
寸法
 62
     7
 48
50.0
100
AcDbMText
 10
11393.2991338394
 20
5319.8824607294
 30
0.0
 40
120.0
 41
0.0
 71
     5
 72
     1
  1
\A1;80
  7
STYLE1
 73
     1
 44
1.0
1001
ACAD
1000
MTEXTBEGIN
1070
    73
1070
     1
1070
    44
1040
1.0
1070
    74
1070
     0
1000
MTEXTEND
  0
POINT
  5
19767
330
195DC
100
AcDbEntity
  8
DEFPOINTS
 62
     0
 48
50.0
100
AcDbPoint
 10
11107.25188974491
 20
4768.035686761748
 30
0.0
  0
POINT
  5
19768
330
195DC
100
AcDbEntity
  8
DEFPOINTS
 62
     0
 48
50.0
100
AcDbPoint
 10
11187.25188974491
 20
4766.225007150096
 30
0.0
  0
POINT
  5
19769
330
195DC
100
AcDbEntity
  8
DEFPOINTS
 62
     0
 48
50.0
100
AcDbPoint
 10
11187.25188974491
 20
5219.8824607294
 30
0.0
  0
ENDBLK
  5
195E8
330
195DC
100
AcDbEntity
  8
0
 48
50.0
100
AcDbBlockEnd
  0
BLOCK
  5
195F3
330
195E9
100
AcDbEntity
  8
0
 48
50.0
100
AcDbBlockBegin
  2
*D23
 70
     1
 10
0.0
 20
0.0
 30
0.0
  3
*D23
  1

  0
LINE
  5
1976A
330
195E9
100
AcDbEntity
  8
寸法
 62
     0
 48
50.0
370
    -2
100
AcDbLine
 10
11187.25188974491
 20
4786.225007150096
 30
0.0
 11
11187.25188974491
 21
5499.084294403691
 31
0.0
  0
LINE
  5
1976B
330
195E9
100
AcDbEntity
  8
寸法
 62
     0
 48
50.0
370
    -2
100
AcDbLine
 10
8837.251889744916
 20
4841.2250071501
 30
0.0
 11
8837.251889744916
 21
5499.084294403691
 31
0.0
  0
LINE
  5
1976C
330
195E9
100
AcDbEntity
  8
寸法
 62
     0
 48
50.0
370
    -2
100
AcDbLine
 10
11187.25188974491
 20
5439.084294403691
 30
0.0
 11
8837.251889744916
 21
5439.084294403691
 31
0.0
  0
INSERT
  5
1976D
330
195E9
100
AcDbEntity
  8
寸法
 62
     0
 48
50.0
370
    -2
100
AcDbBlockReference
  2
_DOTSMALL
 10
11187.25188974491
 20
5439.084294403691
 30
0.0
 41
100.0
 42
100.0
 43
100.0
  0
INSERT
  5
1976E
330
195E9
100
AcDbEntity
  8
寸法
 62
     0
 48
50.0
370
    -2
100
AcDbBlockReference
  2
_DOTSMALL
 10
8837.251889744916
 20
5439.084294403691
 30
0.0
 41
100.0
 42
100.0
 43
100.0
 50
180.0
  0
MTEXT
  5
1976F
330
195E9
100
AcDbEntity
  8
寸法
 62
     7
 48
50.0
100
AcDbMText
 10
10071.59574383738
 20
5539.096105427313
 30
0.0
 40
120.0
 41
0.0
 71
     5
 72
     1
  1
\A1;2350
  7
STYLE1
 73
     1
 44
1.0
1001
ACAD
1000
MTEXTBEGIN
1070
    73
1070
     1
1070
    44
1040
1.0
1070
    74
1070
     0
1000
MTEXTEND
  0
POINT
  5
19770
330
195E9
100
AcDbEntity
  8
DEFPOINTS
 62
     0
 48
50.0
100
AcDbPoint
 10
11187.25188974491
 20
4766.225007150096
 30
0.0
  0
POINT
  5
19771
330
195E9
100
AcDbEntity
  8
DEFPOINTS
 62
     0
 48
50.0
100
AcDbPoint
 10
8837.251889744916
 20
4821.225007150101
 30
0.0
  0
POINT
  5
19772
330
195E9
100
AcDbEntity
  8
DEFPOINTS
 62
     0
 48
50.0
100
AcDbPoint
 10
8837.251889744916
 20
5439.084294403691
 30
0.0
  0
ENDBLK
  5
195F4
330
195E9
100
AcDbEntity
  8
0
 48
50.0
100
AcDbBlockEnd
  0
BLOCK
  5
19601
330
195F5
100
AcDbEntity
  8
0
 48
50.0
100
AcDbBlockBegin
  2
*D24
 70
     1
 10
0.0
 20
0.0
 30
0.0
  3
*D24
  1

  0
LINE
  5
19755
330
195F5
100
AcDbEntity
  8
寸法
 62
     0
 48
50.0
370
    -2
100
AcDbLine
 10
8897.251889744914
 20
4837.226625273073
 30
0.0
 11
8897.251889744914
 21
5279.8824607294
 31
0.0
  0
LINE
  5
19756
330
195F5
100
AcDbEntity
  8
寸法
 62
     0
 48
50.0
370
    -2
100
AcDbLine
 10
8837.251889744916
 20
4841.2250071501
 30
0.0
 11
8837.251889744916
 21
5279.8824607294
 31
0.0
  0
LINE
  5
19757
330
195F5
100
AcDbEntity
  8
寸法
 62
     0
 48
50.0
370
    -2
100
AcDbLine
 10
8897.251889744914
 20
5219.8824607294
 30
0.0
 11
8997.251889744914
 21
5219.8824607294
 31
0.0
  0
LINE
  5
19758
330
195F5
100
AcDbEntity
  8
寸法
 62
     0
 48
50.0
370
    -2
100
AcDbLine
 10
8837.251889744916
 20
5219.8824607294
 30
0.0
 11
8417.976299193735
 21
5219.8824607294
 31
0.0
  0
LINE
  5
19759
330
195F5
100
AcDbEntity
  8
寸法
 62
     0
 48
50.0
370
    -2
100
AcDbLine
 10
8897.251889744914
 20
5219.8824607294
 30
0.0
 11
8837.251889744916
 21
5219.8824607294
 31
0.0
  0
INSERT
  5
1975A
330
195F5
100
AcDbEntity
  8
寸法
 62
     0
 48
50.0
370
    -2
100
AcDbBlockReference
  2
_DOTSMALL
 10
8897.251889744914
 20
5219.8824607294
 30
0.0
 41
100.0
 42
100.0
 43
100.0
 50
180.0
  0
INSERT
  5
1975B
330
195F5
100
AcDbEntity
  8
寸法
 62
     0
 48
50.0
370
    -2
100
AcDbBlockReference
  2
_DOTSMALL
 10
8837.251889744916
 20
5219.8824607294
 30
0.0
 41
100.0
 42
100.0
 43
100.0
  0
MTEXT
  5
1975C
330
195F5
100
AcDbEntity
  8
寸法
 62
     7
 48
50.0
100
AcDbMText
 10
8527.614094469326
 20
5319.8824607294
 30
0.0
 40
120.0
 41
0.0
 71
     5
 72
     1
  1
\A1;60
  7
STYLE1
 73
     1
 44
1.0
1001
ACAD
1000
MTEXTBEGIN
1070
    73
1070
     1
1070
    44
1040
1.0
1070
    74
1070
     0
1000
MTEXTEND
  0
POINT
  5
1975D
330
195F5
100
AcDbEntity
  8
DEFPOINTS
 62
     0
 48
50.0
100
AcDbPoint
 10
8897.251889744914
 20
4817.226625273073
 30
0.0
  0
POINT
  5
1975E
330
195F5
100
AcDbEntity
  8
DEFPOINTS
 62
     0
 48
50.0
100
AcDbPoint
 10
8837.251889744916
 20
4821.225007150101
 30
0.0
  0
POINT
  5
1975F
330
195F5
100
AcDbEntity
  8
DEFPOINTS
 62
     0
 48
50.0
100
AcDbPoint
 10
8837.251889744916
 20
5219.8824607294
 30
0.0
  0
ENDBLK
  5
19602
330
195F5
100
AcDbEntity
  8
0
 48
50.0
100
AcDbBlockEnd
  0
BLOCK
  5
1960D
330
19603
100
AcDbEntity
  8
0
 48
50.0
100
AcDbBlockBegin
  2
*D25
 70
     1
 10
0.0
 20
0.0
 30
0.0
  3
*D25
  1

  0
LINE
  5
19773
330
19603
100
AcDbEntity
  8
寸法
 62
     0
 48
50.0
370
    -2
100
AcDbLine
 10
11107.25188974491
 20
4788.035686761748
 30
0.0
 11
11107.25188974491
 21
5279.8824607294
 31
0.0
  0
LINE
  5
19774
330
19603
100
AcDbEntity
  8
寸法
 62
     0
 48
50.0
370
    -2
100
AcDbLine
 10
8897.251889744914
 20
4837.226625273073
 30
0.0
 11
8897.251889744914
 21
5279.8824607294
 31
0.0
  0
LINE
  5
19775
330
19603
100
AcDbEntity
  8
寸法
 62
     0
 48
50.0
370
    -2
100
AcDbLine
 10
11107.25188974491
 20
5219.8824607294
 30
0.0
 11
8897.251889744914
 21
5219.8824607294
 31
0.0
  0
INSERT
  5
19776
330
19603
100
AcDbEntity
  8
寸法
 62
     0
 48
50.0
370
    -2
100
AcDbBlockReference
  2
_DOTSMALL
 10
11107.25188974491
 20
5219.8824607294
 30
0.0
 41
100.0
 42
100.0
 43
100.0
  0
INSERT
  5
19777
330
19603
100
AcDbEntity
  8
寸法
 62
     0
 48
50.0
370
    -2
100
AcDbBlockReference
  2
_DOTSMALL
 10
8897.251889744914
 20
5219.8824607294
 30
0.0
 41
100.0
 42
100.0
 43
100.0
 50
180.0
  0
MTEXT
  5
19778
330
19603
100
AcDbEntity
  8
寸法
 62
     7
 48
50.0
100
AcDbMText
 10
9991.89662681543
 20
5319.894271753021
 30
0.0
 40
120.0
 41
0.0
 71
     5
 72
     1
  1
\A1;柱外寸法2210
  7
STYLE1
 73
     1
 44
1.0
1001
ACAD
1000
MTEXTBEGIN
1070
    73
1070
     1
1070
    44
1040
1.0
1070
    74
1070
     0
1000
MTEXTEND
  0
POINT
  5
19779
330
19603
100
AcDbEntity
  8
DEFPOINTS
 62
     0
 48
50.0
100
AcDbPoint
 10
11107.25188974491
 20
4768.035686761748
 30
0.0
  0
POINT
  5
1977A
330
19603
100
AcDbEntity
  8
DEFPOINTS
 62
     0
 48
50.0
100
AcDbPoint
 10
8897.251889744914
 20
4817.226625273073
 30
0.0
  0
POINT
  5
1977B
330
19603
100
AcDbEntity
  8
DEFPOINTS
 62
     0
 48
50.0
100
AcDbPoint
 10
8897.251889744914
 20
5219.8824607294
 30
0.0
  0
ENDBLK
  5
1960E
330
19603
100
AcDbEntity
  8
0
 48
50.0
100
AcDbBlockEnd
  0
BLOCK
  5
1964B
330
19641
100
AcDbEntity
  8
0
 48
50.0
100
AcDbBlockBegin
  2
*D26
 70
     1
 10
0.0
 20
0.0
 30
0.0
  3
*D26
  1

  0
LINE
  5
19742
330
19641
100
AcDbEntity
  8
寸法
 62
     0
 48
50.0
370
    -2
100
AcDbLine
 10
11127.25188974491
 20
2746.225007150097
 30
0.0
 11
11702.42198550734
 21
2746.225007150096
 31
0.0
  0
LINE
  5
19743
330
19641
100
AcDbEntity
  8
寸法
 62
     0
 48
50.0
370
    -2
100
AcDbLine
 10
11207.2518897449
 20
4766.225007150098
 30
0.0
 11
11702.42198550734
 21
4766.225007150098
 31
0.0
  0
LINE
  5
19744
330
19641
100
AcDbEntity
  8
寸法
 62
     0
 48
50.0
370
    -2
100
AcDbLine
 10
11642.42198550734
 20
2746.225007150096
 30
0.0
 11
11642.42198550734
 21
4766.225007150098
 31
0.0
  0
INSERT
  5
19745
330
19641
100
AcDbEntity
  8
寸法
 62
     0
 48
50.0
370
    -2
100
AcDbBlockReference
  2
_DOTSMALL
 10
11642.42198550734
 20
2746.225007150096
 30
0.0
 41
100.0
 42
100.0
 43
100.0
 50
270.0
  0
INSERT
  5
19746
330
19641
100
AcDbEntity
  8
寸法
 62
     0
 48
50.0
370
    -2
100
AcDbBlockReference
  2
_DOTSMALL
 10
11642.42198550734
 20
4766.225007150098
 30
0.0
 41
100.0
 42
100.0
 43
100.0
 50
90.0
  0
MTEXT
  5
19747
330
19641
100
AcDbEntity
  8
寸法
 62
     7
 48
50.0
100
AcDbMText
 10
11542.41017448371
 20
3728.481334579785
 30
0.0
 40
120.0
 41
0.0
 71
     5
 72
     1
  1
\A1;2020
  7
STYLE1
 11
0.0000000000000001
 21
1.0
 31
0.0
 73
     1
 44
1.0
1001
ACAD
1000
MTEXTBEGIN
1070
    73
1070
     1
1070
    44
1040
1.0
1070
    74
1070
     0
1000
MTEXTEND
  0
POINT
  5
19748
330
19641
100
AcDbEntity
  8
DEFPOINTS
 62
     0
 48
50.0
100
AcDbPoint
 10
11107.25188974491
 20
2746.225007150097
 30
0.0
  0
POINT
  5
19749
330
19641
100
AcDbEntity
  8
DEFPOINTS
 62
     0
 48
50.0
100
AcDbPoint
 10
11187.2518897449
 20
4766.225007150098
 30
0.0
  0
POINT
  5
1974A
330
19641
100
AcDbEntity
  8
DEFPOINTS
 62
     0
 48
50.0
100
AcDbPoint
 10
11642.42198550734
 20
4766.225007150098
 30
0.0
  0
ENDBLK
  5
1964C
330
19641
100
AcDbEntity
  8
0
 48
50.0
100
AcDbBlockEnd
  0
BLOCK
  5
19666
330
1965B
100
AcDbEntity
  8
0
 48
50.0
100
AcDbBlockBegin
  2
*D27
 70
     1
 10
0.0
 20
0.0
 30
0.0
  3
*D27
  1

  0
LINE
  5
1971B
330
1965B
100
AcDbEntity
  8
寸法
 62
     0
 48
50.0
370
    -2
100
AcDbLine
 10
8822.251889744915
 20
2746.225007150097
 30
0.0
 11
7928.612507815557
 21
2746.225007150097
 31
0.0
  0
LINE
  5
1971C
330
1965B
100
AcDbEntity
  8
寸法
 62
     0
 48
50.0
370
    -2
100
AcDbLine
 10
8253.599180586617
 20
2646.225007150097
 30
0.0
 11
7928.612507815557
 21
2646.225007150097
 31
0.0
  0
LINE
  5
1971D
330
1965B
100
AcDbEntity
  8
寸法
 62
     0
 48
50.0
370
    -2
100
AcDbLine
 10
7988.612507815557
 20
2746.225007150097
 30
0.0
 11
7988.612507815557
 21
2646.225007150097
 31
0.0
  0
LINE
  5
1971E
330
1965B
100
AcDbEntity
  8
寸法
 62
     0
 48
50.0
370
    -2
100
AcDbLine
 10
7988.612507815557
 20
2646.225007150097
 30
0.0
 11
7988.612507815557
 21
2274.130518961117
 31
0.0
  0
INSERT
  5
1971F
330
1965B
100
AcDbEntity
  8
寸法
 62
     0
 48
50.0
370
    -2
100
AcDbBlockReference
  2
_DOTSMALL
 10
7988.612507815557
 20
2746.225007150097
 30
0.0
 41
100.0
 42
100.0
 43
100.0
 50
90.0
  0
INSERT
  5
19720
330
1965B
100
AcDbEntity
  8
寸法
 62
     0
 48
50.0
370
    -2
100
AcDbBlockReference
  2
_DOTSMALL
 10
7988.612507815557
 20
2646.225007150097
 30
0.0
 41
100.0
 42
100.0
 43
100.0
 50
270.0
  0
MTEXT
  5
19721
330
1965B
100
AcDbEntity
  8
寸法
 62
     7
 48
50.0
100
AcDbMText
 10
7888.612507815557
 20
2410.177763055606
 30
0.0
 40
120.0
 41
0.0
 71
     5
 72
     1
  1
\A1;100
  7
STYLE1
 11
0.0000000000000001
 21
1.0
 31
0.0
 73
     1
 44
1.0
1001
ACAD
1000
MTEXTBEGIN
1070
    73
1070
     1
1070
    44
1040
1.0
1070
    74
1070
     0
1000
MTEXTEND
  0
POINT
  5
19722
330
1965B
100
AcDbEntity
  8
DEFPOINTS
 62
     0
 48
50.0
100
AcDbPoint
 10
8842.251889744915
 20
2746.225007150097
 30
0.0
  0
POINT
  5
19723
330
1965B
100
AcDbEntity
  8
DEFPOINTS
 62
     0
 48
50.0
100
AcDbPoint
 10
8273.599180586618
 20
2646.225007150097
 30
0.0
  0
POINT
  5
19724
330
1965B
100
AcDbEntity
  8
DEFPOINTS
 62
     0
 48
50.0
100
AcDbPoint
 10
7988.612507815557
 20
2646.225007150097
 30
0.0
  0
ENDBLK
  5
19667
330
1965B
100
AcDbEntity
  8
0
 48
50.0
100
AcDbBlockEnd
  0
BLOCK
  5
19674
330
19668
100
AcDbEntity
  8
0
 48
50.0
100
AcDbBlockBegin
  2
*D28
 70
     1
 10
0.0
 20
0.0
 30
0.0
  3
*D28
  1

  0
LINE
  5
19725
330
19668
100
AcDbEntity
  8
寸法
 62
     0
 48
50.0
370
    -2
100
AcDbLine
 10
8877.251889744917
 20
2796.225007150097
 30
0.0
 11
8213.599180586617
 21
2796.225007150097
 31
0.0
  0
LINE
  5
19726
330
19668
100
AcDbEntity
  8
寸法
 62
     0
 48
50.0
370
    -2
100
AcDbLine
 10
8822.251889744915
 20
2746.225007150097
 30
0.0
 11
8213.599180586617
 21
2746.225007150097
 31
0.0
  0
LINE
  5
19727
330
19668
100
AcDbEntity
  8
寸法
 62
     0
 48
50.0
370
    -2
100
AcDbLine
 10
8273.599180586618
 20
2796.225007150097
 30
0.0
 11
8273.599180586618
 21
2896.225007150097
 31
0.0
  0
LINE
  5
19728
330
19668
100
AcDbEntity
  8
寸法
 62
     0
 48
50.0
370
    -2
100
AcDbLine
 10
8273.599180586618
 20
2746.225007150097
 30
0.0
 11
8273.599180586618
 21
2334.130518961117
 31
0.0
  0
LINE
  5
19729
330
19668
100
AcDbEntity
  8
寸法
 62
     0
 48
50.0
370
    -2
100
AcDbLine
 10
8273.599180586618
 20
2796.225007150097
 30
0.0
 11
8273.599180586618
 21
2746.225007150097
 31
0.0
  0
INSERT
  5
1972A
330
19668
100
AcDbEntity
  8
寸法
 62
     0
 48
50.0
370
    -2
100
AcDbBlockReference
  2
_DOTSMALL
 10
8273.599180586618
 20
2796.225007150097
 30
0.0
 41
100.0
 42
100.0
 43
100.0
 50
270.0
  0
INSERT
  5
1972B
330
19668
100
AcDbEntity
  8
寸法
 62
     0
 48
50.0
370
    -2
100
AcDbBlockReference
  2
_DOTSMALL
 10
8273.599180586618
 20
2746.225007150097
 30
0.0
 41
100.0
 42
100.0
 43
100.0
 50
90.0
  0
MTEXT
  5
1972C
330
19668
100
AcDbEntity
  8
寸法
 62
     7
 48
50.0
100
AcDbMText
 10
8173.599180586618
 20
2440.177763055606
 30
0.0
 40
120.0
 41
0.0
 71
     5
 72
     1
  1
\A1;50
  7
STYLE1
 11
0.0000000000000001
 21
1.0
 31
0.0
 73
     1
 44
1.0
1001
ACAD
1000
MTEXTBEGIN
1070
    73
1070
     1
1070
    44
1040
1.0
1070
    74
1070
     0
1000
MTEXTEND
  0
POINT
  5
1972D
330
19668
100
AcDbEntity
  8
DEFPOINTS
 62
     0
 48
50.0
100
AcDbPoint
 10
8897.251889744914
 20
2796.225007150097
 30
0.0
  0
POINT
  5
1972E
330
19668
100
AcDbEntity
  8
DEFPOINTS
 62
     0
 48
50.0
100
AcDbPoint
 10
8842.251889744915
 20
2746.225007150097
 30
0.0
  0
POINT
  5
1972F
330
19668
100
AcDbEntity
  8
DEFPOINTS
 62
     0
 48
50.0
100
AcDbPoint
 10
8273.599180586618
 20
2746.225007150097
 30
0.0
  0
ENDBLK
  5
19675
330
19668
100
AcDbEntity
  8
0
 48
50.0
100
AcDbBlockEnd
  0
BLOCK
  5
19680
330
19676
100
AcDbEntity
  8
0
 48
50.0
100
AcDbBlockBegin
  2
*D29
 70
     1
 10
0.0
 20
0.0
 30
0.0
  3
*D29
  1

  0
LINE
  5
19730
330
19676
100
AcDbEntity
  8
寸法
 62
     0
 48
50.0
370
    -2
100
AcDbLine
 10
8877.251889744917
 20
4586.225007150097
 30
0.0
 11
8213.599180586619
 21
4586.225007150097
 31
0.0
  0
LINE
  5
19731
330
19676
100
AcDbEntity
  8
寸法
 62
     0
 48
50.0
370
    -2
100
AcDbLine
 10
8877.251889744917
 20
2796.225007150097
 30
0.0
 11
8213.599180586617
 21
2796.225007150097
 31
0.0
  0
LINE
  5
19732
330
19676
100
AcDbEntity
  8
寸法
 62
     0
 48
50.0
370
    -2
100
AcDbLine
 10
8273.59918058662
 20
4586.225007150097
 30
0.0
 11
8273.599180586618
 21
2796.225007150097
 31
0.0
  0
INSERT
  5
19733
330
19676
100
AcDbEntity
  8
寸法
 62
     0
 48
50.0
370
    -2
100
AcDbBlockReference
  2
_DOTSMALL
 10
8273.59918058662
 20
4586.225007150097
 30
0.0
 41
100.0
 42
100.0
 43
100.0
 50
90.0
  0
INSERT
  5
19734
330
19676
100
AcDbEntity
  8
寸法
 62
     0
 48
50.0
370
    -2
100
AcDbBlockReference
  2
_DOTSMALL
 10
8273.599180586618
 20
2796.225007150097
 30
0.0
 41
100.0
 42
100.0
 43
100.0
 50
270.0
  0
MTEXT
  5
19735
330
19676
100
AcDbEntity
  8
寸法
 62
     7
 48
50.0
100
AcDbMText
 10
8173.599180586618
 20
3686.679305692055
 30
0.0
 40
120.0
 41
0.0
 71
     5
 72
     1
  1
\A1;1790
  7
STYLE1
 11
0.0000000000000001
 21
1.0
 31
0.0
 73
     1
 44
1.0
1001
ACAD
1000
MTEXTBEGIN
1070
    73
1070
     1
1070
    44
1040
1.0
1070
    74
1070
     0
1000
MTEXTEND
  0
POINT
  5
19736
330
19676
100
AcDbEntity
  8
DEFPOINTS
 62
     0
 48
50.0
100
AcDbPoint
 10
8897.251889744914
 20
4586.225007150097
 30
0.0
  0
POINT
  5
19737
330
19676
100
AcDbEntity
  8
DEFPOINTS
 62
     0
 48
50.0
100
AcDbPoint
 10
8897.251889744914
 20
2796.225007150097
 30
0.0
  0
POINT
  5
19738
330
19676
100
AcDbEntity
  8
DEFPOINTS
 62
     0
 48
50.0
100
AcDbPoint
 10
8273.599180586618
 20
2796.225007150097
 30
0.0
  0
ENDBLK
  5
19681
330
19676
100
AcDbEntity
  8
0
 48
50.0
100
AcDbBlockEnd
  0
BLOCK
  5
1968C
330
19682
100
AcDbEntity
  8
0
 48
50.0
100
AcDbBlockBegin
  2
*D30
 70
     1
 10
0.0
 20
0.0
 30
0.0
  3
*D30
  1

  0
LINE
  5
19739
330
19682
100
AcDbEntity
  8
寸法
 62
     0
 48
50.0
370
    -2
100
AcDbLine
 10
8877.251889744917
 20
2746.225007150097
 30
0.0
 11
7928.612507815557
 21
2746.225007150097
 31
0.0
  0
LINE
  5
1973A
330
19682
100
AcDbEntity
  8
寸法
 62
     0
 48
50.0
370
    -2
100
AcDbLine
 10
8817.251889744914
 20
4821.225007150102
 30
0.0
 11
7928.612507815557
 21
4821.225007150102
 31
0.0
  0
LINE
  5
1973B
330
19682
100
AcDbEntity
  8
寸法
 62
     0
 48
50.0
370
    -2
100
AcDbLine
 10
7988.612507815557
 20
2746.225007150097
 30
0.0
 11
7988.612507815557
 21
4821.225007150102
 31
0.0
  0
INSERT
  5
1973C
330
19682
100
AcDbEntity
  8
寸法
 62
     0
 48
50.0
370
    -2
100
AcDbBlockReference
  2
_DOTSMALL
 10
7988.612507815557
 20
2746.225007150097
 30
0.0
 41
100.0
 42
100.0
 43
100.0
 50
270.0
  0
INSERT
  5
1973D
330
19682
100
AcDbEntity
  8
寸法
 62
     0
 48
50.0
370
    -2
100
AcDbBlockReference
  2
_DOTSMALL
 10
7988.612507815557
 20
4821.225007150102
 30
0.0
 41
100.0
 42
100.0
 43
100.0
 50
90.0
  0
MTEXT
  5
1973E
330
19682
100
AcDbEntity
  8
寸法
 62
     7
 48
50.0
100
AcDbMText
 10
7888.600696791934
 20
3740.430884643207
 30
0.0
 40
120.0
 41
0.0
 71
     5
 72
     1
  1
\A1;2075
  7
STYLE1
 11
0.0000000000000001
 21
1.0
 31
0.0
 73
     1
 44
1.0
1001
ACAD
1000
MTEXTBEGIN
1070
    73
1070
     1
1070
    44
1040
1.0
1070
    74
1070
     0
1000
MTEXTEND
  0
POINT
  5
1973F
330
19682
100
AcDbEntity
  8
DEFPOINTS
 62
     0
 48
50.0
100
AcDbPoint
 10
8897.251889744914
 20
2746.225007150097
 30
0.0
  0
POINT
  5
19740
330
19682
100
AcDbEntity
  8
DEFPOINTS
 62
     0
 48
50.0
100
AcDbPoint
 10
8837.251889744916
 20
4821.225007150102
 30
0.0
  0
POINT
  5
19741
330
19682
100
AcDbEntity
  8
DEFPOINTS
 62
     0
 48
50.0
100
AcDbPoint
 10
7988.612507815557
 20
4821.225007150102
 30
0.0
  0
ENDBLK
  5
1968D
330
19682
100
AcDbEntity
  8
0
 48
50.0
100
AcDbBlockEnd
  0
BLOCK
  5
19A06
330
199FC
100
AcDbEntity
  8
0
 48
50.0
100
AcDbBlockBegin
  2
*D31
 70
     1
 10
0.0
 20
0.0
 30
0.0
  3
*D31
  1

  0
LINE
  5
1A2CF
330
199FC
100
AcDbEntity
  8
寸法
 62
     0
 48
50.0
370
    -2
100
AcDbLine
 10
8964.251889744899
 20
7740.094063197914
 30
0.0
 11
8964.251889744899
 21
7068.498679197721
 31
0.0
  0
LINE
  5
1A2D0
330
199FC
100
AcDbEntity
  8
寸法
 62
     0
 48
50.0
370
    -2
100
AcDbLine
 10
10230.25188974489
 20
7740.094063197914
 30
0.0
 11
10230.25188974489
 21
7068.498679197721
 31
0.0
  0
LINE
  5
1A2D1
330
199FC
100
AcDbEntity
  8
寸法
 62
     0
 48
50.0
370
    -2
100
AcDbLine
 10
8984.251889744896
 20
7108.498679197722
 30
0.0
 11
10210.25188974489
 21
7108.498679197722
 31
0.0
  0
INSERT
  5
1A2D2
330
199FC
100
AcDbEntity
  8
寸法
 62
     0
 48
50.0
370
    -2
100
AcDbBlockReference
  2
_DOT
 10
8964.251889744899
 20
7108.498679197722
 30
0.0
 41
20.0
 42
20.0
 43
20.0
 50
180.0
  0
INSERT
  5
1A2D3
330
199FC
100
AcDbEntity
  8
寸法
 62
     0
 48
50.0
370
    -2
100
AcDbBlockReference
  2
_DOT
 10
10230.25188974489
 20
7108.498679197722
 30
0.0
 41
20.0
 42
20.0
 43
20.0
  0
MTEXT
  5
1A2D4
330
199FC
100
AcDbEntity
  8
寸法
 62
     7
 48
50.0
100
AcDbMText
 10
9614.816775485016
 20
7300.510490221343
 30
0.0
 40
120.0
 41
0.0
 71
     5
 72
     1
  1
\A1;有効開口部間口\P1266
  7
STYLE1
 73
     1
 44
1.0
1001
ACAD
1000
MTEXTBEGIN
1070
    73
1070
     1
1070
    44
1040
1.0
1070
    74
1070
     0
1000
MTEXTEND
  0
POINT
  5
1A2D5
330
199FC
100
AcDbEntity
  8
DEFPOINTS
 62
     0
 48
50.0
100
AcDbPoint
 10
8964.251889744899
 20
7760.094063197914
 30
0.0
  0
POINT
  5
1A2D6
330
199FC
100
AcDbEntity
  8
DEFPOINTS
 62
     0
 48
50.0
100
AcDbPoint
 10
10230.25188974489
 20
7760.094063197914
 30
0.0
  0
POINT
  5
1A2D7
330
199FC
100
AcDbEntity
  8
DEFPOINTS
 62
     0
 48
50.0
100
AcDbPoint
 10
10230.25188974489
 20
7108.498679197722
 30
0.0
  0
ENDBLK
  5
19A07
330
199FC
100
AcDbEntity
  8
0
 48
50.0
100
AcDbBlockEnd
  0
BLOCK
  5
1A137
330
1A12B
100
AcDbEntity
  8
0
 48
50.0
100
AcDbBlockBegin
  2
*D32
 70
     1
 10
0.0
 20
0.0
 30
0.0
  3
*D32
  1

  0
LINE
  5
1A2C4
330
1A12B
100
AcDbEntity
  8
寸法
 62
     0
 48
50.0
370
    -2
100
AcDbLine
 10
8877.251889744917
 20
7837.094063197968
 30
0.0
 11
8562.640644118198
 21
7837.094063197968
 31
0.0
  0
LINE
  5
1A2C5
330
1A12B
100
AcDbEntity
  8
寸法
 62
     0
 48
50.0
370
    -2
100
AcDbLine
 10
8905.251889744898
 20
7762.094063197968
 30
0.0
 11
8562.640644118198
 21
7762.094063197968
 31
0.0
  0
LINE
  5
1A2C6
330
1A12B
100
AcDbEntity
  8
寸法
 62
     0
 48
50.0
370
    -2
100
AcDbLine
 10
8602.640644118199
 20
7857.094063197968
 30
0.0
 11
8602.640644118199
 21
7877.094063197969
 31
0.0
  0
LINE
  5
1A2C7
330
1A12B
100
AcDbEntity
  8
寸法
 62
     0
 48
50.0
370
    -2
100
AcDbLine
 10
8602.640644118199
 20
7742.094063197969
 30
0.0
 11
8602.640644118199
 21
7521.12350044949
 31
0.0
  0
LINE
  5
1A2C8
330
1A12B
100
AcDbEntity
  8
寸法
 62
     0
 48
50.0
370
    -2
100
AcDbLine
 10
8602.640644118199
 20
7837.094063197968
 30
0.0
 11
8602.640644118199
 21
7762.094063197968
 31
0.0
  0
INSERT
  5
1A2C9
330
1A12B
100
AcDbEntity
  8
寸法
 62
     0
 48
50.0
370
    -2
100
AcDbBlockReference
  2
_DOT
 10
8602.640644118199
 20
7837.094063197968
 30
0.0
 41
20.0
 42
20.0
 43
20.0
 50
270.0
  0
INSERT
  5
1A2CA
330
1A12B
100
AcDbEntity
  8
寸法
 62
     0
 48
50.0
370
    -2
100
AcDbBlockReference
  2
_DOT
 10
8602.640644118199
 20
7762.094063197968
 30
0.0
 41
20.0
 42
20.0
 43
20.0
 50
90.0
  0
MTEXT
  5
1A2CB
330
1A12B
100
AcDbEntity
  8
寸法
 62
     7
 48
50.0
100
AcDbMText
 10
8510.640644118197
 20
7621.60878182373
 30
0.0
 40
120.0
 41
0.0
 71
     5
 72
     1
  1
\A1;75
  7
STYLE1
 11
0.0000000000000001
 21
1.0
 31
0.0
 73
     1
 44
1.0
1001
ACAD
1000
MTEXTBEGIN
1070
    73
1070
     1
1070
    44
1040
1.0
1070
    74
1070
     0
1000
MTEXTEND
  0
POINT
  5
1A2CC
330
1A12B
100
AcDbEntity
  8
DEFPOINTS
 62
     0
 48
50.0
100
AcDbPoint
 10
8897.251889744914
 20
7837.094063197968
 30
0.0
  0
POINT
  5
1A2CD
330
1A12B
100
AcDbEntity
  8
DEFPOINTS
 62
     0
 48
50.0
100
AcDbPoint
 10
8925.251889744897
 20
7762.094063197968
 30
0.0
  0
POINT
  5
1A2CE
330
1A12B
100
AcDbEntity
  8
DEFPOINTS
 62
     0
 48
50.0
100
AcDbPoint
 10
8602.640644118199
 20
7762.094063197968
 30
0.0
  0
ENDBLK
  5
1A138
330
1A12B
100
AcDbEntity
  8
0
 48
50.0
100
AcDbBlockEnd
  0
BLOCK
  5
1A276
330
1A26C
100
AcDbEntity
  8
0
 48
50.0
100
AcDbBlockBegin
  2
*D33
 70
     1
 10
0.0
 20
0.0
 30
0.0
  3
*D33
  1

  0
LINE
  5
1A2BB
330
1A26C
100
AcDbEntity
  8
寸法
 62
     0
 48
50.0
370
    -2
100
AcDbLine
 10
8925.251889744897
 20
7740.094063197914
 30
0.0
 11
8925.251889744897
 21
6779.964347770146
 31
0.0
  0
LINE
  5
1A2BC
330
1A26C
100
AcDbEntity
  8
寸法
 62
     0
 48
50.0
370
    -2
100
AcDbLine
 10
11079.2518897449
 20
7740.094063197914
 30
0.0
 11
11079.2518897449
 21
6779.964347770146
 31
0.0
  0
LINE
  5
1A2BD
330
1A26C
100
AcDbEntity
  8
寸法
 62
     0
 48
50.0
370
    -2
100
AcDbLine
 10
8925.251889744897
 20
6839.964347770147
 30
0.0
 11
11079.2518897449
 21
6839.964347770147
 31
0.0
  0
INSERT
  5
1A2BE
330
1A26C
100
AcDbEntity
  8
寸法
 62
     0
 48
50.0
370
    -2
100
AcDbBlockReference
  2
_DOTSMALL
 10
8925.251889744897
 20
6839.964347770147
 30
0.0
 41
100.0
 42
100.0
 43
100.0
 50
180.0
  0
INSERT
  5
1A2BF
330
1A26C
100
AcDbEntity
  8
寸法
 62
     0
 48
50.0
370
    -2
100
AcDbBlockReference
  2
_DOTSMALL
 10
11079.2518897449
 20
6839.964347770147
 30
0.0
 41
100.0
 42
100.0
 43
100.0
  0
MTEXT
  5
1A2C0
330
1A26C
100
AcDbEntity
  8
寸法
 62
     7
 48
50.0
100
AcDbMText
 10
10024.38464649221
 20
6939.976158793768
 30
0.0
 40
120.0
 41
0.0
 71
     5
 72
     1
  1
\A1;2154
  7
STYLE1
 73
     1
 44
1.0
1001
ACAD
1000
MTEXTBEGIN
1070
    73
1070
     1
1070
    44
1040
1.0
1070
    74
1070
     0
1000
MTEXTEND
  0
POINT
  5
1A2C1
330
1A26C
100
AcDbEntity
  8
DEFPOINTS
 62
     0
 48
50.0
100
AcDbPoint
 10
8925.251889744897
 20
7760.094063197914
 30
0.0
  0
POINT
  5
1A2C2
330
1A26C
100
AcDbEntity
  8
DEFPOINTS
 62
     0
 48
50.0
100
AcDbPoint
 10
11079.2518897449
 20
7760.094063197914
 30
0.0
  0
POINT
  5
1A2C3
330
1A26C
100
AcDbEntity
  8
DEFPOINTS
 62
     0
 48
50.0
100
AcDbPoint
 10
11079.2518897449
 20
6839.964347770147
 30
0.0
  0
ENDBLK
  5
1A277
330
1A26C
100
AcDbEntity
  8
0
 48
50.0
100
AcDbBlockEnd
  0
ENDSEC
  0
SECTION
  2
ENTITIES
  0
LINE
  5
10B57
330
747D
100
AcDbEntity
  8
補助
  6
PHANTOM
 62
   230
 48
50.0
100
AcDbLine
 10
139.9999999999995
 20
11409.6
 30
0.0
 11
16307.2
 21
11409.6
 31
0.0
  0
LINE
  5
10B59
330
747D
100
AcDbEntity
  8
仕様書枠
  6
Continuous
 48
50.0
100
AcDbLine
 10
13107.2
 20
1200.0
 30
0.0
 11
13107.2
 21
-0.0000000000000729
 31
0.0
  0
LINE
  5
10B5C
330
747D
100
AcDbEntity
  8
仕様書枠
 48
50.0
100
AcDbLine
 10
16307.2
 20
1200.0
 30
0.0
 11
16307.2
 21
-0.0000000000000909
 31
0.0
  0
LINE
  5
10B5D
330
747D
100
AcDbEntity
  8
仕様書枠
 48
50.0
100
AcDbLine
 10
140.0
 20
0.0
 30
0.0
 11
16307.2
 21
-0.0000000000000909
 31
0.0
  0
LINE
  5
10B5E
330
747D
100
AcDbEntity
  8
補助
  6
PHANTOM
 62
   230
 48
50.0
100
AcDbLine
 10
16307.2
 20
11409.6
 30
0.0
 11
16307.2
 21
1200.0
 31
0.0
  0
LINE
  5
10B6C
330
747D
100
AcDbEntity
  8
仕様書枠
 48
50.0
100
AcDbLine
 10
13107.2
 20
1200.0
 30
0.0
 11
16307.2
 21
1200.0
 31
0.0
  0
LINE
  5
10B6D
330
747D
100
AcDbEntity
  8
補助
  6
PHANTOM
 62
   230
 48
50.0
100
AcDbLine
 10
13107.2
 20
11409.6
 30
0.0
 11
13107.2
 21
4800.0
 31
0.0
  0
LINE
  5
10B6F
330
747D
100
AcDbEntity
  8
補助
  6
PHANTOM
 62
   230
 48
50.0
100
AcDbLine
 10
13107.2
 20
4800.0
 30
0.0
 11
16307.2
 21
4800.0
 31
0.0
  0
LINE
  5
10B72
330
747D
100
AcDbEntity
  8
文字
 62
     7
 48
50.0
100
AcDbLine
 10
13187.2
 20
400.0
 30
0.0
 11
16227.2
 21
400.0
 31
0.0
  0
TEXT
  5
10B73
330
747D
100
AcDbEntity
  8
文字
 62
     7
 48
50.0
100
AcDbText
 10
13162.9790565769
 20
895.0906074299405
 30
0.0
 40
200.0
  1
外 形 図
  7
STYLE2
100
AcDbText
  0
TEXT
  5
10B74
330
747D
100
AcDbEntity
  8
文字
 62
     7
 48
50.0
100
AcDbText
 10
13201.43669998441
 20
477.2740661031255
 30
0.0
 40
160.0
  1
機種名
  7
STYLE2
100
AcDbText
  0
TEXT
  5
10B76
330
747D
100
AcDbEntity
  8
文字
 62
     7
 48
50.0
100
AcDbText
 10
13209.4053442172
 20
76.09434707649343
 30
0.0
 40
100.0
  1
○床面積 ： 3.19㎡(0.97坪) 　
  7
STYLE2
100
AcDbText
  0
TEXT
  5
10B79
330
747D
100
AcDbEntity
  8
文字
 62
     7
 48
50.0
100
AcDbText
 10
14524.131837222
 20
1031.557706291228
 30
0.0
 40
100.0
  1
NO.12      <縮尺> S=1/40
  7
STYLE2
100
AcDbText
  0
LINE
  5
10B7B
330
747D
100
AcDbEntity
  8
仕様書枠
 48
50.0
100
AcDbLine
 10
13107.2
 20
800.0
 30
0.0
 11
14251.2
 21
800.0
 31
0.0
  0
LINE
  5
10B88
330
747D
100
AcDbEntity
  8
仕様書枠
  6
Continuous
 48
50.0
100
AcDbLine
 10
14251.2
 20
1200.0
 30
0.0
 11
14251.2
 21
800.0
 31
0.0
  0
TEXT
  5
14D2F
330
747D
100
AcDbEntity
  8
文字
 62
     7
 48
50.0
100
AcDbText
 10
14644.07818602837
 20
876.4448062548634
 30
0.0
 40
100.0
  1
～一般型・多雪地型～
  7
STYLE2
100
AcDbText
  0
LINE
  5
17BE6
330
747D
100
AcDbEntity
  8
補助
  6
PHANTOM
 62
   230
 48
50.0
100
AcDbLine
 10
140.0
 20
0.0
 30
0.0
 11
140.0
 21
11409.6
 31
0.0
  0
LINE
  5
1805F
330
747D
100
AcDbEntity
  8
部品1
 48
50.0
100
AcDbLine
 10
10248.2518897449
 20
2746.225007150097
 30
0.0
 11
10248.2518897449
 21
2646.225007150097
 31
0.0
  0
LINE
  5
18060
330
747D
100
AcDbEntity
  8
部品1
 48
50.0
100
AcDbLine
 10
10448.2518897449
 20
2746.225007150097
 30
0.0
 11
10448.2518897449
 21
2646.225007150097
 31
0.0
  0
LINE
  5
18061
330
747D
100
AcDbEntity
  8
部品1
 48
50.0
100
AcDbLine
 10
9556.251889744906
 20
2746.225007150097
 30
0.0
 11
9556.251889744906
 21
2646.225007150097
 31
0.0
  0
LINE
  5
18062
330
747D
100
AcDbEntity
  8
部品1
 48
50.0
100
AcDbLine
 10
9756.251889744907
 20
2746.225007150097
 30
0.0
 11
9756.251889744907
 21
2646.225007150097
 31
0.0
  0
LINE
  5
18063
330
747D
100
AcDbEntity
  8
破線
 48
10.0
100
AcDbLine
 10
9631.751889744942
 20
7917.094063197932
 30
0.0
 11
8977.251889744893
 21
7917.094063197899
 31
0.0
  0
LINE
  5
18064
330
747D
100
AcDbEntity
  8
破線
 48
10.0
100
AcDbLine
 10
10372.75188974494
 20
7893.594063197965
 30
0.0
 11
10372.75188974494
 21
8727.094063198093
 31
0.0
  0
LINE
  5
18065
330
747D
100
AcDbEntity
  8
破線
 48
10.0
100
AcDbLine
 10
10322.75188974494
 20
7893.594063197963
 30
0.0
 11
10322.75188974494
 21
8727.094063198096
 31
0.0
  0
LINE
  5
18066
330
747D
100
AcDbEntity
  8
破線
 48
10.0
100
AcDbLine
 10
9631.751889744942
 20
7893.59406319793
 30
0.0
 11
9631.751889744938
 21
8727.094063198027
 31
0.0
  0
LINE
  5
18067
330
747D
100
AcDbEntity
  8
破線
 48
10.0
100
AcDbLine
 10
9681.751889744937
 20
7893.594063197932
 30
0.0
 11
9681.751889744942
 21
8727.09406319803
 31
0.0
  0
LINE
  5
18125
330
747D
100
AcDbEntity
  8
部品1
100
AcDbLine
 10
6145.702805834576
 20
1766.909464175137
 30
0.0
 11
5382.232139606137
 21
1766.909464175137
 31
0.0
  0
LINE
  5
18126
330
747D
100
AcDbEntity
  8
部品1
100
AcDbLine
 10
6145.702805834576
 20
1527.017142629605
 30
0.0
 11
6145.702805834576
 21
1766.909464175137
 31
0.0
  0
LINE
  5
18127
330
747D
100
AcDbEntity
  8
部品1
100
AcDbLine
 10
5382.232139606137
 20
1527.017142629605
 30
0.0
 11
6145.702805834576
 21
1527.017142629605
 31
0.0
  0
LINE
  5
18128
330
747D
100
AcDbEntity
  8
部品1
100
AcDbLine
 10
5382.232139606137
 20
1766.909464175137
 30
0.0
 11
5382.232139606137
 21
1527.017142629605
 31
0.0
  0
TEXT
  5
18129
330
747D
100
AcDbEntity
  8
部品1
100
AcDbText
 10
5471.678241029745
 20
1574.015934956614
 30
0.0
 40
135.0
  1
側面図
  7
STYLE2
100
AcDbText
  0
MTEXT
  5
1812B
330
747D
100
AcDbEntity
  8
寸法
 62
     7
 48
50.0
100
AcDbMText
 10
9577.354426838063
 20
8793.328881395337
 30
0.0
 40
96.0
 41
0.0
 71
     5
 72
     1
  1
棚 2段
  7
STYLE1
 73
     1
 44
1.0
1001
ACAD
1000
MTEXTBEGIN
1070
    73
1070
     1
1070
    44
1040
1.0
1070
    74
1070
     0
1000
MTEXTEND
  0
MTEXT
  5
1812C
330
747D
100
AcDbEntity
  8
寸法
 62
     7
 48
50.0
100
AcDbMText
 10
10667.35442683806
 20
8793.328881395384
 30
0.0
 40
96.0
 41
0.0
 71
     5
 72
     1
  1
棚 2段
  7
STYLE1
 73
     1
 44
1.0
1001
ACAD
1000
MTEXTBEGIN
1070
    73
1070
     1
1070
    44
1040
1.0
1070
    74
1070
     0
1000
MTEXTEND
  0
LINE
  5
181C8
330
747D
100
AcDbEntity
  8
部品1
 48
50.0
100
AcDbLine
 10
9759.251889744913
 20
4529.225007174864
 30
0.0
 11
9759.251889744913
 21
2796.225007150094
 31
0.0
  0
LINE
  5
181C9
330
747D
100
AcDbEntity
  8
部品1
100
AcDbLine
 10
10413.25188004977
 20
4529.225007187248
 30
0.0
 11
10413.25188004977
 21
2803.725007187262
 31
0.0
  0
LINE
  5
181CA
330
747D
100
AcDbEntity
  8
細線
100
AcDbLine
 10
9659.251889744915
 20
4529.225007150096
 30
0.0
 11
9659.251889744913
 21
2796.225007150104
 31
0.0
  0
LINE
  5
181CB
330
747D
100
AcDbEntity
  8
細線
100
AcDbLine
 10
9589.251889744915
 20
4529.225007150096
 30
0.0
 11
9589.251889744913
 21
2796.225007150104
 31
0.0
  0
LINE
  5
181CC
330
747D
100
AcDbEntity
  8
細線
100
AcDbLine
 10
9519.251889744916
 20
4529.225007150096
 30
0.0
 11
9519.251889744912
 21
2796.225007150101
 31
0.0
  0
LINE
  5
181CD
330
747D
100
AcDbEntity
  8
細線
100
AcDbLine
 10
9449.251889744916
 20
4529.225007150096
 30
0.0
 11
9449.251889744912
 21
2796.225007150101
 31
0.0
  0
LINE
  5
181CE
330
747D
100
AcDbEntity
  8
細線
100
AcDbLine
 10
9379.251889744915
 20
4529.225007150096
 30
0.0
 11
9379.251889744912
 21
2796.225007150101
 31
0.0
  0
LINE
  5
181CF
330
747D
100
AcDbEntity
  8
細線
100
AcDbLine
 10
9309.251889744915
 20
4529.225007150096
 30
0.0
 11
9309.251889744912
 21
2796.225007150101
 31
0.0
  0
LINE
  5
181D0
330
747D
100
AcDbEntity
  8
部品1
100
AcDbLine
 10
9125.251889744912
 20
4529.225007150096
 30
0.0
 11
9125.251889744914
 21
2796.225007150101
 31
0.0
  0
LINE
  5
181D1
330
747D
100
AcDbEntity
  8
部品1
100
AcDbLine
 10
9075.251889744912
 20
4529.225007150096
 30
0.0
 11
9075.251889744915
 21
2796.225007150101
 31
0.0
  0
LINE
  5
181D2
330
747D
100
AcDbEntity
  8
細線
100
AcDbLine
 10
9117.251889744911
 20
4529.225007150096
 30
0.0
 11
9117.251889744915
 21
2796.225007150101
 31
0.0
  0
LINE
  5
181D3
330
747D
100
AcDbEntity
  8
細線
100
AcDbLine
 10
9083.251889744913
 20
4529.225007150096
 30
0.0
 11
9083.251889744916
 21
2796.225007150101
 31
0.0
  0
LINE
  5
181D4
330
747D
100
AcDbEntity
  8
細線
100
AcDbLine
 10
10310.75189949516
 20
4529.225007150096
 30
0.0
 11
10310.75189949516
 21
2803.725007150108
 31
0.0
  0
LINE
  5
181D5
330
747D
100
AcDbEntity
  8
細線
100
AcDbLine
 10
10240.75189949515
 20
4529.225007150096
 30
0.0
 11
10240.75189949515
 21
2803.725007150108
 31
0.0
  0
LINE
  5
181D6
330
747D
100
AcDbEntity
  8
細線
100
AcDbLine
 10
10170.75189949516
 20
4529.225007150096
 30
0.0
 11
10170.75189949516
 21
2803.725007150108
 31
0.0
  0
LINE
  5
181D7
330
747D
100
AcDbEntity
  8
細線
100
AcDbLine
 10
10100.75189949515
 20
4529.225007150096
 30
0.0
 11
10100.75189949515
 21
2803.725007150108
 31
0.0
  0
LINE
  5
181D8
330
747D
100
AcDbEntity
  8
細線
100
AcDbLine
 10
10030.75189949516
 20
4529.225007150096
 30
0.0
 11
10030.75189949516
 21
2803.725007150108
 31
0.0
  0
LINE
  5
181D9
330
747D
100
AcDbEntity
  8
細線
100
AcDbLine
 10
9960.751899495157
 20
4529.225007150096
 30
0.0
 11
9960.751899495157
 21
2803.725007150108
 31
0.0
  0
LINE
  5
181DA
330
747D
100
AcDbEntity
  8
細線
100
AcDbLine
 10
10886.00188974492
 20
4529.225007150096
 30
0.0
 11
10886.00188974492
 21
2803.725007150115
 31
0.0
  0
LINE
  5
181DB
330
747D
100
AcDbEntity
  8
細線
100
AcDbLine
 10
10816.00188974492
 20
4529.225007150096
 30
0.0
 11
10816.00188974492
 21
2803.725007150115
 31
0.0
  0
LINE
  5
181DC
330
747D
100
AcDbEntity
  8
細線
100
AcDbLine
 10
10746.00188974492
 20
4529.225007150096
 30
0.0
 11
10746.00188974492
 21
2803.725007150115
 31
0.0
  0
LINE
  5
181DD
330
747D
100
AcDbEntity
  8
細線
100
AcDbLine
 10
10676.00188974492
 20
4529.225007150096
 30
0.0
 11
10676.00188974492
 21
2803.725007150115
 31
0.0
  0
LINE
  5
181DE
330
747D
100
AcDbEntity
  8
細線
100
AcDbLine
 10
10606.00188974492
 20
4529.225007150096
 30
0.0
 11
10606.00188974492
 21
2803.725007150115
 31
0.0
  0
LINE
  5
181DF
330
747D
100
AcDbEntity
  8
細線
100
AcDbLine
 10
9239.251889744915
 20
4529.225007150096
 30
0.0
 11
9239.251889744911
 21
2796.225007150101
 31
0.0
  0
LINE
  5
181E0
330
747D
100
AcDbEntity
  8
細線
100
AcDbLine
 10
9169.251889744916
 20
4529.225007150096
 30
0.0
 11
9169.251889744911
 21
2796.225007150101
 31
0.0
  0
LINE
  5
181E1
330
747D
100
AcDbEntity
  8
細線
100
AcDbLine
 10
9890.751899495157
 20
4529.225007150096
 30
0.0
 11
9890.751899495157
 21
2803.725007150108
 31
0.0
  0
LINE
  5
181E2
330
747D
100
AcDbEntity
  8
細線
100
AcDbLine
 10
9820.751899495157
 20
4529.225007150096
 30
0.0
 11
9820.751899495157
 21
2803.725007150108
 31
0.0
  0
LINE
  5
181E3
330
747D
100
AcDbEntity
  8
細線
100
AcDbLine
 10
10536.00188974492
 20
4529.225007150096
 30
0.0
 11
10536.00188974492
 21
2803.725007150115
 31
0.0
  0
LINE
  5
181E4
330
747D
100
AcDbEntity
  8
部品1
 48
50.0
100
AcDbLine
 10
11079.25188974491
 20
4537.225007150096
 30
0.0
 11
11049.25188974491
 21
4537.225007150096
 31
0.0
  0
LINE
  5
181E5
330
747D
100
AcDbEntity
  8
細線
 48
50.0
100
AcDbLine
 10
11027.25188974491
 20
2793.225007150097
 30
0.0
 11
11023.25188974491
 21
2803.725007150097
 31
0.0
  0
LINE
  5
181E6
330
747D
100
AcDbEntity
  8
部品1
 48
50.0
100
AcDbLine
 10
10413.25188004977
 20
4529.225007187243
 30
0.0
 11
10413.25188004977
 21
2803.725007187244
 31
0.0
  0
LINE
  5
181E7
330
747D
100
AcDbEntity
  8
部品1
 48
50.0
100
AcDbLine
 10
11079.25188974491
 20
2746.225007150097
 30
0.0
 11
11079.25188974491
 21
4581.225007150097
 31
0.0
  0
LINE
  5
181E8
330
747D
100
AcDbEntity
  8
細線
 48
50.0
100
AcDbLine
 10
11049.25188974491
 20
2746.225007150097
 30
0.0
 11
11049.25188974491
 21
4538.725007150096
 31
0.0
  0
LINE
  5
181E9
330
747D
100
AcDbEntity
  8
部品1
 48
50.0
100
AcDbLine
 10
11040.25188974491
 20
2793.225007150097
 30
0.0
 11
11040.25188974491
 21
4529.225007150096
 31
0.0
  0
LINE
  5
181EA
330
747D
100
AcDbEntity
  8
部品1
 48
50.0
100
AcDbLine
 10
8955.251889744916
 20
4537.225007150096
 30
0.0
 11
8925.251889744915
 21
4537.225007150096
 31
0.0
  0
LINE
  5
181EB
330
747D
100
AcDbEntity
  8
部品1
 48
50.0
100
AcDbLine
 10
8964.251889744915
 20
2796.225007150097
 30
0.0
 11
8964.251889744915
 21
2793.225007150097
 31
0.0
  0
LINE
  5
181EC
330
747D
100
AcDbEntity
  8
部品1
 48
50.0
100
AcDbLine
 10
8955.251889744916
 20
2796.225007150097
 30
0.0
 11
9759.251889744913
 21
2796.225007150094
 31
0.0
  0
LINE
  5
181ED
330
747D
100
AcDbEntity
  8
部品1
 48
50.0
100
AcDbLine
 10
9759.251889744913
 20
4529.225007174864
 30
0.0
 11
9759.251889744913
 21
2796.225007174864
 31
0.0
  0
LINE
  5
181EE
330
747D
100
AcDbEntity
  8
部品1
 48
50.0
100
AcDbLine
 10
8925.251889744915
 20
4581.225007150097
 30
0.0
 11
8925.251889744915
 21
2746.225007150097
 31
0.0
  0
LINE
  5
181EF
330
747D
100
AcDbEntity
  8
細線
 48
50.0
100
AcDbLine
 10
8955.251889744916
 20
4538.725007150096
 30
0.0
 11
8955.251889744916
 21
2746.225007150097
 31
0.0
  0
LINE
  5
181F0
330
747D
100
AcDbEntity
  8
部品1
 48
50.0
100
AcDbLine
 10
8955.251889744916
 20
2796.225007150097
 30
0.0
 11
8955.251889744916
 21
4529.225007150096
 31
0.0
  0
LINE
  5
181F1
330
747D
100
AcDbEntity
  8
細線
 48
50.0
100
AcDbLine
 10
9759.251889744913
 20
2803.725007150097
 30
0.0
 11
11023.25188974491
 21
2803.725007150097
 31
0.0
  0
LINE
  5
181F2
330
747D
100
AcDbEntity
  8
細線
 48
50.0
100
AcDbLine
 10
8955.251889744916
 20
2793.225007150097
 30
0.0
 11
11049.25188974491
 21
2793.225007150097
 31
0.0
  0
LINE
  5
181F3
330
747D
100
AcDbEntity
  8
細線
 48
50.0
100
AcDbLine
 10
8955.251889744916
 20
2789.225007150097
 30
0.0
 11
11049.25188974491
 21
2789.225007150097
 31
0.0
  0
LINE
  5
181F4
330
747D
100
AcDbEntity
  8
部品1
 48
50.0
100
AcDbLine
 10
8925.251889744915
 20
2746.225007150097
 30
0.0
 11
11079.25188974491
 21
2746.225007150097
 31
0.0
  0
LINE
  5
181F5
330
747D
100
AcDbEntity
  8
細線
 48
50.0
100
AcDbLine
 10
11049.25188974491
 20
4538.725007150096
 30
0.0
 11
8955.251889744916
 21
4538.725007150096
 31
0.0
  0
LINE
  5
181F6
330
747D
100
AcDbEntity
  8
細線
 48
50.0
100
AcDbLine
 10
11049.25188974491
 20
4529.225007150096
 30
0.0
 11
8955.251889744916
 21
4529.225007150096
 31
0.0
  0
LINE
  5
181F7
330
747D
100
AcDbEntity
  8
細線
 48
50.0
100
AcDbLine
 10
11079.25188974491
 20
4571.225007150096
 30
0.0
 11
8925.251889744915
 21
4571.225007150096
 31
0.0
  0
LINE
  5
181F8
330
747D
100
AcDbEntity
  8
部品1
 48
50.0
100
AcDbLine
 10
11079.25188974491
 20
4581.225007150097
 30
0.0
 11
8925.251889744915
 21
4581.225007150097
 31
0.0
  0
LINE
  5
18212
330
747D
100
AcDbEntity
  8
部品1
 48
50.0
100
AcDbLine
 10
8999.251889744916
 20
3727.725007150097
 30
0.0
 11
9052.251889744916
 21
3727.725007150097
 31
0.0
  0
TEXT
  5
182C6
330
747D
100
AcDbEntity
  8
文字
 62
     7
 48
50.0
100
AcDbText
 10
14491.96323844892
 20
483.8967129911416
 30
0.0
 40
160.0
  1
ＮＸＮ－３０ＳＢ
  7
STYLE2
100
AcDbText
  0
LINE
  5
182C7
330
747D
100
AcDbEntity
  8
部品1
100
AcDbLine
 10
10383.98722285913
 20
1766.909464175137
 30
0.0
 11
9620.516556630693
 21
1766.909464175137
 31
0.0
  0
LINE
  5
182C8
330
747D
100
AcDbEntity
  8
部品1
100
AcDbLine
 10
10383.98722285913
 20
1527.017142629605
 30
0.0
 11
10383.98722285913
 21
1766.909464175137
 31
0.0
  0
LINE
  5
182C9
330
747D
100
AcDbEntity
  8
部品1
100
AcDbLine
 10
9620.516556630693
 20
1527.017142629605
 30
0.0
 11
10383.98722285913
 21
1527.017142629605
 31
0.0
  0
LINE
  5
182CA
330
747D
100
AcDbEntity
  8
部品1
100
AcDbLine
 10
9620.516556630693
 20
1766.909464175137
 30
0.0
 11
9620.516556630693
 21
1527.017142629605
 31
0.0
  0
LINE
  5
182CB
330
747D
100
AcDbEntity
  8
部品1
100
AcDbLine
 10
10383.98722285913
 20
6295.225918232378
 30
0.0
 11
9620.516556630693
 21
6295.225918232378
 31
0.0
  0
LINE
  5
182CC
330
747D
100
AcDbEntity
  8
部品1
100
AcDbLine
 10
10383.98722285913
 20
6055.333596686845
 30
0.0
 11
10383.98722285913
 21
6295.225918232378
 31
0.0
  0
LINE
  5
182CD
330
747D
100
AcDbEntity
  8
部品1
100
AcDbLine
 10
9620.516556630693
 20
6055.333596686845
 30
0.0
 11
10383.98722285913
 21
6055.333596686845
 31
0.0
  0
LINE
  5
182CE
330
747D
100
AcDbEntity
  8
部品1
100
AcDbLine
 10
9620.516556630693
 20
6295.225918232378
 30
0.0
 11
9620.516556630693
 21
6055.333596686845
 31
0.0
  0
LINE
  5
182CF
330
747D
100
AcDbEntity
  8
部品1
100
AcDbLine
 10
11079.25188974491
 20
2796.225007150117
 30
0.0
 11
11107.25188974491
 21
2796.225007150117
 31
0.0
  0
LINE
  5
182D0
330
747D
100
AcDbEntity
  8
部品1
 48
50.0
100
AcDbLine
 10
11052.25188974491
 20
4581.225007150097
 30
0.0
 11
11052.25188974491
 21
4586.225007150097
 31
0.0
  0
LINE
  5
182D1
330
747D
100
AcDbEntity
  8
部品1
 48
50.0
100
AcDbLine
 10
8952.251889744916
 20
4581.225007150097
 30
0.0
 11
8952.251889744916
 21
4586.225007150097
 31
0.0
  0
DIMENSION
  5
182D2
330
747D
100
AcDbEntity
  8
寸法
 48
50.0
100
AcDbDimension
  2
*D2
 10
8604.027083273901
 20
2804.225007150096
 30
0.0
 11
8604.027083273901
 21
3706.153627359058
 31
0.0
 70
   160
  1
有効開口部高サ<>
 71
     5
 42
1725.000000000001
  3
INABA_S40G
100
AcDbAlignedDimension
 13
8925.251889744915
 23
4529.225007150096
 33
0.0
 14
8925.251889744915
 24
2804.225007150096
 34
0.0
 50
90.0
100
AcDbRotatedDimension
  0
LINE
  5
182D3
330
747D
100
AcDbEntity
  8
部品1
 48
50.0
100
AcDbLine
 10
11052.25188974489
 20
7837.094063198062
 30
0.0
 11
11107.2518897449
 21
7837.094063198067
 31
0.0
  0
LINE
  5
182D4
330
747D
100
AcDbEntity
  8
部品1
 48
50.0
100
AcDbLine
 10
11079.2518897449
 20
7865.09406319803
 30
0.0
 11
8925.251889744897
 21
7865.094063197997
 31
0.0
  0
LINE
  5
182D5
330
747D
100
AcDbEntity
  8
部品1
 48
50.0
100
AcDbLine
 10
8897.251889744914
 20
7837.094063197902
 30
0.0
 11
8952.251889744898
 21
7837.094063197906
 31
0.0
  0
LINE
  5
182D6
330
747D
100
AcDbEntity
  8
部品1
100
AcDbLine
 10
11052.25188974489
 20
7865.09406319803
 30
0.0
 11
11052.25188974489
 21
7837.09406319803
 31
0.0
  0
LINE
  5
182D7
330
747D
100
AcDbEntity
  8
部品1
100
AcDbLine
 10
11052.25188974489
 20
7865.094063198009
 30
0.0
 11
11052.25188974489
 21
7837.094063198009
 31
0.0
  0
LINE
  5
182D8
330
747D
100
AcDbEntity
  8
部品1
100
AcDbLine
 10
8952.251889744898
 20
7865.094063197914
 30
0.0
 11
8952.251889744898
 21
7837.094063197914
 31
0.0
  0
LINE
  5
182D9
330
747D
100
AcDbEntity
  8
部品1
100
AcDbLine
 10
8952.251889744861
 20
7865.094063197881
 30
0.0
 11
8952.251889744864
 21
7837.094063197881
 31
0.0
  0
LINE
  5
182DA
330
747D
100
AcDbEntity
  8
部品1
100
AcDbLine
 10
8925.251889744901
 20
7892.094063197951
 30
0.0
 11
8897.2518897449
 21
7892.094063197951
 31
0.0
  0
LINE
  5
182DB
330
747D
100
AcDbEntity
  8
部品1
100
AcDbLine
 10
11079.25188974492
 20
7892.094063198077
 30
0.0
 11
11107.25188974492
 21
7892.094063198077
 31
0.0
  0
LINE
  5
182DD
330
747D
100
AcDbEntity
  8
部品1
100
AcDbLine
 10
11079.25188974492
 20
8312.094063198077
 30
0.0
 11
11107.25188974492
 21
8312.094063198077
 31
0.0
  0
LINE
  5
182DE
330
747D
100
AcDbEntity
  8
部品1
100
AcDbLine
 10
8925.251889744901
 20
8312.094063197951
 30
0.0
 11
8897.2518897449
 21
8312.094063197951
 31
0.0
  0
LINE
  5
182DF
330
747D
100
AcDbEntity
  8
部品1
 48
50.0
100
AcDbLine
 10
11050.7518897449
 20
8312.094063198077
 30
0.0
 11
8953.751889744905
 21
8312.094063198165
 31
0.0
  0
LINE
  5
182E0
330
747D
100
AcDbEntity
  8
部品1
100
AcDbLine
 10
9792.251889744923
 20
9207.094063198097
 30
0.0
 11
9792.251889744923
 21
9179.094063198096
 31
0.0
  0
LINE
  5
182E1
330
747D
100
AcDbEntity
  8
部品1
100
AcDbLine
 10
9792.251889744923
 20
9207.094063197979
 30
0.0
 11
9792.251889744923
 21
9179.094063197979
 31
0.0
  0
LINE
  5
182E2
330
747D
100
AcDbEntity
  8
部品1
100
AcDbLine
 10
9792.251889744923
 20
9207.094063197979
 30
0.0
 11
9792.251889744923
 21
9179.094063197979
 31
0.0
  0
LINE
  5
182E3
330
747D
100
AcDbEntity
  8
部品1
100
AcDbLine
 10
11052.25188974492
 20
9207.094063198075
 30
0.0
 11
11052.25188974492
 21
9179.094063198075
 31
0.0
  0
LINE
  5
182E4
330
747D
100
AcDbEntity
  8
部品1
100
AcDbLine
 10
11052.25188974492
 20
9207.094063198097
 30
0.0
 11
11052.25188974492
 21
9179.094063198096
 31
0.0
  0
LINE
  5
182E5
330
747D
100
AcDbEntity
  8
部品1
100
AcDbLine
 10
11079.25188974492
 20
9152.094063198077
 30
0.0
 11
11107.25188974492
 21
9152.094063198077
 31
0.0
  0
LINE
  5
182E6
330
747D
100
AcDbEntity
  8
部品1
100
AcDbLine
 10
11079.25188974492
 20
8732.094063198077
 30
0.0
 11
11107.25188974492
 21
8732.094063198077
 31
0.0
  0
LINE
  5
182E7
330
747D
100
AcDbEntity
  8
部品1
100
AcDbLine
 10
11078.75188974492
 20
9177.094063198074
 30
0.0
 11
11078.75188974492
 21
8727.094063198078
 31
0.0
  0
LINE
  5
182E8
330
747D
100
AcDbEntity
  8
部品1
 48
50.0
100
AcDbLine
 10
11050.75188974488
 20
7893.594063197996
 30
0.0
 11
11079.25188974488
 21
7865.094063197997
 31
0.0
  0
LINE
  5
182E9
330
747D
100
AcDbEntity
  8
部品1
100
AcDbLine
 10
11107.25188974492
 20
9207.094063198075
 30
0.0
 11
11107.2518897449
 21
7837.094063198067
 31
0.0
  0
DIMENSION
  5
182EA
330
747D
100
AcDbEntity
  8
寸法
100
AcDbDimension
  2
*D3
 10
11754.67823547933
 20
7892.094063198062
 30
0.0
 11
11754.67823547933
 21
8522.094063198071
 31
0.0
 70
   160
  1
3X420=<>
 71
     5
 42
1260.000000000014
  3
INABA_S40G
100
AcDbAlignedDimension
 13
11107.25188974492
 23
9152.094063198077
 33
0.0
 14
11107.2518897449
 24
7892.094063198062
 34
0.0
 50
90.0
100
AcDbRotatedDimension
1001
ACAD
1000
DSTYLE
1002
{
1002
}
  0
LINE
  5
182EB
330
747D
100
AcDbEntity
  8
部品1
100
AcDbLine
 10
11079.25188974492
 20
9179.094063198075
 30
0.0
 11
11079.2518897449
 21
7865.09406319803
 31
0.0
  0
DIMENSION
  5
182EC
330
747D
100
AcDbEntity
  8
寸法
100
AcDbDimension
  2
*D4
 10
11434.10961560694
 20
8631.876247529188
 30
0.0
 11
11334.10961560694
 21
8856.876247529188
 31
0.0
 70
    32
 71
     5
 42
449.9999999999963
  3
INABA_S40G
100
AcDbAlignedDimension
 13
11078.75188974492
 23
9177.094063198074
 33
0.0
 14
11078.75188974492
 24
8727.094063198078
 34
0.0
 50
90.0
100
AcDbRotatedDimension
1001
ACAD
1000
DSTYLE
1002
{
1002
}
  0
LINE
  5
182ED
330
747D
100
AcDbEntity
  8
部品1
100
AcDbLine
 10
11050.75188974491
 20
8727.094063198078
 30
0.0
 11
11050.7518897449
 21
7893.594063197984
 31
0.0
  0
LINE
  5
182EE
330
747D
100
AcDbEntity
  8
破線
 48
10.0
100
AcDbLine
 10
11027.25188974491
 20
8727.094063198078
 30
0.0
 11
11027.2518897449
 21
7917.094063197994
 31
0.0
  0
LINE
  5
182EF
330
747D
100
AcDbEntity
  8
部品1
100
AcDbLine
 10
10632.25188974492
 20
9207.094063198097
 30
0.0
 11
10632.25188974492
 21
9179.094063198096
 31
0.0
  0
LINE
  5
182F0
330
747D
100
AcDbEntity
  8
部品1
100
AcDbLine
 10
10212.25188974492
 20
9207.094063198097
 30
0.0
 11
10212.25188974492
 21
9179.094063198096
 31
0.0
  0
LINE
  5
182F1
330
747D
100
AcDbEntity
  8
部品1
100
AcDbLine
 10
10199.75188974492
 20
9171.094063198077
 30
0.0
 11
10224.75188974492
 21
9171.094063198081
 31
0.0
  0
LINE
  5
182F2
330
747D
100
AcDbEntity
  8
部品1
100
AcDbLine
 10
10241.25188974492
 20
9197.094063198081
 30
0.0
 11
10247.25188974492
 21
9197.094063198081
 31
0.0
  0
LINE
  5
182F3
330
747D
100
AcDbEntity
  8
部品1
100
AcDbLine
 10
10247.25188974492
 20
9197.094063198081
 30
0.0
 11
10247.25188974492
 21
9179.094063198082
 31
0.0
  0
LINE
  5
182F4
330
747D
100
AcDbEntity
  8
部品1
100
AcDbLine
 10
10177.25188974492
 20
9197.094063198081
 30
0.0
 11
10183.25188974492
 21
9197.094063198081
 31
0.0
  0
LINE
  5
182F5
330
747D
100
AcDbEntity
  8
部品1
100
AcDbLine
 10
10177.25188974492
 20
9197.094063198081
 30
0.0
 11
10177.25188974492
 21
9179.094063198082
 31
0.0
  0
LINE
  5
182F6
330
747D
100
AcDbEntity
  8
部品1
100
AcDbLine
 10
10199.75188974492
 20
8727.094063198086
 30
0.0
 11
10224.75188974492
 21
8727.094063198086
 31
0.0
  0
LINE
  5
182F7
330
747D
100
AcDbEntity
  8
部品1
 48
50.0
100
AcDbLine
 10
10224.75188974492
 20
9179.094063198084
 30
0.0
 11
10224.75188974492
 21
8727.094063198086
 31
0.0
  0
LINE
  5
182F8
330
747D
100
AcDbEntity
  8
部品1
 48
50.0
100
AcDbLine
 10
10199.75188974492
 20
9179.094063198089
 30
0.0
 11
10199.75188974492
 21
8727.094063198086
 31
0.0
  0
LINE
  5
182F9
330
747D
100
AcDbEntity
  8
部品1
 48
50.0
100
AcDbLine
 10
10225.75188974492
 20
9177.094063198078
 30
0.0
 11
10225.75188974492
 21
8727.094063198086
 31
0.0
  0
LINE
  5
182FA
330
747D
100
AcDbEntity
  8
部品1
 48
50.0
100
AcDbLine
 10
10198.75188974492
 20
9177.094063198081
 30
0.0
 11
10198.75188974492
 21
8727.094063198086
 31
0.0
  0
LINE
  5
182FB
330
747D
100
AcDbEntity
  8
部品1
100
AcDbLine
 10
9372.251889744923
 20
9207.094063198097
 30
0.0
 11
9372.251889744923
 21
9179.094063198096
 31
0.0
  0
LINE
  5
182FC
330
747D
100
AcDbEntity
  8
部品1
100
AcDbLine
 10
9372.251889744923
 20
9207.094063197979
 30
0.0
 11
9372.251889744923
 21
9179.094063197979
 31
0.0
  0
LINE
  5
182FD
330
747D
100
AcDbEntity
  8
部品1
100
AcDbLine
 10
9372.251889744923
 20
9207.094063197979
 30
0.0
 11
9372.251889744923
 21
9179.094063197979
 31
0.0
  0
LINE
  5
182FE
330
747D
100
AcDbEntity
  8
部品1
100
AcDbLine
 10
10224.75188974492
 20
9179.094063198091
 30
0.0
 11
11079.25188974492
 21
9179.094063198075
 31
0.0
  0
LINE
  5
182FF
330
747D
100
AcDbEntity
  8
細線
 48
50.0
100
AcDbLine
 10
11078.75188974492
 20
8727.094063198078
 30
0.0
 11
10225.75188974492
 21
9177.094063198078
 31
0.0
  0
LINE
  5
18300
330
747D
100
AcDbEntity
  8
部品1
100
AcDbLine
 10
10225.75188974492
 20
8727.094063198086
 30
0.0
 11
11078.75188974492
 21
8727.094063198078
 31
0.0
  0
LINE
  5
18301
330
747D
100
AcDbEntity
  8
部品1
100
AcDbLine
 10
10225.75188974492
 20
9177.094063198081
 30
0.0
 11
11078.75188974492
 21
9177.094063198074
 31
0.0
  0
LINE
  5
18302
330
747D
100
AcDbEntity
  8
細線
 48
50.0
100
AcDbLine
 10
11078.75188974492
 20
9177.094063198074
 30
0.0
 11
10225.75188974492
 21
8727.094063198086
 31
0.0
  0
DIMENSION
  5
18303
330
747D
100
AcDbEntity
  8
寸法
100
AcDbDimension
  2
*D5
 10
11000.1831161885
 20
8433.871408397109
 30
0.0
 11
10605.09895186319
 21
8433.871408397109
 31
0.0
 70
   160
 71
     5
 42
853.0000000000109
  3
INABA_S40G
100
AcDbAlignedDimension
 13
10225.75188974492
 23
8727.094063198086
 33
0.0
 14
11078.75188974493
 24
8727.094063198078
 34
0.0
100
AcDbRotatedDimension
1001
ACAD
1000
DSTYLE
1002
{
1002
}
  0
LINE
  5
18304
330
747D
100
AcDbEntity
  8
破線
 48
10.0
100
AcDbLine
 10
11027.25188974488
 20
7917.094063197994
 30
0.0
 11
10372.75188974494
 21
7917.094063197966
 31
0.0
  0
TEXT
  5
18305
330
747D
100
AcDbEntity
  8
部品1
100
AcDbText
 10
9710.43616645973
 20
6102.332389013855
 30
0.0
 40
135.0
  1
平面図
  7
STYLE2
100
AcDbText
  0
DIMENSION
  5
18306
330
747D
100
AcDbEntity
  8
寸法
100
AcDbDimension
  2
*D6
 10
11754.67823547931
 20
7837.094063198065
 30
0.0
 11
11754.67823547931
 21
7459.232596293205
 31
0.0
 70
   160
 71
     5
 42
54.99999999999636
  3
INABA_S40G
100
AcDbAlignedDimension
 13
11107.2518897449
 23
7892.094063198062
 33
0.0
 14
11107.2518897449
 24
7837.094063198065
 34
0.0
 50
90.0
100
AcDbRotatedDimension
1001
ACAD
1000
DSTYLE
1002
{
1002
}
  0
LINE
  5
18307
330
747D
100
AcDbEntity
  8
部品1
100
AcDbLine
 10
8952.251889744886
 20
9207.094063197947
 30
0.0
 11
8952.251889744891
 21
9179.094063197947
 31
0.0
  0
LINE
  5
18308
330
747D
100
AcDbEntity
  8
部品1
100
AcDbLine
 10
8952.251889744923
 20
9207.094063197979
 30
0.0
 11
8952.251889744923
 21
9179.094063197979
 31
0.0
  0
LINE
  5
18309
330
747D
100
AcDbEntity
  8
部品1
100
AcDbLine
 10
8925.25188974489
 20
9152.094063197949
 30
0.0
 11
8897.251889744891
 21
9152.094063197949
 31
0.0
  0
LINE
  5
1830A
330
747D
100
AcDbEntity
  8
部品1
100
AcDbLine
 10
8925.251889744897
 20
8732.09406319795
 30
0.0
 11
8897.251889744898
 21
8732.09406319795
 31
0.0
  0
LINE
  5
1830B
330
747D
100
AcDbEntity
  8
部品1
 48
50.0
100
AcDbLine
 10
8925.751889744921
 20
9177.094063197975
 30
0.0
 11
8925.751889744923
 21
8727.094063197975
 31
0.0
  0
LINE
  5
1830C
330
747D
100
AcDbEntity
  8
部品1
 48
50.0
100
AcDbLine
 10
8953.751889744896
 20
7893.594063197996
 30
0.0
 11
8925.251889744897
 21
7865.094063197997
 31
0.0
  0
LINE
  5
1830D
330
747D
100
AcDbEntity
  8
部品1
100
AcDbLine
 10
8897.251889744886
 20
9207.094063197947
 30
0.0
 11
8897.251889744914
 21
7837.094063197935
 31
0.0
  0
LINE
  5
1830E
330
747D
100
AcDbEntity
  8
部品1
100
AcDbLine
 10
8925.251889744897
 20
7865.094063197997
 30
0.0
 11
8925.251889744924
 21
9179.094063197979
 31
0.0
  0
LINE
  5
1830F
330
747D
100
AcDbEntity
  8
部品1
100
AcDbLine
 10
8953.751889744898
 20
8727.094063198078
 30
0.0
 11
8953.751889744916
 21
7893.594063198015
 31
0.0
  0
LINE
  5
18310
330
747D
100
AcDbEntity
  8
破線
 48
10.0
100
AcDbLine
 10
8977.251889744897
 20
8727.094063198078
 30
0.0
 11
8977.251889744911
 21
7917.094063197899
 31
0.0
  0
DIMENSION
  5
18311
330
747D
100
AcDbEntity
  8
寸法
100
AcDbDimension
  2
*D7
 10
11107.2518897449
 20
6573.582833424822
 30
0.0
 11
10024.38464649221
 21
6573.582833424822
 31
0.0
 70
   160
 71
     5
 42
2209.999999999982
  3
INABA_S40G
100
AcDbAlignedDimension
 13
8897.251889744914
 23
7837.094063197902
 33
0.0
 14
11107.2518897449
 24
7837.094063198032
 34
0.0
100
AcDbRotatedDimension
1001
ACAD
1000
DSTYLE
1002
{
1002
}
  0
LINE
  5
18312
330
747D
100
AcDbEntity
  8
部品1
100
AcDbLine
 10
8925.251889744924
 20
9179.094063197979
 30
0.0
 11
10199.75188974492
 21
9179.094063198096
 31
0.0
  0
LINE
  5
18313
330
747D
100
AcDbEntity
  8
部品1
100
AcDbLine
 10
8897.251889744923
 20
9207.094063197979
 30
0.0
 11
11107.25188974492
 21
9207.094063198075
 31
0.0
  0
LINE
  5
18314
330
747D
100
AcDbEntity
  8
部品1
100
AcDbLine
 10
8925.751889744923
 20
8727.094063197979
 30
0.0
 11
10198.75188974492
 21
8727.094063198086
 31
0.0
  0
LINE
  5
18315
330
747D
100
AcDbEntity
  8
細線
 48
50.0
100
AcDbLine
 10
10198.75188974492
 20
9177.094063198081
 30
0.0
 11
8925.751889744923
 21
8727.094063197979
 31
0.0
  0
LINE
  5
18316
330
747D
100
AcDbEntity
  8
部品1
100
AcDbLine
 10
8925.751889744921
 20
9177.09406319798
 30
0.0
 11
10198.75188974492
 21
9177.094063198085
 31
0.0
  0
LINE
  5
18317
330
747D
100
AcDbEntity
  8
細線
 48
50.0
100
AcDbLine
 10
10198.75188974492
 20
8727.094063198086
 30
0.0
 11
8925.751889744921
 21
9177.09406319798
 31
0.0
  0
DIMENSION
  5
18318
330
747D
100
AcDbEntity
  8
寸法
100
AcDbDimension
  2
*D8
 10
10120.18311618853
 20
8433.871408397109
 30
0.0
 11
9461.328666321305
 21
8433.871408397109
 31
0.0
 70
   160
 71
     5
 42
1273.000000000011
  3
INABA_S40G
100
AcDbAlignedDimension
 13
8925.751889744923
 23
8727.094063197979
 33
0.0
 14
10198.75188974493
 24
8727.094063197972
 34
0.0
100
AcDbRotatedDimension
1001
ACAD
1000
DSTYLE
1002
{
1002
}
  0
LINE
  5
18319
330
747D
100
AcDbEntity
  8
破線
 48
10.0
100
AcDbLine
 10
10322.75188974494
 20
7917.094063197962
 30
0.0
 11
9681.751889744937
 21
7917.094063197932
 31
0.0
  0
LINE
  5
1831A
330
747D
100
AcDbEntity
  8
部品1
100
AcDbLine
 10
11050.75188974488
 20
7893.594063197996
 30
0.0
 11
8953.751889744799
 21
7893.594063197899
 31
0.0
  0
DIMENSION
  5
1831B
330
747D
100
AcDbEntity
  8
寸法
100
AcDbDimension
  2
*D9
 10
8952.251889744923
 20
9510.139657773558
 30
0.0
 11
8588.766608370647
 21
9510.139657773558
 31
0.0
 70
   160
 71
     5
 42
55.00000000003637
  3
INABA_S40G
100
AcDbAlignedDimension
 13
8897.251889744886
 23
9207.094063197979
 33
0.0
 14
8952.251889744923
 24
9207.094063197979
 34
0.0
100
AcDbRotatedDimension
1001
ACAD
1000
DSTYLE
1002
{
1002
}
  0
DIMENSION
  5
1831C
330
747D
100
AcDbEntity
  8
寸法
100
AcDbDimension
  2
*D10
 10
11754.67823547933
 20
9152.094063198077
 30
0.0
 11
11754.67823547933
 21
9515.579344572314
 31
0.0
 70
   160
 71
     5
 42
54.99999999999636
  3
INABA_S40G
100
AcDbAlignedDimension
 13
11107.25188974492
 23
9207.094063198075
 33
0.0
 14
11107.25188974492
 24
9152.094063198077
 34
0.0
 50
90.0
100
AcDbRotatedDimension
1001
ACAD
1000
DSTYLE
1002
{
1002
}
  0
DIMENSION
  5
1831D
330
747D
100
AcDbEntity
  8
寸法
100
AcDbDimension
  2
*D11
 10
11107.25188974492
 20
9510.139657773656
 30
0.0
 11
11415.73717111916
 21
9510.139657773656
 31
0.0
 70
   160
 71
     5
 42
55.0
  3
INABA_S40G
100
AcDbAlignedDimension
 13
11052.25188974492
 23
9207.094063198075
 33
0.0
 14
11107.25188974492
 24
9207.094063198075
 34
0.0
100
AcDbRotatedDimension
1001
ACAD
1000
DSTYLE
1002
{
1002
}
  0
DIMENSION
  5
1831E
330
747D
100
AcDbEntity
  8
寸法
100
AcDbDimension
  2
*D12
 10
11052.25188974492
 20
9510.139657773674
 30
0.0
 11
10002.25188974492
 21
9510.139657773674
 31
0.0
 70
   160
  1
5X420=<>
 71
     5
 42
2100.0
  3
INABA_S40G
100
AcDbAlignedDimension
 13
8952.251889744923
 23
9207.094063197979
 33
0.0
 14
11052.25188974492
 24
9207.094063198075
 34
0.0
100
AcDbRotatedDimension
1001
ACAD
1000
DSTYLE
1002
{
1002
}
  0
DIMENSION
  5
1831F
330
747D
100
AcDbEntity
  8
寸法
100
AcDbDimension
  2
*D13
 10
12061.29467684464
 20
7837.094063198065
 30
0.0
 11
12061.29467684464
 21
8511.196729100069
 31
0.0
 70
   160
 71
     5
 42
1370.000000000007
  3
INABA_S40G
100
AcDbAlignedDimension
 13
11107.25188974492
 23
9207.094063198075
 33
0.0
 14
11107.2518897449
 24
7837.094063198065
 34
0.0
 50
90.0
100
AcDbRotatedDimension
1001
ACAD
1000
DSTYLE
1002
{
1002
}
  0
LINE
  5
18320
330
747D
100
AcDbEntity
  8
部品1
100
AcDbLine
 10
8897.251889744914
 20
2796.225007150101
 30
0.0
 11
8925.251889744915
 21
2796.225007150101
 31
0.0
  0
TEXT
  5
18321
330
747D
100
AcDbEntity
  8
部品1
100
AcDbText
 10
9711.041960368648
 20
1574.015934956614
 30
0.0
 40
135.0
  1
正面図
  7
STYLE2
100
AcDbText
  0
DIMENSION
  5
18322
330
747D
100
AcDbEntity
  8
寸法
 48
50.0
100
AcDbDimension
  2
*D14
 10
8797.251889744915
 20
2160.17767784972
 30
0.0
 11
8897.251889744914
 21
2160.17767784972
 31
0.0
 70
   160
 71
     5
 42
200.0000000000018
  3
INABA_S40G
100
AcDbAlignedDimension
 13
8997.251889744918
 23
2446.225007150097
 33
0.0
 14
8797.251889744915
 24
2446.225007150097
 34
0.0
100
AcDbRotatedDimension
  0
LINE
  5
18323
330
747D
100
AcDbEntity
  8
破線
 48
5.0
100
AcDbLine
 10
8892.251889744915
 20
2646.225007150097
 30
0.0
 11
8892.251889744915
 21
2491.225007150098
 31
0.0
  0
LINE
  5
18324
330
747D
100
AcDbEntity
  8
破線
 48
5.0
100
AcDbLine
 10
11112.25188974491
 20
2646.225007150097
 30
0.0
 11
11112.25188974491
 21
2491.225007150097
 31
0.0
  0
LINE
  5
18325
330
747D
100
AcDbEntity
  8
破線
 48
5.0
100
AcDbLine
 10
8997.251889744914
 20
2646.225007150098
 30
0.0
 11
8997.251889744914
 21
2446.225007150097
 31
0.0
  0
LINE
  5
18326
330
747D
100
AcDbEntity
  8
破線
 48
5.0
100
AcDbLine
 10
8872.251889744914
 20
2491.225007150098
 30
0.0
 11
8892.251889744917
 21
2491.225007150098
 31
0.0
  0
LINE
  5
18327
330
747D
100
AcDbEntity
  8
破線
 48
5.0
100
AcDbLine
 10
8797.251889744915
 20
2646.225007150098
 30
0.0
 11
8797.251889744915
 21
2446.225007150097
 31
0.0
  0
LINE
  5
18328
330
747D
100
AcDbEntity
  8
破線
 48
5.0
100
AcDbLine
 10
8797.251889744915
 20
2446.225007150097
 30
0.0
 11
8997.251889744918
 21
2446.225007150097
 31
0.0
  0
LINE
  5
18329
330
747D
100
AcDbEntity
  8
部品1
100
AcDbLine
 10
8892.251889744915
 20
2791.225007150099
 30
0.0
 11
8892.251889744915
 21
2646.225007150097
 31
0.0
  0
LINE
  5
1832A
330
747D
100
AcDbEntity
  8
破線
 48
5.0
100
AcDbLine
 10
11132.25188974491
 20
2491.225007150097
 30
0.0
 11
11112.25188974491
 21
2491.225007150097
 31
0.0
  0
LINE
  5
1832B
330
747D
100
AcDbEntity
  8
破線
 48
5.0
100
AcDbLine
 10
11207.25188974491
 20
2646.225007150097
 30
0.0
 11
11207.25188974491
 21
2446.225007150096
 31
0.0
  0
LINE
  5
1832C
330
747D
100
AcDbEntity
  8
破線
 48
5.0
100
AcDbLine
 10
11007.25188974491
 20
2646.225007150097
 30
0.0
 11
11007.25188974491
 21
2446.225007150096
 31
0.0
  0
LINE
  5
1832D
330
747D
100
AcDbEntity
  8
破線
 48
5.0
100
AcDbLine
 10
11207.25188974491
 20
2446.225007150096
 30
0.0
 11
11007.25188974491
 21
2446.225007150096
 31
0.0
  0
LINE
  5
1832E
330
747D
100
AcDbEntity
  8
部品1
100
AcDbLine
 10
11112.25188974491
 20
2791.225007150098
 30
0.0
 11
11112.25188974491
 21
2646.225007150097
 31
0.0
  0
LINE
  5
1832F
330
747D
100
AcDbEntity
  8
部品1
100
AcDbLine
 10
9297.251889744915
 20
2746.225007150097
 30
0.0
 11
9297.251889744915
 21
2646.225007150097
 31
0.0
  0
LINE
  5
18330
330
747D
100
AcDbEntity
  8
部品1
100
AcDbLine
 10
10707.25188974491
 20
2746.225007150097
 30
0.0
 11
10707.25188974491
 21
2646.225007150097
 31
0.0
  0
LINE
  5
18331
330
747D
100
AcDbEntity
  8
部品1
100
AcDbLine
 10
11107.25188974492
 20
4640.901444781317
 30
0.0
 11
11107.25188974491
 21
2646.225007150097
 31
0.0
  0
LINE
  5
18332
330
747D
100
AcDbEntity
  8
部品1
100
AcDbLine
 10
8897.251889744914
 20
4678.251304194682
 30
0.0
 11
8897.251889744914
 21
2646.225007150097
 31
0.0
  0
LINE
  5
18333
330
747D
100
AcDbEntity
  8
部品1
100
AcDbLine
 10
8897.251889744914
 20
4586.225007150097
 30
0.0
 11
11107.25188974491
 21
4586.225007150097
 31
0.0
  0
LINE
  5
18334
330
747D
100
AcDbEntity
  8
部品1
100
AcDbLine
 10
8897.251889744914
 20
2746.225007150097
 30
0.0
 11
11107.25188974491
 21
2746.225007150097
 31
0.0
  0
LINE
  5
18335
330
747D
100
AcDbEntity
  8
Ｇ．Ｌ
100
AcDbLine
 10
3462.377351680105
 20
2646.225007150097
 30
0.0
 11
11756.76444277376
 21
2646.225007150097
 31
0.0
  0
TEXT
  5
1833A
330
747D
100
AcDbEntity
  8
文字
 62
     7
 48
50.0
100
AcDbText
 10
13209.4053442172
 20
228.5435242569015
 30
0.0
 40
100.0
  1
○有効開口寸法 ： 1266×1725(mm)
  7
STYLE2
100
AcDbText
  0
ARC
  5
18B13
330
747D
100
AcDbEntity
  8
部品1
100
AcDbCircle
 10
6491.55905161392
 20
4814.2250071501
 30
0.0
 40
7.0
100
AcDbArc
 50
356.7526572096682
 51
90.0
  0
ARC
  5
18B14
330
747D
100
AcDbEntity
  8
部品1
100
AcDbCircle
 10
6478.343728152886
 20
4687.225007150102
 30
0.0
 40
7.0
100
AcDbArc
 50
270.0
 51
356.7526572096682
  0
ARC
  5
18B15
330
747D
100
AcDbEntity
  8
部品1
 48
50.0
100
AcDbCircle
 10
6496.715538363566
 20
4793.892006311785
 30
0.0
 40
0.7
100
AcDbArc
 50
277.6581272073652
 51
356.7526572095641
  0
ARC
  5
18B16
330
747D
100
AcDbEntity
  8
部品1
 48
50.0
100
AcDbCircle
 10
6488.479507838722
 20
4701.692006311783
 30
0.0
 40
0.7
100
AcDbArc
 50
277.6581272073652
 51
356.7526572096682
  0
ARC
  5
18B17
330
747D
100
AcDbEntity
  8
部品1
 48
50.0
100
AcDbCircle
 10
6488.972576947283
 20
4698.025007150097
 30
0.0
 40
3.0
100
AcDbArc
 50
97.65812720736519
 51
176.7526572096682
  0
ARC
  5
18B18
330
747D
100
AcDbEntity
  8
部品1
 48
50.0
100
AcDbCircle
 10
6497.208607472126
 20
4790.225007150102
 30
0.0
 40
3.0
100
AcDbArc
 50
97.65812720736519
 51
176.7526572096682
  0
LINE
  5
18B19
330
747D
100
AcDbEntity
  8
部品1
100
AcDbLine
 10
6494.21342457594
 20
4790.394946605204
 30
0.0
 11
6489.178383847828
 21
4701.652353772259
 31
0.0
  0
LINE
  5
18B1A
330
747D
100
AcDbEntity
  8
部品1
100
AcDbLine
 10
6485.977394051096
 20
4698.194946605201
 30
0.0
 11
6485.332488243985
 21
4686.828481754861
 31
0.0
  0
LINE
  5
18B1B
330
747D
100
AcDbEntity
  8
細線
 48
50.0
100
AcDbLine
 10
6465.967472720352
 20
4821.225007150101
 30
0.0
 11
6465.967472720352
 21
4680.225007150101
 31
0.0
  0
LINE
  5
18B1C
330
747D
100
AcDbEntity
  8
部品1
100
AcDbLine
 10
6498.547811705019
 20
4813.82848175486
 30
0.0
 11
6497.414414372673
 21
4793.852353772261
 31
0.0
  0
DIMENSION
  5
18B1D
330
747D
100
AcDbEntity
  8
寸法
 48
50.0
100
AcDbDimension
  2
*D15
 10
6448.967472720354
 20
5225.845266577367
 30
0.0
 11
6812.452754094589
 21
5225.845266577367
 31
0.0
 70
   160
 71
     5
 42
50.0
  3
INABA_S40G
100
AcDbAlignedDimension
 13
6498.967472720353
 23
4821.225007150099
 33
0.0
 14
6448.967472720354
 24
4821.225007150102
 34
0.0
100
AcDbRotatedDimension
  0
LINE
  5
18B1E
330
747D
100
AcDbEntity
  8
部品1
 48
0.01
100
AcDbLine
 10
6163.967472720356
 20
4650.225007150094
 30
0.0
 11
6163.967472720356
 21
4618.725007150095
 31
0.0
  0
LINE
  5
18B1F
330
747D
100
AcDbEntity
  8
部品1
 48
0.01
100
AcDbLine
 10
6161.967472720356
 20
4616.725007150095
 30
0.0
 11
5985.967472720357
 21
4616.725007150095
 31
0.0
  0
LINE
  5
18B20
330
747D
100
AcDbEntity
  8
部品1
 48
0.01
100
AcDbLine
 10
5983.967472720356
 20
4618.725007150095
 30
0.0
 11
5983.967472720356
 21
4650.225007150094
 31
0.0
  0
ARC
  5
18B21
330
747D
100
AcDbEntity
  8
部品1
 48
0.01
100
AcDbCircle
 10
6161.967472720356
 20
4618.725007150095
 30
0.0
 40
2.0
100
AcDbArc
 50
270.0
 51
0.0
  0
ARC
  5
18B22
330
747D
100
AcDbEntity
  8
部品1
 48
0.01
100
AcDbCircle
 10
5985.967472720357
 20
4618.725007150095
 30
0.0
 40
2.0
100
AcDbArc
 50
180.0
 51
270.0
  0
LINE
  5
18B23
330
747D
100
AcDbEntity
  8
細線
100
AcDbLine
 10
6073.967472720356
 20
4645.725007150095
 30
0.0
 11
6073.967472720356
 21
4622.725007150094
 31
0.0
  0
LINE
  5
18B24
330
747D
100
AcDbEntity
  8
細線
100
AcDbLine
 10
5999.967472720356
 20
4633.725007150094
 30
0.0
 11
6073.967472720356
 21
4633.725007150094
 31
0.0
  0
LINE
  5
18B25
330
747D
100
AcDbEntity
  8
細線
100
AcDbLine
 10
5999.967472720356
 20
4627.725007150095
 30
0.0
 11
6073.967472720356
 21
4627.725007150095
 31
0.0
  0
LINE
  5
18B26
330
747D
100
AcDbEntity
  8
細線
100
AcDbLine
 10
5999.967472720356
 20
4639.725007150095
 30
0.0
 11
6073.967472720356
 21
4639.725007150095
 31
0.0
  0
LINE
  5
18B27
330
747D
100
AcDbEntity
  8
細線
100
AcDbLine
 10
6147.967472720356
 20
4639.725007150095
 30
0.0
 11
6078.967472720357
 21
4639.725007150095
 31
0.0
  0
LINE
  5
18B28
330
747D
100
AcDbEntity
  8
細線
100
AcDbLine
 10
6147.967472720356
 20
4627.725007150095
 30
0.0
 11
6073.967472720356
 21
4627.725007150095
 31
0.0
  0
LINE
  5
18B29
330
747D
100
AcDbEntity
  8
細線
100
AcDbLine
 10
6147.967472720356
 20
4633.725007150094
 30
0.0
 11
6073.967472720356
 21
4633.725007150094
 31
0.0
  0
LINE
  5
18B2A
330
747D
100
AcDbEntity
  8
細線
100
AcDbLine
 10
6147.967472720356
 20
4639.725007150095
 30
0.0
 11
6073.967472720356
 21
4639.725007150095
 31
0.0
  0
LINE
  5
18B2B
330
747D
100
AcDbEntity
  8
部品1
 48
0.01
100
AcDbLine
 10
5985.967472720357
 20
4652.225007150095
 30
0.0
 11
6161.967472720356
 21
4652.225007150095
 31
0.0
  0
LINE
  5
18B2C
330
747D
100
AcDbEntity
  8
細線
100
AcDbLine
 10
6147.967472720356
 20
4645.725007150095
 30
0.0
 11
6147.967472720356
 21
4622.725007150094
 31
0.0
  0
LINE
  5
18B2D
330
747D
100
AcDbEntity
  8
細線
100
AcDbLine
 10
5999.967472720356
 20
4622.725007150094
 30
0.0
 11
5999.967472720356
 21
4645.725007150095
 31
0.0
  0
LINE
  5
18B2E
330
747D
100
AcDbEntity
  8
細線
100
AcDbLine
 10
5999.967472720356
 20
4645.725007150095
 30
0.0
 11
6073.967472720356
 21
4645.725007150095
 31
0.0
  0
LINE
  5
18B2F
330
747D
100
AcDbEntity
  8
細線
100
AcDbLine
 10
6147.967472720356
 20
4622.725007150094
 30
0.0
 11
6073.967472720356
 21
4622.725007150094
 31
0.0
  0
LINE
  5
18B30
330
747D
100
AcDbEntity
  8
細線
100
AcDbLine
 10
6073.967472720356
 20
4645.725007150095
 30
0.0
 11
6147.967472720356
 21
4645.725007150095
 31
0.0
  0
LINE
  5
18B31
330
747D
100
AcDbEntity
  8
細線
100
AcDbLine
 10
6073.967472720356
 20
4622.725007150094
 30
0.0
 11
5999.967472720356
 21
4622.725007150094
 31
0.0
  0
ARC
  5
18B32
330
747D
100
AcDbEntity
  8
部品1
 48
0.01
100
AcDbCircle
 10
6161.967472720356
 20
4650.225007150094
 30
0.0
 40
2.0
100
AcDbArc
 50
0.0
 51
90.0
  0
ARC
  5
18B33
330
747D
100
AcDbEntity
  8
部品1
 48
0.01
100
AcDbCircle
 10
5985.967472720357
 20
4650.225007150094
 30
0.0
 40
2.0
100
AcDbArc
 50
90.0
 51
180.0
  0
ARC
  5
18B34
330
747D
100
AcDbEntity
  8
部品1
 48
0.01
100
AcDbCircle
 10
5541.967472720353
 20
4618.725007150095
 30
0.0
 40
2.0
100
AcDbArc
 50
270.0
 51
0.0
  0
ARC
  5
18B35
330
747D
100
AcDbEntity
  8
部品1
 48
0.01
100
AcDbCircle
 10
5541.967472720356
 20
4650.225007150094
 30
0.0
 40
2.0
100
AcDbArc
 50
0.0
 51
90.0
  0
ARC
  5
18B36
330
747D
100
AcDbEntity
  8
部品1
 48
0.01
100
AcDbCircle
 10
5365.967472720356
 20
4618.725007150095
 30
0.0
 40
2.0
100
AcDbArc
 50
180.0
 51
270.0
  0
ARC
  5
18B37
330
747D
100
AcDbEntity
  8
部品1
 48
0.01
100
AcDbCircle
 10
5365.967472720356
 20
4650.225007150094
 30
0.0
 40
2.0
100
AcDbArc
 50
90.0
 51
180.0
  0
LINE
  5
18B38
330
747D
100
AcDbEntity
  8
細線
100
AcDbLine
 10
5453.967472720353
 20
4622.725007150094
 30
0.0
 11
5527.967472720356
 21
4622.725007150094
 31
0.0
  0
LINE
  5
18B39
330
747D
100
AcDbEntity
  8
細線
100
AcDbLine
 10
5453.967472720357
 20
4645.725007150095
 30
0.0
 11
5379.967472720356
 21
4645.725007150095
 31
0.0
  0
LINE
  5
18B3A
330
747D
100
AcDbEntity
  8
細線
100
AcDbLine
 10
5379.967472720356
 20
4622.725007150094
 30
0.0
 11
5453.967472720357
 21
4622.725007150094
 31
0.0
  0
LINE
  5
18B3B
330
747D
100
AcDbEntity
  8
細線
100
AcDbLine
 10
5527.967472720356
 20
4645.725007150095
 30
0.0
 11
5453.967472720357
 21
4645.725007150095
 31
0.0
  0
LINE
  5
18B3C
330
747D
100
AcDbEntity
  8
細線
100
AcDbLine
 10
5527.967472720356
 20
4622.725007150094
 30
0.0
 11
5527.967472720356
 21
4645.725007150095
 31
0.0
  0
LINE
  5
18B3D
330
747D
100
AcDbEntity
  8
細線
100
AcDbLine
 10
5379.967472720356
 20
4645.725007150095
 30
0.0
 11
5379.967472720356
 21
4622.725007150094
 31
0.0
  0
LINE
  5
18B3E
330
747D
100
AcDbEntity
  8
部品1
 48
0.01
100
AcDbLine
 10
5543.967472720353
 20
4618.725007150095
 30
0.0
 11
5543.967472720357
 21
4650.225007150094
 31
0.0
  0
LINE
  5
18B3F
330
747D
100
AcDbEntity
  8
部品1
 48
0.01
100
AcDbLine
 10
5365.967472720356
 20
4616.725007150095
 30
0.0
 11
5541.967472720353
 21
4616.725007150095
 31
0.0
  0
LINE
  5
18B40
330
747D
100
AcDbEntity
  8
部品1
 48
0.01
100
AcDbLine
 10
5363.967472720356
 20
4650.225007150094
 30
0.0
 11
5363.967472720356
 21
4618.725007150095
 31
0.0
  0
LINE
  5
18B41
330
747D
100
AcDbEntity
  8
部品1
 48
0.01
100
AcDbLine
 10
5541.967472720356
 20
4652.225007150095
 30
0.0
 11
5365.967472720356
 21
4652.225007150095
 31
0.0
  0
LINE
  5
18B42
330
747D
100
AcDbEntity
  8
細線
100
AcDbLine
 10
5379.967472720356
 20
4639.725007150095
 30
0.0
 11
5453.967472720357
 21
4639.725007150095
 31
0.0
  0
LINE
  5
18B43
330
747D
100
AcDbEntity
  8
細線
100
AcDbLine
 10
5379.967472720356
 20
4633.725007150094
 30
0.0
 11
5453.967472720357
 21
4633.725007150094
 31
0.0
  0
LINE
  5
18B44
330
747D
100
AcDbEntity
  8
細線
100
AcDbLine
 10
5379.967472720353
 20
4627.725007150095
 30
0.0
 11
5453.967472720357
 21
4627.725007150095
 31
0.0
  0
LINE
  5
18B45
330
747D
100
AcDbEntity
  8
細線
100
AcDbLine
 10
5379.967472720356
 20
4639.725007150095
 30
0.0
 11
5448.967472720356
 21
4639.725007150095
 31
0.0
  0
LINE
  5
18B46
330
747D
100
AcDbEntity
  8
細線
100
AcDbLine
 10
5527.967472720352
 20
4639.725007150095
 30
0.0
 11
5453.967472720357
 21
4639.725007150095
 31
0.0
  0
LINE
  5
18B47
330
747D
100
AcDbEntity
  8
細線
100
AcDbLine
 10
5527.967472720352
 20
4627.725007150095
 30
0.0
 11
5453.967472720357
 21
4627.725007150095
 31
0.0
  0
LINE
  5
18B48
330
747D
100
AcDbEntity
  8
細線
100
AcDbLine
 10
5527.967472720352
 20
4633.725007150094
 30
0.0
 11
5453.967472720357
 21
4633.725007150094
 31
0.0
  0
LINE
  5
18B49
330
747D
100
AcDbEntity
  8
細線
100
AcDbLine
 10
5453.967472720357
 20
4645.725007150095
 30
0.0
 11
5453.967472720353
 21
4622.725007150094
 31
0.0
  0
LINE
  5
18B4A
330
747D
100
AcDbEntity
  8
細線
 48
50.0
100
AcDbLine
 10
6488.691903974073
 20
4701.025007150099
 30
0.0
 11
5039.243041466625
 21
4701.025007150101
 31
0.0
  0
LINE
  5
18B4B
330
747D
100
AcDbEntity
  8
細線
 48
50.0
100
AcDbLine
 10
6496.927934498912
 20
4793.2250071501
 30
0.0
 11
5031.007010941795
 21
4793.225007150098
 31
0.0
  0
LINE
  5
18B4C
330
747D
100
AcDbEntity
  8
部品1
 48
50.0
100
AcDbLine
 10
6478.343728152886
 20
4680.225007150101
 30
0.0
 11
5049.591217287821
 21
4680.225007150101
 31
0.0
  0
LINE
  5
18B4D
330
747D
100
AcDbEntity
  8
部品1
 48
50.0
100
AcDbLine
 10
6491.55905161392
 20
4821.225007150101
 30
0.0
 11
5036.375893826788
 21
4821.225007150102
 31
0.0
  0
LINE
  5
18B4E
330
747D
100
AcDbEntity
  8
部品1
100
AcDbLine
 10
5029.387133735692
 20
4813.82848175486
 30
0.0
 11
5030.520531068038
 21
4793.852353772261
 31
0.0
  0
LINE
  5
18B4F
330
747D
100
AcDbEntity
  8
部品1
100
AcDbLine
 10
5041.957551389614
 20
4698.194946605201
 30
0.0
 11
5042.602457196722
 21
4686.828481754861
 31
0.0
  0
LINE
  5
18B50
330
747D
100
AcDbEntity
  8
部品1
100
AcDbLine
 10
5033.721520864767
 20
4790.394946605204
 30
0.0
 11
5038.756561592878
 21
4701.652353772259
 31
0.0
  0
ARC
  5
18B51
330
747D
100
AcDbEntity
  8
部品1
 48
50.0
100
AcDbCircle
 10
5030.726337968585
 20
4790.225007150102
 30
0.0
 40
3.0
100
AcDbArc
 50
3.247342790331777
 51
82.3418727926348
  0
ARC
  5
18B52
330
747D
100
AcDbEntity
  8
部品1
 48
50.0
100
AcDbCircle
 10
5038.962368493425
 20
4698.025007150097
 30
0.0
 40
3.0
100
AcDbArc
 50
3.247342790331777
 51
82.3418727926348
  0
ARC
  5
18B53
330
747D
100
AcDbEntity
  8
部品1
 48
50.0
100
AcDbCircle
 10
5039.455437601986
 20
4701.692006311783
 30
0.0
 40
0.7
100
AcDbArc
 50
183.2473427903317
 51
262.3418727926349
  0
ARC
  5
18B54
330
747D
100
AcDbEntity
  8
部品1
 48
50.0
100
AcDbCircle
 10
5031.219407077145
 20
4793.892006311785
 30
0.0
 40
0.7
100
AcDbArc
 50
183.2473427904358
 51
262.3418727926349
  0
ARC
  5
18B55
330
747D
100
AcDbEntity
  8
部品1
100
AcDbCircle
 10
5049.591217287821
 20
4687.225007150102
 30
0.0
 40
7.0
100
AcDbArc
 50
183.2473427903317
 51
270.0
  0
ARC
  5
18B56
330
747D
100
AcDbEntity
  8
部品1
100
AcDbCircle
 10
5036.375893826788
 20
4814.2250071501
 30
0.0
 40
7.0
100
AcDbArc
 50
90.0
 51
183.2473427903317
  0
LINE
  5
18B57
330
747D
100
AcDbEntity
  8
細線
 48
50.0
100
AcDbLine
 10
5061.967472720358
 20
4821.225007150101
 30
0.0
 11
5061.967472720358
 21
4680.225007150101
 31
0.0
  0
DIMENSION
  5
18B58
330
747D
100
AcDbEntity
  8
寸法
 48
50.0
100
AcDbDimension
  2
*D18
 10
5078.967472720358
 20
5225.845266577367
 30
0.0
 11
5763.967472720356
 21
5225.845266577367
 31
0.0
 70
   160
  1
柱外寸法<>
 71
     5
 42
1369.999999999994
  3
INABA_S40G
100
AcDbAlignedDimension
 13
6448.967472720354
 23
4821.225007150102
 33
0.0
 14
5078.967472720358
 24
4821.225007150102
 34
0.0
100
AcDbRotatedDimension
  0
DIMENSION
  5
18B59
330
747D
100
AcDbEntity
  8
寸法
 48
50.0
100
AcDbDimension
  2
*D19
 10
5028.967472720358
 20
5225.845266577367
 30
0.0
 11
4715.482191346111
 21
5225.845266577367
 31
0.0
 70
   160
 71
     5
 42
50.0
  3
INABA_S40G
100
AcDbAlignedDimension
 13
5078.967472720358
 23
4821.225007150102
 33
0.0
 14
5028.967472720358
 24
4821.225007150102
 34
0.0
100
AcDbRotatedDimension
1001
ACAD
1000
DSTYLE
1002
{
1002
}
  0
DIMENSION
  5
18B5A
330
747D
100
AcDbEntity
  8
寸法
 48
50.0
100
AcDbDimension
  2
*D20
 10
6498.967472720353
 20
5435.439140998818
 30
0.0
 11
5763.967472720356
 21
5435.439140998818
 31
0.0
 70
   160
 71
     5
 42
1469.999999999994
  3
INABA_S40G
100
AcDbAlignedDimension
 13
5028.967472720358
 23
4821.225007150102
 33
0.0
 14
6498.967472720353
 24
4821.225007150099
 34
0.0
100
AcDbRotatedDimension
  0
TEXT
  5
18B82
330
747D
100
AcDbEntity
  8
部品1
100
AcDbText
 10
3739.867923153016
 20
2682.331910755998
 30
0.0
 40
125.0
  1
▽G.L
  7
STYLE2
100
AcDbText
  0
TEXT
  5
18BF4
330
747D
100
AcDbEntity
  8
文字
 62
     7
 48
50.0
100
AcDbText
 10
13248.77747366447
 20
8380.013745883728
 30
0.0
 40
100.0
  1
17
  7
STYLE1
100
AcDbText
  0
TEXT
  5
18BF5
330
747D
100
AcDbEntity
  8
文字
 62
     7
 48
50.0
100
AcDbText
 10
13248.77747366447
 20
8550.013745883729
 30
0.0
 40
100.0
  1
16
  7
STYLE1
100
AcDbText
  0
TEXT
  5
18BF6
330
747D
100
AcDbEntity
  8
文字
 62
     7
 48
50.0
100
AcDbText
 10
15022.63965474517
 20
9060.013745883729
 30
0.0
 40
100.0
  1
F12            1.0
  7
STYLE1
100
AcDbText
  0
TEXT
  5
18BF7
330
747D
100
AcDbEntity
  8
文字
 62
     7
 48
50.0
100
AcDbText
 10
13583.11819016569
 20
9060.013745883736
 30
0.0
 40
100.0
  1
壁面扉枠左右
  7
STYLE1
100
AcDbText
  0
TEXT
  5
18BF8
330
747D
100
AcDbEntity
  8
文字
 62
     7
 48
50.0
100
AcDbText
 10
15022.63965474517
 20
9230.013745883729
 30
0.0
 40
100.0
  1
F12            1.0
  7
STYLE1
100
AcDbText
  0
TEXT
  5
18BF9
330
747D
100
AcDbEntity
  8
文字
 62
     7
 48
50.0
100
AcDbText
 10
15022.63965474515
 20
9400.013745883729
 30
0.0
 40
100.0
  1
F12            0.7
  7
STYLE1
100
AcDbText
  0
TEXT
  5
18BFA
330
747D
100
AcDbEntity
  8
文字
 62
     7
 48
50.0
100
AcDbText
 10
13583.11819016569
 20
9230.013745883736
 30
0.0
 40
100.0
  1
壁面扉敷居
  7
STYLE1
100
AcDbText
  0
TEXT
  5
18BFB
330
747D
100
AcDbEntity
  8
文字
 62
     7
 48
50.0
100
AcDbText
 10
13583.11819016569
 20
9400.013745883729
 30
0.0
 40
100.0
  1
壁面扉鴨居
  7
STYLE1
100
AcDbText
  0
LINE
  5
18BFC
330
747D
100
AcDbEntity
  8
仕様書枠
 48
50.0
100
AcDbLine
 10
16307.19999999999
 20
8689.600000000007
 30
0.0
 11
13127.2
 21
8689.600000000007
 31
0.0
  0
LINE
  5
18BFD
330
747D
100
AcDbEntity
  8
仕様書枠
 48
50.0
100
AcDbLine
 10
16307.19999999999
 20
8519.600000000009
 30
0.0
 11
13127.2
 21
8519.600000000009
 31
0.0
  0
TEXT
  5
18BFE
330
747D
100
AcDbEntity
  8
文字
 62
     7
 48
50.0
100
AcDbText
 10
13583.11819016569
 20
8380.013745883728
 30
0.0
 40
100.0
  1
アンカープレート
  7
STYLE1
100
AcDbText
  0
TEXT
  5
18BFF
330
747D
100
AcDbEntity
  8
文字
 62
     7
 48
50.0
100
AcDbText
 10
15022.63965474515
 20
8380.013745883726
 30
0.0
 40
100.0
  1
F12            2.3
  7
STYLE1
100
AcDbText
  0
LINE
  5
18C00
330
747D
100
AcDbEntity
  8
仕様書枠
 48
50.0
100
AcDbLine
 10
16307.2
 20
10049.6
 30
0.0
 11
13127.2
 21
10049.6
 31
0.0
  0
LINE
  5
18C01
330
747D
100
AcDbEntity
  8
仕様書枠
 48
50.0
100
AcDbLine
 10
16307.2
 20
11409.6
 30
0.0
 11
13127.2
 21
11409.6
 31
0.0
  0
LINE
  5
18C02
330
747D
100
AcDbEntity
  8
仕様書枠
 48
50.0
100
AcDbLine
 10
16307.19999999999
 20
8009.600000000007
 30
0.0
 11
16307.2
 21
11409.6
 31
0.0
  0
LINE
  5
18C03
330
747D
100
AcDbEntity
  8
仕様書枠
 48
50.0
100
AcDbLine
 10
14785.2
 20
11409.6
 30
0.0
 11
14785.2
 21
8349.600000000007
 31
0.0
  0
LINE
  5
18C04
330
747D
100
AcDbEntity
  8
仕様書枠
 48
50.0
100
AcDbLine
 10
13490.2
 20
11409.6
 30
0.0
 11
13490.20000000001
 21
8349.600000000007
 31
0.0
  0
LINE
  5
18C05
330
747D
100
AcDbEntity
  8
仕様書枠
 48
50.0
100
AcDbLine
 10
16307.2
 20
11239.6
 30
0.0
 11
13127.2
 21
11239.6
 31
0.0
  0
LINE
  5
18C06
330
747D
100
AcDbEntity
  8
仕様書枠
 48
50.0
100
AcDbLine
 10
16307.2
 20
10899.6
 30
0.0
 11
13127.2
 21
10899.6
 31
0.0
  0
LINE
  5
18C07
330
747D
100
AcDbEntity
  8
仕様書枠
 48
50.0
100
AcDbLine
 10
16307.2
 20
11069.6
 30
0.0
 11
13127.2
 21
11069.6
 31
0.0
  0
LINE
  5
18C08
330
747D
100
AcDbEntity
  8
仕様書枠
 48
50.0
100
AcDbLine
 10
16307.19999999999
 20
10559.6
 30
0.0
 11
13127.2
 21
10559.6
 31
0.0
  0
LINE
  5
18C09
330
747D
100
AcDbEntity
  8
仕様書枠
 48
50.0
100
AcDbLine
 10
16307.19999999999
 20
10389.6
 30
0.0
 11
13127.2
 21
10389.6
 31
0.0
  0
LINE
  5
18C0A
330
747D
100
AcDbEntity
  8
仕様書枠
 48
50.0
100
AcDbLine
 10
16307.19999999999
 20
10729.6
 30
0.0
 11
13127.2
 21
10729.6
 31
0.0
  0
TEXT
  5
18C0B
330
747D
100
AcDbEntity
  8
文字
 62
     7
 48
50.0
100
AcDbText
 10
13197.42518560407
 20
11270.01374588373
 30
0.0
 40
100.0
  1
品番
  7
STYLE1
100
AcDbText
  0
TEXT
  5
18C0C
330
747D
100
AcDbEntity
  8
文字
 62
     7
 48
50.0
100
AcDbText
 10
13271.19032244792
 20
11100.01374588373
 30
0.0
 40
100.0
  1
1
  7
STYLE1
100
AcDbText
  0
TEXT
  5
18C0D
330
747D
100
AcDbEntity
  8
文字
 62
     7
 48
50.0
100
AcDbText
 10
13271.19032244792
 20
10930.01374588373
 30
0.0
 40
100.0
  1
2
  7
STYLE1
100
AcDbText
  0
TEXT
  5
18C0E
330
747D
100
AcDbEntity
  8
文字
 62
     7
 48
50.0
100
AcDbText
 10
13271.19032244792
 20
10590.01374588373
 30
0.0
 40
100.0
  1
4
  7
STYLE1
100
AcDbText
  0
TEXT
  5
18C0F
330
747D
100
AcDbEntity
  8
文字
 62
     7
 48
50.0
100
AcDbText
 10
13271.19032244792
 20
10760.01374588373
 30
0.0
 40
100.0
  1
3
  7
STYLE1
100
AcDbText
  0
TEXT
  5
18C10
330
747D
100
AcDbEntity
  8
文字
 62
     7
 48
50.0
100
AcDbText
 10
13732.03840939434
 20
11270.01374588373
 30
0.0
 40
100.0
  1
部　　品　　名
  7
STYLE1
100
AcDbText
  0
TEXT
  5
18C11
330
747D
100
AcDbEntity
  8
文字
 62
     7
 48
50.0
100
AcDbText
 10
14859.79774614482
 20
11270.01374588373
 30
0.0
 40
100.0
  1
材料（材質）　　単位mm
  7
STYLE1
100
AcDbText
  0
TEXT
  5
18C12
330
747D
100
AcDbEntity
  8
文字
 62
     7
 48
50.0
100
AcDbText
 10
13583.11819016569
 20
11100.01374588373
 30
0.0
 40
100.0
  1
土台枠
  7
STYLE1
100
AcDbText
  0
TEXT
  5
18C13
330
747D
100
AcDbEntity
  8
文字
 62
     7
 48
50.0
100
AcDbText
 10
13583.1181901657
 20
10760.01374588373
 30
0.0
 40
100.0
  1
柱
  7
STYLE1
100
AcDbText
  0
TEXT
  5
18C14
330
747D
100
AcDbEntity
  8
文字
 62
     7
 48
50.0
100
AcDbText
 10
13583.11819016569
 20
10420.01374588373
 30
0.0
 40
100.0
  1
桁前後
  7
STYLE1
100
AcDbText
  0
TEXT
  5
18C15
330
747D
100
AcDbEntity
  8
文字
 62
     7
 48
50.0
100
AcDbText
 10
13271.19032244792
 20
10420.01374588373
 30
0.0
 40
100.0
  1
5
  7
STYLE1
100
AcDbText
  0
TEXT
  5
18C16
330
747D
100
AcDbEntity
  8
文字
 62
     7
 48
50.0
100
AcDbText
 10
13583.11819016569
 20
10250.01374588373
 30
0.0
 40
100.0
  1
妻板左右
  7
STYLE1
100
AcDbText
  0
TEXT
  5
18C17
330
747D
100
AcDbEntity
  8
文字
 62
     7
 48
50.0
100
AcDbText
 10
13248.77747366447
 20
9570.013745883729
 30
0.0
 40
100.0
  1
10
  7
STYLE1
100
AcDbText
  0
TEXT
  5
18C18
330
747D
100
AcDbEntity
  8
文字
 62
     7
 48
50.0
100
AcDbText
 10
13583.11819016568
 20
9570.013745883729
 30
0.0
 40
100.0
  1
壁パネル
  7
STYLE1
100
AcDbText
  0
TEXT
  5
18C19
330
747D
100
AcDbEntity
  8
文字
 62
     7
 48
50.0
100
AcDbText
 10
13583.11819016569
 20
9910.01374588373
 30
0.0
 40
100.0
  1
屋根パネル
  7
STYLE1
100
AcDbText
  0
TEXT
  5
18C1A
330
747D
100
AcDbEntity
  8
文字
 62
     7
 48
50.0
100
AcDbText
 10
13583.11819016569
 20
10080.01374588373
 30
0.0
 40
100.0
  1
鼻隠シ前後
  7
STYLE1
100
AcDbText
  0
TEXT
  5
18C1B
330
747D
100
AcDbEntity
  8
文字
 62
     7
 48
50.0
100
AcDbText
 10
13271.19032244792
 20
9910.01374588373
 30
0.0
 40
100.0
  1
8
  7
STYLE1
100
AcDbText
  0
TEXT
  5
18C1C
330
747D
100
AcDbEntity
  8
文字
 62
     7
 48
50.0
100
AcDbText
 10
13271.19032244792
 20
9740.013745883729
 30
0.0
 40
100.0
  1
9
  7
STYLE1
100
AcDbText
  0
TEXT
  5
18C1D
330
747D
100
AcDbEntity
  8
文字
 62
     7
 48
50.0
100
AcDbText
 10
13271.19032244792
 20
10080.01374588373
 30
0.0
 40
100.0
  1
7
  7
STYLE1
100
AcDbText
  0
TEXT
  5
18C1E
330
747D
100
AcDbEntity
  8
文字
 62
     7
 48
50.0
100
AcDbText
 10
13271.19032244792
 20
10250.01374588373
 30
0.0
 40
100.0
  1
6
  7
STYLE1
100
AcDbText
  0
LINE
  5
18C1F
330
747D
100
AcDbEntity
  8
仕様書枠
 48
50.0
100
AcDbLine
 10
16307.19999999999
 20
9709.600000000001
 30
0.0
 11
13127.2
 21
9709.600000000001
 31
0.0
  0
LINE
  5
18C20
330
747D
100
AcDbEntity
  8
仕様書枠
 48
50.0
100
AcDbLine
 10
16307.19999999999
 20
9369.600000000001
 30
0.0
 11
13127.2
 21
9369.600000000001
 31
0.0
  0
LINE
  5
18C21
330
747D
100
AcDbEntity
  8
仕様書枠
 48
50.0
100
AcDbLine
 10
16307.19999999999
 20
9539.6
 30
0.0
 11
13127.2
 21
9539.6
 31
0.0
  0
LINE
  5
18C22
330
747D
100
AcDbEntity
  8
仕様書枠
 48
50.0
100
AcDbLine
 10
16307.2
 20
10219.6
 30
0.0
 11
13127.2
 21
10219.6
 31
0.0
  0
LINE
  5
18C23
330
747D
100
AcDbEntity
  8
仕様書枠
 48
50.0
100
AcDbLine
 10
16307.2
 20
9879.600000000001
 30
0.0
 11
13127.2
 21
9879.600000000001
 31
0.0
  0
TEXT
  5
18C24
330
747D
100
AcDbEntity
  8
文字
 62
     7
 48
50.0
100
AcDbText
 10
13248.77747366447
 20
9400.013745883729
 30
0.0
 40
100.0
  1
11
  7
STYLE1
100
AcDbText
  0
LINE
  5
18C25
330
747D
100
AcDbEntity
  8
仕様書枠
 48
50.0
100
AcDbLine
 10
16307.19999999999
 20
9199.600000000001
 30
0.0
 11
13127.2
 21
9199.600000000001
 31
0.0
  0
LINE
  5
18C26
330
747D
100
AcDbEntity
  8
仕様書枠
 48
50.0
100
AcDbLine
 10
16307.19999999999
 20
8859.6
 30
0.0
 11
13127.2
 21
8859.600000000005
 31
0.0
  0
TEXT
  5
18C27
330
747D
100
AcDbEntity
  8
文字
 62
     7
 48
50.0
100
AcDbText
 10
13248.77747366448
 20
9060.013745883729
 30
0.0
 40
100.0
  1
13
  7
STYLE1
100
AcDbText
  0
TEXT
  5
18C28
330
747D
100
AcDbEntity
  8
文字
 62
     7
 48
50.0
100
AcDbText
 10
13248.77747366448
 20
9230.013745883729
 30
0.0
 40
100.0
  1
12
  7
STYLE1
100
AcDbText
  0
TEXT
  5
18C29
330
747D
100
AcDbEntity
  8
文字
 62
     7
 48
50.0
100
AcDbText
 10
15022.63965474517
 20
11100.01374588373
 30
0.0
 40
100.0
  1
F12            1.2
  7
STYLE1
100
AcDbText
  0
TEXT
  5
18C2A
330
747D
100
AcDbEntity
  8
文字
 62
     7
 48
50.0
100
AcDbText
 10
15022.63965474518
 20
10760.01374588373
 30
0.0
 40
100.0
  1
F12            1.0
  7
STYLE1
100
AcDbText
  0
TEXT
  5
18C2B
330
747D
100
AcDbEntity
  8
文字
 62
     7
 48
50.0
100
AcDbText
 10
15022.63965474516
 20
10420.01374588373
 30
0.0
 40
100.0
  1
Y10            1.0
  7
STYLE1
100
AcDbText
  0
TEXT
  5
18C2C
330
747D
100
AcDbEntity
  8
文字
 62
     7
 48
50.0
100
AcDbText
 10
15022.63965474516
 20
10250.01374588373
 30
0.0
 40
100.0
  1
Y10            0.7
  7
STYLE1
100
AcDbText
  0
TEXT
  5
18C2D
330
747D
100
AcDbEntity
  8
文字
 62
     7
 48
50.0
100
AcDbText
 10
15022.63965474516
 20
10080.01374588373
 30
0.0
 40
100.0
  1
Y10            0.7
  7
STYLE1
100
AcDbText
  0
TEXT
  5
18C2E
330
747D
100
AcDbEntity
  8
文字
 62
     7
 48
50.0
100
AcDbText
 10
15022.63965474517
 20
9910.01374588373
 30
0.0
 40
100.0
  1
Y10            0.5
  7
STYLE1
100
AcDbText
  0
TEXT
  5
18C2F
330
747D
100
AcDbEntity
  8
文字
 62
     7
 48
50.0
100
AcDbText
 10
15022.63965474515
 20
9570.013745883729
 30
0.0
 40
100.0
  1
F12            0.6
  7
STYLE1
100
AcDbText
  0
LINE
  5
18C30
330
747D
100
AcDbEntity
  8
仕様書枠
 48
50.0
100
AcDbLine
 10
16307.19999999999
 20
8349.600000000007
 30
0.0
 11
13127.19999999999
 21
8349.600000000007
 31
0.0
  0
LINE
  5
18C31
330
747D
100
AcDbEntity
  8
仕様書枠
 48
50.0
100
AcDbLine
 10
16307.19999999999
 20
8179.600000000007
 30
0.0
 11
13127.19999999999
 21
8179.600000000007
 31
0.0
  0
TEXT
  5
18C32
330
747D
100
AcDbEntity
  8
文字
 62
     7
 48
50.0
100
AcDbText
 10
13229.83081656554
 20
8210.013745883737
 30
0.0
 40
100.0
  1
F12→溶融亜鉛めっき鋼板(JIS G 3302)
  7
STYLE1
100
AcDbText
  0
TEXT
  5
18C33
330
747D
100
AcDbEntity
  8
文字
 62
     7
 48
50.0
100
AcDbText
 10
13229.83081656554
 20
8040.013745883737
 30
0.0
 40
100.0
  1
Y10→溶融亜鉛-5％アルミニウム合金めっき鋼板(JIS G 3317)
 41
0.9
  7
STYLE1
100
AcDbText
  0
LINE
  5
18C34
330
747D
100
AcDbEntity
  8
仕様書枠
 48
50.0
100
AcDbLine
 10
13127.2
 20
11409.6
 30
0.0
 11
13127.19999999999
 21
8009.600000000007
 31
0.0
  0
LINE
  5
18C35
330
747D
100
AcDbEntity
  8
仕様書枠
 48
50.0
100
AcDbLine
 10
16307.19999999999
 20
9029.6
 30
0.0
 11
13127.2
 21
9029.600000000003
 31
0.0
  0
TEXT
  5
18C36
330
747D
100
AcDbEntity
  8
文字
 62
     7
 48
50.0
100
AcDbText
 10
13583.1181901657
 20
10590.01374588373
 30
0.0
 40
100.0
  1
床パネル
 41
0.9
  7
STYLE1
100
AcDbText
  0
TEXT
  5
18C37
330
747D
100
AcDbEntity
  8
文字
 62
     7
 48
50.0
100
AcDbText
 10
13583.11819016569
 20
10930.01374588373
 30
0.0
 40
100.0
  1
根太
  7
STYLE1
100
AcDbText
  0
TEXT
  5
18C38
330
747D
100
AcDbEntity
  8
文字
 62
     7
 48
50.0
100
AcDbText
 10
13248.77747366448
 20
8890.013745883729
 30
0.0
 40
100.0
  1
14
  7
STYLE1
100
AcDbText
  0
TEXT
  5
18C39
330
747D
100
AcDbEntity
  8
文字
 62
     7
 48
50.0
100
AcDbText
 10
15022.63965474516
 20
10930.01374588373
 30
0.0
 40
100.0
  1
F12            1.2
  7
STYLE1
100
AcDbText
  0
TEXT
  5
18C3A
330
747D
100
AcDbEntity
  8
文字
 62
     7
 48
50.0
100
AcDbText
 10
15022.63965474517
 20
10590.01374588373
 30
0.0
 40
100.0
  1
F12            1.0
  7
STYLE1
100
AcDbText
  0
TEXT
  5
18C3B
330
747D
100
AcDbEntity
  8
文字
 62
     7
 48
50.0
100
AcDbText
 10
15022.63965474515
 20
8890.013745883729
 30
0.0
 40
100.0
  1
F12            0.7
  7
STYLE1
100
AcDbText
  0
TEXT
  5
18C3C
330
747D
100
AcDbEntity
  8
文字
 62
     7
 48
50.0
100
AcDbText
 10
13583.11819016568
 20
8890.013745883733
 30
0.0
 40
100.0
  1
正面パネル
  7
STYLE1
100
AcDbText
  0
TEXT
  5
18C3D
330
747D
100
AcDbEntity
  8
文字
 62
     7
 48
50.0
100
AcDbText
 10
15022.63965474516
 20
8720.013745883729
 30
0.0
 40
100.0
  1
F12            0.8
  7
STYLE1
100
AcDbText
  0
TEXT
  5
18C3E
330
747D
100
AcDbEntity
  8
文字
 62
     7
 48
50.0
100
AcDbText
 10
13583.11819016569
 20
8720.013745883733
 30
0.0
 40
100.0
  1
扉
  7
STYLE1
100
AcDbText
  0
LINE
  5
18C3F
330
747D
100
AcDbEntity
  8
仕様書枠
 48
50.0
100
AcDbLine
 10
16307.19999999999
 20
8009.600000000007
 30
0.0
 11
13127.19999999999
 21
8009.600000000007
 31
0.0
  0
TEXT
  5
18C40
330
747D
100
AcDbEntity
  8
文字
 62
     7
 48
50.0
100
AcDbText
 10
13248.77747366447
 20
8720.013745883729
 30
0.0
 40
100.0
  1
15
  7
STYLE1
100
AcDbText
  0
TEXT
  5
18C41
330
747D
100
AcDbEntity
  8
文字
 62
     7
 48
50.0
100
AcDbText
 10
13583.11819016569
 20
9740.013745883729
 30
0.0
 40
100.0
  1
母屋中
  7
STYLE1
100
AcDbText
  0
TEXT
  5
18C42
330
747D
100
AcDbEntity
  8
文字
 62
     7
 48
50.0
100
AcDbText
 10
15022.63965474515
 20
9740.013745883725
 30
0.0
 40
100.0
  1
F12            1.0
  7
STYLE1
100
AcDbText
  0
TEXT
  5
18C43
330
747D
100
AcDbEntity
  8
文字
 62
     7
 48
50.0
100
AcDbText
 10
15022.63965474516
 20
8550.013745883729
 30
0.0
 40
100.0
  1
F12            0.6
  7
STYLE1
100
AcDbText
  0
TEXT
  5
18C44
330
747D
100
AcDbEntity
  8
文字
 62
     7
 48
50.0
100
AcDbText
 10
13583.11819016569
 20
8550.013745883733
 30
0.0
 40
100.0
  1
棚板
  7
STYLE1
100
AcDbText
  0
LINE
  5
18D30
330
747D
100
AcDbEntity
  8
破線
 48
5.0
100
AcDbLine
 10
6321.467472720359
 20
2646.225007150097
 30
0.0
 11
6321.46747272036
 21
2446.225007150095
 31
0.0
  0
LINE
  5
18D31
330
747D
100
AcDbEntity
  8
破線
 48
5.0
100
AcDbLine
 10
6521.467472720357
 20
2446.225007150095
 30
0.0
 11
6321.46747272036
 21
2446.225007150095
 31
0.0
  0
LINE
  5
18D32
330
747D
100
AcDbEntity
  8
破線
 48
5.0
100
AcDbLine
 10
6521.467472720359
 20
2646.225007150097
 30
0.0
 11
6521.467472720357
 21
2446.225007150095
 31
0.0
  0
DIMENSION
  5
18D33
330
747D
100
AcDbEntity
  8
寸法
 48
50.0
100
AcDbDimension
  2
*D16
 10
5006.467472720356
 20
2160.177677849719
 30
0.0
 11
5106.467472720354
 21
2160.177677849719
 31
0.0
 70
   160
 71
     5
 42
199.9999999999963
  3
INABA_S40G
100
AcDbAlignedDimension
 13
5206.467472720353
 23
2446.225007150095
 33
0.0
 14
5006.467472720356
 24
2446.225007150095
 34
0.0
100
AcDbRotatedDimension
  0
LINE
  5
18D34
330
747D
100
AcDbEntity
  8
破線
 48
5.0
100
AcDbLine
 10
5006.467472720355
 20
2646.225007150097
 30
0.0
 11
5006.467472720356
 21
2446.225007150095
 31
0.0
  0
LINE
  5
18D35
330
747D
100
AcDbEntity
  8
破線
 48
5.0
100
AcDbLine
 10
5206.467472720355
 20
2646.225007150097
 30
0.0
 11
5206.467472720353
 21
2446.225007150095
 31
0.0
  0
LINE
  5
18D36
330
747D
100
AcDbEntity
  8
破線
 48
5.0
100
AcDbLine
 10
5206.467472720353
 20
2446.225007150095
 30
0.0
 11
5006.467472720356
 21
2446.225007150095
 31
0.0
  0
DIMENSION
  5
18D37
330
747D
100
AcDbEntity
  8
寸法
 48
50.0
100
AcDbDimension
  2
*D17
 10
4856.967469473719
 20
2646.225007150097
 30
0.0
 11
4856.967469473719
 21
2546.225007150096
 31
0.0
 70
   160
 71
     5
 42
200.0000000000018
  3
INABA_S40G
100
AcDbAlignedDimension
 13
5006.467472720356
 23
2446.225007150095
 33
0.0
 14
4981.467472720354
 24
2646.225007150097
 34
0.0
 50
90.0
100
AcDbRotatedDimension
1001
ACAD
1000
DSTYLE
1002
{
1070
   174
1070
     0
1070
   272
1070
     1
1070
   288
1070
     0
1070
   341
1005
0
1002
}
  0
LINE
  5
18D38
330
747D
100
AcDbEntity
  8
細線
 48
50.0
100
AcDbLine
 10
6051.467472720356
 20
4586.225007150097
 30
0.0
 11
6051.467472720356
 21
2796.225007150097
 31
0.0
  0
LINE
  5
18D39
330
747D
100
AcDbEntity
  8
細線
 48
50.0
100
AcDbLine
 10
6036.467472720357
 20
4586.225007150097
 30
0.0
 11
6036.467472720357
 21
2796.225007150097
 31
0.0
  0
LINE
  5
18D3A
330
747D
100
AcDbEntity
  8
細線
 48
50.0
100
AcDbLine
 10
6176.467472720356
 20
4586.225007150097
 30
0.0
 11
6176.467472720356
 21
2796.225007150097
 31
0.0
  0
LINE
  5
18D3B
330
747D
100
AcDbEntity
  8
細線
 48
50.0
100
AcDbLine
 10
6191.467472720357
 20
4586.225007150097
 30
0.0
 11
6191.467472720357
 21
2796.225007150097
 31
0.0
  0
LINE
  5
18D3C
330
747D
100
AcDbEntity
  8
細線
 48
50.0
100
AcDbLine
 10
6331.467472720357
 20
4586.225007150097
 30
0.0
 11
6331.467472720357
 21
2796.225007150097
 31
0.0
  0
LINE
  5
18D3D
330
747D
100
AcDbEntity
  8
細線
 48
50.0
100
AcDbLine
 10
6316.467472720357
 20
4586.225007150097
 30
0.0
 11
6316.467472720357
 21
2796.225007150097
 31
0.0
  0
LINE
  5
18D3E
330
747D
100
AcDbEntity
  8
部品1
100
AcDbLine
 10
5973.967472720353
 20
4586.225007150097
 30
0.0
 11
5973.967472720353
 21
2796.225007150097
 31
0.0
  0
LINE
  5
18D3F
330
747D
100
AcDbEntity
  8
細線
 48
50.0
100
AcDbLine
 10
5211.467472720353
 20
4586.225007150097
 30
0.0
 11
5211.467472720353
 21
2796.225007150097
 31
0.0
  0
LINE
  5
18D40
330
747D
100
AcDbEntity
  8
細線
 48
50.0
100
AcDbLine
 10
5196.467472720353
 20
4586.225007150097
 30
0.0
 11
5196.467472720353
 21
2796.225007150097
 31
0.0
  0
LINE
  5
18D41
330
747D
100
AcDbEntity
  8
細線
 48
50.0
100
AcDbLine
 10
5336.467472720353
 20
4586.225007150097
 30
0.0
 11
5336.467472720353
 21
2796.225007150097
 31
0.0
  0
LINE
  5
18D42
330
747D
100
AcDbEntity
  8
細線
 48
50.0
100
AcDbLine
 10
5351.467472720353
 20
4586.225007150097
 30
0.0
 11
5351.467472720353
 21
2796.225007150097
 31
0.0
  0
LINE
  5
18D43
330
747D
100
AcDbEntity
  8
細線
 48
50.0
100
AcDbLine
 10
5491.467472720353
 20
4586.225007150097
 30
0.0
 11
5491.467472720353
 21
2796.225007150097
 31
0.0
  0
LINE
  5
18D44
330
747D
100
AcDbEntity
  8
細線
 48
50.0
100
AcDbLine
 10
5476.467472720353
 20
4586.225007150097
 30
0.0
 11
5476.467472720353
 21
2796.225007150097
 31
0.0
  0
LINE
  5
18D45
330
747D
100
AcDbEntity
  8
細線
 48
50.0
100
AcDbLine
 10
5896.467472720352
 20
4586.225007150097
 30
0.0
 11
5896.467472720352
 21
2796.225007150097
 31
0.0
  0
LINE
  5
18D46
330
747D
100
AcDbEntity
  8
細線
 48
50.0
100
AcDbLine
 10
5911.467472720353
 20
4586.225007150097
 30
0.0
 11
5911.467472720353
 21
2796.225007150097
 31
0.0
  0
LINE
  5
18D47
330
747D
100
AcDbEntity
  8
細線
 48
50.0
100
AcDbLine
 10
5771.467472720352
 20
4586.225007150097
 30
0.0
 11
5771.467472720352
 21
2796.225007150097
 31
0.0
  0
LINE
  5
18D48
330
747D
100
AcDbEntity
  8
細線
 48
50.0
100
AcDbLine
 10
5756.467472720353
 20
4586.225007150097
 30
0.0
 11
5756.467472720353
 21
2796.225007150097
 31
0.0
  0
LINE
  5
18D49
330
747D
100
AcDbEntity
  8
細線
 48
50.0
100
AcDbLine
 10
5616.467472720353
 20
4586.225007150097
 30
0.0
 11
5616.467472720353
 21
2796.225007150097
 31
0.0
  0
LINE
  5
18D4A
330
747D
100
AcDbEntity
  8
細線
 48
50.0
100
AcDbLine
 10
5631.467472720353
 20
4586.225007150097
 30
0.0
 11
5631.467472720353
 21
2796.225007150097
 31
0.0
  0
LINE
  5
18D4B
330
747D
100
AcDbEntity
  8
部品1
100
AcDbLine
 10
5126.467472720355
 20
2746.225007150097
 30
0.0
 11
6401.467472720352
 21
2746.225007150097
 31
0.0
  0
LINE
  5
18D4C
330
747D
100
AcDbEntity
  8
部品1
100
AcDbLine
 10
6441.467472720354
 20
2746.225007150097
 30
0.0
 11
6448.967472720356
 21
2746.225007150097
 31
0.0
  0
LINE
  5
18D4D
330
747D
100
AcDbEntity
  8
破線
  6
HIDDEN
 48
5.0
100
AcDbLine
 10
5126.467472720355
 20
2646.225007150097
 30
0.0
 11
5126.467472720355
 21
2641.225007150097
 31
0.0
  0
LINE
  5
18D4E
330
747D
100
AcDbEntity
  8
破線
  6
HIDDEN
 48
5.0
100
AcDbLine
 10
5086.467472720358
 20
2646.225007150097
 30
0.0
 11
5086.467472720358
 21
2641.225007150097
 31
0.0
  0
LINE
  5
18D4F
330
747D
100
AcDbEntity
  8
破線
  6
HIDDEN
 48
5.0
100
AcDbLine
 10
6441.467472720351
 20
2646.225007150097
 30
0.0
 11
6441.467472720351
 21
2641.225007150097
 31
0.0
  0
LINE
  5
18D50
330
747D
100
AcDbEntity
  8
破線
  6
HIDDEN
 48
5.0
100
AcDbLine
 10
6401.467472720354
 20
2646.225007150097
 30
0.0
 11
6401.467472720354
 21
2641.225007150097
 31
0.0
  0
ARC
  5
18D51
330
747D
100
AcDbEntity
  8
部品1
 48
50.0
100
AcDbCircle
 10
6436.467472720355
 20
2786.225007150097
 30
0.0
 40
5.0
100
AcDbArc
 50
0.0
 51
90.0
  0
ARC
  5
18D52
330
747D
100
AcDbEntity
  8
部品1
 48
50.0
100
AcDbCircle
 10
6406.46747272035
 20
2786.225007150097
 30
0.0
 40
5.0
100
AcDbArc
 50
90.0
 51
180.0
  0
LINE
  5
18D53
330
747D
100
AcDbEntity
  8
部品1
100
AcDbLine
 10
6436.467472720355
 20
2791.225007150097
 30
0.0
 11
6406.46747272035
 21
2791.225007150097
 31
0.0
  0
LINE
  5
18D54
330
747D
100
AcDbEntity
  8
部品1
 48
50.0
100
AcDbLine
 10
6441.467472720354
 20
2786.225007150097
 30
0.0
 11
6441.467472720351
 21
2646.225007150097
 31
0.0
  0
LINE
  5
18D55
330
747D
100
AcDbEntity
  8
部品1
 48
50.0
100
AcDbLine
 10
6401.467472720351
 20
2786.225007150097
 30
0.0
 11
6401.467472720354
 21
2646.225007150097
 31
0.0
  0
ARC
  5
18D56
330
747D
100
AcDbEntity
  8
部品1
 48
50.0
100
AcDbCircle
 10
5121.467472720354
 20
2786.225007150097
 30
0.0
 40
5.0
100
AcDbArc
 50
0.0
 51
90.0
  0
ARC
  5
18D57
330
747D
100
AcDbEntity
  8
部品1
 48
50.0
100
AcDbCircle
 10
5091.467472720351
 20
2786.225007150097
 30
0.0
 40
5.0
100
AcDbArc
 50
90.0
 51
180.0
  0
LINE
  5
18D58
330
747D
100
AcDbEntity
  8
部品1
100
AcDbLine
 10
5091.467472720351
 20
2791.225007150097
 30
0.0
 11
5121.467472720354
 21
2791.225007150097
 31
0.0
  0
LINE
  5
18D59
330
747D
100
AcDbEntity
  8
部品1
 48
50.0
100
AcDbLine
 10
5126.467472720355
 20
2786.225007150097
 30
0.0
 11
5126.467472720351
 21
2646.225007150097
 31
0.0
  0
LINE
  5
18D5A
330
747D
100
AcDbEntity
  8
部品1
 48
50.0
100
AcDbLine
 10
5086.467472720351
 20
2786.225007150097
 30
0.0
 11
5086.467472720355
 21
2646.225007150097
 31
0.0
  0
LINE
  5
18D5B
330
747D
100
AcDbEntity
  8
破線
  6
HIDDEN
 48
5.0
100
AcDbLine
 10
5126.467472720355
 20
2641.225007150097
 30
0.0
 11
5141.467472720354
 21
2493.525007150096
 31
0.0
  0
LINE
  5
18D5C
330
747D
100
AcDbEntity
  8
破線
  6
HIDDEN
 48
5.0
100
AcDbLine
 10
5086.467472720355
 20
2641.225007150097
 30
0.0
 11
5071.467472720351
 21
2493.525007150096
 31
0.0
  0
LINE
  5
18D5D
330
747D
100
AcDbEntity
  8
破線
  6
HIDDEN
 48
5.0
100
AcDbLine
 10
5141.467472720354
 20
2493.525007150096
 30
0.0
 11
5141.467472720351
 21
2491.225007150097
 31
0.0
  0
LINE
  5
18D5E
330
747D
100
AcDbEntity
  8
破線
  6
HIDDEN
 48
5.0
100
AcDbLine
 10
5071.467472720351
 20
2493.525007150096
 30
0.0
 11
5071.467472720351
 21
2491.225007150097
 31
0.0
  0
LINE
  5
18D5F
330
747D
100
AcDbEntity
  8
破線
  6
HIDDEN
 48
5.0
100
AcDbLine
 10
5071.467472720351
 20
2491.225007150097
 30
0.0
 11
5141.467472720351
 21
2491.225007150097
 31
0.0
  0
LINE
  5
18D60
330
747D
100
AcDbEntity
  8
破線
  6
HIDDEN
 48
5.0
100
AcDbLine
 10
6456.467472720355
 20
2493.525007150098
 30
0.0
 11
6456.467472720355
 21
2491.225007150097
 31
0.0
  0
LINE
  5
18D61
330
747D
100
AcDbEntity
  8
破線
  6
HIDDEN
 48
5.0
100
AcDbLine
 10
6441.467472720354
 20
2641.225007150097
 30
0.0
 11
6456.467472720355
 21
2493.525007150098
 31
0.0
  0
LINE
  5
18D62
330
747D
100
AcDbEntity
  8
破線
  6
HIDDEN
 48
5.0
100
AcDbLine
 10
6386.467472720354
 20
2493.525007150098
 30
0.0
 11
6386.467472720354
 21
2491.225007150097
 31
0.0
  0
LINE
  5
18D63
330
747D
100
AcDbEntity
  8
破線
  6
HIDDEN
 48
5.0
100
AcDbLine
 10
6401.467472720351
 20
2641.225007150097
 30
0.0
 11
6386.467472720354
 21
2493.525007150098
 31
0.0
  0
LINE
  5
18D64
330
747D
100
AcDbEntity
  8
破線
  6
HIDDEN
 48
5.0
100
AcDbLine
 10
6456.467472720355
 20
2491.225007150097
 30
0.0
 11
6386.467472720354
 21
2491.225007150097
 31
0.0
  0
LINE
  5
18D65
330
747D
100
AcDbEntity
  8
部品1
100
AcDbLine
 10
6248.967472720356
 20
2746.225007150097
 30
0.0
 11
6248.967472720356
 21
2646.225007150097
 31
0.0
  0
LINE
  5
18D66
330
747D
100
AcDbEntity
  8
部品1
100
AcDbLine
 10
5278.967472720353
 20
2746.225007150097
 30
0.0
 11
5278.967472720353
 21
2646.225007150097
 31
0.0
  0
LINE
  5
18D67
330
747D
100
AcDbEntity
  8
部品1
100
AcDbLine
 10
6393.967472720357
 20
4586.225007150097
 30
0.0
 11
6393.967472720357
 21
2796.225007150097
 31
0.0
  0
LINE
  5
18D68
330
747D
100
AcDbEntity
  8
部品1
100
AcDbLine
 10
6448.967472720354
 20
4680.225007150101
 30
0.0
 11
6448.967472720356
 21
2646.225007150097
 31
0.0
  0
LINE
  5
18D69
330
747D
100
AcDbEntity
  8
部品1
100
AcDbLine
 10
5553.967472720353
 20
4586.225007150097
 30
0.0
 11
5553.967472720353
 21
2796.225007150097
 31
0.0
  0
LINE
  5
18D6A
330
747D
100
AcDbEntity
  8
部品1
100
AcDbLine
 10
5078.967472720358
 20
4680.225007150101
 30
0.0
 11
5078.967472720353
 21
2646.225007150097
 31
0.0
  0
LINE
  5
18D6B
330
747D
100
AcDbEntity
  8
部品1
100
AcDbLine
 10
5133.967472720353
 20
4586.225007150097
 30
0.0
 11
5133.967472720353
 21
2796.225007150097
 31
0.0
  0
LINE
  5
18D6C
330
747D
100
AcDbEntity
  8
部品1
100
AcDbLine
 10
5078.967472720353
 20
2746.225007150097
 30
0.0
 11
5086.467472720353
 21
2746.225007150097
 31
0.0
  0
LINE
  5
18D6D
330
747D
100
AcDbEntity
  8
部品1
100
AcDbLine
 10
5078.967472720353
 20
2796.225007150097
 30
0.0
 11
6448.967472720358
 21
2796.225007150097
 31
0.0
  0
LINE
  5
18D6E
330
747D
100
AcDbEntity
  8
部品1
100
AcDbLine
 10
5078.967472720353
 20
4586.225007150097
 30
0.0
 11
6448.967472720356
 21
4586.225007150097
 31
0.0
  0
LINE
  5
18D6F
330
747D
100
AcDbEntity
  8
部品1
 48
50.0
100
AcDbLine
 10
6448.967472720358
 20
4581.225007150094
 30
0.0
 11
6525.967472720359
 21
4571.225007150094
 31
0.0
  0
LINE
  5
18D70
330
747D
100
AcDbEntity
  8
部品1
 48
50.0
100
AcDbLine
 10
6525.967472720359
 20
4571.225007150094
 30
0.0
 11
6525.967472720359
 21
2646.225007150095
 31
0.0
  0
LINE
  5
18D71
330
747D
100
AcDbEntity
  8
部品1
 48
50.0
100
AcDbLine
 10
6525.967472720359
 20
2746.225007150095
 30
0.0
 11
6448.967472720356
 21
2746.225007150097
 31
0.0
  0
LINE
  5
18D72
330
747D
100
AcDbEntity
  8
部品1
 48
50.0
100
AcDbLine
 10
5663.967472720356
 20
2746.225007150097
 30
0.0
 11
5663.967472720356
 21
2646.225007150097
 31
0.0
  0
LINE
  5
18D73
330
747D
100
AcDbEntity
  8
部品1
 48
50.0
100
AcDbLine
 10
5863.967472720358
 20
2746.225007150097
 30
0.0
 11
5863.967472720356
 21
2646.225007150097
 31
0.0
  0
DIMENSION
  5
195AE
330
747D
100
AcDbEntity
  8
寸法
 48
50.0
100
AcDbDimension
  2
*D25
 10
8897.251889744914
 20
5219.8824607294
 30
0.0
 11
9991.89662681543
 21
5219.8824607294
 31
0.0
 70
   160
  1
柱外寸法<>
 71
     5
 42
2210.0
  3
INABA_S40G
100
AcDbAlignedDimension
 13
11107.25188974491
 23
4768.035686761748
 33
0.0
 14
8897.251889744914
 24
4817.226625273073
 34
0.0
100
AcDbRotatedDimension
1001
ACAD
1000
DSTYLE
1002
{
1070
   174
1070
     0
1070
   272
1070
     1
1070
   288
1070
     0
1070
   341
1005
0
1002
}
  0
DIMENSION
  5
195AF
330
747D
100
AcDbEntity
  8
寸法
 48
50.0
100
AcDbDimension
  2
*D23
 10
8837.251889744916
 20
5439.084294403691
 30
0.0
 11
10071.59574383738
 21
5439.084294403691
 31
0.0
 70
   160
 71
     5
 42
2350.0
  3
INABA_S40G
100
AcDbAlignedDimension
 13
11187.25188974491
 23
4766.225007150096
 33
0.0
 14
8837.251889744916
 24
4821.225007150101
 34
0.0
100
AcDbRotatedDimension
1001
ACAD
1000
DSTYLE
1002
{
1070
   174
1070
     0
1070
   272
1070
     1
1070
   288
1070
     0
1070
   341
1005
0
1002
}
  0
DIMENSION
  5
195B0
330
747D
100
AcDbEntity
  8
寸法
 48
50.0
100
AcDbDimension
  2
*D22
 10
11187.25188974491
 20
5219.8824607294
 30
0.0
 11
11393.2991338394
 21
5219.8824607294
 31
0.0
 70
   160
 71
     5
 42
80.0
  3
INABA_S40G
100
AcDbAlignedDimension
 13
11107.25188974491
 23
4768.035686761748
 33
0.0
 14
11187.25188974491
 24
4766.225007150096
 34
0.0
100
AcDbRotatedDimension
1001
ACAD
1000
DSTYLE
1002
{
1070
   174
1070
     0
1070
   272
1070
     1
1070
   288
1070
     0
1070
   341
1005
0
1002
}
  0
DIMENSION
  5
195B1
330
747D
100
AcDbEntity
  8
寸法
 48
50.0
100
AcDbDimension
  2
*D24
 10
8837.251889744916
 20
5219.8824607294
 30
0.0
 11
8527.614094469326
 21
5219.8824607294
 31
0.0
 70
   160
 71
     5
 42
60.0
  3
INABA_S40G
100
AcDbAlignedDimension
 13
8897.251889744914
 23
4817.226625273073
 33
0.0
 14
8837.251889744916
 24
4821.225007150101
 34
0.0
100
AcDbRotatedDimension
1001
ACAD
1000
DSTYLE
1002
{
1070
   174
1070
     0
1070
   272
1070
     1
1070
   288
1070
     0
1070
   341
1005
0
1002
}
  0
LINE
  5
195B2
330
747D
100
AcDbEntity
  8
部品1
100
AcDbLine
 10
9826.796876101878
 20
4952.975489450069
 30
0.0
 11
10152.25188974491
 21
4935.457430491208
 31
0.0
  0
LINE
  5
195B3
330
747D
100
AcDbEntity
  8
部品1
 48
50.0
100
AcDbLine
 10
9852.251889744916
 20
4951.657430491207
 30
0.0
 11
10152.25188974491
 21
4951.657430491207
 31
0.0
  0
LINE
  5
195B4
330
747D
100
AcDbEntity
  8
部品1
 48
50.0
100
AcDbLine
 10
10152.25188974491
 20
4951.657430491207
 30
0.0
 11
10152.25188974491
 21
4935.457430491208
 31
0.0
  0
TEXT
  5
195B5
330
747D
100
AcDbEntity
  8
部品1
 48
50.0
100
AcDbText
 10
9840.519724968643
 20
4987.54145264364
 30
0.0
 40
120.0
  1
1000
  7
STYLE1
100
AcDbText
  0
LINE
  5
195B6
330
747D
100
AcDbEntity
  8
細線
 48
50.0
100
AcDbLine
 10
8843.051788083014
 20
4699.380577293594
 30
0.0
 11
11173.05545251365
 21
4659.571258319101
 31
0.0
  0
LINE
  5
195B7
330
747D
100
AcDbEntity
  8
細線
 48
50.0
100
AcDbLine
 10
8838.291312845729
 20
4792.242088991457
 30
0.0
 11
11183.9272975909
 21
4736.617884350629
 31
0.0
  0
LINE
  5
195B8
330
747D
100
AcDbEntity
  8
部品1
100
AcDbLine
 10
8852.594454346869
 20
4679.006032219062
 30
0.0
 11
11161.91559028476
 21
4639.977606984857
 31
0.0
  0
LINE
  5
195B9
330
747D
100
AcDbEntity
  8
部品1
100
AcDbLine
 10
8844.796876101879
 20
4819.942742484363
 30
0.0
 11
11179.86376660638
 21
4764.865804859235
 31
0.0
  0
DIMENSION
  5
195BA
330
747D
100
AcDbEntity
  8
寸法
 48
50.0
100
AcDbDimension
  2
*D21
 10
8276.643482976552
 20
4695.570266023426
 30
0.0
 11
8287.308958235476
 21
5066.416929265129
 31
0.0
 70
   161
 71
     5
 42
141.0000000000009
  3
INABA_S40G
100
AcDbAlignedDimension
 13
8856.647909903495
 23
4819.947755984776
 33
0.0
 14
8852.594454346869
 24
4679.006032219062
 34
0.0
1001
ACAD
1000
DSTYLE
1002
{
1070
   174
1070
     0
1070
   272
1070
     1
1070
   288
1070
     0
1070
   341
1005
0
1002
}
  0
ARC
  5
195BB
330
747D
100
AcDbEntity
  8
部品1
100
AcDbCircle
 10
8843.288981616282
 20
4700.039166108999
 30
0.0
 40
0.7
100
AcDbArc
 50
181.0932240293156
 51
260.1877540315872
  0
ARC
  5
195BC
330
747D
100
AcDbEntity
  8
部品1
100
AcDbCircle
 10
8838.516308018673
 20
4792.904944309118
 30
0.0
 40
0.7
100
AcDbArc
 50
181.0932240292114
 51
260.1877540315872
  0
ARC
  5
195BD
330
747D
100
AcDbEntity
  8
部品1
100
AcDbCircle
 10
8837.885753615649
 20
4789.25906977172
 30
0.0
 40
3.0
100
AcDbArc
 50
1.093224029315636
 51
80.18775403158718
  0
ARC
  5
195BE
330
747D
100
AcDbEntity
  8
部品1
100
AcDbCircle
 10
8842.658427213256
 20
4696.393291571603
 30
0.0
 40
3.0
100
AcDbArc
 50
1.093224029315636
 51
80.18775403158718
  0
ARC
  5
195BF
330
747D
100
AcDbEntity
  8
部品1
 48
50.0
100
AcDbCircle
 10
8852.858559588458
 20
4686.001048189122
 30
0.0
 40
7.0
100
AcDbArc
 50
181.0932240293156
 51
267.8377559870533
  0
ARC
  5
195C0
330
747D
100
AcDbEntity
  8
部品1
 48
50.0
100
AcDbCircle
 10
8844.434901486362
 20
4812.952107722217
 30
0.0
 40
7.0
100
AcDbArc
 50
87.03587545293636
 51
181.0932240293156
  0
LINE
  5
195C1
330
747D
100
AcDbEntity
  8
部品1
 48
50.0
100
AcDbLine
 10
8845.657881139686
 20
4696.450529174785
 30
0.0
 11
8845.859833760117
 21
4685.867493781694
 31
0.0
  0
LINE
  5
195C2
330
747D
100
AcDbEntity
  8
部品1
 48
50.0
100
AcDbLine
 10
8840.885207542079
 20
4789.316307374906
 30
0.0
 11
8842.589109033445
 21
4700.025810668257
 31
0.0
  0
LINE
  5
195C3
330
747D
100
AcDbEntity
  8
部品1
 48
50.0
100
AcDbLine
 10
8837.436175658023
 20
4812.818553314787
 30
0.0
 11
8837.816435435835
 21
4792.891588868377
 31
0.0
  0
LINE
  5
195C4
330
747D
100
AcDbEntity
  8
細線
 48
50.0
100
AcDbLine
 10
8870.251889744915
 20
4818.6246835255
 30
0.0
 11
8864.962788189409
 21
4678.539050898147
 31
0.0
  0
ARC
  5
195C5
330
747D
100
AcDbEntity
  8
部品1
100
AcDbCircle
 10
11172.87942555886
 20
4660.248764415888
 30
0.0
 40
0.7
100
AcDbArc
 50
275.0921697642079
 51
354.1866997666569
  0
ARC
  5
195C6
330
747D
100
AcDbEntity
  8
部品1
100
AcDbCircle
 10
11183.73877130818
 20
4737.292019233811
 30
0.0
 40
0.7
100
AcDbArc
 50
275.0921697642079
 51
354.1866997665532
  0
ARC
  5
195C7
330
747D
100
AcDbEntity
  8
部品1
100
AcDbCircle
 10
11184.06717655078
 20
4733.606622376723
 30
0.0
 40
3.0
100
AcDbArc
 50
95.0921697643163
 51
174.1866997665532
  0
ARC
  5
195C8
330
747D
100
AcDbEntity
  8
部品1
100
AcDbCircle
 10
11173.20783080145
 20
4656.563367558798
 30
0.0
 40
3.0
100
AcDbArc
 50
95.09216976420788
 51
174.1866997665532
  0
ARC
  5
195C9
330
747D
100
AcDbEntity
  8
部品1
 48
50.0
100
AcDbCircle
 10
11162.17969552635
 20
4646.972622954915
 30
0.0
 40
7.0
100
AcDbArc
 50
267.8377559870533
 51
354.1866997665532
  0
ARC
  5
195CA
330
747D
100
AcDbEntity
  8
部品1
 48
50.0
100
AcDbCircle
 10
11179.50179199086
 20
4757.875170097089
 30
0.0
 40
7.0
100
AcDbArc
 50
354.1866997665532
 51
87.03587545293636
  0
LINE
  5
195CB
330
747D
100
AcDbEntity
  8
部品1
 48
50.0
100
AcDbLine
 10
11170.22325913084
 20
4656.867229275699
 30
0.0
 11
11169.1436960911
 21
4646.263612282142
 31
0.0
  0
LINE
  5
195CC
330
747D
100
AcDbEntity
  8
部品1
 48
50.0
100
AcDbLine
 10
11181.08260488017
 20
4733.910484093625
 30
0.0
 11
11173.57582561533
 21
4660.177863348613
 31
0.0
  0
LINE
  5
195CD
330
747D
100
AcDbEntity
  8
部品1
 48
50.0
100
AcDbLine
 10
11186.46579255562
 20
4757.166159424314
 30
0.0
 11
11184.43517136465
 21
4737.221118166533
 31
0.0
  0
LINE
  5
195CE
330
747D
100
AcDbEntity
  8
細線
 48
50.0
100
AcDbLine
 10
11154.25188974492
 20
4766.191986185392
 30
0.0
 11
11149.50420685692
 21
4640.446213694647
 31
0.0
  0
DIMENSION
  5
19640
330
747D
100
AcDbEntity
  8
寸法
100
AcDbDimension
  2
*D26
 10
11642.42198550734
 20
4766.225007150098
 30
0.0
 11
11642.42198550734
 21
3728.481334579785
 31
0.0
 70
   160
 71
     5
 42
2020.000000000003
  3
INABA_S40G
100
AcDbAlignedDimension
 13
11107.25188974491
 23
2746.225007150097
 33
0.0
 14
11187.2518897449
 24
4766.225007150098
 34
0.0
 50
90.0
100
AcDbRotatedDimension
1001
ACAD
1000
DSTYLE
1002
{
1070
   174
1070
     0
1070
   272
1070
     1
1070
   288
1070
     0
1070
   341
1005
0
1002
}
  0
DIMENSION
  5
19657
330
747D
100
AcDbEntity
  8
寸法
100
AcDbDimension
  2
*D30
 10
7988.612507815557
 20
4821.225007150102
 30
0.0
 11
7988.612507815557
 21
3740.430884643207
 31
0.0
 70
   160
 71
     5
 42
2075.000000000005
  3
INABA_S40G
100
AcDbAlignedDimension
 13
8897.251889744914
 23
2746.225007150097
 33
0.0
 14
8837.251889744916
 24
4821.225007150102
 34
0.0
 50
90.0
100
AcDbRotatedDimension
1001
ACAD
1000
DSTYLE
1002
{
1070
   174
1070
     0
1070
   272
1070
     1
1070
   288
1070
     0
1070
   341
1005
0
1002
}
  0
DIMENSION
  5
19658
330
747D
100
AcDbEntity
  8
寸法
100
AcDbDimension
  2
*D29
 10
8273.599180586618
 20
2796.225007150097
 30
0.0
 11
8273.599180586618
 21
3686.679305692055
 31
0.0
 70
   160
 71
     5
 42
1790.0
  3
INABA_S40G
100
AcDbAlignedDimension
 13
8897.251889744914
 23
4586.225007150097
 33
0.0
 14
8897.251889744914
 24
2796.225007150097
 34
0.0
 50
90.0
100
AcDbRotatedDimension
1001
ACAD
1000
DSTYLE
1002
{
1070
   174
1070
     0
1070
   272
1070
     1
1070
   288
1070
     0
1070
   341
1005
0
1002
}
  0
DIMENSION
  5
19659
330
747D
100
AcDbEntity
  8
寸法
100
AcDbDimension
  2
*D28
 10
8273.599180586618
 20
2746.225007150097
 30
0.0
 11
8273.599180586618
 21
2440.177763055606
 31
0.0
 70
   160
 71
     5
 42
50.0
  3
INABA_S40G
100
AcDbAlignedDimension
 13
8897.251889744914
 23
2796.225007150097
 33
0.0
 14
8842.251889744915
 24
2746.225007150097
 34
0.0
 50
90.0
100
AcDbRotatedDimension
1001
ACAD
1000
DSTYLE
1002
{
1070
   174
1070
     0
1070
   272
1070
     1
1070
   288
1070
     0
1070
   341
1005
0
1002
}
  0
DIMENSION
  5
1965A
330
747D
100
AcDbEntity
  8
寸法
100
AcDbDimension
  2
*D27
 10
7988.612507815557
 20
2646.225007150097
 30
0.0
 11
7988.612507815557
 21
2410.177763055606
 31
0.0
 70
   160
 71
     5
 42
100.0
  3
INABA_S40G
100
AcDbAlignedDimension
 13
8842.251889744915
 23
2746.225007150097
 33
0.0
 14
8273.599180586618
 24
2646.225007150097
 34
0.0
 50
90.0
100
AcDbRotatedDimension
1001
ACAD
1000
DSTYLE
1002
{
1070
   174
1070
     0
1070
   272
1070
     1
1070
   288
1070
     0
1070
   341
1005
0
1002
}
  0
TEXT
  5
19719
330
747D
100
AcDbEntity
  8
部品1
 48
50.0
100
AcDbText
 10
10318.15274763373
 20
4850.040194425357
 30
0.0
 40
120.0
  1
44
 50
90.0
  7
STYLE1
100
AcDbText
  0
LINE
  5
1993F
330
747D
100
AcDbEntity
  8
寸法
 48
50.0
100
AcDbLine
 10
9387.454896026742
 20
7615.130814766778
 30
0.0
 11
9336.048888116639
 21
7615.130814766778
 31
0.0
  0
LINE
  5
19940
330
747D
100
AcDbEntity
  8
寸法
 48
50.0
100
AcDbLine
 10
9336.048888116639
 20
7615.130814766778
 30
0.0
 11
9336.048888116639
 21
7646.440973418943
 31
0.0
  0
LINE
  5
19941
330
747D
100
AcDbEntity
  8
寸法
 48
50.0
100
AcDbLine
 10
9336.048888116639
 20
7646.440973418943
 30
0.0
 11
9306.287556125216
 21
7646.440973418943
 31
0.0
  0
LINE
  5
19942
330
747D
100
AcDbEntity
  8
寸法
 48
50.0
100
AcDbLine
 10
9306.287556125216
 20
7646.440973418943
 30
0.0
 11
9361.751892071691
 21
7684.020424347552
 31
0.0
  0
LINE
  5
19943
330
747D
100
AcDbEntity
  8
寸法
 48
50.0
100
AcDbLine
 10
9417.216228018165
 20
7646.440973418943
 30
0.0
 11
9361.751892071691
 21
7684.020424347552
 31
0.0
  0
LINE
  5
19944
330
747D
100
AcDbEntity
  8
寸法
 48
50.0
100
AcDbLine
 10
9387.454896026742
 20
7646.440973418943
 30
0.0
 11
9417.216228018165
 21
7646.440973418943
 31
0.0
  0
LINE
  5
19945
330
747D
100
AcDbEntity
  8
寸法
 48
50.0
100
AcDbLine
 10
9387.454896026742
 20
7615.130814766778
 30
0.0
 11
9387.454896026742
 21
7646.440973418943
 31
0.0
  0
LINE
  5
19946
330
747D
100
AcDbEntity
  8
寸法
 48
50.0
100
AcDbLine
 10
9336.048888116639
 20
7615.130814766778
 30
0.0
 11
9387.454896026742
 21
7615.130814766778
 31
0.0
  0
LINE
  5
19947
330
747D
100
AcDbEntity
  8
寸法
 48
50.0
100
AcDbLine
 10
9666.6204303036
 20
7672.276405521599
 30
0.0
 11
9666.6204303036
 21
7618.612770939809
 31
0.0
  0
LINE
  5
19948
330
747D
100
AcDbEntity
  8
寸法
 48
50.0
100
AcDbLine
 10
9755.90464889902
 20
7648.352771252113
 30
0.0
 11
9666.6204303036
 21
7672.276405521599
 31
0.0
  0
LINE
  5
19949
330
747D
100
AcDbEntity
  8
寸法
 48
50.0
100
AcDbLine
 10
9536.752708723296
 20
7648.352771252113
 30
0.0
 11
9755.90464889902
 21
7648.352771252113
 31
0.0
  0
LINE
  5
1994A
330
747D
100
AcDbEntity
  8
細線
 48
50.0
100
AcDbLine
 10
10413.2518897449
 20
7813.594178146638
 30
0.0
 11
11040.2518897449
 21
7813.594178146638
 31
0.0
  0
LINE
  5
1994B
330
747D
100
AcDbEntity
  8
細線
 48
50.0
100
AcDbLine
 10
9759.251894398488
 20
7779.885409592563
 30
0.0
 11
11040.2518897449
 21
7779.885409592563
 31
0.0
  0
LINE
  5
1994C
330
747D
100
AcDbEntity
  8
細線
 48
50.0
100
AcDbLine
 10
9718.251894398491
 20
7809.290317588817
 30
0.0
 11
8964.251889744899
 21
7809.290317588814
 31
0.0
  0
LINE
  5
1994D
330
747D
100
AcDbEntity
  8
細線
100
AcDbLine
 10
10816.00188032844
 20
7833.094078111648
 30
0.0
 11
10818.33341985025
 21
7838.094080751609
 31
0.0
  0
LINE
  5
1994E
330
747D
100
AcDbEntity
  8
細線
100
AcDbLine
 10
10886.0018897449
 20
7833.094063197915
 30
0.0
 11
10883.67034326871
 21
7838.094080751594
 31
0.0
  0
LINE
  5
1994F
330
747D
100
AcDbEntity
  8
細線
100
AcDbLine
 10
10883.67034326871
 20
7838.094080751594
 30
0.0
 11
10818.33341985023
 21
7838.09408075158
 31
0.0
  0
LINE
  5
19950
330
747D
100
AcDbEntity
  8
細線
100
AcDbLine
 10
10743.67034326871
 20
7838.094080751594
 30
0.0
 11
10678.33341985023
 21
7838.09408075158
 31
0.0
  0
LINE
  5
19951
330
747D
100
AcDbEntity
  8
細線
100
AcDbLine
 10
10746.0018897449
 20
7833.094063197915
 30
0.0
 11
10743.67034326871
 21
7838.094080751594
 31
0.0
  0
LINE
  5
19952
330
747D
100
AcDbEntity
  8
細線
100
AcDbLine
 10
10676.00188032844
 20
7833.094078111648
 30
0.0
 11
10678.33341985025
 21
7838.094080751609
 31
0.0
  0
LINE
  5
19953
330
747D
100
AcDbEntity
  8
細線
100
AcDbLine
 10
10536.00188974489
 20
7833.094063197915
 30
0.0
 11
10538.33342926671
 21
7838.094065837875
 31
0.0
  0
LINE
  5
19954
330
747D
100
AcDbEntity
  8
細線
100
AcDbLine
 10
10606.00189916136
 20
7833.09404828418
 30
0.0
 11
10603.67035268517
 21
7838.094065837861
 31
0.0
  0
LINE
  5
19955
330
747D
100
AcDbEntity
  8
細線
100
AcDbLine
 10
10603.67035268517
 20
7838.094065837861
 30
0.0
 11
10538.33342926669
 21
7838.094065837847
 31
0.0
  0
LINE
  5
19956
330
747D
100
AcDbEntity
  8
細線
100
AcDbLine
 10
10308.420373934
 20
7804.094102535242
 30
0.0
 11
10243.08345051553
 21
7804.094102535228
 31
0.0
  0
LINE
  5
19957
330
747D
100
AcDbEntity
  8
細線
100
AcDbLine
 10
10310.75192041019
 20
7799.094084981561
 30
0.0
 11
10308.420373934
 21
7804.094102535242
 31
0.0
  0
LINE
  5
19958
330
747D
100
AcDbEntity
  8
細線
100
AcDbLine
 10
10240.75191099373
 20
7799.094099895295
 30
0.0
 11
10243.08345051554
 21
7804.094102535256
 31
0.0
  0
LINE
  5
19959
330
747D
100
AcDbEntity
  8
細線
 48
50.0
100
AcDbLine
 10
10082.13526899291
 20
7817.364926350994
 30
0.0
 11
10087.89078657558
 21
7799.094075060508
 31
0.0
  0
LINE
  5
1995A
330
747D
100
AcDbEntity
  8
細線
 48
50.0
100
AcDbLine
 10
10071.20682051248
 20
7817.364926350994
 30
0.0
 11
10082.13526899291
 21
7817.364926350994
 31
0.0
  0
ARC
  5
1995B
330
747D
100
AcDbEntity
  8
細線
 48
50.0
100
AcDbCircle
 10
10065.75246445516
 20
7818.864926350994
 30
0.0
 40
5.0
100
AcDbArc
 50
204.6243183521304
 51
335.3756816478695
  0
ARC
  5
1995C
330
747D
100
AcDbEntity
  8
細線
 48
50.0
100
AcDbCircle
 10
10071.20682051248
 20
7816.364926350994
 30
0.0
 40
1.0
100
AcDbArc
 50
90.0
 51
155.3756816478695
  0
ARC
  5
1995D
330
747D
100
AcDbEntity
  8
細線
 48
50.0
100
AcDbCircle
 10
10060.29810839784
 20
7816.364926350994
 30
0.0
 40
1.0
100
AcDbArc
 50
24.62431835213048
 51
90.0
  0
LINE
  5
1995E
330
747D
100
AcDbEntity
  8
細線
 48
50.0
100
AcDbLine
 10
10049.36965991741
 20
7817.364926350994
 30
0.0
 11
10060.29810839784
 21
7817.364926350994
 31
0.0
  0
LINE
  5
1995F
330
747D
100
AcDbEntity
  8
細線
 48
50.0
100
AcDbLine
 10
10043.61414233474
 20
7799.094075060501
 30
0.0
 11
10049.36965991741
 21
7817.364926350994
 31
0.0
  0
LINE
  5
19960
330
747D
100
AcDbEntity
  8
細線
100
AcDbLine
 10
10100.75191222477
 20
7799.094072426304
 30
0.0
 11
10103.08345174659
 21
7804.094075066266
 31
0.0
  0
LINE
  5
19961
330
747D
100
AcDbEntity
  8
細線
100
AcDbLine
 10
10170.75192164123
 20
7799.09405751257
 30
0.0
 11
10168.42037516504
 21
7804.094075066251
 31
0.0
  0
LINE
  5
19962
330
747D
100
AcDbEntity
  8
細線
100
AcDbLine
 10
10168.42037516504
 20
7804.094075066251
 30
0.0
 11
10103.08345174657
 21
7804.094075066237
 31
0.0
  0
LINE
  5
19963
330
747D
100
AcDbEntity
  8
細線
100
AcDbLine
 10
10028.42034680053
 20
7804.094075060472
 30
0.0
 11
9963.083423382053
 21
7804.094075060458
 31
0.0
  0
LINE
  5
19964
330
747D
100
AcDbEntity
  8
細線
100
AcDbLine
 10
10030.75189327671
 20
7799.094057506791
 30
0.0
 11
10028.42034680053
 21
7804.094075060472
 31
0.0
  0
LINE
  5
19965
330
747D
100
AcDbEntity
  8
細線
100
AcDbLine
 10
9960.751885091301
 20
7799.094075060501
 30
0.0
 11
9963.083423382068
 21
7804.094075060486
 31
0.0
  0
LINE
  5
19966
330
747D
100
AcDbEntity
  8
細線
100
AcDbLine
 10
9820.751920410192
 20
7799.09408324787
 30
0.0
 11
9823.08345870096
 21
7804.094083247855
 31
0.0
  0
LINE
  5
19967
330
747D
100
AcDbEntity
  8
細線
100
AcDbLine
 10
9890.751928595609
 20
7799.09406569416
 30
0.0
 11
9888.42038211942
 21
7804.094083247837
 31
0.0
  0
LINE
  5
19968
330
747D
100
AcDbEntity
  8
細線
100
AcDbLine
 10
9888.42038211942
 20
7804.094083247837
 30
0.0
 11
9823.083458700946
 21
7804.094083247827
 31
0.0
  0
LINE
  5
19969
330
747D
100
AcDbEntity
  8
細線
100
AcDbLine
 10
9449.251886213071
 20
7765.094254928583
 30
0.0
 11
9451.583424503839
 21
7770.094254928569
 31
0.0
  0
LINE
  5
1996A
330
747D
100
AcDbEntity
  8
細線
100
AcDbLine
 10
9519.251894398486
 20
7765.094237374869
 30
0.0
 11
9516.920347922299
 21
7770.094254928547
 31
0.0
  0
LINE
  5
1996B
330
747D
100
AcDbEntity
  8
細線
100
AcDbLine
 10
9516.920347922299
 20
7770.094254928547
 30
0.0
 11
9451.583424503828
 21
7770.094254928539
 31
0.0
  0
LINE
  5
1996C
330
747D
100
AcDbEntity
  8
細線
100
AcDbLine
 10
9656.920347922302
 20
7770.094254928547
 30
0.0
 11
9591.583424503829
 21
7770.094254928539
 31
0.0
  0
LINE
  5
1996D
330
747D
100
AcDbEntity
  8
細線
100
AcDbLine
 10
9659.251894398487
 20
7765.094237374869
 30
0.0
 11
9656.920347922302
 21
7770.094254928547
 31
0.0
  0
LINE
  5
1996E
330
747D
100
AcDbEntity
  8
細線
100
AcDbLine
 10
9589.251886213071
 20
7765.094254928583
 30
0.0
 11
9591.583424503838
 21
7770.094254928569
 31
0.0
  0
LINE
  5
1996F
330
747D
100
AcDbEntity
  8
細線
100
AcDbLine
 10
9376.920347922299
 20
7770.094254928547
 30
0.0
 11
9311.583424503828
 21
7770.094254928536
 31
0.0
  0
LINE
  5
19970
330
747D
100
AcDbEntity
  8
細線
100
AcDbLine
 10
9379.251894398487
 20
7765.094237374869
 30
0.0
 11
9376.920347922299
 21
7770.094254928547
 31
0.0
  0
LINE
  5
19971
330
747D
100
AcDbEntity
  8
細線
100
AcDbLine
 10
9309.251886213072
 20
7765.094254928579
 30
0.0
 11
9311.583424503838
 21
7770.094254928564
 31
0.0
  0
LINE
  5
19972
330
747D
100
AcDbEntity
  8
細線
100
AcDbLine
 10
9169.251894398486
 20
7765.094254928583
 30
0.0
 11
9171.583432689255
 21
7770.094254928569
 31
0.0
  0
LINE
  5
19973
330
747D
100
AcDbEntity
  8
細線
100
AcDbLine
 10
9239.251902583903
 20
7765.094237374869
 30
0.0
 11
9236.920356107715
 21
7770.094254928547
 31
0.0
  0
LINE
  5
19974
330
747D
100
AcDbEntity
  8
細線
100
AcDbLine
 10
9236.920356107715
 20
7770.094254928547
 30
0.0
 11
9171.583432689244
 21
7770.094254928539
 31
0.0
  0
ARC
  5
19975
330
747D
100
AcDbEntity
  8
部品1
 48
0.01
100
AcDbCircle
 10
9124.751783146152
 20
7764.09313274351
 30
0.0
 40
0.5
100
AcDbArc
 50
270.0
 51
0.0
  0
LINE
  5
19976
330
747D
100
AcDbEntity
  8
部品1
 48
0.01
100
AcDbLine
 10
9125.251783146152
 20
7765.09313274351
 30
0.0
 11
9125.251783146152
 21
7764.09313274351
 31
0.0
  0
LINE
  5
19977
330
747D
100
AcDbEntity
  8
部品1
 48
0.01
100
AcDbLine
 10
9125.251783146152
 20
7765.09313274351
 30
0.0
 11
9125.251783146152
 21
7764.09313274351
 31
0.0
  0
LINE
  5
19978
330
747D
100
AcDbEntity
  8
部品1
 48
0.01
100
AcDbLine
 10
9124.751783146152
 20
7763.59313274351
 30
0.0
 11
9118.139277716087
 21
7763.59313274351
 31
0.0
  0
ARC
  5
19979
330
747D
100
AcDbEntity
  8
部品1
100
AcDbCircle
 10
9118.207627268869
 20
7764.59313274351
 30
0.0
 40
1.0
100
AcDbArc
 50
160.5287793655778
 51
270.0
  0
ARC
  5
1997A
330
747D
100
AcDbEntity
  8
部品1
100
AcDbCircle
 10
9092.751783146152
 20
7773.59313274351
 30
0.0
 40
26.0
100
AcDbArc
 50
340.5287793655779
 51
0.0
  0
LINE
  5
1997B
330
747D
100
AcDbEntity
  8
部品1
100
AcDbLine
 10
9118.751783146151
 20
7773.59313274351
 30
0.0
 11
9118.751783146151
 21
7778.593132743511
 31
0.0
  0
ARC
  5
1997C
330
747D
100
AcDbEntity
  8
部品1
 48
0.01
100
AcDbCircle
 10
9116.751783146153
 20
7778.593132743511
 30
0.0
 40
2.0
100
AcDbArc
 50
0.0
 51
90.0
  0
ARC
  5
1997D
330
747D
100
AcDbEntity
  8
部品1
100
AcDbCircle
 10
9115.143391521341
 20
7777.59313274351
 30
0.0
 40
3.0
100
AcDbArc
 50
90.0
 51
141.6069559807873
  0
LINE
  5
1997E
330
747D
100
AcDbEntity
  8
部品1
 48
0.01
100
AcDbLine
 10
9116.751783146153
 20
7780.59313274351
 30
0.0
 11
9115.143391521341
 21
7780.59313274351
 31
0.0
  0
ARC
  5
1997F
330
747D
100
AcDbEntity
  8
部品1
100
AcDbCircle
 10
9096.68106893188
 20
7776.893132743513
 30
0.0
 40
3.0
100
AcDbArc
 50
254.0576313943215
 51
270.0
  0
ARC
  5
19980
330
747D
100
AcDbEntity
  8
部品1
100
AcDbCircle
 10
9103.822497360424
 20
7776.893132743513
 30
0.0
 40
3.0
100
AcDbArc
 50
270.0
 51
285.9423686056786
  0
LINE
  5
19981
330
747D
100
AcDbEntity
  8
部品1
100
AcDbLine
 10
9103.822497360424
 20
7773.893132743513
 30
0.0
 11
9096.68106893188
 21
7773.893132743513
 31
0.0
  0
ARC
  5
19982
330
747D
100
AcDbEntity
  8
部品1
100
AcDbCircle
 10
9100.251783146152
 20
7789.393132743512
 30
0.0
 40
16.0
100
AcDbArc
 50
285.9423686056786
 51
321.6069559807873
  0
LINE
  5
19983
330
747D
100
AcDbEntity
  8
部品1
 48
0.01
100
AcDbLine
 10
9083.751783146153
 20
7780.59313274351
 30
0.0
 11
9085.360174770961
 21
7780.59313274351
 31
0.0
  0
ARC
  5
19984
330
747D
100
AcDbEntity
  8
部品1
100
AcDbCircle
 10
9085.360174770961
 20
7777.59313274351
 30
0.0
 40
3.0
100
AcDbArc
 50
38.39304401921267
 51
90.0
  0
ARC
  5
19985
330
747D
100
AcDbEntity
  8
部品1
100
AcDbCircle
 10
9100.251783146152
 20
7789.393132743512
 30
0.0
 40
16.0
100
AcDbArc
 50
218.3930440192126
 51
254.0576313943215
  0
LINE
  5
19986
330
747D
100
AcDbEntity
  8
部品1
100
AcDbLine
 10
9081.751783146151
 20
7773.59313274351
 30
0.0
 11
9081.751783146151
 21
7778.593132743511
 31
0.0
  0
ARC
  5
19987
330
747D
100
AcDbEntity
  8
部品1
 48
0.01
100
AcDbCircle
 10
9083.751783146153
 20
7778.593132743511
 30
0.0
 40
2.0
100
AcDbArc
 50
90.0
 51
180.0
  0
ARC
  5
19988
330
747D
100
AcDbEntity
  8
部品1
100
AcDbCircle
 10
9107.751783146152
 20
7773.59313274351
 30
0.0
 40
26.0
100
AcDbArc
 50
180.0
 51
199.4712206344221
  0
ARC
  5
19989
330
747D
100
AcDbEntity
  8
部品1
 48
0.01
100
AcDbCircle
 10
9075.751783146152
 20
7764.09313274351
 30
0.0
 40
0.5
100
AcDbArc
 50
180.0
 51
270.0
  0
LINE
  5
1998A
330
747D
100
AcDbEntity
  8
部品1
 48
0.01
100
AcDbLine
 10
9075.751783146152
 20
7763.59313274351
 30
0.0
 11
9082.295939023437
 21
7763.59313274351
 31
0.0
  0
LINE
  5
1998B
330
747D
100
AcDbEntity
  8
部品1
 48
0.01
100
AcDbLine
 10
9075.251783146152
 20
7765.09313274351
 30
0.0
 11
9075.251783146152
 21
7764.09313274351
 31
0.0
  0
ARC
  5
1998C
330
747D
100
AcDbEntity
  8
部品1
100
AcDbCircle
 10
9082.295939023437
 20
7764.59313274351
 30
0.0
 40
1.0
100
AcDbArc
 50
270.0
 51
19.47122063442214
  0
LINE
  5
1998D
330
747D
100
AcDbEntity
  8
細線
100
AcDbLine
 10
9120.751783146159
 20
7783.093132743513
 30
0.0
 11
9079.751783146159
 21
7783.093132743506
 31
0.0
  0
LINE
  5
1998E
330
747D
100
AcDbEntity
  8
細線
100
AcDbLine
 10
9079.751783146159
 20
7783.093132743506
 30
0.0
 11
9079.751783146159
 21
7765.093132743489
 31
0.0
  0
LINE
  5
1998F
330
747D
100
AcDbEntity
  8
細線
100
AcDbLine
 10
9120.751783146159
 20
7783.093132743513
 30
0.0
 11
9120.751783146159
 21
7765.093132743489
 31
0.0
  0
LINE
  5
19990
330
747D
100
AcDbEntity
  8
細線
100
AcDbLine
 10
8964.251889744899
 20
7769.094063197915
 30
0.0
 11
8964.251889744899
 21
7765.094063197961
 31
0.0
  0
DIMENSION
  5
19991
330
747D
100
AcDbEntity
  8
寸法
 48
50.0
100
AcDbDimension
  2
*D31
 10
10230.25188974489
 20
7108.498679197722
 30
0.0
 11
9614.816775485016
 21
7108.498679197722
 31
0.0
 70
   160
  1
有効開口部間口\P<>
 71
     5
 42
1266.0
  3
INABA_S40
100
AcDbAlignedDimension
 13
8964.251889744899
 23
7760.094063197914
 33
0.0
 14
10230.25188974489
 24
7760.094063197914
 34
0.0
100
AcDbRotatedDimension
1001
ACAD
1000
DSTYLE
1002
{
1070
    41
1040
0.5
1070
    44
1040
1.0
1070
   147
1040
0.8
1070
   271
1070
     2
1070
   272
1070
     2
1070
   289
1070
     3
1070
   340
1005
F706
1070
   343
1005
17C8B
1070
   344
1005
17C8B
1002
}
  0
LINE
  5
19992
330
747D
100
AcDbEntity
  8
部品1
100
AcDbLine
 10
11052.25188974489
 20
7837.094063197914
 30
0.0
 11
11079.2518897449
 21
7837.094063197914
 31
0.0
  0
LINE
  5
19994
330
747D
100
AcDbEntity
  8
部品1
100
AcDbLine
 10
11079.2518897449
 20
7760.094063197914
 30
0.0
 11
11079.2518897449
 21
7837.094063197914
 31
0.0
  0
LINE
  5
19995
330
747D
100
AcDbEntity
  8
部品1
100
AcDbLine
 10
11040.2518897449
 20
7833.094063197915
 30
0.0
 11
11052.25188974489
 21
7833.094063197915
 31
0.0
  0
LINE
  5
19996
330
747D
100
AcDbEntity
  8
部品1
100
AcDbLine
 10
11049.25188974489
 20
7769.094063197915
 30
0.0
 11
11049.25188974489
 21
7760.094063197914
 31
0.0
  0
LINE
  5
19997
330
747D
100
AcDbEntity
  8
部品1
100
AcDbLine
 10
11040.2518897449
 20
7769.094063197915
 30
0.0
 11
11049.25188974489
 21
7769.094063197915
 31
0.0
  0
LINE
  5
19998
330
747D
100
AcDbEntity
  8
部品1
100
AcDbLine
 10
11040.2518897449
 20
7833.094063197915
 30
0.0
 11
11040.2518897449
 21
7769.094063197915
 31
0.0
  0
LINE
  5
19999
330
747D
100
AcDbEntity
  8
部品1
100
AcDbLine
 10
11052.25188974489
 20
7864.094063197914
 30
0.0
 11
11052.25188974489
 21
7833.094063197915
 31
0.0
  0
LINE
  5
1999A
330
747D
100
AcDbEntity
  8
部品1
100
AcDbLine
 10
8964.251889744899
 20
7833.094063197915
 30
0.0
 11
8952.251889744898
 21
7833.094063197915
 31
0.0
  0
LINE
  5
1999B
330
747D
100
AcDbEntity
  8
部品1
100
AcDbLine
 10
8925.251889744897
 20
7837.094063197914
 30
0.0
 11
8952.251889744898
 21
7837.094063197914
 31
0.0
  0
LINE
  5
1999C
330
747D
100
AcDbEntity
  8
部品1
100
AcDbLine
 10
8955.251889744898
 20
7769.094063197915
 30
0.0
 11
8955.251889744898
 21
7760.094063197914
 31
0.0
  0
LINE
  5
1999D
330
747D
100
AcDbEntity
  8
部品1
100
AcDbLine
 10
8964.251889744899
 20
7769.094063197915
 30
0.0
 11
8955.251889744898
 21
7769.094063197915
 31
0.0
  0
LINE
  5
1999E
330
747D
100
AcDbEntity
  8
部品1
100
AcDbLine
 10
8955.251889744898
 20
7760.094063197914
 30
0.0
 11
8925.251889744897
 21
7760.094063197914
 31
0.0
  0
LINE
  5
1999F
330
747D
100
AcDbEntity
  8
部品1
100
AcDbLine
 10
8925.251889744897
 20
7760.094063197914
 30
0.0
 11
8925.251889744897
 21
7837.094063197914
 31
0.0
  0
LINE
  5
199A0
330
747D
100
AcDbEntity
  8
部品1
100
AcDbLine
 10
8964.251889744899
 20
7833.094063197915
 30
0.0
 11
8964.251889744899
 21
7769.094063197915
 31
0.0
  0
LINE
  5
199A1
330
747D
100
AcDbEntity
  8
部品1
100
AcDbLine
 10
8952.251889744898
 20
7864.09406319791
 30
0.0
 11
8952.251889744898
 21
7833.094063197915
 31
0.0
  0
LINE
  5
199A2
330
747D
100
AcDbEntity
  8
部品1
100
AcDbLine
 10
8952.251889744898
 20
7864.09406319791
 30
0.0
 11
11052.25188974489
 21
7864.094063197914
 31
0.0
  0
LINE
  5
199A3
330
747D
100
AcDbEntity
  8
部品1
100
AcDbLine
 10
11049.25188974489
 20
7760.094063197914
 30
0.0
 11
11079.2518897449
 21
7760.094063197914
 31
0.0
  0
LINE
  5
199A4
330
747D
100
AcDbEntity
  8
部品1
100
AcDbLine
 10
8955.251889744898
 20
7760.094063197914
 30
0.0
 11
11052.25188974489
 21
7760.094063197914
 31
0.0
  0
LINE
  5
199A5
330
747D
100
AcDbEntity
  8
細線
  6
Continuous
 62
     5
100
AcDbLine
 10
10331.2518897449
 20
7799.09406319791
 30
0.0
 11
10331.2518897449
 21
7799.09406319791
 31
0.0
  0
LINE
  5
199A6
330
747D
100
AcDbEntity
  8
細線
  6
Continuous
 62
     5
100
AcDbLine
 10
10323.75192506379
 20
7799.094073118968
 30
0.0
 11
10323.75192506379
 21
7799.094073118968
 31
0.0
  0
LINE
  5
199A7
330
747D
100
AcDbEntity
  8
細線
  6
Continuous
 62
     5
100
AcDbLine
 10
10317.75192506379
 20
7799.094073118968
 30
0.0
 11
10317.75192506379
 21
7799.094073118968
 31
0.0
  0
LINE
  5
199A8
330
747D
100
AcDbEntity
  8
細線
  6
Continuous
 62
     5
100
AcDbLine
 10
10385.2518897449
 20
7818.09406319791
 30
0.0
 11
10385.2518897449
 21
7818.09406319791
 31
0.0
  0
LINE
  5
199A9
330
747D
100
AcDbEntity
  8
細線
 48
50.0
100
AcDbLine
 10
8978.251894398491
 20
7785.694237374868
 30
0.0
 11
8978.251894398491
 21
7794.090387782508
 31
0.0
  0
LINE
  5
199AA
330
747D
100
AcDbEntity
  8
細線
 48
50.0
100
AcDbLine
 10
8978.251894398491
 20
7794.090387782508
 30
0.0
 11
8964.251889744899
 21
7794.090387782503
 31
0.0
  0
LINE
  5
199AB
330
747D
100
AcDbEntity
  8
細線
 48
50.0
100
AcDbLine
 10
9729.251894398487
 20
7782.244237374867
 30
0.0
 11
9729.251894398487
 21
7787.094237374869
 31
0.0
  0
LINE
  5
199AC
330
747D
100
AcDbEntity
  8
細線
 48
50.0
100
AcDbLine
 10
9729.251894398487
 20
7787.094237374869
 30
0.0
 11
9744.251894398487
 21
7787.094237374869
 31
0.0
  0
LINE
  5
199AD
330
747D
100
AcDbEntity
  8
細線
 48
50.0
100
AcDbLine
 10
9744.251894398487
 20
7787.094237374869
 30
0.0
 11
9744.251894398491
 21
7794.09423737487
 31
0.0
  0
LINE
  5
199AE
330
747D
100
AcDbEntity
  8
細線
 48
50.0
100
AcDbLine
 10
9744.251894398491
 20
7794.09423737487
 30
0.0
 11
9759.251894398488
 21
7794.09423737487
 31
0.0
  0
LINE
  5
199AF
330
747D
100
AcDbEntity
  8
細線
 48
50.0
100
AcDbLine
 10
9759.251894398488
 20
7794.09423737487
 30
0.0
 11
9759.251894398488
 21
7765.094237374869
 31
0.0
  0
LINE
  5
199B0
330
747D
100
AcDbEntity
  8
細線
 48
50.0
100
AcDbLine
 10
8955.251889744898
 20
7765.091571718338
 30
0.0
 11
9169.251894398486
 21
7765.094254928583
 31
0.0
  0
LINE
  5
199B1
330
747D
100
AcDbEntity
  8
細線
 48
50.0
100
AcDbLine
 10
9659.251894398487
 20
7765.094237374869
 30
0.0
 11
9759.251894398488
 21
7765.094237374869
 31
0.0
  0
LINE
  5
199B2
330
747D
100
AcDbEntity
  8
細線
 48
50.0
100
AcDbLine
 10
9379.251894398487
 20
7765.094237374869
 30
0.0
 11
9449.251894398488
 21
7765.094237374869
 31
0.0
  0
LINE
  5
199B3
330
747D
100
AcDbEntity
  8
細線
 48
50.0
100
AcDbLine
 10
9392.113859411017
 20
7765.094237374869
 30
0.0
 11
9397.869376993684
 21
7783.365088665362
 31
0.0
  0
LINE
  5
199B4
330
747D
100
AcDbEntity
  8
細線
 48
50.0
100
AcDbLine
 10
9397.869376993684
 20
7783.365088665362
 30
0.0
 11
9408.797825474117
 21
7783.36508866536
 31
0.0
  0
ARC
  5
199B5
330
747D
100
AcDbEntity
  8
細線
 48
50.0
100
AcDbCircle
 10
9408.797825474117
 20
7782.365088665359
 30
0.0
 40
1.0
100
AcDbArc
 50
24.62431835213048
 51
90.0
  0
ARC
  5
199B6
330
747D
100
AcDbEntity
  8
細線
 48
50.0
100
AcDbCircle
 10
9419.70653758875
 20
7782.365088665359
 30
0.0
 40
1.0
100
AcDbArc
 50
90.0
 51
155.3756816478695
  0
ARC
  5
199B7
330
747D
100
AcDbEntity
  8
細線
 48
50.0
100
AcDbCircle
 10
9414.252181531432
 20
7784.86508866536
 30
0.0
 40
5.0
100
AcDbArc
 50
204.6243183521304
 51
335.3756816478695
  0
LINE
  5
199B8
330
747D
100
AcDbEntity
  8
細線
 48
50.0
100
AcDbLine
 10
9419.70653758875
 20
7783.36508866536
 30
0.0
 11
9430.634986069184
 21
7783.365088665362
 31
0.0
  0
LINE
  5
199B9
330
747D
100
AcDbEntity
  8
細線
 48
50.0
100
AcDbLine
 10
9430.634986069184
 20
7783.365088665362
 30
0.0
 11
9436.390503651852
 21
7765.094237374869
 31
0.0
  0
LINE
  5
199BA
330
747D
100
AcDbEntity
  8
細線
 48
50.0
100
AcDbLine
 10
9729.251894398487
 20
7785.694237374868
 30
0.0
 11
8978.251894398491
 21
7785.694237374868
 31
0.0
  0
LINE
  5
199BB
330
747D
100
AcDbEntity
  8
細線
 48
50.0
100
AcDbLine
 10
9589.251894398486
 20
7765.094237374869
 30
0.0
 11
9519.251894398486
 21
7765.094237374869
 31
0.0
  0
LINE
  5
199BC
330
747D
100
AcDbEntity
  8
細線
100
AcDbLine
 10
9309.251894398487
 20
7765.094237374869
 30
0.0
 11
9239.251902583903
 21
7765.094237374869
 31
0.0
  0
LINE
  5
199BD
330
747D
100
AcDbEntity
  8
細線
 48
50.0
100
AcDbLine
 10
10383.25188509131
 20
7819.694281232736
 30
0.0
 11
9748.251894398487
 21
7819.694281232732
 31
0.0
  0
LINE
  5
199BE
330
747D
100
AcDbEntity
  8
細線
 48
50.0
100
AcDbLine
 10
9748.251894398487
 20
7816.590431640375
 30
0.0
 11
9748.251894398487
 21
7821.090431640375
 31
0.0
  0
LINE
  5
199BF
330
747D
100
AcDbEntity
  8
細線
 48
50.0
100
AcDbLine
 10
9748.251894398487
 20
7821.090431640375
 30
0.0
 11
9733.251894398486
 21
7821.090431640375
 31
0.0
  0
LINE
  5
199C0
330
747D
100
AcDbEntity
  8
細線
 48
50.0
100
AcDbLine
 10
9733.251894398486
 20
7821.090431640375
 30
0.0
 11
9733.251894398486
 21
7828.090431640376
 31
0.0
  0
LINE
  5
199C1
330
747D
100
AcDbEntity
  8
細線
 48
50.0
100
AcDbLine
 10
9733.251894398486
 20
7828.090431640376
 30
0.0
 11
9718.251894398491
 21
7828.090431640372
 31
0.0
  0
LINE
  5
199C2
330
747D
100
AcDbEntity
  8
細線
 48
50.0
100
AcDbLine
 10
9718.251894398491
 20
7828.090431640372
 30
0.0
 11
9718.251894398491
 21
7790.490203537261
 31
0.0
  0
LINE
  5
199C3
330
747D
100
AcDbEntity
  8
細線
 48
50.0
100
AcDbLine
 10
9718.251894398491
 20
7790.490203537261
 30
0.0
 11
9738.251901699664
 21
7790.490245086804
 31
0.0
  0
LINE
  5
199C4
330
747D
100
AcDbEntity
  8
細線
 48
50.0
100
AcDbLine
 10
9738.251856830721
 20
7799.093706722612
 30
0.0
 11
9738.251901699664
 21
7790.490245086804
 31
0.0
  0
LINE
  5
199C5
330
747D
100
AcDbEntity
  8
細線
 48
50.0
100
AcDbLine
 10
10383.25188509131
 20
7816.244281232735
 30
0.0
 11
10383.25188509131
 21
7821.094281232735
 31
0.0
  0
LINE
  5
199C6
330
747D
100
AcDbEntity
  8
細線
 48
50.0
100
AcDbLine
 10
10383.25188509131
 20
7821.094281232735
 30
0.0
 11
10398.2518850913
 21
7821.094281232735
 31
0.0
  0
LINE
  5
199C7
330
747D
100
AcDbEntity
  8
細線
 48
50.0
100
AcDbLine
 10
10398.2518850913
 20
7821.094281232735
 30
0.0
 11
10398.25189672528
 21
7828.094281232778
 31
0.0
  0
LINE
  5
199C8
330
747D
100
AcDbEntity
  8
細線
 48
50.0
100
AcDbLine
 10
10398.25189672528
 20
7828.094281232778
 30
0.0
 11
10413.25189489581
 21
7828.094281232778
 31
0.0
  0
LINE
  5
199C9
330
747D
100
AcDbEntity
  8
細線
 48
50.0
100
AcDbLine
 10
10413.25189489581
 20
7828.094281232778
 30
0.0
 11
10413.25188459399
 21
7799.094075060505
 31
0.0
  0
LINE
  5
199CA
330
747D
100
AcDbEntity
  8
細線
 48
50.0
100
AcDbLine
 10
10100.75191222477
 20
7799.09408324787
 30
0.0
 11
10030.75216430719
 21
7799.094077810533
 31
0.0
  0
LINE
  5
199CB
330
747D
100
AcDbEntity
  8
細線
 48
50.0
100
AcDbLine
 10
9738.251856830721
 20
7799.093706722612
 30
0.0
 11
9749.484546185431
 21
7799.093889675758
 31
0.0
  0
ARC
  5
199CC
330
747D
100
AcDbEntity
  8
細線
 48
50.0
100
AcDbCircle
 10
9756.066838492767
 20
7797.894053589371
 30
0.0
 40
1.8
100
AcDbArc
 50
270.0006665777295
 51
345.0005554812987
  0
LINE
  5
199CD
330
747D
100
AcDbEntity
  8
細線
 48
50.0
100
AcDbLine
 10
9758.053271938848
 20
7798.35289404665
 30
0.0
 11
9757.805509496648
 21
7797.428196164543
 31
0.0
  0
LINE
  5
199CE
330
747D
100
AcDbEntity
  8
細線
 48
50.0
100
AcDbLine
 10
9756.066859433921
 20
7796.094053589492
 30
0.0
 11
9752.436932015154
 21
7796.094011359011
 31
0.0
  0
ARC
  5
199CF
330
747D
100
AcDbEntity
  8
細線
 48
50.0
100
AcDbCircle
 10
9752.436911074001
 20
7797.894011358891
 30
0.0
 40
1.8
100
AcDbArc
 50
195.0010443049394
 51
270.0006665777295
  0
LINE
  5
199D0
330
747D
100
AcDbEntity
  8
細線
 48
50.0
100
AcDbLine
 10
9750.450483581744
 20
7798.352726326455
 30
0.0
 11
9750.698253078255
 21
7797.428105387872
 31
0.0
  0
ARC
  5
199D1
330
747D
100
AcDbEntity
  8
細線
 48
50.0
100
AcDbCircle
 10
9749.484562472993
 20
7798.093889675893
 30
0.0
 40
1.0
100
AcDbArc
 50
15.00104430493943
 51
90.00093320877969
  0
LINE
  5
199D2
330
747D
100
AcDbEntity
  8
細線
 48
50.0
100
AcDbLine
 10
9759.01919329395
 20
7799.094084366164
 30
0.0
 11
9759.960953444853
 21
7799.094090940013
 31
0.0
  0
ARC
  5
199D3
330
747D
100
AcDbEntity
  8
細線
 48
50.0
100
AcDbCircle
 10
9759.019200274336
 20
7798.094084366188
 30
0.0
 40
1.0
100
AcDbArc
 50
90.0003999466794
 51
165.0005554812987
  0
LINE
  5
199D4
330
747D
100
AcDbEntity
  8
細線
 48
50.0
100
AcDbLine
 10
10310.7518850913
 20
7799.094075060505
 30
0.0
 11
10413.25188459399
 21
7799.094075060505
 31
0.0
  0
LINE
  5
199D5
330
747D
100
AcDbEntity
  8
細線
 48
50.0
100
AcDbLine
 10
9820.751920410192
 20
7799.09408324787
 30
0.0
 11
9759.651859183271
 21
7799.094090940013
 31
0.0
  0
LINE
  5
199D6
330
747D
100
AcDbEntity
  8
細線
 48
50.0
100
AcDbLine
 10
10240.75192041019
 20
7799.094120088954
 30
0.0
 11
10170.7519134558
 21
7799.094075066284
 31
0.0
  0
LINE
  5
199D7
330
747D
100
AcDbEntity
  8
細線
 48
50.0
100
AcDbLine
 10
9960.751885091301
 20
7799.094075060501
 30
0.0
 11
9890.751867803425
 21
7799.094075060508
 31
0.0
  0
ARC
  5
199D8
330
747D
100
AcDbEntity
  8
細線
 48
50.0
100
AcDbCircle
 10
10397.45188974491
 20
7832.294063197915
 30
0.0
 40
0.8
100
AcDbArc
 50
359.9997333689499
 51
89.99986668437072
  0
ARC
  5
199D9
330
747D
100
AcDbEntity
  8
細線
 48
50.0
100
AcDbCircle
 10
10405.05189657
 20
7832.294074366531
 30
0.0
 40
0.8
100
AcDbArc
 50
90.00014387753465
 51
179.9997333689498
  0
LINE
  5
199DA
330
747D
100
AcDbEntity
  8
細線
 48
50.0
100
AcDbLine
 10
10397.45189160634
 20
7833.094063197915
 30
0.0
 11
10392.25188974489
 21
7833.094063197915
 31
0.0
  0
ARC
  5
199DB
330
747D
100
AcDbEntity
  8
細線
 48
50.0
100
AcDbCircle
 10
10398.9518897449
 20
7830.794063197915
 30
0.0
 40
0.7
100
AcDbArc
 50
180.0
 51
270.0
  0
ARC
  5
199DC
330
747D
100
AcDbEntity
  8
細線
 48
50.0
100
AcDbCircle
 10
10403.5518897449
 20
7830.794063197915
 30
0.0
 40
0.7
100
AcDbArc
 50
270.0
 51
0.0
  0
LINE
  5
199DD
330
747D
100
AcDbEntity
  8
細線
 48
50.0
100
AcDbLine
 10
10404.25188974489
 20
7830.794063197915
 30
0.0
 11
10404.25189657001
 21
7832.294078089403
 31
0.0
  0
LINE
  5
199DE
330
747D
100
AcDbEntity
  8
細線
 48
50.0
100
AcDbLine
 10
10398.9518897449
 20
7830.094063197915
 30
0.0
 11
10403.5518897449
 21
7830.094063197915
 31
0.0
  0
LINE
  5
199DF
330
747D
100
AcDbEntity
  8
細線
 48
50.0
100
AcDbLine
 10
10398.2518897449
 20
7832.294063197915
 30
0.0
 11
10398.2518897449
 21
7830.794063197915
 31
0.0
  0
LINE
  5
199E0
330
747D
100
AcDbEntity
  8
細線
 48
50.0
100
AcDbLine
 10
11023.8518897449
 20
7863.094063197914
 30
0.0
 11
10387.25188974489
 21
7863.09406319791
 31
0.0
  0
LINE
  5
199E1
330
747D
100
AcDbEntity
  8
細線
 48
50.0
100
AcDbLine
 10
11049.7518897449
 20
7858.094063197917
 30
0.0
 11
11033.8518897449
 21
7858.094063197914
 31
0.0
  0
LINE
  5
199E2
330
747D
100
AcDbEntity
  8
細線
 48
50.0
100
AcDbLine
 10
11033.8518897449
 20
7858.094063197914
 30
0.0
 11
11023.8518897449
 21
7863.094063197914
 31
0.0
  0
LINE
  5
199E3
330
747D
100
AcDbEntity
  8
細線
100
AcDbLine
 10
10634.7518897449
 20
7833.094063197915
 30
0.0
 11
10634.7518897449
 21
7862.394063197914
 31
0.0
  0
LINE
  5
199E4
330
747D
100
AcDbEntity
  8
細線
100
AcDbLine
 10
10634.7518897449
 20
7862.394063197914
 30
0.0
 11
10654.7518897449
 21
7862.394063197914
 31
0.0
  0
LINE
  5
199E5
330
747D
100
AcDbEntity
  8
細線
100
AcDbLine
 10
10654.7518897449
 20
7833.094063197915
 30
0.0
 11
10654.7518897449
 21
7862.394063197914
 31
0.0
  0
LINE
  5
199E6
330
747D
100
AcDbEntity
  8
細線
100
AcDbLine
 10
10816.00188974489
 20
7833.094063197915
 30
0.0
 11
10746.0018897449
 21
7833.094063197915
 31
0.0
  0
LINE
  5
199E7
330
747D
100
AcDbEntity
  8
細線
 48
50.0
100
AcDbLine
 10
10536.00188974489
 20
7833.094063197915
 30
0.0
 11
10405.04766931774
 21
7833.094063197915
 31
0.0
  0
LINE
  5
199E8
330
747D
100
AcDbEntity
  8
細線
100
AcDbLine
 10
10676.00188974489
 20
7833.094063197915
 30
0.0
 11
10606.0018897449
 21
7833.094063197915
 31
0.0
  0
LINE
  5
199E9
330
747D
100
AcDbEntity
  8
細線
 48
50.0
100
AcDbLine
 10
10392.25188974489
 20
7825.094063197913
 30
0.0
 11
10392.25188974489
 21
7833.094063197915
 31
0.0
  0
LINE
  5
199EA
330
747D
100
AcDbEntity
  8
細線
 48
50.0
100
AcDbLine
 10
10372.25188974489
 20
7825.094063197918
 30
0.0
 11
10392.25188974489
 21
7825.094063197913
 31
0.0
  0
LINE
  5
199EB
330
747D
100
AcDbEntity
  8
細線
 48
50.0
100
AcDbLine
 10
10387.25188974489
 20
7863.094063197914
 30
0.0
 11
10387.25188974489
 21
7858.094063197914
 31
0.0
  0
LINE
  5
199EC
330
747D
100
AcDbEntity
  8
細線
 48
50.0
100
AcDbLine
 10
10372.25188974489
 20
7863.09406319791
 30
0.0
 11
10387.25188974489
 21
7863.094063197914
 31
0.0
  0
LINE
  5
199ED
330
747D
100
AcDbEntity
  8
細線
 48
50.0
100
AcDbLine
 10
10372.25188974489
 20
7825.094063197918
 30
0.0
 11
10372.25188974489
 21
7863.09406319791
 31
0.0
  0
LINE
  5
199EE
330
747D
100
AcDbEntity
  8
細線
100
AcDbLine
 10
11040.2518897449
 20
7833.094063197915
 30
0.0
 11
10886.0018897449
 21
7833.094063197915
 31
0.0
  0
LINE
  5
199EF
330
747D
100
AcDbEntity
  8
細線
 48
50.0
100
AcDbLine
 10
11049.7518897449
 20
7858.094063197917
 30
0.0
 11
11049.7518897449
 21
7833.094063197915
 31
0.0
  0
DIMENSION
  5
1A00F
330
747D
100
AcDbEntity
  8
寸法
100
AcDbDimension
  2
*D32
 10
8602.640644118199
 20
7762.094063197968
 30
0.0
 11
8602.640644118197
 21
7621.60878182373
 31
0.0
 70
   160
 71
     5
 42
75.0
  3
INABA_S40
100
AcDbAlignedDimension
 13
8897.251889744914
 23
7837.094063197968
 33
0.0
 14
8925.251889744897
 24
7762.094063197968
 34
0.0
 50
90.0
100
AcDbRotatedDimension
1001
ACAD
1000
DSTYLE
1002
{
1070
    41
1040
0.5
1070
    44
1040
1.0
1070
   147
1040
0.8
1070
   271
1070
     2
1070
   272
1070
     2
1070
   289
1070
     3
1070
   340
1005
F706
1070
   343
1005
17C8B
1070
   344
1005
17C8B
1002
}
  0
DIMENSION
  5
1A26B
330
747D
100
AcDbEntity
  8
寸法
 48
50.0
100
AcDbDimension
  2
*D33
 10
11079.2518897449
 20
6839.964347770147
 30
0.0
 11
10024.38464649221
 21
6839.964347770147
 31
0.0
 70
   160
 71
     5
 42
2154.0
  3
INABA_S40G
100
AcDbAlignedDimension
 13
8925.251889744897
 23
7760.094063197914
 33
0.0
 14
11079.2518897449
 24
7760.094063197914
 34
0.0
100
AcDbRotatedDimension
1001
ACAD
1000
DSTYLE
1002
{
1070
   341
1005
0
1002
}
  0
LWPOLYLINE
  5
1A390
330
747D
100
AcDbEntity
  8
部品1
 48
50.0
100
AcDbPolyline
 90
        4
 70
     1
 43
0.0
 10
9024.301889744915
 20
3642.475007150097
 10
9027.201889744915
 20
3642.475007150097
 10
9027.201889744915
 20
3651.975007150097
 10
9024.301889744915
 20
3651.975007150097
  0
CIRCLE
  5
1A391
330
747D
100
AcDbEntity
  8
部品1
 48
50.0
100
AcDbCircle
 10
9025.751889744915
 20
3647.225007150097
 30
0.0
 40
9.0
  0
ARC
  5
1A392
330
747D
100
AcDbEntity
  8
細線
 48
50.0
100
AcDbCircle
 10
9025.751889744915
 20
3647.225007150097
 30
0.0
 40
4.0
100
AcDbArc
 50
111.2538091853132
 51
248.7461908146868
  0
ARC
  5
1A393
330
747D
100
AcDbEntity
  8
細線
 48
50.0
100
AcDbCircle
 10
9025.751889744915
 20
3647.225007150097
 30
0.0
 40
17.5
100
AcDbArc
 50
306.4837370612677
 51
233.5162629387323
  0
LINE
  5
1A394
330
747D
100
AcDbEntity
  8
細線
 48
50.0
100
AcDbLine
 10
9035.751889744913
 20
3623.366046569214
 30
0.0
 11
9035.751889744915
 21
3632.350532369456
 31
0.0
  0
LINE
  5
1A395
330
747D
100
AcDbEntity
  8
細線
 48
50.0
100
AcDbLine
 10
9015.751889744915
 20
3623.366046569215
 30
0.0
 11
9015.751889744915
 21
3632.350532369452
 31
0.0
  0
ARC
  5
1A396
330
747D
100
AcDbEntity
  8
細線
 48
50.0
100
AcDbCircle
 10
9025.751889744915
 20
3647.225007150097
 30
0.0
 40
26.5
100
AcDbArc
 50
249.3326835063939
 51
290.6673164933835
  0
ARC
  5
1A397
330
747D
100
AcDbEntity
  8
細線
 48
50.0
100
AcDbCircle
 10
9034.751889744908
 20
3623.366046569214
 30
0.0
 40
1.0
100
AcDbArc
 50
290.6673164936062
 51
359.9999999998958
  0
ARC
  5
1A398
330
747D
100
AcDbEntity
  8
細線
 48
50.0
100
AcDbCircle
 10
9016.751889744915
 20
3623.366046569215
 30
0.0
 40
1.0
100
AcDbArc
 50
180.0
 51
249.3326835066164
  0
ARC
  5
1A399
330
747D
100
AcDbEntity
  8
細線
 48
50.0
100
AcDbCircle
 10
9014.751889744916
 20
3632.350532369452
 30
0.0
 40
1.0
100
AcDbArc
 50
0.0
 51
53.51626293873231
  0
ARC
  5
1A39A
330
747D
100
AcDbEntity
  8
細線
 48
50.0
100
AcDbCircle
 10
9036.751889744918
 20
3632.350532369456
 30
0.0
 40
1.0
100
AcDbArc
 50
126.4837370615127
 51
180.0
  0
ARC
  5
1A39B
330
747D
100
AcDbEntity
  8
細線
 48
50.0
100
AcDbCircle
 10
9025.751889744915
 20
3647.225007150097
 30
0.0
 40
21.5
100
AcDbArc
 50
255.8014401250294
 51
284.1985598749706
  0
ARC
  5
1A39C
330
747D
100
AcDbEntity
  8
細線
 48
50.0
100
AcDbCircle
 10
9025.751889744915
 20
3647.225007150097
 30
0.0
 40
16.5
100
AcDbArc
 50
251.9694646069326
 51
288.0305353930674
  0
LINE
  5
1A39D
330
747D
100
AcDbEntity
  8
細線
 48
50.0
100
AcDbLine
 10
9031.251889744915
 20
3626.67263502429
 30
0.0
 11
9031.251889744915
 21
3631.250026711626
 31
0.0
  0
LINE
  5
1A39E
330
747D
100
AcDbEntity
  8
細線
 48
50.0
100
AcDbLine
 10
9020.251889744915
 20
3626.67263502429
 30
0.0
 11
9020.251889744915
 21
3631.250026711625
 31
0.0
  0
ARC
  5
1A39F
330
747D
100
AcDbEntity
  8
細線
 48
50.0
100
AcDbCircle
 10
9020.551889744918
 20
3631.250026711625
 30
0.0
 40
0.3
100
AcDbArc
 50
71.96946460693259
 51
180.0
  0
ARC
  5
1A3A0
330
747D
100
AcDbEntity
  8
細線
 48
50.0
100
AcDbCircle
 10
9030.951889744917
 20
3631.250026711626
 30
0.0
 40
0.3
100
AcDbArc
 50
0.0
 51
108.0305353930674
  0
ARC
  5
1A3A1
330
747D
100
AcDbEntity
  8
細線
 48
50.0
100
AcDbCircle
 10
9030.951889744912
 20
3626.67263502429
 30
0.0
 40
0.3
100
AcDbArc
 50
284.1985598747622
 51
0.0000000001042204
  0
ARC
  5
1A3A2
330
747D
100
AcDbEntity
  8
細線
 48
50.0
100
AcDbCircle
 10
9020.551889744918
 20
3626.67263502429
 30
0.0
 40
0.3
100
AcDbArc
 50
180.0
 51
255.8014401248081
  0
CIRCLE
  5
1A3A3
330
747D
100
AcDbEntity
  8
細線
 48
50.0
100
AcDbCircle
 10
9025.751889744915
 20
3647.225007150097
 30
0.0
 40
12.0
  0
ARC
  5
1A3A4
330
747D
100
AcDbEntity
  8
部品1
 48
50.0
100
AcDbCircle
 10
9025.751889744915
 20
3697.225007150097
 30
0.0
 40
8.5
100
AcDbArc
 50
114.315739171091
 51
245.684260828909
  0
CIRCLE
  5
1A3A5
330
747D
100
AcDbEntity
  8
細線
 48
50.0
100
AcDbCircle
 10
9025.751889744915
 20
3697.225007150097
 30
0.0
 40
4.5
  0
LWPOLYLINE
  5
1A3A6
330
747D
100
AcDbEntity
  8
部品1
 48
50.0
100
AcDbPolyline
 90
        2
 70
     0
 43
0.0
 10
9022.251889744914
 20
3715.89985654708
 10
9022.251889744914
 20
3704.970973842512
  0
CIRCLE
  5
1A3A7
330
747D
100
AcDbEntity
  8
部品1
 48
50.0
100
AcDbCircle
 10
9025.751889744915
 20
3697.225007150097
 30
0.0
 40
19.0
  0
LWPOLYLINE
  5
1A3A8
330
747D
100
AcDbEntity
  8
部品1
 48
50.0
100
AcDbPolyline
 90
        2
 70
     0
 43
0.0
 10
9022.251889744914
 20
3689.479040457682
 10
9022.251889744914
 20
3678.550157753115
  0
LWPOLYLINE
  5
1A3A9
330
747D
100
AcDbEntity
  8
部品1
 48
50.0
100
AcDbPolyline
 90
        2
 70
     0
 43
0.0
 10
9029.251889744916
 20
3704.970973842512
 10
9029.251889744916
 20
3715.89985654708
  0
ARC
  5
1A3AA
330
747D
100
AcDbEntity
  8
部品1
 48
50.0
100
AcDbCircle
 10
9025.751889744915
 20
3697.225007150097
 30
0.0
 40
8.5
100
AcDbArc
 50
294.315739171091
 51
65.68426082890896
  0
LWPOLYLINE
  5
1A3AB
330
747D
100
AcDbEntity
  8
部品1
 48
50.0
100
AcDbPolyline
 90
        2
 70
     0
 43
0.0
 10
9029.251889744916
 20
3678.550157753115
 10
9029.251889744916
 20
3689.479040457682
  0
ARC
  5
1A3AC
330
747D
100
AcDbEntity
  8
細線
 48
50.0
100
AcDbCircle
 10
9025.751889744915
 20
3697.225007150097
 30
0.0
 40
16.5
100
AcDbArc
 50
332.0012352654438
 51
27.99876473455621
  0
ARC
  5
1A3AD
330
747D
100
AcDbEntity
  8
細線
 48
50.0
100
AcDbCircle
 10
9025.751889744915
 20
3697.225007150097
 30
0.0
 40
14.0
100
AcDbArc
 50
326.4074436112986
 51
33.59255638870134
  0
LINE
  5
1A3AE
330
747D
100
AcDbEntity
  8
細線
 48
50.0
100
AcDbLine
 10
9011.183087460585
 20
3704.970973842512
 30
0.0
 11
9014.089985955227
 21
3704.970973842512
 31
0.0
  0
LINE
  5
1A3AF
330
747D
100
AcDbEntity
  8
細線
 48
50.0
100
AcDbLine
 10
9011.183087460585
 20
3689.479040457682
 30
0.0
 11
9014.089985955227
 21
3689.479040457682
 31
0.0
  0
LINE
  5
1A3B0
330
747D
100
AcDbEntity
  8
細線
 48
50.0
100
AcDbLine
 10
9037.413793534604
 20
3704.970973842512
 30
0.0
 11
9040.320692029251
 21
3704.970973842512
 31
0.0
  0
LINE
  5
1A3B1
330
747D
100
AcDbEntity
  8
細線
 48
50.0
100
AcDbLine
 10
9037.413793534604
 20
3689.479040457682
 30
0.0
 11
9040.320692029251
 21
3689.479040457682
 31
0.0
  0
ARC
  5
1A3B2
330
747D
100
AcDbEntity
  8
細線
 48
50.0
100
AcDbCircle
 10
9025.751889744915
 20
3697.225007150097
 30
0.0
 40
14.0
100
AcDbArc
 50
146.4074436112986
 51
213.5925563887013
  0
ARC
  5
1A3B3
330
747D
100
AcDbEntity
  8
細線
 48
50.0
100
AcDbCircle
 10
9025.751889744915
 20
3697.225007150097
 30
0.0
 40
16.5
100
AcDbArc
 50
152.0012352654438
 51
207.9987647345562
  0
ARC
  5
1A3B4
330
747D
100
AcDbEntity
  8
部品1
 48
50.0
100
AcDbCircle
 10
8999.251889744916
 20
3722.725007150097
 30
0.0
 40
5.0
100
AcDbArc
 50
90.0
 51
180.0
  0
ARC
  5
1A3B5
330
747D
100
AcDbEntity
  8
部品1
 48
50.0
100
AcDbCircle
 10
8999.251889744916
 20
3611.725007150097
 30
0.0
 40
5.0
100
AcDbArc
 50
180.0
 51
270.0
  0
ARC
  5
1A3B6
330
747D
100
AcDbEntity
  8
部品1
 48
50.0
100
AcDbCircle
 10
9052.251889744916
 20
3611.725007150097
 30
0.0
 40
5.0
100
AcDbArc
 50
270.0
 51
0.0
  0
ARC
  5
1A3B7
330
747D
100
AcDbEntity
  8
部品1
 48
50.0
100
AcDbCircle
 10
9052.251889744916
 20
3722.725007150097
 30
0.0
 40
5.0
100
AcDbArc
 50
0.0
 51
90.0
  0
LINE
  5
1A3B9
330
747D
100
AcDbEntity
  8
部品1
 48
50.0
100
AcDbLine
 10
8994.251889744916
 20
3611.725007150097
 30
0.0
 11
8994.251889744916
 21
3722.725007150097
 31
0.0
  0
LINE
  5
1A3BA
330
747D
100
AcDbEntity
  8
部品1
 48
50.0
100
AcDbLine
 10
9052.251889744916
 20
3606.725007150096
 30
0.0
 11
8999.251889744916
 21
3606.725007150096
 31
0.0
  0
LINE
  5
1A3BB
330
747D
100
AcDbEntity
  8
部品1
 48
50.0
100
AcDbLine
 10
9057.251889744916
 20
3722.725007150097
 30
0.0
 11
9057.251889744916
 21
3611.725007150097
 31
0.0
  0
ENDSEC
  0
SECTION
  2
OBJECTS
  0
DICTIONARY
  5
7471
330
0
100
AcDbDictionary
281
     1
  3
ACAD_COLOR
350
17BDB
  3
ACAD_GROUP
350
7472
  3
ACAD_LAYOUT
350
17BDC
  3
ACAD_MATERIAL
350
17BDA
  3
ACAD_MLINESTYLE
350
7473
  3
ACAD_PLOTSETTINGS
350
17BDD
  3
ACAD_PLOTSTYLENAME
350
17BD8
  3
ACDBHEADERROUNDTRIPXREC
350
1A3CA
  3
AcDbVariableDictionary
350
1A3C6
  3
CONTENTDICTIONARY
350
E71C
  3
DRAWINGVARIABLESDICT
350
F3B9
  0
DICTIONARY
  5
17D76
330
7467
100
AcDbDictionary
280
     1
281
     1
  3
ACAD_LAYERSTATES
360
17D77
  0
DICTIONARY
  5
17BDB
102
{ACAD_REACTORS
330
7471
102
}
330
7471
100
AcDbDictionary
281
     1
  0
DICTIONARY
  5
7472
102
{ACAD_REACTORS
330
7471
102
}
330
7471
100
AcDbDictionary
281
     1
  0
DICTIONARY
  5
17BDC
102
{ACAD_REACTORS
330
7471
102
}
330
7471
100
AcDbDictionary
281
     1
  3
Model
350
17BDE
  3
レイアウト1
350
17BDF
  0
DICTIONARY
  5
17BDA
102
{ACAD_REACTORS
330
7471
102
}
330
7471
100
AcDbDictionary
281
     1
  0
DICTIONARY
  5
7473
102
{ACAD_REACTORS
330
7471
102
}
330
7471
100
AcDbDictionary
281
     1
  3
STANDARD
350
7480
  0
DICTIONARY
  5
17BDD
102
{ACAD_REACTORS
330
7471
102
}
330
7471
100
AcDbDictionary
281
     1
  0
ACDBDICTIONARYWDFLT
  5
17BD8
102
{ACAD_REACTORS
330
7471
102
}
330
7471
100
AcDbDictionary
281
     1
  3
Normal
350
17BD9
100
AcDbDictionaryWithDefault
340
17BD9
  0
DICTIONARY
  5
1A3CA
102
{ACAD_REACTORS
330
7471
102
}
330
7471
100
AcDbDictionary
281
     1
  3
COLORDICT
350
1A3CC
  3
MATERIALDICT
350
1A3CB
  0
DICTIONARY
  5
1A3C6
102
{ACAD_REACTORS
330
7471
102
}
330
7471
100
AcDbDictionary
281
     1
  3
DIMASSOC
350
1A3C7
  3
PROJECTNAME
350
1A3C8
  0
DICTIONARY
  5
E71C
102
{ACAD_REACTORS
330
7471
102
}
330
7471
100
AcDbDictionary
281
     1
  0
DICTIONARY
  5
F3B9
102
{ACAD_REACTORS
330
7471
102
}
330
7471
100
AcDbDictionary
281
     1
1001
DRAWINGVARIABLESXDATA
1000
POLARMODE
1000
1
  0
DICTIONARY
  5
17D77
102
{ACAD_REACTORS
330
17D76
102
}
330
17D76
100
AcDbDictionary
281
     1
  0
LAYOUT
  5
17BDE
102
{ACAD_XDICTIONARY
360
1A3CD
102
}
102
{ACAD_REACTORS
330
17BDC
102
}
330
17BDC
100
AcDbPlotSettings
  1

  2
Microsoft Office Document Image Writer
  4

  6

 40
0.0
 41
0.0
 42
0.0
 43
0.0
 44
0.0
 45
0.0
 46
0.0
 47
0.0
 48
0.0
 49
0.0
140
0.0
141
0.0
142
1.0
143
1.0
 70
  1712
 72
     0
 73
     0
 74
     0
  7

 75
     0
147
1.0
148
0.0
149
0.0
100
AcDbLayout
  1
Model
 70
     1
 71
     0
 10
0.0
 20
0.0
 11
12.0
 21
9.0
 12
0.0
 22
0.0
 32
0.0
 14
0.0
 24
0.0
 34
0.0
 15
0.0
 25
0.0
 35
0.0
146
0.0
 13
0.0
 23
0.0
 33
0.0
 16
1.0
 26
0.0
 36
0.0
 17
0.0
 27
1.0
 37
0.0
 76
     0
330
747D
  0
LAYOUT
  5
17BDF
102
{ACAD_XDICTIONARY
360
1A3CF
102
}
102
{ACAD_REACTORS
330
17BDC
102
}
330
17BDC
100
AcDbPlotSettings
  1

  2
Microsoft Office Document Image Writer
  4

  6

 40
0.0
 41
0.0
 42
0.0
 43
0.0
 44
0.0
 45
0.0
 46
0.0
 47
0.0
 48
0.0
 49
0.0
140
0.0
141
0.0
142
1.0
143
1.0
 70
   688
 72
     0
 73
     0
 74
     5
  7

 75
    16
147
1.0
148
0.0
149
0.0
100
AcDbLayout
  1
レイアウト1
 70
     0
 71
     1
 10
0.0
 20
0.0
 11
420.0
 21
297.0
 12
0.0
 22
0.0
 32
0.0
 14
1.000000000000000E+20
 24
1.000000000000000E+20
 34
1.000000000000000E+20
 15
-1.000000000000000E+20
 25
-1.000000000000000E+20
 35
-1.000000000000000E+20
146
0.0
 13
0.0
 23
0.0
 33
0.0
 16
1.0
 26
0.0
 36
0.0
 17
0.0
 27
1.0
 37
0.0
 76
     0
330
747A
  0
MLINESTYLE
  5
7480
102
{ACAD_REACTORS
330
7473
102
}
330
7473
100
AcDbMlineStyle
  2
STANDARD
 70
     0
  3

 62
     0
 51
90.0
 52
90.0
 71
     2
 49
0.5
 62
   256
  6
BYLAYER
 49
-0.5
 62
   256
  6
BYLAYER
  0
ACDBPLACEHOLDER
  5
17BD9
102
{ACAD_REACTORS
330
17BD8
102
}
330
17BD8
  0
XRECORD
  5
1A3CC
102
{ACAD_REACTORS
330
1A3CA
102
}
330
1A3CA
100
AcDbXrecord
280
     1
340
17BDB
  0
XRECORD
  5
1A3CB
102
{ACAD_REACTORS
330
1A3CA
102
}
330
1A3CA
100
AcDbXrecord
280
     1
340
17BDA
  0
DICTIONARYVAR
  5
1A3C7
102
{ACAD_REACTORS
330
1A3C6
102
}
330
1A3C6
100
DictionaryVariables
280
     0
  1
1
  0
DICTIONARYVAR
  5
1A3C8
102
{ACAD_REACTORS
330
1A3C6
102
}
330
1A3C6
100
DictionaryVariables
280
     0
  1

  0
DICTIONARY
  5
1A3CD
330
17BDE
100
AcDbDictionary
280
     1
281
     1
  3
ACAD_XREC_ROUNDTRIP
360
1A3CE
  0
DICTIONARY
  5
1A3CF
330
17BDF
100
AcDbDictionary
280
     1
281
     1
  3
ACAD_XREC_ROUNDTRIP
360
1A3D0
  0
XRECORD
  5
1A3CE
102
{ACAD_REACTORS
330
1A3CD
102
}
330
1A3CD
100
AcDbXrecord
280
     1
102
SHADEPLOT
 70
     0
102
SHADEPLOTRESLEVEL
 70
     2
102
SHADEPLOTCUSTOMDPI
 70
   300
  0
XRECORD
  5
1A3D0
102
{ACAD_REACTORS
330
1A3CF
102
}
330
1A3CF
100
AcDbXrecord
280
     1
102
SHADEPLOT
 70
     0
102
SHADEPLOTRESLEVEL
 70
     2
102
SHADEPLOTCUSTOMDPI
 70
   300
  0
ENDSEC
  0
EOF
