  0
SECTION
  2
HEADER
  9
$ACADVER
  1
AC1015
  9
$ACADMAINTVER
 70
    20
  9
$DWGCODEPAGE
  3
ANSI_932
  9
$INSBASE
 10
0.0
 20
0.0
 30
0.0
  9
$EXTMIN
 10
139.9999999999995
 20
-0.0000000000000909
 30
0.0
  9
$EXTMAX
 10
16307.2
 20
11409.6
 30
0.0
  9
$LIMMIN
 10
-25.79074261211281
 20
-125.8223078213959
  9
$LIMMAX
 10
16471.10331197129
 20
11496.44801950658
  9
$ORTHOMODE
 70
     0
  9
$REGENMODE
 70
     1
  9
$FILLMODE
 70
     1
  9
$QTEXTMODE
 70
     0
  9
$MIRRTEXT
 70
     1
  9
$LTSCALE
 40
20.0
  9
$ATTMODE
 70
     1
  9
$TEXTSIZE
 40
4.0
  9
$TRACEWID
 40
1.0
  9
$TEXTSTYLE
  7
STYLE1
  9
$CLAYER
  8
寸法
  9
$CELTYPE
  6
BYLAYER
  9
$CECOLOR
 62
   256
  9
$CELTSCALE
 40
50.0
  9
$DISPSILH
 70
     0
  9
$DIMSCALE
 40
40.0
  9
$DIMASZ
 40
2.5
  9
$DIMEXO
 40
0.5
  9
$DIMDLI
 40
7.0
  9
$DIMRND
 40
0.0
  9
$DIMDLE
 40
0.0
  9
$DIMEXE
 40
1.5
  9
$DIMTP
 40
0.0
  9
$DIMTM
 40
0.0
  9
$DIMTXT
 40
3.0
  9
$DIMCEN
 40
0.0
  9
$DIMTSZ
 40
0.0
  9
$DIMTOL
 70
     0
  9
$DIMLIM
 70
     0
  9
$DIMTIH
 70
     0
  9
$DIMTOH
 70
     0
  9
$DIMSE1
 70
     0
  9
$DIMSE2
 70
     0
  9
$DIMTAD
 70
     3
  9
$DIMZIN
 70
     8
  9
$DIMBLK
  1

  9
$DIMASO
 70
     1
  9
$DIMSHO
 70
     1
  9
$DIMPOST
  1

  9
$DIMAPOST
  1

  9
$DIMALT
 70
     0
  9
$DIMALTD
 70
     2
  9
$DIMALTF
 40
0.0394
  9
$DIMLFAC
 40
1.0
  9
$DIMTOFL
 70
     1
  9
$DIMTVP
 40
0.0
  9
$DIMTIX
 70
     1
  9
$DIMSOXD
 70
     0
  9
$DIMSAH
 70
     1
  9
$DIMBLK1
  1
DOTSMALL
  9
$DIMBLK2
  1
DOTSMALL
  9
$DIMSTYLE
  2
INABA_S40G
  9
$DIMCLRD
 70
     0
  9
$DIMCLRE
 70
     0
  9
$DIMCLRT
 70
     7
  9
$DIMTFAC
 40
1.0
  9
$DIMGAP
 40
1.0
  9
$DIMJUST
 70
     0
  9
$DIMSD1
 70
     0
  9
$DIMSD2
 70
     0
  9
$DIMTOLJ
 70
     1
  9
$DIMTZIN
 70
     0
  9
$DIMALTZ
 70
     0
  9
$DIMALTTZ
 70
     0
  9
$DIMUPT
 70
     0
  9
$DIMDEC
 70
     1
  9
$DIMTDEC
 70
     4
  9
$DIMALTU
 70
     2
  9
$DIMALTTD
 70
     2
  9
$DIMTXSTY
  7
STYLE1
  9
$DIMAUNIT
 70
     0
  9
$DIMADEC
 70
     0
  9
$DIMALTRND
 40
0.0
  9
$DIMAZIN
 70
     0
  9
$DIMDSEP
 70
    46
  9
$DIMATFIT
 70
     3
  9
$DIMFRAC
 70
     0
  9
$DIMLDRBLK
  1

  9
$DIMLUNIT
 70
     2
  9
$DIMLWD
 70
    -2
  9
$DIMLWE
 70
    -2
  9
$DIMTMOVE
 70
     0
  9
$LUNITS
 70
     2
  9
$LUPREC
 70
     1
  9
$SKETCHINC
 40
1.0
  9
$FILLETRAD
 40
3.0
  9
$AUNITS
 70
     0
  9
$AUPREC
 70
     0
  9
$MENU
  1
acad
  9
$ELEVATION
 40
0.0
  9
$PELEVATION
 40
0.0
  9
$THICKNESS
 40
0.0
  9
$LIMCHECK
 70
     0
  9
$CHAMFERA
 40
0.0
  9
$CHAMFERB
 40
0.0
  9
$CHAMFERC
 40
0.0
  9
$CHAMFERD
 40
0.0
  9
$SKPOLY
 70
     0
  9
$TDCREATE
 40
2451368.612993866
  9
$TDUCREATE
 40
2451368.237993866
  9
$TDUPDATE
 40
2455575.682686447
  9
$TDUUPDATE
 40
2455575.307686447
  9
$TDINDWG
 40
0.4382675000
  9
$TDUSRTIMER
 40
0.4382675000
  9
$USRTIMER
 70
     1
  9
$ANGBASE
 50
0.0
  9
$ANGDIR
 70
     0
  9
$PDMODE
 70
     3
  9
$PDSIZE
 40
2.0
  9
$PLINEWID
 40
0.0
  9
$SPLFRAME
 70
     0
  9
$SPLINETYPE
 70
     6
  9
$SPLINESEGS
 70
     8
  9
$HANDSEED
  5
1870D
  9
$SURFTAB1
 70
     6
  9
$SURFTAB2
 70
     6
  9
$SURFTYPE
 70
     6
  9
$SURFU
 70
     6
  9
$SURFV
 70
     6
  9
$UCSBASE
  2

  9
$UCSNAME
  2

  9
$UCSORG
 10
0.0
 20
0.0
 30
0.0
  9
$UCSXDIR
 10
1.0
 20
0.0
 30
0.0
  9
$UCSYDIR
 10
0.0
 20
1.0
 30
0.0
  9
$UCSORTHOREF
  2

  9
$UCSORTHOVIEW
 70
     0
  9
$UCSORGTOP
 10
0.0
 20
0.0
 30
0.0
  9
$UCSORGBOTTOM
 10
0.0
 20
0.0
 30
0.0
  9
$UCSORGLEFT
 10
0.0
 20
0.0
 30
0.0
  9
$UCSORGRIGHT
 10
0.0
 20
0.0
 30
0.0
  9
$UCSORGFRONT
 10
0.0
 20
0.0
 30
0.0
  9
$UCSORGBACK
 10
0.0
 20
0.0
 30
0.0
  9
$PUCSBASE
  2

  9
$PUCSNAME
  2

  9
$PUCSORG
 10
0.0
 20
0.0
 30
0.0
  9
$PUCSXDIR
 10
1.0
 20
0.0
 30
0.0
  9
$PUCSYDIR
 10
0.0
 20
1.0
 30
0.0
  9
$PUCSORTHOREF
  2

  9
$PUCSORTHOVIEW
 70
     0
  9
$PUCSORGTOP
 10
0.0
 20
0.0
 30
0.0
  9
$PUCSORGBOTTOM
 10
0.0
 20
0.0
 30
0.0
  9
$PUCSORGLEFT
 10
0.0
 20
0.0
 30
0.0
  9
$PUCSORGRIGHT
 10
0.0
 20
0.0
 30
0.0
  9
$PUCSORGFRONT
 10
0.0
 20
0.0
 30
0.0
  9
$PUCSORGBACK
 10
0.0
 20
0.0
 30
0.0
  9
$USERI1
 70
     0
  9
$USERI2
 70
     0
  9
$USERI3
 70
     0
  9
$USERI4
 70
     0
  9
$USERI5
 70
     0
  9
$USERR1
 40
0.0
  9
$USERR2
 40
0.0
  9
$USERR3
 40
0.0
  9
$USERR4
 40
0.0
  9
$USERR5
 40
0.0
  9
$WORLDVIEW
 70
     1
  9
$SHADEDGE
 70
     3
  9
$SHADEDIF
 70
    70
  9
$TILEMODE
 70
     1
  9
$MAXACTVP
 70
    16
  9
$PINSBASE
 10
0.0
 20
0.0
 30
0.0
  9
$PLIMCHECK
 70
     0
  9
$PEXTMIN
 10
1.000000000000000E+20
 20
1.000000000000000E+20
 30
1.000000000000000E+20
  9
$PEXTMAX
 10
-1.000000000000000E+20
 20
-1.000000000000000E+20
 30
-1.000000000000000E+20
  9
$PLIMMIN
 10
0.0
 20
0.0
  9
$PLIMMAX
 10
420.0
 20
297.0
  9
$UNITMODE
 70
     0
  9
$VISRETAIN
 70
     0
  9
$PLINEGEN
 70
     0
  9
$PSLTSCALE
 70
     0
  9
$TREEDEPTH
 70
  3020
  9
$CMLSTYLE
  2
STANDARD
  9
$CMLJUST
 70
     0
  9
$CMLSCALE
 40
1.0
  9
$PROXYGRAPHICS
 70
     1
  9
$MEASUREMENT
 70
     1
  9
$CELWEIGHT
370
    -1
  9
$ENDCAPS
280
     0
  9
$JOINSTYLE
280
     0
  9
$LWDISPLAY
290
     0
  9
$INSUNITS
 70
     0
  9
$HYPERLINKBASE
  1

  9
$STYLESHEET
  1
inaba.ctb
  9
$XEDIT
290
     1
  9
$CEPSNTYPE
380
     0
  9
$PSTYLEMODE
290
     1
  9
$FINGERPRINTGUID
  2
{2047519F-4933-4464-87F1-79FEC684FA5B}
  9
$VERSIONGUID
  2
{2B68D65F-D5D8-4121-8022-BEF7D39C3774}
  9
$EXTNAMES
290
     1
  9
$PSVPSCALE
 40
0.0
  9
$OLESTARTUP
290
     0
  0
ENDSEC
  0
SECTION
  2
CLASSES
  0
CLASS
  1
ACDBDICTIONARYWDFLT
  2
AcDbDictionaryWithDefault
  3
ObjectDBX Classes
 90
        0
280
     0
281
     0
  0
CLASS
  1
DICTIONARYVAR
  2
AcDbDictionaryVar
  3
ObjectDBX Classes
 90
        0
280
     0
281
     0
  0
CLASS
  1
ACDBPLACEHOLDER
  2
AcDbPlaceHolder
  3
ObjectDBX Classes
 90
        0
280
     0
281
     0
  0
CLASS
  1
LAYOUT
  2
AcDbLayout
  3
ObjectDBX Classes
 90
        0
280
     0
281
     0
  0
ENDSEC
  0
SECTION
  2
TABLES
  0
TABLE
  2
VPORT
  5
746D
330
0
100
AcDbSymbolTable
 70
     2
  0
VPORT
  5
18705
330
746D
100
AcDbSymbolTableRecord
100
AcDbViewportTableRecord
  2
*Active
 70
     0
 10
0.0
 20
0.0
 11
1.0
 21
1.0
 12
8223.761025238504
 22
5704.608037261908
 13
0.0
 23
0.0
 14
10.0
 24
10.0
 15
10.0
 25
10.0
 16
0.0
 26
0.0
 36
1.0
 17
0.0
 27
0.0
 37
0.0
 40
11495.08541324274
 41
1.525925925925925
 42
50.0
 43
0.0
 44
0.0
 50
0.0
 51
0.0
 71
     0
 72
     0
 73
     1
 74
     0
 75
     0
 76
     0
 77
     0
 78
     0
281
     0
 65
     1
110
0.0
120
0.0
130
0.0
111
1.0
121
0.0
131
0.0
112
0.0
122
1.0
132
0.0
 79
     0
146
0.0
  0
ENDTAB
  0
TABLE
  2
LTYPE
  5
746A
330
0
100
AcDbSymbolTable
 70
     4
  0
LTYPE
  5
7477
330
746A
100
AcDbSymbolTableRecord
100
AcDbLinetypeTableRecord
  2
BYBLOCK
 70
     0
  3

 72
    65
 73
     0
 40
0.0
  0
LTYPE
  5
7478
330
746A
100
AcDbSymbolTableRecord
100
AcDbLinetypeTableRecord
  2
BYLAYER
 70
     0
  3

 72
    65
 73
     0
 40
0.0
  0
LTYPE
  5
7479
330
746A
100
AcDbSymbolTableRecord
100
AcDbLinetypeTableRecord
  2
CONTINUOUS
 70
     0
  3
Solid line
 72
    65
 73
     0
 40
0.0
  0
LTYPE
  5
7816
330
746A
100
AcDbSymbolTableRecord
100
AcDbLinetypeTableRecord
  2
CENTER
 70
     0
  3
____ _ ____ _ ____ _ ____ _ ____ _ ____ _ ____ 
 72
    65
 73
     4
 40
2.0
 49
1.25
 74
     0
 49
-0.25
 74
     0
 49
0.25
 74
     0
 49
-0.25
 74
     0
  0
LTYPE
  5
781A
330
746A
100
AcDbSymbolTableRecord
100
AcDbLinetypeTableRecord
  2
HIDDEN
 70
     0
  3
__ __ __ __ __ __ __ __ __ __ __ __ __ __ __ __
 72
    65
 73
     2
 40
0.375
 49
0.25
 74
     0
 49
-0.125
 74
     0
  0
LTYPE
  5
781B
330
746A
100
AcDbSymbolTableRecord
100
AcDbLinetypeTableRecord
  2
PHANTOM
 70
     0
  3
______  __  __  ______  __  __  ______  __  __ 
 72
    65
 73
     6
 40
2.5
 49
1.25
 74
     0
 49
-0.25
 74
     0
 49
0.25
 74
     0
 49
-0.25
 74
     0
 49
0.25
 74
     0
 49
-0.25
 74
     0
  0
ENDTAB
  0
TABLE
  2
LAYER
  5
7467
102
{ACAD_XDICTIONARY
360
164F5
102
}
330
0
100
AcDbSymbolTable
 70
    12
  0
LAYER
  5
7474
330
7467
100
AcDbSymbolTableRecord
100
AcDbLayerTableRecord
  2
0
 70
     0
 62
     7
  6
CONTINUOUS
370
    -3
390
16358
  0
LAYER
  5
DEB2
330
7467
100
AcDbSymbolTableRecord
100
AcDbLayerTableRecord
  2
センター
 70
     0
 62
     3
  6
CENTER
370
    -3
390
16358
  0
LAYER
  5
DEB3
330
7467
100
AcDbSymbolTableRecord
100
AcDbLayerTableRecord
  2
寸法
 70
     0
 62
     4
  6
CONTINUOUS
370
    -3
390
16358
  0
LAYER
  5
DEB4
330
7467
100
AcDbSymbolTableRecord
100
AcDbLayerTableRecord
  2
部品1
 70
     0
 62
     7
  6
CONTINUOUS
370
    -3
390
16358
  0
LAYER
  5
DEB5
330
7467
100
AcDbSymbolTableRecord
100
AcDbLayerTableRecord
  2
補助
 70
     0
 62
    -1
  6
CONTINUOUS
370
    -3
390
16358
  0
LAYER
  5
DEB6
330
7467
100
AcDbSymbolTableRecord
100
AcDbLayerTableRecord
  2
文字
 70
     0
 62
     7
  6
CONTINUOUS
370
    -3
390
16358
  0
LAYER
  5
F255
330
7467
100
AcDbSymbolTableRecord
100
AcDbLayerTableRecord
  2
DEFPOINTS
 70
     0
 62
     7
  6
CONTINUOUS
290
     0
370
    -3
390
16358
  0
LAYER
  5
10B54
330
7467
100
AcDbSymbolTableRecord
100
AcDbLayerTableRecord
  2
仕様書枠
 70
     0
 62
   230
  6
CONTINUOUS
370
    -3
390
16358
  0
LAYER
  5
11729
330
7467
100
AcDbSymbolTableRecord
100
AcDbLayerTableRecord
  2
Ｇ．Ｌ
 70
     0
 62
    30
  6
CONTINUOUS
370
    -3
390
16358
  0
LAYER
  5
1173F
330
7467
100
AcDbSymbolTableRecord
100
AcDbLayerTableRecord
  2
細線
 70
     0
 62
     5
  6
CONTINUOUS
370
    -3
390
16358
  0
LAYER
  5
12CC4
330
7467
100
AcDbSymbolTableRecord
100
AcDbLayerTableRecord
  2
想像線
 70
     0
 62
     6
  6
PHANTOM
370
    -3
390
16358
  0
LAYER
  5
142E2
330
7467
100
AcDbSymbolTableRecord
100
AcDbLayerTableRecord
  2
破線
 70
     0
 62
     2
  6
HIDDEN
370
    -3
390
16358
  0
ENDTAB
  0
TABLE
  2
STYLE
  5
7468
330
0
100
AcDbSymbolTable
 70
     4
  0
STYLE
  5
7475
330
7468
100
AcDbSymbolTableRecord
100
AcDbTextStyleTableRecord
  2
STANDARD
 70
     0
 40
0.0
 41
1.0
 50
0.0
 71
     0
 42
4.0
  3
txt
  4
C:\AutoCAD LT\bigfont.shx
  0
STYLE
  5
F706
330
7468
100
AcDbSymbolTableRecord
100
AcDbTextStyleTableRecord
  2
STYLE1
 70
     0
 40
0.0
 41
1.0
 50
0.0
 71
     0
 42
4.0
  3
isocp.shx
  4
bigfont.shx
  0
STYLE
  5
103BF
330
7468
100
AcDbSymbolTableRecord
100
AcDbTextStyleTableRecord
  2
STYLE2
 70
     0
 40
0.0
 41
1.0
 50
0.0
 71
     0
 42
100.0
  3
MS PGothic.ttf
  4

1001
ACAD
1000
MS PGothic
1071
    32818
  0
STYLE
  5
16E6C
330
7468
100
AcDbSymbolTableRecord
100
AcDbTextStyleTableRecord
  2
STYLE3
 70
     0
 40
0.0
 41
1.0
 50
0.0
 71
     0
 42
100.0
  3
DFPGothic-EB.ttf
  4

1001
ACAD
1000
DFPGothic-EB
1071
    32818
  0
ENDTAB
  0
TABLE
  2
VIEW
  5
746B
330
0
100
AcDbSymbolTable
 70
     0
  0
ENDTAB
  0
TABLE
  2
UCS
  5
746C
330
0
100
AcDbSymbolTable
 70
     0
  0
ENDTAB
  0
TABLE
  2
APPID
  5
746E
330
0
100
AcDbSymbolTable
 70
     6
  0
APPID
  5
7476
330
746E
100
AcDbSymbolTableRecord
100
AcDbRegAppTableRecord
  2
ACAD
 70
     0
  0
APPID
  5
DEA9
330
746E
100
AcDbSymbolTableRecord
100
AcDbRegAppTableRecord
  2
CONTENTBLOCKICON
 70
     0
  0
APPID
  5
DEAA
330
746E
100
AcDbSymbolTableRecord
100
AcDbRegAppTableRecord
  2
CONTENTBLOCKDESCRIPTION
 70
     0
  0
APPID
  5
E71D
330
746E
100
AcDbSymbolTableRecord
100
AcDbRegAppTableRecord
  2
CONTENTTABDATA
 70
     0
  0
APPID
  5
E71E
330
746E
100
AcDbSymbolTableRecord
100
AcDbRegAppTableRecord
  2
CONTENTCURRENTTAB
 70
     0
  0
APPID
  5
F3BA
330
746E
100
AcDbSymbolTableRecord
100
AcDbRegAppTableRecord
  2
DRAWINGVARIABLESXDATA
 70
     0
  0
ENDTAB
  0
TABLE
  2
DIMSTYLE
  5
746F
330
0
100
AcDbSymbolTable
 70
     5
100
AcDbDimStyleTable
 71
     1
340
F71F
  0
DIMSTYLE
105
7484
330
746F
100
AcDbSymbolTableRecord
100
AcDbDimStyleTableRecord
  2
JIS
 70
     0
 41
2.5
 42
1.0
 43
7.0
 44
1.0
 73
     0
 74
     0
 77
     1
 78
     8
140
2.5
141
0.0
143
0.0394
147
0.0
172
     1
174
     1
175
     1
340
7475
  0
DIMSTYLE
105
F71F
102
{ACAD_REACTORS
330
146C0
330
14E59
330
14E5A
330
14E5B
330
14E5C
330
14E5D
330
14E61
330
14E6F
330
14E87
330
14E8B
330
14ECF
330
14ED1
330
15666
330
170FB
330
170FA
330
170F9
330
171C2
330
172CE
330
172CD
330
172CC
330
172CB
330
172BF
330
172BC
330
172BB
330
172BA
330
1727B
330
1727A
330
1726D
330
17269
330
185C4
102
}
330
746F
100
AcDbSymbolTableRecord
100
AcDbDimStyleTableRecord
  2
INABA_S40G
 70
     0
 40
40.0
 41
2.5
 42
0.5
 43
7.0
 44
1.5
 73
     0
 74
     0
 77
     3
 78
     8
140
3.0
141
0.0
143
0.0394
147
1.0
172
     1
173
     1
174
     1
178
     7
271
     1
340
F706
341
F770
343
F770
344
F770
  0
DIMSTYLE
105
164F4
102
{ACAD_REACTORS
330
180AA
330
18313
102
}
330
746F
100
AcDbSymbolTableRecord
100
AcDbDimStyleTableRecord
  2
INABA_S40
 70
     0
 40
40.0
 41
2.5
 42
0.5
 43
7.0
 44
1.5
 73
     0
 74
     0
 77
     3
 78
     8
140
3.0
141
0.0
143
0.0394
147
1.0
172
     1
173
     1
174
     1
175
     1
178
     7
340
7475
  0
DIMSTYLE
105
16E6D
330
746F
100
AcDbSymbolTableRecord
100
AcDbDimStyleTableRecord
  2
INABA_S50G
 70
     0
 41
125.0
 42
25.0
 43
7.0
 44
75.0
 73
     0
 74
     0
 77
     3
 78
     8
140
150.0
141
0.0
143
0.0394
147
25.0
172
     1
173
     1
174
     1
175
     1
178
     7
271
     1
340
F706
341
F770
343
F770
344
F770
  0
DIMSTYLE
105
1868B
330
746F
100
AcDbSymbolTableRecord
100
AcDbDimStyleTableRecord
  2
INABA_S20G
 70
     0
 40
20.0
 41
2.5
 42
0.5
 43
7.0
 44
1.5
 73
     0
 74
     0
 77
     3
 78
     8
140
3.0
141
0.0
143
0.0394
147
1.0
172
     1
173
     1
174
     1
178
     7
271
     1
340
F706
341
F770
343
F770
344
F770
  0
ENDTAB
  0
TABLE
  2
BLOCK_RECORD
  5
7466
330
0
100
AcDbSymbolTable
 70
    34
  0
BLOCK_RECORD
  5
747D
330
7466
100
AcDbSymbolTableRecord
100
AcDbBlockTableRecord
  2
*MODEL_SPACE
340
1635D
  0
BLOCK_RECORD
  5
747A
330
7466
100
AcDbSymbolTableRecord
100
AcDbBlockTableRecord
  2
*PAPER_SPACE
340
1635E
  0
BLOCK_RECORD
  5
F770
330
7466
100
AcDbSymbolTableRecord
100
AcDbBlockTableRecord
  2
_DOTSMALL
340
0
102
{BLKREFS
331
15244
331
15245
331
171B3
331
171B4
331
171F1
331
171F2
331
17229
331
1722A
331
1736D
331
1736E
331
17377
331
17378
331
17380
331
17381
331
17389
331
1738A
331
17392
331
17393
331
1739B
331
1739C
331
173A6
331
173A7
331
173AF
331
173B0
331
173B9
331
173BA
331
173C3
331
173C4
331
173CC
331
173CD
331
173D5
331
173D6
331
173DF
331
173E0
331
173E8
331
173E9
331
185DF
331
185E0
331
185FC
331
185FD
331
18605
331
18606
331
1860E
331
1860F
331
18619
331
1861A
331
18622
331
18623
331
1862B
331
1862C
331
18636
331
18637
331
18641
331
18642
331
1864C
331
1864D
331
18655
331
18656
331
1867A
331
1867B
102
}
  0
BLOCK_RECORD
  5
146B4
330
7466
100
AcDbSymbolTableRecord
100
AcDbBlockTableRecord
  2
*D1
340
0
  0
BLOCK_RECORD
  5
14EE4
330
7466
100
AcDbSymbolTableRecord
100
AcDbBlockTableRecord
  2
*D2
340
0
  0
BLOCK_RECORD
  5
14EF0
330
7466
100
AcDbSymbolTableRecord
100
AcDbBlockTableRecord
  2
*D3
340
0
  0
BLOCK_RECORD
  5
14EFC
330
7466
100
AcDbSymbolTableRecord
100
AcDbBlockTableRecord
  2
*D4
340
0
  0
BLOCK_RECORD
  5
14F0A
330
7466
100
AcDbSymbolTableRecord
100
AcDbBlockTableRecord
  2
*D5
340
0
  0
BLOCK_RECORD
  5
14F18
330
7466
100
AcDbSymbolTableRecord
100
AcDbBlockTableRecord
  2
*D6
340
0
  0
BLOCK_RECORD
  5
14F26
330
7466
100
AcDbSymbolTableRecord
100
AcDbBlockTableRecord
  2
*D7
340
0
  0
BLOCK_RECORD
  5
14F3E
330
7466
100
AcDbSymbolTableRecord
100
AcDbBlockTableRecord
  2
*D8
340
0
  0
BLOCK_RECORD
  5
14F4A
330
7466
100
AcDbSymbolTableRecord
100
AcDbBlockTableRecord
  2
*D9
340
0
  0
BLOCK_RECORD
  5
14F58
330
7466
100
AcDbSymbolTableRecord
100
AcDbBlockTableRecord
  2
*D10
340
0
  0
BLOCK_RECORD
  5
14F64
330
7466
100
AcDbSymbolTableRecord
100
AcDbBlockTableRecord
  2
*D11
340
0
  0
BLOCK_RECORD
  5
14F70
330
7466
100
AcDbSymbolTableRecord
100
AcDbBlockTableRecord
  2
*D12
340
0
  0
BLOCK_RECORD
  5
156C1
330
7466
100
AcDbSymbolTableRecord
100
AcDbBlockTableRecord
  2
*D13
340
0
  0
BLOCK_RECORD
  5
163FE
330
7466
100
AcDbSymbolTableRecord
100
AcDbBlockTableRecord
  2
_DOT
340
0
102
{BLKREFS
331
185EA
331
185EB
331
185F3
331
185F4
102
}
  0
BLOCK_RECORD
  5
1717F
330
7466
100
AcDbSymbolTableRecord
100
AcDbBlockTableRecord
  2
*D15
340
0
  0
BLOCK_RECORD
  5
1718B
330
7466
100
AcDbSymbolTableRecord
100
AcDbBlockTableRecord
  2
*D16
340
0
  0
BLOCK_RECORD
  5
17199
330
7466
100
AcDbSymbolTableRecord
100
AcDbBlockTableRecord
  2
*D17
340
0
  0
BLOCK_RECORD
  5
171DE
330
7466
100
AcDbSymbolTableRecord
100
AcDbBlockTableRecord
  2
*D18
340
0
  0
BLOCK_RECORD
  5
172D1
330
7466
100
AcDbSymbolTableRecord
100
AcDbBlockTableRecord
  2
*D19
340
0
  0
BLOCK_RECORD
  5
172DF
330
7466
100
AcDbSymbolTableRecord
100
AcDbBlockTableRecord
  2
*D20
340
0
  0
BLOCK_RECORD
  5
172EC
330
7466
100
AcDbSymbolTableRecord
100
AcDbBlockTableRecord
  2
*D21
340
0
  0
BLOCK_RECORD
  5
172F8
330
7466
100
AcDbSymbolTableRecord
100
AcDbBlockTableRecord
  2
*D22
340
0
  0
BLOCK_RECORD
  5
17304
330
7466
100
AcDbSymbolTableRecord
100
AcDbBlockTableRecord
  2
*D23
340
0
  0
BLOCK_RECORD
  5
17310
330
7466
100
AcDbSymbolTableRecord
100
AcDbBlockTableRecord
  2
*D24
340
0
  0
BLOCK_RECORD
  5
1731C
330
7466
100
AcDbSymbolTableRecord
100
AcDbBlockTableRecord
  2
*D25
340
0
  0
BLOCK_RECORD
  5
1732A
330
7466
100
AcDbSymbolTableRecord
100
AcDbBlockTableRecord
  2
*D26
340
0
  0
BLOCK_RECORD
  5
17336
330
7466
100
AcDbSymbolTableRecord
100
AcDbBlockTableRecord
  2
*D27
340
0
  0
BLOCK_RECORD
  5
17343
330
7466
100
AcDbSymbolTableRecord
100
AcDbBlockTableRecord
  2
*D28
340
0
  0
BLOCK_RECORD
  5
17350
330
7466
100
AcDbSymbolTableRecord
100
AcDbBlockTableRecord
  2
*D29
340
0
  0
BLOCK_RECORD
  5
1735C
330
7466
100
AcDbSymbolTableRecord
100
AcDbBlockTableRecord
  2
*D30
340
0
  0
BLOCK_RECORD
  5
18115
330
7466
100
AcDbSymbolTableRecord
100
AcDbBlockTableRecord
  2
*D31
340
0
  0
BLOCK_RECORD
  5
18410
330
7466
100
AcDbSymbolTableRecord
100
AcDbBlockTableRecord
  2
*D32
340
0
  0
BLOCK_RECORD
  5
185C5
330
7466
100
AcDbSymbolTableRecord
100
AcDbBlockTableRecord
  2
*D33
340
0
  0
ENDTAB
  0
ENDSEC
  0
SECTION
  2
BLOCKS
  0
BLOCK
  5
7489
330
747D
100
AcDbEntity
  8
0
100
AcDbBlockBegin
  2
*MODEL_SPACE
 70
     0
 10
0.0
 20
0.0
 30
0.0
  3
*MODEL_SPACE
  1

  0
ENDBLK
  5
748A
330
747D
100
AcDbEntity
  8
0
100
AcDbBlockEnd
  0
BLOCK
  5
7487
330
747A
100
AcDbEntity
 67
     1
  8
0
100
AcDbBlockBegin
  2
*PAPER_SPACE
 70
     0
 10
0.0
 20
0.0
 30
0.0
  3
*PAPER_SPACE
  1

  0
ENDBLK
  5
7488
330
747A
100
AcDbEntity
 67
     1
  8
0
100
AcDbBlockEnd
  0
BLOCK
  5
F771
330
F770
100
AcDbEntity
  8
0
 48
50.0
100
AcDbBlockBegin
  2
_DOTSMALL
 70
     0
 10
0.0
 20
0.0
 30
0.0
  3
_DOTSMALL
  1

  0
LWPOLYLINE
  5
F772
330
F770
100
AcDbEntity
  8
0
  6
ByBlock
 62
     0
 48
50.0
100
AcDbPolyline
 90
        2
 70
     1
 43
0.5
 10
-0.0625
 20
0.0
 42
1.0
 10
0.0625
 20
0.0
 42
1.0
  0
ENDBLK
  5
F776
330
F770
100
AcDbEntity
  8
0
 48
50.0
100
AcDbBlockEnd
  0
BLOCK
  5
15240
330
146B4
100
AcDbEntity
  8
0
 48
50.0
100
AcDbBlockBegin
  2
*D1
 70
     1
 10
0.0
 20
0.0
 30
0.0
  3
*D1
  1

  0
LINE
  5
15241
330
146B4
100
AcDbEntity
  8
0
  6
ByBlock
 62
     0
 48
50.0
100
AcDbLine
 10
7519.896575106992
 20
3577.931598713261
 30
0.0
 11
7519.896575106992
 21
3251.884269412883
 31
0.0
  0
LINE
  5
15242
330
146B4
100
AcDbEntity
  8
0
  6
ByBlock
 62
     0
 48
50.0
100
AcDbLine
 10
7319.896575106991
 20
3577.931598713261
 30
0.0
 11
7319.896575106991
 21
3251.884269412883
 31
0.0
  0
LINE
  5
15243
330
146B4
100
AcDbEntity
  8
0
  6
ByBlock
 62
     0
 48
50.0
100
AcDbLine
 10
7519.896575106992
 20
3311.884269412884
 30
0.0
 11
7319.896575106991
 21
3311.884269412884
 31
0.0
  0
INSERT
  5
15244
330
146B4
100
AcDbEntity
  8
0
  6
ByBlock
 62
     0
 48
50.0
100
AcDbBlockReference
  2
_DOTSMALL
 10
7519.896575106992
 20
3311.884269412884
 30
0.0
 41
100.0
 42
100.0
 43
100.0
  0
INSERT
  5
15245
330
146B4
100
AcDbEntity
  8
0
  6
ByBlock
 62
     0
 48
50.0
100
AcDbBlockReference
  2
_DOTSMALL
 10
7319.896575106991
 20
3311.884269412884
 30
0.0
 41
100.0
 42
100.0
 43
100.0
 50
180.0
  0
MTEXT
  5
15246
330
146B4
100
AcDbEntity
  8
0
  6
ByBlock
 62
     7
 48
50.0
100
AcDbMText
 10
7419.89657510699
 20
3411.896080436506
 30
0.0
 40
120.0
 41
0.0
 71
     5
 72
     1
  1
\A1;200
  7
STYLE1
 73
     1
 44
1.0
1001
ACAD
1000
MTEXTBEGIN
1070
    73
1070
     1
1070
    44
1040
1.0
1070
    74
1070
     0
1000
MTEXTEND
  0
POINT
  5
15247
330
146B4
100
AcDbEntity
  8
DEFPOINTS
  6
ByBlock
 62
     0
 48
50.0
100
AcDbPoint
 10
7519.896575106992
 20
3597.931598713261
 30
0.0
  0
POINT
  5
15248
330
146B4
100
AcDbEntity
  8
DEFPOINTS
  6
ByBlock
 62
     0
 48
50.0
100
AcDbPoint
 10
7319.896575106991
 20
3597.931598713261
 30
0.0
  0
POINT
  5
15249
330
146B4
100
AcDbEntity
  8
DEFPOINTS
  6
ByBlock
 62
     0
 48
50.0
100
AcDbPoint
 10
7319.896575106991
 20
3311.884269412884
 30
0.0
  0
ENDBLK
  5
1524A
330
146B4
100
AcDbEntity
  8
0
 48
50.0
100
AcDbBlockEnd
  0
BLOCK
  5
1614B
330
14EE4
100
AcDbEntity
  8
0
 48
50.0
100
AcDbBlockBegin
  2
*D2
 70
     1
 10
0.0
 20
0.0
 30
0.0
  3
*D2
  1

  0
LINE
  5
18677
330
14EE4
100
AcDbEntity
  8
寸法
 62
     0
 48
50.0
370
    -2
100
AcDbLine
 10
10851.76126531742
 20
9311.513306776586
 30
0.0
 11
11811.53511743674
 21
9311.513306776586
 31
0.0
  0
LINE
  5
18678
330
14EE4
100
AcDbEntity
  8
寸法
 62
     0
 48
50.0
370
    -2
100
AcDbLine
 10
10851.76126531739
 20
7941.513306776577
 30
0.0
 11
11811.53511743674
 21
7941.513306776577
 31
0.0
  0
LINE
  5
18679
330
14EE4
100
AcDbEntity
  8
寸法
 62
     0
 48
50.0
370
    -2
100
AcDbLine
 10
11751.53511743674
 20
9311.513306776586
 30
0.0
 11
11751.53511743674
 21
7941.513306776577
 31
0.0
  0
INSERT
  5
1867A
330
14EE4
100
AcDbEntity
  8
寸法
 62
     0
 48
50.0
370
    -2
100
AcDbBlockReference
  2
_DOTSMALL
 10
11751.53511743674
 20
9311.513306776586
 30
0.0
 41
100.0
 42
100.0
 43
100.0
 50
90.0
  0
INSERT
  5
1867B
330
14EE4
100
AcDbEntity
  8
寸法
 62
     0
 48
50.0
370
    -2
100
AcDbBlockReference
  2
_DOTSMALL
 10
11751.53511743674
 20
7941.513306776577
 30
0.0
 41
100.0
 42
100.0
 43
100.0
 50
270.0
  0
MTEXT
  5
1867C
330
14EE4
100
AcDbEntity
  8
寸法
 62
     7
 48
50.0
100
AcDbMText
 10
11651.53511743674
 20
8617.90392139944
 30
0.0
 40
120.0
 41
0.0
 71
     5
 72
     1
  1
\A1;1370
  7
STYLE1
 11
0.0000000000000001
 21
1.0
 31
0.0
 73
     1
 44
1.0
1001
ACAD
1000
MTEXTBEGIN
1070
    73
1070
     1
1070
    44
1040
1.0
1070
    74
1070
     0
1000
MTEXTEND
  0
POINT
  5
1867D
330
14EE4
100
AcDbEntity
  8
DEFPOINTS
 62
     0
 48
50.0
100
AcDbPoint
 10
10831.76126531742
 20
9311.513306776586
 30
0.0
  0
POINT
  5
1867E
330
14EE4
100
AcDbEntity
  8
DEFPOINTS
 62
     0
 48
50.0
100
AcDbPoint
 10
10831.76126531739
 20
7941.513306776577
 30
0.0
  0
POINT
  5
1867F
330
14EE4
100
AcDbEntity
  8
DEFPOINTS
 62
     0
 48
50.0
100
AcDbPoint
 10
11751.53511743674
 20
7941.513306776577
 30
0.0
  0
ENDBLK
  5
16155
330
14EE4
100
AcDbEntity
  8
0
 48
50.0
100
AcDbBlockEnd
  0
BLOCK
  5
1632A
330
14EF0
100
AcDbEntity
  8
0
 48
50.0
100
AcDbBlockBegin
  2
*D3
 70
     1
 10
0.0
 20
0.0
 30
0.0
  3
*D3
  1

  0
LINE
  5
18652
330
14EF0
100
AcDbEntity
  8
寸法
 62
     0
 48
50.0
370
    -2
100
AcDbLine
 10
8676.761265317422
 20
9331.513306776491
 30
0.0
 11
8676.761265317422
 21
9674.558901352186
 31
0.0
  0
LINE
  5
18653
330
14EF0
100
AcDbEntity
  8
寸法
 62
     0
 48
50.0
370
    -2
100
AcDbLine
 10
10776.76126531742
 20
9331.513306776585
 30
0.0
 11
10776.76126531742
 21
9674.558901352186
 31
0.0
  0
LINE
  5
18654
330
14EF0
100
AcDbEntity
  8
寸法
 62
     0
 48
50.0
370
    -2
100
AcDbLine
 10
8676.761265317422
 20
9614.558901352186
 30
0.0
 11
10776.76126531742
 21
9614.558901352186
 31
0.0
  0
INSERT
  5
18655
330
14EF0
100
AcDbEntity
  8
寸法
 62
     0
 48
50.0
370
    -2
100
AcDbBlockReference
  2
_DOTSMALL
 10
8676.761265317422
 20
9614.558901352186
 30
0.0
 41
100.0
 42
100.0
 43
100.0
 50
180.0
  0
INSERT
  5
18656
330
14EF0
100
AcDbEntity
  8
寸法
 62
     0
 48
50.0
370
    -2
100
AcDbBlockReference
  2
_DOTSMALL
 10
10776.76126531742
 20
9614.558901352186
 30
0.0
 41
100.0
 42
100.0
 43
100.0
  0
MTEXT
  5
18657
330
14EF0
100
AcDbEntity
  8
寸法
 62
     7
 48
50.0
100
AcDbMText
 10
9726.761265317421
 20
9714.570712375808
 30
0.0
 40
120.0
 41
0.0
 71
     5
 72
     1
  1
\A1;5X420=2100
  7
STYLE1
 73
     1
 44
1.0
1001
ACAD
1000
MTEXTBEGIN
1070
    73
1070
     1
1070
    44
1040
1.0
1070
    74
1070
     0
1000
MTEXTEND
  0
POINT
  5
18658
330
14EF0
100
AcDbEntity
  8
DEFPOINTS
 62
     0
 48
50.0
100
AcDbPoint
 10
8676.761265317422
 20
9311.513306776491
 30
0.0
  0
POINT
  5
18659
330
14EF0
100
AcDbEntity
  8
DEFPOINTS
 62
     0
 48
50.0
100
AcDbPoint
 10
10776.76126531742
 20
9311.513306776586
 30
0.0
  0
POINT
  5
1865A
330
14EF0
100
AcDbEntity
  8
DEFPOINTS
 62
     0
 48
50.0
100
AcDbPoint
 10
10776.76126531742
 20
9614.558901352186
 30
0.0
  0
ENDBLK
  5
16334
330
14EF0
100
AcDbEntity
  8
0
 48
50.0
100
AcDbBlockEnd
  0
BLOCK
  5
1631D
330
14EFC
100
AcDbEntity
  8
0
 48
50.0
100
AcDbBlockBegin
  2
*D4
 70
     1
 10
0.0
 20
0.0
 30
0.0
  3
*D4
  1

  0
LINE
  5
18647
330
14EFC
100
AcDbEntity
  8
寸法
 62
     0
 48
50.0
370
    -2
100
AcDbLine
 10
10776.76126531742
 20
9331.513306776585
 30
0.0
 11
10776.76126531742
 21
9674.558901352169
 31
0.0
  0
LINE
  5
18648
330
14EFC
100
AcDbEntity
  8
寸法
 62
     0
 48
50.0
370
    -2
100
AcDbLine
 10
10831.76126531742
 20
9331.513306776585
 30
0.0
 11
10831.76126531742
 21
9674.558901352169
 31
0.0
  0
LINE
  5
18649
330
14EFC
100
AcDbEntity
  8
寸法
 62
     0
 48
50.0
370
    -2
100
AcDbLine
 10
10776.76126531742
 20
9614.558901352168
 30
0.0
 11
10676.76126531742
 21
9614.558901352168
 31
0.0
  0
LINE
  5
1864A
330
14EFC
100
AcDbEntity
  8
寸法
 62
     0
 48
50.0
370
    -2
100
AcDbLine
 10
10831.76126531742
 20
9614.558901352168
 30
0.0
 11
11248.7318280659
 21
9614.558901352168
 31
0.0
  0
LINE
  5
1864B
330
14EFC
100
AcDbEntity
  8
寸法
 62
     0
 48
50.0
370
    -2
100
AcDbLine
 10
10776.76126531742
 20
9614.558901352168
 30
0.0
 11
10831.76126531742
 21
9614.558901352168
 31
0.0
  0
INSERT
  5
1864C
330
14EFC
100
AcDbEntity
  8
寸法
 62
     0
 48
50.0
370
    -2
100
AcDbBlockReference
  2
_DOTSMALL
 10
10776.76126531742
 20
9614.558901352168
 30
0.0
 41
100.0
 42
100.0
 43
100.0
  0
INSERT
  5
1864D
330
14EFC
100
AcDbEntity
  8
寸法
 62
     0
 48
50.0
370
    -2
100
AcDbBlockReference
  2
_DOTSMALL
 10
10831.76126531742
 20
9614.558901352168
 30
0.0
 41
100.0
 42
100.0
 43
100.0
 50
180.0
  0
MTEXT
  5
1864E
330
14EFC
100
AcDbEntity
  8
寸法
 62
     7
 48
50.0
100
AcDbMText
 10
11140.24654669166
 20
9714.558901352168
 30
0.0
 40
120.0
 41
0.0
 71
     5
 72
     1
  1
\A1;55
  7
STYLE1
 73
     1
 44
1.0
1001
ACAD
1000
MTEXTBEGIN
1070
    73
1070
     1
1070
    44
1040
1.0
1070
    74
1070
     0
1000
MTEXTEND
  0
POINT
  5
1864F
330
14EFC
100
AcDbEntity
  8
DEFPOINTS
 62
     0
 48
50.0
100
AcDbPoint
 10
10776.76126531742
 20
9311.513306776586
 30
0.0
  0
POINT
  5
18650
330
14EFC
100
AcDbEntity
  8
DEFPOINTS
 62
     0
 48
50.0
100
AcDbPoint
 10
10831.76126531742
 20
9311.513306776586
 30
0.0
  0
POINT
  5
18651
330
14EFC
100
AcDbEntity
  8
DEFPOINTS
 62
     0
 48
50.0
100
AcDbPoint
 10
10831.76126531742
 20
9614.558901352168
 30
0.0
  0
ENDBLK
  5
16329
330
14EFC
100
AcDbEntity
  8
0
 48
50.0
100
AcDbBlockEnd
  0
BLOCK
  5
1529B
330
14F0A
100
AcDbEntity
  8
0
 48
50.0
100
AcDbBlockBegin
  2
*D5
 70
     1
 10
0.0
 20
0.0
 30
0.0
  3
*D5
  1

  0
LINE
  5
1863C
330
14F0A
100
AcDbEntity
  8
寸法
 62
     0
 48
50.0
370
    -2
100
AcDbLine
 10
10851.76126531742
 20
9311.513306776586
 30
0.0
 11
11539.18761105183
 21
9311.513306776586
 31
0.0
  0
LINE
  5
1863D
330
14F0A
100
AcDbEntity
  8
寸法
 62
     0
 48
50.0
370
    -2
100
AcDbLine
 10
10851.76126531742
 20
9256.513306776589
 30
0.0
 11
11539.18761105183
 21
9256.513306776589
 31
0.0
  0
LINE
  5
1863E
330
14F0A
100
AcDbEntity
  8
寸法
 62
     0
 48
50.0
370
    -2
100
AcDbLine
 10
11479.18761105183
 20
9256.513306776589
 30
0.0
 11
11479.18761105183
 21
9156.51330677659
 31
0.0
  0
LINE
  5
1863F
330
14F0A
100
AcDbEntity
  8
寸法
 62
     0
 48
50.0
370
    -2
100
AcDbLine
 10
11479.18761105183
 20
9311.513306776586
 30
0.0
 11
11479.18761105183
 21
9728.483869525064
 31
0.0
  0
LINE
  5
18640
330
14F0A
100
AcDbEntity
  8
寸法
 62
     0
 48
50.0
370
    -2
100
AcDbLine
 10
11479.18761105183
 20
9256.513306776589
 30
0.0
 11
11479.18761105183
 21
9311.513306776586
 31
0.0
  0
INSERT
  5
18641
330
14F0A
100
AcDbEntity
  8
寸法
 62
     0
 48
50.0
370
    -2
100
AcDbBlockReference
  2
_DOTSMALL
 10
11479.18761105183
 20
9256.513306776589
 30
0.0
 41
100.0
 42
100.0
 43
100.0
 50
90.0
  0
INSERT
  5
18642
330
14F0A
100
AcDbEntity
  8
寸法
 62
     0
 48
50.0
370
    -2
100
AcDbBlockReference
  2
_DOTSMALL
 10
11479.18761105183
 20
9311.513306776586
 30
0.0
 41
100.0
 42
100.0
 43
100.0
 50
270.0
  0
MTEXT
  5
18643
330
14F0A
100
AcDbEntity
  8
寸法
 62
     7
 48
50.0
100
AcDbMText
 10
11379.18761105183
 20
9619.998588150826
 30
0.0
 40
120.0
 41
0.0
 71
     5
 72
     1
  1
\A1;55
  7
STYLE1
 11
0.0000000000000001
 21
1.0
 31
0.0
 73
     1
 44
1.0
1001
ACAD
1000
MTEXTBEGIN
1070
    73
1070
     1
1070
    44
1040
1.0
1070
    74
1070
     0
1000
MTEXTEND
  0
POINT
  5
18644
330
14F0A
100
AcDbEntity
  8
DEFPOINTS
 62
     0
 48
50.0
100
AcDbPoint
 10
10831.76126531742
 20
9311.513306776586
 30
0.0
  0
POINT
  5
18645
330
14F0A
100
AcDbEntity
  8
DEFPOINTS
 62
     0
 48
50.0
100
AcDbPoint
 10
10831.76126531742
 20
9256.513306776589
 30
0.0
  0
POINT
  5
18646
330
14F0A
100
AcDbEntity
  8
DEFPOINTS
 62
     0
 48
50.0
100
AcDbPoint
 10
11479.18761105183
 20
9256.513306776589
 30
0.0
  0
ENDBLK
  5
152A7
330
14F0A
100
AcDbEntity
  8
0
 48
50.0
100
AcDbBlockEnd
  0
BLOCK
  5
16310
330
14F18
100
AcDbEntity
  8
0
 48
50.0
100
AcDbBlockBegin
  2
*D6
 70
     1
 10
0.0
 20
0.0
 30
0.0
  3
*D6
  1

  0
LINE
  5
18631
330
14F18
100
AcDbEntity
  8
寸法
 62
     0
 48
50.0
370
    -2
100
AcDbLine
 10
8621.761265317386
 20
9331.513306776491
 30
0.0
 11
8621.761265317386
 21
9674.558901352071
 31
0.0
  0
LINE
  5
18632
330
14F18
100
AcDbEntity
  8
寸法
 62
     0
 48
50.0
370
    -2
100
AcDbLine
 10
8676.761265317422
 20
9331.513306776491
 30
0.0
 11
8676.761265317422
 21
9674.558901352071
 31
0.0
  0
LINE
  5
18633
330
14F18
100
AcDbEntity
  8
寸法
 62
     0
 48
50.0
370
    -2
100
AcDbLine
 10
8676.761265317422
 20
9614.558901352069
 30
0.0
 11
8776.761265317423
 21
9614.558901352069
 31
0.0
  0
LINE
  5
18634
330
14F18
100
AcDbEntity
  8
寸法
 62
     0
 48
50.0
370
    -2
100
AcDbLine
 10
8621.761265317386
 20
9614.558901352069
 30
0.0
 11
8204.79070256891
 21
9614.558901352069
 31
0.0
  0
LINE
  5
18635
330
14F18
100
AcDbEntity
  8
寸法
 62
     0
 48
50.0
370
    -2
100
AcDbLine
 10
8676.761265317422
 20
9614.558901352069
 30
0.0
 11
8621.761265317386
 21
9614.558901352069
 31
0.0
  0
INSERT
  5
18636
330
14F18
100
AcDbEntity
  8
寸法
 62
     0
 48
50.0
370
    -2
100
AcDbBlockReference
  2
_DOTSMALL
 10
8676.761265317422
 20
9614.558901352069
 30
0.0
 41
100.0
 42
100.0
 43
100.0
 50
180.0
  0
INSERT
  5
18637
330
14F18
100
AcDbEntity
  8
寸法
 62
     0
 48
50.0
370
    -2
100
AcDbBlockReference
  2
_DOTSMALL
 10
8621.761265317386
 20
9614.558901352069
 30
0.0
 41
100.0
 42
100.0
 43
100.0
  0
MTEXT
  5
18638
330
14F18
100
AcDbEntity
  8
寸法
 62
     7
 48
50.0
100
AcDbMText
 10
8313.275983943148
 20
9714.55890135207
 30
0.0
 40
120.0
 41
0.0
 71
     5
 72
     1
  1
\A1;55
  7
STYLE1
 73
     1
 44
1.0
1001
ACAD
1000
MTEXTBEGIN
1070
    73
1070
     1
1070
    44
1040
1.0
1070
    74
1070
     0
1000
MTEXTEND
  0
POINT
  5
18639
330
14F18
100
AcDbEntity
  8
DEFPOINTS
 62
     0
 48
50.0
100
AcDbPoint
 10
8621.761265317386
 20
9311.513306776491
 30
0.0
  0
POINT
  5
1863A
330
14F18
100
AcDbEntity
  8
DEFPOINTS
 62
     0
 48
50.0
100
AcDbPoint
 10
8676.761265317422
 20
9311.513306776491
 30
0.0
  0
POINT
  5
1863B
330
14F18
100
AcDbEntity
  8
DEFPOINTS
 62
     0
 48
50.0
100
AcDbPoint
 10
8676.761265317422
 20
9614.558901352069
 30
0.0
  0
ENDBLK
  5
1631C
330
14F18
100
AcDbEntity
  8
0
 48
50.0
100
AcDbBlockEnd
  0
BLOCK
  5
1549C
330
14F26
100
AcDbEntity
  8
0
 48
50.0
100
AcDbBlockBegin
  2
*D7
 70
     1
 10
0.0
 20
0.0
 30
0.0
  3
*D7
  1

  0
LINE
  5
18628
330
14F26
100
AcDbEntity
  8
寸法
 62
     0
 48
50.0
370
    -2
100
AcDbLine
 10
8644.9022814688
 20
8811.513306776491
 30
0.0
 11
8555.61554021515
 21
8478.290651975623
 31
0.0
  0
LINE
  5
18629
330
14F26
100
AcDbEntity
  8
寸法
 62
     0
 48
50.0
370
    -2
100
AcDbLine
 10
9917.902281468812
 20
8811.513306776484
 30
0.0
 11
9828.615540215164
 21
8478.290651975623
 31
0.0
  0
LINE
  5
1862A
330
14F26
100
AcDbEntity
  8
寸法
 62
     0
 48
50.0
370
    -2
100
AcDbLine
 10
8571.692491761019
 20
8538.290651975621
 30
0.0
 11
9844.692491761032
 21
8538.290651975621
 31
0.0
  0
INSERT
  5
1862B
330
14F26
100
AcDbEntity
  8
寸法
 62
     0
 48
50.0
370
    -2
100
AcDbBlockReference
  2
_DOTSMALL
 10
8571.692491761019
 20
8538.290651975621
 30
0.0
 41
100.0
 42
100.0
 43
100.0
 50
180.0
  0
INSERT
  5
1862C
330
14F26
100
AcDbEntity
  8
寸法
 62
     0
 48
50.0
370
    -2
100
AcDbBlockReference
  2
_DOTSMALL
 10
9844.692491761032
 20
8538.290651975621
 30
0.0
 41
100.0
 42
100.0
 43
100.0
  0
MTEXT
  5
1862D
330
14F26
100
AcDbEntity
  8
寸法
 62
     7
 48
50.0
100
AcDbMText
 10
9185.838041893804
 20
8638.302462999243
 30
0.0
 40
120.0
 41
0.0
 71
     5
 72
     1
  1
\A1;1273
  7
STYLE1
 73
     1
 44
1.0
1001
ACAD
1000
MTEXTBEGIN
1070
    73
1070
     1
1070
    44
1040
1.0
1070
    74
1070
     0
1000
MTEXTEND
  0
POINT
  5
1862E
330
14F26
100
AcDbEntity
  8
DEFPOINTS
 62
     0
 48
50.0
100
AcDbPoint
 10
8650.261265317423
 20
8831.513306776491
 30
0.0
  0
POINT
  5
1862F
330
14F26
100
AcDbEntity
  8
DEFPOINTS
 62
     0
 48
50.0
100
AcDbPoint
 10
9923.261265317433
 20
8831.513306776484
 30
0.0
  0
POINT
  5
18630
330
14F26
100
AcDbEntity
  8
DEFPOINTS
 62
     0
 48
50.0
100
AcDbPoint
 10
9844.692491761032
 20
8538.290651975621
 30
0.0
  0
ENDBLK
  5
154A6
330
14F26
100
AcDbEntity
  8
0
 48
50.0
100
AcDbBlockEnd
  0
BLOCK
  5
162C8
330
14F3E
100
AcDbEntity
  8
0
 48
50.0
100
AcDbBlockBegin
  2
*D8
 70
     1
 10
0.0
 20
0.0
 30
0.0
  3
*D8
  1

  0
LINE
  5
1861F
330
14F3E
100
AcDbEntity
  8
寸法
 62
     0
 48
50.0
370
    -2
100
AcDbLine
 10
8621.761265317415
 20
7921.513306776414
 30
0.0
 11
8621.761265317415
 21
6577.486981249517
 31
0.0
  0
LINE
  5
18620
330
14F3E
100
AcDbEntity
  8
寸法
 62
     0
 48
50.0
370
    -2
100
AcDbLine
 10
10831.76126531739
 20
7921.513306776543
 30
0.0
 11
10831.76126531739
 21
6577.486981249517
 31
0.0
  0
LINE
  5
18621
330
14F3E
100
AcDbEntity
  8
寸法
 62
     0
 48
50.0
370
    -2
100
AcDbLine
 10
8621.761265317415
 20
6637.486981249516
 30
0.0
 11
10831.76126531739
 21
6637.486981249516
 31
0.0
  0
INSERT
  5
18622
330
14F3E
100
AcDbEntity
  8
寸法
 62
     0
 48
50.0
370
    -2
100
AcDbBlockReference
  2
_DOTSMALL
 10
8621.761265317415
 20
6637.486981249516
 30
0.0
 41
100.0
 42
100.0
 43
100.0
 50
180.0
  0
INSERT
  5
18623
330
14F3E
100
AcDbEntity
  8
寸法
 62
     0
 48
50.0
370
    -2
100
AcDbBlockReference
  2
_DOTSMALL
 10
10831.76126531739
 20
6637.486981249516
 30
0.0
 41
100.0
 42
100.0
 43
100.0
  0
MTEXT
  5
18624
330
14F3E
100
AcDbEntity
  8
寸法
 62
     7
 48
50.0
100
AcDbMText
 10
9725.342696525842
 20
6737.498792273138
 30
0.0
 40
120.0
 41
0.0
 71
     5
 72
     1
  1
\A1;2210
  7
STYLE1
 73
     1
 44
1.0
1001
ACAD
1000
MTEXTBEGIN
1070
    73
1070
     1
1070
    44
1040
1.0
1070
    74
1070
     0
1000
MTEXTEND
  0
POINT
  5
18625
330
14F3E
100
AcDbEntity
  8
DEFPOINTS
 62
     0
 48
50.0
100
AcDbPoint
 10
8621.761265317415
 20
7941.513306776413
 30
0.0
  0
POINT
  5
18626
330
14F3E
100
AcDbEntity
  8
DEFPOINTS
 62
     0
 48
50.0
100
AcDbPoint
 10
10831.76126531739
 20
7941.513306776542
 30
0.0
  0
POINT
  5
18627
330
14F3E
100
AcDbEntity
  8
DEFPOINTS
 62
     0
 48
50.0
100
AcDbPoint
 10
10831.76126531739
 20
6637.486981249516
 30
0.0
  0
ENDBLK
  5
162D2
330
14F3E
100
AcDbEntity
  8
0
 48
50.0
100
AcDbBlockEnd
  0
BLOCK
  5
152D6
330
14F4A
100
AcDbEntity
  8
0
 48
50.0
100
AcDbBlockBegin
  2
*D9
 70
     1
 10
0.0
 20
0.0
 30
0.0
  3
*D9
  1

  0
LINE
  5
18614
330
14F4A
100
AcDbEntity
  8
寸法
 62
     0
 48
50.0
370
    -2
100
AcDbLine
 10
10851.76126531739
 20
7996.513306776574
 30
0.0
 11
11539.18761105181
 21
7996.513306776574
 31
0.0
  0
LINE
  5
18615
330
14F4A
100
AcDbEntity
  8
寸法
 62
     0
 48
50.0
370
    -2
100
AcDbLine
 10
10851.76126531739
 20
7941.513306776577
 30
0.0
 11
11539.18761105181
 21
7941.513306776577
 31
0.0
  0
LINE
  5
18616
330
14F4A
100
AcDbEntity
  8
寸法
 62
     0
 48
50.0
370
    -2
100
AcDbLine
 10
11479.18761105181
 20
7996.513306776574
 30
0.0
 11
11479.18761105181
 21
8096.513306776573
 31
0.0
  0
LINE
  5
18617
330
14F4A
100
AcDbEntity
  8
寸法
 62
     0
 48
50.0
370
    -2
100
AcDbLine
 10
11479.18761105181
 20
7941.513306776577
 30
0.0
 11
11479.18761105181
 21
7455.166558497476
 31
0.0
  0
LINE
  5
18618
330
14F4A
100
AcDbEntity
  8
寸法
 62
     0
 48
50.0
370
    -2
100
AcDbLine
 10
11479.18761105181
 20
7996.513306776574
 30
0.0
 11
11479.18761105181
 21
7941.513306776577
 31
0.0
  0
INSERT
  5
18619
330
14F4A
100
AcDbEntity
  8
寸法
 62
     0
 48
50.0
370
    -2
100
AcDbBlockReference
  2
_DOTSMALL
 10
11479.18761105181
 20
7996.513306776574
 30
0.0
 41
100.0
 42
100.0
 43
100.0
 50
270.0
  0
INSERT
  5
1861A
330
14F4A
100
AcDbEntity
  8
寸法
 62
     0
 48
50.0
370
    -2
100
AcDbBlockReference
  2
_DOTSMALL
 10
11479.18761105181
 20
7941.513306776577
 30
0.0
 41
100.0
 42
100.0
 43
100.0
 50
90.0
  0
MTEXT
  5
1861B
330
14F4A
100
AcDbEntity
  8
寸法
 62
     7
 48
50.0
100
AcDbMText
 10
11379.1876110518
 20
7563.651839871716
 30
0.0
 40
120.0
 41
0.0
 71
     5
 72
     1
  1
\A1;55
  7
STYLE1
 11
0.0000000000000001
 21
1.0
 31
0.0
 73
     1
 44
1.0
1001
ACAD
1000
MTEXTBEGIN
1070
    73
1070
     1
1070
    44
1040
1.0
1070
    74
1070
     0
1000
MTEXTEND
  0
POINT
  5
1861C
330
14F4A
100
AcDbEntity
  8
DEFPOINTS
 62
     0
 48
50.0
100
AcDbPoint
 10
10831.76126531739
 20
7996.513306776574
 30
0.0
  0
POINT
  5
1861D
330
14F4A
100
AcDbEntity
  8
DEFPOINTS
 62
     0
 48
50.0
100
AcDbPoint
 10
10831.76126531739
 20
7941.513306776577
 30
0.0
  0
POINT
  5
1861E
330
14F4A
100
AcDbEntity
  8
DEFPOINTS
 62
     0
 48
50.0
100
AcDbPoint
 10
11479.18761105181
 20
7941.513306776577
 30
0.0
  0
ENDBLK
  5
152E2
330
14F4A
100
AcDbEntity
  8
0
 48
50.0
100
AcDbBlockEnd
  0
BLOCK
  5
152E3
330
14F58
100
AcDbEntity
  8
0
 48
50.0
100
AcDbBlockBegin
  2
*D10
 70
     1
 10
0.0
 20
0.0
 30
0.0
  3
*D10
  1

  0
LINE
  5
1860B
330
14F58
100
AcDbEntity
  8
寸法
 62
     0
 48
50.0
370
    -2
100
AcDbLine
 10
9944.902281468799
 20
8811.513306776596
 30
0.0
 11
9855.615540215124
 21
8478.290651975623
 31
0.0
  0
LINE
  5
1860C
330
14F58
100
AcDbEntity
  8
寸法
 62
     0
 48
50.0
370
    -2
100
AcDbLine
 10
10797.90228146881
 20
8811.513306776589
 30
0.0
 11
10708.61554021513
 21
8478.290651975623
 31
0.0
  0
LINE
  5
1860D
330
14F58
100
AcDbEntity
  8
寸法
 62
     0
 48
50.0
370
    -2
100
AcDbLine
 10
9871.69249176099
 20
8538.290651975621
 30
0.0
 11
10724.692491761
 21
8538.290651975621
 31
0.0
  0
INSERT
  5
1860E
330
14F58
100
AcDbEntity
  8
寸法
 62
     0
 48
50.0
370
    -2
100
AcDbBlockReference
  2
_DOTSMALL
 10
9871.69249176099
 20
8538.290651975621
 30
0.0
 41
100.0
 42
100.0
 43
100.0
 50
180.0
  0
INSERT
  5
1860F
330
14F58
100
AcDbEntity
  8
寸法
 62
     0
 48
50.0
370
    -2
100
AcDbBlockReference
  2
_DOTSMALL
 10
10724.692491761
 20
8538.290651975621
 30
0.0
 41
100.0
 42
100.0
 43
100.0
  0
MTEXT
  5
18610
330
14F58
100
AcDbEntity
  8
寸法
 62
     7
 48
50.0
100
AcDbMText
 10
10329.60832743569
 20
8638.290651975621
 30
0.0
 40
120.0
 41
0.0
 71
     5
 72
     1
  1
\A1;853
  7
STYLE1
 73
     1
 44
1.0
1001
ACAD
1000
MTEXTBEGIN
1070
    73
1070
     1
1070
    44
1040
1.0
1070
    74
1070
     0
1000
MTEXTEND
  0
POINT
  5
18611
330
14F58
100
AcDbEntity
  8
DEFPOINTS
 62
     0
 48
50.0
100
AcDbPoint
 10
9950.261265317422
 20
8831.513306776598
 30
0.0
  0
POINT
  5
18612
330
14F58
100
AcDbEntity
  8
DEFPOINTS
 62
     0
 48
50.0
100
AcDbPoint
 10
10803.26126531743
 20
8831.51330677659
 30
0.0
  0
POINT
  5
18613
330
14F58
100
AcDbEntity
  8
DEFPOINTS
 62
     0
 48
50.0
100
AcDbPoint
 10
10724.692491761
 20
8538.290651975621
 30
0.0
  0
ENDBLK
  5
152ED
330
14F58
100
AcDbEntity
  8
0
 48
50.0
100
AcDbBlockEnd
  0
BLOCK
  5
1618F
330
14F64
100
AcDbEntity
  8
0
 48
50.0
100
AcDbBlockBegin
  2
*D11
 70
     1
 10
0.0
 20
0.0
 30
0.0
  3
*D11
  1

  0
LINE
  5
18602
330
14F64
100
AcDbEntity
  8
寸法
 62
     0
 48
50.0
370
    -2
100
AcDbLine
 10
10823.26126531742
 20
9276.154322927963
 30
0.0
 11
11218.61899117944
 21
9170.218539561828
 31
0.0
  0
LINE
  5
18603
330
14F64
100
AcDbEntity
  8
寸法
 62
     0
 48
50.0
370
    -2
100
AcDbLine
 10
10823.26126531742
 20
8826.154322927967
 30
0.0
 11
11218.61899117944
 21
8720.218539561832
 31
0.0
  0
LINE
  5
18604
330
14F64
100
AcDbEntity
  8
寸法
 62
     0
 48
50.0
370
    -2
100
AcDbLine
 10
11158.61899117944
 20
9186.295491107696
 30
0.0
 11
11158.61899117944
 21
8736.2954911077
 31
0.0
  0
INSERT
  5
18605
330
14F64
100
AcDbEntity
  8
寸法
 62
     0
 48
50.0
370
    -2
100
AcDbBlockReference
  2
_DOTSMALL
 10
11158.61899117944
 20
9186.295491107696
 30
0.0
 41
100.0
 42
100.0
 43
100.0
 50
90.0
  0
INSERT
  5
18606
330
14F64
100
AcDbEntity
  8
寸法
 62
     0
 48
50.0
370
    -2
100
AcDbBlockReference
  2
_DOTSMALL
 10
11158.61899117944
 20
8736.2954911077
 30
0.0
 41
100.0
 42
100.0
 43
100.0
 50
270.0
  0
MTEXT
  5
18607
330
14F64
100
AcDbEntity
  8
寸法
 62
     7
 48
50.0
100
AcDbMText
 10
11058.61899117944
 20
8961.2954911077
 30
0.0
 40
120.0
 41
0.0
 71
     5
 72
     1
  1
\A1;450
  7
STYLE1
 11
0.0000000000000001
 21
1.0
 31
0.0
 73
     1
 44
1.0
1001
ACAD
1000
MTEXTBEGIN
1070
    73
1070
     1
1070
    44
1040
1.0
1070
    74
1070
     0
1000
MTEXTEND
  0
POINT
  5
18608
330
14F64
100
AcDbEntity
  8
DEFPOINTS
 62
     0
 48
50.0
100
AcDbPoint
 10
10803.26126531742
 20
9281.513306776586
 30
0.0
  0
POINT
  5
18609
330
14F64
100
AcDbEntity
  8
DEFPOINTS
 62
     0
 48
50.0
100
AcDbPoint
 10
10803.26126531742
 20
8831.51330677659
 30
0.0
  0
POINT
  5
1860A
330
14F64
100
AcDbEntity
  8
DEFPOINTS
 62
     0
 48
50.0
100
AcDbPoint
 10
11158.61899117944
 20
8736.2954911077
 30
0.0
  0
ENDBLK
  5
16199
330
14F64
100
AcDbEntity
  8
0
 48
50.0
100
AcDbBlockEnd
  0
BLOCK
  5
16140
330
14F70
100
AcDbEntity
  8
0
 48
50.0
100
AcDbBlockBegin
  2
*D12
 70
     1
 10
0.0
 20
0.0
 30
0.0
  3
*D12
  1

  0
LINE
  5
185F9
330
14F70
100
AcDbEntity
  8
寸法
 62
     0
 48
50.0
370
    -2
100
AcDbLine
 10
10851.76126531742
 20
9256.513306776589
 30
0.0
 11
11539.18761105183
 21
9256.513306776589
 31
0.0
  0
LINE
  5
185FA
330
14F70
100
AcDbEntity
  8
寸法
 62
     0
 48
50.0
370
    -2
100
AcDbLine
 10
10851.76126531739
 20
7996.513306776574
 30
0.0
 11
11539.18761105183
 21
7996.513306776574
 31
0.0
  0
LINE
  5
185FB
330
14F70
100
AcDbEntity
  8
寸法
 62
     0
 48
50.0
370
    -2
100
AcDbLine
 10
11479.18761105183
 20
9256.513306776589
 30
0.0
 11
11479.18761105183
 21
7996.513306776574
 31
0.0
  0
INSERT
  5
185FC
330
14F70
100
AcDbEntity
  8
寸法
 62
     0
 48
50.0
370
    -2
100
AcDbBlockReference
  2
_DOTSMALL
 10
11479.18761105183
 20
9256.513306776589
 30
0.0
 41
100.0
 42
100.0
 43
100.0
 50
90.0
  0
INSERT
  5
185FD
330
14F70
100
AcDbEntity
  8
寸法
 62
     0
 48
50.0
370
    -2
100
AcDbBlockReference
  2
_DOTSMALL
 10
11479.18761105183
 20
7996.513306776574
 30
0.0
 41
100.0
 42
100.0
 43
100.0
 50
270.0
  0
MTEXT
  5
185FE
330
14F70
100
AcDbEntity
  8
寸法
 62
     7
 48
50.0
100
AcDbMText
 10
11379.17580002821
 20
8626.513306776582
 30
0.0
 40
120.0
 41
0.0
 71
     5
 72
     1
  1
\A1;3X420=1260
  7
STYLE1
 11
0.0000000000000001
 21
1.0
 31
0.0
 73
     1
 44
1.0
1001
ACAD
1000
MTEXTBEGIN
1070
    73
1070
     1
1070
    44
1040
1.0
1070
    74
1070
     0
1000
MTEXTEND
  0
POINT
  5
185FF
330
14F70
100
AcDbEntity
  8
DEFPOINTS
 62
     0
 48
50.0
100
AcDbPoint
 10
10831.76126531742
 20
9256.513306776589
 30
0.0
  0
POINT
  5
18600
330
14F70
100
AcDbEntity
  8
DEFPOINTS
 62
     0
 48
50.0
100
AcDbPoint
 10
10831.76126531739
 20
7996.513306776574
 30
0.0
  0
POINT
  5
18601
330
14F70
100
AcDbEntity
  8
DEFPOINTS
 62
     0
 48
50.0
100
AcDbPoint
 10
11479.18761105183
 20
7996.513306776574
 30
0.0
  0
ENDBLK
  5
1614A
330
14F70
100
AcDbEntity
  8
0
 48
50.0
100
AcDbBlockEnd
  0
BLOCK
  5
156EF
330
156C1
100
AcDbEntity
  8
0
 48
50.0
100
AcDbBlockBegin
  2
*D13
 70
     1
 10
0.0
 20
0.0
 30
0.0
  3
*D13
  1

  0
LINE
  5
17226
330
156C1
100
AcDbEntity
  8
寸法
 62
     0
 48
50.0
370
    -2
100
AcDbLine
 10
8629.761265317414
 20
4480.931598713261
 30
0.0
 11
8268.536458846403
 21
4480.931598713261
 31
0.0
  0
LINE
  5
17227
330
156C1
100
AcDbEntity
  8
寸法
 62
     0
 48
50.0
370
    -2
100
AcDbLine
 10
8629.761265317414
 20
2755.931598713261
 30
0.0
 11
8268.5364588464
 21
2755.931598713261
 31
0.0
  0
LINE
  5
17228
330
156C1
100
AcDbEntity
  8
寸法
 62
     0
 48
50.0
370
    -2
100
AcDbLine
 10
8328.536458846402
 20
4480.931598713261
 30
0.0
 11
8328.5364588464
 21
2755.931598713261
 31
0.0
  0
INSERT
  5
17229
330
156C1
100
AcDbEntity
  8
寸法
 62
     0
 48
50.0
370
    -2
100
AcDbBlockReference
  2
_DOTSMALL
 10
8328.536458846402
 20
4480.931598713261
 30
0.0
 41
100.0
 42
100.0
 43
100.0
 50
90.0
  0
INSERT
  5
1722A
330
156C1
100
AcDbEntity
  8
寸法
 62
     0
 48
50.0
370
    -2
100
AcDbBlockReference
  2
_DOTSMALL
 10
8328.5364588464
 20
2755.931598713261
 30
0.0
 41
100.0
 42
100.0
 43
100.0
 50
270.0
  0
MTEXT
  5
1722B
330
156C1
100
AcDbEntity
  8
寸法
 62
     7
 48
50.0
100
AcDbMText
 10
8228.524647822778
 20
3657.860218922222
 30
0.0
 40
120.0
 41
0.0
 71
     5
 72
     1
  1
\A1;有効開口部高サ1725
  7
STYLE1
 11
0.0000000000000001
 21
1.0
 31
0.0
 73
     1
 44
1.0
1001
ACAD
1000
MTEXTBEGIN
1070
    73
1070
     1
1070
    44
1040
1.0
1070
    74
1070
     0
1000
MTEXTEND
  0
POINT
  5
1722C
330
156C1
100
AcDbEntity
  8
DEFPOINTS
 62
     0
 48
50.0
100
AcDbPoint
 10
8649.761265317414
 20
4480.931598713261
 30
0.0
  0
POINT
  5
1722D
330
156C1
100
AcDbEntity
  8
DEFPOINTS
 62
     0
 48
50.0
100
AcDbPoint
 10
8649.761265317414
 20
2755.931598713261
 30
0.0
  0
POINT
  5
1722E
330
156C1
100
AcDbEntity
  8
DEFPOINTS
 62
     0
 48
50.0
100
AcDbPoint
 10
8328.5364588464
 20
2755.931598713261
 30
0.0
  0
ENDBLK
  5
156F9
330
156C1
100
AcDbEntity
  8
0
 48
50.0
100
AcDbBlockEnd
  0
BLOCK
  5
163FF
330
163FE
100
AcDbEntity
  8
0
 48
50.0
100
AcDbBlockBegin
  2
_DOT
 70
     0
 10
0.0
 20
0.0
 30
0.0
  3
_DOT
  1

  0
LWPOLYLINE
  5
16400
330
163FE
100
AcDbEntity
  8
0
  6
ByBlock
 62
     0
 48
50.0
100
AcDbPolyline
 90
        2
 70
     1
 43
0.5
 10
-0.25
 20
0.0
 42
1.0
 10
0.25
 20
0.0
 42
1.0
  0
LINE
  5
16401
330
163FE
100
AcDbEntity
  8
0
  6
ByBlock
 62
     0
 48
50.0
100
AcDbLine
 10
-0.5
 20
0.0
 30
0.0
 11
-1.0
 21
0.0
 31
0.0
  0
ENDBLK
  5
16402
330
163FE
100
AcDbEntity
  8
0
 48
50.0
100
AcDbBlockEnd
  0
BLOCK
  5
17189
330
1717F
100
AcDbEntity
  8
0
 48
50.0
100
AcDbBlockBegin
  2
*D15
 70
     1
 10
0.0
 20
0.0
 30
0.0
  3
*D15
  1

  0
LINE
  5
173DC
330
1717F
100
AcDbEntity
  8
寸法
 62
     0
 48
50.0
370
    -2
100
AcDbLine
 10
8571.761265317414
 20
4792.931598713266
 30
0.0
 11
8571.761265317414
 21
5448.55086767118
 31
0.0
  0
LINE
  5
173DD
330
1717F
100
AcDbEntity
  8
寸法
 62
     0
 48
50.0
370
    -2
100
AcDbLine
 10
10881.76126531741
 20
4792.931598713264
 30
0.0
 11
10881.76126531741
 21
5448.55086767118
 31
0.0
  0
LINE
  5
173DE
330
1717F
100
AcDbEntity
  8
寸法
 62
     0
 48
50.0
370
    -2
100
AcDbLine
 10
8571.761265317414
 20
5388.55086767118
 30
0.0
 11
10881.76126531741
 21
5388.55086767118
 31
0.0
  0
INSERT
  5
173DF
330
1717F
100
AcDbEntity
  8
寸法
 62
     0
 48
50.0
370
    -2
100
AcDbBlockReference
  2
_DOTSMALL
 10
8571.761265317414
 20
5388.55086767118
 30
0.0
 41
100.0
 42
100.0
 43
100.0
 50
180.0
  0
INSERT
  5
173E0
330
1717F
100
AcDbEntity
  8
寸法
 62
     0
 48
50.0
370
    -2
100
AcDbBlockReference
  2
_DOTSMALL
 10
10881.76126531741
 20
5388.55086767118
 30
0.0
 41
100.0
 42
100.0
 43
100.0
  0
MTEXT
  5
173E1
330
1717F
100
AcDbEntity
  8
寸法
 62
     7
 48
50.0
100
AcDbMText
 10
9726.761265317415
 20
5488.562678694801
 30
0.0
 40
120.0
 41
0.0
 71
     5
 72
     1
  1
\A1;2310
  7
STYLE1
 73
     1
 44
1.0
1001
ACAD
1000
MTEXTBEGIN
1070
    73
1070
     1
1070
    44
1040
1.0
1070
    74
1070
     0
1000
MTEXTEND
  0
POINT
  5
173E2
330
1717F
100
AcDbEntity
  8
DEFPOINTS
 62
     0
 48
50.0
100
AcDbPoint
 10
8571.761265317414
 20
4772.931598713267
 30
0.0
  0
POINT
  5
173E3
330
1717F
100
AcDbEntity
  8
DEFPOINTS
 62
     0
 48
50.0
100
AcDbPoint
 10
10881.76126531741
 20
4772.931598713264
 30
0.0
  0
POINT
  5
173E4
330
1717F
100
AcDbEntity
  8
DEFPOINTS
 62
     0
 48
50.0
100
AcDbPoint
 10
10881.76126531741
 20
5388.55086767118
 30
0.0
  0
ENDBLK
  5
1718A
330
1717F
100
AcDbEntity
  8
0
 48
50.0
100
AcDbBlockEnd
  0
BLOCK
  5
17197
330
1718B
100
AcDbEntity
  8
0
 48
50.0
100
AcDbBlockBegin
  2
*D16
 70
     1
 10
0.0
 20
0.0
 30
0.0
  3
*D16
  1

  0
LINE
  5
171AE
330
1718B
100
AcDbEntity
  8
寸法
 62
     0
 48
50.0
370
    -2
100
AcDbLine
 10
8621.761265317415
 20
4792.931598713267
 30
0.0
 11
8621.761265317415
 21
5232.024768052735
 31
0.0
  0
LINE
  5
171AF
330
1718B
100
AcDbEntity
  8
寸法
 62
     0
 48
50.0
370
    -2
100
AcDbLine
 10
8571.761265317414
 20
4792.931598713266
 30
0.0
 11
8571.761265317414
 21
5232.024768052735
 31
0.0
  0
LINE
  5
171B0
330
1718B
100
AcDbEntity
  8
寸法
 62
     0
 48
50.0
370
    -2
100
AcDbLine
 10
8621.761265317415
 20
5172.024768052734
 30
0.0
 11
8721.761265317415
 21
5172.024768052734
 31
0.0
  0
LINE
  5
171B1
330
1718B
100
AcDbEntity
  8
寸法
 62
     0
 48
50.0
370
    -2
100
AcDbLine
 10
8571.761265317414
 20
5172.024768052734
 30
0.0
 11
8152.228739848679
 21
5172.024768052734
 31
0.0
  0
LINE
  5
171B2
330
1718B
100
AcDbEntity
  8
寸法
 62
     0
 48
50.0
370
    -2
100
AcDbLine
 10
8621.761265317415
 20
5172.024768052734
 30
0.0
 11
8571.761265317414
 21
5172.024768052734
 31
0.0
  0
INSERT
  5
171B3
330
1718B
100
AcDbEntity
  8
寸法
 62
     0
 48
50.0
370
    -2
100
AcDbBlockReference
  2
_DOTSMALL
 10
8621.761265317415
 20
5172.024768052734
 30
0.0
 41
100.0
 42
100.0
 43
100.0
 50
180.0
  0
INSERT
  5
171B4
330
1718B
100
AcDbEntity
  8
寸法
 62
     0
 48
50.0
370
    -2
100
AcDbBlockReference
  2
_DOTSMALL
 10
8571.761265317414
 20
5172.024768052734
 30
0.0
 41
100.0
 42
100.0
 43
100.0
  0
MTEXT
  5
171B5
330
1718B
100
AcDbEntity
  8
寸法
 62
     7
 48
50.0
100
AcDbMText
 10
8258.275983943168
 20
5272.024768052734
 30
0.0
 40
120.0
 41
0.0
 71
     5
 72
     1
  1
\A1;50
  7
STYLE1
 73
     1
 44
1.0
1001
ACAD
1000
MTEXTBEGIN
1070
    73
1070
     1
1070
    44
1040
1.0
1070
    74
1070
     0
1000
MTEXTEND
  0
POINT
  5
171B6
330
1718B
100
AcDbEntity
  8
DEFPOINTS
 62
     0
 48
50.0
100
AcDbPoint
 10
8621.761265317415
 20
4772.931598713268
 30
0.0
  0
POINT
  5
171B7
330
1718B
100
AcDbEntity
  8
DEFPOINTS
 62
     0
 48
50.0
100
AcDbPoint
 10
8571.761265317414
 20
4772.931598713267
 30
0.0
  0
POINT
  5
171B8
330
1718B
100
AcDbEntity
  8
DEFPOINTS
 62
     0
 48
50.0
100
AcDbPoint
 10
8571.761265317414
 20
5172.024768052734
 30
0.0
  0
ENDBLK
  5
17198
330
1718B
100
AcDbEntity
  8
0
 48
50.0
100
AcDbBlockEnd
  0
BLOCK
  5
171A3
330
17199
100
AcDbEntity
  8
0
 48
50.0
100
AcDbBlockBegin
  2
*D17
 70
     1
 10
0.0
 20
0.0
 30
0.0
  3
*D17
  1

  0
LINE
  5
173E5
330
17199
100
AcDbEntity
  8
寸法
 62
     0
 48
50.0
370
    -2
100
AcDbLine
 10
10831.76126531741
 20
4792.931598713266
 30
0.0
 11
10831.76126531741
 21
5232.024768052735
 31
0.0
  0
LINE
  5
173E6
330
17199
100
AcDbEntity
  8
寸法
 62
     0
 48
50.0
370
    -2
100
AcDbLine
 10
8621.761265317415
 20
4792.931598713267
 30
0.0
 11
8621.761265317415
 21
5232.024768052735
 31
0.0
  0
LINE
  5
173E7
330
17199
100
AcDbEntity
  8
寸法
 62
     0
 48
50.0
370
    -2
100
AcDbLine
 10
10831.76126531741
 20
5172.024768052734
 30
0.0
 11
8621.761265317415
 21
5172.024768052734
 31
0.0
  0
INSERT
  5
173E8
330
17199
100
AcDbEntity
  8
寸法
 62
     0
 48
50.0
370
    -2
100
AcDbBlockReference
  2
_DOTSMALL
 10
10831.76126531741
 20
5172.024768052734
 30
0.0
 41
100.0
 42
100.0
 43
100.0
  0
INSERT
  5
173E9
330
17199
100
AcDbEntity
  8
寸法
 62
     0
 48
50.0
370
    -2
100
AcDbBlockReference
  2
_DOTSMALL
 10
8621.761265317415
 20
5172.024768052734
 30
0.0
 41
100.0
 42
100.0
 43
100.0
 50
180.0
  0
MTEXT
  5
173EA
330
17199
100
AcDbEntity
  8
寸法
 62
     7
 48
50.0
100
AcDbMText
 10
9726.761265317415
 20
5272.036579076356
 30
0.0
 40
120.0
 41
0.0
 71
     5
 72
     1
  1
\A1;柱外寸法2210
  7
STYLE1
 73
     1
 44
1.0
1001
ACAD
1000
MTEXTBEGIN
1070
    73
1070
     1
1070
    44
1040
1.0
1070
    74
1070
     0
1000
MTEXTEND
  0
POINT
  5
173EB
330
17199
100
AcDbEntity
  8
DEFPOINTS
 62
     0
 48
50.0
100
AcDbPoint
 10
10831.76126531741
 20
4772.931598713267
 30
0.0
  0
POINT
  5
173EC
330
17199
100
AcDbEntity
  8
DEFPOINTS
 62
     0
 48
50.0
100
AcDbPoint
 10
8621.761265317415
 20
4772.931598713268
 30
0.0
  0
POINT
  5
173ED
330
17199
100
AcDbEntity
  8
DEFPOINTS
 62
     0
 48
50.0
100
AcDbPoint
 10
8621.761265317415
 20
5172.024768052734
 30
0.0
  0
ENDBLK
  5
171A4
330
17199
100
AcDbEntity
  8
0
 48
50.0
100
AcDbBlockEnd
  0
BLOCK
  5
171EA
330
171DE
100
AcDbEntity
  8
0
 48
50.0
100
AcDbBlockBegin
  2
*D18
 70
     1
 10
0.0
 20
0.0
 30
0.0
  3
*D18
  1

  0
LINE
  5
171EC
330
171DE
100
AcDbEntity
  8
寸法
 62
     0
 48
50.0
370
    -2
100
AcDbLine
 10
10881.76126531741
 20
4792.931598713264
 30
0.0
 11
10881.76126531741
 21
5232.024768052735
 31
0.0
  0
LINE
  5
171ED
330
171DE
100
AcDbEntity
  8
寸法
 62
     0
 48
50.0
370
    -2
100
AcDbLine
 10
10831.76126531741
 20
4792.931598713266
 30
0.0
 11
10831.76126531741
 21
5232.024768052735
 31
0.0
  0
LINE
  5
171EE
330
171DE
100
AcDbEntity
  8
寸法
 62
     0
 48
50.0
370
    -2
100
AcDbLine
 10
10831.76126531741
 20
5172.024768052734
 30
0.0
 11
10731.76126531741
 21
5172.024768052734
 31
0.0
  0
LINE
  5
171EF
330
171DE
100
AcDbEntity
  8
寸法
 62
     0
 48
50.0
370
    -2
100
AcDbLine
 10
10881.76126531741
 20
5172.024768052734
 30
0.0
 11
11301.29379078613
 21
5172.024768052734
 31
0.0
  0
LINE
  5
171F0
330
171DE
100
AcDbEntity
  8
寸法
 62
     0
 48
50.0
370
    -2
100
AcDbLine
 10
10831.76126531741
 20
5172.024768052734
 30
0.0
 11
10881.76126531741
 21
5172.024768052734
 31
0.0
  0
INSERT
  5
171F1
330
171DE
100
AcDbEntity
  8
寸法
 62
     0
 48
50.0
370
    -2
100
AcDbBlockReference
  2
_DOTSMALL
 10
10831.76126531741
 20
5172.024768052734
 30
0.0
 41
100.0
 42
100.0
 43
100.0
  0
INSERT
  5
171F2
330
171DE
100
AcDbEntity
  8
寸法
 62
     0
 48
50.0
370
    -2
100
AcDbBlockReference
  2
_DOTSMALL
 10
10881.76126531741
 20
5172.024768052734
 30
0.0
 41
100.0
 42
100.0
 43
100.0
 50
180.0
  0
MTEXT
  5
171F3
330
171DE
100
AcDbEntity
  8
寸法
 62
     7
 48
50.0
100
AcDbMText
 10
11195.24654669165
 20
5272.024768052734
 30
0.0
 40
120.0
 41
0.0
 71
     5
 72
     1
  1
\A1;50
  7
STYLE1
 73
     1
 44
1.0
1001
ACAD
1000
MTEXTBEGIN
1070
    73
1070
     1
1070
    44
1040
1.0
1070
    74
1070
     0
1000
MTEXTEND
  0
POINT
  5
171F4
330
171DE
100
AcDbEntity
  8
DEFPOINTS
 62
     0
 48
50.0
100
AcDbPoint
 10
10881.76126531741
 20
4772.931598713264
 30
0.0
  0
POINT
  5
171F5
330
171DE
100
AcDbEntity
  8
DEFPOINTS
 62
     0
 48
50.0
100
AcDbPoint
 10
10831.76126531741
 20
4772.931598713267
 30
0.0
  0
POINT
  5
171F6
330
171DE
100
AcDbEntity
  8
DEFPOINTS
 62
     0
 48
50.0
100
AcDbPoint
 10
10831.76126531741
 20
5172.024768052734
 30
0.0
  0
ENDBLK
  5
171EB
330
171DE
100
AcDbEntity
  8
0
 48
50.0
100
AcDbBlockEnd
  0
BLOCK
  5
172DD
330
172D1
100
AcDbEntity
  8
0
 48
50.0
100
AcDbBlockBegin
  2
*D19
 70
     1
 10
0.0
 20
0.0
 30
0.0
  3
*D19
  1

  0
LINE
  5
17368
330
172D1
100
AcDbEntity
  8
寸法
 62
     0
 48
50.0
370
    -2
100
AcDbLine
 10
5412.739846957169
 20
2747.931598713261
 30
0.0
 11
4749.087137798873
 21
2747.931598713261
 31
0.0
  0
LINE
  5
17369
330
172D1
100
AcDbEntity
  8
寸法
 62
     0
 48
50.0
370
    -2
100
AcDbLine
 10
5357.739846957169
 20
2697.931598713261
 30
0.0
 11
4749.087137798873
 21
2697.931598713261
 31
0.0
  0
LINE
  5
1736A
330
172D1
100
AcDbEntity
  8
寸法
 62
     0
 48
50.0
370
    -2
100
AcDbLine
 10
4809.087137798872
 20
2747.931598713261
 30
0.0
 11
4809.087137798872
 21
2847.931598713261
 31
0.0
  0
LINE
  5
1736B
330
172D1
100
AcDbEntity
  8
寸法
 62
     0
 48
50.0
370
    -2
100
AcDbLine
 10
4809.087137798872
 20
2697.931598713261
 30
0.0
 11
4809.087137798872
 21
2285.83711052428
 31
0.0
  0
LINE
  5
1736C
330
172D1
100
AcDbEntity
  8
寸法
 62
     0
 48
50.0
370
    -2
100
AcDbLine
 10
4809.087137798872
 20
2747.931598713261
 30
0.0
 11
4809.087137798872
 21
2697.931598713261
 31
0.0
  0
INSERT
  5
1736D
330
172D1
100
AcDbEntity
  8
寸法
 62
     0
 48
50.0
370
    -2
100
AcDbBlockReference
  2
_DOTSMALL
 10
4809.087137798872
 20
2747.931598713261
 30
0.0
 41
100.0
 42
100.0
 43
100.0
 50
270.0
  0
INSERT
  5
1736E
330
172D1
100
AcDbEntity
  8
寸法
 62
     0
 48
50.0
370
    -2
100
AcDbBlockReference
  2
_DOTSMALL
 10
4809.087137798872
 20
2697.931598713261
 30
0.0
 41
100.0
 42
100.0
 43
100.0
 50
90.0
  0
MTEXT
  5
1736F
330
172D1
100
AcDbEntity
  8
寸法
 62
     7
 48
50.0
100
AcDbMText
 10
4709.087137798871
 20
2391.884354618768
 30
0.0
 40
120.0
 41
0.0
 71
     5
 72
     1
  1
\A1;50
  7
STYLE1
 11
0.0000000000000001
 21
1.0
 31
0.0
 73
     1
 44
1.0
1001
ACAD
1000
MTEXTBEGIN
1070
    73
1070
     1
1070
    44
1040
1.0
1070
    74
1070
     0
1000
MTEXTEND
  0
POINT
  5
17370
330
172D1
100
AcDbEntity
  8
DEFPOINTS
 62
     0
 48
50.0
100
AcDbPoint
 10
5432.739846957169
 20
2747.931598713261
 30
0.0
  0
POINT
  5
17371
330
172D1
100
AcDbEntity
  8
DEFPOINTS
 62
     0
 48
50.0
100
AcDbPoint
 10
5377.739846957169
 20
2697.931598713261
 30
0.0
  0
POINT
  5
17372
330
172D1
100
AcDbEntity
  8
DEFPOINTS
 62
     0
 48
50.0
100
AcDbPoint
 10
4809.087137798872
 20
2697.931598713261
 30
0.0
  0
ENDBLK
  5
172DE
330
172D1
100
AcDbEntity
  8
0
 48
50.0
100
AcDbBlockEnd
  0
BLOCK
  5
172EA
330
172DF
100
AcDbEntity
  8
0
 48
50.0
100
AcDbBlockBegin
  2
*D20
 70
     1
 10
0.0
 20
0.0
 30
0.0
  3
*D20
  1

  0
LINE
  5
17373
330
172DF
100
AcDbEntity
  8
寸法
 62
     0
 48
50.0
370
    -2
100
AcDbLine
 10
5357.739846957169
 20
2697.931598713261
 30
0.0
 11
4464.100465027811
 21
2697.931598713261
 31
0.0
  0
LINE
  5
17374
330
172DF
100
AcDbEntity
  8
寸法
 62
     0
 48
50.0
370
    -2
100
AcDbLine
 10
4789.087137798872
 20
2597.931598713261
 30
0.0
 11
4464.100465027811
 21
2597.931598713261
 31
0.0
  0
LINE
  5
17375
330
172DF
100
AcDbEntity
  8
寸法
 62
     0
 48
50.0
370
    -2
100
AcDbLine
 10
4524.10046502781
 20
2697.931598713261
 30
0.0
 11
4524.10046502781
 21
2597.931598713261
 31
0.0
  0
LINE
  5
17376
330
172DF
100
AcDbEntity
  8
寸法
 62
     0
 48
50.0
370
    -2
100
AcDbLine
 10
4524.10046502781
 20
2597.931598713261
 30
0.0
 11
4524.10046502781
 21
2225.837110524279
 31
0.0
  0
INSERT
  5
17377
330
172DF
100
AcDbEntity
  8
寸法
 62
     0
 48
50.0
370
    -2
100
AcDbBlockReference
  2
_DOTSMALL
 10
4524.10046502781
 20
2697.931598713261
 30
0.0
 41
100.0
 42
100.0
 43
100.0
 50
90.0
  0
INSERT
  5
17378
330
172DF
100
AcDbEntity
  8
寸法
 62
     0
 48
50.0
370
    -2
100
AcDbBlockReference
  2
_DOTSMALL
 10
4524.10046502781
 20
2597.931598713261
 30
0.0
 41
100.0
 42
100.0
 43
100.0
 50
270.0
  0
MTEXT
  5
17379
330
172DF
100
AcDbEntity
  8
寸法
 62
     7
 48
50.0
100
AcDbMText
 10
4424.10046502781
 20
2361.884354618768
 30
0.0
 40
120.0
 41
0.0
 71
     5
 72
     1
  1
\A1;100
  7
STYLE1
 11
0.0000000000000001
 21
1.0
 31
0.0
 73
     1
 44
1.0
1001
ACAD
1000
MTEXTBEGIN
1070
    73
1070
     1
1070
    44
1040
1.0
1070
    74
1070
     0
1000
MTEXTEND
  0
POINT
  5
1737A
330
172DF
100
AcDbEntity
  8
DEFPOINTS
 62
     0
 48
50.0
100
AcDbPoint
 10
5377.739846957169
 20
2697.931598713261
 30
0.0
  0
POINT
  5
1737B
330
172DF
100
AcDbEntity
  8
DEFPOINTS
 62
     0
 48
50.0
100
AcDbPoint
 10
4809.087137798872
 20
2597.931598713261
 30
0.0
  0
POINT
  5
1737C
330
172DF
100
AcDbEntity
  8
DEFPOINTS
 62
     0
 48
50.0
100
AcDbPoint
 10
4524.10046502781
 20
2597.931598713261
 30
0.0
  0
ENDBLK
  5
172EB
330
172DF
100
AcDbEntity
  8
0
 48
50.0
100
AcDbBlockEnd
  0
BLOCK
  5
172F6
330
172EC
100
AcDbEntity
  8
0
 48
50.0
100
AcDbBlockBegin
  2
*D21
 70
     1
 10
0.0
 20
0.0
 30
0.0
  3
*D21
  1

  0
LINE
  5
1737D
330
172EC
100
AcDbEntity
  8
寸法
 62
     0
 48
50.0
370
    -2
100
AcDbLine
 10
5412.739846957169
 20
2697.931598713261
 30
0.0
 11
4464.100465027811
 21
2697.931598713261
 31
0.0
  0
LINE
  5
1737E
330
172EC
100
AcDbEntity
  8
寸法
 62
     0
 48
50.0
370
    -2
100
AcDbLine
 10
5352.739846957169
 20
4772.931598713265
 30
0.0
 11
4464.100465027811
 21
4772.931598713265
 31
0.0
  0
LINE
  5
1737F
330
172EC
100
AcDbEntity
  8
寸法
 62
     0
 48
50.0
370
    -2
100
AcDbLine
 10
4524.10046502781
 20
2697.931598713261
 30
0.0
 11
4524.10046502781
 21
4772.931598713265
 31
0.0
  0
INSERT
  5
17380
330
172EC
100
AcDbEntity
  8
寸法
 62
     0
 48
50.0
370
    -2
100
AcDbBlockReference
  2
_DOTSMALL
 10
4524.10046502781
 20
2697.931598713261
 30
0.0
 41
100.0
 42
100.0
 43
100.0
 50
270.0
  0
INSERT
  5
17381
330
172EC
100
AcDbEntity
  8
寸法
 62
     0
 48
50.0
370
    -2
100
AcDbBlockReference
  2
_DOTSMALL
 10
4524.10046502781
 20
4772.931598713265
 30
0.0
 41
100.0
 42
100.0
 43
100.0
 50
90.0
  0
MTEXT
  5
17382
330
172EC
100
AcDbEntity
  8
寸法
 62
     7
 48
50.0
100
AcDbMText
 10
4424.088654004188
 20
3692.137476206371
 30
0.0
 40
120.0
 41
0.0
 71
     5
 72
     1
  1
\A1;2075
  7
STYLE1
 11
0.0000000000000001
 21
1.0
 31
0.0
 73
     1
 44
1.0
1001
ACAD
1000
MTEXTBEGIN
1070
    73
1070
     1
1070
    44
1040
1.0
1070
    74
1070
     0
1000
MTEXTEND
  0
POINT
  5
17383
330
172EC
100
AcDbEntity
  8
DEFPOINTS
 62
     0
 48
50.0
100
AcDbPoint
 10
5432.739846957169
 20
2697.931598713261
 30
0.0
  0
POINT
  5
17384
330
172EC
100
AcDbEntity
  8
DEFPOINTS
 62
     0
 48
50.0
100
AcDbPoint
 10
5372.739846957169
 20
4772.931598713265
 30
0.0
  0
POINT
  5
17385
330
172EC
100
AcDbEntity
  8
DEFPOINTS
 62
     0
 48
50.0
100
AcDbPoint
 10
4524.10046502781
 20
4772.931598713265
 30
0.0
  0
ENDBLK
  5
172F7
330
172EC
100
AcDbEntity
  8
0
 48
50.0
100
AcDbBlockEnd
  0
BLOCK
  5
17302
330
172F8
100
AcDbEntity
  8
0
 48
50.0
100
AcDbBlockBegin
  2
*D22
 70
     1
 10
0.0
 20
0.0
 30
0.0
  3
*D22
  1

  0
LINE
  5
17386
330
172F8
100
AcDbEntity
  8
寸法
 62
     0
 48
50.0
370
    -2
100
AcDbLine
 10
5412.739846957169
 20
4537.93159871326
 30
0.0
 11
4749.087137798873
 21
4537.93159871326
 31
0.0
  0
LINE
  5
17387
330
172F8
100
AcDbEntity
  8
寸法
 62
     0
 48
50.0
370
    -2
100
AcDbLine
 10
5412.739846957169
 20
2747.931598713261
 30
0.0
 11
4749.087137798873
 21
2747.931598713261
 31
0.0
  0
LINE
  5
17388
330
172F8
100
AcDbEntity
  8
寸法
 62
     0
 48
50.0
370
    -2
100
AcDbLine
 10
4809.087137798872
 20
4537.93159871326
 30
0.0
 11
4809.087137798872
 21
2747.931598713261
 31
0.0
  0
INSERT
  5
17389
330
172F8
100
AcDbEntity
  8
寸法
 62
     0
 48
50.0
370
    -2
100
AcDbBlockReference
  2
_DOTSMALL
 10
4809.087137798872
 20
4537.93159871326
 30
0.0
 41
100.0
 42
100.0
 43
100.0
 50
90.0
  0
INSERT
  5
1738A
330
172F8
100
AcDbEntity
  8
寸法
 62
     0
 48
50.0
370
    -2
100
AcDbBlockReference
  2
_DOTSMALL
 10
4809.087137798872
 20
2747.931598713261
 30
0.0
 41
100.0
 42
100.0
 43
100.0
 50
270.0
  0
MTEXT
  5
1738B
330
172F8
100
AcDbEntity
  8
寸法
 62
     7
 48
50.0
100
AcDbMText
 10
4709.087137798871
 20
3638.385897255218
 30
0.0
 40
120.0
 41
0.0
 71
     5
 72
     1
  1
\A1;1790
  7
STYLE1
 11
0.0000000000000001
 21
1.0
 31
0.0
 73
     1
 44
1.0
1001
ACAD
1000
MTEXTBEGIN
1070
    73
1070
     1
1070
    44
1040
1.0
1070
    74
1070
     0
1000
MTEXTEND
  0
POINT
  5
1738C
330
172F8
100
AcDbEntity
  8
DEFPOINTS
 62
     0
 48
50.0
100
AcDbPoint
 10
5432.739846957169
 20
4537.93159871326
 30
0.0
  0
POINT
  5
1738D
330
172F8
100
AcDbEntity
  8
DEFPOINTS
 62
     0
 48
50.0
100
AcDbPoint
 10
5432.739846957169
 20
2747.931598713261
 30
0.0
  0
POINT
  5
1738E
330
172F8
100
AcDbEntity
  8
DEFPOINTS
 62
     0
 48
50.0
100
AcDbPoint
 10
4809.087137798872
 20
2747.931598713261
 30
0.0
  0
ENDBLK
  5
17303
330
172F8
100
AcDbEntity
  8
0
 48
50.0
100
AcDbBlockEnd
  0
BLOCK
  5
1730E
330
17304
100
AcDbEntity
  8
0
 48
50.0
100
AcDbBlockBegin
  2
*D23
 70
     1
 10
0.0
 20
0.0
 30
0.0
  3
*D23
  1

  0
LINE
  5
1738F
330
17304
100
AcDbEntity
  8
寸法
 62
     0
 48
50.0
370
    -2
100
AcDbLine
 10
6899.739846957174
 20
2697.931598713261
 30
0.0
 11
7567.667004929297
 21
2697.93159871326
 31
0.0
  0
LINE
  5
17390
330
17304
100
AcDbEntity
  8
寸法
 62
     0
 48
50.0
370
    -2
100
AcDbLine
 10
6902.739846957169
 20
4717.931598713263
 30
0.0
 11
7567.667004929297
 21
4717.931598713263
 31
0.0
  0
LINE
  5
17391
330
17304
100
AcDbEntity
  8
寸法
 62
     0
 48
50.0
370
    -2
100
AcDbLine
 10
7507.667004929297
 20
2697.93159871326
 30
0.0
 11
7507.667004929297
 21
4717.931598713263
 31
0.0
  0
INSERT
  5
17392
330
17304
100
AcDbEntity
  8
寸法
 62
     0
 48
50.0
370
    -2
100
AcDbBlockReference
  2
_DOTSMALL
 10
7507.667004929297
 20
2697.93159871326
 30
0.0
 41
100.0
 42
100.0
 43
100.0
 50
270.0
  0
INSERT
  5
17393
330
17304
100
AcDbEntity
  8
寸法
 62
     0
 48
50.0
370
    -2
100
AcDbBlockReference
  2
_DOTSMALL
 10
7507.667004929297
 20
4717.931598713263
 30
0.0
 41
100.0
 42
100.0
 43
100.0
 50
90.0
  0
MTEXT
  5
17394
330
17304
100
AcDbEntity
  8
寸法
 62
     7
 48
50.0
100
AcDbMText
 10
7407.655193905674
 20
3707.931598713263
 30
0.0
 40
120.0
 41
0.0
 71
     5
 72
     1
  1
\A1;2020
  7
STYLE1
 11
0.0000000000000001
 21
1.0
 31
0.0
 73
     1
 44
1.0
1001
ACAD
1000
MTEXTBEGIN
1070
    73
1070
     1
1070
    44
1040
1.0
1070
    74
1070
     0
1000
MTEXTEND
  0
POINT
  5
17395
330
17304
100
AcDbEntity
  8
DEFPOINTS
 62
     0
 48
50.0
100
AcDbPoint
 10
6879.739846957173
 20
2697.931598713261
 30
0.0
  0
POINT
  5
17396
330
17304
100
AcDbEntity
  8
DEFPOINTS
 62
     0
 48
50.0
100
AcDbPoint
 10
6882.739846957169
 20
4717.931598713263
 30
0.0
  0
POINT
  5
17397
330
17304
100
AcDbEntity
  8
DEFPOINTS
 62
     0
 48
50.0
100
AcDbPoint
 10
7507.667004929297
 20
4717.931598713263
 30
0.0
  0
ENDBLK
  5
1730F
330
17304
100
AcDbEntity
  8
0
 48
50.0
100
AcDbBlockEnd
  0
BLOCK
  5
1731A
330
17310
100
AcDbEntity
  8
0
 48
50.0
100
AcDbBlockBegin
  2
*D24
 70
     1
 10
0.0
 20
0.0
 30
0.0
  3
*D24
  1

  0
LINE
  5
17398
330
17310
100
AcDbEntity
  8
寸法
 62
     0
 48
50.0
370
    -2
100
AcDbLine
 10
6802.73984695717
 20
4739.742278324914
 30
0.0
 11
6802.73984695717
 21
5231.589052292566
 31
0.0
  0
LINE
  5
17399
330
17310
100
AcDbEntity
  8
寸法
 62
     0
 48
50.0
370
    -2
100
AcDbLine
 10
5432.739846957169
 20
4788.933216836237
 30
0.0
 11
5432.739846957169
 21
5231.589052292566
 31
0.0
  0
LINE
  5
1739A
330
17310
100
AcDbEntity
  8
寸法
 62
     0
 48
50.0
370
    -2
100
AcDbLine
 10
6802.73984695717
 20
5171.589052292565
 30
0.0
 11
5432.739846957169
 21
5171.589052292565
 31
0.0
  0
INSERT
  5
1739B
330
17310
100
AcDbEntity
  8
寸法
 62
     0
 48
50.0
370
    -2
100
AcDbBlockReference
  2
_DOTSMALL
 10
6802.73984695717
 20
5171.589052292565
 30
0.0
 41
100.0
 42
100.0
 43
100.0
  0
INSERT
  5
1739C
330
17310
100
AcDbEntity
  8
寸法
 62
     0
 48
50.0
370
    -2
100
AcDbBlockReference
  2
_DOTSMALL
 10
5432.739846957169
 20
5171.589052292565
 30
0.0
 41
100.0
 42
100.0
 43
100.0
 50
180.0
  0
MTEXT
  5
1739D
330
17310
100
AcDbEntity
  8
寸法
 62
     7
 48
50.0
100
AcDbMText
 10
6082.558879847715
 20
5271.589052292565
 30
0.0
 40
120.0
 41
0.0
 71
     5
 72
     1
  1
\A1;柱外寸法1370
  7
STYLE1
 73
     1
 44
1.0
1001
ACAD
1000
MTEXTBEGIN
1070
    73
1070
     1
1070
    44
1040
1.0
1070
    74
1070
     0
1000
MTEXTEND
  0
POINT
  5
1739E
330
17310
100
AcDbEntity
  8
DEFPOINTS
 62
     0
 48
50.0
100
AcDbPoint
 10
6802.73984695717
 20
4719.742278324915
 30
0.0
  0
POINT
  5
1739F
330
17310
100
AcDbEntity
  8
DEFPOINTS
 62
     0
 48
50.0
100
AcDbPoint
 10
5432.739846957169
 20
4768.933216836238
 30
0.0
  0
POINT
  5
173A0
330
17310
100
AcDbEntity
  8
DEFPOINTS
 62
     0
 48
50.0
100
AcDbPoint
 10
5432.739846957169
 20
5171.589052292565
 30
0.0
  0
ENDBLK
  5
1731B
330
17310
100
AcDbEntity
  8
0
 48
50.0
100
AcDbBlockEnd
  0
BLOCK
  5
17328
330
1731C
100
AcDbEntity
  8
0
 48
50.0
100
AcDbBlockBegin
  2
*D25
 70
     1
 10
0.0
 20
0.0
 30
0.0
  3
*D25
  1

  0
LINE
  5
173A1
330
1731C
100
AcDbEntity
  8
寸法
 62
     0
 48
50.0
370
    -2
100
AcDbLine
 10
5432.739846957169
 20
4788.933216836237
 30
0.0
 11
5432.739846957169
 21
5231.589052292566
 31
0.0
  0
LINE
  5
173A2
330
1731C
100
AcDbEntity
  8
寸法
 62
     0
 48
50.0
370
    -2
100
AcDbLine
 10
5372.739846957169
 20
4792.931598713265
 30
0.0
 11
5372.739846957169
 21
5231.589052292566
 31
0.0
  0
LINE
  5
173A3
330
1731C
100
AcDbEntity
  8
寸法
 62
     0
 48
50.0
370
    -2
100
AcDbLine
 10
5432.739846957169
 20
5171.589052292565
 30
0.0
 11
5532.739846957169
 21
5171.589052292565
 31
0.0
  0
LINE
  5
173A4
330
1731C
100
AcDbEntity
  8
寸法
 62
     0
 48
50.0
370
    -2
100
AcDbLine
 10
5372.739846957169
 20
5171.589052292565
 30
0.0
 11
4953.464256405988
 21
5171.589052292565
 31
0.0
  0
LINE
  5
173A5
330
1731C
100
AcDbEntity
  8
寸法
 62
     0
 48
50.0
370
    -2
100
AcDbLine
 10
5432.739846957169
 20
5171.589052292565
 30
0.0
 11
5372.739846957169
 21
5171.589052292565
 31
0.0
  0
INSERT
  5
173A6
330
1731C
100
AcDbEntity
  8
寸法
 62
     0
 48
50.0
370
    -2
100
AcDbBlockReference
  2
_DOTSMALL
 10
5432.739846957169
 20
5171.589052292565
 30
0.0
 41
100.0
 42
100.0
 43
100.0
 50
180.0
  0
INSERT
  5
173A7
330
1731C
100
AcDbEntity
  8
寸法
 62
     0
 48
50.0
370
    -2
100
AcDbBlockReference
  2
_DOTSMALL
 10
5372.739846957169
 20
5171.589052292565
 30
0.0
 41
100.0
 42
100.0
 43
100.0
  0
MTEXT
  5
173A8
330
1731C
100
AcDbEntity
  8
寸法
 62
     7
 48
50.0
100
AcDbMText
 10
5063.102051681578
 20
5271.589052292565
 30
0.0
 40
120.0
 41
0.0
 71
     5
 72
     1
  1
\A1;60
  7
STYLE1
 73
     1
 44
1.0
1001
ACAD
1000
MTEXTBEGIN
1070
    73
1070
     1
1070
    44
1040
1.0
1070
    74
1070
     0
1000
MTEXTEND
  0
POINT
  5
173A9
330
1731C
100
AcDbEntity
  8
DEFPOINTS
 62
     0
 48
50.0
100
AcDbPoint
 10
5432.739846957169
 20
4768.933216836238
 30
0.0
  0
POINT
  5
173AA
330
1731C
100
AcDbEntity
  8
DEFPOINTS
 62
     0
 48
50.0
100
AcDbPoint
 10
5372.739846957169
 20
4772.931598713266
 30
0.0
  0
POINT
  5
173AB
330
1731C
100
AcDbEntity
  8
DEFPOINTS
 62
     0
 48
50.0
100
AcDbPoint
 10
5372.739846957169
 20
5171.589052292565
 30
0.0
  0
ENDBLK
  5
17329
330
1731C
100
AcDbEntity
  8
0
 48
50.0
100
AcDbBlockEnd
  0
BLOCK
  5
17334
330
1732A
100
AcDbEntity
  8
0
 48
50.0
100
AcDbBlockBegin
  2
*D26
 70
     1
 10
0.0
 20
0.0
 30
0.0
  3
*D26
  1

  0
LINE
  5
173AC
330
1732A
100
AcDbEntity
  8
寸法
 62
     0
 48
50.0
370
    -2
100
AcDbLine
 10
6882.739846957169
 20
4737.931598713262
 30
0.0
 11
6882.739846957169
 21
5439.763373484529
 31
0.0
  0
LINE
  5
173AD
330
1732A
100
AcDbEntity
  8
寸法
 62
     0
 48
50.0
370
    -2
100
AcDbLine
 10
5372.739846957169
 20
4792.931598713265
 30
0.0
 11
5372.739846957169
 21
5439.763373484529
 31
0.0
  0
LINE
  5
173AE
330
1732A
100
AcDbEntity
  8
寸法
 62
     0
 48
50.0
370
    -2
100
AcDbLine
 10
6882.739846957169
 20
5379.76337348453
 30
0.0
 11
5372.739846957169
 21
5379.76337348453
 31
0.0
  0
INSERT
  5
173AF
330
1732A
100
AcDbEntity
  8
寸法
 62
     0
 48
50.0
370
    -2
100
AcDbBlockReference
  2
_DOTSMALL
 10
6882.739846957169
 20
5379.76337348453
 30
0.0
 41
100.0
 42
100.0
 43
100.0
  0
INSERT
  5
173B0
330
1732A
100
AcDbEntity
  8
寸法
 62
     0
 48
50.0
370
    -2
100
AcDbBlockReference
  2
_DOTSMALL
 10
5372.739846957169
 20
5379.76337348453
 30
0.0
 41
100.0
 42
100.0
 43
100.0
 50
180.0
  0
MTEXT
  5
173B1
330
1732A
100
AcDbEntity
  8
寸法
 62
     7
 48
50.0
100
AcDbMText
 10
6099.864676658992
 20
5479.76337348453
 30
0.0
 40
120.0
 41
0.0
 71
     5
 72
     1
  1
\A1;1510
  7
STYLE1
 73
     1
 44
1.0
1001
ACAD
1000
MTEXTBEGIN
1070
    73
1070
     1
1070
    44
1040
1.0
1070
    74
1070
     0
1000
MTEXTEND
  0
POINT
  5
173B2
330
1732A
100
AcDbEntity
  8
DEFPOINTS
 62
     0
 48
50.0
100
AcDbPoint
 10
6882.739846957169
 20
4717.931598713263
 30
0.0
  0
POINT
  5
173B3
330
1732A
100
AcDbEntity
  8
DEFPOINTS
 62
     0
 48
50.0
100
AcDbPoint
 10
5372.739846957169
 20
4772.931598713266
 30
0.0
  0
POINT
  5
173B4
330
1732A
100
AcDbEntity
  8
DEFPOINTS
 62
     0
 48
50.0
100
AcDbPoint
 10
5372.739846957169
 20
5379.76337348453
 30
0.0
  0
ENDBLK
  5
17335
330
1732A
100
AcDbEntity
  8
0
 48
50.0
100
AcDbBlockEnd
  0
BLOCK
  5
17341
330
17336
100
AcDbEntity
  8
0
 48
50.0
100
AcDbBlockBegin
  2
*D27
 70
     1
 10
0.0
 20
0.0
 30
0.0
  3
*D27
  1

  0
LINE
  5
173B5
330
17336
100
AcDbEntity
  8
寸法
 62
     0
 48
50.0
370
    -2
100
AcDbLine
 10
6802.73984695717
 20
4739.742278324914
 30
0.0
 11
6802.73984695717
 21
5231.589052292566
 31
0.0
  0
LINE
  5
173B6
330
17336
100
AcDbEntity
  8
寸法
 62
     0
 48
50.0
370
    -2
100
AcDbLine
 10
6882.739846957169
 20
4737.931598713262
 30
0.0
 11
6882.739846957169
 21
5231.589052292566
 31
0.0
  0
LINE
  5
173B7
330
17336
100
AcDbEntity
  8
寸法
 62
     0
 48
50.0
370
    -2
100
AcDbLine
 10
6802.73984695717
 20
5171.589052292565
 30
0.0
 11
6882.739846957169
 21
5171.589052292565
 31
0.0
  0
LINE
  5
173B8
330
17336
100
AcDbEntity
  8
寸法
 62
     0
 48
50.0
370
    -2
100
AcDbLine
 10
6882.739846957169
 20
5171.589052292565
 30
0.0
 11
7194.834335146146
 21
5171.589052292565
 31
0.0
  0
INSERT
  5
173B9
330
17336
100
AcDbEntity
  8
寸法
 62
     0
 48
50.0
370
    -2
100
AcDbBlockReference
  2
_DOTSMALL
 10
6802.73984695717
 20
5171.589052292565
 30
0.0
 41
100.0
 42
100.0
 43
100.0
 50
180.0
  0
INSERT
  5
173BA
330
17336
100
AcDbEntity
  8
寸法
 62
     0
 48
50.0
370
    -2
100
AcDbBlockReference
  2
_DOTSMALL
 10
6882.739846957169
 20
5171.589052292565
 30
0.0
 41
100.0
 42
100.0
 43
100.0
  0
MTEXT
  5
173BB
330
17336
100
AcDbEntity
  8
寸法
 62
     7
 48
50.0
100
AcDbMText
 10
7088.787091051658
 20
5271.589052292565
 30
0.0
 40
120.0
 41
0.0
 71
     5
 72
     1
  1
\A1;80
  7
STYLE1
 73
     1
 44
1.0
1001
ACAD
1000
MTEXTBEGIN
1070
    73
1070
     1
1070
    44
1040
1.0
1070
    74
1070
     0
1000
MTEXTEND
  0
POINT
  5
173BC
330
17336
100
AcDbEntity
  8
DEFPOINTS
 62
     0
 48
50.0
100
AcDbPoint
 10
6802.73984695717
 20
4719.742278324915
 30
0.0
  0
POINT
  5
173BD
330
17336
100
AcDbEntity
  8
DEFPOINTS
 62
     0
 48
50.0
100
AcDbPoint
 10
6882.739846957169
 20
4717.931598713263
 30
0.0
  0
POINT
  5
173BE
330
17336
100
AcDbEntity
  8
DEFPOINTS
 62
     0
 48
50.0
100
AcDbPoint
 10
6882.739846957169
 20
5171.589052292565
 30
0.0
  0
ENDBLK
  5
17342
330
17336
100
AcDbEntity
  8
0
 48
50.0
100
AcDbBlockEnd
  0
BLOCK
  5
1734E
330
17343
100
AcDbEntity
  8
0
 48
50.0
100
AcDbBlockBegin
  2
*D28
 70
     1
 10
0.0
 20
0.0
 30
0.0
  3
*D28
  1

  0
LINE
  5
173BF
330
17343
100
AcDbEntity
  8
寸法
 62
     0
 48
50.0
370
    -2
100
AcDbLine
 10
5368.09665164467
 20
4631.467210186738
 30
0.0
 11
4715.19648135065
 21
4656.118241426717
 31
0.0
  0
LINE
  5
173C0
330
17343
100
AcDbEntity
  8
寸法
 62
     0
 48
50.0
370
    -2
100
AcDbLine
 10
5373.416485796624
 20
4772.36681758362
 30
0.0
 11
4720.516315502442
 21
4797.017848823605
 31
0.0
  0
LINE
  5
173C1
330
17343
100
AcDbEntity
  8
寸法
 62
     0
 48
50.0
370
    -2
100
AcDbLine
 10
4775.153761094006
 20
4653.854482213188
 30
0.0
 11
4780.473595245799
 21
4794.754089610075
 31
0.0
  0
LINE
  5
173C2
330
17343
100
AcDbEntity
  8
寸法
 62
     0
 48
50.0
370
    -2
100
AcDbLine
 10
4780.473595245799
 20
4794.754089610075
 30
0.0
 11
4794.056150526998
 21
5154.497768070915
 31
0.0
  0
INSERT
  5
173C3
330
17343
100
AcDbEntity
  8
寸法
 62
     0
 48
50.0
370
    -2
100
AcDbBlockReference
  2
_DOTSMALL
 10
4775.153761094006
 20
4653.854482213188
 30
0.0
 41
100.0
 42
100.0
 43
100.0
 50
267.8377559871574
  0
INSERT
  5
173C4
330
17343
100
AcDbEntity
  8
寸法
 62
     0
 48
50.0
370
    -2
100
AcDbBlockReference
  2
_DOTSMALL
 10
4780.473595245799
 20
4794.754089610075
 30
0.0
 41
100.0
 42
100.0
 43
100.0
 50
87.83775598715743
  0
MTEXT
  5
173C5
330
17343
100
AcDbEntity
  8
寸法
 62
     7
 48
50.0
100
AcDbMText
 10
4689.222539325425
 20
5028.363260649523
 30
0.0
 40
120.0
 41
0.0
 71
     5
 72
     1
  1
\A1;141
  7
STYLE1
 11
0.03772932022548
 21
0.9992879957226159
 31
0.0
 73
     1
 44
1.0
1001
ACAD
1000
MTEXTBEGIN
1070
    73
1070
     1
1070
    44
1040
1.0
1070
    74
1070
     0
1000
MTEXTEND
  0
POINT
  5
173C6
330
17343
100
AcDbEntity
  8
DEFPOINTS
 62
     0
 48
50.0
100
AcDbPoint
 10
5388.082411559121
 20
4630.712623782229
 30
0.0
  0
POINT
  5
173C7
330
17343
100
AcDbEntity
  8
DEFPOINTS
 62
     0
 48
50.0
100
AcDbPoint
 10
5393.402245711077
 20
4771.61223117911
 30
0.0
  0
POINT
  5
173C8
330
17343
100
AcDbEntity
  8
DEFPOINTS
 62
     0
 48
50.0
100
AcDbPoint
 10
4780.473595245799
 20
4794.754089610075
 30
0.0
  0
ENDBLK
  5
1734F
330
17343
100
AcDbEntity
  8
0
 48
50.0
100
AcDbBlockEnd
  0
BLOCK
  5
1735A
330
17350
100
AcDbEntity
  8
0
 48
50.0
100
AcDbBlockBegin
  2
*D29
 70
     1
 10
0.0
 20
0.0
 30
0.0
  3
*D29
  1

  0
LINE
  5
173C9
330
17350
100
AcDbEntity
  8
寸法
 62
     0
 48
50.0
370
    -2
100
AcDbLine
 10
5340.239846957171
 20
2397.93159871326
 30
0.0
 11
5150.739843710534
 21
2397.93159871326
 31
0.0
  0
LINE
  5
173CA
330
17350
100
AcDbEntity
  8
寸法
 62
     0
 48
50.0
370
    -2
100
AcDbLine
 10
5315.239846957169
 20
2597.931598713261
 30
0.0
 11
5150.739843710534
 21
2597.931598713261
 31
0.0
  0
LINE
  5
173CB
330
17350
100
AcDbEntity
  8
寸法
 62
     0
 48
50.0
370
    -2
100
AcDbLine
 10
5210.739843710534
 20
2397.93159871326
 30
0.0
 11
5210.739843710534
 21
2597.931598713261
 31
0.0
  0
INSERT
  5
173CC
330
17350
100
AcDbEntity
  8
寸法
 62
     0
 48
50.0
370
    -2
100
AcDbBlockReference
  2
_DOTSMALL
 10
5210.739843710534
 20
2397.93159871326
 30
0.0
 41
100.0
 42
100.0
 43
100.0
 50
270.0
  0
INSERT
  5
173CD
330
17350
100
AcDbEntity
  8
寸法
 62
     0
 48
50.0
370
    -2
100
AcDbBlockReference
  2
_DOTSMALL
 10
5210.739843710534
 20
2597.931598713261
 30
0.0
 41
100.0
 42
100.0
 43
100.0
 50
90.0
  0
MTEXT
  5
173CE
330
17350
100
AcDbEntity
  8
寸法
 62
     7
 48
50.0
100
AcDbMText
 10
5110.728032686911
 20
2497.931598713261
 30
0.0
 40
120.0
 41
0.0
 71
     5
 72
     1
  1
\A1;200
  7
STYLE1
 11
0.0000000000000001
 21
1.0
 31
0.0
 73
     1
 44
1.0
1001
ACAD
1000
MTEXTBEGIN
1070
    73
1070
     1
1070
    44
1040
1.0
1070
    74
1070
     0
1000
MTEXTEND
  0
POINT
  5
173CF
330
17350
100
AcDbEntity
  8
DEFPOINTS
 62
     0
 48
50.0
100
AcDbPoint
 10
5360.239846957171
 20
2397.93159871326
 30
0.0
  0
POINT
  5
173D0
330
17350
100
AcDbEntity
  8
DEFPOINTS
 62
     0
 48
50.0
100
AcDbPoint
 10
5335.239846957168
 20
2597.931598713261
 30
0.0
  0
POINT
  5
173D1
330
17350
100
AcDbEntity
  8
DEFPOINTS
 62
     0
 48
50.0
100
AcDbPoint
 10
5210.739843710534
 20
2597.931598713261
 30
0.0
  0
ENDBLK
  5
1735B
330
17350
100
AcDbEntity
  8
0
 48
50.0
100
AcDbBlockEnd
  0
BLOCK
  5
17366
330
1735C
100
AcDbEntity
  8
0
 48
50.0
100
AcDbBlockBegin
  2
*D30
 70
     1
 10
0.0
 20
0.0
 30
0.0
  3
*D30
  1

  0
LINE
  5
173D2
330
1735C
100
AcDbEntity
  8
寸法
 62
     0
 48
50.0
370
    -2
100
AcDbLine
 10
5560.239846957167
 20
2377.931598713259
 30
0.0
 11
5560.239846957167
 21
2051.884269412883
 31
0.0
  0
LINE
  5
173D3
330
1735C
100
AcDbEntity
  8
寸法
 62
     0
 48
50.0
370
    -2
100
AcDbLine
 10
5360.239846957171
 20
2377.93159871326
 30
0.0
 11
5360.239846957171
 21
2051.884269412883
 31
0.0
  0
LINE
  5
173D4
330
1735C
100
AcDbEntity
  8
寸法
 62
     0
 48
50.0
370
    -2
100
AcDbLine
 10
5560.239846957167
 20
2111.884269412883
 30
0.0
 11
5360.239846957171
 21
2111.884269412883
 31
0.0
  0
INSERT
  5
173D5
330
1735C
100
AcDbEntity
  8
寸法
 62
     0
 48
50.0
370
    -2
100
AcDbBlockReference
  2
_DOTSMALL
 10
5560.239846957167
 20
2111.884269412883
 30
0.0
 41
100.0
 42
100.0
 43
100.0
  0
INSERT
  5
173D6
330
1735C
100
AcDbEntity
  8
寸法
 62
     0
 48
50.0
370
    -2
100
AcDbBlockReference
  2
_DOTSMALL
 10
5360.239846957171
 20
2111.884269412883
 30
0.0
 41
100.0
 42
100.0
 43
100.0
 50
180.0
  0
MTEXT
  5
173D7
330
1735C
100
AcDbEntity
  8
寸法
 62
     7
 48
50.0
100
AcDbMText
 10
5460.239846957168
 20
2211.896080436505
 30
0.0
 40
120.0
 41
0.0
 71
     5
 72
     1
  1
\A1;200
  7
STYLE1
 73
     1
 44
1.0
1001
ACAD
1000
MTEXTBEGIN
1070
    73
1070
     1
1070
    44
1040
1.0
1070
    74
1070
     0
1000
MTEXTEND
  0
POINT
  5
173D8
330
1735C
100
AcDbEntity
  8
DEFPOINTS
 62
     0
 48
50.0
100
AcDbPoint
 10
5560.239846957167
 20
2397.931598713259
 30
0.0
  0
POINT
  5
173D9
330
1735C
100
AcDbEntity
  8
DEFPOINTS
 62
     0
 48
50.0
100
AcDbPoint
 10
5360.239846957171
 20
2397.93159871326
 30
0.0
  0
POINT
  5
173DA
330
1735C
100
AcDbEntity
  8
DEFPOINTS
 62
     0
 48
50.0
100
AcDbPoint
 10
5360.239846957171
 20
2111.884269412883
 30
0.0
  0
ENDBLK
  5
17367
330
1735C
100
AcDbEntity
  8
0
 48
50.0
100
AcDbBlockEnd
  0
BLOCK
  5
1811F
330
18115
100
AcDbEntity
  8
0
 48
50.0
100
AcDbBlockBegin
  2
*D31
 70
     1
 10
0.0
 20
0.0
 30
0.0
  3
*D31
  1

  0
LINE
  5
185F0
330
18115
100
AcDbEntity
  8
寸法
 62
     0
 48
50.0
370
    -2
100
AcDbLine
 10
8688.761265317364
 20
7844.513306776393
 30
0.0
 11
8688.761265317364
 21
7127.760480580201
 31
0.0
  0
LINE
  5
185F1
330
18115
100
AcDbEntity
  8
寸法
 62
     0
 48
50.0
370
    -2
100
AcDbLine
 10
9954.761265317365
 20
7844.513306776393
 30
0.0
 11
9954.761265317365
 21
7127.760480580201
 31
0.0
  0
LINE
  5
185F2
330
18115
100
AcDbEntity
  8
寸法
 62
     0
 48
50.0
370
    -2
100
AcDbLine
 10
8708.761265317363
 20
7167.760480580202
 30
0.0
 11
9934.761265317364
 21
7167.760480580202
 31
0.0
  0
INSERT
  5
185F3
330
18115
100
AcDbEntity
  8
寸法
 62
     0
 48
50.0
370
    -2
100
AcDbBlockReference
  2
_DOT
 10
8688.761265317364
 20
7167.760480580202
 30
0.0
 41
20.0
 42
20.0
 43
20.0
 50
180.0
  0
INSERT
  5
185F4
330
18115
100
AcDbEntity
  8
寸法
 62
     0
 48
50.0
370
    -2
100
AcDbBlockReference
  2
_DOT
 10
9954.761265317365
 20
7167.760480580202
 30
0.0
 41
20.0
 42
20.0
 43
20.0
  0
MTEXT
  5
185F5
330
18115
100
AcDbEntity
  8
寸法
 62
     7
 48
50.0
100
AcDbMText
 10
9349.44892091328
 20
7359.772291603824
 30
0.0
 40
120.0
 41
0.0
 71
     5
 72
     1
  1
\A1;有効開口部間口\P1266
  7
STYLE1
 73
     1
 44
1.0
1001
ACAD
1000
MTEXTBEGIN
1070
    73
1070
     1
1070
    44
1040
1.0
1070
    74
1070
     0
1000
MTEXTEND
  0
POINT
  5
185F6
330
18115
100
AcDbEntity
  8
DEFPOINTS
 62
     0
 48
50.0
100
AcDbPoint
 10
8688.761265317364
 20
7864.513306776394
 30
0.0
  0
POINT
  5
185F7
330
18115
100
AcDbEntity
  8
DEFPOINTS
 62
     0
 48
50.0
100
AcDbPoint
 10
9954.761265317365
 20
7864.513306776394
 30
0.0
  0
POINT
  5
185F8
330
18115
100
AcDbEntity
  8
DEFPOINTS
 62
     0
 48
50.0
100
AcDbPoint
 10
9954.761265317365
 20
7167.760480580202
 30
0.0
  0
ENDBLK
  5
18120
330
18115
100
AcDbEntity
  8
0
 48
50.0
100
AcDbBlockEnd
  0
BLOCK
  5
1841C
330
18410
100
AcDbEntity
  8
0
 48
50.0
100
AcDbBlockBegin
  2
*D32
 70
     1
 10
0.0
 20
0.0
 30
0.0
  3
*D32
  1

  0
LINE
  5
185E5
330
18410
100
AcDbEntity
  8
寸法
 62
     0
 48
50.0
370
    -2
100
AcDbLine
 10
8601.761265317415
 20
7941.513306776449
 30
0.0
 11
8287.150019690697
 21
7941.513306776449
 31
0.0
  0
LINE
  5
185E6
330
18410
100
AcDbEntity
  8
寸法
 62
     0
 48
50.0
370
    -2
100
AcDbLine
 10
8629.761265317393
 20
7866.513306776448
 30
0.0
 11
8287.150019690697
 21
7866.513306776448
 31
0.0
  0
LINE
  5
185E7
330
18410
100
AcDbEntity
  8
寸法
 62
     0
 48
50.0
370
    -2
100
AcDbLine
 10
8327.150019690698
 20
7961.513306776449
 30
0.0
 11
8327.150019690698
 21
7981.513306776448
 31
0.0
  0
LINE
  5
185E8
330
18410
100
AcDbEntity
  8
寸法
 62
     0
 48
50.0
370
    -2
100
AcDbLine
 10
8327.150019690698
 20
7846.513306776448
 30
0.0
 11
8327.150019690698
 21
7625.542744027971
 31
0.0
  0
LINE
  5
185E9
330
18410
100
AcDbEntity
  8
寸法
 62
     0
 48
50.0
370
    -2
100
AcDbLine
 10
8327.150019690698
 20
7941.513306776449
 30
0.0
 11
8327.150019690698
 21
7866.513306776448
 31
0.0
  0
INSERT
  5
185EA
330
18410
100
AcDbEntity
  8
寸法
 62
     0
 48
50.0
370
    -2
100
AcDbBlockReference
  2
_DOT
 10
8327.150019690698
 20
7941.513306776449
 30
0.0
 41
20.0
 42
20.0
 43
20.0
 50
270.0
  0
INSERT
  5
185EB
330
18410
100
AcDbEntity
  8
寸法
 62
     0
 48
50.0
370
    -2
100
AcDbBlockReference
  2
_DOT
 10
8327.150019690698
 20
7866.513306776448
 30
0.0
 41
20.0
 42
20.0
 43
20.0
 50
90.0
  0
MTEXT
  5
185EC
330
18410
100
AcDbEntity
  8
寸法
 62
     7
 48
50.0
100
AcDbMText
 10
8235.150019690697
 20
7726.028025402211
 30
0.0
 40
120.0
 41
0.0
 71
     5
 72
     1
  1
\A1;75
  7
STYLE1
 11
0.0000000000000001
 21
1.0
 31
0.0
 73
     1
 44
1.0
1001
ACAD
1000
MTEXTBEGIN
1070
    73
1070
     1
1070
    44
1040
1.0
1070
    74
1070
     0
1000
MTEXTEND
  0
POINT
  5
185ED
330
18410
100
AcDbEntity
  8
DEFPOINTS
 62
     0
 48
50.0
100
AcDbPoint
 10
8621.761265317415
 20
7941.513306776449
 30
0.0
  0
POINT
  5
185EE
330
18410
100
AcDbEntity
  8
DEFPOINTS
 62
     0
 48
50.0
100
AcDbPoint
 10
8649.761265317392
 20
7866.513306776448
 30
0.0
  0
POINT
  5
185EF
330
18410
100
AcDbEntity
  8
DEFPOINTS
 62
     0
 48
50.0
100
AcDbPoint
 10
8327.150019690698
 20
7866.513306776448
 30
0.0
  0
ENDBLK
  5
1841D
330
18410
100
AcDbEntity
  8
0
 48
50.0
100
AcDbBlockEnd
  0
BLOCK
  5
185CF
330
185C5
100
AcDbEntity
  8
0
 48
50.0
100
AcDbBlockBegin
  2
*D33
 70
     1
 10
0.0
 20
0.0
 30
0.0
  3
*D33
  1

  0
LINE
  5
185DC
330
185C5
100
AcDbEntity
  8
寸法
 62
     0
 48
50.0
370
    -2
100
AcDbLine
 10
8649.761265317364
 20
7844.513306776393
 30
0.0
 11
8649.761265317364
 21
6839.840111255995
 31
0.0
  0
LINE
  5
185DD
330
185C5
100
AcDbEntity
  8
寸法
 62
     0
 48
50.0
370
    -2
100
AcDbLine
 10
10803.76126531736
 20
7844.513306776393
 30
0.0
 11
10803.76126531736
 21
6839.840111255995
 31
0.0
  0
LINE
  5
185DE
330
185C5
100
AcDbEntity
  8
寸法
 62
     0
 48
50.0
370
    -2
100
AcDbLine
 10
8649.761265317364
 20
6899.840111255994
 30
0.0
 11
10803.76126531736
 21
6899.840111255994
 31
0.0
  0
INSERT
  5
185DF
330
185C5
100
AcDbEntity
  8
寸法
 62
     0
 48
50.0
370
    -2
100
AcDbBlockReference
  2
_DOTSMALL
 10
8649.761265317364
 20
6899.840111255994
 30
0.0
 41
100.0
 42
100.0
 43
100.0
 50
180.0
  0
INSERT
  5
185E0
330
185C5
100
AcDbEntity
  8
寸法
 62
     0
 48
50.0
370
    -2
100
AcDbBlockReference
  2
_DOTSMALL
 10
10803.76126531736
 20
6899.840111255994
 30
0.0
 41
100.0
 42
100.0
 43
100.0
  0
MTEXT
  5
185E1
330
185C5
100
AcDbEntity
  8
寸法
 62
     7
 48
50.0
100
AcDbMText
 10
9726.761265317364
 20
6999.851922279616
 30
0.0
 40
120.0
 41
0.0
 71
     5
 72
     1
  1
\A1;2154
  7
STYLE1
 73
     1
 44
1.0
1001
ACAD
1000
MTEXTBEGIN
1070
    73
1070
     1
1070
    44
1040
1.0
1070
    74
1070
     0
1000
MTEXTEND
  0
POINT
  5
185E2
330
185C5
100
AcDbEntity
  8
DEFPOINTS
 62
     0
 48
50.0
100
AcDbPoint
 10
8649.761265317364
 20
7864.513306776394
 30
0.0
  0
POINT
  5
185E3
330
185C5
100
AcDbEntity
  8
DEFPOINTS
 62
     0
 48
50.0
100
AcDbPoint
 10
10803.76126531736
 20
7864.513306776394
 30
0.0
  0
POINT
  5
185E4
330
185C5
100
AcDbEntity
  8
DEFPOINTS
 62
     0
 48
50.0
100
AcDbPoint
 10
10803.76126531736
 20
6899.840111255994
 30
0.0
  0
ENDBLK
  5
185D0
330
185C5
100
AcDbEntity
  8
0
 48
50.0
100
AcDbBlockEnd
  0
ENDSEC
  0
SECTION
  2
ENTITIES
  0
LINE
  5
10B57
330
747D
100
AcDbEntity
  8
補助
  6
PHANTOM
 62
   230
 48
50.0
100
AcDbLine
 10
139.9999999999995
 20
11409.6
 30
0.0
 11
16307.2
 21
11409.6
 31
0.0
  0
LINE
  5
10B59
330
747D
100
AcDbEntity
  8
仕様書枠
  6
Continuous
 48
50.0
100
AcDbLine
 10
13107.2
 20
1200.0
 30
0.0
 11
13107.2
 21
-0.0000000000000729
 31
0.0
  0
LINE
  5
10B5C
330
747D
100
AcDbEntity
  8
仕様書枠
 48
50.0
100
AcDbLine
 10
16307.2
 20
1200.0
 30
0.0
 11
16307.2
 21
-0.0000000000000909
 31
0.0
  0
LINE
  5
10B5D
330
747D
100
AcDbEntity
  8
仕様書枠
 48
50.0
100
AcDbLine
 10
140.0
 20
0.0
 30
0.0
 11
16307.2
 21
-0.0000000000000909
 31
0.0
  0
LINE
  5
10B5E
330
747D
100
AcDbEntity
  8
補助
  6
PHANTOM
 62
   230
 48
50.0
100
AcDbLine
 10
16307.2
 20
11409.6
 30
0.0
 11
16307.2
 21
1200.0
 31
0.0
  0
LINE
  5
10B6C
330
747D
100
AcDbEntity
  8
仕様書枠
 48
50.0
100
AcDbLine
 10
13107.2
 20
1200.0
 30
0.0
 11
16307.2
 21
1200.0
 31
0.0
  0
LINE
  5
10B6D
330
747D
100
AcDbEntity
  8
補助
  6
PHANTOM
 62
   230
 48
50.0
100
AcDbLine
 10
13107.2
 20
11409.6
 30
0.0
 11
13107.2
 21
4800.0
 31
0.0
  0
LINE
  5
10B6F
330
747D
100
AcDbEntity
  8
補助
  6
PHANTOM
 62
   230
 48
50.0
100
AcDbLine
 10
13107.2
 20
4800.0
 30
0.0
 11
16307.2
 21
4800.0
 31
0.0
  0
LINE
  5
10B72
330
747D
100
AcDbEntity
  8
文字
 62
     7
 48
50.0
100
AcDbLine
 10
13187.2
 20
400.0
 30
0.0
 11
16227.2
 21
400.0
 31
0.0
  0
TEXT
  5
10B73
330
747D
100
AcDbEntity
  8
文字
 62
     7
 48
50.0
100
AcDbText
 10
13162.9790565769
 20
895.0906074299405
 30
0.0
 40
200.0
  1
外 形 図
  7
STYLE2
100
AcDbText
  0
TEXT
  5
10B74
330
747D
100
AcDbEntity
  8
文字
 62
     7
 48
50.0
100
AcDbText
 10
13201.43669998441
 20
477.2740661031255
 30
0.0
 40
160.0
  1
機種名
  7
STYLE2
100
AcDbText
  0
TEXT
  5
10B75
330
747D
100
AcDbEntity
  8
文字
 62
     7
 48
50.0
100
AcDbText
 10
13209.4053442172
 20
228.5435242569016
 30
0.0
 40
100.0
  1
○有効開口寸法 ： 1266×1725(mm)
  7
STYLE2
100
AcDbText
  0
TEXT
  5
10B76
330
747D
100
AcDbEntity
  8
文字
 62
     7
 48
50.0
100
AcDbText
 10
13209.4053442172
 20
76.09434707649343
 30
0.0
 40
100.0
  1
○床面積 ： 3.19㎡(0.97坪) 　
  7
STYLE2
100
AcDbText
  0
TEXT
  5
10B79
330
747D
100
AcDbEntity
  8
文字
 62
     7
 48
50.0
100
AcDbText
 10
14524.131837222
 20
1031.557706291228
 30
0.0
 40
100.0
  1
NO.12      <縮尺> S=1/40
  7
STYLE2
100
AcDbText
  0
LINE
  5
10B7B
330
747D
100
AcDbEntity
  8
仕様書枠
 48
50.0
100
AcDbLine
 10
13107.2
 20
800.0
 30
0.0
 11
14251.2
 21
800.0
 31
0.0
  0
LINE
  5
10B88
330
747D
100
AcDbEntity
  8
仕様書枠
  6
Continuous
 48
50.0
100
AcDbLine
 10
14251.2
 20
1200.0
 30
0.0
 11
14251.2
 21
800.0
 31
0.0
  0
LINE
  5
12765
330
747D
100
AcDbEntity
  8
Ｇ．Ｌ
100
AcDbLine
 10
3186.886727252604
 20
2597.931598713262
 30
0.0
 11
11481.27381834626
 21
2597.931598713262
 31
0.0
  0
LINE
  5
13BE8
330
747D
100
AcDbEntity
  8
部品1
100
AcDbLine
 10
8621.761265317415
 20
2697.931598713262
 30
0.0
 11
10831.76126531741
 21
2697.931598713262
 31
0.0
  0
LINE
  5
13BE9
330
747D
100
AcDbEntity
  8
部品1
100
AcDbLine
 10
8621.761265317415
 20
4537.931598713261
 30
0.0
 11
10831.76126531741
 21
4537.931598713261
 31
0.0
  0
LINE
  5
13C1F
330
747D
100
AcDbEntity
  8
部品1
100
AcDbLine
 10
8621.761265317415
 20
4591.431598713262
 30
0.0
 11
8621.761265317415
 21
2597.931598713262
 31
0.0
  0
LINE
  5
13D18
330
747D
100
AcDbEntity
  8
部品1
100
AcDbLine
 10
10831.76126531741
 20
4591.431598713262
 30
0.0
 11
10831.76126531741
 21
2597.931598713262
 31
0.0
  0
LINE
  5
13E0C
330
747D
100
AcDbEntity
  8
部品1
100
AcDbLine
 10
10431.76126531741
 20
2697.931598713261
 30
0.0
 11
10431.76126531741
 21
2597.931598713262
 31
0.0
  0
LINE
  5
13E0D
330
747D
100
AcDbEntity
  8
部品1
100
AcDbLine
 10
9021.761265317413
 20
2697.931598713261
 30
0.0
 11
9021.761265317413
 21
2597.931598713262
 31
0.0
  0
LINE
  5
14517
330
747D
100
AcDbEntity
  8
部品1
100
AcDbLine
 10
10836.76126531741
 20
2742.931598713262
 30
0.0
 11
10836.76126531741
 21
2597.931598713262
 31
0.0
  0
LINE
  5
14518
330
747D
100
AcDbEntity
  8
破線
 48
5.0
100
AcDbLine
 10
10931.76126531741
 20
2397.931598713261
 30
0.0
 11
10731.76126531741
 21
2397.931598713261
 31
0.0
  0
LINE
  5
14519
330
747D
100
AcDbEntity
  8
破線
 48
5.0
100
AcDbLine
 10
10731.76126531741
 20
2597.931598713262
 30
0.0
 11
10731.76126531741
 21
2397.931598713261
 31
0.0
  0
LINE
  5
1451A
330
747D
100
AcDbEntity
  8
破線
 48
5.0
100
AcDbLine
 10
10931.76126531741
 20
2597.931598713262
 30
0.0
 11
10931.76126531741
 21
2397.931598713261
 31
0.0
  0
LINE
  5
1451B
330
747D
100
AcDbEntity
  8
破線
 48
5.0
100
AcDbLine
 10
10856.76126531741
 20
2442.931598713262
 30
0.0
 11
10836.76126531741
 21
2442.931598713262
 31
0.0
  0
LINE
  5
1451C
330
747D
100
AcDbEntity
  8
部品1
100
AcDbLine
 10
8616.761265317414
 20
2742.931598713263
 30
0.0
 11
8616.761265317414
 21
2597.931598713262
 31
0.0
  0
LINE
  5
1451D
330
747D
100
AcDbEntity
  8
破線
 48
5.0
100
AcDbLine
 10
8521.761265317413
 20
2397.931598713261
 30
0.0
 11
8721.761265317416
 21
2397.931598713261
 31
0.0
  0
LINE
  5
1451E
330
747D
100
AcDbEntity
  8
破線
 48
5.0
100
AcDbLine
 10
8521.761265317413
 20
2597.931598713262
 30
0.0
 11
8521.761265317413
 21
2397.931598713261
 31
0.0
  0
LINE
  5
1451F
330
747D
100
AcDbEntity
  8
破線
 48
5.0
100
AcDbLine
 10
8596.761265317415
 20
2442.931598713262
 30
0.0
 11
8616.761265317416
 21
2442.931598713262
 31
0.0
  0
LINE
  5
14520
330
747D
100
AcDbEntity
  8
破線
 48
5.0
100
AcDbLine
 10
8721.761265317415
 20
2597.931598713262
 30
0.0
 11
8721.761265317415
 21
2397.931598713261
 31
0.0
  0
LINE
  5
146B2
330
747D
100
AcDbEntity
  8
破線
 48
5.0
100
AcDbLine
 10
10836.76126531741
 20
2597.931598713262
 30
0.0
 11
10836.76126531741
 21
2442.931598713262
 31
0.0
  0
LINE
  5
146B3
330
747D
100
AcDbEntity
  8
破線
 48
5.0
100
AcDbLine
 10
8616.761265317414
 20
2597.931598713262
 30
0.0
 11
8616.761265317414
 21
2442.931598713262
 31
0.0
  0
DIMENSION
  5
146C0
330
747D
100
AcDbEntity
  8
寸法
 48
50.0
100
AcDbDimension
  2
*D1
 10
8521.761265317413
 20
2111.884269412884
 30
0.0
 11
8621.761265317417
 21
2111.884269412884
 31
0.0
 12
1201.864690210425
 22
-1199.999999999999
 32
0.0
 70
   160
 71
     5
 42
-1.0
  3
INABA_S40G
100
AcDbAlignedDimension
 13
8721.761265317416
 23
2397.931598713261
 33
0.0
 14
8521.761265317413
 24
2397.931598713261
 34
0.0
100
AcDbRotatedDimension
  0
TEXT
  5
149A1
330
747D
100
AcDbEntity
  8
部品1
100
AcDbText
 10
9435.551335941147
 20
1525.722526519778
 30
0.0
 40
135.0
  1
正面図
  7
STYLE2
100
AcDbText
  0
LINE
  5
149E3
330
747D
100
AcDbEntity
  8
部品1
100
AcDbLine
 10
8621.761265317415
 20
2747.931598713265
 30
0.0
 11
8649.761265317414
 21
2747.931598713265
 31
0.0
  0
DIMENSION
  5
14E59
330
747D
100
AcDbEntity
  8
寸法
100
AcDbDimension
  2
*D2
 10
11751.53511743674
 20
7941.513306776577
 30
0.0
 11
11751.53511743674
 21
8617.90392139944
 31
0.0
 70
   160
 71
     5
 42
1370.000000000007
  3
INABA_S40G
100
AcDbAlignedDimension
 13
10831.76126531742
 23
9311.513306776586
 33
0.0
 14
10831.76126531739
 24
7941.513306776577
 34
0.0
 50
90.0
100
AcDbRotatedDimension
1001
ACAD
1000
DSTYLE
1002
{
1002
}
  0
DIMENSION
  5
14E5A
330
747D
100
AcDbEntity
  8
寸法
100
AcDbDimension
  2
*D3
 10
10776.76126531742
 20
9614.558901352186
 30
0.0
 11
9726.761265317421
 21
9614.558901352186
 31
0.0
 70
   160
  1
5X420=<>
 71
     5
 42
2100.0
  3
INABA_S40G
100
AcDbAlignedDimension
 13
8676.761265317422
 23
9311.513306776491
 33
0.0
 14
10776.76126531742
 24
9311.513306776586
 34
0.0
100
AcDbRotatedDimension
1001
ACAD
1000
DSTYLE
1002
{
1002
}
  0
DIMENSION
  5
14E5B
330
747D
100
AcDbEntity
  8
寸法
100
AcDbDimension
  2
*D4
 10
10831.76126531742
 20
9614.558901352168
 30
0.0
 11
11140.24654669166
 21
9614.558901352168
 31
0.0
 70
   160
 71
     5
 42
55.0
  3
INABA_S40G
100
AcDbAlignedDimension
 13
10776.76126531742
 23
9311.513306776586
 33
0.0
 14
10831.76126531742
 24
9311.513306776586
 34
0.0
100
AcDbRotatedDimension
1001
ACAD
1000
DSTYLE
1002
{
1002
}
  0
DIMENSION
  5
14E5C
330
747D
100
AcDbEntity
  8
寸法
100
AcDbDimension
  2
*D5
 10
11479.18761105183
 20
9256.513306776589
 30
0.0
 11
11479.18761105183
 21
9619.998588150826
 31
0.0
 70
   160
 71
     5
 42
54.99999999999636
  3
INABA_S40G
100
AcDbAlignedDimension
 13
10831.76126531742
 23
9311.513306776586
 33
0.0
 14
10831.76126531742
 24
9256.513306776589
 34
0.0
 50
90.0
100
AcDbRotatedDimension
1001
ACAD
1000
DSTYLE
1002
{
1002
}
  0
DIMENSION
  5
14E5D
330
747D
100
AcDbEntity
  8
寸法
100
AcDbDimension
  2
*D6
 10
8676.761265317422
 20
9614.558901352069
 30
0.0
 11
8313.275983943148
 21
9614.558901352069
 31
0.0
 70
   160
 71
     5
 42
55.00000000003637
  3
INABA_S40G
100
AcDbAlignedDimension
 13
8621.761265317386
 23
9311.513306776491
 33
0.0
 14
8676.761265317422
 24
9311.513306776491
 34
0.0
100
AcDbRotatedDimension
1001
ACAD
1000
DSTYLE
1002
{
1002
}
  0
LINE
  5
14E5E
330
747D
100
AcDbEntity
  8
部品1
100
AcDbLine
 10
10775.26126531738
 20
7998.013306776508
 30
0.0
 11
8678.261265317299
 21
7998.013306776411
 31
0.0
  0
LINE
  5
14E5F
330
747D
100
AcDbEntity
  8
破線
 48
10.0
100
AcDbLine
 10
10047.26126531744
 20
8021.513306776475
 30
0.0
 11
9406.261265317438
 21
8021.513306776444
 31
0.0
  0
DIMENSION
  5
14E61
330
747D
100
AcDbEntity
  8
寸法
100
AcDbDimension
  2
*D7
 10
9844.692491761032
 20
8538.290651975621
 30
0.0
 11
9185.838041893804
 21
8538.290651975621
 31
0.0
 70
   160
 71
     5
 42
1273.000000000011
  3
INABA_S40G
100
AcDbAlignedDimension
 13
8650.261265317423
 23
8831.513306776491
 33
0.0
 14
9923.261265317433
 24
8831.513306776484
 34
0.0
100
AcDbRotatedDimension
1001
ACAD
1000
DSTYLE
1002
{
1002
}
  0
LINE
  5
14E62
330
747D
100
AcDbEntity
  8
細線
 48
50.0
100
AcDbLine
 10
9923.261265317421
 20
8831.513306776598
 30
0.0
 11
8650.26126531742
 21
9281.51330677649
 31
0.0
  0
LINE
  5
14E63
330
747D
100
AcDbEntity
  8
部品1
100
AcDbLine
 10
8650.26126531742
 20
9281.51330677649
 30
0.0
 11
9923.261265317421
 21
9281.513306776597
 31
0.0
  0
LINE
  5
14E64
330
747D
100
AcDbEntity
  8
細線
 48
50.0
100
AcDbLine
 10
9923.261265317421
 20
9281.513306776593
 30
0.0
 11
8650.261265317423
 21
8831.513306776491
 31
0.0
  0
LINE
  5
14E65
330
747D
100
AcDbEntity
  8
部品1
100
AcDbLine
 10
8650.261265317423
 20
8831.513306776491
 30
0.0
 11
9923.261265317421
 21
8831.513306776598
 31
0.0
  0
LINE
  5
14E67
330
747D
100
AcDbEntity
  8
部品1
100
AcDbLine
 10
8621.761265317422
 20
9311.513306776491
 30
0.0
 11
10831.76126531742
 21
9311.513306776586
 31
0.0
  0
LINE
  5
14E6D
330
747D
100
AcDbEntity
  8
部品1
100
AcDbLine
 10
8649.761265317421
 20
9283.513306776491
 30
0.0
 11
9924.261265317419
 21
9283.513306776608
 31
0.0
  0
DIMENSION
  5
14E6F
330
747D
100
AcDbEntity
  8
寸法
100
AcDbDimension
  2
*D8
 10
10831.76126531739
 20
6637.486981249516
 30
0.0
 11
9725.342696525842
 21
6637.486981249516
 31
0.0
 70
   160
 71
     5
 42
2209.999999999982
  3
INABA_S40G
100
AcDbAlignedDimension
 13
8621.761265317415
 23
7941.513306776413
 33
0.0
 14
10831.76126531739
 24
7941.513306776542
 34
0.0
100
AcDbRotatedDimension
1001
ACAD
1000
DSTYLE
1002
{
1002
}
  0
LINE
  5
14E70
330
747D
100
AcDbEntity
  8
破線
 48
10.0
100
AcDbLine
 10
8701.761265317397
 20
8831.51330677659
 30
0.0
 11
8701.761265317411
 21
8021.513306776411
 31
0.0
  0
LINE
  5
14E71
330
747D
100
AcDbEntity
  8
部品1
100
AcDbLine
 10
8678.261265317399
 20
8831.51330677659
 30
0.0
 11
8678.261265317415
 21
7998.013306776527
 31
0.0
  0
LINE
  5
14E72
330
747D
100
AcDbEntity
  8
部品1
100
AcDbLine
 10
8649.761265317396
 20
7969.51330677651
 30
0.0
 11
8649.761265317421
 21
9283.513306776491
 31
0.0
  0
LINE
  5
14E73
330
747D
100
AcDbEntity
  8
部品1
100
AcDbLine
 10
8621.761265317386
 20
9311.513306776459
 30
0.0
 11
8621.761265317415
 21
7941.513306776449
 31
0.0
  0
LINE
  5
14E80
330
747D
100
AcDbEntity
  8
部品1
 48
50.0
100
AcDbLine
 10
8678.261265317393
 20
7998.013306776508
 30
0.0
 11
8649.761265317396
 21
7969.51330677651
 31
0.0
  0
LINE
  5
14E82
330
747D
100
AcDbEntity
  8
部品1
 48
50.0
100
AcDbLine
 10
8650.26126531742
 20
9281.513306776487
 30
0.0
 11
8650.261265317423
 21
8831.513306776487
 31
0.0
  0
LINE
  5
14E83
330
747D
100
AcDbEntity
  8
部品1
100
AcDbLine
 10
8649.761265317396
 20
8836.513306776462
 30
0.0
 11
8621.761265317397
 21
8836.513306776462
 31
0.0
  0
LINE
  5
14E84
330
747D
100
AcDbEntity
  8
部品1
100
AcDbLine
 10
8649.761265317389
 20
9256.513306776462
 30
0.0
 11
8621.761265317388
 21
9256.513306776462
 31
0.0
  0
LINE
  5
14E85
330
747D
100
AcDbEntity
  8
部品1
100
AcDbLine
 10
8676.761265317422
 20
9311.513306776491
 30
0.0
 11
8676.761265317422
 21
9283.513306776491
 31
0.0
  0
LINE
  5
14E86
330
747D
100
AcDbEntity
  8
部品1
100
AcDbLine
 10
8676.761265317386
 20
9311.513306776459
 30
0.0
 11
8676.76126531739
 21
9283.513306776459
 31
0.0
  0
DIMENSION
  5
14E87
330
747D
100
AcDbEntity
  8
寸法
100
AcDbDimension
  2
*D9
 10
11479.18761105181
 20
7941.513306776577
 30
0.0
 11
11479.1876110518
 21
7563.651839871716
 31
0.0
 70
   160
 71
     5
 42
54.99999999999636
  3
INABA_S40G
100
AcDbAlignedDimension
 13
10831.76126531739
 23
7996.513306776574
 33
0.0
 14
10831.76126531739
 24
7941.513306776577
 34
0.0
 50
90.0
100
AcDbRotatedDimension
1001
ACAD
1000
DSTYLE
1002
{
1002
}
  0
TEXT
  5
14E88
330
747D
100
AcDbEntity
  8
部品1
100
AcDbText
 10
9434.945542032229
 20
6073.117558761123
 30
0.0
 40
135.0
  1
平面図
  7
STYLE2
100
AcDbText
  0
LINE
  5
14E8A
330
747D
100
AcDbEntity
  8
破線
 48
10.0
100
AcDbLine
 10
10751.76126531738
 20
8021.513306776506
 30
0.0
 11
10097.26126531744
 21
8021.513306776478
 31
0.0
  0
DIMENSION
  5
14E8B
330
747D
100
AcDbEntity
  8
寸法
100
AcDbDimension
  2
*D10
 10
10724.692491761
 20
8538.290651975621
 30
0.0
 11
10329.60832743569
 21
8538.290651975621
 31
0.0
 70
   160
 71
     5
 42
853.0000000000109
  3
INABA_S40G
100
AcDbAlignedDimension
 13
9950.261265317422
 23
8831.513306776598
 33
0.0
 14
10803.26126531743
 24
8831.51330677659
 34
0.0
100
AcDbRotatedDimension
1001
ACAD
1000
DSTYLE
1002
{
1002
}
  0
LINE
  5
14E8C
330
747D
100
AcDbEntity
  8
細線
 48
50.0
100
AcDbLine
 10
10803.26126531742
 20
9281.513306776586
 30
0.0
 11
9950.26126531742
 21
8831.513306776598
 31
0.0
  0
LINE
  5
14E8D
330
747D
100
AcDbEntity
  8
部品1
100
AcDbLine
 10
9950.261265317422
 20
9281.513306776593
 30
0.0
 11
10803.26126531742
 21
9281.513306776586
 31
0.0
  0
LINE
  5
14E8E
330
747D
100
AcDbEntity
  8
部品1
100
AcDbLine
 10
9950.26126531742
 20
8831.513306776598
 30
0.0
 11
10803.26126531742
 21
8831.51330677659
 31
0.0
  0
LINE
  5
14E8F
330
747D
100
AcDbEntity
  8
細線
 48
50.0
100
AcDbLine
 10
10803.26126531742
 20
8831.51330677659
 30
0.0
 11
9950.261265317422
 21
9281.51330677659
 31
0.0
  0
LINE
  5
14E90
330
747D
100
AcDbEntity
  8
部品1
100
AcDbLine
 10
9949.261265317423
 20
9283.513306776603
 30
0.0
 11
10803.76126531742
 21
9283.513306776585
 31
0.0
  0
LINE
  5
14EBE
330
747D
100
AcDbEntity
  8
部品1
100
AcDbLine
 10
9096.761265317422
 20
9311.513306776491
 30
0.0
 11
9096.761265317422
 21
9283.513306776491
 31
0.0
  0
LINE
  5
14EBF
330
747D
100
AcDbEntity
  8
部品1
100
AcDbLine
 10
9096.761265317422
 20
9311.513306776491
 30
0.0
 11
9096.761265317422
 21
9283.513306776491
 31
0.0
  0
LINE
  5
14EC0
330
747D
100
AcDbEntity
  8
部品1
100
AcDbLine
 10
9096.761265317422
 20
9311.513306776609
 30
0.0
 11
9096.761265317422
 21
9283.513306776608
 31
0.0
  0
LINE
  5
14EC1
330
747D
100
AcDbEntity
  8
部品1
 48
50.0
100
AcDbLine
 10
9923.261265317421
 20
9281.513306776593
 30
0.0
 11
9923.261265317421
 21
8831.513306776598
 31
0.0
  0
LINE
  5
14EC2
330
747D
100
AcDbEntity
  8
部品1
 48
50.0
100
AcDbLine
 10
9950.261265317422
 20
9281.51330677659
 30
0.0
 11
9950.261265317422
 21
8831.513306776598
 31
0.0
  0
LINE
  5
14EC3
330
747D
100
AcDbEntity
  8
部品1
 48
50.0
100
AcDbLine
 10
9924.26126531742
 20
9283.513306776601
 30
0.0
 11
9924.261265317422
 21
8831.513306776598
 31
0.0
  0
LINE
  5
14EC4
330
747D
100
AcDbEntity
  8
部品1
 48
50.0
100
AcDbLine
 10
9949.261265317423
 20
9283.513306776596
 30
0.0
 11
9949.261265317423
 21
8831.513306776598
 31
0.0
  0
LINE
  5
14EC5
330
747D
100
AcDbEntity
  8
部品1
100
AcDbLine
 10
9924.261265317422
 20
8831.513306776598
 30
0.0
 11
9949.261265317423
 21
8831.513306776598
 31
0.0
  0
LINE
  5
14EC6
330
747D
100
AcDbEntity
  8
部品1
100
AcDbLine
 10
9901.761265317423
 20
9301.513306776593
 30
0.0
 11
9901.761265317423
 21
9283.513306776592
 31
0.0
  0
LINE
  5
14EC7
330
747D
100
AcDbEntity
  8
部品1
100
AcDbLine
 10
9901.761265317423
 20
9301.513306776593
 30
0.0
 11
9907.761265317423
 21
9301.513306776593
 31
0.0
  0
LINE
  5
14EC8
330
747D
100
AcDbEntity
  8
部品1
100
AcDbLine
 10
9971.761265317423
 20
9301.513306776593
 30
0.0
 11
9971.761265317423
 21
9283.513306776592
 31
0.0
  0
LINE
  5
14EC9
330
747D
100
AcDbEntity
  8
部品1
100
AcDbLine
 10
9965.761265317423
 20
9301.513306776593
 30
0.0
 11
9971.761265317423
 21
9301.513306776593
 31
0.0
  0
LINE
  5
14ECA
330
747D
100
AcDbEntity
  8
部品1
100
AcDbLine
 10
9924.261265317422
 20
9275.51330677659
 30
0.0
 11
9949.261265317423
 21
9275.513306776593
 31
0.0
  0
LINE
  5
14ECB
330
747D
100
AcDbEntity
  8
部品1
100
AcDbLine
 10
9936.761265317421
 20
9311.513306776609
 30
0.0
 11
9936.761265317421
 21
9283.513306776608
 31
0.0
  0
LINE
  5
14ECC
330
747D
100
AcDbEntity
  8
部品1
100
AcDbLine
 10
10356.76126531742
 20
9311.513306776609
 30
0.0
 11
10356.76126531742
 21
9283.513306776608
 31
0.0
  0
LINE
  5
14ECD
330
747D
100
AcDbEntity
  8
破線
 48
10.0
100
AcDbLine
 10
10751.76126531741
 20
8831.51330677659
 30
0.0
 11
10751.7612653174
 21
8021.513306776506
 31
0.0
  0
LINE
  5
14ECE
330
747D
100
AcDbEntity
  8
部品1
100
AcDbLine
 10
10775.26126531741
 20
8831.51330677659
 30
0.0
 11
10775.2612653174
 21
7998.013306776496
 31
0.0
  0
DIMENSION
  5
14ECF
330
747D
100
AcDbEntity
  8
寸法
100
AcDbDimension
  2
*D11
 10
11158.61899117944
 20
8736.2954911077
 30
0.0
 11
11058.61899117944
 21
8961.2954911077
 31
0.0
 70
    32
 71
     5
 42
449.9999999999963
  3
INABA_S40G
100
AcDbAlignedDimension
 13
10803.26126531742
 23
9281.513306776586
 33
0.0
 14
10803.26126531742
 24
8831.51330677659
 34
0.0
 50
90.0
100
AcDbRotatedDimension
1001
ACAD
1000
DSTYLE
1002
{
1002
}
  0
LINE
  5
14ED0
330
747D
100
AcDbEntity
  8
部品1
100
AcDbLine
 10
10803.76126531742
 20
9283.513306776585
 30
0.0
 11
10803.76126531739
 21
7969.513306776542
 31
0.0
  0
DIMENSION
  5
14ED1
330
747D
100
AcDbEntity
  8
寸法
100
AcDbDimension
  2
*D12
 10
11479.18761105183
 20
7996.513306776574
 30
0.0
 11
11479.18761105183
 21
8626.513306776582
 31
0.0
 70
   160
  1
3X420=<>
 71
     5
 42
1260.000000000014
  3
INABA_S40G
100
AcDbAlignedDimension
 13
10831.76126531742
 23
9256.513306776589
 33
0.0
 14
10831.76126531739
 24
7996.513306776574
 34
0.0
 50
90.0
100
AcDbRotatedDimension
1001
ACAD
1000
DSTYLE
1002
{
1002
}
  0
LINE
  5
14ED2
330
747D
100
AcDbEntity
  8
部品1
100
AcDbLine
 10
10831.76126531742
 20
9311.513306776586
 30
0.0
 11
10831.76126531739
 21
7941.513306776577
 31
0.0
  0
LINE
  5
14EDC
330
747D
100
AcDbEntity
  8
部品1
 48
50.0
100
AcDbLine
 10
10775.26126531738
 20
7998.013306776508
 30
0.0
 11
10803.76126531738
 21
7969.51330677651
 31
0.0
  0
LINE
  5
14EDF
330
747D
100
AcDbEntity
  8
部品1
100
AcDbLine
 10
10803.26126531742
 20
9281.513306776586
 30
0.0
 11
10803.26126531742
 21
8831.51330677659
 31
0.0
  0
LINE
  5
14EE0
330
747D
100
AcDbEntity
  8
部品1
100
AcDbLine
 10
10803.76126531742
 20
8836.513306776589
 30
0.0
 11
10831.76126531742
 21
8836.513306776589
 31
0.0
  0
LINE
  5
14EE1
330
747D
100
AcDbEntity
  8
部品1
100
AcDbLine
 10
10803.76126531742
 20
9256.513306776589
 30
0.0
 11
10831.76126531742
 21
9256.513306776589
 31
0.0
  0
LINE
  5
14EE2
330
747D
100
AcDbEntity
  8
部品1
100
AcDbLine
 10
10776.76126531742
 20
9311.513306776609
 30
0.0
 11
10776.76126531742
 21
9283.513306776608
 31
0.0
  0
LINE
  5
14EE3
330
747D
100
AcDbEntity
  8
部品1
100
AcDbLine
 10
10776.76126531742
 20
9311.513306776586
 30
0.0
 11
10776.76126531742
 21
9283.513306776585
 31
0.0
  0
LINE
  5
15151
330
747D
100
AcDbEntity
  8
部品1
100
AcDbLine
 10
9516.761265317422
 20
9311.513306776491
 30
0.0
 11
9516.761265317422
 21
9283.513306776491
 31
0.0
  0
LINE
  5
15152
330
747D
100
AcDbEntity
  8
部品1
100
AcDbLine
 10
9516.761265317422
 20
9311.513306776491
 30
0.0
 11
9516.761265317422
 21
9283.513306776491
 31
0.0
  0
LINE
  5
15153
330
747D
100
AcDbEntity
  8
部品1
100
AcDbLine
 10
9516.761265317422
 20
9311.513306776609
 30
0.0
 11
9516.761265317422
 21
9283.513306776608
 31
0.0
  0
LINE
  5
15485
330
747D
100
AcDbEntity
  8
部品1
 48
50.0
100
AcDbLine
 10
10775.2612653174
 20
8416.51330677659
 30
0.0
 11
8678.261265317406
 21
8416.513306776677
 31
0.0
  0
LINE
  5
15486
330
747D
100
AcDbEntity
  8
部品1
100
AcDbLine
 10
8649.761265317399
 20
8416.513306776462
 30
0.0
 11
8621.761265317401
 21
8416.513306776462
 31
0.0
  0
LINE
  5
15487
330
747D
100
AcDbEntity
  8
部品1
100
AcDbLine
 10
10803.76126531742
 20
8416.51330677659
 30
0.0
 11
10831.76126531742
 21
8416.51330677659
 31
0.0
  0
TEXT
  5
154D3
330
747D
100
AcDbEntity
  8
文字
 62
     7
 48
50.0
100
AcDbText
 10
14643.63059855437
 20
863.0097378581719
 30
0.0
 40
100.0
  1
～一般型・多雪地型～
  7
STYLE2
100
AcDbText
  0
LINE
  5
154F9
330
747D
100
AcDbEntity
  8
部品1
100
AcDbLine
 10
10803.76126531742
 20
7996.513306776589
 30
0.0
 11
10831.76126531742
 21
7996.513306776589
 31
0.0
  0
LINE
  5
154FA
330
747D
100
AcDbEntity
  8
部品1
100
AcDbLine
 10
8649.761265317399
 20
7996.513306776463
 30
0.0
 11
8621.761265317401
 21
7996.513306776463
 31
0.0
  0
LINE
  5
154FB
330
747D
100
AcDbEntity
  8
部品1
100
AcDbLine
 10
8676.76126531736
 20
7969.513306776393
 30
0.0
 11
8676.761265317365
 21
7941.513306776393
 31
0.0
  0
LINE
  5
154FC
330
747D
100
AcDbEntity
  8
部品1
100
AcDbLine
 10
8676.761265317397
 20
7969.513306776426
 30
0.0
 11
8676.761265317397
 21
7941.513306776426
 31
0.0
  0
LINE
  5
15503
330
747D
100
AcDbEntity
  8
部品1
100
AcDbLine
 10
10776.76126531739
 20
7969.513306776521
 30
0.0
 11
10776.76126531739
 21
7941.513306776521
 31
0.0
  0
LINE
  5
15504
330
747D
100
AcDbEntity
  8
部品1
100
AcDbLine
 10
10776.76126531739
 20
7969.513306776542
 30
0.0
 11
10776.76126531739
 21
7941.513306776542
 31
0.0
  0
LINE
  5
15505
330
747D
100
AcDbEntity
  8
部品1
 48
50.0
100
AcDbLine
 10
8621.761265317415
 20
7941.513306776413
 30
0.0
 11
8676.761265317397
 21
7941.513306776418
 31
0.0
  0
LINE
  5
15506
330
747D
100
AcDbEntity
  8
部品1
 48
50.0
100
AcDbLine
 10
10803.76126531739
 20
7969.513306776542
 30
0.0
 11
8649.761265317396
 21
7969.51330677651
 31
0.0
  0
LINE
  5
15507
330
747D
100
AcDbEntity
  8
部品1
 48
50.0
100
AcDbLine
 10
10776.76126531739
 20
7941.513306776572
 30
0.0
 11
10831.76126531739
 21
7941.513306776577
 31
0.0
  0
DIMENSION
  5
15666
330
747D
100
AcDbEntity
  8
寸法
 48
50.0
100
AcDbDimension
  2
*D13
 10
8328.5364588464
 20
2755.931598713261
 30
0.0
 11
8328.5364588464
 21
3657.860218922222
 31
0.0
 70
   160
  1
有効開口部高サ<>
 71
     5
 42
1725.000000000001
  3
INABA_S40G
100
AcDbAlignedDimension
 13
8649.761265317414
 23
4480.931598713261
 33
0.0
 14
8649.761265317414
 24
2755.931598713261
 34
0.0
 50
90.0
100
AcDbRotatedDimension
  0
LINE
  5
156A4
330
747D
100
AcDbEntity
  8
部品1
 48
50.0
100
AcDbLine
 10
8676.761265317415
 20
4532.931598713261
 30
0.0
 11
8676.761265317415
 21
4537.931598713261
 31
0.0
  0
LINE
  5
156A6
330
747D
100
AcDbEntity
  8
部品1
 48
50.0
100
AcDbLine
 10
10776.76126531741
 20
4532.931598713261
 30
0.0
 11
10776.76126531741
 21
4537.931598713261
 31
0.0
  0
LINE
  5
1576E
330
747D
100
AcDbEntity
  8
部品1
100
AcDbLine
 10
10803.76126531741
 20
2747.931598713281
 30
0.0
 11
10831.76126531741
 21
2747.931598713281
 31
0.0
  0
LINE
  5
162FC
330
747D
100
AcDbEntity
  8
部品1
100
AcDbLine
 10
9345.025932203192
 20
6266.011087979647
 30
0.0
 11
9345.025932203192
 21
6026.118766434114
 31
0.0
  0
LINE
  5
162FD
330
747D
100
AcDbEntity
  8
部品1
100
AcDbLine
 10
9345.025932203192
 20
6026.118766434114
 30
0.0
 11
10108.49659843163
 21
6026.118766434114
 31
0.0
  0
LINE
  5
162FE
330
747D
100
AcDbEntity
  8
部品1
100
AcDbLine
 10
10108.49659843163
 20
6026.118766434114
 30
0.0
 11
10108.49659843163
 21
6266.011087979647
 31
0.0
  0
LINE
  5
162FF
330
747D
100
AcDbEntity
  8
部品1
100
AcDbLine
 10
10108.49659843163
 20
6266.011087979647
 30
0.0
 11
9345.025932203192
 21
6266.011087979647
 31
0.0
  0
LINE
  5
16300
330
747D
100
AcDbEntity
  8
部品1
100
AcDbLine
 10
9345.025932203192
 20
1718.616055738302
 30
0.0
 11
9345.025932203192
 21
1478.723734192769
 31
0.0
  0
LINE
  5
16301
330
747D
100
AcDbEntity
  8
部品1
100
AcDbLine
 10
9345.025932203192
 20
1478.723734192769
 30
0.0
 11
10108.49659843163
 21
1478.723734192769
 31
0.0
  0
LINE
  5
16302
330
747D
100
AcDbEntity
  8
部品1
100
AcDbLine
 10
10108.49659843163
 20
1478.723734192769
 30
0.0
 11
10108.49659843163
 21
1718.616055738302
 31
0.0
  0
LINE
  5
16303
330
747D
100
AcDbEntity
  8
部品1
100
AcDbLine
 10
10108.49659843163
 20
1718.616055738302
 30
0.0
 11
9345.025932203192
 21
1718.616055738302
 31
0.0
  0
LINE
  5
16365
330
747D
100
AcDbEntity
  8
補助
  6
PHANTOM
 62
   230
 48
50.0
100
AcDbLine
 10
140.0
 20
0.0
 30
0.0
 11
140.0
 21
11409.6
 31
0.0
  0
TEXT
  5
16987
330
747D
100
AcDbEntity
  8
文字
 62
     7
 48
50.0
100
AcDbText
 10
14491.96323844892
 20
483.8967129911416
 30
0.0
 40
160.0
  1
ＮＸＮ－３０ＳＡ
  7
STYLE2
100
AcDbText
  0
LINE
  5
1702C
330
747D
100
AcDbEntity
  8
部品1
 48
50.0
100
AcDbLine
 10
8723.761265317415
 20
3679.431598713261
 30
0.0
 11
8776.761265317416
 21
3679.431598713261
 31
0.0
  0
LINE
  5
17046
330
747D
100
AcDbEntity
  8
部品1
 48
50.0
100
AcDbLine
 10
10803.76126531741
 20
4532.931598713261
 30
0.0
 11
8649.761265317414
 21
4532.931598713261
 31
0.0
  0
LINE
  5
17047
330
747D
100
AcDbEntity
  8
細線
 48
50.0
100
AcDbLine
 10
10803.76126531741
 20
4522.931598713261
 30
0.0
 11
8649.761265317414
 21
4522.931598713261
 31
0.0
  0
LINE
  5
17048
330
747D
100
AcDbEntity
  8
細線
 48
50.0
100
AcDbLine
 10
10773.76126531741
 20
4480.931598713261
 30
0.0
 11
8679.761265317415
 21
4480.931598713261
 31
0.0
  0
LINE
  5
17049
330
747D
100
AcDbEntity
  8
細線
 48
50.0
100
AcDbLine
 10
10773.76126531741
 20
4490.431598713261
 30
0.0
 11
8679.761265317415
 21
4490.431598713261
 31
0.0
  0
LINE
  5
1704A
330
747D
100
AcDbEntity
  8
部品1
 48
50.0
100
AcDbLine
 10
8649.761265317414
 20
2697.931598713262
 30
0.0
 11
10803.76126531741
 21
2697.931598713262
 31
0.0
  0
LINE
  5
1704B
330
747D
100
AcDbEntity
  8
細線
 48
50.0
100
AcDbLine
 10
8679.761265317415
 20
2740.931598713262
 30
0.0
 11
10773.76126531741
 21
2740.931598713262
 31
0.0
  0
LINE
  5
1704C
330
747D
100
AcDbEntity
  8
細線
 48
50.0
100
AcDbLine
 10
8679.761265317415
 20
2744.931598713261
 30
0.0
 11
10773.76126531741
 21
2744.931598713261
 31
0.0
  0
LINE
  5
1704D
330
747D
100
AcDbEntity
  8
細線
 48
50.0
100
AcDbLine
 10
9483.76126531741
 20
2755.431598713262
 30
0.0
 11
10747.76126531741
 21
2755.431598713262
 31
0.0
  0
LINE
  5
1704E
330
747D
100
AcDbEntity
  8
部品1
 48
50.0
100
AcDbLine
 10
8679.761265317415
 20
2747.931598713261
 30
0.0
 11
8679.761265317415
 21
4480.931598713261
 31
0.0
  0
LINE
  5
1704F
330
747D
100
AcDbEntity
  8
細線
 48
50.0
100
AcDbLine
 10
8679.761265317415
 20
4490.431598713261
 30
0.0
 11
8679.761265317415
 21
2697.931598713262
 31
0.0
  0
LINE
  5
17050
330
747D
100
AcDbEntity
  8
部品1
 48
50.0
100
AcDbLine
 10
8649.761265317414
 20
4532.931598713261
 30
0.0
 11
8649.761265317414
 21
2697.931598713262
 31
0.0
  0
LINE
  5
17052
330
747D
100
AcDbEntity
  8
部品1
 48
50.0
100
AcDbLine
 10
9483.76126531741
 20
4480.931598738028
 30
0.0
 11
9483.76126531741
 21
2747.931598738029
 31
0.0
  0
LINE
  5
17053
330
747D
100
AcDbEntity
  8
部品1
 48
50.0
100
AcDbLine
 10
8679.761265317415
 20
2747.931598713261
 30
0.0
 11
9483.76126531741
 21
2747.931598713258
 31
0.0
  0
LINE
  5
17054
330
747D
100
AcDbEntity
  8
部品1
 48
50.0
100
AcDbLine
 10
8688.761265317415
 20
2747.931598713261
 30
0.0
 11
8688.761265317415
 21
2744.931598713261
 31
0.0
  0
LINE
  5
17056
330
747D
100
AcDbEntity
  8
部品1
 48
50.0
100
AcDbLine
 10
8679.761265317415
 20
4488.931598713261
 30
0.0
 11
8649.761265317414
 21
4488.931598713261
 31
0.0
  0
LINE
  5
17057
330
747D
100
AcDbEntity
  8
部品1
 48
50.0
100
AcDbLine
 10
10764.76126531741
 20
2744.931598713261
 30
0.0
 11
10764.76126531741
 21
4480.931598713261
 31
0.0
  0
LINE
  5
17058
330
747D
100
AcDbEntity
  8
細線
 48
50.0
100
AcDbLine
 10
10773.76126531741
 20
2697.931598713262
 30
0.0
 11
10773.76126531741
 21
4490.431598713261
 31
0.0
  0
LINE
  5
17059
330
747D
100
AcDbEntity
  8
部品1
 48
50.0
100
AcDbLine
 10
10803.76126531741
 20
2697.931598713262
 30
0.0
 11
10803.76126531741
 21
4532.931598713261
 31
0.0
  0
LINE
  5
1705A
330
747D
100
AcDbEntity
  8
部品1
 48
50.0
100
AcDbLine
 10
10137.76125562227
 20
4480.931598750408
 30
0.0
 11
10137.76125562227
 21
2755.431598750409
 31
0.0
  0
LINE
  5
1705B
330
747D
100
AcDbEntity
  8
細線
 48
50.0
100
AcDbLine
 10
10751.76126531741
 20
2744.931598713261
 30
0.0
 11
10747.76126531741
 21
2755.431598713262
 31
0.0
  0
LINE
  5
1705D
330
747D
100
AcDbEntity
  8
部品1
 48
50.0
100
AcDbLine
 10
10803.76126531741
 20
4488.931598713261
 30
0.0
 11
10773.76126531741
 21
4488.931598713261
 31
0.0
  0
LINE
  5
1705F
330
747D
100
AcDbEntity
  8
細線
100
AcDbLine
 10
10260.51126531742
 20
4480.931598713261
 30
0.0
 11
10260.51126531742
 21
2755.43159871328
 31
0.0
  0
LINE
  5
17060
330
747D
100
AcDbEntity
  8
細線
100
AcDbLine
 10
9545.261275067657
 20
4480.931598713261
 30
0.0
 11
9545.261275067657
 21
2755.431598713272
 31
0.0
  0
LINE
  5
17061
330
747D
100
AcDbEntity
  8
細線
100
AcDbLine
 10
9615.261275067657
 20
4480.931598713261
 30
0.0
 11
9615.261275067657
 21
2755.431598713272
 31
0.0
  0
LINE
  5
17062
330
747D
100
AcDbEntity
  8
細線
100
AcDbLine
 10
8893.761265317413
 20
4480.931598713261
 30
0.0
 11
8893.761265317412
 21
2747.931598713265
 31
0.0
  0
LINE
  5
17063
330
747D
100
AcDbEntity
  8
細線
100
AcDbLine
 10
8963.761265317414
 20
4480.931598713261
 30
0.0
 11
8963.761265317412
 21
2747.931598713265
 31
0.0
  0
LINE
  5
17064
330
747D
100
AcDbEntity
  8
細線
100
AcDbLine
 10
10330.51126531742
 20
4480.931598713261
 30
0.0
 11
10330.51126531742
 21
2755.43159871328
 31
0.0
  0
LINE
  5
17065
330
747D
100
AcDbEntity
  8
細線
100
AcDbLine
 10
10400.51126531742
 20
4480.931598713261
 30
0.0
 11
10400.51126531742
 21
2755.43159871328
 31
0.0
  0
LINE
  5
17066
330
747D
100
AcDbEntity
  8
細線
100
AcDbLine
 10
10470.51126531742
 20
4480.931598713261
 30
0.0
 11
10470.51126531742
 21
2755.43159871328
 31
0.0
  0
LINE
  5
17067
330
747D
100
AcDbEntity
  8
細線
100
AcDbLine
 10
10540.51126531742
 20
4480.931598713261
 30
0.0
 11
10540.51126531742
 21
2755.43159871328
 31
0.0
  0
LINE
  5
17068
330
747D
100
AcDbEntity
  8
細線
100
AcDbLine
 10
10610.51126531742
 20
4480.931598713261
 30
0.0
 11
10610.51126531742
 21
2755.43159871328
 31
0.0
  0
LINE
  5
17069
330
747D
100
AcDbEntity
  8
細線
100
AcDbLine
 10
9685.261275067658
 20
4480.931598713261
 30
0.0
 11
9685.261275067658
 21
2755.431598713272
 31
0.0
  0
LINE
  5
1706A
330
747D
100
AcDbEntity
  8
細線
100
AcDbLine
 10
9755.261275067656
 20
4480.931598713261
 30
0.0
 11
9755.261275067656
 21
2755.431598713272
 31
0.0
  0
LINE
  5
1706B
330
747D
100
AcDbEntity
  8
細線
100
AcDbLine
 10
9825.261275067656
 20
4480.931598713261
 30
0.0
 11
9825.261275067656
 21
2755.431598713272
 31
0.0
  0
LINE
  5
1706C
330
747D
100
AcDbEntity
  8
細線
100
AcDbLine
 10
9895.261275067657
 20
4480.931598713261
 30
0.0
 11
9895.261275067657
 21
2755.431598713272
 31
0.0
  0
LINE
  5
1706D
330
747D
100
AcDbEntity
  8
細線
100
AcDbLine
 10
9965.261275067657
 20
4480.931598713261
 30
0.0
 11
9965.261275067657
 21
2755.431598713272
 31
0.0
  0
LINE
  5
1706E
330
747D
100
AcDbEntity
  8
細線
100
AcDbLine
 10
10035.26127506765
 20
4480.931598713261
 30
0.0
 11
10035.26127506765
 21
2755.431598713272
 31
0.0
  0
LINE
  5
1706F
330
747D
100
AcDbEntity
  8
細線
100
AcDbLine
 10
8807.761265317411
 20
4480.931598713261
 30
0.0
 11
8807.761265317415
 21
2747.931598713265
 31
0.0
  0
LINE
  5
17070
330
747D
100
AcDbEntity
  8
細線
100
AcDbLine
 10
8841.761265317412
 20
4480.931598713261
 30
0.0
 11
8841.761265317414
 21
2747.931598713265
 31
0.0
  0
LINE
  5
17071
330
747D
100
AcDbEntity
  8
部品1
100
AcDbLine
 10
8799.761265317412
 20
4480.931598713261
 30
0.0
 11
8799.761265317414
 21
2747.931598713265
 31
0.0
  0
LINE
  5
17072
330
747D
100
AcDbEntity
  8
部品1
100
AcDbLine
 10
8849.761265317411
 20
4480.931598713261
 30
0.0
 11
8849.761265317415
 21
2747.931598713265
 31
0.0
  0
LINE
  5
17073
330
747D
100
AcDbEntity
  8
細線
100
AcDbLine
 10
9033.761265317414
 20
4480.931598713261
 30
0.0
 11
9033.76126531741
 21
2747.931598713265
 31
0.0
  0
LINE
  5
17074
330
747D
100
AcDbEntity
  8
細線
100
AcDbLine
 10
9103.761265317414
 20
4480.931598713261
 30
0.0
 11
9103.761265317411
 21
2747.931598713265
 31
0.0
  0
LINE
  5
17075
330
747D
100
AcDbEntity
  8
細線
100
AcDbLine
 10
9173.761265317414
 20
4480.931598713261
 30
0.0
 11
9173.761265317411
 21
2747.931598713265
 31
0.0
  0
LINE
  5
17076
330
747D
100
AcDbEntity
  8
細線
100
AcDbLine
 10
9243.761265317415
 20
4480.931598713261
 30
0.0
 11
9243.761265317411
 21
2747.931598713265
 31
0.0
  0
LINE
  5
17077
330
747D
100
AcDbEntity
  8
細線
100
AcDbLine
 10
9313.761265317415
 20
4480.931598713261
 30
0.0
 11
9313.761265317411
 21
2747.931598713269
 31
0.0
  0
LINE
  5
17078
330
747D
100
AcDbEntity
  8
細線
100
AcDbLine
 10
9383.761265317415
 20
4480.931598713261
 30
0.0
 11
9383.76126531741
 21
2747.931598713269
 31
0.0
  0
LINE
  5
17079
330
747D
100
AcDbEntity
  8
部品1
100
AcDbLine
 10
10137.76125562227
 20
4480.931598750412
 30
0.0
 11
10137.76125562227
 21
2755.431598750427
 31
0.0
  0
LINE
  5
1707A
330
747D
100
AcDbEntity
  8
部品1
 48
50.0
100
AcDbLine
 10
9483.76126531741
 20
4480.931598738028
 30
0.0
 11
9483.76126531741
 21
2747.931598713258
 31
0.0
  0
DIMENSION
  5
170F9
330
747D
100
AcDbEntity
  8
寸法
 48
50.0
100
AcDbDimension
  2
*D17
 10
8621.761265317415
 20
5172.024768052734
 30
0.0
 11
9726.761265317415
 21
5172.024768052734
 31
0.0
 70
   160
  1
柱外寸法<>
 71
     5
 42
2210.0
  3
INABA_S40G
100
AcDbAlignedDimension
 13
10831.76126531741
 23
4772.931598713267
 33
0.0
 14
8621.761265317415
 24
4772.931598713268
 34
0.0
100
AcDbRotatedDimension
  0
DIMENSION
  5
170FA
330
747D
100
AcDbEntity
  8
寸法
 48
50.0
100
AcDbDimension
  2
*D16
 10
8571.761265317414
 20
5172.024768052734
 30
0.0
 11
8258.275983943168
 21
5172.024768052734
 31
0.0
 70
   160
 71
     5
 42
50.0
  3
INABA_S40G
100
AcDbAlignedDimension
 13
8621.761265317415
 23
4772.931598713268
 33
0.0
 14
8571.761265317414
 24
4772.931598713267
 34
0.0
100
AcDbRotatedDimension
1001
ACAD
1000
DSTYLE
1002
{
1002
}
  0
DIMENSION
  5
170FB
330
747D
100
AcDbEntity
  8
寸法
 48
50.0
100
AcDbDimension
  2
*D15
 10
10881.76126531741
 20
5388.55086767118
 30
0.0
 11
9726.761265317415
 21
5388.55086767118
 31
0.0
 70
   160
 71
     5
 42
2310.0
  3
INABA_S40G
100
AcDbAlignedDimension
 13
8571.761265317414
 23
4772.931598713267
 33
0.0
 14
10881.76126531741
 24
4772.931598713264
 34
0.0
100
AcDbRotatedDimension
  0
LINE
  5
170FC
330
747D
100
AcDbEntity
  8
部品1
100
AcDbLine
 10
9784.761265317429
 20
4767.93159872173
 30
0.0
 11
9784.761265317431
 21
4670.520531213158
 31
0.0
  0
LINE
  5
170FD
330
747D
100
AcDbEntity
  8
部品1
100
AcDbLine
 10
9759.761265317429
 20
4767.93159872173
 30
0.0
 11
9759.761265317431
 21
4670.520531213158
 31
0.0
  0
LINE
  5
170FE
330
747D
100
AcDbEntity
  8
部品1
 48
50.0
100
AcDbLine
 10
9758.261265317422
 20
4767.931598721734
 30
0.0
 11
9786.261265317419
 21
4767.931598721734
 31
0.0
  0
LINE
  5
170FF
330
747D
100
AcDbEntity
  8
部品1
 48
50.0
100
AcDbLine
 10
9786.261265317422
 20
4767.931598721734
 30
0.0
 11
9796.761265317423
 21
4748.531598721732
 31
0.0
  0
LINE
  5
17100
330
747D
100
AcDbEntity
  8
部品1
 48
50.0
100
AcDbLine
 10
9758.261265317422
 20
4767.931598721734
 30
0.0
 11
9747.761265317421
 21
4748.531598721732
 31
0.0
  0
LINE
  5
17101
330
747D
100
AcDbEntity
  8
部品1
 48
50.0
100
AcDbLine
 10
9685.261265317421
 20
4767.931598721734
 30
0.0
 11
9713.26126531742
 21
4767.931598721734
 31
0.0
  0
LINE
  5
17102
330
747D
100
AcDbEntity
  8
部品1
100
AcDbLine
 10
9686.761265317429
 20
4767.93159872173
 30
0.0
 11
9686.761265317429
 21
4670.520531213158
 31
0.0
  0
LINE
  5
17103
330
747D
100
AcDbEntity
  8
部品1
 48
50.0
100
AcDbLine
 10
9685.261265317421
 20
4767.931598721734
 30
0.0
 11
9674.761265317421
 21
4748.531598721732
 31
0.0
  0
LINE
  5
17104
330
747D
100
AcDbEntity
  8
部品1
100
AcDbLine
 10
9711.761265317429
 20
4767.93159872173
 30
0.0
 11
9711.761265317429
 21
4670.520531213158
 31
0.0
  0
LINE
  5
17105
330
747D
100
AcDbEntity
  8
部品1
 48
50.0
100
AcDbLine
 10
9713.261265317422
 20
4767.931598721734
 30
0.0
 11
9723.761265317422
 21
4748.531598721732
 31
0.0
  0
LINE
  5
17106
330
747D
100
AcDbEntity
  8
部品1
100
AcDbLine
 10
9525.761265317429
 20
4767.931598721723
 30
0.0
 11
9525.761265317431
 21
4670.520531213158
 31
0.0
  0
LINE
  5
17107
330
747D
100
AcDbEntity
  8
部品1
 48
50.0
100
AcDbLine
 10
9528.761265317422
 20
4767.931598721734
 30
0.0
 11
9531.261265317423
 21
4748.531598721732
 31
0.0
  0
LINE
  5
17108
330
747D
100
AcDbEntity
  8
部品1
100
AcDbLine
 10
9507.76126531743
 20
4767.931598721723
 30
0.0
 11
9507.761265317432
 21
4670.520531213158
 31
0.0
  0
LINE
  5
17109
330
747D
100
AcDbEntity
  8
部品1
 48
50.0
100
AcDbLine
 10
9489.549925111234
 20
4758.531598721733
 30
0.0
 11
9488.261265317422
 21
4748.531598721732
 31
0.0
  0
LINE
  5
1710A
330
747D
100
AcDbEntity
  8
部品1
 48
50.0
100
AcDbLine
 10
9489.549925111234
 20
4758.531598721733
 30
0.0
 11
9503.549925111235
 21
4758.531598721733
 31
0.0
  0
LINE
  5
1710B
330
747D
100
AcDbEntity
  8
部品1
 48
50.0
100
AcDbLine
 10
9504.761265317423
 20
4767.931598721734
 30
0.0
 11
9503.549925111235
 21
4758.531598721733
 31
0.0
  0
LINE
  5
1710C
330
747D
100
AcDbEntity
  8
部品1
 48
50.0
100
AcDbLine
 10
9528.761265317422
 20
4767.931598721734
 30
0.0
 11
9504.761265317423
 21
4767.931598721734
 31
0.0
  0
LINE
  5
1710D
330
747D
100
AcDbEntity
  8
部品1
100
AcDbLine
 10
9674.761265317419
 20
4748.531598721728
 30
0.0
 11
9531.261265317418
 21
4748.531598721728
 31
0.0
  0
LINE
  5
1710E
330
747D
100
AcDbEntity
  8
部品1
100
AcDbLine
 10
9364.761265317429
 20
4767.93159872173
 30
0.0
 11
9364.761265317431
 21
4670.520531213158
 31
0.0
  0
LINE
  5
1710F
330
747D
100
AcDbEntity
  8
部品1
 48
50.0
100
AcDbLine
 10
9366.261265317422
 20
4767.931598721734
 30
0.0
 11
9376.761265317423
 21
4748.531598721732
 31
0.0
  0
LINE
  5
17110
330
747D
100
AcDbEntity
  8
部品1
100
AcDbLine
 10
9266.761265317429
 20
4767.93159872173
 30
0.0
 11
9266.761265317429
 21
4670.520531213158
 31
0.0
  0
LINE
  5
17111
330
747D
100
AcDbEntity
  8
部品1
100
AcDbLine
 10
9291.761265317429
 20
4767.93159872173
 30
0.0
 11
9291.761265317429
 21
4670.520531213158
 31
0.0
  0
LINE
  5
17112
330
747D
100
AcDbEntity
  8
部品1
100
AcDbLine
 10
9339.761265317429
 20
4767.93159872173
 30
0.0
 11
9339.761265317429
 21
4670.520531213158
 31
0.0
  0
LINE
  5
17113
330
747D
100
AcDbEntity
  8
部品1
 48
50.0
100
AcDbLine
 10
9265.261265317422
 20
4767.931598721734
 30
0.0
 11
9254.761265317423
 21
4748.531598721732
 31
0.0
  0
LINE
  5
17114
330
747D
100
AcDbEntity
  8
部品1
100
AcDbLine
 10
9327.761265317418
 20
4748.531598721728
 30
0.0
 11
9303.761265317422
 21
4748.531598721728
 31
0.0
  0
LINE
  5
17115
330
747D
100
AcDbEntity
  8
部品1
 48
50.0
100
AcDbLine
 10
9293.261265317422
 20
4767.931598721734
 30
0.0
 11
9303.761265317422
 21
4748.531598721732
 31
0.0
  0
LINE
  5
17116
330
747D
100
AcDbEntity
  8
部品1
 48
50.0
100
AcDbLine
 10
9338.261265317422
 20
4767.931598721734
 30
0.0
 11
9327.761265317422
 21
4748.531598721732
 31
0.0
  0
LINE
  5
17117
330
747D
100
AcDbEntity
  8
部品1
 48
50.0
100
AcDbLine
 10
9265.261265317422
 20
4767.931598721734
 30
0.0
 11
9293.261265317418
 21
4767.931598721734
 31
0.0
  0
LINE
  5
17118
330
747D
100
AcDbEntity
  8
部品1
 48
50.0
100
AcDbLine
 10
9338.261265317422
 20
4767.931598721734
 30
0.0
 11
9366.261265317417
 21
4767.931598721734
 31
0.0
  0
LINE
  5
17119
330
747D
100
AcDbEntity
  8
部品1
100
AcDbLine
 10
9105.761265317429
 20
4767.931598721723
 30
0.0
 11
9105.761265317431
 21
4670.520531213158
 31
0.0
  0
LINE
  5
1711A
330
747D
100
AcDbEntity
  8
部品1
100
AcDbLine
 10
9087.76126531743
 20
4767.931598721723
 30
0.0
 11
9087.76126531743
 21
4670.520531213158
 31
0.0
  0
LINE
  5
1711B
330
747D
100
AcDbEntity
  8
部品1
 48
50.0
100
AcDbLine
 10
9108.761265317422
 20
4767.931598721734
 30
0.0
 11
9084.761265317423
 21
4767.931598721734
 31
0.0
  0
LINE
  5
1711C
330
747D
100
AcDbEntity
  8
部品1
 48
50.0
100
AcDbLine
 10
9084.761265317423
 20
4767.931598721734
 30
0.0
 11
9083.549925111233
 21
4758.531598721733
 31
0.0
  0
LINE
  5
1711D
330
747D
100
AcDbEntity
  8
部品1
 48
50.0
100
AcDbLine
 10
9108.761265317422
 20
4767.931598721734
 30
0.0
 11
9111.261265317422
 21
4748.531598721732
 31
0.0
  0
LINE
  5
1711E
330
747D
100
AcDbEntity
  8
部品1
100
AcDbLine
 10
9254.761265317418
 20
4748.531598721728
 30
0.0
 11
9111.261265317418
 21
4748.531598721728
 31
0.0
  0
LINE
  5
1711F
330
747D
100
AcDbEntity
  8
部品1
100
AcDbLine
 10
9488.261265317422
 20
4748.531598721728
 30
0.0
 11
9376.761265317423
 21
4748.531598721728
 31
0.0
  0
LINE
  5
17120
330
747D
100
AcDbEntity
  8
部品1
100
AcDbLine
 10
9747.76126531742
 20
4748.531598721728
 30
0.0
 11
9723.761265317422
 21
4748.531598721728
 31
0.0
  0
LINE
  5
17121
330
747D
100
AcDbEntity
  8
部品1
100
AcDbLine
 10
9068.261265317422
 20
4748.531598721728
 30
0.0
 11
8956.761265317423
 21
4748.531598721728
 31
0.0
  0
LINE
  5
17122
330
747D
100
AcDbEntity
  8
部品1
100
AcDbLine
 10
8919.761265317429
 20
4767.93159872173
 30
0.0
 11
8919.761265317429
 21
4670.520531213158
 31
0.0
  0
LINE
  5
17123
330
747D
100
AcDbEntity
  8
部品1
100
AcDbLine
 10
8944.761265317429
 20
4767.93159872173
 30
0.0
 11
8944.761265317429
 21
4670.520531213158
 31
0.0
  0
LINE
  5
17124
330
747D
100
AcDbEntity
  8
部品1
 48
50.0
100
AcDbLine
 10
8946.261265317422
 20
4767.931598721734
 30
0.0
 11
8956.761265317423
 21
4748.531598721732
 31
0.0
  0
LINE
  5
17125
330
747D
100
AcDbEntity
  8
部品1
 48
50.0
100
AcDbLine
 10
8918.261265317422
 20
4767.931598721734
 30
0.0
 11
8946.261265317419
 21
4767.931598721734
 31
0.0
  0
LINE
  5
17126
330
747D
100
AcDbEntity
  8
部品1
 48
50.0
100
AcDbLine
 10
9069.549925111234
 20
4758.531598721733
 30
0.0
 11
9068.261265317422
 21
4748.531598721732
 31
0.0
  0
LINE
  5
17127
330
747D
100
AcDbEntity
  8
部品1
100
AcDbLine
 10
8907.761265317418
 20
4748.531598721728
 30
0.0
 11
8883.761265317422
 21
4748.531598721732
 31
0.0
  0
LINE
  5
17128
330
747D
100
AcDbEntity
  8
部品1
100
AcDbLine
 10
8871.761265317429
 20
4767.93159872173
 30
0.0
 11
8871.761265317431
 21
4670.520531213158
 31
0.0
  0
LINE
  5
17129
330
747D
100
AcDbEntity
  8
部品1
 48
50.0
100
AcDbLine
 10
8873.261265317422
 20
4767.931598721734
 30
0.0
 11
8883.761265317422
 21
4748.531598721732
 31
0.0
  0
LINE
  5
1712A
330
747D
100
AcDbEntity
  8
部品1
100
AcDbLine
 10
8846.761265317431
 20
4767.93159872173
 30
0.0
 11
8846.761265317427
 21
4670.520531213158
 31
0.0
  0
LINE
  5
1712B
330
747D
100
AcDbEntity
  8
部品1
 48
50.0
100
AcDbLine
 10
8845.261265317423
 20
4767.931598721734
 30
0.0
 11
8834.761265317423
 21
4748.531598721732
 31
0.0
  0
LINE
  5
1712C
330
747D
100
AcDbEntity
  8
部品1
 48
50.0
100
AcDbLine
 10
8845.261265317423
 20
4767.931598721734
 30
0.0
 11
8873.261265317418
 21
4767.931598721734
 31
0.0
  0
LINE
  5
1712D
330
747D
100
AcDbEntity
  8
部品1
 48
50.0
100
AcDbLine
 10
8918.261265317422
 20
4767.931598721734
 30
0.0
 11
8907.761265317423
 21
4748.531598721732
 31
0.0
  0
LINE
  5
1712E
330
747D
100
AcDbEntity
  8
部品1
100
AcDbLine
 10
8685.761265317429
 20
4767.931598721723
 30
0.0
 11
8685.761265317429
 21
4670.520531213158
 31
0.0
  0
LINE
  5
1712F
330
747D
100
AcDbEntity
  8
部品1
100
AcDbLine
 10
8667.761265317428
 20
4767.931598721734
 30
0.0
 11
8667.76126531743
 21
4670.520531213158
 31
0.0
  0
LINE
  5
17130
330
747D
100
AcDbEntity
  8
部品1
 48
50.0
100
AcDbLine
 10
8688.761265317422
 20
4767.931598721734
 30
0.0
 11
8691.261265317422
 21
4748.531598721732
 31
0.0
  0
LINE
  5
17131
330
747D
100
AcDbEntity
  8
部品1
100
AcDbLine
 10
8648.261265317421
 20
4748.531598721732
 30
0.0
 11
8621.761265317422
 21
4748.531598721732
 31
0.0
  0
LINE
  5
17132
330
747D
100
AcDbEntity
  8
部品1
 48
50.0
100
AcDbLine
 10
8649.549925111235
 20
4758.531598721733
 30
0.0
 11
8663.549925111235
 21
4758.531598721733
 31
0.0
  0
LINE
  5
17133
330
747D
100
AcDbEntity
  8
部品1
 48
50.0
100
AcDbLine
 10
8649.549925111235
 20
4758.531598721733
 30
0.0
 11
8648.261265317421
 21
4748.531598721732
 31
0.0
  0
LINE
  5
17134
330
747D
100
AcDbEntity
  8
部品1
 48
50.0
100
AcDbLine
 10
8664.761265317421
 20
4767.931598721734
 30
0.0
 11
8663.549925111235
 21
4758.531598721733
 31
0.0
  0
LINE
  5
17135
330
747D
100
AcDbEntity
  8
部品1
 48
50.0
100
AcDbLine
 10
8688.761265317422
 20
4767.931598721734
 30
0.0
 11
8664.761265317421
 21
4767.931598721734
 31
0.0
  0
LINE
  5
17136
330
747D
100
AcDbEntity
  8
部品1
100
AcDbLine
 10
8834.761265317423
 20
4748.531598721728
 30
0.0
 11
8691.261265317422
 21
4748.531598721732
 31
0.0
  0
LINE
  5
17137
330
747D
100
AcDbEntity
  8
部品1
 48
50.0
100
AcDbLine
 10
9069.549925111234
 20
4758.531598721733
 30
0.0
 11
9083.549925111233
 21
4758.531598721733
 31
0.0
  0
LINE
  5
17138
330
747D
100
AcDbEntity
  8
部品1
100
AcDbLine
 10
10836.83160264969
 20
4772.931598721711
 30
0.0
 11
8596.193425698329
 21
4772.931598721734
 31
0.0
  0
LINE
  5
17139
330
747D
100
AcDbEntity
  8
部品1
100
AcDbLine
 10
9908.261265317419
 20
4748.531598721714
 30
0.0
 11
9796.76126531743
 21
4748.531598721714
 31
0.0
  0
LINE
  5
1713A
330
747D
100
AcDbEntity
  8
部品1
 48
50.0
100
AcDbLine
 10
8616.690637324216
 20
4717.931598713261
 30
0.0
 11
8578.747309134632
 21
4717.931598713261
 31
0.0
  0
ARC
  5
1713B
330
747D
100
AcDbEntity
  8
部品1
100
AcDbCircle
 10
8573.72040775771
 20
4690.60171603385
 30
0.0
 40
0.7
100
AcDbArc
 50
183.6186294801377
 51
262.7131594833544
  0
ARC
  5
1713C
330
747D
100
AcDbEntity
  8
部品1
100
AcDbCircle
 10
8573.251111632515
 20
4686.931598713261
 30
0.0
 40
3.0
100
AcDbArc
 50
3.618629480137788
 51
90.0
  0
LINE
  5
1713D
330
747D
100
AcDbEntity
  8
部品1
100
AcDbLine
 10
8576.24513041132
 20
4687.120943774373
 30
0.0
 11
8580.99222342348
 21
4612.05753551959
 31
0.0
  0
ARC
  5
1713E
330
747D
100
AcDbEntity
  8
部品1
100
AcDbCircle
 10
8581.690827805202
 20
4612.10171603385
 30
0.0
 40
0.7
100
AcDbArc
 50
183.6186294801377
 51
262.7131594833544
  0
ARC
  5
1713F
330
747D
100
AcDbEntity
  8
部品1
100
AcDbCircle
 10
8581.221531680006
 20
4608.431598713261
 30
0.0
 40
3.0
100
AcDbArc
 50
3.618629480137788
 51
90.0
  0
ARC
  5
17140
330
747D
100
AcDbEntity
  8
部品1
100
AcDbCircle
 10
8591.873919980605
 20
4598.43159871326
 30
0.0
 40
7.0
100
AcDbArc
 50
183.6186294801377
 51
270.0
  0
ARC
  5
17141
330
747D
100
AcDbEntity
  8
部品1
100
AcDbCircle
 10
8578.747309134632
 20
4710.931598713261
 30
0.0
 40
7.0
100
AcDbArc
 50
90.0
 51
183.6186294801377
  0
LINE
  5
17142
330
747D
100
AcDbEntity
  8
部品1
100
AcDbLine
 10
8584.887876163394
 20
4597.989793570672
 30
0.0
 11
8584.215550458813
 21
4608.620943774372
 31
0.0
  0
LINE
  5
17143
330
747D
100
AcDbEntity
  8
部品1
100
AcDbLine
 10
8573.021803375988
 20
4690.55753551959
 30
0.0
 11
8571.761265317421
 21
4710.489793570672
 31
0.0
  0
LINE
  5
17144
330
747D
100
AcDbEntity
  8
部品1
100
AcDbLine
 10
8616.690637324216
 20
4717.931598713261
 30
0.0
 11
8578.747309134632
 21
4717.931598713261
 31
0.0
  0
ARC
  5
17145
330
747D
100
AcDbEntity
  8
部品1
100
AcDbCircle
 10
8616.690637324216
 20
4712.931598713261
 30
0.0
 40
5.0
100
AcDbArc
 50
0.0
 51
90.0
  0
LINE
  5
17146
330
747D
100
AcDbEntity
  8
部品1
100
AcDbLine
 10
8621.690637324217
 20
4767.93159873016
 30
0.0
 11
8621.690637324215
 21
4670.527570040591
 31
0.0
  0
LINE
  5
17147
330
747D
100
AcDbEntity
  8
部品1
100
AcDbLine
 10
10861.64861065422
 20
4591.431598713262
 30
0.0
 11
8591.873919980605
 21
4591.431598713262
 31
0.0
  0
LINE
  5
17148
330
747D
100
AcDbEntity
  8
部品1
 48
50.0
100
AcDbLine
 10
8571.761265317421
 20
4710.489793570672
 30
0.0
 11
8571.761265317421
 21
4765.489793587571
 31
0.0
  0
ARC
  5
17149
330
747D
100
AcDbEntity
  8
部品1
100
AcDbCircle
 10
8616.690637324216
 20
4767.93159873016
 30
0.0
 40
5.0
100
AcDbArc
 50
0.0
 51
90.0
  0
LINE
  5
1714A
330
747D
100
AcDbEntity
  8
部品1
100
AcDbLine
 10
8616.690637324216
 20
4772.931598730159
 30
0.0
 11
8578.747309134632
 21
4772.931598730159
 31
0.0
  0
ARC
  5
1714B
330
747D
100
AcDbEntity
  8
部品1
100
AcDbCircle
 10
8578.747309134632
 20
4765.931598730159
 30
0.0
 40
7.0
100
AcDbArc
 50
90.0
 51
183.6186294801377
  0
LINE
  5
1714C
330
747D
100
AcDbEntity
  8
細線
 48
50.0
100
AcDbLine
 10
10872.53962299047
 20
4612.204841277047
 30
0.0
 11
8581.644856949941
 21
4612.204841277047
 31
0.0
  0
LINE
  5
1714D
330
747D
100
AcDbEntity
  8
細線
 48
50.0
100
AcDbLine
 10
8604.25017541314
 20
4717.931598713261
 30
0.0
 11
8604.25017541314
 21
4591.431598713262
 31
0.0
  0
LINE
  5
1714E
330
747D
100
AcDbEntity
  8
細線
 48
50.0
100
AcDbLine
 10
8621.690637324215
 20
4689.90343146121
 30
0.0
 11
8573.627396040269
 21
4689.903431461218
 31
0.0
  0
LINE
  5
1714F
330
747D
100
AcDbEntity
  8
部品1
100
AcDbLine
 10
9927.761265317418
 20
4767.931598721723
 30
0.0
 11
9927.761265317418
 21
4670.520531213158
 31
0.0
  0
LINE
  5
17150
330
747D
100
AcDbEntity
  8
部品1
100
AcDbLine
 10
9945.761265317416
 20
4767.931598721734
 30
0.0
 11
9945.761265317416
 21
4670.520531213158
 31
0.0
  0
LINE
  5
17151
330
747D
100
AcDbEntity
  8
部品1
 48
50.0
100
AcDbLine
 10
9924.761265317425
 20
4767.931598721734
 30
0.0
 11
9948.761265317424
 21
4767.931598721734
 31
0.0
  0
LINE
  5
17152
330
747D
100
AcDbEntity
  8
部品1
 48
50.0
100
AcDbLine
 10
9924.761265317425
 20
4767.931598721734
 30
0.0
 11
9923.549925111238
 21
4758.531598721733
 31
0.0
  0
LINE
  5
17153
330
747D
100
AcDbEntity
  8
部品1
 48
50.0
100
AcDbLine
 10
9909.549925111239
 20
4758.531598721733
 30
0.0
 11
9923.549925111238
 21
4758.531598721733
 31
0.0
  0
LINE
  5
17154
330
747D
100
AcDbEntity
  8
部品1
 48
50.0
100
AcDbLine
 10
9909.549925111239
 20
4758.531598721733
 30
0.0
 11
9908.261265317424
 21
4748.531598721732
 31
0.0
  0
LINE
  5
17155
330
747D
100
AcDbEntity
  8
部品1
 48
50.0
100
AcDbLine
 10
9948.761265317424
 20
4767.931598721734
 30
0.0
 11
9951.261265317425
 21
4748.531598721732
 31
0.0
  0
LINE
  5
17156
330
747D
100
AcDbEntity
  8
部品1
 48
50.0
100
AcDbLine
 10
8604.25017541314
 20
4670.520531213158
 30
0.0
 11
10849.27235522169
 21
4670.520531213157
 31
0.0
  0
LINE
  5
17172
330
747D
100
AcDbEntity
  8
部品1
100
AcDbLine
 10
10167.76126531742
 20
4748.531598721732
 30
0.0
 11
10143.76126531742
 21
4748.531598721732
 31
0.0
  0
LINE
  5
17173
330
747D
100
AcDbEntity
  8
部品1
 48
50.0
100
AcDbLine
 10
10133.26126531742
 20
4767.931598721737
 30
0.0
 11
10143.76126531742
 21
4748.531598721736
 31
0.0
  0
LINE
  5
17174
330
747D
100
AcDbEntity
  8
部品1
 48
50.0
100
AcDbLine
 10
10105.26126531742
 20
4767.931598721737
 30
0.0
 11
10094.76126531742
 21
4748.531598721736
 31
0.0
  0
LINE
  5
17175
330
747D
100
AcDbEntity
  8
部品1
 48
50.0
100
AcDbLine
 10
10105.26126531742
 20
4767.931598721737
 30
0.0
 11
10133.26126531742
 21
4767.931598721737
 31
0.0
  0
LINE
  5
17176
330
747D
100
AcDbEntity
  8
部品1
 48
50.0
100
AcDbLine
 10
10178.26126531742
 20
4767.931598721737
 30
0.0
 11
10167.76126531742
 21
4748.531598721736
 31
0.0
  0
LINE
  5
17177
330
747D
100
AcDbEntity
  8
部品1
 48
50.0
100
AcDbLine
 10
10206.26126531742
 20
4767.931598721737
 30
0.0
 11
10216.76126531742
 21
4748.531598721736
 31
0.0
  0
LINE
  5
17178
330
747D
100
AcDbEntity
  8
部品1
 48
50.0
100
AcDbLine
 10
10178.26126531742
 20
4767.931598721737
 30
0.0
 11
10206.26126531742
 21
4767.931598721737
 31
0.0
  0
LINE
  5
17179
330
747D
100
AcDbEntity
  8
部品1
100
AcDbLine
 10
10328.26126531742
 20
4748.531598721718
 30
0.0
 11
10216.76126531743
 21
4748.531598721718
 31
0.0
  0
LINE
  5
1717A
330
747D
100
AcDbEntity
  8
部品1
100
AcDbLine
 10
10094.76126531742
 20
4748.531598721732
 30
0.0
 11
9951.26126531742
 21
4748.531598721732
 31
0.0
  0
LINE
  5
1717B
330
747D
100
AcDbEntity
  8
部品1
100
AcDbLine
 10
10131.76126531743
 20
4767.931598721734
 30
0.0
 11
10131.76126531743
 21
4670.520531213162
 31
0.0
  0
LINE
  5
1717C
330
747D
100
AcDbEntity
  8
部品1
100
AcDbLine
 10
10106.76126531743
 20
4767.931598721734
 30
0.0
 11
10106.76126531743
 21
4670.520531213162
 31
0.0
  0
LINE
  5
1717D
330
747D
100
AcDbEntity
  8
部品1
100
AcDbLine
 10
10179.76126531743
 20
4767.931598721734
 30
0.0
 11
10179.76126531743
 21
4670.520531213162
 31
0.0
  0
LINE
  5
1717E
330
747D
100
AcDbEntity
  8
部品1
100
AcDbLine
 10
10204.76126531743
 20
4767.931598721734
 30
0.0
 11
10204.76126531743
 21
4670.520531213162
 31
0.0
  0
DIMENSION
  5
171C2
330
747D
100
AcDbEntity
  8
寸法
 48
50.0
100
AcDbDimension
  2
*D18
 10
10831.76126531741
 20
5172.024768052734
 30
0.0
 11
11195.24654669165
 21
5172.024768052734
 31
0.0
 70
   160
 71
     5
 42
50.0
  3
INABA_S40G
100
AcDbAlignedDimension
 13
10881.76126531741
 23
4772.931598713264
 33
0.0
 14
10831.76126531741
 24
4772.931598713267
 34
0.0
100
AcDbRotatedDimension
  0
LINE
  5
171C3
330
747D
100
AcDbEntity
  8
部品1
100
AcDbLine
 10
10767.7612653174
 20
4767.931598721723
 30
0.0
 11
10767.7612653174
 21
4670.520531213158
 31
0.0
  0
LINE
  5
171C4
330
747D
100
AcDbEntity
  8
部品1
100
AcDbLine
 10
10785.7612653174
 20
4767.931598721734
 30
0.0
 11
10785.7612653174
 21
4670.520531213158
 31
0.0
  0
LINE
  5
171C5
330
747D
100
AcDbEntity
  8
部品1
 48
50.0
100
AcDbLine
 10
10764.7612653174
 20
4767.931598721734
 30
0.0
 11
10788.7612653174
 21
4767.931598721734
 31
0.0
  0
LINE
  5
171C6
330
747D
100
AcDbEntity
  8
部品1
 48
50.0
100
AcDbLine
 10
10836.83189331061
 20
4717.931598713261
 30
0.0
 11
10874.77522150019
 21
4717.931598713261
 31
0.0
  0
ARC
  5
171C7
330
747D
100
AcDbEntity
  8
部品1
100
AcDbCircle
 10
10879.80212287712
 20
4690.60171603385
 30
0.0
 40
0.7
100
AcDbArc
 50
277.2868405166456
 51
356.3813705198622
  0
ARC
  5
171C8
330
747D
100
AcDbEntity
  8
部品1
100
AcDbCircle
 10
10880.27141900231
 20
4686.931598713261
 30
0.0
 40
3.0
100
AcDbArc
 50
90.0
 51
176.3813705198622
  0
LINE
  5
171C9
330
747D
100
AcDbEntity
  8
部品1
100
AcDbLine
 10
10877.27740022351
 20
4687.120943774373
 30
0.0
 11
10872.53030721135
 21
4612.05753551959
 31
0.0
  0
ARC
  5
171CA
330
747D
100
AcDbEntity
  8
部品1
100
AcDbCircle
 10
10871.83170282962
 20
4612.10171603385
 30
0.0
 40
0.7
100
AcDbArc
 50
277.2868405166456
 51
356.3813705198622
  0
ARC
  5
171CB
330
747D
100
AcDbEntity
  8
部品1
100
AcDbCircle
 10
10872.30099895482
 20
4608.431598713261
 30
0.0
 40
3.0
100
AcDbArc
 50
90.0
 51
176.3813705198622
  0
ARC
  5
171CC
330
747D
100
AcDbEntity
  8
部品1
100
AcDbCircle
 10
10861.64861065422
 20
4598.43159871326
 30
0.0
 40
7.0
100
AcDbArc
 50
270.0
 51
356.3813705198622
  0
ARC
  5
171CD
330
747D
100
AcDbEntity
  8
部品1
100
AcDbCircle
 10
10874.77522150019
 20
4710.931598713261
 30
0.0
 40
7.0
100
AcDbArc
 50
356.3813705198622
 51
90.0
  0
LINE
  5
171CE
330
747D
100
AcDbEntity
  8
部品1
100
AcDbLine
 10
10868.63465447143
 20
4597.989793570672
 30
0.0
 11
10869.30698017602
 21
4608.620943774372
 31
0.0
  0
LINE
  5
171CF
330
747D
100
AcDbEntity
  8
部品1
100
AcDbLine
 10
10880.50072725884
 20
4690.55753551959
 30
0.0
 11
10881.7612653174
 21
4710.489793570672
 31
0.0
  0
LINE
  5
171D0
330
747D
100
AcDbEntity
  8
部品1
100
AcDbLine
 10
10836.83189331061
 20
4717.931598713261
 30
0.0
 11
10874.77522150019
 21
4717.931598713261
 31
0.0
  0
ARC
  5
171D1
330
747D
100
AcDbEntity
  8
部品1
100
AcDbCircle
 10
10836.83189331061
 20
4712.931598713261
 30
0.0
 40
5.0
100
AcDbArc
 50
90.0
 51
180.0
  0
LINE
  5
171D2
330
747D
100
AcDbEntity
  8
部品1
100
AcDbLine
 10
10831.83189331061
 20
4767.93159873016
 30
0.0
 11
10831.83189331061
 21
4670.520531213158
 31
0.0
  0
LINE
  5
171D3
330
747D
100
AcDbEntity
  8
部品1
 48
50.0
100
AcDbLine
 10
10881.7612653174
 20
4710.489793570672
 30
0.0
 11
10881.7612653174
 21
4765.489793587571
 31
0.0
  0
ARC
  5
171D4
330
747D
100
AcDbEntity
  8
部品1
100
AcDbCircle
 10
10836.83189331061
 20
4767.93159873016
 30
0.0
 40
5.0
100
AcDbArc
 50
90.0
 51
180.0
  0
LINE
  5
171D5
330
747D
100
AcDbEntity
  8
部品1
100
AcDbLine
 10
10836.83189331061
 20
4772.931598730159
 30
0.0
 11
10874.77522150019
 21
4772.931598730159
 31
0.0
  0
ARC
  5
171D6
330
747D
100
AcDbEntity
  8
部品1
100
AcDbCircle
 10
10874.77522150019
 20
4765.931598730159
 30
0.0
 40
7.0
100
AcDbArc
 50
356.3813705198622
 51
90.0
  0
LINE
  5
171D7
330
747D
100
AcDbEntity
  8
細線
 48
50.0
100
AcDbLine
 10
10849.27235522169
 20
4717.931598713261
 30
0.0
 11
10849.27235522169
 21
4591.431598713262
 31
0.0
  0
LINE
  5
171D8
330
747D
100
AcDbEntity
  8
細線
 48
50.0
100
AcDbLine
 10
10831.83189331061
 20
4689.90343146121
 30
0.0
 11
10879.89513459456
 21
4689.903431461218
 31
0.0
  0
LINE
  5
171D9
330
747D
100
AcDbEntity
  8
部品1
 48
50.0
100
AcDbLine
 10
10764.7612653174
 20
4767.931598721734
 30
0.0
 11
10763.54992511122
 21
4758.531598721733
 31
0.0
  0
LINE
  5
171DA
330
747D
100
AcDbEntity
  8
部品1
 48
50.0
100
AcDbLine
 10
10749.54992511122
 20
4758.531598721733
 30
0.0
 11
10763.54992511122
 21
4758.531598721733
 31
0.0
  0
LINE
  5
171DB
330
747D
100
AcDbEntity
  8
部品1
 48
50.0
100
AcDbLine
 10
10749.54992511122
 20
4758.531598721733
 30
0.0
 11
10748.2612653174
 21
4748.531598721732
 31
0.0
  0
LINE
  5
171DC
330
747D
100
AcDbEntity
  8
部品1
 48
50.0
100
AcDbLine
 10
10788.7612653174
 20
4767.931598721734
 30
0.0
 11
10791.2612653174
 21
4748.531598721732
 31
0.0
  0
LINE
  5
171DD
330
747D
100
AcDbEntity
  8
部品1
100
AcDbLine
 10
10831.83189331061
 20
4748.531598721728
 30
0.0
 11
10791.2612653174
 21
4748.531598721728
 31
0.0
  0
LINE
  5
171F7
330
747D
100
AcDbEntity
  8
部品1
100
AcDbLine
 10
10748.26126531742
 20
4748.531598721721
 30
0.0
 11
10636.76126531743
 21
4748.531598721721
 31
0.0
  0
LINE
  5
171F8
330
747D
100
AcDbEntity
  8
部品1
100
AcDbLine
 10
10624.76126531743
 20
4767.931598721737
 30
0.0
 11
10624.76126531743
 21
4670.520531213166
 31
0.0
  0
LINE
  5
171F9
330
747D
100
AcDbEntity
  8
部品1
100
AcDbLine
 10
10599.76126531743
 20
4767.931598721737
 30
0.0
 11
10599.76126531743
 21
4670.520531213166
 31
0.0
  0
LINE
  5
171FA
330
747D
100
AcDbEntity
  8
部品1
100
AcDbLine
 10
10526.76126531743
 20
4767.931598721737
 30
0.0
 11
10526.76126531743
 21
4670.520531213166
 31
0.0
  0
LINE
  5
171FB
330
747D
100
AcDbEntity
  8
部品1
100
AcDbLine
 10
10551.76126531743
 20
4767.931598721737
 30
0.0
 11
10551.76126531743
 21
4670.520531213166
 31
0.0
  0
LINE
  5
171FC
330
747D
100
AcDbEntity
  8
部品1
 48
50.0
100
AcDbLine
 10
10598.26126531742
 20
4767.931598721741
 30
0.0
 11
10626.26126531742
 21
4767.931598721741
 31
0.0
  0
LINE
  5
171FD
330
747D
100
AcDbEntity
  8
部品1
 48
50.0
100
AcDbLine
 10
10626.26126531742
 20
4767.931598721741
 30
0.0
 11
10636.76126531742
 21
4748.531598721739
 31
0.0
  0
LINE
  5
171FE
330
747D
100
AcDbEntity
  8
部品1
 48
50.0
100
AcDbLine
 10
10598.26126531742
 20
4767.931598721741
 30
0.0
 11
10587.76126531742
 21
4748.531598721739
 31
0.0
  0
LINE
  5
171FF
330
747D
100
AcDbEntity
  8
部品1
 48
50.0
100
AcDbLine
 10
10525.26126531742
 20
4767.931598721741
 30
0.0
 11
10553.26126531742
 21
4767.931598721741
 31
0.0
  0
LINE
  5
17200
330
747D
100
AcDbEntity
  8
部品1
 48
50.0
100
AcDbLine
 10
10525.26126531742
 20
4767.931598721741
 30
0.0
 11
10514.76126531742
 21
4748.531598721739
 31
0.0
  0
LINE
  5
17201
330
747D
100
AcDbEntity
  8
部品1
 48
50.0
100
AcDbLine
 10
10553.26126531742
 20
4767.931598721741
 30
0.0
 11
10563.76126531742
 21
4748.531598721739
 31
0.0
  0
LINE
  5
17202
330
747D
100
AcDbEntity
  8
部品1
100
AcDbLine
 10
10587.76126531742
 20
4748.531598721736
 30
0.0
 11
10563.76126531742
 21
4748.531598721736
 31
0.0
  0
LINE
  5
17203
330
747D
100
AcDbEntity
  8
部品1
100
AcDbLine
 10
10514.76126531742
 20
4748.531598721736
 30
0.0
 11
10371.26126531742
 21
4748.531598721736
 31
0.0
  0
LINE
  5
17204
330
747D
100
AcDbEntity
  8
部品1
 48
50.0
100
AcDbLine
 10
10368.76126531742
 20
4767.931598721737
 30
0.0
 11
10371.26126531742
 21
4748.531598721736
 31
0.0
  0
LINE
  5
17205
330
747D
100
AcDbEntity
  8
部品1
 48
50.0
100
AcDbLine
 10
10329.54992511124
 20
4758.531598721736
 30
0.0
 11
10328.26126531742
 21
4748.531598721736
 31
0.0
  0
LINE
  5
17206
330
747D
100
AcDbEntity
  8
部品1
 48
50.0
100
AcDbLine
 10
10329.54992511124
 20
4758.531598721736
 30
0.0
 11
10343.54992511124
 21
4758.531598721736
 31
0.0
  0
LINE
  5
17207
330
747D
100
AcDbEntity
  8
部品1
 48
50.0
100
AcDbLine
 10
10344.76126531742
 20
4767.931598721737
 30
0.0
 11
10343.54992511124
 21
4758.531598721736
 31
0.0
  0
LINE
  5
17208
330
747D
100
AcDbEntity
  8
部品1
 48
50.0
100
AcDbLine
 10
10344.76126531742
 20
4767.931598721737
 30
0.0
 11
10368.76126531742
 21
4767.931598721737
 31
0.0
  0
LINE
  5
17209
330
747D
100
AcDbEntity
  8
部品1
100
AcDbLine
 10
10365.76126531742
 20
4767.931598721737
 30
0.0
 11
10365.76126531742
 21
4670.520531213162
 31
0.0
  0
LINE
  5
1720A
330
747D
100
AcDbEntity
  8
部品1
100
AcDbLine
 10
10347.76126531742
 20
4767.931598721727
 30
0.0
 11
10347.76126531742
 21
4670.520531213162
 31
0.0
  0
MTEXT
  5
1725E
330
747D
100
AcDbEntity
  8
寸法
 62
     7
 48
50.0
100
AcDbMText
 10
10391.86380241056
 20
8897.748124973896
 30
0.0
 40
96.0
 41
0.0
 71
     5
 72
     1
  1
棚 2段
  7
STYLE1
 73
     1
 44
1.0
1001
ACAD
1000
MTEXTBEGIN
1070
    73
1070
     1
1070
    44
1040
1.0
1070
    74
1070
     0
1000
MTEXTEND
  0
MTEXT
  5
1725F
330
747D
100
AcDbEntity
  8
寸法
 62
     7
 48
50.0
100
AcDbMText
 10
9301.863802410563
 20
8897.748124973849
 30
0.0
 40
96.0
 41
0.0
 71
     5
 72
     1
  1
棚 2段
  7
STYLE1
 73
     1
 44
1.0
1001
ACAD
1000
MTEXTBEGIN
1070
    73
1070
     1
1070
    44
1040
1.0
1070
    74
1070
     0
1000
MTEXTEND
  0
TEXT
  5
17260
330
747D
100
AcDbEntity
  8
部品1
100
AcDbText
 10
3371.185398815454
 20
2634.038502319163
 30
0.0
 40
125.0
  1
▽G.L
  7
STYLE2
100
AcDbText
  0
TEXT
  5
17261
330
747D
100
AcDbEntity
  8
部品1
100
AcDbText
 10
5835.450615266556
 20
1525.722526519778
 30
0.0
 40
135.0
  1
側面図
  7
STYLE2
100
AcDbText
  0
LINE
  5
17262
330
747D
100
AcDbEntity
  8
部品1
100
AcDbLine
 10
5746.004513842948
 20
1718.616055738302
 30
0.0
 11
5746.004513842948
 21
1478.723734192769
 31
0.0
  0
LINE
  5
17263
330
747D
100
AcDbEntity
  8
部品1
100
AcDbLine
 10
5746.004513842948
 20
1478.723734192769
 30
0.0
 11
6509.475180071388
 21
1478.723734192769
 31
0.0
  0
LINE
  5
17264
330
747D
100
AcDbEntity
  8
部品1
100
AcDbLine
 10
6509.475180071388
 20
1478.723734192769
 30
0.0
 11
6509.475180071388
 21
1718.616055738302
 31
0.0
  0
LINE
  5
17265
330
747D
100
AcDbEntity
  8
部品1
100
AcDbLine
 10
6509.475180071388
 20
1718.616055738302
 30
0.0
 11
5746.004513842948
 21
1718.616055738302
 31
0.0
  0
LINE
  5
17266
330
747D
100
AcDbEntity
  8
破線
 48
5.0
100
AcDbLine
 10
6675.239846957173
 20
2597.931598713262
 30
0.0
 11
6675.239846957174
 21
2397.931598713261
 31
0.0
  0
LINE
  5
17267
330
747D
100
AcDbEntity
  8
破線
 48
5.0
100
AcDbLine
 10
6875.239846957171
 20
2397.93159871326
 30
0.0
 11
6675.239846957174
 21
2397.931598713261
 31
0.0
  0
LINE
  5
17268
330
747D
100
AcDbEntity
  8
破線
 48
5.0
100
AcDbLine
 10
6875.239846957173
 20
2597.931598713262
 30
0.0
 11
6875.239846957171
 21
2397.93159871326
 31
0.0
  0
DIMENSION
  5
17269
330
747D
100
AcDbEntity
  8
寸法
 48
50.0
100
AcDbDimension
  2
*D30
 10
5360.239846957171
 20
2111.884269412883
 30
0.0
 11
5460.239846957168
 21
2111.884269412883
 31
0.0
 70
   160
 71
     5
 42
199.9999999999963
  3
INABA_S40G
100
AcDbAlignedDimension
 13
5560.239846957167
 23
2397.931598713259
 33
0.0
 14
5360.239846957171
 24
2397.93159871326
 34
0.0
100
AcDbRotatedDimension
  0
LINE
  5
1726A
330
747D
100
AcDbEntity
  8
破線
 48
5.0
100
AcDbLine
 10
5360.239846957169
 20
2597.931598713262
 30
0.0
 11
5360.239846957171
 21
2397.93159871326
 31
0.0
  0
LINE
  5
1726B
330
747D
100
AcDbEntity
  8
破線
 48
5.0
100
AcDbLine
 10
5560.239846957169
 20
2597.931598713262
 30
0.0
 11
5560.239846957167
 21
2397.93159871326
 31
0.0
  0
LINE
  5
1726C
330
747D
100
AcDbEntity
  8
破線
 48
5.0
100
AcDbLine
 10
5560.239846957167
 20
2397.93159871326
 30
0.0
 11
5360.239846957171
 21
2397.93159871326
 31
0.0
  0
DIMENSION
  5
1726D
330
747D
100
AcDbEntity
  8
寸法
 48
50.0
100
AcDbDimension
  2
*D29
 10
5210.739843710534
 20
2597.931598713261
 30
0.0
 11
5210.739843710533
 21
2497.931598713261
 31
0.0
 70
   160
 71
     5
 42
200.0000000000009
  3
INABA_S40G
100
AcDbAlignedDimension
 13
5360.239846957171
 23
2397.93159871326
 33
0.0
 14
5335.239846957168
 24
2597.931598713261
 34
0.0
 50
90.0
100
AcDbRotatedDimension
1001
ACAD
1000
DSTYLE
1002
{
1070
   174
1070
     0
1070
   272
1070
     1
1070
   288
1070
     0
1070
   341
1005
0
1002
}
  0
LINE
  5
1726E
330
747D
100
AcDbEntity
  8
部品1
 48
50.0
100
AcDbLine
 10
5977.739846957169
 20
4903.799737814541
 30
0.0
 11
6277.739846957169
 21
4882.199737814542
 31
0.0
  0
LINE
  5
1726F
330
747D
100
AcDbEntity
  8
細線
 48
50.0
100
AcDbLine
 10
6405.239846957171
 20
4537.931598713261
 30
0.0
 11
6405.239846957171
 21
2747.931598713261
 31
0.0
  0
LINE
  5
17270
330
747D
100
AcDbEntity
  8
細線
 48
50.0
100
AcDbLine
 10
6390.239846957171
 20
4537.931598713261
 30
0.0
 11
6390.239846957171
 21
2747.931598713261
 31
0.0
  0
LINE
  5
17271
330
747D
100
AcDbEntity
  8
細線
 48
50.0
100
AcDbLine
 10
6530.239846957171
 20
4537.931598713261
 30
0.0
 11
6530.239846957171
 21
2747.931598713261
 31
0.0
  0
LINE
  5
17272
330
747D
100
AcDbEntity
  8
細線
 48
50.0
100
AcDbLine
 10
6545.23984695717
 20
4537.931598713261
 30
0.0
 11
6545.23984695717
 21
2747.931598713261
 31
0.0
  0
LINE
  5
17273
330
747D
100
AcDbEntity
  8
細線
 48
50.0
100
AcDbLine
 10
6685.239846957171
 20
4537.931598713261
 30
0.0
 11
6685.239846957171
 21
2747.931598713261
 31
0.0
  0
LINE
  5
17274
330
747D
100
AcDbEntity
  8
細線
 48
50.0
100
AcDbLine
 10
6670.23984695717
 20
4537.931598713261
 30
0.0
 11
6670.23984695717
 21
2747.931598713261
 31
0.0
  0
LINE
  5
17275
330
747D
100
AcDbEntity
  8
部品1
100
AcDbLine
 10
6327.739846957167
 20
4537.931598713261
 30
0.0
 11
6327.739846957167
 21
2747.931598713261
 31
0.0
  0
TEXT
  5
17276
330
747D
100
AcDbEntity
  8
部品1
 48
50.0
100
AcDbText
 10
6454.83269424503
 20
4802.182501748692
 30
0.0
 40
120.0
  1
71
 50
90.0
  7
STYLE1
100
AcDbText
  0
TEXT
  5
17277
330
747D
100
AcDbEntity
  8
部品1
 48
50.0
100
AcDbText
 10
5966.007682180896
 20
4939.683759966975
 30
0.0
 40
120.0
  1
1000
  7
STYLE1
100
AcDbText
  0
LINE
  5
17278
330
747D
100
AcDbEntity
  8
部品1
 48
50.0
100
AcDbLine
 10
6277.739846957169
 20
4903.799737814541
 30
0.0
 11
6277.739846957169
 21
4882.199737814542
 31
0.0
  0
LINE
  5
17279
330
747D
100
AcDbEntity
  8
部品1
 48
50.0
100
AcDbLine
 10
5977.739846957169
 20
4903.799737814541
 30
0.0
 11
6277.739846957169
 21
4903.799737814541
 31
0.0
  0
DIMENSION
  5
1727A
330
747D
100
AcDbEntity
  8
寸法
 48
50.0
100
AcDbDimension
  2
*D28
 10
4780.473595245799
 20
4794.754089610075
 30
0.0
 11
4789.151338897687
 21
5024.590328626975
 31
0.0
 70
   160
 71
     5
 42
141.0
  3
INABA_S40G
100
AcDbAlignedDimension
 13
5388.082411559122
 23
4630.712623782229
 33
0.0
 14
5393.402245711077
 24
4771.612231179111
 34
0.0
 50
87.83775598715743
100
AcDbRotatedDimension
1001
ACAD
1000
DSTYLE
1002
{
1070
   174
1070
     0
1070
   272
1070
     1
1070
   288
1070
     0
1070
   341
1005
0
1002
}
  0
DIMENSION
  5
1727B
330
747D
100
AcDbEntity
  8
寸法
 48
50.0
100
AcDbDimension
  2
*D27
 10
6882.739846957169
 20
5171.589052292565
 30
0.0
 11
7088.787091051658
 21
5171.589052292565
 31
0.0
 70
   160
 71
     5
 42
80.0
  3
INABA_S40G
100
AcDbAlignedDimension
 13
6802.73984695717
 23
4719.742278324915
 33
0.0
 14
6882.739846957169
 24
4717.931598713263
 34
0.0
100
AcDbRotatedDimension
1001
ACAD
1000
DSTYLE
1002
{
1070
   174
1070
     0
1070
   272
1070
     1
1070
   288
1070
     0
1070
   341
1005
0
1002
}
  0
ARC
  5
1727C
330
747D
100
AcDbEntity
  8
部品1
100
AcDbCircle
 10
6868.367382771104
 20
4611.365399597478
 30
0.0
 40
0.7
100
AcDbArc
 50
275.0921697642102
 51
354.1866997667087
  0
ARC
  5
1727D
330
747D
100
AcDbEntity
  8
部品1
100
AcDbCircle
 10
6879.226728520426
 20
4688.408654415401
 30
0.0
 40
0.7
100
AcDbArc
 50
275.0921697642102
 51
354.1866997665532
  0
ARC
  5
1727E
330
747D
100
AcDbEntity
  8
部品1
100
AcDbCircle
 10
6879.555133763027
 20
4684.723257558313
 30
0.0
 40
3.0
100
AcDbArc
 50
95.09216976441781
 51
174.1866997665532
  0
ARC
  5
1727F
330
747D
100
AcDbEntity
  8
部品1
100
AcDbCircle
 10
6868.695788013702
 20
4607.680002740387
 30
0.0
 40
3.0
100
AcDbArc
 50
95.0921697642102
 51
174.1866997665532
  0
ARC
  5
17280
330
747D
100
AcDbEntity
  8
部品1
 48
50.0
100
AcDbCircle
 10
6857.667652738598
 20
4598.089258136507
 30
0.0
 40
7.0
100
AcDbArc
 50
267.8377559869492
 51
354.1866997665532
  0
ARC
  5
17281
330
747D
100
AcDbEntity
  8
部品1
 48
50.0
100
AcDbCircle
 10
6874.989749203114
 20
4708.99180527868
 30
0.0
 40
7.0
100
AcDbArc
 50
354.1866997665013
 51
87.03587545303909
  0
LINE
  5
17282
330
747D
100
AcDbEntity
  8
部品1
 48
50.0
100
AcDbLine
 10
6865.711216343093
 20
4607.983864457292
 30
0.0
 11
6864.631653303352
 21
4597.380247463735
 31
0.0
  0
LINE
  5
17283
330
747D
100
AcDbEntity
  8
部品1
 48
50.0
100
AcDbLine
 10
6876.570562092417
 20
4685.027119275215
 30
0.0
 11
6869.06378282758
 21
4611.294498530203
 31
0.0
  0
LINE
  5
17284
330
747D
100
AcDbEntity
  8
部品1
 48
50.0
100
AcDbLine
 10
6881.953749767868
 20
4708.282794605904
 30
0.0
 11
6879.923128576898
 21
4688.337753348124
 31
0.0
  0
ARC
  5
17285
330
747D
100
AcDbEntity
  8
部品1
100
AcDbCircle
 10
5378.776938828533
 20
4651.745757672165
 30
0.0
 40
0.7
100
AcDbArc
 50
181.0932240292114
 51
260.187754031489
  0
ARC
  5
17286
330
747D
100
AcDbEntity
  8
部品1
100
AcDbCircle
 10
5374.004265230924
 20
4744.611535872286
 30
0.0
 40
0.7
100
AcDbArc
 50
181.0932240292114
 51
260.187754031489
  0
ARC
  5
17287
330
747D
100
AcDbEntity
  8
部品1
100
AcDbCircle
 10
5373.373710827902
 20
4740.965661334887
 30
0.0
 40
3.0
100
AcDbArc
 50
1.093224029263536
 51
80.18775403148891
  0
ARC
  5
17288
330
747D
100
AcDbEntity
  8
部品1
100
AcDbCircle
 10
5378.146384425507
 20
4648.099883134768
 30
0.0
 40
3.0
100
AcDbArc
 50
1.093224029315636
 51
80.18775403148891
  0
ARC
  5
17289
330
747D
100
AcDbEntity
  8
部品1
 48
50.0
100
AcDbCircle
 10
5388.34651680071
 20
4637.707639752287
 30
0.0
 40
7.0
100
AcDbArc
 50
181.0932240293156
 51
267.8377559869492
  0
ARC
  5
1728A
330
747D
100
AcDbEntity
  8
部品1
 48
50.0
100
AcDbCircle
 10
5379.922858698614
 20
4764.658699285381
 30
0.0
 40
7.0
100
AcDbArc
 50
87.03587545303909
 51
181.0932240292635
  0
LINE
  5
1728B
330
747D
100
AcDbEntity
  8
部品1
 48
50.0
100
AcDbLine
 10
5381.145838351939
 20
4648.157120737951
 30
0.0
 11
5381.347790972371
 21
4637.574085344859
 31
0.0
  0
LINE
  5
1728C
330
747D
100
AcDbEntity
  8
細線
 48
50.0
100
AcDbLine
 10
5378.539745295268
 20
4651.08716885676
 30
0.0
 11
6868.543409725905
 21
4610.687893500691
 31
0.0
  0
LINE
  5
1728D
330
747D
100
AcDbEntity
  8
細線
 48
50.0
100
AcDbLine
 10
5373.779270057981
 20
4743.948680554622
 30
0.0
 11
6879.415254803149
 21
4687.734519532219
 31
0.0
  0
LINE
  5
1728E
330
747D
100
AcDbEntity
  8
部品1
 48
50.0
100
AcDbLine
 10
5376.373164754332
 20
4741.02289893807
 30
0.0
 11
5378.077066245698
 21
4651.732402231424
 31
0.0
  0
LINE
  5
1728F
330
747D
100
AcDbEntity
  8
部品1
 48
50.0
100
AcDbLine
 10
5372.924132870275
 20
4764.525144877954
 30
0.0
 11
5373.304392648088
 21
4744.598180431541
 31
0.0
  0
LINE
  5
17290
330
747D
100
AcDbEntity
  8
細線
 48
50.0
100
AcDbLine
 10
6849.739846957169
 20
4717.308621366983
 30
0.0
 11
6844.992164069168
 21
4591.562848876238
 31
0.0
  0
LINE
  5
17291
330
747D
100
AcDbEntity
  8
細線
 48
50.0
100
AcDbLine
 10
5405.739846957169
 20
4770.331275088665
 30
0.0
 11
5400.450745401658
 21
4630.245642461312
 31
0.0
  0
LINE
  5
17292
330
747D
100
AcDbEntity
  8
部品1
100
AcDbLine
 10
5388.082411559122
 20
4630.712623782229
 30
0.0
 11
6857.403547497011
 21
4591.094242166447
 31
0.0
  0
LINE
  5
17293
330
747D
100
AcDbEntity
  8
部品1
100
AcDbLine
 10
5380.28483331413
 20
4771.649334047528
 30
0.0
 11
6875.351723818631
 21
4715.982440040825
 31
0.0
  0
LINE
  5
17294
330
747D
100
AcDbEntity
  8
細線
 48
50.0
100
AcDbLine
 10
5565.239846957167
 20
4537.931598713261
 30
0.0
 11
5565.239846957167
 21
2747.931598713261
 31
0.0
  0
LINE
  5
17295
330
747D
100
AcDbEntity
  8
細線
 48
50.0
100
AcDbLine
 10
5550.239846957167
 20
4537.931598713261
 30
0.0
 11
5550.239846957167
 21
2747.931598713261
 31
0.0
  0
LINE
  5
17296
330
747D
100
AcDbEntity
  8
細線
 48
50.0
100
AcDbLine
 10
5690.239846957167
 20
4537.931598713261
 30
0.0
 11
5690.239846957167
 21
2747.931598713261
 31
0.0
  0
LINE
  5
17297
330
747D
100
AcDbEntity
  8
細線
 48
50.0
100
AcDbLine
 10
5705.239846957167
 20
4537.931598713261
 30
0.0
 11
5705.239846957167
 21
2747.931598713261
 31
0.0
  0
LINE
  5
17298
330
747D
100
AcDbEntity
  8
細線
 48
50.0
100
AcDbLine
 10
5845.239846957167
 20
4537.931598713261
 30
0.0
 11
5845.239846957167
 21
2747.931598713261
 31
0.0
  0
LINE
  5
17299
330
747D
100
AcDbEntity
  8
細線
 48
50.0
100
AcDbLine
 10
5830.239846957167
 20
4537.931598713261
 30
0.0
 11
5830.239846957167
 21
2747.931598713261
 31
0.0
  0
LINE
  5
1729A
330
747D
100
AcDbEntity
  8
細線
 48
50.0
100
AcDbLine
 10
6250.239846957168
 20
4537.931598713261
 30
0.0
 11
6250.239846957168
 21
2747.931598713261
 31
0.0
  0
LINE
  5
1729B
330
747D
100
AcDbEntity
  8
細線
 48
50.0
100
AcDbLine
 10
6265.239846957167
 20
4537.931598713261
 30
0.0
 11
6265.239846957167
 21
2747.931598713261
 31
0.0
  0
LINE
  5
1729C
330
747D
100
AcDbEntity
  8
細線
 48
50.0
100
AcDbLine
 10
6125.239846957168
 20
4537.931598713261
 30
0.0
 11
6125.239846957168
 21
2747.931598713261
 31
0.0
  0
LINE
  5
1729D
330
747D
100
AcDbEntity
  8
細線
 48
50.0
100
AcDbLine
 10
6110.239846957167
 20
4537.931598713261
 30
0.0
 11
6110.239846957167
 21
2747.931598713261
 31
0.0
  0
LINE
  5
1729E
330
747D
100
AcDbEntity
  8
細線
 48
50.0
100
AcDbLine
 10
5970.239846957167
 20
4537.931598713261
 30
0.0
 11
5970.239846957167
 21
2747.931598713261
 31
0.0
  0
LINE
  5
1729F
330
747D
100
AcDbEntity
  8
細線
 48
50.0
100
AcDbLine
 10
5985.239846957167
 20
4537.931598713261
 30
0.0
 11
5985.239846957167
 21
2747.931598713261
 31
0.0
  0
LINE
  5
172A0
330
747D
100
AcDbEntity
  8
部品1
100
AcDbLine
 10
5480.239846957169
 20
2697.931598713262
 30
0.0
 11
6755.239846957167
 21
2697.931598713262
 31
0.0
  0
LINE
  5
172A1
330
747D
100
AcDbEntity
  8
部品1
100
AcDbLine
 10
6795.239846957169
 20
2697.931598713262
 30
0.0
 11
6802.73984695717
 21
2697.931598713262
 31
0.0
  0
LINE
  5
172A2
330
747D
100
AcDbEntity
  8
破線
  6
HIDDEN
 48
5.0
100
AcDbLine
 10
5480.239846957169
 20
2597.931598713262
 30
0.0
 11
5480.239846957169
 21
2592.931598713262
 31
0.0
  0
LINE
  5
172A3
330
747D
100
AcDbEntity
  8
破線
  6
HIDDEN
 48
5.0
100
AcDbLine
 10
5440.239846957172
 20
2597.931598713262
 30
0.0
 11
5440.239846957172
 21
2592.931598713262
 31
0.0
  0
LINE
  5
172A4
330
747D
100
AcDbEntity
  8
破線
  6
HIDDEN
 48
5.0
100
AcDbLine
 10
6795.239846957165
 20
2597.931598713262
 30
0.0
 11
6795.239846957165
 21
2592.931598713262
 31
0.0
  0
LINE
  5
172A5
330
747D
100
AcDbEntity
  8
破線
  6
HIDDEN
 48
5.0
100
AcDbLine
 10
6755.239846957168
 20
2597.931598713262
 30
0.0
 11
6755.239846957168
 21
2592.931598713262
 31
0.0
  0
ARC
  5
172A6
330
747D
100
AcDbEntity
  8
部品1
 48
50.0
100
AcDbCircle
 10
6790.239846957169
 20
2737.931598713262
 30
0.0
 40
5.0
100
AcDbArc
 50
0.0
 51
90.0
  0
ARC
  5
172A7
330
747D
100
AcDbEntity
  8
部品1
 48
50.0
100
AcDbCircle
 10
6760.239846957166
 20
2737.931598713262
 30
0.0
 40
5.0
100
AcDbArc
 50
90.0
 51
180.0
  0
LINE
  5
172A8
330
747D
100
AcDbEntity
  8
部品1
100
AcDbLine
 10
6790.239846957169
 20
2742.931598713262
 30
0.0
 11
6760.239846957166
 21
2742.931598713262
 31
0.0
  0
LINE
  5
172A9
330
747D
100
AcDbEntity
  8
部品1
 48
50.0
100
AcDbLine
 10
6795.239846957169
 20
2737.931598713262
 30
0.0
 11
6795.239846957165
 21
2597.931598713262
 31
0.0
  0
LINE
  5
172AA
330
747D
100
AcDbEntity
  8
部品1
 48
50.0
100
AcDbLine
 10
6755.239846957166
 20
2737.931598713262
 30
0.0
 11
6755.239846957168
 21
2597.931598713262
 31
0.0
  0
ARC
  5
172AB
330
747D
100
AcDbEntity
  8
部品1
 48
50.0
100
AcDbCircle
 10
5475.239846957169
 20
2737.931598713262
 30
0.0
 40
5.0
100
AcDbArc
 50
0.0
 51
90.0
  0
ARC
  5
172AC
330
747D
100
AcDbEntity
  8
部品1
 48
50.0
100
AcDbCircle
 10
5445.239846957165
 20
2737.931598713262
 30
0.0
 40
5.0
100
AcDbArc
 50
90.0
 51
180.0
  0
LINE
  5
172AD
330
747D
100
AcDbEntity
  8
部品1
100
AcDbLine
 10
5445.239846957165
 20
2742.931598713262
 30
0.0
 11
5475.239846957169
 21
2742.931598713262
 31
0.0
  0
LINE
  5
172AE
330
747D
100
AcDbEntity
  8
部品1
 48
50.0
100
AcDbLine
 10
5480.239846957169
 20
2737.931598713262
 30
0.0
 11
5480.239846957165
 21
2597.931598713262
 31
0.0
  0
LINE
  5
172AF
330
747D
100
AcDbEntity
  8
部品1
 48
50.0
100
AcDbLine
 10
5440.239846957165
 20
2737.931598713262
 30
0.0
 11
5440.239846957169
 21
2597.931598713262
 31
0.0
  0
LINE
  5
172B0
330
747D
100
AcDbEntity
  8
破線
  6
HIDDEN
 48
5.0
100
AcDbLine
 10
5480.239846957169
 20
2592.931598713262
 30
0.0
 11
5495.239846957169
 21
2445.231598713261
 31
0.0
  0
LINE
  5
172B1
330
747D
100
AcDbEntity
  8
破線
  6
HIDDEN
 48
5.0
100
AcDbLine
 10
5440.239846957169
 20
2592.931598713262
 30
0.0
 11
5425.239846957165
 21
2445.231598713261
 31
0.0
  0
LINE
  5
172B2
330
747D
100
AcDbEntity
  8
破線
  6
HIDDEN
 48
5.0
100
AcDbLine
 10
5495.239846957169
 20
2445.231598713261
 30
0.0
 11
5495.239846957165
 21
2442.931598713262
 31
0.0
  0
LINE
  5
172B3
330
747D
100
AcDbEntity
  8
破線
  6
HIDDEN
 48
5.0
100
AcDbLine
 10
5425.239846957165
 20
2445.231598713261
 30
0.0
 11
5425.239846957165
 21
2442.931598713262
 31
0.0
  0
LINE
  5
172B4
330
747D
100
AcDbEntity
  8
破線
  6
HIDDEN
 48
5.0
100
AcDbLine
 10
5425.239846957165
 20
2442.931598713262
 30
0.0
 11
5495.239846957165
 21
2442.931598713262
 31
0.0
  0
LINE
  5
172B5
330
747D
100
AcDbEntity
  8
破線
  6
HIDDEN
 48
5.0
100
AcDbLine
 10
6810.23984695717
 20
2445.231598713262
 30
0.0
 11
6810.23984695717
 21
2442.931598713262
 31
0.0
  0
LINE
  5
172B6
330
747D
100
AcDbEntity
  8
破線
  6
HIDDEN
 48
5.0
100
AcDbLine
 10
6795.239846957169
 20
2592.931598713262
 30
0.0
 11
6810.23984695717
 21
2445.231598713262
 31
0.0
  0
LINE
  5
172B7
330
747D
100
AcDbEntity
  8
破線
  6
HIDDEN
 48
5.0
100
AcDbLine
 10
6740.23984695717
 20
2445.231598713262
 30
0.0
 11
6740.23984695717
 21
2442.931598713262
 31
0.0
  0
LINE
  5
172B8
330
747D
100
AcDbEntity
  8
破線
  6
HIDDEN
 48
5.0
100
AcDbLine
 10
6755.239846957166
 20
2592.931598713262
 30
0.0
 11
6740.23984695717
 21
2445.231598713262
 31
0.0
  0
LINE
  5
172B9
330
747D
100
AcDbEntity
  8
破線
  6
HIDDEN
 48
5.0
100
AcDbLine
 10
6810.23984695717
 20
2442.931598713262
 30
0.0
 11
6740.23984695717
 21
2442.931598713262
 31
0.0
  0
DIMENSION
  5
172BA
330
747D
100
AcDbEntity
  8
寸法
 48
50.0
100
AcDbDimension
  2
*D26
 10
5372.739846957169
 20
5379.76337348453
 30
0.0
 11
6099.864676658992
 21
5379.76337348453
 31
0.0
 70
   160
 71
     5
 42
1510.0
  3
INABA_S40G
100
AcDbAlignedDimension
 13
6882.739846957169
 23
4717.931598713263
 33
0.0
 14
5372.739846957169
 24
4772.931598713266
 34
0.0
100
AcDbRotatedDimension
1001
ACAD
1000
DSTYLE
1002
{
1070
   174
1070
     0
1070
   272
1070
     1
1070
   288
1070
     0
1070
   341
1005
0
1002
}
  0
DIMENSION
  5
172BB
330
747D
100
AcDbEntity
  8
寸法
 48
50.0
100
AcDbDimension
  2
*D25
 10
5372.739846957169
 20
5171.589052292565
 30
0.0
 11
5063.102051681578
 21
5171.589052292565
 31
0.0
 70
   160
 71
     5
 42
60.0
  3
INABA_S40G
100
AcDbAlignedDimension
 13
5432.739846957169
 23
4768.933216836238
 33
0.0
 14
5372.739846957169
 24
4772.931598713266
 34
0.0
100
AcDbRotatedDimension
1001
ACAD
1000
DSTYLE
1002
{
1070
   174
1070
     0
1070
   272
1070
     1
1070
   288
1070
     0
1070
   341
1005
0
1002
}
  0
DIMENSION
  5
172BC
330
747D
100
AcDbEntity
  8
寸法
 48
50.0
100
AcDbDimension
  2
*D24
 10
5432.739846957169
 20
5171.589052292565
 30
0.0
 11
6082.558879847715
 21
5171.589052292565
 31
0.0
 70
   160
  1
柱外寸法<>
 71
     5
 42
1370.0
  3
INABA_S40G
100
AcDbAlignedDimension
 13
6802.73984695717
 23
4719.742278324915
 33
0.0
 14
5432.739846957169
 24
4768.933216836238
 34
0.0
100
AcDbRotatedDimension
1001
ACAD
1000
DSTYLE
1002
{
1070
   174
1070
     0
1070
   272
1070
     1
1070
   288
1070
     0
1070
   341
1005
0
1002
}
  0
LINE
  5
172BD
330
747D
100
AcDbEntity
  8
部品1
100
AcDbLine
 10
6602.73984695717
 20
2697.931598713262
 30
0.0
 11
6602.73984695717
 21
2597.931598713262
 31
0.0
  0
LINE
  5
172BE
330
747D
100
AcDbEntity
  8
部品1
100
AcDbLine
 10
5632.739846957168
 20
2697.931598713262
 30
0.0
 11
5632.739846957168
 21
2597.931598713262
 31
0.0
  0
DIMENSION
  5
172BF
330
747D
100
AcDbEntity
  8
寸法
100
AcDbDimension
  2
*D23
 10
7507.667004929297
 20
4717.931598713263
 30
0.0
 11
7407.655193905674
 21
3707.931598713263
 31
0.0
 70
    32
 71
     5
 42
2020.000000000003
  3
INABA_S40G
100
AcDbAlignedDimension
 13
6879.739846957173
 23
2697.931598713261
 33
0.0
 14
6882.739846957169
 24
4717.931598713263
 34
0.0
 50
90.0
100
AcDbRotatedDimension
1001
ACAD
1000
DSTYLE
1002
{
1070
   174
1070
     0
1070
   272
1070
     1
1070
   288
1070
     0
1070
   341
1005
0
1002
}
  0
LINE
  5
172C0
330
747D
100
AcDbEntity
  8
部品1
100
AcDbLine
 10
6747.739846957171
 20
4537.931598713261
 30
0.0
 11
6747.739846957171
 21
2747.931598713261
 31
0.0
  0
LINE
  5
172C1
330
747D
100
AcDbEntity
  8
部品1
100
AcDbLine
 10
6802.739846957168
 20
4592.568179548514
 30
0.0
 11
6802.73984695717
 21
2597.931598713262
 31
0.0
  0
LINE
  5
172C2
330
747D
100
AcDbEntity
  8
部品1
100
AcDbLine
 10
5907.739846957167
 20
4537.931598713261
 30
0.0
 11
5907.739846957167
 21
2747.931598713261
 31
0.0
  0
LINE
  5
172C3
330
747D
100
AcDbEntity
  8
部品1
100
AcDbLine
 10
5432.739846957172
 20
4629.508492653704
 30
0.0
 11
5432.739846957168
 21
2597.931598713262
 31
0.0
  0
LINE
  5
172C4
330
747D
100
AcDbEntity
  8
部品1
100
AcDbLine
 10
5487.739846957167
 20
4537.931598713261
 30
0.0
 11
5487.739846957167
 21
2747.931598713261
 31
0.0
  0
LINE
  5
172C5
330
747D
100
AcDbEntity
  8
部品1
100
AcDbLine
 10
5432.739846957168
 20
2697.931598713262
 30
0.0
 11
5440.239846957167
 21
2697.931598713262
 31
0.0
  0
LINE
  5
172C6
330
747D
100
AcDbEntity
  8
部品1
100
AcDbLine
 10
5432.739846957168
 20
2747.931598713261
 30
0.0
 11
6802.739846957172
 21
2747.931598713261
 31
0.0
  0
LINE
  5
172C7
330
747D
100
AcDbEntity
  8
部品1
100
AcDbLine
 10
5432.739846957168
 20
4537.931598713261
 30
0.0
 11
6802.73984695717
 21
4537.931598713261
 31
0.0
  0
LINE
  5
172C8
330
747D
100
AcDbEntity
  8
部品1
 48
50.0
100
AcDbLine
 10
6802.739846957172
 20
4532.931598713261
 30
0.0
 11
6879.739846957173
 21
4522.931598713261
 31
0.0
  0
LINE
  5
172C9
330
747D
100
AcDbEntity
  8
部品1
 48
50.0
100
AcDbLine
 10
6879.739846957173
 20
4522.931598713261
 30
0.0
 11
6879.739846957173
 21
2597.931598713261
 31
0.0
  0
LINE
  5
172CA
330
747D
100
AcDbEntity
  8
部品1
 48
50.0
100
AcDbLine
 10
6879.739846957173
 20
2697.931598713261
 30
0.0
 11
6802.73984695717
 21
2697.931598713262
 31
0.0
  0
DIMENSION
  5
172CB
330
747D
100
AcDbEntity
  8
寸法
100
AcDbDimension
  2
*D22
 10
4809.087137798872
 20
2747.931598713261
 30
0.0
 11
4809.087137798872
 21
3638.385897255218
 31
0.0
 70
   160
 71
     5
 42
1789.999999999999
  3
INABA_S40G
100
AcDbAlignedDimension
 13
5432.739846957169
 23
4537.93159871326
 33
0.0
 14
5432.739846957169
 24
2747.931598713261
 34
0.0
 50
90.0
100
AcDbRotatedDimension
1001
ACAD
1000
DSTYLE
1002
{
1070
   174
1070
     0
1070
   272
1070
     1
1070
   288
1070
     0
1070
   341
1005
0
1002
}
  0
DIMENSION
  5
172CC
330
747D
100
AcDbEntity
  8
寸法
100
AcDbDimension
  2
*D21
 10
4524.10046502781
 20
4772.931598713265
 30
0.0
 11
4524.100465027809
 21
3692.137476206371
 31
0.0
 70
   160
 71
     5
 42
2075.000000000004
  3
INABA_S40G
100
AcDbAlignedDimension
 13
5432.739846957169
 23
2697.931598713261
 33
0.0
 14
5372.739846957169
 24
4772.931598713265
 34
0.0
 50
90.0
100
AcDbRotatedDimension
1001
ACAD
1000
DSTYLE
1002
{
1070
   174
1070
     0
1070
   272
1070
     1
1070
   288
1070
     0
1070
   341
1005
0
1002
}
  0
DIMENSION
  5
172CD
330
747D
100
AcDbEntity
  8
寸法
100
AcDbDimension
  2
*D20
 10
4524.10046502781
 20
2597.931598713261
 30
0.0
 11
4524.100465027809
 21
2361.884354618768
 31
0.0
 70
   160
 71
     5
 42
100.0000000000004
  3
INABA_S40G
100
AcDbAlignedDimension
 13
5377.739846957169
 23
2697.931598713261
 33
0.0
 14
4809.087137798872
 24
2597.931598713261
 34
0.0
 50
90.0
100
AcDbRotatedDimension
1001
ACAD
1000
DSTYLE
1002
{
1070
   174
1070
     0
1070
   272
1070
     1
1070
   288
1070
     0
1070
   341
1005
0
1002
}
  0
DIMENSION
  5
172CE
330
747D
100
AcDbEntity
  8
寸法
100
AcDbDimension
  2
*D19
 10
4809.087137798872
 20
2697.931598713261
 30
0.0
 11
4809.087137798872
 21
2391.884354618768
 31
0.0
 70
   160
 71
     5
 42
50.0
  3
INABA_S40G
100
AcDbAlignedDimension
 13
5432.739846957169
 23
2747.931598713261
 33
0.0
 14
5377.739846957169
 24
2697.931598713261
 34
0.0
 50
90.0
100
AcDbRotatedDimension
1001
ACAD
1000
DSTYLE
1002
{
1070
   174
1070
     0
1070
   272
1070
     1
1070
   288
1070
     0
1070
   341
1005
0
1002
}
  0
LINE
  5
172CF
330
747D
100
AcDbEntity
  8
部品1
 48
50.0
100
AcDbLine
 10
6017.73984695717
 20
2697.931598713262
 30
0.0
 11
6017.73984695717
 21
2597.931598713262
 31
0.0
  0
LINE
  5
172D0
330
747D
100
AcDbEntity
  8
部品1
 48
50.0
100
AcDbLine
 10
6217.739846957172
 20
2697.931598713262
 30
0.0
 11
6217.73984695717
 21
2597.931598713262
 31
0.0
  0
TEXT
  5
174B9
330
747D
100
AcDbEntity
  8
文字
 62
     7
 48
50.0
100
AcDbText
 10
14798.72402257234
 20
9740.013745883725
 30
0.0
 40
100.0
  1
F12(一般型1.0/多雪地型2.3)
  7
STYLE1
100
AcDbText
  0
TEXT
  5
174BA
330
747D
100
AcDbEntity
  8
文字
 62
     7
 48
50.0
100
AcDbText
 10
13248.77747366447
 20
8380.013745883728
 30
0.0
 40
100.0
  1
17
  7
STYLE1
100
AcDbText
  0
TEXT
  5
174BB
330
747D
100
AcDbEntity
  8
文字
 62
     7
 48
50.0
100
AcDbText
 10
13248.77747366447
 20
8550.013745883729
 30
0.0
 40
100.0
  1
16
  7
STYLE1
100
AcDbText
  0
TEXT
  5
174BC
330
747D
100
AcDbEntity
  8
文字
 62
     7
 48
50.0
100
AcDbText
 10
15022.63965474517
 20
9060.013745883725
 30
0.0
 40
100.0
  1
F12            1.0
  7
STYLE1
100
AcDbText
  0
TEXT
  5
174BD
330
747D
100
AcDbEntity
  8
文字
 62
     7
 48
50.0
100
AcDbText
 10
13583.11819016569
 20
9060.013745883733
 30
0.0
 40
100.0
  1
壁面扉枠左右
  7
STYLE1
100
AcDbText
  0
TEXT
  5
174BE
330
747D
100
AcDbEntity
  8
文字
 62
     7
 48
50.0
100
AcDbText
 10
15022.63965474517
 20
9230.013745883725
 30
0.0
 40
100.0
  1
F12            1.0
  7
STYLE1
100
AcDbText
  0
TEXT
  5
174BF
330
747D
100
AcDbEntity
  8
文字
 62
     7
 48
50.0
100
AcDbText
 10
15022.63965474515
 20
9400.013745883727
 30
0.0
 40
100.0
  1
F12            0.7
  7
STYLE1
100
AcDbText
  0
TEXT
  5
174C0
330
747D
100
AcDbEntity
  8
文字
 62
     7
 48
50.0
100
AcDbText
 10
13583.11819016569
 20
9230.013745883733
 30
0.0
 40
100.0
  1
壁面扉敷居
  7
STYLE1
100
AcDbText
  0
TEXT
  5
174C1
330
747D
100
AcDbEntity
  8
文字
 62
     7
 48
50.0
100
AcDbText
 10
13583.11819016569
 20
9400.013745883729
 30
0.0
 40
100.0
  1
壁面扉鴨居
  7
STYLE1
100
AcDbText
  0
LINE
  5
174C2
330
747D
100
AcDbEntity
  8
仕様書枠
 48
50.0
100
AcDbLine
 10
16307.19999999999
 20
8689.600000000003
 30
0.0
 11
13127.2
 21
8689.600000000005
 31
0.0
  0
LINE
  5
174C3
330
747D
100
AcDbEntity
  8
仕様書枠
 48
50.0
100
AcDbLine
 10
16307.19999999999
 20
8519.600000000004
 30
0.0
 11
13127.2
 21
8519.600000000005
 31
0.0
  0
TEXT
  5
174C4
330
747D
100
AcDbEntity
  8
文字
 62
     7
 48
50.0
100
AcDbText
 10
13583.11819016569
 20
8380.013745883728
 30
0.0
 40
100.0
  1
アンカープレート
  7
STYLE1
100
AcDbText
  0
TEXT
  5
174C5
330
747D
100
AcDbEntity
  8
文字
 62
     7
 48
50.0
100
AcDbText
 10
15022.63965474515
 20
8380.013745883724
 30
0.0
 40
100.0
  1
F12            2.3
  7
STYLE1
100
AcDbText
  0
LINE
  5
174C6
330
747D
100
AcDbEntity
  8
仕様書枠
 48
50.0
100
AcDbLine
 10
16307.2
 20
10049.6
 30
0.0
 11
13127.2
 21
10049.6
 31
0.0
  0
LINE
  5
174C7
330
747D
100
AcDbEntity
  8
仕様書枠
 48
50.0
100
AcDbLine
 10
16307.2
 20
11409.59999999999
 30
0.0
 11
13127.2
 21
11409.6
 31
0.0
  0
LINE
  5
174C8
330
747D
100
AcDbEntity
  8
仕様書枠
 48
50.0
100
AcDbLine
 10
16307.19999999999
 20
8009.600000000004
 30
0.0
 11
16307.2
 21
11409.6
 31
0.0
  0
LINE
  5
174C9
330
747D
100
AcDbEntity
  8
仕様書枠
 48
50.0
100
AcDbLine
 10
14785.2
 20
11409.59999999999
 30
0.0
 11
14785.2
 21
8349.600000000004
 31
0.0
  0
LINE
  5
174CA
330
747D
100
AcDbEntity
  8
仕様書枠
 48
50.0
100
AcDbLine
 10
13490.2
 20
11409.59999999999
 30
0.0
 11
13490.20000000001
 21
8349.600000000007
 31
0.0
  0
LINE
  5
174CB
330
747D
100
AcDbEntity
  8
仕様書枠
 48
50.0
100
AcDbLine
 10
16307.2
 20
11239.59999999999
 30
0.0
 11
13127.2
 21
11239.6
 31
0.0
  0
LINE
  5
174CC
330
747D
100
AcDbEntity
  8
仕様書枠
 48
50.0
100
AcDbLine
 10
16307.2
 20
10899.6
 30
0.0
 11
13127.2
 21
10899.6
 31
0.0
  0
LINE
  5
174CD
330
747D
100
AcDbEntity
  8
仕様書枠
 48
50.0
100
AcDbLine
 10
16307.2
 20
11069.59999999999
 30
0.0
 11
13127.2
 21
11069.6
 31
0.0
  0
LINE
  5
174CE
330
747D
100
AcDbEntity
  8
仕様書枠
 48
50.0
100
AcDbLine
 10
16307.19999999999
 20
10559.6
 30
0.0
 11
13127.2
 21
10559.6
 31
0.0
  0
LINE
  5
174CF
330
747D
100
AcDbEntity
  8
仕様書枠
 48
50.0
100
AcDbLine
 10
16307.19999999999
 20
10389.6
 30
0.0
 11
13127.2
 21
10389.6
 31
0.0
  0
LINE
  5
174D0
330
747D
100
AcDbEntity
  8
仕様書枠
 48
50.0
100
AcDbLine
 10
16307.19999999999
 20
10729.59999999999
 30
0.0
 11
13127.2
 21
10729.6
 31
0.0
  0
TEXT
  5
174D1
330
747D
100
AcDbEntity
  8
文字
 62
     7
 48
50.0
100
AcDbText
 10
13197.42518560407
 20
11270.01374588372
 30
0.0
 40
100.0
  1
品番
  7
STYLE1
100
AcDbText
  0
TEXT
  5
174D2
330
747D
100
AcDbEntity
  8
文字
 62
     7
 48
50.0
100
AcDbText
 10
13271.19032244792
 20
11100.01374588373
 30
0.0
 40
100.0
  1
1
  7
STYLE1
100
AcDbText
  0
TEXT
  5
174D3
330
747D
100
AcDbEntity
  8
文字
 62
     7
 48
50.0
100
AcDbText
 10
13271.19032244792
 20
10930.01374588373
 30
0.0
 40
100.0
  1
2
  7
STYLE1
100
AcDbText
  0
TEXT
  5
174D4
330
747D
100
AcDbEntity
  8
文字
 62
     7
 48
50.0
100
AcDbText
 10
13271.19032244792
 20
10590.01374588373
 30
0.0
 40
100.0
  1
4
  7
STYLE1
100
AcDbText
  0
TEXT
  5
174D5
330
747D
100
AcDbEntity
  8
文字
 62
     7
 48
50.0
100
AcDbText
 10
13271.19032244792
 20
10760.01374588373
 30
0.0
 40
100.0
  1
3
  7
STYLE1
100
AcDbText
  0
TEXT
  5
174D6
330
747D
100
AcDbEntity
  8
文字
 62
     7
 48
50.0
100
AcDbText
 10
13732.03840939434
 20
11270.01374588372
 30
0.0
 40
100.0
  1
部　　品　　名
  7
STYLE1
100
AcDbText
  0
TEXT
  5
174D7
330
747D
100
AcDbEntity
  8
文字
 62
     7
 48
50.0
100
AcDbText
 10
14859.79774614482
 20
11270.01374588372
 30
0.0
 40
100.0
  1
材料（材質）　　単位mm
  7
STYLE1
100
AcDbText
  0
TEXT
  5
174D8
330
747D
100
AcDbEntity
  8
文字
 62
     7
 48
50.0
100
AcDbText
 10
13583.11819016569
 20
11100.01374588372
 30
0.0
 40
100.0
  1
土台枠
  7
STYLE1
100
AcDbText
  0
TEXT
  5
174D9
330
747D
100
AcDbEntity
  8
文字
 62
     7
 48
50.0
100
AcDbText
 10
13583.1181901657
 20
10760.01374588372
 30
0.0
 40
100.0
  1
柱
  7
STYLE1
100
AcDbText
  0
TEXT
  5
174DA
330
747D
100
AcDbEntity
  8
文字
 62
     7
 48
50.0
100
AcDbText
 10
13583.11819016569
 20
10420.01374588373
 30
0.0
 40
100.0
  1
桁前後
  7
STYLE1
100
AcDbText
  0
TEXT
  5
174DB
330
747D
100
AcDbEntity
  8
文字
 62
     7
 48
50.0
100
AcDbText
 10
13271.19032244792
 20
10420.01374588372
 30
0.0
 40
100.0
  1
5
  7
STYLE1
100
AcDbText
  0
TEXT
  5
174DC
330
747D
100
AcDbEntity
  8
文字
 62
     7
 48
50.0
100
AcDbText
 10
13583.11819016569
 20
10250.01374588373
 30
0.0
 40
100.0
  1
妻板左右
  7
STYLE1
100
AcDbText
  0
TEXT
  5
174DD
330
747D
100
AcDbEntity
  8
文字
 62
     7
 48
50.0
100
AcDbText
 10
13248.77747366447
 20
9570.013745883727
 30
0.0
 40
100.0
  1
10
  7
STYLE1
100
AcDbText
  0
TEXT
  5
174DE
330
747D
100
AcDbEntity
  8
文字
 62
     7
 48
50.0
100
AcDbText
 10
13583.11819016568
 20
9570.013745883729
 30
0.0
 40
100.0
  1
壁パネル
  7
STYLE1
100
AcDbText
  0
TEXT
  5
174DF
330
747D
100
AcDbEntity
  8
文字
 62
     7
 48
50.0
100
AcDbText
 10
13583.11819016569
 20
9910.013745883727
 30
0.0
 40
100.0
  1
屋根パネル
  7
STYLE1
100
AcDbText
  0
TEXT
  5
174E0
330
747D
100
AcDbEntity
  8
文字
 62
     7
 48
50.0
100
AcDbText
 10
13583.11819016569
 20
10080.01374588372
 30
0.0
 40
100.0
  1
鼻隠シ前後
  7
STYLE1
100
AcDbText
  0
TEXT
  5
174E1
330
747D
100
AcDbEntity
  8
文字
 62
     7
 48
50.0
100
AcDbText
 10
13271.19032244792
 20
9910.01374588373
 30
0.0
 40
100.0
  1
8
  7
STYLE1
100
AcDbText
  0
TEXT
  5
174E2
330
747D
100
AcDbEntity
  8
文字
 62
     7
 48
50.0
100
AcDbText
 10
13271.19032244792
 20
9740.013745883729
 30
0.0
 40
100.0
  1
9
  7
STYLE1
100
AcDbText
  0
TEXT
  5
174E3
330
747D
100
AcDbEntity
  8
文字
 62
     7
 48
50.0
100
AcDbText
 10
13271.19032244792
 20
10080.01374588373
 30
0.0
 40
100.0
  1
7
  7
STYLE1
100
AcDbText
  0
TEXT
  5
174E4
330
747D
100
AcDbEntity
  8
文字
 62
     7
 48
50.0
100
AcDbText
 10
13271.19032244792
 20
10250.01374588373
 30
0.0
 40
100.0
  1
6
  7
STYLE1
100
AcDbText
  0
LINE
  5
174E5
330
747D
100
AcDbEntity
  8
仕様書枠
 48
50.0
100
AcDbLine
 10
16307.19999999999
 20
9709.6
 30
0.0
 11
13127.2
 21
9709.600000000001
 31
0.0
  0
LINE
  5
174E6
330
747D
100
AcDbEntity
  8
仕様書枠
 48
50.0
100
AcDbLine
 10
16307.19999999999
 20
9369.599999999998
 30
0.0
 11
13127.2
 21
9369.600000000001
 31
0.0
  0
LINE
  5
174E7
330
747D
100
AcDbEntity
  8
仕様書枠
 48
50.0
100
AcDbLine
 10
16307.19999999999
 20
9539.599999999998
 30
0.0
 11
13127.2
 21
9539.6
 31
0.0
  0
LINE
  5
174E8
330
747D
100
AcDbEntity
  8
仕様書枠
 48
50.0
100
AcDbLine
 10
16307.2
 20
10219.6
 30
0.0
 11
13127.2
 21
10219.6
 31
0.0
  0
LINE
  5
174E9
330
747D
100
AcDbEntity
  8
仕様書枠
 48
50.0
100
AcDbLine
 10
16307.2
 20
9879.599999999999
 30
0.0
 11
13127.2
 21
9879.600000000001
 31
0.0
  0
TEXT
  5
174EA
330
747D
100
AcDbEntity
  8
文字
 62
     7
 48
50.0
100
AcDbText
 10
13248.77747366447
 20
9400.013745883727
 30
0.0
 40
100.0
  1
11
  7
STYLE1
100
AcDbText
  0
LINE
  5
174EB
330
747D
100
AcDbEntity
  8
仕様書枠
 48
50.0
100
AcDbLine
 10
16307.19999999999
 20
9199.599999999998
 30
0.0
 11
13127.2
 21
9199.600000000001
 31
0.0
  0
LINE
  5
174EC
330
747D
100
AcDbEntity
  8
仕様書枠
 48
50.0
100
AcDbLine
 10
16307.19999999999
 20
8859.6
 30
0.0
 11
13127.2
 21
8859.600000000002
 31
0.0
  0
TEXT
  5
174ED
330
747D
100
AcDbEntity
  8
文字
 62
     7
 48
50.0
100
AcDbText
 10
13248.77747366448
 20
9060.013745883727
 30
0.0
 40
100.0
  1
13
  7
STYLE1
100
AcDbText
  0
TEXT
  5
174EE
330
747D
100
AcDbEntity
  8
文字
 62
     7
 48
50.0
100
AcDbText
 10
13248.77747366448
 20
9230.013745883727
 30
0.0
 40
100.0
  1
12
  7
STYLE1
100
AcDbText
  0
TEXT
  5
174EF
330
747D
100
AcDbEntity
  8
文字
 62
     7
 48
50.0
100
AcDbText
 10
15022.63965474517
 20
11100.01374588372
 30
0.0
 40
100.0
  1
F12            1.2
  7
STYLE1
100
AcDbText
  0
TEXT
  5
174F0
330
747D
100
AcDbEntity
  8
文字
 62
     7
 48
50.0
100
AcDbText
 10
15022.63965474518
 20
10760.01374588372
 30
0.0
 40
100.0
  1
F12            1.0
  7
STYLE1
100
AcDbText
  0
TEXT
  5
174F1
330
747D
100
AcDbEntity
  8
文字
 62
     7
 48
50.0
100
AcDbText
 10
15022.63965474516
 20
10420.01374588372
 30
0.0
 40
100.0
  1
Y10            1.0
  7
STYLE1
100
AcDbText
  0
TEXT
  5
174F2
330
747D
100
AcDbEntity
  8
文字
 62
     7
 48
50.0
100
AcDbText
 10
15022.63965474516
 20
10250.01374588372
 30
0.0
 40
100.0
  1
Y10            0.7
  7
STYLE1
100
AcDbText
  0
TEXT
  5
174F3
330
747D
100
AcDbEntity
  8
文字
 62
     7
 48
50.0
100
AcDbText
 10
15022.63965474516
 20
10080.01374588372
 30
0.0
 40
100.0
  1
Y10            0.7
  7
STYLE1
100
AcDbText
  0
TEXT
  5
174F4
330
747D
100
AcDbEntity
  8
文字
 62
     7
 48
50.0
100
AcDbText
 10
15022.63965474517
 20
9910.013745883725
 30
0.0
 40
100.0
  1
Y10            0.5
  7
STYLE1
100
AcDbText
  0
TEXT
  5
174F5
330
747D
100
AcDbEntity
  8
文字
 62
     7
 48
50.0
100
AcDbText
 10
15022.63965474515
 20
9570.013745883725
 30
0.0
 40
100.0
  1
F12            0.6
  7
STYLE1
100
AcDbText
  0
LINE
  5
174F6
330
747D
100
AcDbEntity
  8
仕様書枠
 48
50.0
100
AcDbLine
 10
16307.19999999999
 20
8349.600000000004
 30
0.0
 11
13127.19999999999
 21
8349.600000000007
 31
0.0
  0
LINE
  5
174F7
330
747D
100
AcDbEntity
  8
仕様書枠
 48
50.0
100
AcDbLine
 10
16307.19999999999
 20
8179.600000000004
 30
0.0
 11
13127.19999999999
 21
8179.600000000005
 31
0.0
  0
TEXT
  5
174F8
330
747D
100
AcDbEntity
  8
文字
 62
     7
 48
50.0
100
AcDbText
 10
13229.83081656554
 20
8210.013745883733
 30
0.0
 40
100.0
  1
F12→溶融亜鉛めっき鋼板(JIS G 3302)
  7
STYLE1
100
AcDbText
  0
TEXT
  5
174F9
330
747D
100
AcDbEntity
  8
文字
 62
     7
 48
50.0
100
AcDbText
 10
13229.83081656554
 20
8040.013745883731
 30
0.0
 40
100.0
  1
Y10→溶融亜鉛-5％アルミニウム合金めっき鋼板(JIS G 3317)
 41
0.9
  7
STYLE1
100
AcDbText
  0
LINE
  5
174FA
330
747D
100
AcDbEntity
  8
仕様書枠
 48
50.0
100
AcDbLine
 10
13127.2
 20
11409.6
 30
0.0
 11
13127.19999999999
 21
8009.600000000006
 31
0.0
  0
LINE
  5
174FB
330
747D
100
AcDbEntity
  8
仕様書枠
 48
50.0
100
AcDbLine
 10
16307.19999999999
 20
9029.6
 30
0.0
 11
13127.2
 21
9029.600000000002
 31
0.0
  0
TEXT
  5
174FC
330
747D
100
AcDbEntity
  8
文字
 62
     7
 48
50.0
100
AcDbText
 10
13583.1181901657
 20
10590.01374588372
 30
0.0
 40
100.0
  1
床パネル
 41
0.9
  7
STYLE1
100
AcDbText
  0
TEXT
  5
174FD
330
747D
100
AcDbEntity
  8
文字
 62
     7
 48
50.0
100
AcDbText
 10
13583.11819016569
 20
10930.01374588372
 30
0.0
 40
100.0
  1
根太
  7
STYLE1
100
AcDbText
  0
TEXT
  5
174FE
330
747D
100
AcDbEntity
  8
文字
 62
     7
 48
50.0
100
AcDbText
 10
13248.77747366448
 20
8890.013745883727
 30
0.0
 40
100.0
  1
14
  7
STYLE1
100
AcDbText
  0
TEXT
  5
174FF
330
747D
100
AcDbEntity
  8
文字
 62
     7
 48
50.0
100
AcDbText
 10
15022.63965474516
 20
10930.01374588372
 30
0.0
 40
100.0
  1
F12            1.2
  7
STYLE1
100
AcDbText
  0
TEXT
  5
17500
330
747D
100
AcDbEntity
  8
文字
 62
     7
 48
50.0
100
AcDbText
 10
15022.63965474517
 20
10590.01374588372
 30
0.0
 40
100.0
  1
F12            1.0
  7
STYLE1
100
AcDbText
  0
TEXT
  5
17501
330
747D
100
AcDbEntity
  8
文字
 62
     7
 48
50.0
100
AcDbText
 10
15022.63965474515
 20
8890.013745883727
 30
0.0
 40
100.0
  1
F12            0.7
  7
STYLE1
100
AcDbText
  0
TEXT
  5
17502
330
747D
100
AcDbEntity
  8
文字
 62
     7
 48
50.0
100
AcDbText
 10
13583.11819016568
 20
8890.013745883731
 30
0.0
 40
100.0
  1
正面パネル
  7
STYLE1
100
AcDbText
  0
TEXT
  5
17503
330
747D
100
AcDbEntity
  8
文字
 62
     7
 48
50.0
100
AcDbText
 10
15022.63965474516
 20
8720.013745883727
 30
0.0
 40
100.0
  1
F12            0.8
  7
STYLE1
100
AcDbText
  0
TEXT
  5
17504
330
747D
100
AcDbEntity
  8
文字
 62
     7
 48
50.0
100
AcDbText
 10
13583.11819016569
 20
8720.013745883731
 30
0.0
 40
100.0
  1
扉
  7
STYLE1
100
AcDbText
  0
LINE
  5
17505
330
747D
100
AcDbEntity
  8
仕様書枠
 48
50.0
100
AcDbLine
 10
16307.19999999999
 20
8009.600000000004
 30
0.0
 11
13127.19999999999
 21
8009.600000000006
 31
0.0
  0
TEXT
  5
17506
330
747D
100
AcDbEntity
  8
文字
 62
     7
 48
50.0
100
AcDbText
 10
13248.77747366447
 20
8720.013745883729
 30
0.0
 40
100.0
  1
15
  7
STYLE1
100
AcDbText
  0
TEXT
  5
17507
330
747D
100
AcDbEntity
  8
文字
 62
     7
 48
50.0
100
AcDbText
 10
13583.11819016569
 20
9740.013745883729
 30
0.0
 40
100.0
  1
母屋中
  7
STYLE1
100
AcDbText
  0
TEXT
  5
17508
330
747D
100
AcDbEntity
  8
文字
 62
     7
 48
50.0
100
AcDbText
 10
15022.63965474516
 20
8550.013745883727
 30
0.0
 40
100.0
  1
F12            0.6
  7
STYLE1
100
AcDbText
  0
TEXT
  5
17509
330
747D
100
AcDbEntity
  8
文字
 62
     7
 48
50.0
100
AcDbText
 10
13583.11819016569
 20
8550.013745883731
 30
0.0
 40
100.0
  1
棚板
  7
STYLE1
100
AcDbText
  0
LINE
  5
17F4B
330
747D
100
AcDbEntity
  8
破線
 48
10.0
100
AcDbLine
 10
9406.261265317438
 20
7998.013306776444
 30
0.0
 11
9406.261265317439
 21
8831.513306776541
 31
0.0
  0
LINE
  5
17F4C
330
747D
100
AcDbEntity
  8
破線
 48
10.0
100
AcDbLine
 10
9356.26126531744
 20
7998.013306776441
 30
0.0
 11
9356.261265317437
 21
8831.513306776539
 31
0.0
  0
LINE
  5
17F4D
330
747D
100
AcDbEntity
  8
破線
 48
10.0
100
AcDbLine
 10
10047.26126531744
 20
7998.013306776475
 30
0.0
 11
10047.26126531744
 21
8831.513306776606
 31
0.0
  0
LINE
  5
17F4E
330
747D
100
AcDbEntity
  8
破線
 48
10.0
100
AcDbLine
 10
10097.26126531744
 20
7998.013306776477
 30
0.0
 11
10097.26126531744
 21
8831.513306776605
 31
0.0
  0
LINE
  5
17F4F
330
747D
100
AcDbEntity
  8
破線
 48
10.0
100
AcDbLine
 10
9356.26126531744
 20
8021.513306776444
 30
0.0
 11
8701.761265317392
 21
8021.513306776411
 31
0.0
  0
LINE
  5
17F6C
330
747D
100
AcDbEntity
  8
部品1
 48
50.0
100
AcDbLine
 10
9480.761265317406
 20
2697.931598713262
 30
0.0
 11
9480.761265317406
 21
2597.931598713262
 31
0.0
  0
LINE
  5
17F6D
330
747D
100
AcDbEntity
  8
部品1
 48
50.0
100
AcDbLine
 10
9280.761265317407
 20
2697.931598713262
 30
0.0
 11
9280.761265317407
 21
2597.931598713262
 31
0.0
  0
LINE
  5
17F6E
330
747D
100
AcDbEntity
  8
部品1
 48
50.0
100
AcDbLine
 10
10172.7612653174
 20
2697.931598713262
 30
0.0
 11
10172.7612653174
 21
2597.931598713262
 31
0.0
  0
LINE
  5
17F6F
330
747D
100
AcDbEntity
  8
部品1
 48
50.0
100
AcDbLine
 10
9972.761265317407
 20
2697.931598713262
 30
0.0
 11
9972.761265317407
 21
2597.931598713262
 31
0.0
  0
LINE
  5
18058
330
747D
100
AcDbEntity
  8
寸法
 48
50.0
100
AcDbLine
 10
9111.964271599209
 20
7719.550058345257
 30
0.0
 11
9060.558263689106
 21
7719.550058345257
 31
0.0
  0
LINE
  5
18059
330
747D
100
AcDbEntity
  8
寸法
 48
50.0
100
AcDbLine
 10
9060.558263689106
 20
7719.550058345257
 30
0.0
 11
9060.558263689106
 21
7750.860216997423
 31
0.0
  0
LINE
  5
1805A
330
747D
100
AcDbEntity
  8
寸法
 48
50.0
100
AcDbLine
 10
9060.558263689106
 20
7750.860216997423
 30
0.0
 11
9030.796931697681
 21
7750.860216997423
 31
0.0
  0
LINE
  5
1805B
330
747D
100
AcDbEntity
  8
寸法
 48
50.0
100
AcDbLine
 10
9030.796931697681
 20
7750.860216997423
 30
0.0
 11
9086.261267644157
 21
7788.439667926033
 31
0.0
  0
LINE
  5
1805C
330
747D
100
AcDbEntity
  8
寸法
 48
50.0
100
AcDbLine
 10
9141.725603590632
 20
7750.860216997423
 30
0.0
 11
9086.261267644157
 21
7788.439667926033
 31
0.0
  0
LINE
  5
1805D
330
747D
100
AcDbEntity
  8
寸法
 48
50.0
100
AcDbLine
 10
9111.964271599209
 20
7750.860216997423
 30
0.0
 11
9141.725603590632
 21
7750.860216997423
 31
0.0
  0
LINE
  5
1805E
330
747D
100
AcDbEntity
  8
寸法
 48
50.0
100
AcDbLine
 10
9111.964271599209
 20
7719.550058345257
 30
0.0
 11
9111.964271599209
 21
7750.860216997423
 31
0.0
  0
LINE
  5
1805F
330
747D
100
AcDbEntity
  8
寸法
 48
50.0
100
AcDbLine
 10
9060.558263689106
 20
7719.550058345257
 30
0.0
 11
9111.964271599209
 21
7719.550058345257
 31
0.0
  0
LINE
  5
18060
330
747D
100
AcDbEntity
  8
寸法
 48
50.0
100
AcDbLine
 10
9391.129805876067
 20
7776.69564910008
 30
0.0
 11
9391.129805876067
 21
7723.03201451829
 31
0.0
  0
LINE
  5
18061
330
747D
100
AcDbEntity
  8
寸法
 48
50.0
100
AcDbLine
 10
9480.414024471487
 20
7752.772014830593
 30
0.0
 11
9391.129805876067
 21
7776.69564910008
 31
0.0
  0
LINE
  5
18062
330
747D
100
AcDbEntity
  8
寸法
 48
50.0
100
AcDbLine
 10
9261.262084295763
 20
7752.772014830593
 30
0.0
 11
9480.414024471487
 21
7752.772014830593
 31
0.0
  0
LINE
  5
18063
330
747D
100
AcDbEntity
  8
細線
 48
50.0
100
AcDbLine
 10
10137.76126531737
 20
7918.013421725119
 30
0.0
 11
10764.76126531736
 21
7918.013421725119
 31
0.0
  0
LINE
  5
18064
330
747D
100
AcDbEntity
  8
細線
 48
50.0
100
AcDbLine
 10
9483.761269970953
 20
7884.304653171044
 30
0.0
 11
10764.76126531736
 21
7884.304653171044
 31
0.0
  0
LINE
  5
18065
330
747D
100
AcDbEntity
  8
細線
 48
50.0
100
AcDbLine
 10
9442.761269970956
 20
7913.709561167296
 30
0.0
 11
8688.761265317364
 21
7913.709561167293
 31
0.0
  0
LINE
  5
18066
330
747D
100
AcDbEntity
  8
細線
100
AcDbLine
 10
10540.5112559009
 20
7937.513321690127
 30
0.0
 11
10542.84279542271
 21
7942.513324330089
 31
0.0
  0
LINE
  5
18067
330
747D
100
AcDbEntity
  8
細線
100
AcDbLine
 10
10610.51126531736
 20
7937.513306776394
 30
0.0
 11
10608.17971884117
 21
7942.513324330075
 31
0.0
  0
LINE
  5
18068
330
747D
100
AcDbEntity
  8
細線
100
AcDbLine
 10
10608.17971884117
 20
7942.513324330075
 30
0.0
 11
10542.8427954227
 21
7942.513324330059
 31
0.0
  0
LINE
  5
18069
330
747D
100
AcDbEntity
  8
細線
100
AcDbLine
 10
10468.17971884117
 20
7942.513324330075
 30
0.0
 11
10402.8427954227
 21
7942.513324330059
 31
0.0
  0
LINE
  5
1806A
330
747D
100
AcDbEntity
  8
細線
100
AcDbLine
 10
10470.51126531736
 20
7937.513306776394
 30
0.0
 11
10468.17971884117
 21
7942.513324330075
 31
0.0
  0
LINE
  5
1806B
330
747D
100
AcDbEntity
  8
細線
100
AcDbLine
 10
10400.5112559009
 20
7937.513321690127
 30
0.0
 11
10402.84279542271
 21
7942.513324330089
 31
0.0
  0
LINE
  5
1806C
330
747D
100
AcDbEntity
  8
細線
100
AcDbLine
 10
10260.51126531736
 20
7937.513306776394
 30
0.0
 11
10262.84280483917
 21
7942.513309416355
 31
0.0
  0
LINE
  5
1806D
330
747D
100
AcDbEntity
  8
細線
100
AcDbLine
 10
10330.51127473382
 20
7937.513291862659
 30
0.0
 11
10328.17972825763
 21
7942.51330941634
 31
0.0
  0
LINE
  5
1806E
330
747D
100
AcDbEntity
  8
細線
100
AcDbLine
 10
10328.17972825764
 20
7942.51330941634
 30
0.0
 11
10262.84280483916
 21
7942.513309416326
 31
0.0
  0
LINE
  5
1806F
330
747D
100
AcDbEntity
  8
細線
100
AcDbLine
 10
10032.92974950647
 20
7908.513346113721
 30
0.0
 11
9967.592826087996
 21
7908.513346113707
 31
0.0
  0
LINE
  5
18070
330
747D
100
AcDbEntity
  8
細線
100
AcDbLine
 10
10035.26129598266
 20
7903.513328560041
 30
0.0
 11
10032.92974950647
 21
7908.513346113721
 31
0.0
  0
LINE
  5
18071
330
747D
100
AcDbEntity
  8
細線
100
AcDbLine
 10
9965.261286566203
 20
7903.513343473775
 30
0.0
 11
9967.59282608801
 21
7908.513346113737
 31
0.0
  0
LINE
  5
18072
330
747D
100
AcDbEntity
  8
細線
 48
50.0
100
AcDbLine
 10
9806.644644565379
 20
7921.784169929473
 30
0.0
 11
9812.400162148046
 21
7903.513318638987
 31
0.0
  0
LINE
  5
18073
330
747D
100
AcDbEntity
  8
細線
 48
50.0
100
AcDbLine
 10
9795.716196084947
 20
7921.784169929473
 30
0.0
 11
9806.644644565379
 21
7921.784169929473
 31
0.0
  0
ARC
  5
18074
330
747D
100
AcDbEntity
  8
細線
 48
50.0
100
AcDbCircle
 10
9790.261840027627
 20
7923.284169929473
 30
0.0
 40
5.0
100
AcDbArc
 50
204.6243183521304
 51
335.3756816478695
  0
ARC
  5
18075
330
747D
100
AcDbEntity
  8
細線
 48
50.0
100
AcDbCircle
 10
9795.716196084947
 20
7920.784169929475
 30
0.0
 40
1.0
100
AcDbArc
 50
90.0
 51
155.3756816478695
  0
ARC
  5
18076
330
747D
100
AcDbEntity
  8
細線
 48
50.0
100
AcDbCircle
 10
9784.807483970311
 20
7920.784169929475
 30
0.0
 40
1.0
100
AcDbArc
 50
24.62431835213048
 51
90.0
  0
LINE
  5
18077
330
747D
100
AcDbEntity
  8
細線
 48
50.0
100
AcDbLine
 10
9773.879035489878
 20
7921.784169929473
 30
0.0
 11
9784.807483970311
 21
7921.784169929473
 31
0.0
  0
LINE
  5
18078
330
747D
100
AcDbEntity
  8
細線
 48
50.0
100
AcDbLine
 10
9768.123517907211
 20
7903.51331863898
 30
0.0
 11
9773.879035489878
 21
7921.784169929473
 31
0.0
  0
LINE
  5
18079
330
747D
100
AcDbEntity
  8
細線
100
AcDbLine
 10
9825.261287797243
 20
7903.513316004785
 30
0.0
 11
9827.592827319055
 21
7908.513318644747
 31
0.0
  0
LINE
  5
1807A
330
747D
100
AcDbEntity
  8
細線
100
AcDbLine
 10
9895.261297213703
 20
7903.51330109105
 30
0.0
 11
9892.929750737513
 21
7908.513318644731
 31
0.0
  0
LINE
  5
1807B
330
747D
100
AcDbEntity
  8
細線
100
AcDbLine
 10
9892.929750737513
 20
7908.513318644731
 30
0.0
 11
9827.59282731904
 21
7908.513318644716
 31
0.0
  0
LINE
  5
1807C
330
747D
100
AcDbEntity
  8
細線
100
AcDbLine
 10
9752.929722372996
 20
7908.513318638951
 30
0.0
 11
9687.59279895452
 21
7908.513318638937
 31
0.0
  0
LINE
  5
1807D
330
747D
100
AcDbEntity
  8
細線
100
AcDbLine
 10
9755.261268849183
 20
7903.51330108527
 30
0.0
 11
9752.929722372996
 21
7908.513318638951
 31
0.0
  0
LINE
  5
1807E
330
747D
100
AcDbEntity
  8
細線
100
AcDbLine
 10
9685.261260663766
 20
7903.51331863898
 30
0.0
 11
9687.592798954534
 21
7908.513318638966
 31
0.0
  0
LINE
  5
1807F
330
747D
100
AcDbEntity
  8
細線
100
AcDbLine
 10
9545.261295982658
 20
7903.513326826349
 30
0.0
 11
9547.592834273427
 21
7908.513326826335
 31
0.0
  0
LINE
  5
18080
330
747D
100
AcDbEntity
  8
細線
100
AcDbLine
 10
9615.261304168075
 20
7903.513309272639
 30
0.0
 11
9612.929757691887
 21
7908.513326826318
 31
0.0
  0
LINE
  5
18081
330
747D
100
AcDbEntity
  8
細線
100
AcDbLine
 10
9612.929757691887
 20
7908.513326826318
 30
0.0
 11
9547.592834273412
 21
7908.513326826306
 31
0.0
  0
LINE
  5
18082
330
747D
100
AcDbEntity
  8
細線
100
AcDbLine
 10
9173.761261785537
 20
7869.513498507062
 30
0.0
 11
9176.092800076306
 21
7874.513498507048
 31
0.0
  0
LINE
  5
18083
330
747D
100
AcDbEntity
  8
細線
100
AcDbLine
 10
9243.761269970953
 20
7869.51348095335
 30
0.0
 11
9241.429723494766
 21
7874.513498507027
 31
0.0
  0
LINE
  5
18084
330
747D
100
AcDbEntity
  8
細線
100
AcDbLine
 10
9241.429723494766
 20
7874.513498507027
 30
0.0
 11
9176.092800076295
 21
7874.513498507019
 31
0.0
  0
LINE
  5
18085
330
747D
100
AcDbEntity
  8
細線
100
AcDbLine
 10
9381.429723494767
 20
7874.513498507027
 30
0.0
 11
9316.092800076296
 21
7874.513498507019
 31
0.0
  0
LINE
  5
18086
330
747D
100
AcDbEntity
  8
細線
100
AcDbLine
 10
9383.761269970953
 20
7869.51348095335
 30
0.0
 11
9381.429723494767
 21
7874.513498507027
 31
0.0
  0
LINE
  5
18087
330
747D
100
AcDbEntity
  8
細線
100
AcDbLine
 10
9313.761261785538
 20
7869.513498507062
 30
0.0
 11
9316.092800076305
 21
7874.513498507048
 31
0.0
  0
LINE
  5
18088
330
747D
100
AcDbEntity
  8
細線
100
AcDbLine
 10
9101.429723494765
 20
7874.513498507027
 30
0.0
 11
9036.092800076295
 21
7874.513498507015
 31
0.0
  0
LINE
  5
18089
330
747D
100
AcDbEntity
  8
細線
100
AcDbLine
 10
9103.761269970954
 20
7869.51348095335
 30
0.0
 11
9101.429723494765
 21
7874.513498507027
 31
0.0
  0
LINE
  5
1808A
330
747D
100
AcDbEntity
  8
細線
100
AcDbLine
 10
9033.761261785537
 20
7869.51349850706
 30
0.0
 11
9036.092800076305
 21
7874.513498507045
 31
0.0
  0
LINE
  5
1808B
330
747D
100
AcDbEntity
  8
細線
100
AcDbLine
 10
8893.761269970953
 20
7869.513498507062
 30
0.0
 11
8896.092808261721
 21
7874.513498507048
 31
0.0
  0
LINE
  5
1808C
330
747D
100
AcDbEntity
  8
細線
100
AcDbLine
 10
8963.761278156368
 20
7869.51348095335
 30
0.0
 11
8961.429731680182
 21
7874.513498507027
 31
0.0
  0
LINE
  5
1808D
330
747D
100
AcDbEntity
  8
細線
100
AcDbLine
 10
8961.429731680182
 20
7874.513498507027
 30
0.0
 11
8896.092808261711
 21
7874.513498507019
 31
0.0
  0
ARC
  5
1808E
330
747D
100
AcDbEntity
  8
部品1
 48
0.01
100
AcDbCircle
 10
8849.261158718618
 20
7868.512376321991
 30
0.0
 40
0.5
100
AcDbArc
 50
270.0
 51
0.0
  0
LINE
  5
1808F
330
747D
100
AcDbEntity
  8
部品1
 48
0.01
100
AcDbLine
 10
8849.761158718619
 20
7869.512376321989
 30
0.0
 11
8849.761158718619
 21
7868.512376321991
 31
0.0
  0
LINE
  5
18090
330
747D
100
AcDbEntity
  8
部品1
 48
0.01
100
AcDbLine
 10
8849.761158718619
 20
7869.512376321989
 30
0.0
 11
8849.761158718619
 21
7868.512376321991
 31
0.0
  0
LINE
  5
18091
330
747D
100
AcDbEntity
  8
部品1
 48
0.01
100
AcDbLine
 10
8849.261158718618
 20
7868.012376321989
 30
0.0
 11
8842.648653288554
 21
7868.012376321989
 31
0.0
  0
ARC
  5
18092
330
747D
100
AcDbEntity
  8
部品1
100
AcDbCircle
 10
8842.717002841334
 20
7869.01237632199
 30
0.0
 40
1.0
100
AcDbArc
 50
160.5287793655778
 51
270.0
  0
ARC
  5
18093
330
747D
100
AcDbEntity
  8
部品1
100
AcDbCircle
 10
8817.261158718618
 20
7878.01237632199
 30
0.0
 40
26.0
100
AcDbArc
 50
340.5287793655779
 51
0.0
  0
LINE
  5
18094
330
747D
100
AcDbEntity
  8
部品1
100
AcDbLine
 10
8843.261158718618
 20
7878.01237632199
 30
0.0
 11
8843.261158718618
 21
7883.01237632199
 31
0.0
  0
ARC
  5
18095
330
747D
100
AcDbEntity
  8
部品1
 48
0.01
100
AcDbCircle
 10
8841.261158718619
 20
7883.01237632199
 30
0.0
 40
2.0
100
AcDbArc
 50
0.0
 51
90.0
  0
ARC
  5
18096
330
747D
100
AcDbEntity
  8
部品1
100
AcDbCircle
 10
8839.652767093808
 20
7882.01237632199
 30
0.0
 40
3.0
100
AcDbArc
 50
90.0
 51
141.6069559807873
  0
LINE
  5
18097
330
747D
100
AcDbEntity
  8
部品1
 48
0.01
100
AcDbLine
 10
8841.261158718619
 20
7885.01237632199
 30
0.0
 11
8839.652767093808
 21
7885.01237632199
 31
0.0
  0
ARC
  5
18098
330
747D
100
AcDbEntity
  8
部品1
100
AcDbCircle
 10
8821.190444504347
 20
7881.312376321993
 30
0.0
 40
3.0
100
AcDbArc
 50
254.0576313943215
 51
270.0
  0
ARC
  5
18099
330
747D
100
AcDbEntity
  8
部品1
100
AcDbCircle
 10
8828.33187293289
 20
7881.312376321993
 30
0.0
 40
3.0
100
AcDbArc
 50
270.0
 51
285.9423686056786
  0
LINE
  5
1809A
330
747D
100
AcDbEntity
  8
部品1
100
AcDbLine
 10
8828.33187293289
 20
7878.312376321993
 30
0.0
 11
8821.190444504347
 21
7878.312376321993
 31
0.0
  0
ARC
  5
1809B
330
747D
100
AcDbEntity
  8
部品1
100
AcDbCircle
 10
8824.761158718619
 20
7893.812376321993
 30
0.0
 40
16.0
100
AcDbArc
 50
285.9423686056786
 51
321.6069559807873
  0
LINE
  5
1809C
330
747D
100
AcDbEntity
  8
部品1
 48
0.01
100
AcDbLine
 10
8808.261158718618
 20
7885.01237632199
 30
0.0
 11
8809.869550343428
 21
7885.01237632199
 31
0.0
  0
ARC
  5
1809D
330
747D
100
AcDbEntity
  8
部品1
100
AcDbCircle
 10
8809.869550343428
 20
7882.01237632199
 30
0.0
 40
3.0
100
AcDbArc
 50
38.39304401921267
 51
90.0
  0
ARC
  5
1809E
330
747D
100
AcDbEntity
  8
部品1
100
AcDbCircle
 10
8824.761158718619
 20
7893.812376321993
 30
0.0
 40
16.0
100
AcDbArc
 50
218.3930440192126
 51
254.0576313943215
  0
LINE
  5
1809F
330
747D
100
AcDbEntity
  8
部品1
100
AcDbLine
 10
8806.261158718617
 20
7878.01237632199
 30
0.0
 11
8806.261158718617
 21
7883.01237632199
 31
0.0
  0
ARC
  5
180A0
330
747D
100
AcDbEntity
  8
部品1
 48
0.01
100
AcDbCircle
 10
8808.261158718618
 20
7883.01237632199
 30
0.0
 40
2.0
100
AcDbArc
 50
90.0
 51
180.0
  0
ARC
  5
180A1
330
747D
100
AcDbEntity
  8
部品1
100
AcDbCircle
 10
8832.261158718619
 20
7878.01237632199
 30
0.0
 40
26.0
100
AcDbArc
 50
180.0
 51
199.4712206344221
  0
ARC
  5
180A2
330
747D
100
AcDbEntity
  8
部品1
 48
0.01
100
AcDbCircle
 10
8800.261158718617
 20
7868.512376321991
 30
0.0
 40
0.5
100
AcDbArc
 50
180.0
 51
270.0
  0
LINE
  5
180A3
330
747D
100
AcDbEntity
  8
部品1
 48
0.01
100
AcDbLine
 10
8800.261158718617
 20
7868.012376321989
 30
0.0
 11
8806.805314595903
 21
7868.012376321989
 31
0.0
  0
LINE
  5
180A4
330
747D
100
AcDbEntity
  8
部品1
 48
0.01
100
AcDbLine
 10
8799.761158718618
 20
7869.512376321989
 30
0.0
 11
8799.761158718618
 21
7868.512376321991
 31
0.0
  0
ARC
  5
180A5
330
747D
100
AcDbEntity
  8
部品1
100
AcDbCircle
 10
8806.805314595903
 20
7869.01237632199
 30
0.0
 40
1.0
100
AcDbArc
 50
270.0
 51
19.47122063442214
  0
LINE
  5
180A6
330
747D
100
AcDbEntity
  8
細線
100
AcDbLine
 10
8845.261158718626
 20
7887.512376321993
 30
0.0
 11
8804.261158718626
 21
7887.512376321986
 31
0.0
  0
LINE
  5
180A7
330
747D
100
AcDbEntity
  8
細線
100
AcDbLine
 10
8804.261158718626
 20
7887.512376321986
 30
0.0
 11
8804.261158718626
 21
7869.512376321968
 31
0.0
  0
LINE
  5
180A8
330
747D
100
AcDbEntity
  8
細線
100
AcDbLine
 10
8845.261158718626
 20
7887.512376321993
 30
0.0
 11
8845.261158718626
 21
7869.512376321968
 31
0.0
  0
LINE
  5
180A9
330
747D
100
AcDbEntity
  8
細線
100
AcDbLine
 10
8688.761265317364
 20
7873.513306776394
 30
0.0
 11
8688.761265317364
 21
7869.513306776442
 31
0.0
  0
DIMENSION
  5
180AA
330
747D
100
AcDbEntity
  8
寸法
 48
50.0
100
AcDbDimension
  2
*D31
 10
9954.761265317365
 20
7167.760480580202
 30
0.0
 11
9349.44892091328
 21
7167.760480580202
 31
0.0
 70
   160
  1
有効開口部間口\P<>
 71
     5
 42
1266.0
  3
INABA_S40
100
AcDbAlignedDimension
 13
8688.761265317364
 23
7864.513306776394
 33
0.0
 14
9954.761265317365
 24
7864.513306776394
 34
0.0
100
AcDbRotatedDimension
1001
ACAD
1000
DSTYLE
1002
{
1070
    41
1040
0.5
1070
    44
1040
1.0
1070
   147
1040
0.8
1070
   271
1070
     2
1070
   272
1070
     2
1070
   289
1070
     3
1070
   340
1005
F706
1070
   343
1005
163FE
1070
   344
1005
163FE
1002
}
  0
LINE
  5
180AB
330
747D
100
AcDbEntity
  8
部品1
100
AcDbLine
 10
10776.76126531736
 20
7941.513306776393
 30
0.0
 11
10803.76126531736
 21
7941.513306776393
 31
0.0
  0
LINE
  5
180AD
330
747D
100
AcDbEntity
  8
部品1
100
AcDbLine
 10
10803.76126531736
 20
7864.513306776394
 30
0.0
 11
10803.76126531736
 21
7941.513306776393
 31
0.0
  0
LINE
  5
180AE
330
747D
100
AcDbEntity
  8
部品1
100
AcDbLine
 10
10764.76126531736
 20
7937.513306776394
 30
0.0
 11
10776.76126531736
 21
7937.513306776394
 31
0.0
  0
LINE
  5
180AF
330
747D
100
AcDbEntity
  8
部品1
100
AcDbLine
 10
10773.76126531736
 20
7873.513306776394
 30
0.0
 11
10773.76126531736
 21
7864.513306776394
 31
0.0
  0
LINE
  5
180B0
330
747D
100
AcDbEntity
  8
部品1
100
AcDbLine
 10
10764.76126531736
 20
7873.513306776394
 30
0.0
 11
10773.76126531736
 21
7873.513306776394
 31
0.0
  0
LINE
  5
180B1
330
747D
100
AcDbEntity
  8
部品1
100
AcDbLine
 10
10764.76126531736
 20
7937.513306776394
 30
0.0
 11
10764.76126531736
 21
7873.513306776394
 31
0.0
  0
LINE
  5
180B2
330
747D
100
AcDbEntity
  8
部品1
100
AcDbLine
 10
10776.76126531736
 20
7968.513306776394
 30
0.0
 11
10776.76126531736
 21
7937.513306776394
 31
0.0
  0
LINE
  5
180B3
330
747D
100
AcDbEntity
  8
部品1
100
AcDbLine
 10
8688.761265317364
 20
7937.513306776394
 30
0.0
 11
8676.761265317365
 21
7937.513306776394
 31
0.0
  0
LINE
  5
180B4
330
747D
100
AcDbEntity
  8
部品1
100
AcDbLine
 10
8649.761265317364
 20
7941.513306776393
 30
0.0
 11
8676.761265317365
 21
7941.513306776393
 31
0.0
  0
LINE
  5
180B5
330
747D
100
AcDbEntity
  8
部品1
100
AcDbLine
 10
8679.761265317365
 20
7873.513306776394
 30
0.0
 11
8679.761265317365
 21
7864.513306776394
 31
0.0
  0
LINE
  5
180B6
330
747D
100
AcDbEntity
  8
部品1
100
AcDbLine
 10
8688.761265317364
 20
7873.513306776394
 30
0.0
 11
8679.761265317365
 21
7873.513306776394
 31
0.0
  0
LINE
  5
180B7
330
747D
100
AcDbEntity
  8
部品1
100
AcDbLine
 10
8679.761265317365
 20
7864.513306776394
 30
0.0
 11
8649.761265317364
 21
7864.513306776394
 31
0.0
  0
LINE
  5
180B8
330
747D
100
AcDbEntity
  8
部品1
100
AcDbLine
 10
8649.761265317364
 20
7864.513306776394
 30
0.0
 11
8649.761265317364
 21
7941.513306776393
 31
0.0
  0
LINE
  5
180B9
330
747D
100
AcDbEntity
  8
部品1
100
AcDbLine
 10
8688.761265317364
 20
7937.513306776394
 30
0.0
 11
8688.761265317364
 21
7873.513306776394
 31
0.0
  0
LINE
  5
180BA
330
747D
100
AcDbEntity
  8
部品1
100
AcDbLine
 10
8676.761265317365
 20
7968.51330677639
 30
0.0
 11
8676.761265317365
 21
7937.513306776394
 31
0.0
  0
LINE
  5
180BB
330
747D
100
AcDbEntity
  8
部品1
100
AcDbLine
 10
8676.761265317365
 20
7968.51330677639
 30
0.0
 11
10776.76126531736
 21
7968.513306776394
 31
0.0
  0
LINE
  5
180BC
330
747D
100
AcDbEntity
  8
部品1
100
AcDbLine
 10
10773.76126531736
 20
7864.513306776394
 30
0.0
 11
10803.76126531736
 21
7864.513306776394
 31
0.0
  0
LINE
  5
180BD
330
747D
100
AcDbEntity
  8
部品1
100
AcDbLine
 10
8679.761265317365
 20
7864.513306776394
 30
0.0
 11
10776.76126531736
 21
7864.513306776394
 31
0.0
  0
LINE
  5
180BE
330
747D
100
AcDbEntity
  8
細線
  6
Continuous
 62
     5
100
AcDbLine
 10
10055.76126531737
 20
7903.513306776391
 30
0.0
 11
10055.76126531737
 21
7903.513306776391
 31
0.0
  0
LINE
  5
180BF
330
747D
100
AcDbEntity
  8
細線
  6
Continuous
 62
     5
100
AcDbLine
 10
10048.26130063626
 20
7903.513316697448
 30
0.0
 11
10048.26130063626
 21
7903.513316697448
 31
0.0
  0
LINE
  5
180C0
330
747D
100
AcDbEntity
  8
細線
  6
Continuous
 62
     5
100
AcDbLine
 10
10042.26130063626
 20
7903.513316697448
 30
0.0
 11
10042.26130063626
 21
7903.513316697448
 31
0.0
  0
LINE
  5
180C1
330
747D
100
AcDbEntity
  8
細線
  6
Continuous
 62
     5
100
AcDbLine
 10
10109.76126531736
 20
7922.513306776391
 30
0.0
 11
10109.76126531736
 21
7922.513306776391
 31
0.0
  0
LINE
  5
180C2
330
747D
100
AcDbEntity
  8
細線
 48
50.0
100
AcDbLine
 10
8702.761269970958
 20
7890.113480953347
 30
0.0
 11
8702.761269970958
 21
7898.509631360987
 31
0.0
  0
LINE
  5
180C3
330
747D
100
AcDbEntity
  8
細線
 48
50.0
100
AcDbLine
 10
8702.761269970958
 20
7898.509631360987
 30
0.0
 11
8688.761265317364
 21
7898.509631360984
 31
0.0
  0
LINE
  5
180C4
330
747D
100
AcDbEntity
  8
細線
 48
50.0
100
AcDbLine
 10
9453.761269970954
 20
7886.663480953346
 30
0.0
 11
9453.761269970954
 21
7891.513480953349
 31
0.0
  0
LINE
  5
180C5
330
747D
100
AcDbEntity
  8
細線
 48
50.0
100
AcDbLine
 10
9453.761269970954
 20
7891.513480953349
 30
0.0
 11
9468.761269970952
 21
7891.513480953349
 31
0.0
  0
LINE
  5
180C6
330
747D
100
AcDbEntity
  8
細線
 48
50.0
100
AcDbLine
 10
9468.761269970952
 20
7891.513480953349
 30
0.0
 11
9468.761269970958
 21
7898.513480953349
 31
0.0
  0
LINE
  5
180C7
330
747D
100
AcDbEntity
  8
細線
 48
50.0
100
AcDbLine
 10
9468.761269970958
 20
7898.513480953349
 30
0.0
 11
9483.761269970953
 21
7898.513480953349
 31
0.0
  0
LINE
  5
180C8
330
747D
100
AcDbEntity
  8
細線
 48
50.0
100
AcDbLine
 10
9483.761269970953
 20
7898.513480953349
 30
0.0
 11
9483.761269970953
 21
7869.51348095335
 31
0.0
  0
LINE
  5
180C9
330
747D
100
AcDbEntity
  8
細線
 48
50.0
100
AcDbLine
 10
8679.761265317365
 20
7869.510815296817
 30
0.0
 11
8893.761269970953
 21
7869.513498507062
 31
0.0
  0
LINE
  5
180CA
330
747D
100
AcDbEntity
  8
細線
 48
50.0
100
AcDbLine
 10
9383.761269970953
 20
7869.51348095335
 30
0.0
 11
9483.761269970953
 21
7869.51348095335
 31
0.0
  0
LINE
  5
180CB
330
747D
100
AcDbEntity
  8
細線
 48
50.0
100
AcDbLine
 10
9103.761269970954
 20
7869.51348095335
 30
0.0
 11
9173.761269970952
 21
7869.51348095335
 31
0.0
  0
LINE
  5
180CC
330
747D
100
AcDbEntity
  8
細線
 48
50.0
100
AcDbLine
 10
9116.623234983483
 20
7869.51348095335
 30
0.0
 11
9122.378752566151
 21
7887.784332243843
 31
0.0
  0
LINE
  5
180CD
330
747D
100
AcDbEntity
  8
細線
 48
50.0
100
AcDbLine
 10
9122.378752566151
 20
7887.784332243843
 30
0.0
 11
9133.307201046584
 21
7887.784332243839
 31
0.0
  0
ARC
  5
180CE
330
747D
100
AcDbEntity
  8
細線
 48
50.0
100
AcDbCircle
 10
9133.307201046584
 20
7886.784332243839
 30
0.0
 40
1.0
100
AcDbArc
 50
24.62431835213048
 51
90.0
  0
ARC
  5
180CF
330
747D
100
AcDbEntity
  8
細線
 48
50.0
100
AcDbCircle
 10
9144.215913161216
 20
7886.784332243839
 30
0.0
 40
1.0
100
AcDbArc
 50
90.0
 51
155.3756816478695
  0
ARC
  5
180D0
330
747D
100
AcDbEntity
  8
細線
 48
50.0
100
AcDbCircle
 10
9138.761557103899
 20
7889.284332243839
 30
0.0
 40
5.0
100
AcDbArc
 50
204.6243183521304
 51
335.3756816478695
  0
LINE
  5
180D1
330
747D
100
AcDbEntity
  8
細線
 48
50.0
100
AcDbLine
 10
9144.215913161216
 20
7887.784332243839
 30
0.0
 11
9155.144361641651
 21
7887.784332243843
 31
0.0
  0
LINE
  5
180D2
330
747D
100
AcDbEntity
  8
細線
 48
50.0
100
AcDbLine
 10
9155.144361641651
 20
7887.784332243843
 30
0.0
 11
9160.899879224318
 21
7869.51348095335
 31
0.0
  0
LINE
  5
180D3
330
747D
100
AcDbEntity
  8
細線
 48
50.0
100
AcDbLine
 10
9453.761269970954
 20
7890.113480953347
 30
0.0
 11
8702.761269970958
 21
7890.113480953347
 31
0.0
  0
LINE
  5
180D4
330
747D
100
AcDbEntity
  8
細線
 48
50.0
100
AcDbLine
 10
9313.761269970953
 20
7869.51348095335
 30
0.0
 11
9243.761269970953
 21
7869.51348095335
 31
0.0
  0
LINE
  5
180D5
330
747D
100
AcDbEntity
  8
細線
100
AcDbLine
 10
9033.761269970954
 20
7869.51348095335
 30
0.0
 11
8963.761278156368
 21
7869.51348095335
 31
0.0
  0
LINE
  5
180D6
330
747D
100
AcDbEntity
  8
細線
 48
50.0
100
AcDbLine
 10
10107.76126066378
 20
7924.113524811216
 30
0.0
 11
9472.761269970954
 21
7924.113524811213
 31
0.0
  0
LINE
  5
180D7
330
747D
100
AcDbEntity
  8
細線
 48
50.0
100
AcDbLine
 10
9472.761269970954
 20
7921.009675218856
 30
0.0
 11
9472.761269970954
 21
7925.509675218856
 31
0.0
  0
LINE
  5
180D8
330
747D
100
AcDbEntity
  8
細線
 48
50.0
100
AcDbLine
 10
9472.761269970954
 20
7925.509675218856
 30
0.0
 11
9457.761269970953
 21
7925.509675218856
 31
0.0
  0
LINE
  5
180D9
330
747D
100
AcDbEntity
  8
細線
 48
50.0
100
AcDbLine
 10
9457.761269970953
 20
7925.509675218856
 30
0.0
 11
9457.761269970953
 21
7932.509675218856
 31
0.0
  0
LINE
  5
180DA
330
747D
100
AcDbEntity
  8
細線
 48
50.0
100
AcDbLine
 10
9457.761269970953
 20
7932.509675218856
 30
0.0
 11
9442.761269970956
 21
7932.509675218851
 31
0.0
  0
LINE
  5
180DB
330
747D
100
AcDbEntity
  8
細線
 48
50.0
100
AcDbLine
 10
9442.761269970956
 20
7932.509675218851
 30
0.0
 11
9442.761269970956
 21
7894.909447115741
 31
0.0
  0
LINE
  5
180DC
330
747D
100
AcDbEntity
  8
細線
 48
50.0
100
AcDbLine
 10
9442.761269970956
 20
7894.909447115741
 30
0.0
 11
9462.761277272129
 21
7894.909488665283
 31
0.0
  0
LINE
  5
180DD
330
747D
100
AcDbEntity
  8
細線
 48
50.0
100
AcDbLine
 10
9462.761232403186
 20
7903.512950301091
 30
0.0
 11
9462.761277272129
 21
7894.909488665283
 31
0.0
  0
LINE
  5
180DE
330
747D
100
AcDbEntity
  8
細線
 48
50.0
100
AcDbLine
 10
10107.76126066378
 20
7920.663524811215
 30
0.0
 11
10107.76126066378
 21
7925.513524811214
 31
0.0
  0
LINE
  5
180DF
330
747D
100
AcDbEntity
  8
細線
 48
50.0
100
AcDbLine
 10
10107.76126066378
 20
7925.513524811214
 30
0.0
 11
10122.76126066377
 21
7925.513524811214
 31
0.0
  0
LINE
  5
180E0
330
747D
100
AcDbEntity
  8
細線
 48
50.0
100
AcDbLine
 10
10122.76126066377
 20
7925.513524811214
 30
0.0
 11
10122.76127229775
 21
7932.513524811257
 31
0.0
  0
LINE
  5
180E1
330
747D
100
AcDbEntity
  8
細線
 48
50.0
100
AcDbLine
 10
10122.76127229775
 20
7932.513524811257
 30
0.0
 11
10137.76127046828
 21
7932.513524811257
 31
0.0
  0
LINE
  5
180E2
330
747D
100
AcDbEntity
  8
細線
 48
50.0
100
AcDbLine
 10
10137.76127046828
 20
7932.513524811257
 30
0.0
 11
10137.76126016646
 21
7903.513318638984
 31
0.0
  0
LINE
  5
180E3
330
747D
100
AcDbEntity
  8
細線
 48
50.0
100
AcDbLine
 10
9825.261287797243
 20
7903.513326826349
 30
0.0
 11
9755.26153987966
 21
7903.513321389012
 31
0.0
  0
LINE
  5
180E4
330
747D
100
AcDbEntity
  8
細線
 48
50.0
100
AcDbLine
 10
9462.761232403186
 20
7903.512950301091
 30
0.0
 11
9473.993921757898
 21
7903.513133254238
 31
0.0
  0
ARC
  5
180E5
330
747D
100
AcDbEntity
  8
細線
 48
50.0
100
AcDbCircle
 10
9480.576214065234
 20
7902.31329716785
 30
0.0
 40
1.8
100
AcDbArc
 50
270.0006665777295
 51
345.0005554812987
  0
LINE
  5
180E6
330
747D
100
AcDbEntity
  8
細線
 48
50.0
100
AcDbLine
 10
9482.562647511313
 20
7902.772137625129
 30
0.0
 11
9482.314885069113
 21
7901.847439743022
 31
0.0
  0
LINE
  5
180E7
330
747D
100
AcDbEntity
  8
細線
 48
50.0
100
AcDbLine
 10
9480.576235006388
 20
7900.513297167972
 30
0.0
 11
9476.946307587619
 21
7900.513254937492
 31
0.0
  0
ARC
  5
180E8
330
747D
100
AcDbEntity
  8
細線
 48
50.0
100
AcDbCircle
 10
9476.946286646468
 20
7902.31325493737
 30
0.0
 40
1.8
100
AcDbArc
 50
195.0010443049394
 51
270.0006665777295
  0
LINE
  5
180E9
330
747D
100
AcDbEntity
  8
細線
 48
50.0
100
AcDbLine
 10
9474.959859154209
 20
7902.771969904936
 30
0.0
 11
9475.207628650721
 21
7901.847348966353
 31
0.0
  0
ARC
  5
180EA
330
747D
100
AcDbEntity
  8
細線
 48
50.0
100
AcDbCircle
 10
9473.99393804546
 20
7902.513133254372
 30
0.0
 40
1.0
100
AcDbArc
 50
15.00104430493943
 51
90.00093320877969
  0
LINE
  5
180EB
330
747D
100
AcDbEntity
  8
細線
 48
50.0
100
AcDbLine
 10
9483.528568866416
 20
7903.513327944643
 30
0.0
 11
9484.47032901732
 21
7903.513334518492
 31
0.0
  0
ARC
  5
180EC
330
747D
100
AcDbEntity
  8
細線
 48
50.0
100
AcDbCircle
 10
9483.528575846802
 20
7902.513327944667
 30
0.0
 40
1.0
100
AcDbArc
 50
90.0003999466794
 51
165.0005554812987
  0
LINE
  5
180ED
330
747D
100
AcDbEntity
  8
細線
 48
50.0
100
AcDbLine
 10
10035.26126066377
 20
7903.513318638984
 30
0.0
 11
10137.76126016646
 21
7903.513318638984
 31
0.0
  0
LINE
  5
180EE
330
747D
100
AcDbEntity
  8
細線
 48
50.0
100
AcDbLine
 10
9545.261295982658
 20
7903.513326826349
 30
0.0
 11
9484.161234755738
 21
7903.513334518492
 31
0.0
  0
LINE
  5
180EF
330
747D
100
AcDbEntity
  8
細線
 48
50.0
100
AcDbLine
 10
9965.261295982658
 20
7903.513363667433
 30
0.0
 11
9895.261289028272
 21
7903.513318644765
 31
0.0
  0
LINE
  5
180F0
330
747D
100
AcDbEntity
  8
細線
 48
50.0
100
AcDbLine
 10
9685.261260663766
 20
7903.51331863898
 30
0.0
 11
9615.261243375892
 21
7903.513318638987
 31
0.0
  0
ARC
  5
180F1
330
747D
100
AcDbEntity
  8
細線
 48
50.0
100
AcDbCircle
 10
10121.96126531737
 20
7936.713306776394
 30
0.0
 40
0.8
100
AcDbArc
 50
359.9997333689499
 51
89.99986668437072
  0
ARC
  5
180F2
330
747D
100
AcDbEntity
  8
細線
 48
50.0
100
AcDbCircle
 10
10129.56127214247
 20
7936.71331794501
 30
0.0
 40
0.8
100
AcDbArc
 50
90.00014387753465
 51
179.9997333689498
  0
LINE
  5
180F3
330
747D
100
AcDbEntity
  8
細線
 48
50.0
100
AcDbLine
 10
10121.96126717881
 20
7937.513306776394
 30
0.0
 11
10116.76126531736
 21
7937.513306776394
 31
0.0
  0
ARC
  5
180F4
330
747D
100
AcDbEntity
  8
細線
 48
50.0
100
AcDbCircle
 10
10123.46126531736
 20
7935.213306776394
 30
0.0
 40
0.7
100
AcDbArc
 50
180.0
 51
270.0
  0
ARC
  5
180F5
330
747D
100
AcDbEntity
  8
細線
 48
50.0
100
AcDbCircle
 10
10128.06126531736
 20
7935.213306776394
 30
0.0
 40
0.7
100
AcDbArc
 50
270.0
 51
0.0
  0
LINE
  5
180F6
330
747D
100
AcDbEntity
  8
細線
 48
50.0
100
AcDbLine
 10
10128.76126531736
 20
7935.213306776394
 30
0.0
 11
10128.76127214248
 21
7936.713321667882
 31
0.0
  0
LINE
  5
180F7
330
747D
100
AcDbEntity
  8
細線
 48
50.0
100
AcDbLine
 10
10123.46126531736
 20
7934.513306776394
 30
0.0
 11
10128.06126531736
 21
7934.513306776394
 31
0.0
  0
LINE
  5
180F8
330
747D
100
AcDbEntity
  8
細線
 48
50.0
100
AcDbLine
 10
10122.76126531736
 20
7936.713306776394
 30
0.0
 11
10122.76126531736
 21
7935.213306776394
 31
0.0
  0
LINE
  5
180F9
330
747D
100
AcDbEntity
  8
細線
 48
50.0
100
AcDbLine
 10
10748.36126531737
 20
7967.513306776393
 30
0.0
 11
10111.76126531736
 21
7967.513306776389
 31
0.0
  0
LINE
  5
180FA
330
747D
100
AcDbEntity
  8
細線
 48
50.0
100
AcDbLine
 10
10774.26126531736
 20
7962.513306776397
 30
0.0
 11
10758.36126531737
 21
7962.513306776394
 31
0.0
  0
LINE
  5
180FB
330
747D
100
AcDbEntity
  8
細線
 48
50.0
100
AcDbLine
 10
10758.36126531736
 20
7962.513306776394
 30
0.0
 11
10748.36126531737
 21
7967.513306776393
 31
0.0
  0
LINE
  5
180FC
330
747D
100
AcDbEntity
  8
細線
100
AcDbLine
 10
10359.26126531736
 20
7937.513306776394
 30
0.0
 11
10359.26126531736
 21
7966.813306776393
 31
0.0
  0
LINE
  5
180FD
330
747D
100
AcDbEntity
  8
細線
100
AcDbLine
 10
10359.26126531736
 20
7966.813306776393
 30
0.0
 11
10379.26126531736
 21
7966.813306776393
 31
0.0
  0
LINE
  5
180FE
330
747D
100
AcDbEntity
  8
細線
100
AcDbLine
 10
10379.26126531736
 20
7937.513306776394
 30
0.0
 11
10379.26126531736
 21
7966.813306776393
 31
0.0
  0
LINE
  5
180FF
330
747D
100
AcDbEntity
  8
細線
100
AcDbLine
 10
10540.51126531736
 20
7937.513306776394
 30
0.0
 11
10470.51126531736
 21
7937.513306776394
 31
0.0
  0
LINE
  5
18100
330
747D
100
AcDbEntity
  8
細線
 48
50.0
100
AcDbLine
 10
10260.51126531736
 20
7937.513306776394
 30
0.0
 11
10129.5570448902
 21
7937.513306776394
 31
0.0
  0
LINE
  5
18101
330
747D
100
AcDbEntity
  8
細線
100
AcDbLine
 10
10400.51126531736
 20
7937.513306776394
 30
0.0
 11
10330.51126531736
 21
7937.513306776394
 31
0.0
  0
LINE
  5
18102
330
747D
100
AcDbEntity
  8
細線
 48
50.0
100
AcDbLine
 10
10116.76126531736
 20
7929.513306776394
 30
0.0
 11
10116.76126531736
 21
7937.513306776394
 31
0.0
  0
LINE
  5
18103
330
747D
100
AcDbEntity
  8
細線
 48
50.0
100
AcDbLine
 10
10096.76126531736
 20
7929.513306776397
 30
0.0
 11
10116.76126531736
 21
7929.513306776394
 31
0.0
  0
LINE
  5
18104
330
747D
100
AcDbEntity
  8
細線
 48
50.0
100
AcDbLine
 10
10111.76126531736
 20
7967.513306776393
 30
0.0
 11
10111.76126531736
 21
7962.513306776394
 31
0.0
  0
LINE
  5
18105
330
747D
100
AcDbEntity
  8
細線
 48
50.0
100
AcDbLine
 10
10096.76126531736
 20
7967.513306776389
 30
0.0
 11
10111.76126531736
 21
7967.513306776393
 31
0.0
  0
LINE
  5
18106
330
747D
100
AcDbEntity
  8
細線
 48
50.0
100
AcDbLine
 10
10096.76126531736
 20
7929.513306776397
 30
0.0
 11
10096.76126531736
 21
7967.513306776389
 31
0.0
  0
LINE
  5
18107
330
747D
100
AcDbEntity
  8
細線
100
AcDbLine
 10
10764.76126531736
 20
7937.513306776394
 30
0.0
 11
10610.51126531736
 21
7937.513306776394
 31
0.0
  0
LINE
  5
18108
330
747D
100
AcDbEntity
  8
細線
 48
50.0
100
AcDbLine
 10
10774.26126531736
 20
7962.513306776397
 30
0.0
 11
10774.26126531736
 21
7937.513306776394
 31
0.0
  0
DIMENSION
  5
18313
330
747D
100
AcDbEntity
  8
寸法
100
AcDbDimension
  2
*D32
 10
8327.150019690698
 20
7866.513306776448
 30
0.0
 11
8327.150019690696
 21
7726.028025402211
 31
0.0
 70
   160
 71
     5
 42
75.0
  3
INABA_S40
100
AcDbAlignedDimension
 13
8621.761265317415
 23
7941.513306776449
 33
0.0
 14
8649.761265317392
 24
7866.513306776448
 34
0.0
 50
90.0
100
AcDbRotatedDimension
1001
ACAD
1000
DSTYLE
1002
{
1070
    41
1040
0.5
1070
    44
1040
1.0
1070
   147
1040
0.8
1070
   271
1070
     2
1070
   272
1070
     2
1070
   289
1070
     3
1070
   340
1005
F706
1070
   343
1005
163FE
1070
   344
1005
163FE
1002
}
  0
DIMENSION
  5
185C4
330
747D
100
AcDbEntity
  8
寸法
 48
50.0
100
AcDbDimension
  2
*D33
 10
10803.76126531736
 20
6899.840111255994
 30
0.0
 11
9726.761265317364
 21
6999.851922279616
 31
0.0
 70
    32
 71
     5
 42
2154.0
  3
INABA_S40G
100
AcDbAlignedDimension
 13
8649.761265317364
 23
7864.513306776394
 33
0.0
 14
10803.76126531736
 24
7864.513306776394
 34
0.0
100
AcDbRotatedDimension
1001
ACAD
1000
DSTYLE
1002
{
1070
   341
1005
0
1002
}
  0
LWPOLYLINE
  5
186BC
330
747D
100
AcDbEntity
  8
部品1
 48
50.0
100
AcDbPolyline
 90
        4
 70
     1
 43
0.0
 10
8748.811265317414
 20
3594.181598713261
 10
8751.711265317416
 20
3594.181598713261
 10
8751.711265317416
 20
3603.681598713261
 10
8748.811265317414
 20
3603.681598713261
  0
CIRCLE
  5
186BD
330
747D
100
AcDbEntity
  8
部品1
 48
50.0
100
AcDbCircle
 10
8750.261265317416
 20
3598.931598713261
 30
0.0
 40
9.0
  0
ARC
  5
186BE
330
747D
100
AcDbEntity
  8
細線
 48
50.0
100
AcDbCircle
 10
8750.261265317416
 20
3598.931598713261
 30
0.0
 40
4.0
100
AcDbArc
 50
111.2538091853132
 51
248.7461908146868
  0
ARC
  5
186BF
330
747D
100
AcDbEntity
  8
細線
 48
50.0
100
AcDbCircle
 10
8750.261265317416
 20
3598.931598713261
 30
0.0
 40
17.5
100
AcDbArc
 50
306.4837370612677
 51
233.5162629387323
  0
LINE
  5
186C0
330
747D
100
AcDbEntity
  8
細線
 48
50.0
100
AcDbLine
 10
8760.26126531741
 20
3575.072638132379
 30
0.0
 11
8760.261265317415
 21
3584.05712393262
 31
0.0
  0
LINE
  5
186C1
330
747D
100
AcDbEntity
  8
細線
 48
50.0
100
AcDbLine
 10
8740.261265317414
 20
3575.07263813238
 30
0.0
 11
8740.261265317414
 21
3584.057123932617
 31
0.0
  0
ARC
  5
186C2
330
747D
100
AcDbEntity
  8
細線
 48
50.0
100
AcDbCircle
 10
8750.261265317416
 20
3598.931598713261
 30
0.0
 40
26.5
100
AcDbArc
 50
249.3326835063939
 51
290.6673164933835
  0
ARC
  5
186C3
330
747D
100
AcDbEntity
  8
細線
 48
50.0
100
AcDbCircle
 10
8759.261265317407
 20
3575.072638132379
 30
0.0
 40
1.0
100
AcDbArc
 50
290.6673164936062
 51
359.9999999998958
  0
ARC
  5
186C4
330
747D
100
AcDbEntity
  8
細線
 48
50.0
100
AcDbCircle
 10
8741.261265317415
 20
3575.07263813238
 30
0.0
 40
1.0
100
AcDbArc
 50
180.0
 51
249.3326835066164
  0
ARC
  5
186C5
330
747D
100
AcDbEntity
  8
細線
 48
50.0
100
AcDbCircle
 10
8739.261265317415
 20
3584.057123932617
 30
0.0
 40
1.0
100
AcDbArc
 50
0.0
 51
53.51626293873231
  0
ARC
  5
186C6
330
747D
100
AcDbEntity
  8
細線
 48
50.0
100
AcDbCircle
 10
8761.261265317418
 20
3584.05712393262
 30
0.0
 40
1.0
100
AcDbArc
 50
126.4837370615127
 51
180.0
  0
ARC
  5
186C7
330
747D
100
AcDbEntity
  8
細線
 48
50.0
100
AcDbCircle
 10
8750.261265317416
 20
3598.931598713261
 30
0.0
 40
21.5
100
AcDbArc
 50
255.8014401250294
 51
284.1985598749706
  0
ARC
  5
186C8
330
747D
100
AcDbEntity
  8
細線
 48
50.0
100
AcDbCircle
 10
8750.261265317416
 20
3598.931598713261
 30
0.0
 40
16.5
100
AcDbArc
 50
251.9694646069326
 51
288.0305353930674
  0
LINE
  5
186C9
330
747D
100
AcDbEntity
  8
細線
 48
50.0
100
AcDbLine
 10
8755.761265317415
 20
3578.379226587454
 30
0.0
 11
8755.761265317415
 21
3582.956618274791
 31
0.0
  0
LINE
  5
186CA
330
747D
100
AcDbEntity
  8
細線
 48
50.0
100
AcDbLine
 10
8744.761265317414
 20
3578.379226587454
 30
0.0
 11
8744.761265317414
 21
3582.95661827479
 31
0.0
  0
ARC
  5
186CB
330
747D
100
AcDbEntity
  8
細線
 48
50.0
100
AcDbCircle
 10
8745.061265317417
 20
3582.95661827479
 30
0.0
 40
0.3
100
AcDbArc
 50
71.96946460693259
 51
180.0
  0
ARC
  5
186CC
330
747D
100
AcDbEntity
  8
細線
 48
50.0
100
AcDbCircle
 10
8755.461265317416
 20
3582.956618274791
 30
0.0
 40
0.3
100
AcDbArc
 50
0.0
 51
108.0305353930674
  0
ARC
  5
186CD
330
747D
100
AcDbEntity
  8
細線
 48
50.0
100
AcDbCircle
 10
8755.461265317412
 20
3578.379226587454
 30
0.0
 40
0.3
100
AcDbArc
 50
284.1985598747622
 51
0.0000000001042204
  0
ARC
  5
186CE
330
747D
100
AcDbEntity
  8
細線
 48
50.0
100
AcDbCircle
 10
8745.061265317417
 20
3578.379226587454
 30
0.0
 40
0.3
100
AcDbArc
 50
180.0
 51
255.8014401248081
  0
CIRCLE
  5
186CF
330
747D
100
AcDbEntity
  8
細線
 48
50.0
100
AcDbCircle
 10
8750.261265317416
 20
3598.931598713261
 30
0.0
 40
12.0
  0
ARC
  5
186D0
330
747D
100
AcDbEntity
  8
部品1
 48
50.0
100
AcDbCircle
 10
8750.261265317416
 20
3648.931598713261
 30
0.0
 40
8.5
100
AcDbArc
 50
114.315739171091
 51
245.684260828909
  0
CIRCLE
  5
186D1
330
747D
100
AcDbEntity
  8
細線
 48
50.0
100
AcDbCircle
 10
8750.261265317416
 20
3648.931598713261
 30
0.0
 40
4.5
  0
LWPOLYLINE
  5
186D2
330
747D
100
AcDbEntity
  8
部品1
 48
50.0
100
AcDbPolyline
 90
        2
 70
     0
 43
0.0
 10
8746.761265317415
 20
3667.606448110245
 10
8746.761265317415
 20
3656.677565405676
  0
CIRCLE
  5
186D3
330
747D
100
AcDbEntity
  8
部品1
 48
50.0
100
AcDbCircle
 10
8750.261265317416
 20
3648.931598713261
 30
0.0
 40
19.0
  0
LWPOLYLINE
  5
186D4
330
747D
100
AcDbEntity
  8
部品1
 48
50.0
100
AcDbPolyline
 90
        2
 70
     0
 43
0.0
 10
8746.761265317415
 20
3641.185632020846
 10
8746.761265317415
 20
3630.256749316279
  0
LWPOLYLINE
  5
186D5
330
747D
100
AcDbEntity
  8
部品1
 48
50.0
100
AcDbPolyline
 90
        2
 70
     0
 43
0.0
 10
8753.761265317415
 20
3656.677565405676
 10
8753.761265317415
 20
3667.606448110245
  0
ARC
  5
186D6
330
747D
100
AcDbEntity
  8
部品1
 48
50.0
100
AcDbCircle
 10
8750.261265317416
 20
3648.931598713261
 30
0.0
 40
8.5
100
AcDbArc
 50
294.315739171091
 51
65.68426082890896
  0
LWPOLYLINE
  5
186D7
330
747D
100
AcDbEntity
  8
部品1
 48
50.0
100
AcDbPolyline
 90
        2
 70
     0
 43
0.0
 10
8753.761265317415
 20
3630.256749316279
 10
8753.761265317415
 20
3641.185632020846
  0
ARC
  5
186D8
330
747D
100
AcDbEntity
  8
細線
 48
50.0
100
AcDbCircle
 10
8750.261265317416
 20
3648.931598713261
 30
0.0
 40
16.5
100
AcDbArc
 50
332.0012352654438
 51
27.99876473455621
  0
ARC
  5
186D9
330
747D
100
AcDbEntity
  8
細線
 48
50.0
100
AcDbCircle
 10
8750.261265317416
 20
3648.931598713261
 30
0.0
 40
14.0
100
AcDbArc
 50
326.4074436112986
 51
33.59255638870134
  0
LINE
  5
186DA
330
747D
100
AcDbEntity
  8
細線
 48
50.0
100
AcDbLine
 10
8735.692463033084
 20
3656.677565405676
 30
0.0
 11
8738.599361527725
 21
3656.677565405676
 31
0.0
  0
LINE
  5
186DB
330
747D
100
AcDbEntity
  8
細線
 48
50.0
100
AcDbLine
 10
8735.692463033084
 20
3641.185632020846
 30
0.0
 11
8738.599361527725
 21
3641.185632020846
 31
0.0
  0
LINE
  5
186DC
330
747D
100
AcDbEntity
  8
細線
 48
50.0
100
AcDbLine
 10
8761.923169107104
 20
3656.677565405676
 30
0.0
 11
8764.830067601749
 21
3656.677565405676
 31
0.0
  0
LINE
  5
186DD
330
747D
100
AcDbEntity
  8
細線
 48
50.0
100
AcDbLine
 10
8761.923169107104
 20
3641.185632020846
 30
0.0
 11
8764.830067601749
 21
3641.185632020846
 31
0.0
  0
ARC
  5
186DE
330
747D
100
AcDbEntity
  8
細線
 48
50.0
100
AcDbCircle
 10
8750.261265317416
 20
3648.931598713261
 30
0.0
 40
14.0
100
AcDbArc
 50
146.4074436112986
 51
213.5925563887013
  0
ARC
  5
186DF
330
747D
100
AcDbEntity
  8
細線
 48
50.0
100
AcDbCircle
 10
8750.261265317416
 20
3648.931598713261
 30
0.0
 40
16.5
100
AcDbArc
 50
152.0012352654438
 51
207.9987647345562
  0
ARC
  5
186E0
330
747D
100
AcDbEntity
  8
部品1
 48
50.0
100
AcDbCircle
 10
8723.761265317415
 20
3674.431598713262
 30
0.0
 40
5.0
100
AcDbArc
 50
90.0
 51
180.0
  0
ARC
  5
186E1
330
747D
100
AcDbEntity
  8
部品1
 48
50.0
100
AcDbCircle
 10
8723.761265317415
 20
3563.431598713262
 30
0.0
 40
5.0
100
AcDbArc
 50
180.0
 51
270.0
  0
ARC
  5
186E2
330
747D
100
AcDbEntity
  8
部品1
 48
50.0
100
AcDbCircle
 10
8776.761265317416
 20
3563.431598713262
 30
0.0
 40
5.0
100
AcDbArc
 50
270.0
 51
0.0
  0
ARC
  5
186E3
330
747D
100
AcDbEntity
  8
部品1
 48
50.0
100
AcDbCircle
 10
8776.761265317416
 20
3674.431598713262
 30
0.0
 40
5.0
100
AcDbArc
 50
0.0
 51
90.0
  0
LINE
  5
186E5
330
747D
100
AcDbEntity
  8
部品1
 48
50.0
100
AcDbLine
 10
8718.761265317414
 20
3563.431598713262
 30
0.0
 11
8718.761265317414
 21
3674.431598713262
 31
0.0
  0
LINE
  5
186E6
330
747D
100
AcDbEntity
  8
部品1
 48
50.0
100
AcDbLine
 10
8776.761265317416
 20
3558.431598713261
 30
0.0
 11
8723.761265317415
 21
3558.431598713261
 31
0.0
  0
LINE
  5
186E7
330
747D
100
AcDbEntity
  8
部品1
 48
50.0
100
AcDbLine
 10
8781.761265317415
 20
3674.431598713262
 30
0.0
 11
8781.761265317415
 21
3563.431598713262
 31
0.0
  0
ENDSEC
  0
SECTION
  2
OBJECTS
  0
DICTIONARY
  5
7471
330
0
100
AcDbDictionary
281
     1
  3
ACAD_COLOR
350
1635A
  3
ACAD_GROUP
350
7472
  3
ACAD_LAYOUT
350
1635B
  3
ACAD_MATERIAL
350
16359
  3
ACAD_MLINESTYLE
350
7473
  3
ACAD_PLOTSETTINGS
350
1635C
  3
ACAD_PLOTSTYLENAME
350
16357
  3
ACDBHEADERROUNDTRIPXREC
350
18706
  3
AcDbVariableDictionary
350
18702
  3
CONTENTDICTIONARY
350
E71C
  3
DRAWINGVARIABLESDICT
350
F3B9
  0
DICTIONARY
  5
164F5
330
7467
100
AcDbDictionary
280
     1
281
     1
  3
ACAD_LAYERSTATES
360
164F6
  0
DICTIONARY
  5
1635A
102
{ACAD_REACTORS
330
7471
102
}
330
7471
100
AcDbDictionary
281
     1
  0
DICTIONARY
  5
7472
102
{ACAD_REACTORS
330
7471
102
}
330
7471
100
AcDbDictionary
281
     1
  0
DICTIONARY
  5
1635B
102
{ACAD_REACTORS
330
7471
102
}
330
7471
100
AcDbDictionary
281
     1
  3
Model
350
1635D
  3
レイアウト1
350
1635E
  0
DICTIONARY
  5
16359
102
{ACAD_REACTORS
330
7471
102
}
330
7471
100
AcDbDictionary
281
     1
  0
DICTIONARY
  5
7473
102
{ACAD_REACTORS
330
7471
102
}
330
7471
100
AcDbDictionary
281
     1
  3
STANDARD
350
7480
  0
DICTIONARY
  5
1635C
102
{ACAD_REACTORS
330
7471
102
}
330
7471
100
AcDbDictionary
281
     1
  0
ACDBDICTIONARYWDFLT
  5
16357
102
{ACAD_REACTORS
330
7471
102
}
330
7471
100
AcDbDictionary
281
     1
  3
Normal
350
16358
100
AcDbDictionaryWithDefault
340
16358
  0
DICTIONARY
  5
18706
102
{ACAD_REACTORS
330
7471
102
}
330
7471
100
AcDbDictionary
281
     1
  3
COLORDICT
350
18708
  3
MATERIALDICT
350
18707
  0
DICTIONARY
  5
18702
102
{ACAD_REACTORS
330
7471
102
}
330
7471
100
AcDbDictionary
281
     1
  3
DIMASSOC
350
18703
  3
PROJECTNAME
350
18704
  0
DICTIONARY
  5
E71C
102
{ACAD_REACTORS
330
7471
102
}
330
7471
100
AcDbDictionary
281
     1
  0
DICTIONARY
  5
F3B9
102
{ACAD_REACTORS
330
7471
102
}
330
7471
100
AcDbDictionary
281
     1
1001
DRAWINGVARIABLESXDATA
1000
POLARMODE
1000
1
  0
DICTIONARY
  5
164F6
102
{ACAD_REACTORS
330
164F5
102
}
330
164F5
100
AcDbDictionary
281
     1
  0
LAYOUT
  5
1635D
102
{ACAD_XDICTIONARY
360
18709
102
}
102
{ACAD_REACTORS
330
1635B
102
}
330
1635B
100
AcDbPlotSettings
  1

  2
クセロPDF
  4
A3
  6

 40
3.174999952316284
 41
3.174999952316284
 42
3.17498779296875
 43
3.17498779296875
 44
419.9466552734374
 45
296.9259948730469
 46
0.0
 47
0.0
 48
3.619013395666115
 49
-4.192117100517862
140
820.022926294543
141
573.2392198881443
142
1.0
143
39.99735023620806
 70
 11952
 72
     1
 73
     0
 74
     2
  7
inaba.ctb
 75
     0
147
0.0250016562120842
148
25.79074261211281
149
125.8223078213959
100
AcDbLayout
  1
Model
 70
     1
 71
     0
 10
0.0
 20
0.0
 11
12.0
 21
9.0
 12
0.0
 22
0.0
 32
0.0
 14
0.0
 24
0.0
 34
0.0
 15
0.0
 25
0.0
 35
0.0
146
0.0
 13
0.0
 23
0.0
 33
0.0
 16
1.0
 26
0.0
 36
0.0
 17
0.0
 27
1.0
 37
0.0
 76
     0
330
747D
  0
LAYOUT
  5
1635E
102
{ACAD_XDICTIONARY
360
1870B
102
}
102
{ACAD_REACTORS
330
1635B
102
}
330
1635B
100
AcDbPlotSettings
  1

  2
Microsoft Office Document Image Writer
  4

  6

 40
0.0
 41
0.0
 42
0.0
 43
0.0
 44
0.0
 45
0.0
 46
0.0
 47
0.0
 48
0.0
 49
0.0
140
0.0
141
0.0
142
1.0
143
1.0
 70
   688
 72
     0
 73
     0
 74
     5
  7

 75
    16
147
1.0
148
0.0
149
0.0
100
AcDbLayout
  1
レイアウト1
 70
     0
 71
     1
 10
0.0
 20
0.0
 11
420.0
 21
297.0
 12
0.0
 22
0.0
 32
0.0
 14
1.000000000000000E+20
 24
1.000000000000000E+20
 34
1.000000000000000E+20
 15
-1.000000000000000E+20
 25
-1.000000000000000E+20
 35
-1.000000000000000E+20
146
0.0
 13
0.0
 23
0.0
 33
0.0
 16
1.0
 26
0.0
 36
0.0
 17
0.0
 27
1.0
 37
0.0
 76
     0
330
747A
  0
MLINESTYLE
  5
7480
102
{ACAD_REACTORS
330
7473
102
}
330
7473
100
AcDbMlineStyle
  2
STANDARD
 70
     0
  3

 62
     0
 51
90.0
 52
90.0
 71
     2
 49
0.5
 62
   256
  6
BYLAYER
 49
-0.5
 62
   256
  6
BYLAYER
  0
ACDBPLACEHOLDER
  5
16358
102
{ACAD_REACTORS
330
16357
102
}
330
16357
  0
XRECORD
  5
18708
102
{ACAD_REACTORS
330
18706
102
}
330
18706
100
AcDbXrecord
280
     1
340
1635A
  0
XRECORD
  5
18707
102
{ACAD_REACTORS
330
18706
102
}
330
18706
100
AcDbXrecord
280
     1
340
16359
  0
DICTIONARYVAR
  5
18703
102
{ACAD_REACTORS
330
18702
102
}
330
18702
100
DictionaryVariables
280
     0
  1
1
  0
DICTIONARYVAR
  5
18704
102
{ACAD_REACTORS
330
18702
102
}
330
18702
100
DictionaryVariables
280
     0
  1

  0
DICTIONARY
  5
18709
330
1635D
100
AcDbDictionary
280
     1
281
     1
  3
ACAD_XREC_ROUNDTRIP
360
1870A
  0
DICTIONARY
  5
1870B
330
1635E
100
AcDbDictionary
280
     1
281
     1
  3
ACAD_XREC_ROUNDTRIP
360
1870C
  0
XRECORD
  5
1870A
102
{ACAD_REACTORS
330
18709
102
}
330
18709
100
AcDbXrecord
280
     1
102
SHADEPLOT
 70
     0
102
SHADEPLOTRESLEVEL
 70
     2
102
SHADEPLOTCUSTOMDPI
 70
   150
  0
XRECORD
  5
1870C
102
{ACAD_REACTORS
330
1870B
102
}
330
1870B
100
AcDbXrecord
280
     1
102
SHADEPLOT
 70
     0
102
SHADEPLOTRESLEVEL
 70
     2
102
SHADEPLOTCUSTOMDPI
 70
   300
  0
ENDSEC
  0
EOF
