  0
SECTION
  2
HEADER
  9
$ACADVER
  1
AC1015
  9
$ACADMAINTVER
 70
    20
  9
$DWGCODEPAGE
  3
ANSI_932
  9
$INSBASE
 10
0.0
 20
0.0
 30
0.0
  9
$EXTMIN
 10
139.9999999999995
 20
-0.0000000000000909
 30
0.0
  9
$EXTMAX
 10
16307.2
 20
11409.6
 30
0.0
  9
$LIMMIN
 10
0.0
 20
0.0
  9
$LIMMAX
 10
16800.0
 20
11880.0
  9
$ORTHOMODE
 70
     0
  9
$REGENMODE
 70
     1
  9
$FILLMODE
 70
     1
  9
$QTEXTMODE
 70
     0
  9
$MIRRTEXT
 70
     1
  9
$LTSCALE
 40
20.0
  9
$ATTMODE
 70
     1
  9
$TEXTSIZE
 40
4.0
  9
$TRACEWID
 40
1.0
  9
$TEXTSTYLE
  7
STYLE1
  9
$CLAYER
  8
寸法
  9
$CELTYPE
  6
BYLAYER
  9
$CECOLOR
 62
   256
  9
$CELTSCALE
 40
50.0
  9
$DISPSILH
 70
     0
  9
$DIMSCALE
 40
40.0
  9
$DIMASZ
 40
2.5
  9
$DIMEXO
 40
0.5
  9
$DIMDLI
 40
7.0
  9
$DIMRND
 40
0.0
  9
$DIMDLE
 40
0.0
  9
$DIMEXE
 40
1.5
  9
$DIMTP
 40
0.0
  9
$DIMTM
 40
0.0
  9
$DIMTXT
 40
3.0
  9
$DIMCEN
 40
0.0
  9
$DIMTSZ
 40
0.0
  9
$DIMTOL
 70
     0
  9
$DIMLIM
 70
     0
  9
$DIMTIH
 70
     0
  9
$DIMTOH
 70
     0
  9
$DIMSE1
 70
     0
  9
$DIMSE2
 70
     0
  9
$DIMTAD
 70
     3
  9
$DIMZIN
 70
     8
  9
$DIMBLK
  1

  9
$DIMASO
 70
     1
  9
$DIMSHO
 70
     1
  9
$DIMPOST
  1

  9
$DIMAPOST
  1

  9
$DIMALT
 70
     0
  9
$DIMALTD
 70
     2
  9
$DIMALTF
 40
0.0394
  9
$DIMLFAC
 40
1.0
  9
$DIMTOFL
 70
     1
  9
$DIMTVP
 40
0.0
  9
$DIMTIX
 70
     1
  9
$DIMSOXD
 70
     0
  9
$DIMSAH
 70
     1
  9
$DIMBLK1
  1
DOTSMALL
  9
$DIMBLK2
  1
DOTSMALL
  9
$DIMSTYLE
  2
INABA_S40G
  9
$DIMCLRD
 70
     0
  9
$DIMCLRE
 70
     0
  9
$DIMCLRT
 70
     7
  9
$DIMTFAC
 40
1.0
  9
$DIMGAP
 40
1.0
  9
$DIMJUST
 70
     0
  9
$DIMSD1
 70
     0
  9
$DIMSD2
 70
     0
  9
$DIMTOLJ
 70
     1
  9
$DIMTZIN
 70
     0
  9
$DIMALTZ
 70
     0
  9
$DIMALTTZ
 70
     0
  9
$DIMUPT
 70
     1
  9
$DIMDEC
 70
     1
  9
$DIMTDEC
 70
     4
  9
$DIMALTU
 70
     2
  9
$DIMALTTD
 70
     2
  9
$DIMTXSTY
  7
STYLE1
  9
$DIMAUNIT
 70
     0
  9
$DIMADEC
 70
     0
  9
$DIMALTRND
 40
0.0
  9
$DIMAZIN
 70
     0
  9
$DIMDSEP
 70
    46
  9
$DIMATFIT
 70
     3
  9
$DIMFRAC
 70
     0
  9
$DIMLDRBLK
  1

  9
$DIMLUNIT
 70
     2
  9
$DIMLWD
 70
    -2
  9
$DIMLWE
 70
    -2
  9
$DIMTMOVE
 70
     0
  9
$LUNITS
 70
     2
  9
$LUPREC
 70
     1
  9
$SKETCHINC
 40
1.0
  9
$FILLETRAD
 40
3.0
  9
$AUNITS
 70
     0
  9
$AUPREC
 70
     0
  9
$MENU
  1
acad
  9
$ELEVATION
 40
0.0
  9
$PELEVATION
 40
0.0
  9
$THICKNESS
 40
0.0
  9
$LIMCHECK
 70
     0
  9
$CHAMFERA
 40
0.0
  9
$CHAMFERB
 40
0.0
  9
$CHAMFERC
 40
0.0
  9
$CHAMFERD
 40
0.0
  9
$SKPOLY
 70
     0
  9
$TDCREATE
 40
2451368.612993866
  9
$TDUCREATE
 40
2451368.237993866
  9
$TDUPDATE
 40
2455575.686022674
  9
$TDUUPDATE
 40
2455575.311022674
  9
$TDINDWG
 40
0.6463968750
  9
$TDUSRTIMER
 40
0.6463968750
  9
$USRTIMER
 70
     1
  9
$ANGBASE
 50
0.0
  9
$ANGDIR
 70
     0
  9
$PDMODE
 70
     3
  9
$PDSIZE
 40
2.0
  9
$PLINEWID
 40
0.0
  9
$SPLFRAME
 70
     0
  9
$SPLINETYPE
 70
     6
  9
$SPLINESEGS
 70
     8
  9
$HANDSEED
  5
195A9
  9
$SURFTAB1
 70
     6
  9
$SURFTAB2
 70
     6
  9
$SURFTYPE
 70
     6
  9
$SURFU
 70
     6
  9
$SURFV
 70
     6
  9
$UCSBASE
  2

  9
$UCSNAME
  2

  9
$UCSORG
 10
0.0
 20
0.0
 30
0.0
  9
$UCSXDIR
 10
1.0
 20
0.0
 30
0.0
  9
$UCSYDIR
 10
0.0
 20
1.0
 30
0.0
  9
$UCSORTHOREF
  2

  9
$UCSORTHOVIEW
 70
     0
  9
$UCSORGTOP
 10
0.0
 20
0.0
 30
0.0
  9
$UCSORGBOTTOM
 10
0.0
 20
0.0
 30
0.0
  9
$UCSORGLEFT
 10
0.0
 20
0.0
 30
0.0
  9
$UCSORGRIGHT
 10
0.0
 20
0.0
 30
0.0
  9
$UCSORGFRONT
 10
0.0
 20
0.0
 30
0.0
  9
$UCSORGBACK
 10
0.0
 20
0.0
 30
0.0
  9
$PUCSBASE
  2

  9
$PUCSNAME
  2

  9
$PUCSORG
 10
0.0
 20
0.0
 30
0.0
  9
$PUCSXDIR
 10
1.0
 20
0.0
 30
0.0
  9
$PUCSYDIR
 10
0.0
 20
1.0
 30
0.0
  9
$PUCSORTHOREF
  2

  9
$PUCSORTHOVIEW
 70
     0
  9
$PUCSORGTOP
 10
0.0
 20
0.0
 30
0.0
  9
$PUCSORGBOTTOM
 10
0.0
 20
0.0
 30
0.0
  9
$PUCSORGLEFT
 10
0.0
 20
0.0
 30
0.0
  9
$PUCSORGRIGHT
 10
0.0
 20
0.0
 30
0.0
  9
$PUCSORGFRONT
 10
0.0
 20
0.0
 30
0.0
  9
$PUCSORGBACK
 10
0.0
 20
0.0
 30
0.0
  9
$USERI1
 70
     0
  9
$USERI2
 70
     0
  9
$USERI3
 70
     0
  9
$USERI4
 70
     0
  9
$USERI5
 70
     0
  9
$USERR1
 40
0.0
  9
$USERR2
 40
0.0
  9
$USERR3
 40
0.0
  9
$USERR4
 40
0.0
  9
$USERR5
 40
0.0
  9
$WORLDVIEW
 70
     1
  9
$SHADEDGE
 70
     3
  9
$SHADEDIF
 70
    70
  9
$TILEMODE
 70
     1
  9
$MAXACTVP
 70
    16
  9
$PINSBASE
 10
0.0
 20
0.0
 30
0.0
  9
$PLIMCHECK
 70
     0
  9
$PEXTMIN
 10
1.000000000000000E+20
 20
1.000000000000000E+20
 30
1.000000000000000E+20
  9
$PEXTMAX
 10
-1.000000000000000E+20
 20
-1.000000000000000E+20
 30
-1.000000000000000E+20
  9
$PLIMMIN
 10
0.0
 20
0.0
  9
$PLIMMAX
 10
420.0
 20
297.0
  9
$UNITMODE
 70
     0
  9
$VISRETAIN
 70
     0
  9
$PLINEGEN
 70
     0
  9
$PSLTSCALE
 70
     0
  9
$TREEDEPTH
 70
  3020
  9
$CMLSTYLE
  2
STANDARD
  9
$CMLJUST
 70
     0
  9
$CMLSCALE
 40
1.0
  9
$PROXYGRAPHICS
 70
     1
  9
$MEASUREMENT
 70
     1
  9
$CELWEIGHT
370
    -1
  9
$ENDCAPS
280
     0
  9
$JOINSTYLE
280
     0
  9
$LWDISPLAY
290
     0
  9
$INSUNITS
 70
     0
  9
$HYPERLINKBASE
  1

  9
$STYLESHEET
  1

  9
$XEDIT
290
     1
  9
$CEPSNTYPE
380
     0
  9
$PSTYLEMODE
290
     1
  9
$FINGERPRINTGUID
  2
{1AE6FBAC-CDC7-4A37-B8A6-4DF952F8071D}
  9
$VERSIONGUID
  2
{8EA1265F-B99C-4D79-99FB-EA760DA5AD25}
  9
$EXTNAMES
290
     1
  9
$PSVPSCALE
 40
0.0
  9
$OLESTARTUP
290
     0
  0
ENDSEC
  0
SECTION
  2
CLASSES
  0
CLASS
  1
ACDBDICTIONARYWDFLT
  2
AcDbDictionaryWithDefault
  3
ObjectDBX Classes
 90
        0
280
     0
281
     0
  0
CLASS
  1
DICTIONARYVAR
  2
AcDbDictionaryVar
  3
ObjectDBX Classes
 90
        0
280
     0
281
     0
  0
CLASS
  1
ACDBPLACEHOLDER
  2
AcDbPlaceHolder
  3
ObjectDBX Classes
 90
        0
280
     0
281
     0
  0
CLASS
  1
LAYOUT
  2
AcDbLayout
  3
ObjectDBX Classes
 90
        0
280
     0
281
     0
  0
ENDSEC
  0
SECTION
  2
TABLES
  0
TABLE
  2
VPORT
  5
746D
330
0
100
AcDbSymbolTable
 70
     2
  0
VPORT
  5
195A1
330
746D
100
AcDbSymbolTableRecord
100
AcDbViewportTableRecord
  2
*Active
 70
     0
 10
0.0
 20
0.0
 11
1.0
 21
1.0
 12
8223.761025238502
 22
6348.703162895247
 13
0.0
 23
0.0
 14
10.0
 24
10.0
 15
10.0
 25
10.0
 16
0.0
 26
0.0
 36
1.0
 17
0.0
 27
0.0
 37
0.0
 40
12805.60689082044
 41
1.525925925925925
 42
50.0
 43
0.0
 44
0.0
 50
0.0
 51
0.0
 71
     0
 72
     0
 73
     1
 74
     0
 75
     0
 76
     0
 77
     0
 78
     0
281
     0
 65
     1
110
0.0
120
0.0
130
0.0
111
1.0
121
0.0
131
0.0
112
0.0
122
1.0
132
0.0
 79
     0
146
0.0
  0
ENDTAB
  0
TABLE
  2
LTYPE
  5
746A
330
0
100
AcDbSymbolTable
 70
     4
  0
LTYPE
  5
7477
330
746A
100
AcDbSymbolTableRecord
100
AcDbLinetypeTableRecord
  2
BYBLOCK
 70
     0
  3

 72
    65
 73
     0
 40
0.0
  0
LTYPE
  5
7478
330
746A
100
AcDbSymbolTableRecord
100
AcDbLinetypeTableRecord
  2
BYLAYER
 70
     0
  3

 72
    65
 73
     0
 40
0.0
  0
LTYPE
  5
7479
330
746A
100
AcDbSymbolTableRecord
100
AcDbLinetypeTableRecord
  2
CONTINUOUS
 70
     0
  3
Solid line
 72
    65
 73
     0
 40
0.0
  0
LTYPE
  5
7816
330
746A
100
AcDbSymbolTableRecord
100
AcDbLinetypeTableRecord
  2
CENTER
 70
     0
  3
____ _ ____ _ ____ _ ____ _ ____ _ ____ _ ____ 
 72
    65
 73
     4
 40
2.0
 49
1.25
 74
     0
 49
-0.25
 74
     0
 49
0.25
 74
     0
 49
-0.25
 74
     0
  0
LTYPE
  5
781A
330
746A
100
AcDbSymbolTableRecord
100
AcDbLinetypeTableRecord
  2
HIDDEN
 70
     0
  3
__ __ __ __ __ __ __ __ __ __ __ __ __ __ __ __
 72
    65
 73
     2
 40
0.375
 49
0.25
 74
     0
 49
-0.125
 74
     0
  0
LTYPE
  5
781B
330
746A
100
AcDbSymbolTableRecord
100
AcDbLinetypeTableRecord
  2
PHANTOM
 70
     0
  3
______  __  __  ______  __  __  ______  __  __ 
 72
    65
 73
     6
 40
2.5
 49
1.25
 74
     0
 49
-0.25
 74
     0
 49
0.25
 74
     0
 49
-0.25
 74
     0
 49
0.25
 74
     0
 49
-0.25
 74
     0
  0
ENDTAB
  0
TABLE
  2
LAYER
  5
7467
102
{ACAD_XDICTIONARY
360
181C2
102
}
330
0
100
AcDbSymbolTable
 70
    12
  0
LAYER
  5
7474
330
7467
100
AcDbSymbolTableRecord
100
AcDbLayerTableRecord
  2
0
 70
     0
 62
     7
  6
CONTINUOUS
370
    -3
390
18026
  0
LAYER
  5
DEB2
330
7467
100
AcDbSymbolTableRecord
100
AcDbLayerTableRecord
  2
センター
 70
     0
 62
     3
  6
CENTER
370
    -3
390
18026
  0
LAYER
  5
DEB3
330
7467
100
AcDbSymbolTableRecord
100
AcDbLayerTableRecord
  2
寸法
 70
     0
 62
     4
  6
CONTINUOUS
370
    -3
390
18026
  0
LAYER
  5
DEB4
330
7467
100
AcDbSymbolTableRecord
100
AcDbLayerTableRecord
  2
部品1
 70
     0
 62
     7
  6
CONTINUOUS
370
    -3
390
18026
  0
LAYER
  5
DEB5
330
7467
100
AcDbSymbolTableRecord
100
AcDbLayerTableRecord
  2
補助
 70
     0
 62
    -1
  6
CONTINUOUS
370
    -3
390
18026
  0
LAYER
  5
DEB6
330
7467
100
AcDbSymbolTableRecord
100
AcDbLayerTableRecord
  2
文字
 70
     0
 62
     7
  6
CONTINUOUS
370
    -3
390
18026
  0
LAYER
  5
F255
330
7467
100
AcDbSymbolTableRecord
100
AcDbLayerTableRecord
  2
DEFPOINTS
 70
     0
 62
     7
  6
CONTINUOUS
290
     0
370
    -3
390
18026
  0
LAYER
  5
10B54
330
7467
100
AcDbSymbolTableRecord
100
AcDbLayerTableRecord
  2
仕様書枠
 70
     0
 62
   230
  6
CONTINUOUS
370
    -3
390
18026
  0
LAYER
  5
11729
330
7467
100
AcDbSymbolTableRecord
100
AcDbLayerTableRecord
  2
Ｇ．Ｌ
 70
     0
 62
    30
  6
CONTINUOUS
370
    -3
390
18026
  0
LAYER
  5
1173F
330
7467
100
AcDbSymbolTableRecord
100
AcDbLayerTableRecord
  2
細線
 70
     0
 62
     5
  6
CONTINUOUS
370
    -3
390
18026
  0
LAYER
  5
12CC4
330
7467
100
AcDbSymbolTableRecord
100
AcDbLayerTableRecord
  2
想像線
 70
     0
 62
     6
  6
PHANTOM
370
    -3
390
18026
  0
LAYER
  5
142E2
330
7467
100
AcDbSymbolTableRecord
100
AcDbLayerTableRecord
  2
破線
 70
     0
 62
     2
  6
HIDDEN
370
    -3
390
18026
  0
ENDTAB
  0
TABLE
  2
STYLE
  5
7468
330
0
100
AcDbSymbolTable
 70
     4
  0
STYLE
  5
7475
330
7468
100
AcDbSymbolTableRecord
100
AcDbTextStyleTableRecord
  2
STANDARD
 70
     0
 40
0.0
 41
1.0
 50
0.0
 71
     0
 42
4.0
  3
txt
  4
C:\AutoCAD LT\bigfont.shx
  0
STYLE
  5
F706
330
7468
100
AcDbSymbolTableRecord
100
AcDbTextStyleTableRecord
  2
STYLE1
 70
     0
 40
0.0
 41
1.0
 50
0.0
 71
     0
 42
4.0
  3
isocp.shx
  4
bigfont.shx
  0
STYLE
  5
103BF
330
7468
100
AcDbSymbolTableRecord
100
AcDbTextStyleTableRecord
  2
STYLE2
 70
     0
 40
0.0
 41
1.0
 50
0.0
 71
     0
 42
100.0
  3
MS PGothic.ttf
  4

1001
ACAD
1000
MS PGothic
1071
    32818
  0
STYLE
  5
18C8E
330
7468
100
AcDbSymbolTableRecord
100
AcDbTextStyleTableRecord
  2
STYLE3
 70
     0
 40
0.0
 41
1.0
 50
0.0
 71
     0
 42
100.0
  3

  4

1001
ACAD
1000
DFPGothic-EB
1071
    32818
  0
ENDTAB
  0
TABLE
  2
VIEW
  5
746B
330
0
100
AcDbSymbolTable
 70
     0
  0
ENDTAB
  0
TABLE
  2
UCS
  5
746C
330
0
100
AcDbSymbolTable
 70
     0
  0
ENDTAB
  0
TABLE
  2
APPID
  5
746E
330
0
100
AcDbSymbolTable
 70
     6
  0
APPID
  5
7476
330
746E
100
AcDbSymbolTableRecord
100
AcDbRegAppTableRecord
  2
ACAD
 70
     0
  0
APPID
  5
DEA9
330
746E
100
AcDbSymbolTableRecord
100
AcDbRegAppTableRecord
  2
CONTENTBLOCKICON
 70
     0
  0
APPID
  5
DEAA
330
746E
100
AcDbSymbolTableRecord
100
AcDbRegAppTableRecord
  2
CONTENTBLOCKDESCRIPTION
 70
     0
  0
APPID
  5
E71D
330
746E
100
AcDbSymbolTableRecord
100
AcDbRegAppTableRecord
  2
CONTENTTABDATA
 70
     0
  0
APPID
  5
E71E
330
746E
100
AcDbSymbolTableRecord
100
AcDbRegAppTableRecord
  2
CONTENTCURRENTTAB
 70
     0
  0
APPID
  5
F3BA
330
746E
100
AcDbSymbolTableRecord
100
AcDbRegAppTableRecord
  2
DRAWINGVARIABLESXDATA
 70
     0
  0
ENDTAB
  0
TABLE
  2
DIMSTYLE
  5
746F
330
0
100
AcDbSymbolTable
 70
     5
100
AcDbDimStyleTable
 71
     0
  0
DIMSTYLE
105
7484
330
746F
100
AcDbSymbolTableRecord
100
AcDbDimStyleTableRecord
  2
JIS
 70
     0
 41
2.5
 42
1.0
 43
7.0
 44
1.0
 73
     0
 74
     0
 77
     1
 78
     8
140
2.5
141
0.0
143
0.0394
147
0.0
172
     1
174
     1
175
     1
340
7475
  0
DIMSTYLE
105
F71F
102
{ACAD_REACTORS
330
18459
330
1845A
330
1845B
330
1845C
330
1845D
330
18472
330
1847B
330
1847C
330
1847D
330
1847E
330
184BB
330
184BF
330
18515
330
18516
330
18517
330
18552
330
18571
330
18574
330
18575
330
18576
330
18577
330
18578
330
1857B
330
1858D
330
18590
330
185A7
330
185A9
330
185C0
330
19246
330
19306
102
}
330
746F
100
AcDbSymbolTableRecord
100
AcDbDimStyleTableRecord
  2
INABA_S40G
 70
     0
 40
40.0
 41
2.5
 42
0.5
 43
7.0
 44
1.5
 73
     0
 74
     0
 77
     3
 78
     8
140
3.0
141
0.0
143
0.0394
147
1.0
172
     1
173
     1
174
     1
178
     7
271
     1
288
     1
340
F706
341
F770
343
F770
344
F770
  0
DIMSTYLE
105
181C1
102
{ACAD_REACTORS
330
18FB5
330
19247
102
}
330
746F
100
AcDbSymbolTableRecord
100
AcDbDimStyleTableRecord
  2
INABA_S40
 70
     0
 40
40.0
 41
2.5
 42
0.5
 43
7.0
 44
1.5
 73
     0
 74
     0
 77
     3
 78
     8
140
3.0
141
0.0
143
0.0394
147
1.0
172
     1
173
     1
174
     1
175
     1
178
     7
340
7475
  0
DIMSTYLE
105
18C8F
330
746F
100
AcDbSymbolTableRecord
100
AcDbDimStyleTableRecord
  2
INABA_S50G
 70
     0
 41
125.0
 42
25.0
 43
7.0
 44
75.0
 73
     0
 74
     0
 77
     3
 78
     8
140
150.0
141
0.0
143
0.0394
147
25.0
172
     1
173
     1
174
     1
175
     1
178
     7
271
     1
340
F706
341
F770
343
F770
344
F770
  0
DIMSTYLE
105
19537
330
746F
100
AcDbSymbolTableRecord
100
AcDbDimStyleTableRecord
  2
INABA_S20G
 70
     0
 40
20.0
 41
2.5
 42
0.5
 43
7.0
 44
1.5
 73
     0
 74
     0
 77
     3
 78
     8
140
3.0
141
0.0
143
0.0394
147
1.0
172
     1
173
     1
174
     1
178
     7
271
     1
340
F706
341
F770
343
F770
344
F770
  0
ENDTAB
  0
TABLE
  2
BLOCK_RECORD
  5
7466
330
0
100
AcDbSymbolTable
 70
    34
  0
BLOCK_RECORD
  5
747D
330
7466
100
AcDbSymbolTableRecord
100
AcDbBlockTableRecord
  2
*MODEL_SPACE
340
1802B
  0
BLOCK_RECORD
  5
747A
330
7466
100
AcDbSymbolTableRecord
100
AcDbBlockTableRecord
  2
*PAPER_SPACE
340
1802C
  0
BLOCK_RECORD
  5
F770
330
7466
100
AcDbSymbolTableRecord
100
AcDbBlockTableRecord
  2
_DOTSMALL
340
0
102
{BLKREFS
331
18D65
331
18D66
331
18DD9
331
18DDA
331
18DE4
331
18DE5
331
18DED
331
18DEE
331
18DF8
331
18DF9
331
18E01
331
18E02
331
18E0A
331
18E0B
331
18E13
331
18E14
331
18E1C
331
18E1D
331
18E25
331
18E26
331
18E2F
331
18E30
331
18E3A
331
18E3B
331
18E44
331
18E45
331
18E4D
331
18E4E
331
18E56
331
18E57
331
18E5F
331
18E60
331
18E6A
331
18E6B
331
18E74
331
18E75
331
194A9
331
194AA
331
194BD
331
194BE
331
194CF
331
194D0
331
194D8
331
194D9
331
194E1
331
194E2
331
194EC
331
194ED
331
194F5
331
194F6
331
19500
331
19501
331
1950B
331
1950C
331
19516
331
19517
331
1951F
331
19520
331
19528
331
19529
102
}
  0
BLOCK_RECORD
  5
18033
330
7466
100
AcDbSymbolTableRecord
100
AcDbBlockTableRecord
  2
_DOT
340
0
102
{BLKREFS
331
194B4
331
194B5
331
194C6
331
194C7
102
}
  0
BLOCK_RECORD
  5
186E8
330
7466
100
AcDbSymbolTableRecord
100
AcDbBlockTableRecord
  2
*D2
340
0
  0
BLOCK_RECORD
  5
186F5
330
7466
100
AcDbSymbolTableRecord
100
AcDbBlockTableRecord
  2
*D3
340
0
  0
BLOCK_RECORD
  5
18703
330
7466
100
AcDbSymbolTableRecord
100
AcDbBlockTableRecord
  2
*D4
340
0
  0
BLOCK_RECORD
  5
1870F
330
7466
100
AcDbSymbolTableRecord
100
AcDbBlockTableRecord
  2
*D5
340
0
  0
BLOCK_RECORD
  5
1871B
330
7466
100
AcDbSymbolTableRecord
100
AcDbBlockTableRecord
  2
*D6
340
0
  0
BLOCK_RECORD
  5
18727
330
7466
100
AcDbSymbolTableRecord
100
AcDbBlockTableRecord
  2
*D7
340
0
  0
BLOCK_RECORD
  5
18734
330
7466
100
AcDbSymbolTableRecord
100
AcDbBlockTableRecord
  2
*D8
340
0
  0
BLOCK_RECORD
  5
18742
330
7466
100
AcDbSymbolTableRecord
100
AcDbBlockTableRecord
  2
*D9
340
0
  0
BLOCK_RECORD
  5
1874F
330
7466
100
AcDbSymbolTableRecord
100
AcDbBlockTableRecord
  2
*D10
340
0
  0
BLOCK_RECORD
  5
1875B
330
7466
100
AcDbSymbolTableRecord
100
AcDbBlockTableRecord
  2
*D11
340
0
  0
BLOCK_RECORD
  5
18767
330
7466
100
AcDbSymbolTableRecord
100
AcDbBlockTableRecord
  2
*D12
340
0
  0
BLOCK_RECORD
  5
18773
330
7466
100
AcDbSymbolTableRecord
100
AcDbBlockTableRecord
  2
*D13
340
0
  0
BLOCK_RECORD
  5
1877F
330
7466
100
AcDbSymbolTableRecord
100
AcDbBlockTableRecord
  2
*D14
340
0
  0
BLOCK_RECORD
  5
1878B
330
7466
100
AcDbSymbolTableRecord
100
AcDbBlockTableRecord
  2
*D15
340
0
  0
BLOCK_RECORD
  5
18799
330
7466
100
AcDbSymbolTableRecord
100
AcDbBlockTableRecord
  2
*D16
340
0
  0
BLOCK_RECORD
  5
187A5
330
7466
100
AcDbSymbolTableRecord
100
AcDbBlockTableRecord
  2
*D17
340
0
  0
BLOCK_RECORD
  5
187B3
330
7466
100
AcDbSymbolTableRecord
100
AcDbBlockTableRecord
  2
*D18
340
0
  0
BLOCK_RECORD
  5
187BF
330
7466
100
AcDbSymbolTableRecord
100
AcDbBlockTableRecord
  2
*D19
340
0
  0
BLOCK_RECORD
  5
187CB
330
7466
100
AcDbSymbolTableRecord
100
AcDbBlockTableRecord
  2
*D20
340
0
  0
BLOCK_RECORD
  5
187D7
330
7466
100
AcDbSymbolTableRecord
100
AcDbBlockTableRecord
  2
*D21
340
0
  0
BLOCK_RECORD
  5
187E5
330
7466
100
AcDbSymbolTableRecord
100
AcDbBlockTableRecord
  2
*D22
340
0
  0
BLOCK_RECORD
  5
187F3
330
7466
100
AcDbSymbolTableRecord
100
AcDbBlockTableRecord
  2
*D23
340
0
  0
BLOCK_RECORD
  5
18801
330
7466
100
AcDbSymbolTableRecord
100
AcDbBlockTableRecord
  2
*D24
340
0
  0
BLOCK_RECORD
  5
18819
330
7466
100
AcDbSymbolTableRecord
100
AcDbBlockTableRecord
  2
*D25
340
0
  0
BLOCK_RECORD
  5
18827
330
7466
100
AcDbSymbolTableRecord
100
AcDbBlockTableRecord
  2
*D26
340
0
  0
BLOCK_RECORD
  5
18833
330
7466
100
AcDbSymbolTableRecord
100
AcDbBlockTableRecord
  2
*D27
340
0
  0
BLOCK_RECORD
  5
1883F
330
7466
100
AcDbSymbolTableRecord
100
AcDbBlockTableRecord
  2
*D28
340
0
  0
BLOCK_RECORD
  5
1884B
330
7466
100
AcDbSymbolTableRecord
100
AcDbBlockTableRecord
  2
*D29
340
0
  0
BLOCK_RECORD
  5
19020
330
7466
100
AcDbSymbolTableRecord
100
AcDbBlockTableRecord
  2
*D30
340
0
  0
BLOCK_RECORD
  5
1934F
330
7466
100
AcDbSymbolTableRecord
100
AcDbBlockTableRecord
  2
*D31
340
0
  0
BLOCK_RECORD
  5
1935B
330
7466
100
AcDbSymbolTableRecord
100
AcDbBlockTableRecord
  2
*D32
340
0
  0
BLOCK_RECORD
  5
193C3
330
7466
100
AcDbSymbolTableRecord
100
AcDbBlockTableRecord
  2
*D33
340
0
  0
ENDTAB
  0
ENDSEC
  0
SECTION
  2
BLOCKS
  0
BLOCK
  5
7489
330
747D
100
AcDbEntity
  8
0
100
AcDbBlockBegin
  2
*MODEL_SPACE
 70
     0
 10
0.0
 20
0.0
 30
0.0
  3
*MODEL_SPACE
  1

  0
ENDBLK
  5
748A
330
747D
100
AcDbEntity
  8
0
100
AcDbBlockEnd
  0
BLOCK
  5
7487
330
747A
100
AcDbEntity
 67
     1
  8
0
100
AcDbBlockBegin
  2
*PAPER_SPACE
 70
     0
 10
0.0
 20
0.0
 30
0.0
  3
*PAPER_SPACE
  1

  0
ENDBLK
  5
7488
330
747A
100
AcDbEntity
 67
     1
  8
0
100
AcDbBlockEnd
  0
BLOCK
  5
F771
330
F770
100
AcDbEntity
  8
0
 48
50.0
100
AcDbBlockBegin
  2
_DOTSMALL
 70
     0
 10
0.0
 20
0.0
 30
0.0
  3
_DOTSMALL
  1

  0
LWPOLYLINE
  5
F772
330
F770
100
AcDbEntity
  8
0
  6
ByBlock
 62
     0
 48
50.0
100
AcDbPolyline
 90
        2
 70
     1
 43
0.5
 10
-0.0625
 20
0.0
 42
1.0
 10
0.0625
 20
0.0
 42
1.0
  0
ENDBLK
  5
F776
330
F770
100
AcDbEntity
  8
0
 48
50.0
100
AcDbBlockEnd
  0
BLOCK
  5
18034
330
18033
100
AcDbEntity
  8
0
 48
50.0
100
AcDbBlockBegin
  2
_DOT
 70
     0
 10
0.0
 20
0.0
 30
0.0
  3
_DOT
  1

  0
LWPOLYLINE
  5
18035
330
18033
100
AcDbEntity
  8
0
  6
ByBlock
 62
     0
 48
50.0
100
AcDbPolyline
 90
        2
 70
     1
 43
0.5
 10
-0.25
 20
0.0
 42
1.0
 10
0.25
 20
0.0
 42
1.0
  0
LINE
  5
18036
330
18033
100
AcDbEntity
  8
0
  6
ByBlock
 62
     0
 48
50.0
100
AcDbLine
 10
-0.5
 20
0.0
 30
0.0
 11
-1.0
 21
0.0
 31
0.0
  0
ENDBLK
  5
18037
330
18033
100
AcDbEntity
  8
0
 48
50.0
100
AcDbBlockEnd
  0
BLOCK
  5
186F3
330
186E8
100
AcDbEntity
  8
0
 48
50.0
100
AcDbBlockBegin
  2
*D2
 70
     1
 10
0.0
 20
0.0
 30
0.0
  3
*D2
  1

  0
LINE
  5
18E70
330
186E8
100
AcDbEntity
  8
寸法
 62
     0
 48
50.0
370
    -2
100
AcDbLine
 10
8771.729391167177
 20
2628.010354820206
 30
0.0
 11
7878.090009237819
 21
2628.010354820206
 31
0.0
  0
LINE
  5
18E71
330
186E8
100
AcDbEntity
  8
寸法
 62
     0
 48
50.0
370
    -2
100
AcDbLine
 10
8203.07668200888
 20
2528.010354820206
 30
0.0
 11
7878.090009237819
 21
2528.010354820206
 31
0.0
  0
LINE
  5
18E72
330
186E8
100
AcDbEntity
  8
寸法
 62
     0
 48
50.0
370
    -2
100
AcDbLine
 10
7938.090009237818
 20
2628.010354820206
 30
0.0
 11
7938.090009237818
 21
2528.010354820206
 31
0.0
  0
LINE
  5
18E73
330
186E8
100
AcDbEntity
  8
寸法
 62
     0
 48
50.0
370
    -2
100
AcDbLine
 10
7938.090009237818
 20
2528.010354820206
 30
0.0
 11
7938.090009237818
 21
2155.915866631226
 31
0.0
  0
INSERT
  5
18E74
330
186E8
100
AcDbEntity
  8
寸法
 62
     0
 48
50.0
370
    -2
100
AcDbBlockReference
  2
_DOTSMALL
 10
7938.090009237818
 20
2628.010354820206
 30
0.0
 41
100.0
 42
100.0
 43
100.0
 50
90.0
  0
INSERT
  5
18E75
330
186E8
100
AcDbEntity
  8
寸法
 62
     0
 48
50.0
370
    -2
100
AcDbBlockReference
  2
_DOTSMALL
 10
7938.090009237818
 20
2528.010354820206
 30
0.0
 41
100.0
 42
100.0
 43
100.0
 50
270.0
  0
MTEXT
  5
18E76
330
186E8
100
AcDbEntity
  8
寸法
 62
     7
 48
50.0
100
AcDbMText
 10
7838.090009237818
 20
2291.963110725716
 30
0.0
 40
120.0
 41
0.0
 71
     5
 72
     1
  1
\A1;100
  7
STYLE1
 11
0.0000000000000001
 21
1.0
 31
0.0
 73
     1
 44
1.0
1001
ACAD
1000
MTEXTBEGIN
1070
    73
1070
     1
1070
    44
1040
1.0
1070
    74
1070
     0
1000
MTEXTEND
  0
POINT
  5
18E77
330
186E8
100
AcDbEntity
  8
DEFPOINTS
 62
     0
 48
50.0
100
AcDbPoint
 10
8791.729391167176
 20
2628.010354820206
 30
0.0
  0
POINT
  5
18E78
330
186E8
100
AcDbEntity
  8
DEFPOINTS
 62
     0
 48
50.0
100
AcDbPoint
 10
8223.076682008878
 20
2528.010354820206
 30
0.0
  0
POINT
  5
18E79
330
186E8
100
AcDbEntity
  8
DEFPOINTS
 62
     0
 48
50.0
100
AcDbPoint
 10
7938.090009237818
 20
2528.010354820206
 30
0.0
  0
ENDBLK
  5
186F4
330
186E8
100
AcDbEntity
  8
0
 48
50.0
100
AcDbBlockEnd
  0
BLOCK
  5
18701
330
186F5
100
AcDbEntity
  8
0
 48
50.0
100
AcDbBlockBegin
  2
*D3
 70
     1
 10
0.0
 20
0.0
 30
0.0
  3
*D3
  1

  0
LINE
  5
18E65
330
186F5
100
AcDbEntity
  8
寸法
 62
     0
 48
50.0
370
    -2
100
AcDbLine
 10
8826.729391167177
 20
2678.010354820206
 30
0.0
 11
8163.076682008881
 21
2678.010354820206
 31
0.0
  0
LINE
  5
18E66
330
186F5
100
AcDbEntity
  8
寸法
 62
     0
 48
50.0
370
    -2
100
AcDbLine
 10
8771.729391167177
 20
2628.010354820206
 30
0.0
 11
8163.076682008881
 21
2628.010354820206
 31
0.0
  0
LINE
  5
18E67
330
186F5
100
AcDbEntity
  8
寸法
 62
     0
 48
50.0
370
    -2
100
AcDbLine
 10
8223.076682008878
 20
2678.010354820206
 30
0.0
 11
8223.076682008878
 21
2778.010354820206
 31
0.0
  0
LINE
  5
18E68
330
186F5
100
AcDbEntity
  8
寸法
 62
     0
 48
50.0
370
    -2
100
AcDbLine
 10
8223.076682008878
 20
2628.010354820206
 30
0.0
 11
8223.076682008878
 21
2215.915866631226
 31
0.0
  0
LINE
  5
18E69
330
186F5
100
AcDbEntity
  8
寸法
 62
     0
 48
50.0
370
    -2
100
AcDbLine
 10
8223.076682008878
 20
2678.010354820206
 30
0.0
 11
8223.076682008878
 21
2628.010354820206
 31
0.0
  0
INSERT
  5
18E6A
330
186F5
100
AcDbEntity
  8
寸法
 62
     0
 48
50.0
370
    -2
100
AcDbBlockReference
  2
_DOTSMALL
 10
8223.076682008878
 20
2678.010354820206
 30
0.0
 41
100.0
 42
100.0
 43
100.0
 50
270.0
  0
INSERT
  5
18E6B
330
186F5
100
AcDbEntity
  8
寸法
 62
     0
 48
50.0
370
    -2
100
AcDbBlockReference
  2
_DOTSMALL
 10
8223.076682008878
 20
2628.010354820206
 30
0.0
 41
100.0
 42
100.0
 43
100.0
 50
90.0
  0
MTEXT
  5
18E6C
330
186F5
100
AcDbEntity
  8
寸法
 62
     7
 48
50.0
100
AcDbMText
 10
8123.076682008878
 20
2321.963110725715
 30
0.0
 40
120.0
 41
0.0
 71
     5
 72
     1
  1
\A1;50
  7
STYLE1
 11
0.0000000000000001
 21
1.0
 31
0.0
 73
     1
 44
1.0
1001
ACAD
1000
MTEXTBEGIN
1070
    73
1070
     1
1070
    44
1040
1.0
1070
    74
1070
     0
1000
MTEXTEND
  0
POINT
  5
18E6D
330
186F5
100
AcDbEntity
  8
DEFPOINTS
 62
     0
 48
50.0
100
AcDbPoint
 10
8846.729391167178
 20
2678.010354820206
 30
0.0
  0
POINT
  5
18E6E
330
186F5
100
AcDbEntity
  8
DEFPOINTS
 62
     0
 48
50.0
100
AcDbPoint
 10
8791.729391167176
 20
2628.010354820206
 30
0.0
  0
POINT
  5
18E6F
330
186F5
100
AcDbEntity
  8
DEFPOINTS
 62
     0
 48
50.0
100
AcDbPoint
 10
8223.076682008878
 20
2628.010354820206
 30
0.0
  0
ENDBLK
  5
18702
330
186F5
100
AcDbEntity
  8
0
 48
50.0
100
AcDbBlockEnd
  0
BLOCK
  5
1870D
330
18703
100
AcDbEntity
  8
0
 48
50.0
100
AcDbBlockBegin
  2
*D4
 70
     1
 10
0.0
 20
0.0
 30
0.0
  3
*D4
  1

  0
LINE
  5
18E5C
330
18703
100
AcDbEntity
  8
寸法
 62
     0
 48
50.0
370
    -2
100
AcDbLine
 10
8826.729391167177
 20
4768.010354820206
 30
0.0
 11
8163.076682008881
 21
4768.010354820206
 31
0.0
  0
LINE
  5
18E5D
330
18703
100
AcDbEntity
  8
寸法
 62
     0
 48
50.0
370
    -2
100
AcDbLine
 10
8826.729391167177
 20
2678.010354820206
 30
0.0
 11
8163.076682008881
 21
2678.010354820206
 31
0.0
  0
LINE
  5
18E5E
330
18703
100
AcDbEntity
  8
寸法
 62
     0
 48
50.0
370
    -2
100
AcDbLine
 10
8223.076682008882
 20
4768.010354820206
 30
0.0
 11
8223.076682008878
 21
2678.010354820206
 31
0.0
  0
INSERT
  5
18E5F
330
18703
100
AcDbEntity
  8
寸法
 62
     0
 48
50.0
370
    -2
100
AcDbBlockReference
  2
_DOTSMALL
 10
8223.076682008882
 20
4768.010354820206
 30
0.0
 41
100.0
 42
100.0
 43
100.0
 50
90.0
  0
INSERT
  5
18E60
330
18703
100
AcDbEntity
  8
寸法
 62
     0
 48
50.0
370
    -2
100
AcDbBlockReference
  2
_DOTSMALL
 10
8223.076682008878
 20
2678.010354820206
 30
0.0
 41
100.0
 42
100.0
 43
100.0
 50
270.0
  0
MTEXT
  5
18E61
330
18703
100
AcDbEntity
  8
寸法
 62
     7
 48
50.0
100
AcDbMText
 10
8123.064870985258
 20
3698.510354820206
 30
0.0
 40
120.0
 41
0.0
 71
     5
 72
     1
  1
\A1;2090
  7
STYLE1
 11
0.0000000000000001
 21
1.0
 31
0.0
 73
     1
 44
1.0
1001
ACAD
1000
MTEXTBEGIN
1070
    73
1070
     1
1070
    44
1040
1.0
1070
    74
1070
     0
1000
MTEXTEND
  0
POINT
  5
18E62
330
18703
100
AcDbEntity
  8
DEFPOINTS
 62
     0
 48
50.0
100
AcDbPoint
 10
8846.729391167178
 20
4768.010354820206
 30
0.0
  0
POINT
  5
18E63
330
18703
100
AcDbEntity
  8
DEFPOINTS
 62
     0
 48
50.0
100
AcDbPoint
 10
8846.729391167178
 20
2678.010354820206
 30
0.0
  0
POINT
  5
18E64
330
18703
100
AcDbEntity
  8
DEFPOINTS
 62
     0
 48
50.0
100
AcDbPoint
 10
8223.076682008878
 20
2678.010354820206
 30
0.0
  0
ENDBLK
  5
1870E
330
18703
100
AcDbEntity
  8
0
 48
50.0
100
AcDbBlockEnd
  0
BLOCK
  5
18719
330
1870F
100
AcDbEntity
  8
0
 48
50.0
100
AcDbBlockBegin
  2
*D5
 70
     1
 10
0.0
 20
0.0
 30
0.0
  3
*D5
  1

  0
LINE
  5
18E53
330
1870F
100
AcDbEntity
  8
寸法
 62
     0
 48
50.0
370
    -2
100
AcDbLine
 10
8826.729391167177
 20
2628.010354820206
 30
0.0
 11
7878.09000923782
 21
2628.010354820206
 31
0.0
  0
LINE
  5
18E54
330
1870F
100
AcDbEntity
  8
寸法
 62
     0
 48
50.0
370
    -2
100
AcDbLine
 10
8766.729391167176
 20
5003.010354820212
 30
0.0
 11
7878.09000923782
 21
5003.010354820212
 31
0.0
  0
LINE
  5
18E55
330
1870F
100
AcDbEntity
  8
寸法
 62
     0
 48
50.0
370
    -2
100
AcDbLine
 10
7938.09000923782
 20
2628.010354820206
 30
0.0
 11
7938.09000923782
 21
5003.010354820212
 31
0.0
  0
INSERT
  5
18E56
330
1870F
100
AcDbEntity
  8
寸法
 62
     0
 48
50.0
370
    -2
100
AcDbBlockReference
  2
_DOTSMALL
 10
7938.09000923782
 20
2628.010354820206
 30
0.0
 41
100.0
 42
100.0
 43
100.0
 50
270.0
  0
INSERT
  5
18E57
330
1870F
100
AcDbEntity
  8
寸法
 62
     0
 48
50.0
370
    -2
100
AcDbBlockReference
  2
_DOTSMALL
 10
7938.09000923782
 20
5003.010354820212
 30
0.0
 41
100.0
 42
100.0
 43
100.0
 50
90.0
  0
MTEXT
  5
18E58
330
1870F
100
AcDbEntity
  8
寸法
 62
     7
 48
50.0
100
AcDbMText
 10
7838.078198214197
 20
3698.510354820206
 30
0.0
 40
120.0
 41
0.0
 71
     5
 72
     1
  1
\A1;2375
  7
STYLE1
 11
0.0000000000000001
 21
1.0
 31
0.0
 73
     1
 44
1.0
1001
ACAD
1000
MTEXTBEGIN
1070
    73
1070
     1
1070
    44
1040
1.0
1070
    74
1070
     0
1000
MTEXTEND
  0
POINT
  5
18E59
330
1870F
100
AcDbEntity
  8
DEFPOINTS
 62
     0
 48
50.0
100
AcDbPoint
 10
8846.729391167178
 20
2628.010354820206
 30
0.0
  0
POINT
  5
18E5A
330
1870F
100
AcDbEntity
  8
DEFPOINTS
 62
     0
 48
50.0
100
AcDbPoint
 10
8786.729391167176
 20
5003.010354820212
 30
0.0
  0
POINT
  5
18E5B
330
1870F
100
AcDbEntity
  8
DEFPOINTS
 62
     0
 48
50.0
100
AcDbPoint
 10
7938.09000923782
 20
5003.010354820212
 30
0.0
  0
ENDBLK
  5
1871A
330
1870F
100
AcDbEntity
  8
0
 48
50.0
100
AcDbBlockEnd
  0
BLOCK
  5
18725
330
1871B
100
AcDbEntity
  8
0
 48
50.0
100
AcDbBlockBegin
  2
*D6
 70
     1
 10
0.0
 20
0.0
 30
0.0
  3
*D6
  1

  0
LINE
  5
18E4A
330
1871B
100
AcDbEntity
  8
寸法
 62
     0
 48
50.0
370
    -2
100
AcDbLine
 10
11076.72939116717
 20
2628.010354820206
 30
0.0
 11
11652.59637263988
 21
2628.010354820206
 31
0.0
  0
LINE
  5
18E4B
330
1871B
100
AcDbEntity
  8
寸法
 62
     0
 48
50.0
370
    -2
100
AcDbLine
 10
11156.72939116716
 20
4948.010354820208
 30
0.0
 11
11652.59637263988
 21
4948.010354820208
 31
0.0
  0
LINE
  5
18E4C
330
1871B
100
AcDbEntity
  8
寸法
 62
     0
 48
50.0
370
    -2
100
AcDbLine
 10
11592.59637263988
 20
2628.010354820206
 30
0.0
 11
11592.59637263988
 21
4948.010354820208
 31
0.0
  0
INSERT
  5
18E4D
330
1871B
100
AcDbEntity
  8
寸法
 62
     0
 48
50.0
370
    -2
100
AcDbBlockReference
  2
_DOTSMALL
 10
11592.59637263988
 20
2628.010354820206
 30
0.0
 41
100.0
 42
100.0
 43
100.0
 50
270.0
  0
INSERT
  5
18E4E
330
1871B
100
AcDbEntity
  8
寸法
 62
     0
 48
50.0
370
    -2
100
AcDbBlockReference
  2
_DOTSMALL
 10
11592.59637263988
 20
4948.010354820208
 30
0.0
 41
100.0
 42
100.0
 43
100.0
 50
90.0
  0
MTEXT
  5
18E4F
330
1871B
100
AcDbEntity
  8
寸法
 62
     7
 48
50.0
100
AcDbMText
 10
11492.58456161626
 20
3825.232855842121
 30
0.0
 40
120.0
 41
0.0
 71
     5
 72
     1
  1
\A1;2320
  7
STYLE1
 11
0.0000000000000001
 21
1.0
 31
0.0
 73
     1
 44
1.0
1001
ACAD
1000
MTEXTBEGIN
1070
    73
1070
     1
1070
    44
1040
1.0
1070
    74
1070
     0
1000
MTEXTEND
  0
POINT
  5
18E50
330
1871B
100
AcDbEntity
  8
DEFPOINTS
 62
     0
 48
50.0
100
AcDbPoint
 10
11056.72939116717
 20
2628.010354820206
 30
0.0
  0
POINT
  5
18E51
330
1871B
100
AcDbEntity
  8
DEFPOINTS
 62
     0
 48
50.0
100
AcDbPoint
 10
11136.72939116716
 20
4948.010354820208
 30
0.0
  0
POINT
  5
18E52
330
1871B
100
AcDbEntity
  8
DEFPOINTS
 62
     0
 48
50.0
100
AcDbPoint
 10
11592.59637263988
 20
4948.010354820208
 30
0.0
  0
ENDBLK
  5
18726
330
1871B
100
AcDbEntity
  8
0
 48
50.0
100
AcDbBlockEnd
  0
BLOCK
  5
18732
330
18727
100
AcDbEntity
  8
0
 48
50.0
100
AcDbBlockBegin
  2
*D7
 70
     1
 10
0.0
 20
0.0
 30
0.0
  3
*D7
  1

  0
LINE
  5
18E40
330
18727
100
AcDbEntity
  8
寸法
 62
     0
 48
50.0
370
    -2
100
AcDbLine
 10
8786.133677458277
 20
5002.308061889866
 30
0.0
 11
8170.199238353005
 21
5020.022212164196
 31
0.0
  0
LINE
  5
18E41
330
18727
100
AcDbEntity
  8
寸法
 62
     0
 48
50.0
370
    -2
100
AcDbLine
 10
8782.080221901651
 20
4861.366338124152
 30
0.0
 11
8166.145782796379
 21
4879.080488398481
 31
0.0
  0
LINE
  5
18E42
330
18727
100
AcDbEntity
  8
寸法
 62
     0
 48
50.0
370
    -2
100
AcDbLine
 10
8226.120984398809
 20
4877.355613693534
 30
0.0
 11
8230.174439955435
 21
5018.297337459248
 31
0.0
  0
LINE
  5
18E43
330
18727
100
AcDbEntity
  8
寸法
 62
     0
 48
50.0
370
    -2
100
AcDbLine
 10
8230.174439955435
 20
5018.297337459248
 30
0.0
 11
8240.523688185119
 21
5378.148547073838
 31
0.0
  0
INSERT
  5
18E44
330
18727
100
AcDbEntity
  8
寸法
 62
     0
 48
50.0
370
    -2
100
AcDbBlockReference
  2
_DOTSMALL
 10
8226.120984398809
 20
4877.355613693534
 30
0.0
 41
100.0
 42
100.0
 43
100.0
 50
268.3526390256379
  0
INSERT
  5
18E45
330
18727
100
AcDbEntity
  8
寸法
 62
     0
 48
50.0
370
    -2
100
AcDbBlockReference
  2
_DOTSMALL
 10
8230.174439955435
 20
5018.297337459248
 30
0.0
 41
100.0
 42
100.0
 43
100.0
 50
88.35263902563784
  0
MTEXT
  5
18E46
330
18727
100
AcDbEntity
  8
寸法
 62
     7
 48
50.0
100
AcDbMText
 10
8136.827790320351
 20
5251.07706811015
 30
0.0
 40
120.0
 41
0.0
 71
     5
 72
     1
  1
\A1;141
  7
STYLE1
 11
0.0287479117491228
 21
0.9995866933738486
 31
0.0
 73
     1
 44
1.0
1001
ACAD
1000
MTEXTBEGIN
1070
    73
1070
     1
1070
    44
1040
1.0
1070
    74
1070
     0
1000
MTEXTEND
  0
POINT
  5
18E47
330
18727
100
AcDbEntity
  8
DEFPOINTS
 62
     0
 48
50.0
100
AcDbPoint
 10
8806.125411325753
 20
5001.733103654884
 30
0.0
  0
POINT
  5
18E48
330
18727
100
AcDbEntity
  8
DEFPOINTS
 62
     0
 48
50.0
100
AcDbPoint
 10
8802.071955769127
 20
4860.791379889169
 30
0.0
  0
POINT
  5
18E49
330
18727
100
AcDbEntity
  8
DEFPOINTS
 62
     0
 48
50.0
100
AcDbPoint
 10
8226.120984398809
 20
4877.355613693534
 30
0.0
  0
ENDBLK
  5
18733
330
18727
100
AcDbEntity
  8
0
 48
50.0
100
AcDbBlockEnd
  0
BLOCK
  5
18740
330
18734
100
AcDbEntity
  8
0
 48
50.0
100
AcDbBlockBegin
  2
*D8
 70
     1
 10
0.0
 20
0.0
 30
0.0
  3
*D8
  1

  0
LINE
  5
18E35
330
18734
100
AcDbEntity
  8
寸法
 62
     0
 48
50.0
370
    -2
100
AcDbLine
 10
8846.729391167178
 20
5019.011972943182
 30
0.0
 11
8846.729391167178
 21
5461.66780839951
 31
0.0
  0
LINE
  5
18E36
330
18734
100
AcDbEntity
  8
寸法
 62
     0
 48
50.0
370
    -2
100
AcDbLine
 10
8786.729391167176
 20
5023.010354820209
 30
0.0
 11
8786.729391167176
 21
5461.66780839951
 31
0.0
  0
LINE
  5
18E37
330
18734
100
AcDbEntity
  8
寸法
 62
     0
 48
50.0
370
    -2
100
AcDbLine
 10
8846.729391167178
 20
5401.667808399509
 30
0.0
 11
8946.729391167178
 21
5401.667808399509
 31
0.0
  0
LINE
  5
18E38
330
18734
100
AcDbEntity
  8
寸法
 62
     0
 48
50.0
370
    -2
100
AcDbLine
 10
8786.729391167176
 20
5401.667808399509
 30
0.0
 11
8367.453800615995
 21
5401.667808399509
 31
0.0
  0
LINE
  5
18E39
330
18734
100
AcDbEntity
  8
寸法
 62
     0
 48
50.0
370
    -2
100
AcDbLine
 10
8846.729391167178
 20
5401.667808399509
 30
0.0
 11
8786.729391167176
 21
5401.667808399509
 31
0.0
  0
INSERT
  5
18E3A
330
18734
100
AcDbEntity
  8
寸法
 62
     0
 48
50.0
370
    -2
100
AcDbBlockReference
  2
_DOTSMALL
 10
8846.729391167178
 20
5401.667808399509
 30
0.0
 41
100.0
 42
100.0
 43
100.0
 50
180.0
  0
INSERT
  5
18E3B
330
18734
100
AcDbEntity
  8
寸法
 62
     0
 48
50.0
370
    -2
100
AcDbBlockReference
  2
_DOTSMALL
 10
8786.729391167176
 20
5401.667808399509
 30
0.0
 41
100.0
 42
100.0
 43
100.0
  0
MTEXT
  5
18E3C
330
18734
100
AcDbEntity
  8
寸法
 62
     7
 48
50.0
100
AcDbMText
 10
8477.091595891586
 20
5501.66780839951
 30
0.0
 40
120.0
 41
0.0
 71
     5
 72
     1
  1
\A1;60
  7
STYLE1
 73
     1
 44
1.0
1001
ACAD
1000
MTEXTBEGIN
1070
    73
1070
     1
1070
    44
1040
1.0
1070
    74
1070
     0
1000
MTEXTEND
  0
POINT
  5
18E3D
330
18734
100
AcDbEntity
  8
DEFPOINTS
 62
     0
 48
50.0
100
AcDbPoint
 10
8846.729391167178
 20
4999.011972943183
 30
0.0
  0
POINT
  5
18E3E
330
18734
100
AcDbEntity
  8
DEFPOINTS
 62
     0
 48
50.0
100
AcDbPoint
 10
8786.729391167176
 20
5003.01035482021
 30
0.0
  0
POINT
  5
18E3F
330
18734
100
AcDbEntity
  8
DEFPOINTS
 62
     0
 48
50.0
100
AcDbPoint
 10
8786.729391167176
 20
5401.667808399509
 30
0.0
  0
ENDBLK
  5
18741
330
18734
100
AcDbEntity
  8
0
 48
50.0
100
AcDbBlockEnd
  0
BLOCK
  5
1874D
330
18742
100
AcDbEntity
  8
0
 48
50.0
100
AcDbBlockBegin
  2
*D9
 70
     1
 10
0.0
 20
0.0
 30
0.0
  3
*D9
  1

  0
LINE
  5
18E2B
330
18742
100
AcDbEntity
  8
寸法
 62
     0
 48
50.0
370
    -2
100
AcDbLine
 10
11056.72939116717
 20
4969.821034431857
 30
0.0
 11
11056.72939116717
 21
5461.66780839951
 31
0.0
  0
LINE
  5
18E2C
330
18742
100
AcDbEntity
  8
寸法
 62
     0
 48
50.0
370
    -2
100
AcDbLine
 10
11136.72939116717
 20
4968.010354820206
 30
0.0
 11
11136.72939116717
 21
5461.66780839951
 31
0.0
  0
LINE
  5
18E2D
330
18742
100
AcDbEntity
  8
寸法
 62
     0
 48
50.0
370
    -2
100
AcDbLine
 10
11056.72939116717
 20
5401.667808399509
 30
0.0
 11
11136.72939116717
 21
5401.667808399509
 31
0.0
  0
LINE
  5
18E2E
330
18742
100
AcDbEntity
  8
寸法
 62
     0
 48
50.0
370
    -2
100
AcDbLine
 10
11136.72939116717
 20
5401.667808399509
 30
0.0
 11
11448.82387935615
 21
5401.667808399509
 31
0.0
  0
INSERT
  5
18E2F
330
18742
100
AcDbEntity
  8
寸法
 62
     0
 48
50.0
370
    -2
100
AcDbBlockReference
  2
_DOTSMALL
 10
11056.72939116717
 20
5401.667808399509
 30
0.0
 41
100.0
 42
100.0
 43
100.0
 50
180.0
  0
INSERT
  5
18E30
330
18742
100
AcDbEntity
  8
寸法
 62
     0
 48
50.0
370
    -2
100
AcDbBlockReference
  2
_DOTSMALL
 10
11136.72939116717
 20
5401.667808399509
 30
0.0
 41
100.0
 42
100.0
 43
100.0
  0
MTEXT
  5
18E31
330
18742
100
AcDbEntity
  8
寸法
 62
     7
 48
50.0
100
AcDbMText
 10
11342.77663526167
 20
5501.66780839951
 30
0.0
 40
120.0
 41
0.0
 71
     5
 72
     1
  1
\A1;80
  7
STYLE1
 73
     1
 44
1.0
1001
ACAD
1000
MTEXTBEGIN
1070
    73
1070
     1
1070
    44
1040
1.0
1070
    74
1070
     0
1000
MTEXTEND
  0
POINT
  5
18E32
330
18742
100
AcDbEntity
  8
DEFPOINTS
 62
     0
 48
50.0
100
AcDbPoint
 10
11056.72939116717
 20
4949.821034431858
 30
0.0
  0
POINT
  5
18E33
330
18742
100
AcDbEntity
  8
DEFPOINTS
 62
     0
 48
50.0
100
AcDbPoint
 10
11136.72939116717
 20
4948.010354820206
 30
0.0
  0
POINT
  5
18E34
330
18742
100
AcDbEntity
  8
DEFPOINTS
 62
     0
 48
50.0
100
AcDbPoint
 10
11136.72939116717
 20
5401.667808399509
 30
0.0
  0
ENDBLK
  5
1874E
330
18742
100
AcDbEntity
  8
0
 48
50.0
100
AcDbBlockEnd
  0
BLOCK
  5
18759
330
1874F
100
AcDbEntity
  8
0
 48
50.0
100
AcDbBlockBegin
  2
*D10
 70
     1
 10
0.0
 20
0.0
 30
0.0
  3
*D10
  1

  0
LINE
  5
18E22
330
1874F
100
AcDbEntity
  8
寸法
 62
     0
 48
50.0
370
    -2
100
AcDbLine
 10
11136.72939116717
 20
4968.010354820206
 30
0.0
 11
11136.72939116717
 21
5680.869642073801
 31
0.0
  0
LINE
  5
18E23
330
1874F
100
AcDbEntity
  8
寸法
 62
     0
 48
50.0
370
    -2
100
AcDbLine
 10
8786.729391167176
 20
5023.010354820209
 30
0.0
 11
8786.729391167176
 21
5680.869642073801
 31
0.0
  0
LINE
  5
18E24
330
1874F
100
AcDbEntity
  8
寸法
 62
     0
 48
50.0
370
    -2
100
AcDbLine
 10
11136.72939116717
 20
5620.869642073801
 30
0.0
 11
8786.729391167176
 21
5620.869642073801
 31
0.0
  0
INSERT
  5
18E25
330
1874F
100
AcDbEntity
  8
寸法
 62
     0
 48
50.0
370
    -2
100
AcDbBlockReference
  2
_DOTSMALL
 10
11136.72939116717
 20
5620.869642073801
 30
0.0
 41
100.0
 42
100.0
 43
100.0
  0
INSERT
  5
18E26
330
1874F
100
AcDbEntity
  8
寸法
 62
     0
 48
50.0
370
    -2
100
AcDbBlockReference
  2
_DOTSMALL
 10
8786.729391167176
 20
5620.869642073801
 30
0.0
 41
100.0
 42
100.0
 43
100.0
 50
180.0
  0
MTEXT
  5
18E27
330
1874F
100
AcDbEntity
  8
寸法
 62
     7
 48
50.0
100
AcDbMText
 10
10021.07324525964
 20
5720.881453097423
 30
0.0
 40
120.0
 41
0.0
 71
     5
 72
     1
  1
\A1;2350
  7
STYLE1
 73
     1
 44
1.0
1001
ACAD
1000
MTEXTBEGIN
1070
    73
1070
     1
1070
    44
1040
1.0
1070
    74
1070
     0
1000
MTEXTEND
  0
POINT
  5
18E28
330
1874F
100
AcDbEntity
  8
DEFPOINTS
 62
     0
 48
50.0
100
AcDbPoint
 10
11136.72939116717
 20
4948.010354820206
 30
0.0
  0
POINT
  5
18E29
330
1874F
100
AcDbEntity
  8
DEFPOINTS
 62
     0
 48
50.0
100
AcDbPoint
 10
8786.729391167176
 20
5003.01035482021
 30
0.0
  0
POINT
  5
18E2A
330
1874F
100
AcDbEntity
  8
DEFPOINTS
 62
     0
 48
50.0
100
AcDbPoint
 10
8786.729391167176
 20
5620.869642073801
 30
0.0
  0
ENDBLK
  5
1875A
330
1874F
100
AcDbEntity
  8
0
 48
50.0
100
AcDbBlockEnd
  0
BLOCK
  5
18765
330
1875B
100
AcDbEntity
  8
0
 48
50.0
100
AcDbBlockBegin
  2
*D11
 70
     1
 10
0.0
 20
0.0
 30
0.0
  3
*D11
  1

  0
LINE
  5
18E19
330
1875B
100
AcDbEntity
  8
寸法
 62
     0
 48
50.0
370
    -2
100
AcDbLine
 10
11056.72939116717
 20
4969.821034431857
 30
0.0
 11
11056.72939116717
 21
5461.66780839951
 31
0.0
  0
LINE
  5
18E1A
330
1875B
100
AcDbEntity
  8
寸法
 62
     0
 48
50.0
370
    -2
100
AcDbLine
 10
8846.729391167178
 20
5019.011972943182
 30
0.0
 11
8846.729391167178
 21
5461.66780839951
 31
0.0
  0
LINE
  5
18E1B
330
1875B
100
AcDbEntity
  8
寸法
 62
     0
 48
50.0
370
    -2
100
AcDbLine
 10
11056.72939116717
 20
5401.667808399509
 30
0.0
 11
8846.729391167178
 21
5401.667808399509
 31
0.0
  0
INSERT
  5
18E1C
330
1875B
100
AcDbEntity
  8
寸法
 62
     0
 48
50.0
370
    -2
100
AcDbBlockReference
  2
_DOTSMALL
 10
11056.72939116717
 20
5401.667808399509
 30
0.0
 41
100.0
 42
100.0
 43
100.0
  0
INSERT
  5
18E1D
330
1875B
100
AcDbEntity
  8
寸法
 62
     0
 48
50.0
370
    -2
100
AcDbBlockReference
  2
_DOTSMALL
 10
8846.729391167178
 20
5401.667808399509
 30
0.0
 41
100.0
 42
100.0
 43
100.0
 50
180.0
  0
MTEXT
  5
18E1E
330
1875B
100
AcDbEntity
  8
寸法
 62
     7
 48
50.0
100
AcDbMText
 10
9941.37412823769
 20
5501.679619423131
 30
0.0
 40
120.0
 41
0.0
 71
     5
 72
     1
  1
\A1;柱外寸法2210
  7
STYLE1
 73
     1
 44
1.0
1001
ACAD
1000
MTEXTBEGIN
1070
    73
1070
     1
1070
    44
1040
1.0
1070
    74
1070
     0
1000
MTEXTEND
  0
POINT
  5
18E1F
330
1875B
100
AcDbEntity
  8
DEFPOINTS
 62
     0
 48
50.0
100
AcDbPoint
 10
11056.72939116717
 20
4949.821034431858
 30
0.0
  0
POINT
  5
18E20
330
1875B
100
AcDbEntity
  8
DEFPOINTS
 62
     0
 48
50.0
100
AcDbPoint
 10
8846.729391167178
 20
4999.011972943183
 30
0.0
  0
POINT
  5
18E21
330
1875B
100
AcDbEntity
  8
DEFPOINTS
 62
     0
 48
50.0
100
AcDbPoint
 10
8846.729391167178
 20
5401.667808399509
 30
0.0
  0
ENDBLK
  5
18766
330
1875B
100
AcDbEntity
  8
0
 48
50.0
100
AcDbBlockEnd
  0
BLOCK
  5
18771
330
18767
100
AcDbEntity
  8
0
 48
50.0
100
AcDbBlockBegin
  2
*D12
 70
     1
 10
0.0
 20
0.0
 30
0.0
  3
*D12
  1

  0
LINE
  5
18E10
330
18767
100
AcDbEntity
  8
寸法
 62
     0
 48
50.0
370
    -2
100
AcDbLine
 10
4910.944974142616
 20
2278.010354820206
 30
0.0
 11
4658.62988317739
 21
2278.010354820206
 31
0.0
  0
LINE
  5
18E11
330
18767
100
AcDbEntity
  8
寸法
 62
     0
 48
50.0
370
    -2
100
AcDbLine
 10
4910.944974142616
 20
2528.010354820206
 30
0.0
 11
4658.62988317739
 21
2528.010354820206
 31
0.0
  0
LINE
  5
18E12
330
18767
100
AcDbEntity
  8
寸法
 62
     0
 48
50.0
370
    -2
100
AcDbLine
 10
4718.62988317739
 20
2278.010354820206
 30
0.0
 11
4718.62988317739
 21
2528.010354820206
 31
0.0
  0
INSERT
  5
18E13
330
18767
100
AcDbEntity
  8
寸法
 62
     0
 48
50.0
370
    -2
100
AcDbBlockReference
  2
_DOTSMALL
 10
4718.62988317739
 20
2278.010354820206
 30
0.0
 41
100.0
 42
100.0
 43
100.0
 50
270.0
  0
INSERT
  5
18E14
330
18767
100
AcDbEntity
  8
寸法
 62
     0
 48
50.0
370
    -2
100
AcDbBlockReference
  2
_DOTSMALL
 10
4718.62988317739
 20
2528.010354820206
 30
0.0
 41
100.0
 42
100.0
 43
100.0
 50
90.0
  0
MTEXT
  5
18E15
330
18767
100
AcDbEntity
  8
寸法
 62
     7
 48
50.0
100
AcDbMText
 10
4618.618072153767
 20
2403.010354820207
 30
0.0
 40
120.0
 41
0.0
 71
     5
 72
     1
  1
\A1;250
  7
STYLE1
 11
0.0000000000000001
 21
1.0
 31
0.0
 73
     1
 44
1.0
1001
ACAD
1000
MTEXTBEGIN
1070
    73
1070
     1
1070
    44
1040
1.0
1070
    74
1070
     0
1000
MTEXTEND
  0
POINT
  5
18E16
330
18767
100
AcDbEntity
  8
DEFPOINTS
 62
     0
 48
50.0
100
AcDbPoint
 10
4930.944974142616
 20
2278.010354820206
 30
0.0
  0
POINT
  5
18E17
330
18767
100
AcDbEntity
  8
DEFPOINTS
 62
     0
 48
50.0
100
AcDbPoint
 10
4930.944974142616
 20
2528.010354820206
 30
0.0
  0
POINT
  5
18E18
330
18767
100
AcDbEntity
  8
DEFPOINTS
 62
     0
 48
50.0
100
AcDbPoint
 10
4718.62988317739
 20
2528.010354820206
 30
0.0
  0
ENDBLK
  5
18772
330
18767
100
AcDbEntity
  8
0
 48
50.0
100
AcDbBlockEnd
  0
BLOCK
  5
1877D
330
18773
100
AcDbEntity
  8
0
 48
50.0
100
AcDbBlockBegin
  2
*D13
 70
     1
 10
0.0
 20
0.0
 30
0.0
  3
*D13
  1

  0
LINE
  5
18E07
330
18773
100
AcDbEntity
  8
寸法
 62
     0
 48
50.0
370
    -2
100
AcDbLine
 10
5180.944974142616
 20
2258.010354820206
 30
0.0
 11
5180.944974142616
 21
1931.963418287148
 31
0.0
  0
LINE
  5
18E08
330
18773
100
AcDbEntity
  8
寸法
 62
     0
 48
50.0
370
    -2
100
AcDbLine
 10
4930.944974142616
 20
2258.010354820206
 30
0.0
 11
4930.944974142616
 21
1931.963418287148
 31
0.0
  0
LINE
  5
18E09
330
18773
100
AcDbEntity
  8
寸法
 62
     0
 48
50.0
370
    -2
100
AcDbLine
 10
5180.944974142616
 20
1991.963418287149
 30
0.0
 11
4930.944974142616
 21
1991.963418287149
 31
0.0
  0
INSERT
  5
18E0A
330
18773
100
AcDbEntity
  8
寸法
 62
     0
 48
50.0
370
    -2
100
AcDbBlockReference
  2
_DOTSMALL
 10
5180.944974142616
 20
1991.963418287149
 30
0.0
 41
100.0
 42
100.0
 43
100.0
  0
INSERT
  5
18E0B
330
18773
100
AcDbEntity
  8
寸法
 62
     0
 48
50.0
370
    -2
100
AcDbBlockReference
  2
_DOTSMALL
 10
4930.944974142616
 20
1991.963418287149
 30
0.0
 41
100.0
 42
100.0
 43
100.0
 50
180.0
  0
MTEXT
  5
18E0C
330
18773
100
AcDbEntity
  8
寸法
 62
     7
 48
50.0
100
AcDbMText
 10
5055.944974142616
 20
2091.975229310771
 30
0.0
 40
120.0
 41
0.0
 71
     5
 72
     1
  1
\A1;250
  7
STYLE1
 73
     1
 44
1.0
1001
ACAD
1000
MTEXTBEGIN
1070
    73
1070
     1
1070
    44
1040
1.0
1070
    74
1070
     0
1000
MTEXTEND
  0
POINT
  5
18E0D
330
18773
100
AcDbEntity
  8
DEFPOINTS
 62
     0
 48
50.0
100
AcDbPoint
 10
5180.944974142616
 20
2278.010354820206
 30
0.0
  0
POINT
  5
18E0E
330
18773
100
AcDbEntity
  8
DEFPOINTS
 62
     0
 48
50.0
100
AcDbPoint
 10
4930.944974142616
 20
2278.010354820206
 30
0.0
  0
POINT
  5
18E0F
330
18773
100
AcDbEntity
  8
DEFPOINTS
 62
     0
 48
50.0
100
AcDbPoint
 10
4930.944974142616
 20
1991.963418287149
 30
0.0
  0
ENDBLK
  5
1877E
330
18773
100
AcDbEntity
  8
0
 48
50.0
100
AcDbBlockEnd
  0
BLOCK
  5
18789
330
1877F
100
AcDbEntity
  8
0
 48
50.0
100
AcDbBlockBegin
  2
*D14
 70
     1
 10
0.0
 20
0.0
 30
0.0
  3
*D14
  1

  0
LINE
  5
18DFE
330
1877F
100
AcDbEntity
  8
寸法
 62
     0
 48
50.0
370
    -2
100
AcDbLine
 10
4978.44497414262
 20
5023.010354820211
 30
0.0
 11
4978.44497414262
 21
5677.224488668928
 31
0.0
  0
LINE
  5
18DFF
330
1877F
100
AcDbEntity
  8
寸法
 62
     0
 48
50.0
370
    -2
100
AcDbLine
 10
6448.444974142614
 20
5023.010354820208
 30
0.0
 11
6448.444974142614
 21
5677.224488668928
 31
0.0
  0
LINE
  5
18E00
330
1877F
100
AcDbEntity
  8
寸法
 62
     0
 48
50.0
370
    -2
100
AcDbLine
 10
4978.44497414262
 20
5617.224488668927
 30
0.0
 11
6448.444974142614
 21
5617.224488668927
 31
0.0
  0
INSERT
  5
18E01
330
1877F
100
AcDbEntity
  8
寸法
 62
     0
 48
50.0
370
    -2
100
AcDbBlockReference
  2
_DOTSMALL
 10
4978.44497414262
 20
5617.224488668927
 30
0.0
 41
100.0
 42
100.0
 43
100.0
 50
180.0
  0
INSERT
  5
18E02
330
1877F
100
AcDbEntity
  8
寸法
 62
     0
 48
50.0
370
    -2
100
AcDbBlockReference
  2
_DOTSMALL
 10
6448.444974142614
 20
5617.224488668927
 30
0.0
 41
100.0
 42
100.0
 43
100.0
  0
MTEXT
  5
18E03
330
1877F
100
AcDbEntity
  8
寸法
 62
     7
 48
50.0
100
AcDbMText
 10
5713.444974142618
 20
5717.224488668928
 30
0.0
 40
120.0
 41
0.0
 71
     5
 72
     1
  1
\A1;1470
  7
STYLE1
 73
     1
 44
1.0
1001
ACAD
1000
MTEXTBEGIN
1070
    73
1070
     1
1070
    44
1040
1.0
1070
    74
1070
     0
1000
MTEXTEND
  0
POINT
  5
18E04
330
1877F
100
AcDbEntity
  8
DEFPOINTS
 62
     0
 48
50.0
100
AcDbPoint
 10
4978.44497414262
 20
5003.010354820212
 30
0.0
  0
POINT
  5
18E05
330
1877F
100
AcDbEntity
  8
DEFPOINTS
 62
     0
 48
50.0
100
AcDbPoint
 10
6448.444974142614
 20
5003.010354820208
 30
0.0
  0
POINT
  5
18E06
330
1877F
100
AcDbEntity
  8
DEFPOINTS
 62
     0
 48
50.0
100
AcDbPoint
 10
6448.444974142614
 20
5617.224488668927
 30
0.0
  0
ENDBLK
  5
1878A
330
1877F
100
AcDbEntity
  8
0
 48
50.0
100
AcDbBlockEnd
  0
BLOCK
  5
18797
330
1878B
100
AcDbEntity
  8
0
 48
50.0
100
AcDbBlockBegin
  2
*D15
 70
     1
 10
0.0
 20
0.0
 30
0.0
  3
*D15
  1

  0
LINE
  5
18DF3
330
1878B
100
AcDbEntity
  8
寸法
 62
     0
 48
50.0
370
    -2
100
AcDbLine
 10
5028.44497414262
 20
5023.010354820211
 30
0.0
 11
5028.44497414262
 21
5467.630614247477
 31
0.0
  0
LINE
  5
18DF4
330
1878B
100
AcDbEntity
  8
寸法
 62
     0
 48
50.0
370
    -2
100
AcDbLine
 10
4978.44497414262
 20
5023.010354820211
 30
0.0
 11
4978.44497414262
 21
5467.630614247477
 31
0.0
  0
LINE
  5
18DF5
330
1878B
100
AcDbEntity
  8
寸法
 62
     0
 48
50.0
370
    -2
100
AcDbLine
 10
5028.44497414262
 20
5407.630614247477
 30
0.0
 11
5128.44497414262
 21
5407.630614247477
 31
0.0
  0
LINE
  5
18DF6
330
1878B
100
AcDbEntity
  8
寸法
 62
     0
 48
50.0
370
    -2
100
AcDbLine
 10
4978.44497414262
 20
5407.630614247477
 30
0.0
 11
4558.912448673885
 21
5407.630614247477
 31
0.0
  0
LINE
  5
18DF7
330
1878B
100
AcDbEntity
  8
寸法
 62
     0
 48
50.0
370
    -2
100
AcDbLine
 10
5028.44497414262
 20
5407.630614247477
 30
0.0
 11
4978.44497414262
 21
5407.630614247477
 31
0.0
  0
INSERT
  5
18DF8
330
1878B
100
AcDbEntity
  8
寸法
 62
     0
 48
50.0
370
    -2
100
AcDbBlockReference
  2
_DOTSMALL
 10
5028.44497414262
 20
5407.630614247477
 30
0.0
 41
100.0
 42
100.0
 43
100.0
 50
180.0
  0
INSERT
  5
18DF9
330
1878B
100
AcDbEntity
  8
寸法
 62
     0
 48
50.0
370
    -2
100
AcDbBlockReference
  2
_DOTSMALL
 10
4978.44497414262
 20
5407.630614247477
 30
0.0
 41
100.0
 42
100.0
 43
100.0
  0
MTEXT
  5
18DFA
330
1878B
100
AcDbEntity
  8
寸法
 62
     7
 48
50.0
100
AcDbMText
 10
4664.959692768372
 20
5507.630614247477
 30
0.0
 40
120.0
 41
0.0
 71
     5
 72
     1
  1
\A1;50
  7
STYLE1
 73
     1
 44
1.0
1001
ACAD
1000
MTEXTBEGIN
1070
    73
1070
     1
1070
    44
1040
1.0
1070
    74
1070
     0
1000
MTEXTEND
  0
POINT
  5
18DFB
330
1878B
100
AcDbEntity
  8
DEFPOINTS
 62
     0
 48
50.0
100
AcDbPoint
 10
5028.44497414262
 20
5003.010354820212
 30
0.0
  0
POINT
  5
18DFC
330
1878B
100
AcDbEntity
  8
DEFPOINTS
 62
     0
 48
50.0
100
AcDbPoint
 10
4978.44497414262
 20
5003.010354820212
 30
0.0
  0
POINT
  5
18DFD
330
1878B
100
AcDbEntity
  8
DEFPOINTS
 62
     0
 48
50.0
100
AcDbPoint
 10
4978.44497414262
 20
5407.630614247477
 30
0.0
  0
ENDBLK
  5
18798
330
1878B
100
AcDbEntity
  8
0
 48
50.0
100
AcDbBlockEnd
  0
BLOCK
  5
187A3
330
18799
100
AcDbEntity
  8
0
 48
50.0
100
AcDbBlockBegin
  2
*D16
 70
     1
 10
0.0
 20
0.0
 30
0.0
  3
*D16
  1

  0
LINE
  5
18DEA
330
18799
100
AcDbEntity
  8
寸法
 62
     0
 48
50.0
370
    -2
100
AcDbLine
 10
6398.444974142615
 20
5023.010354820211
 30
0.0
 11
6398.444974142615
 21
5467.630614247477
 31
0.0
  0
LINE
  5
18DEB
330
18799
100
AcDbEntity
  8
寸法
 62
     0
 48
50.0
370
    -2
100
AcDbLine
 10
5028.44497414262
 20
5023.010354820211
 30
0.0
 11
5028.44497414262
 21
5467.630614247477
 31
0.0
  0
LINE
  5
18DEC
330
18799
100
AcDbEntity
  8
寸法
 62
     0
 48
50.0
370
    -2
100
AcDbLine
 10
6398.444974142615
 20
5407.630614247477
 30
0.0
 11
5028.44497414262
 21
5407.630614247477
 31
0.0
  0
INSERT
  5
18DED
330
18799
100
AcDbEntity
  8
寸法
 62
     0
 48
50.0
370
    -2
100
AcDbBlockReference
  2
_DOTSMALL
 10
6398.444974142615
 20
5407.630614247477
 30
0.0
 41
100.0
 42
100.0
 43
100.0
  0
INSERT
  5
18DEE
330
18799
100
AcDbEntity
  8
寸法
 62
     0
 48
50.0
370
    -2
100
AcDbBlockReference
  2
_DOTSMALL
 10
5028.44497414262
 20
5407.630614247477
 30
0.0
 41
100.0
 42
100.0
 43
100.0
 50
180.0
  0
MTEXT
  5
18DEF
330
18799
100
AcDbEntity
  8
寸法
 62
     7
 48
50.0
100
AcDbMText
 10
5713.444974142618
 20
5507.630614247477
 30
0.0
 40
120.0
 41
0.0
 71
     5
 72
     1
  1
\A1;柱外寸法1370
  7
STYLE1
 73
     1
 44
1.0
1001
ACAD
1000
MTEXTBEGIN
1070
    73
1070
     1
1070
    44
1040
1.0
1070
    74
1070
     0
1000
MTEXTEND
  0
POINT
  5
18DF0
330
18799
100
AcDbEntity
  8
DEFPOINTS
 62
     0
 48
50.0
100
AcDbPoint
 10
6398.444974142615
 20
5003.010354820212
 30
0.0
  0
POINT
  5
18DF1
330
18799
100
AcDbEntity
  8
DEFPOINTS
 62
     0
 48
50.0
100
AcDbPoint
 10
5028.44497414262
 20
5003.010354820212
 30
0.0
  0
POINT
  5
18DF2
330
18799
100
AcDbEntity
  8
DEFPOINTS
 62
     0
 48
50.0
100
AcDbPoint
 10
5028.44497414262
 20
5407.630614247477
 30
0.0
  0
ENDBLK
  5
187A4
330
18799
100
AcDbEntity
  8
0
 48
50.0
100
AcDbBlockEnd
  0
BLOCK
  5
187B1
330
187A5
100
AcDbEntity
  8
0
 48
50.0
100
AcDbBlockBegin
  2
*D17
 70
     1
 10
0.0
 20
0.0
 30
0.0
  3
*D17
  1

  0
LINE
  5
18DDF
330
187A5
100
AcDbEntity
  8
寸法
 62
     0
 48
50.0
370
    -2
100
AcDbLine
 10
6448.444974142614
 20
5023.010354820208
 30
0.0
 11
6448.444974142614
 21
5467.630614247477
 31
0.0
  0
LINE
  5
18DE0
330
187A5
100
AcDbEntity
  8
寸法
 62
     0
 48
50.0
370
    -2
100
AcDbLine
 10
6398.444974142615
 20
5023.010354820211
 30
0.0
 11
6398.444974142615
 21
5467.630614247477
 31
0.0
  0
LINE
  5
18DE1
330
187A5
100
AcDbEntity
  8
寸法
 62
     0
 48
50.0
370
    -2
100
AcDbLine
 10
6398.444974142615
 20
5407.630614247477
 30
0.0
 11
6298.444974142615
 21
5407.630614247477
 31
0.0
  0
LINE
  5
18DE2
330
187A5
100
AcDbEntity
  8
寸法
 62
     0
 48
50.0
370
    -2
100
AcDbLine
 10
6448.444974142614
 20
5407.630614247477
 30
0.0
 11
6867.977499611338
 21
5407.630614247477
 31
0.0
  0
LINE
  5
18DE3
330
187A5
100
AcDbEntity
  8
寸法
 62
     0
 48
50.0
370
    -2
100
AcDbLine
 10
6398.444974142615
 20
5407.630614247477
 30
0.0
 11
6448.444974142614
 21
5407.630614247477
 31
0.0
  0
INSERT
  5
18DE4
330
187A5
100
AcDbEntity
  8
寸法
 62
     0
 48
50.0
370
    -2
100
AcDbBlockReference
  2
_DOTSMALL
 10
6398.444974142615
 20
5407.630614247477
 30
0.0
 41
100.0
 42
100.0
 43
100.0
  0
INSERT
  5
18DE5
330
187A5
100
AcDbEntity
  8
寸法
 62
     0
 48
50.0
370
    -2
100
AcDbBlockReference
  2
_DOTSMALL
 10
6448.444974142614
 20
5407.630614247477
 30
0.0
 41
100.0
 42
100.0
 43
100.0
 50
180.0
  0
MTEXT
  5
18DE6
330
187A5
100
AcDbEntity
  8
寸法
 62
     7
 48
50.0
100
AcDbMText
 10
6761.93025551685
 20
5507.630614247477
 30
0.0
 40
120.0
 41
0.0
 71
     5
 72
     1
  1
\A1;50
  7
STYLE1
 73
     1
 44
1.0
1001
ACAD
1000
MTEXTBEGIN
1070
    73
1070
     1
1070
    44
1040
1.0
1070
    74
1070
     0
1000
MTEXTEND
  0
POINT
  5
18DE7
330
187A5
100
AcDbEntity
  8
DEFPOINTS
 62
     0
 48
50.0
100
AcDbPoint
 10
6448.444974142614
 20
5003.010354820208
 30
0.0
  0
POINT
  5
18DE8
330
187A5
100
AcDbEntity
  8
DEFPOINTS
 62
     0
 48
50.0
100
AcDbPoint
 10
6398.444974142615
 20
5003.010354820212
 30
0.0
  0
POINT
  5
18DE9
330
187A5
100
AcDbEntity
  8
DEFPOINTS
 62
     0
 48
50.0
100
AcDbPoint
 10
6398.444974142615
 20
5407.630614247477
 30
0.0
  0
ENDBLK
  5
187B2
330
187A5
100
AcDbEntity
  8
0
 48
50.0
100
AcDbBlockEnd
  0
BLOCK
  5
187BD
330
187B3
100
AcDbEntity
  8
0
 48
50.0
100
AcDbBlockBegin
  2
*D18
 70
     1
 10
0.0
 20
0.0
 30
0.0
  3
*D18
  1

  0
LINE
  5
18DD6
330
187B3
100
AcDbEntity
  8
寸法
 62
     0
 48
50.0
370
    -2
100
AcDbLine
 10
8971.729391167178
 20
2258.010354820206
 30
0.0
 11
8971.729391167178
 21
1931.983371202794
 31
0.0
  0
LINE
  5
18DD7
330
187B3
100
AcDbEntity
  8
寸法
 62
     0
 48
50.0
370
    -2
100
AcDbLine
 10
8721.729391167178
 20
2258.010354820206
 30
0.0
 11
8721.729391167178
 21
1931.983371202794
 31
0.0
  0
LINE
  5
18DD8
330
187B3
100
AcDbEntity
  8
寸法
 62
     0
 48
50.0
370
    -2
100
AcDbLine
 10
8971.729391167178
 20
1991.983371202794
 30
0.0
 11
8721.729391167178
 21
1991.983371202794
 31
0.0
  0
INSERT
  5
18DD9
330
187B3
100
AcDbEntity
  8
寸法
 62
     0
 48
50.0
370
    -2
100
AcDbBlockReference
  2
_DOTSMALL
 10
8971.729391167178
 20
1991.983371202794
 30
0.0
 41
100.0
 42
100.0
 43
100.0
  0
INSERT
  5
18DDA
330
187B3
100
AcDbEntity
  8
寸法
 62
     0
 48
50.0
370
    -2
100
AcDbBlockReference
  2
_DOTSMALL
 10
8721.729391167178
 20
1991.983371202794
 30
0.0
 41
100.0
 42
100.0
 43
100.0
 50
180.0
  0
MTEXT
  5
18DDB
330
187B3
100
AcDbEntity
  8
寸法
 62
     7
 48
50.0
100
AcDbMText
 10
8846.729391167178
 20
2091.995182226416
 30
0.0
 40
120.0
 41
0.0
 71
     5
 72
     1
  1
\A1;250
  7
STYLE1
 73
     1
 44
1.0
1001
ACAD
1000
MTEXTBEGIN
1070
    73
1070
     1
1070
    44
1040
1.0
1070
    74
1070
     0
1000
MTEXTEND
  0
POINT
  5
18DDC
330
187B3
100
AcDbEntity
  8
DEFPOINTS
 62
     0
 48
50.0
100
AcDbPoint
 10
8971.729391167178
 20
2278.010354820206
 30
0.0
  0
POINT
  5
18DDD
330
187B3
100
AcDbEntity
  8
DEFPOINTS
 62
     0
 48
50.0
100
AcDbPoint
 10
8721.729391167178
 20
2278.010354820206
 30
0.0
  0
POINT
  5
18DDE
330
187B3
100
AcDbEntity
  8
DEFPOINTS
 62
     0
 48
50.0
100
AcDbPoint
 10
8721.729391167178
 20
1991.983371202794
 30
0.0
  0
ENDBLK
  5
187BE
330
187B3
100
AcDbEntity
  8
0
 48
50.0
100
AcDbBlockEnd
  0
BLOCK
  5
187C9
330
187BF
100
AcDbEntity
  8
0
 48
50.0
100
AcDbBlockBegin
  2
*D19
 70
     1
 10
0.0
 20
0.0
 30
0.0
  3
*D19
  1

  0
LINE
  5
19525
330
187BF
100
AcDbEntity
  8
寸法
 62
     0
 48
50.0
370
    -2
100
AcDbLine
 10
11076.72939116718
 20
9472.613052486805
 30
0.0
 11
12129.26267864123
 21
9472.613052486805
 31
0.0
  0
LINE
  5
19526
330
187BF
100
AcDbEntity
  8
寸法
 62
     0
 48
50.0
370
    -2
100
AcDbLine
 10
11076.72939116716
 20
8102.613052486798
 30
0.0
 11
12129.26267864123
 21
8102.613052486798
 31
0.0
  0
LINE
  5
19527
330
187BF
100
AcDbEntity
  8
寸法
 62
     0
 48
50.0
370
    -2
100
AcDbLine
 10
12069.26267864123
 20
9472.613052486805
 30
0.0
 11
12069.26267864123
 21
8102.613052486798
 31
0.0
  0
INSERT
  5
19528
330
187BF
100
AcDbEntity
  8
寸法
 62
     0
 48
50.0
370
    -2
100
AcDbBlockReference
  2
_DOTSMALL
 10
12069.26267864123
 20
9472.613052486805
 30
0.0
 41
100.0
 42
100.0
 43
100.0
 50
90.0
  0
INSERT
  5
19529
330
187BF
100
AcDbEntity
  8
寸法
 62
     0
 48
50.0
370
    -2
100
AcDbBlockReference
  2
_DOTSMALL
 10
12069.26267864123
 20
8102.613052486798
 30
0.0
 41
100.0
 42
100.0
 43
100.0
 50
270.0
  0
MTEXT
  5
1952A
330
187BF
100
AcDbEntity
  8
寸法
 62
     7
 48
50.0
100
AcDbMText
 10
11969.26267864123
 20
8787.613052486802
 30
0.0
 40
120.0
 41
0.0
 71
     5
 72
     1
  1
\A1;1370
  7
STYLE1
 11
0.0000000000000001
 21
1.0
 31
0.0
 73
     1
 44
1.0
1001
ACAD
1000
MTEXTBEGIN
1070
    73
1070
     1
1070
    44
1040
1.0
1070
    74
1070
     0
1000
MTEXTEND
  0
POINT
  5
1952B
330
187BF
100
AcDbEntity
  8
DEFPOINTS
 62
     0
 48
50.0
100
AcDbPoint
 10
11056.72939116718
 20
9472.613052486805
 30
0.0
  0
POINT
  5
1952C
330
187BF
100
AcDbEntity
  8
DEFPOINTS
 62
     0
 48
50.0
100
AcDbPoint
 10
11056.72939116716
 20
8102.613052486798
 30
0.0
  0
POINT
  5
1952D
330
187BF
100
AcDbEntity
  8
DEFPOINTS
 62
     0
 48
50.0
100
AcDbPoint
 10
12069.26267864123
 20
8102.613052486798
 30
0.0
  0
ENDBLK
  5
187CA
330
187BF
100
AcDbEntity
  8
0
 48
50.0
100
AcDbBlockEnd
  0
BLOCK
  5
187D5
330
187CB
100
AcDbEntity
  8
0
 48
50.0
100
AcDbBlockBegin
  2
*D20
 70
     1
 10
0.0
 20
0.0
 30
0.0
  3
*D20
  1

  0
LINE
  5
1951C
330
187CB
100
AcDbEntity
  8
寸法
 62
     0
 48
50.0
370
    -2
100
AcDbLine
 10
8901.729391167185
 20
9492.613052486712
 30
0.0
 11
8901.729391167185
 21
9835.658647062407
 31
0.0
  0
LINE
  5
1951D
330
187CB
100
AcDbEntity
  8
寸法
 62
     0
 48
50.0
370
    -2
100
AcDbLine
 10
11001.72939116718
 20
9492.613052486806
 30
0.0
 11
11001.72939116718
 21
9835.658647062407
 31
0.0
  0
LINE
  5
1951E
330
187CB
100
AcDbEntity
  8
寸法
 62
     0
 48
50.0
370
    -2
100
AcDbLine
 10
8901.729391167185
 20
9775.658647062407
 30
0.0
 11
11001.72939116718
 21
9775.658647062407
 31
0.0
  0
INSERT
  5
1951F
330
187CB
100
AcDbEntity
  8
寸法
 62
     0
 48
50.0
370
    -2
100
AcDbBlockReference
  2
_DOTSMALL
 10
8901.729391167185
 20
9775.658647062407
 30
0.0
 41
100.0
 42
100.0
 43
100.0
 50
180.0
  0
INSERT
  5
19520
330
187CB
100
AcDbEntity
  8
寸法
 62
     0
 48
50.0
370
    -2
100
AcDbBlockReference
  2
_DOTSMALL
 10
11001.72939116718
 20
9775.658647062407
 30
0.0
 41
100.0
 42
100.0
 43
100.0
  0
MTEXT
  5
19521
330
187CB
100
AcDbEntity
  8
寸法
 62
     7
 48
50.0
100
AcDbMText
 10
9951.729391167184
 20
9875.670458086029
 30
0.0
 40
120.0
 41
0.0
 71
     5
 72
     1
  1
\A1;5X420=2100
  7
STYLE1
 73
     1
 44
1.0
1001
ACAD
1000
MTEXTBEGIN
1070
    73
1070
     1
1070
    44
1040
1.0
1070
    74
1070
     0
1000
MTEXTEND
  0
POINT
  5
19522
330
187CB
100
AcDbEntity
  8
DEFPOINTS
 62
     0
 48
50.0
100
AcDbPoint
 10
8901.729391167185
 20
9472.613052486712
 30
0.0
  0
POINT
  5
19523
330
187CB
100
AcDbEntity
  8
DEFPOINTS
 62
     0
 48
50.0
100
AcDbPoint
 10
11001.72939116718
 20
9472.613052486805
 30
0.0
  0
POINT
  5
19524
330
187CB
100
AcDbEntity
  8
DEFPOINTS
 62
     0
 48
50.0
100
AcDbPoint
 10
11001.72939116718
 20
9775.658647062407
 30
0.0
  0
ENDBLK
  5
187D6
330
187CB
100
AcDbEntity
  8
0
 48
50.0
100
AcDbBlockEnd
  0
BLOCK
  5
187E3
330
187D7
100
AcDbEntity
  8
0
 48
50.0
100
AcDbBlockBegin
  2
*D21
 70
     1
 10
0.0
 20
0.0
 30
0.0
  3
*D21
  1

  0
LINE
  5
19511
330
187D7
100
AcDbEntity
  8
寸法
 62
     0
 48
50.0
370
    -2
100
AcDbLine
 10
11001.72939116718
 20
9492.613052486806
 30
0.0
 11
11001.72939116718
 21
9835.658647062388
 31
0.0
  0
LINE
  5
19512
330
187D7
100
AcDbEntity
  8
寸法
 62
     0
 48
50.0
370
    -2
100
AcDbLine
 10
11056.72939116718
 20
9492.613052486806
 30
0.0
 11
11056.72939116718
 21
9835.658647062388
 31
0.0
  0
LINE
  5
19513
330
187D7
100
AcDbEntity
  8
寸法
 62
     0
 48
50.0
370
    -2
100
AcDbLine
 10
11001.72939116718
 20
9775.658647062389
 30
0.0
 11
10901.72939116718
 21
9775.658647062389
 31
0.0
  0
LINE
  5
19514
330
187D7
100
AcDbEntity
  8
寸法
 62
     0
 48
50.0
370
    -2
100
AcDbLine
 10
11056.72939116718
 20
9775.658647062389
 30
0.0
 11
11473.69995391566
 21
9775.658647062389
 31
0.0
  0
LINE
  5
19515
330
187D7
100
AcDbEntity
  8
寸法
 62
     0
 48
50.0
370
    -2
100
AcDbLine
 10
11001.72939116718
 20
9775.658647062389
 30
0.0
 11
11056.72939116718
 21
9775.658647062389
 31
0.0
  0
INSERT
  5
19516
330
187D7
100
AcDbEntity
  8
寸法
 62
     0
 48
50.0
370
    -2
100
AcDbBlockReference
  2
_DOTSMALL
 10
11001.72939116718
 20
9775.658647062389
 30
0.0
 41
100.0
 42
100.0
 43
100.0
  0
INSERT
  5
19517
330
187D7
100
AcDbEntity
  8
寸法
 62
     0
 48
50.0
370
    -2
100
AcDbBlockReference
  2
_DOTSMALL
 10
11056.72939116718
 20
9775.658647062389
 30
0.0
 41
100.0
 42
100.0
 43
100.0
 50
180.0
  0
MTEXT
  5
19518
330
187D7
100
AcDbEntity
  8
寸法
 62
     7
 48
50.0
100
AcDbMText
 10
11365.21467254142
 20
9875.658647062389
 30
0.0
 40
120.0
 41
0.0
 71
     5
 72
     1
  1
\A1;55
  7
STYLE1
 73
     1
 44
1.0
1001
ACAD
1000
MTEXTBEGIN
1070
    73
1070
     1
1070
    44
1040
1.0
1070
    74
1070
     0
1000
MTEXTEND
  0
POINT
  5
19519
330
187D7
100
AcDbEntity
  8
DEFPOINTS
 62
     0
 48
50.0
100
AcDbPoint
 10
11001.72939116718
 20
9472.613052486805
 30
0.0
  0
POINT
  5
1951A
330
187D7
100
AcDbEntity
  8
DEFPOINTS
 62
     0
 48
50.0
100
AcDbPoint
 10
11056.72939116718
 20
9472.613052486805
 30
0.0
  0
POINT
  5
1951B
330
187D7
100
AcDbEntity
  8
DEFPOINTS
 62
     0
 48
50.0
100
AcDbPoint
 10
11056.72939116718
 20
9775.658647062389
 30
0.0
  0
ENDBLK
  5
187E4
330
187D7
100
AcDbEntity
  8
0
 48
50.0
100
AcDbBlockEnd
  0
BLOCK
  5
187F1
330
187E5
100
AcDbEntity
  8
0
 48
50.0
100
AcDbBlockBegin
  2
*D22
 70
     1
 10
0.0
 20
0.0
 30
0.0
  3
*D22
  1

  0
LINE
  5
19506
330
187E5
100
AcDbEntity
  8
寸法
 62
     0
 48
50.0
370
    -2
100
AcDbLine
 10
11076.72939116718
 20
9472.613052486805
 30
0.0
 11
11764.15573690159
 21
9472.613052486805
 31
0.0
  0
LINE
  5
19507
330
187E5
100
AcDbEntity
  8
寸法
 62
     0
 48
50.0
370
    -2
100
AcDbLine
 10
11076.72939116718
 20
9417.61305248681
 30
0.0
 11
11764.15573690159
 21
9417.61305248681
 31
0.0
  0
LINE
  5
19508
330
187E5
100
AcDbEntity
  8
寸法
 62
     0
 48
50.0
370
    -2
100
AcDbLine
 10
11704.15573690159
 20
9417.61305248681
 30
0.0
 11
11704.15573690159
 21
9317.613052486811
 31
0.0
  0
LINE
  5
19509
330
187E5
100
AcDbEntity
  8
寸法
 62
     0
 48
50.0
370
    -2
100
AcDbLine
 10
11704.15573690159
 20
9472.613052486805
 30
0.0
 11
11704.15573690159
 21
9889.583615235283
 31
0.0
  0
LINE
  5
1950A
330
187E5
100
AcDbEntity
  8
寸法
 62
     0
 48
50.0
370
    -2
100
AcDbLine
 10
11704.15573690159
 20
9417.61305248681
 30
0.0
 11
11704.15573690159
 21
9472.613052486805
 31
0.0
  0
INSERT
  5
1950B
330
187E5
100
AcDbEntity
  8
寸法
 62
     0
 48
50.0
370
    -2
100
AcDbBlockReference
  2
_DOTSMALL
 10
11704.15573690159
 20
9417.61305248681
 30
0.0
 41
100.0
 42
100.0
 43
100.0
 50
90.0
  0
INSERT
  5
1950C
330
187E5
100
AcDbEntity
  8
寸法
 62
     0
 48
50.0
370
    -2
100
AcDbBlockReference
  2
_DOTSMALL
 10
11704.15573690159
 20
9472.613052486805
 30
0.0
 41
100.0
 42
100.0
 43
100.0
 50
270.0
  0
MTEXT
  5
1950D
330
187E5
100
AcDbEntity
  8
寸法
 62
     7
 48
50.0
100
AcDbMText
 10
11604.15573690159
 20
9781.098333861045
 30
0.0
 40
120.0
 41
0.0
 71
     5
 72
     1
  1
\A1;55
  7
STYLE1
 11
0.0000000000000001
 21
1.0
 31
0.0
 73
     1
 44
1.0
1001
ACAD
1000
MTEXTBEGIN
1070
    73
1070
     1
1070
    44
1040
1.0
1070
    74
1070
     0
1000
MTEXTEND
  0
POINT
  5
1950E
330
187E5
100
AcDbEntity
  8
DEFPOINTS
 62
     0
 48
50.0
100
AcDbPoint
 10
11056.72939116718
 20
9472.613052486805
 30
0.0
  0
POINT
  5
1950F
330
187E5
100
AcDbEntity
  8
DEFPOINTS
 62
     0
 48
50.0
100
AcDbPoint
 10
11056.72939116718
 20
9417.61305248681
 30
0.0
  0
POINT
  5
19510
330
187E5
100
AcDbEntity
  8
DEFPOINTS
 62
     0
 48
50.0
100
AcDbPoint
 10
11704.15573690159
 20
9417.61305248681
 30
0.0
  0
ENDBLK
  5
187F2
330
187E5
100
AcDbEntity
  8
0
 48
50.0
100
AcDbBlockEnd
  0
BLOCK
  5
187FF
330
187F3
100
AcDbEntity
  8
0
 48
50.0
100
AcDbBlockBegin
  2
*D23
 70
     1
 10
0.0
 20
0.0
 30
0.0
  3
*D23
  1

  0
LINE
  5
194FB
330
187F3
100
AcDbEntity
  8
寸法
 62
     0
 48
50.0
370
    -2
100
AcDbLine
 10
8846.729391167148
 20
9492.613052486712
 30
0.0
 11
8846.729391167148
 21
9835.65864706229
 31
0.0
  0
LINE
  5
194FC
330
187F3
100
AcDbEntity
  8
寸法
 62
     0
 48
50.0
370
    -2
100
AcDbLine
 10
8901.729391167185
 20
9492.613052486712
 30
0.0
 11
8901.729391167185
 21
9835.65864706229
 31
0.0
  0
LINE
  5
194FD
330
187F3
100
AcDbEntity
  8
寸法
 62
     0
 48
50.0
370
    -2
100
AcDbLine
 10
8901.729391167185
 20
9775.658647062289
 30
0.0
 11
9001.729391167184
 21
9775.658647062289
 31
0.0
  0
LINE
  5
194FE
330
187F3
100
AcDbEntity
  8
寸法
 62
     0
 48
50.0
370
    -2
100
AcDbLine
 10
8846.729391167148
 20
9775.658647062289
 30
0.0
 11
8429.758828418671
 21
9775.658647062289
 31
0.0
  0
LINE
  5
194FF
330
187F3
100
AcDbEntity
  8
寸法
 62
     0
 48
50.0
370
    -2
100
AcDbLine
 10
8901.729391167185
 20
9775.658647062289
 30
0.0
 11
8846.729391167148
 21
9775.658647062289
 31
0.0
  0
INSERT
  5
19500
330
187F3
100
AcDbEntity
  8
寸法
 62
     0
 48
50.0
370
    -2
100
AcDbBlockReference
  2
_DOTSMALL
 10
8901.729391167185
 20
9775.658647062289
 30
0.0
 41
100.0
 42
100.0
 43
100.0
 50
180.0
  0
INSERT
  5
19501
330
187F3
100
AcDbEntity
  8
寸法
 62
     0
 48
50.0
370
    -2
100
AcDbBlockReference
  2
_DOTSMALL
 10
8846.729391167148
 20
9775.658647062289
 30
0.0
 41
100.0
 42
100.0
 43
100.0
  0
MTEXT
  5
19502
330
187F3
100
AcDbEntity
  8
寸法
 62
     7
 48
50.0
100
AcDbMText
 10
8538.244109792911
 20
9875.658647062289
 30
0.0
 40
120.0
 41
0.0
 71
     5
 72
     1
  1
\A1;55
  7
STYLE1
 73
     1
 44
1.0
1001
ACAD
1000
MTEXTBEGIN
1070
    73
1070
     1
1070
    44
1040
1.0
1070
    74
1070
     0
1000
MTEXTEND
  0
POINT
  5
19503
330
187F3
100
AcDbEntity
  8
DEFPOINTS
 62
     0
 48
50.0
100
AcDbPoint
 10
8846.729391167148
 20
9472.613052486712
 30
0.0
  0
POINT
  5
19504
330
187F3
100
AcDbEntity
  8
DEFPOINTS
 62
     0
 48
50.0
100
AcDbPoint
 10
8901.729391167185
 20
9472.613052486712
 30
0.0
  0
POINT
  5
19505
330
187F3
100
AcDbEntity
  8
DEFPOINTS
 62
     0
 48
50.0
100
AcDbPoint
 10
8901.729391167185
 20
9775.658647062289
 30
0.0
  0
ENDBLK
  5
18800
330
187F3
100
AcDbEntity
  8
0
 48
50.0
100
AcDbBlockEnd
  0
BLOCK
  5
1880B
330
18801
100
AcDbEntity
  8
0
 48
50.0
100
AcDbBlockBegin
  2
*D24
 70
     1
 10
0.0
 20
0.0
 30
0.0
  3
*D24
  1

  0
LINE
  5
194F2
330
18801
100
AcDbEntity
  8
寸法
 62
     0
 48
50.0
370
    -2
100
AcDbLine
 10
8869.870407318563
 20
8972.613052486712
 30
0.0
 11
8780.583666064913
 21
8639.390397685842
 31
0.0
  0
LINE
  5
194F3
330
18801
100
AcDbEntity
  8
寸法
 62
     0
 48
50.0
370
    -2
100
AcDbLine
 10
10142.87040731857
 20
8972.613052486705
 30
0.0
 11
10053.58366606492
 21
8639.390397685842
 31
0.0
  0
LINE
  5
194F4
330
18801
100
AcDbEntity
  8
寸法
 62
     0
 48
50.0
370
    -2
100
AcDbLine
 10
8796.660617610781
 20
8699.390397685842
 30
0.0
 11
10069.66061761079
 21
8699.390397685842
 31
0.0
  0
INSERT
  5
194F5
330
18801
100
AcDbEntity
  8
寸法
 62
     0
 48
50.0
370
    -2
100
AcDbBlockReference
  2
_DOTSMALL
 10
8796.660617610781
 20
8699.390397685842
 30
0.0
 41
100.0
 42
100.0
 43
100.0
 50
180.0
  0
INSERT
  5
194F6
330
18801
100
AcDbEntity
  8
寸法
 62
     0
 48
50.0
370
    -2
100
AcDbBlockReference
  2
_DOTSMALL
 10
10069.66061761079
 20
8699.390397685842
 30
0.0
 41
100.0
 42
100.0
 43
100.0
  0
MTEXT
  5
194F7
330
18801
100
AcDbEntity
  8
寸法
 62
     7
 48
50.0
100
AcDbMText
 10
9410.806167743565
 20
8799.402208709464
 30
0.0
 40
120.0
 41
0.0
 71
     5
 72
     1
  1
\A1;1273
  7
STYLE1
 73
     1
 44
1.0
1001
ACAD
1000
MTEXTBEGIN
1070
    73
1070
     1
1070
    44
1040
1.0
1070
    74
1070
     0
1000
MTEXTEND
  0
POINT
  5
194F8
330
18801
100
AcDbEntity
  8
DEFPOINTS
 62
     0
 48
50.0
100
AcDbPoint
 10
8875.229391167184
 20
8992.613052486712
 30
0.0
  0
POINT
  5
194F9
330
18801
100
AcDbEntity
  8
DEFPOINTS
 62
     0
 48
50.0
100
AcDbPoint
 10
10148.22939116719
 20
8992.613052486705
 30
0.0
  0
POINT
  5
194FA
330
18801
100
AcDbEntity
  8
DEFPOINTS
 62
     0
 48
50.0
100
AcDbPoint
 10
10069.66061761079
 20
8699.390397685842
 30
0.0
  0
ENDBLK
  5
1880C
330
18801
100
AcDbEntity
  8
0
 48
50.0
100
AcDbBlockEnd
  0
BLOCK
  5
18825
330
18819
100
AcDbEntity
  8
0
 48
50.0
100
AcDbBlockBegin
  2
*D25
 70
     1
 10
0.0
 20
0.0
 30
0.0
  3
*D25
  1

  0
LINE
  5
194E7
330
18819
100
AcDbEntity
  8
寸法
 62
     0
 48
50.0
370
    -2
100
AcDbLine
 10
11076.72939116716
 20
8157.613052486793
 30
0.0
 11
11764.15573690157
 21
8157.613052486793
 31
0.0
  0
LINE
  5
194E8
330
18819
100
AcDbEntity
  8
寸法
 62
     0
 48
50.0
370
    -2
100
AcDbLine
 10
11076.72939116716
 20
8102.613052486798
 30
0.0
 11
11764.15573690157
 21
8102.613052486798
 31
0.0
  0
LINE
  5
194E9
330
18819
100
AcDbEntity
  8
寸法
 62
     0
 48
50.0
370
    -2
100
AcDbLine
 10
11704.15573690157
 20
8157.613052486793
 30
0.0
 11
11704.15573690157
 21
8257.613052486794
 31
0.0
  0
LINE
  5
194EA
330
18819
100
AcDbEntity
  8
寸法
 62
     0
 48
50.0
370
    -2
100
AcDbLine
 10
11704.15573690157
 20
8102.613052486798
 30
0.0
 11
11704.15573690157
 21
7616.266304207695
 31
0.0
  0
LINE
  5
194EB
330
18819
100
AcDbEntity
  8
寸法
 62
     0
 48
50.0
370
    -2
100
AcDbLine
 10
11704.15573690157
 20
8157.613052486793
 30
0.0
 11
11704.15573690157
 21
8102.613052486798
 31
0.0
  0
INSERT
  5
194EC
330
18819
100
AcDbEntity
  8
寸法
 62
     0
 48
50.0
370
    -2
100
AcDbBlockReference
  2
_DOTSMALL
 10
11704.15573690157
 20
8157.613052486793
 30
0.0
 41
100.0
 42
100.0
 43
100.0
 50
270.0
  0
INSERT
  5
194ED
330
18819
100
AcDbEntity
  8
寸法
 62
     0
 48
50.0
370
    -2
100
AcDbBlockReference
  2
_DOTSMALL
 10
11704.15573690157
 20
8102.613052486798
 30
0.0
 41
100.0
 42
100.0
 43
100.0
 50
90.0
  0
MTEXT
  5
194EE
330
18819
100
AcDbEntity
  8
寸法
 62
     7
 48
50.0
100
AcDbMText
 10
11604.15573690157
 20
7724.751585581937
 30
0.0
 40
120.0
 41
0.0
 71
     5
 72
     1
  1
\A1;55
  7
STYLE1
 11
0.0000000000000001
 21
1.0
 31
0.0
 73
     1
 44
1.0
1001
ACAD
1000
MTEXTBEGIN
1070
    73
1070
     1
1070
    44
1040
1.0
1070
    74
1070
     0
1000
MTEXTEND
  0
POINT
  5
194EF
330
18819
100
AcDbEntity
  8
DEFPOINTS
 62
     0
 48
50.0
100
AcDbPoint
 10
11056.72939116716
 20
8157.613052486793
 30
0.0
  0
POINT
  5
194F0
330
18819
100
AcDbEntity
  8
DEFPOINTS
 62
     0
 48
50.0
100
AcDbPoint
 10
11056.72939116716
 20
8102.613052486798
 30
0.0
  0
POINT
  5
194F1
330
18819
100
AcDbEntity
  8
DEFPOINTS
 62
     0
 48
50.0
100
AcDbPoint
 10
11704.15573690157
 20
8102.613052486798
 30
0.0
  0
ENDBLK
  5
18826
330
18819
100
AcDbEntity
  8
0
 48
50.0
100
AcDbBlockEnd
  0
BLOCK
  5
18831
330
18827
100
AcDbEntity
  8
0
 48
50.0
100
AcDbBlockBegin
  2
*D26
 70
     1
 10
0.0
 20
0.0
 30
0.0
  3
*D26
  1

  0
LINE
  5
194DE
330
18827
100
AcDbEntity
  8
寸法
 62
     0
 48
50.0
370
    -2
100
AcDbLine
 10
10169.87040731856
 20
8972.613052486817
 30
0.0
 11
10080.58366606488
 21
8639.390397685842
 31
0.0
  0
LINE
  5
194DF
330
18827
100
AcDbEntity
  8
寸法
 62
     0
 48
50.0
370
    -2
100
AcDbLine
 10
11022.87040731857
 20
8972.61305248681
 30
0.0
 11
10933.5836660649
 21
8639.390397685842
 31
0.0
  0
LINE
  5
194E0
330
18827
100
AcDbEntity
  8
寸法
 62
     0
 48
50.0
370
    -2
100
AcDbLine
 10
10096.66061761075
 20
8699.390397685842
 30
0.0
 11
10949.66061761076
 21
8699.390397685842
 31
0.0
  0
INSERT
  5
194E1
330
18827
100
AcDbEntity
  8
寸法
 62
     0
 48
50.0
370
    -2
100
AcDbBlockReference
  2
_DOTSMALL
 10
10096.66061761075
 20
8699.390397685842
 30
0.0
 41
100.0
 42
100.0
 43
100.0
 50
180.0
  0
INSERT
  5
194E2
330
18827
100
AcDbEntity
  8
寸法
 62
     0
 48
50.0
370
    -2
100
AcDbBlockReference
  2
_DOTSMALL
 10
10949.66061761076
 20
8699.390397685842
 30
0.0
 41
100.0
 42
100.0
 43
100.0
  0
MTEXT
  5
194E3
330
18827
100
AcDbEntity
  8
寸法
 62
     7
 48
50.0
100
AcDbMText
 10
10554.57645328545
 20
8799.390397685842
 30
0.0
 40
120.0
 41
0.0
 71
     5
 72
     1
  1
\A1;853
  7
STYLE1
 73
     1
 44
1.0
1001
ACAD
1000
MTEXTBEGIN
1070
    73
1070
     1
1070
    44
1040
1.0
1070
    74
1070
     0
1000
MTEXTEND
  0
POINT
  5
194E4
330
18827
100
AcDbEntity
  8
DEFPOINTS
 62
     0
 48
50.0
100
AcDbPoint
 10
10175.22939116718
 20
8992.613052486817
 30
0.0
  0
POINT
  5
194E5
330
18827
100
AcDbEntity
  8
DEFPOINTS
 62
     0
 48
50.0
100
AcDbPoint
 10
11028.22939116719
 20
8992.613052486809
 30
0.0
  0
POINT
  5
194E6
330
18827
100
AcDbEntity
  8
DEFPOINTS
 62
     0
 48
50.0
100
AcDbPoint
 10
10949.66061761076
 20
8699.390397685842
 30
0.0
  0
ENDBLK
  5
18832
330
18827
100
AcDbEntity
  8
0
 48
50.0
100
AcDbBlockEnd
  0
BLOCK
  5
1883D
330
18833
100
AcDbEntity
  8
0
 48
50.0
100
AcDbBlockBegin
  2
*D27
 70
     1
 10
0.0
 20
0.0
 30
0.0
  3
*D27
  1

  0
LINE
  5
194D5
330
18833
100
AcDbEntity
  8
寸法
 62
     0
 48
50.0
370
    -2
100
AcDbLine
 10
11048.22939116718
 20
9437.254068638184
 30
0.0
 11
11443.58711702921
 21
9331.318285272049
 31
0.0
  0
LINE
  5
194D6
330
18833
100
AcDbEntity
  8
寸法
 62
     0
 48
50.0
370
    -2
100
AcDbLine
 10
11048.22939116718
 20
8987.254068638186
 30
0.0
 11
11443.58711702921
 21
8881.318285272053
 31
0.0
  0
LINE
  5
194D7
330
18833
100
AcDbEntity
  8
寸法
 62
     0
 48
50.0
370
    -2
100
AcDbLine
 10
11383.58711702921
 20
9347.395236817916
 30
0.0
 11
11383.58711702921
 21
8897.395236817919
 31
0.0
  0
INSERT
  5
194D8
330
18833
100
AcDbEntity
  8
寸法
 62
     0
 48
50.0
370
    -2
100
AcDbBlockReference
  2
_DOTSMALL
 10
11383.58711702921
 20
9347.395236817916
 30
0.0
 41
100.0
 42
100.0
 43
100.0
 50
90.0
  0
INSERT
  5
194D9
330
18833
100
AcDbEntity
  8
寸法
 62
     0
 48
50.0
370
    -2
100
AcDbBlockReference
  2
_DOTSMALL
 10
11383.58711702921
 20
8897.395236817919
 30
0.0
 41
100.0
 42
100.0
 43
100.0
 50
270.0
  0
MTEXT
  5
194DA
330
18833
100
AcDbEntity
  8
寸法
 62
     7
 48
50.0
100
AcDbMText
 10
11283.58711702921
 20
9122.39523681792
 30
0.0
 40
120.0
 41
0.0
 71
     5
 72
     1
  1
\A1;450
  7
STYLE1
 11
0.0000000000000001
 21
1.0
 31
0.0
 73
     1
 44
1.0
1001
ACAD
1000
MTEXTBEGIN
1070
    73
1070
     1
1070
    44
1040
1.0
1070
    74
1070
     0
1000
MTEXTEND
  0
POINT
  5
194DB
330
18833
100
AcDbEntity
  8
DEFPOINTS
 62
     0
 48
50.0
100
AcDbPoint
 10
11028.22939116718
 20
9442.613052486805
 30
0.0
  0
POINT
  5
194DC
330
18833
100
AcDbEntity
  8
DEFPOINTS
 62
     0
 48
50.0
100
AcDbPoint
 10
11028.22939116718
 20
8992.613052486809
 30
0.0
  0
POINT
  5
194DD
330
18833
100
AcDbEntity
  8
DEFPOINTS
 62
     0
 48
50.0
100
AcDbPoint
 10
11383.58711702921
 20
8897.395236817919
 30
0.0
  0
ENDBLK
  5
1883E
330
18833
100
AcDbEntity
  8
0
 48
50.0
100
AcDbBlockEnd
  0
BLOCK
  5
18849
330
1883F
100
AcDbEntity
  8
0
 48
50.0
100
AcDbBlockBegin
  2
*D28
 70
     1
 10
0.0
 20
0.0
 30
0.0
  3
*D28
  1

  0
LINE
  5
194CC
330
1883F
100
AcDbEntity
  8
寸法
 62
     0
 48
50.0
370
    -2
100
AcDbLine
 10
11076.72939116718
 20
9417.61305248681
 30
0.0
 11
11764.15573690159
 21
9417.61305248681
 31
0.0
  0
LINE
  5
194CD
330
1883F
100
AcDbEntity
  8
寸法
 62
     0
 48
50.0
370
    -2
100
AcDbLine
 10
11076.72939116716
 20
8157.613052486793
 30
0.0
 11
11764.15573690159
 21
8157.613052486793
 31
0.0
  0
LINE
  5
194CE
330
1883F
100
AcDbEntity
  8
寸法
 62
     0
 48
50.0
370
    -2
100
AcDbLine
 10
11704.15573690159
 20
9417.61305248681
 30
0.0
 11
11704.15573690159
 21
8157.613052486793
 31
0.0
  0
INSERT
  5
194CF
330
1883F
100
AcDbEntity
  8
寸法
 62
     0
 48
50.0
370
    -2
100
AcDbBlockReference
  2
_DOTSMALL
 10
11704.15573690159
 20
9417.61305248681
 30
0.0
 41
100.0
 42
100.0
 43
100.0
 50
90.0
  0
INSERT
  5
194D0
330
1883F
100
AcDbEntity
  8
寸法
 62
     0
 48
50.0
370
    -2
100
AcDbBlockReference
  2
_DOTSMALL
 10
11704.15573690159
 20
8157.613052486793
 30
0.0
 41
100.0
 42
100.0
 43
100.0
 50
270.0
  0
MTEXT
  5
194D1
330
1883F
100
AcDbEntity
  8
寸法
 62
     7
 48
50.0
100
AcDbMText
 10
11604.14392587797
 20
8787.613052486802
 30
0.0
 40
120.0
 41
0.0
 71
     5
 72
     1
  1
\A1;3X420=1260
  7
STYLE1
 11
0.0000000000000001
 21
1.0
 31
0.0
 73
     1
 44
1.0
1001
ACAD
1000
MTEXTBEGIN
1070
    73
1070
     1
1070
    44
1040
1.0
1070
    74
1070
     0
1000
MTEXTEND
  0
POINT
  5
194D2
330
1883F
100
AcDbEntity
  8
DEFPOINTS
 62
     0
 48
50.0
100
AcDbPoint
 10
11056.72939116718
 20
9417.61305248681
 30
0.0
  0
POINT
  5
194D3
330
1883F
100
AcDbEntity
  8
DEFPOINTS
 62
     0
 48
50.0
100
AcDbPoint
 10
11056.72939116716
 20
8157.613052486793
 30
0.0
  0
POINT
  5
194D4
330
1883F
100
AcDbEntity
  8
DEFPOINTS
 62
     0
 48
50.0
100
AcDbPoint
 10
11704.15573690159
 20
8157.613052486793
 30
0.0
  0
ENDBLK
  5
1884A
330
1883F
100
AcDbEntity
  8
0
 48
50.0
100
AcDbBlockEnd
  0
BLOCK
  5
18855
330
1884B
100
AcDbEntity
  8
0
 48
50.0
100
AcDbBlockBegin
  2
*D29
 70
     1
 10
0.0
 20
0.0
 30
0.0
  3
*D29
  1

  0
LINE
  5
18D62
330
1884B
100
AcDbEntity
  8
寸法
 62
     0
 48
50.0
370
    -2
100
AcDbLine
 10
8854.729391167177
 20
4711.010354820206
 30
0.0
 11
8493.504584696164
 21
4711.010354820206
 31
0.0
  0
LINE
  5
18D63
330
1884B
100
AcDbEntity
  8
寸法
 62
     0
 48
50.0
370
    -2
100
AcDbLine
 10
8854.729391167177
 20
2686.010354820205
 30
0.0
 11
8493.504584696163
 21
2686.010354820205
 31
0.0
  0
LINE
  5
18D64
330
1884B
100
AcDbEntity
  8
寸法
 62
     0
 48
50.0
370
    -2
100
AcDbLine
 10
8553.504584696163
 20
4711.010354820206
 30
0.0
 11
8553.504584696161
 21
2686.010354820205
 31
0.0
  0
INSERT
  5
18D65
330
1884B
100
AcDbEntity
  8
寸法
 62
     0
 48
50.0
370
    -2
100
AcDbBlockReference
  2
_DOTSMALL
 10
8553.504584696163
 20
4711.010354820206
 30
0.0
 41
100.0
 42
100.0
 43
100.0
 50
90.0
  0
INSERT
  5
18D66
330
1884B
100
AcDbEntity
  8
寸法
 62
     0
 48
50.0
370
    -2
100
AcDbBlockReference
  2
_DOTSMALL
 10
8553.504584696161
 20
2686.010354820205
 30
0.0
 41
100.0
 42
100.0
 43
100.0
 50
270.0
  0
MTEXT
  5
18D67
330
1884B
100
AcDbEntity
  8
寸法
 62
     7
 48
50.0
100
AcDbMText
 10
8453.492773672541
 20
3698.510354820206
 30
0.0
 40
120.0
 41
0.0
 71
     5
 72
     1
  1
\A1;有効開口部高サ2025
  7
STYLE1
 11
0.0000000000000001
 21
1.0
 31
0.0
 73
     1
 44
1.0
1001
ACAD
1000
MTEXTBEGIN
1070
    73
1070
     1
1070
    44
1040
1.0
1070
    74
1070
     0
1000
MTEXTEND
  0
POINT
  5
18D68
330
1884B
100
AcDbEntity
  8
DEFPOINTS
 62
     0
 48
50.0
100
AcDbPoint
 10
8874.729391167177
 20
4711.010354820206
 30
0.0
  0
POINT
  5
18D69
330
1884B
100
AcDbEntity
  8
DEFPOINTS
 62
     0
 48
50.0
100
AcDbPoint
 10
8874.729391167177
 20
2686.010354820205
 30
0.0
  0
POINT
  5
18D6A
330
1884B
100
AcDbEntity
  8
DEFPOINTS
 62
     0
 48
50.0
100
AcDbPoint
 10
8553.504584696161
 20
2686.010354820205
 30
0.0
  0
ENDBLK
  5
18856
330
1884B
100
AcDbEntity
  8
0
 48
50.0
100
AcDbBlockEnd
  0
BLOCK
  5
1902A
330
19020
100
AcDbEntity
  8
0
 48
50.0
100
AcDbBlockBegin
  2
*D30
 70
     1
 10
0.0
 20
0.0
 30
0.0
  3
*D30
  1

  0
LINE
  5
194C3
330
19020
100
AcDbEntity
  8
寸法
 62
     0
 48
50.0
370
    -2
100
AcDbLine
 10
8913.729391167127
 20
8005.613052486639
 30
0.0
 11
8913.729391167127
 21
7337.317120658766
 31
0.0
  0
LINE
  5
194C4
330
19020
100
AcDbEntity
  8
寸法
 62
     0
 48
50.0
370
    -2
100
AcDbLine
 10
10179.72939116712
 20
8005.613052486639
 30
0.0
 11
10179.72939116712
 21
7337.317120658766
 31
0.0
  0
LINE
  5
194C5
330
19020
100
AcDbEntity
  8
寸法
 62
     0
 48
50.0
370
    -2
100
AcDbLine
 10
8933.729391167126
 20
7377.317120658765
 30
0.0
 11
10159.72939116712
 21
7377.317120658765
 31
0.0
  0
INSERT
  5
194C6
330
19020
100
AcDbEntity
  8
寸法
 62
     0
 48
50.0
370
    -2
100
AcDbBlockReference
  2
_DOT
 10
8913.729391167127
 20
7377.317120658765
 30
0.0
 41
20.0
 42
20.0
 43
20.0
 50
180.0
  0
INSERT
  5
194C7
330
19020
100
AcDbEntity
  8
寸法
 62
     0
 48
50.0
370
    -2
100
AcDbBlockReference
  2
_DOT
 10
10179.72939116712
 20
7377.317120658765
 30
0.0
 41
20.0
 42
20.0
 43
20.0
  0
MTEXT
  5
194C8
330
19020
100
AcDbEntity
  8
寸法
 62
     7
 48
50.0
100
AcDbMText
 10
9573.852033841673
 20
7569.328931682386
 30
0.0
 40
120.0
 41
0.0
 71
     5
 72
     1
  1
\A1;有効開口部間口\P1266
  7
STYLE1
 73
     1
 44
1.0
1001
ACAD
1000
MTEXTBEGIN
1070
    73
1070
     1
1070
    44
1040
1.0
1070
    74
1070
     0
1000
MTEXTEND
  0
POINT
  5
194C9
330
19020
100
AcDbEntity
  8
DEFPOINTS
 62
     0
 48
50.0
100
AcDbPoint
 10
8913.729391167127
 20
8025.613052486638
 30
0.0
  0
POINT
  5
194CA
330
19020
100
AcDbEntity
  8
DEFPOINTS
 62
     0
 48
50.0
100
AcDbPoint
 10
10179.72939116712
 20
8025.613052486638
 30
0.0
  0
POINT
  5
194CB
330
19020
100
AcDbEntity
  8
DEFPOINTS
 62
     0
 48
50.0
100
AcDbPoint
 10
10179.72939116712
 20
7377.317120658765
 30
0.0
  0
ENDBLK
  5
1902B
330
19020
100
AcDbEntity
  8
0
 48
50.0
100
AcDbBlockEnd
  0
BLOCK
  5
19359
330
1934F
100
AcDbEntity
  8
0
 48
50.0
100
AcDbBlockBegin
  2
*D31
 70
     1
 10
0.0
 20
0.0
 30
0.0
  3
*D31
  1

  0
LINE
  5
194BA
330
1934F
100
AcDbEntity
  8
寸法
 62
     0
 48
50.0
370
    -2
100
AcDbLine
 10
8874.729391167159
 20
8005.613052486681
 30
0.0
 11
8874.729391167159
 21
7045.483337058915
 31
0.0
  0
LINE
  5
194BB
330
1934F
100
AcDbEntity
  8
寸法
 62
     0
 48
50.0
370
    -2
100
AcDbLine
 10
11028.72939116716
 20
8005.613052486681
 30
0.0
 11
11028.72939116716
 21
7045.483337058915
 31
0.0
  0
LINE
  5
194BC
330
1934F
100
AcDbEntity
  8
寸法
 62
     0
 48
50.0
370
    -2
100
AcDbLine
 10
8874.729391167159
 20
7105.483337058915
 30
0.0
 11
11028.72939116716
 21
7105.483337058915
 31
0.0
  0
INSERT
  5
194BD
330
1934F
100
AcDbEntity
  8
寸法
 62
     0
 48
50.0
370
    -2
100
AcDbBlockReference
  2
_DOTSMALL
 10
8874.729391167159
 20
7105.483337058915
 30
0.0
 41
100.0
 42
100.0
 43
100.0
 50
180.0
  0
INSERT
  5
194BE
330
1934F
100
AcDbEntity
  8
寸法
 62
     0
 48
50.0
370
    -2
100
AcDbBlockReference
  2
_DOTSMALL
 10
11028.72939116716
 20
7105.483337058915
 30
0.0
 41
100.0
 42
100.0
 43
100.0
  0
MTEXT
  5
194BF
330
1934F
100
AcDbEntity
  8
寸法
 62
     7
 48
50.0
100
AcDbMText
 10
9973.862147914472
 20
7205.495148082537
 30
0.0
 40
120.0
 41
0.0
 71
     5
 72
     1
  1
\A1;2154
  7
STYLE1
 73
     1
 44
1.0
1001
ACAD
1000
MTEXTBEGIN
1070
    73
1070
     1
1070
    44
1040
1.0
1070
    74
1070
     0
1000
MTEXTEND
  0
POINT
  5
194C0
330
1934F
100
AcDbEntity
  8
DEFPOINTS
 62
     0
 48
50.0
100
AcDbPoint
 10
8874.729391167159
 20
8025.613052486681
 30
0.0
  0
POINT
  5
194C1
330
1934F
100
AcDbEntity
  8
DEFPOINTS
 62
     0
 48
50.0
100
AcDbPoint
 10
11028.72939116716
 20
8025.613052486681
 30
0.0
  0
POINT
  5
194C2
330
1934F
100
AcDbEntity
  8
DEFPOINTS
 62
     0
 48
50.0
100
AcDbPoint
 10
11028.72939116716
 20
7105.483337058915
 30
0.0
  0
ENDBLK
  5
1935A
330
1934F
100
AcDbEntity
  8
0
 48
50.0
100
AcDbBlockEnd
  0
BLOCK
  5
19367
330
1935B
100
AcDbEntity
  8
0
 48
50.0
100
AcDbBlockBegin
  2
*D32
 70
     1
 10
0.0
 20
0.0
 30
0.0
  3
*D32
  1

  0
LINE
  5
194AF
330
1935B
100
AcDbEntity
  8
寸法
 62
     0
 48
50.0
370
    -2
100
AcDbLine
 10
8826.729391167177
 20
8102.613052486736
 30
0.0
 11
8512.11814554046
 21
8102.613052486736
 31
0.0
  0
LINE
  5
194B0
330
1935B
100
AcDbEntity
  8
寸法
 62
     0
 48
50.0
370
    -2
100
AcDbLine
 10
8854.729391167159
 20
8027.613052486737
 30
0.0
 11
8512.11814554046
 21
8027.613052486737
 31
0.0
  0
LINE
  5
194B1
330
1935B
100
AcDbEntity
  8
寸法
 62
     0
 48
50.0
370
    -2
100
AcDbLine
 10
8552.118145540459
 20
8122.613052486737
 30
0.0
 11
8552.118145540459
 21
8142.613052486737
 31
0.0
  0
LINE
  5
194B2
330
1935B
100
AcDbEntity
  8
寸法
 62
     0
 48
50.0
370
    -2
100
AcDbLine
 10
8552.118145540459
 20
8007.613052486737
 30
0.0
 11
8552.118145540459
 21
7786.642489738259
 31
0.0
  0
LINE
  5
194B3
330
1935B
100
AcDbEntity
  8
寸法
 62
     0
 48
50.0
370
    -2
100
AcDbLine
 10
8552.118145540459
 20
8102.613052486736
 30
0.0
 11
8552.118145540459
 21
8027.613052486737
 31
0.0
  0
INSERT
  5
194B4
330
1935B
100
AcDbEntity
  8
寸法
 62
     0
 48
50.0
370
    -2
100
AcDbBlockReference
  2
_DOT
 10
8552.118145540459
 20
8102.613052486736
 30
0.0
 41
20.0
 42
20.0
 43
20.0
 50
270.0
  0
INSERT
  5
194B5
330
1935B
100
AcDbEntity
  8
寸法
 62
     0
 48
50.0
370
    -2
100
AcDbBlockReference
  2
_DOT
 10
8552.118145540459
 20
8027.613052486737
 30
0.0
 41
20.0
 42
20.0
 43
20.0
 50
90.0
  0
MTEXT
  5
194B6
330
1935B
100
AcDbEntity
  8
寸法
 62
     7
 48
50.0
100
AcDbMText
 10
8460.118145540459
 20
7887.127771112499
 30
0.0
 40
120.0
 41
0.0
 71
     5
 72
     1
  1
\A1;75
  7
STYLE1
 11
0.0000000000000001
 21
1.0
 31
0.0
 73
     1
 44
1.0
1001
ACAD
1000
MTEXTBEGIN
1070
    73
1070
     1
1070
    44
1040
1.0
1070
    74
1070
     0
1000
MTEXTEND
  0
POINT
  5
194B7
330
1935B
100
AcDbEntity
  8
DEFPOINTS
 62
     0
 48
50.0
100
AcDbPoint
 10
8846.729391167178
 20
8102.613052486736
 30
0.0
  0
POINT
  5
194B8
330
1935B
100
AcDbEntity
  8
DEFPOINTS
 62
     0
 48
50.0
100
AcDbPoint
 10
8874.729391167159
 20
8027.613052486737
 30
0.0
  0
POINT
  5
194B9
330
1935B
100
AcDbEntity
  8
DEFPOINTS
 62
     0
 48
50.0
100
AcDbPoint
 10
8552.118145540459
 20
8027.613052486737
 30
0.0
  0
ENDBLK
  5
19368
330
1935B
100
AcDbEntity
  8
0
 48
50.0
100
AcDbBlockEnd
  0
BLOCK
  5
193CD
330
193C3
100
AcDbEntity
  8
0
 48
50.0
100
AcDbBlockBegin
  2
*D33
 70
     1
 10
0.0
 20
0.0
 30
0.0
  3
*D33
  1

  0
LINE
  5
194A6
330
193C3
100
AcDbEntity
  8
寸法
 62
     0
 48
50.0
370
    -2
100
AcDbLine
 10
8846.729391167178
 20
8082.613052486671
 30
0.0
 11
8846.729391167178
 21
6779.101822713591
 31
0.0
  0
LINE
  5
194A7
330
193C3
100
AcDbEntity
  8
寸法
 62
     0
 48
50.0
370
    -2
100
AcDbLine
 10
11056.72939116716
 20
8082.613052486799
 30
0.0
 11
11056.72939116716
 21
6779.101822713591
 31
0.0
  0
LINE
  5
194A8
330
193C3
100
AcDbEntity
  8
寸法
 62
     0
 48
50.0
370
    -2
100
AcDbLine
 10
8846.729391167178
 20
6839.10182271359
 30
0.0
 11
11056.72939116716
 21
6839.10182271359
 31
0.0
  0
INSERT
  5
194A9
330
193C3
100
AcDbEntity
  8
寸法
 62
     0
 48
50.0
370
    -2
100
AcDbBlockReference
  2
_DOTSMALL
 10
8846.729391167178
 20
6839.10182271359
 30
0.0
 41
100.0
 42
100.0
 43
100.0
 50
180.0
  0
INSERT
  5
194AA
330
193C3
100
AcDbEntity
  8
寸法
 62
     0
 48
50.0
370
    -2
100
AcDbBlockReference
  2
_DOTSMALL
 10
11056.72939116716
 20
6839.10182271359
 30
0.0
 41
100.0
 42
100.0
 43
100.0
  0
MTEXT
  5
194AB
330
193C3
100
AcDbEntity
  8
寸法
 62
     7
 48
50.0
100
AcDbMText
 10
9973.862147914472
 20
6939.113633737211
 30
0.0
 40
120.0
 41
0.0
 71
     5
 72
     1
  1
\A1;2210
  7
STYLE1
 73
     1
 44
1.0
1001
ACAD
1000
MTEXTBEGIN
1070
    73
1070
     1
1070
    44
1040
1.0
1070
    74
1070
     0
1000
MTEXTEND
  0
POINT
  5
194AC
330
193C3
100
AcDbEntity
  8
DEFPOINTS
 62
     0
 48
50.0
100
AcDbPoint
 10
8846.729391167178
 20
8102.613052486672
 30
0.0
  0
POINT
  5
194AD
330
193C3
100
AcDbEntity
  8
DEFPOINTS
 62
     0
 48
50.0
100
AcDbPoint
 10
11056.72939116716
 20
8102.613052486798
 30
0.0
  0
POINT
  5
194AE
330
193C3
100
AcDbEntity
  8
DEFPOINTS
 62
     0
 48
50.0
100
AcDbPoint
 10
11056.72939116716
 20
6839.10182271359
 30
0.0
  0
ENDBLK
  5
193CE
330
193C3
100
AcDbEntity
  8
0
 48
50.0
100
AcDbBlockEnd
  0
ENDSEC
  0
SECTION
  2
ENTITIES
  0
LINE
  5
10B57
330
747D
100
AcDbEntity
  8
補助
  6
PHANTOM
 62
   230
 48
50.0
100
AcDbLine
 10
139.9999999999995
 20
11409.6
 30
0.0
 11
16307.2
 21
11409.6
 31
0.0
  0
LINE
  5
10B59
330
747D
100
AcDbEntity
  8
仕様書枠
  6
Continuous
 48
50.0
100
AcDbLine
 10
13107.2
 20
1200.0
 30
0.0
 11
13107.2
 21
-0.0000000000000729
 31
0.0
  0
LINE
  5
10B5C
330
747D
100
AcDbEntity
  8
仕様書枠
 48
50.0
100
AcDbLine
 10
16307.2
 20
1200.0
 30
0.0
 11
16307.2
 21
-0.0000000000000909
 31
0.0
  0
LINE
  5
10B5D
330
747D
100
AcDbEntity
  8
仕様書枠
 48
50.0
100
AcDbLine
 10
140.0
 20
0.0
 30
0.0
 11
16307.2
 21
-0.0000000000000909
 31
0.0
  0
LINE
  5
10B5E
330
747D
100
AcDbEntity
  8
補助
  6
PHANTOM
 62
   230
 48
50.0
100
AcDbLine
 10
16307.2
 20
11409.6
 30
0.0
 11
16307.2
 21
1200.0
 31
0.0
  0
LINE
  5
10B6C
330
747D
100
AcDbEntity
  8
仕様書枠
 48
50.0
100
AcDbLine
 10
13107.2
 20
1200.0
 30
0.0
 11
16307.2
 21
1200.0
 31
0.0
  0
LINE
  5
10B6D
330
747D
100
AcDbEntity
  8
補助
  6
PHANTOM
 62
   230
 48
50.0
100
AcDbLine
 10
13107.2
 20
11409.6
 30
0.0
 11
13107.2
 21
4800.0
 31
0.0
  0
LINE
  5
10B6F
330
747D
100
AcDbEntity
  8
補助
  6
PHANTOM
 62
   230
 48
50.0
100
AcDbLine
 10
13107.2
 20
4800.0
 30
0.0
 11
16307.2
 21
4800.0
 31
0.0
  0
LINE
  5
10B72
330
747D
100
AcDbEntity
  8
文字
 62
     7
 48
50.0
100
AcDbLine
 10
13187.2
 20
400.0
 30
0.0
 11
16227.2
 21
400.0
 31
0.0
  0
TEXT
  5
10B73
330
747D
100
AcDbEntity
  8
文字
 62
     7
 48
50.0
100
AcDbText
 10
13162.9790565769
 20
895.0906074299405
 30
0.0
 40
200.0
  1
外 形 図
  7
STYLE2
100
AcDbText
  0
TEXT
  5
10B74
330
747D
100
AcDbEntity
  8
文字
 62
     7
 48
50.0
100
AcDbText
 10
13201.43669998441
 20
477.2740661031255
 30
0.0
 40
160.0
  1
機種名
  7
STYLE2
100
AcDbText
  0
TEXT
  5
10B76
330
747D
100
AcDbEntity
  8
文字
 62
     7
 48
50.0
100
AcDbText
 10
13209.4053442172
 20
76.09434707649343
 30
0.0
 40
100.0
  1
○床面積 ： 3.19㎡(0.97坪) 　
  7
STYLE2
100
AcDbText
  0
TEXT
  5
10B79
330
747D
100
AcDbEntity
  8
文字
 62
     7
 48
50.0
100
AcDbText
 10
14524.131837222
 20
1031.557706291228
 30
0.0
 40
100.0
  1
NO.13      <縮尺> S=1/40
  7
STYLE2
100
AcDbText
  0
LINE
  5
10B7B
330
747D
100
AcDbEntity
  8
仕様書枠
 48
50.0
100
AcDbLine
 10
13107.2
 20
800.0
 30
0.0
 11
14251.2
 21
800.0
 31
0.0
  0
LINE
  5
10B88
330
747D
100
AcDbEntity
  8
仕様書枠
  6
Continuous
 48
50.0
100
AcDbLine
 10
14251.2
 20
1200.0
 30
0.0
 11
14251.2
 21
800.0
 31
0.0
  0
TEXT
  5
14D2F
330
747D
100
AcDbEntity
  8
文字
 62
     7
 48
50.0
100
AcDbText
 10
14644.07818602837
 20
876.4448062548634
 30
0.0
 40
100.0
  1
～一般型・多雪地型～
  7
STYLE2
100
AcDbText
  0
LINE
  5
172D5
330
747D
100
AcDbEntity
  8
破線
 48
5.0
100
AcDbLine
 10
8971.729391167178
 20
2528.010354820207
 30
0.0
 11
8971.729391167178
 21
2278.010354820206
 31
0.0
  0
LINE
  5
172D6
330
747D
100
AcDbEntity
  8
破線
 48
5.0
100
AcDbLine
 10
8721.729391167178
 20
2528.010354820207
 30
0.0
 11
8721.729391167178
 21
2278.010354820206
 31
0.0
  0
LINE
  5
172D7
330
747D
100
AcDbEntity
  8
破線
 48
5.0
100
AcDbLine
 10
8721.729391167178
 20
2278.010354820206
 30
0.0
 11
8971.729391167178
 21
2278.010354820206
 31
0.0
  0
LINE
  5
17C32
330
747D
100
AcDbEntity
  8
破線
 48
5.0
100
AcDbLine
 10
11181.72939116717
 20
2278.010354820206
 30
0.0
 11
10931.72939116717
 21
2278.010354820206
 31
0.0
  0
LINE
  5
17C33
330
747D
100
AcDbEntity
  8
破線
 48
5.0
100
AcDbLine
 10
11181.72939116717
 20
2528.010354820207
 30
0.0
 11
11181.72939116717
 21
2278.010354820206
 31
0.0
  0
LINE
  5
17C34
330
747D
100
AcDbEntity
  8
破線
 48
5.0
100
AcDbLine
 10
10931.72939116717
 20
2528.010354820207
 30
0.0
 11
10931.72939116717
 21
2278.010354820206
 31
0.0
  0
TEXT
  5
18458
330
747D
100
AcDbEntity
  8
部品1
 48
50.0
100
AcDbText
 10
10267.63024905599
 20
5031.825542095466
 30
0.0
 40
120.0
  1
44
 50
90.0
  7
STYLE1
100
AcDbText
  0
DIMENSION
  5
18459
330
747D
100
AcDbEntity
  8
寸法
100
AcDbDimension
  2
*D2
 10
7938.090009237818
 20
2528.010354820206
 30
0.0
 11
7938.090009237818
 21
2291.963110725716
 31
0.0
 70
   160
 71
     5
 42
100.0
  3
INABA_S40G
100
AcDbAlignedDimension
 13
8791.729391167176
 23
2628.010354820206
 33
0.0
 14
8223.076682008878
 24
2528.010354820206
 34
0.0
 50
90.0
100
AcDbRotatedDimension
1001
ACAD
1000
DSTYLE
1002
{
1070
   174
1070
     0
1070
   272
1070
     1
1070
   288
1070
     0
1070
   341
1005
0
1002
}
  0
DIMENSION
  5
1845A
330
747D
100
AcDbEntity
  8
寸法
100
AcDbDimension
  2
*D3
 10
8223.076682008878
 20
2628.010354820206
 30
0.0
 11
8223.076682008878
 21
2321.963110725715
 31
0.0
 70
   160
 71
     5
 42
50.0
  3
INABA_S40G
100
AcDbAlignedDimension
 13
8846.729391167178
 23
2678.010354820206
 33
0.0
 14
8791.729391167176
 24
2628.010354820206
 34
0.0
 50
90.0
100
AcDbRotatedDimension
1001
ACAD
1000
DSTYLE
1002
{
1070
   174
1070
     0
1070
   272
1070
     1
1070
   288
1070
     0
1070
   341
1005
0
1002
}
  0
DIMENSION
  5
1845B
330
747D
100
AcDbEntity
  8
寸法
100
AcDbDimension
  2
*D4
 10
8223.076682008878
 20
2678.010354820206
 30
0.0
 11
8223.076682008878
 21
3698.510354820206
 31
0.0
 70
   160
 71
     5
 42
2090.0
  3
INABA_S40G
100
AcDbAlignedDimension
 13
8846.729391167178
 23
4768.010354820206
 33
0.0
 14
8846.729391167178
 24
2678.010354820206
 34
0.0
 50
90.0
100
AcDbRotatedDimension
1001
ACAD
1000
DSTYLE
1002
{
1070
   174
1070
     0
1070
   272
1070
     1
1070
   288
1070
     0
1070
   341
1005
0
1002
}
  0
DIMENSION
  5
1845C
330
747D
100
AcDbEntity
  8
寸法
100
AcDbDimension
  2
*D5
 10
7938.09000923782
 20
5003.010354820212
 30
0.0
 11
7938.090009237818
 21
3698.510354820206
 31
0.0
 70
   160
 71
     5
 42
2375.000000000005
  3
INABA_S40G
100
AcDbAlignedDimension
 13
8846.729391167178
 23
2628.010354820206
 33
0.0
 14
8786.729391167176
 24
5003.010354820212
 34
0.0
 50
90.0
100
AcDbRotatedDimension
1001
ACAD
1000
DSTYLE
1002
{
1070
   174
1070
     0
1070
   272
1070
     1
1070
   288
1070
     0
1070
   341
1005
0
1002
}
  0
DIMENSION
  5
1845D
330
747D
100
AcDbEntity
  8
寸法
100
AcDbDimension
  2
*D6
 10
11592.59637263988
 20
4948.010354820208
 30
0.0
 11
11592.59637263988
 21
3825.232855842121
 31
0.0
 70
   160
 71
     5
 42
2320.000000000002
  3
INABA_S40G
100
AcDbAlignedDimension
 13
11056.72939116717
 23
2628.010354820206
 33
0.0
 14
11136.72939116716
 24
4948.010354820208
 34
0.0
 50
90.0
100
AcDbRotatedDimension
1001
ACAD
1000
DSTYLE
1002
{
1070
   174
1070
     0
1070
   272
1070
     1
1070
   288
1070
     0
1070
   341
1005
0
1002
}
  0
LINE
  5
1845E
330
747D
100
AcDbEntity
  8
細線
 48
50.0
100
AcDbLine
 10
11103.72939116718
 20
4947.977333855503
 30
0.0
 11
11098.98170827918
 21
4822.231561364757
 31
0.0
  0
LINE
  5
1845F
330
747D
100
AcDbEntity
  8
部品1
 48
50.0
100
AcDbLine
 10
11135.94329397788
 20
4938.951507094423
 30
0.0
 11
11133.91267278691
 21
4919.006465836643
 31
0.0
  0
LINE
  5
18460
330
747D
100
AcDbEntity
  8
部品1
 48
50.0
100
AcDbLine
 10
11130.56010630243
 20
4915.695831763734
 30
0.0
 11
11123.05332703759
 21
4841.963211018723
 31
0.0
  0
LINE
  5
18461
330
747D
100
AcDbEntity
  8
部品1
 48
50.0
100
AcDbLine
 10
11119.70076055311
 20
4838.652576945809
 30
0.0
 11
11118.62119751336
 21
4828.048959952251
 31
0.0
  0
ARC
  5
18462
330
747D
100
AcDbEntity
  8
部品1
 48
50.0
100
AcDbCircle
 10
11128.97929341312
 20
4939.660517767199
 30
0.0
 40
7.0
100
AcDbArc
 50
354.1866997665532
 51
87.03587545303909
  0
ARC
  5
18463
330
747D
100
AcDbEntity
  8
部品1
 48
50.0
100
AcDbCircle
 10
11111.65719694861
 20
4828.757970625026
 30
0.0
 40
7.0
100
AcDbArc
 50
267.8377559869492
 51
354.1866997665532
  0
ARC
  5
18464
330
747D
100
AcDbEntity
  8
部品1
100
AcDbCircle
 10
11122.68533222371
 20
4838.348715228907
 30
0.0
 40
3.0
100
AcDbArc
 50
95.0921697642102
 51
174.1866997665532
  0
ARC
  5
18465
330
747D
100
AcDbEntity
  8
部品1
100
AcDbCircle
 10
11133.54467797304
 20
4915.391970046832
 30
0.0
 40
3.0
100
AcDbArc
 50
95.09216976441781
 51
174.1866997665532
  0
ARC
  5
18466
330
747D
100
AcDbEntity
  8
部品1
100
AcDbCircle
 10
11133.21627273044
 20
4919.077366903921
 30
0.0
 40
0.7
100
AcDbArc
 50
275.0921697642102
 51
354.1866997665532
  0
ARC
  5
18467
330
747D
100
AcDbEntity
  8
部品1
100
AcDbCircle
 10
11122.35692698112
 20
4842.034112085997
 30
0.0
 40
0.7
100
AcDbArc
 50
275.0921697642102
 51
354.1866997666569
  0
LINE
  5
18468
330
747D
100
AcDbEntity
  8
細線
 48
50.0
100
AcDbLine
 10
8819.729391167177
 20
5000.41003119561
 30
0.0
 11
8814.44028961167
 21
4860.324398568256
 31
0.0
  0
LINE
  5
18469
330
747D
100
AcDbEntity
  8
部品1
 48
50.0
100
AcDbLine
 10
8786.913677080283
 20
4994.603900984897
 30
0.0
 11
8787.293936858096
 21
4974.676936538486
 31
0.0
  0
LINE
  5
1846A
330
747D
100
AcDbEntity
  8
部品1
 48
50.0
100
AcDbLine
 10
8790.362708964343
 20
4971.101655045015
 30
0.0
 11
8792.066610455705
 21
4881.811158338367
 31
0.0
  0
LINE
  5
1846B
330
747D
100
AcDbEntity
  8
部品1
 48
50.0
100
AcDbLine
 10
8795.135382561948
 20
4878.235876844894
 30
0.0
 11
8795.337335182379
 21
4867.652841451803
 31
0.0
  0
ARC
  5
1846C
330
747D
100
AcDbEntity
  8
部品1
 48
50.0
100
AcDbCircle
 10
8793.912402908622
 20
4994.737455392325
 30
0.0
 40
7.0
100
AcDbArc
 50
87.03587545303909
 51
181.0932240293156
  0
ARC
  5
1846D
330
747D
100
AcDbEntity
  8
部品1
 48
50.0
100
AcDbCircle
 10
8802.336061010718
 20
4867.786395859232
 30
0.0
 40
7.0
100
AcDbArc
 50
181.0932240293156
 51
267.8377559869492
  0
ARC
  5
1846E
330
747D
100
AcDbEntity
  8
部品1
100
AcDbCircle
 10
8792.135928635518
 20
4878.178639241713
 30
0.0
 40
3.0
100
AcDbArc
 50
1.093224029315636
 51
80.18775403148891
  0
ARC
  5
1846F
330
747D
100
AcDbEntity
  8
部品1
100
AcDbCircle
 10
8787.363255037911
 20
4971.04441744183
 30
0.0
 40
3.0
100
AcDbArc
 50
1.093224029315636
 51
80.18775403148891
  0
ARC
  5
18470
330
747D
100
AcDbEntity
  8
部品1
100
AcDbCircle
 10
8787.993809440934
 20
4974.690291979229
 30
0.0
 40
0.7
100
AcDbArc
 50
181.0932240292114
 51
260.187754031489
  0
ARC
  5
18471
330
747D
100
AcDbEntity
  8
部品1
100
AcDbCircle
 10
8792.766483038544
 20
4881.824513779109
 30
0.0
 40
0.7
100
AcDbArc
 50
181.0932240293156
 51
260.187754031489
  0
DIMENSION
  5
18472
330
747D
100
AcDbEntity
  8
寸法
 48
50.0
100
AcDbDimension
  2
*D7
 10
8226.120984398809
 20
4877.355613693534
 30
0.0
 11
8236.786459657734
 21
5248.202276935239
 31
0.0
 70
   161
 71
     5
 42
141.0000000000018
  3
INABA_S40G
100
AcDbAlignedDimension
 13
8806.125411325757
 23
5001.733103654886
 33
0.0
 14
8802.071955769131
 24
4860.791379889171
 34
0.0
1001
ACAD
1000
DSTYLE
1002
{
1070
   174
1070
     0
1070
   272
1070
     1
1070
   288
1070
     0
1070
   341
1005
0
1002
}
  0
LINE
  5
18473
330
747D
100
AcDbEntity
  8
部品1
100
AcDbLine
 10
8794.274377524139
 20
5001.728090154473
 30
0.0
 11
11129.34126802864
 21
4946.651152529344
 31
0.0
  0
LINE
  5
18474
330
747D
100
AcDbEntity
  8
部品1
100
AcDbLine
 10
8802.071955769131
 20
4860.791379889171
 30
0.0
 11
11111.39309170702
 21
4821.762954654968
 31
0.0
  0
LINE
  5
18475
330
747D
100
AcDbEntity
  8
細線
 48
50.0
100
AcDbLine
 10
8787.768814267991
 20
4974.027436661566
 30
0.0
 11
11133.40479901316
 21
4918.40323202074
 31
0.0
  0
LINE
  5
18476
330
747D
100
AcDbEntity
  8
細線
 48
50.0
100
AcDbLine
 10
8792.529289505278
 20
4881.165924963703
 30
0.0
 11
11122.53295393591
 21
4841.356605989211
 31
0.0
  0
TEXT
  5
18477
330
747D
100
AcDbEntity
  8
部品1
 48
50.0
100
AcDbText
 10
9789.997226390903
 20
5169.326800313749
 30
0.0
 40
120.0
  1
1000
  7
STYLE1
100
AcDbText
  0
LINE
  5
18478
330
747D
100
AcDbEntity
  8
部品1
 48
50.0
100
AcDbLine
 10
10101.72939116718
 20
5133.442778161316
 30
0.0
 11
10101.72939116718
 21
5117.242778161317
 31
0.0
  0
LINE
  5
18479
330
747D
100
AcDbEntity
  8
部品1
 48
50.0
100
AcDbLine
 10
9801.729391167178
 20
5133.442778161316
 30
0.0
 11
10101.72939116718
 21
5133.442778161316
 31
0.0
  0
LINE
  5
1847A
330
747D
100
AcDbEntity
  8
部品1
100
AcDbLine
 10
9776.27437752414
 20
5134.760837120179
 30
0.0
 11
10101.72939116718
 21
5117.242778161317
 31
0.0
  0
DIMENSION
  5
1847B
330
747D
100
AcDbEntity
  8
寸法
 48
50.0
100
AcDbDimension
  2
*D8
 10
8786.729391167176
 20
5401.667808399509
 30
0.0
 11
8477.091595891586
 21
5401.667808399509
 31
0.0
 70
   160
 71
     5
 42
60.0
  3
INABA_S40G
100
AcDbAlignedDimension
 13
8846.729391167178
 23
4999.011972943183
 33
0.0
 14
8786.729391167176
 24
5003.01035482021
 34
0.0
100
AcDbRotatedDimension
1001
ACAD
1000
DSTYLE
1002
{
1070
   174
1070
     0
1070
   272
1070
     1
1070
   288
1070
     0
1070
   341
1005
0
1002
}
  0
DIMENSION
  5
1847C
330
747D
100
AcDbEntity
  8
寸法
 48
50.0
100
AcDbDimension
  2
*D9
 10
11136.72939116717
 20
5401.667808399509
 30
0.0
 11
11342.77663526167
 21
5401.667808399509
 31
0.0
 70
   160
 71
     5
 42
80.0
  3
INABA_S40G
100
AcDbAlignedDimension
 13
11056.72939116717
 23
4949.821034431858
 33
0.0
 14
11136.72939116717
 24
4948.010354820206
 34
0.0
100
AcDbRotatedDimension
1001
ACAD
1000
DSTYLE
1002
{
1070
   174
1070
     0
1070
   272
1070
     1
1070
   288
1070
     0
1070
   341
1005
0
1002
}
  0
DIMENSION
  5
1847D
330
747D
100
AcDbEntity
  8
寸法
 48
50.0
100
AcDbDimension
  2
*D10
 10
8786.729391167176
 20
5620.869642073801
 30
0.0
 11
10021.07324525964
 21
5620.869642073801
 31
0.0
 70
   160
 71
     5
 42
2350.0
  3
INABA_S40G
100
AcDbAlignedDimension
 13
11136.72939116717
 23
4948.010354820206
 33
0.0
 14
8786.729391167176
 24
5003.01035482021
 34
0.0
100
AcDbRotatedDimension
1001
ACAD
1000
DSTYLE
1002
{
1070
   174
1070
     0
1070
   272
1070
     1
1070
   288
1070
     0
1070
   341
1005
0
1002
}
  0
DIMENSION
  5
1847E
330
747D
100
AcDbEntity
  8
寸法
 48
50.0
100
AcDbDimension
  2
*D11
 10
8846.729391167178
 20
5401.667808399509
 30
0.0
 11
9941.37412823769
 21
5401.667808399509
 31
0.0
 70
   160
  1
柱外寸法<>
 71
     5
 42
2210.0
  3
INABA_S40G
100
AcDbAlignedDimension
 13
11056.72939116717
 23
4949.821034431858
 33
0.0
 14
8846.729391167178
 24
4999.011972943183
 34
0.0
100
AcDbRotatedDimension
1001
ACAD
1000
DSTYLE
1002
{
1070
   174
1070
     0
1070
   272
1070
     1
1070
   288
1070
     0
1070
   341
1005
0
1002
}
  0
LINE
  5
1847F
330
747D
100
AcDbEntity
  8
部品1
 48
50.0
100
AcDbLine
 10
5813.444974142619
 20
2628.010354820206
 30
0.0
 11
5813.444974142618
 21
2528.010354820206
 31
0.0
  0
LINE
  5
18480
330
747D
100
AcDbEntity
  8
部品1
 48
50.0
100
AcDbLine
 10
5613.444974142618
 20
2628.010354820206
 30
0.0
 11
5613.444974142618
 21
2528.010354820206
 31
0.0
  0
LINE
  5
18481
330
747D
100
AcDbEntity
  8
部品1
 48
50.0
100
AcDbLine
 10
6475.44497414262
 20
2628.010354820204
 30
0.0
 11
6398.444974142618
 21
2628.010354820206
 31
0.0
  0
LINE
  5
18482
330
747D
100
AcDbEntity
  8
部品1
 48
50.0
100
AcDbLine
 10
6475.44497414262
 20
4753.010354820204
 30
0.0
 11
6475.44497414262
 21
2528.010354820204
 31
0.0
  0
LINE
  5
18483
330
747D
100
AcDbEntity
  8
部品1
 48
50.0
100
AcDbLine
 10
6398.44497414262
 20
4763.010354820204
 30
0.0
 11
6475.44497414262
 21
4753.010354820204
 31
0.0
  0
LINE
  5
18484
330
747D
100
AcDbEntity
  8
部品1
100
AcDbLine
 10
5028.444974142614
 20
4768.010354820206
 30
0.0
 11
6398.444974142618
 21
4768.010354820206
 31
0.0
  0
LINE
  5
18485
330
747D
100
AcDbEntity
  8
部品1
100
AcDbLine
 10
5028.444974142614
 20
2678.010354820206
 30
0.0
 11
6398.44497414262
 21
2678.010354820206
 31
0.0
  0
LINE
  5
18486
330
747D
100
AcDbEntity
  8
部品1
100
AcDbLine
 10
5028.444974142614
 20
2628.010354820206
 30
0.0
 11
5035.944974142615
 21
2628.010354820206
 31
0.0
  0
LINE
  5
18487
330
747D
100
AcDbEntity
  8
部品1
100
AcDbLine
 10
5083.444974142614
 20
4768.010354820206
 30
0.0
 11
5083.444974142614
 21
2678.010354820206
 31
0.0
  0
LINE
  5
18488
330
747D
100
AcDbEntity
  8
部品1
100
AcDbLine
 10
5028.44497414262
 20
4862.01035482021
 30
0.0
 11
5028.444974142614
 21
2528.010354820206
 31
0.0
  0
LINE
  5
18489
330
747D
100
AcDbEntity
  8
部品1
100
AcDbLine
 10
5503.444974142614
 20
4768.010354820206
 30
0.0
 11
5503.444974142614
 21
2678.010354820206
 31
0.0
  0
LINE
  5
1848A
330
747D
100
AcDbEntity
  8
部品1
100
AcDbLine
 10
6398.444974142615
 20
4862.010354820212
 30
0.0
 11
6398.444974142618
 21
2528.010354820206
 31
0.0
  0
LINE
  5
1848B
330
747D
100
AcDbEntity
  8
部品1
100
AcDbLine
 10
6343.444974142617
 20
4768.010354820206
 30
0.0
 11
6343.444974142617
 21
2678.010354820206
 31
0.0
  0
LINE
  5
1848C
330
747D
100
AcDbEntity
  8
部品1
100
AcDbLine
 10
5228.444974142615
 20
2628.010354820206
 30
0.0
 11
5228.444974142615
 21
2528.010354820206
 31
0.0
  0
LINE
  5
1848D
330
747D
100
AcDbEntity
  8
部品1
100
AcDbLine
 10
6198.444974142618
 20
2628.010354820206
 30
0.0
 11
6198.444974142618
 21
2528.010354820206
 31
0.0
  0
LINE
  5
1848E
330
747D
100
AcDbEntity
  8
破線
  6
HIDDEN
 48
5.0
100
AcDbLine
 10
6405.944974142617
 20
2373.010354820206
 30
0.0
 11
6335.944974142616
 21
2373.010354820206
 31
0.0
  0
LINE
  5
1848F
330
747D
100
AcDbEntity
  8
破線
  6
HIDDEN
 48
5.0
100
AcDbLine
 10
6350.944974142612
 20
2523.010354820206
 30
0.0
 11
6335.944974142616
 21
2375.310354820207
 31
0.0
  0
LINE
  5
18490
330
747D
100
AcDbEntity
  8
破線
  6
HIDDEN
 48
5.0
100
AcDbLine
 10
6335.944974142616
 20
2375.310354820207
 30
0.0
 11
6335.944974142616
 21
2373.010354820206
 31
0.0
  0
LINE
  5
18491
330
747D
100
AcDbEntity
  8
破線
  6
HIDDEN
 48
5.0
100
AcDbLine
 10
6390.944974142616
 20
2523.010354820206
 30
0.0
 11
6405.944974142617
 21
2375.310354820207
 31
0.0
  0
LINE
  5
18492
330
747D
100
AcDbEntity
  8
破線
  6
HIDDEN
 48
5.0
100
AcDbLine
 10
6405.944974142617
 20
2375.310354820207
 30
0.0
 11
6405.944974142617
 21
2373.010354820206
 31
0.0
  0
LINE
  5
18493
330
747D
100
AcDbEntity
  8
破線
  6
HIDDEN
 48
5.0
100
AcDbLine
 10
5020.944974142612
 20
2373.010354820206
 30
0.0
 11
5090.944974142612
 21
2373.010354820206
 31
0.0
  0
LINE
  5
18494
330
747D
100
AcDbEntity
  8
破線
  6
HIDDEN
 48
5.0
100
AcDbLine
 10
5020.944974142612
 20
2375.310354820205
 30
0.0
 11
5020.944974142612
 21
2373.010354820206
 31
0.0
  0
LINE
  5
18495
330
747D
100
AcDbEntity
  8
破線
  6
HIDDEN
 48
5.0
100
AcDbLine
 10
5090.944974142615
 20
2375.310354820205
 30
0.0
 11
5090.944974142612
 21
2373.010354820206
 31
0.0
  0
LINE
  5
18496
330
747D
100
AcDbEntity
  8
破線
  6
HIDDEN
 48
5.0
100
AcDbLine
 10
5035.944974142616
 20
2523.010354820206
 30
0.0
 11
5020.944974142612
 21
2375.310354820205
 31
0.0
  0
LINE
  5
18497
330
747D
100
AcDbEntity
  8
破線
  6
HIDDEN
 48
5.0
100
AcDbLine
 10
5075.944974142616
 20
2523.010354820206
 30
0.0
 11
5090.944974142615
 21
2375.310354820205
 31
0.0
  0
LINE
  5
18498
330
747D
100
AcDbEntity
  8
部品1
 48
50.0
100
AcDbLine
 10
5035.944974142612
 20
2668.010354820206
 30
0.0
 11
5035.944974142616
 21
2528.010354820206
 31
0.0
  0
LINE
  5
18499
330
747D
100
AcDbEntity
  8
部品1
 48
50.0
100
AcDbLine
 10
5075.944974142616
 20
2668.010354820206
 30
0.0
 11
5075.944974142612
 21
2528.010354820206
 31
0.0
  0
LINE
  5
1849A
330
747D
100
AcDbEntity
  8
部品1
100
AcDbLine
 10
5040.944974142612
 20
2673.010354820206
 30
0.0
 11
5070.944974142616
 21
2673.010354820206
 31
0.0
  0
ARC
  5
1849B
330
747D
100
AcDbEntity
  8
部品1
 48
50.0
100
AcDbCircle
 10
5040.944974142612
 20
2668.010354820206
 30
0.0
 40
5.0
100
AcDbArc
 50
90.0
 51
180.0
  0
ARC
  5
1849C
330
747D
100
AcDbEntity
  8
部品1
 48
50.0
100
AcDbCircle
 10
5070.944974142616
 20
2668.010354820206
 30
0.0
 40
5.0
100
AcDbArc
 50
0.0
 51
90.0
  0
LINE
  5
1849D
330
747D
100
AcDbEntity
  8
部品1
 48
50.0
100
AcDbLine
 10
6350.944974142612
 20
2668.010354820206
 30
0.0
 11
6350.944974142616
 21
2528.010354820206
 31
0.0
  0
LINE
  5
1849E
330
747D
100
AcDbEntity
  8
部品1
 48
50.0
100
AcDbLine
 10
6390.944974142616
 20
2668.010354820206
 30
0.0
 11
6390.944974142612
 21
2528.010354820206
 31
0.0
  0
LINE
  5
1849F
330
747D
100
AcDbEntity
  8
部品1
100
AcDbLine
 10
6385.944974142616
 20
2673.010354820206
 30
0.0
 11
6355.944974142612
 21
2673.010354820206
 31
0.0
  0
ARC
  5
184A0
330
747D
100
AcDbEntity
  8
部品1
 48
50.0
100
AcDbCircle
 10
6355.944974142612
 20
2668.010354820206
 30
0.0
 40
5.0
100
AcDbArc
 50
90.0
 51
180.0
  0
ARC
  5
184A1
330
747D
100
AcDbEntity
  8
部品1
 48
50.0
100
AcDbCircle
 10
6385.944974142616
 20
2668.010354820206
 30
0.0
 40
5.0
100
AcDbArc
 50
0.0
 51
90.0
  0
LINE
  5
184A2
330
747D
100
AcDbEntity
  8
破線
  6
HIDDEN
 48
5.0
100
AcDbLine
 10
6350.944974142616
 20
2528.010354820206
 30
0.0
 11
6350.944974142616
 21
2523.010354820206
 31
0.0
  0
LINE
  5
184A3
330
747D
100
AcDbEntity
  8
破線
  6
HIDDEN
 48
5.0
100
AcDbLine
 10
6390.944974142612
 20
2528.010354820206
 30
0.0
 11
6390.944974142612
 21
2523.010354820206
 31
0.0
  0
LINE
  5
184A4
330
747D
100
AcDbEntity
  8
破線
  6
HIDDEN
 48
5.0
100
AcDbLine
 10
5035.944974142619
 20
2528.010354820206
 30
0.0
 11
5035.944974142619
 21
2523.010354820206
 31
0.0
  0
LINE
  5
184A5
330
747D
100
AcDbEntity
  8
破線
  6
HIDDEN
 48
5.0
100
AcDbLine
 10
5075.944974142616
 20
2528.010354820206
 30
0.0
 11
5075.944974142616
 21
2523.010354820206
 31
0.0
  0
LINE
  5
184A6
330
747D
100
AcDbEntity
  8
部品1
100
AcDbLine
 10
6390.944974142616
 20
2628.010354820206
 30
0.0
 11
6398.444974142618
 21
2628.010354820206
 31
0.0
  0
LINE
  5
184A7
330
747D
100
AcDbEntity
  8
部品1
100
AcDbLine
 10
5075.944974142616
 20
2628.010354820206
 30
0.0
 11
6350.944974142614
 21
2628.010354820206
 31
0.0
  0
LINE
  5
184A8
330
747D
100
AcDbEntity
  8
細線
 48
50.0
100
AcDbLine
 10
5580.944974142614
 20
4768.010354820206
 30
0.0
 11
5580.944974142614
 21
2678.010354820206
 31
0.0
  0
LINE
  5
184A9
330
747D
100
AcDbEntity
  8
細線
 48
50.0
100
AcDbLine
 10
5565.944974142614
 20
4768.010354820206
 30
0.0
 11
5565.944974142614
 21
2678.010354820206
 31
0.0
  0
LINE
  5
184AA
330
747D
100
AcDbEntity
  8
細線
 48
50.0
100
AcDbLine
 10
5705.944974142614
 20
4768.010354820206
 30
0.0
 11
5705.944974142614
 21
2678.010354820206
 31
0.0
  0
LINE
  5
184AB
330
747D
100
AcDbEntity
  8
細線
 48
50.0
100
AcDbLine
 10
5720.944974142614
 20
4768.010354820206
 30
0.0
 11
5720.944974142614
 21
2678.010354820206
 31
0.0
  0
LINE
  5
184AC
330
747D
100
AcDbEntity
  8
細線
 48
50.0
100
AcDbLine
 10
5860.944974142615
 20
4768.010354820206
 30
0.0
 11
5860.944974142615
 21
2678.010354820206
 31
0.0
  0
LINE
  5
184AD
330
747D
100
AcDbEntity
  8
細線
 48
50.0
100
AcDbLine
 10
5845.944974142614
 20
4768.010354820206
 30
0.0
 11
5845.944974142614
 21
2678.010354820206
 31
0.0
  0
LINE
  5
184AE
330
747D
100
AcDbEntity
  8
細線
 48
50.0
100
AcDbLine
 10
5425.944974142614
 20
4768.010354820206
 30
0.0
 11
5425.944974142614
 21
2678.010354820206
 31
0.0
  0
LINE
  5
184AF
330
747D
100
AcDbEntity
  8
細線
 48
50.0
100
AcDbLine
 10
5440.944974142614
 20
4768.010354820206
 30
0.0
 11
5440.944974142614
 21
2678.010354820206
 31
0.0
  0
LINE
  5
184B0
330
747D
100
AcDbEntity
  8
細線
 48
50.0
100
AcDbLine
 10
5300.944974142614
 20
4768.010354820206
 30
0.0
 11
5300.944974142614
 21
2678.010354820206
 31
0.0
  0
LINE
  5
184B1
330
747D
100
AcDbEntity
  8
細線
 48
50.0
100
AcDbLine
 10
5285.944974142615
 20
4768.010354820206
 30
0.0
 11
5285.944974142615
 21
2678.010354820206
 31
0.0
  0
LINE
  5
184B2
330
747D
100
AcDbEntity
  8
細線
 48
50.0
100
AcDbLine
 10
5145.944974142614
 20
4768.010354820206
 30
0.0
 11
5145.944974142614
 21
2678.010354820206
 31
0.0
  0
LINE
  5
184B3
330
747D
100
AcDbEntity
  8
細線
 48
50.0
100
AcDbLine
 10
5160.944974142615
 20
4768.010354820206
 30
0.0
 11
5160.944974142615
 21
2678.010354820206
 31
0.0
  0
LINE
  5
184B4
330
747D
100
AcDbEntity
  8
部品1
100
AcDbLine
 10
5923.444974142615
 20
4768.010354820206
 30
0.0
 11
5923.444974142615
 21
2678.010354820206
 31
0.0
  0
LINE
  5
184B5
330
747D
100
AcDbEntity
  8
細線
 48
50.0
100
AcDbLine
 10
6265.944974142618
 20
4768.010354820206
 30
0.0
 11
6265.944974142618
 21
2678.010354820206
 31
0.0
  0
LINE
  5
184B6
330
747D
100
AcDbEntity
  8
細線
 48
50.0
100
AcDbLine
 10
6280.944974142617
 20
4768.010354820206
 30
0.0
 11
6280.944974142617
 21
2678.010354820206
 31
0.0
  0
LINE
  5
184B7
330
747D
100
AcDbEntity
  8
細線
 48
50.0
100
AcDbLine
 10
6140.944974142618
 20
4768.010354820206
 30
0.0
 11
6140.944974142618
 21
2678.010354820206
 31
0.0
  0
LINE
  5
184B8
330
747D
100
AcDbEntity
  8
細線
 48
50.0
100
AcDbLine
 10
6125.944974142618
 20
4768.010354820206
 30
0.0
 11
6125.944974142618
 21
2678.010354820206
 31
0.0
  0
LINE
  5
184B9
330
747D
100
AcDbEntity
  8
細線
 48
50.0
100
AcDbLine
 10
5985.944974142618
 20
4768.010354820206
 30
0.0
 11
5985.944974142618
 21
2678.010354820206
 31
0.0
  0
LINE
  5
184BA
330
747D
100
AcDbEntity
  8
細線
 48
50.0
100
AcDbLine
 10
6000.944974142618
 20
4768.010354820206
 30
0.0
 11
6000.944974142618
 21
2678.010354820206
 31
0.0
  0
DIMENSION
  5
184BB
330
747D
100
AcDbEntity
  8
寸法
 48
50.0
100
AcDbDimension
  2
*D12
 10
4718.62988317739
 20
2528.010354820206
 30
0.0
 11
4718.629883177389
 21
2403.010354820207
 31
0.0
 70
   160
 71
     5
 42
250.0
  3
INABA_S40G
100
AcDbAlignedDimension
 13
4930.944974142616
 23
2278.010354820206
 33
0.0
 14
4930.944974142616
 24
2528.010354820206
 34
0.0
 50
90.0
100
AcDbRotatedDimension
1001
ACAD
1000
DSTYLE
1002
{
1070
   174
1070
     0
1070
   272
1070
     1
1070
   288
1070
     0
1070
   341
1005
0
1002
}
  0
DIMENSION
  5
184BF
330
747D
100
AcDbEntity
  8
寸法
 48
50.0
100
AcDbDimension
  2
*D13
 10
4930.944974142616
 20
1991.963418287149
 30
0.0
 11
5055.944974142616
 21
1991.963418287149
 31
0.0
 70
   160
 71
     5
 42
250.0
  3
INABA_S40G
100
AcDbAlignedDimension
 13
5180.944974142616
 23
2278.010354820206
 33
0.0
 14
4930.944974142616
 24
2278.010354820206
 34
0.0
100
AcDbRotatedDimension
  0
TEXT
  5
184C3
330
747D
100
AcDbEntity
  8
文字
 62
     7
 48
50.0
100
AcDbText
 10
13583.11819016569
 20
8550.013745883733
 30
0.0
 40
100.0
  1
棚板
  7
STYLE1
100
AcDbText
  0
TEXT
  5
184C4
330
747D
100
AcDbEntity
  8
文字
 62
     7
 48
50.0
100
AcDbText
 10
15022.63965474516
 20
8550.013745883729
 30
0.0
 40
100.0
  1
F12            0.6
  7
STYLE1
100
AcDbText
  0
TEXT
  5
184C5
330
747D
100
AcDbEntity
  8
文字
 62
     7
 48
50.0
100
AcDbText
 10
15022.63965474515
 20
9740.013745883725
 30
0.0
 40
100.0
  1
F12            1.0
  7
STYLE1
100
AcDbText
  0
TEXT
  5
184C6
330
747D
100
AcDbEntity
  8
文字
 62
     7
 48
50.0
100
AcDbText
 10
13583.11819016569
 20
9740.013745883729
 30
0.0
 40
100.0
  1
母屋中
  7
STYLE1
100
AcDbText
  0
TEXT
  5
184C7
330
747D
100
AcDbEntity
  8
文字
 62
     7
 48
50.0
100
AcDbText
 10
13248.77747366447
 20
8720.013745883729
 30
0.0
 40
100.0
  1
15
  7
STYLE1
100
AcDbText
  0
LINE
  5
184C8
330
747D
100
AcDbEntity
  8
仕様書枠
 48
50.0
100
AcDbLine
 10
16307.19999999999
 20
8009.600000000007
 30
0.0
 11
13127.19999999999
 21
8009.600000000007
 31
0.0
  0
TEXT
  5
184C9
330
747D
100
AcDbEntity
  8
文字
 62
     7
 48
50.0
100
AcDbText
 10
13583.11819016569
 20
8720.013745883733
 30
0.0
 40
100.0
  1
扉
  7
STYLE1
100
AcDbText
  0
TEXT
  5
184CA
330
747D
100
AcDbEntity
  8
文字
 62
     7
 48
50.0
100
AcDbText
 10
15022.63965474516
 20
8720.013745883729
 30
0.0
 40
100.0
  1
F12            0.8
  7
STYLE1
100
AcDbText
  0
TEXT
  5
184CB
330
747D
100
AcDbEntity
  8
文字
 62
     7
 48
50.0
100
AcDbText
 10
13583.11819016568
 20
8890.013745883733
 30
0.0
 40
100.0
  1
正面パネル
  7
STYLE1
100
AcDbText
  0
TEXT
  5
184CC
330
747D
100
AcDbEntity
  8
文字
 62
     7
 48
50.0
100
AcDbText
 10
15022.63965474515
 20
8890.013745883729
 30
0.0
 40
100.0
  1
F12            0.7
  7
STYLE1
100
AcDbText
  0
TEXT
  5
184CD
330
747D
100
AcDbEntity
  8
文字
 62
     7
 48
50.0
100
AcDbText
 10
15022.63965474517
 20
10590.01374588373
 30
0.0
 40
100.0
  1
F12            1.0
  7
STYLE1
100
AcDbText
  0
TEXT
  5
184CE
330
747D
100
AcDbEntity
  8
文字
 62
     7
 48
50.0
100
AcDbText
 10
15022.63965474516
 20
10930.01374588373
 30
0.0
 40
100.0
  1
F12            1.2
  7
STYLE1
100
AcDbText
  0
TEXT
  5
184CF
330
747D
100
AcDbEntity
  8
文字
 62
     7
 48
50.0
100
AcDbText
 10
13248.77747366448
 20
8890.013745883729
 30
0.0
 40
100.0
  1
14
  7
STYLE1
100
AcDbText
  0
TEXT
  5
184D0
330
747D
100
AcDbEntity
  8
文字
 62
     7
 48
50.0
100
AcDbText
 10
13583.11819016569
 20
10930.01374588373
 30
0.0
 40
100.0
  1
根太
  7
STYLE1
100
AcDbText
  0
TEXT
  5
184D1
330
747D
100
AcDbEntity
  8
文字
 62
     7
 48
50.0
100
AcDbText
 10
13583.1181901657
 20
10590.01374588373
 30
0.0
 40
100.0
  1
床パネル
 41
0.9
  7
STYLE1
100
AcDbText
  0
LINE
  5
184D2
330
747D
100
AcDbEntity
  8
仕様書枠
 48
50.0
100
AcDbLine
 10
16307.19999999999
 20
9029.6
 30
0.0
 11
13127.2
 21
9029.600000000003
 31
0.0
  0
LINE
  5
184D3
330
747D
100
AcDbEntity
  8
仕様書枠
 48
50.0
100
AcDbLine
 10
13127.2
 20
11409.6
 30
0.0
 11
13127.19999999999
 21
8009.600000000007
 31
0.0
  0
TEXT
  5
184D4
330
747D
100
AcDbEntity
  8
文字
 62
     7
 48
50.0
100
AcDbText
 10
13229.83081656554
 20
8040.013745883737
 30
0.0
 40
100.0
  1
Y10→溶融亜鉛-5％アルミニウム合金めっき鋼板(JIS G 3317)
 41
0.9
  7
STYLE1
100
AcDbText
  0
TEXT
  5
184D5
330
747D
100
AcDbEntity
  8
文字
 62
     7
 48
50.0
100
AcDbText
 10
13229.83081656554
 20
8210.013745883737
 30
0.0
 40
100.0
  1
F12→溶融亜鉛めっき鋼板(JIS G 3302)
  7
STYLE1
100
AcDbText
  0
LINE
  5
184D6
330
747D
100
AcDbEntity
  8
仕様書枠
 48
50.0
100
AcDbLine
 10
16307.19999999999
 20
8179.600000000007
 30
0.0
 11
13127.19999999999
 21
8179.600000000007
 31
0.0
  0
LINE
  5
184D7
330
747D
100
AcDbEntity
  8
仕様書枠
 48
50.0
100
AcDbLine
 10
16307.19999999999
 20
8349.600000000007
 30
0.0
 11
13127.19999999999
 21
8349.600000000007
 31
0.0
  0
TEXT
  5
184D8
330
747D
100
AcDbEntity
  8
文字
 62
     7
 48
50.0
100
AcDbText
 10
15022.63965474515
 20
9570.013745883729
 30
0.0
 40
100.0
  1
F12            0.7
  7
STYLE1
100
AcDbText
  0
TEXT
  5
184D9
330
747D
100
AcDbEntity
  8
文字
 62
     7
 48
50.0
100
AcDbText
 10
15022.63965474517
 20
9910.01374588373
 30
0.0
 40
100.0
  1
Y10            0.5
  7
STYLE1
100
AcDbText
  0
TEXT
  5
184DA
330
747D
100
AcDbEntity
  8
文字
 62
     7
 48
50.0
100
AcDbText
 10
15022.63965474516
 20
10080.01374588373
 30
0.0
 40
100.0
  1
Y10            0.7
  7
STYLE1
100
AcDbText
  0
TEXT
  5
184DB
330
747D
100
AcDbEntity
  8
文字
 62
     7
 48
50.0
100
AcDbText
 10
15022.63965474516
 20
10250.01374588373
 30
0.0
 40
100.0
  1
Y10            0.7
  7
STYLE1
100
AcDbText
  0
TEXT
  5
184DC
330
747D
100
AcDbEntity
  8
文字
 62
     7
 48
50.0
100
AcDbText
 10
15022.63965474516
 20
10420.01374588373
 30
0.0
 40
100.0
  1
Y10            1.0
  7
STYLE1
100
AcDbText
  0
TEXT
  5
184DD
330
747D
100
AcDbEntity
  8
文字
 62
     7
 48
50.0
100
AcDbText
 10
15022.63965474518
 20
10760.01374588373
 30
0.0
 40
100.0
  1
F12            1.0
  7
STYLE1
100
AcDbText
  0
TEXT
  5
184DE
330
747D
100
AcDbEntity
  8
文字
 62
     7
 48
50.0
100
AcDbText
 10
15022.63965474517
 20
11100.01374588373
 30
0.0
 40
100.0
  1
F12            1.2
  7
STYLE1
100
AcDbText
  0
TEXT
  5
184DF
330
747D
100
AcDbEntity
  8
文字
 62
     7
 48
50.0
100
AcDbText
 10
13248.77747366448
 20
9230.013745883729
 30
0.0
 40
100.0
  1
12
  7
STYLE1
100
AcDbText
  0
TEXT
  5
184E0
330
747D
100
AcDbEntity
  8
文字
 62
     7
 48
50.0
100
AcDbText
 10
13248.77747366448
 20
9060.013745883729
 30
0.0
 40
100.0
  1
13
  7
STYLE1
100
AcDbText
  0
LINE
  5
184E1
330
747D
100
AcDbEntity
  8
仕様書枠
 48
50.0
100
AcDbLine
 10
16307.19999999999
 20
8859.6
 30
0.0
 11
13127.2
 21
8859.600000000005
 31
0.0
  0
LINE
  5
184E2
330
747D
100
AcDbEntity
  8
仕様書枠
 48
50.0
100
AcDbLine
 10
16307.19999999999
 20
9199.600000000001
 30
0.0
 11
13127.2
 21
9199.600000000001
 31
0.0
  0
TEXT
  5
184E3
330
747D
100
AcDbEntity
  8
文字
 62
     7
 48
50.0
100
AcDbText
 10
13248.77747366447
 20
9400.013745883729
 30
0.0
 40
100.0
  1
11
  7
STYLE1
100
AcDbText
  0
LINE
  5
184E4
330
747D
100
AcDbEntity
  8
仕様書枠
 48
50.0
100
AcDbLine
 10
16307.2
 20
9879.600000000001
 30
0.0
 11
13127.2
 21
9879.600000000001
 31
0.0
  0
LINE
  5
184E5
330
747D
100
AcDbEntity
  8
仕様書枠
 48
50.0
100
AcDbLine
 10
16307.2
 20
10219.6
 30
0.0
 11
13127.2
 21
10219.6
 31
0.0
  0
LINE
  5
184E6
330
747D
100
AcDbEntity
  8
仕様書枠
 48
50.0
100
AcDbLine
 10
16307.19999999999
 20
9539.6
 30
0.0
 11
13127.2
 21
9539.6
 31
0.0
  0
LINE
  5
184E7
330
747D
100
AcDbEntity
  8
仕様書枠
 48
50.0
100
AcDbLine
 10
16307.19999999999
 20
9369.600000000001
 30
0.0
 11
13127.2
 21
9369.600000000001
 31
0.0
  0
LINE
  5
184E8
330
747D
100
AcDbEntity
  8
仕様書枠
 48
50.0
100
AcDbLine
 10
16307.19999999999
 20
9709.600000000001
 30
0.0
 11
13127.2
 21
9709.600000000001
 31
0.0
  0
TEXT
  5
184E9
330
747D
100
AcDbEntity
  8
文字
 62
     7
 48
50.0
100
AcDbText
 10
13271.19032244792
 20
10250.01374588373
 30
0.0
 40
100.0
  1
6
  7
STYLE1
100
AcDbText
  0
TEXT
  5
184EA
330
747D
100
AcDbEntity
  8
文字
 62
     7
 48
50.0
100
AcDbText
 10
13271.19032244792
 20
10080.01374588373
 30
0.0
 40
100.0
  1
7
  7
STYLE1
100
AcDbText
  0
TEXT
  5
184EB
330
747D
100
AcDbEntity
  8
文字
 62
     7
 48
50.0
100
AcDbText
 10
13271.19032244792
 20
9740.013745883729
 30
0.0
 40
100.0
  1
9
  7
STYLE1
100
AcDbText
  0
TEXT
  5
184EC
330
747D
100
AcDbEntity
  8
文字
 62
     7
 48
50.0
100
AcDbText
 10
13271.19032244792
 20
9910.01374588373
 30
0.0
 40
100.0
  1
8
  7
STYLE1
100
AcDbText
  0
TEXT
  5
184ED
330
747D
100
AcDbEntity
  8
文字
 62
     7
 48
50.0
100
AcDbText
 10
13583.11819016569
 20
10080.01374588373
 30
0.0
 40
100.0
  1
鼻隠シ前後
  7
STYLE1
100
AcDbText
  0
TEXT
  5
184EE
330
747D
100
AcDbEntity
  8
文字
 62
     7
 48
50.0
100
AcDbText
 10
13583.11819016569
 20
9910.01374588373
 30
0.0
 40
100.0
  1
屋根パネル
  7
STYLE1
100
AcDbText
  0
TEXT
  5
184EF
330
747D
100
AcDbEntity
  8
文字
 62
     7
 48
50.0
100
AcDbText
 10
13583.11819016568
 20
9570.013745883729
 30
0.0
 40
100.0
  1
壁パネル
  7
STYLE1
100
AcDbText
  0
TEXT
  5
184F0
330
747D
100
AcDbEntity
  8
文字
 62
     7
 48
50.0
100
AcDbText
 10
13248.77747366447
 20
9570.013745883729
 30
0.0
 40
100.0
  1
10
  7
STYLE1
100
AcDbText
  0
TEXT
  5
184F1
330
747D
100
AcDbEntity
  8
文字
 62
     7
 48
50.0
100
AcDbText
 10
13583.11819016569
 20
10250.01374588373
 30
0.0
 40
100.0
  1
妻板左右
  7
STYLE1
100
AcDbText
  0
TEXT
  5
184F2
330
747D
100
AcDbEntity
  8
文字
 62
     7
 48
50.0
100
AcDbText
 10
13271.19032244792
 20
10420.01374588373
 30
0.0
 40
100.0
  1
5
  7
STYLE1
100
AcDbText
  0
TEXT
  5
184F3
330
747D
100
AcDbEntity
  8
文字
 62
     7
 48
50.0
100
AcDbText
 10
13583.11819016569
 20
10420.01374588373
 30
0.0
 40
100.0
  1
桁前後
  7
STYLE1
100
AcDbText
  0
TEXT
  5
184F4
330
747D
100
AcDbEntity
  8
文字
 62
     7
 48
50.0
100
AcDbText
 10
13583.1181901657
 20
10760.01374588373
 30
0.0
 40
100.0
  1
柱
  7
STYLE1
100
AcDbText
  0
TEXT
  5
184F5
330
747D
100
AcDbEntity
  8
文字
 62
     7
 48
50.0
100
AcDbText
 10
13583.11819016569
 20
11100.01374588373
 30
0.0
 40
100.0
  1
土台枠
  7
STYLE1
100
AcDbText
  0
TEXT
  5
184F6
330
747D
100
AcDbEntity
  8
文字
 62
     7
 48
50.0
100
AcDbText
 10
14859.79774614482
 20
11270.01374588373
 30
0.0
 40
100.0
  1
材料（材質）　　単位mm
  7
STYLE1
100
AcDbText
  0
TEXT
  5
184F7
330
747D
100
AcDbEntity
  8
文字
 62
     7
 48
50.0
100
AcDbText
 10
13732.03840939434
 20
11270.01374588373
 30
0.0
 40
100.0
  1
部　　品　　名
  7
STYLE1
100
AcDbText
  0
TEXT
  5
184F8
330
747D
100
AcDbEntity
  8
文字
 62
     7
 48
50.0
100
AcDbText
 10
13271.19032244792
 20
10760.01374588373
 30
0.0
 40
100.0
  1
3
  7
STYLE1
100
AcDbText
  0
TEXT
  5
184F9
330
747D
100
AcDbEntity
  8
文字
 62
     7
 48
50.0
100
AcDbText
 10
13271.19032244792
 20
10590.01374588373
 30
0.0
 40
100.0
  1
4
  7
STYLE1
100
AcDbText
  0
TEXT
  5
184FA
330
747D
100
AcDbEntity
  8
文字
 62
     7
 48
50.0
100
AcDbText
 10
13271.19032244792
 20
10930.01374588373
 30
0.0
 40
100.0
  1
2
  7
STYLE1
100
AcDbText
  0
TEXT
  5
184FB
330
747D
100
AcDbEntity
  8
文字
 62
     7
 48
50.0
100
AcDbText
 10
13271.19032244792
 20
11100.01374588373
 30
0.0
 40
100.0
  1
1
  7
STYLE1
100
AcDbText
  0
TEXT
  5
184FC
330
747D
100
AcDbEntity
  8
文字
 62
     7
 48
50.0
100
AcDbText
 10
13197.42518560407
 20
11270.01374588373
 30
0.0
 40
100.0
  1
品番
  7
STYLE1
100
AcDbText
  0
LINE
  5
184FD
330
747D
100
AcDbEntity
  8
仕様書枠
 48
50.0
100
AcDbLine
 10
16307.19999999999
 20
10729.6
 30
0.0
 11
13127.2
 21
10729.6
 31
0.0
  0
LINE
  5
184FE
330
747D
100
AcDbEntity
  8
仕様書枠
 48
50.0
100
AcDbLine
 10
16307.19999999999
 20
10389.6
 30
0.0
 11
13127.2
 21
10389.6
 31
0.0
  0
LINE
  5
184FF
330
747D
100
AcDbEntity
  8
仕様書枠
 48
50.0
100
AcDbLine
 10
16307.19999999999
 20
10559.6
 30
0.0
 11
13127.2
 21
10559.6
 31
0.0
  0
LINE
  5
18500
330
747D
100
AcDbEntity
  8
仕様書枠
 48
50.0
100
AcDbLine
 10
16307.2
 20
11069.6
 30
0.0
 11
13127.2
 21
11069.6
 31
0.0
  0
LINE
  5
18501
330
747D
100
AcDbEntity
  8
仕様書枠
 48
50.0
100
AcDbLine
 10
16307.2
 20
10899.6
 30
0.0
 11
13127.2
 21
10899.6
 31
0.0
  0
LINE
  5
18502
330
747D
100
AcDbEntity
  8
仕様書枠
 48
50.0
100
AcDbLine
 10
16307.2
 20
11239.6
 30
0.0
 11
13127.2
 21
11239.6
 31
0.0
  0
LINE
  5
18503
330
747D
100
AcDbEntity
  8
仕様書枠
 48
50.0
100
AcDbLine
 10
13490.2
 20
11409.6
 30
0.0
 11
13490.20000000001
 21
8349.600000000007
 31
0.0
  0
LINE
  5
18504
330
747D
100
AcDbEntity
  8
仕様書枠
 48
50.0
100
AcDbLine
 10
14785.2
 20
11409.6
 30
0.0
 11
14785.2
 21
8349.600000000007
 31
0.0
  0
LINE
  5
18505
330
747D
100
AcDbEntity
  8
仕様書枠
 48
50.0
100
AcDbLine
 10
16307.19999999999
 20
8009.600000000007
 30
0.0
 11
16307.2
 21
11409.6
 31
0.0
  0
LINE
  5
18506
330
747D
100
AcDbEntity
  8
仕様書枠
 48
50.0
100
AcDbLine
 10
16307.2
 20
11409.6
 30
0.0
 11
13127.2
 21
11409.6
 31
0.0
  0
LINE
  5
18507
330
747D
100
AcDbEntity
  8
仕様書枠
 48
50.0
100
AcDbLine
 10
16307.2
 20
10049.6
 30
0.0
 11
13127.2
 21
10049.6
 31
0.0
  0
TEXT
  5
18508
330
747D
100
AcDbEntity
  8
文字
 62
     7
 48
50.0
100
AcDbText
 10
15022.63965474515
 20
8380.013745883726
 30
0.0
 40
100.0
  1
F12            2.3
  7
STYLE1
100
AcDbText
  0
TEXT
  5
18509
330
747D
100
AcDbEntity
  8
文字
 62
     7
 48
50.0
100
AcDbText
 10
13583.11819016569
 20
8380.013745883728
 30
0.0
 40
100.0
  1
アンカープレート
  7
STYLE1
100
AcDbText
  0
LINE
  5
1850A
330
747D
100
AcDbEntity
  8
仕様書枠
 48
50.0
100
AcDbLine
 10
16307.19999999999
 20
8519.600000000009
 30
0.0
 11
13127.2
 21
8519.600000000009
 31
0.0
  0
LINE
  5
1850B
330
747D
100
AcDbEntity
  8
仕様書枠
 48
50.0
100
AcDbLine
 10
16307.19999999999
 20
8689.600000000007
 30
0.0
 11
13127.2
 21
8689.600000000007
 31
0.0
  0
TEXT
  5
1850C
330
747D
100
AcDbEntity
  8
文字
 62
     7
 48
50.0
100
AcDbText
 10
13583.11819016569
 20
9400.013745883729
 30
0.0
 40
100.0
  1
壁面扉鴨居
  7
STYLE1
100
AcDbText
  0
TEXT
  5
1850D
330
747D
100
AcDbEntity
  8
文字
 62
     7
 48
50.0
100
AcDbText
 10
13583.11819016569
 20
9230.013745883736
 30
0.0
 40
100.0
  1
壁面扉敷居
  7
STYLE1
100
AcDbText
  0
TEXT
  5
1850E
330
747D
100
AcDbEntity
  8
文字
 62
     7
 48
50.0
100
AcDbText
 10
15022.63965474515
 20
9400.013745883729
 30
0.0
 40
100.0
  1
F12            0.7
  7
STYLE1
100
AcDbText
  0
TEXT
  5
1850F
330
747D
100
AcDbEntity
  8
文字
 62
     7
 48
50.0
100
AcDbText
 10
15022.63965474517
 20
9230.013745883729
 30
0.0
 40
100.0
  1
F12            1.0
  7
STYLE1
100
AcDbText
  0
TEXT
  5
18510
330
747D
100
AcDbEntity
  8
文字
 62
     7
 48
50.0
100
AcDbText
 10
13583.11819016569
 20
9060.013745883736
 30
0.0
 40
100.0
  1
壁面扉枠左右
  7
STYLE1
100
AcDbText
  0
TEXT
  5
18511
330
747D
100
AcDbEntity
  8
文字
 62
     7
 48
50.0
100
AcDbText
 10
15022.63965474517
 20
9060.013745883729
 30
0.0
 40
100.0
  1
F12            1.0
  7
STYLE1
100
AcDbText
  0
TEXT
  5
18512
330
747D
100
AcDbEntity
  8
文字
 62
     7
 48
50.0
100
AcDbText
 10
13248.77747366447
 20
8550.013745883729
 30
0.0
 40
100.0
  1
16
  7
STYLE1
100
AcDbText
  0
TEXT
  5
18513
330
747D
100
AcDbEntity
  8
文字
 62
     7
 48
50.0
100
AcDbText
 10
13248.77747366447
 20
8380.013745883728
 30
0.0
 40
100.0
  1
17
  7
STYLE1
100
AcDbText
  0
TEXT
  5
18514
330
747D
100
AcDbEntity
  8
部品1
100
AcDbText
 10
3689.345424575277
 20
2564.117258426108
 30
0.0
 40
125.0
  1
▽G.L
  7
STYLE2
100
AcDbText
  0
DIMENSION
  5
18515
330
747D
100
AcDbEntity
  8
寸法
 48
50.0
100
AcDbDimension
  2
*D14
 10
6448.444974142614
 20
5617.224488668927
 30
0.0
 11
5713.444974142618
 21
5617.224488668927
 31
0.0
 70
   160
 71
     5
 42
1469.999999999994
  3
INABA_S40G
100
AcDbAlignedDimension
 13
4978.44497414262
 23
5003.010354820212
 33
0.0
 14
6448.444974142614
 24
5003.010354820208
 34
0.0
100
AcDbRotatedDimension
  0
DIMENSION
  5
18516
330
747D
100
AcDbEntity
  8
寸法
 48
50.0
100
AcDbDimension
  2
*D15
 10
4978.44497414262
 20
5407.630614247477
 30
0.0
 11
4664.959692768372
 21
5407.630614247477
 31
0.0
 70
   160
 71
     5
 42
50.0
  3
INABA_S40G
100
AcDbAlignedDimension
 13
5028.44497414262
 23
5003.010354820212
 33
0.0
 14
4978.44497414262
 24
5003.010354820212
 34
0.0
100
AcDbRotatedDimension
1001
ACAD
1000
DSTYLE
1002
{
1002
}
  0
DIMENSION
  5
18517
330
747D
100
AcDbEntity
  8
寸法
 48
50.0
100
AcDbDimension
  2
*D16
 10
5028.44497414262
 20
5407.630614247477
 30
0.0
 11
5713.444974142618
 21
5407.630614247477
 31
0.0
 70
   160
  1
柱外寸法<>
 71
     5
 42
1369.999999999994
  3
INABA_S40G
100
AcDbAlignedDimension
 13
6398.444974142615
 23
5003.010354820212
 33
0.0
 14
5028.44497414262
 24
5003.010354820212
 34
0.0
100
AcDbRotatedDimension
  0
LINE
  5
18518
330
747D
100
AcDbEntity
  8
細線
 48
50.0
100
AcDbLine
 10
5011.444974142619
 20
5003.01035482021
 30
0.0
 11
5011.444974142619
 21
4862.01035482021
 31
0.0
  0
ARC
  5
18519
330
747D
100
AcDbEntity
  8
部品1
100
AcDbCircle
 10
4985.853395249049
 20
4996.01035482021
 30
0.0
 40
7.0
100
AcDbArc
 50
90.0
 51
183.2473427903377
  0
ARC
  5
1851A
330
747D
100
AcDbEntity
  8
部品1
100
AcDbCircle
 10
4999.068718710083
 20
4869.010354820211
 30
0.0
 40
7.0
100
AcDbArc
 50
183.2473427903377
 51
270.0
  0
ARC
  5
1851B
330
747D
100
AcDbEntity
  8
部品1
 48
50.0
100
AcDbCircle
 10
4980.696908499407
 20
4975.677353981895
 30
0.0
 40
0.7
100
AcDbArc
 50
183.2473427904417
 51
262.3418727926349
  0
ARC
  5
1851C
330
747D
100
AcDbEntity
  8
部品1
 48
50.0
100
AcDbCircle
 10
4988.932939024247
 20
4883.477353981892
 30
0.0
 40
0.7
100
AcDbArc
 50
183.2473427903377
 51
262.3418727926349
  0
ARC
  5
1851D
330
747D
100
AcDbEntity
  8
部品1
 48
50.0
100
AcDbCircle
 10
4988.439869915686
 20
4879.810354820207
 30
0.0
 40
3.0
100
AcDbArc
 50
3.247342790337682
 51
82.3418727926348
  0
ARC
  5
1851E
330
747D
100
AcDbEntity
  8
部品1
 48
50.0
100
AcDbCircle
 10
4980.203839390846
 20
4972.010354820212
 30
0.0
 40
3.0
100
AcDbArc
 50
3.247342790337682
 51
82.3418727926348
  0
LINE
  5
1851F
330
747D
100
AcDbEntity
  8
部品1
100
AcDbLine
 10
4983.199022287028
 20
4972.180294275313
 30
0.0
 11
4988.23406301514
 21
4883.437701442367
 31
0.0
  0
LINE
  5
18520
330
747D
100
AcDbEntity
  8
部品1
100
AcDbLine
 10
4991.435052811876
 20
4879.98029427531
 30
0.0
 11
4992.079958618984
 21
4868.61382942497
 31
0.0
  0
LINE
  5
18521
330
747D
100
AcDbEntity
  8
部品1
100
AcDbLine
 10
4978.864635157954
 20
4995.613829424971
 30
0.0
 11
4979.998032490299
 21
4975.63770144237
 31
0.0
  0
LINE
  5
18522
330
747D
100
AcDbEntity
  8
部品1
 48
50.0
100
AcDbLine
 10
6441.036553036181
 20
5003.01035482021
 30
0.0
 11
4985.853395249049
 21
5003.010354820212
 31
0.0
  0
LINE
  5
18523
330
747D
100
AcDbEntity
  8
部品1
 48
50.0
100
AcDbLine
 10
6427.821229575148
 20
4862.010354820212
 30
0.0
 11
4999.068718710083
 21
4862.01035482021
 31
0.0
  0
LINE
  5
18524
330
747D
100
AcDbEntity
  8
細線
 48
50.0
100
AcDbLine
 10
6446.405435921173
 20
4975.010354820209
 30
0.0
 11
4980.484512364057
 21
4975.010354820208
 31
0.0
  0
LINE
  5
18525
330
747D
100
AcDbEntity
  8
細線
 48
50.0
100
AcDbLine
 10
6438.169405396334
 20
4882.810354820208
 30
0.0
 11
4988.720542888887
 21
4882.810354820211
 31
0.0
  0
LINE
  5
18526
330
747D
100
AcDbEntity
  8
細線
100
AcDbLine
 10
5403.444974142618
 20
4827.510354820204
 30
0.0
 11
5403.444974142614
 21
4804.510354820204
 31
0.0
  0
LINE
  5
18527
330
747D
100
AcDbEntity
  8
細線
100
AcDbLine
 10
5477.444974142614
 20
4815.510354820204
 30
0.0
 11
5403.444974142618
 21
4815.510354820204
 31
0.0
  0
LINE
  5
18528
330
747D
100
AcDbEntity
  8
細線
100
AcDbLine
 10
5477.444974142614
 20
4809.510354820204
 30
0.0
 11
5403.444974142618
 21
4809.510354820204
 31
0.0
  0
LINE
  5
18529
330
747D
100
AcDbEntity
  8
細線
100
AcDbLine
 10
5477.444974142614
 20
4821.510354820205
 30
0.0
 11
5403.444974142618
 21
4821.510354820205
 31
0.0
  0
LINE
  5
1852A
330
747D
100
AcDbEntity
  8
細線
100
AcDbLine
 10
5329.444974142617
 20
4821.510354820205
 30
0.0
 11
5398.444974142618
 21
4821.510354820205
 31
0.0
  0
LINE
  5
1852B
330
747D
100
AcDbEntity
  8
細線
100
AcDbLine
 10
5329.444974142614
 20
4809.510354820204
 30
0.0
 11
5403.444974142618
 21
4809.510354820204
 31
0.0
  0
LINE
  5
1852C
330
747D
100
AcDbEntity
  8
細線
100
AcDbLine
 10
5329.444974142617
 20
4815.510354820204
 30
0.0
 11
5403.444974142618
 21
4815.510354820204
 31
0.0
  0
LINE
  5
1852D
330
747D
100
AcDbEntity
  8
細線
100
AcDbLine
 10
5329.444974142617
 20
4821.510354820205
 30
0.0
 11
5403.444974142618
 21
4821.510354820205
 31
0.0
  0
LINE
  5
1852E
330
747D
100
AcDbEntity
  8
部品1
 48
0.01
100
AcDbLine
 10
5491.444974142618
 20
4834.010354820204
 30
0.0
 11
5315.444974142618
 21
4834.010354820204
 31
0.0
  0
LINE
  5
1852F
330
747D
100
AcDbEntity
  8
部品1
 48
0.01
100
AcDbLine
 10
5313.444974142618
 20
4832.010354820204
 30
0.0
 11
5313.444974142618
 21
4800.510354820204
 31
0.0
  0
LINE
  5
18530
330
747D
100
AcDbEntity
  8
部品1
 48
0.01
100
AcDbLine
 10
5315.444974142618
 20
4798.510354820204
 30
0.0
 11
5491.444974142615
 21
4798.510354820204
 31
0.0
  0
LINE
  5
18531
330
747D
100
AcDbEntity
  8
部品1
 48
0.01
100
AcDbLine
 10
5493.444974142614
 20
4800.510354820204
 30
0.0
 11
5493.444974142618
 21
4832.010354820204
 31
0.0
  0
LINE
  5
18532
330
747D
100
AcDbEntity
  8
細線
100
AcDbLine
 10
5329.444974142617
 20
4827.510354820204
 30
0.0
 11
5329.444974142617
 21
4804.510354820204
 31
0.0
  0
LINE
  5
18533
330
747D
100
AcDbEntity
  8
細線
100
AcDbLine
 10
5477.444974142618
 20
4804.510354820204
 30
0.0
 11
5477.444974142618
 21
4827.510354820204
 31
0.0
  0
LINE
  5
18534
330
747D
100
AcDbEntity
  8
細線
100
AcDbLine
 10
5477.444974142618
 20
4827.510354820204
 30
0.0
 11
5403.444974142618
 21
4827.510354820204
 31
0.0
  0
LINE
  5
18535
330
747D
100
AcDbEntity
  8
細線
100
AcDbLine
 10
5329.444974142617
 20
4804.510354820204
 30
0.0
 11
5403.444974142618
 21
4804.510354820204
 31
0.0
  0
LINE
  5
18536
330
747D
100
AcDbEntity
  8
細線
100
AcDbLine
 10
5403.444974142618
 20
4827.510354820204
 30
0.0
 11
5329.444974142617
 21
4827.510354820204
 31
0.0
  0
LINE
  5
18537
330
747D
100
AcDbEntity
  8
細線
100
AcDbLine
 10
5403.444974142614
 20
4804.510354820204
 30
0.0
 11
5477.444974142618
 21
4804.510354820204
 31
0.0
  0
ARC
  5
18538
330
747D
100
AcDbEntity
  8
部品1
 48
0.01
100
AcDbCircle
 10
5315.444974142618
 20
4832.010354820204
 30
0.0
 40
2.0
100
AcDbArc
 50
90.0
 51
180.0
  0
ARC
  5
18539
330
747D
100
AcDbEntity
  8
部品1
 48
0.01
100
AcDbCircle
 10
5315.444974142618
 20
4800.510354820204
 30
0.0
 40
2.0
100
AcDbArc
 50
180.0
 51
270.0
  0
ARC
  5
1853A
330
747D
100
AcDbEntity
  8
部品1
 48
0.01
100
AcDbCircle
 10
5491.444974142618
 20
4832.010354820204
 30
0.0
 40
2.0
100
AcDbArc
 50
0.0
 51
90.0
  0
ARC
  5
1853B
330
747D
100
AcDbEntity
  8
部品1
 48
0.01
100
AcDbCircle
 10
5491.444974142615
 20
4800.510354820204
 30
0.0
 40
2.0
100
AcDbArc
 50
270.0
 51
0.0
  0
ARC
  5
1853C
330
747D
100
AcDbEntity
  8
部品1
 48
0.01
100
AcDbCircle
 10
5935.444974142618
 20
4832.010354820204
 30
0.0
 40
2.0
100
AcDbArc
 50
90.0
 51
180.0
  0
ARC
  5
1853D
330
747D
100
AcDbEntity
  8
部品1
 48
0.01
100
AcDbCircle
 10
6111.444974142617
 20
4832.010354820204
 30
0.0
 40
2.0
100
AcDbArc
 50
0.0
 51
90.0
  0
LINE
  5
1853E
330
747D
100
AcDbEntity
  8
細線
100
AcDbLine
 10
6023.444974142618
 20
4804.510354820204
 30
0.0
 11
5949.444974142618
 21
4804.510354820204
 31
0.0
  0
LINE
  5
1853F
330
747D
100
AcDbEntity
  8
細線
100
AcDbLine
 10
6023.444974142618
 20
4827.510354820204
 30
0.0
 11
6097.444974142618
 21
4827.510354820204
 31
0.0
  0
LINE
  5
18540
330
747D
100
AcDbEntity
  8
細線
100
AcDbLine
 10
6097.444974142618
 20
4804.510354820204
 30
0.0
 11
6023.444974142618
 21
4804.510354820204
 31
0.0
  0
LINE
  5
18541
330
747D
100
AcDbEntity
  8
細線
100
AcDbLine
 10
5949.444974142618
 20
4827.510354820204
 30
0.0
 11
6023.444974142618
 21
4827.510354820204
 31
0.0
  0
LINE
  5
18542
330
747D
100
AcDbEntity
  8
細線
100
AcDbLine
 10
5949.444974142618
 20
4804.510354820204
 30
0.0
 11
5949.444974142618
 21
4827.510354820204
 31
0.0
  0
LINE
  5
18543
330
747D
100
AcDbEntity
  8
細線
100
AcDbLine
 10
6097.444974142618
 20
4827.510354820204
 30
0.0
 11
6097.444974142618
 21
4804.510354820204
 31
0.0
  0
LINE
  5
18544
330
747D
100
AcDbEntity
  8
部品1
 48
0.01
100
AcDbLine
 10
5935.444974142618
 20
4834.010354820204
 30
0.0
 11
6111.444974142617
 21
4834.010354820204
 31
0.0
  0
LINE
  5
18545
330
747D
100
AcDbEntity
  8
細線
100
AcDbLine
 10
6097.444974142618
 20
4821.510354820205
 30
0.0
 11
6023.444974142618
 21
4821.510354820205
 31
0.0
  0
LINE
  5
18546
330
747D
100
AcDbEntity
  8
細線
100
AcDbLine
 10
6097.444974142618
 20
4815.510354820204
 30
0.0
 11
6023.444974142618
 21
4815.510354820204
 31
0.0
  0
LINE
  5
18547
330
747D
100
AcDbEntity
  8
細線
100
AcDbLine
 10
6097.444974142618
 20
4809.510354820204
 30
0.0
 11
6023.444974142618
 21
4809.510354820204
 31
0.0
  0
LINE
  5
18548
330
747D
100
AcDbEntity
  8
細線
100
AcDbLine
 10
6097.444974142618
 20
4821.510354820205
 30
0.0
 11
6028.444974142618
 21
4821.510354820205
 31
0.0
  0
LINE
  5
18549
330
747D
100
AcDbEntity
  8
細線
100
AcDbLine
 10
5949.444974142618
 20
4821.510354820205
 30
0.0
 11
6023.444974142618
 21
4821.510354820205
 31
0.0
  0
LINE
  5
1854A
330
747D
100
AcDbEntity
  8
細線
100
AcDbLine
 10
5949.444974142618
 20
4809.510354820204
 30
0.0
 11
6023.444974142618
 21
4809.510354820204
 31
0.0
  0
LINE
  5
1854B
330
747D
100
AcDbEntity
  8
細線
100
AcDbLine
 10
5949.444974142618
 20
4815.510354820204
 30
0.0
 11
6023.444974142618
 21
4815.510354820204
 31
0.0
  0
LINE
  5
1854C
330
747D
100
AcDbEntity
  8
細線
100
AcDbLine
 10
6023.444974142618
 20
4827.510354820204
 30
0.0
 11
6023.444974142618
 21
4804.510354820204
 31
0.0
  0
ARC
  5
1854D
330
747D
100
AcDbEntity
  8
部品1
 48
0.01
100
AcDbCircle
 10
5935.444974142618
 20
4800.510354820204
 30
0.0
 40
2.0
100
AcDbArc
 50
180.0
 51
270.0
  0
ARC
  5
1854E
330
747D
100
AcDbEntity
  8
部品1
 48
0.01
100
AcDbCircle
 10
6111.444974142617
 20
4800.510354820204
 30
0.0
 40
2.0
100
AcDbArc
 50
270.0
 51
0.0
  0
LINE
  5
1854F
330
747D
100
AcDbEntity
  8
部品1
 48
0.01
100
AcDbLine
 10
5933.444974142617
 20
4800.510354820204
 30
0.0
 11
5933.444974142617
 21
4832.010354820204
 31
0.0
  0
LINE
  5
18550
330
747D
100
AcDbEntity
  8
部品1
 48
0.01
100
AcDbLine
 10
6111.444974142617
 20
4798.510354820204
 30
0.0
 11
5935.444974142618
 21
4798.510354820204
 31
0.0
  0
LINE
  5
18551
330
747D
100
AcDbEntity
  8
部品1
 48
0.01
100
AcDbLine
 10
6113.444974142618
 20
4832.010354820204
 30
0.0
 11
6113.444974142618
 21
4800.510354820204
 31
0.0
  0
DIMENSION
  5
18552
330
747D
100
AcDbEntity
  8
寸法
 48
50.0
100
AcDbDimension
  2
*D17
 10
6398.444974142615
 20
5407.630614247477
 30
0.0
 11
6761.93025551685
 21
5407.630614247477
 31
0.0
 70
   160
 71
     5
 42
50.0
  3
INABA_S40G
100
AcDbAlignedDimension
 13
6448.444974142614
 23
5003.010354820208
 33
0.0
 14
6398.444974142615
 24
5003.010354820212
 34
0.0
100
AcDbRotatedDimension
  0
LINE
  5
18553
330
747D
100
AcDbEntity
  8
部品1
100
AcDbLine
 10
6448.02531312728
 20
4995.613829424971
 30
0.0
 11
6446.891915794934
 21
4975.63770144237
 31
0.0
  0
LINE
  5
18554
330
747D
100
AcDbEntity
  8
細線
 48
50.0
100
AcDbLine
 10
6415.444974142615
 20
5003.01035482021
 30
0.0
 11
6415.444974142615
 21
4862.01035482021
 31
0.0
  0
LINE
  5
18555
330
747D
100
AcDbEntity
  8
部品1
100
AcDbLine
 10
6435.454895473359
 20
4879.98029427531
 30
0.0
 11
6434.809989666246
 21
4868.61382942497
 31
0.0
  0
LINE
  5
18556
330
747D
100
AcDbEntity
  8
部品1
100
AcDbLine
 10
6443.690925998201
 20
4972.180294275313
 30
0.0
 11
6438.655885270091
 21
4883.437701442367
 31
0.0
  0
ARC
  5
18557
330
747D
100
AcDbEntity
  8
部品1
 48
50.0
100
AcDbCircle
 10
6446.686108894389
 20
4972.010354820212
 30
0.0
 40
3.0
100
AcDbArc
 50
97.65812720736519
 51
176.7526572096623
  0
ARC
  5
18558
330
747D
100
AcDbEntity
  8
部品1
 48
50.0
100
AcDbCircle
 10
6438.450078369545
 20
4879.810354820207
 30
0.0
 40
3.0
100
AcDbArc
 50
97.65812720736519
 51
176.7526572096623
  0
ARC
  5
18559
330
747D
100
AcDbEntity
  8
部品1
 48
50.0
100
AcDbCircle
 10
6437.957009260983
 20
4883.477353981892
 30
0.0
 40
0.7
100
AcDbArc
 50
277.6581272073652
 51
356.7526572096623
  0
ARC
  5
1855A
330
747D
100
AcDbEntity
  8
部品1
 48
50.0
100
AcDbCircle
 10
6446.193039785827
 20
4975.677353981895
 30
0.0
 40
0.7
100
AcDbArc
 50
277.6581272073652
 51
356.7526572095583
  0
ARC
  5
1855B
330
747D
100
AcDbEntity
  8
部品1
100
AcDbCircle
 10
6427.821229575148
 20
4869.010354820211
 30
0.0
 40
7.0
100
AcDbArc
 50
270.0
 51
356.7526572096623
  0
ARC
  5
1855C
330
747D
100
AcDbEntity
  8
部品1
100
AcDbCircle
 10
6441.036553036181
 20
4996.01035482021
 30
0.0
 40
7.0
100
AcDbArc
 50
356.7526572096623
 51
90.0
  0
TEXT
  5
1855D
330
747D
100
AcDbEntity
  8
文字
 62
     7
 48
50.0
100
AcDbText
 10
13209.4053442172
 20
228.5435242569015
 30
0.0
 40
100.0
  1
○有効開口寸法 ： 1266×2025(mm)
  7
STYLE2
100
AcDbText
  0
LINE
  5
1855E
330
747D
100
AcDbEntity
  8
Ｇ．Ｌ
100
AcDbLine
 10
3411.854853102366
 20
2528.010354820206
 30
0.0
 11
11706.24194419602
 21
2528.010354820206
 31
0.0
  0
LINE
  5
1855F
330
747D
100
AcDbEntity
  8
部品1
100
AcDbLine
 10
8846.729391167178
 20
2628.010354820206
 30
0.0
 11
11056.72939116717
 21
2628.010354820206
 31
0.0
  0
LINE
  5
18560
330
747D
100
AcDbEntity
  8
部品1
100
AcDbLine
 10
8846.729391167178
 20
4768.010354820206
 30
0.0
 11
11056.72939116717
 21
4768.010354820206
 31
0.0
  0
LINE
  5
18561
330
747D
100
AcDbEntity
  8
部品1
100
AcDbLine
 10
8846.729391167178
 20
4860.036651864792
 30
0.0
 11
8846.729391167178
 21
2528.010354820206
 31
0.0
  0
LINE
  5
18562
330
747D
100
AcDbEntity
  8
部品1
100
AcDbLine
 10
11056.72939116718
 20
4822.686792451427
 30
0.0
 11
11056.72939116717
 21
2528.010354820206
 31
0.0
  0
LINE
  5
18563
330
747D
100
AcDbEntity
  8
部品1
100
AcDbLine
 10
10656.72939116717
 20
2628.010354820206
 30
0.0
 11
10656.72939116717
 21
2528.010354820206
 31
0.0
  0
LINE
  5
18564
330
747D
100
AcDbEntity
  8
部品1
100
AcDbLine
 10
9246.729391167177
 20
2628.010354820206
 30
0.0
 11
9246.729391167177
 21
2528.010354820206
 31
0.0
  0
LINE
  5
18565
330
747D
100
AcDbEntity
  8
部品1
100
AcDbLine
 10
11061.72939116717
 20
2673.010354820207
 30
0.0
 11
11061.72939116717
 21
2528.010354820206
 31
0.0
  0
LINE
  5
18569
330
747D
100
AcDbEntity
  8
破線
 48
5.0
100
AcDbLine
 10
11081.72939116717
 20
2373.010354820206
 30
0.0
 11
11061.72939116717
 21
2373.010354820206
 31
0.0
  0
LINE
  5
1856A
330
747D
100
AcDbEntity
  8
部品1
100
AcDbLine
 10
8841.729391167175
 20
2673.010354820208
 30
0.0
 11
8841.729391167175
 21
2528.010354820206
 31
0.0
  0
LINE
  5
1856D
330
747D
100
AcDbEntity
  8
破線
 48
5.0
100
AcDbLine
 10
8821.729391167178
 20
2373.010354820207
 30
0.0
 11
8841.729391167179
 21
2373.010354820207
 31
0.0
  0
LINE
  5
1856F
330
747D
100
AcDbEntity
  8
破線
 48
5.0
100
AcDbLine
 10
11061.72939116717
 20
2528.010354820206
 30
0.0
 11
11061.72939116717
 21
2373.010354820206
 31
0.0
  0
LINE
  5
18570
330
747D
100
AcDbEntity
  8
破線
 48
5.0
100
AcDbLine
 10
8841.729391167175
 20
2528.010354820206
 30
0.0
 11
8841.729391167175
 21
2373.010354820207
 31
0.0
  0
DIMENSION
  5
18571
330
747D
100
AcDbEntity
  8
寸法
 48
50.0
100
AcDbDimension
  2
*D18
 10
8721.729391167178
 20
1991.983371202794
 30
0.0
 11
8846.729391167178
 21
1991.983371202794
 31
0.0
 70
   160
 71
     5
 42
250.0
  3
INABA_S40G
100
AcDbAlignedDimension
 13
8971.729391167178
 23
2278.010354820206
 33
0.0
 14
8721.729391167178
 24
2278.010354820206
 34
0.0
100
AcDbRotatedDimension
  0
TEXT
  5
18572
330
747D
100
AcDbEntity
  8
部品1
100
AcDbText
 10
9660.51946179091
 20
1455.801282626723
 30
0.0
 40
135.0
  1
正面図
  7
STYLE2
100
AcDbText
  0
LINE
  5
18573
330
747D
100
AcDbEntity
  8
部品1
100
AcDbLine
 10
8846.729391167178
 20
2678.01035482021
 30
0.0
 11
8874.729391167177
 21
2678.01035482021
 31
0.0
  0
DIMENSION
  5
18574
330
747D
100
AcDbEntity
  8
寸法
100
AcDbDimension
  2
*D19
 10
12069.26267864123
 20
8102.613052486798
 30
0.0
 11
12069.26267864123
 21
8787.613052486802
 31
0.0
 70
   160
 71
     5
 42
1370.000000000007
  3
INABA_S40G
100
AcDbAlignedDimension
 13
11056.72939116718
 23
9472.613052486805
 33
0.0
 14
11056.72939116716
 24
8102.613052486798
 34
0.0
 50
90.0
100
AcDbRotatedDimension
1001
ACAD
1000
DSTYLE
1002
{
1002
}
  0
DIMENSION
  5
18575
330
747D
100
AcDbEntity
  8
寸法
100
AcDbDimension
  2
*D20
 10
11001.72939116718
 20
9775.658647062407
 30
0.0
 11
9951.729391167184
 21
9775.658647062407
 31
0.0
 70
   160
  1
5X420=<>
 71
     5
 42
2100.0
  3
INABA_S40G
100
AcDbAlignedDimension
 13
8901.729391167185
 23
9472.613052486712
 33
0.0
 14
11001.72939116718
 24
9472.613052486805
 34
0.0
100
AcDbRotatedDimension
1001
ACAD
1000
DSTYLE
1002
{
1002
}
  0
DIMENSION
  5
18576
330
747D
100
AcDbEntity
  8
寸法
100
AcDbDimension
  2
*D21
 10
11056.72939116718
 20
9775.658647062389
 30
0.0
 11
11365.21467254142
 21
9775.658647062389
 31
0.0
 70
   160
 71
     5
 42
55.0
  3
INABA_S40G
100
AcDbAlignedDimension
 13
11001.72939116718
 23
9472.613052486805
 33
0.0
 14
11056.72939116718
 24
9472.613052486805
 34
0.0
100
AcDbRotatedDimension
1001
ACAD
1000
DSTYLE
1002
{
1002
}
  0
DIMENSION
  5
18577
330
747D
100
AcDbEntity
  8
寸法
100
AcDbDimension
  2
*D22
 10
11704.15573690159
 20
9417.61305248681
 30
0.0
 11
11704.15573690159
 21
9781.098333861045
 31
0.0
 70
   160
 71
     5
 42
54.99999999999636
  3
INABA_S40G
100
AcDbAlignedDimension
 13
11056.72939116718
 23
9472.613052486805
 33
0.0
 14
11056.72939116718
 24
9417.61305248681
 34
0.0
 50
90.0
100
AcDbRotatedDimension
1001
ACAD
1000
DSTYLE
1002
{
1002
}
  0
DIMENSION
  5
18578
330
747D
100
AcDbEntity
  8
寸法
100
AcDbDimension
  2
*D23
 10
8901.729391167185
 20
9775.658647062289
 30
0.0
 11
8538.244109792911
 21
9775.658647062289
 31
0.0
 70
   160
 71
     5
 42
55.00000000003637
  3
INABA_S40G
100
AcDbAlignedDimension
 13
8846.729391167148
 23
9472.613052486712
 33
0.0
 14
8901.729391167185
 24
9472.613052486712
 34
0.0
100
AcDbRotatedDimension
1001
ACAD
1000
DSTYLE
1002
{
1002
}
  0
LINE
  5
18579
330
747D
100
AcDbEntity
  8
部品1
100
AcDbLine
 10
11000.22939116714
 20
8159.113052486729
 30
0.0
 11
8903.229391167061
 21
8159.113052486631
 31
0.0
  0
LINE
  5
1857A
330
747D
100
AcDbEntity
  8
破線
 48
10.0
100
AcDbLine
 10
10272.2293911672
 20
8182.613052486692
 30
0.0
 11
9631.229391167199
 21
8182.613052486663
 31
0.0
  0
DIMENSION
  5
1857B
330
747D
100
AcDbEntity
  8
寸法
100
AcDbDimension
  2
*D24
 10
10069.66061761079
 20
8699.390397685842
 30
0.0
 11
9410.806167743565
 21
8699.390397685842
 31
0.0
 70
   160
 71
     5
 42
1273.000000000011
  3
INABA_S40G
100
AcDbAlignedDimension
 13
8875.229391167184
 23
8992.613052486712
 33
0.0
 14
10148.22939116719
 24
8992.613052486705
 34
0.0
100
AcDbRotatedDimension
1001
ACAD
1000
DSTYLE
1002
{
1002
}
  0
LINE
  5
1857C
330
747D
100
AcDbEntity
  8
細線
 48
50.0
100
AcDbLine
 10
10148.22939116718
 20
8992.613052486817
 30
0.0
 11
8875.229391167183
 21
9442.613052486711
 31
0.0
  0
LINE
  5
1857D
330
747D
100
AcDbEntity
  8
部品1
100
AcDbLine
 10
8875.229391167183
 20
9442.613052486711
 30
0.0
 11
10148.22939116718
 21
9442.613052486818
 31
0.0
  0
LINE
  5
1857E
330
747D
100
AcDbEntity
  8
細線
 48
50.0
100
AcDbLine
 10
10148.22939116718
 20
9442.613052486812
 30
0.0
 11
8875.229391167184
 21
8992.613052486712
 31
0.0
  0
LINE
  5
1857F
330
747D
100
AcDbEntity
  8
部品1
100
AcDbLine
 10
8875.229391167184
 20
8992.613052486712
 30
0.0
 11
10148.22939116718
 21
8992.613052486817
 31
0.0
  0
LINE
  5
18580
330
747D
100
AcDbEntity
  8
部品1
100
AcDbLine
 10
8846.729391167185
 20
9472.613052486712
 30
0.0
 11
11056.72939116718
 21
9472.613052486805
 31
0.0
  0
LINE
  5
18581
330
747D
100
AcDbEntity
  8
部品1
100
AcDbLine
 10
8874.729391167184
 20
9444.613052486712
 30
0.0
 11
10149.22939116718
 21
9444.613052486827
 31
0.0
  0
LINE
  5
18583
330
747D
100
AcDbEntity
  8
破線
 48
10.0
100
AcDbLine
 10
8926.729391167159
 20
8992.613052486809
 30
0.0
 11
8926.729391167173
 21
8182.613052486631
 31
0.0
  0
LINE
  5
18584
330
747D
100
AcDbEntity
  8
部品1
100
AcDbLine
 10
8903.22939116716
 20
8992.613052486809
 30
0.0
 11
8903.229391167178
 21
8159.113052486748
 31
0.0
  0
LINE
  5
18585
330
747D
100
AcDbEntity
  8
部品1
100
AcDbLine
 10
8874.729391167159
 20
8130.613052486729
 30
0.0
 11
8874.729391167184
 21
9444.613052486712
 31
0.0
  0
LINE
  5
18586
330
747D
100
AcDbEntity
  8
部品1
100
AcDbLine
 10
8846.729391167148
 20
9472.613052486678
 30
0.0
 11
8846.729391167178
 21
8102.613052486667
 31
0.0
  0
LINE
  5
18587
330
747D
100
AcDbEntity
  8
部品1
 48
50.0
100
AcDbLine
 10
8903.229391167156
 20
8159.113052486729
 30
0.0
 11
8874.729391167159
 21
8130.613052486729
 31
0.0
  0
LINE
  5
18588
330
747D
100
AcDbEntity
  8
部品1
 48
50.0
100
AcDbLine
 10
8875.229391167183
 20
9442.613052486708
 30
0.0
 11
8875.229391167184
 21
8992.613052486708
 31
0.0
  0
LINE
  5
18589
330
747D
100
AcDbEntity
  8
部品1
100
AcDbLine
 10
8874.729391167159
 20
8997.613052486682
 30
0.0
 11
8846.729391167158
 21
8997.613052486682
 31
0.0
  0
LINE
  5
1858A
330
747D
100
AcDbEntity
  8
部品1
100
AcDbLine
 10
8874.729391167152
 20
9417.613052486682
 30
0.0
 11
8846.729391167151
 21
9417.613052486682
 31
0.0
  0
LINE
  5
1858B
330
747D
100
AcDbEntity
  8
部品1
100
AcDbLine
 10
8901.729391167185
 20
9472.613052486712
 30
0.0
 11
8901.729391167185
 21
9444.613052486712
 31
0.0
  0
LINE
  5
1858C
330
747D
100
AcDbEntity
  8
部品1
100
AcDbLine
 10
8901.729391167148
 20
9472.613052486678
 30
0.0
 11
8901.729391167151
 21
9444.613052486678
 31
0.0
  0
DIMENSION
  5
1858D
330
747D
100
AcDbEntity
  8
寸法
100
AcDbDimension
  2
*D25
 10
11704.15573690157
 20
8102.613052486798
 30
0.0
 11
11704.15573690157
 21
7724.751585581937
 31
0.0
 70
   160
 71
     5
 42
54.99999999999636
  3
INABA_S40G
100
AcDbAlignedDimension
 13
11056.72939116716
 23
8157.613052486793
 33
0.0
 14
11056.72939116716
 24
8102.613052486798
 34
0.0
 50
90.0
100
AcDbRotatedDimension
1001
ACAD
1000
DSTYLE
1002
{
1002
}
  0
LINE
  5
1858F
330
747D
100
AcDbEntity
  8
破線
 48
10.0
100
AcDbLine
 10
10976.72939116714
 20
8182.613052486725
 30
0.0
 11
10322.2293911672
 21
8182.613052486699
 31
0.0
  0
DIMENSION
  5
18590
330
747D
100
AcDbEntity
  8
寸法
100
AcDbDimension
  2
*D26
 10
10949.66061761076
 20
8699.390397685842
 30
0.0
 11
10554.57645328545
 21
8699.390397685842
 31
0.0
 70
   160
 71
     5
 42
853.0000000000109
  3
INABA_S40G
100
AcDbAlignedDimension
 13
10175.22939116718
 23
8992.613052486817
 33
0.0
 14
11028.22939116719
 24
8992.613052486809
 34
0.0
100
AcDbRotatedDimension
1001
ACAD
1000
DSTYLE
1002
{
1002
}
  0
LINE
  5
18591
330
747D
100
AcDbEntity
  8
細線
 48
50.0
100
AcDbLine
 10
11028.22939116718
 20
9442.613052486805
 30
0.0
 11
10175.22939116718
 21
8992.613052486817
 31
0.0
  0
LINE
  5
18592
330
747D
100
AcDbEntity
  8
部品1
100
AcDbLine
 10
10175.22939116718
 20
9442.613052486812
 30
0.0
 11
11028.22939116718
 21
9442.613052486805
 31
0.0
  0
LINE
  5
18593
330
747D
100
AcDbEntity
  8
部品1
100
AcDbLine
 10
10175.22939116718
 20
8992.613052486817
 30
0.0
 11
11028.22939116718
 21
8992.613052486809
 31
0.0
  0
LINE
  5
18594
330
747D
100
AcDbEntity
  8
細線
 48
50.0
100
AcDbLine
 10
11028.22939116718
 20
8992.613052486809
 30
0.0
 11
10175.22939116718
 21
9442.613052486811
 31
0.0
  0
LINE
  5
18595
330
747D
100
AcDbEntity
  8
部品1
100
AcDbLine
 10
10174.22939116718
 20
9444.613052486824
 30
0.0
 11
11028.72939116718
 21
9444.613052486806
 31
0.0
  0
LINE
  5
18596
330
747D
100
AcDbEntity
  8
部品1
100
AcDbLine
 10
9321.729391167185
 20
9472.613052486712
 30
0.0
 11
9321.729391167185
 21
9444.613052486712
 31
0.0
  0
LINE
  5
18597
330
747D
100
AcDbEntity
  8
部品1
100
AcDbLine
 10
9321.729391167185
 20
9472.613052486712
 30
0.0
 11
9321.729391167185
 21
9444.613052486712
 31
0.0
  0
LINE
  5
18598
330
747D
100
AcDbEntity
  8
部品1
100
AcDbLine
 10
9321.729391167185
 20
9472.613052486828
 30
0.0
 11
9321.729391167185
 21
9444.613052486827
 31
0.0
  0
LINE
  5
18599
330
747D
100
AcDbEntity
  8
部品1
 48
50.0
100
AcDbLine
 10
10148.22939116718
 20
9442.613052486812
 30
0.0
 11
10148.22939116718
 21
8992.613052486817
 31
0.0
  0
LINE
  5
1859A
330
747D
100
AcDbEntity
  8
部品1
 48
50.0
100
AcDbLine
 10
10175.22939116718
 20
9442.613052486811
 30
0.0
 11
10175.22939116718
 21
8992.613052486817
 31
0.0
  0
LINE
  5
1859B
330
747D
100
AcDbEntity
  8
部品1
 48
50.0
100
AcDbLine
 10
10149.22939116718
 20
9444.61305248682
 30
0.0
 11
10149.22939116718
 21
8992.613052486817
 31
0.0
  0
LINE
  5
1859C
330
747D
100
AcDbEntity
  8
部品1
 48
50.0
100
AcDbLine
 10
10174.22939116718
 20
9444.613052486817
 30
0.0
 11
10174.22939116718
 21
8992.613052486817
 31
0.0
  0
LINE
  5
1859D
330
747D
100
AcDbEntity
  8
部品1
100
AcDbLine
 10
10149.22939116718
 20
8992.613052486817
 30
0.0
 11
10174.22939116718
 21
8992.613052486817
 31
0.0
  0
LINE
  5
1859E
330
747D
100
AcDbEntity
  8
部品1
100
AcDbLine
 10
10126.72939116718
 20
9462.613052486814
 30
0.0
 11
10126.72939116718
 21
9444.613052486813
 31
0.0
  0
LINE
  5
1859F
330
747D
100
AcDbEntity
  8
部品1
100
AcDbLine
 10
10126.72939116718
 20
9462.613052486814
 30
0.0
 11
10132.72939116718
 21
9462.613052486814
 31
0.0
  0
LINE
  5
185A0
330
747D
100
AcDbEntity
  8
部品1
100
AcDbLine
 10
10196.72939116718
 20
9462.613052486814
 30
0.0
 11
10196.72939116718
 21
9444.613052486813
 31
0.0
  0
LINE
  5
185A1
330
747D
100
AcDbEntity
  8
部品1
100
AcDbLine
 10
10190.72939116718
 20
9462.613052486814
 30
0.0
 11
10196.72939116718
 21
9462.613052486814
 31
0.0
  0
LINE
  5
185A2
330
747D
100
AcDbEntity
  8
部品1
100
AcDbLine
 10
10149.22939116718
 20
9436.61305248681
 30
0.0
 11
10174.22939116718
 21
9436.613052486812
 31
0.0
  0
LINE
  5
185A3
330
747D
100
AcDbEntity
  8
部品1
100
AcDbLine
 10
10161.72939116718
 20
9472.613052486828
 30
0.0
 11
10161.72939116718
 21
9444.613052486827
 31
0.0
  0
LINE
  5
185A4
330
747D
100
AcDbEntity
  8
部品1
100
AcDbLine
 10
10581.72939116718
 20
9472.613052486828
 30
0.0
 11
10581.72939116718
 21
9444.613052486827
 31
0.0
  0
LINE
  5
185A5
330
747D
100
AcDbEntity
  8
破線
 48
10.0
100
AcDbLine
 10
10976.72939116717
 20
8992.613052486809
 30
0.0
 11
10976.72939116716
 21
8182.613052486725
 31
0.0
  0
LINE
  5
185A6
330
747D
100
AcDbEntity
  8
部品1
100
AcDbLine
 10
11000.22939116717
 20
8992.613052486809
 30
0.0
 11
11000.22939116716
 21
8159.113052486716
 31
0.0
  0
DIMENSION
  5
185A7
330
747D
100
AcDbEntity
  8
寸法
100
AcDbDimension
  2
*D27
 10
11383.58711702921
 20
8897.395236817919
 30
0.0
 11
11283.58711702921
 21
9122.39523681792
 31
0.0
 70
    32
 71
     5
 42
449.9999999999963
  3
INABA_S40G
100
AcDbAlignedDimension
 13
11028.22939116718
 23
9442.613052486805
 33
0.0
 14
11028.22939116718
 24
8992.613052486809
 34
0.0
 50
90.0
100
AcDbRotatedDimension
1001
ACAD
1000
DSTYLE
1002
{
1002
}
  0
LINE
  5
185A8
330
747D
100
AcDbEntity
  8
部品1
100
AcDbLine
 10
11028.72939116718
 20
9444.613052486806
 30
0.0
 11
11028.72939116716
 21
8130.613052486763
 31
0.0
  0
DIMENSION
  5
185A9
330
747D
100
AcDbEntity
  8
寸法
100
AcDbDimension
  2
*D28
 10
11704.15573690159
 20
8157.613052486793
 30
0.0
 11
11704.15573690159
 21
8787.613052486802
 31
0.0
 70
   160
  1
3X420=<>
 71
     5
 42
1260.000000000014
  3
INABA_S40G
100
AcDbAlignedDimension
 13
11056.72939116718
 23
9417.61305248681
 33
0.0
 14
11056.72939116716
 24
8157.613052486793
 34
0.0
 50
90.0
100
AcDbRotatedDimension
1001
ACAD
1000
DSTYLE
1002
{
1002
}
  0
LINE
  5
185AA
330
747D
100
AcDbEntity
  8
部品1
100
AcDbLine
 10
11056.72939116718
 20
9472.613052486805
 30
0.0
 11
11056.72939116716
 21
8102.613052486798
 31
0.0
  0
LINE
  5
185AB
330
747D
100
AcDbEntity
  8
部品1
 48
50.0
100
AcDbLine
 10
11000.22939116714
 20
8159.113052486729
 30
0.0
 11
11028.72939116714
 21
8130.613052486729
 31
0.0
  0
LINE
  5
185AC
330
747D
100
AcDbEntity
  8
部品1
100
AcDbLine
 10
11028.22939116718
 20
9442.613052486805
 30
0.0
 11
11028.22939116718
 21
8992.613052486809
 31
0.0
  0
LINE
  5
185AD
330
747D
100
AcDbEntity
  8
部品1
100
AcDbLine
 10
11028.72939116718
 20
8997.61305248681
 30
0.0
 11
11056.72939116718
 21
8997.61305248681
 31
0.0
  0
LINE
  5
185AE
330
747D
100
AcDbEntity
  8
部品1
100
AcDbLine
 10
11028.72939116718
 20
9417.61305248681
 30
0.0
 11
11056.72939116718
 21
9417.61305248681
 31
0.0
  0
LINE
  5
185AF
330
747D
100
AcDbEntity
  8
部品1
100
AcDbLine
 10
11001.72939116718
 20
9472.613052486828
 30
0.0
 11
11001.72939116718
 21
9444.613052486827
 31
0.0
  0
LINE
  5
185B0
330
747D
100
AcDbEntity
  8
部品1
100
AcDbLine
 10
11001.72939116718
 20
9472.613052486805
 30
0.0
 11
11001.72939116718
 21
9444.613052486806
 31
0.0
  0
LINE
  5
185B1
330
747D
100
AcDbEntity
  8
部品1
100
AcDbLine
 10
9741.729391167185
 20
9472.613052486712
 30
0.0
 11
9741.729391167185
 21
9444.613052486712
 31
0.0
  0
LINE
  5
185B2
330
747D
100
AcDbEntity
  8
部品1
100
AcDbLine
 10
9741.729391167185
 20
9472.613052486712
 30
0.0
 11
9741.729391167185
 21
9444.613052486712
 31
0.0
  0
LINE
  5
185B3
330
747D
100
AcDbEntity
  8
部品1
100
AcDbLine
 10
9741.729391167185
 20
9472.613052486828
 30
0.0
 11
9741.729391167185
 21
9444.613052486827
 31
0.0
  0
LINE
  5
185B4
330
747D
100
AcDbEntity
  8
部品1
 48
50.0
100
AcDbLine
 10
11000.22939116717
 20
8577.613052486809
 30
0.0
 11
8903.229391167167
 21
8577.613052486897
 31
0.0
  0
LINE
  5
185B5
330
747D
100
AcDbEntity
  8
部品1
100
AcDbLine
 10
8874.729391167162
 20
8577.613052486682
 30
0.0
 11
8846.729391167162
 21
8577.613052486682
 31
0.0
  0
LINE
  5
185B6
330
747D
100
AcDbEntity
  8
部品1
100
AcDbLine
 10
11028.72939116719
 20
8577.613052486809
 30
0.0
 11
11056.72939116719
 21
8577.613052486809
 31
0.0
  0
LINE
  5
185B7
330
747D
100
AcDbEntity
  8
部品1
100
AcDbLine
 10
11028.72939116719
 20
8157.613052486809
 30
0.0
 11
11056.72939116719
 21
8157.613052486809
 31
0.0
  0
LINE
  5
185B8
330
747D
100
AcDbEntity
  8
部品1
100
AcDbLine
 10
8874.729391167162
 20
8157.613052486683
 30
0.0
 11
8846.729391167162
 21
8157.613052486683
 31
0.0
  0
LINE
  5
185B9
330
747D
100
AcDbEntity
  8
部品1
100
AcDbLine
 10
8901.729391167121
 20
8130.613052486614
 30
0.0
 11
8901.729391167126
 21
8102.613052486614
 31
0.0
  0
LINE
  5
185BA
330
747D
100
AcDbEntity
  8
部品1
100
AcDbLine
 10
8901.729391167158
 20
8130.613052486646
 30
0.0
 11
8901.729391167158
 21
8102.613052486645
 31
0.0
  0
LINE
  5
185BB
330
747D
100
AcDbEntity
  8
部品1
100
AcDbLine
 10
11001.72939116716
 20
8130.61305248674
 30
0.0
 11
11001.72939116716
 21
8102.613052486741
 31
0.0
  0
LINE
  5
185BC
330
747D
100
AcDbEntity
  8
部品1
100
AcDbLine
 10
11001.72939116716
 20
8130.613052486763
 30
0.0
 11
11001.72939116716
 21
8102.613052486763
 31
0.0
  0
LINE
  5
185BD
330
747D
100
AcDbEntity
  8
部品1
 48
50.0
100
AcDbLine
 10
8846.729391167178
 20
8102.613052486635
 30
0.0
 11
8901.729391167158
 21
8102.613052486638
 31
0.0
  0
LINE
  5
185BE
330
747D
100
AcDbEntity
  8
部品1
 48
50.0
100
AcDbLine
 10
11028.72939116716
 20
8130.613052486763
 30
0.0
 11
8874.729391167159
 21
8130.613052486729
 31
0.0
  0
LINE
  5
185BF
330
747D
100
AcDbEntity
  8
部品1
 48
50.0
100
AcDbLine
 10
11001.72939116716
 20
8102.613052486793
 30
0.0
 11
11056.72939116716
 21
8102.613052486798
 31
0.0
  0
DIMENSION
  5
185C0
330
747D
100
AcDbEntity
  8
寸法
 48
50.0
100
AcDbDimension
  2
*D29
 10
8553.504584696161
 20
2686.010354820205
 30
0.0
 11
8553.504584696161
 21
3698.510354820206
 31
0.0
 70
   160
  1
有効開口部高サ<>
 71
     5
 42
2025.000000000001
  3
INABA_S40G
100
AcDbAlignedDimension
 13
8874.729391167177
 23
4711.010354820206
 33
0.0
 14
8874.729391167177
 24
2686.010354820205
 34
0.0
 50
90.0
100
AcDbRotatedDimension
  0
LINE
  5
185C1
330
747D
100
AcDbEntity
  8
部品1
 48
50.0
100
AcDbLine
 10
8901.729391167178
 20
4763.010354820205
 30
0.0
 11
8901.729391167178
 21
4768.010354820206
 31
0.0
  0
LINE
  5
185C2
330
747D
100
AcDbEntity
  8
部品1
 48
50.0
100
AcDbLine
 10
11001.72939116717
 20
4763.010354820205
 30
0.0
 11
11001.72939116717
 21
4768.010354820206
 31
0.0
  0
LINE
  5
185C3
330
747D
100
AcDbEntity
  8
部品1
100
AcDbLine
 10
11028.72939116718
 20
2678.010354820226
 30
0.0
 11
11056.72939116717
 21
2678.010354820226
 31
0.0
  0
LINE
  5
185C8
330
747D
100
AcDbEntity
  8
部品1
100
AcDbLine
 10
9569.994058052953
 20
1648.694811845246
 30
0.0
 11
9569.994058052953
 21
1408.802490299714
 31
0.0
  0
LINE
  5
185C9
330
747D
100
AcDbEntity
  8
部品1
100
AcDbLine
 10
9569.994058052953
 20
1408.802490299714
 30
0.0
 11
10333.46472428139
 21
1408.802490299714
 31
0.0
  0
LINE
  5
185CA
330
747D
100
AcDbEntity
  8
部品1
100
AcDbLine
 10
10333.46472428139
 20
1408.802490299714
 30
0.0
 11
10333.46472428139
 21
1648.694811845246
 31
0.0
  0
LINE
  5
185CB
330
747D
100
AcDbEntity
  8
部品1
100
AcDbLine
 10
10333.46472428139
 20
1648.694811845246
 30
0.0
 11
9569.994058052953
 21
1648.694811845246
 31
0.0
  0
TEXT
  5
185CC
330
747D
100
AcDbEntity
  8
文字
 62
     7
 48
50.0
100
AcDbText
 10
14491.96323844892
 20
483.8967129911416
 30
0.0
 40
160.0
  1
ＮＸＮ－３０ＨＢ
  7
STYLE2
100
AcDbText
  0
LINE
  5
1869A
330
747D
100
AcDbEntity
  8
部品1
 48
50.0
100
AcDbLine
 10
11028.72939116718
 20
4763.010354820205
 30
0.0
 11
8874.729391167177
 21
4763.010354820205
 31
0.0
  0
LINE
  5
1869B
330
747D
100
AcDbEntity
  8
細線
 48
50.0
100
AcDbLine
 10
11028.72939116718
 20
4753.010354820206
 30
0.0
 11
8874.729391167177
 21
4753.010354820206
 31
0.0
  0
LINE
  5
1869C
330
747D
100
AcDbEntity
  8
細線
 48
50.0
100
AcDbLine
 10
10998.72939116717
 20
4711.010354820206
 30
0.0
 11
8904.729391167178
 21
4711.010354820206
 31
0.0
  0
LINE
  5
1869D
330
747D
100
AcDbEntity
  8
細線
 48
50.0
100
AcDbLine
 10
10998.72939116717
 20
4720.510354820206
 30
0.0
 11
8904.729391167178
 21
4720.510354820206
 31
0.0
  0
LINE
  5
1869E
330
747D
100
AcDbEntity
  8
部品1
 48
50.0
100
AcDbLine
 10
8874.729391167177
 20
2628.010354820206
 30
0.0
 11
11028.72939116718
 21
2628.010354820206
 31
0.0
  0
LINE
  5
1869F
330
747D
100
AcDbEntity
  8
細線
 48
50.0
100
AcDbLine
 10
8904.729391167178
 20
2671.010354820206
 30
0.0
 11
10998.72939116717
 21
2671.010354820206
 31
0.0
  0
LINE
  5
186A0
330
747D
100
AcDbEntity
  8
細線
 48
50.0
100
AcDbLine
 10
8904.729391167178
 20
2675.010354820206
 30
0.0
 11
10998.72939116717
 21
2675.010354820206
 31
0.0
  0
LINE
  5
186A1
330
747D
100
AcDbEntity
  8
細線
 48
50.0
100
AcDbLine
 10
9708.729391167175
 20
2685.510354820206
 30
0.0
 11
10972.72939116717
 21
2685.510354820206
 31
0.0
  0
LINE
  5
186A2
330
747D
100
AcDbEntity
  8
部品1
 48
50.0
100
AcDbLine
 10
8904.729391167178
 20
2678.010354820206
 30
0.0
 11
8904.729391167178
 21
4711.010354820206
 31
0.0
  0
LINE
  5
186A3
330
747D
100
AcDbEntity
  8
細線
 48
50.0
100
AcDbLine
 10
8904.729391167178
 20
4720.510354820206
 30
0.0
 11
8904.729391167178
 21
2628.010354820206
 31
0.0
  0
LINE
  5
186A4
330
747D
100
AcDbEntity
  8
部品1
 48
50.0
100
AcDbLine
 10
8874.729391167177
 20
4763.010354820205
 30
0.0
 11
8874.729391167177
 21
2628.010354820206
 31
0.0
  0
LINE
  5
186A5
330
747D
100
AcDbEntity
  8
部品1
 48
50.0
100
AcDbLine
 10
9708.729391167175
 20
4711.010354844973
 30
0.0
 11
9708.729391167175
 21
2678.010354844973
 31
0.0
  0
LINE
  5
186A6
330
747D
100
AcDbEntity
  8
部品1
 48
50.0
100
AcDbLine
 10
8904.729391167178
 20
2678.010354820206
 30
0.0
 11
9708.729391167175
 21
2678.010354820202
 31
0.0
  0
LINE
  5
186A7
330
747D
100
AcDbEntity
  8
部品1
 48
50.0
100
AcDbLine
 10
8913.729391167178
 20
2678.010354820206
 30
0.0
 11
8913.729391167178
 21
2675.010354820206
 31
0.0
  0
LINE
  5
186A8
330
747D
100
AcDbEntity
  8
部品1
 48
50.0
100
AcDbLine
 10
8904.729391167178
 20
4719.010354820206
 30
0.0
 11
8874.729391167177
 21
4719.010354820206
 31
0.0
  0
LINE
  5
186A9
330
747D
100
AcDbEntity
  8
部品1
 48
50.0
100
AcDbLine
 10
10989.72939116718
 20
2675.010354820206
 30
0.0
 11
10989.72939116718
 21
4711.010354820206
 31
0.0
  0
LINE
  5
186AA
330
747D
100
AcDbEntity
  8
細線
 48
50.0
100
AcDbLine
 10
10998.72939116717
 20
2628.010354820206
 30
0.0
 11
10998.72939116717
 21
4720.510354820206
 31
0.0
  0
LINE
  5
186AB
330
747D
100
AcDbEntity
  8
部品1
 48
50.0
100
AcDbLine
 10
11028.72939116718
 20
2628.010354820206
 30
0.0
 11
11028.72939116718
 21
4763.010354820205
 31
0.0
  0
LINE
  5
186AC
330
747D
100
AcDbEntity
  8
部品1
 48
50.0
100
AcDbLine
 10
10362.72938147204
 20
4711.010354857353
 30
0.0
 11
10362.72938147204
 21
2685.510354857354
 31
0.0
  0
LINE
  5
186AD
330
747D
100
AcDbEntity
  8
細線
 48
50.0
100
AcDbLine
 10
10976.72939116717
 20
2675.010354820206
 30
0.0
 11
10972.72939116717
 21
2685.510354820206
 31
0.0
  0
LINE
  5
186AE
330
747D
100
AcDbEntity
  8
部品1
 48
50.0
100
AcDbLine
 10
11028.72939116718
 20
4719.010354820206
 30
0.0
 11
10998.72939116717
 21
4719.010354820206
 31
0.0
  0
LINE
  5
186AF
330
747D
100
AcDbEntity
  8
細線
100
AcDbLine
 10
10485.47939116718
 20
4711.010354820206
 30
0.0
 11
10485.47939116718
 21
2685.510354820224
 31
0.0
  0
LINE
  5
186B0
330
747D
100
AcDbEntity
  8
細線
100
AcDbLine
 10
9770.229400917418
 20
4711.010354820206
 30
0.0
 11
9770.229400917418
 21
2685.510354820217
 31
0.0
  0
LINE
  5
186B1
330
747D
100
AcDbEntity
  8
細線
100
AcDbLine
 10
9840.229400917419
 20
4711.010354820206
 30
0.0
 11
9840.229400917419
 21
2685.510354820217
 31
0.0
  0
LINE
  5
186B2
330
747D
100
AcDbEntity
  8
細線
100
AcDbLine
 10
9118.729391167176
 20
4711.010354820206
 30
0.0
 11
9118.729391167173
 21
2678.01035482021
 31
0.0
  0
LINE
  5
186B3
330
747D
100
AcDbEntity
  8
細線
100
AcDbLine
 10
9188.729391167177
 20
4711.010354820206
 30
0.0
 11
9188.729391167173
 21
2678.01035482021
 31
0.0
  0
LINE
  5
186B4
330
747D
100
AcDbEntity
  8
細線
100
AcDbLine
 10
10555.47939116718
 20
4711.010354820206
 30
0.0
 11
10555.47939116718
 21
2685.510354820224
 31
0.0
  0
LINE
  5
186B5
330
747D
100
AcDbEntity
  8
細線
100
AcDbLine
 10
10625.47939116718
 20
4711.010354820206
 30
0.0
 11
10625.47939116718
 21
2685.510354820224
 31
0.0
  0
LINE
  5
186B6
330
747D
100
AcDbEntity
  8
細線
100
AcDbLine
 10
10695.47939116718
 20
4711.010354820206
 30
0.0
 11
10695.47939116718
 21
2685.510354820224
 31
0.0
  0
LINE
  5
186B7
330
747D
100
AcDbEntity
  8
細線
100
AcDbLine
 10
10765.47939116718
 20
4711.010354820206
 30
0.0
 11
10765.47939116718
 21
2685.510354820224
 31
0.0
  0
LINE
  5
186B8
330
747D
100
AcDbEntity
  8
細線
100
AcDbLine
 10
10835.47939116718
 20
4711.010354820206
 30
0.0
 11
10835.47939116718
 21
2685.510354820224
 31
0.0
  0
LINE
  5
186B9
330
747D
100
AcDbEntity
  8
細線
100
AcDbLine
 10
9910.229400917419
 20
4711.010354820206
 30
0.0
 11
9910.229400917419
 21
2685.510354820217
 31
0.0
  0
LINE
  5
186BA
330
747D
100
AcDbEntity
  8
細線
100
AcDbLine
 10
9980.229400917419
 20
4711.010354820206
 30
0.0
 11
9980.229400917419
 21
2685.510354820217
 31
0.0
  0
LINE
  5
186BB
330
747D
100
AcDbEntity
  8
細線
100
AcDbLine
 10
10050.22940091742
 20
4711.010354820206
 30
0.0
 11
10050.22940091742
 21
2685.510354820217
 31
0.0
  0
LINE
  5
186BC
330
747D
100
AcDbEntity
  8
細線
100
AcDbLine
 10
10120.22940091742
 20
4711.010354820206
 30
0.0
 11
10120.22940091742
 21
2685.510354820217
 31
0.0
  0
LINE
  5
186BD
330
747D
100
AcDbEntity
  8
細線
100
AcDbLine
 10
10190.22940091742
 20
4711.010354820206
 30
0.0
 11
10190.22940091742
 21
2685.510354820217
 31
0.0
  0
LINE
  5
186BE
330
747D
100
AcDbEntity
  8
細線
100
AcDbLine
 10
10260.22940091742
 20
4711.010354820206
 30
0.0
 11
10260.22940091742
 21
2685.510354820217
 31
0.0
  0
LINE
  5
186BF
330
747D
100
AcDbEntity
  8
細線
100
AcDbLine
 10
9032.729391167173
 20
4711.010354820206
 30
0.0
 11
9032.729391167178
 21
2678.01035482021
 31
0.0
  0
LINE
  5
186C0
330
747D
100
AcDbEntity
  8
細線
100
AcDbLine
 10
9066.729391167173
 20
4711.010354820206
 30
0.0
 11
9066.729391167177
 21
2678.01035482021
 31
0.0
  0
LINE
  5
186C1
330
747D
100
AcDbEntity
  8
部品1
100
AcDbLine
 10
9024.729391167173
 20
4711.010354820206
 30
0.0
 11
9024.729391167177
 21
2678.01035482021
 31
0.0
  0
LINE
  5
186C2
330
747D
100
AcDbEntity
  8
部品1
100
AcDbLine
 10
9074.729391167172
 20
4711.010354820206
 30
0.0
 11
9074.729391167178
 21
2678.01035482021
 31
0.0
  0
LINE
  5
186C3
330
747D
100
AcDbEntity
  8
細線
100
AcDbLine
 10
9258.729391167177
 20
4711.010354820206
 30
0.0
 11
9258.729391167173
 21
2678.01035482021
 31
0.0
  0
LINE
  5
186C4
330
747D
100
AcDbEntity
  8
細線
100
AcDbLine
 10
9328.729391167177
 20
4711.010354820206
 30
0.0
 11
9328.729391167174
 21
2678.01035482021
 31
0.0
  0
LINE
  5
186C5
330
747D
100
AcDbEntity
  8
細線
100
AcDbLine
 10
9398.729391167178
 20
4711.010354820206
 30
0.0
 11
9398.729391167172
 21
2678.01035482021
 31
0.0
  0
LINE
  5
186C6
330
747D
100
AcDbEntity
  8
細線
100
AcDbLine
 10
9468.729391167178
 20
4711.010354820206
 30
0.0
 11
9468.729391167173
 21
2678.01035482021
 31
0.0
  0
LINE
  5
186C7
330
747D
100
AcDbEntity
  8
細線
100
AcDbLine
 10
9538.729391167178
 20
4711.010354820206
 30
0.0
 11
9538.729391167173
 21
2678.010354820214
 31
0.0
  0
LINE
  5
186C8
330
747D
100
AcDbEntity
  8
細線
100
AcDbLine
 10
9608.729391167177
 20
4711.010354820206
 30
0.0
 11
9608.729391167173
 21
2678.010354820214
 31
0.0
  0
LINE
  5
186C9
330
747D
100
AcDbEntity
  8
部品1
100
AcDbLine
 10
10362.72938147203
 20
4711.010354857356
 30
0.0
 11
10362.72938147203
 21
2685.510354857372
 31
0.0
  0
LINE
  5
186CA
330
747D
100
AcDbEntity
  8
部品1
 48
50.0
100
AcDbLine
 10
9708.729391167175
 20
4711.010354844973
 30
0.0
 11
9708.729391167175
 21
2678.010354820202
 31
0.0
  0
MTEXT
  5
186CB
330
747D
100
AcDbEntity
  8
寸法
 62
     7
 48
50.0
100
AcDbMText
 10
10616.83192826032
 20
9058.847870684116
 30
0.0
 40
96.0
 41
0.0
 71
     5
 72
     1
  1
棚 3段
  7
STYLE1
 73
     1
 44
1.0
1001
ACAD
1000
MTEXTBEGIN
1070
    73
1070
     1
1070
    44
1040
1.0
1070
    74
1070
     0
1000
MTEXTEND
  0
TEXT
  5
186CD
330
747D
100
AcDbEntity
  8
部品1
100
AcDbText
 10
5421.155742452008
 20
1455.801282626723
 30
0.0
 40
135.0
  1
側面図
  7
STYLE2
100
AcDbText
  0
LINE
  5
186CE
330
747D
100
AcDbEntity
  8
部品1
100
AcDbLine
 10
5331.7096410284
 20
1648.694811845246
 30
0.0
 11
5331.7096410284
 21
1408.802490299714
 31
0.0
  0
LINE
  5
186CF
330
747D
100
AcDbEntity
  8
部品1
100
AcDbLine
 10
5331.7096410284
 20
1408.802490299714
 30
0.0
 11
6095.180307256836
 21
1408.802490299714
 31
0.0
  0
LINE
  5
186D0
330
747D
100
AcDbEntity
  8
部品1
100
AcDbLine
 10
6095.180307256836
 20
1408.802490299714
 30
0.0
 11
6095.180307256836
 21
1648.694811845246
 31
0.0
  0
LINE
  5
186D1
330
747D
100
AcDbEntity
  8
部品1
100
AcDbLine
 10
6095.180307256836
 20
1648.694811845246
 30
0.0
 11
5331.7096410284
 21
1648.694811845246
 31
0.0
  0
LINE
  5
186D3
330
747D
100
AcDbEntity
  8
破線
 48
10.0
100
AcDbLine
 10
9631.229391167199
 20
8159.113052486665
 30
0.0
 11
9631.229391167202
 21
8992.613052486762
 31
0.0
  0
LINE
  5
186D4
330
747D
100
AcDbEntity
  8
破線
 48
10.0
100
AcDbLine
 10
9581.229391167203
 20
8159.113052486663
 30
0.0
 11
9581.229391167198
 21
8992.613052486758
 31
0.0
  0
LINE
  5
186D5
330
747D
100
AcDbEntity
  8
破線
 48
10.0
100
AcDbLine
 10
10272.2293911672
 20
8159.113052486695
 30
0.0
 11
10272.2293911672
 21
8992.613052486829
 31
0.0
  0
LINE
  5
186D6
330
747D
100
AcDbEntity
  8
破線
 48
10.0
100
AcDbLine
 10
10322.2293911672
 20
8159.113052486697
 30
0.0
 11
10322.2293911672
 21
8992.613052486824
 31
0.0
  0
LINE
  5
186D7
330
747D
100
AcDbEntity
  8
破線
 48
10.0
100
AcDbLine
 10
9581.229391167203
 20
8182.613052486663
 30
0.0
 11
8926.729391167155
 21
8182.613052486631
 31
0.0
  0
LINE
  5
186D8
330
747D
100
AcDbEntity
  8
部品1
 48
50.0
100
AcDbLine
 10
9705.729391167167
 20
2628.010354820206
 30
0.0
 11
9705.729391167167
 21
2528.010354820206
 31
0.0
  0
LINE
  5
186D9
330
747D
100
AcDbEntity
  8
部品1
 48
50.0
100
AcDbLine
 10
9505.729391167168
 20
2628.010354820206
 30
0.0
 11
9505.729391167168
 21
2528.010354820206
 31
0.0
  0
LINE
  5
186DA
330
747D
100
AcDbEntity
  8
部品1
 48
50.0
100
AcDbLine
 10
10397.72939116716
 20
2628.010354820206
 30
0.0
 11
10397.72939116716
 21
2528.010354820206
 31
0.0
  0
LINE
  5
186DB
330
747D
100
AcDbEntity
  8
部品1
 48
50.0
100
AcDbLine
 10
10197.72939116716
 20
2628.010354820206
 30
0.0
 11
10197.72939116716
 21
2528.010354820206
 31
0.0
  0
LINE
  5
18AC9
330
747D
100
AcDbEntity
  8
補助
  6
PHANTOM
 62
   230
 48
50.0
100
AcDbLine
 10
140.0
 20
0.0
 30
0.0
 11
139.9999999999995
 21
11409.6
 31
0.0
  0
LINE
  5
18BF5
330
747D
100
AcDbEntity
  8
破線
  6
HIDDEN
 48
5.0
100
AcDbLine
 10
6495.944974142616
 20
2528.010354820206
 30
0.0
 11
6495.944974142616
 21
2278.010354820206
 31
0.0
  0
LINE
  5
18BF6
330
747D
100
AcDbEntity
  8
破線
  6
HIDDEN
 48
5.0
100
AcDbLine
 10
6495.944974142616
 20
2278.010354820206
 30
0.0
 11
6245.944974142616
 21
2278.010354820206
 31
0.0
  0
LINE
  5
18BF7
330
747D
100
AcDbEntity
  8
破線
  6
HIDDEN
 48
5.0
100
AcDbLine
 10
6245.944974142616
 20
2528.010354820206
 30
0.0
 11
6245.944974142616
 21
2278.010354820206
 31
0.0
  0
LINE
  5
18BF8
330
747D
100
AcDbEntity
  8
破線
  6
HIDDEN
 48
5.0
100
AcDbLine
 10
4930.944974142616
 20
2278.010354820206
 30
0.0
 11
5180.944974142616
 21
2278.010354820206
 31
0.0
  0
LINE
  5
18BF9
330
747D
100
AcDbEntity
  8
破線
  6
HIDDEN
 48
5.0
100
AcDbLine
 10
5180.944974142616
 20
2528.010354820206
 30
0.0
 11
5180.944974142616
 21
2278.010354820206
 31
0.0
  0
LINE
  5
18BFA
330
747D
100
AcDbEntity
  8
破線
  6
HIDDEN
 48
5.0
100
AcDbLine
 10
4930.944974142616
 20
2528.010354820206
 30
0.0
 11
4930.944974142616
 21
2278.010354820206
 31
0.0
  0
LINE
  5
18D01
330
747D
100
AcDbEntity
  8
部品1
 48
50.0
100
AcDbLine
 10
8948.729391167177
 20
3759.510354820208
 30
0.0
 11
9001.729391167177
 21
3759.510354820208
 31
0.0
  0
MTEXT
  5
18E7A
330
747D
100
AcDbEntity
  8
寸法
 62
     7
 48
50.0
100
AcDbMText
 10
9526.831928260323
 20
9058.847870684068
 30
0.0
 40
96.0
 41
0.0
 71
     5
 72
     1
  1
棚 3段
  7
STYLE1
 73
     1
 44
1.0
1001
ACAD
1000
MTEXTBEGIN
1070
    73
1070
     1
1070
    44
1040
1.0
1070
    74
1070
     0
1000
MTEXTEND
  0
LINE
  5
18F63
330
747D
100
AcDbEntity
  8
寸法
 48
50.0
100
AcDbLine
 10
9336.93239744897
 20
7880.649804055501
 30
0.0
 11
9285.526389538867
 21
7880.649804055501
 31
0.0
  0
LINE
  5
18F64
330
747D
100
AcDbEntity
  8
寸法
 48
50.0
100
AcDbLine
 10
9285.526389538867
 20
7880.649804055501
 30
0.0
 11
9285.526389538867
 21
7911.959962707668
 31
0.0
  0
LINE
  5
18F65
330
747D
100
AcDbEntity
  8
寸法
 48
50.0
100
AcDbLine
 10
9285.526389538867
 20
7911.959962707668
 30
0.0
 11
9255.765057547444
 21
7911.959962707668
 31
0.0
  0
LINE
  5
18F66
330
747D
100
AcDbEntity
  8
寸法
 48
50.0
100
AcDbLine
 10
9255.765057547444
 20
7911.959962707668
 30
0.0
 11
9311.229393493919
 21
7949.539413636277
 31
0.0
  0
LINE
  5
18F67
330
747D
100
AcDbEntity
  8
寸法
 48
50.0
100
AcDbLine
 10
9366.693729440395
 20
7911.959962707668
 30
0.0
 11
9311.229393493919
 21
7949.539413636277
 31
0.0
  0
LINE
  5
18F68
330
747D
100
AcDbEntity
  8
寸法
 48
50.0
100
AcDbLine
 10
9336.93239744897
 20
7911.959962707668
 30
0.0
 11
9366.693729440395
 21
7911.959962707668
 31
0.0
  0
LINE
  5
18F69
330
747D
100
AcDbEntity
  8
寸法
 48
50.0
100
AcDbLine
 10
9336.93239744897
 20
7880.649804055501
 30
0.0
 11
9336.93239744897
 21
7911.959962707668
 31
0.0
  0
LINE
  5
18F6A
330
747D
100
AcDbEntity
  8
寸法
 48
50.0
100
AcDbLine
 10
9285.526389538867
 20
7880.649804055501
 30
0.0
 11
9336.93239744897
 21
7880.649804055501
 31
0.0
  0
LINE
  5
18F6B
330
747D
100
AcDbEntity
  8
寸法
 48
50.0
100
AcDbLine
 10
9616.097931725828
 20
7937.795394810324
 30
0.0
 11
9616.097931725828
 21
7884.131760228534
 31
0.0
  0
LINE
  5
18F6C
330
747D
100
AcDbEntity
  8
寸法
 48
50.0
100
AcDbLine
 10
9705.382150321248
 20
7913.871760540839
 30
0.0
 11
9616.097931725828
 21
7937.795394810324
 31
0.0
  0
LINE
  5
18F6D
330
747D
100
AcDbEntity
  8
寸法
 48
50.0
100
AcDbLine
 10
9486.230210145524
 20
7913.871760540839
 30
0.0
 11
9705.382150321248
 21
7913.871760540839
 31
0.0
  0
LINE
  5
18F6E
330
747D
100
AcDbEntity
  8
細線
 48
50.0
100
AcDbLine
 10
10362.72939116713
 20
8079.113167435364
 30
0.0
 11
10989.72939116712
 21
8079.113167435364
 31
0.0
  0
LINE
  5
18F6F
330
747D
100
AcDbEntity
  8
細線
 48
50.0
100
AcDbLine
 10
9708.729395820716
 20
8045.404398881288
 30
0.0
 11
10989.72939116712
 21
8045.404398881288
 31
0.0
  0
LINE
  5
18F70
330
747D
100
AcDbEntity
  8
細線
 48
50.0
100
AcDbLine
 10
9667.729395820721
 20
8074.809306877542
 30
0.0
 11
8913.729391167127
 21
8074.809306877538
 31
0.0
  0
LINE
  5
18F71
330
747D
100
AcDbEntity
  8
細線
100
AcDbLine
 10
10765.47938175067
 20
8098.613067400373
 30
0.0
 11
10767.81092127248
 21
8103.613070040333
 31
0.0
  0
LINE
  5
18F72
330
747D
100
AcDbEntity
  8
細線
100
AcDbLine
 10
10835.47939116712
 20
8098.613052486639
 30
0.0
 11
10833.14784469094
 21
8103.613070040319
 31
0.0
  0
LINE
  5
18F73
330
747D
100
AcDbEntity
  8
細線
100
AcDbLine
 10
10833.14784469094
 20
8103.613070040319
 30
0.0
 11
10767.81092127246
 21
8103.613070040305
 31
0.0
  0
LINE
  5
18F74
330
747D
100
AcDbEntity
  8
細線
100
AcDbLine
 10
10693.14784469094
 20
8103.613070040319
 30
0.0
 11
10627.81092127246
 21
8103.613070040305
 31
0.0
  0
LINE
  5
18F75
330
747D
100
AcDbEntity
  8
細線
100
AcDbLine
 10
10695.47939116712
 20
8098.613052486639
 30
0.0
 11
10693.14784469094
 21
8103.613070040319
 31
0.0
  0
LINE
  5
18F76
330
747D
100
AcDbEntity
  8
細線
100
AcDbLine
 10
10625.47938175067
 20
8098.613067400373
 30
0.0
 11
10627.81092127248
 21
8103.613070040333
 31
0.0
  0
LINE
  5
18F77
330
747D
100
AcDbEntity
  8
細線
100
AcDbLine
 10
10485.47939116712
 20
8098.613052486639
 30
0.0
 11
10487.81093068894
 21
8103.613055126599
 31
0.0
  0
LINE
  5
18F78
330
747D
100
AcDbEntity
  8
細線
100
AcDbLine
 10
10555.47940058358
 20
8098.613037572905
 30
0.0
 11
10553.14785410739
 21
8103.613055126585
 31
0.0
  0
LINE
  5
18F79
330
747D
100
AcDbEntity
  8
細線
100
AcDbLine
 10
10553.1478541074
 20
8103.613055126585
 30
0.0
 11
10487.81093068892
 21
8103.613055126571
 31
0.0
  0
LINE
  5
18F7A
330
747D
100
AcDbEntity
  8
細線
100
AcDbLine
 10
10257.89787535623
 20
8069.613091823967
 30
0.0
 11
10192.56095193776
 21
8069.613091823951
 31
0.0
  0
LINE
  5
18F7B
330
747D
100
AcDbEntity
  8
細線
100
AcDbLine
 10
10260.22942183242
 20
8064.613074270287
 30
0.0
 11
10257.89787535623
 21
8069.613091823967
 31
0.0
  0
LINE
  5
18F7C
330
747D
100
AcDbEntity
  8
細線
100
AcDbLine
 10
10190.22941241596
 20
8064.613089184019
 30
0.0
 11
10192.56095193777
 21
8069.613091823981
 31
0.0
  0
LINE
  5
18F7D
330
747D
100
AcDbEntity
  8
細線
 48
50.0
100
AcDbLine
 10
10031.61277041514
 20
8082.883915639719
 30
0.0
 11
10037.3682879978
 21
8064.613064349233
 31
0.0
  0
LINE
  5
18F7E
330
747D
100
AcDbEntity
  8
細線
 48
50.0
100
AcDbLine
 10
10020.68432193471
 20
8082.883915639719
 30
0.0
 11
10031.61277041514
 21
8082.883915639719
 31
0.0
  0
ARC
  5
18F7F
330
747D
100
AcDbEntity
  8
細線
 48
50.0
100
AcDbCircle
 10
10015.22996587739
 20
8084.383915639719
 30
0.0
 40
5.0
100
AcDbArc
 50
204.6243183521304
 51
335.3756816478695
  0
ARC
  5
18F80
330
747D
100
AcDbEntity
  8
細線
 48
50.0
100
AcDbCircle
 10
10020.68432193471
 20
8081.883915639719
 30
0.0
 40
1.0
100
AcDbArc
 50
90.0
 51
155.3756816478695
  0
ARC
  5
18F81
330
747D
100
AcDbEntity
  8
細線
 48
50.0
100
AcDbCircle
 10
10009.77560982007
 20
8081.883915639719
 30
0.0
 40
1.0
100
AcDbArc
 50
24.62431835213048
 51
90.0
  0
LINE
  5
18F82
330
747D
100
AcDbEntity
  8
細線
 48
50.0
100
AcDbLine
 10
9998.847161339639
 20
8082.883915639719
 30
0.0
 11
10009.77560982007
 21
8082.883915639719
 31
0.0
  0
LINE
  5
18F83
330
747D
100
AcDbEntity
  8
細線
 48
50.0
100
AcDbLine
 10
9993.091643756972
 20
8064.613064349225
 30
0.0
 11
9998.847161339639
 21
8082.883915639719
 31
0.0
  0
LINE
  5
18F84
330
747D
100
AcDbEntity
  8
細線
100
AcDbLine
 10
10050.229413647
 20
8064.613061715029
 30
0.0
 11
10052.56095316881
 21
8069.613064354991
 31
0.0
  0
LINE
  5
18F85
330
747D
100
AcDbEntity
  8
細線
100
AcDbLine
 10
10120.22942306346
 20
8064.613046801296
 30
0.0
 11
10117.89787658727
 21
8069.613064354976
 31
0.0
  0
LINE
  5
18F86
330
747D
100
AcDbEntity
  8
細線
100
AcDbLine
 10
10117.89787658727
 20
8069.613064354976
 30
0.0
 11
10052.5609531688
 21
8069.61306435496
 31
0.0
  0
LINE
  5
18F87
330
747D
100
AcDbEntity
  8
細線
100
AcDbLine
 10
9977.897848222758
 20
8069.613064349196
 30
0.0
 11
9912.560924804282
 21
8069.613064349182
 31
0.0
  0
LINE
  5
18F88
330
747D
100
AcDbEntity
  8
細線
100
AcDbLine
 10
9980.229394698945
 20
8064.613046795516
 30
0.0
 11
9977.897848222758
 21
8069.613064349196
 31
0.0
  0
LINE
  5
18F89
330
747D
100
AcDbEntity
  8
細線
100
AcDbLine
 10
9910.229386513529
 20
8064.613064349225
 30
0.0
 11
9912.560924804296
 21
8069.61306434921
 31
0.0
  0
LINE
  5
18F8A
330
747D
100
AcDbEntity
  8
細線
100
AcDbLine
 10
9770.229421832421
 20
8064.613072536594
 30
0.0
 11
9772.560960123188
 21
8069.613072536581
 31
0.0
  0
LINE
  5
18F8B
330
747D
100
AcDbEntity
  8
細線
100
AcDbLine
 10
9840.229430017837
 20
8064.613054982885
 30
0.0
 11
9837.89788354165
 21
8069.613072536562
 31
0.0
  0
LINE
  5
18F8C
330
747D
100
AcDbEntity
  8
細線
100
AcDbLine
 10
9837.89788354165
 20
8069.613072536562
 30
0.0
 11
9772.560960123174
 21
8069.613072536551
 31
0.0
  0
LINE
  5
18F8D
330
747D
100
AcDbEntity
  8
細線
100
AcDbLine
 10
9398.729387635299
 20
8030.613244217308
 30
0.0
 11
9401.060925926067
 21
8035.613244217293
 31
0.0
  0
LINE
  5
18F8E
330
747D
100
AcDbEntity
  8
細線
100
AcDbLine
 10
9468.729395820716
 20
8030.613226663595
 30
0.0
 11
9466.397849344529
 21
8035.613244217271
 31
0.0
  0
LINE
  5
18F8F
330
747D
100
AcDbEntity
  8
細線
100
AcDbLine
 10
9466.397849344529
 20
8035.613244217271
 30
0.0
 11
9401.060925926056
 21
8035.613244217264
 31
0.0
  0
LINE
  5
18F90
330
747D
100
AcDbEntity
  8
細線
100
AcDbLine
 10
9606.39784934453
 20
8035.613244217271
 30
0.0
 11
9541.060925926057
 21
8035.613244217264
 31
0.0
  0
LINE
  5
18F91
330
747D
100
AcDbEntity
  8
細線
100
AcDbLine
 10
9608.729395820716
 20
8030.613226663595
 30
0.0
 11
9606.39784934453
 21
8035.613244217271
 31
0.0
  0
LINE
  5
18F92
330
747D
100
AcDbEntity
  8
細線
100
AcDbLine
 10
9538.729387635299
 20
8030.613244217308
 30
0.0
 11
9541.060925926068
 21
8035.613244217293
 31
0.0
  0
LINE
  5
18F93
330
747D
100
AcDbEntity
  8
細線
100
AcDbLine
 10
9326.397849344528
 20
8035.613244217271
 30
0.0
 11
9261.060925926058
 21
8035.613244217261
 31
0.0
  0
LINE
  5
18F94
330
747D
100
AcDbEntity
  8
細線
100
AcDbLine
 10
9328.729395820715
 20
8030.613226663595
 30
0.0
 11
9326.397849344528
 21
8035.613244217271
 31
0.0
  0
LINE
  5
18F95
330
747D
100
AcDbEntity
  8
細線
100
AcDbLine
 10
9258.7293876353
 20
8030.613244217304
 30
0.0
 11
9261.060925926067
 21
8035.613244217289
 31
0.0
  0
LINE
  5
18F96
330
747D
100
AcDbEntity
  8
細線
100
AcDbLine
 10
9118.729395820716
 20
8030.613244217308
 30
0.0
 11
9121.060934111483
 21
8035.613244217293
 31
0.0
  0
LINE
  5
18F97
330
747D
100
AcDbEntity
  8
細線
100
AcDbLine
 10
9188.729404006132
 20
8030.613226663595
 30
0.0
 11
9186.397857529945
 21
8035.613244217271
 31
0.0
  0
LINE
  5
18F98
330
747D
100
AcDbEntity
  8
細線
100
AcDbLine
 10
9186.397857529945
 20
8035.613244217271
 30
0.0
 11
9121.060934111472
 21
8035.613244217264
 31
0.0
  0
ARC
  5
18F99
330
747D
100
AcDbEntity
  8
部品1
 48
0.01
100
AcDbCircle
 10
9074.22928456838
 20
8029.612122032235
 30
0.0
 40
0.5
100
AcDbArc
 50
270.0
 51
0.0
  0
LINE
  5
18F9A
330
747D
100
AcDbEntity
  8
部品1
 48
0.01
100
AcDbLine
 10
9074.72928456838
 20
8030.612122032236
 30
0.0
 11
9074.72928456838
 21
8029.612122032235
 31
0.0
  0
LINE
  5
18F9B
330
747D
100
AcDbEntity
  8
部品1
 48
0.01
100
AcDbLine
 10
9074.72928456838
 20
8030.612122032236
 30
0.0
 11
9074.72928456838
 21
8029.612122032235
 31
0.0
  0
LINE
  5
18F9C
330
747D
100
AcDbEntity
  8
部品1
 48
0.01
100
AcDbLine
 10
9074.22928456838
 20
8029.112122032236
 30
0.0
 11
9067.616779138317
 21
8029.112122032236
 31
0.0
  0
ARC
  5
18F9D
330
747D
100
AcDbEntity
  8
部品1
100
AcDbCircle
 10
9067.685128691097
 20
8030.112122032234
 30
0.0
 40
1.0
100
AcDbArc
 50
160.5287793655778
 51
270.0
  0
ARC
  5
18F9E
330
747D
100
AcDbEntity
  8
部品1
100
AcDbCircle
 10
9042.229284568382
 20
8039.112122032234
 30
0.0
 40
26.0
100
AcDbArc
 50
340.5287793655779
 51
0.0
  0
LINE
  5
18F9F
330
747D
100
AcDbEntity
  8
部品1
100
AcDbLine
 10
9068.22928456838
 20
8039.112122032234
 30
0.0
 11
9068.22928456838
 21
8044.112122032235
 31
0.0
  0
ARC
  5
18FA0
330
747D
100
AcDbEntity
  8
部品1
 48
0.01
100
AcDbCircle
 10
9066.229284568381
 20
8044.112122032235
 30
0.0
 40
2.0
100
AcDbArc
 50
0.0
 51
90.0
  0
ARC
  5
18FA1
330
747D
100
AcDbEntity
  8
部品1
100
AcDbCircle
 10
9064.620892943571
 20
8043.112122032235
 30
0.0
 40
3.0
100
AcDbArc
 50
90.0
 51
141.6069559807873
  0
LINE
  5
18FA2
330
747D
100
AcDbEntity
  8
部品1
 48
0.01
100
AcDbLine
 10
9066.229284568381
 20
8046.112122032235
 30
0.0
 11
9064.620892943571
 21
8046.112122032235
 31
0.0
  0
ARC
  5
18FA3
330
747D
100
AcDbEntity
  8
部品1
100
AcDbCircle
 10
9046.15857035411
 20
8042.412122032237
 30
0.0
 40
3.0
100
AcDbArc
 50
254.0576313943215
 51
270.0
  0
ARC
  5
18FA4
330
747D
100
AcDbEntity
  8
部品1
100
AcDbCircle
 10
9053.299998782652
 20
8042.412122032237
 30
0.0
 40
3.0
100
AcDbArc
 50
270.0
 51
285.9423686056786
  0
LINE
  5
18FA5
330
747D
100
AcDbEntity
  8
部品1
100
AcDbLine
 10
9053.299998782652
 20
8039.412122032237
 30
0.0
 11
9046.15857035411
 21
8039.412122032237
 31
0.0
  0
ARC
  5
18FA6
330
747D
100
AcDbEntity
  8
部品1
100
AcDbCircle
 10
9049.72928456838
 20
8054.912122032238
 30
0.0
 40
16.0
100
AcDbArc
 50
285.9423686056786
 51
321.6069559807873
  0
LINE
  5
18FA7
330
747D
100
AcDbEntity
  8
部品1
 48
0.01
100
AcDbLine
 10
9033.229284568381
 20
8046.112122032235
 30
0.0
 11
9034.837676193189
 21
8046.112122032235
 31
0.0
  0
ARC
  5
18FA8
330
747D
100
AcDbEntity
  8
部品1
100
AcDbCircle
 10
9034.837676193189
 20
8043.112122032235
 30
0.0
 40
3.0
100
AcDbArc
 50
38.39304401921267
 51
90.0
  0
ARC
  5
18FA9
330
747D
100
AcDbEntity
  8
部品1
100
AcDbCircle
 10
9049.72928456838
 20
8054.912122032238
 30
0.0
 40
16.0
100
AcDbArc
 50
218.3930440192126
 51
254.0576313943215
  0
LINE
  5
18FAA
330
747D
100
AcDbEntity
  8
部品1
100
AcDbLine
 10
9031.229284568381
 20
8039.112122032234
 30
0.0
 11
9031.229284568381
 21
8044.112122032235
 31
0.0
  0
ARC
  5
18FAB
330
747D
100
AcDbEntity
  8
部品1
 48
0.01
100
AcDbCircle
 10
9033.229284568381
 20
8044.112122032235
 30
0.0
 40
2.0
100
AcDbArc
 50
90.0
 51
180.0
  0
ARC
  5
18FAC
330
747D
100
AcDbEntity
  8
部品1
100
AcDbCircle
 10
9057.22928456838
 20
8039.112122032234
 30
0.0
 40
26.0
100
AcDbArc
 50
180.0
 51
199.4712206344221
  0
ARC
  5
18FAD
330
747D
100
AcDbEntity
  8
部品1
 48
0.01
100
AcDbCircle
 10
9025.22928456838
 20
8029.612122032235
 30
0.0
 40
0.5
100
AcDbArc
 50
180.0
 51
270.0
  0
LINE
  5
18FAE
330
747D
100
AcDbEntity
  8
部品1
 48
0.01
100
AcDbLine
 10
9025.22928456838
 20
8029.112122032236
 30
0.0
 11
9031.773440445665
 21
8029.112122032236
 31
0.0
  0
LINE
  5
18FAF
330
747D
100
AcDbEntity
  8
部品1
 48
0.01
100
AcDbLine
 10
9024.72928456838
 20
8030.612122032236
 30
0.0
 11
9024.72928456838
 21
8029.612122032235
 31
0.0
  0
ARC
  5
18FB0
330
747D
100
AcDbEntity
  8
部品1
100
AcDbCircle
 10
9031.773440445665
 20
8030.112122032234
 30
0.0
 40
1.0
100
AcDbArc
 50
270.0
 51
19.47122063442214
  0
LINE
  5
18FB1
330
747D
100
AcDbEntity
  8
細線
100
AcDbLine
 10
9070.229284568389
 20
8048.612122032238
 30
0.0
 11
9029.229284568387
 21
8048.612122032231
 31
0.0
  0
LINE
  5
18FB2
330
747D
100
AcDbEntity
  8
細線
100
AcDbLine
 10
9029.229284568387
 20
8048.612122032231
 30
0.0
 11
9029.229284568387
 21
8030.612122032213
 31
0.0
  0
LINE
  5
18FB3
330
747D
100
AcDbEntity
  8
細線
100
AcDbLine
 10
9070.229284568389
 20
8048.612122032238
 30
0.0
 11
9070.229284568389
 21
8030.612122032213
 31
0.0
  0
LINE
  5
18FB4
330
747D
100
AcDbEntity
  8
細線
100
AcDbLine
 10
8913.729391167127
 20
8034.613052486639
 30
0.0
 11
8913.729391167127
 21
8030.613052486685
 31
0.0
  0
DIMENSION
  5
18FB5
330
747D
100
AcDbEntity
  8
寸法
 48
50.0
100
AcDbDimension
  2
*D30
 10
10179.72939116712
 20
7377.317120658765
 30
0.0
 11
9573.852033841673
 21
7377.317120658765
 31
0.0
 70
   160
  1
有効開口部間口\P<>
 71
     5
 42
1266.0
  3
INABA_S40
100
AcDbAlignedDimension
 13
8913.729391167127
 23
8025.613052486638
 33
0.0
 14
10179.72939116712
 24
8025.613052486638
 34
0.0
100
AcDbRotatedDimension
1001
ACAD
1000
DSTYLE
1002
{
1070
    41
1040
0.5
1070
    44
1040
1.0
1070
   147
1040
0.8
1070
   271
1070
     2
1070
   272
1070
     2
1070
   289
1070
     3
1070
   340
1005
F706
1070
   343
1005
18033
1070
   344
1005
18033
1002
}
  0
LINE
  5
18FB6
330
747D
100
AcDbEntity
  8
部品1
100
AcDbLine
 10
11001.72939116712
 20
8102.613052486638
 30
0.0
 11
11028.72939116712
 21
8102.613052486638
 31
0.0
  0
LINE
  5
18FB8
330
747D
100
AcDbEntity
  8
部品1
100
AcDbLine
 10
11028.72939116712
 20
8025.613052486638
 30
0.0
 11
11028.72939116712
 21
8102.613052486638
 31
0.0
  0
LINE
  5
18FB9
330
747D
100
AcDbEntity
  8
部品1
100
AcDbLine
 10
10989.72939116712
 20
8098.613052486639
 30
0.0
 11
11001.72939116712
 21
8098.613052486639
 31
0.0
  0
LINE
  5
18FBA
330
747D
100
AcDbEntity
  8
部品1
100
AcDbLine
 10
10998.72939116712
 20
8034.613052486639
 30
0.0
 11
10998.72939116712
 21
8025.613052486638
 31
0.0
  0
LINE
  5
18FBB
330
747D
100
AcDbEntity
  8
部品1
100
AcDbLine
 10
10989.72939116712
 20
8034.613052486639
 30
0.0
 11
10998.72939116712
 21
8034.613052486639
 31
0.0
  0
LINE
  5
18FBC
330
747D
100
AcDbEntity
  8
部品1
100
AcDbLine
 10
10989.72939116712
 20
8098.613052486639
 30
0.0
 11
10989.72939116712
 21
8034.613052486639
 31
0.0
  0
LINE
  5
18FBD
330
747D
100
AcDbEntity
  8
部品1
100
AcDbLine
 10
11001.72939116712
 20
8129.613052486638
 30
0.0
 11
11001.72939116712
 21
8098.613052486639
 31
0.0
  0
LINE
  5
18FBE
330
747D
100
AcDbEntity
  8
部品1
100
AcDbLine
 10
8913.729391167127
 20
8098.613052486639
 30
0.0
 11
8901.729391167126
 21
8098.613052486639
 31
0.0
  0
LINE
  5
18FBF
330
747D
100
AcDbEntity
  8
部品1
100
AcDbLine
 10
8874.729391167127
 20
8102.613052486638
 30
0.0
 11
8901.729391167126
 21
8102.613052486638
 31
0.0
  0
LINE
  5
18FC0
330
747D
100
AcDbEntity
  8
部品1
100
AcDbLine
 10
8904.729391167126
 20
8034.613052486639
 30
0.0
 11
8904.729391167126
 21
8025.613052486638
 31
0.0
  0
LINE
  5
18FC1
330
747D
100
AcDbEntity
  8
部品1
100
AcDbLine
 10
8913.729391167127
 20
8034.613052486639
 30
0.0
 11
8904.729391167126
 21
8034.613052486639
 31
0.0
  0
LINE
  5
18FC2
330
747D
100
AcDbEntity
  8
部品1
100
AcDbLine
 10
8904.729391167126
 20
8025.613052486638
 30
0.0
 11
8874.729391167127
 21
8025.613052486638
 31
0.0
  0
LINE
  5
18FC3
330
747D
100
AcDbEntity
  8
部品1
100
AcDbLine
 10
8874.729391167127
 20
8025.613052486638
 30
0.0
 11
8874.729391167127
 21
8102.613052486638
 31
0.0
  0
LINE
  5
18FC4
330
747D
100
AcDbEntity
  8
部品1
100
AcDbLine
 10
8913.729391167127
 20
8098.613052486639
 30
0.0
 11
8913.729391167127
 21
8034.613052486639
 31
0.0
  0
LINE
  5
18FC5
330
747D
100
AcDbEntity
  8
部品1
100
AcDbLine
 10
8901.729391167126
 20
8129.613052486636
 30
0.0
 11
8901.729391167126
 21
8098.613052486639
 31
0.0
  0
LINE
  5
18FC6
330
747D
100
AcDbEntity
  8
部品1
100
AcDbLine
 10
8901.729391167126
 20
8129.613052486636
 30
0.0
 11
11001.72939116712
 21
8129.613052486638
 31
0.0
  0
LINE
  5
18FC7
330
747D
100
AcDbEntity
  8
部品1
100
AcDbLine
 10
10998.72939116712
 20
8025.613052486638
 30
0.0
 11
11028.72939116712
 21
8025.613052486638
 31
0.0
  0
LINE
  5
18FC8
330
747D
100
AcDbEntity
  8
部品1
100
AcDbLine
 10
8904.729391167126
 20
8025.613052486638
 30
0.0
 11
11001.72939116712
 21
8025.613052486638
 31
0.0
  0
LINE
  5
18FC9
330
747D
100
AcDbEntity
  8
細線
  6
Continuous
 62
     5
100
AcDbLine
 10
10280.72939116713
 20
8064.613052486635
 30
0.0
 11
10280.72939116713
 21
8064.613052486635
 31
0.0
  0
LINE
  5
18FCA
330
747D
100
AcDbEntity
  8
細線
  6
Continuous
 62
     5
100
AcDbLine
 10
10273.22942648602
 20
8064.613062407692
 30
0.0
 11
10273.22942648602
 21
8064.613062407692
 31
0.0
  0
LINE
  5
18FCB
330
747D
100
AcDbEntity
  8
細線
  6
Continuous
 62
     5
100
AcDbLine
 10
10267.22942648602
 20
8064.613062407692
 30
0.0
 11
10267.22942648602
 21
8064.613062407692
 31
0.0
  0
LINE
  5
18FCC
330
747D
100
AcDbEntity
  8
細線
  6
Continuous
 62
     5
100
AcDbLine
 10
10334.72939116713
 20
8083.613052486635
 30
0.0
 11
10334.72939116713
 21
8083.613052486635
 31
0.0
  0
LINE
  5
18FCD
330
747D
100
AcDbEntity
  8
細線
 48
50.0
100
AcDbLine
 10
8927.729395820719
 20
8051.213226663593
 30
0.0
 11
8927.729395820719
 21
8059.609377071232
 31
0.0
  0
LINE
  5
18FCE
330
747D
100
AcDbEntity
  8
細線
 48
50.0
100
AcDbLine
 10
8927.729395820719
 20
8059.609377071232
 30
0.0
 11
8913.729391167127
 21
8059.609377071229
 31
0.0
  0
LINE
  5
18FCF
330
747D
100
AcDbEntity
  8
細線
 48
50.0
100
AcDbLine
 10
9678.729395820717
 20
8047.763226663592
 30
0.0
 11
9678.729395820717
 21
8052.613226663593
 31
0.0
  0
LINE
  5
18FD0
330
747D
100
AcDbEntity
  8
細線
 48
50.0
100
AcDbLine
 10
9678.729395820717
 20
8052.613226663593
 30
0.0
 11
9693.729395820717
 21
8052.613226663593
 31
0.0
  0
LINE
  5
18FD1
330
747D
100
AcDbEntity
  8
細線
 48
50.0
100
AcDbLine
 10
9693.729395820717
 20
8052.613226663593
 30
0.0
 11
9693.729395820719
 21
8059.613226663595
 31
0.0
  0
LINE
  5
18FD2
330
747D
100
AcDbEntity
  8
細線
 48
50.0
100
AcDbLine
 10
9693.729395820719
 20
8059.613226663595
 30
0.0
 11
9708.729395820716
 21
8059.613226663595
 31
0.0
  0
LINE
  5
18FD3
330
747D
100
AcDbEntity
  8
細線
 48
50.0
100
AcDbLine
 10
9708.729395820716
 20
8059.613226663595
 30
0.0
 11
9708.729395820716
 21
8030.613226663595
 31
0.0
  0
LINE
  5
18FD4
330
747D
100
AcDbEntity
  8
細線
 48
50.0
100
AcDbLine
 10
8904.729391167126
 20
8030.610561007064
 30
0.0
 11
9118.729395820716
 21
8030.613244217308
 31
0.0
  0
LINE
  5
18FD5
330
747D
100
AcDbEntity
  8
細線
 48
50.0
100
AcDbLine
 10
9608.729395820716
 20
8030.613226663595
 30
0.0
 11
9708.729395820716
 21
8030.613226663595
 31
0.0
  0
LINE
  5
18FD6
330
747D
100
AcDbEntity
  8
細線
 48
50.0
100
AcDbLine
 10
9328.729395820715
 20
8030.613226663595
 30
0.0
 11
9398.729395820716
 21
8030.613226663595
 31
0.0
  0
LINE
  5
18FD7
330
747D
100
AcDbEntity
  8
細線
 48
50.0
100
AcDbLine
 10
9341.591360833245
 20
8030.613226663595
 30
0.0
 11
9347.346878415912
 21
8048.884077954088
 31
0.0
  0
LINE
  5
18FD8
330
747D
100
AcDbEntity
  8
細線
 48
50.0
100
AcDbLine
 10
9347.346878415912
 20
8048.884077954088
 30
0.0
 11
9358.275326896345
 21
8048.884077954083
 31
0.0
  0
ARC
  5
18FD9
330
747D
100
AcDbEntity
  8
細線
 48
50.0
100
AcDbCircle
 10
9358.275326896345
 20
8047.884077954085
 30
0.0
 40
1.0
100
AcDbArc
 50
24.62431835213048
 51
90.0
  0
ARC
  5
18FDA
330
747D
100
AcDbEntity
  8
細線
 48
50.0
100
AcDbCircle
 10
9369.184039010979
 20
8047.884077954085
 30
0.0
 40
1.0
100
AcDbArc
 50
90.0
 51
155.3756816478695
  0
ARC
  5
18FDB
330
747D
100
AcDbEntity
  8
細線
 48
50.0
100
AcDbCircle
 10
9363.72968295366
 20
8050.384077954083
 30
0.0
 40
5.0
100
AcDbArc
 50
204.6243183521304
 51
335.3756816478695
  0
LINE
  5
18FDC
330
747D
100
AcDbEntity
  8
細線
 48
50.0
100
AcDbLine
 10
9369.184039010979
 20
8048.884077954083
 30
0.0
 11
9380.112487491414
 21
8048.884077954088
 31
0.0
  0
LINE
  5
18FDD
330
747D
100
AcDbEntity
  8
細線
 48
50.0
100
AcDbLine
 10
9380.112487491414
 20
8048.884077954088
 30
0.0
 11
9385.86800507408
 21
8030.613226663595
 31
0.0
  0
LINE
  5
18FDE
330
747D
100
AcDbEntity
  8
細線
 48
50.0
100
AcDbLine
 10
9678.729395820717
 20
8051.213226663593
 30
0.0
 11
8927.729395820719
 21
8051.213226663593
 31
0.0
  0
LINE
  5
18FDF
330
747D
100
AcDbEntity
  8
細線
 48
50.0
100
AcDbLine
 10
9538.729395820714
 20
8030.613226663595
 30
0.0
 11
9468.729395820716
 21
8030.613226663595
 31
0.0
  0
LINE
  5
18FE0
330
747D
100
AcDbEntity
  8
細線
100
AcDbLine
 10
9258.729395820715
 20
8030.613226663595
 30
0.0
 11
9188.729404006132
 21
8030.613226663595
 31
0.0
  0
LINE
  5
18FE1
330
747D
100
AcDbEntity
  8
細線
 48
50.0
100
AcDbLine
 10
10332.72938651354
 20
8085.213270521462
 30
0.0
 11
9697.729395820715
 21
8085.213270521457
 31
0.0
  0
LINE
  5
18FE2
330
747D
100
AcDbEntity
  8
細線
 48
50.0
100
AcDbLine
 10
9697.729395820715
 20
8082.1094209291
 30
0.0
 11
9697.729395820715
 21
8086.6094209291
 31
0.0
  0
LINE
  5
18FE3
330
747D
100
AcDbEntity
  8
細線
 48
50.0
100
AcDbLine
 10
9697.729395820715
 20
8086.6094209291
 30
0.0
 11
9682.729395820716
 21
8086.6094209291
 31
0.0
  0
LINE
  5
18FE4
330
747D
100
AcDbEntity
  8
細線
 48
50.0
100
AcDbLine
 10
9682.729395820716
 20
8086.6094209291
 30
0.0
 11
9682.729395820716
 21
8093.6094209291
 31
0.0
  0
LINE
  5
18FE5
330
747D
100
AcDbEntity
  8
細線
 48
50.0
100
AcDbLine
 10
9682.729395820716
 20
8093.6094209291
 30
0.0
 11
9667.729395820721
 21
8093.609420929096
 31
0.0
  0
LINE
  5
18FE6
330
747D
100
AcDbEntity
  8
細線
 48
50.0
100
AcDbLine
 10
9667.729395820721
 20
8093.609420929096
 30
0.0
 11
9667.729395820721
 21
8056.009192825987
 31
0.0
  0
LINE
  5
18FE7
330
747D
100
AcDbEntity
  8
細線
 48
50.0
100
AcDbLine
 10
9667.729395820721
 20
8056.009192825987
 30
0.0
 11
9687.729403121892
 21
8056.009234375528
 31
0.0
  0
LINE
  5
18FE8
330
747D
100
AcDbEntity
  8
細線
 48
50.0
100
AcDbLine
 10
9687.72935825295
 20
8064.612696011336
 30
0.0
 11
9687.729403121892
 21
8056.009234375528
 31
0.0
  0
LINE
  5
18FE9
330
747D
100
AcDbEntity
  8
細線
 48
50.0
100
AcDbLine
 10
10332.72938651354
 20
8081.763270521461
 30
0.0
 11
10332.72938651354
 21
8086.613270521459
 31
0.0
  0
LINE
  5
18FEA
330
747D
100
AcDbEntity
  8
細線
 48
50.0
100
AcDbLine
 10
10332.72938651354
 20
8086.613270521459
 30
0.0
 11
10347.72938651353
 21
8086.613270521459
 31
0.0
  0
LINE
  5
18FEB
330
747D
100
AcDbEntity
  8
細線
 48
50.0
100
AcDbLine
 10
10347.72938651353
 20
8086.613270521459
 30
0.0
 11
10347.72939814751
 21
8093.613270521503
 31
0.0
  0
LINE
  5
18FEC
330
747D
100
AcDbEntity
  8
細線
 48
50.0
100
AcDbLine
 10
10347.72939814751
 20
8093.613270521503
 30
0.0
 11
10362.72939631804
 21
8093.613270521503
 31
0.0
  0
LINE
  5
18FED
330
747D
100
AcDbEntity
  8
細線
 48
50.0
100
AcDbLine
 10
10362.72939631804
 20
8093.613270521503
 30
0.0
 11
10362.72938601622
 21
8064.613064349229
 31
0.0
  0
LINE
  5
18FEE
330
747D
100
AcDbEntity
  8
細線
 48
50.0
100
AcDbLine
 10
10050.229413647
 20
8064.613072536594
 30
0.0
 11
9980.229665729421
 21
8064.613067099257
 31
0.0
  0
LINE
  5
18FEF
330
747D
100
AcDbEntity
  8
細線
 48
50.0
100
AcDbLine
 10
9687.72935825295
 20
8064.612696011336
 30
0.0
 11
9698.962047607659
 21
8064.612878964483
 31
0.0
  0
ARC
  5
18FF0
330
747D
100
AcDbEntity
  8
細線
 48
50.0
100
AcDbCircle
 10
9705.544339914995
 20
8063.413042878094
 30
0.0
 40
1.8
100
AcDbArc
 50
270.0006665777295
 51
345.0005554812987
  0
LINE
  5
18FF1
330
747D
100
AcDbEntity
  8
細線
 48
50.0
100
AcDbLine
 10
9707.530773361076
 20
8063.871883335375
 30
0.0
 11
9707.283010918878
 21
8062.947185453268
 31
0.0
  0
LINE
  5
18FF2
330
747D
100
AcDbEntity
  8
細線
 48
50.0
100
AcDbLine
 10
9705.544360856151
 20
8061.613042878217
 30
0.0
 11
9701.914433437382
 21
8061.613000647737
 31
0.0
  0
ARC
  5
18FF3
330
747D
100
AcDbEntity
  8
細線
 48
50.0
100
AcDbCircle
 10
9701.914412496229
 20
8063.413000647615
 30
0.0
 40
1.8
100
AcDbArc
 50
195.0010443049394
 51
270.0006665777295
  0
LINE
  5
18FF4
330
747D
100
AcDbEntity
  8
細線
 48
50.0
100
AcDbLine
 10
9699.927985003972
 20
8063.87171561518
 30
0.0
 11
9700.175754500484
 21
8062.947094676598
 31
0.0
  0
ARC
  5
18FF5
330
747D
100
AcDbEntity
  8
細線
 48
50.0
100
AcDbCircle
 10
9698.962063895223
 20
8063.612878964617
 30
0.0
 40
1.0
100
AcDbArc
 50
15.00104430493943
 51
90.00093320877969
  0
LINE
  5
18FF6
330
747D
100
AcDbEntity
  8
細線
 48
50.0
100
AcDbLine
 10
9708.496694716178
 20
8064.613073654887
 30
0.0
 11
9709.438454867083
 21
8064.613080228737
 31
0.0
  0
ARC
  5
18FF7
330
747D
100
AcDbEntity
  8
細線
 48
50.0
100
AcDbCircle
 10
9708.496701696564
 20
8063.613073654913
 30
0.0
 40
1.0
100
AcDbArc
 50
90.0003999466794
 51
165.0005554812987
  0
LINE
  5
18FF8
330
747D
100
AcDbEntity
  8
細線
 48
50.0
100
AcDbLine
 10
10260.22938651353
 20
8064.613064349229
 30
0.0
 11
10362.72938601622
 21
8064.613064349229
 31
0.0
  0
LINE
  5
18FF9
330
747D
100
AcDbEntity
  8
細線
 48
50.0
100
AcDbLine
 10
9770.229421832421
 20
8064.613072536594
 30
0.0
 11
9709.129360605501
 21
8064.613080228737
 31
0.0
  0
LINE
  5
18FFA
330
747D
100
AcDbEntity
  8
細線
 48
50.0
100
AcDbLine
 10
10190.22942183242
 20
8064.613109377678
 30
0.0
 11
10120.22941487803
 21
8064.613064355009
 31
0.0
  0
LINE
  5
18FFB
330
747D
100
AcDbEntity
  8
細線
 48
50.0
100
AcDbLine
 10
9910.229386513529
 20
8064.613064349225
 30
0.0
 11
9840.229369225653
 21
8064.613064349233
 31
0.0
  0
ARC
  5
18FFC
330
747D
100
AcDbEntity
  8
細線
 48
50.0
100
AcDbCircle
 10
10346.92939116714
 20
8097.813052486639
 30
0.0
 40
0.8
100
AcDbArc
 50
359.9997333689499
 51
89.99986668437072
  0
ARC
  5
18FFD
330
747D
100
AcDbEntity
  8
細線
 48
50.0
100
AcDbCircle
 10
10354.52939799223
 20
8097.813063655257
 30
0.0
 40
0.8
100
AcDbArc
 50
90.00014387753465
 51
179.9997333689498
  0
LINE
  5
18FFE
330
747D
100
AcDbEntity
  8
細線
 48
50.0
100
AcDbLine
 10
10346.92939302857
 20
8098.613052486639
 30
0.0
 11
10341.72939116712
 21
8098.613052486639
 31
0.0
  0
ARC
  5
18FFF
330
747D
100
AcDbEntity
  8
細線
 48
50.0
100
AcDbCircle
 10
10348.42939116712
 20
8096.313052486641
 30
0.0
 40
0.7
100
AcDbArc
 50
180.0
 51
270.0
  0
ARC
  5
19000
330
747D
100
AcDbEntity
  8
細線
 48
50.0
100
AcDbCircle
 10
10353.02939116713
 20
8096.313052486641
 30
0.0
 40
0.7
100
AcDbArc
 50
270.0
 51
0.0
  0
LINE
  5
19001
330
747D
100
AcDbEntity
  8
細線
 48
50.0
100
AcDbLine
 10
10353.72939116712
 20
8096.313052486641
 30
0.0
 11
10353.72939799224
 21
8097.813067378126
 31
0.0
  0
LINE
  5
19002
330
747D
100
AcDbEntity
  8
細線
 48
50.0
100
AcDbLine
 10
10348.42939116712
 20
8095.613052486639
 30
0.0
 11
10353.02939116713
 21
8095.613052486639
 31
0.0
  0
LINE
  5
19003
330
747D
100
AcDbEntity
  8
細線
 48
50.0
100
AcDbLine
 10
10347.72939116712
 20
8097.813052486639
 30
0.0
 11
10347.72939116712
 21
8096.313052486641
 31
0.0
  0
LINE
  5
19004
330
747D
100
AcDbEntity
  8
細線
 48
50.0
100
AcDbLine
 10
10973.32939116713
 20
8128.613052486638
 30
0.0
 11
10336.72939116712
 21
8128.613052486635
 31
0.0
  0
LINE
  5
19005
330
747D
100
AcDbEntity
  8
細線
 48
50.0
100
AcDbLine
 10
10999.22939116712
 20
8123.613052486643
 30
0.0
 11
10983.32939116713
 21
8123.613052486637
 31
0.0
  0
LINE
  5
19006
330
747D
100
AcDbEntity
  8
細線
 48
50.0
100
AcDbLine
 10
10983.32939116713
 20
8123.613052486637
 30
0.0
 11
10973.32939116713
 21
8128.613052486638
 31
0.0
  0
LINE
  5
19007
330
747D
100
AcDbEntity
  8
細線
100
AcDbLine
 10
10584.22939116712
 20
8098.613052486639
 30
0.0
 11
10584.22939116712
 21
8127.913052486638
 31
0.0
  0
LINE
  5
19008
330
747D
100
AcDbEntity
  8
細線
100
AcDbLine
 10
10584.22939116712
 20
8127.913052486638
 30
0.0
 11
10604.22939116712
 21
8127.913052486638
 31
0.0
  0
LINE
  5
19009
330
747D
100
AcDbEntity
  8
細線
100
AcDbLine
 10
10604.22939116712
 20
8098.613052486639
 30
0.0
 11
10604.22939116712
 21
8127.913052486638
 31
0.0
  0
LINE
  5
1900A
330
747D
100
AcDbEntity
  8
細線
100
AcDbLine
 10
10765.47939116712
 20
8098.613052486639
 30
0.0
 11
10695.47939116712
 21
8098.613052486639
 31
0.0
  0
LINE
  5
1900B
330
747D
100
AcDbEntity
  8
細線
 48
50.0
100
AcDbLine
 10
10485.47939116712
 20
8098.613052486639
 30
0.0
 11
10354.52517073997
 21
8098.613052486639
 31
0.0
  0
LINE
  5
1900C
330
747D
100
AcDbEntity
  8
細線
100
AcDbLine
 10
10625.47939116712
 20
8098.613052486639
 30
0.0
 11
10555.47939116712
 21
8098.613052486639
 31
0.0
  0
LINE
  5
1900D
330
747D
100
AcDbEntity
  8
細線
 48
50.0
100
AcDbLine
 10
10341.72939116712
 20
8090.613052486638
 30
0.0
 11
10341.72939116712
 21
8098.613052486639
 31
0.0
  0
LINE
  5
1900E
330
747D
100
AcDbEntity
  8
細線
 48
50.0
100
AcDbLine
 10
10321.72939116712
 20
8090.613052486643
 30
0.0
 11
10341.72939116712
 21
8090.613052486638
 31
0.0
  0
LINE
  5
1900F
330
747D
100
AcDbEntity
  8
細線
 48
50.0
100
AcDbLine
 10
10336.72939116712
 20
8128.613052486638
 30
0.0
 11
10336.72939116712
 21
8123.613052486637
 31
0.0
  0
LINE
  5
19010
330
747D
100
AcDbEntity
  8
細線
 48
50.0
100
AcDbLine
 10
10321.72939116712
 20
8128.613052486635
 30
0.0
 11
10336.72939116712
 21
8128.613052486638
 31
0.0
  0
LINE
  5
19011
330
747D
100
AcDbEntity
  8
細線
 48
50.0
100
AcDbLine
 10
10321.72939116712
 20
8090.613052486643
 30
0.0
 11
10321.72939116712
 21
8128.613052486635
 31
0.0
  0
LINE
  5
19012
330
747D
100
AcDbEntity
  8
細線
100
AcDbLine
 10
10989.72939116712
 20
8098.613052486639
 30
0.0
 11
10835.47939116712
 21
8098.613052486639
 31
0.0
  0
LINE
  5
19013
330
747D
100
AcDbEntity
  8
細線
 48
50.0
100
AcDbLine
 10
10999.22939116712
 20
8123.613052486643
 30
0.0
 11
10999.22939116712
 21
8098.613052486639
 31
0.0
  0
DIMENSION
  5
19246
330
747D
100
AcDbEntity
  8
寸法
 48
50.0
100
AcDbDimension
  2
*D31
 10
11028.72939116716
 20
7105.483337058915
 30
0.0
 11
9973.862147914472
 21
7105.483337058915
 31
0.0
 70
   160
 71
     5
 42
2154.0
  3
INABA_S40G
100
AcDbAlignedDimension
 13
8874.729391167159
 23
8025.613052486681
 33
0.0
 14
11028.72939116716
 24
8025.613052486681
 34
0.0
100
AcDbRotatedDimension
1001
ACAD
1000
DSTYLE
1002
{
1070
   341
1005
0
1002
}
  0
DIMENSION
  5
19247
330
747D
100
AcDbEntity
  8
寸法
100
AcDbDimension
  2
*D32
 10
8552.118145540459
 20
8027.613052486737
 30
0.0
 11
8552.118145540459
 21
7887.127771112499
 31
0.0
 70
   160
 71
     5
 42
75.0
  3
INABA_S40
100
AcDbAlignedDimension
 13
8846.729391167178
 23
8102.613052486736
 33
0.0
 14
8874.729391167159
 24
8027.613052486737
 34
0.0
 50
90.0
100
AcDbRotatedDimension
1001
ACAD
1000
DSTYLE
1002
{
1070
    41
1040
0.5
1070
    44
1040
1.0
1070
   147
1040
0.8
1070
   271
1070
     2
1070
   272
1070
     2
1070
   289
1070
     3
1070
   340
1005
F706
1070
   343
1005
18033
1070
   344
1005
18033
1002
}
  0
DIMENSION
  5
19306
330
747D
100
AcDbEntity
  8
寸法
100
AcDbDimension
  2
*D33
 10
11056.72939116716
 20
6839.10182271359
 30
0.0
 11
9973.862147914472
 21
6839.10182271359
 31
0.0
 70
   160
 71
     5
 42
2209.999999999982
  3
INABA_S40G
100
AcDbAlignedDimension
 13
8846.729391167178
 23
8102.613052486672
 33
0.0
 14
11056.72939116716
 24
8102.613052486798
 34
0.0
100
AcDbRotatedDimension
1001
ACAD
1000
DSTYLE
1002
{
1002
}
  0
TEXT
  5
19312
330
747D
100
AcDbEntity
  8
部品1
100
AcDbText
 10
9659.913667881994
 20
6367.851378302623
 30
0.0
 40
135.0
  1
平面図
  7
STYLE2
100
AcDbText
  0
LINE
  5
19344
330
747D
100
AcDbEntity
  8
部品1
100
AcDbLine
 10
9569.994058052953
 20
6560.744907521146
 30
0.0
 11
9569.994058052953
 21
6320.852585975614
 31
0.0
  0
LINE
  5
19345
330
747D
100
AcDbEntity
  8
部品1
100
AcDbLine
 10
9569.994058052953
 20
6320.852585975614
 30
0.0
 11
10333.46472428139
 21
6320.852585975614
 31
0.0
  0
LINE
  5
19346
330
747D
100
AcDbEntity
  8
部品1
100
AcDbLine
 10
10333.46472428139
 20
6320.852585975614
 30
0.0
 11
10333.46472428139
 21
6560.744907521146
 31
0.0
  0
LINE
  5
19347
330
747D
100
AcDbEntity
  8
部品1
100
AcDbLine
 10
10333.46472428139
 20
6560.744907521146
 30
0.0
 11
9569.994058052953
 21
6560.744907521146
 31
0.0
  0
LWPOLYLINE
  5
19568
330
747D
100
AcDbEntity
  8
部品1
 48
50.0
100
AcDbPolyline
 90
        4
 70
     1
 43
0.0
 10
8973.779391167175
 20
3674.260354820208
 10
8976.679391167179
 20
3674.260354820208
 10
8976.679391167179
 20
3683.760354820208
 10
8973.779391167175
 20
3683.760354820208
  0
CIRCLE
  5
19569
330
747D
100
AcDbEntity
  8
部品1
 48
50.0
100
AcDbCircle
 10
8975.229391167177
 20
3679.010354820208
 30
0.0
 40
9.0
  0
ARC
  5
1956A
330
747D
100
AcDbEntity
  8
細線
 48
50.0
100
AcDbCircle
 10
8975.229391167177
 20
3679.010354820208
 30
0.0
 40
4.0
100
AcDbArc
 50
111.2538091853132
 51
248.7461908146868
  0
ARC
  5
1956B
330
747D
100
AcDbEntity
  8
細線
 48
50.0
100
AcDbCircle
 10
8975.229391167177
 20
3679.010354820208
 30
0.0
 40
17.5
100
AcDbArc
 50
306.4837370612677
 51
233.5162629387323
  0
LINE
  5
1956C
330
747D
100
AcDbEntity
  8
細線
 48
50.0
100
AcDbLine
 10
8985.229391167173
 20
3655.151394239325
 30
0.0
 11
8985.229391167177
 21
3664.135880039566
 31
0.0
  0
LINE
  5
1956D
330
747D
100
AcDbEntity
  8
細線
 48
50.0
100
AcDbLine
 10
8965.229391167177
 20
3655.151394239327
 30
0.0
 11
8965.229391167177
 21
3664.135880039563
 31
0.0
  0
ARC
  5
1956E
330
747D
100
AcDbEntity
  8
細線
 48
50.0
100
AcDbCircle
 10
8975.229391167177
 20
3679.010354820208
 30
0.0
 40
26.5
100
AcDbArc
 50
249.3326835063939
 51
290.6673164933835
  0
ARC
  5
1956F
330
747D
100
AcDbEntity
  8
細線
 48
50.0
100
AcDbCircle
 10
8984.22939116717
 20
3655.151394239325
 30
0.0
 40
1.0
100
AcDbArc
 50
290.6673164936062
 51
359.9999999998958
  0
ARC
  5
19570
330
747D
100
AcDbEntity
  8
細線
 48
50.0
100
AcDbCircle
 10
8966.229391167177
 20
3655.151394239327
 30
0.0
 40
1.0
100
AcDbArc
 50
180.0
 51
249.3326835066164
  0
ARC
  5
19571
330
747D
100
AcDbEntity
  8
細線
 48
50.0
100
AcDbCircle
 10
8964.229391167178
 20
3664.135880039563
 30
0.0
 40
1.0
100
AcDbArc
 50
0.0
 51
53.51626293873231
  0
ARC
  5
19572
330
747D
100
AcDbEntity
  8
細線
 48
50.0
100
AcDbCircle
 10
8986.229391167182
 20
3664.135880039566
 30
0.0
 40
1.0
100
AcDbArc
 50
126.4837370615127
 51
180.0
  0
ARC
  5
19573
330
747D
100
AcDbEntity
  8
細線
 48
50.0
100
AcDbCircle
 10
8975.229391167177
 20
3679.010354820208
 30
0.0
 40
21.5
100
AcDbArc
 50
255.8014401250294
 51
284.1985598749706
  0
ARC
  5
19574
330
747D
100
AcDbEntity
  8
細線
 48
50.0
100
AcDbCircle
 10
8975.229391167177
 20
3679.010354820208
 30
0.0
 40
16.5
100
AcDbArc
 50
251.9694646069326
 51
288.0305353930674
  0
LINE
  5
19575
330
747D
100
AcDbEntity
  8
細線
 48
50.0
100
AcDbLine
 10
8980.729391167177
 20
3658.457982694401
 30
0.0
 11
8980.729391167177
 21
3663.035374381738
 31
0.0
  0
LINE
  5
19576
330
747D
100
AcDbEntity
  8
細線
 48
50.0
100
AcDbLine
 10
8969.729391167176
 20
3658.457982694401
 30
0.0
 11
8969.729391167176
 21
3663.035374381736
 31
0.0
  0
ARC
  5
19577
330
747D
100
AcDbEntity
  8
細線
 48
50.0
100
AcDbCircle
 10
8970.029391167178
 20
3663.035374381736
 30
0.0
 40
0.3
100
AcDbArc
 50
71.96946460693259
 51
180.0
  0
ARC
  5
19578
330
747D
100
AcDbEntity
  8
細線
 48
50.0
100
AcDbCircle
 10
8980.429391167177
 20
3663.035374381738
 30
0.0
 40
0.3
100
AcDbArc
 50
0.0
 51
108.0305353930674
  0
ARC
  5
19579
330
747D
100
AcDbEntity
  8
細線
 48
50.0
100
AcDbCircle
 10
8980.429391167174
 20
3658.457982694401
 30
0.0
 40
0.3
100
AcDbArc
 50
284.1985598747622
 51
0.0000000001042204
  0
ARC
  5
1957A
330
747D
100
AcDbEntity
  8
細線
 48
50.0
100
AcDbCircle
 10
8970.029391167178
 20
3658.457982694401
 30
0.0
 40
0.3
100
AcDbArc
 50
180.0
 51
255.8014401248081
  0
CIRCLE
  5
1957B
330
747D
100
AcDbEntity
  8
細線
 48
50.0
100
AcDbCircle
 10
8975.229391167177
 20
3679.010354820208
 30
0.0
 40
12.0
  0
ARC
  5
1957C
330
747D
100
AcDbEntity
  8
部品1
 48
50.0
100
AcDbCircle
 10
8975.229391167177
 20
3729.010354820208
 30
0.0
 40
8.5
100
AcDbArc
 50
114.315739171091
 51
245.684260828909
  0
CIRCLE
  5
1957D
330
747D
100
AcDbEntity
  8
細線
 48
50.0
100
AcDbCircle
 10
8975.229391167177
 20
3729.010354820208
 30
0.0
 40
4.5
  0
LWPOLYLINE
  5
1957E
330
747D
100
AcDbEntity
  8
部品1
 48
50.0
100
AcDbPolyline
 90
        2
 70
     0
 43
0.0
 10
8971.729391167178
 20
3747.685204217191
 10
8971.729391167178
 20
3736.756321512623
  0
CIRCLE
  5
1957F
330
747D
100
AcDbEntity
  8
部品1
 48
50.0
100
AcDbCircle
 10
8975.229391167177
 20
3729.010354820208
 30
0.0
 40
19.0
  0
LWPOLYLINE
  5
19580
330
747D
100
AcDbEntity
  8
部品1
 48
50.0
100
AcDbPolyline
 90
        2
 70
     0
 43
0.0
 10
8971.729391167178
 20
3721.264388127793
 10
8971.729391167178
 20
3710.335505423226
  0
LWPOLYLINE
  5
19581
330
747D
100
AcDbEntity
  8
部品1
 48
50.0
100
AcDbPolyline
 90
        2
 70
     0
 43
0.0
 10
8978.729391167176
 20
3736.756321512623
 10
8978.729391167176
 20
3747.685204217191
  0
ARC
  5
19582
330
747D
100
AcDbEntity
  8
部品1
 48
50.0
100
AcDbCircle
 10
8975.229391167177
 20
3729.010354820208
 30
0.0
 40
8.5
100
AcDbArc
 50
294.315739171091
 51
65.68426082890896
  0
LWPOLYLINE
  5
19583
330
747D
100
AcDbEntity
  8
部品1
 48
50.0
100
AcDbPolyline
 90
        2
 70
     0
 43
0.0
 10
8978.729391167176
 20
3710.335505423226
 10
8978.729391167176
 20
3721.264388127793
  0
ARC
  5
19584
330
747D
100
AcDbEntity
  8
細線
 48
50.0
100
AcDbCircle
 10
8975.229391167177
 20
3729.010354820208
 30
0.0
 40
16.5
100
AcDbArc
 50
332.0012352654438
 51
27.99876473455621
  0
ARC
  5
19585
330
747D
100
AcDbEntity
  8
細線
 48
50.0
100
AcDbCircle
 10
8975.229391167177
 20
3729.010354820208
 30
0.0
 40
14.0
100
AcDbArc
 50
326.4074436112986
 51
33.59255638870134
  0
LINE
  5
19586
330
747D
100
AcDbEntity
  8
細線
 48
50.0
100
AcDbLine
 10
8960.660588882845
 20
3736.756321512623
 30
0.0
 11
8963.567487377487
 21
3736.756321512623
 31
0.0
  0
LINE
  5
19587
330
747D
100
AcDbEntity
  8
細線
 48
50.0
100
AcDbLine
 10
8960.660588882845
 20
3721.264388127793
 30
0.0
 11
8963.567487377487
 21
3721.264388127793
 31
0.0
  0
LINE
  5
19588
330
747D
100
AcDbEntity
  8
細線
 48
50.0
100
AcDbLine
 10
8986.891294956866
 20
3736.756321512623
 30
0.0
 11
8989.798193451511
 21
3736.756321512623
 31
0.0
  0
LINE
  5
19589
330
747D
100
AcDbEntity
  8
細線
 48
50.0
100
AcDbLine
 10
8986.891294956866
 20
3721.264388127793
 30
0.0
 11
8989.798193451511
 21
3721.264388127793
 31
0.0
  0
ARC
  5
1958A
330
747D
100
AcDbEntity
  8
細線
 48
50.0
100
AcDbCircle
 10
8975.229391167177
 20
3729.010354820208
 30
0.0
 40
14.0
100
AcDbArc
 50
146.4074436112986
 51
213.5925563887013
  0
ARC
  5
1958B
330
747D
100
AcDbEntity
  8
細線
 48
50.0
100
AcDbCircle
 10
8975.229391167177
 20
3729.010354820208
 30
0.0
 40
16.5
100
AcDbArc
 50
152.0012352654438
 51
207.9987647345562
  0
ARC
  5
1958C
330
747D
100
AcDbEntity
  8
部品1
 48
50.0
100
AcDbCircle
 10
8948.729391167177
 20
3754.510354820208
 30
0.0
 40
5.0
100
AcDbArc
 50
90.0
 51
180.0
  0
ARC
  5
1958D
330
747D
100
AcDbEntity
  8
部品1
 48
50.0
100
AcDbCircle
 10
8948.729391167177
 20
3643.510354820208
 30
0.0
 40
5.0
100
AcDbArc
 50
180.0
 51
270.0
  0
ARC
  5
1958E
330
747D
100
AcDbEntity
  8
部品1
 48
50.0
100
AcDbCircle
 10
9001.729391167177
 20
3643.510354820208
 30
0.0
 40
5.0
100
AcDbArc
 50
270.0
 51
0.0
  0
ARC
  5
1958F
330
747D
100
AcDbEntity
  8
部品1
 48
50.0
100
AcDbCircle
 10
9001.729391167177
 20
3754.510354820208
 30
0.0
 40
5.0
100
AcDbArc
 50
0.0
 51
90.0
  0
LINE
  5
19591
330
747D
100
AcDbEntity
  8
部品1
 48
50.0
100
AcDbLine
 10
8943.729391167178
 20
3643.510354820208
 30
0.0
 11
8943.729391167178
 21
3754.510354820208
 31
0.0
  0
LINE
  5
19592
330
747D
100
AcDbEntity
  8
部品1
 48
50.0
100
AcDbLine
 10
9001.729391167177
 20
3638.510354820208
 30
0.0
 11
8948.729391167177
 21
3638.510354820208
 31
0.0
  0
LINE
  5
19593
330
747D
100
AcDbEntity
  8
部品1
 48
50.0
100
AcDbLine
 10
9006.729391167176
 20
3754.510354820208
 30
0.0
 11
9006.729391167176
 21
3643.510354820208
 31
0.0
  0
ENDSEC
  0
SECTION
  2
OBJECTS
  0
DICTIONARY
  5
7471
330
0
100
AcDbDictionary
281
     1
  3
ACAD_COLOR
350
18028
  3
ACAD_GROUP
350
7472
  3
ACAD_LAYOUT
350
18029
  3
ACAD_MATERIAL
350
18027
  3
ACAD_MLINESTYLE
350
7473
  3
ACAD_PLOTSETTINGS
350
1802A
  3
ACAD_PLOTSTYLENAME
350
18025
  3
ACDBHEADERROUNDTRIPXREC
350
195A2
  3
AcDbVariableDictionary
350
1959E
  3
CONTENTDICTIONARY
350
E71C
  3
DRAWINGVARIABLESDICT
350
F3B9
  0
DICTIONARY
  5
181C2
330
7467
100
AcDbDictionary
280
     1
281
     1
  3
ACAD_LAYERSTATES
360
181C3
  0
DICTIONARY
  5
18028
102
{ACAD_REACTORS
330
7471
102
}
330
7471
100
AcDbDictionary
281
     1
  0
DICTIONARY
  5
7472
102
{ACAD_REACTORS
330
7471
102
}
330
7471
100
AcDbDictionary
281
     1
  0
DICTIONARY
  5
18029
102
{ACAD_REACTORS
330
7471
102
}
330
7471
100
AcDbDictionary
281
     1
  3
Model
350
1802B
  3
レイアウト1
350
1802C
  0
DICTIONARY
  5
18027
102
{ACAD_REACTORS
330
7471
102
}
330
7471
100
AcDbDictionary
281
     1
  0
DICTIONARY
  5
7473
102
{ACAD_REACTORS
330
7471
102
}
330
7471
100
AcDbDictionary
281
     1
  3
STANDARD
350
7480
  0
DICTIONARY
  5
1802A
102
{ACAD_REACTORS
330
7471
102
}
330
7471
100
AcDbDictionary
281
     1
  0
ACDBDICTIONARYWDFLT
  5
18025
102
{ACAD_REACTORS
330
7471
102
}
330
7471
100
AcDbDictionary
281
     1
  3
Normal
350
18026
100
AcDbDictionaryWithDefault
340
18026
  0
DICTIONARY
  5
195A2
102
{ACAD_REACTORS
330
7471
102
}
330
7471
100
AcDbDictionary
281
     1
  3
COLORDICT
350
195A4
  3
MATERIALDICT
350
195A3
  0
DICTIONARY
  5
1959E
102
{ACAD_REACTORS
330
7471
102
}
330
7471
100
AcDbDictionary
281
     1
  3
DIMASSOC
350
1959F
  3
PROJECTNAME
350
195A0
  0
DICTIONARY
  5
E71C
102
{ACAD_REACTORS
330
7471
102
}
330
7471
100
AcDbDictionary
281
     1
  0
DICTIONARY
  5
F3B9
102
{ACAD_REACTORS
330
7471
102
}
330
7471
100
AcDbDictionary
281
     1
1001
DRAWINGVARIABLESXDATA
1000
POLARMODE
1000
1
  0
DICTIONARY
  5
181C3
102
{ACAD_REACTORS
330
181C2
102
}
330
181C2
100
AcDbDictionary
281
     1
  0
LAYOUT
  5
1802B
102
{ACAD_XDICTIONARY
360
195A5
102
}
102
{ACAD_REACTORS
330
18029
102
}
330
18029
100
AcDbPlotSettings
  1

  2
Microsoft Office Document Image Writer
  4

  6

 40
0.0
 41
0.0
 42
0.0
 43
0.0
 44
0.0
 45
0.0
 46
0.0
 47
0.0
 48
0.0
 49
0.0
140
0.0
141
0.0
142
1.0
143
1.0
 70
  1712
 72
     0
 73
     0
 74
     0
  7

 75
     0
147
1.0
148
0.0
149
0.0
100
AcDbLayout
  1
Model
 70
     1
 71
     0
 10
0.0
 20
0.0
 11
12.0
 21
9.0
 12
0.0
 22
0.0
 32
0.0
 14
0.0
 24
0.0
 34
0.0
 15
0.0
 25
0.0
 35
0.0
146
0.0
 13
0.0
 23
0.0
 33
0.0
 16
1.0
 26
0.0
 36
0.0
 17
0.0
 27
1.0
 37
0.0
 76
     0
330
747D
  0
LAYOUT
  5
1802C
102
{ACAD_XDICTIONARY
360
195A7
102
}
102
{ACAD_REACTORS
330
18029
102
}
330
18029
100
AcDbPlotSettings
  1

  2
Microsoft Office Document Image Writer
  4

  6

 40
0.0
 41
0.0
 42
0.0
 43
0.0
 44
0.0
 45
0.0
 46
0.0
 47
0.0
 48
0.0
 49
0.0
140
0.0
141
0.0
142
1.0
143
1.0
 70
   688
 72
     0
 73
     0
 74
     5
  7

 75
    16
147
1.0
148
0.0
149
0.0
100
AcDbLayout
  1
レイアウト1
 70
     0
 71
     1
 10
0.0
 20
0.0
 11
420.0
 21
297.0
 12
0.0
 22
0.0
 32
0.0
 14
1.000000000000000E+20
 24
1.000000000000000E+20
 34
1.000000000000000E+20
 15
-1.000000000000000E+20
 25
-1.000000000000000E+20
 35
-1.000000000000000E+20
146
0.0
 13
0.0
 23
0.0
 33
0.0
 16
1.0
 26
0.0
 36
0.0
 17
0.0
 27
1.0
 37
0.0
 76
     0
330
747A
  0
MLINESTYLE
  5
7480
102
{ACAD_REACTORS
330
7473
102
}
330
7473
100
AcDbMlineStyle
  2
STANDARD
 70
     0
  3

 62
     0
 51
90.0
 52
90.0
 71
     2
 49
0.5
 62
   256
  6
BYLAYER
 49
-0.5
 62
   256
  6
BYLAYER
  0
ACDBPLACEHOLDER
  5
18026
102
{ACAD_REACTORS
330
18025
102
}
330
18025
  0
XRECORD
  5
195A4
102
{ACAD_REACTORS
330
195A2
102
}
330
195A2
100
AcDbXrecord
280
     1
340
18028
  0
XRECORD
  5
195A3
102
{ACAD_REACTORS
330
195A2
102
}
330
195A2
100
AcDbXrecord
280
     1
340
18027
  0
DICTIONARYVAR
  5
1959F
102
{ACAD_REACTORS
330
1959E
102
}
330
1959E
100
DictionaryVariables
280
     0
  1
1
  0
DICTIONARYVAR
  5
195A0
102
{ACAD_REACTORS
330
1959E
102
}
330
1959E
100
DictionaryVariables
280
     0
  1

  0
DICTIONARY
  5
195A5
330
1802B
100
AcDbDictionary
280
     1
281
     1
  3
ACAD_XREC_ROUNDTRIP
360
195A6
  0
DICTIONARY
  5
195A7
330
1802C
100
AcDbDictionary
280
     1
281
     1
  3
ACAD_XREC_ROUNDTRIP
360
195A8
  0
XRECORD
  5
195A6
102
{ACAD_REACTORS
330
195A5
102
}
330
195A5
100
AcDbXrecord
280
     1
102
SHADEPLOT
 70
     0
102
SHADEPLOTRESLEVEL
 70
     2
102
SHADEPLOTCUSTOMDPI
 70
   300
  0
XRECORD
  5
195A8
102
{ACAD_REACTORS
330
195A7
102
}
330
195A7
100
AcDbXrecord
280
     1
102
SHADEPLOT
 70
     0
102
SHADEPLOTRESLEVEL
 70
     2
102
SHADEPLOTCUSTOMDPI
 70
   300
  0
ENDSEC
  0
EOF
