  0
SECTION
  2
HEADER
  9
$ACADVER
  1
AC1015
  9
$ACADMAINTVER
 70
    20
  9
$DWGCODEPAGE
  3
ANSI_932
  9
$INSBASE
 10
0.0
 20
0.0
 30
0.0
  9
$EXTMIN
 10
139.9999999999995
 20
-0.0000000000000909
 30
0.0
  9
$EXTMAX
 10
16307.2
 20
11409.6
 30
0.0
  9
$LIMMIN
 10
0.0
 20
0.0
  9
$LIMMAX
 10
16800.0
 20
11880.0
  9
$ORTHOMODE
 70
     0
  9
$REGENMODE
 70
     1
  9
$FILLMODE
 70
     1
  9
$QTEXTMODE
 70
     0
  9
$MIRRTEXT
 70
     1
  9
$LTSCALE
 40
20.0
  9
$ATTMODE
 70
     1
  9
$TEXTSIZE
 40
4.0
  9
$TRACEWID
 40
1.0
  9
$TEXTSTYLE
  7
STYLE1
  9
$CLAYER
  8
寸法
  9
$CELTYPE
  6
BYLAYER
  9
$CECOLOR
 62
   256
  9
$CELTSCALE
 40
50.0
  9
$DISPSILH
 70
     0
  9
$DIMSCALE
 40
40.0
  9
$DIMASZ
 40
2.5
  9
$DIMEXO
 40
0.5
  9
$DIMDLI
 40
7.0
  9
$DIMRND
 40
0.0
  9
$DIMDLE
 40
0.0
  9
$DIMEXE
 40
1.5
  9
$DIMTP
 40
0.0
  9
$DIMTM
 40
0.0
  9
$DIMTXT
 40
3.0
  9
$DIMCEN
 40
0.0
  9
$DIMTSZ
 40
0.0
  9
$DIMTOL
 70
     0
  9
$DIMLIM
 70
     0
  9
$DIMTIH
 70
     0
  9
$DIMTOH
 70
     0
  9
$DIMSE1
 70
     0
  9
$DIMSE2
 70
     0
  9
$DIMTAD
 70
     3
  9
$DIMZIN
 70
     8
  9
$DIMBLK
  1

  9
$DIMASO
 70
     1
  9
$DIMSHO
 70
     1
  9
$DIMPOST
  1

  9
$DIMAPOST
  1

  9
$DIMALT
 70
     0
  9
$DIMALTD
 70
     2
  9
$DIMALTF
 40
0.0394
  9
$DIMLFAC
 40
1.0
  9
$DIMTOFL
 70
     1
  9
$DIMTVP
 40
0.0
  9
$DIMTIX
 70
     1
  9
$DIMSOXD
 70
     0
  9
$DIMSAH
 70
     1
  9
$DIMBLK1
  1
DOTSMALL
  9
$DIMBLK2
  1
DOTSMALL
  9
$DIMSTYLE
  2
INABA_S40G
  9
$DIMCLRD
 70
     0
  9
$DIMCLRE
 70
     0
  9
$DIMCLRT
 70
     7
  9
$DIMTFAC
 40
1.0
  9
$DIMGAP
 40
1.0
  9
$DIMJUST
 70
     0
  9
$DIMSD1
 70
     0
  9
$DIMSD2
 70
     0
  9
$DIMTOLJ
 70
     1
  9
$DIMTZIN
 70
     0
  9
$DIMALTZ
 70
     0
  9
$DIMALTTZ
 70
     0
  9
$DIMUPT
 70
     1
  9
$DIMDEC
 70
     1
  9
$DIMTDEC
 70
     4
  9
$DIMALTU
 70
     2
  9
$DIMALTTD
 70
     2
  9
$DIMTXSTY
  7
STYLE1
  9
$DIMAUNIT
 70
     0
  9
$DIMADEC
 70
     0
  9
$DIMALTRND
 40
0.0
  9
$DIMAZIN
 70
     0
  9
$DIMDSEP
 70
    46
  9
$DIMATFIT
 70
     3
  9
$DIMFRAC
 70
     0
  9
$DIMLDRBLK
  1

  9
$DIMLUNIT
 70
     2
  9
$DIMLWD
 70
    -2
  9
$DIMLWE
 70
    -2
  9
$DIMTMOVE
 70
     0
  9
$LUNITS
 70
     2
  9
$LUPREC
 70
     1
  9
$SKETCHINC
 40
1.0
  9
$FILLETRAD
 40
3.0
  9
$AUNITS
 70
     0
  9
$AUPREC
 70
     0
  9
$MENU
  1
acad
  9
$ELEVATION
 40
0.0
  9
$PELEVATION
 40
0.0
  9
$THICKNESS
 40
0.0
  9
$LIMCHECK
 70
     0
  9
$CHAMFERA
 40
0.0
  9
$CHAMFERB
 40
0.0
  9
$CHAMFERC
 40
0.0
  9
$CHAMFERD
 40
0.0
  9
$SKPOLY
 70
     0
  9
$TDCREATE
 40
2451368.612993866
  9
$TDUCREATE
 40
2451368.237993866
  9
$TDUPDATE
 40
2455575.685689016
  9
$TDUUPDATE
 40
2455575.310689016
  9
$TDINDWG
 40
0.6078191435
  9
$TDUSRTIMER
 40
0.6078191435
  9
$USRTIMER
 70
     1
  9
$ANGBASE
 50
0.0
  9
$ANGDIR
 70
     0
  9
$PDMODE
 70
     3
  9
$PDSIZE
 40
2.0
  9
$PLINEWID
 40
0.0
  9
$SPLFRAME
 70
     0
  9
$SPLINETYPE
 70
     6
  9
$SPLINESEGS
 70
     8
  9
$HANDSEED
  5
17EAD
  9
$SURFTAB1
 70
     6
  9
$SURFTAB2
 70
     6
  9
$SURFTYPE
 70
     6
  9
$SURFU
 70
     6
  9
$SURFV
 70
     6
  9
$UCSBASE
  2

  9
$UCSNAME
  2

  9
$UCSORG
 10
0.0
 20
0.0
 30
0.0
  9
$UCSXDIR
 10
1.0
 20
0.0
 30
0.0
  9
$UCSYDIR
 10
0.0
 20
1.0
 30
0.0
  9
$UCSORTHOREF
  2

  9
$UCSORTHOVIEW
 70
     0
  9
$UCSORGTOP
 10
0.0
 20
0.0
 30
0.0
  9
$UCSORGBOTTOM
 10
0.0
 20
0.0
 30
0.0
  9
$UCSORGLEFT
 10
0.0
 20
0.0
 30
0.0
  9
$UCSORGRIGHT
 10
0.0
 20
0.0
 30
0.0
  9
$UCSORGFRONT
 10
0.0
 20
0.0
 30
0.0
  9
$UCSORGBACK
 10
0.0
 20
0.0
 30
0.0
  9
$PUCSBASE
  2

  9
$PUCSNAME
  2

  9
$PUCSORG
 10
0.0
 20
0.0
 30
0.0
  9
$PUCSXDIR
 10
1.0
 20
0.0
 30
0.0
  9
$PUCSYDIR
 10
0.0
 20
1.0
 30
0.0
  9
$PUCSORTHOREF
  2

  9
$PUCSORTHOVIEW
 70
     0
  9
$PUCSORGTOP
 10
0.0
 20
0.0
 30
0.0
  9
$PUCSORGBOTTOM
 10
0.0
 20
0.0
 30
0.0
  9
$PUCSORGLEFT
 10
0.0
 20
0.0
 30
0.0
  9
$PUCSORGRIGHT
 10
0.0
 20
0.0
 30
0.0
  9
$PUCSORGFRONT
 10
0.0
 20
0.0
 30
0.0
  9
$PUCSORGBACK
 10
0.0
 20
0.0
 30
0.0
  9
$USERI1
 70
     0
  9
$USERI2
 70
     0
  9
$USERI3
 70
     0
  9
$USERI4
 70
     0
  9
$USERI5
 70
     0
  9
$USERR1
 40
0.0
  9
$USERR2
 40
0.0
  9
$USERR3
 40
0.0
  9
$USERR4
 40
0.0
  9
$USERR5
 40
0.0
  9
$WORLDVIEW
 70
     1
  9
$SHADEDGE
 70
     3
  9
$SHADEDIF
 70
    70
  9
$TILEMODE
 70
     1
  9
$MAXACTVP
 70
    16
  9
$PINSBASE
 10
0.0
 20
0.0
 30
0.0
  9
$PLIMCHECK
 70
     0
  9
$PEXTMIN
 10
1.000000000000000E+20
 20
1.000000000000000E+20
 30
1.000000000000000E+20
  9
$PEXTMAX
 10
-1.000000000000000E+20
 20
-1.000000000000000E+20
 30
-1.000000000000000E+20
  9
$PLIMMIN
 10
0.0
 20
0.0
  9
$PLIMMAX
 10
420.0
 20
297.0
  9
$UNITMODE
 70
     0
  9
$VISRETAIN
 70
     0
  9
$PLINEGEN
 70
     0
  9
$PSLTSCALE
 70
     0
  9
$TREEDEPTH
 70
  3020
  9
$CMLSTYLE
  2
STANDARD
  9
$CMLJUST
 70
     0
  9
$CMLSCALE
 40
1.0
  9
$PROXYGRAPHICS
 70
     1
  9
$MEASUREMENT
 70
     1
  9
$CELWEIGHT
370
    -1
  9
$ENDCAPS
280
     0
  9
$JOINSTYLE
280
     0
  9
$LWDISPLAY
290
     0
  9
$INSUNITS
 70
     0
  9
$HYPERLINKBASE
  1

  9
$STYLESHEET
  1

  9
$XEDIT
290
     1
  9
$CEPSNTYPE
380
     0
  9
$PSTYLEMODE
290
     1
  9
$FINGERPRINTGUID
  2
{81E2AC7C-FC4D-49F9-BD6E-95FD357A7FE2}
  9
$VERSIONGUID
  2
{BEDF359A-E4A4-4868-8E29-8EE045200E5A}
  9
$EXTNAMES
290
     1
  9
$PSVPSCALE
 40
0.0
  9
$OLESTARTUP
290
     0
  0
ENDSEC
  0
SECTION
  2
CLASSES
  0
CLASS
  1
ACDBDICTIONARYWDFLT
  2
AcDbDictionaryWithDefault
  3
ObjectDBX Classes
 90
        0
280
     0
281
     0
  0
CLASS
  1
DICTIONARYVAR
  2
AcDbDictionaryVar
  3
ObjectDBX Classes
 90
        0
280
     0
281
     0
  0
CLASS
  1
ACDBPLACEHOLDER
  2
AcDbPlaceHolder
  3
ObjectDBX Classes
 90
        0
280
     0
281
     0
  0
CLASS
  1
LAYOUT
  2
AcDbLayout
  3
ObjectDBX Classes
 90
        0
280
     0
281
     0
  0
ENDSEC
  0
SECTION
  2
TABLES
  0
TABLE
  2
VPORT
  5
746D
330
0
100
AcDbSymbolTable
 70
     2
  0
VPORT
  5
17EA5
330
746D
100
AcDbSymbolTableRecord
100
AcDbViewportTableRecord
  2
*Active
 70
     0
 10
0.0
 20
0.0
 11
1.0
 21
1.0
 12
8223.761025238502
 22
6348.767642148464
 13
0.0
 23
0.0
 14
10.0
 24
10.0
 15
10.0
 25
10.0
 16
0.0
 26
0.0
 36
1.0
 17
0.0
 27
0.0
 37
0.0
 40
12805.3711672054
 41
1.525925925925925
 42
50.0
 43
0.0
 44
0.0
 50
0.0
 51
0.0
 71
     0
 72
     0
 73
     1
 74
     0
 75
     0
 76
     0
 77
     0
 78
     0
281
     0
 65
     1
110
0.0
120
0.0
130
0.0
111
1.0
121
0.0
131
0.0
112
0.0
122
1.0
132
0.0
 79
     0
146
0.0
  0
ENDTAB
  0
TABLE
  2
LTYPE
  5
746A
330
0
100
AcDbSymbolTable
 70
     4
  0
LTYPE
  5
7477
330
746A
100
AcDbSymbolTableRecord
100
AcDbLinetypeTableRecord
  2
BYBLOCK
 70
     0
  3

 72
    65
 73
     0
 40
0.0
  0
LTYPE
  5
7478
330
746A
100
AcDbSymbolTableRecord
100
AcDbLinetypeTableRecord
  2
BYLAYER
 70
     0
  3

 72
    65
 73
     0
 40
0.0
  0
LTYPE
  5
7479
330
746A
100
AcDbSymbolTableRecord
100
AcDbLinetypeTableRecord
  2
CONTINUOUS
 70
     0
  3
Solid line
 72
    65
 73
     0
 40
0.0
  0
LTYPE
  5
7816
330
746A
100
AcDbSymbolTableRecord
100
AcDbLinetypeTableRecord
  2
CENTER
 70
     0
  3
____ _ ____ _ ____ _ ____ _ ____ _ ____ _ ____ 
 72
    65
 73
     4
 40
2.0
 49
1.25
 74
     0
 49
-0.25
 74
     0
 49
0.25
 74
     0
 49
-0.25
 74
     0
  0
LTYPE
  5
781A
330
746A
100
AcDbSymbolTableRecord
100
AcDbLinetypeTableRecord
  2
HIDDEN
 70
     0
  3
__ __ __ __ __ __ __ __ __ __ __ __ __ __ __ __
 72
    65
 73
     2
 40
0.375
 49
0.25
 74
     0
 49
-0.125
 74
     0
  0
LTYPE
  5
781B
330
746A
100
AcDbSymbolTableRecord
100
AcDbLinetypeTableRecord
  2
PHANTOM
 70
     0
  3
______  __  __  ______  __  __  ______  __  __ 
 72
    65
 73
     6
 40
2.5
 49
1.25
 74
     0
 49
-0.25
 74
     0
 49
0.25
 74
     0
 49
-0.25
 74
     0
 49
0.25
 74
     0
 49
-0.25
 74
     0
  0
ENDTAB
  0
TABLE
  2
LAYER
  5
7467
102
{ACAD_XDICTIONARY
360
1662C
102
}
330
0
100
AcDbSymbolTable
 70
    12
  0
LAYER
  5
7474
330
7467
100
AcDbSymbolTableRecord
100
AcDbLayerTableRecord
  2
0
 70
     0
 62
     7
  6
CONTINUOUS
370
    -3
390
1649D
  0
LAYER
  5
DEB2
330
7467
100
AcDbSymbolTableRecord
100
AcDbLayerTableRecord
  2
センター
 70
     0
 62
     3
  6
CENTER
370
    -3
390
1649D
  0
LAYER
  5
DEB3
330
7467
100
AcDbSymbolTableRecord
100
AcDbLayerTableRecord
  2
寸法
 70
     0
 62
     4
  6
CONTINUOUS
370
    -3
390
1649D
  0
LAYER
  5
DEB4
330
7467
100
AcDbSymbolTableRecord
100
AcDbLayerTableRecord
  2
部品1
 70
     0
 62
     7
  6
CONTINUOUS
370
    -3
390
1649D
  0
LAYER
  5
DEB5
330
7467
100
AcDbSymbolTableRecord
100
AcDbLayerTableRecord
  2
補助
 70
     0
 62
    -1
  6
CONTINUOUS
370
    -3
390
1649D
  0
LAYER
  5
DEB6
330
7467
100
AcDbSymbolTableRecord
100
AcDbLayerTableRecord
  2
文字
 70
     0
 62
     7
  6
CONTINUOUS
370
    -3
390
1649D
  0
LAYER
  5
F255
330
7467
100
AcDbSymbolTableRecord
100
AcDbLayerTableRecord
  2
DEFPOINTS
 70
     0
 62
     7
  6
CONTINUOUS
290
     0
370
    -3
390
1649D
  0
LAYER
  5
10B54
330
7467
100
AcDbSymbolTableRecord
100
AcDbLayerTableRecord
  2
仕様書枠
 70
     0
 62
   230
  6
CONTINUOUS
370
    -3
390
1649D
  0
LAYER
  5
11729
330
7467
100
AcDbSymbolTableRecord
100
AcDbLayerTableRecord
  2
Ｇ．Ｌ
 70
     0
 62
    30
  6
CONTINUOUS
370
    -3
390
1649D
  0
LAYER
  5
1173F
330
7467
100
AcDbSymbolTableRecord
100
AcDbLayerTableRecord
  2
細線
 70
     0
 62
     5
  6
CONTINUOUS
370
    -3
390
1649D
  0
LAYER
  5
12CC4
330
7467
100
AcDbSymbolTableRecord
100
AcDbLayerTableRecord
  2
想像線
 70
     0
 62
     6
  6
PHANTOM
370
    -3
390
1649D
  0
LAYER
  5
142E2
330
7467
100
AcDbSymbolTableRecord
100
AcDbLayerTableRecord
  2
破線
 70
     0
 62
     2
  6
HIDDEN
370
    -3
390
1649D
  0
ENDTAB
  0
TABLE
  2
STYLE
  5
7468
330
0
100
AcDbSymbolTable
 70
     4
  0
STYLE
  5
7475
330
7468
100
AcDbSymbolTableRecord
100
AcDbTextStyleTableRecord
  2
STANDARD
 70
     0
 40
0.0
 41
1.0
 50
0.0
 71
     0
 42
4.0
  3
txt
  4
C:\AutoCAD LT\bigfont.shx
  0
STYLE
  5
F706
330
7468
100
AcDbSymbolTableRecord
100
AcDbTextStyleTableRecord
  2
STYLE1
 70
     0
 40
0.0
 41
1.0
 50
0.0
 71
     0
 42
4.0
  3
isocp.shx
  4
bigfont.shx
  0
STYLE
  5
103BF
330
7468
100
AcDbSymbolTableRecord
100
AcDbTextStyleTableRecord
  2
STYLE2
 70
     0
 40
0.0
 41
1.0
 50
0.0
 71
     0
 42
100.0
  3
MS PGothic.ttf
  4

1001
ACAD
1000
MS PGothic
1071
    32818
  0
STYLE
  5
177F3
330
7468
100
AcDbSymbolTableRecord
100
AcDbTextStyleTableRecord
  2
STYLE3
 70
     0
 40
0.0
 41
1.0
 50
0.0
 71
     0
 42
100.0
  3

  4

1001
ACAD
1000
DFPGothic-EB
1071
    32818
  0
ENDTAB
  0
TABLE
  2
VIEW
  5
746B
330
0
100
AcDbSymbolTable
 70
     0
  0
ENDTAB
  0
TABLE
  2
UCS
  5
746C
330
0
100
AcDbSymbolTable
 70
     0
  0
ENDTAB
  0
TABLE
  2
APPID
  5
746E
330
0
100
AcDbSymbolTable
 70
     6
  0
APPID
  5
7476
330
746E
100
AcDbSymbolTableRecord
100
AcDbRegAppTableRecord
  2
ACAD
 70
     0
  0
APPID
  5
DEA9
330
746E
100
AcDbSymbolTableRecord
100
AcDbRegAppTableRecord
  2
CONTENTBLOCKICON
 70
     0
  0
APPID
  5
DEAA
330
746E
100
AcDbSymbolTableRecord
100
AcDbRegAppTableRecord
  2
CONTENTBLOCKDESCRIPTION
 70
     0
  0
APPID
  5
E71D
330
746E
100
AcDbSymbolTableRecord
100
AcDbRegAppTableRecord
  2
CONTENTTABDATA
 70
     0
  0
APPID
  5
E71E
330
746E
100
AcDbSymbolTableRecord
100
AcDbRegAppTableRecord
  2
CONTENTCURRENTTAB
 70
     0
  0
APPID
  5
F3BA
330
746E
100
AcDbSymbolTableRecord
100
AcDbRegAppTableRecord
  2
DRAWINGVARIABLESXDATA
 70
     0
  0
ENDTAB
  0
TABLE
  2
DIMSTYLE
  5
746F
330
0
100
AcDbSymbolTable
 70
     5
100
AcDbDimStyleTable
 71
     1
340
F71F
  0
DIMSTYLE
105
7484
330
746F
100
AcDbSymbolTableRecord
100
AcDbDimStyleTableRecord
  2
JIS
 70
     0
 41
2.5
 42
1.0
 43
7.0
 44
1.0
 73
     0
 74
     0
 77
     1
 78
     8
140
2.5
141
0.0
143
0.0394
147
0.0
172
     1
174
     1
175
     1
340
7475
  0
DIMSTYLE
105
F71F
102
{ACAD_REACTORS
330
168E4
330
168E5
330
168E6
330
168FF
330
16912
330
16913
330
16914
330
16915
330
16951
330
16953
330
16954
330
16955
330
16956
330
16957
330
16958
330
16966
330
1698B
330
1698C
330
1698D
330
1698E
330
16992
330
1739C
330
173A0
330
17540
330
1753F
330
1753D
330
175E1
330
17B2B
330
17BC8
102
}
330
746F
100
AcDbSymbolTableRecord
100
AcDbDimStyleTableRecord
  2
INABA_S40G
 70
     0
 40
40.0
 41
2.5
 42
0.5
 43
7.0
 44
1.5
 73
     0
 74
     0
 77
     3
 78
     8
140
3.0
141
0.0
143
0.0394
147
1.0
172
     1
173
     1
174
     1
178
     7
271
     1
288
     1
340
F706
341
F770
343
F770
344
F770
  0
DIMSTYLE
105
1662B
102
{ACAD_REACTORS
330
178CF
330
17BC3
102
}
330
746F
100
AcDbSymbolTableRecord
100
AcDbDimStyleTableRecord
  2
INABA_S40
 70
     0
 40
40.0
 41
2.5
 42
0.5
 43
7.0
 44
1.5
 73
     0
 74
     0
 77
     3
 78
     8
140
3.0
141
0.0
143
0.0394
147
1.0
172
     1
173
     1
174
     1
175
     1
178
     7
340
7475
  0
DIMSTYLE
105
177F4
330
746F
100
AcDbSymbolTableRecord
100
AcDbDimStyleTableRecord
  2
INABA_S50G
 70
     0
 41
125.0
 42
25.0
 43
7.0
 44
75.0
 73
     0
 74
     0
 77
     3
 78
     8
140
150.0
141
0.0
143
0.0394
147
25.0
172
     1
173
     1
174
     1
175
     1
178
     7
271
     1
340
F706
341
F770
343
F770
344
F770
  0
DIMSTYLE
105
17E3B
330
746F
100
AcDbSymbolTableRecord
100
AcDbDimStyleTableRecord
  2
INABA_S20G
 70
     0
 40
20.0
 41
2.5
 42
0.5
 43
7.0
 44
1.5
 73
     0
 74
     0
 77
     3
 78
     8
140
3.0
141
0.0
143
0.0394
147
1.0
172
     1
173
     1
174
     1
178
     7
271
     1
340
F706
341
F770
343
F770
344
F770
  0
ENDTAB
  0
TABLE
  2
BLOCK_RECORD
  5
7466
330
0
100
AcDbSymbolTable
 70
    34
  0
BLOCK_RECORD
  5
747D
330
7466
100
AcDbSymbolTableRecord
100
AcDbBlockTableRecord
  2
*MODEL_SPACE
340
164A2
  0
BLOCK_RECORD
  5
747A
330
7466
100
AcDbSymbolTableRecord
100
AcDbBlockTableRecord
  2
*PAPER_SPACE
340
164A3
  0
BLOCK_RECORD
  5
F770
330
7466
100
AcDbSymbolTableRecord
100
AcDbBlockTableRecord
  2
_DOTSMALL
340
0
102
{BLKREFS
331
176A7
331
176A8
331
176B0
331
176B1
331
176BB
331
176BC
331
176C4
331
176C5
331
176CD
331
176CE
331
176D6
331
176D7
331
176DF
331
176E0
331
176EA
331
176EB
331
176F4
331
176F5
331
176FD
331
176FE
331
17706
331
17707
331
17723
331
17724
331
1776F
331
17770
331
177A1
331
177A2
331
177AA
331
177AB
331
177B5
331
177B6
331
177BE
331
177BF
331
17D71
331
17D72
331
17D85
331
17D86
331
17D99
331
17D9A
331
17DAD
331
17DAE
331
17DBF
331
17DC0
331
17DC8
331
17DC9
331
17DD1
331
17DD2
331
17DDC
331
17DDD
331
17DE5
331
17DE6
331
17DF0
331
17DF1
331
17E23
331
17E24
331
17E2C
331
17E2D
102
}
  0
BLOCK_RECORD
  5
164AA
330
7466
100
AcDbSymbolTableRecord
100
AcDbBlockTableRecord
  2
_DOT
340
0
102
{BLKREFS
331
17D7C
331
17D7D
331
17D8E
331
17D8F
102
}
  0
BLOCK_RECORD
  5
16B3A
330
7466
100
AcDbSymbolTableRecord
100
AcDbBlockTableRecord
  2
*D2
340
0
  0
BLOCK_RECORD
  5
16B46
330
7466
100
AcDbSymbolTableRecord
100
AcDbBlockTableRecord
  2
*D3
340
0
  0
BLOCK_RECORD
  5
16B54
330
7466
100
AcDbSymbolTableRecord
100
AcDbBlockTableRecord
  2
*D4
340
0
  0
BLOCK_RECORD
  5
16B60
330
7466
100
AcDbSymbolTableRecord
100
AcDbBlockTableRecord
  2
*D5
340
0
  0
BLOCK_RECORD
  5
16B6D
330
7466
100
AcDbSymbolTableRecord
100
AcDbBlockTableRecord
  2
*D6
340
0
  0
BLOCK_RECORD
  5
16B7B
330
7466
100
AcDbSymbolTableRecord
100
AcDbBlockTableRecord
  2
*D7
340
0
  0
BLOCK_RECORD
  5
16B87
330
7466
100
AcDbSymbolTableRecord
100
AcDbBlockTableRecord
  2
*D8
340
0
  0
BLOCK_RECORD
  5
16B95
330
7466
100
AcDbSymbolTableRecord
100
AcDbBlockTableRecord
  2
*D9
340
0
  0
BLOCK_RECORD
  5
16BA1
330
7466
100
AcDbSymbolTableRecord
100
AcDbBlockTableRecord
  2
*D10
340
0
  0
BLOCK_RECORD
  5
16BAD
330
7466
100
AcDbSymbolTableRecord
100
AcDbBlockTableRecord
  2
*D11
340
0
  0
BLOCK_RECORD
  5
16BB9
330
7466
100
AcDbSymbolTableRecord
100
AcDbBlockTableRecord
  2
*D12
340
0
  0
BLOCK_RECORD
  5
16BC5
330
7466
100
AcDbSymbolTableRecord
100
AcDbBlockTableRecord
  2
*D13
340
0
  0
BLOCK_RECORD
  5
16BD1
330
7466
100
AcDbSymbolTableRecord
100
AcDbBlockTableRecord
  2
*D14
340
0
  0
BLOCK_RECORD
  5
16BDF
330
7466
100
AcDbSymbolTableRecord
100
AcDbBlockTableRecord
  2
*D15
340
0
  0
BLOCK_RECORD
  5
16BEB
330
7466
100
AcDbSymbolTableRecord
100
AcDbBlockTableRecord
  2
*D16
340
0
  0
BLOCK_RECORD
  5
16C05
330
7466
100
AcDbSymbolTableRecord
100
AcDbBlockTableRecord
  2
*D17
340
0
  0
BLOCK_RECORD
  5
16C2B
330
7466
100
AcDbSymbolTableRecord
100
AcDbBlockTableRecord
  2
*D18
340
0
  0
BLOCK_RECORD
  5
16C37
330
7466
100
AcDbSymbolTableRecord
100
AcDbBlockTableRecord
  2
*D19
340
0
  0
BLOCK_RECORD
  5
16C43
330
7466
100
AcDbSymbolTableRecord
100
AcDbBlockTableRecord
  2
*D20
340
0
  0
BLOCK_RECORD
  5
16C50
330
7466
100
AcDbSymbolTableRecord
100
AcDbBlockTableRecord
  2
*D21
340
0
  0
BLOCK_RECORD
  5
16C5E
330
7466
100
AcDbSymbolTableRecord
100
AcDbBlockTableRecord
  2
*D22
340
0
  0
BLOCK_RECORD
  5
16EC7
330
7466
100
AcDbSymbolTableRecord
100
AcDbBlockTableRecord
  2
A$C1D9B7374
340
0
  0
BLOCK_RECORD
  5
17478
330
7466
100
AcDbSymbolTableRecord
100
AcDbBlockTableRecord
  2
*D24
340
0
  0
BLOCK_RECORD
  5
17484
330
7466
100
AcDbSymbolTableRecord
100
AcDbBlockTableRecord
  2
*D25
340
0
  0
BLOCK_RECORD
  5
17585
330
7466
100
AcDbSymbolTableRecord
100
AcDbBlockTableRecord
  2
*D26
340
0
  0
BLOCK_RECORD
  5
17591
330
7466
100
AcDbSymbolTableRecord
100
AcDbBlockTableRecord
  2
*D27
340
0
  0
BLOCK_RECORD
  5
175AD
330
7466
100
AcDbSymbolTableRecord
100
AcDbBlockTableRecord
  2
*D28
340
0
  0
BLOCK_RECORD
  5
175EC
330
7466
100
AcDbSymbolTableRecord
100
AcDbBlockTableRecord
  2
*D29
340
0
  0
BLOCK_RECORD
  5
17934
330
7466
100
AcDbSymbolTableRecord
100
AcDbBlockTableRecord
  2
*D30
340
0
  0
BLOCK_RECORD
  5
17C17
330
7466
100
AcDbSymbolTableRecord
100
AcDbBlockTableRecord
  2
*D31
340
0
  0
BLOCK_RECORD
  5
17C2F
330
7466
100
AcDbSymbolTableRecord
100
AcDbBlockTableRecord
  2
*D32
340
0
  0
BLOCK_RECORD
  5
17C3D
330
7466
100
AcDbSymbolTableRecord
100
AcDbBlockTableRecord
  2
*D33
340
0
  0
ENDTAB
  0
ENDSEC
  0
SECTION
  2
BLOCKS
  0
BLOCK
  5
7489
330
747D
100
AcDbEntity
  8
0
100
AcDbBlockBegin
  2
*MODEL_SPACE
 70
     0
 10
0.0
 20
0.0
 30
0.0
  3
*MODEL_SPACE
  1

  0
ENDBLK
  5
748A
330
747D
100
AcDbEntity
  8
0
100
AcDbBlockEnd
  0
BLOCK
  5
7487
330
747A
100
AcDbEntity
 67
     1
  8
0
100
AcDbBlockBegin
  2
*PAPER_SPACE
 70
     0
 10
0.0
 20
0.0
 30
0.0
  3
*PAPER_SPACE
  1

  0
ENDBLK
  5
7488
330
747A
100
AcDbEntity
 67
     1
  8
0
100
AcDbBlockEnd
  0
BLOCK
  5
F771
330
F770
100
AcDbEntity
  8
0
 48
50.0
100
AcDbBlockBegin
  2
_DOTSMALL
 70
     0
 10
0.0
 20
0.0
 30
0.0
  3
_DOTSMALL
  1

  0
LWPOLYLINE
  5
F772
330
F770
100
AcDbEntity
  8
0
  6
ByBlock
 62
     0
 48
50.0
100
AcDbPolyline
 90
        2
 70
     1
 43
0.5
 10
-0.0625
 20
0.0
 42
1.0
 10
0.0625
 20
0.0
 42
1.0
  0
ENDBLK
  5
F776
330
F770
100
AcDbEntity
  8
0
 48
50.0
100
AcDbBlockEnd
  0
BLOCK
  5
164AB
330
164AA
100
AcDbEntity
  8
0
 48
50.0
100
AcDbBlockBegin
  2
_DOT
 70
     0
 10
0.0
 20
0.0
 30
0.0
  3
_DOT
  1

  0
LWPOLYLINE
  5
164AC
330
164AA
100
AcDbEntity
  8
0
  6
ByBlock
 62
     0
 48
50.0
100
AcDbPolyline
 90
        2
 70
     1
 43
0.5
 10
-0.25
 20
0.0
 42
1.0
 10
0.25
 20
0.0
 42
1.0
  0
LINE
  5
164AD
330
164AA
100
AcDbEntity
  8
0
  6
ByBlock
 62
     0
 48
50.0
100
AcDbLine
 10
-0.5
 20
0.0
 30
0.0
 11
-1.0
 21
0.0
 31
0.0
  0
ENDBLK
  5
164AE
330
164AA
100
AcDbEntity
  8
0
 48
50.0
100
AcDbBlockEnd
  0
BLOCK
  5
16B44
330
16B3A
100
AcDbEntity
  8
0
 48
50.0
100
AcDbBlockBegin
  2
*D2
 70
     1
 10
0.0
 20
0.0
 30
0.0
  3
*D2
  1

  0
LINE
  5
177BB
330
16B3A
100
AcDbEntity
  8
寸法
 62
     0
 48
50.0
370
    -2
100
AcDbLine
 10
10806.52093815143
 20
4266.470162938079
 30
0.0
 11
10806.52093815143
 21
4758.316936905731
 31
0.0
  0
LINE
  5
177BC
330
16B3A
100
AcDbEntity
  8
寸法
 62
     0
 48
50.0
370
    -2
100
AcDbLine
 10
9436.520938151435
 20
4315.661101449403
 30
0.0
 11
9436.520938151435
 21
4758.316936905731
 31
0.0
  0
LINE
  5
177BD
330
16B3A
100
AcDbEntity
  8
寸法
 62
     0
 48
50.0
370
    -2
100
AcDbLine
 10
10806.52093815143
 20
4698.31693690573
 30
0.0
 11
9436.520938151435
 21
4698.31693690573
 31
0.0
  0
INSERT
  5
177BE
330
16B3A
100
AcDbEntity
  8
寸法
 62
     0
 48
50.0
370
    -2
100
AcDbBlockReference
  2
_DOTSMALL
 10
10806.52093815143
 20
4698.31693690573
 30
0.0
 41
100.0
 42
100.0
 43
100.0
  0
INSERT
  5
177BF
330
16B3A
100
AcDbEntity
  8
寸法
 62
     0
 48
50.0
370
    -2
100
AcDbBlockReference
  2
_DOTSMALL
 10
9436.520938151435
 20
4698.31693690573
 30
0.0
 41
100.0
 42
100.0
 43
100.0
 50
180.0
  0
MTEXT
  5
177C0
330
16B3A
100
AcDbEntity
  8
寸法
 62
     7
 48
50.0
100
AcDbMText
 10
10086.33997104198
 20
4798.31693690573
 30
0.0
 40
120.0
 41
0.0
 71
     5
 72
     1
  1
\A1;柱外寸法1370
  7
STYLE1
 73
     1
 44
1.0
1001
ACAD
1000
MTEXTBEGIN
1070
    73
1070
     1
1070
    44
1040
1.0
1070
    74
1070
     0
1000
MTEXTEND
  0
POINT
  5
177C1
330
16B3A
100
AcDbEntity
  8
DEFPOINTS
 62
     0
 48
50.0
100
AcDbPoint
 10
10806.52093815143
 20
4246.47016293808
 30
0.0
  0
POINT
  5
177C2
330
16B3A
100
AcDbEntity
  8
DEFPOINTS
 62
     0
 48
50.0
100
AcDbPoint
 10
9436.520938151435
 20
4295.661101449403
 30
0.0
  0
POINT
  5
177C3
330
16B3A
100
AcDbEntity
  8
DEFPOINTS
 62
     0
 48
50.0
100
AcDbPoint
 10
9436.520938151435
 20
4698.31693690573
 30
0.0
  0
ENDBLK
  5
16B45
330
16B3A
100
AcDbEntity
  8
0
 48
50.0
100
AcDbBlockEnd
  0
BLOCK
  5
16B52
330
16B46
100
AcDbEntity
  8
0
 48
50.0
100
AcDbBlockBegin
  2
*D3
 70
     1
 10
0.0
 20
0.0
 30
0.0
  3
*D3
  1

  0
LINE
  5
177B0
330
16B46
100
AcDbEntity
  8
寸法
 62
     0
 48
50.0
370
    -2
100
AcDbLine
 10
9436.520938151435
 20
4315.661101449403
 30
0.0
 11
9436.520938151435
 21
4758.316936905731
 31
0.0
  0
LINE
  5
177B1
330
16B46
100
AcDbEntity
  8
寸法
 62
     0
 48
50.0
370
    -2
100
AcDbLine
 10
9376.520938151434
 20
4319.659483326431
 30
0.0
 11
9376.520938151434
 21
4758.316936905731
 31
0.0
  0
LINE
  5
177B2
330
16B46
100
AcDbEntity
  8
寸法
 62
     0
 48
50.0
370
    -2
100
AcDbLine
 10
9436.520938151435
 20
4698.31693690573
 30
0.0
 11
9536.520938151435
 21
4698.31693690573
 31
0.0
  0
LINE
  5
177B3
330
16B46
100
AcDbEntity
  8
寸法
 62
     0
 48
50.0
370
    -2
100
AcDbLine
 10
9376.520938151434
 20
4698.31693690573
 30
0.0
 11
8957.245347600254
 21
4698.31693690573
 31
0.0
  0
LINE
  5
177B4
330
16B46
100
AcDbEntity
  8
寸法
 62
     0
 48
50.0
370
    -2
100
AcDbLine
 10
9436.520938151435
 20
4698.31693690573
 30
0.0
 11
9376.520938151434
 21
4698.31693690573
 31
0.0
  0
INSERT
  5
177B5
330
16B46
100
AcDbEntity
  8
寸法
 62
     0
 48
50.0
370
    -2
100
AcDbBlockReference
  2
_DOTSMALL
 10
9436.520938151435
 20
4698.31693690573
 30
0.0
 41
100.0
 42
100.0
 43
100.0
 50
180.0
  0
INSERT
  5
177B6
330
16B46
100
AcDbEntity
  8
寸法
 62
     0
 48
50.0
370
    -2
100
AcDbBlockReference
  2
_DOTSMALL
 10
9376.520938151434
 20
4698.31693690573
 30
0.0
 41
100.0
 42
100.0
 43
100.0
  0
MTEXT
  5
177B7
330
16B46
100
AcDbEntity
  8
寸法
 62
     7
 48
50.0
100
AcDbMText
 10
9066.883142875843
 20
4798.31693690573
 30
0.0
 40
120.0
 41
0.0
 71
     5
 72
     1
  1
\A1;60
  7
STYLE1
 73
     1
 44
1.0
1001
ACAD
1000
MTEXTBEGIN
1070
    73
1070
     1
1070
    44
1040
1.0
1070
    74
1070
     0
1000
MTEXTEND
  0
POINT
  5
177B8
330
16B46
100
AcDbEntity
  8
DEFPOINTS
 62
     0
 48
50.0
100
AcDbPoint
 10
9436.520938151435
 20
4295.661101449403
 30
0.0
  0
POINT
  5
177B9
330
16B46
100
AcDbEntity
  8
DEFPOINTS
 62
     0
 48
50.0
100
AcDbPoint
 10
9376.520938151434
 20
4299.659483326431
 30
0.0
  0
POINT
  5
177BA
330
16B46
100
AcDbEntity
  8
DEFPOINTS
 62
     0
 48
50.0
100
AcDbPoint
 10
9376.520938151434
 20
4698.31693690573
 30
0.0
  0
ENDBLK
  5
16B53
330
16B46
100
AcDbEntity
  8
0
 48
50.0
100
AcDbBlockEnd
  0
BLOCK
  5
16B5E
330
16B54
100
AcDbEntity
  8
0
 48
50.0
100
AcDbBlockBegin
  2
*D4
 70
     1
 10
0.0
 20
0.0
 30
0.0
  3
*D4
  1

  0
LINE
  5
177A7
330
16B54
100
AcDbEntity
  8
寸法
 62
     0
 48
50.0
370
    -2
100
AcDbLine
 10
10886.52093815143
 20
4264.659483326427
 30
0.0
 11
10886.52093815143
 21
4966.491258097694
 31
0.0
  0
LINE
  5
177A8
330
16B54
100
AcDbEntity
  8
寸法
 62
     0
 48
50.0
370
    -2
100
AcDbLine
 10
9376.520938151434
 20
4319.659483326431
 30
0.0
 11
9376.520938151434
 21
4966.491258097694
 31
0.0
  0
LINE
  5
177A9
330
16B54
100
AcDbEntity
  8
寸法
 62
     0
 48
50.0
370
    -2
100
AcDbLine
 10
10886.52093815143
 20
4906.491258097695
 30
0.0
 11
9376.520938151434
 21
4906.491258097695
 31
0.0
  0
INSERT
  5
177AA
330
16B54
100
AcDbEntity
  8
寸法
 62
     0
 48
50.0
370
    -2
100
AcDbBlockReference
  2
_DOTSMALL
 10
10886.52093815143
 20
4906.491258097695
 30
0.0
 41
100.0
 42
100.0
 43
100.0
  0
INSERT
  5
177AB
330
16B54
100
AcDbEntity
  8
寸法
 62
     0
 48
50.0
370
    -2
100
AcDbBlockReference
  2
_DOTSMALL
 10
9376.520938151434
 20
4906.491258097695
 30
0.0
 41
100.0
 42
100.0
 43
100.0
 50
180.0
  0
MTEXT
  5
177AC
330
16B54
100
AcDbEntity
  8
寸法
 62
     7
 48
50.0
100
AcDbMText
 10
10103.64576785325
 20
5006.491258097694
 30
0.0
 40
120.0
 41
0.0
 71
     5
 72
     1
  1
\A1;1510
  7
STYLE1
 73
     1
 44
1.0
1001
ACAD
1000
MTEXTBEGIN
1070
    73
1070
     1
1070
    44
1040
1.0
1070
    74
1070
     0
1000
MTEXTEND
  0
POINT
  5
177AD
330
16B54
100
AcDbEntity
  8
DEFPOINTS
 62
     0
 48
50.0
100
AcDbPoint
 10
10886.52093815143
 20
4244.659483326427
 30
0.0
  0
POINT
  5
177AE
330
16B54
100
AcDbEntity
  8
DEFPOINTS
 62
     0
 48
50.0
100
AcDbPoint
 10
9376.520938151434
 20
4299.659483326431
 30
0.0
  0
POINT
  5
177AF
330
16B54
100
AcDbEntity
  8
DEFPOINTS
 62
     0
 48
50.0
100
AcDbPoint
 10
9376.520938151434
 20
4906.491258097695
 30
0.0
  0
ENDBLK
  5
16B5F
330
16B54
100
AcDbEntity
  8
0
 48
50.0
100
AcDbBlockEnd
  0
BLOCK
  5
16B6B
330
16B60
100
AcDbEntity
  8
0
 48
50.0
100
AcDbBlockBegin
  2
*D5
 70
     1
 10
0.0
 20
0.0
 30
0.0
  3
*D5
  1

  0
LINE
  5
1779D
330
16B60
100
AcDbEntity
  8
寸法
 62
     0
 48
50.0
370
    -2
100
AcDbLine
 10
10806.52093815143
 20
4266.470162938079
 30
0.0
 11
10806.52093815143
 21
4758.316936905731
 31
0.0
  0
LINE
  5
1779E
330
16B60
100
AcDbEntity
  8
寸法
 62
     0
 48
50.0
370
    -2
100
AcDbLine
 10
10886.52093815143
 20
4264.659483326427
 30
0.0
 11
10886.52093815143
 21
4758.316936905731
 31
0.0
  0
LINE
  5
1779F
330
16B60
100
AcDbEntity
  8
寸法
 62
     0
 48
50.0
370
    -2
100
AcDbLine
 10
10806.52093815143
 20
4698.31693690573
 30
0.0
 11
10886.52093815143
 21
4698.31693690573
 31
0.0
  0
LINE
  5
177A0
330
16B60
100
AcDbEntity
  8
寸法
 62
     0
 48
50.0
370
    -2
100
AcDbLine
 10
10886.52093815143
 20
4698.31693690573
 30
0.0
 11
11198.61542634041
 21
4698.31693690573
 31
0.0
  0
INSERT
  5
177A1
330
16B60
100
AcDbEntity
  8
寸法
 62
     0
 48
50.0
370
    -2
100
AcDbBlockReference
  2
_DOTSMALL
 10
10806.52093815143
 20
4698.31693690573
 30
0.0
 41
100.0
 42
100.0
 43
100.0
 50
180.0
  0
INSERT
  5
177A2
330
16B60
100
AcDbEntity
  8
寸法
 62
     0
 48
50.0
370
    -2
100
AcDbBlockReference
  2
_DOTSMALL
 10
10886.52093815143
 20
4698.31693690573
 30
0.0
 41
100.0
 42
100.0
 43
100.0
  0
MTEXT
  5
177A3
330
16B60
100
AcDbEntity
  8
寸法
 62
     7
 48
50.0
100
AcDbMText
 10
11092.56818224592
 20
4798.31693690573
 30
0.0
 40
120.0
 41
0.0
 71
     5
 72
     1
  1
\A1;80
  7
STYLE1
 73
     1
 44
1.0
1001
ACAD
1000
MTEXTBEGIN
1070
    73
1070
     1
1070
    44
1040
1.0
1070
    74
1070
     0
1000
MTEXTEND
  0
POINT
  5
177A4
330
16B60
100
AcDbEntity
  8
DEFPOINTS
 62
     0
 48
50.0
100
AcDbPoint
 10
10806.52093815143
 20
4246.47016293808
 30
0.0
  0
POINT
  5
177A5
330
16B60
100
AcDbEntity
  8
DEFPOINTS
 62
     0
 48
50.0
100
AcDbPoint
 10
10886.52093815143
 20
4244.659483326427
 30
0.0
  0
POINT
  5
177A6
330
16B60
100
AcDbEntity
  8
DEFPOINTS
 62
     0
 48
50.0
100
AcDbPoint
 10
10886.52093815143
 20
4698.31693690573
 30
0.0
  0
ENDBLK
  5
16B6C
330
16B60
100
AcDbEntity
  8
0
 48
50.0
100
AcDbBlockEnd
  0
BLOCK
  5
16B79
330
16B6D
100
AcDbEntity
  8
0
 48
50.0
100
AcDbBlockBegin
  2
*D6
 70
     1
 10
0.0
 20
0.0
 30
0.0
  3
*D6
  1

  0
LINE
  5
17DEB
330
16B6D
100
AcDbEntity
  8
寸法
 62
     0
 48
50.0
370
    -2
100
AcDbLine
 10
9436.520938151442
 20
9447.942606142424
 30
0.0
 11
9436.520938151442
 21
10135.36895187683
 31
0.0
  0
LINE
  5
17DEC
330
16B6D
100
AcDbEntity
  8
寸法
 62
     0
 48
50.0
370
    -2
100
AcDbLine
 10
9491.520938151436
 20
9447.942606142424
 30
0.0
 11
9491.520938151436
 21
10135.36895187683
 31
0.0
  0
LINE
  5
17DED
330
16B6D
100
AcDbEntity
  8
寸法
 62
     0
 48
50.0
370
    -2
100
AcDbLine
 10
9491.520938151436
 20
10075.36895187683
 30
0.0
 11
9591.520938151438
 21
10075.36895187683
 31
0.0
  0
LINE
  5
17DEE
330
16B6D
100
AcDbEntity
  8
寸法
 62
     0
 48
50.0
370
    -2
100
AcDbLine
 10
9436.520938151442
 20
10075.36895187683
 30
0.0
 11
9019.550375402966
 21
10075.36895187683
 31
0.0
  0
LINE
  5
17DEF
330
16B6D
100
AcDbEntity
  8
寸法
 62
     0
 48
50.0
370
    -2
100
AcDbLine
 10
9491.520938151436
 20
10075.36895187683
 30
0.0
 11
9436.520938151442
 21
10075.36895187683
 31
0.0
  0
INSERT
  5
17DF0
330
16B6D
100
AcDbEntity
  8
寸法
 62
     0
 48
50.0
370
    -2
100
AcDbBlockReference
  2
_DOTSMALL
 10
9491.520938151436
 20
10075.36895187683
 30
0.0
 41
100.0
 42
100.0
 43
100.0
 50
180.0
  0
INSERT
  5
17DF1
330
16B6D
100
AcDbEntity
  8
寸法
 62
     0
 48
50.0
370
    -2
100
AcDbBlockReference
  2
_DOTSMALL
 10
9436.520938151442
 20
10075.36895187683
 30
0.0
 41
100.0
 42
100.0
 43
100.0
  0
MTEXT
  5
17DF2
330
16B6D
100
AcDbEntity
  8
寸法
 62
     7
 48
50.0
100
AcDbMText
 10
9128.035656777203
 20
10175.36895187683
 30
0.0
 40
120.0
 41
0.0
 71
     5
 72
     1
  1
\A1;55
  7
STYLE1
 73
     1
 44
1.0
1001
ACAD
1000
MTEXTBEGIN
1070
    73
1070
     1
1070
    44
1040
1.0
1070
    74
1070
     0
1000
MTEXTEND
  0
POINT
  5
17DF3
330
16B6D
100
AcDbEntity
  8
DEFPOINTS
 62
     0
 48
50.0
100
AcDbPoint
 10
9436.520938151442
 20
9427.942606142424
 30
0.0
  0
POINT
  5
17DF4
330
16B6D
100
AcDbEntity
  8
DEFPOINTS
 62
     0
 48
50.0
100
AcDbPoint
 10
9491.520938151436
 20
9427.942606142424
 30
0.0
  0
POINT
  5
17DF5
330
16B6D
100
AcDbEntity
  8
DEFPOINTS
 62
     0
 48
50.0
100
AcDbPoint
 10
9491.520938151436
 20
10075.36895187683
 30
0.0
  0
ENDBLK
  5
16B7A
330
16B6D
100
AcDbEntity
  8
0
 48
50.0
100
AcDbBlockEnd
  0
BLOCK
  5
16B85
330
16B7B
100
AcDbEntity
  8
0
 48
50.0
100
AcDbBlockBegin
  2
*D7
 70
     1
 10
0.0
 20
0.0
 30
0.0
  3
*D7
  1

  0
LINE
  5
17DE2
330
16B7B
100
AcDbEntity
  8
寸法
 62
     0
 48
50.0
370
    -2
100
AcDbLine
 10
10771.16195430283
 20
9419.442606142423
 30
0.0
 11
10665.22617093669
 21
9814.800332004448
 31
0.0
  0
LINE
  5
17DE3
330
16B7B
100
AcDbEntity
  8
寸法
 62
     0
 48
50.0
370
    -2
100
AcDbLine
 10
10321.16195430283
 20
9419.442606142423
 30
0.0
 11
10215.22617093669
 21
9814.800332004448
 31
0.0
  0
LINE
  5
17DE4
330
16B7B
100
AcDbEntity
  8
寸法
 62
     0
 48
50.0
370
    -2
100
AcDbLine
 10
10681.30312248256
 20
9754.80033200445
 30
0.0
 11
10231.30312248256
 21
9754.80033200445
 31
0.0
  0
INSERT
  5
17DE5
330
16B7B
100
AcDbEntity
  8
寸法
 62
     0
 48
50.0
370
    -2
100
AcDbBlockReference
  2
_DOTSMALL
 10
10681.30312248256
 20
9754.80033200445
 30
0.0
 41
100.0
 42
100.0
 43
100.0
  0
INSERT
  5
17DE6
330
16B7B
100
AcDbEntity
  8
寸法
 62
     0
 48
50.0
370
    -2
100
AcDbBlockReference
  2
_DOTSMALL
 10
10231.30312248256
 20
9754.80033200445
 30
0.0
 41
100.0
 42
100.0
 43
100.0
 50
180.0
  0
MTEXT
  5
17DE7
330
16B7B
100
AcDbEntity
  8
寸法
 62
     7
 48
50.0
100
AcDbMText
 10
10456.30312248256
 20
9854.800332004449
 30
0.0
 40
120.0
 41
0.0
 71
     5
 72
     1
  1
\A1;450
  7
STYLE1
 73
     1
 44
1.0
1001
ACAD
1000
MTEXTBEGIN
1070
    73
1070
     1
1070
    44
1040
1.0
1070
    74
1070
     0
1000
MTEXTEND
  0
POINT
  5
17DE8
330
16B7B
100
AcDbEntity
  8
DEFPOINTS
 62
     0
 48
50.0
100
AcDbPoint
 10
10776.52093815145
 20
9399.442606142423
 30
0.0
  0
POINT
  5
17DE9
330
16B7B
100
AcDbEntity
  8
DEFPOINTS
 62
     0
 48
50.0
100
AcDbPoint
 10
10326.52093815145
 20
9399.442606142423
 30
0.0
  0
POINT
  5
17DEA
330
16B7B
100
AcDbEntity
  8
DEFPOINTS
 62
     0
 48
50.0
100
AcDbPoint
 10
10231.30312248256
 20
9754.80033200445
 30
0.0
  0
ENDBLK
  5
16B86
330
16B7B
100
AcDbEntity
  8
0
 48
50.0
100
AcDbBlockEnd
  0
BLOCK
  5
16B93
330
16B87
100
AcDbEntity
  8
0
 48
50.0
100
AcDbBlockBegin
  2
*D8
 70
     1
 10
0.0
 20
0.0
 30
0.0
  3
*D8
  1

  0
LINE
  5
17DD7
330
16B87
100
AcDbEntity
  8
寸法
 62
     0
 48
50.0
370
    -2
100
AcDbLine
 10
10751.52093815145
 20
9447.942606142397
 30
0.0
 11
10751.52093815145
 21
10135.36895187681
 31
0.0
  0
LINE
  5
17DD8
330
16B87
100
AcDbEntity
  8
寸法
 62
     0
 48
50.0
370
    -2
100
AcDbLine
 10
10806.52093815145
 20
9447.942606142397
 30
0.0
 11
10806.52093815145
 21
10135.36895187681
 31
0.0
  0
LINE
  5
17DD9
330
16B87
100
AcDbEntity
  8
寸法
 62
     0
 48
50.0
370
    -2
100
AcDbLine
 10
10751.52093815145
 20
10075.36895187681
 30
0.0
 11
10651.52093815145
 21
10075.36895187681
 31
0.0
  0
LINE
  5
17DDA
330
16B87
100
AcDbEntity
  8
寸法
 62
     0
 48
50.0
370
    -2
100
AcDbLine
 10
10806.52093815145
 20
10075.36895187681
 30
0.0
 11
11292.86768643055
 21
10075.36895187681
 31
0.0
  0
LINE
  5
17DDB
330
16B87
100
AcDbEntity
  8
寸法
 62
     0
 48
50.0
370
    -2
100
AcDbLine
 10
10751.52093815145
 20
10075.36895187681
 30
0.0
 11
10806.52093815145
 21
10075.36895187681
 31
0.0
  0
INSERT
  5
17DDC
330
16B87
100
AcDbEntity
  8
寸法
 62
     0
 48
50.0
370
    -2
100
AcDbBlockReference
  2
_DOTSMALL
 10
10751.52093815145
 20
10075.36895187681
 30
0.0
 41
100.0
 42
100.0
 43
100.0
  0
INSERT
  5
17DDD
330
16B87
100
AcDbEntity
  8
寸法
 62
     0
 48
50.0
370
    -2
100
AcDbBlockReference
  2
_DOTSMALL
 10
10806.52093815145
 20
10075.36895187681
 30
0.0
 41
100.0
 42
100.0
 43
100.0
 50
180.0
  0
MTEXT
  5
17DDE
330
16B87
100
AcDbEntity
  8
寸法
 62
     7
 48
50.0
100
AcDbMText
 10
11184.38240505631
 20
10175.36895187681
 30
0.0
 40
120.0
 41
0.0
 71
     5
 72
     1
  1
\A1;55
  7
STYLE1
 73
     1
 44
1.0
1001
ACAD
1000
MTEXTBEGIN
1070
    73
1070
     1
1070
    44
1040
1.0
1070
    74
1070
     0
1000
MTEXTEND
  0
POINT
  5
17DDF
330
16B87
100
AcDbEntity
  8
DEFPOINTS
 62
     0
 48
50.0
100
AcDbPoint
 10
10751.52093815145
 20
9427.9426061424
 30
0.0
  0
POINT
  5
17DE0
330
16B87
100
AcDbEntity
  8
DEFPOINTS
 62
     0
 48
50.0
100
AcDbPoint
 10
10806.52093815145
 20
9427.9426061424
 30
0.0
  0
POINT
  5
17DE1
330
16B87
100
AcDbEntity
  8
DEFPOINTS
 62
     0
 48
50.0
100
AcDbPoint
 10
10806.52093815145
 20
10075.36895187681
 30
0.0
  0
ENDBLK
  5
16B94
330
16B87
100
AcDbEntity
  8
0
 48
50.0
100
AcDbBlockEnd
  0
BLOCK
  5
16B9F
330
16B95
100
AcDbEntity
  8
0
 48
50.0
100
AcDbBlockBegin
  2
*D9
 70
     1
 10
0.0
 20
0.0
 30
0.0
  3
*D9
  1

  0
LINE
  5
17DCE
330
16B95
100
AcDbEntity
  8
寸法
 62
     0
 48
50.0
370
    -2
100
AcDbLine
 10
9491.520938151436
 20
9447.942606142424
 30
0.0
 11
9491.520938151436
 21
10135.36895187683
 31
0.0
  0
LINE
  5
17DCF
330
16B95
100
AcDbEntity
  8
寸法
 62
     0
 48
50.0
370
    -2
100
AcDbLine
 10
10751.52093815145
 20
9447.942606142397
 30
0.0
 11
10751.52093815145
 21
10135.36895187683
 31
0.0
  0
LINE
  5
17DD0
330
16B95
100
AcDbEntity
  8
寸法
 62
     0
 48
50.0
370
    -2
100
AcDbLine
 10
9491.520938151436
 20
10075.36895187683
 30
0.0
 11
10751.52093815145
 21
10075.36895187683
 31
0.0
  0
INSERT
  5
17DD1
330
16B95
100
AcDbEntity
  8
寸法
 62
     0
 48
50.0
370
    -2
100
AcDbBlockReference
  2
_DOTSMALL
 10
9491.520938151436
 20
10075.36895187683
 30
0.0
 41
100.0
 42
100.0
 43
100.0
 50
180.0
  0
INSERT
  5
17DD2
330
16B95
100
AcDbEntity
  8
寸法
 62
     0
 48
50.0
370
    -2
100
AcDbBlockReference
  2
_DOTSMALL
 10
10751.52093815145
 20
10075.36895187683
 30
0.0
 41
100.0
 42
100.0
 43
100.0
  0
MTEXT
  5
17DD3
330
16B95
100
AcDbEntity
  8
寸法
 62
     7
 48
50.0
100
AcDbMText
 10
10121.52093815144
 20
10175.38076290045
 30
0.0
 40
120.0
 41
0.0
 71
     5
 72
     1
  1
\A1;3X420=1260
  7
STYLE1
 73
     1
 44
1.0
1001
ACAD
1000
MTEXTBEGIN
1070
    73
1070
     1
1070
    44
1040
1.0
1070
    74
1070
     0
1000
MTEXTEND
  0
POINT
  5
17DD4
330
16B95
100
AcDbEntity
  8
DEFPOINTS
 62
     0
 48
50.0
100
AcDbPoint
 10
9491.520938151436
 20
9427.942606142424
 30
0.0
  0
POINT
  5
17DD5
330
16B95
100
AcDbEntity
  8
DEFPOINTS
 62
     0
 48
50.0
100
AcDbPoint
 10
10751.52093815145
 20
9427.9426061424
 30
0.0
  0
POINT
  5
17DD6
330
16B95
100
AcDbEntity
  8
DEFPOINTS
 62
     0
 48
50.0
100
AcDbPoint
 10
10751.52093815145
 20
10075.36895187683
 30
0.0
  0
ENDBLK
  5
16BA0
330
16B95
100
AcDbEntity
  8
0
 48
50.0
100
AcDbBlockEnd
  0
BLOCK
  5
16BAB
330
16BA1
100
AcDbEntity
  8
0
 48
50.0
100
AcDbBlockBegin
  2
*D10
 70
     1
 10
0.0
 20
0.0
 30
0.0
  3
*D10
  1

  0
LINE
  5
1776C
330
16BA1
100
AcDbEntity
  8
寸法
 62
     0
 48
50.0
370
    -2
100
AcDbLine
 10
9526.520938151433
 20
1904.659483326425
 30
0.0
 11
9526.520938151433
 21
1578.612154026048
 31
0.0
  0
LINE
  5
1776D
330
16BA1
100
AcDbEntity
  8
寸法
 62
     0
 48
50.0
370
    -2
100
AcDbLine
 10
9326.52093815143
 20
1904.659483326425
 30
0.0
 11
9326.52093815143
 21
1578.612154026048
 31
0.0
  0
LINE
  5
1776E
330
16BA1
100
AcDbEntity
  8
寸法
 62
     0
 48
50.0
370
    -2
100
AcDbLine
 10
9526.520938151433
 20
1638.612154026048
 30
0.0
 11
9326.52093815143
 21
1638.612154026048
 31
0.0
  0
INSERT
  5
1776F
330
16BA1
100
AcDbEntity
  8
寸法
 62
     0
 48
50.0
370
    -2
100
AcDbBlockReference
  2
_DOTSMALL
 10
9526.520938151433
 20
1638.612154026048
 30
0.0
 41
100.0
 42
100.0
 43
100.0
  0
INSERT
  5
17770
330
16BA1
100
AcDbEntity
  8
寸法
 62
     0
 48
50.0
370
    -2
100
AcDbBlockReference
  2
_DOTSMALL
 10
9326.52093815143
 20
1638.612154026048
 30
0.0
 41
100.0
 42
100.0
 43
100.0
 50
180.0
  0
MTEXT
  5
17771
330
16BA1
100
AcDbEntity
  8
寸法
 62
     7
 48
50.0
100
AcDbMText
 10
9426.520938151432
 20
1738.62396504967
 30
0.0
 40
120.0
 41
0.0
 71
     5
 72
     1
  1
\A1;200
  7
STYLE1
 73
     1
 44
1.0
1001
ACAD
1000
MTEXTBEGIN
1070
    73
1070
     1
1070
    44
1040
1.0
1070
    74
1070
     0
1000
MTEXTEND
  0
POINT
  5
17772
330
16BA1
100
AcDbEntity
  8
DEFPOINTS
 62
     0
 48
50.0
100
AcDbPoint
 10
9526.520938151433
 20
1924.659483326425
 30
0.0
  0
POINT
  5
17773
330
16BA1
100
AcDbEntity
  8
DEFPOINTS
 62
     0
 48
50.0
100
AcDbPoint
 10
9326.52093815143
 20
1924.659483326425
 30
0.0
  0
POINT
  5
17774
330
16BA1
100
AcDbEntity
  8
DEFPOINTS
 62
     0
 48
50.0
100
AcDbPoint
 10
9326.52093815143
 20
1638.612154026048
 30
0.0
  0
ENDBLK
  5
16BAC
330
16BA1
100
AcDbEntity
  8
0
 48
50.0
100
AcDbBlockEnd
  0
BLOCK
  5
16BB7
330
16BAD
100
AcDbEntity
  8
0
 48
50.0
100
AcDbBlockBegin
  2
*D11
 70
     1
 10
0.0
 20
0.0
 30
0.0
  3
*D11
  1

  0
LINE
  5
17DC5
330
16BAD
100
AcDbEntity
  8
寸法
 62
     0
 48
50.0
370
    -2
100
AcDbLine
 10
10796.52093815145
 20
9394.083622293802
 30
0.0
 11
11248.70414555208
 21
9272.921497039886
 31
0.0
  0
LINE
  5
17DC6
330
16BAD
100
AcDbEntity
  8
寸法
 62
     0
 48
50.0
370
    -2
100
AcDbLine
 10
10796.52093815146
 20
8121.083622293792
 30
0.0
 11
11248.70414555208
 21
7999.921497039877
 31
0.0
  0
LINE
  5
17DC7
330
16BAD
100
AcDbEntity
  8
寸法
 62
     0
 48
50.0
370
    -2
100
AcDbLine
 10
11188.70414555208
 20
9288.998448585754
 30
0.0
 11
11188.70414555208
 21
8015.998448585746
 31
0.0
  0
INSERT
  5
17DC8
330
16BAD
100
AcDbEntity
  8
寸法
 62
     0
 48
50.0
370
    -2
100
AcDbBlockReference
  2
_DOTSMALL
 10
11188.70414555208
 20
9288.998448585754
 30
0.0
 41
100.0
 42
100.0
 43
100.0
 50
90.0
  0
INSERT
  5
17DC9
330
16BAD
100
AcDbEntity
  8
寸法
 62
     0
 48
50.0
370
    -2
100
AcDbBlockReference
  2
_DOTSMALL
 10
11188.70414555208
 20
8015.998448585746
 30
0.0
 41
100.0
 42
100.0
 43
100.0
 50
270.0
  0
MTEXT
  5
17DCA
330
16BAD
100
AcDbEntity
  8
寸法
 62
     7
 48
50.0
100
AcDbMText
 10
11088.69233452846
 20
8652.498448585751
 30
0.0
 40
120.0
 41
0.0
 71
     5
 72
     1
  1
\A1;1273
  7
STYLE1
 11
0.0000000000000001
 21
1.0
 31
0.0
 73
     1
 44
1.0
1001
ACAD
1000
MTEXTBEGIN
1070
    73
1070
     1
1070
    44
1040
1.0
1070
    74
1070
     0
1000
MTEXTEND
  0
POINT
  5
17DCB
330
16BAD
100
AcDbEntity
  8
DEFPOINTS
 62
     0
 48
50.0
100
AcDbPoint
 10
10776.52093815145
 20
9399.442606142423
 30
0.0
  0
POINT
  5
17DCC
330
16BAD
100
AcDbEntity
  8
DEFPOINTS
 62
     0
 48
50.0
100
AcDbPoint
 10
10776.52093815146
 20
8126.442606142413
 30
0.0
  0
POINT
  5
17DCD
330
16BAD
100
AcDbEntity
  8
DEFPOINTS
 62
     0
 48
50.0
100
AcDbPoint
 10
11188.70414555208
 20
8015.998448585746
 30
0.0
  0
ENDBLK
  5
16BB8
330
16BAD
100
AcDbEntity
  8
0
 48
50.0
100
AcDbBlockEnd
  0
BLOCK
  5
16BC3
330
16BB9
100
AcDbEntity
  8
0
 48
50.0
100
AcDbBlockBegin
  2
*D12
 70
     1
 10
0.0
 20
0.0
 30
0.0
  3
*D12
  1

  0
LINE
  5
17DBC
330
16BB9
100
AcDbEntity
  8
寸法
 62
     0
 48
50.0
370
    -2
100
AcDbLine
 10
10796.52093815146
 20
8094.083622293798
 30
0.0
 11
11248.70414555208
 21
7972.921497039886
 31
0.0
  0
LINE
  5
17DBD
330
16BB9
100
AcDbEntity
  8
寸法
 62
     0
 48
50.0
370
    -2
100
AcDbLine
 10
10796.52093815135
 20
7241.083622293799
 30
0.0
 11
11248.70414555208
 21
7119.921497039858
 31
0.0
  0
LINE
  5
17DBE
330
16BB9
100
AcDbEntity
  8
寸法
 62
     0
 48
50.0
370
    -2
100
AcDbLine
 10
11188.70414555208
 20
7988.998448585753
 30
0.0
 11
11188.70414555208
 21
7135.998448585725
 31
0.0
  0
INSERT
  5
17DBF
330
16BB9
100
AcDbEntity
  8
寸法
 62
     0
 48
50.0
370
    -2
100
AcDbBlockReference
  2
_DOTSMALL
 10
11188.70414555208
 20
7988.998448585753
 30
0.0
 41
100.0
 42
100.0
 43
100.0
 50
90.0
  0
INSERT
  5
17DC0
330
16BB9
100
AcDbEntity
  8
寸法
 62
     0
 48
50.0
370
    -2
100
AcDbBlockReference
  2
_DOTSMALL
 10
11188.70414555208
 20
7135.998448585725
 30
0.0
 41
100.0
 42
100.0
 43
100.0
 50
270.0
  0
MTEXT
  5
17DC1
330
16BB9
100
AcDbEntity
  8
寸法
 62
     7
 48
50.0
100
AcDbMText
 10
11088.70414555207
 20
7600.849313946548
 30
0.0
 40
120.0
 41
0.0
 71
     5
 72
     1
  1
\A1;853
  7
STYLE1
 11
0.0000000000000001
 21
1.0
 31
0.0
 73
     1
 44
1.0
1001
ACAD
1000
MTEXTBEGIN
1070
    73
1070
     1
1070
    44
1040
1.0
1070
    74
1070
     0
1000
MTEXTEND
  0
POINT
  5
17DC2
330
16BB9
100
AcDbEntity
  8
DEFPOINTS
 62
     0
 48
50.0
100
AcDbPoint
 10
10776.52093815146
 20
8099.442606142421
 30
0.0
  0
POINT
  5
17DC3
330
16BB9
100
AcDbEntity
  8
DEFPOINTS
 62
     0
 48
50.0
100
AcDbPoint
 10
10776.52093815135
 20
7246.44260614242
 30
0.0
  0
POINT
  5
17DC4
330
16BB9
100
AcDbEntity
  8
DEFPOINTS
 62
     0
 48
50.0
100
AcDbPoint
 10
11188.70414555208
 20
7135.998448585725
 30
0.0
  0
ENDBLK
  5
16BC4
330
16BB9
100
AcDbEntity
  8
0
 48
50.0
100
AcDbBlockEnd
  0
BLOCK
  5
16BCF
330
16BC5
100
AcDbEntity
  8
0
 48
50.0
100
AcDbBlockBegin
  2
*D13
 70
     1
 10
0.0
 20
0.0
 30
0.0
  3
*D13
  1

  0
LINE
  5
17E20
330
16BC5
100
AcDbEntity
  8
寸法
 62
     0
 48
50.0
370
    -2
100
AcDbLine
 10
10826.52093815138
 20
9372.942606142435
 30
0.0
 11
11513.94728388579
 21
9372.942606142435
 31
0.0
  0
LINE
  5
17E21
330
16BC5
100
AcDbEntity
  8
寸法
 62
     0
 48
50.0
370
    -2
100
AcDbLine
 10
10826.52093815135
 20
7272.942606142418
 30
0.0
 11
11513.94728388579
 21
7272.942606142418
 31
0.0
  0
LINE
  5
17E22
330
16BC5
100
AcDbEntity
  8
寸法
 62
     0
 48
50.0
370
    -2
100
AcDbLine
 10
11453.94728388579
 20
9372.942606142435
 30
0.0
 11
11453.94728388579
 21
7272.942606142418
 31
0.0
  0
INSERT
  5
17E23
330
16BC5
100
AcDbEntity
  8
寸法
 62
     0
 48
50.0
370
    -2
100
AcDbBlockReference
  2
_DOTSMALL
 10
11453.94728388579
 20
9372.942606142435
 30
0.0
 41
100.0
 42
100.0
 43
100.0
 50
90.0
  0
INSERT
  5
17E24
330
16BC5
100
AcDbEntity
  8
寸法
 62
     0
 48
50.0
370
    -2
100
AcDbBlockReference
  2
_DOTSMALL
 10
11453.94728388579
 20
7272.942606142418
 30
0.0
 41
100.0
 42
100.0
 43
100.0
 50
270.0
  0
MTEXT
  5
17E25
330
16BC5
100
AcDbEntity
  8
寸法
 62
     7
 48
50.0
100
AcDbMText
 10
11353.93547286217
 20
8322.942606142426
 30
0.0
 40
120.0
 41
0.0
 71
     5
 72
     1
  1
\A1;5X420=2100
  7
STYLE1
 11
0.0000000000000001
 21
1.0
 31
0.0
 73
     1
 44
1.0
1001
ACAD
1000
MTEXTBEGIN
1070
    73
1070
     1
1070
    44
1040
1.0
1070
    74
1070
     0
1000
MTEXTEND
  0
POINT
  5
17E26
330
16BC5
100
AcDbEntity
  8
DEFPOINTS
 62
     0
 48
50.0
100
AcDbPoint
 10
10806.52093815138
 20
9372.942606142435
 30
0.0
  0
POINT
  5
17E27
330
16BC5
100
AcDbEntity
  8
DEFPOINTS
 62
     0
 48
50.0
100
AcDbPoint
 10
10806.52093815135
 20
7272.942606142418
 30
0.0
  0
POINT
  5
17E28
330
16BC5
100
AcDbEntity
  8
DEFPOINTS
 62
     0
 48
50.0
100
AcDbPoint
 10
11453.94728388579
 20
7272.942606142418
 30
0.0
  0
ENDBLK
  5
16BD0
330
16BC5
100
AcDbEntity
  8
0
 48
50.0
100
AcDbBlockEnd
  0
BLOCK
  5
16BDD
330
16BD1
100
AcDbEntity
  8
0
 48
50.0
100
AcDbBlockBegin
  2
*D14
 70
     1
 10
0.0
 20
0.0
 30
0.0
  3
*D14
  1

  0
LINE
  5
17DA8
330
16BD1
100
AcDbEntity
  8
寸法
 62
     0
 48
50.0
370
    -2
100
AcDbLine
 10
10826.52093815138
 20
9427.942606142432
 30
0.0
 11
11513.94728388579
 21
9427.942606142432
 31
0.0
  0
LINE
  5
17DA9
330
16BD1
100
AcDbEntity
  8
寸法
 62
     0
 48
50.0
370
    -2
100
AcDbLine
 10
10826.52093815138
 20
9372.942606142435
 30
0.0
 11
11513.94728388579
 21
9372.942606142435
 31
0.0
  0
LINE
  5
17DAA
330
16BD1
100
AcDbEntity
  8
寸法
 62
     0
 48
50.0
370
    -2
100
AcDbLine
 10
11453.94728388579
 20
9372.942606142435
 30
0.0
 11
11453.94728388579
 21
9272.942606142434
 31
0.0
  0
LINE
  5
17DAB
330
16BD1
100
AcDbEntity
  8
寸法
 62
     0
 48
50.0
370
    -2
100
AcDbLine
 10
11453.94728388579
 20
9427.942606142432
 30
0.0
 11
11453.94728388579
 21
9844.913168890908
 31
0.0
  0
LINE
  5
17DAC
330
16BD1
100
AcDbEntity
  8
寸法
 62
     0
 48
50.0
370
    -2
100
AcDbLine
 10
11453.94728388579
 20
9372.942606142435
 30
0.0
 11
11453.94728388579
 21
9427.942606142432
 31
0.0
  0
INSERT
  5
17DAD
330
16BD1
100
AcDbEntity
  8
寸法
 62
     0
 48
50.0
370
    -2
100
AcDbBlockReference
  2
_DOTSMALL
 10
11453.94728388579
 20
9372.942606142435
 30
0.0
 41
100.0
 42
100.0
 43
100.0
 50
90.0
  0
INSERT
  5
17DAE
330
16BD1
100
AcDbEntity
  8
寸法
 62
     0
 48
50.0
370
    -2
100
AcDbBlockReference
  2
_DOTSMALL
 10
11453.94728388579
 20
9427.942606142432
 30
0.0
 41
100.0
 42
100.0
 43
100.0
 50
270.0
  0
MTEXT
  5
17DAF
330
16BD1
100
AcDbEntity
  8
寸法
 62
     7
 48
50.0
100
AcDbMText
 10
11353.94728388579
 20
9736.427887516672
 30
0.0
 40
120.0
 41
0.0
 71
     5
 72
     1
  1
\A1;55
  7
STYLE1
 11
0.0000000000000001
 21
1.0
 31
0.0
 73
     1
 44
1.0
1001
ACAD
1000
MTEXTBEGIN
1070
    73
1070
     1
1070
    44
1040
1.0
1070
    74
1070
     0
1000
MTEXTEND
  0
POINT
  5
17DB0
330
16BD1
100
AcDbEntity
  8
DEFPOINTS
 62
     0
 48
50.0
100
AcDbPoint
 10
10806.52093815138
 20
9427.942606142432
 30
0.0
  0
POINT
  5
17DB1
330
16BD1
100
AcDbEntity
  8
DEFPOINTS
 62
     0
 48
50.0
100
AcDbPoint
 10
10806.52093815138
 20
9372.942606142435
 30
0.0
  0
POINT
  5
17DB2
330
16BD1
100
AcDbEntity
  8
DEFPOINTS
 62
     0
 48
50.0
100
AcDbPoint
 10
11453.94728388579
 20
9372.942606142435
 30
0.0
  0
ENDBLK
  5
16BDE
330
16BD1
100
AcDbEntity
  8
0
 48
50.0
100
AcDbBlockEnd
  0
BLOCK
  5
16BE9
330
16BDF
100
AcDbEntity
  8
0
 48
50.0
100
AcDbBlockBegin
  2
*D15
 70
     1
 10
0.0
 20
0.0
 30
0.0
  3
*D15
  1

  0
LINE
  5
17E29
330
16BDF
100
AcDbEntity
  8
寸法
 62
     0
 48
50.0
370
    -2
100
AcDbLine
 10
10826.52093815138
 20
9427.942606142432
 30
0.0
 11
11782.38581518627
 21
9427.942606142432
 31
0.0
  0
LINE
  5
17E2A
330
16BDF
100
AcDbEntity
  8
寸法
 62
     0
 48
50.0
370
    -2
100
AcDbLine
 10
10826.52093815135
 20
7217.942606142421
 30
0.0
 11
11782.38581518627
 21
7217.942606142421
 31
0.0
  0
LINE
  5
17E2B
330
16BDF
100
AcDbEntity
  8
寸法
 62
     0
 48
50.0
370
    -2
100
AcDbLine
 10
11722.38581518627
 20
9427.942606142432
 30
0.0
 11
11722.38581518627
 21
7217.942606142421
 31
0.0
  0
INSERT
  5
17E2C
330
16BDF
100
AcDbEntity
  8
寸法
 62
     0
 48
50.0
370
    -2
100
AcDbBlockReference
  2
_DOTSMALL
 10
11722.38581518627
 20
9427.942606142432
 30
0.0
 41
100.0
 42
100.0
 43
100.0
 50
90.0
  0
INSERT
  5
17E2D
330
16BDF
100
AcDbEntity
  8
寸法
 62
     0
 48
50.0
370
    -2
100
AcDbBlockReference
  2
_DOTSMALL
 10
11722.38581518627
 20
7217.942606142421
 30
0.0
 41
100.0
 42
100.0
 43
100.0
 50
270.0
  0
MTEXT
  5
17E2E
330
16BDF
100
AcDbEntity
  8
寸法
 62
     7
 48
50.0
100
AcDbMText
 10
11622.37400416264
 20
8322.942606142426
 30
0.0
 40
120.0
 41
0.0
 71
     5
 72
     1
  1
\A1;2210
  7
STYLE1
 11
0.0000000000000001
 21
1.0
 31
0.0
 73
     1
 44
1.0
1001
ACAD
1000
MTEXTBEGIN
1070
    73
1070
     1
1070
    44
1040
1.0
1070
    74
1070
     0
1000
MTEXTEND
  0
POINT
  5
17E2F
330
16BDF
100
AcDbEntity
  8
DEFPOINTS
 62
     0
 48
50.0
100
AcDbPoint
 10
10806.52093815138
 20
9427.942606142432
 30
0.0
  0
POINT
  5
17E30
330
16BDF
100
AcDbEntity
  8
DEFPOINTS
 62
     0
 48
50.0
100
AcDbPoint
 10
10806.52093815135
 20
7217.942606142421
 30
0.0
  0
POINT
  5
17E31
330
16BDF
100
AcDbEntity
  8
DEFPOINTS
 62
     0
 48
50.0
100
AcDbPoint
 10
11722.38581518627
 20
7217.942606142421
 30
0.0
  0
ENDBLK
  5
16BEA
330
16BDF
100
AcDbEntity
  8
0
 48
50.0
100
AcDbBlockEnd
  0
BLOCK
  5
16BF7
330
16BEB
100
AcDbEntity
  8
0
 48
50.0
100
AcDbBlockBegin
  2
*D16
 70
     1
 10
0.0
 20
0.0
 30
0.0
  3
*D16
  1

  0
LINE
  5
17D94
330
16BEB
100
AcDbEntity
  8
寸法
 62
     0
 48
50.0
370
    -2
100
AcDbLine
 10
10826.52093815135
 20
7272.942606142418
 30
0.0
 11
11513.94728388577
 21
7272.942606142418
 31
0.0
  0
LINE
  5
17D95
330
16BEB
100
AcDbEntity
  8
寸法
 62
     0
 48
50.0
370
    -2
100
AcDbLine
 10
10826.52093815135
 20
7217.942606142421
 30
0.0
 11
11513.94728388577
 21
7217.942606142421
 31
0.0
  0
LINE
  5
17D96
330
16BEB
100
AcDbEntity
  8
寸法
 62
     0
 48
50.0
370
    -2
100
AcDbLine
 10
11453.94728388577
 20
7272.942606142418
 30
0.0
 11
11453.94728388577
 21
7372.942606142418
 31
0.0
  0
LINE
  5
17D97
330
16BEB
100
AcDbEntity
  8
寸法
 62
     0
 48
50.0
370
    -2
100
AcDbLine
 10
11453.94728388577
 20
7217.942606142421
 30
0.0
 11
11453.94728388577
 21
6800.97204339394
 31
0.0
  0
LINE
  5
17D98
330
16BEB
100
AcDbEntity
  8
寸法
 62
     0
 48
50.0
370
    -2
100
AcDbLine
 10
11453.94728388577
 20
7272.942606142418
 30
0.0
 11
11453.94728388577
 21
7217.942606142421
 31
0.0
  0
INSERT
  5
17D99
330
16BEB
100
AcDbEntity
  8
寸法
 62
     0
 48
50.0
370
    -2
100
AcDbBlockReference
  2
_DOTSMALL
 10
11453.94728388577
 20
7272.942606142418
 30
0.0
 41
100.0
 42
100.0
 43
100.0
 50
270.0
  0
INSERT
  5
17D9A
330
16BEB
100
AcDbEntity
  8
寸法
 62
     0
 48
50.0
370
    -2
100
AcDbBlockReference
  2
_DOTSMALL
 10
11453.94728388577
 20
7217.942606142421
 30
0.0
 41
100.0
 42
100.0
 43
100.0
 50
90.0
  0
MTEXT
  5
17D9B
330
16BEB
100
AcDbEntity
  8
寸法
 62
     7
 48
50.0
100
AcDbMText
 10
11353.94728388576
 20
6909.45732476818
 30
0.0
 40
120.0
 41
0.0
 71
     5
 72
     1
  1
\A1;55
  7
STYLE1
 11
0.0000000000000001
 21
1.0
 31
0.0
 73
     1
 44
1.0
1001
ACAD
1000
MTEXTBEGIN
1070
    73
1070
     1
1070
    44
1040
1.0
1070
    74
1070
     0
1000
MTEXTEND
  0
POINT
  5
17D9C
330
16BEB
100
AcDbEntity
  8
DEFPOINTS
 62
     0
 48
50.0
100
AcDbPoint
 10
10806.52093815135
 20
7272.942606142418
 30
0.0
  0
POINT
  5
17D9D
330
16BEB
100
AcDbEntity
  8
DEFPOINTS
 62
     0
 48
50.0
100
AcDbPoint
 10
10806.52093815135
 20
7217.942606142421
 30
0.0
  0
POINT
  5
17D9E
330
16BEB
100
AcDbEntity
  8
DEFPOINTS
 62
     0
 48
50.0
100
AcDbPoint
 10
11453.94728388577
 20
7217.942606142421
 30
0.0
  0
ENDBLK
  5
16BF8
330
16BEB
100
AcDbEntity
  8
0
 48
50.0
100
AcDbBlockEnd
  0
BLOCK
  5
16C0F
330
16C05
100
AcDbEntity
  8
0
 48
50.0
100
AcDbBlockBegin
  2
*D17
 70
     1
 10
0.0
 20
0.0
 30
0.0
  3
*D17
  1

  0
LINE
  5
17720
330
16C05
100
AcDbEntity
  8
寸法
 62
     0
 48
50.0
370
    -2
100
AcDbLine
 10
9444.520938151448
 20
4007.659483326425
 30
0.0
 11
9105.314908939297
 21
4007.659483326426
 31
0.0
  0
LINE
  5
17721
330
16C05
100
AcDbEntity
  8
寸法
 62
     0
 48
50.0
370
    -2
100
AcDbLine
 10
9444.520938151448
 20
2282.659483326425
 30
0.0
 11
9105.314908939297
 21
2282.659483326426
 31
0.0
  0
LINE
  5
17722
330
16C05
100
AcDbEntity
  8
寸法
 62
     0
 48
50.0
370
    -2
100
AcDbLine
 10
9165.314908939297
 20
4007.659483326426
 30
0.0
 11
9165.314908939297
 21
2282.659483326426
 31
0.0
  0
INSERT
  5
17723
330
16C05
100
AcDbEntity
  8
寸法
 62
     0
 48
50.0
370
    -2
100
AcDbBlockReference
  2
_DOTSMALL
 10
9165.314908939297
 20
4007.659483326426
 30
0.0
 41
100.0
 42
100.0
 43
100.0
 50
90.0
  0
INSERT
  5
17724
330
16C05
100
AcDbEntity
  8
寸法
 62
     0
 48
50.0
370
    -2
100
AcDbBlockReference
  2
_DOTSMALL
 10
9165.314908939297
 20
2282.659483326426
 30
0.0
 41
100.0
 42
100.0
 43
100.0
 50
270.0
  0
MTEXT
  5
17725
330
16C05
100
AcDbEntity
  8
寸法
 62
     7
 48
50.0
100
AcDbMText
 10
9065.303097915675
 20
3136.29250234395
 30
0.0
 40
120.0
 41
0.0
 71
     5
 72
     1
  1
\A1;有効開口部高サ1725
  7
STYLE1
 11
0.0000000000000001
 21
1.0
 31
0.0
 73
     1
 44
1.0
1001
ACAD
1000
MTEXTBEGIN
1070
    73
1070
     1
1070
    44
1040
1.0
1070
    74
1070
     0
1000
MTEXTEND
  0
POINT
  5
17726
330
16C05
100
AcDbEntity
  8
DEFPOINTS
 62
     0
 48
50.0
100
AcDbPoint
 10
9464.52093815145
 20
4007.659483326425
 30
0.0
  0
POINT
  5
17727
330
16C05
100
AcDbEntity
  8
DEFPOINTS
 62
     0
 48
50.0
100
AcDbPoint
 10
9464.52093815145
 20
2282.659483326425
 30
0.0
  0
POINT
  5
17728
330
16C05
100
AcDbEntity
  8
DEFPOINTS
 62
     0
 48
50.0
100
AcDbPoint
 10
9165.314908939297
 20
2282.659483326426
 30
0.0
  0
ENDBLK
  5
16C10
330
16C05
100
AcDbEntity
  8
0
 48
50.0
100
AcDbBlockEnd
  0
BLOCK
  5
16C35
330
16C2B
100
AcDbEntity
  8
0
 48
50.0
100
AcDbBlockBegin
  2
*D18
 70
     1
 10
0.0
 20
0.0
 30
0.0
  3
*D18
  1

  0
LINE
  5
17703
330
16C2B
100
AcDbEntity
  8
寸法
 62
     0
 48
50.0
370
    -2
100
AcDbLine
 10
9416.520938151434
 20
4064.659483326425
 30
0.0
 11
8752.868228993134
 21
4064.659483326425
 31
0.0
  0
LINE
  5
17704
330
16C2B
100
AcDbEntity
  8
寸法
 62
     0
 48
50.0
370
    -2
100
AcDbLine
 10
9416.520938151434
 20
2274.659483326425
 30
0.0
 11
8752.868228993134
 21
2274.659483326426
 31
0.0
  0
LINE
  5
17705
330
16C2B
100
AcDbEntity
  8
寸法
 62
     0
 48
50.0
370
    -2
100
AcDbLine
 10
8812.868228993135
 20
4064.659483326425
 30
0.0
 11
8812.868228993135
 21
2274.659483326426
 31
0.0
  0
INSERT
  5
17706
330
16C2B
100
AcDbEntity
  8
寸法
 62
     0
 48
50.0
370
    -2
100
AcDbBlockReference
  2
_DOTSMALL
 10
8812.868228993135
 20
4064.659483326425
 30
0.0
 41
100.0
 42
100.0
 43
100.0
 50
90.0
  0
INSERT
  5
17707
330
16C2B
100
AcDbEntity
  8
寸法
 62
     0
 48
50.0
370
    -2
100
AcDbBlockReference
  2
_DOTSMALL
 10
8812.868228993135
 20
2274.659483326426
 30
0.0
 41
100.0
 42
100.0
 43
100.0
 50
270.0
  0
MTEXT
  5
17708
330
16C2B
100
AcDbEntity
  8
寸法
 62
     7
 48
50.0
100
AcDbMText
 10
8712.868228993135
 20
3165.113781868383
 30
0.0
 40
120.0
 41
0.0
 71
     5
 72
     1
  1
\A1;1790
  7
STYLE1
 11
0.0000000000000001
 21
1.0
 31
0.0
 73
     1
 44
1.0
1001
ACAD
1000
MTEXTBEGIN
1070
    73
1070
     1
1070
    44
1040
1.0
1070
    74
1070
     0
1000
MTEXTEND
  0
POINT
  5
17709
330
16C2B
100
AcDbEntity
  8
DEFPOINTS
 62
     0
 48
50.0
100
AcDbPoint
 10
9436.520938151431
 20
4064.659483326425
 30
0.0
  0
POINT
  5
1770A
330
16C2B
100
AcDbEntity
  8
DEFPOINTS
 62
     0
 48
50.0
100
AcDbPoint
 10
9436.520938151431
 20
2274.659483326425
 30
0.0
  0
POINT
  5
1770B
330
16C2B
100
AcDbEntity
  8
DEFPOINTS
 62
     0
 48
50.0
100
AcDbPoint
 10
8812.868228993135
 20
2274.659483326426
 30
0.0
  0
ENDBLK
  5
16C36
330
16C2B
100
AcDbEntity
  8
0
 48
50.0
100
AcDbBlockEnd
  0
BLOCK
  5
16C41
330
16C37
100
AcDbEntity
  8
0
 48
50.0
100
AcDbBlockBegin
  2
*D19
 70
     1
 10
0.0
 20
0.0
 30
0.0
  3
*D19
  1

  0
LINE
  5
176FA
330
16C37
100
AcDbEntity
  8
寸法
 62
     0
 48
50.0
370
    -2
100
AcDbLine
 10
9416.520938151434
 20
2224.659483326425
 30
0.0
 11
8467.881556222073
 21
2224.659483326426
 31
0.0
  0
LINE
  5
176FB
330
16C37
100
AcDbEntity
  8
寸法
 62
     0
 48
50.0
370
    -2
100
AcDbLine
 10
9356.520938151431
 20
4299.659483326429
 30
0.0
 11
8467.881556222074
 21
4299.659483326429
 31
0.0
  0
LINE
  5
176FC
330
16C37
100
AcDbEntity
  8
寸法
 62
     0
 48
50.0
370
    -2
100
AcDbLine
 10
8527.881556222075
 20
2224.659483326426
 30
0.0
 11
8527.881556222075
 21
4299.659483326429
 31
0.0
  0
INSERT
  5
176FD
330
16C37
100
AcDbEntity
  8
寸法
 62
     0
 48
50.0
370
    -2
100
AcDbBlockReference
  2
_DOTSMALL
 10
8527.881556222075
 20
2224.659483326426
 30
0.0
 41
100.0
 42
100.0
 43
100.0
 50
270.0
  0
INSERT
  5
176FE
330
16C37
100
AcDbEntity
  8
寸法
 62
     0
 48
50.0
370
    -2
100
AcDbBlockReference
  2
_DOTSMALL
 10
8527.881556222075
 20
4299.659483326429
 30
0.0
 41
100.0
 42
100.0
 43
100.0
 50
90.0
  0
MTEXT
  5
176FF
330
16C37
100
AcDbEntity
  8
寸法
 62
     7
 48
50.0
100
AcDbMText
 10
8427.869745198451
 20
3218.865360819535
 30
0.0
 40
120.0
 41
0.0
 71
     5
 72
     1
  1
\A1;2075
  7
STYLE1
 11
0.0000000000000001
 21
1.0
 31
0.0
 73
     1
 44
1.0
1001
ACAD
1000
MTEXTBEGIN
1070
    73
1070
     1
1070
    44
1040
1.0
1070
    74
1070
     0
1000
MTEXTEND
  0
POINT
  5
17700
330
16C37
100
AcDbEntity
  8
DEFPOINTS
 62
     0
 48
50.0
100
AcDbPoint
 10
9436.520938151431
 20
2224.659483326425
 30
0.0
  0
POINT
  5
17701
330
16C37
100
AcDbEntity
  8
DEFPOINTS
 62
     0
 48
50.0
100
AcDbPoint
 10
9376.520938151433
 20
4299.659483326429
 30
0.0
  0
POINT
  5
17702
330
16C37
100
AcDbEntity
  8
DEFPOINTS
 62
     0
 48
50.0
100
AcDbPoint
 10
8527.881556222075
 20
4299.659483326429
 30
0.0
  0
ENDBLK
  5
16C42
330
16C37
100
AcDbEntity
  8
0
 48
50.0
100
AcDbBlockEnd
  0
BLOCK
  5
16C4E
330
16C43
100
AcDbEntity
  8
0
 48
50.0
100
AcDbBlockBegin
  2
*D20
 70
     1
 10
0.0
 20
0.0
 30
0.0
  3
*D20
  1

  0
LINE
  5
176F0
330
16C43
100
AcDbEntity
  8
寸法
 62
     0
 48
50.0
370
    -2
100
AcDbLine
 10
9361.520938151432
 20
2224.659483326425
 30
0.0
 11
8467.881556222073
 21
2224.659483326426
 31
0.0
  0
LINE
  5
176F1
330
16C43
100
AcDbEntity
  8
寸法
 62
     0
 48
50.0
370
    -2
100
AcDbLine
 10
8792.868228993134
 20
2124.659483326425
 30
0.0
 11
8467.881556222073
 21
2124.659483326425
 31
0.0
  0
LINE
  5
176F2
330
16C43
100
AcDbEntity
  8
寸法
 62
     0
 48
50.0
370
    -2
100
AcDbLine
 10
8527.881556222075
 20
2224.659483326426
 30
0.0
 11
8527.881556222075
 21
2124.659483326425
 31
0.0
  0
LINE
  5
176F3
330
16C43
100
AcDbEntity
  8
寸法
 62
     0
 48
50.0
370
    -2
100
AcDbLine
 10
8527.881556222075
 20
2124.659483326425
 30
0.0
 11
8527.881556222075
 21
1752.564995137445
 31
0.0
  0
INSERT
  5
176F4
330
16C43
100
AcDbEntity
  8
寸法
 62
     0
 48
50.0
370
    -2
100
AcDbBlockReference
  2
_DOTSMALL
 10
8527.881556222075
 20
2224.659483326426
 30
0.0
 41
100.0
 42
100.0
 43
100.0
 50
90.0
  0
INSERT
  5
176F5
330
16C43
100
AcDbEntity
  8
寸法
 62
     0
 48
50.0
370
    -2
100
AcDbBlockReference
  2
_DOTSMALL
 10
8527.881556222075
 20
2124.659483326425
 30
0.0
 41
100.0
 42
100.0
 43
100.0
 50
270.0
  0
MTEXT
  5
176F6
330
16C43
100
AcDbEntity
  8
寸法
 62
     7
 48
50.0
100
AcDbMText
 10
8427.881556222073
 20
1888.612239231934
 30
0.0
 40
120.0
 41
0.0
 71
     5
 72
     1
  1
\A1;100
  7
STYLE1
 11
0.0000000000000001
 21
1.0
 31
0.0
 73
     1
 44
1.0
1001
ACAD
1000
MTEXTBEGIN
1070
    73
1070
     1
1070
    44
1040
1.0
1070
    74
1070
     0
1000
MTEXTEND
  0
POINT
  5
176F7
330
16C43
100
AcDbEntity
  8
DEFPOINTS
 62
     0
 48
50.0
100
AcDbPoint
 10
9381.520938151432
 20
2224.659483326425
 30
0.0
  0
POINT
  5
176F8
330
16C43
100
AcDbEntity
  8
DEFPOINTS
 62
     0
 48
50.0
100
AcDbPoint
 10
8812.868228993135
 20
2124.659483326425
 30
0.0
  0
POINT
  5
176F9
330
16C43
100
AcDbEntity
  8
DEFPOINTS
 62
     0
 48
50.0
100
AcDbPoint
 10
8527.881556222075
 20
2124.659483326425
 30
0.0
  0
ENDBLK
  5
16C4F
330
16C43
100
AcDbEntity
  8
0
 48
50.0
100
AcDbBlockEnd
  0
BLOCK
  5
16C5C
330
16C50
100
AcDbEntity
  8
0
 48
50.0
100
AcDbBlockBegin
  2
*D21
 70
     1
 10
0.0
 20
0.0
 30
0.0
  3
*D21
  1

  0
LINE
  5
176E5
330
16C50
100
AcDbEntity
  8
寸法
 62
     0
 48
50.0
370
    -2
100
AcDbLine
 10
9416.520938151434
 20
2274.659483326425
 30
0.0
 11
8752.868228993134
 21
2274.659483326426
 31
0.0
  0
LINE
  5
176E6
330
16C50
100
AcDbEntity
  8
寸法
 62
     0
 48
50.0
370
    -2
100
AcDbLine
 10
9361.520938151432
 20
2224.659483326425
 30
0.0
 11
8752.868228993134
 21
2224.659483326426
 31
0.0
  0
LINE
  5
176E7
330
16C50
100
AcDbEntity
  8
寸法
 62
     0
 48
50.0
370
    -2
100
AcDbLine
 10
8812.868228993135
 20
2274.659483326426
 30
0.0
 11
8812.868228993135
 21
2374.659483326426
 31
0.0
  0
LINE
  5
176E8
330
16C50
100
AcDbEntity
  8
寸法
 62
     0
 48
50.0
370
    -2
100
AcDbLine
 10
8812.868228993135
 20
2224.659483326426
 30
0.0
 11
8812.868228993135
 21
1812.564995137445
 31
0.0
  0
LINE
  5
176E9
330
16C50
100
AcDbEntity
  8
寸法
 62
     0
 48
50.0
370
    -2
100
AcDbLine
 10
8812.868228993135
 20
2274.659483326426
 30
0.0
 11
8812.868228993135
 21
2224.659483326426
 31
0.0
  0
INSERT
  5
176EA
330
16C50
100
AcDbEntity
  8
寸法
 62
     0
 48
50.0
370
    -2
100
AcDbBlockReference
  2
_DOTSMALL
 10
8812.868228993135
 20
2274.659483326426
 30
0.0
 41
100.0
 42
100.0
 43
100.0
 50
270.0
  0
INSERT
  5
176EB
330
16C50
100
AcDbEntity
  8
寸法
 62
     0
 48
50.0
370
    -2
100
AcDbBlockReference
  2
_DOTSMALL
 10
8812.868228993135
 20
2224.659483326426
 30
0.0
 41
100.0
 42
100.0
 43
100.0
 50
90.0
  0
MTEXT
  5
176EC
330
16C50
100
AcDbEntity
  8
寸法
 62
     7
 48
50.0
100
AcDbMText
 10
8712.868228993135
 20
1918.612239231935
 30
0.0
 40
120.0
 41
0.0
 71
     5
 72
     1
  1
\A1;50
  7
STYLE1
 11
0.0000000000000001
 21
1.0
 31
0.0
 73
     1
 44
1.0
1001
ACAD
1000
MTEXTBEGIN
1070
    73
1070
     1
1070
    44
1040
1.0
1070
    74
1070
     0
1000
MTEXTEND
  0
POINT
  5
176ED
330
16C50
100
AcDbEntity
  8
DEFPOINTS
 62
     0
 48
50.0
100
AcDbPoint
 10
9436.520938151431
 20
2274.659483326425
 30
0.0
  0
POINT
  5
176EE
330
16C50
100
AcDbEntity
  8
DEFPOINTS
 62
     0
 48
50.0
100
AcDbPoint
 10
9381.520938151432
 20
2224.659483326425
 30
0.0
  0
POINT
  5
176EF
330
16C50
100
AcDbEntity
  8
DEFPOINTS
 62
     0
 48
50.0
100
AcDbPoint
 10
8812.868228993135
 20
2224.659483326426
 30
0.0
  0
ENDBLK
  5
16C5D
330
16C50
100
AcDbEntity
  8
0
 48
50.0
100
AcDbBlockEnd
  0
BLOCK
  5
16C68
330
16C5E
100
AcDbEntity
  8
0
 48
50.0
100
AcDbBlockBegin
  2
*D22
 70
     1
 10
0.0
 20
0.0
 30
0.0
  3
*D22
  1

  0
LINE
  5
176DC
330
16C5E
100
AcDbEntity
  8
寸法
 62
     0
 48
50.0
370
    -2
100
AcDbLine
 10
10826.52093815145
 20
2224.659483326425
 30
0.0
 11
11401.69103391387
 21
2224.659483326425
 31
0.0
  0
LINE
  5
176DD
330
16C5E
100
AcDbEntity
  8
寸法
 62
     0
 48
50.0
370
    -2
100
AcDbLine
 10
10906.52093815143
 20
4244.659483326427
 30
0.0
 11
11401.69103391387
 21
4244.659483326427
 31
0.0
  0
LINE
  5
176DE
330
16C5E
100
AcDbEntity
  8
寸法
 62
     0
 48
50.0
370
    -2
100
AcDbLine
 10
11341.69103391387
 20
2224.659483326425
 30
0.0
 11
11341.69103391387
 21
4244.659483326427
 31
0.0
  0
INSERT
  5
176DF
330
16C5E
100
AcDbEntity
  8
寸法
 62
     0
 48
50.0
370
    -2
100
AcDbBlockReference
  2
_DOTSMALL
 10
11341.69103391387
 20
2224.659483326425
 30
0.0
 41
100.0
 42
100.0
 43
100.0
 50
270.0
  0
INSERT
  5
176E0
330
16C5E
100
AcDbEntity
  8
寸法
 62
     0
 48
50.0
370
    -2
100
AcDbBlockReference
  2
_DOTSMALL
 10
11341.69103391387
 20
4244.659483326427
 30
0.0
 41
100.0
 42
100.0
 43
100.0
 50
90.0
  0
MTEXT
  5
176E1
330
16C5E
100
AcDbEntity
  8
寸法
 62
     7
 48
50.0
100
AcDbMText
 10
11241.67922289025
 20
3206.915810756114
 30
0.0
 40
120.0
 41
0.0
 71
     5
 72
     1
  1
\A1;2020
  7
STYLE1
 11
0.0000000000000001
 21
1.0
 31
0.0
 73
     1
 44
1.0
1001
ACAD
1000
MTEXTBEGIN
1070
    73
1070
     1
1070
    44
1040
1.0
1070
    74
1070
     0
1000
MTEXTEND
  0
POINT
  5
176E2
330
16C5E
100
AcDbEntity
  8
DEFPOINTS
 62
     0
 48
50.0
100
AcDbPoint
 10
10806.52093815145
 20
2224.659483326425
 30
0.0
  0
POINT
  5
176E3
330
16C5E
100
AcDbEntity
  8
DEFPOINTS
 62
     0
 48
50.0
100
AcDbPoint
 10
10886.52093815143
 20
4244.659483326427
 30
0.0
  0
POINT
  5
176E4
330
16C5E
100
AcDbEntity
  8
DEFPOINTS
 62
     0
 48
50.0
100
AcDbPoint
 10
11341.69103391387
 20
4244.659483326427
 30
0.0
  0
ENDBLK
  5
16C69
330
16C5E
100
AcDbEntity
  8
0
 48
50.0
100
AcDbBlockEnd
  0
BLOCK
  5
16F19
330
16EC7
100
AcDbEntity
  8
0
 48
50.0
100
AcDbBlockBegin
  2
A$C1D9B7374
 70
     0
 10
0.0
 20
0.0
 30
0.0
  3
A$C1D9B7374
  1

  0
TEXT
  5
16EC8
330
16EC7
100
AcDbEntity
  8
文字
 62
     7
 48
50.0
100
AcDbText
 10
455.9181698943357
 20
540.4137217485659
 30
0.0
 40
100.0
  1
棚板
  7
STYLE1
100
AcDbText
  0
TEXT
  5
16EC9
330
16EC7
100
AcDbEntity
  8
文字
 62
     7
 48
50.0
100
AcDbText
 10
1895.439634473805
 20
540.4137217485622
 30
0.0
 40
100.0
  1
F12            0.6
  7
STYLE1
100
AcDbText
  0
TEXT
  5
16ECA
330
16EC7
100
AcDbEntity
  8
文字
 62
     7
 48
50.0
100
AcDbText
 10
455.9181698943393
 20
1730.413721748562
 30
0.0
 40
100.0
  1
母屋中
  7
STYLE1
100
AcDbText
  0
TEXT
  5
16ECB
330
16EC7
100
AcDbEntity
  8
文字
 62
     7
 48
50.0
100
AcDbText
 10
121.577453393118
 20
710.413721748564
 30
0.0
 40
100.0
  1
15
  7
STYLE1
100
AcDbText
  0
LINE
  5
16ECC
330
16EC7
100
AcDbEntity
  8
仕様書枠
 48
50.0
100
AcDbLine
 10
3179.999979728636
 20
-0.0000241351608565
 30
0.0
 11
-0.000020271356334
 21
-0.0000241351590375
 31
0.0
  0
TEXT
  5
16ECD
330
16EC7
100
AcDbEntity
  8
文字
 62
     7
 48
50.0
100
AcDbText
 10
455.9181698943357
 20
710.4137217485658
 30
0.0
 40
100.0
  1
扉
  7
STYLE1
100
AcDbText
  0
TEXT
  5
16ECE
330
16EC7
100
AcDbEntity
  8
文字
 62
     7
 48
50.0
100
AcDbText
 10
1895.439634473805
 20
710.4137217485622
 30
0.0
 40
100.0
  1
F12            0.8
  7
STYLE1
100
AcDbText
  0
TEXT
  5
16ECF
330
16EC7
100
AcDbEntity
  8
文字
 62
     7
 48
50.0
100
AcDbText
 10
455.9181698943284
 20
880.4137217485658
 30
0.0
 40
100.0
  1
正面パネル
  7
STYLE1
100
AcDbText
  0
TEXT
  5
16ED0
330
16EC7
100
AcDbEntity
  8
文字
 62
     7
 48
50.0
100
AcDbText
 10
1895.439634473798
 20
880.4137217485623
 30
0.0
 40
100.0
  1
F12            0.7
  7
STYLE1
100
AcDbText
  0
TEXT
  5
16ED1
330
16EC7
100
AcDbEntity
  8
文字
 62
     7
 48
50.0
100
AcDbText
 10
1895.439634473816
 20
2580.41372174856
 30
0.0
 40
100.0
  1
F12            1.0
  7
STYLE1
100
AcDbText
  0
TEXT
  5
16ED2
330
16EC7
100
AcDbEntity
  8
文字
 62
     7
 48
50.0
100
AcDbText
 10
1895.439634473809
 20
2920.413721748561
 30
0.0
 40
100.0
  1
F12            1.2
  7
STYLE1
100
AcDbText
  0
TEXT
  5
16ED3
330
16EC7
100
AcDbEntity
  8
文字
 62
     7
 48
50.0
100
AcDbText
 10
121.5774533931253
 20
880.4137217485623
 30
0.0
 40
100.0
  1
14
  7
STYLE1
100
AcDbText
  0
TEXT
  5
16ED4
330
16EC7
100
AcDbEntity
  8
文字
 62
     7
 48
50.0
100
AcDbText
 10
455.9181698943393
 20
2920.413721748561
 30
0.0
 40
100.0
  1
根太
  7
STYLE1
100
AcDbText
  0
TEXT
  5
16ED5
330
16EC7
100
AcDbEntity
  8
文字
 62
     7
 48
50.0
100
AcDbText
 10
455.9181698943466
 20
2580.41372174856
 30
0.0
 40
100.0
  1
床パネル
 41
0.9
  7
STYLE1
100
AcDbText
  0
LINE
  5
16ED6
330
16EC7
100
AcDbEntity
  8
仕様書枠
 48
50.0
100
AcDbLine
 10
3179.99997972864
 20
1019.999975864835
 30
0.0
 11
-0.000020271352696
 21
1019.999975864837
 31
0.0
  0
LINE
  5
16ED7
330
16EC7
100
AcDbEntity
  8
仕様書枠
 48
50.0
100
AcDbLine
 10
-0.000020271352696
 20
3399.999975864836
 30
0.0
 11
-0.000020271359972
 21
-0.0000241351590375
 31
0.0
  0
TEXT
  5
16ED8
330
16EC7
100
AcDbEntity
  8
文字
 62
     7
 48
50.0
100
AcDbText
 10
102.6307962941864
 20
30.4137217485677
 30
0.0
 40
100.0
  1
Y10→溶融亜鉛-5％アルミニウム合金めっき鋼板(JIS G 3317)
 41
0.9
  7
STYLE1
100
AcDbText
  0
TEXT
  5
16ED9
330
16EC7
100
AcDbEntity
  8
文字
 62
     7
 48
50.0
100
AcDbText
 10
102.6307962941864
 20
200.4137217485677
 30
0.0
 40
100.0
  1
F12→溶融亜鉛めっき鋼板(JIS G 3302)
  7
STYLE1
100
AcDbText
  0
LINE
  5
16EDA
330
16EC7
100
AcDbEntity
  8
仕様書枠
 48
50.0
100
AcDbLine
 10
3179.999979728636
 20
169.9999758648391
 30
0.0
 11
-0.000020271356334
 21
169.9999758648409
 31
0.0
  0
LINE
  5
16EDB
330
16EC7
100
AcDbEntity
  8
仕様書枠
 48
50.0
100
AcDbLine
 10
3179.999979728636
 20
339.9999758648391
 30
0.0
 11
-0.000020271356334
 21
339.999975864841
 31
0.0
  0
TEXT
  5
16EDC
330
16EC7
100
AcDbEntity
  8
文字
 62
     7
 48
50.0
100
AcDbText
 10
1895.439634473801
 20
1560.41372174856
 30
0.0
 40
100.0
  1
F12            0.7
  7
STYLE1
100
AcDbText
  0
TEXT
  5
16EDD
330
16EC7
100
AcDbEntity
  8
文字
 62
     7
 48
50.0
100
AcDbText
 10
1895.439634473816
 20
1900.41372174856
 30
0.0
 40
100.0
  1
Y10            0.5
  7
STYLE1
100
AcDbText
  0
TEXT
  5
16EDE
330
16EC7
100
AcDbEntity
  8
文字
 62
     7
 48
50.0
100
AcDbText
 10
1895.439634473812
 20
2070.413721748561
 30
0.0
 40
100.0
  1
Y10            0.7
  7
STYLE1
100
AcDbText
  0
TEXT
  5
16EDF
330
16EC7
100
AcDbEntity
  8
文字
 62
     7
 48
50.0
100
AcDbText
 10
1895.439634473812
 20
2240.413721748561
 30
0.0
 40
100.0
  1
Y10            0.7
  7
STYLE1
100
AcDbText
  0
TEXT
  5
16EE0
330
16EC7
100
AcDbEntity
  8
文字
 62
     7
 48
50.0
100
AcDbText
 10
1895.439634473812
 20
2410.413721748561
 30
0.0
 40
100.0
  1
Y10            1.0
  7
STYLE1
100
AcDbText
  0
TEXT
  5
16EE1
330
16EC7
100
AcDbEntity
  8
文字
 62
     7
 48
50.0
100
AcDbText
 10
1895.439634473823
 20
2750.413721748561
 30
0.0
 40
100.0
  1
F12            1.0
  7
STYLE1
100
AcDbText
  0
TEXT
  5
16EE2
330
16EC7
100
AcDbEntity
  8
文字
 62
     7
 48
50.0
100
AcDbText
 10
1895.439634473816
 20
3090.413721748561
 30
0.0
 40
100.0
  1
F12            1.2
  7
STYLE1
100
AcDbText
  0
TEXT
  5
16EE3
330
16EC7
100
AcDbEntity
  8
文字
 62
     7
 48
50.0
100
AcDbText
 10
121.5774533931253
 20
1220.413721748562
 30
0.0
 40
100.0
  1
12
  7
STYLE1
100
AcDbText
  0
TEXT
  5
16EE4
330
16EC7
100
AcDbEntity
  8
文字
 62
     7
 48
50.0
100
AcDbText
 10
121.5774533931253
 20
1050.413721748562
 30
0.0
 40
100.0
  1
13
  7
STYLE1
100
AcDbText
  0
LINE
  5
16EE5
330
16EC7
100
AcDbEntity
  8
仕様書枠
 48
50.0
100
AcDbLine
 10
3179.99997972864
 20
849.9999758648355
 30
0.0
 11
-0.000020271352696
 21
849.9999758648373
 31
0.0
  0
LINE
  5
16EE6
330
16EC7
100
AcDbEntity
  8
仕様書枠
 48
50.0
100
AcDbLine
 10
3179.99997972864
 20
1189.999975864833
 30
0.0
 11
-0.000020271352696
 21
1189.999975864835
 31
0.0
  0
TEXT
  5
16EE7
330
16EC7
100
AcDbEntity
  8
文字
 62
     7
 48
50.0
100
AcDbText
 10
121.5774533931217
 20
1390.413721748562
 30
0.0
 40
100.0
  1
11
  7
STYLE1
100
AcDbText
  0
LINE
  5
16EE8
330
16EC7
100
AcDbEntity
  8
仕様書枠
 48
50.0
100
AcDbLine
 10
3179.999979728648
 20
1869.999975864834
 30
0.0
 11
-0.000020271352696
 21
1869.999975864836
 31
0.0
  0
LINE
  5
16EE9
330
16EC7
100
AcDbEntity
  8
仕様書枠
 48
50.0
100
AcDbLine
 10
3179.999979728648
 20
2209.999975864834
 30
0.0
 11
-0.000020271352696
 21
2209.999975864835
 31
0.0
  0
LINE
  5
16EEA
330
16EC7
100
AcDbEntity
  8
仕様書枠
 48
50.0
100
AcDbLine
 10
3179.99997972864
 20
1529.999975864833
 30
0.0
 11
-0.000020271352696
 21
1529.999975864835
 31
0.0
  0
LINE
  5
16EEB
330
16EC7
100
AcDbEntity
  8
仕様書枠
 48
50.0
100
AcDbLine
 10
3179.99997972864
 20
1359.999975864834
 30
0.0
 11
-0.000020271352696
 21
1359.999975864835
 31
0.0
  0
LINE
  5
16EEC
330
16EC7
100
AcDbEntity
  8
仕様書枠
 48
50.0
100
AcDbLine
 10
3179.99997972864
 20
1699.999975864833
 30
0.0
 11
-0.000020271352696
 21
1699.999975864835
 31
0.0
  0
TEXT
  5
16EED
330
16EC7
100
AcDbEntity
  8
文字
 62
     7
 48
50.0
100
AcDbText
 10
143.9903021765676
 20
2240.413721748564
 30
0.0
 40
100.0
  1
6
  7
STYLE1
100
AcDbText
  0
TEXT
  5
16EEE
330
16EC7
100
AcDbEntity
  8
文字
 62
     7
 48
50.0
100
AcDbText
 10
143.9903021765676
 20
2070.413721748564
 30
0.0
 40
100.0
  1
7
  7
STYLE1
100
AcDbText
  0
TEXT
  5
16EEF
330
16EC7
100
AcDbEntity
  8
文字
 62
     7
 48
50.0
100
AcDbText
 10
143.9903021765676
 20
1730.413721748564
 30
0.0
 40
100.0
  1
9
  7
STYLE1
100
AcDbText
  0
TEXT
  5
16EF0
330
16EC7
100
AcDbEntity
  8
文字
 62
     7
 48
50.0
100
AcDbText
 10
143.9903021765676
 20
1900.413721748564
 30
0.0
 40
100.0
  1
8
  7
STYLE1
100
AcDbText
  0
TEXT
  5
16EF1
330
16EC7
100
AcDbEntity
  8
文字
 62
     7
 48
50.0
100
AcDbText
 10
455.9181698943429
 20
2070.413721748562
 30
0.0
 40
100.0
  1
鼻隠シ前後
  7
STYLE1
100
AcDbText
  0
TEXT
  5
16EF2
330
16EC7
100
AcDbEntity
  8
文字
 62
     7
 48
50.0
100
AcDbText
 10
455.9181698943393
 20
1900.413721748562
 30
0.0
 40
100.0
  1
屋根パネル
  7
STYLE1
100
AcDbText
  0
TEXT
  5
16EF3
330
16EC7
100
AcDbEntity
  8
文字
 62
     7
 48
50.0
100
AcDbText
 10
455.918169894332
 20
1560.413721748564
 30
0.0
 40
100.0
  1
壁パネル
  7
STYLE1
100
AcDbText
  0
TEXT
  5
16EF4
330
16EC7
100
AcDbEntity
  8
文字
 62
     7
 48
50.0
100
AcDbText
 10
121.5774533931217
 20
1560.413721748562
 30
0.0
 40
100.0
  1
10
  7
STYLE1
100
AcDbText
  0
TEXT
  5
16EF5
330
16EC7
100
AcDbEntity
  8
文字
 62
     7
 48
50.0
100
AcDbText
 10
455.9181698943429
 20
2240.413721748562
 30
0.0
 40
100.0
  1
妻板左右
  7
STYLE1
100
AcDbText
  0
TEXT
  5
16EF6
330
16EC7
100
AcDbEntity
  8
文字
 62
     7
 48
50.0
100
AcDbText
 10
143.9903021765676
 20
2410.413721748562
 30
0.0
 40
100.0
  1
5
  7
STYLE1
100
AcDbText
  0
TEXT
  5
16EF7
330
16EC7
100
AcDbEntity
  8
文字
 62
     7
 48
50.0
100
AcDbText
 10
455.9181698943429
 20
2410.413721748564
 30
0.0
 40
100.0
  1
桁前後
  7
STYLE1
100
AcDbText
  0
TEXT
  5
16EF8
330
16EC7
100
AcDbEntity
  8
文字
 62
     7
 48
50.0
100
AcDbText
 10
455.9181698943466
 20
2750.413721748561
 30
0.0
 40
100.0
  1
柱
  7
STYLE1
100
AcDbText
  0
TEXT
  5
16EF9
330
16EC7
100
AcDbEntity
  8
文字
 62
     7
 48
50.0
100
AcDbText
 10
455.9181698943393
 20
3090.413721748561
 30
0.0
 40
100.0
  1
土台枠
  7
STYLE1
100
AcDbText
  0
TEXT
  5
16EFA
330
16EC7
100
AcDbEntity
  8
文字
 62
     7
 48
50.0
100
AcDbText
 10
1732.597725873467
 20
3260.413721748561
 30
0.0
 40
100.0
  1
材料（材質）　　単位mm
  7
STYLE1
100
AcDbText
  0
TEXT
  5
16EFB
330
16EC7
100
AcDbEntity
  8
文字
 62
     7
 48
50.0
100
AcDbText
 10
604.8383891229932
 20
3260.413721748561
 30
0.0
 40
100.0
  1
部　　品　　名
  7
STYLE1
100
AcDbText
  0
TEXT
  5
16EFC
330
16EC7
100
AcDbEntity
  8
文字
 62
     7
 48
50.0
100
AcDbText
 10
143.9903021765676
 20
2750.413721748564
 30
0.0
 40
100.0
  1
3
  7
STYLE1
100
AcDbText
  0
TEXT
  5
16EFD
330
16EC7
100
AcDbEntity
  8
文字
 62
     7
 48
50.0
100
AcDbText
 10
143.9903021765676
 20
2580.413721748564
 30
0.0
 40
100.0
  1
4
  7
STYLE1
100
AcDbText
  0
TEXT
  5
16EFE
330
16EC7
100
AcDbEntity
  8
文字
 62
     7
 48
50.0
100
AcDbText
 10
143.9903021765676
 20
2920.413721748564
 30
0.0
 40
100.0
  1
2
  7
STYLE1
100
AcDbText
  0
TEXT
  5
16EFF
330
16EC7
100
AcDbEntity
  8
文字
 62
     7
 48
50.0
100
AcDbText
 10
143.9903021765676
 20
3090.413721748564
 30
0.0
 40
100.0
  1
1
  7
STYLE1
100
AcDbText
  0
TEXT
  5
16F00
330
16EC7
100
AcDbEntity
  8
文字
 62
     7
 48
50.0
100
AcDbText
 10
70.22516533271482
 20
3260.413721748561
 30
0.0
 40
100.0
  1
品番
  7
STYLE1
100
AcDbText
  0
LINE
  5
16F01
330
16EC7
100
AcDbEntity
  8
仕様書枠
 48
50.0
100
AcDbLine
 10
3179.99997972864
 20
2719.999975864832
 30
0.0
 11
-0.000020271352696
 21
2719.999975864836
 31
0.0
  0
LINE
  5
16F02
330
16EC7
100
AcDbEntity
  8
仕様書枠
 48
50.0
100
AcDbLine
 10
3179.99997972864
 20
2379.999975864834
 30
0.0
 11
-0.000020271352696
 21
2379.999975864835
 31
0.0
  0
LINE
  5
16F03
330
16EC7
100
AcDbEntity
  8
仕様書枠
 48
50.0
100
AcDbLine
 10
3179.99997972864
 20
2549.999975864834
 30
0.0
 11
-0.000020271352696
 21
2549.999975864836
 31
0.0
  0
LINE
  5
16F04
330
16EC7
100
AcDbEntity
  8
仕様書枠
 48
50.0
100
AcDbLine
 10
3179.999979728648
 20
3059.999975864832
 30
0.0
 11
-0.000020271352696
 21
3059.999975864835
 31
0.0
  0
LINE
  5
16F05
330
16EC7
100
AcDbEntity
  8
仕様書枠
 48
50.0
100
AcDbLine
 10
3179.999979728648
 20
2889.999975864832
 30
0.0
 11
-0.000020271352696
 21
2889.999975864835
 31
0.0
  0
LINE
  5
16F06
330
16EC7
100
AcDbEntity
  8
仕様書枠
 48
50.0
100
AcDbLine
 10
3179.999979728648
 20
3229.999975864832
 30
0.0
 11
-0.000020271352696
 21
3229.999975864835
 31
0.0
  0
LINE
  5
16F07
330
16EC7
100
AcDbEntity
  8
仕様書枠
 48
50.0
100
AcDbLine
 10
362.9999797286473
 20
3399.999975864832
 30
0.0
 11
362.9999797286619
 21
339.999975864841
 31
0.0
  0
LINE
  5
16F08
330
16EC7
100
AcDbEntity
  8
仕様書枠
 48
50.0
100
AcDbLine
 10
1657.999979728647
 20
3399.999975864832
 30
0.0
 11
1657.999979728644
 21
339.9999758648391
 31
0.0
  0
LINE
  5
16F09
330
16EC7
100
AcDbEntity
  8
仕様書枠
 48
50.0
100
AcDbLine
 10
3179.999979728644
 20
-0.0000241351608565
 30
0.0
 11
3179.999979728648
 21
3399.999975864836
 31
0.0
  0
LINE
  5
16F0A
330
16EC7
100
AcDbEntity
  8
仕様書枠
 48
50.0
100
AcDbLine
 10
3179.999979728648
 20
3399.999975864832
 30
0.0
 11
-0.000020271352696
 21
3399.999975864836
 31
0.0
  0
LINE
  5
16F0B
330
16EC7
100
AcDbEntity
  8
仕様書枠
 48
50.0
100
AcDbLine
 10
3179.999979728648
 20
2039.999975864834
 30
0.0
 11
-0.000020271352696
 21
2039.999975864835
 31
0.0
  0
TEXT
  5
16F0C
330
16EC7
100
AcDbEntity
  8
文字
 62
     7
 48
50.0
100
AcDbText
 10
1895.439634473798
 20
370.4137217485586
 30
0.0
 40
100.0
  1
F12            2.3
  7
STYLE1
100
AcDbText
  0
TEXT
  5
16F0D
330
16EC7
100
AcDbEntity
  8
文字
 62
     7
 48
50.0
100
AcDbText
 10
455.9181698943357
 20
370.4137217485641
 30
0.0
 40
100.0
  1
アンカープレート
  7
STYLE1
100
AcDbText
  0
LINE
  5
16F0E
330
16EC7
100
AcDbEntity
  8
仕様書枠
 48
50.0
100
AcDbLine
 10
3179.99997972864
 20
509.9999758648391
 30
0.0
 11
-0.000020271352696
 21
509.9999758648409
 31
0.0
  0
LINE
  5
16F0F
330
16EC7
100
AcDbEntity
  8
仕様書枠
 48
50.0
100
AcDbLine
 10
3179.99997972864
 20
679.9999758648391
 30
0.0
 11
-0.000020271352696
 21
679.9999758648409
 31
0.0
  0
TEXT
  5
16F10
330
16EC7
100
AcDbEntity
  8
文字
 62
     7
 48
50.0
100
AcDbText
 10
455.9181698943357
 20
1390.413721748564
 30
0.0
 40
100.0
  1
壁面扉鴨居
  7
STYLE1
100
AcDbText
  0
TEXT
  5
16F11
330
16EC7
100
AcDbEntity
  8
文字
 62
     7
 48
50.0
100
AcDbText
 10
455.9181698943357
 20
1220.413721748567
 30
0.0
 40
100.0
  1
壁面扉敷居
  7
STYLE1
100
AcDbText
  0
TEXT
  5
16F12
330
16EC7
100
AcDbEntity
  8
文字
 62
     7
 48
50.0
100
AcDbText
 10
1895.439634473801
 20
1390.413721748562
 30
0.0
 40
100.0
  1
F12            0.7
  7
STYLE1
100
AcDbText
  0
TEXT
  5
16F13
330
16EC7
100
AcDbEntity
  8
文字
 62
     7
 48
50.0
100
AcDbText
 10
1895.439634473819
 20
1220.41372174856
 30
0.0
 40
100.0
  1
F12            1.0
  7
STYLE1
100
AcDbText
  0
TEXT
  5
16F14
330
16EC7
100
AcDbEntity
  8
文字
 62
     7
 48
50.0
100
AcDbText
 10
455.9181698943357
 20
1050.413721748568
 30
0.0
 40
100.0
  1
壁面扉枠左右
  7
STYLE1
100
AcDbText
  0
TEXT
  5
16F15
330
16EC7
100
AcDbEntity
  8
文字
 62
     7
 48
50.0
100
AcDbText
 10
1895.439634473819
 20
1050.41372174856
 30
0.0
 40
100.0
  1
F12            1.0
  7
STYLE1
100
AcDbText
  0
TEXT
  5
16F16
330
16EC7
100
AcDbEntity
  8
文字
 62
     7
 48
50.0
100
AcDbText
 10
121.577453393118
 20
540.413721748564
 30
0.0
 40
100.0
  1
16
  7
STYLE1
100
AcDbText
  0
TEXT
  5
16F17
330
16EC7
100
AcDbEntity
  8
文字
 62
     7
 48
50.0
100
AcDbText
 10
121.577453393118
 20
370.4137217485641
 30
0.0
 40
100.0
  1
17
  7
STYLE1
100
AcDbText
  0
TEXT
  5
16F18
330
16EC7
100
AcDbEntity
  8
文字
 62
     7
 48
50.0
100
AcDbText
 10
1765.556329939154
 20
1730.41372174856
 30
0.0
 40
100.0
  1
F12  1.0(多雪地型2.3,1.6)
  7
STYLE1
100
AcDbText
  0
ENDBLK
  5
16F1A
330
16EC7
100
AcDbEntity
  8
0
 48
50.0
100
AcDbBlockEnd
  0
BLOCK
  5
17482
330
17478
100
AcDbEntity
  8
0
 48
50.0
100
AcDbBlockBegin
  2
*D24
 70
     1
 10
0.0
 20
0.0
 30
0.0
  3
*D24
  1

  0
LINE
  5
176D3
330
17478
100
AcDbEntity
  8
寸法
 62
     0
 48
50.0
370
    -2
100
AcDbLine
 10
5031.923908814177
 20
1924.659483326425
 30
0.0
 11
4842.423905567539
 21
1924.659483326425
 31
0.0
  0
LINE
  5
176D4
330
17478
100
AcDbEntity
  8
寸法
 62
     0
 48
50.0
370
    -2
100
AcDbLine
 10
5006.923908814172
 20
2124.659483326425
 30
0.0
 11
4842.42390556754
 21
2124.659483326425
 31
0.0
  0
LINE
  5
176D5
330
17478
100
AcDbEntity
  8
寸法
 62
     0
 48
50.0
370
    -2
100
AcDbLine
 10
4902.423905567538
 20
1924.659483326425
 30
0.0
 11
4902.42390556754
 21
2124.659483326425
 31
0.0
  0
INSERT
  5
176D6
330
17478
100
AcDbEntity
  8
寸法
 62
     0
 48
50.0
370
    -2
100
AcDbBlockReference
  2
_DOTSMALL
 10
4902.423905567538
 20
1924.659483326425
 30
0.0
 41
100.0
 42
100.0
 43
100.0
 50
270.0
  0
INSERT
  5
176D7
330
17478
100
AcDbEntity
  8
寸法
 62
     0
 48
50.0
370
    -2
100
AcDbBlockReference
  2
_DOTSMALL
 10
4902.42390556754
 20
2124.659483326425
 30
0.0
 41
100.0
 42
100.0
 43
100.0
 50
90.0
  0
MTEXT
  5
176D8
330
17478
100
AcDbEntity
  8
寸法
 62
     7
 48
50.0
100
AcDbMText
 10
4802.412094543917
 20
2024.659483326426
 30
0.0
 40
120.0
 41
0.0
 71
     5
 72
     1
  1
\A1;200
  7
STYLE1
 11
0.0000000000000001
 21
1.0
 31
0.0
 73
     1
 44
1.0
1001
ACAD
1000
MTEXTBEGIN
1070
    73
1070
     1
1070
    44
1040
1.0
1070
    74
1070
     0
1000
MTEXTEND
  0
POINT
  5
176D9
330
17478
100
AcDbEntity
  8
DEFPOINTS
 62
     0
 48
50.0
100
AcDbPoint
 10
5051.923908814177
 20
1924.659483326425
 30
0.0
  0
POINT
  5
176DA
330
17478
100
AcDbEntity
  8
DEFPOINTS
 62
     0
 48
50.0
100
AcDbPoint
 10
5026.923908814173
 20
2124.659483326425
 30
0.0
  0
POINT
  5
176DB
330
17478
100
AcDbEntity
  8
DEFPOINTS
 62
     0
 48
50.0
100
AcDbPoint
 10
4902.42390556754
 20
2124.659483326425
 30
0.0
  0
ENDBLK
  5
17483
330
17478
100
AcDbEntity
  8
0
 48
50.0
100
AcDbBlockEnd
  0
BLOCK
  5
1748E
330
17484
100
AcDbEntity
  8
0
 48
50.0
100
AcDbBlockBegin
  2
*D25
 70
     1
 10
0.0
 20
0.0
 30
0.0
  3
*D25
  1

  0
LINE
  5
176CA
330
17484
100
AcDbEntity
  8
寸法
 62
     0
 48
50.0
370
    -2
100
AcDbLine
 10
5251.923908814173
 20
1904.659483326423
 30
0.0
 11
5251.923908814173
 21
1578.612154026047
 31
0.0
  0
LINE
  5
176CB
330
17484
100
AcDbEntity
  8
寸法
 62
     0
 48
50.0
370
    -2
100
AcDbLine
 10
5051.923908814177
 20
1904.659483326425
 30
0.0
 11
5051.923908814177
 21
1578.612154026047
 31
0.0
  0
LINE
  5
176CC
330
17484
100
AcDbEntity
  8
寸法
 62
     0
 48
50.0
370
    -2
100
AcDbLine
 10
5251.923908814173
 20
1638.612154026047
 30
0.0
 11
5051.923908814177
 21
1638.612154026047
 31
0.0
  0
INSERT
  5
176CD
330
17484
100
AcDbEntity
  8
寸法
 62
     0
 48
50.0
370
    -2
100
AcDbBlockReference
  2
_DOTSMALL
 10
5251.923908814173
 20
1638.612154026047
 30
0.0
 41
100.0
 42
100.0
 43
100.0
  0
INSERT
  5
176CE
330
17484
100
AcDbEntity
  8
寸法
 62
     0
 48
50.0
370
    -2
100
AcDbBlockReference
  2
_DOTSMALL
 10
5051.923908814177
 20
1638.612154026047
 30
0.0
 41
100.0
 42
100.0
 43
100.0
 50
180.0
  0
MTEXT
  5
176CF
330
17484
100
AcDbEntity
  8
寸法
 62
     7
 48
50.0
100
AcDbMText
 10
5151.923908814175
 20
1738.623965049669
 30
0.0
 40
120.0
 41
0.0
 71
     5
 72
     1
  1
\A1;200
  7
STYLE1
 73
     1
 44
1.0
1001
ACAD
1000
MTEXTBEGIN
1070
    73
1070
     1
1070
    44
1040
1.0
1070
    74
1070
     0
1000
MTEXTEND
  0
POINT
  5
176D0
330
17484
100
AcDbEntity
  8
DEFPOINTS
 62
     0
 48
50.0
100
AcDbPoint
 10
5251.923908814173
 20
1924.659483326423
 30
0.0
  0
POINT
  5
176D1
330
17484
100
AcDbEntity
  8
DEFPOINTS
 62
     0
 48
50.0
100
AcDbPoint
 10
5051.923908814177
 20
1924.659483326425
 30
0.0
  0
POINT
  5
176D2
330
17484
100
AcDbEntity
  8
DEFPOINTS
 62
     0
 48
50.0
100
AcDbPoint
 10
5051.923908814177
 20
1638.612154026047
 30
0.0
  0
ENDBLK
  5
1748F
330
17484
100
AcDbEntity
  8
0
 48
50.0
100
AcDbBlockEnd
  0
BLOCK
  5
1758F
330
17585
100
AcDbEntity
  8
0
 48
50.0
100
AcDbBlockBegin
  2
*D26
 70
     1
 10
0.0
 20
0.0
 30
0.0
  3
*D26
  1

  0
LINE
  5
176AD
330
17585
100
AcDbEntity
  8
寸法
 62
     0
 48
50.0
370
    -2
100
AcDbLine
 10
7334.423908814175
 20
4319.659483326431
 30
0.0
 11
7334.423908814175
 21
4764.279742753698
 31
0.0
  0
LINE
  5
176AE
330
17585
100
AcDbEntity
  8
寸法
 62
     0
 48
50.0
370
    -2
100
AcDbLine
 10
5124.423908814173
 20
4319.659483326431
 30
0.0
 11
5124.423908814173
 21
4764.279742753698
 31
0.0
  0
LINE
  5
176AF
330
17585
100
AcDbEntity
  8
寸法
 62
     0
 48
50.0
370
    -2
100
AcDbLine
 10
7334.423908814175
 20
4704.279742753698
 30
0.0
 11
5124.423908814173
 21
4704.279742753698
 31
0.0
  0
INSERT
  5
176B0
330
17585
100
AcDbEntity
  8
寸法
 62
     0
 48
50.0
370
    -2
100
AcDbBlockReference
  2
_DOTSMALL
 10
7334.423908814175
 20
4704.279742753698
 30
0.0
 41
100.0
 42
100.0
 43
100.0
  0
INSERT
  5
176B1
330
17585
100
AcDbEntity
  8
寸法
 62
     0
 48
50.0
370
    -2
100
AcDbBlockReference
  2
_DOTSMALL
 10
5124.423908814173
 20
4704.279742753698
 30
0.0
 41
100.0
 42
100.0
 43
100.0
 50
180.0
  0
MTEXT
  5
176B2
330
17585
100
AcDbEntity
  8
寸法
 62
     7
 48
50.0
100
AcDbMText
 10
6229.423908814172
 20
4804.29155377732
 30
0.0
 40
120.0
 41
0.0
 71
     5
 72
     1
  1
\A1;柱外寸法2210
  7
STYLE1
 73
     1
 44
1.0
1001
ACAD
1000
MTEXTBEGIN
1070
    73
1070
     1
1070
    44
1040
1.0
1070
    74
1070
     0
1000
MTEXTEND
  0
POINT
  5
176B3
330
17585
100
AcDbEntity
  8
DEFPOINTS
 62
     0
 48
50.0
100
AcDbPoint
 10
7334.423908814175
 20
4299.659483326431
 30
0.0
  0
POINT
  5
176B4
330
17585
100
AcDbEntity
  8
DEFPOINTS
 62
     0
 48
50.0
100
AcDbPoint
 10
5124.423908814173
 20
4299.659483326432
 30
0.0
  0
POINT
  5
176B5
330
17585
100
AcDbEntity
  8
DEFPOINTS
 62
     0
 48
50.0
100
AcDbPoint
 10
5124.423908814173
 20
4704.279742753698
 30
0.0
  0
ENDBLK
  5
17590
330
17585
100
AcDbEntity
  8
0
 48
50.0
100
AcDbBlockEnd
  0
BLOCK
  5
1759D
330
17591
100
AcDbEntity
  8
0
 48
50.0
100
AcDbBlockBegin
  2
*D27
 70
     1
 10
0.0
 20
0.0
 30
0.0
  3
*D27
  1

  0
LINE
  5
176B6
330
17591
100
AcDbEntity
  8
寸法
 62
     0
 48
50.0
370
    -2
100
AcDbLine
 10
5124.423908814173
 20
4319.659483326431
 30
0.0
 11
5124.423908814173
 21
4764.279742753698
 31
0.0
  0
LINE
  5
176B7
330
17591
100
AcDbEntity
  8
寸法
 62
     0
 48
50.0
370
    -2
100
AcDbLine
 10
5074.423908814173
 20
4319.659483326431
 30
0.0
 11
5074.423908814173
 21
4764.279742753698
 31
0.0
  0
LINE
  5
176B8
330
17591
100
AcDbEntity
  8
寸法
 62
     0
 48
50.0
370
    -2
100
AcDbLine
 10
5124.423908814173
 20
4704.279742753698
 30
0.0
 11
5224.423908814173
 21
4704.279742753698
 31
0.0
  0
LINE
  5
176B9
330
17591
100
AcDbEntity
  8
寸法
 62
     0
 48
50.0
370
    -2
100
AcDbLine
 10
5074.423908814173
 20
4704.279742753698
 30
0.0
 11
4654.891383345438
 21
4704.279742753698
 31
0.0
  0
LINE
  5
176BA
330
17591
100
AcDbEntity
  8
寸法
 62
     0
 48
50.0
370
    -2
100
AcDbLine
 10
5124.423908814173
 20
4704.279742753698
 30
0.0
 11
5074.423908814173
 21
4704.279742753698
 31
0.0
  0
INSERT
  5
176BB
330
17591
100
AcDbEntity
  8
寸法
 62
     0
 48
50.0
370
    -2
100
AcDbBlockReference
  2
_DOTSMALL
 10
5124.423908814173
 20
4704.279742753698
 30
0.0
 41
100.0
 42
100.0
 43
100.0
 50
180.0
  0
INSERT
  5
176BC
330
17591
100
AcDbEntity
  8
寸法
 62
     0
 48
50.0
370
    -2
100
AcDbBlockReference
  2
_DOTSMALL
 10
5074.423908814173
 20
4704.279742753698
 30
0.0
 41
100.0
 42
100.0
 43
100.0
  0
MTEXT
  5
176BD
330
17591
100
AcDbEntity
  8
寸法
 62
     7
 48
50.0
100
AcDbMText
 10
4760.938627439926
 20
4804.279742753698
 30
0.0
 40
120.0
 41
0.0
 71
     5
 72
     1
  1
\A1;50
  7
STYLE1
 73
     1
 44
1.0
1001
ACAD
1000
MTEXTBEGIN
1070
    73
1070
     1
1070
    44
1040
1.0
1070
    74
1070
     0
1000
MTEXTEND
  0
POINT
  5
176BE
330
17591
100
AcDbEntity
  8
DEFPOINTS
 62
     0
 48
50.0
100
AcDbPoint
 10
5124.423908814173
 20
4299.659483326432
 30
0.0
  0
POINT
  5
176BF
330
17591
100
AcDbEntity
  8
DEFPOINTS
 62
     0
 48
50.0
100
AcDbPoint
 10
5074.423908814173
 20
4299.659483326431
 30
0.0
  0
POINT
  5
176C0
330
17591
100
AcDbEntity
  8
DEFPOINTS
 62
     0
 48
50.0
100
AcDbPoint
 10
5074.423908814173
 20
4704.279742753698
 30
0.0
  0
ENDBLK
  5
1759E
330
17591
100
AcDbEntity
  8
0
 48
50.0
100
AcDbBlockEnd
  0
BLOCK
  5
175B7
330
175AD
100
AcDbEntity
  8
0
 48
50.0
100
AcDbBlockBegin
  2
*D28
 70
     1
 10
0.0
 20
0.0
 30
0.0
  3
*D28
  1

  0
LINE
  5
176C1
330
175AD
100
AcDbEntity
  8
寸法
 62
     0
 48
50.0
370
    -2
100
AcDbLine
 10
5074.423908814173
 20
4319.659483326431
 30
0.0
 11
5074.423908814173
 21
4973.873617175149
 31
0.0
  0
LINE
  5
176C2
330
175AD
100
AcDbEntity
  8
寸法
 62
     0
 48
50.0
370
    -2
100
AcDbLine
 10
7384.423908814174
 20
4319.659483326428
 30
0.0
 11
7384.423908814174
 21
4973.873617175149
 31
0.0
  0
LINE
  5
176C3
330
175AD
100
AcDbEntity
  8
寸法
 62
     0
 48
50.0
370
    -2
100
AcDbLine
 10
5074.423908814173
 20
4913.873617175148
 30
0.0
 11
7384.423908814174
 21
4913.873617175148
 31
0.0
  0
INSERT
  5
176C4
330
175AD
100
AcDbEntity
  8
寸法
 62
     0
 48
50.0
370
    -2
100
AcDbBlockReference
  2
_DOTSMALL
 10
5074.423908814173
 20
4913.873617175148
 30
0.0
 41
100.0
 42
100.0
 43
100.0
 50
180.0
  0
INSERT
  5
176C5
330
175AD
100
AcDbEntity
  8
寸法
 62
     0
 48
50.0
370
    -2
100
AcDbBlockReference
  2
_DOTSMALL
 10
7384.423908814174
 20
4913.873617175148
 30
0.0
 41
100.0
 42
100.0
 43
100.0
  0
MTEXT
  5
176C6
330
175AD
100
AcDbEntity
  8
寸法
 62
     7
 48
50.0
100
AcDbMText
 10
6229.423908814172
 20
5013.88542819877
 30
0.0
 40
120.0
 41
0.0
 71
     5
 72
     1
  1
\A1;2310
  7
STYLE1
 73
     1
 44
1.0
1001
ACAD
1000
MTEXTBEGIN
1070
    73
1070
     1
1070
    44
1040
1.0
1070
    74
1070
     0
1000
MTEXTEND
  0
POINT
  5
176C7
330
175AD
100
AcDbEntity
  8
DEFPOINTS
 62
     0
 48
50.0
100
AcDbPoint
 10
5074.423908814173
 20
4299.659483326431
 30
0.0
  0
POINT
  5
176C8
330
175AD
100
AcDbEntity
  8
DEFPOINTS
 62
     0
 48
50.0
100
AcDbPoint
 10
7384.423908814174
 20
4299.659483326428
 30
0.0
  0
POINT
  5
176C9
330
175AD
100
AcDbEntity
  8
DEFPOINTS
 62
     0
 48
50.0
100
AcDbPoint
 10
7384.423908814174
 20
4913.873617175148
 30
0.0
  0
ENDBLK
  5
175B8
330
175AD
100
AcDbEntity
  8
0
 48
50.0
100
AcDbBlockEnd
  0
BLOCK
  5
175F8
330
175EC
100
AcDbEntity
  8
0
 48
50.0
100
AcDbBlockBegin
  2
*D29
 70
     1
 10
0.0
 20
0.0
 30
0.0
  3
*D29
  1

  0
LINE
  5
176A2
330
175EC
100
AcDbEntity
  8
寸法
 62
     0
 48
50.0
370
    -2
100
AcDbLine
 10
7384.423908814174
 20
4319.659483326428
 30
0.0
 11
7384.423908814174
 21
4764.279742753698
 31
0.0
  0
LINE
  5
176A3
330
175EC
100
AcDbEntity
  8
寸法
 62
     0
 48
50.0
370
    -2
100
AcDbLine
 10
7334.423908814175
 20
4319.659483326431
 30
0.0
 11
7334.423908814175
 21
4764.279742753698
 31
0.0
  0
LINE
  5
176A4
330
175EC
100
AcDbEntity
  8
寸法
 62
     0
 48
50.0
370
    -2
100
AcDbLine
 10
7334.423908814175
 20
4704.279742753698
 30
0.0
 11
7234.423908814175
 21
4704.279742753698
 31
0.0
  0
LINE
  5
176A5
330
175EC
100
AcDbEntity
  8
寸法
 62
     0
 48
50.0
370
    -2
100
AcDbLine
 10
7384.423908814174
 20
4704.279742753698
 30
0.0
 11
7803.956434282899
 21
4704.279742753698
 31
0.0
  0
LINE
  5
176A6
330
175EC
100
AcDbEntity
  8
寸法
 62
     0
 48
50.0
370
    -2
100
AcDbLine
 10
7334.423908814175
 20
4704.279742753698
 30
0.0
 11
7384.423908814174
 21
4704.279742753698
 31
0.0
  0
INSERT
  5
176A7
330
175EC
100
AcDbEntity
  8
寸法
 62
     0
 48
50.0
370
    -2
100
AcDbBlockReference
  2
_DOTSMALL
 10
7334.423908814175
 20
4704.279742753698
 30
0.0
 41
100.0
 42
100.0
 43
100.0
  0
INSERT
  5
176A8
330
175EC
100
AcDbEntity
  8
寸法
 62
     0
 48
50.0
370
    -2
100
AcDbBlockReference
  2
_DOTSMALL
 10
7384.423908814174
 20
4704.279742753698
 30
0.0
 41
100.0
 42
100.0
 43
100.0
 50
180.0
  0
MTEXT
  5
176A9
330
175EC
100
AcDbEntity
  8
寸法
 62
     7
 48
50.0
100
AcDbMText
 10
7697.909190188411
 20
4804.279742753698
 30
0.0
 40
120.0
 41
0.0
 71
     5
 72
     1
  1
\A1;50
  7
STYLE1
 73
     1
 44
1.0
1001
ACAD
1000
MTEXTBEGIN
1070
    73
1070
     1
1070
    44
1040
1.0
1070
    74
1070
     0
1000
MTEXTEND
  0
POINT
  5
176AA
330
175EC
100
AcDbEntity
  8
DEFPOINTS
 62
     0
 48
50.0
100
AcDbPoint
 10
7384.423908814174
 20
4299.659483326428
 30
0.0
  0
POINT
  5
176AB
330
175EC
100
AcDbEntity
  8
DEFPOINTS
 62
     0
 48
50.0
100
AcDbPoint
 10
7334.423908814175
 20
4299.659483326431
 30
0.0
  0
POINT
  5
176AC
330
175EC
100
AcDbEntity
  8
DEFPOINTS
 62
     0
 48
50.0
100
AcDbPoint
 10
7334.423908814175
 20
4704.279742753698
 30
0.0
  0
ENDBLK
  5
175F9
330
175EC
100
AcDbEntity
  8
0
 48
50.0
100
AcDbBlockEnd
  0
BLOCK
  5
1793E
330
17934
100
AcDbEntity
  8
0
 48
50.0
100
AcDbBlockBegin
  2
*D30
 70
     1
 10
0.0
 20
0.0
 30
0.0
  3
*D30
  1

  0
LINE
  5
17D8B
330
17934
100
AcDbEntity
  8
寸法
 62
     0
 48
50.0
370
    -2
100
AcDbLine
 10
9503.520938151325
 20
7120.942606142404
 30
0.0
 11
9503.520938151325
 21
6476.813231445101
 31
0.0
  0
LINE
  5
17D8C
330
17934
100
AcDbEntity
  8
寸法
 62
     0
 48
50.0
370
    -2
100
AcDbLine
 10
10177.52093815132
 20
7120.942606142404
 30
0.0
 11
10177.52093815132
 21
6476.813231445101
 31
0.0
  0
LINE
  5
17D8D
330
17934
100
AcDbEntity
  8
寸法
 62
     0
 48
50.0
370
    -2
100
AcDbLine
 10
9523.520938151326
 20
6516.813231445102
 30
0.0
 11
10157.52093815132
 21
6516.813231445102
 31
0.0
  0
INSERT
  5
17D8E
330
17934
100
AcDbEntity
  8
寸法
 62
     0
 48
50.0
370
    -2
100
AcDbBlockReference
  2
_DOT
 10
9503.520938151325
 20
6516.813231445102
 30
0.0
 41
20.0
 42
20.0
 43
20.0
 50
180.0
  0
INSERT
  5
17D8F
330
17934
100
AcDbEntity
  8
寸法
 62
     0
 48
50.0
370
    -2
100
AcDbBlockReference
  2
_DOT
 10
10177.52093815132
 20
6516.813231445102
 30
0.0
 41
20.0
 42
20.0
 43
20.0
  0
MTEXT
  5
17D90
330
17934
100
AcDbEntity
  8
寸法
 62
     7
 48
50.0
100
AcDbMText
 10
9840.520938151327
 20
6708.813231445102
 30
0.0
 40
120.0
 41
0.0
 71
     5
 72
     1
  1
\A1;有効開口部間口\P674
  7
STYLE1
 73
     1
 44
1.0
1001
ACAD
1000
MTEXTBEGIN
1070
    73
1070
     1
1070
    44
1040
1.0
1070
    74
1070
     0
1000
MTEXTEND
  0
POINT
  5
17D91
330
17934
100
AcDbEntity
  8
DEFPOINTS
 62
     0
 48
50.0
100
AcDbPoint
 10
9503.520938151325
 20
7140.942606142404
 30
0.0
  0
POINT
  5
17D92
330
17934
100
AcDbEntity
  8
DEFPOINTS
 62
     0
 48
50.0
100
AcDbPoint
 10
10177.52093815132
 20
7140.942606142404
 30
0.0
  0
POINT
  5
17D93
330
17934
100
AcDbEntity
  8
DEFPOINTS
 62
     0
 48
50.0
100
AcDbPoint
 10
10177.52093815132
 20
6516.813231445102
 30
0.0
  0
ENDBLK
  5
1793F
330
17934
100
AcDbEntity
  8
0
 48
50.0
100
AcDbBlockEnd
  0
BLOCK
  5
17C21
330
17C17
100
AcDbEntity
  8
0
 48
50.0
100
AcDbBlockBegin
  2
*D31
 70
     1
 10
0.0
 20
0.0
 30
0.0
  3
*D31
  1

  0
LINE
  5
17D82
330
17C17
100
AcDbEntity
  8
寸法
 62
     0
 48
50.0
370
    -2
100
AcDbLine
 10
9464.520938151222
 20
7120.942606142403
 30
0.0
 11
9464.520938151222
 21
6230.330742138311
 31
0.0
  0
LINE
  5
17D83
330
17C17
100
AcDbEntity
  8
寸法
 62
     0
 48
50.0
370
    -2
100
AcDbLine
 10
10778.52093815122
 20
7120.942606142403
 30
0.0
 11
10778.52093815122
 21
6230.330742138311
 31
0.0
  0
LINE
  5
17D84
330
17C17
100
AcDbEntity
  8
寸法
 62
     0
 48
50.0
370
    -2
100
AcDbLine
 10
9464.520938151222
 20
6290.33074213831
 30
0.0
 11
10778.52093815122
 21
6290.33074213831
 31
0.0
  0
INSERT
  5
17D85
330
17C17
100
AcDbEntity
  8
寸法
 62
     0
 48
50.0
370
    -2
100
AcDbBlockReference
  2
_DOTSMALL
 10
9464.520938151222
 20
6290.33074213831
 30
0.0
 41
100.0
 42
100.0
 43
100.0
 50
180.0
  0
INSERT
  5
17D86
330
17C17
100
AcDbEntity
  8
寸法
 62
     0
 48
50.0
370
    -2
100
AcDbBlockReference
  2
_DOTSMALL
 10
10778.52093815122
 20
6290.33074213831
 30
0.0
 41
100.0
 42
100.0
 43
100.0
  0
MTEXT
  5
17D87
330
17C17
100
AcDbEntity
  8
寸法
 62
     7
 48
50.0
100
AcDbMText
 10
10121.52093815122
 20
6390.33074213831
 30
0.0
 40
120.0
 41
0.0
 71
     5
 72
     1
  1
\A1;1314
  7
STYLE1
 73
     1
 44
1.0
1001
ACAD
1000
MTEXTBEGIN
1070
    73
1070
     1
1070
    44
1040
1.0
1070
    74
1070
     0
1000
MTEXTEND
  0
POINT
  5
17D88
330
17C17
100
AcDbEntity
  8
DEFPOINTS
 62
     0
 48
50.0
100
AcDbPoint
 10
9464.520938151222
 20
7140.942606142402
 30
0.0
  0
POINT
  5
17D89
330
17C17
100
AcDbEntity
  8
DEFPOINTS
 62
     0
 48
50.0
100
AcDbPoint
 10
10778.52093815122
 20
7140.942606142402
 30
0.0
  0
POINT
  5
17D8A
330
17C17
100
AcDbEntity
  8
DEFPOINTS
 62
     0
 48
50.0
100
AcDbPoint
 10
10778.52093815122
 20
6290.33074213831
 30
0.0
  0
ENDBLK
  5
17C22
330
17C17
100
AcDbEntity
  8
0
 48
50.0
100
AcDbBlockEnd
  0
BLOCK
  5
17C3B
330
17C2F
100
AcDbEntity
  8
0
 48
50.0
100
AcDbBlockBegin
  2
*D32
 70
     1
 10
0.0
 20
0.0
 30
0.0
  3
*D32
  1

  0
LINE
  5
17D77
330
17C2F
100
AcDbEntity
  8
寸法
 62
     0
 48
50.0
370
    -2
100
AcDbLine
 10
9416.520938151245
 20
7217.942606142402
 30
0.0
 11
9101.909692524529
 21
7217.942606142402
 31
0.0
  0
LINE
  5
17D78
330
17C2F
100
AcDbEntity
  8
寸法
 62
     0
 48
50.0
370
    -2
100
AcDbLine
 10
9444.520938151223
 20
7142.942606142402
 30
0.0
 11
9101.909692524529
 21
7142.942606142402
 31
0.0
  0
LINE
  5
17D79
330
17C2F
100
AcDbEntity
  8
寸法
 62
     0
 48
50.0
370
    -2
100
AcDbLine
 10
9141.909692524528
 20
7237.942606142403
 30
0.0
 11
9141.909692524528
 21
7257.942606142403
 31
0.0
  0
LINE
  5
17D7A
330
17C2F
100
AcDbEntity
  8
寸法
 62
     0
 48
50.0
370
    -2
100
AcDbLine
 10
9141.909692524528
 20
7122.942606142403
 30
0.0
 11
9141.909692524528
 21
6901.972043393924
 31
0.0
  0
LINE
  5
17D7B
330
17C2F
100
AcDbEntity
  8
寸法
 62
     0
 48
50.0
370
    -2
100
AcDbLine
 10
9141.909692524528
 20
7217.942606142402
 30
0.0
 11
9141.909692524528
 21
7142.942606142402
 31
0.0
  0
INSERT
  5
17D7C
330
17C2F
100
AcDbEntity
  8
寸法
 62
     0
 48
50.0
370
    -2
100
AcDbBlockReference
  2
_DOT
 10
9141.909692524528
 20
7217.942606142402
 30
0.0
 41
20.0
 42
20.0
 43
20.0
 50
270.0
  0
INSERT
  5
17D7D
330
17C2F
100
AcDbEntity
  8
寸法
 62
     0
 48
50.0
370
    -2
100
AcDbBlockReference
  2
_DOT
 10
9141.909692524528
 20
7142.942606142402
 30
0.0
 41
20.0
 42
20.0
 43
20.0
 50
90.0
  0
MTEXT
  5
17D7E
330
17C2F
100
AcDbEntity
  8
寸法
 62
     7
 48
50.0
100
AcDbMText
 10
9049.909692524527
 20
7002.457324768164
 30
0.0
 40
120.0
 41
0.0
 71
     5
 72
     1
  1
\A1;75
  7
STYLE1
 11
0.0000000000000001
 21
1.0
 31
0.0
 73
     1
 44
1.0
1001
ACAD
1000
MTEXTBEGIN
1070
    73
1070
     1
1070
    44
1040
1.0
1070
    74
1070
     0
1000
MTEXTEND
  0
POINT
  5
17D7F
330
17C2F
100
AcDbEntity
  8
DEFPOINTS
 62
     0
 48
50.0
100
AcDbPoint
 10
9436.520938151245
 20
7217.942606142402
 30
0.0
  0
POINT
  5
17D80
330
17C2F
100
AcDbEntity
  8
DEFPOINTS
 62
     0
 48
50.0
100
AcDbPoint
 10
9464.520938151222
 20
7142.942606142402
 30
0.0
  0
POINT
  5
17D81
330
17C2F
100
AcDbEntity
  8
DEFPOINTS
 62
     0
 48
50.0
100
AcDbPoint
 10
9141.909692524528
 20
7142.942606142402
 30
0.0
  0
ENDBLK
  5
17C3C
330
17C2F
100
AcDbEntity
  8
0
 48
50.0
100
AcDbBlockEnd
  0
BLOCK
  5
17C47
330
17C3D
100
AcDbEntity
  8
0
 48
50.0
100
AcDbBlockBegin
  2
*D33
 70
     1
 10
0.0
 20
0.0
 30
0.0
  3
*D33
  1

  0
LINE
  5
17D6E
330
17C3D
100
AcDbEntity
  8
寸法
 62
     0
 48
50.0
370
    -2
100
AcDbLine
 10
9436.520938151245
 20
7197.942606142416
 30
0.0
 11
9436.520938151245
 21
5996.253778428584
 31
0.0
  0
LINE
  5
17D6F
330
17C3D
100
AcDbEntity
  8
寸法
 62
     0
 48
50.0
370
    -2
100
AcDbLine
 10
10806.52093815132
 20
7197.942606142389
 30
0.0
 11
10806.52093815132
 21
5996.253778428584
 31
0.0
  0
LINE
  5
17D70
330
17C3D
100
AcDbEntity
  8
寸法
 62
     0
 48
50.0
370
    -2
100
AcDbLine
 10
9436.520938151245
 20
6056.253778428585
 30
0.0
 11
10806.52093815132
 21
6056.253778428585
 31
0.0
  0
INSERT
  5
17D71
330
17C3D
100
AcDbEntity
  8
寸法
 62
     0
 48
50.0
370
    -2
100
AcDbBlockReference
  2
_DOTSMALL
 10
9436.520938151245
 20
6056.253778428585
 30
0.0
 41
100.0
 42
100.0
 43
100.0
 50
180.0
  0
INSERT
  5
17D72
330
17C3D
100
AcDbEntity
  8
寸法
 62
     0
 48
50.0
370
    -2
100
AcDbBlockReference
  2
_DOTSMALL
 10
10806.52093815132
 20
6056.253778428585
 30
0.0
 41
100.0
 42
100.0
 43
100.0
  0
MTEXT
  5
17D73
330
17C3D
100
AcDbEntity
  8
寸法
 62
     7
 48
50.0
100
AcDbMText
 10
10118.94292291173
 20
6156.253778428585
 30
0.0
 40
120.0
 41
0.0
 71
     5
 72
     1
  1
\A1;1370
  7
STYLE1
 73
     1
 44
1.0
1001
ACAD
1000
MTEXTBEGIN
1070
    73
1070
     1
1070
    44
1040
1.0
1070
    74
1070
     0
1000
MTEXTEND
  0
POINT
  5
17D74
330
17C3D
100
AcDbEntity
  8
DEFPOINTS
 62
     0
 48
50.0
100
AcDbPoint
 10
9436.520938151245
 20
7217.942606142415
 30
0.0
  0
POINT
  5
17D75
330
17C3D
100
AcDbEntity
  8
DEFPOINTS
 62
     0
 48
50.0
100
AcDbPoint
 10
10806.52093815132
 20
7217.94260614239
 30
0.0
  0
POINT
  5
17D76
330
17C3D
100
AcDbEntity
  8
DEFPOINTS
 62
     0
 48
50.0
100
AcDbPoint
 10
10806.52093815132
 20
6056.253778428585
 30
0.0
  0
ENDBLK
  5
17C48
330
17C3D
100
AcDbEntity
  8
0
 48
50.0
100
AcDbBlockEnd
  0
ENDSEC
  0
SECTION
  2
ENTITIES
  0
LINE
  5
10B57
330
747D
100
AcDbEntity
  8
補助
  6
PHANTOM
 62
   230
 48
50.0
100
AcDbLine
 10
139.9999999999995
 20
11409.6
 30
0.0
 11
16307.2
 21
11409.6
 31
0.0
  0
LINE
  5
10B59
330
747D
100
AcDbEntity
  8
仕様書枠
  6
Continuous
 48
50.0
100
AcDbLine
 10
13107.2
 20
1200.0
 30
0.0
 11
13107.2
 21
-0.0000000000000729
 31
0.0
  0
LINE
  5
10B5C
330
747D
100
AcDbEntity
  8
仕様書枠
 48
50.0
100
AcDbLine
 10
16307.2
 20
1200.0
 30
0.0
 11
16307.2
 21
-0.0000000000000909
 31
0.0
  0
LINE
  5
10B5D
330
747D
100
AcDbEntity
  8
仕様書枠
 48
50.0
100
AcDbLine
 10
140.0
 20
0.0
 30
0.0
 11
16307.2
 21
-0.0000000000000909
 31
0.0
  0
LINE
  5
10B5E
330
747D
100
AcDbEntity
  8
補助
  6
PHANTOM
 62
   230
 48
50.0
100
AcDbLine
 10
16307.2
 20
11409.6
 30
0.0
 11
16307.2
 21
1200.0
 31
0.0
  0
LINE
  5
10B6C
330
747D
100
AcDbEntity
  8
仕様書枠
 48
50.0
100
AcDbLine
 10
13107.2
 20
1200.0
 30
0.0
 11
16307.2
 21
1200.0
 31
0.0
  0
LINE
  5
10B6D
330
747D
100
AcDbEntity
  8
補助
  6
PHANTOM
 62
   230
 48
50.0
100
AcDbLine
 10
13107.2
 20
11409.6
 30
0.0
 11
13107.2
 21
4800.0
 31
0.0
  0
LINE
  5
10B6F
330
747D
100
AcDbEntity
  8
補助
  6
PHANTOM
 62
   230
 48
50.0
100
AcDbLine
 10
13107.2
 20
4800.0
 30
0.0
 11
16307.2
 21
4800.0
 31
0.0
  0
LINE
  5
10B72
330
747D
100
AcDbEntity
  8
文字
 62
     7
 48
50.0
100
AcDbLine
 10
13187.2
 20
400.0
 30
0.0
 11
16227.2
 21
400.0
 31
0.0
  0
TEXT
  5
10B73
330
747D
100
AcDbEntity
  8
文字
 62
     7
 48
50.0
100
AcDbText
 10
13162.9790565769
 20
895.0906074299405
 30
0.0
 40
200.0
  1
外 形 図
  7
STYLE2
100
AcDbText
  0
TEXT
  5
10B74
330
747D
100
AcDbEntity
  8
文字
 62
     7
 48
50.0
100
AcDbText
 10
13201.43669998441
 20
477.2740661031255
 30
0.0
 40
160.0
  1
機種名
  7
STYLE2
100
AcDbText
  0
TEXT
  5
10B76
330
747D
100
AcDbEntity
  8
文字
 62
     7
 48
50.0
100
AcDbText
 10
13209.4053442172
 20
76.09434707649343
 30
0.0
 40
100.0
  1
○床面積 ： 3.13㎡(0.95坪) 　
  7
STYLE2
100
AcDbText
  0
TEXT
  5
10B79
330
747D
100
AcDbEntity
  8
文字
 62
     7
 48
50.0
100
AcDbText
 10
14524.131837222
 20
1031.557706291228
 30
0.0
 40
100.0
  1
NO.02      <縮尺> S=1/40
  7
STYLE2
100
AcDbText
  0
LINE
  5
10B7B
330
747D
100
AcDbEntity
  8
仕様書枠
 48
50.0
100
AcDbLine
 10
13107.2
 20
800.0
 30
0.0
 11
14251.2
 21
800.0
 31
0.0
  0
LINE
  5
10B88
330
747D
100
AcDbEntity
  8
仕様書枠
  6
Continuous
 48
50.0
100
AcDbLine
 10
14251.2
 20
1200.0
 30
0.0
 11
14251.2
 21
800.0
 31
0.0
  0
TEXT
  5
14D2F
330
747D
100
AcDbEntity
  8
文字
 62
     7
 48
50.0
100
AcDbText
 10
14644.07818602837
 20
876.4448062548634
 30
0.0
 40
100.0
  1
～一般型・多雪地型～
  7
STYLE2
100
AcDbText
  0
DIMENSION
  5
168E4
330
747D
100
AcDbEntity
  8
寸法
 48
50.0
100
AcDbDimension
  2
*D2
 10
9436.520938151435
 20
4698.31693690573
 30
0.0
 11
10086.33997104198
 21
4698.31693690573
 31
0.0
 70
   160
  1
柱外寸法<>
 71
     5
 42
1370.0
  3
INABA_S40G
100
AcDbAlignedDimension
 13
10806.52093815143
 23
4246.47016293808
 33
0.0
 14
9436.520938151435
 24
4295.661101449403
 34
0.0
100
AcDbRotatedDimension
1001
ACAD
1000
DSTYLE
1002
{
1070
   174
1070
     0
1070
   272
1070
     1
1070
   288
1070
     0
1070
   341
1005
0
1002
}
  0
DIMENSION
  5
168E5
330
747D
100
AcDbEntity
  8
寸法
 48
50.0
100
AcDbDimension
  2
*D3
 10
9376.520938151434
 20
4698.31693690573
 30
0.0
 11
9066.883142875843
 21
4698.31693690573
 31
0.0
 70
   160
 71
     5
 42
60.0
  3
INABA_S40G
100
AcDbAlignedDimension
 13
9436.520938151435
 23
4295.661101449403
 33
0.0
 14
9376.520938151434
 24
4299.659483326431
 34
0.0
100
AcDbRotatedDimension
1001
ACAD
1000
DSTYLE
1002
{
1070
   174
1070
     0
1070
   272
1070
     1
1070
   288
1070
     0
1070
   341
1005
0
1002
}
  0
DIMENSION
  5
168E6
330
747D
100
AcDbEntity
  8
寸法
 48
50.0
100
AcDbDimension
  2
*D4
 10
9376.520938151434
 20
4906.491258097695
 30
0.0
 11
10103.64576785325
 21
4906.491258097695
 31
0.0
 70
   160
 71
     5
 42
1510.0
  3
INABA_S40G
100
AcDbAlignedDimension
 13
10886.52093815143
 23
4244.659483326427
 33
0.0
 14
9376.520938151434
 24
4299.659483326431
 34
0.0
100
AcDbRotatedDimension
1001
ACAD
1000
DSTYLE
1002
{
1070
   174
1070
     0
1070
   272
1070
     1
1070
   288
1070
     0
1070
   341
1005
0
1002
}
  0
LINE
  5
168E7
330
747D
100
AcDbEntity
  8
部品1
100
AcDbLine
 10
9384.065924508396
 20
4298.377218660692
 30
0.0
 11
10879.13281501289
 21
4242.710324653992
 31
0.0
  0
LINE
  5
168E8
330
747D
100
AcDbEntity
  8
部品1
100
AcDbLine
 10
9391.863502753388
 20
4157.440508395393
 30
0.0
 11
10861.18463869127
 21
4117.822126779613
 31
0.0
  0
LINE
  5
168E9
330
747D
100
AcDbEntity
  8
細線
 48
50.0
100
AcDbLine
 10
9409.520938151434
 20
4297.059159701832
 30
0.0
 11
9404.231836595924
 21
4156.973527074477
 31
0.0
  0
LINE
  5
168EA
330
747D
100
AcDbEntity
  8
細線
 48
50.0
100
AcDbLine
 10
10853.52093815143
 20
4244.036505980147
 30
0.0
 11
10848.77325526343
 21
4118.290733489403
 31
0.0
  0
LINE
  5
168EB
330
747D
100
AcDbEntity
  8
部品1
 48
50.0
100
AcDbLine
 10
9376.705224064542
 20
4291.253029491119
 30
0.0
 11
9377.085483842353
 21
4271.326065044708
 31
0.0
  0
LINE
  5
168EC
330
747D
100
AcDbEntity
  8
部品1
 48
50.0
100
AcDbLine
 10
9380.154255948596
 20
4267.750783551234
 30
0.0
 11
9381.858157439962
 21
4178.460286844587
 31
0.0
  0
LINE
  5
168ED
330
747D
100
AcDbEntity
  8
細線
 48
50.0
100
AcDbLine
 10
9377.560361252246
 20
4270.676565167788
 30
0.0
 11
10883.19634599741
 21
4214.462404145386
 31
0.0
  0
LINE
  5
168EE
330
747D
100
AcDbEntity
  8
細線
 48
50.0
100
AcDbLine
 10
9382.320836489531
 20
4177.815053469923
 30
0.0
 11
10872.32450092017
 21
4137.415778113856
 31
0.0
  0
LINE
  5
168EF
330
747D
100
AcDbEntity
  8
部品1
 48
50.0
100
AcDbLine
 10
9384.926929546203
 20
4174.885005351116
 30
0.0
 11
9385.128882166638
 21
4164.301969958024
 31
0.0
  0
ARC
  5
168F0
330
747D
100
AcDbEntity
  8
部品1
 48
50.0
100
AcDbCircle
 10
9383.703949892879
 20
4291.386583898548
 30
0.0
 40
7.0
100
AcDbArc
 50
87.03587545283093
 51
181.0932240292895
  0
ARC
  5
168F1
330
747D
100
AcDbEntity
  8
部品1
 48
50.0
100
AcDbCircle
 10
9392.127607994975
 20
4164.435524365451
 30
0.0
 40
7.0
100
AcDbArc
 50
181.0932240292895
 51
267.8377559869492
  0
ARC
  5
168F2
330
747D
100
AcDbEntity
  8
部品1
100
AcDbCircle
 10
9381.927475619772
 20
4174.827767747933
 30
0.0
 40
3.0
100
AcDbArc
 50
1.093224029289586
 51
80.18775403148449
  0
ARC
  5
168F3
330
747D
100
AcDbEntity
  8
部品1
100
AcDbCircle
 10
9377.154802022166
 20
4267.693545948051
 30
0.0
 40
3.0
100
AcDbArc
 50
1.093224029289586
 51
80.18775403169431
  0
ARC
  5
168F4
330
747D
100
AcDbEntity
  8
部品1
100
AcDbCircle
 10
9377.78535642519
 20
4271.339420485449
 30
0.0
 40
0.7
100
AcDbArc
 50
181.0932240292375
 51
260.187754031489
  0
ARC
  5
168F5
330
747D
100
AcDbEntity
  8
部品1
100
AcDbCircle
 10
9382.558030022797
 20
4178.473642285331
 30
0.0
 40
0.7
100
AcDbArc
 50
181.0932240292375
 51
260.187754031489
  0
LINE
  5
168F6
330
747D
100
AcDbEntity
  8
部品1
 48
50.0
100
AcDbLine
 10
10885.73484096213
 20
4235.010679219071
 30
0.0
 11
10883.70421977116
 21
4215.06563796129
 31
0.0
  0
LINE
  5
168F7
330
747D
100
AcDbEntity
  8
部品1
 48
50.0
100
AcDbLine
 10
10880.35165328668
 20
4211.755003888382
 30
0.0
 11
10872.84487402184
 21
4138.022383143368
 31
0.0
  0
LINE
  5
168F8
330
747D
100
AcDbEntity
  8
部品1
 48
50.0
100
AcDbLine
 10
10869.49230753736
 20
4134.711749070457
 30
0.0
 11
10868.41274449762
 21
4124.108132076898
 31
0.0
  0
ARC
  5
168F9
330
747D
100
AcDbEntity
  8
部品1
 48
50.0
100
AcDbCircle
 10
10878.77084039738
 20
4235.719689891844
 30
0.0
 40
7.0
100
AcDbArc
 50
354.1866997665273
 51
87.03587545283093
  0
ARC
  5
168FA
330
747D
100
AcDbEntity
  8
部品1
 48
50.0
100
AcDbCircle
 10
10861.44874393286
 20
4124.817142749672
 30
0.0
 40
7.0
100
AcDbArc
 50
267.8377559869492
 51
354.1866997665273
  0
ARC
  5
168FB
330
747D
100
AcDbEntity
  8
部品1
100
AcDbCircle
 10
10872.47687920796
 20
4134.407887353553
 30
0.0
 40
3.0
100
AcDbArc
 50
95.0921697642102
 51
174.1866997665272
  0
ARC
  5
168FC
330
747D
100
AcDbEntity
  8
部品1
100
AcDbCircle
 10
10883.33622495729
 20
4211.451142171478
 30
0.0
 40
3.0
100
AcDbArc
 50
95.0921697642102
 51
174.1866997665272
  0
ARC
  5
168FD
330
747D
100
AcDbEntity
  8
部品1
100
AcDbCircle
 10
10883.00781971469
 20
4215.136539028568
 30
0.0
 40
0.7
100
AcDbArc
 50
275.0921697642102
 51
354.1866997665273
  0
ARC
  5
168FE
330
747D
100
AcDbEntity
  8
部品1
100
AcDbCircle
 10
10872.14847396537
 20
4138.093284210643
 30
0.0
 40
0.7
100
AcDbArc
 50
275.0921697642102
 51
354.1866997666828
  0
DIMENSION
  5
168FF
330
747D
100
AcDbEntity
  8
寸法
 48
50.0
100
AcDbDimension
  2
*D5
 10
10886.52093815143
 20
4698.31693690573
 30
0.0
 11
11092.56818224592
 21
4698.31693690573
 31
0.0
 70
   160
 71
     5
 42
80.0
  3
INABA_S40G
100
AcDbAlignedDimension
 13
10806.52093815143
 23
4246.47016293808
 33
0.0
 14
10886.52093815143
 24
4244.659483326427
 34
0.0
100
AcDbRotatedDimension
1001
ACAD
1000
DSTYLE
1002
{
1070
   174
1070
     0
1070
   272
1070
     1
1070
   288
1070
     0
1070
   341
1005
0
1002
}
  0
LINE
  5
16900
330
747D
100
AcDbEntity
  8
部品1
 48
50.0
100
AcDbLine
 10
9981.520938151435
 20
4430.527622427706
 30
0.0
 11
10281.52093815143
 21
4430.527622427706
 31
0.0
  0
LINE
  5
16901
330
747D
100
AcDbEntity
  8
部品1
 48
50.0
100
AcDbLine
 10
10281.52093815143
 20
4430.527622427706
 30
0.0
 11
10281.52093815143
 21
4408.927622427706
 31
0.0
  0
TEXT
  5
16902
330
747D
100
AcDbEntity
  8
部品1
 48
50.0
100
AcDbText
 10
9969.788773375162
 20
4466.411644580139
 30
0.0
 40
120.0
  1
1000
  7
STYLE1
100
AcDbText
  0
LINE
  5
16903
330
747D
100
AcDbEntity
  8
部品1
 48
50.0
100
AcDbLine
 10
9981.520938151435
 20
4430.527622427706
 30
0.0
 11
10281.52093815143
 21
4408.927622427706
 31
0.0
  0
TEXT
  5
16904
330
747D
100
AcDbEntity
  8
文字
 62
     7
 48
50.0
100
AcDbText
 10
13209.4053442172
 20
228.5435242569015
 30
0.0
 40
100.0
  1
○有効開口寸法 ： 674×1725(mm)
  7
STYLE2
100
AcDbText
  0
LINE
  5
16905
330
747D
100
AcDbEntity
  8
Ｇ．Ｌ
100
AcDbLine
 10
3973.193657719749
 20
2124.659483326425
 30
0.0
 11
11369.40476830726
 21
2124.659483326425
 31
0.0
  0
LINE
  5
16907
330
747D
100
AcDbEntity
  8
部品1
100
AcDbLine
 10
10806.52093815132
 20
7272.94260614239
 30
0.0
 11
10778.52093815132
 21
7272.94260614239
 31
0.0
  0
LINE
  5
16908
330
747D
100
AcDbEntity
  8
部品1
100
AcDbLine
 10
10806.52093815132
 20
7217.94260614239
 30
0.0
 11
10751.52093815132
 21
7217.94260614239
 31
0.0
  0
LINE
  5
16909
330
747D
100
AcDbEntity
  8
部品1
100
AcDbLine
 10
10806.52093815145
 20
9372.942606142423
 30
0.0
 11
10778.52093815145
 21
9372.942606142423
 31
0.0
  0
LINE
  5
1690A
330
747D
100
AcDbEntity
  8
部品1
100
AcDbLine
 10
10806.52093815147
 20
9372.942606142423
 30
0.0
 11
10778.52093815147
 21
9372.942606142423
 31
0.0
  0
LINE
  5
1690B
330
747D
100
AcDbEntity
  8
部品1
100
AcDbLine
 10
10806.52093815145
 20
9427.942606142424
 30
0.0
 11
9436.520938151442
 21
9427.9426061424
 31
0.0
  0
LINE
  5
1690C
330
747D
100
AcDbEntity
  8
部品1
100
AcDbLine
 10
10806.52093815147
 20
8532.94260614242
 30
0.0
 11
10778.52093815147
 21
8532.94260614242
 31
0.0
  0
LINE
  5
1690D
330
747D
100
AcDbEntity
  8
部品1
100
AcDbLine
 10
10806.52093815147
 20
8112.94260614242
 30
0.0
 11
10778.52093815147
 21
8112.94260614242
 31
0.0
  0
LINE
  5
1690E
330
747D
100
AcDbEntity
  8
部品1
100
AcDbLine
 10
10806.52093815147
 20
7692.942606142422
 30
0.0
 11
10778.52093815147
 21
7692.942606142422
 31
0.0
  0
LINE
  5
1690F
330
747D
100
AcDbEntity
  8
部品1
100
AcDbLine
 10
10806.52093815135
 20
7692.942606142422
 30
0.0
 11
10778.52093815135
 21
7692.942606142422
 31
0.0
  0
LINE
  5
16910
330
747D
100
AcDbEntity
  8
部品1
100
AcDbLine
 10
10806.52093815135
 20
7692.942606142422
 30
0.0
 11
10778.52093815135
 21
7692.942606142422
 31
0.0
  0
LINE
  5
16911
330
747D
100
AcDbEntity
  8
部品1
100
AcDbLine
 10
10806.52093815135
 20
7272.942606142422
 30
0.0
 11
10778.52093815135
 21
7272.942606142422
 31
0.0
  0
DIMENSION
  5
16912
330
747D
100
AcDbEntity
  8
寸法
100
AcDbDimension
  2
*D6
 10
9491.520938151436
 20
10075.36895187683
 30
0.0
 11
9128.035656777203
 21
10075.36895187683
 31
0.0
 70
   160
 71
     5
 42
54.99999999999636
  3
INABA_S40G
100
AcDbAlignedDimension
 13
9436.520938151442
 23
9427.942606142424
 33
0.0
 14
9491.520938151436
 24
9427.942606142424
 34
0.0
 50
180.0
100
AcDbRotatedDimension
1001
ACAD
1000
DSTYLE
1002
{
1002
}
  0
DIMENSION
  5
16913
330
747D
100
AcDbEntity
  8
寸法
100
AcDbDimension
  2
*D7
 10
10231.30312248256
 20
9754.80033200445
 30
0.0
 11
10456.30312248256
 21
9854.800332004449
 31
0.0
 70
    32
 71
     5
 42
449.9999999999982
  3
INABA_S40G
100
AcDbAlignedDimension
 13
10776.52093815145
 23
9399.442606142423
 33
0.0
 14
10326.52093815145
 24
9399.442606142423
 34
0.0
 50
180.0
100
AcDbRotatedDimension
1001
ACAD
1000
DSTYLE
1002
{
1002
}
  0
DIMENSION
  5
16914
330
747D
100
AcDbEntity
  8
寸法
100
AcDbDimension
  2
*D8
 10
10806.52093815145
 20
10075.36895187681
 30
0.0
 11
11184.38240505631
 21
10075.36895187681
 31
0.0
 70
   160
 71
     5
 42
54.99999999999636
  3
INABA_S40G
100
AcDbAlignedDimension
 13
10751.52093815145
 23
9427.9426061424
 33
0.0
 14
10806.52093815145
 24
9427.9426061424
 34
0.0
 50
180.0
100
AcDbRotatedDimension
1001
ACAD
1000
DSTYLE
1002
{
1002
}
  0
DIMENSION
  5
16915
330
747D
100
AcDbEntity
  8
寸法
100
AcDbDimension
  2
*D9
 10
10751.52093815145
 20
10075.36895187683
 30
0.0
 11
10121.52093815144
 21
10075.36895187683
 31
0.0
 70
   160
  1
3X420=<>
 71
     5
 42
1260.000000000016
  3
INABA_S40G
100
AcDbAlignedDimension
 13
9491.520938151436
 23
9427.942606142424
 33
0.0
 14
10751.52093815145
 24
9427.9426061424
 34
0.0
 50
180.0
100
AcDbRotatedDimension
1001
ACAD
1000
DSTYLE
1002
{
1002
}
  0
LINE
  5
16917
330
747D
100
AcDbEntity
  8
部品1
100
AcDbLine
 10
9464.52093815149
 20
9399.942606142399
 30
0.0
 11
9464.520938151391
 21
7245.942606142397
 31
0.0
  0
LINE
  5
16918
330
747D
100
AcDbEntity
  8
部品1
100
AcDbLine
 10
10326.52093815135
 20
7246.442606142422
 30
0.0
 11
10326.52093815146
 21
8099.442606142421
 31
0.0
  0
LINE
  5
16919
330
747D
100
AcDbEntity
  8
細線
 48
50.0
100
AcDbLine
 10
10776.52093815146
 20
8099.442606142421
 30
0.0
 11
10326.52093815135
 21
7246.442606142422
 31
0.0
  0
LINE
  5
1691A
330
747D
100
AcDbEntity
  8
細線
 48
50.0
100
AcDbLine
 10
10326.52093815146
 20
8099.442606142421
 30
0.0
 11
10776.52093815135
 21
7246.442606142422
 31
0.0
  0
LINE
  5
1691B
330
747D
100
AcDbEntity
  8
部品1
100
AcDbLine
 10
10776.52093815135
 20
7246.442606142422
 30
0.0
 11
10776.52093815146
 21
8099.442606142421
 31
0.0
  0
LINE
  5
1691C
330
747D
100
AcDbEntity
  8
部品1
100
AcDbLine
 10
10778.52093815147
 20
7272.942606142422
 30
0.0
 11
10778.52093815147
 21
8100.44260614242
 31
0.0
  0
LINE
  5
1691D
330
747D
100
AcDbEntity
  8
部品1
100
AcDbLine
 10
9436.520938151442
 20
9427.9426061424
 30
0.0
 11
9436.520938151346
 21
7217.942606142415
 31
0.0
  0
LINE
  5
1691E
330
747D
100
AcDbEntity
  8
部品1
100
AcDbLine
 10
9464.520938151476
 20
7245.942606142397
 30
0.0
 11
10778.52093815135
 21
7245.942606142422
 31
0.0
  0
LINE
  5
1691F
330
747D
100
AcDbEntity
  8
部品1
100
AcDbLine
 10
10778.52093815135
 20
7245.942606142422
 30
0.0
 11
10778.52093815136
 21
7692.942606142422
 31
0.0
  0
LINE
  5
16920
330
747D
100
AcDbEntity
  8
部品1
 48
50.0
100
AcDbLine
 10
10776.52093815135
 20
7246.442606142422
 30
0.0
 11
10326.52093815135
 21
7246.442606142422
 31
0.0
  0
LINE
  5
16921
330
747D
100
AcDbEntity
  8
部品1
100
AcDbLine
 10
10751.52093815132
 20
7245.942606142389
 30
0.0
 11
10751.52093815132
 21
7217.94260614239
 31
0.0
  0
LINE
  5
16922
330
747D
100
AcDbEntity
  8
部品1
100
AcDbLine
 10
10778.52093815145
 20
9399.942606142424
 30
0.0
 11
9464.52093815149
 21
9399.942606142399
 31
0.0
  0
LINE
  5
16923
330
747D
100
AcDbEntity
  8
部品1
100
AcDbLine
 10
9911.520938151454
 20
9399.942606142428
 30
0.0
 11
9911.520938151454
 21
9427.942606142428
 31
0.0
  0
LINE
  5
16924
330
747D
100
AcDbEntity
  8
部品1
100
AcDbLine
 10
10326.52093815146
 20
8126.44260614242
 30
0.0
 11
10326.52093815145
 21
9399.442606142423
 31
0.0
  0
LINE
  5
16925
330
747D
100
AcDbEntity
  8
細線
 48
50.0
100
AcDbLine
 10
10776.52093815145
 20
9399.442606142423
 30
0.0
 11
10326.52093815146
 21
8126.44260614242
 31
0.0
  0
LINE
  5
16926
330
747D
100
AcDbEntity
  8
細線
 48
50.0
100
AcDbLine
 10
10326.52093815145
 20
9399.442606142423
 30
0.0
 11
10776.52093815145
 21
8126.44260614242
 31
0.0
  0
LINE
  5
16927
330
747D
100
AcDbEntity
  8
部品1
100
AcDbLine
 10
10776.52093815146
 20
8126.44260614242
 30
0.0
 11
10776.52093815145
 21
9399.442606142423
 31
0.0
  0
LINE
  5
16928
330
747D
100
AcDbEntity
  8
部品1
100
AcDbLine
 10
10778.52093815147
 20
8125.442606142419
 30
0.0
 11
10778.52093815145
 21
9399.942606142424
 31
0.0
  0
LINE
  5
16929
330
747D
100
AcDbEntity
  8
部品1
 48
50.0
100
AcDbLine
 10
10776.52093815145
 20
8126.44260614242
 30
0.0
 11
10326.52093815146
 21
8126.44260614242
 31
0.0
  0
LINE
  5
1692A
330
747D
100
AcDbEntity
  8
部品1
 48
50.0
100
AcDbLine
 10
10776.52093815146
 20
8099.442606142421
 30
0.0
 11
10326.52093815146
 21
8099.442606142421
 31
0.0
  0
LINE
  5
1692B
330
747D
100
AcDbEntity
  8
部品1
 48
50.0
100
AcDbLine
 10
10778.52093815146
 20
8125.442606142419
 30
0.0
 11
10326.52093815146
 21
8125.442606142419
 31
0.0
  0
LINE
  5
1692C
330
747D
100
AcDbEntity
  8
部品1
 48
50.0
100
AcDbLine
 10
10778.52093815146
 20
8100.44260614242
 30
0.0
 11
10326.52093815146
 21
8100.44260614242
 31
0.0
  0
LINE
  5
1692D
330
747D
100
AcDbEntity
  8
部品1
100
AcDbLine
 10
10326.52093815146
 20
8100.44260614242
 30
0.0
 11
10326.52093815146
 21
8125.442606142419
 31
0.0
  0
LINE
  5
1692E
330
747D
100
AcDbEntity
  8
部品1
100
AcDbLine
 10
10770.52093815145
 20
8100.44260614242
 30
0.0
 11
10770.52093815145
 21
8125.442606142419
 31
0.0
  0
LINE
  5
1692F
330
747D
100
AcDbEntity
  8
部品1
100
AcDbLine
 10
10796.52093815146
 20
8141.94260614242
 30
0.0
 11
10796.52093815146
 21
8147.94260614242
 31
0.0
  0
LINE
  5
16930
330
747D
100
AcDbEntity
  8
部品1
100
AcDbLine
 10
10796.52093815146
 20
8147.94260614242
 30
0.0
 11
10778.52093815146
 21
8147.94260614242
 31
0.0
  0
LINE
  5
16931
330
747D
100
AcDbEntity
  8
部品1
100
AcDbLine
 10
10796.52093815146
 20
8077.942606142419
 30
0.0
 11
10796.52093815146
 21
8083.94260614242
 31
0.0
  0
LINE
  5
16932
330
747D
100
AcDbEntity
  8
部品1
100
AcDbLine
 10
10796.52093815146
 20
8077.942606142419
 30
0.0
 11
10778.52093815146
 21
8077.942606142419
 31
0.0
  0
LINE
  5
16933
330
747D
100
AcDbEntity
  8
部品1
100
AcDbLine
 10
10776.52093815145
 20
9399.442606142423
 30
0.0
 11
10326.52093815145
 21
9399.442606142423
 31
0.0
  0
LINE
  5
16934
330
747D
100
AcDbEntity
  8
部品1
100
AcDbLine
 10
10331.52093815145
 20
9399.942606142424
 30
0.0
 11
10331.52093815145
 21
9427.942606142424
 31
0.0
  0
LINE
  5
16935
330
747D
100
AcDbEntity
  8
部品1
100
AcDbLine
 10
10751.52093815145
 20
9399.942606142424
 30
0.0
 11
10751.52093815145
 21
9427.942606142424
 31
0.0
  0
LINE
  5
16936
330
747D
100
AcDbEntity
  8
部品1
100
AcDbLine
 10
10806.52093815135
 20
7217.942606142422
 30
0.0
 11
10806.52093815145
 21
9427.942606142424
 31
0.0
  0
TEXT
  5
16937
330
747D
100
AcDbEntity
  8
部品1
100
AcDbText
 10
9830.311008920814
 20
1242.727691130492
 30
0.0
 40
135.0
  1
正面図
  7
STYLE2
100
AcDbText
  0
LINE
  5
16939
330
747D
100
AcDbEntity
  8
部品1
 48
50.0
100
AcDbLine
 10
9911.520938151454
 20
9371.442606142407
 30
0.0
 11
9911.520938151541
 21
7274.442606142407
 31
0.0
  0
LINE
  5
1693C
330
747D
100
AcDbEntity
  8
部品1
100
AcDbLine
 10
9493.020938151488
 20
9371.442606142402
 30
0.0
 11
9493.020938151392
 21
7274.442606142317
 31
0.0
  0
LINE
  5
1693D
330
747D
100
AcDbEntity
  8
破線
 48
10.0
100
AcDbLine
 10
9516.520938151487
 20
9347.942606142401
 30
0.0
 11
9516.520938151463
 21
8717.942606142436
 31
0.0
  0
LINE
  5
1693E
330
747D
100
AcDbEntity
  8
破線
 48
10.0
100
AcDbLine
 10
9516.520938151478
 20
8667.942606142437
 30
0.0
 11
9516.520938151437
 21
8052.942606142435
 31
0.0
  0
LINE
  5
1693F
330
747D
100
AcDbEntity
  8
部品1
100
AcDbLine
 10
10326.52093815145
 20
9371.442606142414
 30
0.0
 11
9493.020938151492
 21
9371.442606142398
 31
0.0
  0
LINE
  5
16940
330
747D
100
AcDbEntity
  8
破線
 48
10.0
100
AcDbLine
 10
10326.52093815145
 20
9347.942606142416
 30
0.0
 11
9516.520938151487
 21
9347.942606142401
 31
0.0
  0
LINE
  5
16941
330
747D
100
AcDbEntity
  8
部品1
 48
50.0
100
AcDbLine
 10
9493.020938151488
 20
9371.442606142402
 30
0.0
 11
9464.52093815149
 21
9399.942606142399
 31
0.0
  0
LINE
  5
16942
330
747D
100
AcDbEntity
  8
部品1
100
AcDbLine
 10
10326.52093815145
 20
7274.4426061424
 30
0.0
 11
9493.020938151486
 21
7274.442606142411
 31
0.0
  0
LINE
  5
16943
330
747D
100
AcDbEntity
  8
破線
 48
10.0
100
AcDbLine
 10
10326.52093815145
 20
7297.942606142396
 30
0.0
 11
9516.520938151392
 21
7297.94260614241
 31
0.0
  0
LINE
  5
16944
330
747D
100
AcDbEntity
  8
部品1
 48
50.0
100
AcDbLine
 10
9493.020938151488
 20
7274.442606142411
 30
0.0
 11
9464.52093815149
 21
7245.942606142415
 31
0.0
  0
LINE
  5
16945
330
747D
100
AcDbEntity
  8
部品1
100
AcDbLine
 10
9464.520938151489
 20
8532.942606142492
 30
0.0
 11
9436.520938151488
 21
8532.942606142492
 31
0.0
  0
LINE
  5
16946
330
747D
100
AcDbEntity
  8
部品1
100
AcDbLine
 10
9464.520938151469
 20
9372.942606142498
 30
0.0
 11
9436.520938151469
 21
9372.942606142498
 31
0.0
  0
LINE
  5
16947
330
747D
100
AcDbEntity
  8
部品1
100
AcDbLine
 10
9464.520938151489
 20
9372.942606142498
 30
0.0
 11
9436.520938151488
 21
9372.942606142498
 31
0.0
  0
LINE
  5
16948
330
747D
100
AcDbEntity
  8
部品1
100
AcDbLine
 10
9464.520938151489
 20
8112.942606142494
 30
0.0
 11
9436.520938151488
 21
8112.942606142494
 31
0.0
  0
LINE
  5
16949
330
747D
100
AcDbEntity
  8
部品1
100
AcDbLine
 10
9464.520938151489
 20
7692.942606142494
 30
0.0
 11
9436.520938151488
 21
7692.942606142494
 31
0.0
  0
LINE
  5
1694A
330
747D
100
AcDbEntity
  8
部品1
100
AcDbLine
 10
9464.520938151371
 20
7692.942606142494
 30
0.0
 11
9436.520938151373
 21
7692.942606142494
 31
0.0
  0
LINE
  5
1694B
330
747D
100
AcDbEntity
  8
部品1
100
AcDbLine
 10
9464.520938151373
 20
7692.942606142494
 30
0.0
 11
9436.520938151373
 21
7692.942606142494
 31
0.0
  0
LINE
  5
1694C
330
747D
100
AcDbEntity
  8
部品1
100
AcDbLine
 10
9464.520938151341
 20
7272.942606142462
 30
0.0
 11
9436.520938151341
 21
7272.942606142462
 31
0.0
  0
LINE
  5
1694D
330
747D
100
AcDbEntity
  8
部品1
100
AcDbLine
 10
9464.520938151373
 20
7272.942606142494
 30
0.0
 11
9436.520938151373
 21
7272.942606142494
 31
0.0
  0
LINE
  5
1694E
330
747D
100
AcDbEntity
  8
部品1
100
AcDbLine
 10
9491.520938151325
 20
7245.942606142404
 30
0.0
 11
9491.520938151325
 21
7217.942606142404
 31
0.0
  0
LINE
  5
1694F
330
747D
100
AcDbEntity
  8
部品1
100
AcDbLine
 10
9491.520938151454
 20
9399.942606142428
 30
0.0
 11
9491.520938151454
 21
9427.942606142428
 31
0.0
  0
LINE
  5
16950
330
747D
100
AcDbEntity
  8
部品1
100
AcDbLine
 10
9491.520938151323
 20
7217.942606142415
 30
0.0
 11
9436.520938151312
 21
7217.942606142415
 31
0.0
  0
DIMENSION
  5
16951
330
747D
100
AcDbEntity
  8
寸法
 48
50.0
100
AcDbDimension
  2
*D10
 10
9326.52093815143
 20
1638.612154026048
 30
0.0
 11
9426.520938151432
 21
1638.612154026048
 31
0.0
 70
   160
 71
     5
 42
200.0000000000018
  3
INABA_S40G
100
AcDbAlignedDimension
 13
9526.520938151433
 23
1924.659483326425
 33
0.0
 14
9326.52093815143
 24
1924.659483326425
 34
0.0
100
AcDbRotatedDimension
  0
DIMENSION
  5
16953
330
747D
100
AcDbEntity
  8
寸法
 48
50.0
100
AcDbDimension
  2
*D11
 10
11188.70414555208
 20
8015.998448585746
 30
0.0
 11
11188.70414555208
 21
8652.498448585751
 31
0.0
 70
   160
 71
     5
 42
1273.00000000001
  3
INABA_S40G
100
AcDbAlignedDimension
 13
10776.52093815145
 23
9399.442606142423
 33
0.0
 14
10776.52093815146
 24
8126.442606142413
 34
0.0
 50
90.0
100
AcDbRotatedDimension
  0
DIMENSION
  5
16954
330
747D
100
AcDbEntity
  8
寸法
 48
50.0
100
AcDbDimension
  2
*D12
 10
11188.70414555208
 20
7135.998448585725
 30
0.0
 11
11188.70414555207
 21
7600.849313946548
 31
0.0
 70
   160
 71
     5
 42
852.999999999999
  3
INABA_S40G
100
AcDbAlignedDimension
 13
10776.52093815146
 23
8099.442606142421
 33
0.0
 14
10776.52093815135
 24
7246.44260614242
 34
0.0
 50
90.0
100
AcDbRotatedDimension
  0
DIMENSION
  5
16955
330
747D
100
AcDbEntity
  8
寸法
100
AcDbDimension
  2
*D13
 10
11453.94728388579
 20
7272.942606142418
 30
0.0
 11
11453.94728388579
 21
8322.942606142426
 31
0.0
 70
   160
  1
5X420=<>
 71
     5
 42
2100.000000000016
  3
INABA_S40G
100
AcDbAlignedDimension
 13
10806.52093815138
 23
9372.942606142435
 33
0.0
 14
10806.52093815135
 24
7272.942606142418
 34
0.0
 50
90.0
100
AcDbRotatedDimension
1001
ACAD
1000
DSTYLE
1002
{
1002
}
  0
DIMENSION
  5
16956
330
747D
100
AcDbEntity
  8
寸法
100
AcDbDimension
  2
*D14
 10
11453.94728388579
 20
9372.942606142435
 30
0.0
 11
11453.94728388579
 21
9736.427887516672
 31
0.0
 70
   160
 71
     5
 42
54.99999999999636
  3
INABA_S40G
100
AcDbAlignedDimension
 13
10806.52093815138
 23
9427.942606142432
 33
0.0
 14
10806.52093815138
 24
9372.942606142435
 34
0.0
 50
90.0
100
AcDbRotatedDimension
1001
ACAD
1000
DSTYLE
1002
{
1002
}
  0
DIMENSION
  5
16957
330
747D
100
AcDbEntity
  8
寸法
100
AcDbDimension
  2
*D15
 10
11722.38581518627
 20
7217.942606142421
 30
0.0
 11
11722.38581518626
 21
8322.942606142426
 31
0.0
 70
   160
 71
     5
 42
2210.000000000009
  3
INABA_S40G
100
AcDbAlignedDimension
 13
10806.52093815138
 23
9427.942606142432
 33
0.0
 14
10806.52093815135
 24
7217.942606142421
 34
0.0
 50
90.0
100
AcDbRotatedDimension
1001
ACAD
1000
DSTYLE
1002
{
1002
}
  0
DIMENSION
  5
16958
330
747D
100
AcDbEntity
  8
寸法
100
AcDbDimension
  2
*D16
 10
11453.94728388577
 20
7217.942606142421
 30
0.0
 11
11453.94728388576
 21
6909.45732476818
 31
0.0
 70
   160
 71
     5
 42
54.99999999999636
  3
INABA_S40G
100
AcDbAlignedDimension
 13
10806.52093815135
 23
7272.942606142418
 33
0.0
 14
10806.52093815135
 24
7217.942606142421
 34
0.0
 50
90.0
100
AcDbRotatedDimension
1001
ACAD
1000
DSTYLE
1002
{
1002
}
  0
LINE
  5
1695E
330
747D
100
AcDbEntity
  8
部品1
100
AcDbLine
 10
9739.785605182859
 20
1435.621220349016
 30
0.0
 11
9739.785605182859
 21
1195.728898803483
 31
0.0
  0
LINE
  5
1695F
330
747D
100
AcDbEntity
  8
部品1
100
AcDbLine
 10
9739.785605182859
 20
1195.728898803483
 30
0.0
 11
10503.2562714113
 21
1195.728898803483
 31
0.0
  0
LINE
  5
16960
330
747D
100
AcDbEntity
  8
部品1
100
AcDbLine
 10
10503.2562714113
 20
1195.728898803483
 30
0.0
 11
10503.2562714113
 21
1435.621220349016
 31
0.0
  0
LINE
  5
16961
330
747D
100
AcDbEntity
  8
部品1
100
AcDbLine
 10
10503.2562714113
 20
1435.621220349016
 30
0.0
 11
9739.785605182859
 21
1435.621220349016
 31
0.0
  0
DIMENSION
  5
16966
330
747D
100
AcDbEntity
  8
寸法
 48
50.0
100
AcDbDimension
  2
*D17
 10
9165.314908939297
 20
2282.659483326426
 30
0.0
 11
9165.314908939297
 21
3136.29250234395
 31
0.0
 70
   160
  1
有効開口部高サ<>
 71
     5
 42
1725.0
  3
INABA_S40G
100
AcDbAlignedDimension
 13
9464.52093815145
 23
4007.659483326425
 33
0.0
 14
9464.52093815145
 24
2282.659483326425
 34
0.0
 50
90.0
100
AcDbRotatedDimension
1001
ACAD
1000
DSTYLE
1002
{
1070
   341
1005
0
1002
}
  0
LINE
  5
16967
330
747D
100
AcDbEntity
  8
部品1
 48
50.0
100
AcDbLine
 10
9464.52093815145
 20
2224.659483326425
 30
0.0
 11
10778.52093815145
 21
2224.659483326425
 31
0.0
  0
DIMENSION
  5
1698B
330
747D
100
AcDbEntity
  8
寸法
100
AcDbDimension
  2
*D18
 10
8812.868228993135
 20
2274.659483326426
 30
0.0
 11
8812.868228993135
 21
3165.113781868383
 31
0.0
 70
   160
 71
     5
 42
1790.0
  3
INABA_S40G
100
AcDbAlignedDimension
 13
9436.520938151431
 23
4064.659483326425
 33
0.0
 14
9436.520938151431
 24
2274.659483326425
 34
0.0
 50
90.0
100
AcDbRotatedDimension
1001
ACAD
1000
DSTYLE
1002
{
1070
   174
1070
     0
1070
   272
1070
     1
1070
   288
1070
     0
1070
   341
1005
0
1002
}
  0
DIMENSION
  5
1698C
330
747D
100
AcDbEntity
  8
寸法
100
AcDbDimension
  2
*D19
 10
8527.881556222075
 20
4299.659483326429
 30
0.0
 11
8527.881556222075
 21
3218.865360819535
 31
0.0
 70
   160
 71
     5
 42
2075.000000000004
  3
INABA_S40G
100
AcDbAlignedDimension
 13
9436.520938151431
 23
2224.659483326425
 33
0.0
 14
9376.520938151433
 24
4299.659483326429
 34
0.0
 50
90.0
100
AcDbRotatedDimension
1001
ACAD
1000
DSTYLE
1002
{
1070
   174
1070
     0
1070
   272
1070
     1
1070
   288
1070
     0
1070
   341
1005
0
1002
}
  0
DIMENSION
  5
1698D
330
747D
100
AcDbEntity
  8
寸法
100
AcDbDimension
  2
*D20
 10
8527.881556222075
 20
2124.659483326425
 30
0.0
 11
8527.881556222075
 21
1888.612239231934
 31
0.0
 70
   160
 71
     5
 42
100.0000000000004
  3
INABA_S40G
100
AcDbAlignedDimension
 13
9381.520938151432
 23
2224.659483326425
 33
0.0
 14
8812.868228993135
 24
2124.659483326425
 34
0.0
 50
90.0
100
AcDbRotatedDimension
1001
ACAD
1000
DSTYLE
1002
{
1070
   174
1070
     0
1070
   272
1070
     1
1070
   288
1070
     0
1070
   341
1005
0
1002
}
  0
DIMENSION
  5
1698E
330
747D
100
AcDbEntity
  8
寸法
100
AcDbDimension
  2
*D21
 10
8812.868228993135
 20
2224.659483326426
 30
0.0
 11
8812.868228993135
 21
1918.612239231935
 31
0.0
 70
   160
 71
     5
 42
50.0
  3
INABA_S40G
100
AcDbAlignedDimension
 13
9436.520938151431
 23
2274.659483326425
 33
0.0
 14
9381.520938151432
 24
2224.659483326425
 34
0.0
 50
90.0
100
AcDbRotatedDimension
1001
ACAD
1000
DSTYLE
1002
{
1070
   174
1070
     0
1070
   272
1070
     1
1070
   288
1070
     0
1070
   341
1005
0
1002
}
  0
DIMENSION
  5
16992
330
747D
100
AcDbEntity
  8
寸法
100
AcDbDimension
  2
*D22
 10
11341.69103391387
 20
4244.659483326427
 30
0.0
 11
11341.69103391387
 21
3206.915810756114
 31
0.0
 70
   160
 71
     5
 42
2020.000000000003
  3
INABA_S40G
100
AcDbAlignedDimension
 13
10806.52093815145
 23
2224.659483326425
 33
0.0
 14
10886.52093815143
 24
4244.659483326427
 34
0.0
 50
90.0
100
AcDbRotatedDimension
1001
ACAD
1000
DSTYLE
1002
{
1070
   174
1070
     0
1070
   272
1070
     1
1070
   288
1070
     0
1070
   341
1005
0
1002
}
  0
TEXT
  5
169CF
330
747D
100
AcDbEntity
  8
文字
 62
     7
 48
50.0
100
AcDbText
 10
14491.96323844892
 20
483.8967129911416
 30
0.0
 40
160.0
  1
ＮＸＮ－３０ＣＳＢ
  7
STYLE2
100
AcDbText
  0
MTEXT
  5
169D0
330
747D
100
AcDbEntity
  8
寸法
 62
     7
 48
50.0
100
AcDbMText
 10
10395.68867949796
 20
8741.989723968861
 30
0.0
 40
96.0
 41
0.0
 71
     5
 72
     1
  1
棚 2段
  7
STYLE1
 11
0.0000000000000001
 21
1.0
 31
0.0
 73
     1
 44
1.0
1001
ACAD
1000
MTEXTBEGIN
1070
    73
1070
     1
1070
    44
1040
1.0
1070
    74
1070
     0
1000
MTEXTEND
  0
MTEXT
  5
169D1
330
747D
100
AcDbEntity
  8
寸法
 62
     7
 48
50.0
100
AcDbMText
 10
10395.68867949792
 20
7672.888354394872
 30
0.0
 40
96.0
 41
0.0
 71
     5
 72
     1
  1
棚 2段
  7
STYLE1
 11
0.0000000000000001
 21
1.0
 31
0.0
 73
     1
 44
1.0
1001
ACAD
1000
MTEXTBEGIN
1070
    73
1070
     1
1070
    44
1040
1.0
1070
    74
1070
     0
1000
MTEXTEND
  0
LINE
  5
169D2
330
747D
100
AcDbEntity
  8
破線
 48
5.0
100
AcDbLine
 10
9326.520938151434
 20
2124.659483326426
 30
0.0
 11
9326.520938151437
 21
1924.659483326425
 31
0.0
  0
LINE
  5
169D3
330
747D
100
AcDbEntity
  8
破線
 48
5.0
100
AcDbLine
 10
9526.520938151433
 20
2124.659483326426
 30
0.0
 11
9526.520938151433
 21
1924.659483326425
 31
0.0
  0
LINE
  5
169D4
330
747D
100
AcDbEntity
  8
破線
 48
5.0
100
AcDbLine
 10
9526.520938151433
 20
1924.659483326425
 30
0.0
 11
9326.520938151437
 21
1924.659483326425
 31
0.0
  0
LINE
  5
169D5
330
747D
100
AcDbEntity
  8
破線
 48
5.0
100
AcDbLine
 10
10906.52093815145
 20
2124.659483326425
 30
0.0
 11
10906.52093815145
 21
1924.659483326423
 31
0.0
  0
LINE
  5
169D6
330
747D
100
AcDbEntity
  8
破線
 48
5.0
100
AcDbLine
 10
10906.52093815145
 20
1924.659483326423
 30
0.0
 11
10706.52093815145
 21
1924.659483326424
 31
0.0
  0
LINE
  5
169D7
330
747D
100
AcDbEntity
  8
破線
 48
5.0
100
AcDbLine
 10
10706.52093815145
 20
2124.659483326425
 30
0.0
 11
10706.52093815145
 21
1924.659483326424
 31
0.0
  0
LINE
  5
169D8
330
747D
100
AcDbEntity
  8
部品1
100
AcDbLine
 10
9436.520938151431
 20
2274.659483326425
 30
0.0
 11
9464.52093815145
 21
2274.659483326426
 31
0.0
  0
LINE
  5
169D9
330
747D
100
AcDbEntity
  8
部品1
100
AcDbLine
 10
9436.520938151431
 20
2224.659483326425
 30
0.0
 11
10806.52093815145
 21
2224.659483326425
 31
0.0
  0
LINE
  5
169DA
330
747D
100
AcDbEntity
  8
部品1
100
AcDbLine
 10
9436.520938151431
 20
4064.659483326425
 30
0.0
 11
10806.52093815145
 21
4064.659483326425
 31
0.0
  0
LINE
  5
169DB
330
747D
100
AcDbEntity
  8
部品1
100
AcDbLine
 10
9436.520938151431
 20
4156.236377266869
 30
0.0
 11
9436.520938151431
 21
2124.659483326425
 31
0.0
  0
LINE
  5
169DC
330
747D
100
AcDbEntity
  8
部品1
100
AcDbLine
 10
10751.52093815145
 20
4064.659483326425
 30
0.0
 11
10751.52093815145
 21
4059.659483326426
 31
0.0
  0
LINE
  5
169DD
330
747D
100
AcDbEntity
  8
部品1
100
AcDbLine
 10
9491.520938151433
 20
4064.659483326425
 30
0.0
 11
9491.520938151433
 21
4059.659483326426
 31
0.0
  0
LINE
  5
169DE
330
747D
100
AcDbEntity
  8
部品1
100
AcDbLine
 10
10806.52093815145
 20
4119.296064161679
 30
0.0
 11
10806.52093815145
 21
2124.659483326425
 31
0.0
  0
LINE
  5
169DF
330
747D
100
AcDbEntity
  8
部品1
100
AcDbLine
 10
10811.52093815145
 20
2269.659483326425
 30
0.0
 11
10811.52093815145
 21
2124.659483326425
 31
0.0
  0
LINE
  5
169E0
330
747D
100
AcDbEntity
  8
破線
 48
5.0
100
AcDbLine
 10
10831.52093815145
 20
1969.659483326425
 30
0.0
 11
10811.52093815144
 21
1969.659483326425
 31
0.0
  0
LINE
  5
169E1
330
747D
100
AcDbEntity
  8
部品1
100
AcDbLine
 10
9431.520938151432
 20
2269.659483326427
 30
0.0
 11
9431.520938151432
 21
2124.659483326425
 31
0.0
  0
LINE
  5
169E2
330
747D
100
AcDbEntity
  8
破線
 48
5.0
100
AcDbLine
 10
9411.520938151431
 20
1969.659483326425
 30
0.0
 11
9431.520938151432
 21
1969.659483326425
 31
0.0
  0
LINE
  5
169E3
330
747D
100
AcDbEntity
  8
破線
 48
5.0
100
AcDbLine
 10
10811.52093815145
 20
2124.659483326425
 30
0.0
 11
10811.52093815145
 21
1969.659483326425
 31
0.0
  0
LINE
  5
169E4
330
747D
100
AcDbEntity
  8
破線
 48
5.0
100
AcDbLine
 10
9431.520938151432
 20
2124.659483326425
 30
0.0
 11
9431.520938151432
 21
1969.659483326425
 31
0.0
  0
LINE
  5
169E5
330
747D
100
AcDbEntity
  8
部品1
100
AcDbLine
 10
10778.52093815145
 20
2274.659483326426
 30
0.0
 11
10806.52093815145
 21
2274.659483326425
 31
0.0
  0
LINE
  5
169E6
330
747D
100
AcDbEntity
  8
部品1
100
AcDbLine
 10
9636.52093815145
 20
2224.659483326425
 30
0.0
 11
9636.52093815145
 21
2124.659483326425
 31
0.0
  0
LINE
  5
169E7
330
747D
100
AcDbEntity
  8
部品1
 48
50.0
100
AcDbLine
 10
10221.52093815145
 20
2224.659483326425
 30
0.0
 11
10221.52093815145
 21
2124.659483326425
 31
0.0
  0
LINE
  5
169E8
330
747D
100
AcDbEntity
  8
部品1
 48
50.0
100
AcDbLine
 10
10021.52093815145
 20
2224.659483326425
 30
0.0
 11
10021.52093815145
 21
2124.659483326425
 31
0.0
  0
LINE
  5
169E9
330
747D
100
AcDbEntity
  8
部品1
100
AcDbLine
 10
10606.52093815145
 20
2224.659483326425
 30
0.0
 11
10606.52093815145
 21
2124.659483326425
 31
0.0
  0
TEXT
  5
169F1
330
747D
100
AcDbEntity
  8
文字
 62
     7
 48
50.0
100
AcDbText
 10
13583.11819016569
 20
8550.013745883733
 30
0.0
 40
100.0
  1
棚板
  7
STYLE1
100
AcDbText
  0
TEXT
  5
169F2
330
747D
100
AcDbEntity
  8
文字
 62
     7
 48
50.0
100
AcDbText
 10
15022.63965474516
 20
8550.013745883729
 30
0.0
 40
100.0
  1
F12            0.6
  7
STYLE1
100
AcDbText
  0
TEXT
  5
169F4
330
747D
100
AcDbEntity
  8
文字
 62
     7
 48
50.0
100
AcDbText
 10
13583.11819016569
 20
9740.013745883729
 30
0.0
 40
100.0
  1
母屋中
  7
STYLE1
100
AcDbText
  0
TEXT
  5
169F5
330
747D
100
AcDbEntity
  8
文字
 62
     7
 48
50.0
100
AcDbText
 10
13248.77747366447
 20
8720.013745883731
 30
0.0
 40
100.0
  1
15
  7
STYLE1
100
AcDbText
  0
LINE
  5
169F6
330
747D
100
AcDbEntity
  8
仕様書枠
 48
50.0
100
AcDbLine
 10
16307.19999999999
 20
8009.600000000006
 30
0.0
 11
13127.19999999999
 21
8009.600000000007
 31
0.0
  0
TEXT
  5
169F7
330
747D
100
AcDbEntity
  8
文字
 62
     7
 48
50.0
100
AcDbText
 10
13583.11819016569
 20
8720.013745883733
 30
0.0
 40
100.0
  1
扉
  7
STYLE1
100
AcDbText
  0
TEXT
  5
169F8
330
747D
100
AcDbEntity
  8
文字
 62
     7
 48
50.0
100
AcDbText
 10
15022.63965474516
 20
8720.013745883729
 30
0.0
 40
100.0
  1
F12            0.8
  7
STYLE1
100
AcDbText
  0
TEXT
  5
169F9
330
747D
100
AcDbEntity
  8
文字
 62
     7
 48
50.0
100
AcDbText
 10
13583.11819016568
 20
8890.013745883733
 30
0.0
 40
100.0
  1
正面パネル
  7
STYLE1
100
AcDbText
  0
TEXT
  5
169FA
330
747D
100
AcDbEntity
  8
文字
 62
     7
 48
50.0
100
AcDbText
 10
15022.63965474515
 20
8890.013745883729
 30
0.0
 40
100.0
  1
F12            0.7
  7
STYLE1
100
AcDbText
  0
TEXT
  5
169FB
330
747D
100
AcDbEntity
  8
文字
 62
     7
 48
50.0
100
AcDbText
 10
15022.63965474517
 20
10590.01374588373
 30
0.0
 40
100.0
  1
F12            1.0
  7
STYLE1
100
AcDbText
  0
TEXT
  5
169FC
330
747D
100
AcDbEntity
  8
文字
 62
     7
 48
50.0
100
AcDbText
 10
15022.63965474516
 20
10930.01374588372
 30
0.0
 40
100.0
  1
F12            1.2
  7
STYLE1
100
AcDbText
  0
TEXT
  5
169FD
330
747D
100
AcDbEntity
  8
文字
 62
     7
 48
50.0
100
AcDbText
 10
13248.77747366448
 20
8890.013745883729
 30
0.0
 40
100.0
  1
14
  7
STYLE1
100
AcDbText
  0
TEXT
  5
169FE
330
747D
100
AcDbEntity
  8
文字
 62
     7
 48
50.0
100
AcDbText
 10
13583.11819016569
 20
10930.01374588373
 30
0.0
 40
100.0
  1
根太
  7
STYLE1
100
AcDbText
  0
TEXT
  5
169FF
330
747D
100
AcDbEntity
  8
文字
 62
     7
 48
50.0
100
AcDbText
 10
13583.1181901657
 20
10590.01374588373
 30
0.0
 40
100.0
  1
床パネル
 41
0.9
  7
STYLE1
100
AcDbText
  0
LINE
  5
16A00
330
747D
100
AcDbEntity
  8
仕様書枠
 48
50.0
100
AcDbLine
 10
16307.19999999999
 20
9029.600000000002
 30
0.0
 11
13127.2
 21
9029.600000000003
 31
0.0
  0
LINE
  5
16A01
330
747D
100
AcDbEntity
  8
仕様書枠
 48
50.0
100
AcDbLine
 10
13127.2
 20
11409.6
 30
0.0
 11
13127.19999999999
 21
8009.600000000007
 31
0.0
  0
TEXT
  5
16A02
330
747D
100
AcDbEntity
  8
文字
 62
     7
 48
50.0
100
AcDbText
 10
13229.83081656554
 20
8040.013745883735
 30
0.0
 40
100.0
  1
Y10→溶融亜鉛-5％アルミニウム合金めっき鋼板(JIS G 3317)
 41
0.9
  7
STYLE1
100
AcDbText
  0
TEXT
  5
16A03
330
747D
100
AcDbEntity
  8
文字
 62
     7
 48
50.0
100
AcDbText
 10
13229.83081656554
 20
8210.013745883735
 30
0.0
 40
100.0
  1
F12→溶融亜鉛めっき鋼板(JIS G 3302)
  7
STYLE1
100
AcDbText
  0
LINE
  5
16A04
330
747D
100
AcDbEntity
  8
仕様書枠
 48
50.0
100
AcDbLine
 10
16307.19999999999
 20
8179.600000000005
 30
0.0
 11
13127.19999999999
 21
8179.600000000007
 31
0.0
  0
LINE
  5
16A05
330
747D
100
AcDbEntity
  8
仕様書枠
 48
50.0
100
AcDbLine
 10
16307.19999999999
 20
8349.600000000007
 30
0.0
 11
13127.19999999999
 21
8349.600000000007
 31
0.0
  0
TEXT
  5
16A06
330
747D
100
AcDbEntity
  8
文字
 62
     7
 48
50.0
100
AcDbText
 10
15022.63965474515
 20
9570.013745883727
 30
0.0
 40
100.0
  1
F12            0.6
  7
STYLE1
100
AcDbText
  0
TEXT
  5
16A07
330
747D
100
AcDbEntity
  8
文字
 62
     7
 48
50.0
100
AcDbText
 10
15022.63965474517
 20
9910.013745883727
 30
0.0
 40
100.0
  1
Y10            0.5
  7
STYLE1
100
AcDbText
  0
TEXT
  5
16A08
330
747D
100
AcDbEntity
  8
文字
 62
     7
 48
50.0
100
AcDbText
 10
15022.63965474516
 20
10080.01374588372
 30
0.0
 40
100.0
  1
Y10            0.7
  7
STYLE1
100
AcDbText
  0
TEXT
  5
16A09
330
747D
100
AcDbEntity
  8
文字
 62
     7
 48
50.0
100
AcDbText
 10
15022.63965474516
 20
10250.01374588373
 30
0.0
 40
100.0
  1
Y10            0.7
  7
STYLE1
100
AcDbText
  0
TEXT
  5
16A0A
330
747D
100
AcDbEntity
  8
文字
 62
     7
 48
50.0
100
AcDbText
 10
15022.63965474516
 20
10420.01374588372
 30
0.0
 40
100.0
  1
Y10            1.0
  7
STYLE1
100
AcDbText
  0
TEXT
  5
16A0B
330
747D
100
AcDbEntity
  8
文字
 62
     7
 48
50.0
100
AcDbText
 10
15022.63965474518
 20
10760.01374588372
 30
0.0
 40
100.0
  1
F12            1.0
  7
STYLE1
100
AcDbText
  0
TEXT
  5
16A0C
330
747D
100
AcDbEntity
  8
文字
 62
     7
 48
50.0
100
AcDbText
 10
15022.63965474517
 20
11100.01374588373
 30
0.0
 40
100.0
  1
F12            1.2
  7
STYLE1
100
AcDbText
  0
TEXT
  5
16A0D
330
747D
100
AcDbEntity
  8
文字
 62
     7
 48
50.0
100
AcDbText
 10
13248.77747366448
 20
9230.013745883729
 30
0.0
 40
100.0
  1
12
  7
STYLE1
100
AcDbText
  0
TEXT
  5
16A0E
330
747D
100
AcDbEntity
  8
文字
 62
     7
 48
50.0
100
AcDbText
 10
13248.77747366448
 20
9060.013745883729
 30
0.0
 40
100.0
  1
13
  7
STYLE1
100
AcDbText
  0
LINE
  5
16A0F
330
747D
100
AcDbEntity
  8
仕様書枠
 48
50.0
100
AcDbLine
 10
16307.19999999999
 20
8859.600000000002
 30
0.0
 11
13127.2
 21
8859.600000000005
 31
0.0
  0
LINE
  5
16A10
330
747D
100
AcDbEntity
  8
仕様書枠
 48
50.0
100
AcDbLine
 10
16307.19999999999
 20
9199.600000000001
 30
0.0
 11
13127.2
 21
9199.600000000001
 31
0.0
  0
TEXT
  5
16A11
330
747D
100
AcDbEntity
  8
文字
 62
     7
 48
50.0
100
AcDbText
 10
13248.77747366447
 20
9400.013745883729
 30
0.0
 40
100.0
  1
11
  7
STYLE1
100
AcDbText
  0
LINE
  5
16A12
330
747D
100
AcDbEntity
  8
仕様書枠
 48
50.0
100
AcDbLine
 10
16307.2
 20
9879.600000000001
 30
0.0
 11
13127.2
 21
9879.600000000003
 31
0.0
  0
LINE
  5
16A13
330
747D
100
AcDbEntity
  8
仕様書枠
 48
50.0
100
AcDbLine
 10
16307.2
 20
10219.6
 30
0.0
 11
13127.2
 21
10219.6
 31
0.0
  0
LINE
  5
16A14
330
747D
100
AcDbEntity
  8
仕様書枠
 48
50.0
100
AcDbLine
 10
16307.19999999999
 20
9539.6
 30
0.0
 11
13127.2
 21
9539.600000000003
 31
0.0
  0
LINE
  5
16A15
330
747D
100
AcDbEntity
  8
仕様書枠
 48
50.0
100
AcDbLine
 10
16307.19999999999
 20
9369.600000000001
 30
0.0
 11
13127.2
 21
9369.600000000003
 31
0.0
  0
LINE
  5
16A16
330
747D
100
AcDbEntity
  8
仕様書枠
 48
50.0
100
AcDbLine
 10
16307.19999999999
 20
9709.600000000001
 30
0.0
 11
13127.2
 21
9709.600000000001
 31
0.0
  0
TEXT
  5
16A17
330
747D
100
AcDbEntity
  8
文字
 62
     7
 48
50.0
100
AcDbText
 10
13271.19032244792
 20
10250.01374588373
 30
0.0
 40
100.0
  1
6
  7
STYLE1
100
AcDbText
  0
TEXT
  5
16A18
330
747D
100
AcDbEntity
  8
文字
 62
     7
 48
50.0
100
AcDbText
 10
13271.19032244792
 20
10080.01374588373
 30
0.0
 40
100.0
  1
7
  7
STYLE1
100
AcDbText
  0
TEXT
  5
16A19
330
747D
100
AcDbEntity
  8
文字
 62
     7
 48
50.0
100
AcDbText
 10
13271.19032244792
 20
9740.013745883731
 30
0.0
 40
100.0
  1
9
  7
STYLE1
100
AcDbText
  0
TEXT
  5
16A1A
330
747D
100
AcDbEntity
  8
文字
 62
     7
 48
50.0
100
AcDbText
 10
13271.19032244792
 20
9910.01374588373
 30
0.0
 40
100.0
  1
8
  7
STYLE1
100
AcDbText
  0
TEXT
  5
16A1B
330
747D
100
AcDbEntity
  8
文字
 62
     7
 48
50.0
100
AcDbText
 10
13583.11819016569
 20
10080.01374588373
 30
0.0
 40
100.0
  1
鼻隠シ前後
  7
STYLE1
100
AcDbText
  0
TEXT
  5
16A1C
330
747D
100
AcDbEntity
  8
文字
 62
     7
 48
50.0
100
AcDbText
 10
13583.11819016569
 20
9910.01374588373
 30
0.0
 40
100.0
  1
屋根パネル
  7
STYLE1
100
AcDbText
  0
TEXT
  5
16A1D
330
747D
100
AcDbEntity
  8
文字
 62
     7
 48
50.0
100
AcDbText
 10
13583.11819016568
 20
9570.013745883731
 30
0.0
 40
100.0
  1
壁パネル
  7
STYLE1
100
AcDbText
  0
TEXT
  5
16A1E
330
747D
100
AcDbEntity
  8
文字
 62
     7
 48
50.0
100
AcDbText
 10
13248.77747366447
 20
9570.013745883729
 30
0.0
 40
100.0
  1
10
  7
STYLE1
100
AcDbText
  0
TEXT
  5
16A1F
330
747D
100
AcDbEntity
  8
文字
 62
     7
 48
50.0
100
AcDbText
 10
13583.11819016569
 20
10250.01374588373
 30
0.0
 40
100.0
  1
妻板左右
  7
STYLE1
100
AcDbText
  0
TEXT
  5
16A20
330
747D
100
AcDbEntity
  8
文字
 62
     7
 48
50.0
100
AcDbText
 10
13271.19032244792
 20
10420.01374588373
 30
0.0
 40
100.0
  1
5
  7
STYLE1
100
AcDbText
  0
TEXT
  5
16A21
330
747D
100
AcDbEntity
  8
文字
 62
     7
 48
50.0
100
AcDbText
 10
13583.11819016569
 20
10420.01374588373
 30
0.0
 40
100.0
  1
桁前後
  7
STYLE1
100
AcDbText
  0
TEXT
  5
16A22
330
747D
100
AcDbEntity
  8
文字
 62
     7
 48
50.0
100
AcDbText
 10
13583.1181901657
 20
10760.01374588373
 30
0.0
 40
100.0
  1
柱
  7
STYLE1
100
AcDbText
  0
TEXT
  5
16A23
330
747D
100
AcDbEntity
  8
文字
 62
     7
 48
50.0
100
AcDbText
 10
13583.11819016569
 20
11100.01374588373
 30
0.0
 40
100.0
  1
土台枠
  7
STYLE1
100
AcDbText
  0
TEXT
  5
16A24
330
747D
100
AcDbEntity
  8
文字
 62
     7
 48
50.0
100
AcDbText
 10
14859.79774614482
 20
11270.01374588373
 30
0.0
 40
100.0
  1
材料（材質）　　単位mm
  7
STYLE1
100
AcDbText
  0
TEXT
  5
16A25
330
747D
100
AcDbEntity
  8
文字
 62
     7
 48
50.0
100
AcDbText
 10
13732.03840939434
 20
11270.01374588373
 30
0.0
 40
100.0
  1
部　　品　　名
  7
STYLE1
100
AcDbText
  0
TEXT
  5
16A26
330
747D
100
AcDbEntity
  8
文字
 62
     7
 48
50.0
100
AcDbText
 10
13271.19032244792
 20
10760.01374588373
 30
0.0
 40
100.0
  1
3
  7
STYLE1
100
AcDbText
  0
TEXT
  5
16A27
330
747D
100
AcDbEntity
  8
文字
 62
     7
 48
50.0
100
AcDbText
 10
13271.19032244792
 20
10590.01374588373
 30
0.0
 40
100.0
  1
4
  7
STYLE1
100
AcDbText
  0
TEXT
  5
16A28
330
747D
100
AcDbEntity
  8
文字
 62
     7
 48
50.0
100
AcDbText
 10
13271.19032244792
 20
10930.01374588373
 30
0.0
 40
100.0
  1
2
  7
STYLE1
100
AcDbText
  0
TEXT
  5
16A29
330
747D
100
AcDbEntity
  8
文字
 62
     7
 48
50.0
100
AcDbText
 10
13271.19032244792
 20
11100.01374588373
 30
0.0
 40
100.0
  1
1
  7
STYLE1
100
AcDbText
  0
TEXT
  5
16A2A
330
747D
100
AcDbEntity
  8
文字
 62
     7
 48
50.0
100
AcDbText
 10
13197.42518560407
 20
11270.01374588373
 30
0.0
 40
100.0
  1
品番
  7
STYLE1
100
AcDbText
  0
LINE
  5
16A2B
330
747D
100
AcDbEntity
  8
仕様書枠
 48
50.0
100
AcDbLine
 10
16307.19999999999
 20
10729.6
 30
0.0
 11
13127.2
 21
10729.6
 31
0.0
  0
LINE
  5
16A2C
330
747D
100
AcDbEntity
  8
仕様書枠
 48
50.0
100
AcDbLine
 10
16307.19999999999
 20
10389.6
 30
0.0
 11
13127.2
 21
10389.6
 31
0.0
  0
LINE
  5
16A2D
330
747D
100
AcDbEntity
  8
仕様書枠
 48
50.0
100
AcDbLine
 10
16307.19999999999
 20
10559.6
 30
0.0
 11
13127.2
 21
10559.6
 31
0.0
  0
LINE
  5
16A2E
330
747D
100
AcDbEntity
  8
仕様書枠
 48
50.0
100
AcDbLine
 10
16307.2
 20
11069.6
 30
0.0
 11
13127.2
 21
11069.6
 31
0.0
  0
LINE
  5
16A2F
330
747D
100
AcDbEntity
  8
仕様書枠
 48
50.0
100
AcDbLine
 10
16307.2
 20
10899.6
 30
0.0
 11
13127.2
 21
10899.6
 31
0.0
  0
LINE
  5
16A30
330
747D
100
AcDbEntity
  8
仕様書枠
 48
50.0
100
AcDbLine
 10
16307.2
 20
11239.6
 30
0.0
 11
13127.2
 21
11239.6
 31
0.0
  0
LINE
  5
16A31
330
747D
100
AcDbEntity
  8
仕様書枠
 48
50.0
100
AcDbLine
 10
13490.2
 20
11409.6
 30
0.0
 11
13490.20000000001
 21
8349.600000000007
 31
0.0
  0
LINE
  5
16A32
330
747D
100
AcDbEntity
  8
仕様書枠
 48
50.0
100
AcDbLine
 10
14785.2
 20
11409.6
 30
0.0
 11
14785.2
 21
8349.600000000007
 31
0.0
  0
LINE
  5
16A33
330
747D
100
AcDbEntity
  8
仕様書枠
 48
50.0
100
AcDbLine
 10
16307.19999999999
 20
8009.600000000006
 30
0.0
 11
16307.2
 21
11409.6
 31
0.0
  0
LINE
  5
16A34
330
747D
100
AcDbEntity
  8
仕様書枠
 48
50.0
100
AcDbLine
 10
16307.2
 20
11409.6
 30
0.0
 11
13127.2
 21
11409.6
 31
0.0
  0
LINE
  5
16A35
330
747D
100
AcDbEntity
  8
仕様書枠
 48
50.0
100
AcDbLine
 10
16307.2
 20
10049.6
 30
0.0
 11
13127.2
 21
10049.6
 31
0.0
  0
TEXT
  5
16A36
330
747D
100
AcDbEntity
  8
文字
 62
     7
 48
50.0
100
AcDbText
 10
15022.63965474515
 20
8380.013745883726
 30
0.0
 40
100.0
  1
F12            2.3
  7
STYLE1
100
AcDbText
  0
TEXT
  5
16A37
330
747D
100
AcDbEntity
  8
文字
 62
     7
 48
50.0
100
AcDbText
 10
13583.11819016569
 20
8380.013745883731
 30
0.0
 40
100.0
  1
アンカープレート
  7
STYLE1
100
AcDbText
  0
LINE
  5
16A38
330
747D
100
AcDbEntity
  8
仕様書枠
 48
50.0
100
AcDbLine
 10
16307.19999999999
 20
8519.600000000005
 30
0.0
 11
13127.2
 21
8519.600000000009
 31
0.0
  0
LINE
  5
16A39
330
747D
100
AcDbEntity
  8
仕様書枠
 48
50.0
100
AcDbLine
 10
16307.19999999999
 20
8689.600000000005
 30
0.0
 11
13127.2
 21
8689.600000000007
 31
0.0
  0
TEXT
  5
16A3A
330
747D
100
AcDbEntity
  8
文字
 62
     7
 48
50.0
100
AcDbText
 10
13583.11819016569
 20
9400.013745883731
 30
0.0
 40
100.0
  1
壁面扉鴨居
  7
STYLE1
100
AcDbText
  0
TEXT
  5
16A3B
330
747D
100
AcDbEntity
  8
文字
 62
     7
 48
50.0
100
AcDbText
 10
13583.11819016569
 20
9230.013745883734
 30
0.0
 40
100.0
  1
壁面扉敷居
  7
STYLE1
100
AcDbText
  0
TEXT
  5
16A3C
330
747D
100
AcDbEntity
  8
文字
 62
     7
 48
50.0
100
AcDbText
 10
15022.63965474515
 20
9400.013745883729
 30
0.0
 40
100.0
  1
F12            0.7
  7
STYLE1
100
AcDbText
  0
TEXT
  5
16A3D
330
747D
100
AcDbEntity
  8
文字
 62
     7
 48
50.0
100
AcDbText
 10
15022.63965474517
 20
9230.013745883727
 30
0.0
 40
100.0
  1
F12            1.0
  7
STYLE1
100
AcDbText
  0
TEXT
  5
16A3E
330
747D
100
AcDbEntity
  8
文字
 62
     7
 48
50.0
100
AcDbText
 10
13583.11819016569
 20
9060.013745883734
 30
0.0
 40
100.0
  1
壁面扉枠左右
  7
STYLE1
100
AcDbText
  0
TEXT
  5
16A3F
330
747D
100
AcDbEntity
  8
文字
 62
     7
 48
50.0
100
AcDbText
 10
15022.63965474517
 20
9060.013745883727
 30
0.0
 40
100.0
  1
F12            1.0
  7
STYLE1
100
AcDbText
  0
TEXT
  5
16A40
330
747D
100
AcDbEntity
  8
文字
 62
     7
 48
50.0
100
AcDbText
 10
13248.77747366447
 20
8550.013745883731
 30
0.0
 40
100.0
  1
16
  7
STYLE1
100
AcDbText
  0
TEXT
  5
16A41
330
747D
100
AcDbEntity
  8
文字
 62
     7
 48
50.0
100
AcDbText
 10
13248.77747366447
 20
8380.013745883731
 30
0.0
 40
100.0
  1
17
  7
STYLE1
100
AcDbText
  0
LINE
  5
16ABD
330
747D
100
AcDbEntity
  8
部品1
 48
50.0
100
AcDbLine
 10
9538.520938151433
 20
3206.159483326415
 30
0.0
 11
9591.520938151433
 21
3206.159483326415
 31
0.0
  0
LINE
  5
16AD7
330
747D
100
AcDbEntity
  8
部品1
 48
50.0
100
AcDbLine
 10
10778.52093815143
 20
4015.659483326426
 30
0.0
 11
10748.52093815143
 21
4015.659483326426
 31
0.0
  0
LINE
  5
16AD8
330
747D
100
AcDbEntity
  8
部品1
 48
50.0
100
AcDbLine
 10
9494.520938151433
 20
4015.659483326426
 30
0.0
 11
9464.520938151432
 21
4015.659483326426
 31
0.0
  0
LINE
  5
16AD9
330
747D
100
AcDbEntity
  8
部品1
 48
50.0
100
AcDbLine
 10
10778.52093815143
 20
4059.659483326426
 30
0.0
 11
9464.520938151432
 21
4059.659483326426
 31
0.0
  0
LINE
  5
16ADA
330
747D
100
AcDbEntity
  8
細線
 48
50.0
100
AcDbLine
 10
10778.52093815143
 20
4049.659483326426
 30
0.0
 11
9464.520938151432
 21
4049.659483326426
 31
0.0
  0
LINE
  5
16ADB
330
747D
100
AcDbEntity
  8
細線
 48
50.0
100
AcDbLine
 10
10748.52093815143
 20
4007.659483326426
 30
0.0
 11
9494.520938151433
 21
4007.659483326426
 31
0.0
  0
LINE
  5
16ADC
330
747D
100
AcDbEntity
  8
細線
 48
50.0
100
AcDbLine
 10
10748.52093815143
 20
4017.159483326426
 30
0.0
 11
9494.520938151433
 21
4017.159483326426
 31
0.0
  0
LINE
  5
16ADD
330
747D
100
AcDbEntity
  8
細線
 48
50.0
100
AcDbLine
 10
10726.52093815143
 20
2271.659483326423
 30
0.0
 11
10722.52093815143
 21
2282.159483326424
 31
0.0
  0
LINE
  5
16ADE
330
747D
100
AcDbEntity
  8
細線
 48
50.0
100
AcDbLine
 10
9954.520938151439
 20
2282.159483326426
 30
0.0
 11
10722.52093815143
 21
2282.159483326424
 31
0.0
  0
LINE
  5
16ADF
330
747D
100
AcDbEntity
  8
部品1
 48
50.0
100
AcDbLine
 10
9503.520938151432
 20
2274.659483326423
 30
0.0
 11
9503.520938151432
 21
2271.659483326423
 31
0.0
  0
LINE
  5
16AE0
330
747D
100
AcDbEntity
  8
部品1
 48
50.0
100
AcDbLine
 10
9494.520938151433
 20
2274.659483326423
 30
0.0
 11
9954.520938151439
 21
2274.659483326425
 31
0.0
  0
LINE
  5
16AE1
330
747D
100
AcDbEntity
  8
部品1
 48
50.0
100
AcDbLine
 10
9464.520938151432
 20
2224.659483326424
 30
0.0
 11
10778.52093815143
 21
2224.659483326424
 31
0.0
  0
LINE
  5
16AE2
330
747D
100
AcDbEntity
  8
細線
 48
50.0
100
AcDbLine
 10
9494.520938151433
 20
2267.659483326424
 30
0.0
 11
10748.52093815143
 21
2267.659483326424
 31
0.0
  0
LINE
  5
16AE3
330
747D
100
AcDbEntity
  8
細線
 48
50.0
100
AcDbLine
 10
9494.520938151433
 20
2271.659483326423
 30
0.0
 11
10748.52093815143
 21
2271.659483326423
 31
0.0
  0
LINE
  5
16AE4
330
747D
100
AcDbEntity
  8
部品1
 48
50.0
100
AcDbLine
 10
10778.52093815143
 20
2224.659483326424
 30
0.0
 11
10778.52093815143
 21
4059.659483326426
 31
0.0
  0
LINE
  5
16AE5
330
747D
100
AcDbEntity
  8
細線
 48
50.0
100
AcDbLine
 10
10748.52093815143
 20
2224.659483326424
 30
0.0
 11
10748.52093815143
 21
4017.159483326426
 31
0.0
  0
LINE
  5
16AE6
330
747D
100
AcDbEntity
  8
部品1
 48
50.0
100
AcDbLine
 10
10739.52093815143
 20
2271.659483326423
 30
0.0
 11
10739.52093815143
 21
4007.659483326426
 31
0.0
  0
LINE
  5
16AE7
330
747D
100
AcDbEntity
  8
部品1
 48
50.0
100
AcDbLine
 10
9464.520938151432
 20
4059.659483326426
 30
0.0
 11
9464.520938151432
 21
2224.659483326424
 31
0.0
  0
LINE
  5
16AE8
330
747D
100
AcDbEntity
  8
細線
 48
50.0
100
AcDbLine
 10
9494.520938151433
 20
4017.159483326426
 30
0.0
 11
9494.520938151433
 21
2224.659483326424
 31
0.0
  0
LINE
  5
16AE9
330
747D
100
AcDbEntity
  8
部品1
 48
50.0
100
AcDbLine
 10
9494.520938151433
 20
2274.659483326423
 30
0.0
 11
9494.520938151433
 21
4007.659483326426
 31
0.0
  0
LINE
  5
16AEA
330
747D
100
AcDbEntity
  8
細線
100
AcDbLine
 10
10172.02092884424
 20
4007.659483326419
 30
0.0
 11
10172.02092884425
 21
2282.159483326429
 31
0.0
  0
LINE
  5
16AEB
330
747D
100
AcDbEntity
  8
細線
100
AcDbLine
 10
10242.02092884425
 20
4007.659483326419
 30
0.0
 11
10242.02092884425
 21
2282.159483326429
 31
0.0
  0
LINE
  5
16AEC
330
747D
100
AcDbEntity
  8
細線
100
AcDbLine
 10
9784.520938151434
 20
4007.659483326422
 30
0.0
 11
9784.520938151434
 21
2274.659483326425
 31
0.0
  0
LINE
  5
16AED
330
747D
100
AcDbEntity
  8
細線
100
AcDbLine
 10
9854.520938151434
 20
4007.659483326422
 30
0.0
 11
9854.520938151434
 21
2274.659483326425
 31
0.0
  0
LINE
  5
16AEE
330
747D
100
AcDbEntity
  8
細線
100
AcDbLine
 10
10429.27093117105
 20
4007.659483326419
 30
0.0
 11
10429.27093117105
 21
2282.159483326433
 31
0.0
  0
LINE
  5
16AEF
330
747D
100
AcDbEntity
  8
細線
100
AcDbLine
 10
10499.27093117104
 20
4007.659483326419
 30
0.0
 11
10499.27093117105
 21
2282.159483326433
 31
0.0
  0
LINE
  5
16AF0
330
747D
100
AcDbEntity
  8
細線
100
AcDbLine
 10
10569.27093117105
 20
4007.659483326419
 30
0.0
 11
10569.27093117105
 21
2282.159483326433
 31
0.0
  0
LINE
  5
16AF1
330
747D
100
AcDbEntity
  8
細線
100
AcDbLine
 10
10639.27093117104
 20
4007.659483326419
 30
0.0
 11
10639.27093117105
 21
2282.159483326433
 31
0.0
  0
LINE
  5
16AF2
330
747D
100
AcDbEntity
  8
細線
100
AcDbLine
 10
9622.52093815143
 20
4007.659483326419
 30
0.0
 11
9622.52093815143
 21
2274.659483326423
 31
0.0
  0
LINE
  5
16AF3
330
747D
100
AcDbEntity
  8
細線
100
AcDbLine
 10
9656.52093815143
 20
4007.659483326419
 30
0.0
 11
9656.52093815143
 21
2274.659483326423
 31
0.0
  0
LINE
  5
16AF4
330
747D
100
AcDbEntity
  8
部品1
100
AcDbLine
 10
9614.520938151429
 20
4007.659483326419
 30
0.0
 11
9614.520938151429
 21
2274.659483326423
 31
0.0
  0
LINE
  5
16AF5
330
747D
100
AcDbEntity
  8
部品1
100
AcDbLine
 10
9664.520938151429
 20
4007.659483326419
 30
0.0
 11
9664.520938151429
 21
2274.659483326423
 31
0.0
  0
LINE
  5
16AF6
330
747D
100
AcDbEntity
  8
細線
100
AcDbLine
 10
10032.02092884424
 20
4007.659483326419
 30
0.0
 11
10032.02092884424
 21
2282.159483326426
 31
0.0
  0
LINE
  5
16AF7
330
747D
100
AcDbEntity
  8
細線
100
AcDbLine
 10
10102.02092884425
 20
4007.659483326419
 30
0.0
 11
10102.02092884425
 21
2282.159483326426
 31
0.0
  0
LINE
  5
16AF8
330
747D
100
AcDbEntity
  8
部品1
 48
50.0
100
AcDbLine
 10
10360.52092884425
 20
4007.65948332643
 30
0.0
 11
10360.52092884425
 21
2282.159483326427
 31
0.0
  0
LINE
  5
16AF9
330
747D
100
AcDbEntity
  8
部品1
 48
50.0
100
AcDbLine
 10
9954.520938151441
 20
4007.659483326426
 30
0.0
 11
9954.520938151439
 21
2274.659483326425
 31
0.0
  0
LINE
  5
16EC6
330
747D
100
AcDbEntity
  8
補助
  6
PHANTOM
 62
   230
 48
50.0
100
AcDbLine
 10
140.0
 20
0.0
 30
0.0
 11
139.9999999999995
 21
11409.6
 31
0.0
  0
TEXT
  5
16FC0
330
747D
100
AcDbEntity
  8
文字
 62
     7
 48
50.0
100
AcDbText
 10
14798.72402257234
 20
9740.013745883729
 30
0.0
 40
100.0
  1
F12(一般型1.0/多雪地型2.3)
  7
STYLE1
100
AcDbText
  0
LINE
  5
17326
330
747D
100
AcDbEntity
  8
部品1
100
AcDbLine
 10
7326.923908814173
 20
2224.659483326427
 30
0.0
 11
7334.423908814176
 21
2224.659483326426
 31
0.0
  0
LINE
  5
17327
330
747D
100
AcDbEntity
  8
部品1
100
AcDbLine
 10
5171.923908814173
 20
2224.659483326426
 30
0.0
 11
7286.923908814173
 21
2224.659483326427
 31
0.0
  0
LINE
  5
17345
330
747D
100
AcDbEntity
  8
細線
 48
50.0
100
AcDbLine
 10
6516.923908814177
 20
4064.659483326425
 30
0.0
 11
6516.923908814177
 21
2274.659483326426
 31
0.0
  0
LINE
  5
17346
330
747D
100
AcDbEntity
  8
細線
 48
50.0
100
AcDbLine
 10
6501.923908814177
 20
4064.659483326425
 30
0.0
 11
6501.923908814177
 21
2274.659483326426
 31
0.0
  0
LINE
  5
17347
330
747D
100
AcDbEntity
  8
細線
 48
50.0
100
AcDbLine
 10
6641.923908814177
 20
4064.659483326425
 30
0.0
 11
6641.923908814177
 21
2274.659483326426
 31
0.0
  0
LINE
  5
17348
330
747D
100
AcDbEntity
  8
細線
 48
50.0
100
AcDbLine
 10
6656.923908814177
 20
4064.659483326425
 30
0.0
 11
6656.923908814177
 21
2274.659483326426
 31
0.0
  0
LINE
  5
17349
330
747D
100
AcDbEntity
  8
細線
 48
50.0
100
AcDbLine
 10
6796.923908814176
 20
4064.659483326425
 30
0.0
 11
6796.923908814176
 21
2274.659483326426
 31
0.0
  0
LINE
  5
1734A
330
747D
100
AcDbEntity
  8
細線
 48
50.0
100
AcDbLine
 10
6781.923908814177
 20
4064.659483326425
 30
0.0
 11
6781.923908814177
 21
2274.659483326426
 31
0.0
  0
LINE
  5
1734B
330
747D
100
AcDbEntity
  8
部品1
100
AcDbLine
 10
6859.423908814173
 20
4064.659483326425
 30
0.0
 11
6859.423908814173
 21
2274.659483326426
 31
0.0
  0
LINE
  5
1734C
330
747D
100
AcDbEntity
  8
部品1
100
AcDbLine
 10
5124.423908814173
 20
4064.659483326425
 30
0.0
 11
7334.423908814175
 21
4064.659483326425
 31
0.0
  0
LINE
  5
1734D
330
747D
100
AcDbEntity
  8
部品1
100
AcDbLine
 10
5124.423908814173
 20
2274.659483326426
 30
0.0
 11
7334.423908814176
 21
2274.659483326427
 31
0.0
  0
LINE
  5
1734E
330
747D
100
AcDbEntity
  8
部品1
100
AcDbLine
 10
5179.423908814173
 20
4064.659483326425
 30
0.0
 11
5179.423908814173
 21
2274.659483326426
 31
0.0
  0
LINE
  5
1734F
330
747D
100
AcDbEntity
  8
部品1
100
AcDbLine
 10
5124.423908814175
 20
4158.65948332643
 30
0.0
 11
5124.423908814173
 21
2124.659483326426
 31
0.0
  0
LINE
  5
17350
330
747D
100
AcDbEntity
  8
部品1
100
AcDbLine
 10
5599.423908814173
 20
4064.659483326425
 30
0.0
 11
5599.423908814173
 21
2274.659483326426
 31
0.0
  0
LINE
  5
17351
330
747D
100
AcDbEntity
  8
部品1
100
AcDbLine
 10
7334.423908814172
 20
4158.659483326433
 30
0.0
 11
7334.423908814176
 21
2124.659483326426
 31
0.0
  0
LINE
  5
17352
330
747D
100
AcDbEntity
  8
部品1
100
AcDbLine
 10
7279.423908814177
 20
4064.659483326425
 30
0.0
 11
7279.423908814177
 21
2274.659483326426
 31
0.0
  0
LINE
  5
17357
330
747D
100
AcDbEntity
  8
部品1
100
AcDbLine
 10
5124.423908814173
 20
2224.659483326426
 30
0.0
 11
5131.923908814172
 21
2224.659483326426
 31
0.0
  0
LINE
  5
17358
330
747D
100
AcDbEntity
  8
細線
 48
50.0
100
AcDbLine
 10
5676.923908814173
 20
4064.659483326425
 30
0.0
 11
5676.923908814173
 21
2274.659483326426
 31
0.0
  0
LINE
  5
17359
330
747D
100
AcDbEntity
  8
細線
 48
50.0
100
AcDbLine
 10
5661.923908814173
 20
4064.659483326425
 30
0.0
 11
5661.923908814173
 21
2274.659483326426
 31
0.0
  0
LINE
  5
1735A
330
747D
100
AcDbEntity
  8
細線
 48
50.0
100
AcDbLine
 10
5801.923908814173
 20
4064.659483326425
 30
0.0
 11
5801.923908814173
 21
2274.659483326426
 31
0.0
  0
LINE
  5
1735B
330
747D
100
AcDbEntity
  8
細線
 48
50.0
100
AcDbLine
 10
5816.923908814173
 20
4064.659483326425
 30
0.0
 11
5816.923908814173
 21
2274.659483326426
 31
0.0
  0
LINE
  5
1735C
330
747D
100
AcDbEntity
  8
細線
 48
50.0
100
AcDbLine
 10
5956.923908814172
 20
4064.659483326425
 30
0.0
 11
5956.923908814172
 21
2274.659483326426
 31
0.0
  0
LINE
  5
1735D
330
747D
100
AcDbEntity
  8
細線
 48
50.0
100
AcDbLine
 10
5941.923908814173
 20
4064.659483326425
 30
0.0
 11
5941.923908814173
 21
2274.659483326426
 31
0.0
  0
LINE
  5
1735E
330
747D
100
AcDbEntity
  8
細線
 48
50.0
100
AcDbLine
 10
5521.923908814173
 20
4064.659483326425
 30
0.0
 11
5521.923908814173
 21
2274.659483326426
 31
0.0
  0
LINE
  5
1735F
330
747D
100
AcDbEntity
  8
細線
 48
50.0
100
AcDbLine
 10
5536.923908814173
 20
4064.659483326425
 30
0.0
 11
5536.923908814173
 21
2274.659483326426
 31
0.0
  0
LINE
  5
17360
330
747D
100
AcDbEntity
  8
細線
 48
50.0
100
AcDbLine
 10
5396.923908814173
 20
4064.659483326425
 30
0.0
 11
5396.923908814173
 21
2274.659483326426
 31
0.0
  0
LINE
  5
17361
330
747D
100
AcDbEntity
  8
細線
 48
50.0
100
AcDbLine
 10
5381.923908814172
 20
4064.659483326425
 30
0.0
 11
5381.923908814172
 21
2274.659483326426
 31
0.0
  0
LINE
  5
17362
330
747D
100
AcDbEntity
  8
細線
 48
50.0
100
AcDbLine
 10
5241.923908814173
 20
4064.659483326425
 30
0.0
 11
5241.923908814173
 21
2274.659483326426
 31
0.0
  0
LINE
  5
17363
330
747D
100
AcDbEntity
  8
細線
 48
50.0
100
AcDbLine
 10
5256.923908814172
 20
4064.659483326425
 30
0.0
 11
5256.923908814172
 21
2274.659483326426
 31
0.0
  0
LINE
  5
17365
330
747D
100
AcDbEntity
  8
部品1
100
AcDbLine
 10
6019.423908814172
 20
4064.659483326425
 30
0.0
 11
6019.423908814172
 21
2274.659483326426
 31
0.0
  0
LINE
  5
17366
330
747D
100
AcDbEntity
  8
細線
 48
50.0
100
AcDbLine
 10
6361.923908814176
 20
4064.659483326425
 30
0.0
 11
6361.923908814176
 21
2274.659483326426
 31
0.0
  0
LINE
  5
17367
330
747D
100
AcDbEntity
  8
細線
 48
50.0
100
AcDbLine
 10
6376.923908814177
 20
4064.659483326425
 30
0.0
 11
6376.923908814177
 21
2274.659483326426
 31
0.0
  0
LINE
  5
17368
330
747D
100
AcDbEntity
  8
細線
 48
50.0
100
AcDbLine
 10
6236.923908814176
 20
4064.659483326425
 30
0.0
 11
6236.923908814176
 21
2274.659483326426
 31
0.0
  0
LINE
  5
17369
330
747D
100
AcDbEntity
  8
細線
 48
50.0
100
AcDbLine
 10
6221.923908814177
 20
4064.659483326425
 30
0.0
 11
6221.923908814177
 21
2274.659483326426
 31
0.0
  0
LINE
  5
1736A
330
747D
100
AcDbEntity
  8
細線
 48
50.0
100
AcDbLine
 10
6081.923908814177
 20
4064.659483326425
 30
0.0
 11
6081.923908814177
 21
2274.659483326426
 31
0.0
  0
LINE
  5
1736B
330
747D
100
AcDbEntity
  8
細線
 48
50.0
100
AcDbLine
 10
6096.923908814177
 20
4064.659483326425
 30
0.0
 11
6096.923908814177
 21
2274.659483326426
 31
0.0
  0
LINE
  5
1736C
330
747D
100
AcDbEntity
  8
部品1
100
AcDbLine
 10
6439.423908814173
 20
4064.659483326425
 30
0.0
 11
6439.423908814173
 21
2274.659483326426
 31
0.0
  0
LINE
  5
1736D
330
747D
100
AcDbEntity
  8
細線
 48
50.0
100
AcDbLine
 10
6936.923908814181
 20
4064.659483326425
 30
0.0
 11
6936.923908814181
 21
2274.659483326426
 31
0.0
  0
LINE
  5
1736E
330
747D
100
AcDbEntity
  8
細線
 48
50.0
100
AcDbLine
 10
6921.92390881418
 20
4064.659483326425
 30
0.0
 11
6921.92390881418
 21
2274.659483326426
 31
0.0
  0
LINE
  5
1736F
330
747D
100
AcDbEntity
  8
細線
 48
50.0
100
AcDbLine
 10
7061.923908814181
 20
4064.659483326425
 30
0.0
 11
7061.923908814181
 21
2274.659483326426
 31
0.0
  0
LINE
  5
17370
330
747D
100
AcDbEntity
  8
細線
 48
50.0
100
AcDbLine
 10
7076.92390881418
 20
4064.659483326425
 30
0.0
 11
7076.92390881418
 21
2274.659483326426
 31
0.0
  0
LINE
  5
17371
330
747D
100
AcDbEntity
  8
細線
 48
50.0
100
AcDbLine
 10
7216.92390881418
 20
4064.659483326425
 30
0.0
 11
7216.92390881418
 21
2274.659483326426
 31
0.0
  0
LINE
  5
17372
330
747D
100
AcDbEntity
  8
細線
 48
50.0
100
AcDbLine
 10
7201.92390881418
 20
4064.659483326425
 30
0.0
 11
7201.92390881418
 21
2274.659483326426
 31
0.0
  0
TEXT
  5
17374
330
747D
100
AcDbEntity
  8
部品1
100
AcDbText
 10
5937.134677123561
 20
1242.727691130492
 30
0.0
 40
135.0
  1
側面図
  7
STYLE2
100
AcDbText
  0
LINE
  5
17379
330
747D
100
AcDbEntity
  8
部品1
100
AcDbLine
 10
5847.688575699953
 20
1435.621220349016
 30
0.0
 11
5847.688575699953
 21
1195.728898803483
 31
0.0
  0
LINE
  5
1737A
330
747D
100
AcDbEntity
  8
部品1
100
AcDbLine
 10
5847.688575699953
 20
1195.728898803483
 30
0.0
 11
6611.159241928394
 21
1195.728898803483
 31
0.0
  0
LINE
  5
1737B
330
747D
100
AcDbEntity
  8
部品1
100
AcDbLine
 10
6611.159241928394
 20
1195.728898803483
 30
0.0
 11
6611.159241928394
 21
1435.621220349016
 31
0.0
  0
LINE
  5
1737C
330
747D
100
AcDbEntity
  8
部品1
100
AcDbLine
 10
6611.159241928394
 20
1435.621220349016
 30
0.0
 11
5847.688575699953
 21
1435.621220349016
 31
0.0
  0
LINE
  5
1737D
330
747D
100
AcDbEntity
  8
部品1
100
AcDbLine
 10
5124.423908814173
 20
2224.659483326426
 30
0.0
 11
5131.923908814172
 21
2224.659483326426
 31
0.0
  0
LINE
  5
17382
330
747D
100
AcDbEntity
  8
破線
  6
HIDDEN
 48
5.0
100
AcDbLine
 10
7341.923908814173
 20
1969.659483326426
 30
0.0
 11
7271.923908814173
 21
1969.659483326426
 31
0.0
  0
LINE
  5
17383
330
747D
100
AcDbEntity
  8
破線
  6
HIDDEN
 48
5.0
100
AcDbLine
 10
7286.923908814173
 20
2119.659483326426
 30
0.0
 11
7271.923908814173
 21
1971.959483326426
 31
0.0
  0
LINE
  5
17384
330
747D
100
AcDbEntity
  8
破線
  6
HIDDEN
 48
5.0
100
AcDbLine
 10
7271.923908814173
 20
1971.959483326426
 30
0.0
 11
7271.923908814173
 21
1969.659483326426
 31
0.0
  0
LINE
  5
17385
330
747D
100
AcDbEntity
  8
破線
  6
HIDDEN
 48
5.0
100
AcDbLine
 10
7326.923908814173
 20
2119.659483326426
 30
0.0
 11
7341.923908814173
 21
1971.959483326426
 31
0.0
  0
LINE
  5
17386
330
747D
100
AcDbEntity
  8
破線
  6
HIDDEN
 48
5.0
100
AcDbLine
 10
7341.923908814173
 20
1971.959483326426
 30
0.0
 11
7341.923908814173
 21
1969.659483326426
 31
0.0
  0
LINE
  5
17387
330
747D
100
AcDbEntity
  8
破線
  6
HIDDEN
 48
5.0
100
AcDbLine
 10
5116.923908814173
 20
1969.659483326426
 30
0.0
 11
5186.923908814173
 21
1969.659483326426
 31
0.0
  0
LINE
  5
17388
330
747D
100
AcDbEntity
  8
破線
  6
HIDDEN
 48
5.0
100
AcDbLine
 10
5116.923908814173
 20
1971.959483326426
 30
0.0
 11
5116.923908814173
 21
1969.659483326426
 31
0.0
  0
LINE
  5
17389
330
747D
100
AcDbEntity
  8
破線
  6
HIDDEN
 48
5.0
100
AcDbLine
 10
5186.923908814173
 20
1971.959483326426
 30
0.0
 11
5186.923908814173
 21
1969.659483326426
 31
0.0
  0
LINE
  5
1738A
330
747D
100
AcDbEntity
  8
破線
  6
HIDDEN
 48
5.0
100
AcDbLine
 10
5131.923908814172
 20
2119.659483326426
 30
0.0
 11
5116.923908814173
 21
1971.959483326426
 31
0.0
  0
LINE
  5
1738B
330
747D
100
AcDbEntity
  8
破線
  6
HIDDEN
 48
5.0
100
AcDbLine
 10
5171.923908814173
 20
2119.659483326426
 30
0.0
 11
5186.923908814173
 21
1971.959483326426
 31
0.0
  0
LINE
  5
1738C
330
747D
100
AcDbEntity
  8
部品1
 48
50.0
100
AcDbLine
 10
5131.923908814172
 20
2264.659483326426
 30
0.0
 11
5131.923908814172
 21
2124.659483326426
 31
0.0
  0
LINE
  5
1738D
330
747D
100
AcDbEntity
  8
部品1
 48
50.0
100
AcDbLine
 10
5171.923908814173
 20
2264.659483326426
 30
0.0
 11
5171.923908814173
 21
2124.659483326426
 31
0.0
  0
LINE
  5
1738E
330
747D
100
AcDbEntity
  8
部品1
100
AcDbLine
 10
5136.923908814173
 20
2269.659483326426
 30
0.0
 11
5166.923908814172
 21
2269.659483326426
 31
0.0
  0
ARC
  5
1738F
330
747D
100
AcDbEntity
  8
部品1
 48
50.0
100
AcDbCircle
 10
5136.923908814173
 20
2264.659483326426
 30
0.0
 40
5.0
100
AcDbArc
 50
90.0
 51
180.0
  0
ARC
  5
17390
330
747D
100
AcDbEntity
  8
部品1
 48
50.0
100
AcDbCircle
 10
5166.923908814172
 20
2264.659483326426
 30
0.0
 40
5.0
100
AcDbArc
 50
0.0
 51
90.0
  0
LINE
  5
17391
330
747D
100
AcDbEntity
  8
部品1
 48
50.0
100
AcDbLine
 10
7286.923908814173
 20
2264.659483326426
 30
0.0
 11
7286.923908814173
 21
2124.659483326426
 31
0.0
  0
LINE
  5
17392
330
747D
100
AcDbEntity
  8
部品1
 48
50.0
100
AcDbLine
 10
7326.923908814173
 20
2264.659483326426
 30
0.0
 11
7326.923908814173
 21
2124.659483326426
 31
0.0
  0
LINE
  5
17393
330
747D
100
AcDbEntity
  8
部品1
100
AcDbLine
 10
7321.923908814174
 20
2269.659483326426
 30
0.0
 11
7291.923908814173
 21
2269.659483326426
 31
0.0
  0
ARC
  5
17394
330
747D
100
AcDbEntity
  8
部品1
 48
50.0
100
AcDbCircle
 10
7291.923908814173
 20
2264.659483326426
 30
0.0
 40
5.0
100
AcDbArc
 50
90.0
 51
180.0
  0
ARC
  5
17395
330
747D
100
AcDbEntity
  8
部品1
 48
50.0
100
AcDbCircle
 10
7321.923908814174
 20
2264.659483326426
 30
0.0
 40
5.0
100
AcDbArc
 50
0.0
 51
90.0
  0
LINE
  5
17396
330
747D
100
AcDbEntity
  8
破線
  6
HIDDEN
 48
5.0
100
AcDbLine
 10
7286.923908814173
 20
2124.659483326426
 30
0.0
 11
7286.923908814173
 21
2119.659483326426
 31
0.0
  0
LINE
  5
17397
330
747D
100
AcDbEntity
  8
破線
  6
HIDDEN
 48
5.0
100
AcDbLine
 10
7326.923908814173
 20
2124.659483326426
 30
0.0
 11
7326.923908814173
 21
2119.659483326426
 31
0.0
  0
LINE
  5
17398
330
747D
100
AcDbEntity
  8
破線
  6
HIDDEN
 48
5.0
100
AcDbLine
 10
5131.92390881418
 20
2124.659483326426
 30
0.0
 11
5131.92390881418
 21
2119.659483326426
 31
0.0
  0
LINE
  5
17399
330
747D
100
AcDbEntity
  8
破線
  6
HIDDEN
 48
5.0
100
AcDbLine
 10
5171.923908814173
 20
2124.659483326426
 30
0.0
 11
5171.923908814173
 21
2119.659483326426
 31
0.0
  0
LINE
  5
1739A
330
747D
100
AcDbEntity
  8
部品1
100
AcDbLine
 10
7326.923908814173
 20
2224.659483326426
 30
0.0
 11
7334.423908814176
 21
2224.659483326426
 31
0.0
  0
DIMENSION
  5
1739C
330
747D
100
AcDbEntity
  8
寸法
 48
50.0
100
AcDbDimension
  2
*D24
 10
4902.42390556754
 20
2124.659483326425
 30
0.0
 11
4902.423905567538
 21
2024.659483326426
 31
0.0
 70
   160
 71
     5
 42
199.9999999999998
  3
INABA_S40G
100
AcDbAlignedDimension
 13
5051.923908814177
 23
1924.659483326425
 33
0.0
 14
5026.923908814173
 24
2124.659483326425
 34
0.0
 50
90.0
100
AcDbRotatedDimension
1001
ACAD
1000
DSTYLE
1002
{
1070
   174
1070
     0
1070
   272
1070
     1
1070
   288
1070
     0
1070
   341
1005
0
1002
}
  0
LINE
  5
1739D
330
747D
100
AcDbEntity
  8
破線
 48
5.0
100
AcDbLine
 10
5251.923908814173
 20
1924.659483326424
 30
0.0
 11
5051.923908814177
 21
1924.659483326424
 31
0.0
  0
LINE
  5
1739E
330
747D
100
AcDbEntity
  8
破線
 48
5.0
100
AcDbLine
 10
5251.923908814173
 20
2124.659483326426
 30
0.0
 11
5251.923908814173
 21
1924.659483326424
 31
0.0
  0
LINE
  5
1739F
330
747D
100
AcDbEntity
  8
破線
 48
5.0
100
AcDbLine
 10
5051.923908814173
 20
2124.659483326426
 30
0.0
 11
5051.923908814177
 21
1924.659483326424
 31
0.0
  0
DIMENSION
  5
173A0
330
747D
100
AcDbEntity
  8
寸法
 48
50.0
100
AcDbDimension
  2
*D25
 10
5051.923908814177
 20
1638.612154026047
 30
0.0
 11
5151.923908814175
 21
1638.612154026047
 31
0.0
 70
   160
 71
     5
 42
199.9999999999963
  3
INABA_S40G
100
AcDbAlignedDimension
 13
5251.923908814173
 23
1924.659483326423
 33
0.0
 14
5051.923908814177
 24
1924.659483326425
 34
0.0
100
AcDbRotatedDimension
  0
LINE
  5
173A1
330
747D
100
AcDbEntity
  8
破線
 48
5.0
100
AcDbLine
 10
7406.92390881418
 20
2124.659483326426
 30
0.0
 11
7406.923908814177
 21
1924.659483326424
 31
0.0
  0
LINE
  5
173A2
330
747D
100
AcDbEntity
  8
破線
 48
5.0
100
AcDbLine
 10
7406.923908814177
 20
1924.659483326424
 30
0.0
 11
7206.92390881418
 21
1924.659483326426
 31
0.0
  0
LINE
  5
173A3
330
747D
100
AcDbEntity
  8
破線
 48
5.0
100
AcDbLine
 10
7206.92390881418
 20
2124.659483326426
 30
0.0
 11
7206.92390881418
 21
1924.659483326426
 31
0.0
  0
LINE
  5
173A4
330
747D
100
AcDbEntity
  8
部品1
 48
50.0
100
AcDbLine
 10
7334.423908814176
 20
4059.659483326426
 30
0.0
 11
7411.423908814177
 21
4049.659483326427
 31
0.0
  0
LINE
  5
173A5
330
747D
100
AcDbEntity
  8
部品1
 48
50.0
100
AcDbLine
 10
7411.423908814177
 20
4049.659483326427
 30
0.0
 11
7411.423908814177
 21
2124.659483326426
 31
0.0
  0
LINE
  5
173A6
330
747D
100
AcDbEntity
  8
部品1
 48
50.0
100
AcDbLine
 10
7411.423908814177
 20
2224.659483326426
 30
0.0
 11
7326.923908814177
 21
2224.659483326426
 31
0.0
  0
LINE
  5
173A7
330
747D
100
AcDbEntity
  8
部品1
100
AcDbLine
 10
6934.423908814173
 20
2224.659483326426
 30
0.0
 11
6934.423908814173
 21
2124.659483326426
 31
0.0
  0
LINE
  5
173A8
330
747D
100
AcDbEntity
  8
部品1
 48
50.0
100
AcDbLine
 10
6329.423908814173
 20
2224.659483326426
 30
0.0
 11
6329.423908814173
 21
2124.659483326426
 31
0.0
  0
LINE
  5
173A9
330
747D
100
AcDbEntity
  8
部品1
 48
50.0
100
AcDbLine
 10
6129.423908814173
 20
2224.659483326426
 30
0.0
 11
6129.423908814173
 21
2124.659483326426
 31
0.0
  0
LINE
  5
173AA
330
747D
100
AcDbEntity
  8
部品1
100
AcDbLine
 10
5524.423908814173
 20
2224.659483326426
 30
0.0
 11
5524.423908814173
 21
2124.659483326426
 31
0.0
  0
TEXT
  5
173AB
330
747D
100
AcDbEntity
  8
部品1
100
AcDbText
 10
4004.584604618692
 20
2160.766386932328
 30
0.0
 40
125.0
  1
▽G.L
  7
STYLE2
100
AcDbText
  0
DIMENSION
  5
1753D
330
747D
100
AcDbEntity
  8
寸法
 48
50.0
100
AcDbDimension
  2
*D28
 10
7384.423908814174
 20
4913.873617175148
 30
0.0
 11
6229.423908814172
 21
4913.873617175148
 31
0.0
 70
   160
 71
     5
 42
2310.000000000002
  3
INABA_S40G
100
AcDbAlignedDimension
 13
5074.423908814173
 23
4299.659483326431
 33
0.0
 14
7384.423908814174
 24
4299.659483326428
 34
0.0
100
AcDbRotatedDimension
  0
DIMENSION
  5
1753F
330
747D
100
AcDbEntity
  8
寸法
 48
50.0
100
AcDbDimension
  2
*D27
 10
5074.423908814173
 20
4704.279742753698
 30
0.0
 11
4760.938627439926
 21
4704.279742753698
 31
0.0
 70
   160
 71
     5
 42
50.0
  3
INABA_S40G
100
AcDbAlignedDimension
 13
5124.423908814173
 23
4299.659483326432
 33
0.0
 14
5074.423908814173
 24
4299.659483326431
 34
0.0
100
AcDbRotatedDimension
1001
ACAD
1000
DSTYLE
1002
{
1002
}
  0
DIMENSION
  5
17540
330
747D
100
AcDbEntity
  8
寸法
 48
50.0
100
AcDbDimension
  2
*D26
 10
5124.423908814173
 20
4704.279742753698
 30
0.0
 11
6229.423908814172
 21
4704.279742753698
 31
0.0
 70
   160
  1
柱外寸法<>
 71
     5
 42
2210.000000000002
  3
INABA_S40G
100
AcDbAlignedDimension
 13
7334.423908814175
 23
4299.659483326431
 33
0.0
 14
5124.423908814173
 24
4299.659483326432
 34
0.0
100
AcDbRotatedDimension
  0
LINE
  5
17541
330
747D
100
AcDbEntity
  8
部品1
 48
50.0
100
AcDbLine
 10
7377.015487707741
 20
4299.659483326428
 30
0.0
 11
5081.832329920604
 21
4299.659483326432
 31
0.0
  0
LINE
  5
17542
330
747D
100
AcDbEntity
  8
部品1
 48
50.0
100
AcDbLine
 10
7363.800164246708
 20
4158.659483326433
 30
0.0
 11
5095.047653381636
 21
4158.65948332643
 31
0.0
  0
LINE
  5
17543
330
747D
100
AcDbEntity
  8
細線
 48
50.0
100
AcDbLine
 10
7382.384370592737
 20
4271.65948332643
 30
0.0
 11
5076.463447035612
 21
4271.659483326428
 31
0.0
  0
LINE
  5
17544
330
747D
100
AcDbEntity
  8
細線
 48
50.0
100
AcDbLine
 10
7374.148340067889
 20
4179.459483326425
 30
0.0
 11
5084.69947756044
 21
4179.459483326431
 31
0.0
  0
LINE
  5
17547
330
747D
100
AcDbEntity
  8
細線
 48
50.0
100
AcDbLine
 10
5107.423908814173
 20
4299.659483326429
 30
0.0
 11
5107.423908814173
 21
4158.65948332643
 31
0.0
  0
ARC
  5
17550
330
747D
100
AcDbEntity
  8
部品1
100
AcDbCircle
 10
5081.832329920604
 20
4292.659483326429
 30
0.0
 40
7.0
100
AcDbArc
 50
90.0
 51
183.2473427903377
  0
ARC
  5
17551
330
747D
100
AcDbEntity
  8
部品1
100
AcDbCircle
 10
5095.047653381636
 20
4165.659483326431
 30
0.0
 40
7.0
100
AcDbArc
 50
183.2473427903377
 51
270.0
  0
ARC
  5
17552
330
747D
100
AcDbEntity
  8
部品1
 48
50.0
100
AcDbCircle
 10
5076.67584317096
 20
4272.326482488115
 30
0.0
 40
0.7
100
AcDbArc
 50
183.2473427903897
 51
262.3418727926349
  0
ARC
  5
17553
330
747D
100
AcDbEntity
  8
部品1
 48
50.0
100
AcDbCircle
 10
5084.911873695801
 20
4180.126482488113
 30
0.0
 40
0.7
100
AcDbArc
 50
183.2473427903116
 51
262.3418727926349
  0
ARC
  5
17554
330
747D
100
AcDbEntity
  8
部品1
 48
50.0
100
AcDbCircle
 10
5084.41880458724
 20
4176.459483326428
 30
0.0
 40
3.0
100
AcDbArc
 50
3.247342790337682
 51
82.3418727926348
  0
ARC
  5
17555
330
747D
100
AcDbEntity
  8
部品1
 48
50.0
100
AcDbCircle
 10
5076.182774062398
 20
4268.659483326431
 30
0.0
 40
3.0
100
AcDbArc
 50
3.247342790337682
 51
82.3418727926348
  0
LINE
  5
17556
330
747D
100
AcDbEntity
  8
部品1
100
AcDbLine
 10
5079.177956958581
 20
4268.829422781533
 30
0.0
 11
5084.212997686693
 21
4180.086829948588
 31
0.0
  0
LINE
  5
17557
330
747D
100
AcDbEntity
  8
部品1
100
AcDbLine
 10
5087.413987483429
 20
4176.62942278153
 30
0.0
 11
5088.058893290537
 21
4165.26295793119
 31
0.0
  0
LINE
  5
17558
330
747D
100
AcDbEntity
  8
部品1
100
AcDbLine
 10
5074.843569829505
 20
4292.262957931191
 30
0.0
 11
5075.976967161853
 21
4272.28682994859
 31
0.0
  0
ARC
  5
17559
330
747D
100
AcDbEntity
  8
部品1
 48
0.01
100
AcDbCircle
 10
6756.423908814173
 20
4128.659483326425
 30
0.0
 40
2.0
100
AcDbArc
 50
90.0
 51
180.0
  0
ARC
  5
1755A
330
747D
100
AcDbEntity
  8
部品1
 48
0.01
100
AcDbCircle
 10
6932.423908814174
 20
4128.659483326425
 30
0.0
 40
2.0
100
AcDbArc
 50
0.0
 51
90.0
  0
LINE
  5
1755B
330
747D
100
AcDbEntity
  8
細線
100
AcDbLine
 10
6844.423908814173
 20
4101.159483326425
 30
0.0
 11
6770.423908814173
 21
4101.159483326425
 31
0.0
  0
LINE
  5
1755C
330
747D
100
AcDbEntity
  8
細線
100
AcDbLine
 10
6844.423908814173
 20
4124.159483326425
 30
0.0
 11
6918.423908814173
 21
4124.159483326425
 31
0.0
  0
LINE
  5
1755D
330
747D
100
AcDbEntity
  8
細線
100
AcDbLine
 10
6918.423908814173
 20
4101.159483326425
 30
0.0
 11
6844.423908814173
 21
4101.159483326425
 31
0.0
  0
LINE
  5
1755E
330
747D
100
AcDbEntity
  8
細線
100
AcDbLine
 10
6770.423908814173
 20
4124.159483326425
 30
0.0
 11
6844.423908814173
 21
4124.159483326425
 31
0.0
  0
LINE
  5
1755F
330
747D
100
AcDbEntity
  8
細線
100
AcDbLine
 10
6770.423908814173
 20
4101.159483326425
 30
0.0
 11
6770.423908814173
 21
4124.159483326425
 31
0.0
  0
LINE
  5
17560
330
747D
100
AcDbEntity
  8
細線
100
AcDbLine
 10
6918.423908814173
 20
4124.159483326425
 30
0.0
 11
6918.423908814173
 21
4101.159483326425
 31
0.0
  0
LINE
  5
17561
330
747D
100
AcDbEntity
  8
部品1
 48
0.01
100
AcDbLine
 10
6756.423908814173
 20
4130.659483326425
 30
0.0
 11
6932.423908814174
 21
4130.659483326425
 31
0.0
  0
LINE
  5
17562
330
747D
100
AcDbEntity
  8
細線
100
AcDbLine
 10
6918.423908814173
 20
4118.159483326425
 30
0.0
 11
6844.423908814173
 21
4118.159483326425
 31
0.0
  0
LINE
  5
17563
330
747D
100
AcDbEntity
  8
細線
100
AcDbLine
 10
6918.423908814173
 20
4112.159483326425
 30
0.0
 11
6844.423908814173
 21
4112.159483326425
 31
0.0
  0
LINE
  5
17564
330
747D
100
AcDbEntity
  8
細線
100
AcDbLine
 10
6918.423908814173
 20
4106.159483326424
 30
0.0
 11
6844.423908814173
 21
4106.159483326424
 31
0.0
  0
LINE
  5
17565
330
747D
100
AcDbEntity
  8
細線
100
AcDbLine
 10
6918.423908814173
 20
4118.159483326425
 30
0.0
 11
6849.423908814173
 21
4118.159483326425
 31
0.0
  0
LINE
  5
17566
330
747D
100
AcDbEntity
  8
細線
100
AcDbLine
 10
6770.423908814173
 20
4118.159483326424
 30
0.0
 11
6844.423908814173
 21
4118.159483326425
 31
0.0
  0
LINE
  5
17567
330
747D
100
AcDbEntity
  8
細線
100
AcDbLine
 10
6770.423908814173
 20
4106.159483326424
 30
0.0
 11
6844.423908814173
 21
4106.159483326424
 31
0.0
  0
LINE
  5
17568
330
747D
100
AcDbEntity
  8
細線
100
AcDbLine
 10
6770.423908814173
 20
4112.159483326425
 30
0.0
 11
6844.423908814173
 21
4112.159483326425
 31
0.0
  0
LINE
  5
17569
330
747D
100
AcDbEntity
  8
細線
100
AcDbLine
 10
6844.423908814173
 20
4124.159483326425
 30
0.0
 11
6844.423908814173
 21
4101.159483326425
 31
0.0
  0
ARC
  5
1756A
330
747D
100
AcDbEntity
  8
部品1
 48
0.01
100
AcDbCircle
 10
6756.423908814173
 20
4097.159483326425
 30
0.0
 40
2.0
100
AcDbArc
 50
180.0
 51
270.0
  0
ARC
  5
1756B
330
747D
100
AcDbEntity
  8
部品1
 48
0.01
100
AcDbCircle
 10
6932.423908814174
 20
4097.159483326425
 30
0.0
 40
2.0
100
AcDbArc
 50
270.0
 51
0.0
  0
LINE
  5
1756C
330
747D
100
AcDbEntity
  8
部品1
 48
0.01
100
AcDbLine
 10
6754.423908814174
 20
4097.159483326425
 30
0.0
 11
6754.423908814174
 21
4128.659483326425
 31
0.0
  0
LINE
  5
1756D
330
747D
100
AcDbEntity
  8
部品1
 48
0.01
100
AcDbLine
 10
6932.423908814174
 20
4095.159483326425
 30
0.0
 11
6756.423908814173
 21
4095.159483326425
 31
0.0
  0
LINE
  5
1756E
330
747D
100
AcDbEntity
  8
部品1
 48
0.01
100
AcDbLine
 10
6934.423908814173
 20
4128.659483326425
 30
0.0
 11
6934.423908814173
 21
4097.159483326425
 31
0.0
  0
LINE
  5
1756F
330
747D
100
AcDbEntity
  8
細線
100
AcDbLine
 10
5614.423908814173
 20
4124.159483326425
 30
0.0
 11
5614.423908814171
 21
4101.159483326425
 31
0.0
  0
LINE
  5
17570
330
747D
100
AcDbEntity
  8
細線
100
AcDbLine
 10
5688.423908814171
 20
4112.159483326425
 30
0.0
 11
5614.423908814173
 21
4112.159483326425
 31
0.0
  0
LINE
  5
17571
330
747D
100
AcDbEntity
  8
細線
100
AcDbLine
 10
5688.423908814171
 20
4106.159483326424
 30
0.0
 11
5614.423908814173
 21
4106.159483326424
 31
0.0
  0
LINE
  5
17572
330
747D
100
AcDbEntity
  8
細線
100
AcDbLine
 10
5688.423908814171
 20
4118.159483326424
 30
0.0
 11
5614.423908814173
 21
4118.159483326425
 31
0.0
  0
LINE
  5
17573
330
747D
100
AcDbEntity
  8
細線
100
AcDbLine
 10
5540.423908814172
 20
4118.159483326425
 30
0.0
 11
5609.423908814173
 21
4118.159483326425
 31
0.0
  0
LINE
  5
17574
330
747D
100
AcDbEntity
  8
細線
100
AcDbLine
 10
5540.423908814172
 20
4106.159483326424
 30
0.0
 11
5614.423908814173
 21
4106.159483326424
 31
0.0
  0
LINE
  5
17575
330
747D
100
AcDbEntity
  8
細線
100
AcDbLine
 10
5540.423908814172
 20
4112.159483326425
 30
0.0
 11
5614.423908814173
 21
4112.159483326425
 31
0.0
  0
LINE
  5
17576
330
747D
100
AcDbEntity
  8
細線
100
AcDbLine
 10
5540.423908814172
 20
4118.159483326425
 30
0.0
 11
5614.423908814173
 21
4118.159483326425
 31
0.0
  0
LINE
  5
17577
330
747D
100
AcDbEntity
  8
部品1
 48
0.01
100
AcDbLine
 10
5702.423908814173
 20
4130.659483326425
 30
0.0
 11
5526.423908814173
 21
4130.659483326425
 31
0.0
  0
LINE
  5
17578
330
747D
100
AcDbEntity
  8
部品1
 48
0.01
100
AcDbLine
 10
5524.423908814173
 20
4128.659483326425
 30
0.0
 11
5524.423908814173
 21
4097.159483326425
 31
0.0
  0
LINE
  5
17579
330
747D
100
AcDbEntity
  8
部品1
 48
0.01
100
AcDbLine
 10
5526.423908814173
 20
4095.159483326425
 30
0.0
 11
5702.423908814171
 21
4095.159483326425
 31
0.0
  0
LINE
  5
1757A
330
747D
100
AcDbEntity
  8
部品1
 48
0.01
100
AcDbLine
 10
5704.423908814171
 20
4097.159483326425
 30
0.0
 11
5704.423908814173
 21
4128.659483326425
 31
0.0
  0
LINE
  5
1757B
330
747D
100
AcDbEntity
  8
細線
100
AcDbLine
 10
5540.423908814172
 20
4124.159483326425
 30
0.0
 11
5540.423908814172
 21
4101.159483326425
 31
0.0
  0
LINE
  5
1757C
330
747D
100
AcDbEntity
  8
細線
100
AcDbLine
 10
5688.423908814173
 20
4101.159483326425
 30
0.0
 11
5688.423908814173
 21
4124.159483326425
 31
0.0
  0
LINE
  5
1757D
330
747D
100
AcDbEntity
  8
細線
100
AcDbLine
 10
5688.423908814173
 20
4124.159483326425
 30
0.0
 11
5614.423908814173
 21
4124.159483326425
 31
0.0
  0
LINE
  5
1757E
330
747D
100
AcDbEntity
  8
細線
100
AcDbLine
 10
5540.423908814172
 20
4101.159483326425
 30
0.0
 11
5614.423908814173
 21
4101.159483326425
 31
0.0
  0
LINE
  5
1757F
330
747D
100
AcDbEntity
  8
細線
100
AcDbLine
 10
5614.423908814173
 20
4124.159483326425
 30
0.0
 11
5540.423908814172
 21
4124.159483326425
 31
0.0
  0
LINE
  5
17580
330
747D
100
AcDbEntity
  8
細線
100
AcDbLine
 10
5614.423908814171
 20
4101.159483326425
 30
0.0
 11
5688.423908814173
 21
4101.159483326425
 31
0.0
  0
ARC
  5
17581
330
747D
100
AcDbEntity
  8
部品1
 48
0.01
100
AcDbCircle
 10
5526.423908814173
 20
4128.659483326425
 30
0.0
 40
2.0
100
AcDbArc
 50
90.0
 51
180.0
  0
ARC
  5
17582
330
747D
100
AcDbEntity
  8
部品1
 48
0.01
100
AcDbCircle
 10
5526.423908814173
 20
4097.159483326425
 30
0.0
 40
2.0
100
AcDbArc
 50
180.0
 51
270.0
  0
ARC
  5
17583
330
747D
100
AcDbEntity
  8
部品1
 48
0.01
100
AcDbCircle
 10
5702.423908814173
 20
4128.659483326425
 30
0.0
 40
2.0
100
AcDbArc
 50
0.0
 51
90.0
  0
ARC
  5
17584
330
747D
100
AcDbEntity
  8
部品1
 48
0.01
100
AcDbCircle
 10
5702.423908814171
 20
4097.159483326425
 30
0.0
 40
2.0
100
AcDbArc
 50
270.0
 51
0.0
  0
DIMENSION
  5
175E1
330
747D
100
AcDbEntity
  8
寸法
 48
50.0
100
AcDbDimension
  2
*D29
 10
7334.423908814175
 20
4704.279742753698
 30
0.0
 11
7697.909190188411
 21
4704.279742753698
 31
0.0
 70
   160
 71
     5
 42
50.0
  3
INABA_S40G
100
AcDbAlignedDimension
 13
7384.423908814174
 23
4299.659483326428
 33
0.0
 14
7334.423908814175
 24
4299.659483326431
 34
0.0
100
AcDbRotatedDimension
  0
LINE
  5
175E2
330
747D
100
AcDbEntity
  8
部品1
100
AcDbLine
 10
7384.004247798841
 20
4292.262957931191
 30
0.0
 11
7382.870850466495
 21
4272.28682994859
 31
0.0
  0
LINE
  5
175E3
330
747D
100
AcDbEntity
  8
細線
 48
50.0
100
AcDbLine
 10
7351.423908814175
 20
4299.659483326429
 30
0.0
 11
7351.423908814175
 21
4158.65948332643
 31
0.0
  0
LINE
  5
175E4
330
747D
100
AcDbEntity
  8
部品1
100
AcDbLine
 10
7371.433830144919
 20
4176.62942278153
 30
0.0
 11
7370.788924337806
 21
4165.26295793119
 31
0.0
  0
LINE
  5
175E5
330
747D
100
AcDbEntity
  8
部品1
100
AcDbLine
 10
7379.669860669763
 20
4268.829422781533
 30
0.0
 11
7374.634819941651
 21
4180.086829948588
 31
0.0
  0
ARC
  5
175E6
330
747D
100
AcDbEntity
  8
部品1
 48
50.0
100
AcDbCircle
 10
7382.665043565949
 20
4268.659483326431
 30
0.0
 40
3.0
100
AcDbArc
 50
97.65812720736519
 51
176.7526572096623
  0
ARC
  5
175E7
330
747D
100
AcDbEntity
  8
部品1
 48
50.0
100
AcDbCircle
 10
7374.429013041105
 20
4176.459483326428
 30
0.0
 40
3.0
100
AcDbArc
 50
97.65812720736519
 51
176.7526572096623
  0
ARC
  5
175E8
330
747D
100
AcDbEntity
  8
部品1
 48
50.0
100
AcDbCircle
 10
7373.935943932544
 20
4180.126482488113
 30
0.0
 40
0.7
100
AcDbArc
 50
277.6581272073652
 51
356.7526572096883
  0
ARC
  5
175E9
330
747D
100
AcDbEntity
  8
部品1
 48
50.0
100
AcDbCircle
 10
7382.171974457389
 20
4272.326482488115
 30
0.0
 40
0.7
100
AcDbArc
 50
277.6581272073652
 51
356.7526572096103
  0
ARC
  5
175EA
330
747D
100
AcDbEntity
  8
部品1
100
AcDbCircle
 10
7363.800164246708
 20
4165.659483326431
 30
0.0
 40
7.0
100
AcDbArc
 50
270.0
 51
356.7526572096623
  0
ARC
  5
175EB
330
747D
100
AcDbEntity
  8
部品1
100
AcDbCircle
 10
7377.015487707741
 20
4292.659483326429
 30
0.0
 40
7.0
100
AcDbArc
 50
356.7526572096623
 51
90.0
  0
LINE
  5
17892
330
747D
100
AcDbEntity
  8
寸法
 48
50.0
100
AcDbLine
 10
9742.915107505998
 20
6995.979357711267
 30
0.0
 11
9691.509099595895
 21
6995.979357711267
 31
0.0
  0
LINE
  5
17893
330
747D
100
AcDbEntity
  8
寸法
 48
50.0
100
AcDbLine
 10
9691.509099595895
 20
6995.979357711267
 30
0.0
 11
9691.509099595895
 21
7027.289516363433
 31
0.0
  0
LINE
  5
17894
330
747D
100
AcDbEntity
  8
寸法
 48
50.0
100
AcDbLine
 10
9691.509099595895
 20
7027.289516363433
 30
0.0
 11
9661.747767604472
 21
7027.289516363433
 31
0.0
  0
LINE
  5
17895
330
747D
100
AcDbEntity
  8
寸法
 48
50.0
100
AcDbLine
 10
9661.747767604472
 20
7027.289516363433
 30
0.0
 11
9717.212103550947
 21
7064.868967292042
 31
0.0
  0
LINE
  5
17896
330
747D
100
AcDbEntity
  8
寸法
 48
50.0
100
AcDbLine
 10
9772.676439497423
 20
7027.289516363433
 30
0.0
 11
9717.212103550947
 21
7064.868967292042
 31
0.0
  0
LINE
  5
17897
330
747D
100
AcDbEntity
  8
寸法
 48
50.0
100
AcDbLine
 10
9742.915107505998
 20
7027.289516363433
 30
0.0
 11
9772.676439497423
 21
7027.289516363433
 31
0.0
  0
LINE
  5
17898
330
747D
100
AcDbEntity
  8
寸法
 48
50.0
100
AcDbLine
 10
9742.915107505998
 20
6995.979357711267
 30
0.0
 11
9742.915107505998
 21
7027.289516363433
 31
0.0
  0
LINE
  5
17899
330
747D
100
AcDbEntity
  8
寸法
 48
50.0
100
AcDbLine
 10
9691.509099595895
 20
6995.979357711267
 30
0.0
 11
9742.915107505998
 21
6995.979357711267
 31
0.0
  0
LINE
  5
1789A
330
747D
100
AcDbEntity
  8
寸法
 48
50.0
100
AcDbLine
 10
10022.08064178285
 20
7053.124948466089
 30
0.0
 11
10022.08064178285
 21
6999.4613138843
 31
0.0
  0
LINE
  5
1789B
330
747D
100
AcDbEntity
  8
寸法
 48
50.0
100
AcDbLine
 10
10111.36486037827
 20
7029.201314196604
 30
0.0
 11
10022.08064178285
 21
7053.124948466089
 31
0.0
  0
LINE
  5
1789C
330
747D
100
AcDbEntity
  8
寸法
 48
50.0
100
AcDbLine
 10
9892.212920202553
 20
7029.201314196604
 30
0.0
 11
10111.36486037827
 21
7029.201314196604
 31
0.0
  0
LINE
  5
1789D
330
747D
100
AcDbEntity
  8
細線
 48
50.0
100
AcDbLine
 10
10360.52093399506
 20
7194.442721091128
 30
0.0
 11
10739.52093815132
 21
7194.442721091128
 31
0.0
  0
LINE
  5
1789E
330
747D
100
AcDbEntity
  8
細線
 48
50.0
100
AcDbLine
 10
9954.520938151329
 20
7160.733952537054
 30
0.0
 11
10739.52093815132
 21
7160.733952537054
 31
0.0
  0
LINE
  5
1789F
330
747D
100
AcDbEntity
  8
細線
 48
50.0
100
AcDbLine
 10
9913.520938151329
 20
7190.138860533304
 30
0.0
 11
9503.520938151325
 21
7190.138860533304
 31
0.0
  0
LINE
  5
178A0
330
747D
100
AcDbEntity
  8
細線
100
AcDbLine
 10
10636.93938469475
 20
7218.942623696084
 30
0.0
 11
10571.60246127627
 21
7218.94262369607
 31
0.0
  0
LINE
  5
178A1
330
747D
100
AcDbEntity
  8
細線
100
AcDbLine
 10
10639.27093117093
 20
7213.942606142403
 30
0.0
 11
10636.93938469475
 21
7218.942623696084
 31
0.0
  0
LINE
  5
178A2
330
747D
100
AcDbEntity
  8
細線
100
AcDbLine
 10
10569.27092175448
 20
7213.942621056138
 30
0.0
 11
10571.60246127629
 21
7218.9426236961
 31
0.0
  0
LINE
  5
178A3
330
747D
100
AcDbEntity
  8
細線
100
AcDbLine
 10
10429.27093117094
 20
7213.942606142403
 30
0.0
 11
10431.60247069275
 21
7218.942608782365
 31
0.0
  0
LINE
  5
178A4
330
747D
100
AcDbEntity
  8
細線
100
AcDbLine
 10
10499.27094058739
 20
7213.942591228669
 30
0.0
 11
10496.9393941112
 21
7218.94260878235
 31
0.0
  0
LINE
  5
178A5
330
747D
100
AcDbEntity
  8
細線
100
AcDbLine
 10
10496.93939411121
 20
7218.94260878235
 30
0.0
 11
10431.60247069273
 21
7218.942608782336
 31
0.0
  0
LINE
  5
178A6
330
747D
100
AcDbEntity
  8
細線
 48
50.0
100
AcDbLine
 10
10153.40373411538
 20
7198.213469295486
 30
0.0
 11
10159.15925169805
 21
7179.942618004999
 31
0.0
  0
LINE
  5
178A7
330
747D
100
AcDbEntity
  8
細線
 48
50.0
100
AcDbLine
 10
10142.47528563495
 20
7198.213469295486
 30
0.0
 11
10153.40373411538
 21
7198.213469295486
 31
0.0
  0
ARC
  5
178A8
330
747D
100
AcDbEntity
  8
細線
 48
50.0
100
AcDbCircle
 10
10137.02092957763
 20
7199.713469295486
 30
0.0
 40
5.0
100
AcDbArc
 50
204.6243183521304
 51
335.3756816478695
  0
ARC
  5
178A9
330
747D
100
AcDbEntity
  8
細線
 48
50.0
100
AcDbCircle
 10
10142.47528563495
 20
7197.213469295485
 30
0.0
 40
1.0
100
AcDbArc
 50
90.0
 51
155.3756816478695
  0
ARC
  5
178AA
330
747D
100
AcDbEntity
  8
細線
 48
50.0
100
AcDbCircle
 10
10131.56657352031
 20
7197.213469295485
 30
0.0
 40
1.0
100
AcDbArc
 50
24.62431835213048
 51
90.0
  0
LINE
  5
178AB
330
747D
100
AcDbEntity
  8
細線
 48
50.0
100
AcDbLine
 10
10120.63812503988
 20
7198.213469295486
 30
0.0
 11
10131.56657352031
 21
7198.213469295486
 31
0.0
  0
LINE
  5
178AC
330
747D
100
AcDbEntity
  8
細線
 48
50.0
100
AcDbLine
 10
10114.88260745722
 20
7179.942618004992
 30
0.0
 11
10120.63812503988
 21
7198.213469295486
 31
0.0
  0
LINE
  5
178AD
330
747D
100
AcDbEntity
  8
細線
100
AcDbLine
 10
10239.68935596797
 20
7184.942618043186
 30
0.0
 11
10174.35243254949
 21
7184.94261804317
 31
0.0
  0
LINE
  5
178AE
330
747D
100
AcDbEntity
  8
細線
100
AcDbLine
 10
10242.02090244415
 20
7179.942600489505
 30
0.0
 11
10239.68935596797
 21
7184.942618043186
 31
0.0
  0
LINE
  5
178AF
330
747D
100
AcDbEntity
  8
細線
100
AcDbLine
 10
10172.02089425874
 20
7179.942618043215
 30
0.0
 11
10174.35243254951
 21
7184.942618043201
 31
0.0
  0
LINE
  5
178B0
330
747D
100
AcDbEntity
  8
細線
100
AcDbLine
 10
9784.520929965912
 20
7145.942797873073
 30
0.0
 11
9786.852468256679
 21
7150.942797873058
 31
0.0
  0
LINE
  5
178B1
330
747D
100
AcDbEntity
  8
細線
100
AcDbLine
 10
9854.520938151328
 20
7145.942780319359
 30
0.0
 11
9852.189391675139
 21
7150.942797873037
 31
0.0
  0
LINE
  5
178B2
330
747D
100
AcDbEntity
  8
細線
100
AcDbLine
 10
9852.189391675139
 20
7150.942797873037
 30
0.0
 11
9786.852468256666
 21
7150.942797873028
 31
0.0
  0
ARC
  5
178B3
330
747D
100
AcDbEntity
  8
部品1
 48
0.01
100
AcDbCircle
 10
9664.02083155258
 20
7144.941675687999
 30
0.0
 40
0.5
100
AcDbArc
 50
270.0
 51
0.0
  0
LINE
  5
178B4
330
747D
100
AcDbEntity
  8
部品1
 48
0.01
100
AcDbLine
 10
9664.520831552579
 20
7145.941675688
 30
0.0
 11
9664.520831552579
 21
7144.941675687999
 31
0.0
  0
LINE
  5
178B5
330
747D
100
AcDbEntity
  8
部品1
 48
0.01
100
AcDbLine
 10
9664.520831552579
 20
7145.941675688
 30
0.0
 11
9664.520831552579
 21
7144.941675687999
 31
0.0
  0
LINE
  5
178B6
330
747D
100
AcDbEntity
  8
部品1
 48
0.01
100
AcDbLine
 10
9664.02083155258
 20
7144.441675688
 30
0.0
 11
9657.408326122517
 21
7144.441675688
 31
0.0
  0
ARC
  5
178B7
330
747D
100
AcDbEntity
  8
部品1
100
AcDbCircle
 10
9657.476675675297
 20
7145.441675688001
 30
0.0
 40
1.0
100
AcDbArc
 50
160.5287793655778
 51
270.0
  0
ARC
  5
178B8
330
747D
100
AcDbEntity
  8
部品1
100
AcDbCircle
 10
9632.02083155258
 20
7154.441675688
 30
0.0
 40
26.0
100
AcDbArc
 50
340.5287793655779
 51
0.0
  0
LINE
  5
178B9
330
747D
100
AcDbEntity
  8
部品1
100
AcDbLine
 10
9658.02083155258
 20
7154.441675688
 30
0.0
 11
9658.02083155258
 21
7159.441675688
 31
0.0
  0
ARC
  5
178BA
330
747D
100
AcDbEntity
  8
部品1
 48
0.01
100
AcDbCircle
 10
9656.020831552581
 20
7159.441675688
 30
0.0
 40
2.0
100
AcDbArc
 50
0.0
 51
90.0
  0
ARC
  5
178BB
330
747D
100
AcDbEntity
  8
部品1
100
AcDbCircle
 10
9654.412439927767
 20
7158.441675688
 30
0.0
 40
3.0
100
AcDbArc
 50
90.0
 51
141.6069559807873
  0
LINE
  5
178BC
330
747D
100
AcDbEntity
  8
部品1
 48
0.01
100
AcDbLine
 10
9656.020831552581
 20
7161.441675688
 30
0.0
 11
9654.412439927767
 21
7161.441675688
 31
0.0
  0
ARC
  5
178BD
330
747D
100
AcDbEntity
  8
部品1
100
AcDbCircle
 10
9635.95011733831
 20
7157.741675688003
 30
0.0
 40
3.0
100
AcDbArc
 50
254.0576313943215
 51
270.0
  0
ARC
  5
178BE
330
747D
100
AcDbEntity
  8
部品1
100
AcDbCircle
 10
9643.09154576685
 20
7157.741675688003
 30
0.0
 40
3.0
100
AcDbArc
 50
270.0
 51
285.9423686056786
  0
LINE
  5
178BF
330
747D
100
AcDbEntity
  8
部品1
100
AcDbLine
 10
9643.09154576685
 20
7154.741675688002
 30
0.0
 11
9635.95011733831
 21
7154.741675688002
 31
0.0
  0
ARC
  5
178C0
330
747D
100
AcDbEntity
  8
部品1
100
AcDbCircle
 10
9639.52083155258
 20
7170.241675688003
 30
0.0
 40
16.0
100
AcDbArc
 50
285.9423686056786
 51
321.6069559807873
  0
LINE
  5
178C1
330
747D
100
AcDbEntity
  8
部品1
 48
0.01
100
AcDbLine
 10
9623.02083155258
 20
7161.441675688
 30
0.0
 11
9624.629223177393
 21
7161.441675688
 31
0.0
  0
ARC
  5
178C2
330
747D
100
AcDbEntity
  8
部品1
100
AcDbCircle
 10
9624.629223177393
 20
7158.441675688
 30
0.0
 40
3.0
100
AcDbArc
 50
38.39304401921267
 51
90.0
  0
ARC
  5
178C3
330
747D
100
AcDbEntity
  8
部品1
100
AcDbCircle
 10
9639.52083155258
 20
7170.241675688003
 30
0.0
 40
16.0
100
AcDbArc
 50
218.3930440192126
 51
254.0576313943215
  0
LINE
  5
178C4
330
747D
100
AcDbEntity
  8
部品1
100
AcDbLine
 10
9621.020831552581
 20
7154.441675688
 30
0.0
 11
9621.020831552581
 21
7159.441675688
 31
0.0
  0
ARC
  5
178C5
330
747D
100
AcDbEntity
  8
部品1
 48
0.01
100
AcDbCircle
 10
9623.02083155258
 20
7159.441675688
 30
0.0
 40
2.0
100
AcDbArc
 50
90.0
 51
180.0
  0
ARC
  5
178C6
330
747D
100
AcDbEntity
  8
部品1
100
AcDbCircle
 10
9647.02083155258
 20
7154.441675688
 30
0.0
 40
26.0
100
AcDbArc
 50
180.0
 51
199.4712206344221
  0
ARC
  5
178C7
330
747D
100
AcDbEntity
  8
部品1
 48
0.01
100
AcDbCircle
 10
9615.02083155258
 20
7144.941675687999
 30
0.0
 40
0.5
100
AcDbArc
 50
180.0
 51
270.0
  0
LINE
  5
178C8
330
747D
100
AcDbEntity
  8
部品1
 48
0.01
100
AcDbLine
 10
9615.02083155258
 20
7144.441675688
 30
0.0
 11
9621.564987429863
 21
7144.441675688
 31
0.0
  0
LINE
  5
178C9
330
747D
100
AcDbEntity
  8
部品1
 48
0.01
100
AcDbLine
 10
9614.52083155258
 20
7145.941675688
 30
0.0
 11
9614.52083155258
 21
7144.941675687999
 31
0.0
  0
ARC
  5
178CA
330
747D
100
AcDbEntity
  8
部品1
100
AcDbCircle
 10
9621.564987429863
 20
7145.441675688001
 30
0.0
 40
1.0
100
AcDbArc
 50
270.0
 51
19.47122063442214
  0
LINE
  5
178CB
330
747D
100
AcDbEntity
  8
細線
100
AcDbLine
 10
9660.020831552587
 20
7163.941675688004
 30
0.0
 11
9619.020831552587
 21
7163.941675687997
 31
0.0
  0
LINE
  5
178CC
330
747D
100
AcDbEntity
  8
細線
100
AcDbLine
 10
9619.020831552587
 20
7163.941675687997
 30
0.0
 11
9619.020831552587
 21
7145.941675687979
 31
0.0
  0
LINE
  5
178CD
330
747D
100
AcDbEntity
  8
細線
100
AcDbLine
 10
9660.020831552587
 20
7163.941675688004
 30
0.0
 11
9660.020831552587
 21
7145.941675687979
 31
0.0
  0
LINE
  5
178CE
330
747D
100
AcDbEntity
  8
細線
100
AcDbLine
 10
9503.520938151325
 20
7149.942606142404
 30
0.0
 11
9503.520938151325
 21
7145.942606142451
 31
0.0
  0
DIMENSION
  5
178CF
330
747D
100
AcDbEntity
  8
寸法
 48
50.0
100
AcDbDimension
  2
*D30
 10
10177.52093815132
 20
6516.813231445102
 30
0.0
 11
9840.520938151327
 21
6516.813231445102
 31
0.0
 70
   160
  1
有効開口部間口\P<>
 71
     5
 42
674.0
  3
INABA_S40
100
AcDbAlignedDimension
 13
9503.520938151325
 23
7140.942606142404
 33
0.0
 14
10177.52093815132
 24
7140.942606142404
 34
0.0
100
AcDbRotatedDimension
1001
ACAD
1000
DSTYLE
1002
{
1070
    41
1040
0.5
1070
    44
1040
1.0
1070
   147
1040
0.8
1070
   271
1070
     2
1070
   272
1070
     2
1070
   289
1070
     3
1070
   340
1005
F706
1070
   343
1005
164AA
1070
   344
1005
164AA
1002
}
  0
LINE
  5
178D0
330
747D
100
AcDbEntity
  8
部品1
100
AcDbLine
 10
10751.52093815132
 20
7217.942606142404
 30
0.0
 11
10778.52093815132
 21
7217.942606142404
 31
0.0
  0
LINE
  5
178D2
330
747D
100
AcDbEntity
  8
部品1
100
AcDbLine
 10
10778.52093815132
 20
7140.942606142404
 30
0.0
 11
10778.52093815132
 21
7217.942606142404
 31
0.0
  0
LINE
  5
178D3
330
747D
100
AcDbEntity
  8
部品1
100
AcDbLine
 10
10739.52093815132
 20
7213.942606142403
 30
0.0
 11
10751.52093815132
 21
7213.942606142403
 31
0.0
  0
LINE
  5
178D4
330
747D
100
AcDbEntity
  8
部品1
100
AcDbLine
 10
10748.52093815132
 20
7149.942606142404
 30
0.0
 11
10748.52093815132
 21
7140.942606142404
 31
0.0
  0
LINE
  5
178D5
330
747D
100
AcDbEntity
  8
部品1
100
AcDbLine
 10
10739.52093815132
 20
7149.942606142404
 30
0.0
 11
10748.52093815132
 21
7149.942606142404
 31
0.0
  0
LINE
  5
178D6
330
747D
100
AcDbEntity
  8
部品1
100
AcDbLine
 10
10739.52093815132
 20
7213.942606142403
 30
0.0
 11
10739.52093815132
 21
7149.942606142404
 31
0.0
  0
LINE
  5
178D7
330
747D
100
AcDbEntity
  8
部品1
100
AcDbLine
 10
10751.52093815132
 20
7244.942606142403
 30
0.0
 11
10751.52093815132
 21
7213.942606142403
 31
0.0
  0
LINE
  5
178D8
330
747D
100
AcDbEntity
  8
部品1
100
AcDbLine
 10
9503.520938151325
 20
7213.942606142403
 30
0.0
 11
9491.520938151325
 21
7213.942606142403
 31
0.0
  0
LINE
  5
178D9
330
747D
100
AcDbEntity
  8
部品1
100
AcDbLine
 10
9464.520938151325
 20
7217.942606142404
 30
0.0
 11
9491.520938151325
 21
7217.942606142404
 31
0.0
  0
LINE
  5
178DA
330
747D
100
AcDbEntity
  8
部品1
100
AcDbLine
 10
9494.520938151325
 20
7149.942606142404
 30
0.0
 11
9494.520938151325
 21
7140.942606142404
 31
0.0
  0
LINE
  5
178DB
330
747D
100
AcDbEntity
  8
部品1
100
AcDbLine
 10
9503.520938151325
 20
7149.942606142404
 30
0.0
 11
9494.520938151325
 21
7149.942606142404
 31
0.0
  0
LINE
  5
178DC
330
747D
100
AcDbEntity
  8
部品1
100
AcDbLine
 10
9494.520938151325
 20
7140.942606142404
 30
0.0
 11
9464.520938151325
 21
7140.942606142404
 31
0.0
  0
LINE
  5
178DD
330
747D
100
AcDbEntity
  8
部品1
100
AcDbLine
 10
9464.520938151325
 20
7140.942606142404
 30
0.0
 11
9464.520938151325
 21
7217.942606142404
 31
0.0
  0
LINE
  5
178DE
330
747D
100
AcDbEntity
  8
部品1
100
AcDbLine
 10
9503.520938151325
 20
7213.942606142403
 30
0.0
 11
9503.520938151325
 21
7149.942606142404
 31
0.0
  0
LINE
  5
178DF
330
747D
100
AcDbEntity
  8
部品1
100
AcDbLine
 10
9491.520938151325
 20
7244.942606142401
 30
0.0
 11
9491.520938151325
 21
7213.942606142403
 31
0.0
  0
LINE
  5
178E0
330
747D
100
AcDbEntity
  8
部品1
100
AcDbLine
 10
9491.520938151325
 20
7244.942606142401
 30
0.0
 11
10751.52093815132
 21
7244.942606142403
 31
0.0
  0
LINE
  5
178E1
330
747D
100
AcDbEntity
  8
部品1
100
AcDbLine
 10
9494.520938151325
 20
7140.942606142404
 30
0.0
 11
10778.52093815132
 21
7140.942606142402
 31
0.0
  0
LINE
  5
178E2
330
747D
100
AcDbEntity
  8
細線
 48
50.0
100
AcDbLine
 10
9517.520942804917
 20
7166.542780319358
 30
0.0
 11
9517.520942804917
 21
7174.938930726998
 31
0.0
  0
LINE
  5
178E3
330
747D
100
AcDbEntity
  8
細線
 48
50.0
100
AcDbLine
 10
9517.520942804917
 20
7174.938930726998
 30
0.0
 11
9503.520938151325
 21
7174.938930726994
 31
0.0
  0
LINE
  5
178E4
330
747D
100
AcDbEntity
  8
細線
 48
50.0
100
AcDbLine
 10
9494.520938151325
 20
7145.940114662828
 30
0.0
 11
9784.520938151326
 21
7145.943750788781
 31
0.0
  0
LINE
  5
178E5
330
747D
100
AcDbEntity
  8
細線
 48
50.0
100
AcDbLine
 10
9854.520938151331
 20
7145.942780319359
 30
0.0
 11
9954.520938151327
 21
7145.942780319359
 31
0.0
  0
LINE
  5
178E6
330
747D
100
AcDbEntity
  8
細線
 48
50.0
100
AcDbLine
 10
9727.382616030912
 20
7145.942780319359
 30
0.0
 11
9733.13813361358
 21
7164.213631609853
 31
0.0
  0
LINE
  5
178E7
330
747D
100
AcDbEntity
  8
細線
 48
50.0
100
AcDbLine
 10
9733.13813361358
 20
7164.213631609853
 30
0.0
 11
9744.066582094013
 21
7164.21363160985
 31
0.0
  0
ARC
  5
178E8
330
747D
100
AcDbEntity
  8
細線
 48
50.0
100
AcDbCircle
 10
9744.066582094013
 20
7163.213631609849
 30
0.0
 40
1.0
100
AcDbArc
 50
24.62431835213048
 51
90.0
  0
ARC
  5
178E9
330
747D
100
AcDbEntity
  8
細線
 48
50.0
100
AcDbCircle
 10
9754.975294208648
 20
7163.213631609849
 30
0.0
 40
1.0
100
AcDbArc
 50
90.0
 51
155.3756816478695
  0
ARC
  5
178EA
330
747D
100
AcDbEntity
  8
細線
 48
50.0
100
AcDbCircle
 10
9749.520938151329
 20
7165.71363160985
 30
0.0
 40
5.0
100
AcDbArc
 50
204.6243183521304
 51
335.3756816478695
  0
LINE
  5
178EB
330
747D
100
AcDbEntity
  8
細線
 48
50.0
100
AcDbLine
 10
9754.975294208648
 20
7164.21363160985
 30
0.0
 11
9765.903742689079
 21
7164.213631609853
 31
0.0
  0
LINE
  5
178EC
330
747D
100
AcDbEntity
  8
細線
 48
50.0
100
AcDbLine
 10
9765.903742689079
 20
7164.213631609853
 30
0.0
 11
9771.659260271748
 21
7145.942780319359
 31
0.0
  0
LINE
  5
178ED
330
747D
100
AcDbEntity
  8
細線
 48
50.0
100
AcDbLine
 10
10330.52092934147
 20
7200.542824177222
 30
0.0
 11
9943.520938151324
 21
7200.542824177221
 31
0.0
  0
LINE
  5
178EE
330
747D
100
AcDbEntity
  8
細線
 48
50.0
100
AcDbLine
 10
10722.62093815133
 20
7243.942606142403
 30
0.0
 11
10334.52093399505
 21
7243.9426061424
 31
0.0
  0
LINE
  5
178EF
330
747D
100
AcDbEntity
  8
細線
 48
50.0
100
AcDbLine
 10
10749.02093815133
 20
7238.942606142408
 30
0.0
 11
10732.62093815133
 21
7238.942606142403
 31
0.0
  0
LINE
  5
178F0
330
747D
100
AcDbEntity
  8
細線
 48
50.0
100
AcDbLine
 10
10732.62093815132
 20
7238.942606142403
 30
0.0
 11
10722.62093815133
 21
7243.942606142404
 31
0.0
  0
LINE
  5
178F1
330
747D
100
AcDbEntity
  8
細線
100
AcDbLine
 10
10524.27093117094
 20
7213.942606142403
 30
0.0
 11
10524.27093117094
 21
7243.242606142404
 31
0.0
  0
LINE
  5
178F2
330
747D
100
AcDbEntity
  8
細線
100
AcDbLine
 10
10524.27093117094
 20
7243.242606142404
 30
0.0
 11
10544.27093117094
 21
7243.242606142404
 31
0.0
  0
LINE
  5
178F3
330
747D
100
AcDbEntity
  8
細線
100
AcDbLine
 10
10544.27093117094
 20
7213.942606142403
 30
0.0
 11
10544.27093117094
 21
7243.242606142404
 31
0.0
  0
LINE
  5
178F4
330
747D
100
AcDbEntity
  8
細線
 48
50.0
100
AcDbLine
 10
10429.27093117093
 20
7213.942606142405
 30
0.0
 11
10352.31671356784
 21
7213.942606142405
 31
0.0
  0
LINE
  5
178F5
330
747D
100
AcDbEntity
  8
細線
100
AcDbLine
 10
10569.27093117094
 20
7213.942606142403
 30
0.0
 11
10499.27093117094
 21
7213.942606142403
 31
0.0
  0
LINE
  5
178F6
330
747D
100
AcDbEntity
  8
細線
100
AcDbLine
 10
10739.52093815132
 20
7213.942606142403
 30
0.0
 11
10639.27093117094
 21
7213.942606142405
 31
0.0
  0
LINE
  5
178F7
330
747D
100
AcDbEntity
  8
細線
 48
50.0
100
AcDbLine
 10
10749.02093815133
 20
7238.942606142408
 30
0.0
 11
10749.02093815132
 21
7213.942606142403
 31
0.0
  0
ARC
  5
178F8
330
747D
100
AcDbEntity
  8
細線
 48
50.0
100
AcDbCircle
 10
9954.288244027175
 20
7178.942627310679
 30
0.0
 40
1.0
100
AcDbArc
 50
90.0003999466794
 51
165.0005554812987
  0
LINE
  5
178F9
330
747D
100
AcDbEntity
  8
細線
 48
50.0
100
AcDbLine
 10
9954.288237046791
 20
7179.942627310653
 30
0.0
 11
9955.229997197696
 21
7179.942633884502
 31
0.0
  0
ARC
  5
178FA
330
747D
100
AcDbEntity
  8
細線
 48
50.0
100
AcDbCircle
 10
9944.753606225836
 20
7178.942432620383
 30
0.0
 40
1.0
100
AcDbArc
 50
15.00104430493943
 51
90.00093320877969
  0
LINE
  5
178FB
330
747D
100
AcDbEntity
  8
細線
 48
50.0
100
AcDbLine
 10
9945.719527334583
 20
7179.201269270945
 30
0.0
 11
9945.967296831096
 21
7178.276648332363
 31
0.0
  0
ARC
  5
178FC
330
747D
100
AcDbEntity
  8
細線
 48
50.0
100
AcDbCircle
 10
9947.705954826842
 20
7178.74255430338
 30
0.0
 40
1.8
100
AcDbArc
 50
195.0010443049394
 51
270.0006665777295
  0
LINE
  5
178FD
330
747D
100
AcDbEntity
  8
細線
 48
50.0
100
AcDbLine
 10
9951.335903186762
 20
7176.942596533982
 30
0.0
 11
9947.705975767995
 21
7176.942554303501
 31
0.0
  0
LINE
  5
178FE
330
747D
100
AcDbEntity
  8
細線
 48
50.0
100
AcDbLine
 10
9953.322315691686
 20
7179.20143699114
 30
0.0
 11
9953.074553249487
 21
7178.276739109033
 31
0.0
  0
ARC
  5
178FF
330
747D
100
AcDbEntity
  8
細線
 48
50.0
100
AcDbCircle
 10
9951.335882245608
 20
7178.742596533862
 30
0.0
 40
1.8
100
AcDbArc
 50
270.0006665777295
 51
345.0005554812987
  0
LINE
  5
17900
330
747D
100
AcDbEntity
  8
細線
 48
50.0
100
AcDbLine
 10
9933.520900583562
 20
7179.942249667101
 30
0.0
 11
9944.753589938272
 21
7179.942432620248
 31
0.0
  0
LINE
  5
17901
330
747D
100
AcDbEntity
  8
細線
 48
50.0
100
AcDbLine
 10
9933.520900583562
 20
7179.942249667101
 30
0.0
 11
9933.520945452503
 21
7171.338788031293
 31
0.0
  0
LINE
  5
17902
330
747D
100
AcDbEntity
  8
細線
 48
50.0
100
AcDbLine
 10
9913.520938151329
 20
7171.338746481751
 30
0.0
 11
9933.520945452503
 21
7171.338788031293
 31
0.0
  0
LINE
  5
17903
330
747D
100
AcDbEntity
  8
細線
 48
50.0
100
AcDbLine
 10
9913.520938151329
 20
7208.938974584862
 30
0.0
 11
9913.520938151329
 21
7171.338746481751
 31
0.0
  0
LINE
  5
17904
330
747D
100
AcDbEntity
  8
細線
 48
50.0
100
AcDbLine
 10
9928.520938151327
 20
7208.938974584866
 30
0.0
 11
9913.520938151329
 21
7208.938974584862
 31
0.0
  0
LINE
  5
17905
330
747D
100
AcDbEntity
  8
細線
 48
50.0
100
AcDbLine
 10
9928.520938151327
 20
7201.938974584866
 30
0.0
 11
9928.520938151327
 21
7208.938974584866
 31
0.0
  0
LINE
  5
17906
330
747D
100
AcDbEntity
  8
細線
 48
50.0
100
AcDbLine
 10
9943.520938151328
 20
7201.938974584866
 30
0.0
 11
9928.520938151327
 21
7201.938974584866
 31
0.0
  0
LINE
  5
17907
330
747D
100
AcDbEntity
  8
細線
 48
50.0
100
AcDbLine
 10
9943.520938151328
 20
7197.438974584866
 30
0.0
 11
9943.520938151328
 21
7201.938974584866
 31
0.0
  0
LINE
  5
17908
330
747D
100
AcDbEntity
  8
細線
 48
50.0
100
AcDbLine
 10
9954.520938151327
 20
7174.942780319359
 30
0.0
 11
9954.520938151327
 21
7145.942780319359
 31
0.0
  0
LINE
  5
17909
330
747D
100
AcDbEntity
  8
細線
 48
50.0
100
AcDbLine
 10
9939.520938151328
 20
7174.942780319359
 30
0.0
 11
9954.520938151327
 21
7174.942780319359
 31
0.0
  0
LINE
  5
1790A
330
747D
100
AcDbEntity
  8
細線
 48
50.0
100
AcDbLine
 10
9939.520938151327
 20
7167.942780319359
 30
0.0
 11
9939.520938151328
 21
7174.942780319359
 31
0.0
  0
LINE
  5
1790B
330
747D
100
AcDbEntity
  8
細線
 48
50.0
100
AcDbLine
 10
9924.520938151328
 20
7167.942780319359
 30
0.0
 11
9939.520938151327
 21
7167.942780319359
 31
0.0
  0
LINE
  5
1790C
330
747D
100
AcDbEntity
  8
細線
 48
50.0
100
AcDbLine
 10
9924.520938151328
 20
7163.092780319357
 30
0.0
 11
9924.520938151328
 21
7167.942780319359
 31
0.0
  0
LINE
  5
1790D
330
747D
100
AcDbEntity
  8
細線
 48
50.0
100
AcDbLine
 10
9924.520938151324
 20
7166.542780319357
 30
0.0
 11
9517.520942804917
 21
7166.542780319358
 31
0.0
  0
LINE
  5
1790E
330
747D
100
AcDbEntity
  8
細線
 48
50.0
100
AcDbLine
 10
10032.02092884414
 20
7179.942623335709
 30
0.0
 11
9947.926378820554
 21
7179.942633922725
 31
0.0
  0
LINE
  5
1790F
330
747D
100
AcDbEntity
  8
細線
 48
50.0
100
AcDbLine
 10
10172.02089425874
 20
7179.942618043215
 30
0.0
 11
10102.02087697086
 21
7179.942618043222
 31
0.0
  0
LINE
  5
17910
330
747D
100
AcDbEntity
  8
細線
100
AcDbLine
 10
10099.68939128686
 20
7184.942626230551
 30
0.0
 11
10034.35246786839
 21
7184.942626230541
 31
0.0
  0
LINE
  5
17911
330
747D
100
AcDbEntity
  8
細線
100
AcDbLine
 10
10102.02093776305
 20
7179.942608676874
 30
0.0
 11
10099.68939128686
 21
7184.942626230551
 31
0.0
  0
LINE
  5
17912
330
747D
100
AcDbEntity
  8
細線
100
AcDbLine
 10
10032.02092957763
 20
7179.942626230584
 30
0.0
 11
10034.3524678684
 21
7184.94262623057
 31
0.0
  0
LINE
  5
17913
330
747D
100
AcDbEntity
  8
細線
 48
50.0
100
AcDbLine
 10
10319.52093399505
 20
7205.942606142407
 30
0.0
 11
10319.52093399505
 21
7243.9426061424
 31
0.0
  0
LINE
  5
17914
330
747D
100
AcDbEntity
  8
細線
 48
50.0
100
AcDbLine
 10
10319.52093399505
 20
7243.9426061424
 30
0.0
 11
10334.52093399505
 21
7243.942606142404
 31
0.0
  0
LINE
  5
17915
330
747D
100
AcDbEntity
  8
細線
 48
50.0
100
AcDbLine
 10
10334.52093399505
 20
7243.942606142404
 30
0.0
 11
10334.52093399505
 21
7238.942606142403
 31
0.0
  0
LINE
  5
17916
330
747D
100
AcDbEntity
  8
細線
 48
50.0
100
AcDbLine
 10
10319.52093399505
 20
7205.942606142407
 30
0.0
 11
10339.52093399505
 21
7205.942606142404
 31
0.0
  0
LINE
  5
17917
330
747D
100
AcDbEntity
  8
細線
 48
50.0
100
AcDbLine
 10
10339.52093399505
 20
7205.942606142404
 30
0.0
 11
10339.52093399505
 21
7213.942606142403
 31
0.0
  0
LINE
  5
17918
330
747D
100
AcDbEntity
  8
細線
 48
50.0
100
AcDbLine
 10
10345.52093399505
 20
7213.142606142405
 30
0.0
 11
10345.52093399505
 21
7211.642606142405
 31
0.0
  0
LINE
  5
17919
330
747D
100
AcDbEntity
  8
細線
 48
50.0
100
AcDbLine
 10
10346.22093399505
 20
7210.942606142404
 30
0.0
 11
10350.82093399505
 21
7210.942606142404
 31
0.0
  0
LINE
  5
1791A
330
747D
100
AcDbEntity
  8
細線
 48
50.0
100
AcDbLine
 10
10351.52093399505
 20
7211.642606142405
 30
0.0
 11
10351.52094082017
 21
7213.142621033893
 31
0.0
  0
ARC
  5
1791B
330
747D
100
AcDbEntity
  8
細線
 48
50.0
100
AcDbCircle
 10
10350.82093399505
 20
7211.642606142405
 30
0.0
 40
0.7
100
AcDbArc
 50
270.0
 51
0.0
  0
ARC
  5
1791C
330
747D
100
AcDbEntity
  8
細線
 48
50.0
100
AcDbCircle
 10
10346.22093399505
 20
7211.642606142405
 30
0.0
 40
0.7
100
AcDbArc
 50
180.0
 51
270.0
  0
LINE
  5
1791D
330
747D
100
AcDbEntity
  8
細線
 48
50.0
100
AcDbLine
 10
10344.7209358565
 20
7213.942606142403
 30
0.0
 11
10339.52093399505
 21
7213.942606142403
 31
0.0
  0
ARC
  5
1791E
330
747D
100
AcDbEntity
  8
細線
 48
50.0
100
AcDbCircle
 10
10352.32094082016
 20
7213.142617311021
 30
0.0
 40
0.8
100
AcDbArc
 50
90.00014387753465
 51
179.9997333689498
  0
ARC
  5
1791F
330
747D
100
AcDbEntity
  8
細線
 48
50.0
100
AcDbCircle
 10
10344.72093399506
 20
7213.142606142405
 30
0.0
 40
0.8
100
AcDbArc
 50
359.9997333689499
 51
89.99986668437072
  0
LINE
  5
17920
330
747D
100
AcDbEntity
  8
細線
 48
50.0
100
AcDbLine
 10
10242.02089427655
 20
7179.942618004993
 30
0.0
 11
10360.52092884415
 21
7179.942618004993
 31
0.0
  0
LINE
  5
17921
330
747D
100
AcDbEntity
  8
細線
 48
50.0
100
AcDbLine
 10
10360.52093914597
 20
7208.942824177268
 30
0.0
 11
10360.52092884415
 21
7179.942618004995
 31
0.0
  0
LINE
  5
17922
330
747D
100
AcDbEntity
  8
細線
 48
50.0
100
AcDbLine
 10
10345.52094097544
 20
7208.942824177268
 30
0.0
 11
10360.52093914597
 21
7208.942824177268
 31
0.0
  0
LINE
  5
17923
330
747D
100
AcDbEntity
  8
細線
 48
50.0
100
AcDbLine
 10
10345.52092934146
 20
7201.942824177224
 30
0.0
 11
10345.52094097544
 21
7208.942824177268
 31
0.0
  0
LINE
  5
17924
330
747D
100
AcDbEntity
  8
細線
 48
50.0
100
AcDbLine
 10
10330.52092934146
 20
7201.942824177224
 30
0.0
 11
10345.52092934146
 21
7201.942824177224
 31
0.0
  0
LINE
  5
17925
330
747D
100
AcDbEntity
  8
細線
 48
50.0
100
AcDbLine
 10
10330.52092934146
 20
7197.092824177225
 30
0.0
 11
10330.52092934146
 21
7201.942824177224
 31
0.0
  0
LINE
  5
17926
330
747D
100
AcDbEntity
  8
細線
  6
Continuous
 62
     5
100
AcDbLine
 10
10332.52093399505
 20
7198.9426061424
 30
0.0
 11
10332.52093399505
 21
7198.9426061424
 31
0.0
  0
LINE
  5
17927
330
747D
100
AcDbEntity
  8
細線
  6
Continuous
 62
     5
100
AcDbLine
 10
10264.52094330223
 20
7179.9426061424
 30
0.0
 11
10264.52094330223
 21
7179.9426061424
 31
0.0
  0
DIMENSION
  5
17B2B
330
747D
100
AcDbEntity
  8
寸法
 48
50.0
100
AcDbDimension
  2
*D31
 10
10778.52093815122
 20
6290.33074213831
 30
0.0
 11
10121.52093815122
 21
6290.33074213831
 31
0.0
 70
   160
 71
     5
 42
1314.0
  3
INABA_S40G
100
AcDbAlignedDimension
 13
9464.520938151222
 23
7140.942606142402
 33
0.0
 14
10778.52093815122
 24
7140.942606142402
 34
0.0
100
AcDbRotatedDimension
1001
ACAD
1000
DSTYLE
1002
{
1070
   341
1005
0
1002
}
  0
DIMENSION
  5
17BC3
330
747D
100
AcDbEntity
  8
寸法
100
AcDbDimension
  2
*D32
 10
9141.909692524528
 20
7142.942606142402
 30
0.0
 11
9141.909692524526
 21
7002.457324768164
 31
0.0
 70
   160
 71
     5
 42
75.0
  3
INABA_S40
100
AcDbAlignedDimension
 13
9436.520938151245
 23
7217.942606142402
 33
0.0
 14
9464.520938151222
 24
7142.942606142402
 34
0.0
 50
90.0
100
AcDbRotatedDimension
1001
ACAD
1000
DSTYLE
1002
{
1070
    41
1040
0.5
1070
    44
1040
1.0
1070
   147
1040
0.8
1070
   271
1070
     2
1070
   272
1070
     2
1070
   289
1070
     3
1070
   340
1005
F706
1070
   343
1005
164AA
1070
   344
1005
164AA
1002
}
  0
LINE
  5
17BC4
330
747D
100
AcDbEntity
  8
部品1
100
AcDbLine
 10
10503.25627141119
 20
5743.89948136877
 30
0.0
 11
9739.785605182758
 21
5743.89948136877
 31
0.0
  0
LINE
  5
17BC5
330
747D
100
AcDbEntity
  8
部品1
100
AcDbLine
 10
10503.25627141119
 20
5504.007159823237
 30
0.0
 11
10503.25627141119
 21
5743.89948136877
 31
0.0
  0
LINE
  5
17BC6
330
747D
100
AcDbEntity
  8
部品1
100
AcDbLine
 10
9739.785605182758
 20
5504.007159823237
 30
0.0
 11
10503.25627141119
 21
5504.007159823237
 31
0.0
  0
LINE
  5
17BC7
330
747D
100
AcDbEntity
  8
部品1
100
AcDbLine
 10
9739.785605182758
 20
5743.89948136877
 30
0.0
 11
9739.785605182758
 21
5504.007159823237
 31
0.0
  0
DIMENSION
  5
17BC8
330
747D
100
AcDbEntity
  8
寸法
100
AcDbDimension
  2
*D33
 10
10806.52093815132
 20
6056.253778428585
 30
0.0
 11
10118.94292291173
 21
6056.253778428585
 31
0.0
 70
   160
 71
     5
 42
1370.000000000078
  3
INABA_S40G
100
AcDbAlignedDimension
 13
9436.520938151245
 23
7217.942606142415
 33
0.0
 14
10806.52093815132
 24
7217.94260614239
 34
0.0
100
AcDbRotatedDimension
1001
ACAD
1000
DSTYLE
1002
{
1002
}
  0
TEXT
  5
17C07
330
747D
100
AcDbEntity
  8
部品1
100
AcDbText
 10
9829.705215011795
 20
5551.005952150246
 30
0.0
 40
135.0
  1
平面図
  7
STYLE2
100
AcDbText
  0
LINE
  5
17E08
330
747D
100
AcDbEntity
  8
破線
 48
10.0
100
AcDbLine
 10
10323.5209381515
 20
8052.942606142499
 30
0.0
 11
9493.020938151479
 21
8052.942606142435
 31
0.0
  0
LINE
  5
17E09
330
747D
100
AcDbEntity
  8
破線
 48
10.0
100
AcDbLine
 10
10323.5209381515
 20
8002.942606142498
 30
0.0
 11
9493.020938151479
 21
8002.942606142434
 31
0.0
  0
LINE
  5
17E0A
330
747D
100
AcDbEntity
  8
破線
 48
10.0
100
AcDbLine
 10
10323.52093815146
 20
8667.942606142499
 30
0.0
 11
9493.02093815144
 21
8667.942606142435
 31
0.0
  0
LINE
  5
17E0B
330
747D
100
AcDbEntity
  8
破線
 48
10.0
100
AcDbLine
 10
10323.52093815146
 20
8717.942606142498
 30
0.0
 11
9493.02093815144
 21
8717.942606142434
 31
0.0
  0
LINE
  5
17E0C
330
747D
100
AcDbEntity
  8
破線
 48
10.0
100
AcDbLine
 10
9516.520938151435
 20
8002.942606142436
 30
0.0
 11
9516.520938151392
 21
7297.94260614241
 31
0.0
  0
LWPOLYLINE
  5
17E6C
330
747D
100
AcDbEntity
  8
部品1
 48
50.0
100
AcDbPolyline
 90
        4
 70
     1
 43
0.0
 10
9563.570938151432
 20
3120.909483326415
 10
9566.470938151432
 20
3120.909483326415
 10
9566.470938151432
 20
3130.409483326415
 10
9563.570938151432
 20
3130.409483326415
  0
CIRCLE
  5
17E6D
330
747D
100
AcDbEntity
  8
部品1
 48
50.0
100
AcDbCircle
 10
9565.020938151432
 20
3125.659483326415
 30
0.0
 40
9.0
  0
ARC
  5
17E6E
330
747D
100
AcDbEntity
  8
細線
 48
50.0
100
AcDbCircle
 10
9565.020938151432
 20
3125.659483326415
 30
0.0
 40
4.0
100
AcDbArc
 50
111.2538091853132
 51
248.7461908146868
  0
ARC
  5
17E6F
330
747D
100
AcDbEntity
  8
細線
 48
50.0
100
AcDbCircle
 10
9565.020938151432
 20
3125.659483326415
 30
0.0
 40
17.5
100
AcDbArc
 50
306.4837370612677
 51
233.5162629387323
  0
LINE
  5
17E70
330
747D
100
AcDbEntity
  8
細線
 48
50.0
100
AcDbLine
 10
9575.02093815143
 20
3101.800522745532
 30
0.0
 11
9575.020938151432
 21
3110.785008545774
 31
0.0
  0
LINE
  5
17E71
330
747D
100
AcDbEntity
  8
細線
 48
50.0
100
AcDbLine
 10
9555.020938151432
 20
3101.800522745535
 30
0.0
 11
9555.020938151432
 21
3110.78500854577
 31
0.0
  0
ARC
  5
17E72
330
747D
100
AcDbEntity
  8
細線
 48
50.0
100
AcDbCircle
 10
9565.020938151432
 20
3125.659483326415
 30
0.0
 40
26.5
100
AcDbArc
 50
249.3326835063939
 51
290.6673164933835
  0
ARC
  5
17E73
330
747D
100
AcDbEntity
  8
細線
 48
50.0
100
AcDbCircle
 10
9574.020938151425
 20
3101.800522745532
 30
0.0
 40
1.0
100
AcDbArc
 50
290.6673164936062
 51
359.9999999998958
  0
ARC
  5
17E74
330
747D
100
AcDbEntity
  8
細線
 48
50.0
100
AcDbCircle
 10
9556.020938151432
 20
3101.800522745535
 30
0.0
 40
1.0
100
AcDbArc
 50
180.0
 51
249.3326835066164
  0
ARC
  5
17E75
330
747D
100
AcDbEntity
  8
細線
 48
50.0
100
AcDbCircle
 10
9554.020938151433
 20
3110.78500854577
 30
0.0
 40
1.0
100
AcDbArc
 50
0.0
 51
53.51626293873231
  0
ARC
  5
17E76
330
747D
100
AcDbEntity
  8
細線
 48
50.0
100
AcDbCircle
 10
9576.020938151435
 20
3110.785008545774
 30
0.0
 40
1.0
100
AcDbArc
 50
126.4837370615127
 51
180.0
  0
ARC
  5
17E77
330
747D
100
AcDbEntity
  8
細線
 48
50.0
100
AcDbCircle
 10
9565.020938151432
 20
3125.659483326415
 30
0.0
 40
21.5
100
AcDbArc
 50
255.8014401250294
 51
284.1985598749706
  0
ARC
  5
17E78
330
747D
100
AcDbEntity
  8
細線
 48
50.0
100
AcDbCircle
 10
9565.020938151432
 20
3125.659483326415
 30
0.0
 40
16.5
100
AcDbArc
 50
251.9694646069326
 51
288.0305353930674
  0
LINE
  5
17E79
330
747D
100
AcDbEntity
  8
細線
 48
50.0
100
AcDbLine
 10
9570.520938151432
 20
3105.107111200609
 30
0.0
 11
9570.520938151432
 21
3109.684502887946
 31
0.0
  0
LINE
  5
17E7A
330
747D
100
AcDbEntity
  8
細線
 48
50.0
100
AcDbLine
 10
9559.520938151433
 20
3105.107111200609
 30
0.0
 11
9559.520938151433
 21
3109.684502887944
 31
0.0
  0
ARC
  5
17E7B
330
747D
100
AcDbEntity
  8
細線
 48
50.0
100
AcDbCircle
 10
9559.820938151435
 20
3109.684502887944
 30
0.0
 40
0.3
100
AcDbArc
 50
71.96946460693259
 51
180.0
  0
ARC
  5
17E7C
330
747D
100
AcDbEntity
  8
細線
 48
50.0
100
AcDbCircle
 10
9570.220938151434
 20
3109.684502887946
 30
0.0
 40
0.3
100
AcDbArc
 50
0.0
 51
108.0305353930674
  0
ARC
  5
17E7D
330
747D
100
AcDbEntity
  8
細線
 48
50.0
100
AcDbCircle
 10
9570.220938151429
 20
3105.107111200609
 30
0.0
 40
0.3
100
AcDbArc
 50
284.1985598747622
 51
0.0000000001042204
  0
ARC
  5
17E7E
330
747D
100
AcDbEntity
  8
細線
 48
50.0
100
AcDbCircle
 10
9559.820938151435
 20
3105.107111200609
 30
0.0
 40
0.3
100
AcDbArc
 50
180.0
 51
255.8014401248081
  0
CIRCLE
  5
17E7F
330
747D
100
AcDbEntity
  8
細線
 48
50.0
100
AcDbCircle
 10
9565.020938151432
 20
3125.659483326415
 30
0.0
 40
12.0
  0
ARC
  5
17E80
330
747D
100
AcDbEntity
  8
部品1
 48
50.0
100
AcDbCircle
 10
9565.020938151432
 20
3175.659483326415
 30
0.0
 40
8.5
100
AcDbArc
 50
114.315739171091
 51
245.684260828909
  0
CIRCLE
  5
17E81
330
747D
100
AcDbEntity
  8
細線
 48
50.0
100
AcDbCircle
 10
9565.020938151432
 20
3175.659483326415
 30
0.0
 40
4.5
  0
LWPOLYLINE
  5
17E82
330
747D
100
AcDbEntity
  8
部品1
 48
50.0
100
AcDbPolyline
 90
        2
 70
     0
 43
0.0
 10
9561.520938151431
 20
3194.334332723398
 10
9561.520938151431
 20
3183.405450018831
  0
CIRCLE
  5
17E83
330
747D
100
AcDbEntity
  8
部品1
 48
50.0
100
AcDbCircle
 10
9565.020938151432
 20
3175.659483326415
 30
0.0
 40
19.0
  0
LWPOLYLINE
  5
17E84
330
747D
100
AcDbEntity
  8
部品1
 48
50.0
100
AcDbPolyline
 90
        2
 70
     0
 43
0.0
 10
9561.520938151431
 20
3167.913516634
 10
9561.520938151431
 20
3156.984633929433
  0
LWPOLYLINE
  5
17E85
330
747D
100
AcDbEntity
  8
部品1
 48
50.0
100
AcDbPolyline
 90
        2
 70
     0
 43
0.0
 10
9568.520938151433
 20
3183.405450018831
 10
9568.520938151433
 20
3194.334332723398
  0
ARC
  5
17E86
330
747D
100
AcDbEntity
  8
部品1
 48
50.0
100
AcDbCircle
 10
9565.020938151432
 20
3175.659483326415
 30
0.0
 40
8.5
100
AcDbArc
 50
294.315739171091
 51
65.68426082890896
  0
LWPOLYLINE
  5
17E87
330
747D
100
AcDbEntity
  8
部品1
 48
50.0
100
AcDbPolyline
 90
        2
 70
     0
 43
0.0
 10
9568.520938151433
 20
3156.984633929433
 10
9568.520938151433
 20
3167.913516634
  0
ARC
  5
17E88
330
747D
100
AcDbEntity
  8
細線
 48
50.0
100
AcDbCircle
 10
9565.020938151432
 20
3175.659483326415
 30
0.0
 40
16.5
100
AcDbArc
 50
332.0012352654438
 51
27.99876473455621
  0
ARC
  5
17E89
330
747D
100
AcDbEntity
  8
細線
 48
50.0
100
AcDbCircle
 10
9565.020938151432
 20
3175.659483326415
 30
0.0
 40
14.0
100
AcDbArc
 50
326.4074436112986
 51
33.59255638870134
  0
LINE
  5
17E8A
330
747D
100
AcDbEntity
  8
細線
 48
50.0
100
AcDbLine
 10
9550.452135867102
 20
3183.405450018831
 30
0.0
 11
9553.359034361744
 21
3183.405450018831
 31
0.0
  0
LINE
  5
17E8B
330
747D
100
AcDbEntity
  8
細線
 48
50.0
100
AcDbLine
 10
9550.452135867102
 20
3167.913516634
 30
0.0
 11
9553.359034361744
 21
3167.913516634
 31
0.0
  0
LINE
  5
17E8C
330
747D
100
AcDbEntity
  8
細線
 48
50.0
100
AcDbLine
 10
9576.682841941121
 20
3183.405450018831
 30
0.0
 11
9579.589740435768
 21
3183.405450018831
 31
0.0
  0
LINE
  5
17E8D
330
747D
100
AcDbEntity
  8
細線
 48
50.0
100
AcDbLine
 10
9576.682841941121
 20
3167.913516634
 30
0.0
 11
9579.589740435768
 21
3167.913516634
 31
0.0
  0
ARC
  5
17E8E
330
747D
100
AcDbEntity
  8
細線
 48
50.0
100
AcDbCircle
 10
9565.020938151432
 20
3175.659483326415
 30
0.0
 40
14.0
100
AcDbArc
 50
146.4074436112986
 51
213.5925563887013
  0
ARC
  5
17E8F
330
747D
100
AcDbEntity
  8
細線
 48
50.0
100
AcDbCircle
 10
9565.020938151432
 20
3175.659483326415
 30
0.0
 40
16.5
100
AcDbArc
 50
152.0012352654438
 51
207.9987647345562
  0
ARC
  5
17E90
330
747D
100
AcDbEntity
  8
部品1
 48
50.0
100
AcDbCircle
 10
9538.520938151433
 20
3201.159483326416
 30
0.0
 40
5.0
100
AcDbArc
 50
90.0
 51
180.0
  0
ARC
  5
17E91
330
747D
100
AcDbEntity
  8
部品1
 48
50.0
100
AcDbCircle
 10
9538.520938151433
 20
3090.159483326415
 30
0.0
 40
5.0
100
AcDbArc
 50
180.0
 51
270.0
  0
ARC
  5
17E92
330
747D
100
AcDbEntity
  8
部品1
 48
50.0
100
AcDbCircle
 10
9591.520938151433
 20
3090.159483326415
 30
0.0
 40
5.0
100
AcDbArc
 50
270.0
 51
0.0
  0
ARC
  5
17E93
330
747D
100
AcDbEntity
  8
部品1
 48
50.0
100
AcDbCircle
 10
9591.520938151433
 20
3201.159483326416
 30
0.0
 40
5.0
100
AcDbArc
 50
0.0
 51
90.0
  0
LINE
  5
17E95
330
747D
100
AcDbEntity
  8
部品1
 48
50.0
100
AcDbLine
 10
9533.520938151433
 20
3090.159483326415
 30
0.0
 11
9533.520938151433
 21
3201.159483326416
 31
0.0
  0
LINE
  5
17E96
330
747D
100
AcDbEntity
  8
部品1
 48
50.0
100
AcDbLine
 10
9591.520938151433
 20
3085.159483326416
 30
0.0
 11
9538.520938151433
 21
3085.159483326416
 31
0.0
  0
LINE
  5
17E97
330
747D
100
AcDbEntity
  8
部品1
 48
50.0
100
AcDbLine
 10
9596.520938151433
 20
3201.159483326416
 30
0.0
 11
9596.520938151433
 21
3090.159483326415
 31
0.0
  0
ENDSEC
  0
SECTION
  2
OBJECTS
  0
DICTIONARY
  5
7471
330
0
100
AcDbDictionary
281
     1
  3
ACAD_COLOR
350
1649F
  3
ACAD_GROUP
350
7472
  3
ACAD_LAYOUT
350
164A0
  3
ACAD_MATERIAL
350
1649E
  3
ACAD_MLINESTYLE
350
7473
  3
ACAD_PLOTSETTINGS
350
164A1
  3
ACAD_PLOTSTYLENAME
350
1649C
  3
ACDBHEADERROUNDTRIPXREC
350
17EA6
  3
AcDbVariableDictionary
350
17EA2
  3
CONTENTDICTIONARY
350
E71C
  3
DRAWINGVARIABLESDICT
350
F3B9
  0
DICTIONARY
  5
1662C
330
7467
100
AcDbDictionary
280
     1
281
     1
  3
ACAD_LAYERSTATES
360
1662D
  0
DICTIONARY
  5
1649F
102
{ACAD_REACTORS
330
7471
102
}
330
7471
100
AcDbDictionary
281
     1
  0
DICTIONARY
  5
7472
102
{ACAD_REACTORS
330
7471
102
}
330
7471
100
AcDbDictionary
281
     1
  0
DICTIONARY
  5
164A0
102
{ACAD_REACTORS
330
7471
102
}
330
7471
100
AcDbDictionary
281
     1
  3
Model
350
164A2
  3
レイアウト1
350
164A3
  0
DICTIONARY
  5
1649E
102
{ACAD_REACTORS
330
7471
102
}
330
7471
100
AcDbDictionary
281
     1
  0
DICTIONARY
  5
7473
102
{ACAD_REACTORS
330
7471
102
}
330
7471
100
AcDbDictionary
281
     1
  3
STANDARD
350
7480
  0
DICTIONARY
  5
164A1
102
{ACAD_REACTORS
330
7471
102
}
330
7471
100
AcDbDictionary
281
     1
  0
ACDBDICTIONARYWDFLT
  5
1649C
102
{ACAD_REACTORS
330
7471
102
}
330
7471
100
AcDbDictionary
281
     1
  3
Normal
350
1649D
100
AcDbDictionaryWithDefault
340
1649D
  0
DICTIONARY
  5
17EA6
102
{ACAD_REACTORS
330
7471
102
}
330
7471
100
AcDbDictionary
281
     1
  3
COLORDICT
350
17EA8
  3
MATERIALDICT
350
17EA7
  0
DICTIONARY
  5
17EA2
102
{ACAD_REACTORS
330
7471
102
}
330
7471
100
AcDbDictionary
281
     1
  3
DIMASSOC
350
17EA3
  3
PROJECTNAME
350
17EA4
  0
DICTIONARY
  5
E71C
102
{ACAD_REACTORS
330
7471
102
}
330
7471
100
AcDbDictionary
281
     1
  0
DICTIONARY
  5
F3B9
102
{ACAD_REACTORS
330
7471
102
}
330
7471
100
AcDbDictionary
281
     1
1001
DRAWINGVARIABLESXDATA
1000
POLARMODE
1000
1
  0
DICTIONARY
  5
1662D
102
{ACAD_REACTORS
330
1662C
102
}
330
1662C
100
AcDbDictionary
281
     1
  0
LAYOUT
  5
164A2
102
{ACAD_XDICTIONARY
360
17EA9
102
}
102
{ACAD_REACTORS
330
164A0
102
}
330
164A0
100
AcDbPlotSettings
  1

  2
Microsoft Office Document Image Writer
  4

  6

 40
0.0
 41
0.0
 42
0.0
 43
0.0
 44
0.0
 45
0.0
 46
0.0
 47
0.0
 48
0.0
 49
0.0
140
0.0
141
0.0
142
1.0
143
1.0
 70
  1712
 72
     0
 73
     0
 74
     0
  7

 75
     0
147
1.0
148
0.0
149
0.0
100
AcDbLayout
  1
Model
 70
     1
 71
     0
 10
0.0
 20
0.0
 11
12.0
 21
9.0
 12
0.0
 22
0.0
 32
0.0
 14
0.0
 24
0.0
 34
0.0
 15
0.0
 25
0.0
 35
0.0
146
0.0
 13
0.0
 23
0.0
 33
0.0
 16
1.0
 26
0.0
 36
0.0
 17
0.0
 27
1.0
 37
0.0
 76
     0
330
747D
  0
LAYOUT
  5
164A3
102
{ACAD_XDICTIONARY
360
17EAB
102
}
102
{ACAD_REACTORS
330
164A0
102
}
330
164A0
100
AcDbPlotSettings
  1

  2
Microsoft Office Document Image Writer
  4

  6

 40
0.0
 41
0.0
 42
0.0
 43
0.0
 44
0.0
 45
0.0
 46
0.0
 47
0.0
 48
0.0
 49
0.0
140
0.0
141
0.0
142
1.0
143
1.0
 70
   688
 72
     0
 73
     0
 74
     5
  7

 75
    16
147
1.0
148
0.0
149
0.0
100
AcDbLayout
  1
レイアウト1
 70
     0
 71
     1
 10
0.0
 20
0.0
 11
420.0
 21
297.0
 12
0.0
 22
0.0
 32
0.0
 14
1.000000000000000E+20
 24
1.000000000000000E+20
 34
1.000000000000000E+20
 15
-1.000000000000000E+20
 25
-1.000000000000000E+20
 35
-1.000000000000000E+20
146
0.0
 13
0.0
 23
0.0
 33
0.0
 16
1.0
 26
0.0
 36
0.0
 17
0.0
 27
1.0
 37
0.0
 76
     0
330
747A
  0
MLINESTYLE
  5
7480
102
{ACAD_REACTORS
330
7473
102
}
330
7473
100
AcDbMlineStyle
  2
STANDARD
 70
     0
  3

 62
     0
 51
90.0
 52
90.0
 71
     2
 49
0.5
 62
   256
  6
BYLAYER
 49
-0.5
 62
   256
  6
BYLAYER
  0
ACDBPLACEHOLDER
  5
1649D
102
{ACAD_REACTORS
330
1649C
102
}
330
1649C
  0
XRECORD
  5
17EA8
102
{ACAD_REACTORS
330
17EA6
102
}
330
17EA6
100
AcDbXrecord
280
     1
340
1649F
  0
XRECORD
  5
17EA7
102
{ACAD_REACTORS
330
17EA6
102
}
330
17EA6
100
AcDbXrecord
280
     1
340
1649E
  0
DICTIONARYVAR
  5
17EA3
102
{ACAD_REACTORS
330
17EA2
102
}
330
17EA2
100
DictionaryVariables
280
     0
  1
1
  0
DICTIONARYVAR
  5
17EA4
102
{ACAD_REACTORS
330
17EA2
102
}
330
17EA2
100
DictionaryVariables
280
     0
  1

  0
DICTIONARY
  5
17EA9
330
164A2
100
AcDbDictionary
280
     1
281
     1
  3
ACAD_XREC_ROUNDTRIP
360
17EAA
  0
DICTIONARY
  5
17EAB
330
164A3
100
AcDbDictionary
280
     1
281
     1
  3
ACAD_XREC_ROUNDTRIP
360
17EAC
  0
XRECORD
  5
17EAA
102
{ACAD_REACTORS
330
17EA9
102
}
330
17EA9
100
AcDbXrecord
280
     1
102
SHADEPLOT
 70
     0
102
SHADEPLOTRESLEVEL
 70
     2
102
SHADEPLOTCUSTOMDPI
 70
   300
  0
XRECORD
  5
17EAC
102
{ACAD_REACTORS
330
17EAB
102
}
330
17EAB
100
AcDbXrecord
280
     1
102
SHADEPLOT
 70
     0
102
SHADEPLOTRESLEVEL
 70
     2
102
SHADEPLOTCUSTOMDPI
 70
   300
  0
ENDSEC
  0
EOF
