  0
SECTION
  2
HEADER
  9
$ACADVER
  1
AC1015
  9
$ACADMAINTVER
 70
    20
  9
$DWGCODEPAGE
  3
ANSI_932
  9
$INSBASE
 10
0.0
 20
0.0
 30
0.0
  9
$EXTMIN
 10
139.9999999999995
 20
-0.0000000000000909
 30
0.0
  9
$EXTMAX
 10
16307.2
 20
11409.6
 30
0.0
  9
$LIMMIN
 10
0.0
 20
0.0
  9
$LIMMAX
 10
16800.0
 20
11880.0
  9
$ORTHOMODE
 70
     0
  9
$REGENMODE
 70
     1
  9
$FILLMODE
 70
     1
  9
$QTEXTMODE
 70
     0
  9
$MIRRTEXT
 70
     1
  9
$LTSCALE
 40
20.0
  9
$ATTMODE
 70
     1
  9
$TEXTSIZE
 40
4.0
  9
$TRACEWID
 40
1.0
  9
$TEXTSTYLE
  7
STYLE1
  9
$CLAYER
  8
寸法
  9
$CELTYPE
  6
BYLAYER
  9
$CECOLOR
 62
   256
  9
$CELTSCALE
 40
50.0
  9
$DISPSILH
 70
     0
  9
$DIMSCALE
 40
40.0
  9
$DIMASZ
 40
2.5
  9
$DIMEXO
 40
0.5
  9
$DIMDLI
 40
7.0
  9
$DIMRND
 40
0.0
  9
$DIMDLE
 40
0.0
  9
$DIMEXE
 40
1.5
  9
$DIMTP
 40
0.0
  9
$DIMTM
 40
0.0
  9
$DIMTXT
 40
3.0
  9
$DIMCEN
 40
0.0
  9
$DIMTSZ
 40
0.0
  9
$DIMTOL
 70
     0
  9
$DIMLIM
 70
     0
  9
$DIMTIH
 70
     0
  9
$DIMTOH
 70
     0
  9
$DIMSE1
 70
     0
  9
$DIMSE2
 70
     0
  9
$DIMTAD
 70
     3
  9
$DIMZIN
 70
     8
  9
$DIMBLK
  1

  9
$DIMASO
 70
     1
  9
$DIMSHO
 70
     1
  9
$DIMPOST
  1

  9
$DIMAPOST
  1

  9
$DIMALT
 70
     0
  9
$DIMALTD
 70
     2
  9
$DIMALTF
 40
0.0394
  9
$DIMLFAC
 40
1.0
  9
$DIMTOFL
 70
     1
  9
$DIMTVP
 40
0.0
  9
$DIMTIX
 70
     1
  9
$DIMSOXD
 70
     0
  9
$DIMSAH
 70
     1
  9
$DIMBLK1
  1
DOTSMALL
  9
$DIMBLK2
  1
DOTSMALL
  9
$DIMSTYLE
  2
INABA_S40G
  9
$DIMCLRD
 70
     0
  9
$DIMCLRE
 70
     0
  9
$DIMCLRT
 70
     7
  9
$DIMTFAC
 40
1.0
  9
$DIMGAP
 40
1.0
  9
$DIMJUST
 70
     0
  9
$DIMSD1
 70
     0
  9
$DIMSD2
 70
     0
  9
$DIMTOLJ
 70
     1
  9
$DIMTZIN
 70
     0
  9
$DIMALTZ
 70
     0
  9
$DIMALTTZ
 70
     0
  9
$DIMUPT
 70
     1
  9
$DIMDEC
 70
     1
  9
$DIMTDEC
 70
     4
  9
$DIMALTU
 70
     2
  9
$DIMALTTD
 70
     2
  9
$DIMTXSTY
  7
STYLE1
  9
$DIMAUNIT
 70
     0
  9
$DIMADEC
 70
     0
  9
$DIMALTRND
 40
0.0
  9
$DIMAZIN
 70
     0
  9
$DIMDSEP
 70
    46
  9
$DIMATFIT
 70
     3
  9
$DIMFRAC
 70
     0
  9
$DIMLDRBLK
  1

  9
$DIMLUNIT
 70
     2
  9
$DIMLWD
 70
    -2
  9
$DIMLWE
 70
    -2
  9
$DIMTMOVE
 70
     0
  9
$LUNITS
 70
     2
  9
$LUPREC
 70
     1
  9
$SKETCHINC
 40
1.0
  9
$FILLETRAD
 40
3.0
  9
$AUNITS
 70
     0
  9
$AUPREC
 70
     0
  9
$MENU
  1
acad
  9
$ELEVATION
 40
0.0
  9
$PELEVATION
 40
0.0
  9
$THICKNESS
 40
0.0
  9
$LIMCHECK
 70
     0
  9
$CHAMFERA
 40
0.0
  9
$CHAMFERB
 40
0.0
  9
$CHAMFERC
 40
0.0
  9
$CHAMFERD
 40
0.0
  9
$SKPOLY
 70
     0
  9
$TDCREATE
 40
2451368.612993866
  9
$TDUCREATE
 40
2451368.237993866
  9
$TDUPDATE
 40
2455575.685748507
  9
$TDUUPDATE
 40
2455575.310748507
  9
$TDINDWG
 40
0.6331703009
  9
$TDUSRTIMER
 40
0.6331703009
  9
$USRTIMER
 70
     1
  9
$ANGBASE
 50
0.0
  9
$ANGDIR
 70
     0
  9
$PDMODE
 70
     3
  9
$PDSIZE
 40
2.0
  9
$PLINEWID
 40
0.0
  9
$SPLFRAME
 70
     0
  9
$SPLINETYPE
 70
     6
  9
$SPLINESEGS
 70
     8
  9
$HANDSEED
  5
19CA3
  9
$SURFTAB1
 70
     6
  9
$SURFTAB2
 70
     6
  9
$SURFTYPE
 70
     6
  9
$SURFU
 70
     6
  9
$SURFV
 70
     6
  9
$UCSBASE
  2

  9
$UCSNAME
  2

  9
$UCSORG
 10
0.0
 20
0.0
 30
0.0
  9
$UCSXDIR
 10
1.0
 20
0.0
 30
0.0
  9
$UCSYDIR
 10
0.0
 20
1.0
 30
0.0
  9
$UCSORTHOREF
  2

  9
$UCSORTHOVIEW
 70
     0
  9
$UCSORGTOP
 10
0.0
 20
0.0
 30
0.0
  9
$UCSORGBOTTOM
 10
0.0
 20
0.0
 30
0.0
  9
$UCSORGLEFT
 10
0.0
 20
0.0
 30
0.0
  9
$UCSORGRIGHT
 10
0.0
 20
0.0
 30
0.0
  9
$UCSORGFRONT
 10
0.0
 20
0.0
 30
0.0
  9
$UCSORGBACK
 10
0.0
 20
0.0
 30
0.0
  9
$PUCSBASE
  2

  9
$PUCSNAME
  2

  9
$PUCSORG
 10
0.0
 20
0.0
 30
0.0
  9
$PUCSXDIR
 10
1.0
 20
0.0
 30
0.0
  9
$PUCSYDIR
 10
0.0
 20
1.0
 30
0.0
  9
$PUCSORTHOREF
  2

  9
$PUCSORTHOVIEW
 70
     0
  9
$PUCSORGTOP
 10
0.0
 20
0.0
 30
0.0
  9
$PUCSORGBOTTOM
 10
0.0
 20
0.0
 30
0.0
  9
$PUCSORGLEFT
 10
0.0
 20
0.0
 30
0.0
  9
$PUCSORGRIGHT
 10
0.0
 20
0.0
 30
0.0
  9
$PUCSORGFRONT
 10
0.0
 20
0.0
 30
0.0
  9
$PUCSORGBACK
 10
0.0
 20
0.0
 30
0.0
  9
$USERI1
 70
     0
  9
$USERI2
 70
     0
  9
$USERI3
 70
     0
  9
$USERI4
 70
     0
  9
$USERI5
 70
     0
  9
$USERR1
 40
0.0
  9
$USERR2
 40
0.0
  9
$USERR3
 40
0.0
  9
$USERR4
 40
0.0
  9
$USERR5
 40
0.0
  9
$WORLDVIEW
 70
     1
  9
$SHADEDGE
 70
     3
  9
$SHADEDIF
 70
    70
  9
$TILEMODE
 70
     1
  9
$MAXACTVP
 70
    16
  9
$PINSBASE
 10
0.0
 20
0.0
 30
0.0
  9
$PLIMCHECK
 70
     0
  9
$PEXTMIN
 10
1.000000000000000E+20
 20
1.000000000000000E+20
 30
1.000000000000000E+20
  9
$PEXTMAX
 10
-1.000000000000000E+20
 20
-1.000000000000000E+20
 30
-1.000000000000000E+20
  9
$PLIMMIN
 10
0.0
 20
0.0
  9
$PLIMMAX
 10
420.0
 20
297.0
  9
$UNITMODE
 70
     0
  9
$VISRETAIN
 70
     0
  9
$PLINEGEN
 70
     0
  9
$PSLTSCALE
 70
     0
  9
$TREEDEPTH
 70
  3020
  9
$CMLSTYLE
  2
STANDARD
  9
$CMLJUST
 70
     0
  9
$CMLSCALE
 40
1.0
  9
$PROXYGRAPHICS
 70
     1
  9
$MEASUREMENT
 70
     1
  9
$CELWEIGHT
370
    -1
  9
$ENDCAPS
280
     0
  9
$JOINSTYLE
280
     0
  9
$LWDISPLAY
290
     0
  9
$INSUNITS
 70
     0
  9
$HYPERLINKBASE
  1

  9
$STYLESHEET
  1

  9
$XEDIT
290
     1
  9
$CEPSNTYPE
380
     0
  9
$PSTYLEMODE
290
     1
  9
$FINGERPRINTGUID
  2
{2222626E-EC48-4969-8ABD-B20E2B628CD5}
  9
$VERSIONGUID
  2
{0B660DF4-EE3E-4ECD-B456-10EEFBF7533B}
  9
$EXTNAMES
290
     1
  9
$PSVPSCALE
 40
0.0
  9
$OLESTARTUP
290
     0
  0
ENDSEC
  0
SECTION
  2
CLASSES
  0
CLASS
  1
ACDBDICTIONARYWDFLT
  2
AcDbDictionaryWithDefault
  3
ObjectDBX Classes
 90
        0
280
     0
281
     0
  0
CLASS
  1
DICTIONARYVAR
  2
AcDbDictionaryVar
  3
ObjectDBX Classes
 90
        0
280
     0
281
     0
  0
CLASS
  1
ACDBPLACEHOLDER
  2
AcDbPlaceHolder
  3
ObjectDBX Classes
 90
        0
280
     0
281
     0
  0
CLASS
  1
LAYOUT
  2
AcDbLayout
  3
ObjectDBX Classes
 90
        0
280
     0
281
     0
  0
ENDSEC
  0
SECTION
  2
TABLES
  0
TABLE
  2
VPORT
  5
746D
330
0
100
AcDbSymbolTable
 70
     2
  0
VPORT
  5
19C9B
330
746D
100
AcDbSymbolTableRecord
100
AcDbViewportTableRecord
  2
*Active
 70
     0
 10
0.0
 20
0.0
 11
1.0
 21
1.0
 12
8223.761025238502
 22
6348.703162895247
 13
0.0
 23
0.0
 14
10.0
 24
10.0
 15
10.0
 25
10.0
 16
0.0
 26
0.0
 36
1.0
 17
0.0
 27
0.0
 37
0.0
 40
12805.60689082044
 41
1.525925925925925
 42
50.0
 43
0.0
 44
0.0
 50
0.0
 51
0.0
 71
     0
 72
     0
 73
     1
 74
     0
 75
     0
 76
     0
 77
     0
 78
     0
281
     0
 65
     1
110
0.0
120
0.0
130
0.0
111
1.0
121
0.0
131
0.0
112
0.0
122
1.0
132
0.0
 79
     0
146
0.0
  0
ENDTAB
  0
TABLE
  2
LTYPE
  5
746A
330
0
100
AcDbSymbolTable
 70
     4
  0
LTYPE
  5
7477
330
746A
100
AcDbSymbolTableRecord
100
AcDbLinetypeTableRecord
  2
BYBLOCK
 70
     0
  3

 72
    65
 73
     0
 40
0.0
  0
LTYPE
  5
7478
330
746A
100
AcDbSymbolTableRecord
100
AcDbLinetypeTableRecord
  2
BYLAYER
 70
     0
  3

 72
    65
 73
     0
 40
0.0
  0
LTYPE
  5
7479
330
746A
100
AcDbSymbolTableRecord
100
AcDbLinetypeTableRecord
  2
CONTINUOUS
 70
     0
  3
Solid line
 72
    65
 73
     0
 40
0.0
  0
LTYPE
  5
7816
330
746A
100
AcDbSymbolTableRecord
100
AcDbLinetypeTableRecord
  2
CENTER
 70
     0
  3
____ _ ____ _ ____ _ ____ _ ____ _ ____ _ ____ 
 72
    65
 73
     4
 40
2.0
 49
1.25
 74
     0
 49
-0.25
 74
     0
 49
0.25
 74
     0
 49
-0.25
 74
     0
  0
LTYPE
  5
781A
330
746A
100
AcDbSymbolTableRecord
100
AcDbLinetypeTableRecord
  2
HIDDEN
 70
     0
  3
__ __ __ __ __ __ __ __ __ __ __ __ __ __ __ __
 72
    65
 73
     2
 40
0.375
 49
0.25
 74
     0
 49
-0.125
 74
     0
  0
LTYPE
  5
781B
330
746A
100
AcDbSymbolTableRecord
100
AcDbLinetypeTableRecord
  2
PHANTOM
 70
     0
  3
______  __  __  ______  __  __  ______  __  __ 
 72
    65
 73
     6
 40
2.5
 49
1.25
 74
     0
 49
-0.25
 74
     0
 49
0.25
 74
     0
 49
-0.25
 74
     0
 49
0.25
 74
     0
 49
-0.25
 74
     0
  0
ENDTAB
  0
TABLE
  2
LAYER
  5
7467
102
{ACAD_XDICTIONARY
360
1730B
102
}
330
0
100
AcDbSymbolTable
 70
    12
  0
LAYER
  5
7474
330
7467
100
AcDbSymbolTableRecord
100
AcDbLayerTableRecord
  2
0
 70
     0
 62
     7
  6
CONTINUOUS
370
    -3
390
1716F
  0
LAYER
  5
DEB2
330
7467
100
AcDbSymbolTableRecord
100
AcDbLayerTableRecord
  2
センター
 70
     0
 62
     3
  6
CENTER
370
    -3
390
1716F
  0
LAYER
  5
DEB3
330
7467
100
AcDbSymbolTableRecord
100
AcDbLayerTableRecord
  2
寸法
 70
     0
 62
     4
  6
CONTINUOUS
370
    -3
390
1716F
  0
LAYER
  5
DEB4
330
7467
100
AcDbSymbolTableRecord
100
AcDbLayerTableRecord
  2
部品1
 70
     0
 62
     7
  6
CONTINUOUS
370
    -3
390
1716F
  0
LAYER
  5
DEB5
330
7467
100
AcDbSymbolTableRecord
100
AcDbLayerTableRecord
  2
補助
 70
     0
 62
    -1
  6
CONTINUOUS
370
    -3
390
1716F
  0
LAYER
  5
DEB6
330
7467
100
AcDbSymbolTableRecord
100
AcDbLayerTableRecord
  2
文字
 70
     0
 62
     7
  6
CONTINUOUS
370
    -3
390
1716F
  0
LAYER
  5
F255
330
7467
100
AcDbSymbolTableRecord
100
AcDbLayerTableRecord
  2
DEFPOINTS
 70
     0
 62
     7
  6
CONTINUOUS
290
     0
370
    -3
390
1716F
  0
LAYER
  5
10B54
330
7467
100
AcDbSymbolTableRecord
100
AcDbLayerTableRecord
  2
仕様書枠
 70
     0
 62
   230
  6
CONTINUOUS
370
    -3
390
1716F
  0
LAYER
  5
11729
330
7467
100
AcDbSymbolTableRecord
100
AcDbLayerTableRecord
  2
Ｇ．Ｌ
 70
     0
 62
    30
  6
CONTINUOUS
370
    -3
390
1716F
  0
LAYER
  5
1173F
330
7467
100
AcDbSymbolTableRecord
100
AcDbLayerTableRecord
  2
細線
 70
     0
 62
     5
  6
CONTINUOUS
370
    -3
390
1716F
  0
LAYER
  5
12CC4
330
7467
100
AcDbSymbolTableRecord
100
AcDbLayerTableRecord
  2
想像線
 70
     0
 62
     6
  6
PHANTOM
370
    -3
390
1716F
  0
LAYER
  5
142E2
330
7467
100
AcDbSymbolTableRecord
100
AcDbLayerTableRecord
  2
破線
 70
     0
 62
     2
  6
HIDDEN
370
    -3
390
1716F
  0
ENDTAB
  0
TABLE
  2
STYLE
  5
7468
330
0
100
AcDbSymbolTable
 70
     4
  0
STYLE
  5
7475
330
7468
100
AcDbSymbolTableRecord
100
AcDbTextStyleTableRecord
  2
STANDARD
 70
     0
 40
0.0
 41
1.0
 50
0.0
 71
     0
 42
4.0
  3
txt
  4
C:\AutoCAD LT\bigfont.shx
  0
STYLE
  5
F706
330
7468
100
AcDbSymbolTableRecord
100
AcDbTextStyleTableRecord
  2
STYLE1
 70
     0
 40
0.0
 41
1.0
 50
0.0
 71
     0
 42
4.0
  3
isocp.shx
  4
bigfont.shx
  0
STYLE
  5
103BF
330
7468
100
AcDbSymbolTableRecord
100
AcDbTextStyleTableRecord
  2
STYLE2
 70
     0
 40
0.0
 41
1.0
 50
0.0
 71
     0
 42
100.0
  3
MS PGothic.ttf
  4

1001
ACAD
1000
MS PGothic
1071
    32818
  0
STYLE
  5
19098
330
7468
100
AcDbSymbolTableRecord
100
AcDbTextStyleTableRecord
  2
STYLE3
 70
     0
 40
0.0
 41
1.0
 50
0.0
 71
     0
 42
100.0
  3

  4

1001
ACAD
1000
DFPGothic-EB
1071
    32818
  0
ENDTAB
  0
TABLE
  2
VIEW
  5
746B
330
0
100
AcDbSymbolTable
 70
     0
  0
ENDTAB
  0
TABLE
  2
UCS
  5
746C
330
0
100
AcDbSymbolTable
 70
     0
  0
ENDTAB
  0
TABLE
  2
APPID
  5
746E
330
0
100
AcDbSymbolTable
 70
     6
  0
APPID
  5
7476
330
746E
100
AcDbSymbolTableRecord
100
AcDbRegAppTableRecord
  2
ACAD
 70
     0
  0
APPID
  5
DEA9
330
746E
100
AcDbSymbolTableRecord
100
AcDbRegAppTableRecord
  2
CONTENTBLOCKICON
 70
     0
  0
APPID
  5
DEAA
330
746E
100
AcDbSymbolTableRecord
100
AcDbRegAppTableRecord
  2
CONTENTBLOCKDESCRIPTION
 70
     0
  0
APPID
  5
E71D
330
746E
100
AcDbSymbolTableRecord
100
AcDbRegAppTableRecord
  2
CONTENTTABDATA
 70
     0
  0
APPID
  5
E71E
330
746E
100
AcDbSymbolTableRecord
100
AcDbRegAppTableRecord
  2
CONTENTCURRENTTAB
 70
     0
  0
APPID
  5
F3BA
330
746E
100
AcDbSymbolTableRecord
100
AcDbRegAppTableRecord
  2
DRAWINGVARIABLESXDATA
 70
     0
  0
ENDTAB
  0
TABLE
  2
DIMSTYLE
  5
746F
330
0
100
AcDbSymbolTable
 70
     5
100
AcDbDimStyleTable
 71
     1
340
F71F
  0
DIMSTYLE
105
7484
330
746F
100
AcDbSymbolTableRecord
100
AcDbDimStyleTableRecord
  2
JIS
 70
     0
 41
2.5
 42
1.0
 43
7.0
 44
1.0
 73
     0
 74
     0
 77
     1
 78
     8
140
2.5
141
0.0
143
0.0394
147
0.0
172
     1
174
     1
175
     1
340
7475
  0
DIMSTYLE
105
F71F
102
{ACAD_REACTORS
330
17624
330
17628
330
17810
330
17817
330
1781A
330
1781C
330
1783A
330
1783E
330
1783F
330
17840
330
17841
330
17849
330
1784E
330
180E6
330
180E5
330
180E4
330
180E3
330
1773C
330
186F7
330
186F6
330
186F9
330
186F8
330
18757
330
18756
330
18755
330
187D5
330
18F14
330
19954
330
1995B
102
}
330
746F
100
AcDbSymbolTableRecord
100
AcDbDimStyleTableRecord
  2
INABA_S40G
 70
     0
 40
40.0
 41
2.5
 42
0.5
 43
7.0
 44
1.5
 73
     0
 74
     0
 77
     3
 78
     8
140
3.0
141
0.0
143
0.0394
147
1.0
172
     1
173
     1
174
     1
178
     7
271
     1
288
     1
340
F706
341
F770
343
F770
344
F770
  0
DIMSTYLE
105
1730A
102
{ACAD_REACTORS
330
19336
330
1995A
102
}
330
746F
100
AcDbSymbolTableRecord
100
AcDbDimStyleTableRecord
  2
INABA_S40
 70
     0
 40
40.0
 41
2.5
 42
0.5
 43
7.0
 44
1.5
 73
     0
 74
     0
 77
     3
 78
     8
140
3.0
141
0.0
143
0.0394
147
1.0
172
     1
173
     1
174
     1
175
     1
178
     7
340
7475
  0
DIMSTYLE
105
19099
330
746F
100
AcDbSymbolTableRecord
100
AcDbDimStyleTableRecord
  2
INABA_S50G
 70
     0
 41
125.0
 42
25.0
 43
7.0
 44
75.0
 73
     0
 74
     0
 77
     3
 78
     8
140
150.0
141
0.0
143
0.0394
147
25.0
172
     1
173
     1
174
     1
175
     1
178
     7
271
     1
340
F706
341
F770
343
F770
344
F770
  0
DIMSTYLE
105
19C31
330
746F
100
AcDbSymbolTableRecord
100
AcDbDimStyleTableRecord
  2
INABA_S20G
 70
     0
 40
20.0
 41
2.5
 42
0.5
 43
7.0
 44
1.5
 73
     0
 74
     0
 77
     3
 78
     8
140
3.0
141
0.0
143
0.0394
147
1.0
172
     1
173
     1
174
     1
178
     7
271
     1
340
F706
341
F770
343
F770
344
F770
  0
ENDTAB
  0
TABLE
  2
BLOCK_RECORD
  5
7466
330
0
100
AcDbSymbolTable
 70
    33
  0
BLOCK_RECORD
  5
747D
330
7466
100
AcDbSymbolTableRecord
100
AcDbBlockTableRecord
  2
*MODEL_SPACE
340
17174
  0
BLOCK_RECORD
  5
747A
330
7466
100
AcDbSymbolTableRecord
100
AcDbBlockTableRecord
  2
*PAPER_SPACE
340
17175
  0
BLOCK_RECORD
  5
F770
330
7466
100
AcDbSymbolTableRecord
100
AcDbBlockTableRecord
  2
_DOTSMALL
340
0
102
{BLKREFS
331
18CBF
331
18CC0
331
18CC8
331
18CC9
331
18CD3
331
18CD4
331
18CDC
331
18CDD
331
18CE6
331
18CE7
331
18CF1
331
18CF2
331
18CFA
331
18CFB
331
18D03
331
18D04
331
18D0D
331
18D0E
331
18D16
331
18D17
331
18D21
331
18D22
331
18D2A
331
18D2B
331
18D95
331
18D96
331
18DB2
331
18DB3
331
18DC4
331
18DC5
331
18DCD
331
18DCE
331
19063
331
19064
331
19BA3
331
19BA4
331
19BB7
331
19BB8
331
19BCB
331
19BCC
331
19BD4
331
19BD5
331
19BDF
331
19BE0
331
19BE8
331
19BE9
331
19BF3
331
19BF4
331
19BFC
331
19BFD
331
19C05
331
19C06
331
19C10
331
19C11
331
19C19
331
19C1A
331
19C22
331
19C23
102
}
  0
BLOCK_RECORD
  5
17214
330
7466
100
AcDbSymbolTableRecord
100
AcDbBlockTableRecord
  2
_DOT
340
0
102
{BLKREFS
331
19BAE
331
19BAF
331
19BC0
331
19BC1
102
}
  0
BLOCK_RECORD
  5
17889
330
7466
100
AcDbSymbolTableRecord
100
AcDbBlockTableRecord
  2
*D2
340
0
  0
BLOCK_RECORD
  5
17895
330
7466
100
AcDbSymbolTableRecord
100
AcDbBlockTableRecord
  2
*D3
340
0
  0
BLOCK_RECORD
  5
178BB
330
7466
100
AcDbSymbolTableRecord
100
AcDbBlockTableRecord
  2
*D4
340
0
  0
BLOCK_RECORD
  5
178FB
330
7466
100
AcDbSymbolTableRecord
100
AcDbBlockTableRecord
  2
*D5
340
0
  0
BLOCK_RECORD
  5
17907
330
7466
100
AcDbSymbolTableRecord
100
AcDbBlockTableRecord
  2
*D6
340
0
  0
BLOCK_RECORD
  5
17913
330
7466
100
AcDbSymbolTableRecord
100
AcDbBlockTableRecord
  2
*D7
340
0
  0
BLOCK_RECORD
  5
1791F
330
7466
100
AcDbSymbolTableRecord
100
AcDbBlockTableRecord
  2
*D8
340
0
  0
BLOCK_RECORD
  5
1792D
330
7466
100
AcDbSymbolTableRecord
100
AcDbBlockTableRecord
  2
*D9
340
0
  0
BLOCK_RECORD
  5
17945
330
7466
100
AcDbSymbolTableRecord
100
AcDbBlockTableRecord
  2
*D10
340
0
  0
BLOCK_RECORD
  5
17951
330
7466
100
AcDbSymbolTableRecord
100
AcDbBlockTableRecord
  2
*D11
340
0
  0
BLOCK_RECORD
  5
1795F
330
7466
100
AcDbSymbolTableRecord
100
AcDbBlockTableRecord
  2
*D12
340
0
  0
BLOCK_RECORD
  5
1796B
330
7466
100
AcDbSymbolTableRecord
100
AcDbBlockTableRecord
  2
*D13
340
0
  0
BLOCK_RECORD
  5
17979
330
7466
100
AcDbSymbolTableRecord
100
AcDbBlockTableRecord
  2
*D14
340
0
  0
BLOCK_RECORD
  5
17985
330
7466
100
AcDbSymbolTableRecord
100
AcDbBlockTableRecord
  2
*D15
340
0
  0
BLOCK_RECORD
  5
18105
330
7466
100
AcDbSymbolTableRecord
100
AcDbBlockTableRecord
  2
*D16
340
0
  0
BLOCK_RECORD
  5
18112
330
7466
100
AcDbSymbolTableRecord
100
AcDbBlockTableRecord
  2
*D17
340
0
  0
BLOCK_RECORD
  5
1811E
330
7466
100
AcDbSymbolTableRecord
100
AcDbBlockTableRecord
  2
*D18
340
0
  0
BLOCK_RECORD
  5
1812C
330
7466
100
AcDbSymbolTableRecord
100
AcDbBlockTableRecord
  2
*D19
340
0
  0
BLOCK_RECORD
  5
186FA
330
7466
100
AcDbSymbolTableRecord
100
AcDbBlockTableRecord
  2
*D20
340
0
  0
BLOCK_RECORD
  5
18706
330
7466
100
AcDbSymbolTableRecord
100
AcDbBlockTableRecord
  2
*D21
340
0
  0
BLOCK_RECORD
  5
18712
330
7466
100
AcDbSymbolTableRecord
100
AcDbBlockTableRecord
  2
*D22
340
0
  0
BLOCK_RECORD
  5
1871F
330
7466
100
AcDbSymbolTableRecord
100
AcDbBlockTableRecord
  2
*D23
340
0
  0
BLOCK_RECORD
  5
18792
330
7466
100
AcDbSymbolTableRecord
100
AcDbBlockTableRecord
  2
*D24
340
0
  0
BLOCK_RECORD
  5
1879E
330
7466
100
AcDbSymbolTableRecord
100
AcDbBlockTableRecord
  2
*D25
340
0
  0
BLOCK_RECORD
  5
187AC
330
7466
100
AcDbSymbolTableRecord
100
AcDbBlockTableRecord
  2
*D26
340
0
  0
BLOCK_RECORD
  5
187E0
330
7466
100
AcDbSymbolTableRecord
100
AcDbBlockTableRecord
  2
*D27
340
0
  0
BLOCK_RECORD
  5
18FEB
330
7466
100
AcDbSymbolTableRecord
100
AcDbBlockTableRecord
  2
*D28
340
0
  0
BLOCK_RECORD
  5
1938E
330
7466
100
AcDbSymbolTableRecord
100
AcDbBlockTableRecord
  2
*D29
340
0
  0
BLOCK_RECORD
  5
19A49
330
7466
100
AcDbSymbolTableRecord
100
AcDbBlockTableRecord
  2
*D30
340
0
  0
BLOCK_RECORD
  5
19A55
330
7466
100
AcDbSymbolTableRecord
100
AcDbBlockTableRecord
  2
*D31
340
0
  0
BLOCK_RECORD
  5
19A63
330
7466
100
AcDbSymbolTableRecord
100
AcDbBlockTableRecord
  2
*D32
340
0
  0
ENDTAB
  0
ENDSEC
  0
SECTION
  2
BLOCKS
  0
BLOCK
  5
7489
330
747D
100
AcDbEntity
  8
0
100
AcDbBlockBegin
  2
*MODEL_SPACE
 70
     0
 10
0.0
 20
0.0
 30
0.0
  3
*MODEL_SPACE
  1

  0
ENDBLK
  5
748A
330
747D
100
AcDbEntity
  8
0
100
AcDbBlockEnd
  0
BLOCK
  5
7487
330
747A
100
AcDbEntity
 67
     1
  8
0
100
AcDbBlockBegin
  2
*PAPER_SPACE
 70
     0
 10
0.0
 20
0.0
 30
0.0
  3
*PAPER_SPACE
  1

  0
ENDBLK
  5
7488
330
747A
100
AcDbEntity
 67
     1
  8
0
100
AcDbBlockEnd
  0
BLOCK
  5
F771
330
F770
100
AcDbEntity
  8
0
 48
50.0
100
AcDbBlockBegin
  2
_DOTSMALL
 70
     0
 10
0.0
 20
0.0
 30
0.0
  3
_DOTSMALL
  1

  0
LWPOLYLINE
  5
F772
330
F770
100
AcDbEntity
  8
0
  6
ByBlock
 62
     0
 48
50.0
100
AcDbPolyline
 90
        2
 70
     1
 43
0.5
 10
-0.0625
 20
0.0
 42
1.0
 10
0.0625
 20
0.0
 42
1.0
  0
ENDBLK
  5
F776
330
F770
100
AcDbEntity
  8
0
 48
50.0
100
AcDbBlockEnd
  0
BLOCK
  5
17215
330
17214
100
AcDbEntity
  8
0
 48
50.0
100
AcDbBlockBegin
  2
_DOT
 70
     0
 10
0.0
 20
0.0
 30
0.0
  3
_DOT
  1

  0
LWPOLYLINE
  5
17216
330
17214
100
AcDbEntity
  8
0
  6
ByBlock
 62
     0
 48
50.0
100
AcDbPolyline
 90
        2
 70
     1
 43
0.5
 10
-0.25
 20
0.0
 42
1.0
 10
0.25
 20
0.0
 42
1.0
  0
LINE
  5
17217
330
17214
100
AcDbEntity
  8
0
  6
ByBlock
 62
     0
 48
50.0
100
AcDbLine
 10
-0.5
 20
0.0
 30
0.0
 11
-1.0
 21
0.0
 31
0.0
  0
ENDBLK
  5
17218
330
17214
100
AcDbEntity
  8
0
 48
50.0
100
AcDbBlockEnd
  0
BLOCK
  5
17893
330
17889
100
AcDbEntity
  8
0
 48
50.0
100
AcDbBlockBegin
  2
*D2
 70
     1
 10
0.0
 20
0.0
 30
0.0
  3
*D2
  1

  0
LINE
  5
18DCA
330
17889
100
AcDbEntity
  8
寸法
 62
     0
 48
50.0
370
    -2
100
AcDbLine
 10
4795.06797507215
 20
2534.716014124861
 30
0.0
 11
4605.567971825514
 21
2534.716014124861
 31
0.0
  0
LINE
  5
18DCB
330
17889
100
AcDbEntity
  8
寸法
 62
     0
 48
50.0
370
    -2
100
AcDbLine
 10
4770.067975072148
 20
2734.716014124862
 30
0.0
 11
4605.567971825514
 21
2734.716014124862
 31
0.0
  0
LINE
  5
18DCC
330
17889
100
AcDbEntity
  8
寸法
 62
     0
 48
50.0
370
    -2
100
AcDbLine
 10
4665.567971825513
 20
2534.716014124861
 30
0.0
 11
4665.567971825513
 21
2734.716014124862
 31
0.0
  0
INSERT
  5
18DCD
330
17889
100
AcDbEntity
  8
寸法
 62
     0
 48
50.0
370
    -2
100
AcDbBlockReference
  2
_DOTSMALL
 10
4665.567971825513
 20
2534.716014124861
 30
0.0
 41
100.0
 42
100.0
 43
100.0
 50
270.0
  0
INSERT
  5
18DCE
330
17889
100
AcDbEntity
  8
寸法
 62
     0
 48
50.0
370
    -2
100
AcDbBlockReference
  2
_DOTSMALL
 10
4665.567971825513
 20
2734.716014124862
 30
0.0
 41
100.0
 42
100.0
 43
100.0
 50
90.0
  0
MTEXT
  5
18DCF
330
17889
100
AcDbEntity
  8
寸法
 62
     7
 48
50.0
100
AcDbMText
 10
4565.55616080189
 20
2634.716014124862
 30
0.0
 40
120.0
 41
0.0
 71
     5
 72
     1
  1
\A1;200
  7
STYLE1
 11
0.0000000000000001
 21
1.0
 31
0.0
 73
     1
 44
1.0
1001
ACAD
1000
MTEXTBEGIN
1070
    73
1070
     1
1070
    44
1040
1.0
1070
    74
1070
     0
1000
MTEXTEND
  0
POINT
  5
18DD0
330
17889
100
AcDbEntity
  8
DEFPOINTS
 62
     0
 48
50.0
100
AcDbPoint
 10
4815.06797507215
 20
2534.716014124861
 30
0.0
  0
POINT
  5
18DD1
330
17889
100
AcDbEntity
  8
DEFPOINTS
 62
     0
 48
50.0
100
AcDbPoint
 10
4790.067975072148
 20
2734.716014124862
 30
0.0
  0
POINT
  5
18DD2
330
17889
100
AcDbEntity
  8
DEFPOINTS
 62
     0
 48
50.0
100
AcDbPoint
 10
4665.567971825513
 20
2734.716014124862
 30
0.0
  0
ENDBLK
  5
17894
330
17889
100
AcDbEntity
  8
0
 48
50.0
100
AcDbBlockEnd
  0
BLOCK
  5
1789F
330
17895
100
AcDbEntity
  8
0
 48
50.0
100
AcDbBlockBegin
  2
*D3
 70
     1
 10
0.0
 20
0.0
 30
0.0
  3
*D3
  1

  0
LINE
  5
18DC1
330
17895
100
AcDbEntity
  8
寸法
 62
     0
 48
50.0
370
    -2
100
AcDbLine
 10
5015.067975072146
 20
2514.716014124861
 30
0.0
 11
5015.067975072146
 21
2188.668684824484
 31
0.0
  0
LINE
  5
18DC2
330
17895
100
AcDbEntity
  8
寸法
 62
     0
 48
50.0
370
    -2
100
AcDbLine
 10
4815.06797507215
 20
2514.716014124861
 30
0.0
 11
4815.06797507215
 21
2188.668684824484
 31
0.0
  0
LINE
  5
18DC3
330
17895
100
AcDbEntity
  8
寸法
 62
     0
 48
50.0
370
    -2
100
AcDbLine
 10
5015.067975072146
 20
2248.668684824485
 30
0.0
 11
4815.06797507215
 21
2248.668684824485
 31
0.0
  0
INSERT
  5
18DC4
330
17895
100
AcDbEntity
  8
寸法
 62
     0
 48
50.0
370
    -2
100
AcDbBlockReference
  2
_DOTSMALL
 10
5015.067975072146
 20
2248.668684824485
 30
0.0
 41
100.0
 42
100.0
 43
100.0
  0
INSERT
  5
18DC5
330
17895
100
AcDbEntity
  8
寸法
 62
     0
 48
50.0
370
    -2
100
AcDbBlockReference
  2
_DOTSMALL
 10
4815.06797507215
 20
2248.668684824485
 30
0.0
 41
100.0
 42
100.0
 43
100.0
 50
180.0
  0
MTEXT
  5
18DC6
330
17895
100
AcDbEntity
  8
寸法
 62
     7
 48
50.0
100
AcDbMText
 10
4915.067975072148
 20
2348.680495848107
 30
0.0
 40
120.0
 41
0.0
 71
     5
 72
     1
  1
\A1;200
  7
STYLE1
 73
     1
 44
1.0
1001
ACAD
1000
MTEXTBEGIN
1070
    73
1070
     1
1070
    44
1040
1.0
1070
    74
1070
     0
1000
MTEXTEND
  0
POINT
  5
18DC7
330
17895
100
AcDbEntity
  8
DEFPOINTS
 62
     0
 48
50.0
100
AcDbPoint
 10
5015.067975072146
 20
2534.716014124861
 30
0.0
  0
POINT
  5
18DC8
330
17895
100
AcDbEntity
  8
DEFPOINTS
 62
     0
 48
50.0
100
AcDbPoint
 10
4815.06797507215
 20
2534.716014124861
 30
0.0
  0
POINT
  5
18DC9
330
17895
100
AcDbEntity
  8
DEFPOINTS
 62
     0
 48
50.0
100
AcDbPoint
 10
4815.06797507215
 20
2248.668684824485
 30
0.0
  0
ENDBLK
  5
178A0
330
17895
100
AcDbEntity
  8
0
 48
50.0
100
AcDbBlockEnd
  0
BLOCK
  5
178C5
330
178BB
100
AcDbEntity
  8
0
 48
50.0
100
AcDbBlockBegin
  2
*D4
 70
     1
 10
0.0
 20
0.0
 30
0.0
  3
*D4
  1

  0
LINE
  5
18DAF
330
178BB
100
AcDbEntity
  8
寸法
 62
     0
 48
50.0
370
    -2
100
AcDbLine
 10
8713.852392096725
 20
4617.716014124862
 30
0.0
 11
8374.646362884575
 21
4617.716014124862
 31
0.0
  0
LINE
  5
18DB0
330
178BB
100
AcDbEntity
  8
寸法
 62
     0
 48
50.0
370
    -2
100
AcDbLine
 10
8713.852392096725
 20
2892.716014124863
 30
0.0
 11
8374.646362884574
 21
2892.716014124863
 31
0.0
  0
LINE
  5
18DB1
330
178BB
100
AcDbEntity
  8
寸法
 62
     0
 48
50.0
370
    -2
100
AcDbLine
 10
8434.646362884576
 20
4617.716014124862
 30
0.0
 11
8434.646362884574
 21
2892.716014124863
 31
0.0
  0
INSERT
  5
18DB2
330
178BB
100
AcDbEntity
  8
寸法
 62
     0
 48
50.0
370
    -2
100
AcDbBlockReference
  2
_DOTSMALL
 10
8434.646362884576
 20
4617.716014124862
 30
0.0
 41
100.0
 42
100.0
 43
100.0
 50
90.0
  0
INSERT
  5
18DB3
330
178BB
100
AcDbEntity
  8
寸法
 62
     0
 48
50.0
370
    -2
100
AcDbBlockReference
  2
_DOTSMALL
 10
8434.646362884574
 20
2892.716014124863
 30
0.0
 41
100.0
 42
100.0
 43
100.0
 50
270.0
  0
MTEXT
  5
18DB4
330
178BB
100
AcDbEntity
  8
寸法
 62
     7
 48
50.0
100
AcDbMText
 10
8334.634551860952
 20
3746.349033142388
 30
0.0
 40
120.0
 41
0.0
 71
     5
 72
     1
  1
\A1;有効開口部高サ1725
  7
STYLE1
 11
0.0000000000000001
 21
1.0
 31
0.0
 73
     1
 44
1.0
1001
ACAD
1000
MTEXTBEGIN
1070
    73
1070
     1
1070
    44
1040
1.0
1070
    74
1070
     0
1000
MTEXTEND
  0
POINT
  5
18DB5
330
178BB
100
AcDbEntity
  8
DEFPOINTS
 62
     0
 48
50.0
100
AcDbPoint
 10
8733.852392096727
 20
4617.716014124862
 30
0.0
  0
POINT
  5
18DB6
330
178BB
100
AcDbEntity
  8
DEFPOINTS
 62
     0
 48
50.0
100
AcDbPoint
 10
8733.852392096727
 20
2892.716014124863
 30
0.0
  0
POINT
  5
18DB7
330
178BB
100
AcDbEntity
  8
DEFPOINTS
 62
     0
 48
50.0
100
AcDbPoint
 10
8434.646362884574
 20
2892.716014124863
 30
0.0
  0
ENDBLK
  5
178C6
330
178BB
100
AcDbEntity
  8
0
 48
50.0
100
AcDbBlockEnd
  0
BLOCK
  5
17905
330
178FB
100
AcDbEntity
  8
0
 48
50.0
100
AcDbBlockBegin
  2
*D5
 70
     1
 10
0.0
 20
0.0
 30
0.0
  3
*D5
  1

  0
LINE
  5
19C1F
330
178FB
100
AcDbEntity
  8
寸法
 62
     0
 48
50.0
370
    -2
100
AcDbLine
 10
8728.993408248093
 20
8684.238973786388
 30
0.0
 11
8639.706666994419
 21
8351.016318985415
 31
0.0
  0
LINE
  5
19C20
330
178FB
100
AcDbEntity
  8
寸法
 62
     0
 48
50.0
370
    -2
100
AcDbLine
 10
9581.993408248106
 20
8684.238973786383
 30
0.0
 11
9492.706666994431
 21
8351.016318985415
 31
0.0
  0
LINE
  5
19C21
330
178FB
100
AcDbEntity
  8
寸法
 62
     0
 48
50.0
370
    -2
100
AcDbLine
 10
8655.783618540285
 20
8411.016318985415
 30
0.0
 11
9508.783618540297
 21
8411.016318985415
 31
0.0
  0
INSERT
  5
19C22
330
178FB
100
AcDbEntity
  8
寸法
 62
     0
 48
50.0
370
    -2
100
AcDbBlockReference
  2
_DOTSMALL
 10
8655.783618540285
 20
8411.016318985415
 30
0.0
 41
100.0
 42
100.0
 43
100.0
 50
180.0
  0
INSERT
  5
19C23
330
178FB
100
AcDbEntity
  8
寸法
 62
     0
 48
50.0
370
    -2
100
AcDbBlockReference
  2
_DOTSMALL
 10
9508.783618540297
 20
8411.016318985415
 30
0.0
 41
100.0
 42
100.0
 43
100.0
  0
MTEXT
  5
19C24
330
178FB
100
AcDbEntity
  8
寸法
 62
     7
 48
50.0
100
AcDbMText
 10
9113.699454214986
 20
8511.016318985417
 30
0.0
 40
120.0
 41
0.0
 71
     5
 72
     1
  1
\A1;853
  7
STYLE1
 73
     1
 44
1.0
1001
ACAD
1000
MTEXTBEGIN
1070
    73
1070
     1
1070
    44
1040
1.0
1070
    74
1070
     0
1000
MTEXTEND
  0
POINT
  5
19C25
330
178FB
100
AcDbEntity
  8
DEFPOINTS
 62
     0
 48
50.0
100
AcDbPoint
 10
8734.352392096717
 20
8704.238973786388
 30
0.0
  0
POINT
  5
19C26
330
178FB
100
AcDbEntity
  8
DEFPOINTS
 62
     0
 48
50.0
100
AcDbPoint
 10
9587.352392096727
 20
8704.238973786383
 30
0.0
  0
POINT
  5
19C27
330
178FB
100
AcDbEntity
  8
DEFPOINTS
 62
     0
 48
50.0
100
AcDbPoint
 10
9508.783618540297
 20
8411.016318985415
 30
0.0
  0
ENDBLK
  5
17906
330
178FB
100
AcDbEntity
  8
0
 48
50.0
100
AcDbBlockEnd
  0
BLOCK
  5
17911
330
17907
100
AcDbEntity
  8
0
 48
50.0
100
AcDbBlockBegin
  2
*D6
 70
     1
 10
0.0
 20
0.0
 30
0.0
  3
*D6
  1

  0
LINE
  5
18D92
330
17907
100
AcDbEntity
  8
寸法
 62
     0
 48
50.0
370
    -2
100
AcDbLine
 10
8805.85239209671
 20
2514.716014124861
 30
0.0
 11
8805.85239209671
 21
2188.668684824484
 31
0.0
  0
LINE
  5
18D93
330
17907
100
AcDbEntity
  8
寸法
 62
     0
 48
50.0
370
    -2
100
AcDbLine
 10
8605.852392096709
 20
2514.716014124861
 30
0.0
 11
8605.852392096709
 21
2188.668684824484
 31
0.0
  0
LINE
  5
18D94
330
17907
100
AcDbEntity
  8
寸法
 62
     0
 48
50.0
370
    -2
100
AcDbLine
 10
8805.85239209671
 20
2248.668684824485
 30
0.0
 11
8605.852392096709
 21
2248.668684824485
 31
0.0
  0
INSERT
  5
18D95
330
17907
100
AcDbEntity
  8
寸法
 62
     0
 48
50.0
370
    -2
100
AcDbBlockReference
  2
_DOTSMALL
 10
8805.85239209671
 20
2248.668684824485
 30
0.0
 41
100.0
 42
100.0
 43
100.0
  0
INSERT
  5
18D96
330
17907
100
AcDbEntity
  8
寸法
 62
     0
 48
50.0
370
    -2
100
AcDbBlockReference
  2
_DOTSMALL
 10
8605.852392096709
 20
2248.668684824485
 30
0.0
 41
100.0
 42
100.0
 43
100.0
 50
180.0
  0
MTEXT
  5
18D97
330
17907
100
AcDbEntity
  8
寸法
 62
     7
 48
50.0
100
AcDbMText
 10
8705.852392096709
 20
2348.680495848107
 30
0.0
 40
120.0
 41
0.0
 71
     5
 72
     1
  1
\A1;200
  7
STYLE1
 73
     1
 44
1.0
1001
ACAD
1000
MTEXTBEGIN
1070
    73
1070
     1
1070
    44
1040
1.0
1070
    74
1070
     0
1000
MTEXTEND
  0
POINT
  5
18D98
330
17907
100
AcDbEntity
  8
DEFPOINTS
 62
     0
 48
50.0
100
AcDbPoint
 10
8805.85239209671
 20
2534.716014124861
 30
0.0
  0
POINT
  5
18D99
330
17907
100
AcDbEntity
  8
DEFPOINTS
 62
     0
 48
50.0
100
AcDbPoint
 10
8605.852392096709
 20
2534.716014124861
 30
0.0
  0
POINT
  5
18D9A
330
17907
100
AcDbEntity
  8
DEFPOINTS
 62
     0
 48
50.0
100
AcDbPoint
 10
8605.852392096709
 20
2248.668684824485
 30
0.0
  0
ENDBLK
  5
17912
330
17907
100
AcDbEntity
  8
0
 48
50.0
100
AcDbBlockEnd
  0
BLOCK
  5
1791D
330
17913
100
AcDbEntity
  8
0
 48
50.0
100
AcDbBlockBegin
  2
*D7
 70
     1
 10
0.0
 20
0.0
 30
0.0
  3
*D7
  1

  0
LINE
  5
19C16
330
17913
100
AcDbEntity
  8
寸法
 62
     0
 48
50.0
370
    -2
100
AcDbLine
 10
8760.852392096715
 20
9204.23897378639
 30
0.0
 11
8760.852392096715
 21
9541.046000594716
 31
0.0
  0
LINE
  5
19C17
330
17913
100
AcDbEntity
  8
寸法
 62
     0
 48
50.0
370
    -2
100
AcDbLine
 10
10440.85239209672
 20
9204.238973786486
 30
0.0
 11
10440.85239209672
 21
9541.046000594716
 31
0.0
  0
LINE
  5
19C18
330
17913
100
AcDbEntity
  8
寸法
 62
     0
 48
50.0
370
    -2
100
AcDbLine
 10
8760.852392096715
 20
9481.046000594714
 30
0.0
 11
10440.85239209672
 21
9481.046000594714
 31
0.0
  0
INSERT
  5
19C19
330
17913
100
AcDbEntity
  8
寸法
 62
     0
 48
50.0
370
    -2
100
AcDbBlockReference
  2
_DOTSMALL
 10
8760.852392096715
 20
9481.046000594714
 30
0.0
 41
100.0
 42
100.0
 43
100.0
 50
180.0
  0
INSERT
  5
19C1A
330
17913
100
AcDbEntity
  8
寸法
 62
     0
 48
50.0
370
    -2
100
AcDbBlockReference
  2
_DOTSMALL
 10
10440.85239209672
 20
9481.046000594714
 30
0.0
 41
100.0
 42
100.0
 43
100.0
  0
MTEXT
  5
19C1B
330
17913
100
AcDbEntity
  8
寸法
 62
     7
 48
50.0
100
AcDbMText
 10
9600.852392096715
 20
9581.057811618336
 30
0.0
 40
120.0
 41
0.0
 71
     5
 72
     1
  1
\A1;4X420=1680
  7
STYLE1
 73
     1
 44
1.0
1001
ACAD
1000
MTEXTBEGIN
1070
    73
1070
     1
1070
    44
1040
1.0
1070
    74
1070
     0
1000
MTEXTEND
  0
POINT
  5
19C1C
330
17913
100
AcDbEntity
  8
DEFPOINTS
 62
     0
 48
50.0
100
AcDbPoint
 10
8760.852392096715
 20
9184.23897378639
 30
0.0
  0
POINT
  5
19C1D
330
17913
100
AcDbEntity
  8
DEFPOINTS
 62
     0
 48
50.0
100
AcDbPoint
 10
10440.85239209672
 20
9184.238973786484
 30
0.0
  0
POINT
  5
19C1E
330
17913
100
AcDbEntity
  8
DEFPOINTS
 62
     0
 48
50.0
100
AcDbPoint
 10
10440.85239209672
 20
9481.046000594714
 30
0.0
  0
ENDBLK
  5
1791E
330
17913
100
AcDbEntity
  8
0
 48
50.0
100
AcDbBlockEnd
  0
BLOCK
  5
1792B
330
1791F
100
AcDbEntity
  8
0
 48
50.0
100
AcDbBlockBegin
  2
*D8
 70
     1
 10
0.0
 20
0.0
 30
0.0
  3
*D8
  1

  0
LINE
  5
19C0B
330
1791F
100
AcDbEntity
  8
寸法
 62
     0
 48
50.0
370
    -2
100
AcDbLine
 10
10440.85239209672
 20
9204.238973786486
 30
0.0
 11
10440.85239209672
 21
9541.046000594695
 31
0.0
  0
LINE
  5
19C0C
330
1791F
100
AcDbEntity
  8
寸法
 62
     0
 48
50.0
370
    -2
100
AcDbLine
 10
10495.85239209671
 20
9204.238973786486
 30
0.0
 11
10495.85239209671
 21
9541.046000594695
 31
0.0
  0
LINE
  5
19C0D
330
1791F
100
AcDbEntity
  8
寸法
 62
     0
 48
50.0
370
    -2
100
AcDbLine
 10
10440.85239209672
 20
9481.046000594695
 30
0.0
 11
10340.85239209671
 21
9481.046000594695
 31
0.0
  0
LINE
  5
19C0E
330
1791F
100
AcDbEntity
  8
寸法
 62
     0
 48
50.0
370
    -2
100
AcDbLine
 10
10495.85239209671
 20
9481.046000594695
 30
0.0
 11
10912.82295484519
 21
9481.046000594695
 31
0.0
  0
LINE
  5
19C0F
330
1791F
100
AcDbEntity
  8
寸法
 62
     0
 48
50.0
370
    -2
100
AcDbLine
 10
10440.85239209672
 20
9481.046000594695
 30
0.0
 11
10495.85239209671
 21
9481.046000594695
 31
0.0
  0
INSERT
  5
19C10
330
1791F
100
AcDbEntity
  8
寸法
 62
     0
 48
50.0
370
    -2
100
AcDbBlockReference
  2
_DOTSMALL
 10
10440.85239209672
 20
9481.046000594695
 30
0.0
 41
100.0
 42
100.0
 43
100.0
  0
INSERT
  5
19C11
330
1791F
100
AcDbEntity
  8
寸法
 62
     0
 48
50.0
370
    -2
100
AcDbBlockReference
  2
_DOTSMALL
 10
10495.85239209671
 20
9481.046000594695
 30
0.0
 41
100.0
 42
100.0
 43
100.0
 50
180.0
  0
MTEXT
  5
19C12
330
1791F
100
AcDbEntity
  8
寸法
 62
     7
 48
50.0
100
AcDbMText
 10
10804.33767347095
 20
9581.046000594694
 30
0.0
 40
120.0
 41
0.0
 71
     5
 72
     1
  1
\A1;55
  7
STYLE1
 73
     1
 44
1.0
1001
ACAD
1000
MTEXTBEGIN
1070
    73
1070
     1
1070
    44
1040
1.0
1070
    74
1070
     0
1000
MTEXTEND
  0
POINT
  5
19C13
330
1791F
100
AcDbEntity
  8
DEFPOINTS
 62
     0
 48
50.0
100
AcDbPoint
 10
10440.85239209672
 20
9184.238973786484
 30
0.0
  0
POINT
  5
19C14
330
1791F
100
AcDbEntity
  8
DEFPOINTS
 62
     0
 48
50.0
100
AcDbPoint
 10
10495.85239209671
 20
9184.238973786484
 30
0.0
  0
POINT
  5
19C15
330
1791F
100
AcDbEntity
  8
DEFPOINTS
 62
     0
 48
50.0
100
AcDbPoint
 10
10495.85239209671
 20
9481.046000594695
 30
0.0
  0
ENDBLK
  5
1792C
330
1791F
100
AcDbEntity
  8
0
 48
50.0
100
AcDbBlockEnd
  0
BLOCK
  5
17937
330
1792D
100
AcDbEntity
  8
0
 48
50.0
100
AcDbBlockBegin
  2
*D9
 70
     1
 10
0.0
 20
0.0
 30
0.0
  3
*D9
  1

  0
LINE
  5
19C02
330
1792D
100
AcDbEntity
  8
寸法
 62
     0
 48
50.0
370
    -2
100
AcDbLine
 10
9608.993408248094
 20
8684.238973786495
 30
0.0
 11
9519.706666994418
 21
8351.016318985521
 31
0.0
  0
LINE
  5
19C03
330
1792D
100
AcDbEntity
  8
寸法
 62
     0
 48
50.0
370
    -2
100
AcDbLine
 10
10461.9934082481
 20
8684.23897378649
 30
0.0
 11
10372.70666699443
 21
8351.016318985521
 31
0.0
  0
LINE
  5
19C04
330
1792D
100
AcDbEntity
  8
寸法
 62
     0
 48
50.0
370
    -2
100
AcDbLine
 10
9535.783618540284
 20
8411.016318985522
 30
0.0
 11
10388.7836185403
 21
8411.016318985522
 31
0.0
  0
INSERT
  5
19C05
330
1792D
100
AcDbEntity
  8
寸法
 62
     0
 48
50.0
370
    -2
100
AcDbBlockReference
  2
_DOTSMALL
 10
9535.783618540284
 20
8411.016318985522
 30
0.0
 41
100.0
 42
100.0
 43
100.0
 50
180.0
  0
INSERT
  5
19C06
330
1792D
100
AcDbEntity
  8
寸法
 62
     0
 48
50.0
370
    -2
100
AcDbBlockReference
  2
_DOTSMALL
 10
10388.7836185403
 20
8411.016318985522
 30
0.0
 41
100.0
 42
100.0
 43
100.0
  0
MTEXT
  5
19C07
330
1792D
100
AcDbEntity
  8
寸法
 62
     7
 48
50.0
100
AcDbMText
 10
9993.699454214985
 20
8511.016318985522
 30
0.0
 40
120.0
 41
0.0
 71
     5
 72
     1
  1
\A1;853
  7
STYLE1
 73
     1
 44
1.0
1001
ACAD
1000
MTEXTBEGIN
1070
    73
1070
     1
1070
    44
1040
1.0
1070
    74
1070
     0
1000
MTEXTEND
  0
POINT
  5
19C08
330
1792D
100
AcDbEntity
  8
DEFPOINTS
 62
     0
 48
50.0
100
AcDbPoint
 10
9614.352392096717
 20
8704.238973786493
 30
0.0
  0
POINT
  5
19C09
330
1792D
100
AcDbEntity
  8
DEFPOINTS
 62
     0
 48
50.0
100
AcDbPoint
 10
10467.35239209672
 20
8704.238973786489
 30
0.0
  0
POINT
  5
19C0A
330
1792D
100
AcDbEntity
  8
DEFPOINTS
 62
     0
 48
50.0
100
AcDbPoint
 10
10388.7836185403
 20
8411.016318985522
 30
0.0
  0
ENDBLK
  5
17938
330
1792D
100
AcDbEntity
  8
0
 48
50.0
100
AcDbBlockEnd
  0
BLOCK
  5
1794F
330
17945
100
AcDbEntity
  8
0
 48
50.0
100
AcDbBlockBegin
  2
*D10
 70
     1
 10
0.0
 20
0.0
 30
0.0
  3
*D10
  1

  0
LINE
  5
19BF9
330
17945
100
AcDbEntity
  8
寸法
 62
     0
 48
50.0
370
    -2
100
AcDbLine
 10
10515.85239209671
 20
9129.23897378649
 30
0.0
 11
11203.27873783113
 21
9129.23897378649
 31
0.0
  0
LINE
  5
19BFA
330
17945
100
AcDbEntity
  8
寸法
 62
     0
 48
50.0
370
    -2
100
AcDbLine
 10
10515.85239209669
 20
7869.238973786472
 30
0.0
 11
11203.27873783113
 21
7869.238973786472
 31
0.0
  0
LINE
  5
19BFB
330
17945
100
AcDbEntity
  8
寸法
 62
     0
 48
50.0
370
    -2
100
AcDbLine
 10
11143.27873783113
 20
9129.23897378649
 30
0.0
 11
11143.27873783113
 21
7869.238973786472
 31
0.0
  0
INSERT
  5
19BFC
330
17945
100
AcDbEntity
  8
寸法
 62
     0
 48
50.0
370
    -2
100
AcDbBlockReference
  2
_DOTSMALL
 10
11143.27873783113
 20
9129.23897378649
 30
0.0
 41
100.0
 42
100.0
 43
100.0
 50
90.0
  0
INSERT
  5
19BFD
330
17945
100
AcDbEntity
  8
寸法
 62
     0
 48
50.0
370
    -2
100
AcDbBlockReference
  2
_DOTSMALL
 10
11143.27873783113
 20
7869.238973786472
 30
0.0
 41
100.0
 42
100.0
 43
100.0
 50
270.0
  0
MTEXT
  5
19BFE
330
17945
100
AcDbEntity
  8
寸法
 62
     7
 48
50.0
100
AcDbMText
 10
11043.2669268075
 20
8499.23897378648
 30
0.0
 40
120.0
 41
0.0
 71
     5
 72
     1
  1
\A1;3X420=1260
  7
STYLE1
 11
0.0000000000000001
 21
1.0
 31
0.0
 73
     1
 44
1.0
1001
ACAD
1000
MTEXTBEGIN
1070
    73
1070
     1
1070
    44
1040
1.0
1070
    74
1070
     0
1000
MTEXTEND
  0
POINT
  5
19BFF
330
17945
100
AcDbEntity
  8
DEFPOINTS
 62
     0
 48
50.0
100
AcDbPoint
 10
10495.85239209671
 20
9129.23897378649
 30
0.0
  0
POINT
  5
19C00
330
17945
100
AcDbEntity
  8
DEFPOINTS
 62
     0
 48
50.0
100
AcDbPoint
 10
10495.85239209669
 20
7869.238973786472
 30
0.0
  0
POINT
  5
19C01
330
17945
100
AcDbEntity
  8
DEFPOINTS
 62
     0
 48
50.0
100
AcDbPoint
 10
11143.27873783113
 20
7869.238973786472
 30
0.0
  0
ENDBLK
  5
17950
330
17945
100
AcDbEntity
  8
0
 48
50.0
100
AcDbBlockEnd
  0
BLOCK
  5
1795D
330
17951
100
AcDbEntity
  8
0
 48
50.0
100
AcDbBlockBegin
  2
*D11
 70
     1
 10
0.0
 20
0.0
 30
0.0
  3
*D11
  1

  0
LINE
  5
19BEE
330
17951
100
AcDbEntity
  8
寸法
 62
     0
 48
50.0
370
    -2
100
AcDbLine
 10
10515.85239209669
 20
7869.238973786472
 30
0.0
 11
11203.2787378311
 21
7869.238973786472
 31
0.0
  0
LINE
  5
19BEF
330
17951
100
AcDbEntity
  8
寸法
 62
     0
 48
50.0
370
    -2
100
AcDbLine
 10
10515.85239209669
 20
7814.238973786476
 30
0.0
 11
11203.2787378311
 21
7814.238973786476
 31
0.0
  0
LINE
  5
19BF0
330
17951
100
AcDbEntity
  8
寸法
 62
     0
 48
50.0
370
    -2
100
AcDbLine
 10
11143.2787378311
 20
7869.238973786472
 30
0.0
 11
11143.2787378311
 21
7969.238973786473
 31
0.0
  0
LINE
  5
19BF1
330
17951
100
AcDbEntity
  8
寸法
 62
     0
 48
50.0
370
    -2
100
AcDbLine
 10
11143.2787378311
 20
7814.238973786476
 30
0.0
 11
11143.2787378311
 21
7327.892225507373
 31
0.0
  0
LINE
  5
19BF2
330
17951
100
AcDbEntity
  8
寸法
 62
     0
 48
50.0
370
    -2
100
AcDbLine
 10
11143.2787378311
 20
7869.238973786472
 30
0.0
 11
11143.2787378311
 21
7814.238973786476
 31
0.0
  0
INSERT
  5
19BF3
330
17951
100
AcDbEntity
  8
寸法
 62
     0
 48
50.0
370
    -2
100
AcDbBlockReference
  2
_DOTSMALL
 10
11143.2787378311
 20
7869.238973786472
 30
0.0
 41
100.0
 42
100.0
 43
100.0
 50
270.0
  0
INSERT
  5
19BF4
330
17951
100
AcDbEntity
  8
寸法
 62
     0
 48
50.0
370
    -2
100
AcDbBlockReference
  2
_DOTSMALL
 10
11143.2787378311
 20
7814.238973786476
 30
0.0
 41
100.0
 42
100.0
 43
100.0
 50
90.0
  0
MTEXT
  5
19BF5
330
17951
100
AcDbEntity
  8
寸法
 62
     7
 48
50.0
100
AcDbMText
 10
11043.2787378311
 20
7436.377506881616
 30
0.0
 40
120.0
 41
0.0
 71
     5
 72
     1
  1
\A1;55
  7
STYLE1
 11
0.0000000000000001
 21
1.0
 31
0.0
 73
     1
 44
1.0
1001
ACAD
1000
MTEXTBEGIN
1070
    73
1070
     1
1070
    44
1040
1.0
1070
    74
1070
     0
1000
MTEXTEND
  0
POINT
  5
19BF6
330
17951
100
AcDbEntity
  8
DEFPOINTS
 62
     0
 48
50.0
100
AcDbPoint
 10
10495.85239209669
 20
7869.238973786472
 30
0.0
  0
POINT
  5
19BF7
330
17951
100
AcDbEntity
  8
DEFPOINTS
 62
     0
 48
50.0
100
AcDbPoint
 10
10495.85239209669
 20
7814.238973786476
 30
0.0
  0
POINT
  5
19BF8
330
17951
100
AcDbEntity
  8
DEFPOINTS
 62
     0
 48
50.0
100
AcDbPoint
 10
11143.2787378311
 20
7814.238973786476
 30
0.0
  0
ENDBLK
  5
1795E
330
17951
100
AcDbEntity
  8
0
 48
50.0
100
AcDbBlockEnd
  0
BLOCK
  5
17969
330
1795F
100
AcDbEntity
  8
0
 48
50.0
100
AcDbBlockBegin
  2
*D12
 70
     1
 10
0.0
 20
0.0
 30
0.0
  3
*D12
  1

  0
LINE
  5
19BE5
330
1795F
100
AcDbEntity
  8
寸法
 62
     0
 48
50.0
370
    -2
100
AcDbLine
 10
10487.35239209671
 20
9148.879989937864
 30
0.0
 11
10882.71011795874
 21
9042.944206571728
 31
0.0
  0
LINE
  5
19BE6
330
1795F
100
AcDbEntity
  8
寸法
 62
     0
 48
50.0
370
    -2
100
AcDbLine
 10
10487.35239209671
 20
8698.879989937864
 30
0.0
 11
10882.71011795874
 21
8592.944206571731
 31
0.0
  0
LINE
  5
19BE7
330
1795F
100
AcDbEntity
  8
寸法
 62
     0
 48
50.0
370
    -2
100
AcDbLine
 10
10822.71011795874
 20
9059.021158117595
 30
0.0
 11
10822.71011795874
 21
8609.021158117597
 31
0.0
  0
INSERT
  5
19BE8
330
1795F
100
AcDbEntity
  8
寸法
 62
     0
 48
50.0
370
    -2
100
AcDbBlockReference
  2
_DOTSMALL
 10
10822.71011795874
 20
9059.021158117595
 30
0.0
 41
100.0
 42
100.0
 43
100.0
 50
90.0
  0
INSERT
  5
19BE9
330
1795F
100
AcDbEntity
  8
寸法
 62
     0
 48
50.0
370
    -2
100
AcDbBlockReference
  2
_DOTSMALL
 10
10822.71011795874
 20
8609.021158117597
 30
0.0
 41
100.0
 42
100.0
 43
100.0
 50
270.0
  0
MTEXT
  5
19BEA
330
1795F
100
AcDbEntity
  8
寸法
 62
     7
 48
50.0
100
AcDbMText
 10
10722.71011795874
 20
8834.021158117598
 30
0.0
 40
120.0
 41
0.0
 71
     5
 72
     1
  1
\A1;450
  7
STYLE1
 11
0.0000000000000001
 21
1.0
 31
0.0
 73
     1
 44
1.0
1001
ACAD
1000
MTEXTBEGIN
1070
    73
1070
     1
1070
    44
1040
1.0
1070
    74
1070
     0
1000
MTEXTEND
  0
POINT
  5
19BEB
330
1795F
100
AcDbEntity
  8
DEFPOINTS
 62
     0
 48
50.0
100
AcDbPoint
 10
10467.35239209671
 20
9154.238973786485
 30
0.0
  0
POINT
  5
19BEC
330
1795F
100
AcDbEntity
  8
DEFPOINTS
 62
     0
 48
50.0
100
AcDbPoint
 10
10467.35239209671
 20
8704.238973786486
 30
0.0
  0
POINT
  5
19BED
330
1795F
100
AcDbEntity
  8
DEFPOINTS
 62
     0
 48
50.0
100
AcDbPoint
 10
10822.71011795874
 20
8609.021158117597
 30
0.0
  0
ENDBLK
  5
1796A
330
1795F
100
AcDbEntity
  8
0
 48
50.0
100
AcDbBlockEnd
  0
BLOCK
  5
17977
330
1796B
100
AcDbEntity
  8
0
 48
50.0
100
AcDbBlockBegin
  2
*D13
 70
     1
 10
0.0
 20
0.0
 30
0.0
  3
*D13
  1

  0
LINE
  5
19BDA
330
1796B
100
AcDbEntity
  8
寸法
 62
     0
 48
50.0
370
    -2
100
AcDbLine
 10
10515.85239209671
 20
9184.238973786484
 30
0.0
 11
11203.27873783113
 21
9184.238973786484
 31
0.0
  0
LINE
  5
19BDB
330
1796B
100
AcDbEntity
  8
寸法
 62
     0
 48
50.0
370
    -2
100
AcDbLine
 10
10515.85239209671
 20
9129.23897378649
 30
0.0
 11
11203.27873783113
 21
9129.23897378649
 31
0.0
  0
LINE
  5
19BDC
330
1796B
100
AcDbEntity
  8
寸法
 62
     0
 48
50.0
370
    -2
100
AcDbLine
 10
11143.27873783113
 20
9129.23897378649
 30
0.0
 11
11143.27873783113
 21
9029.238973786489
 31
0.0
  0
LINE
  5
19BDD
330
1796B
100
AcDbEntity
  8
寸法
 62
     0
 48
50.0
370
    -2
100
AcDbLine
 10
11143.27873783113
 20
9184.238973786484
 30
0.0
 11
11143.27873783113
 21
9601.209536534963
 31
0.0
  0
LINE
  5
19BDE
330
1796B
100
AcDbEntity
  8
寸法
 62
     0
 48
50.0
370
    -2
100
AcDbLine
 10
11143.27873783113
 20
9129.23897378649
 30
0.0
 11
11143.27873783113
 21
9184.238973786484
 31
0.0
  0
INSERT
  5
19BDF
330
1796B
100
AcDbEntity
  8
寸法
 62
     0
 48
50.0
370
    -2
100
AcDbBlockReference
  2
_DOTSMALL
 10
11143.27873783113
 20
9129.23897378649
 30
0.0
 41
100.0
 42
100.0
 43
100.0
 50
90.0
  0
INSERT
  5
19BE0
330
1796B
100
AcDbEntity
  8
寸法
 62
     0
 48
50.0
370
    -2
100
AcDbBlockReference
  2
_DOTSMALL
 10
11143.27873783113
 20
9184.238973786484
 30
0.0
 41
100.0
 42
100.0
 43
100.0
 50
270.0
  0
MTEXT
  5
19BE1
330
1796B
100
AcDbEntity
  8
寸法
 62
     7
 48
50.0
100
AcDbMText
 10
11043.27873783112
 20
9492.724255160725
 30
0.0
 40
120.0
 41
0.0
 71
     5
 72
     1
  1
\A1;55
  7
STYLE1
 11
0.0000000000000001
 21
1.0
 31
0.0
 73
     1
 44
1.0
1001
ACAD
1000
MTEXTBEGIN
1070
    73
1070
     1
1070
    44
1040
1.0
1070
    74
1070
     0
1000
MTEXTEND
  0
POINT
  5
19BE2
330
1796B
100
AcDbEntity
  8
DEFPOINTS
 62
     0
 48
50.0
100
AcDbPoint
 10
10495.85239209671
 20
9184.238973786484
 30
0.0
  0
POINT
  5
19BE3
330
1796B
100
AcDbEntity
  8
DEFPOINTS
 62
     0
 48
50.0
100
AcDbPoint
 10
10495.85239209671
 20
9129.23897378649
 30
0.0
  0
POINT
  5
19BE4
330
1796B
100
AcDbEntity
  8
DEFPOINTS
 62
     0
 48
50.0
100
AcDbPoint
 10
11143.27873783113
 20
9129.23897378649
 30
0.0
  0
ENDBLK
  5
17978
330
1796B
100
AcDbEntity
  8
0
 48
50.0
100
AcDbBlockEnd
  0
BLOCK
  5
17983
330
17979
100
AcDbEntity
  8
0
 48
50.0
100
AcDbBlockBegin
  2
*D14
 70
     1
 10
0.0
 20
0.0
 30
0.0
  3
*D14
  1

  0
LINE
  5
19BD1
330
17979
100
AcDbEntity
  8
寸法
 62
     0
 48
50.0
370
    -2
100
AcDbLine
 10
10515.85239209671
 20
9184.238973786484
 30
0.0
 11
11568.38567957076
 21
9184.238973786484
 31
0.0
  0
LINE
  5
19BD2
330
17979
100
AcDbEntity
  8
寸法
 62
     0
 48
50.0
370
    -2
100
AcDbLine
 10
10515.85239209669
 20
7814.238973786476
 30
0.0
 11
11568.38567957076
 21
7814.238973786476
 31
0.0
  0
LINE
  5
19BD3
330
17979
100
AcDbEntity
  8
寸法
 62
     0
 48
50.0
370
    -2
100
AcDbLine
 10
11508.38567957076
 20
9184.238973786484
 30
0.0
 11
11508.38567957076
 21
7814.238973786476
 31
0.0
  0
INSERT
  5
19BD4
330
17979
100
AcDbEntity
  8
寸法
 62
     0
 48
50.0
370
    -2
100
AcDbBlockReference
  2
_DOTSMALL
 10
11508.38567957076
 20
9184.238973786484
 30
0.0
 41
100.0
 42
100.0
 43
100.0
 50
90.0
  0
INSERT
  5
19BD5
330
17979
100
AcDbEntity
  8
寸法
 62
     0
 48
50.0
370
    -2
100
AcDbBlockReference
  2
_DOTSMALL
 10
11508.38567957076
 20
7814.238973786476
 30
0.0
 41
100.0
 42
100.0
 43
100.0
 50
270.0
  0
MTEXT
  5
19BD6
330
17979
100
AcDbEntity
  8
寸法
 62
     7
 48
50.0
100
AcDbMText
 10
11408.38567957076
 20
8499.23897378648
 30
0.0
 40
120.0
 41
0.0
 71
     5
 72
     1
  1
\A1;1370
  7
STYLE1
 11
0.0000000000000001
 21
1.0
 31
0.0
 73
     1
 44
1.0
1001
ACAD
1000
MTEXTBEGIN
1070
    73
1070
     1
1070
    44
1040
1.0
1070
    74
1070
     0
1000
MTEXTEND
  0
POINT
  5
19BD7
330
17979
100
AcDbEntity
  8
DEFPOINTS
 62
     0
 48
50.0
100
AcDbPoint
 10
10495.85239209671
 20
9184.238973786484
 30
0.0
  0
POINT
  5
19BD8
330
17979
100
AcDbEntity
  8
DEFPOINTS
 62
     0
 48
50.0
100
AcDbPoint
 10
10495.85239209669
 20
7814.238973786476
 30
0.0
  0
POINT
  5
19BD9
330
17979
100
AcDbEntity
  8
DEFPOINTS
 62
     0
 48
50.0
100
AcDbPoint
 10
11508.38567957076
 20
7814.238973786476
 30
0.0
  0
ENDBLK
  5
17984
330
17979
100
AcDbEntity
  8
0
 48
50.0
100
AcDbBlockEnd
  0
BLOCK
  5
17991
330
17985
100
AcDbEntity
  8
0
 48
50.0
100
AcDbBlockBegin
  2
*D15
 70
     1
 10
0.0
 20
0.0
 30
0.0
  3
*D15
  1

  0
LINE
  5
19BC6
330
17985
100
AcDbEntity
  8
寸法
 62
     0
 48
50.0
370
    -2
100
AcDbLine
 10
8705.85239209668
 20
9204.23897378639
 30
0.0
 11
8705.85239209668
 21
9541.046000594599
 31
0.0
  0
LINE
  5
19BC7
330
17985
100
AcDbEntity
  8
寸法
 62
     0
 48
50.0
370
    -2
100
AcDbLine
 10
8760.852392096715
 20
9204.23897378639
 30
0.0
 11
8760.852392096715
 21
9541.046000594599
 31
0.0
  0
LINE
  5
19BC8
330
17985
100
AcDbEntity
  8
寸法
 62
     0
 48
50.0
370
    -2
100
AcDbLine
 10
8760.852392096715
 20
9481.046000594599
 30
0.0
 11
8860.852392096715
 21
9481.046000594599
 31
0.0
  0
LINE
  5
19BC9
330
17985
100
AcDbEntity
  8
寸法
 62
     0
 48
50.0
370
    -2
100
AcDbLine
 10
8705.85239209668
 20
9481.046000594599
 30
0.0
 11
8288.881829348204
 21
9481.046000594599
 31
0.0
  0
LINE
  5
19BCA
330
17985
100
AcDbEntity
  8
寸法
 62
     0
 48
50.0
370
    -2
100
AcDbLine
 10
8760.852392096715
 20
9481.046000594599
 30
0.0
 11
8705.85239209668
 21
9481.046000594599
 31
0.0
  0
INSERT
  5
19BCB
330
17985
100
AcDbEntity
  8
寸法
 62
     0
 48
50.0
370
    -2
100
AcDbBlockReference
  2
_DOTSMALL
 10
8760.852392096715
 20
9481.046000594599
 30
0.0
 41
100.0
 42
100.0
 43
100.0
 50
180.0
  0
INSERT
  5
19BCC
330
17985
100
AcDbEntity
  8
寸法
 62
     0
 48
50.0
370
    -2
100
AcDbBlockReference
  2
_DOTSMALL
 10
8705.85239209668
 20
9481.046000594599
 30
0.0
 41
100.0
 42
100.0
 43
100.0
  0
MTEXT
  5
19BCD
330
17985
100
AcDbEntity
  8
寸法
 62
     7
 48
50.0
100
AcDbMText
 10
8397.367110722441
 20
9581.046000594598
 30
0.0
 40
120.0
 41
0.0
 71
     5
 72
     1
  1
\A1;55
  7
STYLE1
 73
     1
 44
1.0
1001
ACAD
1000
MTEXTBEGIN
1070
    73
1070
     1
1070
    44
1040
1.0
1070
    74
1070
     0
1000
MTEXTEND
  0
POINT
  5
19BCE
330
17985
100
AcDbEntity
  8
DEFPOINTS
 62
     0
 48
50.0
100
AcDbPoint
 10
8705.85239209668
 20
9184.23897378639
 30
0.0
  0
POINT
  5
19BCF
330
17985
100
AcDbEntity
  8
DEFPOINTS
 62
     0
 48
50.0
100
AcDbPoint
 10
8760.852392096715
 20
9184.23897378639
 30
0.0
  0
POINT
  5
19BD0
330
17985
100
AcDbEntity
  8
DEFPOINTS
 62
     0
 48
50.0
100
AcDbPoint
 10
8760.852392096715
 20
9481.046000594599
 30
0.0
  0
ENDBLK
  5
17992
330
17985
100
AcDbEntity
  8
0
 48
50.0
100
AcDbBlockEnd
  0
BLOCK
  5
18110
330
18105
100
AcDbEntity
  8
0
 48
50.0
100
AcDbBlockBegin
  2
*D16
 70
     1
 10
0.0
 20
0.0
 30
0.0
  3
*D16
  1

  0
LINE
  5
18D09
330
18105
100
AcDbEntity
  8
寸法
 62
     0
 48
50.0
370
    -2
100
AcDbLine
 10
10495.85239209671
 20
4876.526693736516
 30
0.0
 11
10495.85239209671
 21
5368.809183464335
 31
0.0
  0
LINE
  5
18D0A
330
18105
100
AcDbEntity
  8
寸法
 62
     0
 48
50.0
370
    -2
100
AcDbLine
 10
10575.85239209671
 20
4874.716014124864
 30
0.0
 11
10575.85239209671
 21
5368.809183464335
 31
0.0
  0
LINE
  5
18D0B
330
18105
100
AcDbEntity
  8
寸法
 62
     0
 48
50.0
370
    -2
100
AcDbLine
 10
10495.85239209671
 20
5308.809183464336
 30
0.0
 11
10575.85239209671
 21
5308.809183464336
 31
0.0
  0
LINE
  5
18D0C
330
18105
100
AcDbEntity
  8
寸法
 62
     0
 48
50.0
370
    -2
100
AcDbLine
 10
10575.85239209671
 20
5308.809183464336
 30
0.0
 11
10887.94688028569
 21
5308.809183464336
 31
0.0
  0
INSERT
  5
18D0D
330
18105
100
AcDbEntity
  8
寸法
 62
     0
 48
50.0
370
    -2
100
AcDbBlockReference
  2
_DOTSMALL
 10
10495.85239209671
 20
5308.809183464336
 30
0.0
 41
100.0
 42
100.0
 43
100.0
 50
180.0
  0
INSERT
  5
18D0E
330
18105
100
AcDbEntity
  8
寸法
 62
     0
 48
50.0
370
    -2
100
AcDbBlockReference
  2
_DOTSMALL
 10
10575.85239209671
 20
5308.809183464336
 30
0.0
 41
100.0
 42
100.0
 43
100.0
  0
MTEXT
  5
18D0F
330
18105
100
AcDbEntity
  8
寸法
 62
     7
 48
50.0
100
AcDbMText
 10
10781.8996361912
 20
5408.809183464335
 30
0.0
 40
120.0
 41
0.0
 71
     5
 72
     1
  1
\A1;80
  7
STYLE1
 73
     1
 44
1.0
1001
ACAD
1000
MTEXTBEGIN
1070
    73
1070
     1
1070
    44
1040
1.0
1070
    74
1070
     0
1000
MTEXTEND
  0
POINT
  5
18D10
330
18105
100
AcDbEntity
  8
DEFPOINTS
 62
     0
 48
50.0
100
AcDbPoint
 10
10495.85239209671
 20
4856.526693736515
 30
0.0
  0
POINT
  5
18D11
330
18105
100
AcDbEntity
  8
DEFPOINTS
 62
     0
 48
50.0
100
AcDbPoint
 10
10575.85239209671
 20
4854.716014124863
 30
0.0
  0
POINT
  5
18D12
330
18105
100
AcDbEntity
  8
DEFPOINTS
 62
     0
 48
50.0
100
AcDbPoint
 10
10575.85239209671
 20
5308.809183464336
 30
0.0
  0
ENDBLK
  5
18111
330
18105
100
AcDbEntity
  8
0
 48
50.0
100
AcDbBlockEnd
  0
BLOCK
  5
1811C
330
18112
100
AcDbEntity
  8
0
 48
50.0
100
AcDbBlockBegin
  2
*D17
 70
     1
 10
0.0
 20
0.0
 30
0.0
  3
*D17
  1

  0
LINE
  5
18D13
330
18112
100
AcDbEntity
  8
寸法
 62
     0
 48
50.0
370
    -2
100
AcDbLine
 10
10575.85239209671
 20
4874.716014124864
 30
0.0
 11
10575.85239209671
 21
5585.33528308278
 31
0.0
  0
LINE
  5
18D14
330
18112
100
AcDbEntity
  8
寸法
 62
     0
 48
50.0
370
    -2
100
AcDbLine
 10
8645.852392096712
 20
4929.716014124867
 30
0.0
 11
8645.852392096712
 21
5585.33528308278
 31
0.0
  0
LINE
  5
18D15
330
18112
100
AcDbEntity
  8
寸法
 62
     0
 48
50.0
370
    -2
100
AcDbLine
 10
10575.85239209671
 20
5525.335283082781
 30
0.0
 11
8645.852392096712
 21
5525.335283082781
 31
0.0
  0
INSERT
  5
18D16
330
18112
100
AcDbEntity
  8
寸法
 62
     0
 48
50.0
370
    -2
100
AcDbBlockReference
  2
_DOTSMALL
 10
10575.85239209671
 20
5525.335283082781
 30
0.0
 41
100.0
 42
100.0
 43
100.0
  0
INSERT
  5
18D17
330
18112
100
AcDbEntity
  8
寸法
 62
     0
 48
50.0
370
    -2
100
AcDbBlockReference
  2
_DOTSMALL
 10
8645.852392096712
 20
5525.335283082781
 30
0.0
 41
100.0
 42
100.0
 43
100.0
 50
180.0
  0
MTEXT
  5
18D18
330
18112
100
AcDbEntity
  8
寸法
 62
     7
 48
50.0
100
AcDbMText
 10
9551.65814334768
 20
5625.33528308278
 30
0.0
 40
120.0
 41
0.0
 71
     5
 72
     1
  1
\A1;1930
  7
STYLE1
 73
     1
 44
1.0
1001
ACAD
1000
MTEXTBEGIN
1070
    73
1070
     1
1070
    44
1040
1.0
1070
    74
1070
     0
1000
MTEXTEND
  0
POINT
  5
18D19
330
18112
100
AcDbEntity
  8
DEFPOINTS
 62
     0
 48
50.0
100
AcDbPoint
 10
10575.85239209671
 20
4854.716014124863
 30
0.0
  0
POINT
  5
18D1A
330
18112
100
AcDbEntity
  8
DEFPOINTS
 62
     0
 48
50.0
100
AcDbPoint
 10
8645.852392096712
 20
4909.716014124867
 30
0.0
  0
POINT
  5
18D1B
330
18112
100
AcDbEntity
  8
DEFPOINTS
 62
     0
 48
50.0
100
AcDbPoint
 10
8645.852392096712
 20
5525.335283082781
 30
0.0
  0
ENDBLK
  5
1811D
330
18112
100
AcDbEntity
  8
0
 48
50.0
100
AcDbBlockEnd
  0
BLOCK
  5
1812A
330
1811E
100
AcDbEntity
  8
0
 48
50.0
100
AcDbBlockBegin
  2
*D18
 70
     1
 10
0.0
 20
0.0
 30
0.0
  3
*D18
  1

  0
LINE
  5
18D1C
330
1811E
100
AcDbEntity
  8
寸法
 62
     0
 48
50.0
370
    -2
100
AcDbLine
 10
8705.852392096714
 20
4925.717632247839
 30
0.0
 11
8705.852392096714
 21
5368.809183464335
 31
0.0
  0
LINE
  5
18D1D
330
1811E
100
AcDbEntity
  8
寸法
 62
     0
 48
50.0
370
    -2
100
AcDbLine
 10
8645.852392096712
 20
4929.716014124867
 30
0.0
 11
8645.852392096712
 21
5368.809183464335
 31
0.0
  0
LINE
  5
18D1E
330
1811E
100
AcDbEntity
  8
寸法
 62
     0
 48
50.0
370
    -2
100
AcDbLine
 10
8705.852392096714
 20
5308.809183464336
 30
0.0
 11
8805.852392096713
 21
5308.809183464336
 31
0.0
  0
LINE
  5
18D1F
330
1811E
100
AcDbEntity
  8
寸法
 62
     0
 48
50.0
370
    -2
100
AcDbLine
 10
8645.852392096712
 20
5308.809183464336
 30
0.0
 11
8226.576801545531
 21
5308.809183464336
 31
0.0
  0
LINE
  5
18D20
330
1811E
100
AcDbEntity
  8
寸法
 62
     0
 48
50.0
370
    -2
100
AcDbLine
 10
8705.852392096714
 20
5308.809183464336
 30
0.0
 11
8645.852392096712
 21
5308.809183464336
 31
0.0
  0
INSERT
  5
18D21
330
1811E
100
AcDbEntity
  8
寸法
 62
     0
 48
50.0
370
    -2
100
AcDbBlockReference
  2
_DOTSMALL
 10
8705.852392096714
 20
5308.809183464336
 30
0.0
 41
100.0
 42
100.0
 43
100.0
 50
180.0
  0
INSERT
  5
18D22
330
1811E
100
AcDbEntity
  8
寸法
 62
     0
 48
50.0
370
    -2
100
AcDbBlockReference
  2
_DOTSMALL
 10
8645.852392096712
 20
5308.809183464336
 30
0.0
 41
100.0
 42
100.0
 43
100.0
  0
MTEXT
  5
18D23
330
1811E
100
AcDbEntity
  8
寸法
 62
     7
 48
50.0
100
AcDbMText
 10
8336.214596821122
 20
5408.809183464335
 30
0.0
 40
120.0
 41
0.0
 71
     5
 72
     1
  1
\A1;60
  7
STYLE1
 73
     1
 44
1.0
1001
ACAD
1000
MTEXTBEGIN
1070
    73
1070
     1
1070
    44
1040
1.0
1070
    74
1070
     0
1000
MTEXTEND
  0
POINT
  5
18D24
330
1811E
100
AcDbEntity
  8
DEFPOINTS
 62
     0
 48
50.0
100
AcDbPoint
 10
8705.852392096714
 20
4905.717632247839
 30
0.0
  0
POINT
  5
18D25
330
1811E
100
AcDbEntity
  8
DEFPOINTS
 62
     0
 48
50.0
100
AcDbPoint
 10
8645.852392096712
 20
4909.716014124867
 30
0.0
  0
POINT
  5
18D26
330
1811E
100
AcDbEntity
  8
DEFPOINTS
 62
     0
 48
50.0
100
AcDbPoint
 10
8645.852392096712
 20
5308.809183464336
 30
0.0
  0
ENDBLK
  5
1812B
330
1811E
100
AcDbEntity
  8
0
 48
50.0
100
AcDbBlockEnd
  0
BLOCK
  5
18136
330
1812C
100
AcDbEntity
  8
0
 48
50.0
100
AcDbBlockBegin
  2
*D19
 70
     1
 10
0.0
 20
0.0
 30
0.0
  3
*D19
  1

  0
LINE
  5
18D27
330
1812C
100
AcDbEntity
  8
寸法
 62
     0
 48
50.0
370
    -2
100
AcDbLine
 10
10495.85239209671
 20
4876.526693736516
 30
0.0
 11
10495.85239209671
 21
5368.809183464335
 31
0.0
  0
LINE
  5
18D28
330
1812C
100
AcDbEntity
  8
寸法
 62
     0
 48
50.0
370
    -2
100
AcDbLine
 10
8705.852392096714
 20
4925.717632247839
 30
0.0
 11
8705.852392096714
 21
5368.809183464335
 31
0.0
  0
LINE
  5
18D29
330
1812C
100
AcDbEntity
  8
寸法
 62
     0
 48
50.0
370
    -2
100
AcDbLine
 10
10495.85239209671
 20
5308.809183464336
 30
0.0
 11
8705.852392096714
 21
5308.809183464336
 31
0.0
  0
INSERT
  5
18D2A
330
1812C
100
AcDbEntity
  8
寸法
 62
     0
 48
50.0
370
    -2
100
AcDbBlockReference
  2
_DOTSMALL
 10
10495.85239209671
 20
5308.809183464336
 30
0.0
 41
100.0
 42
100.0
 43
100.0
  0
INSERT
  5
18D2B
330
1812C
100
AcDbEntity
  8
寸法
 62
     0
 48
50.0
370
    -2
100
AcDbBlockReference
  2
_DOTSMALL
 10
8705.852392096714
 20
5308.809183464336
 30
0.0
 41
100.0
 42
100.0
 43
100.0
 50
180.0
  0
MTEXT
  5
18D2C
330
1812C
100
AcDbEntity
  8
寸法
 62
     7
 48
50.0
100
AcDbMText
 10
9615.448040773193
 20
5408.809183464335
 30
0.0
 40
120.0
 41
0.0
 71
     5
 72
     1
  1
\A1;柱外寸法1790
  7
STYLE1
 73
     1
 44
1.0
1001
ACAD
1000
MTEXTBEGIN
1070
    73
1070
     1
1070
    44
1040
1.0
1070
    74
1070
     0
1000
MTEXTEND
  0
POINT
  5
18D2D
330
1812C
100
AcDbEntity
  8
DEFPOINTS
 62
     0
 48
50.0
100
AcDbPoint
 10
10495.85239209671
 20
4856.526693736515
 30
0.0
  0
POINT
  5
18D2E
330
1812C
100
AcDbEntity
  8
DEFPOINTS
 62
     0
 48
50.0
100
AcDbPoint
 10
8705.852392096714
 20
4905.717632247839
 30
0.0
  0
POINT
  5
18D2F
330
1812C
100
AcDbEntity
  8
DEFPOINTS
 62
     0
 48
50.0
100
AcDbPoint
 10
8705.852392096714
 20
5308.809183464336
 30
0.0
  0
ENDBLK
  5
18137
330
1812C
100
AcDbEntity
  8
0
 48
50.0
100
AcDbBlockEnd
  0
BLOCK
  5
18704
330
186FA
100
AcDbEntity
  8
0
 48
50.0
100
AcDbBlockBegin
  2
*D20
 70
     1
 10
0.0
 20
0.0
 30
0.0
  3
*D20
  1

  0
LINE
  5
18CF7
330
186FA
100
AcDbEntity
  8
寸法
 62
     0
 48
50.0
370
    -2
100
AcDbLine
 10
8685.852392096709
 20
4674.716014124862
 30
0.0
 11
8022.199682938412
 21
4674.716014124862
 31
0.0
  0
LINE
  5
18CF8
330
186FA
100
AcDbEntity
  8
寸法
 62
     0
 48
50.0
370
    -2
100
AcDbLine
 10
8685.852392096709
 20
2884.716014124862
 30
0.0
 11
8022.199682938412
 21
2884.716014124862
 31
0.0
  0
LINE
  5
18CF9
330
186FA
100
AcDbEntity
  8
寸法
 62
     0
 48
50.0
370
    -2
100
AcDbLine
 10
8082.199682938414
 20
4674.716014124862
 30
0.0
 11
8082.199682938414
 21
2884.716014124862
 31
0.0
  0
INSERT
  5
18CFA
330
186FA
100
AcDbEntity
  8
寸法
 62
     0
 48
50.0
370
    -2
100
AcDbBlockReference
  2
_DOTSMALL
 10
8082.199682938414
 20
4674.716014124862
 30
0.0
 41
100.0
 42
100.0
 43
100.0
 50
90.0
  0
INSERT
  5
18CFB
330
186FA
100
AcDbEntity
  8
寸法
 62
     0
 48
50.0
370
    -2
100
AcDbBlockReference
  2
_DOTSMALL
 10
8082.199682938414
 20
2884.716014124862
 30
0.0
 41
100.0
 42
100.0
 43
100.0
 50
270.0
  0
MTEXT
  5
18CFC
330
186FA
100
AcDbEntity
  8
寸法
 62
     7
 48
50.0
100
AcDbMText
 10
7982.199682938412
 20
3775.17031266682
 30
0.0
 40
120.0
 41
0.0
 71
     5
 72
     1
  1
\A1;1790
  7
STYLE1
 11
0.0000000000000001
 21
1.0
 31
0.0
 73
     1
 44
1.0
1001
ACAD
1000
MTEXTBEGIN
1070
    73
1070
     1
1070
    44
1040
1.0
1070
    74
1070
     0
1000
MTEXTEND
  0
POINT
  5
18CFD
330
186FA
100
AcDbEntity
  8
DEFPOINTS
 62
     0
 48
50.0
100
AcDbPoint
 10
8705.852392096709
 20
4674.716014124862
 30
0.0
  0
POINT
  5
18CFE
330
186FA
100
AcDbEntity
  8
DEFPOINTS
 62
     0
 48
50.0
100
AcDbPoint
 10
8705.852392096709
 20
2884.716014124862
 30
0.0
  0
POINT
  5
18CFF
330
186FA
100
AcDbEntity
  8
DEFPOINTS
 62
     0
 48
50.0
100
AcDbPoint
 10
8082.199682938414
 20
2884.716014124862
 30
0.0
  0
ENDBLK
  5
18705
330
186FA
100
AcDbEntity
  8
0
 48
50.0
100
AcDbBlockEnd
  0
BLOCK
  5
18710
330
18706
100
AcDbEntity
  8
0
 48
50.0
100
AcDbBlockBegin
  2
*D21
 70
     1
 10
0.0
 20
0.0
 30
0.0
  3
*D21
  1

  0
LINE
  5
18D00
330
18706
100
AcDbEntity
  8
寸法
 62
     0
 48
50.0
370
    -2
100
AcDbLine
 10
8685.852392096709
 20
2834.716014124862
 30
0.0
 11
7737.213010167351
 21
2834.716014124862
 31
0.0
  0
LINE
  5
18D01
330
18706
100
AcDbEntity
  8
寸法
 62
     0
 48
50.0
370
    -2
100
AcDbLine
 10
8625.852392096708
 20
4909.716014124867
 30
0.0
 11
7737.213010167351
 21
4909.716014124867
 31
0.0
  0
LINE
  5
18D02
330
18706
100
AcDbEntity
  8
寸法
 62
     0
 48
50.0
370
    -2
100
AcDbLine
 10
7797.213010167351
 20
2834.716014124862
 30
0.0
 11
7797.213010167351
 21
4909.716014124867
 31
0.0
  0
INSERT
  5
18D03
330
18706
100
AcDbEntity
  8
寸法
 62
     0
 48
50.0
370
    -2
100
AcDbBlockReference
  2
_DOTSMALL
 10
7797.213010167351
 20
2834.716014124862
 30
0.0
 41
100.0
 42
100.0
 43
100.0
 50
270.0
  0
INSERT
  5
18D04
330
18706
100
AcDbEntity
  8
寸法
 62
     0
 48
50.0
370
    -2
100
AcDbBlockReference
  2
_DOTSMALL
 10
7797.213010167351
 20
4909.716014124867
 30
0.0
 41
100.0
 42
100.0
 43
100.0
 50
90.0
  0
MTEXT
  5
18D05
330
18706
100
AcDbEntity
  8
寸法
 62
     7
 48
50.0
100
AcDbMText
 10
7697.201199143728
 20
3828.921891617973
 30
0.0
 40
120.0
 41
0.0
 71
     5
 72
     1
  1
\A1;2075
  7
STYLE1
 11
0.0000000000000001
 21
1.0
 31
0.0
 73
     1
 44
1.0
1001
ACAD
1000
MTEXTBEGIN
1070
    73
1070
     1
1070
    44
1040
1.0
1070
    74
1070
     0
1000
MTEXTEND
  0
POINT
  5
18D06
330
18706
100
AcDbEntity
  8
DEFPOINTS
 62
     0
 48
50.0
100
AcDbPoint
 10
8705.852392096709
 20
2834.716014124862
 30
0.0
  0
POINT
  5
18D07
330
18706
100
AcDbEntity
  8
DEFPOINTS
 62
     0
 48
50.0
100
AcDbPoint
 10
8645.85239209671
 20
4909.716014124867
 30
0.0
  0
POINT
  5
18D08
330
18706
100
AcDbEntity
  8
DEFPOINTS
 62
     0
 48
50.0
100
AcDbPoint
 10
7797.213010167351
 20
4909.716014124867
 30
0.0
  0
ENDBLK
  5
18711
330
18706
100
AcDbEntity
  8
0
 48
50.0
100
AcDbBlockEnd
  0
BLOCK
  5
1871D
330
18712
100
AcDbEntity
  8
0
 48
50.0
100
AcDbBlockBegin
  2
*D22
 70
     1
 10
0.0
 20
0.0
 30
0.0
  3
*D22
  1

  0
LINE
  5
18CE2
330
18712
100
AcDbEntity
  8
寸法
 62
     0
 48
50.0
370
    -2
100
AcDbLine
 10
8630.852392096709
 20
2834.716014124862
 30
0.0
 11
7737.213010167351
 21
2834.716014124862
 31
0.0
  0
LINE
  5
18CE3
330
18712
100
AcDbEntity
  8
寸法
 62
     0
 48
50.0
370
    -2
100
AcDbLine
 10
8062.199682938411
 20
2734.716014124862
 30
0.0
 11
7737.213010167351
 21
2734.716014124862
 31
0.0
  0
LINE
  5
18CE4
330
18712
100
AcDbEntity
  8
寸法
 62
     0
 48
50.0
370
    -2
100
AcDbLine
 10
7797.213010167351
 20
2834.716014124862
 30
0.0
 11
7797.213010167351
 21
2734.716014124862
 31
0.0
  0
LINE
  5
18CE5
330
18712
100
AcDbEntity
  8
寸法
 62
     0
 48
50.0
370
    -2
100
AcDbLine
 10
7797.213010167351
 20
2734.716014124862
 30
0.0
 11
7797.213010167351
 21
2362.621525935882
 31
0.0
  0
INSERT
  5
18CE6
330
18712
100
AcDbEntity
  8
寸法
 62
     0
 48
50.0
370
    -2
100
AcDbBlockReference
  2
_DOTSMALL
 10
7797.213010167351
 20
2834.716014124862
 30
0.0
 41
100.0
 42
100.0
 43
100.0
 50
90.0
  0
INSERT
  5
18CE7
330
18712
100
AcDbEntity
  8
寸法
 62
     0
 48
50.0
370
    -2
100
AcDbBlockReference
  2
_DOTSMALL
 10
7797.213010167351
 20
2734.716014124862
 30
0.0
 41
100.0
 42
100.0
 43
100.0
 50
270.0
  0
MTEXT
  5
18CE8
330
18712
100
AcDbEntity
  8
寸法
 62
     7
 48
50.0
100
AcDbMText
 10
7697.21301016735
 20
2498.668770030372
 30
0.0
 40
120.0
 41
0.0
 71
     5
 72
     1
  1
\A1;100
  7
STYLE1
 11
0.0000000000000001
 21
1.0
 31
0.0
 73
     1
 44
1.0
1001
ACAD
1000
MTEXTBEGIN
1070
    73
1070
     1
1070
    44
1040
1.0
1070
    74
1070
     0
1000
MTEXTEND
  0
POINT
  5
18CE9
330
18712
100
AcDbEntity
  8
DEFPOINTS
 62
     0
 48
50.0
100
AcDbPoint
 10
8650.852392096709
 20
2834.716014124862
 30
0.0
  0
POINT
  5
18CEA
330
18712
100
AcDbEntity
  8
DEFPOINTS
 62
     0
 48
50.0
100
AcDbPoint
 10
8082.199682938412
 20
2734.716014124862
 30
0.0
  0
POINT
  5
18CEB
330
18712
100
AcDbEntity
  8
DEFPOINTS
 62
     0
 48
50.0
100
AcDbPoint
 10
7797.213010167351
 20
2734.716014124862
 30
0.0
  0
ENDBLK
  5
1871E
330
18712
100
AcDbEntity
  8
0
 48
50.0
100
AcDbBlockEnd
  0
BLOCK
  5
1872B
330
1871F
100
AcDbEntity
  8
0
 48
50.0
100
AcDbBlockBegin
  2
*D23
 70
     1
 10
0.0
 20
0.0
 30
0.0
  3
*D23
  1

  0
LINE
  5
18CEC
330
1871F
100
AcDbEntity
  8
寸法
 62
     0
 48
50.0
370
    -2
100
AcDbLine
 10
8685.852392096709
 20
2884.716014124862
 30
0.0
 11
8022.199682938412
 21
2884.716014124862
 31
0.0
  0
LINE
  5
18CED
330
1871F
100
AcDbEntity
  8
寸法
 62
     0
 48
50.0
370
    -2
100
AcDbLine
 10
8630.852392096709
 20
2834.716014124862
 30
0.0
 11
8022.199682938412
 21
2834.716014124862
 31
0.0
  0
LINE
  5
18CEE
330
1871F
100
AcDbEntity
  8
寸法
 62
     0
 48
50.0
370
    -2
100
AcDbLine
 10
8082.199682938414
 20
2884.716014124862
 30
0.0
 11
8082.199682938414
 21
2984.716014124862
 31
0.0
  0
LINE
  5
18CEF
330
1871F
100
AcDbEntity
  8
寸法
 62
     0
 48
50.0
370
    -2
100
AcDbLine
 10
8082.199682938414
 20
2834.716014124862
 30
0.0
 11
8082.199682938414
 21
2422.621525935883
 31
0.0
  0
LINE
  5
18CF0
330
1871F
100
AcDbEntity
  8
寸法
 62
     0
 48
50.0
370
    -2
100
AcDbLine
 10
8082.199682938414
 20
2884.716014124862
 30
0.0
 11
8082.199682938414
 21
2834.716014124862
 31
0.0
  0
INSERT
  5
18CF1
330
1871F
100
AcDbEntity
  8
寸法
 62
     0
 48
50.0
370
    -2
100
AcDbBlockReference
  2
_DOTSMALL
 10
8082.199682938414
 20
2884.716014124862
 30
0.0
 41
100.0
 42
100.0
 43
100.0
 50
270.0
  0
INSERT
  5
18CF2
330
1871F
100
AcDbEntity
  8
寸法
 62
     0
 48
50.0
370
    -2
100
AcDbBlockReference
  2
_DOTSMALL
 10
8082.199682938414
 20
2834.716014124862
 30
0.0
 41
100.0
 42
100.0
 43
100.0
 50
90.0
  0
MTEXT
  5
18CF3
330
1871F
100
AcDbEntity
  8
寸法
 62
     7
 48
50.0
100
AcDbMText
 10
7982.199682938412
 20
2528.668770030372
 30
0.0
 40
120.0
 41
0.0
 71
     5
 72
     1
  1
\A1;50
  7
STYLE1
 11
0.0000000000000001
 21
1.0
 31
0.0
 73
     1
 44
1.0
1001
ACAD
1000
MTEXTBEGIN
1070
    73
1070
     1
1070
    44
1040
1.0
1070
    74
1070
     0
1000
MTEXTEND
  0
POINT
  5
18CF4
330
1871F
100
AcDbEntity
  8
DEFPOINTS
 62
     0
 48
50.0
100
AcDbPoint
 10
8705.852392096709
 20
2884.716014124862
 30
0.0
  0
POINT
  5
18CF5
330
1871F
100
AcDbEntity
  8
DEFPOINTS
 62
     0
 48
50.0
100
AcDbPoint
 10
8650.852392096709
 20
2834.716014124862
 30
0.0
  0
POINT
  5
18CF6
330
1871F
100
AcDbEntity
  8
DEFPOINTS
 62
     0
 48
50.0
100
AcDbPoint
 10
8082.199682938414
 20
2834.716014124862
 30
0.0
  0
ENDBLK
  5
1872C
330
1871F
100
AcDbEntity
  8
0
 48
50.0
100
AcDbBlockEnd
  0
BLOCK
  5
1879C
330
18792
100
AcDbEntity
  8
0
 48
50.0
100
AcDbBlockBegin
  2
*D24
 70
     1
 10
0.0
 20
0.0
 30
0.0
  3
*D24
  1

  0
LINE
  5
18CC5
330
18792
100
AcDbEntity
  8
寸法
 62
     0
 48
50.0
370
    -2
100
AcDbLine
 10
6257.567975072147
 20
4929.716014124867
 30
0.0
 11
6257.567975072147
 21
5374.336273552135
 31
0.0
  0
LINE
  5
18CC6
330
18792
100
AcDbEntity
  8
寸法
 62
     0
 48
50.0
370
    -2
100
AcDbLine
 10
4887.567975072152
 20
4929.716014124868
 30
0.0
 11
4887.567975072152
 21
5374.336273552135
 31
0.0
  0
LINE
  5
18CC7
330
18792
100
AcDbEntity
  8
寸法
 62
     0
 48
50.0
370
    -2
100
AcDbLine
 10
6257.567975072147
 20
5314.336273552134
 30
0.0
 11
4887.567975072152
 21
5314.336273552134
 31
0.0
  0
INSERT
  5
18CC8
330
18792
100
AcDbEntity
  8
寸法
 62
     0
 48
50.0
370
    -2
100
AcDbBlockReference
  2
_DOTSMALL
 10
6257.567975072147
 20
5314.336273552134
 30
0.0
 41
100.0
 42
100.0
 43
100.0
  0
INSERT
  5
18CC9
330
18792
100
AcDbEntity
  8
寸法
 62
     0
 48
50.0
370
    -2
100
AcDbBlockReference
  2
_DOTSMALL
 10
4887.567975072152
 20
5314.336273552134
 30
0.0
 41
100.0
 42
100.0
 43
100.0
 50
180.0
  0
MTEXT
  5
18CCA
330
18792
100
AcDbEntity
  8
寸法
 62
     7
 48
50.0
100
AcDbMText
 10
5572.56797507215
 20
5414.336273552134
 30
0.0
 40
120.0
 41
0.0
 71
     5
 72
     1
  1
\A1;柱外寸法1370
  7
STYLE1
 73
     1
 44
1.0
1001
ACAD
1000
MTEXTBEGIN
1070
    73
1070
     1
1070
    44
1040
1.0
1070
    74
1070
     0
1000
MTEXTEND
  0
POINT
  5
18CCB
330
18792
100
AcDbEntity
  8
DEFPOINTS
 62
     0
 48
50.0
100
AcDbPoint
 10
6257.567975072147
 20
4909.716014124867
 30
0.0
  0
POINT
  5
18CCC
330
18792
100
AcDbEntity
  8
DEFPOINTS
 62
     0
 48
50.0
100
AcDbPoint
 10
4887.567975072152
 20
4909.716014124867
 30
0.0
  0
POINT
  5
18CCD
330
18792
100
AcDbEntity
  8
DEFPOINTS
 62
     0
 48
50.0
100
AcDbPoint
 10
4887.567975072152
 20
5314.336273552134
 30
0.0
  0
ENDBLK
  5
1879D
330
18792
100
AcDbEntity
  8
0
 48
50.0
100
AcDbBlockEnd
  0
BLOCK
  5
187AA
330
1879E
100
AcDbEntity
  8
0
 48
50.0
100
AcDbBlockBegin
  2
*D25
 70
     1
 10
0.0
 20
0.0
 30
0.0
  3
*D25
  1

  0
LINE
  5
18CCE
330
1879E
100
AcDbEntity
  8
寸法
 62
     0
 48
50.0
370
    -2
100
AcDbLine
 10
4887.567975072152
 20
4929.716014124868
 30
0.0
 11
4887.567975072152
 21
5374.336273552135
 31
0.0
  0
LINE
  5
18CCF
330
1879E
100
AcDbEntity
  8
寸法
 62
     0
 48
50.0
370
    -2
100
AcDbLine
 10
4837.567975072152
 20
4929.716014124867
 30
0.0
 11
4837.567975072152
 21
5374.336273552135
 31
0.0
  0
LINE
  5
18CD0
330
1879E
100
AcDbEntity
  8
寸法
 62
     0
 48
50.0
370
    -2
100
AcDbLine
 10
4887.567975072152
 20
5314.336273552134
 30
0.0
 11
4987.567975072153
 21
5314.336273552134
 31
0.0
  0
LINE
  5
18CD1
330
1879E
100
AcDbEntity
  8
寸法
 62
     0
 48
50.0
370
    -2
100
AcDbLine
 10
4837.567975072152
 20
5314.336273552134
 30
0.0
 11
4418.035449603417
 21
5314.336273552134
 31
0.0
  0
LINE
  5
18CD2
330
1879E
100
AcDbEntity
  8
寸法
 62
     0
 48
50.0
370
    -2
100
AcDbLine
 10
4887.567975072152
 20
5314.336273552134
 30
0.0
 11
4837.567975072152
 21
5314.336273552134
 31
0.0
  0
INSERT
  5
18CD3
330
1879E
100
AcDbEntity
  8
寸法
 62
     0
 48
50.0
370
    -2
100
AcDbBlockReference
  2
_DOTSMALL
 10
4887.567975072152
 20
5314.336273552134
 30
0.0
 41
100.0
 42
100.0
 43
100.0
 50
180.0
  0
INSERT
  5
18CD4
330
1879E
100
AcDbEntity
  8
寸法
 62
     0
 48
50.0
370
    -2
100
AcDbBlockReference
  2
_DOTSMALL
 10
4837.567975072152
 20
5314.336273552134
 30
0.0
 41
100.0
 42
100.0
 43
100.0
  0
MTEXT
  5
18CD5
330
1879E
100
AcDbEntity
  8
寸法
 62
     7
 48
50.0
100
AcDbMText
 10
4524.082693697905
 20
5414.336273552134
 30
0.0
 40
120.0
 41
0.0
 71
     5
 72
     1
  1
\A1;50
  7
STYLE1
 73
     1
 44
1.0
1001
ACAD
1000
MTEXTBEGIN
1070
    73
1070
     1
1070
    44
1040
1.0
1070
    74
1070
     0
1000
MTEXTEND
  0
POINT
  5
18CD6
330
1879E
100
AcDbEntity
  8
DEFPOINTS
 62
     0
 48
50.0
100
AcDbPoint
 10
4887.567975072152
 20
4909.716014124867
 30
0.0
  0
POINT
  5
18CD7
330
1879E
100
AcDbEntity
  8
DEFPOINTS
 62
     0
 48
50.0
100
AcDbPoint
 10
4837.567975072152
 20
4909.716014124867
 30
0.0
  0
POINT
  5
18CD8
330
1879E
100
AcDbEntity
  8
DEFPOINTS
 62
     0
 48
50.0
100
AcDbPoint
 10
4837.567975072152
 20
5314.336273552134
 30
0.0
  0
ENDBLK
  5
187AB
330
1879E
100
AcDbEntity
  8
0
 48
50.0
100
AcDbBlockEnd
  0
BLOCK
  5
187B6
330
187AC
100
AcDbEntity
  8
0
 48
50.0
100
AcDbBlockBegin
  2
*D26
 70
     1
 10
0.0
 20
0.0
 30
0.0
  3
*D26
  1

  0
LINE
  5
18CD9
330
187AC
100
AcDbEntity
  8
寸法
 62
     0
 48
50.0
370
    -2
100
AcDbLine
 10
4837.567975072152
 20
4929.716014124867
 30
0.0
 11
4837.567975072152
 21
5583.930147973585
 31
0.0
  0
LINE
  5
18CDA
330
187AC
100
AcDbEntity
  8
寸法
 62
     0
 48
50.0
370
    -2
100
AcDbLine
 10
6307.567975072147
 20
4929.716014124863
 30
0.0
 11
6307.567975072147
 21
5583.930147973585
 31
0.0
  0
LINE
  5
18CDB
330
187AC
100
AcDbEntity
  8
寸法
 62
     0
 48
50.0
370
    -2
100
AcDbLine
 10
4837.567975072152
 20
5523.930147973585
 30
0.0
 11
6307.567975072147
 21
5523.930147973585
 31
0.0
  0
INSERT
  5
18CDC
330
187AC
100
AcDbEntity
  8
寸法
 62
     0
 48
50.0
370
    -2
100
AcDbBlockReference
  2
_DOTSMALL
 10
4837.567975072152
 20
5523.930147973585
 30
0.0
 41
100.0
 42
100.0
 43
100.0
 50
180.0
  0
INSERT
  5
18CDD
330
187AC
100
AcDbEntity
  8
寸法
 62
     0
 48
50.0
370
    -2
100
AcDbBlockReference
  2
_DOTSMALL
 10
6307.567975072147
 20
5523.930147973585
 30
0.0
 41
100.0
 42
100.0
 43
100.0
  0
MTEXT
  5
18CDE
330
187AC
100
AcDbEntity
  8
寸法
 62
     7
 48
50.0
100
AcDbMText
 10
5572.56797507215
 20
5623.930147973585
 30
0.0
 40
120.0
 41
0.0
 71
     5
 72
     1
  1
\A1;1470
  7
STYLE1
 73
     1
 44
1.0
1001
ACAD
1000
MTEXTBEGIN
1070
    73
1070
     1
1070
    44
1040
1.0
1070
    74
1070
     0
1000
MTEXTEND
  0
POINT
  5
18CDF
330
187AC
100
AcDbEntity
  8
DEFPOINTS
 62
     0
 48
50.0
100
AcDbPoint
 10
4837.567975072152
 20
4909.716014124867
 30
0.0
  0
POINT
  5
18CE0
330
187AC
100
AcDbEntity
  8
DEFPOINTS
 62
     0
 48
50.0
100
AcDbPoint
 10
6307.567975072147
 20
4909.716014124864
 30
0.0
  0
POINT
  5
18CE1
330
187AC
100
AcDbEntity
  8
DEFPOINTS
 62
     0
 48
50.0
100
AcDbPoint
 10
6307.567975072147
 20
5523.930147973585
 30
0.0
  0
ENDBLK
  5
187B7
330
187AC
100
AcDbEntity
  8
0
 48
50.0
100
AcDbBlockEnd
  0
BLOCK
  5
187EC
330
187E0
100
AcDbEntity
  8
0
 48
50.0
100
AcDbBlockBegin
  2
*D27
 70
     1
 10
0.0
 20
0.0
 30
0.0
  3
*D27
  1

  0
LINE
  5
18CBA
330
187E0
100
AcDbEntity
  8
寸法
 62
     0
 48
50.0
370
    -2
100
AcDbLine
 10
6307.567975072147
 20
4929.716014124863
 30
0.0
 11
6307.567975072147
 21
5374.336273552135
 31
0.0
  0
LINE
  5
18CBB
330
187E0
100
AcDbEntity
  8
寸法
 62
     0
 48
50.0
370
    -2
100
AcDbLine
 10
6257.567975072147
 20
4929.716014124867
 30
0.0
 11
6257.567975072147
 21
5374.336273552135
 31
0.0
  0
LINE
  5
18CBC
330
187E0
100
AcDbEntity
  8
寸法
 62
     0
 48
50.0
370
    -2
100
AcDbLine
 10
6257.567975072147
 20
5314.336273552134
 30
0.0
 11
6157.567975072147
 21
5314.336273552134
 31
0.0
  0
LINE
  5
18CBD
330
187E0
100
AcDbEntity
  8
寸法
 62
     0
 48
50.0
370
    -2
100
AcDbLine
 10
6307.567975072147
 20
5314.336273552134
 30
0.0
 11
6727.100500540871
 21
5314.336273552134
 31
0.0
  0
LINE
  5
18CBE
330
187E0
100
AcDbEntity
  8
寸法
 62
     0
 48
50.0
370
    -2
100
AcDbLine
 10
6257.567975072147
 20
5314.336273552134
 30
0.0
 11
6307.567975072147
 21
5314.336273552134
 31
0.0
  0
INSERT
  5
18CBF
330
187E0
100
AcDbEntity
  8
寸法
 62
     0
 48
50.0
370
    -2
100
AcDbBlockReference
  2
_DOTSMALL
 10
6257.567975072147
 20
5314.336273552134
 30
0.0
 41
100.0
 42
100.0
 43
100.0
  0
INSERT
  5
18CC0
330
187E0
100
AcDbEntity
  8
寸法
 62
     0
 48
50.0
370
    -2
100
AcDbBlockReference
  2
_DOTSMALL
 10
6307.567975072147
 20
5314.336273552134
 30
0.0
 41
100.0
 42
100.0
 43
100.0
 50
180.0
  0
MTEXT
  5
18CC1
330
187E0
100
AcDbEntity
  8
寸法
 62
     7
 48
50.0
100
AcDbMText
 10
6621.053256446383
 20
5414.336273552134
 30
0.0
 40
120.0
 41
0.0
 71
     5
 72
     1
  1
\A1;50
  7
STYLE1
 73
     1
 44
1.0
1001
ACAD
1000
MTEXTBEGIN
1070
    73
1070
     1
1070
    44
1040
1.0
1070
    74
1070
     0
1000
MTEXTEND
  0
POINT
  5
18CC2
330
187E0
100
AcDbEntity
  8
DEFPOINTS
 62
     0
 48
50.0
100
AcDbPoint
 10
6307.567975072147
 20
4909.716014124864
 30
0.0
  0
POINT
  5
18CC3
330
187E0
100
AcDbEntity
  8
DEFPOINTS
 62
     0
 48
50.0
100
AcDbPoint
 10
6257.567975072147
 20
4909.716014124867
 30
0.0
  0
POINT
  5
18CC4
330
187E0
100
AcDbEntity
  8
DEFPOINTS
 62
     0
 48
50.0
100
AcDbPoint
 10
6257.567975072147
 20
5314.336273552134
 30
0.0
  0
ENDBLK
  5
187ED
330
187E0
100
AcDbEntity
  8
0
 48
50.0
100
AcDbBlockEnd
  0
BLOCK
  5
18FF5
330
18FEB
100
AcDbEntity
  8
0
 48
50.0
100
AcDbBlockBegin
  2
*D28
 70
     1
 10
0.0
 20
0.0
 30
0.0
  3
*D28
  1

  0
LINE
  5
19060
330
18FEB
100
AcDbEntity
  8
寸法
 62
     0
 48
50.0
370
    -2
100
AcDbLine
 10
10515.85239209671
 20
2834.716014124862
 30
0.0
 11
11091.02248785913
 21
2834.716014124862
 31
0.0
  0
LINE
  5
19061
330
18FEB
100
AcDbEntity
  8
寸法
 62
     0
 48
50.0
370
    -2
100
AcDbLine
 10
10595.85239209669
 20
4854.716014124864
 30
0.0
 11
11091.02248785913
 21
4854.716014124864
 31
0.0
  0
LINE
  5
19062
330
18FEB
100
AcDbEntity
  8
寸法
 62
     0
 48
50.0
370
    -2
100
AcDbLine
 10
11031.02248785913
 20
2834.716014124862
 30
0.0
 11
11031.02248785913
 21
4854.716014124864
 31
0.0
  0
INSERT
  5
19063
330
18FEB
100
AcDbEntity
  8
寸法
 62
     0
 48
50.0
370
    -2
100
AcDbBlockReference
  2
_DOTSMALL
 10
11031.02248785913
 20
2834.716014124862
 30
0.0
 41
100.0
 42
100.0
 43
100.0
 50
270.0
  0
INSERT
  5
19064
330
18FEB
100
AcDbEntity
  8
寸法
 62
     0
 48
50.0
370
    -2
100
AcDbBlockReference
  2
_DOTSMALL
 10
11031.02248785913
 20
4854.716014124864
 30
0.0
 41
100.0
 42
100.0
 43
100.0
 50
90.0
  0
MTEXT
  5
19065
330
18FEB
100
AcDbEntity
  8
寸法
 62
     7
 48
50.0
100
AcDbMText
 10
10931.01067683551
 20
3816.972341554551
 30
0.0
 40
120.0
 41
0.0
 71
     5
 72
     1
  1
\A1;2020
  7
STYLE1
 11
0.0000000000000001
 21
1.0
 31
0.0
 73
     1
 44
1.0
1001
ACAD
1000
MTEXTBEGIN
1070
    73
1070
     1
1070
    44
1040
1.0
1070
    74
1070
     0
1000
MTEXTEND
  0
POINT
  5
19066
330
18FEB
100
AcDbEntity
  8
DEFPOINTS
 62
     0
 48
50.0
100
AcDbPoint
 10
10495.85239209671
 20
2834.716014124862
 30
0.0
  0
POINT
  5
19067
330
18FEB
100
AcDbEntity
  8
DEFPOINTS
 62
     0
 48
50.0
100
AcDbPoint
 10
10575.85239209669
 20
4854.716014124864
 30
0.0
  0
POINT
  5
19068
330
18FEB
100
AcDbEntity
  8
DEFPOINTS
 62
     0
 48
50.0
100
AcDbPoint
 10
11031.02248785913
 20
4854.716014124864
 30
0.0
  0
ENDBLK
  5
18FF6
330
18FEB
100
AcDbEntity
  8
0
 48
50.0
100
AcDbBlockEnd
  0
BLOCK
  5
19398
330
1938E
100
AcDbEntity
  8
0
 48
50.0
100
AcDbBlockBegin
  2
*D29
 70
     1
 10
0.0
 20
0.0
 30
0.0
  3
*D29
  1

  0
LINE
  5
19BBD
330
1938E
100
AcDbEntity
  8
寸法
 62
     0
 48
50.0
370
    -2
100
AcDbLine
 10
8772.85239209668
 20
7717.238973786319
 30
0.0
 11
8772.85239209668
 21
7072.163955738094
 31
0.0
  0
LINE
  5
19BBE
330
1938E
100
AcDbEntity
  8
寸法
 62
     0
 48
50.0
370
    -2
100
AcDbLine
 10
9722.852392096681
 20
7717.238973786319
 30
0.0
 11
9722.852392096681
 21
7072.163955738094
 31
0.0
  0
LINE
  5
19BBF
330
1938E
100
AcDbEntity
  8
寸法
 62
     0
 48
50.0
370
    -2
100
AcDbLine
 10
8792.85239209668
 20
7112.163955738093
 30
0.0
 11
9702.85239209668
 21
7112.163955738093
 31
0.0
  0
INSERT
  5
19BC0
330
1938E
100
AcDbEntity
  8
寸法
 62
     0
 48
50.0
370
    -2
100
AcDbBlockReference
  2
_DOT
 10
8772.85239209668
 20
7112.163955738093
 30
0.0
 41
20.0
 42
20.0
 43
20.0
 50
180.0
  0
INSERT
  5
19BC1
330
1938E
100
AcDbEntity
  8
寸法
 62
     0
 48
50.0
370
    -2
100
AcDbBlockReference
  2
_DOT
 10
9722.852392096681
 20
7112.163955738093
 30
0.0
 41
20.0
 42
20.0
 43
20.0
  0
MTEXT
  5
19BC2
330
1938E
100
AcDbEntity
  8
寸法
 62
     7
 48
50.0
100
AcDbMText
 10
9247.85239209668
 20
7304.163955738093
 30
0.0
 40
120.0
 41
0.0
 71
     5
 72
     1
  1
\A1;有効開口部間口\P950
  7
STYLE1
 73
     1
 44
1.0
1001
ACAD
1000
MTEXTBEGIN
1070
    73
1070
     1
1070
    44
1040
1.0
1070
    74
1070
     0
1000
MTEXTEND
  0
POINT
  5
19BC3
330
1938E
100
AcDbEntity
  8
DEFPOINTS
 62
     0
 48
50.0
100
AcDbPoint
 10
8772.85239209668
 20
7737.238973786317
 30
0.0
  0
POINT
  5
19BC4
330
1938E
100
AcDbEntity
  8
DEFPOINTS
 62
     0
 48
50.0
100
AcDbPoint
 10
9722.852392096681
 20
7737.238973786317
 30
0.0
  0
POINT
  5
19BC5
330
1938E
100
AcDbEntity
  8
DEFPOINTS
 62
     0
 48
50.0
100
AcDbPoint
 10
9722.852392096681
 20
7112.163955738093
 30
0.0
  0
ENDBLK
  5
19399
330
1938E
100
AcDbEntity
  8
0
 48
50.0
100
AcDbBlockEnd
  0
BLOCK
  5
19A53
330
19A49
100
AcDbEntity
  8
0
 48
50.0
100
AcDbBlockBegin
  2
*D30
 70
     1
 10
0.0
 20
0.0
 30
0.0
  3
*D30
  1

  0
LINE
  5
19BB4
330
19A49
100
AcDbEntity
  8
寸法
 62
     0
 48
50.0
370
    -2
100
AcDbLine
 10
8705.852392096709
 20
7794.238973786346
 30
0.0
 11
8705.852392096709
 21
6562.411183041444
 31
0.0
  0
LINE
  5
19BB5
330
19A49
100
AcDbEntity
  8
寸法
 62
     0
 48
50.0
370
    -2
100
AcDbLine
 10
10495.85239209669
 20
7794.238973786476
 30
0.0
 11
10495.85239209669
 21
6562.411183041444
 31
0.0
  0
LINE
  5
19BB6
330
19A49
100
AcDbEntity
  8
寸法
 62
     0
 48
50.0
370
    -2
100
AcDbLine
 10
8705.852392096709
 20
6622.411183041444
 30
0.0
 11
10495.85239209669
 21
6622.411183041444
 31
0.0
  0
INSERT
  5
19BB7
330
19A49
100
AcDbEntity
  8
寸法
 62
     0
 48
50.0
370
    -2
100
AcDbBlockReference
  2
_DOTSMALL
 10
8705.852392096709
 20
6622.411183041444
 30
0.0
 41
100.0
 42
100.0
 43
100.0
 50
180.0
  0
INSERT
  5
19BB8
330
19A49
100
AcDbEntity
  8
寸法
 62
     0
 48
50.0
370
    -2
100
AcDbBlockReference
  2
_DOTSMALL
 10
10495.85239209669
 20
6622.411183041444
 30
0.0
 41
100.0
 42
100.0
 43
100.0
  0
MTEXT
  5
19BB9
330
19A49
100
AcDbEntity
  8
寸法
 62
     7
 48
50.0
100
AcDbMText
 10
9588.999142428063
 20
6722.411183041444
 30
0.0
 40
120.0
 41
0.0
 71
     5
 72
     1
  1
\A1;1790
  7
STYLE1
 73
     1
 44
1.0
1001
ACAD
1000
MTEXTBEGIN
1070
    73
1070
     1
1070
    44
1040
1.0
1070
    74
1070
     0
1000
MTEXTEND
  0
POINT
  5
19BBA
330
19A49
100
AcDbEntity
  8
DEFPOINTS
 62
     0
 48
50.0
100
AcDbPoint
 10
8705.852392096709
 20
7814.238973786347
 30
0.0
  0
POINT
  5
19BBB
330
19A49
100
AcDbEntity
  8
DEFPOINTS
 62
     0
 48
50.0
100
AcDbPoint
 10
10495.85239209669
 20
7814.238973786476
 30
0.0
  0
POINT
  5
19BBC
330
19A49
100
AcDbEntity
  8
DEFPOINTS
 62
     0
 48
50.0
100
AcDbPoint
 10
10495.85239209669
 20
6622.411183041444
 30
0.0
  0
ENDBLK
  5
19A54
330
19A49
100
AcDbEntity
  8
0
 48
50.0
100
AcDbBlockEnd
  0
BLOCK
  5
19A61
330
19A55
100
AcDbEntity
  8
0
 48
50.0
100
AcDbBlockBegin
  2
*D31
 70
     1
 10
0.0
 20
0.0
 30
0.0
  3
*D31
  1

  0
LINE
  5
19BA9
330
19A55
100
AcDbEntity
  8
寸法
 62
     0
 48
50.0
370
    -2
100
AcDbLine
 10
8685.852392096709
 20
7814.238973786347
 30
0.0
 11
8371.241146469992
 21
7814.238973786347
 31
0.0
  0
LINE
  5
19BAA
330
19A55
100
AcDbEntity
  8
寸法
 62
     0
 48
50.0
370
    -2
100
AcDbLine
 10
8713.852392096688
 20
7739.238973786346
 30
0.0
 11
8371.241146469992
 21
7739.238973786346
 31
0.0
  0
LINE
  5
19BAB
330
19A55
100
AcDbEntity
  8
寸法
 62
     0
 48
50.0
370
    -2
100
AcDbLine
 10
8411.241146469993
 20
7834.238973786347
 30
0.0
 11
8411.241146469993
 21
7854.238973786348
 31
0.0
  0
LINE
  5
19BAC
330
19A55
100
AcDbEntity
  8
寸法
 62
     0
 48
50.0
370
    -2
100
AcDbLine
 10
8411.241146469993
 20
7719.238973786346
 30
0.0
 11
8411.241146469993
 21
7498.268411037869
 31
0.0
  0
LINE
  5
19BAD
330
19A55
100
AcDbEntity
  8
寸法
 62
     0
 48
50.0
370
    -2
100
AcDbLine
 10
8411.241146469993
 20
7814.238973786347
 30
0.0
 11
8411.241146469993
 21
7739.238973786346
 31
0.0
  0
INSERT
  5
19BAE
330
19A55
100
AcDbEntity
  8
寸法
 62
     0
 48
50.0
370
    -2
100
AcDbBlockReference
  2
_DOT
 10
8411.241146469993
 20
7814.238973786347
 30
0.0
 41
20.0
 42
20.0
 43
20.0
 50
270.0
  0
INSERT
  5
19BAF
330
19A55
100
AcDbEntity
  8
寸法
 62
     0
 48
50.0
370
    -2
100
AcDbBlockReference
  2
_DOT
 10
8411.241146469993
 20
7739.238973786346
 30
0.0
 41
20.0
 42
20.0
 43
20.0
 50
90.0
  0
MTEXT
  5
19BB0
330
19A55
100
AcDbEntity
  8
寸法
 62
     7
 48
50.0
100
AcDbMText
 10
8319.241146469991
 20
7598.753692412109
 30
0.0
 40
120.0
 41
0.0
 71
     5
 72
     1
  1
\A1;75
  7
STYLE1
 11
0.0000000000000001
 21
1.0
 31
0.0
 73
     1
 44
1.0
1001
ACAD
1000
MTEXTBEGIN
1070
    73
1070
     1
1070
    44
1040
1.0
1070
    74
1070
     0
1000
MTEXTEND
  0
POINT
  5
19BB1
330
19A55
100
AcDbEntity
  8
DEFPOINTS
 62
     0
 48
50.0
100
AcDbPoint
 10
8705.852392096709
 20
7814.238973786347
 30
0.0
  0
POINT
  5
19BB2
330
19A55
100
AcDbEntity
  8
DEFPOINTS
 62
     0
 48
50.0
100
AcDbPoint
 10
8733.852392096688
 20
7739.238973786346
 30
0.0
  0
POINT
  5
19BB3
330
19A55
100
AcDbEntity
  8
DEFPOINTS
 62
     0
 48
50.0
100
AcDbPoint
 10
8411.241146469993
 20
7739.238973786346
 30
0.0
  0
ENDBLK
  5
19A62
330
19A55
100
AcDbEntity
  8
0
 48
50.0
100
AcDbBlockEnd
  0
BLOCK
  5
19A6D
330
19A63
100
AcDbEntity
  8
0
 48
50.0
100
AcDbBlockBegin
  2
*D32
 70
     1
 10
0.0
 20
0.0
 30
0.0
  3
*D32
  1

  0
LINE
  5
19BA0
330
19A63
100
AcDbEntity
  8
寸法
 62
     0
 48
50.0
370
    -2
100
AcDbLine
 10
8733.852392096681
 20
7717.238973786352
 30
0.0
 11
8733.852392096681
 21
6802.168703935571
 31
0.0
  0
LINE
  5
19BA1
330
19A63
100
AcDbEntity
  8
寸法
 62
     0
 48
50.0
370
    -2
100
AcDbLine
 10
10467.85239209668
 20
7717.238973786351
 30
0.0
 11
10467.85239209668
 21
6802.168703935571
 31
0.0
  0
LINE
  5
19BA2
330
19A63
100
AcDbEntity
  8
寸法
 62
     0
 48
50.0
370
    -2
100
AcDbLine
 10
8733.852392096681
 20
6862.16870393557
 30
0.0
 11
10467.85239209668
 21
6862.16870393557
 31
0.0
  0
INSERT
  5
19BA3
330
19A63
100
AcDbEntity
  8
寸法
 62
     0
 48
50.0
370
    -2
100
AcDbBlockReference
  2
_DOTSMALL
 10
8733.852392096681
 20
6862.16870393557
 30
0.0
 41
100.0
 42
100.0
 43
100.0
 50
180.0
  0
INSERT
  5
19BA4
330
19A63
100
AcDbEntity
  8
寸法
 62
     0
 48
50.0
370
    -2
100
AcDbBlockReference
  2
_DOTSMALL
 10
10467.85239209668
 20
6862.16870393557
 30
0.0
 41
100.0
 42
100.0
 43
100.0
  0
MTEXT
  5
19BA5
330
19A63
100
AcDbEntity
  8
寸法
 62
     7
 48
50.0
100
AcDbMText
 10
9591.434136048501
 20
6962.168703935571
 30
0.0
 40
120.0
 41
0.0
 71
     5
 72
     1
  1
\A1;1734
  7
STYLE1
 73
     1
 44
1.0
1001
ACAD
1000
MTEXTBEGIN
1070
    73
1070
     1
1070
    44
1040
1.0
1070
    74
1070
     0
1000
MTEXTEND
  0
POINT
  5
19BA6
330
19A63
100
AcDbEntity
  8
DEFPOINTS
 62
     0
 48
50.0
100
AcDbPoint
 10
8733.852392096681
 20
7737.238973786353
 30
0.0
  0
POINT
  5
19BA7
330
19A63
100
AcDbEntity
  8
DEFPOINTS
 62
     0
 48
50.0
100
AcDbPoint
 10
10467.85239209668
 20
7737.23897378635
 30
0.0
  0
POINT
  5
19BA8
330
19A63
100
AcDbEntity
  8
DEFPOINTS
 62
     0
 48
50.0
100
AcDbPoint
 10
10467.85239209668
 20
6862.16870393557
 30
0.0
  0
ENDBLK
  5
19A6E
330
19A63
100
AcDbEntity
  8
0
 48
50.0
100
AcDbBlockEnd
  0
ENDSEC
  0
SECTION
  2
ENTITIES
  0
LINE
  5
10B57
330
747D
100
AcDbEntity
  8
補助
  6
PHANTOM
 62
   230
 48
50.0
100
AcDbLine
 10
139.9999999999995
 20
11409.6
 30
0.0
 11
16307.2
 21
11409.6
 31
0.0
  0
LINE
  5
10B59
330
747D
100
AcDbEntity
  8
仕様書枠
  6
Continuous
 48
50.0
100
AcDbLine
 10
13107.2
 20
1200.0
 30
0.0
 11
13107.2
 21
-0.0000000000000729
 31
0.0
  0
LINE
  5
10B5C
330
747D
100
AcDbEntity
  8
仕様書枠
 48
50.0
100
AcDbLine
 10
16307.2
 20
1200.0
 30
0.0
 11
16307.2
 21
-0.0000000000000909
 31
0.0
  0
LINE
  5
10B5D
330
747D
100
AcDbEntity
  8
仕様書枠
 48
50.0
100
AcDbLine
 10
140.0
 20
0.0
 30
0.0
 11
16307.2
 21
-0.0000000000000909
 31
0.0
  0
LINE
  5
10B5E
330
747D
100
AcDbEntity
  8
補助
  6
PHANTOM
 62
   230
 48
50.0
100
AcDbLine
 10
16307.2
 20
11409.6
 30
0.0
 11
16307.2
 21
1200.0
 31
0.0
  0
LINE
  5
10B6C
330
747D
100
AcDbEntity
  8
仕様書枠
 48
50.0
100
AcDbLine
 10
13107.2
 20
1200.0
 30
0.0
 11
16307.2
 21
1200.0
 31
0.0
  0
LINE
  5
10B6D
330
747D
100
AcDbEntity
  8
補助
  6
PHANTOM
 62
   230
 48
50.0
100
AcDbLine
 10
13107.2
 20
11409.6
 30
0.0
 11
13107.2
 21
4800.0
 31
0.0
  0
LINE
  5
10B6F
330
747D
100
AcDbEntity
  8
補助
  6
PHANTOM
 62
   230
 48
50.0
100
AcDbLine
 10
13107.2
 20
4800.0
 30
0.0
 11
16307.2
 21
4800.0
 31
0.0
  0
LINE
  5
10B72
330
747D
100
AcDbEntity
  8
文字
 62
     7
 48
50.0
100
AcDbLine
 10
13187.2
 20
400.0
 30
0.0
 11
16227.2
 21
400.0
 31
0.0
  0
TEXT
  5
10B73
330
747D
100
AcDbEntity
  8
文字
 62
     7
 48
50.0
100
AcDbText
 10
13162.9790565769
 20
895.0906074299405
 30
0.0
 40
200.0
  1
外 形 図
  7
STYLE2
100
AcDbText
  0
TEXT
  5
10B74
330
747D
100
AcDbEntity
  8
文字
 62
     7
 48
50.0
100
AcDbText
 10
13201.43669998441
 20
477.2740661031255
 30
0.0
 40
160.0
  1
機種名
  7
STYLE2
100
AcDbText
  0
TEXT
  5
10B76
330
747D
100
AcDbEntity
  8
文字
 62
     7
 48
50.0
100
AcDbText
 10
13209.4053442172
 20
76.09434707649343
 30
0.0
 40
100.0
  1
○床面積 ： 2.59㎡(0.78坪) 　
  7
STYLE2
100
AcDbText
  0
TEXT
  5
10B79
330
747D
100
AcDbEntity
  8
文字
 62
     7
 48
50.0
100
AcDbText
 10
14524.131837222
 20
1031.557706291228
 30
0.0
 40
100.0
  1
NO.04      <縮尺> S=1/40
  7
STYLE2
100
AcDbText
  0
LINE
  5
10B7B
330
747D
100
AcDbEntity
  8
仕様書枠
 48
50.0
100
AcDbLine
 10
13107.2
 20
800.0
 30
0.0
 11
14251.2
 21
800.0
 31
0.0
  0
LINE
  5
10B88
330
747D
100
AcDbEntity
  8
仕様書枠
  6
Continuous
 48
50.0
100
AcDbLine
 10
14251.2
 20
1200.0
 30
0.0
 11
14251.2
 21
800.0
 31
0.0
  0
TEXT
  5
14D2F
330
747D
100
AcDbEntity
  8
文字
 62
     7
 48
50.0
100
AcDbText
 10
14644.07818602837
 20
876.4448062548634
 30
0.0
 40
100.0
  1
～一般型・多雪地型～
  7
STYLE2
100
AcDbText
  0
MTEXT
  5
175C0
330
747D
100
AcDbEntity
  8
寸法
 62
     7
 48
50.0
100
AcDbMText
 10
10055.95492918985
 20
8770.473791983794
 30
0.0
 40
96.0
 41
0.0
 71
     5
 72
     1
  1
棚 2段
  7
STYLE1
 73
     1
 44
1.0
1001
ACAD
1000
MTEXTBEGIN
1070
    73
1070
     1
1070
    44
1040
1.0
1070
    74
1070
     0
1000
MTEXTEND
  0
LINE
  5
175C1
330
747D
100
AcDbEntity
  8
部品1
 48
50.0
100
AcDbLine
 10
5672.567975072151
 20
2834.716014124862
 30
0.0
 11
5672.56797507215
 21
2734.716014124862
 31
0.0
  0
LINE
  5
175C2
330
747D
100
AcDbEntity
  8
部品1
 48
50.0
100
AcDbLine
 10
5472.56797507215
 20
2834.716014124862
 30
0.0
 11
5472.56797507215
 21
2734.716014124862
 31
0.0
  0
LINE
  5
175C7
330
747D
100
AcDbEntity
  8
部品1
 48
50.0
100
AcDbLine
 10
6334.567975072152
 20
2834.716014124861
 30
0.0
 11
6257.56797507215
 21
2834.716014124862
 31
0.0
  0
LINE
  5
175C8
330
747D
100
AcDbEntity
  8
部品1
 48
50.0
100
AcDbLine
 10
6334.567975072152
 20
4659.71601412486
 30
0.0
 11
6334.567975072152
 21
2734.716014124862
 31
0.0
  0
LINE
  5
175C9
330
747D
100
AcDbEntity
  8
部品1
 48
50.0
100
AcDbLine
 10
6257.567975072152
 20
4669.716014124861
 30
0.0
 11
6334.567975072152
 21
4659.71601412486
 31
0.0
  0
LINE
  5
175CA
330
747D
100
AcDbEntity
  8
部品1
100
AcDbLine
 10
4887.567975072147
 20
4674.716014124862
 30
0.0
 11
6257.56797507215
 21
4674.716014124862
 31
0.0
  0
LINE
  5
175CB
330
747D
100
AcDbEntity
  8
部品1
100
AcDbLine
 10
4887.567975072147
 20
2884.716014124862
 30
0.0
 11
6257.567975072152
 21
2884.716014124862
 31
0.0
  0
LINE
  5
175CC
330
747D
100
AcDbEntity
  8
部品1
100
AcDbLine
 10
4887.567975072147
 20
2834.716014124862
 30
0.0
 11
4895.067975072146
 21
2834.716014124862
 31
0.0
  0
LINE
  5
175CD
330
747D
100
AcDbEntity
  8
部品1
100
AcDbLine
 10
4942.567975072146
 20
4674.716014124862
 30
0.0
 11
4942.567975072146
 21
2884.716014124862
 31
0.0
  0
LINE
  5
175CE
330
747D
100
AcDbEntity
  8
部品1
100
AcDbLine
 10
4887.567975072152
 20
4768.716014124866
 30
0.0
 11
4887.567975072147
 21
2734.716014124862
 31
0.0
  0
LINE
  5
175CF
330
747D
100
AcDbEntity
  8
部品1
100
AcDbLine
 10
5362.567975072146
 20
4674.716014124862
 30
0.0
 11
5362.567975072146
 21
2884.716014124862
 31
0.0
  0
LINE
  5
175D0
330
747D
100
AcDbEntity
  8
部品1
100
AcDbLine
 10
6257.567975072148
 20
4768.716014124867
 30
0.0
 11
6257.56797507215
 21
2734.716014124862
 31
0.0
  0
LINE
  5
175D1
330
747D
100
AcDbEntity
  8
部品1
100
AcDbLine
 10
6202.56797507215
 20
4674.716014124862
 30
0.0
 11
6202.56797507215
 21
2884.716014124862
 31
0.0
  0
LINE
  5
175D3
330
747D
100
AcDbEntity
  8
部品1
100
AcDbLine
 10
5087.567975072147
 20
2834.716014124862
 30
0.0
 11
5087.567975072147
 21
2734.716014124862
 31
0.0
  0
LINE
  5
175D4
330
747D
100
AcDbEntity
  8
部品1
100
AcDbLine
 10
6057.56797507215
 20
2834.716014124862
 30
0.0
 11
6057.56797507215
 21
2734.716014124862
 31
0.0
  0
LINE
  5
175D8
330
747D
100
AcDbEntity
  8
破線
  6
HIDDEN
 48
5.0
100
AcDbLine
 10
6265.067975072149
 20
2579.716014124862
 30
0.0
 11
6195.067975072149
 21
2579.716014124862
 31
0.0
  0
LINE
  5
175D9
330
747D
100
AcDbEntity
  8
破線
  6
HIDDEN
 48
5.0
100
AcDbLine
 10
6210.067975072145
 20
2729.716014124863
 30
0.0
 11
6195.067975072149
 21
2582.016014124864
 31
0.0
  0
LINE
  5
175DA
330
747D
100
AcDbEntity
  8
破線
  6
HIDDEN
 48
5.0
100
AcDbLine
 10
6195.067975072149
 20
2582.016014124864
 30
0.0
 11
6195.067975072149
 21
2579.716014124862
 31
0.0
  0
LINE
  5
175DB
330
747D
100
AcDbEntity
  8
破線
  6
HIDDEN
 48
5.0
100
AcDbLine
 10
6250.067975072148
 20
2729.716014124863
 30
0.0
 11
6265.067975072149
 21
2582.016014124864
 31
0.0
  0
LINE
  5
175DC
330
747D
100
AcDbEntity
  8
破線
  6
HIDDEN
 48
5.0
100
AcDbLine
 10
6265.067975072149
 20
2582.016014124864
 30
0.0
 11
6265.067975072149
 21
2579.716014124862
 31
0.0
  0
LINE
  5
175DD
330
747D
100
AcDbEntity
  8
破線
  6
HIDDEN
 48
5.0
100
AcDbLine
 10
4880.067975072145
 20
2579.716014124862
 30
0.0
 11
4950.067975072144
 21
2579.716014124862
 31
0.0
  0
LINE
  5
175DE
330
747D
100
AcDbEntity
  8
破線
  6
HIDDEN
 48
5.0
100
AcDbLine
 10
4880.067975072145
 20
2582.016014124862
 30
0.0
 11
4880.067975072145
 21
2579.716014124862
 31
0.0
  0
LINE
  5
175DF
330
747D
100
AcDbEntity
  8
破線
  6
HIDDEN
 48
5.0
100
AcDbLine
 10
4950.067975072148
 20
2582.016014124862
 30
0.0
 11
4950.067975072144
 21
2579.716014124862
 31
0.0
  0
LINE
  5
175E0
330
747D
100
AcDbEntity
  8
破線
  6
HIDDEN
 48
5.0
100
AcDbLine
 10
4895.067975072148
 20
2729.716014124863
 30
0.0
 11
4880.067975072145
 21
2582.016014124862
 31
0.0
  0
LINE
  5
175E1
330
747D
100
AcDbEntity
  8
破線
  6
HIDDEN
 48
5.0
100
AcDbLine
 10
4935.067975072148
 20
2729.716014124863
 30
0.0
 11
4950.067975072148
 21
2582.016014124862
 31
0.0
  0
LINE
  5
175E2
330
747D
100
AcDbEntity
  8
部品1
 48
50.0
100
AcDbLine
 10
4895.067975072144
 20
2874.716014124862
 30
0.0
 11
4895.067975072148
 21
2734.716014124862
 31
0.0
  0
LINE
  5
175E3
330
747D
100
AcDbEntity
  8
部品1
 48
50.0
100
AcDbLine
 10
4935.067975072148
 20
2874.716014124862
 30
0.0
 11
4935.067975072144
 21
2734.716014124862
 31
0.0
  0
LINE
  5
175E4
330
747D
100
AcDbEntity
  8
部品1
100
AcDbLine
 10
4900.067975072144
 20
2879.716014124863
 30
0.0
 11
4930.067975072148
 21
2879.716014124863
 31
0.0
  0
ARC
  5
175E5
330
747D
100
AcDbEntity
  8
部品1
 48
50.0
100
AcDbCircle
 10
4900.067975072144
 20
2874.716014124862
 30
0.0
 40
5.0
100
AcDbArc
 50
90.0
 51
180.0
  0
ARC
  5
175E6
330
747D
100
AcDbEntity
  8
部品1
 48
50.0
100
AcDbCircle
 10
4930.067975072148
 20
2874.716014124862
 30
0.0
 40
5.0
100
AcDbArc
 50
0.0
 51
90.0
  0
LINE
  5
175E7
330
747D
100
AcDbEntity
  8
部品1
 48
50.0
100
AcDbLine
 10
6210.067975072145
 20
2874.716014124862
 30
0.0
 11
6210.067975072148
 21
2734.716014124862
 31
0.0
  0
LINE
  5
175E8
330
747D
100
AcDbEntity
  8
部品1
 48
50.0
100
AcDbLine
 10
6250.067975072148
 20
2874.716014124862
 30
0.0
 11
6250.067975072145
 21
2734.716014124862
 31
0.0
  0
LINE
  5
175E9
330
747D
100
AcDbEntity
  8
部品1
100
AcDbLine
 10
6245.067975072148
 20
2879.716014124863
 30
0.0
 11
6215.067975072145
 21
2879.716014124863
 31
0.0
  0
ARC
  5
175EA
330
747D
100
AcDbEntity
  8
部品1
 48
50.0
100
AcDbCircle
 10
6215.067975072145
 20
2874.716014124862
 30
0.0
 40
5.0
100
AcDbArc
 50
90.0
 51
180.0
  0
ARC
  5
175EB
330
747D
100
AcDbEntity
  8
部品1
 48
50.0
100
AcDbCircle
 10
6245.067975072148
 20
2874.716014124862
 30
0.0
 40
5.0
100
AcDbArc
 50
0.0
 51
90.0
  0
LINE
  5
175EC
330
747D
100
AcDbEntity
  8
破線
  6
HIDDEN
 48
5.0
100
AcDbLine
 10
6210.067975072148
 20
2734.716014124862
 30
0.0
 11
6210.067975072148
 21
2729.716014124863
 31
0.0
  0
LINE
  5
175ED
330
747D
100
AcDbEntity
  8
破線
  6
HIDDEN
 48
5.0
100
AcDbLine
 10
6250.067975072145
 20
2734.716014124862
 30
0.0
 11
6250.067975072145
 21
2729.716014124863
 31
0.0
  0
LINE
  5
175EE
330
747D
100
AcDbEntity
  8
破線
  6
HIDDEN
 48
5.0
100
AcDbLine
 10
4895.067975072151
 20
2734.716014124862
 30
0.0
 11
4895.067975072151
 21
2729.716014124863
 31
0.0
  0
LINE
  5
175EF
330
747D
100
AcDbEntity
  8
破線
  6
HIDDEN
 48
5.0
100
AcDbLine
 10
4935.067975072148
 20
2734.716014124862
 30
0.0
 11
4935.067975072148
 21
2729.716014124863
 31
0.0
  0
LINE
  5
175F0
330
747D
100
AcDbEntity
  8
部品1
100
AcDbLine
 10
6250.067975072148
 20
2834.716014124862
 30
0.0
 11
6257.56797507215
 21
2834.716014124862
 31
0.0
  0
LINE
  5
175F1
330
747D
100
AcDbEntity
  8
部品1
100
AcDbLine
 10
4935.067975072148
 20
2834.716014124862
 30
0.0
 11
6210.067975072147
 21
2834.716014124862
 31
0.0
  0
LINE
  5
175F2
330
747D
100
AcDbEntity
  8
細線
 48
50.0
100
AcDbLine
 10
5440.067975072146
 20
4674.716014124862
 30
0.0
 11
5440.067975072146
 21
2884.716014124862
 31
0.0
  0
LINE
  5
175F3
330
747D
100
AcDbEntity
  8
細線
 48
50.0
100
AcDbLine
 10
5425.067975072146
 20
4674.716014124862
 30
0.0
 11
5425.067975072146
 21
2884.716014124862
 31
0.0
  0
LINE
  5
175F4
330
747D
100
AcDbEntity
  8
細線
 48
50.0
100
AcDbLine
 10
5565.067975072146
 20
4674.716014124862
 30
0.0
 11
5565.067975072146
 21
2884.716014124862
 31
0.0
  0
LINE
  5
175F5
330
747D
100
AcDbEntity
  8
細線
 48
50.0
100
AcDbLine
 10
5580.067975072147
 20
4674.716014124862
 30
0.0
 11
5580.067975072147
 21
2884.716014124862
 31
0.0
  0
LINE
  5
175F6
330
747D
100
AcDbEntity
  8
細線
 48
50.0
100
AcDbLine
 10
5720.067975072146
 20
4674.716014124862
 30
0.0
 11
5720.067975072146
 21
2884.716014124862
 31
0.0
  0
LINE
  5
175F7
330
747D
100
AcDbEntity
  8
細線
 48
50.0
100
AcDbLine
 10
5705.067975072147
 20
4674.716014124862
 30
0.0
 11
5705.067975072147
 21
2884.716014124862
 31
0.0
  0
LINE
  5
175F8
330
747D
100
AcDbEntity
  8
細線
 48
50.0
100
AcDbLine
 10
5285.067975072147
 20
4674.716014124862
 30
0.0
 11
5285.067975072147
 21
2884.716014124862
 31
0.0
  0
LINE
  5
175F9
330
747D
100
AcDbEntity
  8
細線
 48
50.0
100
AcDbLine
 10
5300.067975072146
 20
4674.716014124862
 30
0.0
 11
5300.067975072146
 21
2884.716014124862
 31
0.0
  0
LINE
  5
175FA
330
747D
100
AcDbEntity
  8
細線
 48
50.0
100
AcDbLine
 10
5160.067975072147
 20
4674.716014124862
 30
0.0
 11
5160.067975072147
 21
2884.716014124862
 31
0.0
  0
LINE
  5
175FB
330
747D
100
AcDbEntity
  8
細線
 48
50.0
100
AcDbLine
 10
5145.067975072146
 20
4674.716014124862
 30
0.0
 11
5145.067975072146
 21
2884.716014124862
 31
0.0
  0
LINE
  5
175FC
330
747D
100
AcDbEntity
  8
細線
 48
50.0
100
AcDbLine
 10
5005.067975072146
 20
4674.716014124862
 30
0.0
 11
5005.067975072146
 21
2884.716014124862
 31
0.0
  0
LINE
  5
175FD
330
747D
100
AcDbEntity
  8
細線
 48
50.0
100
AcDbLine
 10
5020.067975072146
 20
4674.716014124862
 30
0.0
 11
5020.067975072146
 21
2884.716014124862
 31
0.0
  0
LINE
  5
1761C
330
747D
100
AcDbEntity
  8
部品1
100
AcDbLine
 10
5782.567975072146
 20
4674.716014124862
 30
0.0
 11
5782.567975072146
 21
2884.716014124862
 31
0.0
  0
LINE
  5
1761D
330
747D
100
AcDbEntity
  8
細線
 48
50.0
100
AcDbLine
 10
6125.06797507215
 20
4674.716014124862
 30
0.0
 11
6125.06797507215
 21
2884.716014124862
 31
0.0
  0
LINE
  5
1761E
330
747D
100
AcDbEntity
  8
細線
 48
50.0
100
AcDbLine
 10
6140.06797507215
 20
4674.716014124862
 30
0.0
 11
6140.06797507215
 21
2884.716014124862
 31
0.0
  0
LINE
  5
1761F
330
747D
100
AcDbEntity
  8
細線
 48
50.0
100
AcDbLine
 10
6000.06797507215
 20
4674.716014124862
 30
0.0
 11
6000.06797507215
 21
2884.716014124862
 31
0.0
  0
LINE
  5
17620
330
747D
100
AcDbEntity
  8
細線
 48
50.0
100
AcDbLine
 10
5985.06797507215
 20
4674.716014124862
 30
0.0
 11
5985.06797507215
 21
2884.716014124862
 31
0.0
  0
LINE
  5
17621
330
747D
100
AcDbEntity
  8
細線
 48
50.0
100
AcDbLine
 10
5845.067975072151
 20
4674.716014124862
 30
0.0
 11
5845.067975072151
 21
2884.716014124862
 31
0.0
  0
LINE
  5
17622
330
747D
100
AcDbEntity
  8
細線
 48
50.0
100
AcDbLine
 10
5860.06797507215
 20
4674.716014124862
 30
0.0
 11
5860.06797507215
 21
2884.716014124862
 31
0.0
  0
DIMENSION
  5
17624
330
747D
100
AcDbEntity
  8
寸法
 48
50.0
100
AcDbDimension
  2
*D2
 10
4665.567971825513
 20
2734.716014124862
 30
0.0
 11
4665.567971825512
 21
2634.716014124862
 31
0.0
 70
   160
 71
     5
 42
200.0000000000018
  3
INABA_S40G
100
AcDbAlignedDimension
 13
4815.06797507215
 23
2534.716014124861
 33
0.0
 14
4790.067975072148
 24
2734.716014124862
 34
0.0
 50
90.0
100
AcDbRotatedDimension
1001
ACAD
1000
DSTYLE
1002
{
1070
   174
1070
     0
1070
   272
1070
     1
1070
   288
1070
     0
1070
   341
1005
0
1002
}
  0
LINE
  5
17625
330
747D
100
AcDbEntity
  8
破線
 48
5.0
100
AcDbLine
 10
5015.067975072146
 20
2534.716014124861
 30
0.0
 11
4815.06797507215
 21
2534.716014124861
 31
0.0
  0
LINE
  5
17626
330
747D
100
AcDbEntity
  8
破線
 48
5.0
100
AcDbLine
 10
5015.067975072149
 20
2734.716014124862
 30
0.0
 11
5015.067975072146
 21
2534.716014124861
 31
0.0
  0
LINE
  5
17627
330
747D
100
AcDbEntity
  8
破線
 48
5.0
100
AcDbLine
 10
4815.067975072149
 20
2734.716014124862
 30
0.0
 11
4815.06797507215
 21
2534.716014124861
 31
0.0
  0
DIMENSION
  5
17628
330
747D
100
AcDbEntity
  8
寸法
 48
50.0
100
AcDbDimension
  2
*D3
 10
4815.06797507215
 20
2248.668684824485
 30
0.0
 11
4915.067975072148
 21
2248.668684824485
 31
0.0
 70
   160
 71
     5
 42
199.9999999999963
  3
INABA_S40G
100
AcDbAlignedDimension
 13
5015.067975072146
 23
2534.716014124861
 33
0.0
 14
4815.06797507215
 24
2534.716014124861
 34
0.0
100
AcDbRotatedDimension
  0
LINE
  5
17629
330
747D
100
AcDbEntity
  8
破線
 48
5.0
100
AcDbLine
 10
6330.067975072152
 20
2734.716014124862
 30
0.0
 11
6330.06797507215
 21
2534.716014124861
 31
0.0
  0
LINE
  5
1762A
330
747D
100
AcDbEntity
  8
破線
 48
5.0
100
AcDbLine
 10
6330.06797507215
 20
2534.716014124861
 30
0.0
 11
6130.067975072154
 21
2534.716014124861
 31
0.0
  0
LINE
  5
1762B
330
747D
100
AcDbEntity
  8
破線
 48
5.0
100
AcDbLine
 10
6130.067975072152
 20
2734.716014124862
 30
0.0
 11
6130.067975072154
 21
2534.716014124861
 31
0.0
  0
LINE
  5
1762C
330
747D
100
AcDbEntity
  8
細線
100
AcDbLine
 10
10040.8524274156
 20
4617.716014124844
 30
0.0
 11
10040.8524274156
 21
2892.216014124862
 31
0.0
  0
LINE
  5
1762D
330
747D
100
AcDbEntity
  8
細線
100
AcDbLine
 10
9970.852427415605
 20
4617.716014124844
 30
0.0
 11
9970.852427415605
 21
2892.216014124862
 31
0.0
  0
LINE
  5
1762E
330
747D
100
AcDbEntity
  8
細線
100
AcDbLine
 10
10110.85239209671
 20
4617.716014124844
 30
0.0
 11
10110.85239209671
 21
2892.216014124862
 31
0.0
  0
LINE
  5
1762F
330
747D
100
AcDbEntity
  8
細線
100
AcDbLine
 10
9452.852392096708
 20
4617.716014124854
 30
0.0
 11
9452.852392096712
 21
2892.216014124869
 31
0.0
  0
LINE
  5
17630
330
747D
100
AcDbEntity
  8
細線
100
AcDbLine
 10
9522.852392096709
 20
4617.716014124854
 30
0.0
 11
9522.85239209671
 21
2892.216014124869
 31
0.0
  0
LINE
  5
17631
330
747D
100
AcDbEntity
  8
細線
100
AcDbLine
 10
9073.852383911292
 20
4617.716014124854
 30
0.0
 11
9073.852383911292
 21
2884.716014124859
 31
0.0
  0
LINE
  5
17632
330
747D
100
AcDbEntity
  8
細線
100
AcDbLine
 10
10180.85239209671
 20
4617.716014124844
 30
0.0
 11
10180.85239209671
 21
2892.216014124862
 31
0.0
  0
LINE
  5
17633
330
747D
100
AcDbEntity
  8
細線
100
AcDbLine
 10
10250.85239209671
 20
4617.716014124844
 30
0.0
 11
10250.85239209671
 21
2892.216014124862
 31
0.0
  0
LINE
  5
17634
330
747D
100
AcDbEntity
  8
細線
100
AcDbLine
 10
10320.85239209671
 20
4617.716014124844
 30
0.0
 11
10320.85239209671
 21
2892.216014124862
 31
0.0
  0
LINE
  5
17635
330
747D
100
AcDbEntity
  8
細線
100
AcDbLine
 10
9592.852392096709
 20
4617.716014124854
 30
0.0
 11
9592.852392096711
 21
2892.216014124869
 31
0.0
  0
LINE
  5
17636
330
747D
100
AcDbEntity
  8
細線
100
AcDbLine
 10
9662.852392096709
 20
4617.716014124854
 30
0.0
 11
9662.852392096711
 21
2892.216014124869
 31
0.0
  0
LINE
  5
17637
330
747D
100
AcDbEntity
  8
細線
100
AcDbLine
 10
9732.85239209671
 20
4617.716014124854
 30
0.0
 11
9732.852392096711
 21
2892.216014124869
 31
0.0
  0
LINE
  5
17638
330
747D
100
AcDbEntity
  8
細線
100
AcDbLine
 10
9802.85239209671
 20
4617.716014124854
 30
0.0
 11
9802.852392096712
 21
2892.216014124869
 31
0.0
  0
LINE
  5
17639
330
747D
100
AcDbEntity
  8
細線
100
AcDbLine
 10
8891.85239209671
 20
4617.716014124854
 30
0.0
 11
8891.85239209671
 21
2884.716014124862
 31
0.0
  0
LINE
  5
1763A
330
747D
100
AcDbEntity
  8
細線
100
AcDbLine
 10
8925.852392096711
 20
4617.716014124854
 30
0.0
 11
8925.852392096711
 21
2884.716014124862
 31
0.0
  0
LINE
  5
1763B
330
747D
100
AcDbEntity
  8
部品1
100
AcDbLine
 10
8883.852392096711
 20
4617.716014124854
 30
0.0
 11
8883.852392096711
 21
2884.716014124862
 31
0.0
  0
LINE
  5
1763C
330
747D
100
AcDbEntity
  8
部品1
100
AcDbLine
 10
8933.85239209671
 20
4617.716014124854
 30
0.0
 11
8933.85239209671
 21
2884.716014124862
 31
0.0
  0
LINE
  5
1763D
330
747D
100
AcDbEntity
  8
細線
100
AcDbLine
 10
9143.852383911292
 20
4617.716014124854
 30
0.0
 11
9143.852383911292
 21
2884.716014124859
 31
0.0
  0
LINE
  5
1763E
330
747D
100
AcDbEntity
  8
細線
100
AcDbLine
 10
9213.852383911293
 20
4617.716014124854
 30
0.0
 11
9213.852383911293
 21
2884.716014124859
 31
0.0
  0
LINE
  5
1763F
330
747D
100
AcDbEntity
  8
細線
100
AcDbLine
 10
9283.852383911293
 20
4617.716014124854
 30
0.0
 11
9283.852383911293
 21
2884.716014124859
 31
0.0
  0
LINE
  5
17640
330
747D
100
AcDbEntity
  8
部品1
 48
50.0
100
AcDbLine
 10
9894.352392096713
 20
4617.716014124862
 30
0.0
 11
9894.352392096713
 21
2892.216014124862
 31
0.0
  0
LINE
  5
17641
330
747D
100
AcDbEntity
  8
部品1
 48
50.0
100
AcDbLine
 10
9402.352392096716
 20
4617.716014124862
 30
0.0
 11
9402.352392096712
 21
2884.716014124862
 31
0.0
  0
LINE
  5
17642
330
747D
100
AcDbEntity
  8
部品1
 48
50.0
100
AcDbLine
 10
8733.852392096707
 20
4669.716014124862
 30
0.0
 11
8733.852392096707
 21
2834.716014124862
 31
0.0
  0
LINE
  5
17643
330
747D
100
AcDbEntity
  8
細線
 48
50.0
100
AcDbLine
 10
8763.852392096712
 20
4627.216014124862
 30
0.0
 11
8763.852392096707
 21
2834.716014124862
 31
0.0
  0
LINE
  5
17644
330
747D
100
AcDbEntity
  8
部品1
 48
50.0
100
AcDbLine
 10
8763.852392096708
 20
2884.716014124862
 30
0.0
 11
8763.852392096712
 21
4617.716014124862
 31
0.0
  0
LINE
  5
17645
330
747D
100
AcDbEntity
  8
部品1
 48
50.0
100
AcDbLine
 10
10428.85239209671
 20
2881.716014124863
 30
0.0
 11
10428.85239209671
 21
4617.716014124862
 31
0.0
  0
LINE
  5
17646
330
747D
100
AcDbEntity
  8
細線
 48
50.0
100
AcDbLine
 10
10437.85239209671
 20
2834.716014124862
 30
0.0
 11
10437.85239209671
 21
4627.216014124862
 31
0.0
  0
LINE
  5
17647
330
747D
100
AcDbEntity
  8
部品1
 48
50.0
100
AcDbLine
 10
10467.85239209671
 20
2834.716014124862
 30
0.0
 11
10467.85239209671
 21
4669.716014124862
 31
0.0
  0
LINE
  5
17648
330
747D
100
AcDbEntity
  8
細線
 48
50.0
100
AcDbLine
 10
9402.352392096712
 20
2892.216014124862
 30
0.0
 11
10411.85239209671
 21
2892.216014124862
 31
0.0
  0
LINE
  5
17649
330
747D
100
AcDbEntity
  8
細線
 48
50.0
100
AcDbLine
 10
8763.852392096708
 20
2881.716014124863
 30
0.0
 11
10437.85239209671
 21
2881.716014124863
 31
0.0
  0
LINE
  5
1764A
330
747D
100
AcDbEntity
  8
細線
 48
50.0
100
AcDbLine
 10
8763.852392096708
 20
2877.716014124862
 30
0.0
 11
10437.85239209671
 21
2877.716014124862
 31
0.0
  0
LINE
  5
1764B
330
747D
100
AcDbEntity
  8
部品1
 48
50.0
100
AcDbLine
 10
8733.852392096707
 20
2834.716014124862
 30
0.0
 11
10467.85239209671
 21
2834.716014124862
 31
0.0
  0
LINE
  5
1764C
330
747D
100
AcDbEntity
  8
部品1
 48
50.0
100
AcDbLine
 10
8763.852392096708
 20
2884.716014124862
 30
0.0
 11
9402.352392096712
 21
2884.716014124862
 31
0.0
  0
LINE
  5
1764D
330
747D
100
AcDbEntity
  8
部品1
 48
50.0
100
AcDbLine
 10
8772.852392096709
 20
2884.716014124862
 30
0.0
 11
8772.852392096709
 21
2881.716014124863
 31
0.0
  0
LINE
  5
1764E
330
747D
100
AcDbEntity
  8
細線
 48
50.0
100
AcDbLine
 10
10415.85239209671
 20
2881.716014124863
 30
0.0
 11
10411.85239209671
 21
2892.216014124862
 31
0.0
  0
LINE
  5
1764F
330
747D
100
AcDbEntity
  8
部品1
 48
50.0
100
AcDbLine
 10
10467.85239209671
 20
4669.716014124862
 30
0.0
 11
8733.852392096707
 21
4669.716014124862
 31
0.0
  0
LINE
  5
17650
330
747D
100
AcDbEntity
  8
細線
 48
50.0
100
AcDbLine
 10
10467.85239209671
 20
4659.716014124862
 30
0.0
 11
8733.852392096707
 21
4659.716014124862
 31
0.0
  0
LINE
  5
17651
330
747D
100
AcDbEntity
  8
細線
 48
50.0
100
AcDbLine
 10
10437.85239209671
 20
4617.716014124862
 30
0.0
 11
8763.852392096708
 21
4617.716014124862
 31
0.0
  0
LINE
  5
17652
330
747D
100
AcDbEntity
  8
細線
 48
50.0
100
AcDbLine
 10
10437.85239209671
 20
4627.216014124862
 30
0.0
 11
8763.852392096708
 21
4627.216014124862
 31
0.0
  0
LINE
  5
17653
330
747D
100
AcDbEntity
  8
部品1
 48
50.0
100
AcDbLine
 10
8763.852392096708
 20
4625.716014124862
 30
0.0
 11
8733.852392096707
 21
4625.716014124862
 31
0.0
  0
LINE
  5
17654
330
747D
100
AcDbEntity
  8
部品1
 48
50.0
100
AcDbLine
 10
10467.85239209671
 20
4625.716014124862
 30
0.0
 11
10437.85239209671
 21
4625.716014124862
 31
0.0
  0
LINE
  5
17658
330
747D
100
AcDbEntity
  8
部品1
 48
50.0
100
AcDbLine
 10
8807.852392096707
 20
3816.216014124863
 30
0.0
 11
8860.852392096708
 21
3816.216014124863
 31
0.0
  0
DIMENSION
  5
1773C
330
747D
100
AcDbEntity
  8
寸法
 48
50.0
100
AcDbDimension
  2
*D4
 10
8434.646362884574
 20
2892.716014124863
 30
0.0
 11
8434.646362884574
 21
3746.349033142388
 31
0.0
 70
   160
  1
有効開口部高サ<>
 71
     5
 42
1725.0
  3
INABA_S40G
100
AcDbAlignedDimension
 13
8733.852392096727
 23
4617.716014124862
 33
0.0
 14
8733.852392096727
 24
2892.716014124863
 34
0.0
 50
90.0
100
AcDbRotatedDimension
1001
ACAD
1000
DSTYLE
1002
{
1070
   341
1005
0
1002
}
  0
MTEXT
  5
1779B
330
747D
100
AcDbEntity
  8
寸法
 62
     7
 48
50.0
100
AcDbMText
 10
9175.954929189854
 20
8770.473791983748
 30
0.0
 40
96.0
 41
0.0
 71
     5
 72
     1
  1
棚 2段
  7
STYLE1
 73
     1
 44
1.0
1001
ACAD
1000
MTEXTBEGIN
1070
    73
1070
     1
1070
    44
1040
1.0
1070
    74
1070
     0
1000
MTEXTEND
  0
TEXT
  5
1779D
330
747D
100
AcDbEntity
  8
文字
 62
     7
 48
50.0
100
AcDbText
 10
14491.96323844892
 20
483.8967129911416
 30
0.0
 40
160.0
  1
ＮＸＮ－２５ＳＢ
  7
STYLE2
100
AcDbText
  0
TEXT
  5
1779E
330
747D
100
AcDbEntity
  8
文字
 62
     7
 48
50.0
100
AcDbText
 10
13583.11819016569
 20
8550.013745883731
 30
0.0
 40
100.0
  1
棚板
  7
STYLE1
100
AcDbText
  0
TEXT
  5
1779F
330
747D
100
AcDbEntity
  8
文字
 62
     7
 48
50.0
100
AcDbText
 10
15022.63965474516
 20
8550.013745883727
 30
0.0
 40
100.0
  1
F12            0.6
  7
STYLE1
100
AcDbText
  0
TEXT
  5
177A0
330
747D
100
AcDbEntity
  8
文字
 62
     7
 48
50.0
100
AcDbText
 10
15022.63965474515
 20
9740.013745883723
 30
0.0
 40
100.0
  1
F12            1.0
  7
STYLE1
100
AcDbText
  0
TEXT
  5
177A1
330
747D
100
AcDbEntity
  8
文字
 62
     7
 48
50.0
100
AcDbText
 10
13583.11819016569
 20
9740.013745883729
 30
0.0
 40
100.0
  1
母屋中
  7
STYLE1
100
AcDbText
  0
TEXT
  5
177A2
330
747D
100
AcDbEntity
  8
文字
 62
     7
 48
50.0
100
AcDbText
 10
13248.77747366447
 20
8720.013745883729
 30
0.0
 40
100.0
  1
15
  7
STYLE1
100
AcDbText
  0
LINE
  5
177A3
330
747D
100
AcDbEntity
  8
仕様書枠
 48
50.0
100
AcDbLine
 10
16307.19999999999
 20
8009.600000000004
 30
0.0
 11
13127.19999999999
 21
8009.600000000006
 31
0.0
  0
TEXT
  5
177A4
330
747D
100
AcDbEntity
  8
文字
 62
     7
 48
50.0
100
AcDbText
 10
13583.11819016569
 20
8720.013745883731
 30
0.0
 40
100.0
  1
扉
  7
STYLE1
100
AcDbText
  0
TEXT
  5
177A5
330
747D
100
AcDbEntity
  8
文字
 62
     7
 48
50.0
100
AcDbText
 10
15022.63965474516
 20
8720.013745883727
 30
0.0
 40
100.0
  1
F12            0.8
  7
STYLE1
100
AcDbText
  0
TEXT
  5
177A6
330
747D
100
AcDbEntity
  8
文字
 62
     7
 48
50.0
100
AcDbText
 10
13583.11819016568
 20
8890.013745883731
 30
0.0
 40
100.0
  1
正面パネル
  7
STYLE1
100
AcDbText
  0
TEXT
  5
177A7
330
747D
100
AcDbEntity
  8
文字
 62
     7
 48
50.0
100
AcDbText
 10
15022.63965474515
 20
8890.013745883727
 30
0.0
 40
100.0
  1
F12            0.7
  7
STYLE1
100
AcDbText
  0
TEXT
  5
177A8
330
747D
100
AcDbEntity
  8
文字
 62
     7
 48
50.0
100
AcDbText
 10
15022.63965474517
 20
10590.01374588372
 30
0.0
 40
100.0
  1
F12            1.0
  7
STYLE1
100
AcDbText
  0
TEXT
  5
177A9
330
747D
100
AcDbEntity
  8
文字
 62
     7
 48
50.0
100
AcDbText
 10
15022.63965474516
 20
10930.01374588372
 30
0.0
 40
100.0
  1
F12            1.2
  7
STYLE1
100
AcDbText
  0
TEXT
  5
177AA
330
747D
100
AcDbEntity
  8
文字
 62
     7
 48
50.0
100
AcDbText
 10
13248.77747366448
 20
8890.013745883727
 30
0.0
 40
100.0
  1
14
  7
STYLE1
100
AcDbText
  0
TEXT
  5
177AB
330
747D
100
AcDbEntity
  8
文字
 62
     7
 48
50.0
100
AcDbText
 10
13583.11819016569
 20
10930.01374588372
 30
0.0
 40
100.0
  1
根太
  7
STYLE1
100
AcDbText
  0
TEXT
  5
177AC
330
747D
100
AcDbEntity
  8
文字
 62
     7
 48
50.0
100
AcDbText
 10
13583.1181901657
 20
10590.01374588372
 30
0.0
 40
100.0
  1
床パネル
 41
0.9
  7
STYLE1
100
AcDbText
  0
LINE
  5
177AD
330
747D
100
AcDbEntity
  8
仕様書枠
 48
50.0
100
AcDbLine
 10
16307.19999999999
 20
9029.6
 30
0.0
 11
13127.2
 21
9029.600000000002
 31
0.0
  0
LINE
  5
177AE
330
747D
100
AcDbEntity
  8
仕様書枠
 48
50.0
100
AcDbLine
 10
13127.2
 20
11409.6
 30
0.0
 11
13127.19999999999
 21
8009.600000000006
 31
0.0
  0
TEXT
  5
177AF
330
747D
100
AcDbEntity
  8
文字
 62
     7
 48
50.0
100
AcDbText
 10
13229.83081656554
 20
8040.013745883731
 30
0.0
 40
100.0
  1
Y10→溶融亜鉛-5％アルミニウム合金めっき鋼板(JIS G 3317)
 41
0.9
  7
STYLE1
100
AcDbText
  0
TEXT
  5
177B0
330
747D
100
AcDbEntity
  8
文字
 62
     7
 48
50.0
100
AcDbText
 10
13229.83081656554
 20
8210.013745883733
 30
0.0
 40
100.0
  1
F12→溶融亜鉛めっき鋼板(JIS G 3302)
  7
STYLE1
100
AcDbText
  0
LINE
  5
177B1
330
747D
100
AcDbEntity
  8
仕様書枠
 48
50.0
100
AcDbLine
 10
16307.19999999999
 20
8179.600000000004
 30
0.0
 11
13127.19999999999
 21
8179.600000000005
 31
0.0
  0
LINE
  5
177B2
330
747D
100
AcDbEntity
  8
仕様書枠
 48
50.0
100
AcDbLine
 10
16307.19999999999
 20
8349.600000000004
 30
0.0
 11
13127.19999999999
 21
8349.600000000007
 31
0.0
  0
TEXT
  5
177B3
330
747D
100
AcDbEntity
  8
文字
 62
     7
 48
50.0
100
AcDbText
 10
15022.63965474515
 20
9570.013745883725
 30
0.0
 40
100.0
  1
F12            0.6
  7
STYLE1
100
AcDbText
  0
TEXT
  5
177B4
330
747D
100
AcDbEntity
  8
文字
 62
     7
 48
50.0
100
AcDbText
 10
15022.63965474517
 20
9910.013745883725
 30
0.0
 40
100.0
  1
Y10            0.5
  7
STYLE1
100
AcDbText
  0
TEXT
  5
177B5
330
747D
100
AcDbEntity
  8
文字
 62
     7
 48
50.0
100
AcDbText
 10
15022.63965474516
 20
10080.01374588372
 30
0.0
 40
100.0
  1
Y10            0.7
  7
STYLE1
100
AcDbText
  0
TEXT
  5
177B6
330
747D
100
AcDbEntity
  8
文字
 62
     7
 48
50.0
100
AcDbText
 10
15022.63965474516
 20
10250.01374588372
 30
0.0
 40
100.0
  1
Y10            0.7
  7
STYLE1
100
AcDbText
  0
TEXT
  5
177B7
330
747D
100
AcDbEntity
  8
文字
 62
     7
 48
50.0
100
AcDbText
 10
15022.63965474516
 20
10420.01374588372
 30
0.0
 40
100.0
  1
Y10            1.0
  7
STYLE1
100
AcDbText
  0
TEXT
  5
177B8
330
747D
100
AcDbEntity
  8
文字
 62
     7
 48
50.0
100
AcDbText
 10
15022.63965474518
 20
10760.01374588372
 30
0.0
 40
100.0
  1
F12            1.0
  7
STYLE1
100
AcDbText
  0
TEXT
  5
177B9
330
747D
100
AcDbEntity
  8
文字
 62
     7
 48
50.0
100
AcDbText
 10
15022.63965474517
 20
11100.01374588372
 30
0.0
 40
100.0
  1
F12            1.2
  7
STYLE1
100
AcDbText
  0
TEXT
  5
177BA
330
747D
100
AcDbEntity
  8
文字
 62
     7
 48
50.0
100
AcDbText
 10
13248.77747366448
 20
9230.013745883727
 30
0.0
 40
100.0
  1
12
  7
STYLE1
100
AcDbText
  0
TEXT
  5
177BB
330
747D
100
AcDbEntity
  8
文字
 62
     7
 48
50.0
100
AcDbText
 10
13248.77747366448
 20
9060.013745883727
 30
0.0
 40
100.0
  1
13
  7
STYLE1
100
AcDbText
  0
LINE
  5
177BC
330
747D
100
AcDbEntity
  8
仕様書枠
 48
50.0
100
AcDbLine
 10
16307.19999999999
 20
8859.6
 30
0.0
 11
13127.2
 21
8859.600000000002
 31
0.0
  0
LINE
  5
177BD
330
747D
100
AcDbEntity
  8
仕様書枠
 48
50.0
100
AcDbLine
 10
16307.19999999999
 20
9199.599999999998
 30
0.0
 11
13127.2
 21
9199.600000000001
 31
0.0
  0
TEXT
  5
177BE
330
747D
100
AcDbEntity
  8
文字
 62
     7
 48
50.0
100
AcDbText
 10
13248.77747366447
 20
9400.013745883727
 30
0.0
 40
100.0
  1
11
  7
STYLE1
100
AcDbText
  0
LINE
  5
177BF
330
747D
100
AcDbEntity
  8
仕様書枠
 48
50.0
100
AcDbLine
 10
16307.2
 20
9879.599999999999
 30
0.0
 11
13127.2
 21
9879.600000000001
 31
0.0
  0
LINE
  5
177C0
330
747D
100
AcDbEntity
  8
仕様書枠
 48
50.0
100
AcDbLine
 10
16307.2
 20
10219.6
 30
0.0
 11
13127.2
 21
10219.6
 31
0.0
  0
LINE
  5
177C1
330
747D
100
AcDbEntity
  8
仕様書枠
 48
50.0
100
AcDbLine
 10
16307.19999999999
 20
9539.599999999998
 30
0.0
 11
13127.2
 21
9539.6
 31
0.0
  0
LINE
  5
177C2
330
747D
100
AcDbEntity
  8
仕様書枠
 48
50.0
100
AcDbLine
 10
16307.19999999999
 20
9369.599999999998
 30
0.0
 11
13127.2
 21
9369.600000000001
 31
0.0
  0
LINE
  5
177C3
330
747D
100
AcDbEntity
  8
仕様書枠
 48
50.0
100
AcDbLine
 10
16307.19999999999
 20
9709.6
 30
0.0
 11
13127.2
 21
9709.600000000001
 31
0.0
  0
TEXT
  5
177C4
330
747D
100
AcDbEntity
  8
文字
 62
     7
 48
50.0
100
AcDbText
 10
13271.19032244792
 20
10250.01374588373
 30
0.0
 40
100.0
  1
6
  7
STYLE1
100
AcDbText
  0
TEXT
  5
177C5
330
747D
100
AcDbEntity
  8
文字
 62
     7
 48
50.0
100
AcDbText
 10
13271.19032244792
 20
10080.01374588373
 30
0.0
 40
100.0
  1
7
  7
STYLE1
100
AcDbText
  0
TEXT
  5
177C6
330
747D
100
AcDbEntity
  8
文字
 62
     7
 48
50.0
100
AcDbText
 10
13271.19032244792
 20
9740.013745883729
 30
0.0
 40
100.0
  1
9
  7
STYLE1
100
AcDbText
  0
TEXT
  5
177C7
330
747D
100
AcDbEntity
  8
文字
 62
     7
 48
50.0
100
AcDbText
 10
13271.19032244792
 20
9910.01374588373
 30
0.0
 40
100.0
  1
8
  7
STYLE1
100
AcDbText
  0
TEXT
  5
177C8
330
747D
100
AcDbEntity
  8
文字
 62
     7
 48
50.0
100
AcDbText
 10
13583.11819016569
 20
10080.01374588372
 30
0.0
 40
100.0
  1
鼻隠シ前後
  7
STYLE1
100
AcDbText
  0
TEXT
  5
177C9
330
747D
100
AcDbEntity
  8
文字
 62
     7
 48
50.0
100
AcDbText
 10
13583.11819016569
 20
9910.013745883727
 30
0.0
 40
100.0
  1
屋根パネル
  7
STYLE1
100
AcDbText
  0
TEXT
  5
177CA
330
747D
100
AcDbEntity
  8
文字
 62
     7
 48
50.0
100
AcDbText
 10
13583.11819016568
 20
9570.013745883729
 30
0.0
 40
100.0
  1
壁パネル
  7
STYLE1
100
AcDbText
  0
TEXT
  5
177CB
330
747D
100
AcDbEntity
  8
文字
 62
     7
 48
50.0
100
AcDbText
 10
13248.77747366447
 20
9570.013745883727
 30
0.0
 40
100.0
  1
10
  7
STYLE1
100
AcDbText
  0
TEXT
  5
177CC
330
747D
100
AcDbEntity
  8
文字
 62
     7
 48
50.0
100
AcDbText
 10
13583.11819016569
 20
10250.01374588373
 30
0.0
 40
100.0
  1
妻板左右
  7
STYLE1
100
AcDbText
  0
TEXT
  5
177CD
330
747D
100
AcDbEntity
  8
文字
 62
     7
 48
50.0
100
AcDbText
 10
13271.19032244792
 20
10420.01374588372
 30
0.0
 40
100.0
  1
5
  7
STYLE1
100
AcDbText
  0
TEXT
  5
177CE
330
747D
100
AcDbEntity
  8
文字
 62
     7
 48
50.0
100
AcDbText
 10
13583.11819016569
 20
10420.01374588373
 30
0.0
 40
100.0
  1
桁前後
  7
STYLE1
100
AcDbText
  0
TEXT
  5
177CF
330
747D
100
AcDbEntity
  8
文字
 62
     7
 48
50.0
100
AcDbText
 10
13583.1181901657
 20
10760.01374588372
 30
0.0
 40
100.0
  1
柱
  7
STYLE1
100
AcDbText
  0
TEXT
  5
177D0
330
747D
100
AcDbEntity
  8
文字
 62
     7
 48
50.0
100
AcDbText
 10
13583.11819016569
 20
11100.01374588372
 30
0.0
 40
100.0
  1
土台枠
  7
STYLE1
100
AcDbText
  0
TEXT
  5
177D1
330
747D
100
AcDbEntity
  8
文字
 62
     7
 48
50.0
100
AcDbText
 10
14859.79774614482
 20
11270.01374588372
 30
0.0
 40
100.0
  1
材料（材質）　　単位mm
  7
STYLE1
100
AcDbText
  0
TEXT
  5
177D2
330
747D
100
AcDbEntity
  8
文字
 62
     7
 48
50.0
100
AcDbText
 10
13732.03840939434
 20
11270.01374588372
 30
0.0
 40
100.0
  1
部　　品　　名
  7
STYLE1
100
AcDbText
  0
TEXT
  5
177D3
330
747D
100
AcDbEntity
  8
文字
 62
     7
 48
50.0
100
AcDbText
 10
13271.19032244792
 20
10760.01374588373
 30
0.0
 40
100.0
  1
3
  7
STYLE1
100
AcDbText
  0
TEXT
  5
177D4
330
747D
100
AcDbEntity
  8
文字
 62
     7
 48
50.0
100
AcDbText
 10
13271.19032244792
 20
10590.01374588373
 30
0.0
 40
100.0
  1
4
  7
STYLE1
100
AcDbText
  0
TEXT
  5
177D5
330
747D
100
AcDbEntity
  8
文字
 62
     7
 48
50.0
100
AcDbText
 10
13271.19032244792
 20
10930.01374588373
 30
0.0
 40
100.0
  1
2
  7
STYLE1
100
AcDbText
  0
TEXT
  5
177D6
330
747D
100
AcDbEntity
  8
文字
 62
     7
 48
50.0
100
AcDbText
 10
13271.19032244792
 20
11100.01374588373
 30
0.0
 40
100.0
  1
1
  7
STYLE1
100
AcDbText
  0
TEXT
  5
177D7
330
747D
100
AcDbEntity
  8
文字
 62
     7
 48
50.0
100
AcDbText
 10
13197.42518560407
 20
11270.01374588372
 30
0.0
 40
100.0
  1
品番
  7
STYLE1
100
AcDbText
  0
LINE
  5
177D8
330
747D
100
AcDbEntity
  8
仕様書枠
 48
50.0
100
AcDbLine
 10
16307.19999999999
 20
10729.59999999999
 30
0.0
 11
13127.2
 21
10729.6
 31
0.0
  0
LINE
  5
177D9
330
747D
100
AcDbEntity
  8
仕様書枠
 48
50.0
100
AcDbLine
 10
16307.19999999999
 20
10389.6
 30
0.0
 11
13127.2
 21
10389.6
 31
0.0
  0
LINE
  5
177DA
330
747D
100
AcDbEntity
  8
仕様書枠
 48
50.0
100
AcDbLine
 10
16307.19999999999
 20
10559.6
 30
0.0
 11
13127.2
 21
10559.6
 31
0.0
  0
LINE
  5
177DB
330
747D
100
AcDbEntity
  8
仕様書枠
 48
50.0
100
AcDbLine
 10
16307.2
 20
11069.59999999999
 30
0.0
 11
13127.2
 21
11069.6
 31
0.0
  0
LINE
  5
177DC
330
747D
100
AcDbEntity
  8
仕様書枠
 48
50.0
100
AcDbLine
 10
16307.2
 20
10899.6
 30
0.0
 11
13127.2
 21
10899.6
 31
0.0
  0
LINE
  5
177DD
330
747D
100
AcDbEntity
  8
仕様書枠
 48
50.0
100
AcDbLine
 10
16307.2
 20
11239.59999999999
 30
0.0
 11
13127.2
 21
11239.6
 31
0.0
  0
LINE
  5
177DE
330
747D
100
AcDbEntity
  8
仕様書枠
 48
50.0
100
AcDbLine
 10
13490.2
 20
11409.59999999999
 30
0.0
 11
13490.20000000001
 21
8349.600000000007
 31
0.0
  0
LINE
  5
177DF
330
747D
100
AcDbEntity
  8
仕様書枠
 48
50.0
100
AcDbLine
 10
14785.2
 20
11409.59999999999
 30
0.0
 11
14785.2
 21
8349.600000000004
 31
0.0
  0
LINE
  5
177E0
330
747D
100
AcDbEntity
  8
仕様書枠
 48
50.0
100
AcDbLine
 10
16307.19999999999
 20
8009.600000000004
 30
0.0
 11
16307.2
 21
11409.6
 31
0.0
  0
LINE
  5
177E1
330
747D
100
AcDbEntity
  8
仕様書枠
 48
50.0
100
AcDbLine
 10
16307.2
 20
11409.59999999999
 30
0.0
 11
13127.2
 21
11409.6
 31
0.0
  0
LINE
  5
177E2
330
747D
100
AcDbEntity
  8
仕様書枠
 48
50.0
100
AcDbLine
 10
16307.2
 20
10049.6
 30
0.0
 11
13127.2
 21
10049.6
 31
0.0
  0
TEXT
  5
177E3
330
747D
100
AcDbEntity
  8
文字
 62
     7
 48
50.0
100
AcDbText
 10
15022.63965474515
 20
8380.013745883724
 30
0.0
 40
100.0
  1
F12            2.3
  7
STYLE1
100
AcDbText
  0
TEXT
  5
177E4
330
747D
100
AcDbEntity
  8
文字
 62
     7
 48
50.0
100
AcDbText
 10
13583.11819016569
 20
8380.013745883728
 30
0.0
 40
100.0
  1
アンカープレート
  7
STYLE1
100
AcDbText
  0
LINE
  5
177E5
330
747D
100
AcDbEntity
  8
仕様書枠
 48
50.0
100
AcDbLine
 10
16307.19999999999
 20
8519.600000000004
 30
0.0
 11
13127.2
 21
8519.600000000005
 31
0.0
  0
LINE
  5
177E6
330
747D
100
AcDbEntity
  8
仕様書枠
 48
50.0
100
AcDbLine
 10
16307.19999999999
 20
8689.600000000003
 30
0.0
 11
13127.2
 21
8689.600000000005
 31
0.0
  0
TEXT
  5
177E7
330
747D
100
AcDbEntity
  8
文字
 62
     7
 48
50.0
100
AcDbText
 10
13583.11819016569
 20
9400.013745883729
 30
0.0
 40
100.0
  1
壁面扉鴨居
  7
STYLE1
100
AcDbText
  0
TEXT
  5
177E8
330
747D
100
AcDbEntity
  8
文字
 62
     7
 48
50.0
100
AcDbText
 10
13583.11819016569
 20
9230.013745883733
 30
0.0
 40
100.0
  1
壁面扉敷居
  7
STYLE1
100
AcDbText
  0
TEXT
  5
177E9
330
747D
100
AcDbEntity
  8
文字
 62
     7
 48
50.0
100
AcDbText
 10
15022.63965474515
 20
9400.013745883727
 30
0.0
 40
100.0
  1
F12            0.7
  7
STYLE1
100
AcDbText
  0
TEXT
  5
177EA
330
747D
100
AcDbEntity
  8
文字
 62
     7
 48
50.0
100
AcDbText
 10
15022.63965474517
 20
9230.013745883725
 30
0.0
 40
100.0
  1
F12            1.0
  7
STYLE1
100
AcDbText
  0
TEXT
  5
177EB
330
747D
100
AcDbEntity
  8
文字
 62
     7
 48
50.0
100
AcDbText
 10
13583.11819016569
 20
9060.013745883733
 30
0.0
 40
100.0
  1
壁面扉枠左右
  7
STYLE1
100
AcDbText
  0
TEXT
  5
177EC
330
747D
100
AcDbEntity
  8
文字
 62
     7
 48
50.0
100
AcDbText
 10
15022.63965474517
 20
9060.013745883725
 30
0.0
 40
100.0
  1
F12            1.0
  7
STYLE1
100
AcDbText
  0
TEXT
  5
177ED
330
747D
100
AcDbEntity
  8
文字
 62
     7
 48
50.0
100
AcDbText
 10
13248.77747366447
 20
8550.013745883729
 30
0.0
 40
100.0
  1
16
  7
STYLE1
100
AcDbText
  0
TEXT
  5
177EE
330
747D
100
AcDbEntity
  8
文字
 62
     7
 48
50.0
100
AcDbText
 10
13248.77747366447
 20
8380.013745883728
 30
0.0
 40
100.0
  1
17
  7
STYLE1
100
AcDbText
  0
LINE
  5
177EF
330
747D
100
AcDbEntity
  8
部品1
100
AcDbLine
 10
5964.303308186367
 20
1855.400471149904
 30
0.0
 11
5200.832641957928
 21
1855.400471149904
 31
0.0
  0
LINE
  5
177F0
330
747D
100
AcDbEntity
  8
部品1
100
AcDbLine
 10
5964.303308186367
 20
1615.508149604371
 30
0.0
 11
5964.303308186367
 21
1855.400471149904
 31
0.0
  0
LINE
  5
177F1
330
747D
100
AcDbEntity
  8
部品1
100
AcDbLine
 10
5200.832641957928
 20
1615.508149604371
 30
0.0
 11
5964.303308186367
 21
1615.508149604371
 31
0.0
  0
LINE
  5
177F2
330
747D
100
AcDbEntity
  8
部品1
100
AcDbLine
 10
5200.832641957928
 20
1855.400471149904
 30
0.0
 11
5200.832641957928
 21
1615.508149604371
 31
0.0
  0
LINE
  5
177F3
330
747D
100
AcDbEntity
  8
部品1
100
AcDbLine
 10
9982.587725210928
 20
1855.400471149904
 30
0.0
 11
9219.117058982488
 21
1855.400471149904
 31
0.0
  0
LINE
  5
177F4
330
747D
100
AcDbEntity
  8
部品1
100
AcDbLine
 10
9982.587725210928
 20
1615.508149604371
 30
0.0
 11
9982.587725210928
 21
1855.400471149904
 31
0.0
  0
LINE
  5
177F5
330
747D
100
AcDbEntity
  8
部品1
100
AcDbLine
 10
9219.117058982488
 20
1615.508149604371
 30
0.0
 11
9982.587725210928
 21
1615.508149604371
 31
0.0
  0
LINE
  5
177F6
330
747D
100
AcDbEntity
  8
部品1
100
AcDbLine
 10
9219.117058982488
 20
1855.400471149904
 30
0.0
 11
9219.117058982488
 21
1615.508149604371
 31
0.0
  0
LINE
  5
177FB
330
747D
100
AcDbEntity
  8
部品1
100
AcDbLine
 10
10467.85239209671
 20
2884.716014124883
 30
0.0
 11
10495.85239209671
 21
2884.716014124883
 31
0.0
  0
LINE
  5
177FC
330
747D
100
AcDbEntity
  8
部品1
 48
50.0
100
AcDbLine
 10
8733.852392096709
 20
2834.716014124861
 30
0.0
 11
10467.85239209671
 21
2834.716014124861
 31
0.0
  0
LINE
  5
177FD
330
747D
100
AcDbEntity
  8
部品1
 48
50.0
100
AcDbLine
 10
10440.85239209668
 20
7814.238973786472
 30
0.0
 11
10440.85239209668
 21
7842.238973786469
 31
0.0
  0
LINE
  5
177FE
330
747D
100
AcDbEntity
  8
部品1
 48
50.0
100
AcDbLine
 10
8760.85239209668
 20
7814.238973786318
 30
0.0
 11
8760.852392096683
 21
7842.238973786315
 31
0.0
  0
LINE
  5
177FF
330
747D
100
AcDbEntity
  8
部品1
100
AcDbLine
 10
8760.852392096706
 20
4674.716014124856
 30
0.0
 11
8760.852392096706
 21
4669.716014124862
 31
0.0
  0
LINE
  5
17800
330
747D
100
AcDbEntity
  8
部品1
100
AcDbLine
 10
10440.85239209671
 20
4674.716014124862
 30
0.0
 11
10440.85239209671
 21
4669.716014124862
 31
0.0
  0
LINE
  5
17801
330
747D
100
AcDbEntity
  8
部品1
 48
50.0
100
AcDbLine
 10
10440.85239209672
 20
7814.238973786472
 30
0.0
 11
10495.85239209669
 21
7814.238973786476
 31
0.0
  0
LINE
  5
17802
330
747D
100
AcDbEntity
  8
部品1
 48
50.0
100
AcDbLine
 10
8733.852392096688
 20
7842.238973786312
 30
0.0
 11
10467.85239209669
 21
7842.238973786471
 31
0.0
  0
LINE
  5
17803
330
747D
100
AcDbEntity
  8
部品1
 48
50.0
100
AcDbLine
 10
8705.852392096709
 20
7814.238973786313
 30
0.0
 11
8760.85239209668
 21
7814.238973786318
 31
0.0
  0
LINE
  5
17804
330
747D
100
AcDbEntity
  8
部品1
100
AcDbLine
 10
8733.852392096684
 20
7869.238973786344
 30
0.0
 11
8705.852392096684
 21
7869.238973786344
 31
0.0
  0
LINE
  5
17805
330
747D
100
AcDbEntity
  8
部品1
100
AcDbLine
 10
10467.85239209671
 20
7869.238973786216
 30
0.0
 11
10495.85239209671
 21
7869.238973786216
 31
0.0
  0
LINE
  5
17807
330
747D
100
AcDbEntity
  8
部品1
 48
50.0
100
AcDbLine
 10
8762.352392096701
 20
7870.73897378647
 30
0.0
 11
8733.852392096704
 21
7842.238973786471
 31
0.0
  0
LINE
  5
17808
330
747D
100
AcDbEntity
  8
破線
 48
10.0
100
AcDbLine
 10
8785.852392096691
 20
8704.238973786489
 30
0.0
 11
8785.852392096705
 21
7894.238973786376
 31
0.0
  0
LINE
  5
17809
330
747D
100
AcDbEntity
  8
部品1
100
AcDbLine
 10
8762.352392096692
 20
8704.238973786486
 30
0.0
 11
8762.352392096707
 21
7870.738973786474
 31
0.0
  0
LINE
  5
1780A
330
747D
100
AcDbEntity
  8
部品1
 48
50.0
100
AcDbLine
 10
10439.35239209669
 20
7870.73897378647
 30
0.0
 11
10467.85239209669
 21
7842.238973786471
 31
0.0
  0
LINE
  5
1780B
330
747D
100
AcDbEntity
  8
破線
 48
10.0
100
AcDbLine
 10
10415.85239209671
 20
8704.238973786489
 30
0.0
 11
10415.85239209669
 21
7894.23897378647
 31
0.0
  0
LINE
  5
1780C
330
747D
100
AcDbEntity
  8
部品1
100
AcDbLine
 10
10439.35239209671
 20
8704.238973786486
 30
0.0
 11
10439.35239209669
 21
7870.73897378647
 31
0.0
  0
LINE
  5
1780D
330
747D
100
AcDbEntity
  8
破線
 48
10.0
100
AcDbLine
 10
9575.852392096683
 20
7894.238973786421
 30
0.0
 11
8785.852392096698
 21
7894.238973786375
 31
0.0
  0
LINE
  5
1780E
330
747D
100
AcDbEntity
  8
破線
 48
10.0
100
AcDbLine
 10
10415.85239209669
 20
7894.23897378647
 30
0.0
 11
9625.852392096684
 21
7894.238973786425
 31
0.0
  0
LINE
  5
1780F
330
747D
100
AcDbEntity
  8
部品1
100
AcDbLine
 10
10439.35239209669
 20
7870.73897378647
 30
0.0
 11
8762.352392096607
 21
7870.738973786377
 31
0.0
  0
DIMENSION
  5
17810
330
747D
100
AcDbEntity
  8
寸法
100
AcDbDimension
  2
*D5
 10
9508.783618540297
 20
8411.016318985415
 30
0.0
 11
9113.699454214986
 21
8411.016318985415
 31
0.0
 70
   160
 71
     5
 42
853.0000000000109
  3
INABA_S40G
100
AcDbAlignedDimension
 13
8734.352392096717
 23
8704.238973786388
 33
0.0
 14
9587.352392096727
 24
8704.238973786383
 34
0.0
100
AcDbRotatedDimension
1001
ACAD
1000
DSTYLE
1002
{
1002
}
  0
LINE
  5
17811
330
747D
100
AcDbEntity
  8
破線
 48
10.0
100
AcDbLine
 10
9575.85239209669
 20
7870.738973786423
 30
0.0
 11
9575.852392096688
 21
8704.238973786493
 31
0.0
  0
LINE
  5
17812
330
747D
100
AcDbEntity
  8
破線
 48
10.0
100
AcDbLine
 10
9625.852392096685
 20
7870.738973786427
 30
0.0
 11
9625.852392096689
 21
8704.238973786493
 31
0.0
  0
LINE
  5
17813
330
747D
100
AcDbEntity
  8
部品1
100
AcDbLine
 10
8705.852392096709
 20
2884.716014124866
 30
0.0
 11
8733.852392096709
 21
2884.716014124866
 31
0.0
  0
LINE
  5
17814
330
747D
100
AcDbEntity
  8
部品1
 48
50.0
100
AcDbLine
 10
10439.3523920967
 20
8289.238973786488
 30
0.0
 11
8762.352392096699
 21
8289.238973786575
 31
0.0
  0
TEXT
  5
17815
330
747D
100
AcDbEntity
  8
部品1
100
AcDbText
 10
5290.278743381535
 20
1662.50694193138
 30
0.0
 40
135.0
  1
側面図
  7
STYLE2
100
AcDbText
  0
TEXT
  5
17816
330
747D
100
AcDbEntity
  8
部品1
100
AcDbText
 10
9309.642462720443
 20
1662.50694193138
 30
0.0
 40
135.0
  1
正面図
  7
STYLE2
100
AcDbText
  0
DIMENSION
  5
17817
330
747D
100
AcDbEntity
  8
寸法
 48
50.0
100
AcDbDimension
  2
*D6
 10
8605.852392096709
 20
2248.668684824485
 30
0.0
 11
8705.852392096709
 21
2248.668684824485
 31
0.0
 70
   160
 71
     5
 42
200.0000000000018
  3
INABA_S40G
100
AcDbAlignedDimension
 13
8805.85239209671
 23
2534.716014124861
 33
0.0
 14
8605.852392096709
 24
2534.716014124861
 34
0.0
100
AcDbRotatedDimension
  0
LINE
  5
17818
330
747D
100
AcDbEntity
  8
破線
 48
5.0
100
AcDbLine
 10
8700.85239209671
 20
2734.716014124862
 30
0.0
 11
8700.85239209671
 21
2579.716014124864
 31
0.0
  0
LINE
  5
17819
330
747D
100
AcDbEntity
  8
破線
 48
5.0
100
AcDbLine
 10
10500.85239209671
 20
2734.716014124862
 30
0.0
 11
10500.85239209671
 21
2579.716014124862
 31
0.0
  0
DIMENSION
  5
1781A
330
747D
100
AcDbEntity
  8
寸法
100
AcDbDimension
  2
*D7
 10
10440.85239209672
 20
9481.046000594714
 30
0.0
 11
9600.852392096715
 21
9481.046000594714
 31
0.0
 70
   160
  1
4X420=<>
 71
     5
 42
1680.0
  3
INABA_S40G
100
AcDbAlignedDimension
 13
8760.852392096715
 23
9184.23897378639
 33
0.0
 14
10440.85239209672
 24
9184.238973786484
 34
0.0
100
AcDbRotatedDimension
1001
ACAD
1000
DSTYLE
1002
{
1002
}
  0
LINE
  5
1781B
330
747D
100
AcDbEntity
  8
部品1
100
AcDbLine
 10
8705.852392096716
 20
9184.23897378639
 30
0.0
 11
10495.85239209671
 21
9184.238973786484
 31
0.0
  0
DIMENSION
  5
1781C
330
747D
100
AcDbEntity
  8
寸法
100
AcDbDimension
  2
*D8
 10
10495.85239209671
 20
9481.046000594695
 30
0.0
 11
10804.33767347095
 21
9481.046000594695
 31
0.0
 70
   160
 71
     5
 42
55.0
  3
INABA_S40G
100
AcDbAlignedDimension
 13
10440.85239209672
 23
9184.238973786484
 33
0.0
 14
10495.85239209671
 24
9184.238973786484
 34
0.0
100
AcDbRotatedDimension
1001
ACAD
1000
DSTYLE
1002
{
1002
}
  0
LINE
  5
1781D
330
747D
100
AcDbEntity
  8
部品1
100
AcDbLine
 10
10467.85239209671
 20
9129.23897378649
 30
0.0
 11
10495.85239209671
 21
9129.23897378649
 31
0.0
  0
LINE
  5
1781E
330
747D
100
AcDbEntity
  8
部品1
100
AcDbLine
 10
10467.85239209671
 20
8709.238973786488
 30
0.0
 11
10495.85239209671
 21
8709.238973786488
 31
0.0
  0
LINE
  5
1781F
330
747D
100
AcDbEntity
  8
部品1
100
AcDbLine
 10
10467.35239209671
 20
9154.238973786485
 30
0.0
 11
10467.35239209671
 21
8704.238973786486
 31
0.0
  0
LINE
  5
17820
330
747D
100
AcDbEntity
  8
部品1
100
AcDbLine
 10
9565.852392096717
 20
9174.238973786492
 30
0.0
 11
9565.852392096717
 21
9156.238973786491
 31
0.0
  0
LINE
  5
17821
330
747D
100
AcDbEntity
  8
部品1
100
AcDbLine
 10
9565.852392096717
 20
9174.238973786492
 30
0.0
 11
9571.852392096717
 21
9174.238973786492
 31
0.0
  0
LINE
  5
17822
330
747D
100
AcDbEntity
  8
部品1
100
AcDbLine
 10
9635.852392096717
 20
9174.238973786492
 30
0.0
 11
9635.852392096717
 21
9156.238973786491
 31
0.0
  0
LINE
  5
17823
330
747D
100
AcDbEntity
  8
部品1
100
AcDbLine
 10
9629.852392096717
 20
9174.238973786492
 30
0.0
 11
9635.852392096717
 21
9174.238973786492
 31
0.0
  0
LINE
  5
17824
330
747D
100
AcDbEntity
  8
部品1
100
AcDbLine
 10
9588.352392096716
 20
9148.238973786488
 30
0.0
 11
9613.352392096716
 21
9148.238973786492
 31
0.0
  0
LINE
  5
17825
330
747D
100
AcDbEntity
  8
部品1
100
AcDbLine
 10
9588.352392096716
 20
8704.238973786493
 30
0.0
 11
9613.352392096716
 21
8704.238973786493
 31
0.0
  0
LINE
  5
17826
330
747D
100
AcDbEntity
  8
部品1
 48
50.0
100
AcDbLine
 10
9588.352392096714
 20
9156.2389737865
 30
0.0
 11
9588.352392096716
 21
8704.238973786493
 31
0.0
  0
LINE
  5
17827
330
747D
100
AcDbEntity
  8
部品1
 48
50.0
100
AcDbLine
 10
9613.352392096716
 20
9156.238973786495
 30
0.0
 11
9613.352392096716
 21
8704.238973786493
 31
0.0
  0
LINE
  5
17828
330
747D
100
AcDbEntity
  8
部品1
 48
50.0
100
AcDbLine
 10
9587.352392096716
 20
9154.238973786492
 30
0.0
 11
9587.352392096716
 21
8704.238973786493
 31
0.0
  0
LINE
  5
17829
330
747D
100
AcDbEntity
  8
部品1
 48
50.0
100
AcDbLine
 10
9614.352392096717
 20
9154.238973786489
 30
0.0
 11
9614.352392096717
 21
8704.238973786493
 31
0.0
  0
LINE
  5
1782A
330
747D
100
AcDbEntity
  8
部品1
100
AcDbLine
 10
9613.352392096716
 20
9156.238973786503
 30
0.0
 11
10467.85239209671
 21
9156.238973786484
 31
0.0
  0
LINE
  5
1782B
330
747D
100
AcDbEntity
  8
部品1
100
AcDbLine
 10
9614.352392096717
 20
9154.238973786492
 30
0.0
 11
10467.35239209671
 21
9154.238973786485
 31
0.0
  0
LINE
  5
1782C
330
747D
100
AcDbEntity
  8
細線
 48
50.0
100
AcDbLine
 10
10467.35239209671
 20
8704.238973786486
 30
0.0
 11
9614.352392096717
 21
9154.238973786489
 31
0.0
  0
LINE
  5
1782D
330
747D
100
AcDbEntity
  8
細線
 48
50.0
100
AcDbLine
 10
10467.35239209671
 20
9154.238973786485
 30
0.0
 11
9614.352392096714
 21
8704.238973786493
 31
0.0
  0
LINE
  5
1782E
330
747D
100
AcDbEntity
  8
部品1
100
AcDbLine
 10
9614.352392096714
 20
8704.238973786493
 30
0.0
 11
10467.35239209671
 21
8704.238973786486
 31
0.0
  0
LINE
  5
1782F
330
747D
100
AcDbEntity
  8
部品1
100
AcDbLine
 10
10467.85239209672
 20
8289.238973786488
 30
0.0
 11
10495.85239209672
 21
8289.238973786488
 31
0.0
  0
LINE
  5
17830
330
747D
100
AcDbEntity
  8
部品1
100
AcDbLine
 10
10467.85239209671
 20
9156.238973786484
 30
0.0
 11
10467.85239209669
 21
7842.238973786471
 31
0.0
  0
LINE
  5
17831
330
747D
100
AcDbEntity
  8
部品1
100
AcDbLine
 10
8733.852392096684
 20
9129.238973786362
 30
0.0
 11
8705.852392096684
 21
9129.238973786362
 31
0.0
  0
LINE
  5
17832
330
747D
100
AcDbEntity
  8
部品1
100
AcDbLine
 10
8733.852392096691
 20
8709.23897378636
 30
0.0
 11
8705.852392096691
 21
8709.23897378636
 31
0.0
  0
LINE
  5
17833
330
747D
100
AcDbEntity
  8
部品1
 48
50.0
100
AcDbLine
 10
8734.352392096715
 20
9154.238973786386
 30
0.0
 11
8734.352392096717
 21
8704.238973786386
 31
0.0
  0
LINE
  5
17834
330
747D
100
AcDbEntity
  8
部品1
100
AcDbLine
 10
8733.852392096695
 20
8289.238973786359
 30
0.0
 11
8705.852392096694
 21
8289.238973786359
 31
0.0
  0
LINE
  5
17835
330
747D
100
AcDbEntity
  8
部品1
100
AcDbLine
 10
8733.852392096689
 20
7842.238973786314
 30
0.0
 11
8733.852392096716
 21
9156.238973786392
 31
0.0
  0
LINE
  5
17836
330
747D
100
AcDbEntity
  8
部品1
100
AcDbLine
 10
8733.852392096716
 20
9156.238973786507
 30
0.0
 11
9588.352392096714
 21
9156.238973786505
 31
0.0
  0
LINE
  5
17837
330
747D
100
AcDbEntity
  8
部品1
100
AcDbLine
 10
8734.352392096715
 20
9154.238973786389
 30
0.0
 11
9587.352392096716
 21
9154.238973786496
 31
0.0
  0
LINE
  5
17838
330
747D
100
AcDbEntity
  8
細線
 48
50.0
100
AcDbLine
 10
9587.352392096715
 20
8704.238973786493
 30
0.0
 11
8734.352392096715
 21
9154.238973786389
 31
0.0
  0
LINE
  5
17839
330
747D
100
AcDbEntity
  8
細線
 48
50.0
100
AcDbLine
 10
9587.352392096716
 20
9154.238973786492
 30
0.0
 11
8734.352392096717
 21
8704.238973786388
 31
0.0
  0
DIMENSION
  5
1783A
330
747D
100
AcDbEntity
  8
寸法
100
AcDbDimension
  2
*D9
 10
10388.7836185403
 20
8411.016318985522
 30
0.0
 11
9993.699454214985
 21
8411.016318985522
 31
0.0
 70
   160
 71
     5
 42
853.0000000000109
  3
INABA_S40G
100
AcDbAlignedDimension
 13
9614.352392096717
 23
8704.238973786493
 33
0.0
 14
10467.35239209672
 24
8704.238973786489
 34
0.0
100
AcDbRotatedDimension
1001
ACAD
1000
DSTYLE
1002
{
1002
}
  0
LINE
  5
1783B
330
747D
100
AcDbEntity
  8
部品1
100
AcDbLine
 10
8734.352392096717
 20
8704.238973786388
 30
0.0
 11
9587.352392096715
 21
8704.238973786493
 31
0.0
  0
DIMENSION
  5
1783E
330
747D
100
AcDbEntity
  8
寸法
100
AcDbDimension
  2
*D10
 10
11143.27873783113
 20
7869.238973786472
 30
0.0
 11
11143.27873783112
 21
8499.23897378648
 31
0.0
 70
   160
  1
3X420=<>
 71
     5
 42
1260.000000000015
  3
INABA_S40G
100
AcDbAlignedDimension
 13
10495.85239209671
 23
9129.23897378649
 33
0.0
 14
10495.85239209669
 24
7869.238973786472
 34
0.0
 50
90.0
100
AcDbRotatedDimension
1001
ACAD
1000
DSTYLE
1002
{
1002
}
  0
DIMENSION
  5
1783F
330
747D
100
AcDbEntity
  8
寸法
100
AcDbDimension
  2
*D11
 10
11143.2787378311
 20
7814.238973786476
 30
0.0
 11
11143.2787378311
 21
7436.377506881616
 31
0.0
 70
   160
 71
     5
 42
54.99999999999636
  3
INABA_S40G
100
AcDbAlignedDimension
 13
10495.85239209669
 23
7869.238973786472
 33
0.0
 14
10495.85239209669
 24
7814.238973786476
 34
0.0
 50
90.0
100
AcDbRotatedDimension
1001
ACAD
1000
DSTYLE
1002
{
1002
}
  0
DIMENSION
  5
17840
330
747D
100
AcDbEntity
  8
寸法
100
AcDbDimension
  2
*D12
 10
10822.71011795874
 20
8609.021158117597
 30
0.0
 11
10722.71011795874
 21
8834.021158117598
 31
0.0
 70
    32
 71
     5
 42
449.9999999999982
  3
INABA_S40G
100
AcDbAlignedDimension
 13
10467.35239209671
 23
9154.238973786485
 33
0.0
 14
10467.35239209671
 24
8704.238973786486
 34
0.0
 50
90.0
100
AcDbRotatedDimension
1001
ACAD
1000
DSTYLE
1002
{
1002
}
  0
DIMENSION
  5
17841
330
747D
100
AcDbEntity
  8
寸法
100
AcDbDimension
  2
*D13
 10
11143.27873783113
 20
9129.23897378649
 30
0.0
 11
11143.27873783112
 21
9492.724255160725
 31
0.0
 70
   160
 71
     5
 42
54.99999999999636
  3
INABA_S40G
100
AcDbAlignedDimension
 13
10495.85239209671
 23
9184.238973786484
 33
0.0
 14
10495.85239209671
 24
9129.23897378649
 34
0.0
 50
90.0
100
AcDbRotatedDimension
1001
ACAD
1000
DSTYLE
1002
{
1002
}
  0
LINE
  5
17842
330
747D
100
AcDbEntity
  8
部品1
100
AcDbLine
 10
8760.852392096715
 20
9184.23897378639
 30
0.0
 11
8760.852392096715
 21
9156.238973786392
 31
0.0
  0
LINE
  5
17843
330
747D
100
AcDbEntity
  8
部品1
100
AcDbLine
 10
9180.852392096715
 20
9184.23897378639
 30
0.0
 11
9180.852392096715
 21
9156.238973786392
 31
0.0
  0
LINE
  5
17844
330
747D
100
AcDbEntity
  8
部品1
100
AcDbLine
 10
9180.852392096715
 20
9184.238973786388
 30
0.0
 11
9180.852392096715
 21
9156.238973786388
 31
0.0
  0
LINE
  5
17845
330
747D
100
AcDbEntity
  8
部品1
100
AcDbLine
 10
9180.852392096715
 20
9184.238973786504
 30
0.0
 11
9180.852392096715
 21
9156.238973786505
 31
0.0
  0
LINE
  5
17846
330
747D
100
AcDbEntity
  8
部品1
100
AcDbLine
 10
9600.852392096717
 20
9184.238973786504
 30
0.0
 11
9600.852392096717
 21
9156.238973786505
 31
0.0
  0
LINE
  5
17847
330
747D
100
AcDbEntity
  8
部品1
100
AcDbLine
 10
10020.85239209671
 20
9184.238973786504
 30
0.0
 11
10020.85239209671
 21
9156.238973786505
 31
0.0
  0
LINE
  5
17848
330
747D
100
AcDbEntity
  8
部品1
100
AcDbLine
 10
10495.85239209671
 20
9184.238973786484
 30
0.0
 11
10495.85239209669
 21
7814.238973786476
 31
0.0
  0
DIMENSION
  5
17849
330
747D
100
AcDbEntity
  8
寸法
100
AcDbDimension
  2
*D14
 10
11508.38567957076
 20
7814.238973786476
 30
0.0
 11
11508.38567957076
 21
8499.23897378648
 31
0.0
 70
   160
 71
     5
 42
1370.000000000008
  3
INABA_S40G
100
AcDbAlignedDimension
 13
10495.85239209671
 23
9184.238973786484
 33
0.0
 14
10495.85239209669
 24
7814.238973786476
 34
0.0
 50
90.0
100
AcDbRotatedDimension
1001
ACAD
1000
DSTYLE
1002
{
1002
}
  0
LINE
  5
1784A
330
747D
100
AcDbEntity
  8
部品1
100
AcDbLine
 10
10440.85239209672
 20
9184.238973786504
 30
0.0
 11
10440.85239209672
 21
9156.238973786505
 31
0.0
  0
LINE
  5
1784B
330
747D
100
AcDbEntity
  8
部品1
100
AcDbLine
 10
10440.85239209672
 20
9184.238973786484
 30
0.0
 11
10440.85239209672
 21
9156.238973786484
 31
0.0
  0
LINE
  5
1784C
330
747D
100
AcDbEntity
  8
部品1
100
AcDbLine
 10
8705.85239209668
 20
9184.238973786358
 30
0.0
 11
8705.852392096709
 21
7814.238973786347
 31
0.0
  0
LINE
  5
1784D
330
747D
100
AcDbEntity
  8
部品1
100
AcDbLine
 10
8760.85239209668
 20
9184.238973786358
 30
0.0
 11
8760.852392096683
 21
9156.238973786358
 31
0.0
  0
DIMENSION
  5
1784E
330
747D
100
AcDbEntity
  8
寸法
100
AcDbDimension
  2
*D15
 10
8760.852392096715
 20
9481.046000594599
 30
0.0
 11
8397.367110722441
 21
9481.046000594599
 31
0.0
 70
   160
 71
     5
 42
55.00000000003637
  3
INABA_S40G
100
AcDbAlignedDimension
 13
8705.85239209668
 23
9184.23897378639
 33
0.0
 14
8760.852392096715
 24
9184.23897378639
 34
0.0
100
AcDbRotatedDimension
1001
ACAD
1000
DSTYLE
1002
{
1002
}
  0
LINE
  5
1784F
330
747D
100
AcDbEntity
  8
破線
 48
5.0
100
AcDbLine
 10
8805.852392096708
 20
2734.716014124864
 30
0.0
 11
8805.852392096708
 21
2534.716014124863
 31
0.0
  0
LINE
  5
17850
330
747D
100
AcDbEntity
  8
破線
 48
5.0
100
AcDbLine
 10
8680.852392096708
 20
2579.716014124864
 30
0.0
 11
8700.852392096711
 21
2579.716014124864
 31
0.0
  0
LINE
  5
17851
330
747D
100
AcDbEntity
  8
破線
 48
5.0
100
AcDbLine
 10
8605.852392096709
 20
2734.716014124864
 30
0.0
 11
8605.852392096709
 21
2534.716014124863
 31
0.0
  0
LINE
  5
17852
330
747D
100
AcDbEntity
  8
破線
 48
5.0
100
AcDbLine
 10
8605.852392096709
 20
2534.716014124863
 30
0.0
 11
8805.85239209671
 21
2534.716014124863
 31
0.0
  0
LINE
  5
17853
330
747D
100
AcDbEntity
  8
部品1
100
AcDbLine
 10
8700.85239209671
 20
2879.716014124864
 30
0.0
 11
8700.85239209671
 21
2734.716014124862
 31
0.0
  0
LINE
  5
17854
330
747D
100
AcDbEntity
  8
破線
 48
5.0
100
AcDbLine
 10
10520.85239209671
 20
2579.716014124862
 30
0.0
 11
10500.8523920967
 21
2579.716014124862
 31
0.0
  0
LINE
  5
17855
330
747D
100
AcDbEntity
  8
破線
 48
5.0
100
AcDbLine
 10
10595.85239209671
 20
2734.716014124862
 30
0.0
 11
10595.85239209671
 21
2534.716014124861
 31
0.0
  0
LINE
  5
17856
330
747D
100
AcDbEntity
  8
破線
 48
5.0
100
AcDbLine
 10
10395.85239209671
 20
2734.716014124862
 30
0.0
 11
10395.85239209671
 21
2534.716014124861
 31
0.0
  0
LINE
  5
17857
330
747D
100
AcDbEntity
  8
破線
 48
5.0
100
AcDbLine
 10
10595.85239209671
 20
2534.716014124861
 30
0.0
 11
10395.8523920967
 21
2534.716014124861
 31
0.0
  0
LINE
  5
17858
330
747D
100
AcDbEntity
  8
部品1
100
AcDbLine
 10
10500.85239209671
 20
2879.716014124864
 30
0.0
 11
10500.85239209671
 21
2734.716014124862
 31
0.0
  0
LINE
  5
17859
330
747D
100
AcDbEntity
  8
部品1
 48
50.0
100
AcDbLine
 10
9700.85239209671
 20
2834.716014124862
 30
0.0
 11
9700.85239209671
 21
2734.716014124862
 31
0.0
  0
LINE
  5
1785A
330
747D
100
AcDbEntity
  8
部品1
 48
50.0
100
AcDbLine
 10
9500.852392096708
 20
2834.716014124862
 30
0.0
 11
9500.852392096708
 21
2734.716014124862
 31
0.0
  0
LINE
  5
1785B
330
747D
100
AcDbEntity
  8
部品1
100
AcDbLine
 10
9105.852392096709
 20
2834.716014124862
 30
0.0
 11
9105.852392096709
 21
2734.716014124862
 31
0.0
  0
LINE
  5
1785C
330
747D
100
AcDbEntity
  8
部品1
100
AcDbLine
 10
10095.85239209671
 20
2834.716014124862
 30
0.0
 11
10095.85239209671
 21
2734.716014124862
 31
0.0
  0
LINE
  5
1785D
330
747D
100
AcDbEntity
  8
部品1
100
AcDbLine
 10
10495.85239209671
 20
4729.597822810869
 30
0.0
 11
10495.85239209671
 21
2734.716014124862
 31
0.0
  0
LINE
  5
1785E
330
747D
100
AcDbEntity
  8
部品1
100
AcDbLine
 10
8705.852392096709
 20
4766.574533567109
 30
0.0
 11
8705.852392096709
 21
2734.716014124862
 31
0.0
  0
LINE
  5
1785F
330
747D
100
AcDbEntity
  8
部品1
100
AcDbLine
 10
8705.852392096709
 20
4674.716014124862
 30
0.0
 11
10495.85239209671
 21
4674.716014124862
 31
0.0
  0
LINE
  5
17860
330
747D
100
AcDbEntity
  8
部品1
100
AcDbLine
 10
8705.852392096709
 20
2834.716014124862
 30
0.0
 11
10495.85239209671
 21
2834.716014124862
 31
0.0
  0
TEXT
  5
17861
330
747D
100
AcDbEntity
  8
部品1
100
AcDbText
 10
3548.468425504809
 20
2770.822917730764
 30
0.0
 40
125.0
  1
▽G.L
  7
STYLE2
100
AcDbText
  0
LINE
  5
17862
330
747D
100
AcDbEntity
  8
Ｇ．Ｌ
100
AcDbLine
 10
3465.486874771811
 20
2734.716014124862
 30
0.0
 11
11129.87396586546
 21
2734.716014124862
 31
0.0
  0
TEXT
  5
17867
330
747D
100
AcDbEntity
  8
文字
 62
     7
 48
50.0
100
AcDbText
 10
13209.4053442172
 20
228.5435242569015
 30
0.0
 40
100.0
  1
○有効開口寸法 ： 950×1725(mm)
  7
STYLE2
100
AcDbText
  0
DIMENSION
  5
180E3
330
747D
100
AcDbEntity
  8
寸法
 48
50.0
100
AcDbDimension
  2
*D19
 10
8705.852392096714
 20
5308.809183464336
 30
0.0
 11
9615.448040773193
 21
5308.809183464336
 31
0.0
 70
   160
  1
柱外寸法<>
 71
     5
 42
1790.0
  3
INABA_S40G
100
AcDbAlignedDimension
 13
10495.85239209671
 23
4856.526693736515
 33
0.0
 14
8705.852392096714
 24
4905.717632247839
 34
0.0
100
AcDbRotatedDimension
1001
ACAD
1000
DSTYLE
1002
{
1070
   174
1070
     0
1070
   272
1070
     1
1070
   288
1070
     0
1070
   341
1005
0
1002
}
  0
DIMENSION
  5
180E4
330
747D
100
AcDbEntity
  8
寸法
 48
50.0
100
AcDbDimension
  2
*D18
 10
8645.852392096712
 20
5308.809183464336
 30
0.0
 11
8336.214596821122
 21
5308.809183464336
 31
0.0
 70
   160
 71
     5
 42
60.0
  3
INABA_S40G
100
AcDbAlignedDimension
 13
8705.852392096714
 23
4905.717632247839
 33
0.0
 14
8645.852392096712
 24
4909.716014124867
 34
0.0
100
AcDbRotatedDimension
1001
ACAD
1000
DSTYLE
1002
{
1070
   174
1070
     0
1070
   272
1070
     1
1070
   288
1070
     0
1070
   341
1005
0
1002
}
  0
DIMENSION
  5
180E5
330
747D
100
AcDbEntity
  8
寸法
 48
50.0
100
AcDbDimension
  2
*D17
 10
8645.852392096712
 20
5525.335283082781
 30
0.0
 11
9551.65814334768
 21
5525.335283082781
 31
0.0
 70
   160
 71
     5
 42
1930.0
  3
INABA_S40G
100
AcDbAlignedDimension
 13
10575.85239209671
 23
4854.716014124863
 33
0.0
 14
8645.852392096712
 24
4909.716014124867
 34
0.0
100
AcDbRotatedDimension
1001
ACAD
1000
DSTYLE
1002
{
1070
   174
1070
     0
1070
   272
1070
     1
1070
   288
1070
     0
1070
   341
1005
0
1002
}
  0
DIMENSION
  5
180E6
330
747D
100
AcDbEntity
  8
寸法
 48
50.0
100
AcDbDimension
  2
*D16
 10
10575.85239209671
 20
5308.809183464336
 30
0.0
 11
10781.8996361912
 21
5308.809183464336
 31
0.0
 70
   160
 71
     5
 42
80.0
  3
INABA_S40G
100
AcDbAlignedDimension
 13
10495.85239209671
 23
4856.526693736515
 33
0.0
 14
10575.85239209671
 24
4854.716014124863
 34
0.0
100
AcDbRotatedDimension
1001
ACAD
1000
DSTYLE
1002
{
1070
   174
1070
     0
1070
   272
1070
     1
1070
   288
1070
     0
1070
   341
1005
0
1002
}
  0
TEXT
  5
180E7
330
747D
100
AcDbEntity
  8
部品1
 48
50.0
100
AcDbText
 10
9439.120227320438
 20
5076.468175378575
 30
0.0
 40
120.0
  1
1000
  7
STYLE1
100
AcDbText
  0
LINE
  5
180E8
330
747D
100
AcDbEntity
  8
部品1
 48
50.0
100
AcDbLine
 10
9450.852392096711
 20
5040.584153226141
 30
0.0
 11
9750.85239209671
 21
5040.584153226141
 31
0.0
  0
LINE
  5
180E9
330
747D
100
AcDbEntity
  8
部品1
 48
50.0
100
AcDbLine
 10
9750.85239209671
 20
5040.584153226141
 30
0.0
 11
9750.85239209671
 21
5024.384153226144
 31
0.0
  0
TEXT
  5
180EA
330
747D
100
AcDbEntity
  8
部品1
 48
50.0
100
AcDbText
 10
9927.945239384571
 20
4938.966917160293
 30
0.0
 40
120.0
  1
54
 50
90.0
  7
STYLE1
100
AcDbText
  0
LINE
  5
180EB
330
747D
100
AcDbEntity
  8
部品1
 48
50.0
100
AcDbLine
 10
9450.852392096711
 20
5040.584153226141
 30
0.0
 11
9750.85239209671
 21
5024.384153226144
 31
0.0
  0
LINE
  5
180EC
330
747D
100
AcDbEntity
  8
部品1
100
AcDbLine
 10
8653.397378453673
 20
4908.433749459129
 30
0.0
 11
10568.46426895817
 21
4853.356811834
 31
0.0
  0
LINE
  5
180ED
330
747D
100
AcDbEntity
  8
部品1
100
AcDbLine
 10
8661.194956698667
 20
4767.49703919383
 30
0.0
 11
10550.51609263655
 21
4728.468613959624
 31
0.0
  0
LINE
  5
180EE
330
747D
100
AcDbEntity
  8
細線
 48
50.0
100
AcDbLine
 10
8646.891815197525
 20
4880.733095966225
 30
0.0
 11
10572.52779994269
 21
4825.108891325395
 31
0.0
  0
LINE
  5
180EF
330
747D
100
AcDbEntity
  8
細線
 48
50.0
100
AcDbLine
 10
8651.65229043481
 20
4787.871584268359
 30
0.0
 11
10561.65595486544
 21
4748.062265293866
 31
0.0
  0
LINE
  5
180F0
330
747D
100
AcDbEntity
  8
細線
 48
50.0
100
AcDbLine
 10
8678.852392096713
 20
4907.115690500268
 30
0.0
 11
8673.563290541201
 21
4767.030057872913
 31
0.0
  0
LINE
  5
180F1
330
747D
100
AcDbEntity
  8
部品1
 48
50.0
100
AcDbLine
 10
8646.036678009819
 20
4901.309560289555
 30
0.0
 11
8646.416937787632
 21
4881.382595843144
 31
0.0
  0
LINE
  5
180F2
330
747D
100
AcDbEntity
  8
部品1
 48
50.0
100
AcDbLine
 10
8649.485709893875
 20
4877.807314349671
 30
0.0
 11
8651.189611385241
 21
4788.516817643023
 31
0.0
  0
LINE
  5
180F3
330
747D
100
AcDbEntity
  8
部品1
 48
50.0
100
AcDbLine
 10
8654.258383491482
 20
4784.941536149552
 30
0.0
 11
8654.460336111915
 21
4774.358500756459
 31
0.0
  0
ARC
  5
180F4
330
747D
100
AcDbEntity
  8
部品1
 48
50.0
100
AcDbCircle
 10
8653.035403838158
 20
4901.443114696984
 30
0.0
 40
7.0
100
AcDbArc
 50
87.03587545293636
 51
181.0932240292635
  0
ARC
  5
180F5
330
747D
100
AcDbEntity
  8
部品1
 48
50.0
100
AcDbCircle
 10
8661.459061940254
 20
4774.492055163888
 30
0.0
 40
7.0
100
AcDbArc
 50
181.0932240293156
 51
267.8377559870533
  0
ARC
  5
180F6
330
747D
100
AcDbEntity
  8
部品1
100
AcDbCircle
 10
8651.258929565051
 20
4784.884298546368
 30
0.0
 40
3.0
100
AcDbArc
 50
1.093224029315636
 51
80.18775403148449
  0
ARC
  5
180F7
330
747D
100
AcDbEntity
  8
部品1
100
AcDbCircle
 10
8646.486255967445
 20
4877.750076746488
 30
0.0
 40
3.0
100
AcDbArc
 50
1.093224029263536
 51
80.18775403158718
  0
ARC
  5
180F8
330
747D
100
AcDbEntity
  8
部品1
100
AcDbCircle
 10
8647.116810370468
 20
4881.395951283884
 30
0.0
 40
0.7
100
AcDbArc
 50
181.0932240292114
 51
260.1877540315872
  0
ARC
  5
180F9
330
747D
100
AcDbEntity
  8
部品1
100
AcDbCircle
 10
8651.889483968076
 20
4788.530173083767
 30
0.0
 40
0.7
100
AcDbArc
 50
181.0932240292114
 51
260.1877540315872
  0
LINE
  5
180FA
330
747D
100
AcDbEntity
  8
細線
 48
50.0
100
AcDbLine
 10
10542.85239209671
 20
4854.682993160158
 30
0.0
 11
10538.10470920871
 21
4728.937220669414
 31
0.0
  0
LINE
  5
180FB
330
747D
100
AcDbEntity
  8
部品1
 48
50.0
100
AcDbLine
 10
10575.06629490741
 20
4845.65716639908
 30
0.0
 11
10573.03567371644
 21
4825.712125141301
 31
0.0
  0
LINE
  5
180FC
330
747D
100
AcDbEntity
  8
部品1
 48
50.0
100
AcDbLine
 10
10569.68310723196
 20
4822.401491068391
 30
0.0
 11
10562.17632796712
 21
4748.668870323379
 31
0.0
  0
LINE
  5
180FD
330
747D
100
AcDbEntity
  8
部品1
 48
50.0
100
AcDbLine
 10
10558.82376148264
 20
4745.358236250467
 30
0.0
 11
10557.74419844289
 21
4734.754619256909
 31
0.0
  0
ARC
  5
180FE
330
747D
100
AcDbEntity
  8
部品1
 48
50.0
100
AcDbCircle
 10
10568.10229434266
 20
4846.366177071855
 30
0.0
 40
7.0
100
AcDbArc
 50
354.1866997665013
 51
87.03587545293636
  0
ARC
  5
180FF
330
747D
100
AcDbEntity
  8
部品1
 48
50.0
100
AcDbCircle
 10
10550.78019787814
 20
4735.463629929682
 30
0.0
 40
7.0
100
AcDbArc
 50
267.8377559870533
 51
354.1866997665532
  0
ARC
  5
18100
330
747D
100
AcDbEntity
  8
部品1
100
AcDbCircle
 10
10561.80833315324
 20
4745.054374533564
 30
0.0
 40
3.0
100
AcDbArc
 50
95.09216976420788
 51
174.1866997665532
  0
ARC
  5
18101
330
747D
100
AcDbEntity
  8
部品1
100
AcDbCircle
 10
10572.66767890257
 20
4822.097629351489
 30
0.0
 40
3.0
100
AcDbArc
 50
95.0921697643163
 51
174.1866997665532
  0
ARC
  5
18102
330
747D
100
AcDbEntity
  8
部品1
100
AcDbCircle
 10
10572.33927365997
 20
4825.783026208577
 30
0.0
 40
0.7
100
AcDbArc
 50
275.0921697642125
 51
354.1866997665532
  0
ARC
  5
18103
330
747D
100
AcDbEntity
  8
部品1
100
AcDbCircle
 10
10561.47992791065
 20
4748.739771390654
 30
0.0
 40
0.7
100
AcDbArc
 50
275.0921697642125
 51
354.1866997667087
  0
DIMENSION
  5
186F6
330
747D
100
AcDbEntity
  8
寸法
100
AcDbDimension
  2
*D21
 10
7797.213010167351
 20
4909.716014124867
 30
0.0
 11
7797.21301016735
 21
3828.921891617973
 31
0.0
 70
   160
 71
     5
 42
2075.000000000005
  3
INABA_S40G
100
AcDbAlignedDimension
 13
8705.852392096709
 23
2834.716014124862
 33
0.0
 14
8645.85239209671
 24
4909.716014124867
 34
0.0
 50
90.0
100
AcDbRotatedDimension
1001
ACAD
1000
DSTYLE
1002
{
1070
   174
1070
     0
1070
   272
1070
     1
1070
   288
1070
     0
1070
   341
1005
0
1002
}
  0
DIMENSION
  5
186F7
330
747D
100
AcDbEntity
  8
寸法
100
AcDbDimension
  2
*D20
 10
8082.199682938414
 20
2884.716014124862
 30
0.0
 11
8082.199682938412
 21
3775.17031266682
 31
0.0
 70
   160
 71
     5
 42
1790.0
  3
INABA_S40G
100
AcDbAlignedDimension
 13
8705.852392096709
 23
4674.716014124862
 33
0.0
 14
8705.852392096709
 24
2884.716014124862
 34
0.0
 50
90.0
100
AcDbRotatedDimension
1001
ACAD
1000
DSTYLE
1002
{
1070
   174
1070
     0
1070
   272
1070
     1
1070
   288
1070
     0
1070
   341
1005
0
1002
}
  0
DIMENSION
  5
186F8
330
747D
100
AcDbEntity
  8
寸法
100
AcDbDimension
  2
*D23
 10
8082.199682938414
 20
2834.716014124862
 30
0.0
 11
8082.199682938412
 21
2528.668770030372
 31
0.0
 70
   160
 71
     5
 42
50.0
  3
INABA_S40G
100
AcDbAlignedDimension
 13
8705.852392096709
 23
2884.716014124862
 33
0.0
 14
8650.852392096709
 24
2834.716014124862
 34
0.0
 50
90.0
100
AcDbRotatedDimension
1001
ACAD
1000
DSTYLE
1002
{
1070
   174
1070
     0
1070
   272
1070
     1
1070
   288
1070
     0
1070
   341
1005
0
1002
}
  0
DIMENSION
  5
186F9
330
747D
100
AcDbEntity
  8
寸法
100
AcDbDimension
  2
*D22
 10
7797.213010167351
 20
2734.716014124862
 30
0.0
 11
7797.21301016735
 21
2498.668770030372
 31
0.0
 70
   160
 71
     5
 42
100.0
  3
INABA_S40G
100
AcDbAlignedDimension
 13
8650.852392096709
 23
2834.716014124862
 33
0.0
 14
8082.199682938412
 24
2734.716014124862
 34
0.0
 50
90.0
100
AcDbRotatedDimension
1001
ACAD
1000
DSTYLE
1002
{
1070
   174
1070
     0
1070
   272
1070
     1
1070
   288
1070
     0
1070
   341
1005
0
1002
}
  0
DIMENSION
  5
18755
330
747D
100
AcDbEntity
  8
寸法
 48
50.0
100
AcDbDimension
  2
*D26
 10
6307.567975072147
 20
5523.930147973585
 30
0.0
 11
5572.56797507215
 21
5523.930147973585
 31
0.0
 70
   160
 71
     5
 42
1469.999999999994
  3
INABA_S40G
100
AcDbAlignedDimension
 13
4837.567975072152
 23
4909.716014124867
 33
0.0
 14
6307.567975072147
 24
4909.716014124864
 34
0.0
100
AcDbRotatedDimension
  0
DIMENSION
  5
18756
330
747D
100
AcDbEntity
  8
寸法
 48
50.0
100
AcDbDimension
  2
*D25
 10
4837.567975072152
 20
5314.336273552134
 30
0.0
 11
4524.082693697905
 21
5314.336273552134
 31
0.0
 70
   160
 71
     5
 42
50.0
  3
INABA_S40G
100
AcDbAlignedDimension
 13
4887.567975072152
 23
4909.716014124867
 33
0.0
 14
4837.567975072152
 24
4909.716014124867
 34
0.0
100
AcDbRotatedDimension
1001
ACAD
1000
DSTYLE
1002
{
1002
}
  0
DIMENSION
  5
18757
330
747D
100
AcDbEntity
  8
寸法
 48
50.0
100
AcDbDimension
  2
*D24
 10
4887.567975072152
 20
5314.336273552134
 30
0.0
 11
5572.56797507215
 21
5314.336273552134
 31
0.0
 70
   160
  1
柱外寸法<>
 71
     5
 42
1369.999999999994
  3
INABA_S40G
100
AcDbAlignedDimension
 13
6257.567975072147
 23
4909.716014124867
 33
0.0
 14
4887.567975072152
 24
4909.716014124867
 34
0.0
100
AcDbRotatedDimension
  0
LINE
  5
18758
330
747D
100
AcDbEntity
  8
細線
 48
50.0
100
AcDbLine
 10
4870.567975072152
 20
4909.716014124866
 30
0.0
 11
4870.567975072152
 21
4768.716014124866
 31
0.0
  0
ARC
  5
18759
330
747D
100
AcDbEntity
  8
部品1
100
AcDbCircle
 10
4844.976396178581
 20
4902.716014124866
 30
0.0
 40
7.0
100
AcDbArc
 50
90.0
 51
183.2473427903377
  0
ARC
  5
1875A
330
747D
100
AcDbEntity
  8
部品1
100
AcDbCircle
 10
4858.191719639616
 20
4775.716014124867
 30
0.0
 40
7.0
100
AcDbArc
 50
183.2473427903377
 51
270.0
  0
ARC
  5
1875B
330
747D
100
AcDbEntity
  8
部品1
 48
50.0
100
AcDbCircle
 10
4839.819909428939
 20
4882.383013286552
 30
0.0
 40
0.7
100
AcDbArc
 50
183.2473427903897
 51
262.3418727926361
  0
ARC
  5
1875C
330
747D
100
AcDbEntity
  8
部品1
 48
50.0
100
AcDbCircle
 10
4848.05593995378
 20
4790.183013286549
 30
0.0
 40
0.7
100
AcDbArc
 50
183.2473427903116
 51
262.3418727926361
  0
ARC
  5
1875D
330
747D
100
AcDbEntity
  8
部品1
 48
50.0
100
AcDbCircle
 10
4847.562870845218
 20
4786.516014124863
 30
0.0
 40
3.0
100
AcDbArc
 50
3.247342790337682
 51
82.34187279263609
  0
ARC
  5
1875E
330
747D
100
AcDbEntity
  8
部品1
 48
50.0
100
AcDbCircle
 10
4839.326840320378
 20
4878.716014124868
 30
0.0
 40
3.0
100
AcDbArc
 50
3.247342790337682
 51
82.34187279263609
  0
LINE
  5
1875F
330
747D
100
AcDbEntity
  8
部品1
100
AcDbLine
 10
4842.32202321656
 20
4878.88595357997
 30
0.0
 11
4847.357063944672
 21
4790.143360747024
 31
0.0
  0
LINE
  5
18760
330
747D
100
AcDbEntity
  8
部品1
100
AcDbLine
 10
4850.558053741409
 20
4786.685953579967
 30
0.0
 11
4851.202959548516
 21
4775.319488729627
 31
0.0
  0
LINE
  5
18761
330
747D
100
AcDbEntity
  8
部品1
100
AcDbLine
 10
4837.987636087486
 20
4902.319488729627
 30
0.0
 11
4839.121033419831
 21
4882.343360747027
 31
0.0
  0
LINE
  5
18762
330
747D
100
AcDbEntity
  8
部品1
 48
50.0
100
AcDbLine
 10
6300.159553965714
 20
4909.716014124866
 30
0.0
 11
4844.976396178581
 21
4909.716014124867
 31
0.0
  0
LINE
  5
18763
330
747D
100
AcDbEntity
  8
部品1
 48
50.0
100
AcDbLine
 10
6286.94423050468
 20
4768.716014124867
 30
0.0
 11
4858.191719639616
 21
4768.716014124866
 31
0.0
  0
LINE
  5
18764
330
747D
100
AcDbEntity
  8
細線
 48
50.0
100
AcDbLine
 10
6305.528436850705
 20
4881.716014124866
 30
0.0
 11
4839.607513293589
 21
4881.716014124864
 31
0.0
  0
LINE
  5
18765
330
747D
100
AcDbEntity
  8
細線
 48
50.0
100
AcDbLine
 10
6297.292406325867
 20
4789.516014124865
 30
0.0
 11
4847.843543818419
 21
4789.516014124867
 31
0.0
  0
LINE
  5
18766
330
747D
100
AcDbEntity
  8
細線
100
AcDbLine
 10
5262.56797507215
 20
4734.216014124861
 30
0.0
 11
5262.567975072147
 21
4711.216014124861
 31
0.0
  0
LINE
  5
18767
330
747D
100
AcDbEntity
  8
細線
100
AcDbLine
 10
5336.567975072147
 20
4722.216014124861
 30
0.0
 11
5262.56797507215
 21
4722.216014124861
 31
0.0
  0
LINE
  5
18768
330
747D
100
AcDbEntity
  8
細線
100
AcDbLine
 10
5336.567975072147
 20
4716.21601412486
 30
0.0
 11
5262.56797507215
 21
4716.216014124861
 31
0.0
  0
LINE
  5
18769
330
747D
100
AcDbEntity
  8
細線
100
AcDbLine
 10
5336.567975072147
 20
4728.21601412486
 30
0.0
 11
5262.56797507215
 21
4728.216014124861
 31
0.0
  0
LINE
  5
1876A
330
747D
100
AcDbEntity
  8
細線
100
AcDbLine
 10
5188.56797507215
 20
4728.216014124861
 30
0.0
 11
5257.56797507215
 21
4728.216014124861
 31
0.0
  0
LINE
  5
1876B
330
747D
100
AcDbEntity
  8
細線
100
AcDbLine
 10
5188.567975072146
 20
4716.216014124861
 30
0.0
 11
5262.56797507215
 21
4716.216014124861
 31
0.0
  0
LINE
  5
1876C
330
747D
100
AcDbEntity
  8
細線
100
AcDbLine
 10
5188.56797507215
 20
4722.216014124861
 30
0.0
 11
5262.56797507215
 21
4722.216014124861
 31
0.0
  0
LINE
  5
1876D
330
747D
100
AcDbEntity
  8
細線
100
AcDbLine
 10
5188.56797507215
 20
4728.216014124861
 30
0.0
 11
5262.56797507215
 21
4728.216014124861
 31
0.0
  0
LINE
  5
1876E
330
747D
100
AcDbEntity
  8
部品1
 48
0.01
100
AcDbLine
 10
5350.56797507215
 20
4740.716014124862
 30
0.0
 11
5174.56797507215
 21
4740.716014124862
 31
0.0
  0
LINE
  5
1876F
330
747D
100
AcDbEntity
  8
部品1
 48
0.01
100
AcDbLine
 10
5172.56797507215
 20
4738.716014124861
 30
0.0
 11
5172.56797507215
 21
4707.216014124862
 31
0.0
  0
LINE
  5
18770
330
747D
100
AcDbEntity
  8
部品1
 48
0.01
100
AcDbLine
 10
5174.56797507215
 20
4705.216014124861
 30
0.0
 11
5350.567975072147
 21
4705.216014124861
 31
0.0
  0
LINE
  5
18771
330
747D
100
AcDbEntity
  8
部品1
 48
0.01
100
AcDbLine
 10
5352.567975072147
 20
4707.216014124862
 30
0.0
 11
5352.56797507215
 21
4738.716014124861
 31
0.0
  0
LINE
  5
18772
330
747D
100
AcDbEntity
  8
細線
100
AcDbLine
 10
5188.56797507215
 20
4734.216014124861
 30
0.0
 11
5188.56797507215
 21
4711.216014124861
 31
0.0
  0
LINE
  5
18773
330
747D
100
AcDbEntity
  8
細線
100
AcDbLine
 10
5336.56797507215
 20
4711.216014124861
 30
0.0
 11
5336.56797507215
 21
4734.216014124861
 31
0.0
  0
LINE
  5
18774
330
747D
100
AcDbEntity
  8
細線
100
AcDbLine
 10
5336.56797507215
 20
4734.216014124861
 30
0.0
 11
5262.56797507215
 21
4734.216014124861
 31
0.0
  0
LINE
  5
18775
330
747D
100
AcDbEntity
  8
細線
100
AcDbLine
 10
5188.56797507215
 20
4711.216014124861
 30
0.0
 11
5262.56797507215
 21
4711.216014124861
 31
0.0
  0
LINE
  5
18776
330
747D
100
AcDbEntity
  8
細線
100
AcDbLine
 10
5262.56797507215
 20
4734.216014124861
 30
0.0
 11
5188.56797507215
 21
4734.216014124861
 31
0.0
  0
LINE
  5
18777
330
747D
100
AcDbEntity
  8
細線
100
AcDbLine
 10
5262.567975072147
 20
4711.216014124861
 30
0.0
 11
5336.56797507215
 21
4711.216014124861
 31
0.0
  0
ARC
  5
18778
330
747D
100
AcDbEntity
  8
部品1
 48
0.01
100
AcDbCircle
 10
5174.56797507215
 20
4738.716014124861
 30
0.0
 40
2.0
100
AcDbArc
 50
90.0
 51
180.0
  0
ARC
  5
18779
330
747D
100
AcDbEntity
  8
部品1
 48
0.01
100
AcDbCircle
 10
5174.56797507215
 20
4707.216014124862
 30
0.0
 40
2.0
100
AcDbArc
 50
180.0
 51
270.0
  0
ARC
  5
1877A
330
747D
100
AcDbEntity
  8
部品1
 48
0.01
100
AcDbCircle
 10
5350.56797507215
 20
4738.716014124861
 30
0.0
 40
2.0
100
AcDbArc
 50
0.0
 51
90.0
  0
ARC
  5
1877B
330
747D
100
AcDbEntity
  8
部品1
 48
0.01
100
AcDbCircle
 10
5350.567975072147
 20
4707.216014124862
 30
0.0
 40
2.0
100
AcDbArc
 50
270.0
 51
0.0
  0
ARC
  5
1877C
330
747D
100
AcDbEntity
  8
部品1
 48
0.01
100
AcDbCircle
 10
5794.56797507215
 20
4738.716014124861
 30
0.0
 40
2.0
100
AcDbArc
 50
90.0
 51
180.0
  0
ARC
  5
1877D
330
747D
100
AcDbEntity
  8
部品1
 48
0.01
100
AcDbCircle
 10
5970.56797507215
 20
4738.716014124861
 30
0.0
 40
2.0
100
AcDbArc
 50
0.0
 51
90.0
  0
LINE
  5
1877E
330
747D
100
AcDbEntity
  8
細線
100
AcDbLine
 10
5882.567975072149
 20
4711.216014124861
 30
0.0
 11
5808.567975072151
 21
4711.216014124861
 31
0.0
  0
LINE
  5
1877F
330
747D
100
AcDbEntity
  8
細線
100
AcDbLine
 10
5882.567975072149
 20
4734.216014124861
 30
0.0
 11
5956.567975072149
 21
4734.216014124861
 31
0.0
  0
LINE
  5
18780
330
747D
100
AcDbEntity
  8
細線
100
AcDbLine
 10
5956.567975072149
 20
4711.216014124861
 30
0.0
 11
5882.567975072149
 21
4711.216014124861
 31
0.0
  0
LINE
  5
18781
330
747D
100
AcDbEntity
  8
細線
100
AcDbLine
 10
5808.567975072151
 20
4734.216014124861
 30
0.0
 11
5882.567975072149
 21
4734.216014124861
 31
0.0
  0
LINE
  5
18782
330
747D
100
AcDbEntity
  8
細線
100
AcDbLine
 10
5808.567975072151
 20
4711.216014124861
 30
0.0
 11
5808.567975072151
 21
4734.216014124861
 31
0.0
  0
LINE
  5
18783
330
747D
100
AcDbEntity
  8
細線
100
AcDbLine
 10
5956.567975072149
 20
4734.216014124861
 30
0.0
 11
5956.567975072149
 21
4711.216014124861
 31
0.0
  0
LINE
  5
18784
330
747D
100
AcDbEntity
  8
部品1
 48
0.01
100
AcDbLine
 10
5794.56797507215
 20
4740.716014124862
 30
0.0
 11
5970.56797507215
 21
4740.716014124862
 31
0.0
  0
LINE
  5
18785
330
747D
100
AcDbEntity
  8
細線
100
AcDbLine
 10
5956.567975072149
 20
4728.216014124861
 30
0.0
 11
5882.567975072149
 21
4728.216014124861
 31
0.0
  0
LINE
  5
18786
330
747D
100
AcDbEntity
  8
細線
100
AcDbLine
 10
5956.567975072149
 20
4722.216014124861
 30
0.0
 11
5882.567975072149
 21
4722.216014124861
 31
0.0
  0
LINE
  5
18787
330
747D
100
AcDbEntity
  8
細線
100
AcDbLine
 10
5956.567975072149
 20
4716.216014124861
 30
0.0
 11
5882.567975072149
 21
4716.216014124861
 31
0.0
  0
LINE
  5
18788
330
747D
100
AcDbEntity
  8
細線
100
AcDbLine
 10
5956.567975072149
 20
4728.216014124861
 30
0.0
 11
5887.567975072149
 21
4728.216014124861
 31
0.0
  0
LINE
  5
18789
330
747D
100
AcDbEntity
  8
細線
100
AcDbLine
 10
5808.567975072151
 20
4728.21601412486
 30
0.0
 11
5882.567975072149
 21
4728.216014124861
 31
0.0
  0
LINE
  5
1878A
330
747D
100
AcDbEntity
  8
細線
100
AcDbLine
 10
5808.567975072151
 20
4716.21601412486
 30
0.0
 11
5882.567975072149
 21
4716.216014124861
 31
0.0
  0
LINE
  5
1878B
330
747D
100
AcDbEntity
  8
細線
100
AcDbLine
 10
5808.567975072151
 20
4722.216014124861
 30
0.0
 11
5882.567975072149
 21
4722.216014124861
 31
0.0
  0
LINE
  5
1878C
330
747D
100
AcDbEntity
  8
細線
100
AcDbLine
 10
5882.567975072149
 20
4734.216014124861
 30
0.0
 11
5882.567975072149
 21
4711.216014124861
 31
0.0
  0
ARC
  5
1878D
330
747D
100
AcDbEntity
  8
部品1
 48
0.01
100
AcDbCircle
 10
5794.56797507215
 20
4707.216014124862
 30
0.0
 40
2.0
100
AcDbArc
 50
180.0
 51
270.0
  0
ARC
  5
1878E
330
747D
100
AcDbEntity
  8
部品1
 48
0.01
100
AcDbCircle
 10
5970.56797507215
 20
4707.216014124862
 30
0.0
 40
2.0
100
AcDbArc
 50
270.0
 51
0.0
  0
LINE
  5
1878F
330
747D
100
AcDbEntity
  8
部品1
 48
0.01
100
AcDbLine
 10
5792.56797507215
 20
4707.216014124862
 30
0.0
 11
5792.56797507215
 21
4738.716014124861
 31
0.0
  0
LINE
  5
18790
330
747D
100
AcDbEntity
  8
部品1
 48
0.01
100
AcDbLine
 10
5970.56797507215
 20
4705.216014124861
 30
0.0
 11
5794.56797507215
 21
4705.216014124861
 31
0.0
  0
LINE
  5
18791
330
747D
100
AcDbEntity
  8
部品1
 48
0.01
100
AcDbLine
 10
5972.567975072149
 20
4738.716014124861
 30
0.0
 11
5972.567975072149
 21
4707.216014124862
 31
0.0
  0
DIMENSION
  5
187D5
330
747D
100
AcDbEntity
  8
寸法
 48
50.0
100
AcDbDimension
  2
*D27
 10
6257.567975072147
 20
5314.336273552134
 30
0.0
 11
6621.053256446383
 21
5314.336273552134
 31
0.0
 70
   160
 71
     5
 42
50.0
  3
INABA_S40G
100
AcDbAlignedDimension
 13
6307.567975072147
 23
4909.716014124864
 33
0.0
 14
6257.567975072147
 24
4909.716014124867
 34
0.0
100
AcDbRotatedDimension
  0
LINE
  5
187D6
330
747D
100
AcDbEntity
  8
部品1
100
AcDbLine
 10
6307.148314056813
 20
4902.319488729627
 30
0.0
 11
6306.014916724468
 21
4882.343360747027
 31
0.0
  0
LINE
  5
187D7
330
747D
100
AcDbEntity
  8
細線
 48
50.0
100
AcDbLine
 10
6274.567975072146
 20
4909.716014124866
 30
0.0
 11
6274.567975072146
 21
4768.716014124866
 31
0.0
  0
LINE
  5
187D8
330
747D
100
AcDbEntity
  8
部品1
100
AcDbLine
 10
6294.57789640289
 20
4786.685953579967
 30
0.0
 11
6293.932990595778
 21
4775.319488729627
 31
0.0
  0
LINE
  5
187D9
330
747D
100
AcDbEntity
  8
部品1
100
AcDbLine
 10
6302.813926927735
 20
4878.88595357997
 30
0.0
 11
6297.778886199623
 21
4790.143360747024
 31
0.0
  0
ARC
  5
187DA
330
747D
100
AcDbEntity
  8
部品1
 48
50.0
100
AcDbCircle
 10
6305.80910982392
 20
4878.716014124868
 30
0.0
 40
3.0
100
AcDbArc
 50
97.6581272073639
 51
176.7526572096623
  0
ARC
  5
187DB
330
747D
100
AcDbEntity
  8
部品1
 48
50.0
100
AcDbCircle
 10
6297.573079299077
 20
4786.516014124863
 30
0.0
 40
3.0
100
AcDbArc
 50
97.6581272073639
 51
176.7526572096623
  0
ARC
  5
187DC
330
747D
100
AcDbEntity
  8
部品1
 48
50.0
100
AcDbCircle
 10
6297.080010190516
 20
4790.183013286549
 30
0.0
 40
0.7
100
AcDbArc
 50
277.6581272073639
 51
356.7526572096883
  0
ARC
  5
187DD
330
747D
100
AcDbEntity
  8
部品1
 48
50.0
100
AcDbCircle
 10
6305.316040715359
 20
4882.383013286552
 30
0.0
 40
0.7
100
AcDbArc
 50
277.6581272073639
 51
356.7526572096103
  0
ARC
  5
187DE
330
747D
100
AcDbEntity
  8
部品1
100
AcDbCircle
 10
6286.94423050468
 20
4775.716014124867
 30
0.0
 40
7.0
100
AcDbArc
 50
270.0
 51
356.7526572096623
  0
ARC
  5
187DF
330
747D
100
AcDbEntity
  8
部品1
100
AcDbCircle
 10
6300.159553965714
 20
4902.716014124866
 30
0.0
 40
7.0
100
AcDbArc
 50
356.7526572096623
 51
90.0
  0
LINE
  5
18B9F
330
747D
100
AcDbEntity
  8
補助
  6
PHANTOM
 62
   230
 48
50.0
100
AcDbLine
 10
140.0
 20
0.0
 30
0.0
 11
139.9999999999995
 21
11409.6
 31
0.0
  0
DIMENSION
  5
18F14
330
747D
100
AcDbEntity
  8
寸法
100
AcDbDimension
  2
*D28
 10
11031.02248785913
 20
4854.716014124864
 30
0.0
 11
11031.02248785913
 21
3816.972341554551
 31
0.0
 70
   160
 71
     5
 42
2020.000000000003
  3
INABA_S40G
100
AcDbAlignedDimension
 13
10495.85239209671
 23
2834.716014124862
 33
0.0
 14
10575.85239209669
 24
4854.716014124864
 34
0.0
 50
90.0
100
AcDbRotatedDimension
1001
ACAD
1000
DSTYLE
1002
{
1070
   174
1070
     0
1070
   272
1070
     1
1070
   288
1070
     0
1070
   341
1005
0
1002
}
  0
LINE
  5
192DE
330
747D
100
AcDbEntity
  8
細線
 48
50.0
100
AcDbLine
 10
9283.852392096678
 20
7742.239147963274
 30
0.0
 11
9402.352392096679
 21
7742.239147963274
 31
0.0
  0
LINE
  5
192DF
330
747D
100
AcDbEntity
  8
細線
 48
50.0
100
AcDbLine
 10
9372.352392096683
 20
7759.389147963272
 30
0.0
 11
9372.352392096683
 21
7764.239147963275
 31
0.0
  0
LINE
  5
192E0
330
747D
100
AcDbEntity
  8
細線
 48
50.0
100
AcDbLine
 10
9372.352392096683
 20
7764.239147963275
 30
0.0
 11
9387.352392096682
 21
7764.239147963275
 31
0.0
  0
LINE
  5
192E1
330
747D
100
AcDbEntity
  8
細線
 48
50.0
100
AcDbLine
 10
9387.352392096682
 20
7764.239147963275
 30
0.0
 11
9387.352392096683
 21
7771.239147963274
 31
0.0
  0
LINE
  5
192E2
330
747D
100
AcDbEntity
  8
細線
 48
50.0
100
AcDbLine
 10
9387.352392096683
 20
7771.239147963274
 30
0.0
 11
9402.352392096682
 21
7771.239147963274
 31
0.0
  0
LINE
  5
192E3
330
747D
100
AcDbEntity
  8
細線
 48
50.0
100
AcDbLine
 10
9402.352392096682
 20
7771.239147963274
 30
0.0
 11
9402.352392096682
 21
7742.239147963275
 31
0.0
  0
LINE
  5
192E4
330
747D
100
AcDbEntity
  8
細線
 48
50.0
100
AcDbLine
 10
9391.352392096683
 20
7793.735342228782
 30
0.0
 11
9391.352392096683
 21
7798.23534222878
 31
0.0
  0
LINE
  5
192E5
330
747D
100
AcDbEntity
  8
細線
 48
50.0
100
AcDbLine
 10
9391.352392096683
 20
7798.23534222878
 30
0.0
 11
9376.352392096682
 21
7798.23534222878
 31
0.0
  0
LINE
  5
192E6
330
747D
100
AcDbEntity
  8
細線
 48
50.0
100
AcDbLine
 10
9376.352392096682
 20
7798.23534222878
 30
0.0
 11
9376.352392096682
 21
7805.235342228781
 31
0.0
  0
LINE
  5
192E7
330
747D
100
AcDbEntity
  8
細線
 48
50.0
100
AcDbLine
 10
9376.352392096682
 20
7805.235342228781
 30
0.0
 11
9361.352392096684
 21
7805.235342228776
 31
0.0
  0
LINE
  5
192E8
330
747D
100
AcDbEntity
  8
細線
 48
50.0
100
AcDbLine
 10
9361.352392096684
 20
7805.235342228776
 30
0.0
 11
9361.352392096684
 21
7767.635114125666
 31
0.0
  0
LINE
  5
192E9
330
747D
100
AcDbEntity
  8
細線
 48
50.0
100
AcDbLine
 10
9361.352392096684
 20
7767.635114125666
 30
0.0
 11
9381.352399397858
 21
7767.635155675208
 31
0.0
  0
LINE
  5
192EA
330
747D
100
AcDbEntity
  8
細線
 48
50.0
100
AcDbLine
 10
9381.352354528917
 20
7776.238617311015
 30
0.0
 11
9381.352399397858
 21
7767.635155675208
 31
0.0
  0
LINE
  5
192EB
330
747D
100
AcDbEntity
  8
細線
 48
50.0
100
AcDbLine
 10
9381.352354528917
 20
7776.238617311015
 30
0.0
 11
9392.585043883626
 21
7776.238800264163
 31
0.0
  0
ARC
  5
192EC
330
747D
100
AcDbEntity
  8
細線
 48
50.0
100
AcDbCircle
 10
9399.167336190961
 20
7775.038964177776
 30
0.0
 40
1.8
100
AcDbArc
 50
270.0006665777295
 51
345.0005554812987
  0
LINE
  5
192ED
330
747D
100
AcDbEntity
  8
細線
 48
50.0
100
AcDbLine
 10
9401.153769637041
 20
7775.497804635055
 30
0.0
 11
9400.906007194842
 21
7774.573106752947
 31
0.0
  0
LINE
  5
192EE
330
747D
100
AcDbEntity
  8
細線
 48
50.0
100
AcDbLine
 10
9399.167357132117
 20
7773.238964177896
 30
0.0
 11
9395.53742971335
 21
7773.238921947416
 31
0.0
  0
ARC
  5
192EF
330
747D
100
AcDbEntity
  8
細線
 48
50.0
100
AcDbCircle
 10
9395.537408772197
 20
7775.038921947295
 30
0.0
 40
1.8
100
AcDbArc
 50
195.0010443049394
 51
270.0006665777295
  0
LINE
  5
192F0
330
747D
100
AcDbEntity
  8
細線
 48
50.0
100
AcDbLine
 10
9393.550981279938
 20
7775.49763691486
 30
0.0
 11
9393.798750776451
 21
7774.573015976279
 31
0.0
  0
ARC
  5
192F1
330
747D
100
AcDbEntity
  8
細線
 48
50.0
100
AcDbCircle
 10
9392.585060171191
 20
7775.238800264297
 30
0.0
 40
1.0
100
AcDbArc
 50
15.00104430493943
 51
90.00093320877969
  0
LINE
  5
192F2
330
747D
100
AcDbEntity
  8
細線
 48
50.0
100
AcDbLine
 10
9402.119690992146
 20
7776.238994954567
 30
0.0
 11
9403.061451143051
 21
7776.239001528416
 31
0.0
  0
ARC
  5
192F3
330
747D
100
AcDbEntity
  8
細線
 48
50.0
100
AcDbCircle
 10
9402.11969797253
 20
7775.238994954593
 30
0.0
 40
1.0
100
AcDbArc
 50
90.0003999466794
 51
165.0005554812987
  0
LINE
  5
192F4
330
747D
100
AcDbEntity
  8
細線
 48
50.0
100
AcDbLine
 10
10438.35239209668
 20
7835.238973786322
 30
0.0
 11
10438.35239209668
 21
7810.238973786319
 31
0.0
  0
LINE
  5
192F5
330
747D
100
AcDbEntity
  8
細線
100
AcDbLine
 10
10428.85239209668
 20
7810.238973786318
 30
0.0
 11
10320.85239209668
 21
7810.238973786318
 31
0.0
  0
LINE
  5
192F6
330
747D
100
AcDbEntity
  8
細線
 48
50.0
100
AcDbLine
 10
9853.352397247588
 20
7802.238973786322
 30
0.0
 11
9853.35239724759
 21
7840.238973786314
 31
0.0
  0
LINE
  5
192F7
330
747D
100
AcDbEntity
  8
細線
 48
50.0
100
AcDbLine
 10
9853.35239724759
 20
7840.238973786314
 30
0.0
 11
9868.352397247589
 21
7840.238973786317
 31
0.0
  0
LINE
  5
192F8
330
747D
100
AcDbEntity
  8
細線
 48
50.0
100
AcDbLine
 10
9868.352397247589
 20
7840.238973786317
 30
0.0
 11
9868.352397247589
 21
7835.238973786317
 31
0.0
  0
LINE
  5
192F9
330
747D
100
AcDbEntity
  8
細線
 48
50.0
100
AcDbLine
 10
9853.352397247588
 20
7802.238973786322
 30
0.0
 11
9873.35239724759
 21
7802.238973786318
 31
0.0
  0
LINE
  5
192FA
330
747D
100
AcDbEntity
  8
細線
 48
50.0
100
AcDbLine
 10
9873.35239724759
 20
7802.238973786318
 30
0.0
 11
9873.35239724759
 21
7810.238973786318
 31
0.0
  0
LINE
  5
192FB
330
747D
100
AcDbEntity
  8
細線
100
AcDbLine
 10
10110.85239209668
 20
7810.238973786318
 30
0.0
 11
10040.85239209668
 21
7810.238973786318
 31
0.0
  0
LINE
  5
192FC
330
747D
100
AcDbEntity
  8
細線
 48
50.0
100
AcDbLine
 10
9970.852392096681
 20
7810.238973786316
 30
0.0
 11
9886.148176820428
 21
7810.238973786318
 31
0.0
  0
LINE
  5
192FD
330
747D
100
AcDbEntity
  8
細線
100
AcDbLine
 10
10250.85239209668
 20
7810.238973786318
 30
0.0
 11
10180.85239209667
 21
7810.238973786318
 31
0.0
  0
LINE
  5
192FE
330
747D
100
AcDbEntity
  8
細線
100
AcDbLine
 10
10078.85239209668
 20
7810.238973786316
 30
0.0
 11
10078.85239209668
 21
7839.538973786317
 31
0.0
  0
LINE
  5
192FF
330
747D
100
AcDbEntity
  8
細線
100
AcDbLine
 10
10058.85239209668
 20
7839.538973786317
 30
0.0
 11
10078.85239209668
 21
7839.538973786317
 31
0.0
  0
LINE
  5
19300
330
747D
100
AcDbEntity
  8
細線
100
AcDbLine
 10
10058.85239209668
 20
7810.238973786316
 30
0.0
 11
10058.85239209668
 21
7839.538973786317
 31
0.0
  0
LINE
  5
19301
330
747D
100
AcDbEntity
  8
細線
 48
50.0
100
AcDbLine
 10
10422.45239209668
 20
7835.238973786319
 30
0.0
 11
10412.45239209668
 21
7840.238973786319
 31
0.0
  0
LINE
  5
19302
330
747D
100
AcDbEntity
  8
細線
 48
50.0
100
AcDbLine
 10
10438.35239209668
 20
7835.238973786322
 30
0.0
 11
10422.45239209668
 21
7835.238973786319
 31
0.0
  0
LINE
  5
19303
330
747D
100
AcDbEntity
  8
細線
 48
50.0
100
AcDbLine
 10
10412.45239209668
 20
7840.238973786316
 30
0.0
 11
9868.352397247589
 21
7840.238973786314
 31
0.0
  0
LINE
  5
19304
330
747D
100
AcDbEntity
  8
細線
 48
50.0
100
AcDbLine
 10
9879.35239724759
 20
7809.438973786318
 30
0.0
 11
9879.35239724759
 21
7807.938973786318
 31
0.0
  0
LINE
  5
19305
330
747D
100
AcDbEntity
  8
細線
 48
50.0
100
AcDbLine
 10
9880.052397247588
 20
7807.238973786318
 30
0.0
 11
9884.652397247588
 21
7807.238973786318
 31
0.0
  0
LINE
  5
19306
330
747D
100
AcDbEntity
  8
細線
 48
50.0
100
AcDbLine
 10
9885.352397247588
 20
7807.938973786318
 30
0.0
 11
9885.352404072703
 21
7809.438988677806
 31
0.0
  0
ARC
  5
19307
330
747D
100
AcDbEntity
  8
細線
 48
50.0
100
AcDbCircle
 10
9884.652397247588
 20
7807.938973786318
 30
0.0
 40
0.7
100
AcDbArc
 50
270.0
 51
0.0
  0
ARC
  5
19308
330
747D
100
AcDbEntity
  8
細線
 48
50.0
100
AcDbCircle
 10
9880.052397247588
 20
7807.938973786318
 30
0.0
 40
0.7
100
AcDbArc
 50
180.0
 51
270.0
  0
LINE
  5
19309
330
747D
100
AcDbEntity
  8
細線
 48
50.0
100
AcDbLine
 10
9878.552399109032
 20
7810.238973786318
 30
0.0
 11
9873.35239724759
 21
7810.238973786318
 31
0.0
  0
ARC
  5
1930A
330
747D
100
AcDbEntity
  8
細線
 48
50.0
100
AcDbCircle
 10
9886.152404072696
 20
7809.438984954936
 30
0.0
 40
0.8
100
AcDbArc
 50
90.00014387753465
 51
179.9997333689498
  0
ARC
  5
1930B
330
747D
100
AcDbEntity
  8
細線
 48
50.0
100
AcDbCircle
 10
9878.552397247597
 20
7809.438973786318
 30
0.0
 40
0.8
100
AcDbArc
 50
359.9997333689499
 51
89.99986668437072
  0
LINE
  5
1930C
330
747D
100
AcDbEntity
  8
細線
 48
50.0
100
AcDbLine
 10
9592.852356777788
 20
7776.238985648905
 30
0.0
 11
9522.852339489912
 21
7776.238985648912
 31
0.0
  0
LINE
  5
1930D
330
747D
100
AcDbEntity
  8
細線
 48
50.0
100
AcDbLine
 10
9452.85239209668
 20
7776.238993836274
 30
0.0
 11
9403.061451143051
 21
7776.239001528416
 31
0.0
  0
LINE
  5
1930E
330
747D
100
AcDbEntity
  8
細線
 48
50.0
100
AcDbLine
 10
9802.852383859919
 20
7776.238985648908
 30
0.0
 11
9894.35239209668
 21
7776.238985648908
 31
0.0
  0
LINE
  5
1930F
330
747D
100
AcDbEntity
  8
細線
 48
50.0
100
AcDbLine
 10
9732.852392096681
 20
7776.238982898902
 30
0.0
 11
9662.852635993679
 21
7776.238988398937
 31
0.0
  0
LINE
  5
19310
330
747D
100
AcDbEntity
  8
細線
 48
50.0
100
AcDbLine
 10
9894.352402398503
 20
7805.239191821181
 30
0.0
 11
9894.35239209668
 21
7776.238985648908
 31
0.0
  0
LINE
  5
19311
330
747D
100
AcDbEntity
  8
細線
 48
50.0
100
AcDbLine
 10
9879.352404227972
 20
7805.239191821181
 30
0.0
 11
9894.352402398503
 21
7805.239191821181
 31
0.0
  0
LINE
  5
19312
330
747D
100
AcDbEntity
  8
細線
 48
50.0
100
AcDbLine
 10
9879.352392593998
 20
7798.239191821138
 30
0.0
 11
9879.352404227972
 21
7805.239191821181
 31
0.0
  0
LINE
  5
19313
330
747D
100
AcDbEntity
  8
細線
 48
50.0
100
AcDbLine
 10
9864.352392594
 20
7798.239191821138
 30
0.0
 11
9879.352392593998
 21
7798.239191821138
 31
0.0
  0
LINE
  5
19314
330
747D
100
AcDbEntity
  8
細線
 48
50.0
100
AcDbLine
 10
9864.352392594
 20
7793.38919182114
 30
0.0
 11
9864.352392594
 21
7798.239191821138
 31
0.0
  0
LINE
  5
19315
330
747D
100
AcDbEntity
  8
細線
 48
50.0
100
AcDbLine
 10
9864.352392594
 20
7796.839191821139
 30
0.0
 11
9391.352392096683
 21
7796.839191821135
 31
0.0
  0
LINE
  5
19316
330
747D
100
AcDbEntity
  8
細線
 48
50.0
100
AcDbLine
 10
9372.352392096683
 20
7762.839147963273
 30
0.0
 11
8786.852396750271
 21
7762.839147963273
 31
0.0
  0
LINE
  5
19317
330
747D
100
AcDbEntity
  8
細線
 48
50.0
100
AcDbLine
 10
9195.235483767374
 20
7760.509999253766
 30
0.0
 11
9200.991001350043
 21
7742.239147963272
 31
0.0
  0
LINE
  5
19318
330
747D
100
AcDbEntity
  8
細線
 48
50.0
100
AcDbLine
 10
9184.307035286941
 20
7760.509999253763
 30
0.0
 11
9195.235483767374
 21
7760.509999253766
 31
0.0
  0
ARC
  5
19319
330
747D
100
AcDbEntity
  8
細線
 48
50.0
100
AcDbCircle
 10
9178.852679229624
 20
7762.009999253763
 30
0.0
 40
5.0
100
AcDbArc
 50
204.6243183521304
 51
335.3756816478695
  0
ARC
  5
1931A
330
747D
100
AcDbEntity
  8
細線
 48
50.0
100
AcDbCircle
 10
9184.307035286941
 20
7759.509999253762
 30
0.0
 40
1.0
100
AcDbArc
 50
90.0
 51
155.3756816478695
  0
ARC
  5
1931B
330
747D
100
AcDbEntity
  8
細線
 48
50.0
100
AcDbCircle
 10
9173.398323172307
 20
7759.509999253762
 30
0.0
 40
1.0
100
AcDbArc
 50
24.62431835213048
 51
90.0
  0
LINE
  5
1931C
330
747D
100
AcDbEntity
  8
細線
 48
50.0
100
AcDbLine
 10
9162.469874691876
 20
7760.509999253766
 30
0.0
 11
9173.398323172307
 21
7760.509999253763
 31
0.0
  0
LINE
  5
1931D
330
747D
100
AcDbEntity
  8
細線
 48
50.0
100
AcDbLine
 10
9156.714357109207
 20
7742.239147963272
 30
0.0
 11
9162.469874691876
 21
7760.509999253766
 31
0.0
  0
LINE
  5
1931E
330
747D
100
AcDbEntity
  8
細線
 48
50.0
100
AcDbLine
 10
9143.852392096679
 20
7742.239147963272
 30
0.0
 11
9213.852392096679
 21
7742.239147963272
 31
0.0
  0
LINE
  5
1931F
330
747D
100
AcDbEntity
  8
細線
 48
50.0
100
AcDbLine
 10
8763.85239209668
 20
7742.236482306743
 30
0.0
 11
9073.852945201108
 21
7742.240369206938
 31
0.0
  0
LINE
  5
19320
330
747D
100
AcDbEntity
  8
細線
 48
50.0
100
AcDbLine
 10
8786.852396750271
 20
7771.235298370912
 30
0.0
 11
8772.85239209668
 21
7771.235298370908
 31
0.0
  0
LINE
  5
19321
330
747D
100
AcDbEntity
  8
細線
 48
50.0
100
AcDbLine
 10
8786.852396750271
 20
7762.839147963273
 30
0.0
 11
8786.852396750271
 21
7771.235298370912
 31
0.0
  0
LINE
  5
19322
330
747D
100
AcDbEntity
  8
細線
  6
Continuous
 62
     5
100
AcDbLine
 10
9866.35239724759
 20
7795.238973786315
 30
0.0
 11
9866.35239724759
 21
7795.238973786315
 31
0.0
  0
LINE
  5
19323
330
747D
100
AcDbEntity
  8
部品1
100
AcDbLine
 10
8763.85239209668
 20
7737.238973786317
 30
0.0
 11
10467.85239209668
 21
7737.238973786316
 31
0.0
  0
LINE
  5
19324
330
747D
100
AcDbEntity
  8
部品1
100
AcDbLine
 10
10437.85239209668
 20
7737.238973786318
 30
0.0
 11
10467.85239209668
 21
7737.238973786318
 31
0.0
  0
LINE
  5
19325
330
747D
100
AcDbEntity
  8
部品1
100
AcDbLine
 10
8760.85239209668
 20
7841.238973786314
 30
0.0
 11
10440.85239209668
 21
7841.238973786317
 31
0.0
  0
LINE
  5
19326
330
747D
100
AcDbEntity
  8
部品1
100
AcDbLine
 10
8760.85239209668
 20
7841.238973786314
 30
0.0
 11
8760.85239209668
 21
7810.238973786318
 31
0.0
  0
LINE
  5
19327
330
747D
100
AcDbEntity
  8
部品1
100
AcDbLine
 10
8772.85239209668
 20
7810.238973786318
 30
0.0
 11
8772.85239209668
 21
7746.238973786318
 31
0.0
  0
LINE
  5
19328
330
747D
100
AcDbEntity
  8
部品1
100
AcDbLine
 10
8733.852392096681
 20
7737.238973786317
 30
0.0
 11
8733.852392096681
 21
7814.238973786318
 31
0.0
  0
LINE
  5
19329
330
747D
100
AcDbEntity
  8
部品1
100
AcDbLine
 10
8763.85239209668
 20
7737.238973786317
 30
0.0
 11
8733.852392096681
 21
7737.238973786317
 31
0.0
  0
LINE
  5
1932A
330
747D
100
AcDbEntity
  8
部品1
100
AcDbLine
 10
8772.85239209668
 20
7746.238973786318
 30
0.0
 11
8763.85239209668
 21
7746.238973786318
 31
0.0
  0
LINE
  5
1932B
330
747D
100
AcDbEntity
  8
部品1
100
AcDbLine
 10
8763.85239209668
 20
7746.238973786318
 30
0.0
 11
8763.85239209668
 21
7737.238973786317
 31
0.0
  0
LINE
  5
1932C
330
747D
100
AcDbEntity
  8
部品1
100
AcDbLine
 10
8733.852392096681
 20
7814.238973786318
 30
0.0
 11
8760.85239209668
 21
7814.238973786318
 31
0.0
  0
LINE
  5
1932D
330
747D
100
AcDbEntity
  8
部品1
100
AcDbLine
 10
8772.85239209668
 20
7810.238973786318
 30
0.0
 11
8760.85239209668
 21
7810.238973786318
 31
0.0
  0
LINE
  5
1932E
330
747D
100
AcDbEntity
  8
部品1
100
AcDbLine
 10
10440.85239209668
 20
7841.238973786319
 30
0.0
 11
10440.85239209668
 21
7810.238973786319
 31
0.0
  0
LINE
  5
1932F
330
747D
100
AcDbEntity
  8
部品1
100
AcDbLine
 10
10428.85239209668
 20
7810.238973786319
 30
0.0
 11
10428.85239209668
 21
7746.238973786319
 31
0.0
  0
LINE
  5
19330
330
747D
100
AcDbEntity
  8
部品1
100
AcDbLine
 10
10428.85239209668
 20
7746.238973786319
 30
0.0
 11
10437.85239209668
 21
7746.238973786319
 31
0.0
  0
LINE
  5
19331
330
747D
100
AcDbEntity
  8
部品1
100
AcDbLine
 10
10437.85239209668
 20
7746.238973786319
 30
0.0
 11
10437.85239209668
 21
7737.238973786318
 31
0.0
  0
LINE
  5
19332
330
747D
100
AcDbEntity
  8
部品1
100
AcDbLine
 10
10428.85239209668
 20
7810.238973786319
 30
0.0
 11
10440.85239209668
 21
7810.238973786319
 31
0.0
  0
LINE
  5
19333
330
747D
100
AcDbEntity
  8
部品1
100
AcDbLine
 10
10467.85239209668
 20
7737.238973786318
 30
0.0
 11
10467.85239209668
 21
7814.238973786318
 31
0.0
  0
LINE
  5
19335
330
747D
100
AcDbEntity
  8
部品1
100
AcDbLine
 10
10440.85239209668
 20
7814.238973786318
 30
0.0
 11
10467.85239209668
 21
7814.238973786318
 31
0.0
  0
DIMENSION
  5
19336
330
747D
100
AcDbEntity
  8
寸法
 48
50.0
100
AcDbDimension
  2
*D29
 10
9722.852392096681
 20
7112.163955738093
 30
0.0
 11
9247.85239209668
 21
7112.163955738093
 31
0.0
 70
   160
  1
有効開口部間口\P<>
 71
     5
 42
950.0
  3
INABA_S40
100
AcDbAlignedDimension
 13
8772.85239209668
 23
7737.238973786317
 33
0.0
 14
9722.852392096681
 24
7737.238973786317
 34
0.0
100
AcDbRotatedDimension
1001
ACAD
1000
DSTYLE
1002
{
1070
    41
1040
0.5
1070
    44
1040
1.0
1070
   147
1040
0.8
1070
   271
1070
     2
1070
   272
1070
     2
1070
   289
1070
     3
1070
   340
1005
F706
1070
   343
1005
17214
1070
   344
1005
17214
1002
}
  0
LINE
  5
19337
330
747D
100
AcDbEntity
  8
細線
100
AcDbLine
 10
8772.85239209668
 20
7746.238973786318
 30
0.0
 11
8772.85239209668
 21
7742.238973786365
 31
0.0
  0
LINE
  5
19338
330
747D
100
AcDbEntity
  8
細線
100
AcDbLine
 10
8929.352285497941
 20
7760.238043331918
 30
0.0
 11
8929.352285497941
 21
7742.238043331892
 31
0.0
  0
LINE
  5
19339
330
747D
100
AcDbEntity
  8
細線
100
AcDbLine
 10
8888.352285497942
 20
7760.238043331911
 30
0.0
 11
8888.352285497942
 21
7742.238043331892
 31
0.0
  0
LINE
  5
1933A
330
747D
100
AcDbEntity
  8
細線
100
AcDbLine
 10
8929.352285497941
 20
7760.238043331918
 30
0.0
 11
8888.352285497942
 21
7760.238043331911
 31
0.0
  0
ARC
  5
1933B
330
747D
100
AcDbEntity
  8
部品1
100
AcDbCircle
 10
8890.896441375218
 20
7741.738043331913
 30
0.0
 40
1.0
100
AcDbArc
 50
270.0
 51
19.47122063442214
  0
LINE
  5
1933C
330
747D
100
AcDbEntity
  8
部品1
 48
0.01
100
AcDbLine
 10
8883.852285497935
 20
7742.238043331915
 30
0.0
 11
8883.852285497935
 21
7741.238043331915
 31
0.0
  0
LINE
  5
1933D
330
747D
100
AcDbEntity
  8
部品1
 48
0.01
100
AcDbLine
 10
8884.352285497936
 20
7740.738043331915
 30
0.0
 11
8890.896441375218
 21
7740.738043331915
 31
0.0
  0
ARC
  5
1933E
330
747D
100
AcDbEntity
  8
部品1
 48
0.01
100
AcDbCircle
 10
8884.352285497936
 20
7741.238043331915
 30
0.0
 40
0.5
100
AcDbArc
 50
180.0
 51
270.0
  0
ARC
  5
1933F
330
747D
100
AcDbEntity
  8
部品1
100
AcDbCircle
 10
8916.352285497934
 20
7750.738043331914
 30
0.0
 40
26.0
100
AcDbArc
 50
180.0
 51
199.4712206344221
  0
ARC
  5
19340
330
747D
100
AcDbEntity
  8
部品1
 48
0.01
100
AcDbCircle
 10
8892.352285497935
 20
7755.738043331914
 30
0.0
 40
2.0
100
AcDbArc
 50
90.0
 51
180.0
  0
LINE
  5
19341
330
747D
100
AcDbEntity
  8
部品1
100
AcDbLine
 10
8890.352285497934
 20
7750.738043331914
 30
0.0
 11
8890.352285497934
 21
7755.738043331914
 31
0.0
  0
ARC
  5
19342
330
747D
100
AcDbEntity
  8
部品1
100
AcDbCircle
 10
8908.852285497934
 20
7766.538043331917
 30
0.0
 40
16.0
100
AcDbArc
 50
218.3930440192126
 51
254.0576313943215
  0
ARC
  5
19343
330
747D
100
AcDbEntity
  8
部品1
100
AcDbCircle
 10
8893.960677122747
 20
7754.738043331915
 30
0.0
 40
3.0
100
AcDbArc
 50
38.39304401921267
 51
90.0
  0
LINE
  5
19344
330
747D
100
AcDbEntity
  8
部品1
 48
0.01
100
AcDbLine
 10
8892.352285497935
 20
7757.738043331913
 30
0.0
 11
8893.960677122747
 21
7757.738043331913
 31
0.0
  0
ARC
  5
19345
330
747D
100
AcDbEntity
  8
部品1
100
AcDbCircle
 10
8908.852285497934
 20
7766.538043331917
 30
0.0
 40
16.0
100
AcDbArc
 50
285.9423686056786
 51
321.6069559807873
  0
LINE
  5
19346
330
747D
100
AcDbEntity
  8
部品1
100
AcDbLine
 10
8912.422999712205
 20
7751.038043331917
 30
0.0
 11
8905.281571283664
 21
7751.038043331917
 31
0.0
  0
ARC
  5
19347
330
747D
100
AcDbEntity
  8
部品1
100
AcDbCircle
 10
8912.422999712205
 20
7754.038043331917
 30
0.0
 40
3.0
100
AcDbArc
 50
270.0
 51
285.9423686056786
  0
ARC
  5
19348
330
747D
100
AcDbEntity
  8
部品1
100
AcDbCircle
 10
8905.281571283664
 20
7754.038043331917
 30
0.0
 40
3.0
100
AcDbArc
 50
254.0576313943215
 51
270.0
  0
LINE
  5
19349
330
747D
100
AcDbEntity
  8
部品1
 48
0.01
100
AcDbLine
 10
8925.352285497934
 20
7757.738043331913
 30
0.0
 11
8923.743893873123
 21
7757.738043331913
 31
0.0
  0
ARC
  5
1934A
330
747D
100
AcDbEntity
  8
部品1
100
AcDbCircle
 10
8923.743893873123
 20
7754.738043331915
 30
0.0
 40
3.0
100
AcDbArc
 50
90.0
 51
141.6069559807873
  0
ARC
  5
1934B
330
747D
100
AcDbEntity
  8
部品1
 48
0.01
100
AcDbCircle
 10
8925.352285497934
 20
7755.738043331914
 30
0.0
 40
2.0
100
AcDbArc
 50
0.0
 51
90.0
  0
LINE
  5
1934C
330
747D
100
AcDbEntity
  8
部品1
100
AcDbLine
 10
8927.352285497935
 20
7750.738043331914
 30
0.0
 11
8927.352285497935
 21
7755.738043331914
 31
0.0
  0
ARC
  5
1934D
330
747D
100
AcDbEntity
  8
部品1
100
AcDbCircle
 10
8901.352285497933
 20
7750.738043331914
 30
0.0
 40
26.0
100
AcDbArc
 50
340.5287793655779
 51
0.0
  0
ARC
  5
1934E
330
747D
100
AcDbEntity
  8
部品1
100
AcDbCircle
 10
8926.808129620651
 20
7741.738043331913
 30
0.0
 40
1.0
100
AcDbArc
 50
160.5287793655778
 51
270.0
  0
LINE
  5
1934F
330
747D
100
AcDbEntity
  8
部品1
 48
0.01
100
AcDbLine
 10
8933.352285497935
 20
7740.738043331915
 30
0.0
 11
8926.739780067872
 21
7740.738043331915
 31
0.0
  0
LINE
  5
19350
330
747D
100
AcDbEntity
  8
部品1
 48
0.01
100
AcDbLine
 10
8933.852285497934
 20
7742.238043331915
 30
0.0
 11
8933.852285497934
 21
7741.238043331915
 31
0.0
  0
LINE
  5
19351
330
747D
100
AcDbEntity
  8
部品1
 48
0.01
100
AcDbLine
 10
8933.852285497934
 20
7742.238043331915
 30
0.0
 11
8933.852285497934
 21
7741.238043331915
 31
0.0
  0
ARC
  5
19352
330
747D
100
AcDbEntity
  8
部品1
 48
0.01
100
AcDbCircle
 10
8933.352285497935
 20
7741.238043331915
 30
0.0
 40
0.5
100
AcDbArc
 50
270.0
 51
0.0
  0
LINE
  5
19353
330
747D
100
AcDbEntity
  8
細線
100
AcDbLine
 10
9073.852383911264
 20
7742.239165516981
 30
0.0
 11
9076.18392220203
 21
7747.239165516967
 31
0.0
  0
LINE
  5
19354
330
747D
100
AcDbEntity
  8
細線
100
AcDbLine
 10
9143.852392096679
 20
7742.239147963272
 30
0.0
 11
9141.52084562049
 21
7747.23916551695
 31
0.0
  0
LINE
  5
19355
330
747D
100
AcDbEntity
  8
細線
100
AcDbLine
 10
9141.52084562049
 20
7747.23916551695
 30
0.0
 11
9076.183922202018
 21
7747.239165516939
 31
0.0
  0
LINE
  5
19356
330
747D
100
AcDbEntity
  8
細線
100
AcDbLine
 10
9281.520845620491
 20
7747.23916551695
 30
0.0
 11
9216.183922202018
 21
7747.239165516941
 31
0.0
  0
LINE
  5
19357
330
747D
100
AcDbEntity
  8
細線
100
AcDbLine
 10
9283.852392096678
 20
7742.239147963272
 30
0.0
 11
9281.520845620491
 21
7747.23916551695
 31
0.0
  0
LINE
  5
19358
330
747D
100
AcDbEntity
  8
細線
100
AcDbLine
 10
9213.852383911262
 20
7742.239165516986
 30
0.0
 11
9216.183922202031
 21
7747.239165516972
 31
0.0
  0
LINE
  5
19359
330
747D
100
AcDbEntity
  8
細線
100
AcDbLine
 10
9520.520853805907
 20
7781.238993836241
 30
0.0
 11
9455.183930387432
 21
7781.23899383623
 31
0.0
  0
LINE
  5
1935A
330
747D
100
AcDbEntity
  8
細線
100
AcDbLine
 10
9522.852400282095
 20
7776.238976282565
 30
0.0
 11
9520.520853805907
 21
7781.238993836241
 31
0.0
  0
LINE
  5
1935B
330
747D
100
AcDbEntity
  8
細線
100
AcDbLine
 10
9452.85239209668
 20
7776.238993836274
 30
0.0
 11
9455.183930387446
 21
7781.23899383626
 31
0.0
  0
LINE
  5
1935C
330
747D
100
AcDbEntity
  8
細線
100
AcDbLine
 10
9592.852356777788
 20
7776.238985648905
 30
0.0
 11
9595.183895068554
 21
7781.23898564889
 31
0.0
  0
LINE
  5
1935D
330
747D
100
AcDbEntity
  8
細線
100
AcDbLine
 10
9662.852364963203
 20
7776.238968095196
 30
0.0
 11
9660.520818487015
 21
7781.238985648875
 31
0.0
  0
LINE
  5
1935E
330
747D
100
AcDbEntity
  8
細線
100
AcDbLine
 10
9660.520818487015
 20
7781.238985648875
 30
0.0
 11
9595.18389506854
 21
7781.238985648861
 31
0.0
  0
LINE
  5
1935F
330
747D
100
AcDbEntity
  8
細線
100
AcDbLine
 10
9800.52085503695
 20
7781.238965345133
 30
0.0
 11
9735.183931618479
 21
7781.238965345119
 31
0.0
  0
LINE
  5
19360
330
747D
100
AcDbEntity
  8
細線
100
AcDbLine
 10
9802.85240151314
 20
7776.238947791454
 30
0.0
 11
9800.52085503695
 21
7781.238965345133
 31
0.0
  0
LINE
  5
19361
330
747D
100
AcDbEntity
  8
細線
100
AcDbLine
 10
9732.852392096681
 20
7776.238962705187
 30
0.0
 11
9735.183931618491
 21
7781.238965345149
 31
0.0
  0
LINE
  5
19362
330
747D
100
AcDbEntity
  8
細線
 48
50.0
100
AcDbLine
 10
9675.714614021231
 20
7776.238985648905
 30
0.0
 11
9681.470131603898
 21
7794.509836939399
 31
0.0
  0
LINE
  5
19363
330
747D
100
AcDbEntity
  8
細線
 48
50.0
100
AcDbLine
 10
9681.470131603898
 20
7794.509836939399
 30
0.0
 11
9692.398580084329
 21
7794.509836939399
 31
0.0
  0
ARC
  5
19364
330
747D
100
AcDbEntity
  8
細線
 48
50.0
100
AcDbCircle
 10
9692.398580084329
 20
7793.509836939398
 30
0.0
 40
1.0
100
AcDbArc
 50
24.62431835213048
 51
90.0
  0
ARC
  5
19365
330
747D
100
AcDbEntity
  8
細線
 48
50.0
100
AcDbCircle
 10
9703.307292198966
 20
7793.509836939398
 30
0.0
 40
1.0
100
AcDbArc
 50
90.0
 51
155.3756816478695
  0
ARC
  5
19366
330
747D
100
AcDbEntity
  8
細線
 48
50.0
100
AcDbCircle
 10
9697.852936141648
 20
7796.009836939399
 30
0.0
 40
5.0
100
AcDbArc
 50
204.6243183521304
 51
335.3756816478695
  0
LINE
  5
19367
330
747D
100
AcDbEntity
  8
細線
 48
50.0
100
AcDbLine
 10
9703.307292198966
 20
7794.509836939399
 30
0.0
 11
9714.235740679397
 21
7794.509836939399
 31
0.0
  0
LINE
  5
19368
330
747D
100
AcDbEntity
  8
細線
 48
50.0
100
AcDbLine
 10
9714.235740679397
 20
7794.509836939399
 30
0.0
 11
9719.991258262066
 21
7776.238985648912
 31
0.0
  0
LINE
  5
19369
330
747D
100
AcDbEntity
  8
細線
100
AcDbLine
 10
10038.52085503695
 20
7815.238976426265
 30
0.0
 11
9973.183931618477
 21
7815.238976426249
 31
0.0
  0
LINE
  5
1936A
330
747D
100
AcDbEntity
  8
細線
100
AcDbLine
 10
10040.85240151314
 20
7810.238958872584
 30
0.0
 11
10038.52085503694
 21
7815.238976426265
 31
0.0
  0
LINE
  5
1936B
330
747D
100
AcDbEntity
  8
細線
100
AcDbLine
 10
9970.852392096681
 20
7810.238973786318
 30
0.0
 11
9973.183931618491
 21
7815.238976426279
 31
0.0
  0
LINE
  5
1936C
330
747D
100
AcDbEntity
  8
細線
100
AcDbLine
 10
10110.85238268022
 20
7810.238988700051
 30
0.0
 11
10113.18392220203
 21
7815.238991340013
 31
0.0
  0
LINE
  5
1936D
330
747D
100
AcDbEntity
  8
細線
100
AcDbLine
 10
10180.85239209667
 20
7810.238973786318
 30
0.0
 11
10178.52084562049
 21
7815.238991339999
 31
0.0
  0
LINE
  5
1936E
330
747D
100
AcDbEntity
  8
細線
100
AcDbLine
 10
10178.52084562049
 20
7815.238991339999
 30
0.0
 11
10113.18392220202
 21
7815.238991339985
 31
0.0
  0
LINE
  5
1936F
330
747D
100
AcDbEntity
  8
細線
100
AcDbLine
 10
10318.52084562049
 20
7815.238991339999
 30
0.0
 11
10253.18392220202
 21
7815.238991339985
 31
0.0
  0
LINE
  5
19370
330
747D
100
AcDbEntity
  8
細線
100
AcDbLine
 10
10320.85239209668
 20
7810.238973786318
 30
0.0
 11
10318.52084562049
 21
7815.238991339999
 31
0.0
  0
LINE
  5
19371
330
747D
100
AcDbEntity
  8
細線
100
AcDbLine
 10
10250.85238268022
 20
7810.238988700051
 30
0.0
 11
10253.18392220203
 21
7815.238991340013
 31
0.0
  0
LINE
  5
19372
330
747D
100
AcDbEntity
  8
細線
 48
50.0
100
AcDbLine
 10
9361.352392096684
 20
7786.435228177222
 30
0.0
 11
8772.85239209668
 21
7786.435228177217
 31
0.0
  0
LINE
  5
19373
330
747D
100
AcDbEntity
  8
細線
 48
50.0
100
AcDbLine
 10
9402.352392096682
 20
7757.030320180968
 30
0.0
 11
10428.85239209668
 21
7757.030320180966
 31
0.0
  0
LINE
  5
19374
330
747D
100
AcDbEntity
  8
細線
 48
50.0
100
AcDbLine
 10
9894.35239724759
 20
7790.739088735043
 30
0.0
 11
10428.85239209668
 21
7790.739088735044
 31
0.0
  0
LINE
  5
19375
330
747D
100
AcDbEntity
  8
寸法
 48
50.0
100
AcDbLine
 10
9345.353211075078
 20
7625.497681840518
 30
0.0
 11
9564.505151250802
 21
7625.497681840518
 31
0.0
  0
LINE
  5
19376
330
747D
100
AcDbEntity
  8
寸法
 48
50.0
100
AcDbLine
 10
9564.505151250802
 20
7625.497681840518
 30
0.0
 11
9475.22093265538
 21
7649.421316110004
 31
0.0
  0
LINE
  5
19377
330
747D
100
AcDbEntity
  8
寸法
 48
50.0
100
AcDbLine
 10
9475.22093265538
 20
7649.421316110004
 30
0.0
 11
9475.22093265538
 21
7595.757681528214
 31
0.0
  0
LINE
  5
19378
330
747D
100
AcDbEntity
  8
寸法
 48
50.0
100
AcDbLine
 10
9144.649390468421
 20
7592.275725355181
 30
0.0
 11
9196.055398378524
 21
7592.275725355181
 31
0.0
  0
LINE
  5
19379
330
747D
100
AcDbEntity
  8
寸法
 48
50.0
100
AcDbLine
 10
9196.055398378524
 20
7592.275725355181
 30
0.0
 11
9196.055398378524
 21
7623.585884007347
 31
0.0
  0
LINE
  5
1937A
330
747D
100
AcDbEntity
  8
寸法
 48
50.0
100
AcDbLine
 10
9196.055398378524
 20
7623.585884007347
 30
0.0
 11
9225.816730369947
 21
7623.585884007347
 31
0.0
  0
LINE
  5
1937B
330
747D
100
AcDbEntity
  8
寸法
 48
50.0
100
AcDbLine
 10
9225.816730369947
 20
7623.585884007347
 30
0.0
 11
9170.352394423472
 21
7661.165334935957
 31
0.0
  0
LINE
  5
1937C
330
747D
100
AcDbEntity
  8
寸法
 48
50.0
100
AcDbLine
 10
9114.888058476998
 20
7623.585884007347
 30
0.0
 11
9170.352394423472
 21
7661.165334935957
 31
0.0
  0
LINE
  5
1937D
330
747D
100
AcDbEntity
  8
寸法
 48
50.0
100
AcDbLine
 10
9144.649390468421
 20
7623.585884007347
 30
0.0
 11
9114.888058476998
 21
7623.585884007347
 31
0.0
  0
LINE
  5
1937E
330
747D
100
AcDbEntity
  8
寸法
 48
50.0
100
AcDbLine
 10
9144.649390468421
 20
7592.275725355181
 30
0.0
 11
9144.649390468421
 21
7623.585884007347
 31
0.0
  0
LINE
  5
1937F
330
747D
100
AcDbEntity
  8
寸法
 48
50.0
100
AcDbLine
 10
9196.055398378524
 20
7592.275725355181
 30
0.0
 11
9144.649390468421
 21
7592.275725355181
 31
0.0
  0
DIMENSION
  5
19954
330
747D
100
AcDbEntity
  8
寸法
100
AcDbDimension
  2
*D30
 10
10495.85239209669
 20
6622.411183041444
 30
0.0
 11
9588.999142428063
 21
6622.411183041444
 31
0.0
 70
   160
 71
     5
 42
1789.999999999982
  3
INABA_S40G
100
AcDbAlignedDimension
 13
8705.852392096709
 23
7814.238973786347
 33
0.0
 14
10495.85239209669
 24
7814.238973786476
 34
0.0
100
AcDbRotatedDimension
1001
ACAD
1000
DSTYLE
1002
{
1002
}
  0
TEXT
  5
19955
330
747D
100
AcDbEntity
  8
部品1
100
AcDbText
 10
9309.036668811527
 20
6150.269310180557
 30
0.0
 40
135.0
  1
平面図
  7
STYLE2
100
AcDbText
  0
LINE
  5
19956
330
747D
100
AcDbEntity
  8
部品1
100
AcDbLine
 10
9219.117058982488
 20
6343.162839399081
 30
0.0
 11
9219.117058982488
 21
6103.270517853548
 31
0.0
  0
LINE
  5
19957
330
747D
100
AcDbEntity
  8
部品1
100
AcDbLine
 10
9219.117058982488
 20
6103.270517853548
 30
0.0
 11
9982.587725210928
 21
6103.270517853548
 31
0.0
  0
LINE
  5
19958
330
747D
100
AcDbEntity
  8
部品1
100
AcDbLine
 10
9982.587725210928
 20
6103.270517853548
 30
0.0
 11
9982.587725210928
 21
6343.162839399081
 31
0.0
  0
LINE
  5
19959
330
747D
100
AcDbEntity
  8
部品1
100
AcDbLine
 10
9982.587725210928
 20
6343.162839399081
 30
0.0
 11
9219.117058982488
 21
6343.162839399081
 31
0.0
  0
DIMENSION
  5
1995A
330
747D
100
AcDbEntity
  8
寸法
100
AcDbDimension
  2
*D31
 10
8411.241146469993
 20
7739.238973786346
 30
0.0
 11
8411.24114646999
 21
7598.753692412109
 31
0.0
 70
   160
 71
     5
 42
75.0
  3
INABA_S40
100
AcDbAlignedDimension
 13
8705.852392096709
 23
7814.238973786347
 33
0.0
 14
8733.852392096688
 24
7739.238973786346
 34
0.0
 50
90.0
100
AcDbRotatedDimension
1001
ACAD
1000
DSTYLE
1002
{
1070
    41
1040
0.5
1070
    44
1040
1.0
1070
   147
1040
0.8
1070
   271
1070
     2
1070
   272
1070
     2
1070
   289
1070
     3
1070
   340
1005
F706
1070
   343
1005
17214
1070
   344
1005
17214
1002
}
  0
DIMENSION
  5
1995B
330
747D
100
AcDbEntity
  8
寸法
 48
50.0
100
AcDbDimension
  2
*D32
 10
10467.85239209668
 20
6862.16870393557
 30
0.0
 11
9591.434136048501
 21
6862.16870393557
 31
0.0
 70
   160
 71
     5
 42
1734.0
  3
INABA_S40G
100
AcDbAlignedDimension
 13
8733.852392096681
 23
7737.238973786353
 33
0.0
 14
10467.85239209668
 24
7737.23897378635
 34
0.0
100
AcDbRotatedDimension
1001
ACAD
1000
DSTYLE
1002
{
1070
   341
1005
0
1002
}
  0
LWPOLYLINE
  5
19C62
330
747D
100
AcDbEntity
  8
部品1
 48
50.0
100
AcDbPolyline
 90
        4
 70
     1
 43
0.0
 10
8832.902392096706
 20
3730.966014124862
 10
8835.802392096708
 20
3730.966014124862
 10
8835.802392096708
 20
3740.466014124863
 10
8832.902392096706
 20
3740.466014124863
  0
CIRCLE
  5
19C63
330
747D
100
AcDbEntity
  8
部品1
 48
50.0
100
AcDbCircle
 10
8834.352392096707
 20
3735.716014124863
 30
0.0
 40
9.0
  0
ARC
  5
19C64
330
747D
100
AcDbEntity
  8
細線
 48
50.0
100
AcDbCircle
 10
8834.352392096707
 20
3735.716014124863
 30
0.0
 40
4.0
100
AcDbArc
 50
111.2538091853132
 51
248.7461908146868
  0
ARC
  5
19C65
330
747D
100
AcDbEntity
  8
細線
 48
50.0
100
AcDbCircle
 10
8834.352392096707
 20
3735.716014124863
 30
0.0
 40
17.5
100
AcDbArc
 50
306.4837370612677
 51
233.5162629387323
  0
LINE
  5
19C66
330
747D
100
AcDbEntity
  8
細線
 48
50.0
100
AcDbLine
 10
8844.352392096704
 20
3711.85705354398
 30
0.0
 11
8844.352392096707
 21
3720.841539344221
 31
0.0
  0
LINE
  5
19C67
330
747D
100
AcDbEntity
  8
細線
 48
50.0
100
AcDbLine
 10
8824.352392096708
 20
3711.857053543982
 30
0.0
 11
8824.352392096708
 21
3720.841539344217
 31
0.0
  0
ARC
  5
19C68
330
747D
100
AcDbEntity
  8
細線
 48
50.0
100
AcDbCircle
 10
8834.352392096707
 20
3735.716014124863
 30
0.0
 40
26.5
100
AcDbArc
 50
249.3326835063939
 51
290.6673164933835
  0
ARC
  5
19C69
330
747D
100
AcDbEntity
  8
細線
 48
50.0
100
AcDbCircle
 10
8843.352392096701
 20
3711.85705354398
 30
0.0
 40
1.0
100
AcDbArc
 50
290.6673164936062
 51
359.9999999998958
  0
ARC
  5
19C6A
330
747D
100
AcDbEntity
  8
細線
 48
50.0
100
AcDbCircle
 10
8825.352392096707
 20
3711.857053543982
 30
0.0
 40
1.0
100
AcDbArc
 50
180.0
 51
249.3326835066164
  0
ARC
  5
19C6B
330
747D
100
AcDbEntity
  8
細線
 48
50.0
100
AcDbCircle
 10
8823.352392096706
 20
3720.841539344217
 30
0.0
 40
1.0
100
AcDbArc
 50
0.0
 51
53.51626293873231
  0
ARC
  5
19C6C
330
747D
100
AcDbEntity
  8
細線
 48
50.0
100
AcDbCircle
 10
8845.352392096712
 20
3720.841539344221
 30
0.0
 40
1.0
100
AcDbArc
 50
126.4837370615127
 51
180.0
  0
ARC
  5
19C6D
330
747D
100
AcDbEntity
  8
細線
 48
50.0
100
AcDbCircle
 10
8834.352392096707
 20
3735.716014124863
 30
0.0
 40
21.5
100
AcDbArc
 50
255.8014401250294
 51
284.1985598749706
  0
ARC
  5
19C6E
330
747D
100
AcDbEntity
  8
細線
 48
50.0
100
AcDbCircle
 10
8834.352392096707
 20
3735.716014124863
 30
0.0
 40
16.5
100
AcDbArc
 50
251.9694646069326
 51
288.0305353930674
  0
LINE
  5
19C6F
330
747D
100
AcDbEntity
  8
細線
 48
50.0
100
AcDbLine
 10
8839.852392096707
 20
3715.163641999055
 30
0.0
 11
8839.852392096707
 21
3719.741033686393
 31
0.0
  0
LINE
  5
19C70
330
747D
100
AcDbEntity
  8
細線
 48
50.0
100
AcDbLine
 10
8828.852392096708
 20
3715.163641999055
 30
0.0
 11
8828.852392096708
 21
3719.74103368639
 31
0.0
  0
ARC
  5
19C71
330
747D
100
AcDbEntity
  8
細線
 48
50.0
100
AcDbCircle
 10
8829.152392096711
 20
3719.74103368639
 30
0.0
 40
0.3
100
AcDbArc
 50
71.96946460693259
 51
180.0
  0
ARC
  5
19C72
330
747D
100
AcDbEntity
  8
細線
 48
50.0
100
AcDbCircle
 10
8839.552392096708
 20
3719.741033686393
 30
0.0
 40
0.3
100
AcDbArc
 50
0.0
 51
108.0305353930674
  0
ARC
  5
19C73
330
747D
100
AcDbEntity
  8
細線
 48
50.0
100
AcDbCircle
 10
8839.552392096704
 20
3715.163641999055
 30
0.0
 40
0.3
100
AcDbArc
 50
284.1985598747622
 51
0.0000000001042204
  0
ARC
  5
19C74
330
747D
100
AcDbEntity
  8
細線
 48
50.0
100
AcDbCircle
 10
8829.152392096711
 20
3715.163641999055
 30
0.0
 40
0.3
100
AcDbArc
 50
180.0
 51
255.8014401248081
  0
CIRCLE
  5
19C75
330
747D
100
AcDbEntity
  8
細線
 48
50.0
100
AcDbCircle
 10
8834.352392096707
 20
3735.716014124863
 30
0.0
 40
12.0
  0
ARC
  5
19C76
330
747D
100
AcDbEntity
  8
部品1
 48
50.0
100
AcDbCircle
 10
8834.352392096707
 20
3785.716014124863
 30
0.0
 40
8.5
100
AcDbArc
 50
114.315739171091
 51
245.684260828909
  0
CIRCLE
  5
19C77
330
747D
100
AcDbEntity
  8
細線
 48
50.0
100
AcDbCircle
 10
8834.352392096707
 20
3785.716014124863
 30
0.0
 40
4.5
  0
LWPOLYLINE
  5
19C78
330
747D
100
AcDbEntity
  8
部品1
 48
50.0
100
AcDbPolyline
 90
        2
 70
     0
 43
0.0
 10
8830.852392096707
 20
3804.390863521845
 10
8830.852392096707
 20
3793.461980817278
  0
CIRCLE
  5
19C79
330
747D
100
AcDbEntity
  8
部品1
 48
50.0
100
AcDbCircle
 10
8834.352392096707
 20
3785.716014124863
 30
0.0
 40
19.0
  0
LWPOLYLINE
  5
19C7A
330
747D
100
AcDbEntity
  8
部品1
 48
50.0
100
AcDbPolyline
 90
        2
 70
     0
 43
0.0
 10
8830.852392096707
 20
3777.970047432447
 10
8830.852392096707
 20
3767.04116472788
  0
LWPOLYLINE
  5
19C7B
330
747D
100
AcDbEntity
  8
部品1
 48
50.0
100
AcDbPolyline
 90
        2
 70
     0
 43
0.0
 10
8837.852392096706
 20
3793.461980817278
 10
8837.852392096706
 20
3804.390863521845
  0
ARC
  5
19C7C
330
747D
100
AcDbEntity
  8
部品1
 48
50.0
100
AcDbCircle
 10
8834.352392096707
 20
3785.716014124863
 30
0.0
 40
8.5
100
AcDbArc
 50
294.315739171091
 51
65.68426082890896
  0
LWPOLYLINE
  5
19C7D
330
747D
100
AcDbEntity
  8
部品1
 48
50.0
100
AcDbPolyline
 90
        2
 70
     0
 43
0.0
 10
8837.852392096706
 20
3767.04116472788
 10
8837.852392096706
 20
3777.970047432447
  0
ARC
  5
19C7E
330
747D
100
AcDbEntity
  8
細線
 48
50.0
100
AcDbCircle
 10
8834.352392096707
 20
3785.716014124863
 30
0.0
 40
16.5
100
AcDbArc
 50
332.0012352654438
 51
27.99876473455621
  0
ARC
  5
19C7F
330
747D
100
AcDbEntity
  8
細線
 48
50.0
100
AcDbCircle
 10
8834.352392096707
 20
3785.716014124863
 30
0.0
 40
14.0
100
AcDbArc
 50
326.4074436112986
 51
33.59255638870134
  0
LINE
  5
19C80
330
747D
100
AcDbEntity
  8
細線
 48
50.0
100
AcDbLine
 10
8819.783589812375
 20
3793.461980817278
 30
0.0
 11
8822.690488307019
 21
3793.461980817278
 31
0.0
  0
LINE
  5
19C81
330
747D
100
AcDbEntity
  8
細線
 48
50.0
100
AcDbLine
 10
8819.783589812375
 20
3777.970047432447
 30
0.0
 11
8822.690488307019
 21
3777.970047432447
 31
0.0
  0
LINE
  5
19C82
330
747D
100
AcDbEntity
  8
細線
 48
50.0
100
AcDbLine
 10
8846.014295886396
 20
3793.461980817278
 30
0.0
 11
8848.921194381043
 21
3793.461980817278
 31
0.0
  0
LINE
  5
19C83
330
747D
100
AcDbEntity
  8
細線
 48
50.0
100
AcDbLine
 10
8846.014295886396
 20
3777.970047432447
 30
0.0
 11
8848.921194381043
 21
3777.970047432447
 31
0.0
  0
ARC
  5
19C84
330
747D
100
AcDbEntity
  8
細線
 48
50.0
100
AcDbCircle
 10
8834.352392096707
 20
3785.716014124863
 30
0.0
 40
14.0
100
AcDbArc
 50
146.4074436112986
 51
213.5925563887013
  0
ARC
  5
19C85
330
747D
100
AcDbEntity
  8
細線
 48
50.0
100
AcDbCircle
 10
8834.352392096707
 20
3785.716014124863
 30
0.0
 40
16.5
100
AcDbArc
 50
152.0012352654438
 51
207.9987647345562
  0
ARC
  5
19C86
330
747D
100
AcDbEntity
  8
部品1
 48
50.0
100
AcDbCircle
 10
8807.852392096707
 20
3811.216014124862
 30
0.0
 40
5.0
100
AcDbArc
 50
90.0
 51
180.0
  0
ARC
  5
19C87
330
747D
100
AcDbEntity
  8
部品1
 48
50.0
100
AcDbCircle
 10
8807.852392096707
 20
3700.216014124862
 30
0.0
 40
5.0
100
AcDbArc
 50
180.0
 51
270.0
  0
ARC
  5
19C88
330
747D
100
AcDbEntity
  8
部品1
 48
50.0
100
AcDbCircle
 10
8860.852392096708
 20
3700.216014124862
 30
0.0
 40
5.0
100
AcDbArc
 50
270.0
 51
0.0
  0
ARC
  5
19C89
330
747D
100
AcDbEntity
  8
部品1
 48
50.0
100
AcDbCircle
 10
8860.852392096708
 20
3811.216014124862
 30
0.0
 40
5.0
100
AcDbArc
 50
0.0
 51
90.0
  0
LINE
  5
19C8B
330
747D
100
AcDbEntity
  8
部品1
 48
50.0
100
AcDbLine
 10
8802.852392096708
 20
3700.216014124862
 30
0.0
 11
8802.852392096708
 21
3811.216014124862
 31
0.0
  0
LINE
  5
19C8C
330
747D
100
AcDbEntity
  8
部品1
 48
50.0
100
AcDbLine
 10
8860.852392096708
 20
3695.216014124863
 30
0.0
 11
8807.852392096707
 21
3695.216014124863
 31
0.0
  0
LINE
  5
19C8D
330
747D
100
AcDbEntity
  8
部品1
 48
50.0
100
AcDbLine
 10
8865.852392096707
 20
3811.216014124862
 30
0.0
 11
8865.852392096707
 21
3700.216014124862
 31
0.0
  0
ENDSEC
  0
SECTION
  2
OBJECTS
  0
DICTIONARY
  5
7471
330
0
100
AcDbDictionary
281
     1
  3
ACAD_COLOR
350
17171
  3
ACAD_GROUP
350
7472
  3
ACAD_LAYOUT
350
17172
  3
ACAD_MATERIAL
350
17170
  3
ACAD_MLINESTYLE
350
7473
  3
ACAD_PLOTSETTINGS
350
17173
  3
ACAD_PLOTSTYLENAME
350
1716E
  3
ACDBHEADERROUNDTRIPXREC
350
19C9C
  3
AcDbVariableDictionary
350
19C98
  3
CONTENTDICTIONARY
350
E71C
  3
DRAWINGVARIABLESDICT
350
F3B9
  0
DICTIONARY
  5
1730B
330
7467
100
AcDbDictionary
280
     1
281
     1
  3
ACAD_LAYERSTATES
360
1730C
  0
DICTIONARY
  5
17171
102
{ACAD_REACTORS
330
7471
102
}
330
7471
100
AcDbDictionary
281
     1
  0
DICTIONARY
  5
7472
102
{ACAD_REACTORS
330
7471
102
}
330
7471
100
AcDbDictionary
281
     1
  0
DICTIONARY
  5
17172
102
{ACAD_REACTORS
330
7471
102
}
330
7471
100
AcDbDictionary
281
     1
  3
Model
350
17174
  3
レイアウト1
350
17175
  0
DICTIONARY
  5
17170
102
{ACAD_REACTORS
330
7471
102
}
330
7471
100
AcDbDictionary
281
     1
  0
DICTIONARY
  5
7473
102
{ACAD_REACTORS
330
7471
102
}
330
7471
100
AcDbDictionary
281
     1
  3
STANDARD
350
7480
  0
DICTIONARY
  5
17173
102
{ACAD_REACTORS
330
7471
102
}
330
7471
100
AcDbDictionary
281
     1
  0
ACDBDICTIONARYWDFLT
  5
1716E
102
{ACAD_REACTORS
330
7471
102
}
330
7471
100
AcDbDictionary
281
     1
  3
Normal
350
1716F
100
AcDbDictionaryWithDefault
340
1716F
  0
DICTIONARY
  5
19C9C
102
{ACAD_REACTORS
330
7471
102
}
330
7471
100
AcDbDictionary
281
     1
  3
COLORDICT
350
19C9E
  3
MATERIALDICT
350
19C9D
  0
DICTIONARY
  5
19C98
102
{ACAD_REACTORS
330
7471
102
}
330
7471
100
AcDbDictionary
281
     1
  3
DIMASSOC
350
19C99
  3
PROJECTNAME
350
19C9A
  0
DICTIONARY
  5
E71C
102
{ACAD_REACTORS
330
7471
102
}
330
7471
100
AcDbDictionary
281
     1
  0
DICTIONARY
  5
F3B9
102
{ACAD_REACTORS
330
7471
102
}
330
7471
100
AcDbDictionary
281
     1
1001
DRAWINGVARIABLESXDATA
1000
POLARMODE
1000
1
  0
DICTIONARY
  5
1730C
102
{ACAD_REACTORS
330
1730B
102
}
330
1730B
100
AcDbDictionary
281
     1
  0
LAYOUT
  5
17174
102
{ACAD_XDICTIONARY
360
19C9F
102
}
102
{ACAD_REACTORS
330
17172
102
}
330
17172
100
AcDbPlotSettings
  1

  2
Microsoft Office Document Image Writer
  4

  6

 40
0.0
 41
0.0
 42
0.0
 43
0.0
 44
0.0
 45
0.0
 46
0.0
 47
0.0
 48
0.0
 49
0.0
140
0.0
141
0.0
142
1.0
143
1.0
 70
  1712
 72
     0
 73
     0
 74
     0
  7

 75
     0
147
1.0
148
0.0
149
0.0
100
AcDbLayout
  1
Model
 70
     1
 71
     0
 10
0.0
 20
0.0
 11
12.0
 21
9.0
 12
0.0
 22
0.0
 32
0.0
 14
0.0
 24
0.0
 34
0.0
 15
0.0
 25
0.0
 35
0.0
146
0.0
 13
0.0
 23
0.0
 33
0.0
 16
1.0
 26
0.0
 36
0.0
 17
0.0
 27
1.0
 37
0.0
 76
     0
330
747D
  0
LAYOUT
  5
17175
102
{ACAD_XDICTIONARY
360
19CA1
102
}
102
{ACAD_REACTORS
330
17172
102
}
330
17172
100
AcDbPlotSettings
  1

  2
Microsoft Office Document Image Writer
  4

  6

 40
0.0
 41
0.0
 42
0.0
 43
0.0
 44
0.0
 45
0.0
 46
0.0
 47
0.0
 48
0.0
 49
0.0
140
0.0
141
0.0
142
1.0
143
1.0
 70
   688
 72
     0
 73
     0
 74
     5
  7

 75
    16
147
1.0
148
0.0
149
0.0
100
AcDbLayout
  1
レイアウト1
 70
     0
 71
     1
 10
0.0
 20
0.0
 11
420.0
 21
297.0
 12
0.0
 22
0.0
 32
0.0
 14
1.000000000000000E+20
 24
1.000000000000000E+20
 34
1.000000000000000E+20
 15
-1.000000000000000E+20
 25
-1.000000000000000E+20
 35
-1.000000000000000E+20
146
0.0
 13
0.0
 23
0.0
 33
0.0
 16
1.0
 26
0.0
 36
0.0
 17
0.0
 27
1.0
 37
0.0
 76
     0
330
747A
  0
MLINESTYLE
  5
7480
102
{ACAD_REACTORS
330
7473
102
}
330
7473
100
AcDbMlineStyle
  2
STANDARD
 70
     0
  3

 62
     0
 51
90.0
 52
90.0
 71
     2
 49
0.5
 62
   256
  6
BYLAYER
 49
-0.5
 62
   256
  6
BYLAYER
  0
ACDBPLACEHOLDER
  5
1716F
102
{ACAD_REACTORS
330
1716E
102
}
330
1716E
  0
XRECORD
  5
19C9E
102
{ACAD_REACTORS
330
19C9C
102
}
330
19C9C
100
AcDbXrecord
280
     1
340
17171
  0
XRECORD
  5
19C9D
102
{ACAD_REACTORS
330
19C9C
102
}
330
19C9C
100
AcDbXrecord
280
     1
340
17170
  0
DICTIONARYVAR
  5
19C99
102
{ACAD_REACTORS
330
19C98
102
}
330
19C98
100
DictionaryVariables
280
     0
  1
1
  0
DICTIONARYVAR
  5
19C9A
102
{ACAD_REACTORS
330
19C98
102
}
330
19C98
100
DictionaryVariables
280
     0
  1

  0
DICTIONARY
  5
19C9F
330
17174
100
AcDbDictionary
280
     1
281
     1
  3
ACAD_XREC_ROUNDTRIP
360
19CA0
  0
DICTIONARY
  5
19CA1
330
17175
100
AcDbDictionary
280
     1
281
     1
  3
ACAD_XREC_ROUNDTRIP
360
19CA2
  0
XRECORD
  5
19CA0
102
{ACAD_REACTORS
330
19C9F
102
}
330
19C9F
100
AcDbXrecord
280
     1
102
SHADEPLOT
 70
     0
102
SHADEPLOTRESLEVEL
 70
     2
102
SHADEPLOTCUSTOMDPI
 70
   300
  0
XRECORD
  5
19CA2
102
{ACAD_REACTORS
330
19CA1
102
}
330
19CA1
100
AcDbXrecord
280
     1
102
SHADEPLOT
 70
     0
102
SHADEPLOTRESLEVEL
 70
     2
102
SHADEPLOTCUSTOMDPI
 70
   300
  0
ENDSEC
  0
EOF
