  0
SECTION
  2
HEADER
  9
$ACADVER
  1
AC1015
  9
$ACADMAINTVER
 70
    20
  9
$DWGCODEPAGE
  3
ANSI_932
  9
$INSBASE
 10
0.0
 20
0.0
 30
0.0
  9
$EXTMIN
 10
139.9999999999995
 20
-0.0000000000000909
 30
0.0
  9
$EXTMAX
 10
16307.2
 20
11409.6
 30
0.0
  9
$LIMMIN
 10
0.0
 20
0.0
  9
$LIMMAX
 10
16800.0
 20
11880.0
  9
$ORTHOMODE
 70
     0
  9
$REGENMODE
 70
     1
  9
$FILLMODE
 70
     1
  9
$QTEXTMODE
 70
     0
  9
$MIRRTEXT
 70
     1
  9
$LTSCALE
 40
20.0
  9
$ATTMODE
 70
     1
  9
$TEXTSIZE
 40
100.0
  9
$TRACEWID
 40
1.0
  9
$TEXTSTYLE
  7
STYLE2
  9
$CLAYER
  8
部品1
  9
$CELTYPE
  6
BYLAYER
  9
$CECOLOR
 62
   256
  9
$CELTSCALE
 40
50.0
  9
$DISPSILH
 70
     0
  9
$DIMSCALE
 40
40.0
  9
$DIMASZ
 40
2.5
  9
$DIMEXO
 40
0.5
  9
$DIMDLI
 40
7.0
  9
$DIMRND
 40
0.0
  9
$DIMDLE
 40
0.0
  9
$DIMEXE
 40
1.5
  9
$DIMTP
 40
0.0
  9
$DIMTM
 40
0.0
  9
$DIMTXT
 40
3.0
  9
$DIMCEN
 40
0.0
  9
$DIMTSZ
 40
0.0
  9
$DIMTOL
 70
     0
  9
$DIMLIM
 70
     0
  9
$DIMTIH
 70
     0
  9
$DIMTOH
 70
     0
  9
$DIMSE1
 70
     0
  9
$DIMSE2
 70
     0
  9
$DIMTAD
 70
     3
  9
$DIMZIN
 70
     8
  9
$DIMBLK
  1

  9
$DIMASO
 70
     1
  9
$DIMSHO
 70
     1
  9
$DIMPOST
  1

  9
$DIMAPOST
  1

  9
$DIMALT
 70
     0
  9
$DIMALTD
 70
     2
  9
$DIMALTF
 40
0.0394
  9
$DIMLFAC
 40
1.0
  9
$DIMTOFL
 70
     1
  9
$DIMTVP
 40
0.0
  9
$DIMTIX
 70
     0
  9
$DIMSOXD
 70
     0
  9
$DIMSAH
 70
     1
  9
$DIMBLK1
  1
DOTSMALL
  9
$DIMBLK2
  1
DOTSMALL
  9
$DIMSTYLE
  2
INABA_S40G
  9
$DIMCLRD
 70
     0
  9
$DIMCLRE
 70
     0
  9
$DIMCLRT
 70
     7
  9
$DIMTFAC
 40
1.0
  9
$DIMGAP
 40
1.0
  9
$DIMJUST
 70
     0
  9
$DIMSD1
 70
     0
  9
$DIMSD2
 70
     0
  9
$DIMTOLJ
 70
     1
  9
$DIMTZIN
 70
     0
  9
$DIMALTZ
 70
     0
  9
$DIMALTTZ
 70
     0
  9
$DIMUPT
 70
     0
  9
$DIMDEC
 70
     1
  9
$DIMTDEC
 70
     1
  9
$DIMALTU
 70
     2
  9
$DIMALTTD
 70
     2
  9
$DIMTXSTY
  7
STYLE1
  9
$DIMAUNIT
 70
     0
  9
$DIMADEC
 70
     0
  9
$DIMALTRND
 40
0.0
  9
$DIMAZIN
 70
     0
  9
$DIMDSEP
 70
    46
  9
$DIMATFIT
 70
     3
  9
$DIMFRAC
 70
     0
  9
$DIMLDRBLK
  1

  9
$DIMLUNIT
 70
     2
  9
$DIMLWD
 70
    -2
  9
$DIMLWE
 70
    -2
  9
$DIMTMOVE
 70
     0
  9
$LUNITS
 70
     2
  9
$LUPREC
 70
     1
  9
$SKETCHINC
 40
1.0
  9
$FILLETRAD
 40
7.0
  9
$AUNITS
 70
     0
  9
$AUPREC
 70
     0
  9
$MENU
  1
acad
  9
$ELEVATION
 40
0.0
  9
$PELEVATION
 40
0.0
  9
$THICKNESS
 40
0.0
  9
$LIMCHECK
 70
     0
  9
$CHAMFERA
 40
3.0
  9
$CHAMFERB
 40
3.0
  9
$CHAMFERC
 40
0.0
  9
$CHAMFERD
 40
0.0
  9
$SKPOLY
 70
     0
  9
$TDCREATE
 40
2451368.612993866
  9
$TDUCREATE
 40
2451368.237993866
  9
$TDUPDATE
 40
2455575.697763669
  9
$TDUUPDATE
 40
2455575.322763669
  9
$TDINDWG
 40
1.1772222454
  9
$TDUSRTIMER
 40
1.1772222454
  9
$USRTIMER
 70
     1
  9
$ANGBASE
 50
0.0
  9
$ANGDIR
 70
     0
  9
$PDMODE
 70
     3
  9
$PDSIZE
 40
2.0
  9
$PLINEWID
 40
0.0
  9
$SPLFRAME
 70
     0
  9
$SPLINETYPE
 70
     6
  9
$SPLINESEGS
 70
     8
  9
$HANDSEED
  5
1DE03
  9
$SURFTAB1
 70
     6
  9
$SURFTAB2
 70
     6
  9
$SURFTYPE
 70
     6
  9
$SURFU
 70
     6
  9
$SURFV
 70
     6
  9
$UCSBASE
  2

  9
$UCSNAME
  2

  9
$UCSORG
 10
0.0
 20
0.0
 30
0.0
  9
$UCSXDIR
 10
1.0
 20
0.0
 30
0.0
  9
$UCSYDIR
 10
0.0
 20
1.0
 30
0.0
  9
$UCSORTHOREF
  2

  9
$UCSORTHOVIEW
 70
     0
  9
$UCSORGTOP
 10
0.0
 20
0.0
 30
0.0
  9
$UCSORGBOTTOM
 10
0.0
 20
0.0
 30
0.0
  9
$UCSORGLEFT
 10
0.0
 20
0.0
 30
0.0
  9
$UCSORGRIGHT
 10
0.0
 20
0.0
 30
0.0
  9
$UCSORGFRONT
 10
0.0
 20
0.0
 30
0.0
  9
$UCSORGBACK
 10
0.0
 20
0.0
 30
0.0
  9
$PUCSBASE
  2

  9
$PUCSNAME
  2

  9
$PUCSORG
 10
0.0
 20
0.0
 30
0.0
  9
$PUCSXDIR
 10
1.0
 20
0.0
 30
0.0
  9
$PUCSYDIR
 10
0.0
 20
1.0
 30
0.0
  9
$PUCSORTHOREF
  2

  9
$PUCSORTHOVIEW
 70
     0
  9
$PUCSORGTOP
 10
0.0
 20
0.0
 30
0.0
  9
$PUCSORGBOTTOM
 10
0.0
 20
0.0
 30
0.0
  9
$PUCSORGLEFT
 10
0.0
 20
0.0
 30
0.0
  9
$PUCSORGRIGHT
 10
0.0
 20
0.0
 30
0.0
  9
$PUCSORGFRONT
 10
0.0
 20
0.0
 30
0.0
  9
$PUCSORGBACK
 10
0.0
 20
0.0
 30
0.0
  9
$USERI1
 70
     0
  9
$USERI2
 70
     0
  9
$USERI3
 70
     0
  9
$USERI4
 70
     0
  9
$USERI5
 70
     0
  9
$USERR1
 40
0.0
  9
$USERR2
 40
0.0
  9
$USERR3
 40
0.0
  9
$USERR4
 40
0.0
  9
$USERR5
 40
0.0
  9
$WORLDVIEW
 70
     1
  9
$SHADEDGE
 70
     3
  9
$SHADEDIF
 70
    70
  9
$TILEMODE
 70
     1
  9
$MAXACTVP
 70
    16
  9
$PINSBASE
 10
0.0
 20
0.0
 30
0.0
  9
$PLIMCHECK
 70
     0
  9
$PEXTMIN
 10
1.000000000000000E+20
 20
1.000000000000000E+20
 30
1.000000000000000E+20
  9
$PEXTMAX
 10
-1.000000000000000E+20
 20
-1.000000000000000E+20
 30
-1.000000000000000E+20
  9
$PLIMMIN
 10
0.0
 20
0.0
  9
$PLIMMAX
 10
420.0
 20
297.0
  9
$UNITMODE
 70
     0
  9
$VISRETAIN
 70
     0
  9
$PLINEGEN
 70
     0
  9
$PSLTSCALE
 70
     0
  9
$TREEDEPTH
 70
  3020
  9
$CMLSTYLE
  2
STANDARD
  9
$CMLJUST
 70
     0
  9
$CMLSCALE
 40
1.0
  9
$PROXYGRAPHICS
 70
     1
  9
$MEASUREMENT
 70
     1
  9
$CELWEIGHT
370
    -1
  9
$ENDCAPS
280
     0
  9
$JOINSTYLE
280
     0
  9
$LWDISPLAY
290
     0
  9
$INSUNITS
 70
     0
  9
$HYPERLINKBASE
  1

  9
$STYLESHEET
  1
inaba.ctb
  9
$XEDIT
290
     1
  9
$CEPSNTYPE
380
     0
  9
$PSTYLEMODE
290
     1
  9
$FINGERPRINTGUID
  2
{3B57B35E-7D77-4BBF-81B7-6C583B9EB24C}
  9
$VERSIONGUID
  2
{5697B232-BFDD-4FC1-907D-F94480BEDC46}
  9
$EXTNAMES
290
     1
  9
$PSVPSCALE
 40
0.0
  9
$OLESTARTUP
290
     0
  0
ENDSEC
  0
SECTION
  2
CLASSES
  0
CLASS
  1
ACDBDICTIONARYWDFLT
  2
AcDbDictionaryWithDefault
  3
ObjectDBX Classes
 90
        0
280
     0
281
     0
  0
CLASS
  1
DICTIONARYVAR
  2
AcDbDictionaryVar
  3
ObjectDBX Classes
 90
        0
280
     0
281
     0
  0
CLASS
  1
ACDBPLACEHOLDER
  2
AcDbPlaceHolder
  3
ObjectDBX Classes
 90
        0
280
     0
281
     0
  0
CLASS
  1
LAYOUT
  2
AcDbLayout
  3
ObjectDBX Classes
 90
        0
280
     0
281
     0
  0
ENDSEC
  0
SECTION
  2
TABLES
  0
TABLE
  2
VPORT
  5
746D
330
0
100
AcDbSymbolTable
 70
     2
  0
VPORT
  5
1DDFB
330
746D
100
AcDbSymbolTableRecord
100
AcDbViewportTableRecord
  2
*Active
 70
     0
 10
0.0
 20
0.0
 11
1.0
 21
1.0
 12
8223.761025238502
 22
6348.534373990247
 13
0.0
 23
0.0
 14
10.0
 24
10.0
 15
10.0
 25
10.0
 16
0.0
 26
0.0
 36
1.0
 17
0.0
 27
0.0
 37
0.0
 40
12805.99765711426
 41
1.525925925925925
 42
50.0
 43
0.0
 44
0.0
 50
0.0
 51
0.0
 71
     0
 72
     0
 73
     1
 74
     0
 75
     0
 76
     0
 77
     0
 78
     0
281
     0
 65
     1
110
0.0
120
0.0
130
0.0
111
1.0
121
0.0
131
0.0
112
0.0
122
1.0
132
0.0
 79
     0
146
0.0
  0
ENDTAB
  0
TABLE
  2
LTYPE
  5
746A
330
0
100
AcDbSymbolTable
 70
     3
  0
LTYPE
  5
7477
330
746A
100
AcDbSymbolTableRecord
100
AcDbLinetypeTableRecord
  2
BYBLOCK
 70
     0
  3

 72
    65
 73
     0
 40
0.0
  0
LTYPE
  5
7478
330
746A
100
AcDbSymbolTableRecord
100
AcDbLinetypeTableRecord
  2
BYLAYER
 70
     0
  3

 72
    65
 73
     0
 40
0.0
  0
LTYPE
  5
7479
330
746A
100
AcDbSymbolTableRecord
100
AcDbLinetypeTableRecord
  2
CONTINUOUS
 70
     0
  3
Solid line
 72
    65
 73
     0
 40
0.0
  0
LTYPE
  5
781A
330
746A
100
AcDbSymbolTableRecord
100
AcDbLinetypeTableRecord
  2
HIDDEN
 70
     0
  3
__ __ __ __ __ __ __ __ __ __ __ __ __ __ __ __
 72
    65
 73
     2
 40
0.375
 49
0.25
 74
     0
 49
-0.125
 74
     0
  0
LTYPE
  5
781B
330
746A
100
AcDbSymbolTableRecord
100
AcDbLinetypeTableRecord
  2
PHANTOM
 70
     0
  3
______  __  __  ______  __  __  ______  __  __ 
 72
    65
 73
     6
 40
2.5
 49
1.25
 74
     0
 49
-0.25
 74
     0
 49
0.25
 74
     0
 49
-0.25
 74
     0
 49
0.25
 74
     0
 49
-0.25
 74
     0
  0
ENDTAB
  0
TABLE
  2
LAYER
  5
7467
102
{ACAD_XDICTIONARY
360
1D35E
102
}
330
0
100
AcDbSymbolTable
 70
    10
  0
LAYER
  5
7474
330
7467
100
AcDbSymbolTableRecord
100
AcDbLayerTableRecord
  2
0
 70
     0
 62
     7
  6
CONTINUOUS
370
    -3
390
159AE
  0
LAYER
  5
DEB3
330
7467
100
AcDbSymbolTableRecord
100
AcDbLayerTableRecord
  2
寸法
 70
     0
 62
     4
  6
CONTINUOUS
370
    -3
390
159AE
  0
LAYER
  5
DEB4
330
7467
100
AcDbSymbolTableRecord
100
AcDbLayerTableRecord
  2
部品1
 70
     0
 62
     7
  6
CONTINUOUS
370
    -3
390
159AE
  0
LAYER
  5
DEB5
330
7467
100
AcDbSymbolTableRecord
100
AcDbLayerTableRecord
  2
補助
 70
     0
 62
    -1
  6
CONTINUOUS
370
    -3
390
159AE
  0
LAYER
  5
DEB6
330
7467
100
AcDbSymbolTableRecord
100
AcDbLayerTableRecord
  2
文字
 70
     0
 62
     7
  6
CONTINUOUS
370
    -3
390
159AE
  0
LAYER
  5
F255
330
7467
100
AcDbSymbolTableRecord
100
AcDbLayerTableRecord
  2
DEFPOINTS
 70
     0
 62
     7
  6
CONTINUOUS
290
     0
370
    -3
390
159AE
  0
LAYER
  5
10B54
330
7467
100
AcDbSymbolTableRecord
100
AcDbLayerTableRecord
  2
仕様書枠
 70
     0
 62
   230
  6
CONTINUOUS
370
    -3
390
159AE
  0
LAYER
  5
11729
330
7467
100
AcDbSymbolTableRecord
100
AcDbLayerTableRecord
  2
Ｇ．Ｌ
 70
     0
 62
    30
  6
CONTINUOUS
370
    -3
390
159AE
  0
LAYER
  5
1173F
330
7467
100
AcDbSymbolTableRecord
100
AcDbLayerTableRecord
  2
細線
 70
     0
 62
     5
  6
CONTINUOUS
370
    -3
390
159AE
  0
LAYER
  5
142E2
330
7467
100
AcDbSymbolTableRecord
100
AcDbLayerTableRecord
  2
破線
 70
     0
 62
     2
  6
HIDDEN
370
    -3
390
159AE
  0
ENDTAB
  0
TABLE
  2
STYLE
  5
7468
330
0
100
AcDbSymbolTable
 70
     4
  0
STYLE
  5
7475
330
7468
100
AcDbSymbolTableRecord
100
AcDbTextStyleTableRecord
  2
STANDARD
 70
     0
 40
0.0
 41
1.0
 50
0.0
 71
     0
 42
4.0
  3
txt
  4
C:\AutoCAD LT\bigfont.shx
  0
STYLE
  5
F706
330
7468
100
AcDbSymbolTableRecord
100
AcDbTextStyleTableRecord
  2
STYLE1
 70
     0
 40
0.0
 41
1.0
 50
0.0
 71
     0
 42
100.0
  3
isocp.shx
  4
bigfont.shx
  0
STYLE
  5
103BF
330
7468
100
AcDbSymbolTableRecord
100
AcDbTextStyleTableRecord
  2
STYLE2
 70
     0
 40
0.0
 41
1.0
 50
0.0
 71
     0
 42
100.0
  3
MS PGothic.ttf
  4

1001
ACAD
1000
MS PGothic
1071
    32818
  0
STYLE
  5
1DD92
330
7468
100
AcDbSymbolTableRecord
100
AcDbTextStyleTableRecord
  2
STYLE3
 70
     0
 40
0.0
 41
1.0
 50
0.0
 71
     0
 42
100.0
  3

  4

1001
ACAD
1000
DFPGothic-EB
1071
    32818
  0
ENDTAB
  0
TABLE
  2
VIEW
  5
746B
330
0
100
AcDbSymbolTable
 70
     0
  0
ENDTAB
  0
TABLE
  2
UCS
  5
746C
330
0
100
AcDbSymbolTable
 70
     0
  0
ENDTAB
  0
TABLE
  2
APPID
  5
746E
330
0
100
AcDbSymbolTable
 70
     6
  0
APPID
  5
7476
330
746E
100
AcDbSymbolTableRecord
100
AcDbRegAppTableRecord
  2
ACAD
 70
     0
  0
APPID
  5
DEA9
330
746E
100
AcDbSymbolTableRecord
100
AcDbRegAppTableRecord
  2
CONTENTBLOCKICON
 70
     0
  0
APPID
  5
DEAA
330
746E
100
AcDbSymbolTableRecord
100
AcDbRegAppTableRecord
  2
CONTENTBLOCKDESCRIPTION
 70
     0
  0
APPID
  5
E71D
330
746E
100
AcDbSymbolTableRecord
100
AcDbRegAppTableRecord
  2
CONTENTTABDATA
 70
     0
  0
APPID
  5
E71E
330
746E
100
AcDbSymbolTableRecord
100
AcDbRegAppTableRecord
  2
CONTENTCURRENTTAB
 70
     0
  0
APPID
  5
F3BA
330
746E
100
AcDbSymbolTableRecord
100
AcDbRegAppTableRecord
  2
DRAWINGVARIABLESXDATA
 70
     0
  0
ENDTAB
  0
TABLE
  2
DIMSTYLE
  5
746F
330
0
100
AcDbSymbolTable
 70
     2
100
AcDbDimStyleTable
 71
     1
340
F71F
  0
DIMSTYLE
105
F71F
102
{ACAD_REACTORS
330
141C3
330
14206
330
146E8
330
14D62
330
13BF0
330
14521
330
14526
330
1452E
330
1452F
330
14530
330
14531
330
14532
330
14533
330
1453F
330
14587
330
14589
330
19A46
330
19878
330
13BBF
330
13B6D
330
13B51
330
127A4
330
1277C
330
1277B
330
1277A
330
12779
330
12778
330
1D99A
330
1D9BA
330
1D9B6
102
}
330
746F
100
AcDbSymbolTableRecord
100
AcDbDimStyleTableRecord
  2
INABA_S40G
 70
     0
 40
40.0
 41
2.5
 42
0.5
 43
7.0
 44
1.5
 73
     0
 74
     0
 77
     3
 78
     8
140
3.0
141
0.0
143
0.0394
147
1.0
172
     1
173
     1
174
     1
178
     7
271
     1
288
     1
340
F706
341
F770
343
F770
344
F770
  0
DIMSTYLE
105
1DD93
330
746F
100
AcDbSymbolTableRecord
100
AcDbDimStyleTableRecord
  2
INABA_S20G
 70
     0
 40
20.0
 41
2.5
 42
0.5
 43
7.0
 44
1.5
 73
     0
 74
     0
 77
     3
 78
     8
140
3.0
141
0.0
143
0.0394
147
1.0
172
     1
173
     1
174
     1
178
     7
271
     1
340
F706
341
F770
343
F770
344
F770
  0
ENDTAB
  0
TABLE
  2
BLOCK_RECORD
  5
7466
330
0
100
AcDbSymbolTable
 70
    31
  0
BLOCK_RECORD
  5
747D
330
7466
100
AcDbSymbolTableRecord
100
AcDbBlockTableRecord
  2
*MODEL_SPACE
340
159B3
  0
BLOCK_RECORD
  5
747A
330
7466
100
AcDbSymbolTableRecord
100
AcDbBlockTableRecord
  2
*PAPER_SPACE
340
159B4
  0
BLOCK_RECORD
  5
F770
330
7466
100
AcDbSymbolTableRecord
100
AcDbBlockTableRecord
  2
_DOTSMALL
340
0
102
{BLKREFS
331
1C3DA
331
1C3DB
331
1C3F6
331
1C3F7
331
1C487
331
1C488
331
1C492
331
1C493
331
1C49B
331
1C49C
331
1C4AF
331
1C4B0
331
1C4CC
331
1C4CD
331
1C4D6
331
1C4D7
331
1C4DF
331
1C4E0
331
1C4E8
331
1C4E9
331
1C4F1
331
1C4F2
331
1D04D
331
1D04E
331
1D056
331
1D057
331
1D08C
331
1D08D
331
1D095
331
1D096
331
1D148
331
1D149
331
1D151
331
1D152
331
1D15C
331
1D15D
331
1D165
331
1D166
331
1D16E
331
1D16F
331
1D177
331
1D178
331
1D180
331
1D181
331
1D18B
331
1D18C
331
1D194
331
1D195
331
1D19F
331
1D1A0
331
1D1A8
331
1D1A9
331
1D1B3
331
1D1B4
331
1D9B0
331
1D9B1
331
1D9D6
331
1D9D7
331
1D9DF
331
1D9E0
102
}
  0
BLOCK_RECORD
  5
127B0
330
7466
100
AcDbSymbolTableRecord
100
AcDbBlockTableRecord
  2
*D1
340
0
  0
BLOCK_RECORD
  5
127BE
330
7466
100
AcDbSymbolTableRecord
100
AcDbBlockTableRecord
  2
*D2
340
0
  0
BLOCK_RECORD
  5
127CC
330
7466
100
AcDbSymbolTableRecord
100
AcDbBlockTableRecord
  2
*D3
340
0
  0
BLOCK_RECORD
  5
127E6
330
7466
100
AcDbSymbolTableRecord
100
AcDbBlockTableRecord
  2
*D4
340
0
  0
BLOCK_RECORD
  5
127F2
330
7466
100
AcDbSymbolTableRecord
100
AcDbBlockTableRecord
  2
*D5
340
0
  0
BLOCK_RECORD
  5
12832
330
7466
100
AcDbSymbolTableRecord
100
AcDbBlockTableRecord
  2
*D6
340
0
  0
BLOCK_RECORD
  5
13B45
330
7466
100
AcDbSymbolTableRecord
100
AcDbBlockTableRecord
  2
*D7
340
0
  0
BLOCK_RECORD
  5
13B60
330
7466
100
AcDbSymbolTableRecord
100
AcDbBlockTableRecord
  2
*D8
340
0
  0
BLOCK_RECORD
  5
13BB3
330
7466
100
AcDbSymbolTableRecord
100
AcDbBlockTableRecord
  2
*D9
340
0
  0
BLOCK_RECORD
  5
13DA8
330
7466
100
AcDbSymbolTableRecord
100
AcDbBlockTableRecord
  2
*D10
340
0
  0
BLOCK_RECORD
  5
141B5
330
7466
100
AcDbSymbolTableRecord
100
AcDbBlockTableRecord
  2
*D11
340
0
  0
BLOCK_RECORD
  5
141F9
330
7466
100
AcDbSymbolTableRecord
100
AcDbBlockTableRecord
  2
*D12
340
0
  0
BLOCK_RECORD
  5
1458A
330
7466
100
AcDbSymbolTableRecord
100
AcDbBlockTableRecord
  2
*D13
340
0
  0
BLOCK_RECORD
  5
14598
330
7466
100
AcDbSymbolTableRecord
100
AcDbBlockTableRecord
  2
*D14
340
0
  0
BLOCK_RECORD
  5
145A4
330
7466
100
AcDbSymbolTableRecord
100
AcDbBlockTableRecord
  2
*D15
340
0
  0
BLOCK_RECORD
  5
145B2
330
7466
100
AcDbSymbolTableRecord
100
AcDbBlockTableRecord
  2
*D16
340
0
  0
BLOCK_RECORD
  5
145BE
330
7466
100
AcDbSymbolTableRecord
100
AcDbBlockTableRecord
  2
*D17
340
0
  0
BLOCK_RECORD
  5
145CC
330
7466
100
AcDbSymbolTableRecord
100
AcDbBlockTableRecord
  2
*D18
340
0
  0
BLOCK_RECORD
  5
145D8
330
7466
100
AcDbSymbolTableRecord
100
AcDbBlockTableRecord
  2
*D19
340
0
  0
BLOCK_RECORD
  5
145E4
330
7466
100
AcDbSymbolTableRecord
100
AcDbBlockTableRecord
  2
*D20
340
0
  0
BLOCK_RECORD
  5
145FC
330
7466
100
AcDbSymbolTableRecord
100
AcDbBlockTableRecord
  2
*D21
340
0
  0
BLOCK_RECORD
  5
14608
330
7466
100
AcDbSymbolTableRecord
100
AcDbBlockTableRecord
  2
*D22
340
0
  0
BLOCK_RECORD
  5
14616
330
7466
100
AcDbSymbolTableRecord
100
AcDbBlockTableRecord
  2
*D23
340
0
  0
BLOCK_RECORD
  5
146DC
330
7466
100
AcDbSymbolTableRecord
100
AcDbBlockTableRecord
  2
*D24
340
0
  0
BLOCK_RECORD
  5
14D63
330
7466
100
AcDbSymbolTableRecord
100
AcDbBlockTableRecord
  2
*D25
340
0
  0
BLOCK_RECORD
  5
19879
330
7466
100
AcDbSymbolTableRecord
100
AcDbBlockTableRecord
  2
*D26
340
0
  0
BLOCK_RECORD
  5
19A47
330
7466
100
AcDbSymbolTableRecord
100
AcDbBlockTableRecord
  2
*D27
340
0
  0
BLOCK_RECORD
  5
1D9A1
330
7466
100
AcDbSymbolTableRecord
100
AcDbBlockTableRecord
  2
*D28
340
0
  0
BLOCK_RECORD
  5
1D9BB
330
7466
100
AcDbSymbolTableRecord
100
AcDbBlockTableRecord
  2
*D29
340
0
  0
BLOCK_RECORD
  5
1D9C7
330
7466
100
AcDbSymbolTableRecord
100
AcDbBlockTableRecord
  2
*D30
340
0
  0
ENDTAB
  0
ENDSEC
  0
SECTION
  2
BLOCKS
  0
BLOCK
  5
7489
330
747D
100
AcDbEntity
  8
0
100
AcDbBlockBegin
  2
*MODEL_SPACE
 70
     0
 10
0.0
 20
0.0
 30
0.0
  3
*MODEL_SPACE
  1

  0
ENDBLK
  5
748A
330
747D
100
AcDbEntity
  8
0
100
AcDbBlockEnd
  0
BLOCK
  5
7487
330
747A
100
AcDbEntity
 67
     1
  8
0
100
AcDbBlockBegin
  2
*PAPER_SPACE
 70
     0
 10
0.0
 20
0.0
 30
0.0
  3
*PAPER_SPACE
  1

  0
ENDBLK
  5
7488
330
747A
100
AcDbEntity
 67
     1
  8
0
100
AcDbBlockEnd
  0
BLOCK
  5
F771
330
F770
100
AcDbEntity
  8
0
 48
50.0
100
AcDbBlockBegin
  2
_DOTSMALL
 70
     0
 10
0.0
 20
0.0
 30
0.0
  3
_DOTSMALL
  1

  0
LWPOLYLINE
  5
F772
330
F770
100
AcDbEntity
  8
0
  6
ByBlock
 62
     0
 48
50.0
100
AcDbPolyline
 90
        2
 70
     1
 43
0.5
 10
-0.0625
 20
0.0
 42
1.0
 10
0.0625
 20
0.0
 42
1.0
  0
ENDBLK
  5
F776
330
F770
100
AcDbEntity
  8
0
 48
50.0
100
AcDbBlockEnd
  0
BLOCK
  5
139D7
330
127B0
100
AcDbEntity
  8
0
 48
50.0
100
AcDbBlockBegin
  2
*D1
 70
     1
 10
0.0
 20
0.0
 30
0.0
  3
*D1
  1

  0
LINE
  5
1C4D2
330
127B0
100
AcDbEntity
  8
寸法
 62
     0
 48
50.0
370
    -2
100
AcDbLine
 10
9280.693956914474
 20
3100.0
 30
0.0
 11
8151.943827731216
 21
3100.0
 31
0.0
  0
LINE
  5
1C4D3
330
127B0
100
AcDbEntity
  8
寸法
 62
     0
 48
50.0
370
    -2
100
AcDbLine
 10
8279.192881019342
 20
3000.0
 30
0.0
 11
8151.943827731216
 21
3000.0
 31
0.0
  0
LINE
  5
1C4D4
330
127B0
100
AcDbEntity
  8
寸法
 62
     0
 48
50.0
370
    -2
100
AcDbLine
 10
8211.943827731214
 20
3100.0
 30
0.0
 11
8211.943827731214
 21
3000.0
 31
0.0
  0
LINE
  5
1C4D5
330
127B0
100
AcDbEntity
  8
寸法
 62
     0
 48
50.0
370
    -2
100
AcDbLine
 10
8211.943827731214
 20
3000.0
 30
0.0
 11
8211.943827731214
 21
2627.905511811024
 31
0.0
  0
INSERT
  5
1C4D6
330
127B0
100
AcDbEntity
  8
寸法
 62
     0
 48
50.0
370
    -2
100
AcDbBlockReference
  2
_DOTSMALL
 10
8211.943827731214
 20
3100.0
 30
0.0
 41
100.0
 42
100.0
 43
100.0
 50
90.0
  0
INSERT
  5
1C4D7
330
127B0
100
AcDbEntity
  8
寸法
 62
     0
 48
50.0
370
    -2
100
AcDbBlockReference
  2
_DOTSMALL
 10
8211.943827731214
 20
3000.0
 30
0.0
 41
100.0
 42
100.0
 43
100.0
 50
270.0
  0
MTEXT
  5
1C4D8
330
127B0
100
AcDbEntity
  8
寸法
 62
     7
 48
50.0
100
AcDbMText
 10
8111.943827731215
 20
2763.952755905513
 30
0.0
 40
120.0
 41
0.0
 71
     5
 72
     1
  1
\A1;100
  7
STYLE1
 11
0.0000000000000001
 21
1.0
 31
0.0
 73
     1
 44
1.0
1001
ACAD
1000
MTEXTBEGIN
1070
    73
1070
     1
1070
    44
1040
1.0
1070
    74
1070
     0
1000
MTEXTEND
  0
POINT
  5
1C4D9
330
127B0
100
AcDbEntity
  8
DEFPOINTS
 62
     0
 48
50.0
100
AcDbPoint
 10
9300.693956914475
 20
3100.0
 30
0.0
  0
POINT
  5
1C4DA
330
127B0
100
AcDbEntity
  8
DEFPOINTS
 62
     0
 48
50.0
100
AcDbPoint
 10
8299.192881019342
 20
3000.0
 30
0.0
  0
POINT
  5
1C4DB
330
127B0
100
AcDbEntity
  8
DEFPOINTS
 62
     0
 48
50.0
100
AcDbPoint
 10
8211.943827731214
 20
3000.0
 30
0.0
  0
ENDBLK
  5
139E2
330
127B0
100
AcDbEntity
  8
0
 48
50.0
100
AcDbBlockEnd
  0
BLOCK
  5
139E3
330
127BE
100
AcDbEntity
  8
0
 48
50.0
100
AcDbBlockBegin
  2
*D2
 70
     1
 10
0.0
 20
0.0
 30
0.0
  3
*D2
  1

  0
LINE
  5
1C4C7
330
127BE
100
AcDbEntity
  8
寸法
 62
     0
 48
50.0
370
    -2
100
AcDbLine
 10
9335.693956914473
 20
3150.0
 30
0.0
 11
8451.943827731215
 21
3150.0
 31
0.0
  0
LINE
  5
1C4C8
330
127BE
100
AcDbEntity
  8
寸法
 62
     0
 48
50.0
370
    -2
100
AcDbLine
 10
9280.693956914474
 20
3100.0
 30
0.0
 11
8451.943827731215
 21
3100.0
 31
0.0
  0
LINE
  5
1C4C9
330
127BE
100
AcDbEntity
  8
寸法
 62
     0
 48
50.0
370
    -2
100
AcDbLine
 10
8511.943827731213
 20
3150.0
 30
0.0
 11
8511.943827731213
 21
3250.000000000001
 31
0.0
  0
LINE
  5
1C4CA
330
127BE
100
AcDbEntity
  8
寸法
 62
     0
 48
50.0
370
    -2
100
AcDbLine
 10
8511.943827731213
 20
3100.0
 30
0.0
 11
8511.943827731213
 21
2687.905511811024
 31
0.0
  0
LINE
  5
1C4CB
330
127BE
100
AcDbEntity
  8
寸法
 62
     0
 48
50.0
370
    -2
100
AcDbLine
 10
8511.943827731213
 20
3150.0
 30
0.0
 11
8511.943827731213
 21
3100.0
 31
0.0
  0
INSERT
  5
1C4CC
330
127BE
100
AcDbEntity
  8
寸法
 62
     0
 48
50.0
370
    -2
100
AcDbBlockReference
  2
_DOTSMALL
 10
8511.943827731213
 20
3150.0
 30
0.0
 41
100.0
 42
100.0
 43
100.0
 50
270.0
  0
INSERT
  5
1C4CD
330
127BE
100
AcDbEntity
  8
寸法
 62
     0
 48
50.0
370
    -2
100
AcDbBlockReference
  2
_DOTSMALL
 10
8511.943827731213
 20
3100.0
 30
0.0
 41
100.0
 42
100.0
 43
100.0
 50
90.0
  0
MTEXT
  5
1C4CE
330
127BE
100
AcDbEntity
  8
寸法
 62
     7
 48
50.0
100
AcDbMText
 10
8411.943827731214
 20
2793.952755905514
 30
0.0
 40
120.0
 41
0.0
 71
     5
 72
     1
  1
\A1;50
  7
STYLE1
 11
0.0000000000000001
 21
1.0
 31
0.0
 73
     1
 44
1.0
1001
ACAD
1000
MTEXTBEGIN
1070
    73
1070
     1
1070
    44
1040
1.0
1070
    74
1070
     0
1000
MTEXTEND
  0
POINT
  5
1C4CF
330
127BE
100
AcDbEntity
  8
DEFPOINTS
 62
     0
 48
50.0
100
AcDbPoint
 10
9355.693956914475
 20
3150.0
 30
0.0
  0
POINT
  5
1C4D0
330
127BE
100
AcDbEntity
  8
DEFPOINTS
 62
     0
 48
50.0
100
AcDbPoint
 10
9300.693956914475
 20
3100.0
 30
0.0
  0
POINT
  5
1C4D1
330
127BE
100
AcDbEntity
  8
DEFPOINTS
 62
     0
 48
50.0
100
AcDbPoint
 10
8511.943827731213
 20
3100.0
 30
0.0
  0
ENDBLK
  5
139EF
330
127BE
100
AcDbEntity
  8
0
 48
50.0
100
AcDbBlockEnd
  0
BLOCK
  5
13B92
330
127CC
100
AcDbEntity
  8
0
 48
50.0
100
AcDbBlockBegin
  2
*D3
 70
     1
 10
0.0
 20
0.0
 30
0.0
  3
*D3
  1

  0
LINE
  5
1C4DC
330
127CC
100
AcDbEntity
  8
寸法
 62
     0
 48
50.0
370
    -2
100
AcDbLine
 10
9335.693956914473
 20
3100.0
 30
0.0
 11
8151.943827731214
 21
3100.0
 31
0.0
  0
LINE
  5
1C4DD
330
127CC
100
AcDbEntity
  8
寸法
 62
     0
 48
50.0
370
    -2
100
AcDbLine
 10
9275.693956914476
 20
5175.000000000005
 30
0.0
 11
8151.943827731214
 21
5175.000000000005
 31
0.0
  0
LINE
  5
1C4DE
330
127CC
100
AcDbEntity
  8
寸法
 62
     0
 48
50.0
370
    -2
100
AcDbLine
 10
8211.943827731213
 20
3100.0
 30
0.0
 11
8211.943827731214
 21
5175.000000000005
 31
0.0
  0
INSERT
  5
1C4DF
330
127CC
100
AcDbEntity
  8
寸法
 62
     0
 48
50.0
370
    -2
100
AcDbBlockReference
  2
_DOTSMALL
 10
8211.943827731213
 20
3100.0
 30
0.0
 41
100.0
 42
100.0
 43
100.0
 50
270.0
  0
INSERT
  5
1C4E0
330
127CC
100
AcDbEntity
  8
寸法
 62
     0
 48
50.0
370
    -2
100
AcDbBlockReference
  2
_DOTSMALL
 10
8211.943827731214
 20
5175.000000000005
 30
0.0
 41
100.0
 42
100.0
 43
100.0
 50
90.0
  0
MTEXT
  5
1C4E1
330
127CC
100
AcDbEntity
  8
寸法
 62
     7
 48
50.0
100
AcDbMText
 10
8111.932016707591
 20
4137.500000000003
 30
0.0
 40
120.0
 41
0.0
 71
     5
 72
     1
  1
\A1;2075
  7
STYLE1
 11
0.0000000000000001
 21
1.0
 31
0.0
 73
     1
 44
1.0
1001
ACAD
1000
MTEXTBEGIN
1070
    73
1070
     1
1070
    44
1040
1.0
1070
    74
1070
     0
1000
MTEXTEND
  0
POINT
  5
1C4E2
330
127CC
100
AcDbEntity
  8
DEFPOINTS
 62
     0
 48
50.0
100
AcDbPoint
 10
9355.693956914475
 20
3100.0
 30
0.0
  0
POINT
  5
1C4E3
330
127CC
100
AcDbEntity
  8
DEFPOINTS
 62
     0
 48
50.0
100
AcDbPoint
 10
9295.693956914476
 20
5175.000000000005
 30
0.0
  0
POINT
  5
1C4E4
330
127CC
100
AcDbEntity
  8
DEFPOINTS
 62
     0
 48
50.0
100
AcDbPoint
 10
8211.943827731214
 20
5175.000000000005
 30
0.0
  0
ENDBLK
  5
13B9C
330
127CC
100
AcDbEntity
  8
0
 48
50.0
100
AcDbBlockEnd
  0
BLOCK
  5
139C1
330
127E6
100
AcDbEntity
  8
0
 48
50.0
100
AcDbBlockBegin
  2
*D4
 70
     1
 10
0.0
 20
0.0
 30
0.0
  3
*D4
  1

  0
LINE
  5
1C4E5
330
127E6
100
AcDbEntity
  8
寸法
 62
     0
 48
50.0
370
    -2
100
AcDbLine
 10
9335.693956914473
 20
4940.0
 30
0.0
 11
8451.943827731216
 21
4940.0
 31
0.0
  0
LINE
  5
1C4E6
330
127E6
100
AcDbEntity
  8
寸法
 62
     0
 48
50.0
370
    -2
100
AcDbLine
 10
9335.693956914473
 20
3150.0
 30
0.0
 11
8451.943827731215
 21
3150.0
 31
0.0
  0
LINE
  5
1C4E7
330
127E6
100
AcDbEntity
  8
寸法
 62
     0
 48
50.0
370
    -2
100
AcDbLine
 10
8511.943827731217
 20
4940.0
 30
0.0
 11
8511.943827731213
 21
3150.0
 31
0.0
  0
INSERT
  5
1C4E8
330
127E6
100
AcDbEntity
  8
寸法
 62
     0
 48
50.0
370
    -2
100
AcDbBlockReference
  2
_DOTSMALL
 10
8511.943827731217
 20
4940.0
 30
0.0
 41
100.0
 42
100.0
 43
100.0
 50
90.0
  0
INSERT
  5
1C4E9
330
127E6
100
AcDbEntity
  8
寸法
 62
     0
 48
50.0
370
    -2
100
AcDbBlockReference
  2
_DOTSMALL
 10
8511.943827731213
 20
3150.0
 30
0.0
 41
100.0
 42
100.0
 43
100.0
 50
270.0
  0
MTEXT
  5
1C4EA
330
127E6
100
AcDbEntity
  8
寸法
 62
     7
 48
50.0
100
AcDbMText
 10
8411.943827731214
 20
4045.000000000001
 30
0.0
 40
120.0
 41
0.0
 71
     5
 72
     1
  1
\A1;1790
  7
STYLE1
 11
0.0000000000000001
 21
1.0
 31
0.0
 73
     1
 44
1.0
1001
ACAD
1000
MTEXTBEGIN
1070
    73
1070
     1
1070
    44
1040
1.0
1070
    74
1070
     0
1000
MTEXTEND
  0
POINT
  5
1C4EB
330
127E6
100
AcDbEntity
  8
DEFPOINTS
 62
     0
 48
50.0
100
AcDbPoint
 10
9355.693956914475
 20
4940.0
 30
0.0
  0
POINT
  5
1C4EC
330
127E6
100
AcDbEntity
  8
DEFPOINTS
 62
     0
 48
50.0
100
AcDbPoint
 10
9355.693956914475
 20
3150.0
 30
0.0
  0
POINT
  5
1C4ED
330
127E6
100
AcDbEntity
  8
DEFPOINTS
 62
     0
 48
50.0
100
AcDbPoint
 10
8511.943827731213
 20
3150.0
 30
0.0
  0
ENDBLK
  5
139CB
330
127E6
100
AcDbEntity
  8
0
 48
50.0
100
AcDbBlockEnd
  0
BLOCK
  5
14CA7
330
127F2
100
AcDbEntity
  8
0
 48
50.0
100
AcDbBlockBegin
  2
*D5
 70
     1
 10
0.0
 20
0.0
 30
0.0
  3
*D5
  1

  0
LINE
  5
1C4EE
330
127F2
100
AcDbEntity
  8
寸法
 62
     0
 48
50.0
370
    -2
100
AcDbLine
 10
9335.693956914473
 20
4932.0
 30
0.0
 11
8750.785315517221
 21
4932.0
 31
0.0
  0
LINE
  5
1C4EF
330
127F2
100
AcDbEntity
  8
寸法
 62
     0
 48
50.0
370
    -2
100
AcDbLine
 10
9335.693956914473
 20
3162.0
 30
0.0
 11
8750.785315517219
 21
3162.000000000001
 31
0.0
  0
LINE
  5
1C4F0
330
127F2
100
AcDbEntity
  8
寸法
 62
     0
 48
50.0
370
    -2
100
AcDbLine
 10
8810.785315517222
 20
4932.0
 30
0.0
 11
8810.78531551722
 21
3162.000000000001
 31
0.0
  0
INSERT
  5
1C4F1
330
127F2
100
AcDbEntity
  8
寸法
 62
     0
 48
50.0
370
    -2
100
AcDbBlockReference
  2
_DOTSMALL
 10
8810.785315517222
 20
4932.0
 30
0.0
 41
100.0
 42
100.0
 43
100.0
 50
90.0
  0
INSERT
  5
1C4F2
330
127F2
100
AcDbEntity
  8
寸法
 62
     0
 48
50.0
370
    -2
100
AcDbBlockReference
  2
_DOTSMALL
 10
8810.78531551722
 20
3162.000000000001
 30
0.0
 41
100.0
 42
100.0
 43
100.0
 50
270.0
  0
MTEXT
  5
1C4F3
330
127F2
100
AcDbEntity
  8
寸法
 62
     7
 48
50.0
100
AcDbMText
 10
8710.785315517219
 20
4047.000000000001
 30
0.0
 40
120.0
 41
0.0
 71
     5
 72
     1
  1
\A1;有効開口部高サ1770
  7
STYLE1
 11
0.0000000000000001
 21
1.0
 31
0.0
 73
     1
 44
1.0
1001
ACAD
1000
MTEXTBEGIN
1070
    73
1070
     1
1070
    44
1040
1.0
1070
    74
1070
     0
1000
MTEXTEND
  0
POINT
  5
1C4F4
330
127F2
100
AcDbEntity
  8
DEFPOINTS
 62
     0
 48
50.0
100
AcDbPoint
 10
9355.693956914475
 20
4932.0
 30
0.0
  0
POINT
  5
1C4F5
330
127F2
100
AcDbEntity
  8
DEFPOINTS
 62
     0
 48
50.0
100
AcDbPoint
 10
9355.693956914475
 20
3162.0
 30
0.0
  0
POINT
  5
1C4F6
330
127F2
100
AcDbEntity
  8
DEFPOINTS
 62
     0
 48
50.0
100
AcDbPoint
 10
8810.78531551722
 20
3162.000000000001
 30
0.0
  0
ENDBLK
  5
14CB1
330
127F2
100
AcDbEntity
  8
0
 48
50.0
100
AcDbBlockEnd
  0
BLOCK
  5
13B9D
330
12832
100
AcDbEntity
  8
0
 48
50.0
100
AcDbBlockBegin
  2
*D6
 70
     1
 10
0.0
 20
0.0
 30
0.0
  3
*D6
  1

  0
LINE
  5
1D053
330
12832
100
AcDbEntity
  8
寸法
 62
     0
 48
50.0
370
    -2
100
AcDbLine
 10
10745.69395691448
 20
3100.0
 30
0.0
 11
11490.6211148866
 21
3100.0
 31
0.0
  0
LINE
  5
1D054
330
12832
100
AcDbEntity
  8
寸法
 62
     0
 48
50.0
370
    -2
100
AcDbLine
 10
10825.69395691447
 20
5120.0
 30
0.0
 11
11490.6211148866
 21
5120.0
 31
0.0
  0
LINE
  5
1D055
330
12832
100
AcDbEntity
  8
寸法
 62
     0
 48
50.0
370
    -2
100
AcDbLine
 10
11430.6211148866
 20
3100.0
 30
0.0
 11
11430.6211148866
 21
5120.0
 31
0.0
  0
INSERT
  5
1D056
330
12832
100
AcDbEntity
  8
寸法
 62
     0
 48
50.0
370
    -2
100
AcDbBlockReference
  2
_DOTSMALL
 10
11430.6211148866
 20
3100.0
 30
0.0
 41
100.0
 42
100.0
 43
100.0
 50
270.0
  0
INSERT
  5
1D057
330
12832
100
AcDbEntity
  8
寸法
 62
     0
 48
50.0
370
    -2
100
AcDbBlockReference
  2
_DOTSMALL
 10
11430.6211148866
 20
5120.0
 30
0.0
 41
100.0
 42
100.0
 43
100.0
 50
90.0
  0
MTEXT
  5
1D058
330
12832
100
AcDbEntity
  8
寸法
 62
     7
 48
50.0
100
AcDbMText
 10
11330.60930386298
 20
4110.000000000002
 30
0.0
 40
120.0
 41
0.0
 71
     5
 72
     1
  1
\A1;2020
  7
STYLE1
 11
0.0000000000000001
 21
1.0
 31
0.0
 73
     1
 44
1.0
1001
ACAD
1000
MTEXTBEGIN
1070
    73
1070
     1
1070
    44
1040
1.0
1070
    74
1070
     0
1000
MTEXTEND
  0
POINT
  5
1D059
330
12832
100
AcDbEntity
  8
DEFPOINTS
 62
     0
 48
50.0
100
AcDbPoint
 10
10725.69395691448
 20
3100.0
 30
0.0
  0
POINT
  5
1D05A
330
12832
100
AcDbEntity
  8
DEFPOINTS
 62
     0
 48
50.0
100
AcDbPoint
 10
10805.69395691447
 20
5120.0
 30
0.0
  0
POINT
  5
1D05B
330
12832
100
AcDbEntity
  8
DEFPOINTS
 62
     0
 48
50.0
100
AcDbPoint
 10
11430.6211148866
 20
5120.0
 30
0.0
  0
ENDBLK
  5
13BA7
330
12832
100
AcDbEntity
  8
0
 48
50.0
100
AcDbBlockEnd
  0
BLOCK
  5
14D1F
330
13B45
100
AcDbEntity
  8
0
 48
50.0
100
AcDbBlockBegin
  2
*D7
 70
     1
 10
0.0
 20
0.0
 30
0.0
  3
*D7
  1

  0
LINE
  5
1D092
330
13B45
100
AcDbEntity
  8
寸法
 62
     0
 48
50.0
370
    -2
100
AcDbLine
 10
10725.69395691447
 20
5141.810679611654
 30
0.0
 11
10725.69395691447
 21
5633.657453579304
 31
0.0
  0
LINE
  5
1D093
330
13B45
100
AcDbEntity
  8
寸法
 62
     0
 48
50.0
370
    -2
100
AcDbLine
 10
9355.693956914477
 20
5191.001618122976
 30
0.0
 11
9355.693956914477
 21
5633.657453579304
 31
0.0
  0
LINE
  5
1D094
330
13B45
100
AcDbEntity
  8
寸法
 62
     0
 48
50.0
370
    -2
100
AcDbLine
 10
10725.69395691447
 20
5573.657453579304
 30
0.0
 11
9355.693956914477
 21
5573.657453579304
 31
0.0
  0
INSERT
  5
1D095
330
13B45
100
AcDbEntity
  8
寸法
 62
     0
 48
50.0
370
    -2
100
AcDbBlockReference
  2
_DOTSMALL
 10
10725.69395691447
 20
5573.657453579304
 30
0.0
 41
100.0
 42
100.0
 43
100.0
  0
INSERT
  5
1D096
330
13B45
100
AcDbEntity
  8
寸法
 62
     0
 48
50.0
370
    -2
100
AcDbBlockReference
  2
_DOTSMALL
 10
9355.693956914477
 20
5573.657453579304
 30
0.0
 41
100.0
 42
100.0
 43
100.0
 50
180.0
  0
MTEXT
  5
1D097
330
13B45
100
AcDbEntity
  8
寸法
 62
     7
 48
50.0
100
AcDbMText
 10
10005.51298980502
 20
5673.657453579305
 30
0.0
 40
120.0
 41
0.0
 71
     5
 72
     1
  1
\A1;柱外寸法1370
  7
STYLE1
 73
     1
 44
1.0
1001
ACAD
1000
MTEXTBEGIN
1070
    73
1070
     1
1070
    44
1040
1.0
1070
    74
1070
     0
1000
MTEXTEND
  0
POINT
  5
1D098
330
13B45
100
AcDbEntity
  8
DEFPOINTS
 62
     0
 48
50.0
100
AcDbPoint
 10
10725.69395691447
 20
5121.810679611654
 30
0.0
  0
POINT
  5
1D099
330
13B45
100
AcDbEntity
  8
DEFPOINTS
 62
     0
 48
50.0
100
AcDbPoint
 10
9355.693956914477
 20
5171.001618122977
 30
0.0
  0
POINT
  5
1D09A
330
13B45
100
AcDbEntity
  8
DEFPOINTS
 62
     0
 48
50.0
100
AcDbPoint
 10
9355.693956914477
 20
5573.657453579304
 30
0.0
  0
ENDBLK
  5
14D29
330
13B45
100
AcDbEntity
  8
0
 48
50.0
100
AcDbBlockEnd
  0
BLOCK
  5
149C9
330
13B60
100
AcDbEntity
  8
0
 48
50.0
100
AcDbBlockBegin
  2
*D8
 70
     1
 10
0.0
 20
0.0
 30
0.0
  3
*D8
  1

  0
LINE
  5
1C4AA
330
13B60
100
AcDbEntity
  8
寸法
 62
     0
 48
50.0
370
    -2
100
AcDbLine
 10
9355.693956914477
 20
5191.001618122976
 30
0.0
 11
9355.693956914477
 21
5633.657453579304
 31
0.0
  0
LINE
  5
1C4AB
330
13B60
100
AcDbEntity
  8
寸法
 62
     0
 48
50.0
370
    -2
100
AcDbLine
 10
9295.693956914476
 20
5195.000000000004
 30
0.0
 11
9295.693956914476
 21
5633.657453579304
 31
0.0
  0
LINE
  5
1C4AC
330
13B60
100
AcDbEntity
  8
寸法
 62
     0
 48
50.0
370
    -2
100
AcDbLine
 10
9355.693956914477
 20
5573.657453579304
 30
0.0
 11
9455.693956914476
 21
5573.657453579304
 31
0.0
  0
LINE
  5
1C4AD
330
13B60
100
AcDbEntity
  8
寸法
 62
     0
 48
50.0
370
    -2
100
AcDbLine
 10
9295.693956914476
 20
5573.657453579304
 30
0.0
 11
8876.418366363296
 21
5573.657453579304
 31
0.0
  0
LINE
  5
1C4AE
330
13B60
100
AcDbEntity
  8
寸法
 62
     0
 48
50.0
370
    -2
100
AcDbLine
 10
9355.693956914477
 20
5573.657453579304
 30
0.0
 11
9295.693956914476
 21
5573.657453579304
 31
0.0
  0
INSERT
  5
1C4AF
330
13B60
100
AcDbEntity
  8
寸法
 62
     0
 48
50.0
370
    -2
100
AcDbBlockReference
  2
_DOTSMALL
 10
9355.693956914477
 20
5573.657453579304
 30
0.0
 41
100.0
 42
100.0
 43
100.0
 50
180.0
  0
INSERT
  5
1C4B0
330
13B60
100
AcDbEntity
  8
寸法
 62
     0
 48
50.0
370
    -2
100
AcDbBlockReference
  2
_DOTSMALL
 10
9295.693956914476
 20
5573.657453579304
 30
0.0
 41
100.0
 42
100.0
 43
100.0
  0
MTEXT
  5
1C4B1
330
13B60
100
AcDbEntity
  8
寸法
 62
     7
 48
50.0
100
AcDbMText
 10
8986.056161638886
 20
5673.657453579305
 30
0.0
 40
120.0
 41
0.0
 71
     5
 72
     1
  1
\A1;60
  7
STYLE1
 73
     1
 44
1.0
1001
ACAD
1000
MTEXTBEGIN
1070
    73
1070
     1
1070
    44
1040
1.0
1070
    74
1070
     0
1000
MTEXTEND
  0
POINT
  5
1C4B2
330
13B60
100
AcDbEntity
  8
DEFPOINTS
 62
     0
 48
50.0
100
AcDbPoint
 10
9355.693956914477
 20
5171.001618122977
 30
0.0
  0
POINT
  5
1C4B3
330
13B60
100
AcDbEntity
  8
DEFPOINTS
 62
     0
 48
50.0
100
AcDbPoint
 10
9295.693956914476
 20
5175.000000000005
 30
0.0
  0
POINT
  5
1C4B4
330
13B60
100
AcDbEntity
  8
DEFPOINTS
 62
     0
 48
50.0
100
AcDbPoint
 10
9295.693956914476
 20
5573.657453579304
 30
0.0
  0
ENDBLK
  5
149D4
330
13B60
100
AcDbEntity
  8
0
 48
50.0
100
AcDbBlockEnd
  0
BLOCK
  5
14D2A
330
13BB3
100
AcDbEntity
  8
0
 48
50.0
100
AcDbBlockBegin
  2
*D9
 70
     1
 10
0.0
 20
0.0
 30
0.0
  3
*D9
  1

  0
LINE
  5
1D089
330
13BB3
100
AcDbEntity
  8
寸法
 62
     0
 48
50.0
370
    -2
100
AcDbLine
 10
10805.69395691447
 20
5140.000000000001
 30
0.0
 11
10805.69395691447
 21
5841.831774771268
 31
0.0
  0
LINE
  5
1D08A
330
13BB3
100
AcDbEntity
  8
寸法
 62
     0
 48
50.0
370
    -2
100
AcDbLine
 10
9295.693956914476
 20
5195.000000000004
 30
0.0
 11
9295.693956914476
 21
5841.831774771268
 31
0.0
  0
LINE
  5
1D08B
330
13BB3
100
AcDbEntity
  8
寸法
 62
     0
 48
50.0
370
    -2
100
AcDbLine
 10
10805.69395691447
 20
5781.831774771268
 30
0.0
 11
9295.693956914476
 21
5781.831774771268
 31
0.0
  0
INSERT
  5
1D08C
330
13BB3
100
AcDbEntity
  8
寸法
 62
     0
 48
50.0
370
    -2
100
AcDbBlockReference
  2
_DOTSMALL
 10
10805.69395691447
 20
5781.831774771268
 30
0.0
 41
100.0
 42
100.0
 43
100.0
  0
INSERT
  5
1D08D
330
13BB3
100
AcDbEntity
  8
寸法
 62
     0
 48
50.0
370
    -2
100
AcDbBlockReference
  2
_DOTSMALL
 10
9295.693956914476
 20
5781.831774771268
 30
0.0
 41
100.0
 42
100.0
 43
100.0
 50
180.0
  0
MTEXT
  5
1D08E
330
13BB3
100
AcDbEntity
  8
寸法
 62
     7
 48
50.0
100
AcDbMText
 10
10022.8187866163
 20
5881.831774771268
 30
0.0
 40
120.0
 41
0.0
 71
     5
 72
     1
  1
\A1;1510
  7
STYLE1
 73
     1
 44
1.0
1001
ACAD
1000
MTEXTBEGIN
1070
    73
1070
     1
1070
    44
1040
1.0
1070
    74
1070
     0
1000
MTEXTEND
  0
POINT
  5
1D08F
330
13BB3
100
AcDbEntity
  8
DEFPOINTS
 62
     0
 48
50.0
100
AcDbPoint
 10
10805.69395691447
 20
5120.0
 30
0.0
  0
POINT
  5
1D090
330
13BB3
100
AcDbEntity
  8
DEFPOINTS
 62
     0
 48
50.0
100
AcDbPoint
 10
9295.693956914476
 20
5175.000000000005
 30
0.0
  0
POINT
  5
1D091
330
13BB3
100
AcDbEntity
  8
DEFPOINTS
 62
     0
 48
50.0
100
AcDbPoint
 10
9295.693956914476
 20
5781.831774771268
 30
0.0
  0
ENDBLK
  5
14D34
330
13BB3
100
AcDbEntity
  8
0
 48
50.0
100
AcDbBlockEnd
  0
BLOCK
  5
14A98
330
13DA8
100
AcDbEntity
  8
0
 48
50.0
100
AcDbBlockBegin
  2
*D10
 70
     1
 10
0.0
 20
0.0
 30
0.0
  3
*D10
  1

  0
LINE
  5
1C498
330
13DA8
100
AcDbEntity
  8
寸法
 62
     0
 48
50.0
370
    -2
100
AcDbLine
 10
5579.896575106992
 20
5195.000000000005
 30
0.0
 11
5579.896575106992
 21
5649.214133848723
 31
0.0
  0
LINE
  5
1C499
330
13DA8
100
AcDbEntity
  8
寸法
 62
     0
 48
50.0
370
    -2
100
AcDbLine
 10
7469.896575106992
 20
5195.000000000003
 30
0.0
 11
7469.896575106992
 21
5649.214133848723
 31
0.0
  0
LINE
  5
1C49A
330
13DA8
100
AcDbEntity
  8
寸法
 62
     0
 48
50.0
370
    -2
100
AcDbLine
 10
5579.896575106992
 20
5589.214133848724
 30
0.0
 11
7469.896575106992
 21
5589.214133848724
 31
0.0
  0
INSERT
  5
1C49B
330
13DA8
100
AcDbEntity
  8
寸法
 62
     0
 48
50.0
370
    -2
100
AcDbBlockReference
  2
_DOTSMALL
 10
5579.896575106992
 20
5589.214133848724
 30
0.0
 41
100.0
 42
100.0
 43
100.0
 50
180.0
  0
INSERT
  5
1C49C
330
13DA8
100
AcDbEntity
  8
寸法
 62
     0
 48
50.0
370
    -2
100
AcDbBlockReference
  2
_DOTSMALL
 10
7469.896575106992
 20
5589.214133848724
 30
0.0
 41
100.0
 42
100.0
 43
100.0
  0
MTEXT
  5
1C49D
330
13DA8
100
AcDbEntity
  8
寸法
 62
     7
 48
50.0
100
AcDbMText
 10
6524.896575106989
 20
5689.214133848723
 30
0.0
 40
120.0
 41
0.0
 71
     5
 72
     1
  1
\A1;1890
  7
STYLE1
 73
     1
 44
1.0
1001
ACAD
1000
MTEXTBEGIN
1070
    73
1070
     1
1070
    44
1040
1.0
1070
    74
1070
     0
1000
MTEXTEND
  0
POINT
  5
1C49E
330
13DA8
100
AcDbEntity
  8
DEFPOINTS
 62
     0
 48
50.0
100
AcDbPoint
 10
5579.896575106992
 20
5175.000000000006
 30
0.0
  0
POINT
  5
1C49F
330
13DA8
100
AcDbEntity
  8
DEFPOINTS
 62
     0
 48
50.0
100
AcDbPoint
 10
7469.896575106992
 20
5175.000000000003
 30
0.0
  0
POINT
  5
1C4A0
330
13DA8
100
AcDbEntity
  8
DEFPOINTS
 62
     0
 48
50.0
100
AcDbPoint
 10
7469.896575106992
 20
5589.214133848724
 30
0.0
  0
ENDBLK
  5
14AA2
330
13DA8
100
AcDbEntity
  8
0
 48
50.0
100
AcDbBlockEnd
  0
BLOCK
  5
14A8A
330
141B5
100
AcDbEntity
  8
0
 48
50.0
100
AcDbBlockBegin
  2
*D11
 70
     1
 10
0.0
 20
0.0
 30
0.0
  3
*D11
  1

  0
LINE
  5
1C48D
330
141B5
100
AcDbEntity
  8
寸法
 62
     0
 48
50.0
370
    -2
100
AcDbLine
 10
7469.896575106992
 20
5195.000000000003
 30
0.0
 11
7469.896575106992
 21
5439.620259427273
 31
0.0
  0
LINE
  5
1C48E
330
141B5
100
AcDbEntity
  8
寸法
 62
     0
 48
50.0
370
    -2
100
AcDbLine
 10
7419.896575106993
 20
5195.000000000005
 30
0.0
 11
7419.896575106993
 21
5439.620259427273
 31
0.0
  0
LINE
  5
1C48F
330
141B5
100
AcDbEntity
  8
寸法
 62
     0
 48
50.0
370
    -2
100
AcDbLine
 10
7419.896575106993
 20
5379.620259427273
 30
0.0
 11
7319.896575106993
 21
5379.620259427273
 31
0.0
  0
LINE
  5
1C490
330
141B5
100
AcDbEntity
  8
寸法
 62
     0
 48
50.0
370
    -2
100
AcDbLine
 10
7469.896575106992
 20
5379.620259427273
 30
0.0
 11
7889.429100575718
 21
5379.620259427273
 31
0.0
  0
LINE
  5
1C491
330
141B5
100
AcDbEntity
  8
寸法
 62
     0
 48
50.0
370
    -2
100
AcDbLine
 10
7419.896575106993
 20
5379.620259427273
 30
0.0
 11
7469.896575106992
 21
5379.620259427273
 31
0.0
  0
INSERT
  5
1C492
330
141B5
100
AcDbEntity
  8
寸法
 62
     0
 48
50.0
370
    -2
100
AcDbBlockReference
  2
_DOTSMALL
 10
7419.896575106993
 20
5379.620259427273
 30
0.0
 41
100.0
 42
100.0
 43
100.0
  0
INSERT
  5
1C493
330
141B5
100
AcDbEntity
  8
寸法
 62
     0
 48
50.0
370
    -2
100
AcDbBlockReference
  2
_DOTSMALL
 10
7469.896575106992
 20
5379.620259427273
 30
0.0
 41
100.0
 42
100.0
 43
100.0
 50
180.0
  0
MTEXT
  5
1C494
330
141B5
100
AcDbEntity
  8
寸法
 62
     7
 48
50.0
100
AcDbMText
 10
7783.381856481231
 20
5479.620259427273
 30
0.0
 40
120.0
 41
0.0
 71
     5
 72
     1
  1
\A1;50
  7
STYLE1
 73
     1
 44
1.0
1001
ACAD
1000
MTEXTBEGIN
1070
    73
1070
     1
1070
    44
1040
1.0
1070
    74
1070
     0
1000
MTEXTEND
  0
POINT
  5
1C495
330
141B5
100
AcDbEntity
  8
DEFPOINTS
 62
     0
 48
50.0
100
AcDbPoint
 10
7469.896575106992
 20
5175.000000000003
 30
0.0
  0
POINT
  5
1C496
330
141B5
100
AcDbEntity
  8
DEFPOINTS
 62
     0
 48
50.0
100
AcDbPoint
 10
7419.896575106993
 20
5175.000000000006
 30
0.0
  0
POINT
  5
1C497
330
141B5
100
AcDbEntity
  8
DEFPOINTS
 62
     0
 48
50.0
100
AcDbPoint
 10
7419.896575106993
 20
5379.620259427273
 30
0.0
  0
ENDBLK
  5
14A96
330
141B5
100
AcDbEntity
  8
0
 48
50.0
100
AcDbBlockEnd
  0
BLOCK
  5
14A7D
330
141F9
100
AcDbEntity
  8
0
 48
50.0
100
AcDbBlockBegin
  2
*D12
 70
     1
 10
0.0
 20
0.0
 30
0.0
  3
*D12
  1

  0
LINE
  5
1C482
330
141F9
100
AcDbEntity
  8
寸法
 62
     0
 48
50.0
370
    -2
100
AcDbLine
 10
5629.896575106992
 20
5195.000000000007
 30
0.0
 11
5629.896575106992
 21
5439.620259427273
 31
0.0
  0
LINE
  5
1C483
330
141F9
100
AcDbEntity
  8
寸法
 62
     0
 48
50.0
370
    -2
100
AcDbLine
 10
5579.896575106992
 20
5195.000000000005
 30
0.0
 11
5579.896575106992
 21
5439.620259427273
 31
0.0
  0
LINE
  5
1C484
330
141F9
100
AcDbEntity
  8
寸法
 62
     0
 48
50.0
370
    -2
100
AcDbLine
 10
5629.896575106992
 20
5379.620259427273
 30
0.0
 11
5729.896575106992
 21
5379.620259427273
 31
0.0
  0
LINE
  5
1C485
330
141F9
100
AcDbEntity
  8
寸法
 62
     0
 48
50.0
370
    -2
100
AcDbLine
 10
5579.896575106992
 20
5379.620259427273
 30
0.0
 11
5160.364049638259
 21
5379.620259427273
 31
0.0
  0
LINE
  5
1C486
330
141F9
100
AcDbEntity
  8
寸法
 62
     0
 48
50.0
370
    -2
100
AcDbLine
 10
5629.896575106992
 20
5379.620259427273
 30
0.0
 11
5579.896575106992
 21
5379.620259427273
 31
0.0
  0
INSERT
  5
1C487
330
141F9
100
AcDbEntity
  8
寸法
 62
     0
 48
50.0
370
    -2
100
AcDbBlockReference
  2
_DOTSMALL
 10
5629.896575106992
 20
5379.620259427273
 30
0.0
 41
100.0
 42
100.0
 43
100.0
 50
180.0
  0
INSERT
  5
1C488
330
141F9
100
AcDbEntity
  8
寸法
 62
     0
 48
50.0
370
    -2
100
AcDbBlockReference
  2
_DOTSMALL
 10
5579.896575106992
 20
5379.620259427273
 30
0.0
 41
100.0
 42
100.0
 43
100.0
  0
MTEXT
  5
1C489
330
141F9
100
AcDbEntity
  8
寸法
 62
     7
 48
50.0
100
AcDbMText
 10
5266.411293732747
 20
5479.620259427273
 30
0.0
 40
120.0
 41
0.0
 71
     5
 72
     1
  1
\A1;50
  7
STYLE1
 73
     1
 44
1.0
1001
ACAD
1000
MTEXTBEGIN
1070
    73
1070
     1
1070
    44
1040
1.0
1070
    74
1070
     0
1000
MTEXTEND
  0
POINT
  5
1C48A
330
141F9
100
AcDbEntity
  8
DEFPOINTS
 62
     0
 48
50.0
100
AcDbPoint
 10
5629.896575106992
 20
5175.000000000006
 30
0.0
  0
POINT
  5
1C48B
330
141F9
100
AcDbEntity
  8
DEFPOINTS
 62
     0
 48
50.0
100
AcDbPoint
 10
5579.896575106992
 20
5175.000000000006
 30
0.0
  0
POINT
  5
1C48C
330
141F9
100
AcDbEntity
  8
DEFPOINTS
 62
     0
 48
50.0
100
AcDbPoint
 10
5579.896575106992
 20
5379.620259427273
 30
0.0
  0
ENDBLK
  5
14A89
330
141F9
100
AcDbEntity
  8
0
 48
50.0
100
AcDbBlockEnd
  0
BLOCK
  5
148C8
330
1458A
100
AcDbEntity
  8
0
 48
50.0
100
AcDbBlockBegin
  2
*D13
 70
     1
 10
0.0
 20
0.0
 30
0.0
  3
*D13
  1

  0
LINE
  5
1D1AE
330
1458A
100
AcDbEntity
  8
寸法
 62
     0
 48
50.0
370
    -2
100
AcDbLine
 10
5629.896575106964
 20
8645.114889232134
 30
0.0
 11
5629.896575106964
 21
8900.923108857115
 31
0.0
  0
LINE
  5
1D1AF
330
1458A
100
AcDbEntity
  8
寸法
 62
     0
 48
50.0
370
    -2
100
AcDbLine
 10
5684.896575106998
 20
8645.114889232134
 30
0.0
 11
5684.896575106998
 21
8900.923108857115
 31
0.0
  0
LINE
  5
1D1B0
330
1458A
100
AcDbEntity
  8
寸法
 62
     0
 48
50.0
370
    -2
100
AcDbLine
 10
5684.896575106998
 20
8840.923108857117
 30
0.0
 11
5784.896575106998
 21
8840.923108857117
 31
0.0
  0
LINE
  5
1D1B1
330
1458A
100
AcDbEntity
  8
寸法
 62
     0
 48
50.0
370
    -2
100
AcDbLine
 10
5629.896575106964
 20
8840.923108857117
 30
0.0
 11
5212.926012358487
 21
8840.923108857117
 31
0.0
  0
LINE
  5
1D1B2
330
1458A
100
AcDbEntity
  8
寸法
 62
     0
 48
50.0
370
    -2
100
AcDbLine
 10
5684.896575106998
 20
8840.923108857117
 30
0.0
 11
5629.896575106964
 21
8840.923108857117
 31
0.0
  0
INSERT
  5
1D1B3
330
1458A
100
AcDbEntity
  8
寸法
 62
     0
 48
50.0
370
    -2
100
AcDbBlockReference
  2
_DOTSMALL
 10
5684.896575106998
 20
8840.923108857117
 30
0.0
 41
100.0
 42
100.0
 43
100.0
 50
180.0
  0
INSERT
  5
1D1B4
330
1458A
100
AcDbEntity
  8
寸法
 62
     0
 48
50.0
370
    -2
100
AcDbBlockReference
  2
_DOTSMALL
 10
5629.896575106964
 20
8840.923108857117
 30
0.0
 41
100.0
 42
100.0
 43
100.0
  0
MTEXT
  5
1D1B5
330
1458A
100
AcDbEntity
  8
寸法
 62
     7
 48
50.0
100
AcDbMText
 10
5321.411293732726
 20
8940.923108857116
 30
0.0
 40
120.0
 41
0.0
 71
     5
 72
     1
  1
\A1;55
  7
STYLE1
 73
     1
 44
1.0
1001
ACAD
1000
MTEXTBEGIN
1070
    73
1070
     1
1070
    44
1040
1.0
1070
    74
1070
     0
1000
MTEXTEND
  0
POINT
  5
1D1B6
330
1458A
100
AcDbEntity
  8
DEFPOINTS
 62
     0
 48
50.0
100
AcDbPoint
 10
5629.896575106964
 20
8625.114889232134
 30
0.0
  0
POINT
  5
1D1B7
330
1458A
100
AcDbEntity
  8
DEFPOINTS
 62
     0
 48
50.0
100
AcDbPoint
 10
5684.896575106998
 20
8625.114889232134
 30
0.0
  0
POINT
  5
1D1B8
330
1458A
100
AcDbEntity
  8
DEFPOINTS
 62
     0
 48
50.0
100
AcDbPoint
 10
5684.896575106998
 20
8840.923108857117
 30
0.0
  0
ENDBLK
  5
148D4
330
1458A
100
AcDbEntity
  8
0
 48
50.0
100
AcDbBlockEnd
  0
BLOCK
  5
14D6F
330
14598
100
AcDbEntity
  8
0
 48
50.0
100
AcDbBlockBegin
  2
*D14
 70
     1
 10
0.0
 20
0.0
 30
0.0
  3
*D14
  1

  0
LINE
  5
1D1A5
330
14598
100
AcDbEntity
  8
寸法
 62
     0
 48
50.0
370
    -2
100
AcDbLine
 10
7439.89657510701
 20
8625.114889232229
 30
0.0
 11
8424.703743008178
 21
8625.114889232229
 31
0.0
  0
LINE
  5
1D1A6
330
14598
100
AcDbEntity
  8
寸法
 62
     0
 48
50.0
370
    -2
100
AcDbLine
 10
7439.896575106974
 20
7255.114889232229
 30
0.0
 11
8424.703743008178
 21
7255.114889232229
 31
0.0
  0
LINE
  5
1D1A7
330
14598
100
AcDbEntity
  8
寸法
 62
     0
 48
50.0
370
    -2
100
AcDbLine
 10
8364.703743008178
 20
8625.114889232229
 30
0.0
 11
8364.703743008178
 21
7255.114889232229
 31
0.0
  0
INSERT
  5
1D1A8
330
14598
100
AcDbEntity
  8
寸法
 62
     0
 48
50.0
370
    -2
100
AcDbBlockReference
  2
_DOTSMALL
 10
8364.703743008178
 20
8625.114889232229
 30
0.0
 41
100.0
 42
100.0
 43
100.0
 50
90.0
  0
INSERT
  5
1D1A9
330
14598
100
AcDbEntity
  8
寸法
 62
     0
 48
50.0
370
    -2
100
AcDbBlockReference
  2
_DOTSMALL
 10
8364.703743008178
 20
7255.114889232229
 30
0.0
 41
100.0
 42
100.0
 43
100.0
 50
270.0
  0
MTEXT
  5
1D1AA
330
14598
100
AcDbEntity
  8
寸法
 62
     7
 48
50.0
100
AcDbMText
 10
8264.703743008176
 20
7922.024927490852
 30
0.0
 40
120.0
 41
0.0
 71
     5
 72
     1
  1
\A1;1370
  7
STYLE1
 11
0.0000000000000001
 21
1.0
 31
0.0
 73
     1
 44
1.0
1001
ACAD
1000
MTEXTBEGIN
1070
    73
1070
     1
1070
    44
1040
1.0
1070
    74
1070
     0
1000
MTEXTEND
  0
POINT
  5
1D1AB
330
14598
100
AcDbEntity
  8
DEFPOINTS
 62
     0
 48
50.0
100
AcDbPoint
 10
7419.89657510701
 20
8625.114889232229
 30
0.0
  0
POINT
  5
1D1AC
330
14598
100
AcDbEntity
  8
DEFPOINTS
 62
     0
 48
50.0
100
AcDbPoint
 10
7419.896575106974
 20
7255.114889232229
 30
0.0
  0
POINT
  5
1D1AD
330
14598
100
AcDbEntity
  8
DEFPOINTS
 62
     0
 48
50.0
100
AcDbPoint
 10
8364.703743008178
 20
7255.114889232229
 30
0.0
  0
ENDBLK
  5
14D79
330
14598
100
AcDbEntity
  8
0
 48
50.0
100
AcDbBlockEnd
  0
BLOCK
  5
1492F
330
145A4
100
AcDbEntity
  8
0
 48
50.0
100
AcDbBlockBegin
  2
*D15
 70
     1
 10
0.0
 20
0.0
 30
0.0
  3
*D15
  1

  0
LINE
  5
1D19A
330
145A4
100
AcDbEntity
  8
寸法
 62
     0
 48
50.0
370
    -2
100
AcDbLine
 10
7439.896575106999
 20
8625.114889232229
 30
0.0
 11
8127.322920841409
 21
8625.114889232229
 31
0.0
  0
LINE
  5
1D19B
330
145A4
100
AcDbEntity
  8
寸法
 62
     0
 48
50.0
370
    -2
100
AcDbLine
 10
7439.896575106999
 20
8570.114889232232
 30
0.0
 11
8127.322920841409
 21
8570.114889232232
 31
0.0
  0
LINE
  5
1D19C
330
145A4
100
AcDbEntity
  8
寸法
 62
     0
 48
50.0
370
    -2
100
AcDbLine
 10
8067.322920841411
 20
8570.114889232232
 30
0.0
 11
8067.322920841411
 21
8470.114889232233
 31
0.0
  0
LINE
  5
1D19D
330
145A4
100
AcDbEntity
  8
寸法
 62
     0
 48
50.0
370
    -2
100
AcDbLine
 10
8067.322920841411
 20
8625.114889232229
 30
0.0
 11
8067.322920841411
 21
9042.085451980705
 31
0.0
  0
LINE
  5
1D19E
330
145A4
100
AcDbEntity
  8
寸法
 62
     0
 48
50.0
370
    -2
100
AcDbLine
 10
8067.322920841411
 20
8570.114889232232
 30
0.0
 11
8067.322920841411
 21
8625.114889232229
 31
0.0
  0
INSERT
  5
1D19F
330
145A4
100
AcDbEntity
  8
寸法
 62
     0
 48
50.0
370
    -2
100
AcDbBlockReference
  2
_DOTSMALL
 10
8067.322920841411
 20
8570.114889232232
 30
0.0
 41
100.0
 42
100.0
 43
100.0
 50
90.0
  0
INSERT
  5
1D1A0
330
145A4
100
AcDbEntity
  8
寸法
 62
     0
 48
50.0
370
    -2
100
AcDbBlockReference
  2
_DOTSMALL
 10
8067.322920841411
 20
8625.114889232229
 30
0.0
 41
100.0
 42
100.0
 43
100.0
 50
270.0
  0
MTEXT
  5
1D1A1
330
145A4
100
AcDbEntity
  8
寸法
 62
     7
 48
50.0
100
AcDbMText
 10
7967.322920841408
 20
8933.600170606469
 30
0.0
 40
120.0
 41
0.0
 71
     5
 72
     1
  1
\A1;55
  7
STYLE1
 11
0.0000000000000001
 21
1.0
 31
0.0
 73
     1
 44
1.0
1001
ACAD
1000
MTEXTBEGIN
1070
    73
1070
     1
1070
    44
1040
1.0
1070
    74
1070
     0
1000
MTEXTEND
  0
POINT
  5
1D1A2
330
145A4
100
AcDbEntity
  8
DEFPOINTS
 62
     0
 48
50.0
100
AcDbPoint
 10
7419.896575106999
 20
8625.114889232229
 30
0.0
  0
POINT
  5
1D1A3
330
145A4
100
AcDbEntity
  8
DEFPOINTS
 62
     0
 48
50.0
100
AcDbPoint
 10
7419.896575106999
 20
8570.114889232232
 30
0.0
  0
POINT
  5
1D1A4
330
145A4
100
AcDbEntity
  8
DEFPOINTS
 62
     0
 48
50.0
100
AcDbPoint
 10
8067.322920841411
 20
8570.114889232232
 30
0.0
  0
ENDBLK
  5
1493B
330
145A4
100
AcDbEntity
  8
0
 48
50.0
100
AcDbBlockEnd
  0
BLOCK
  5
14BDB
330
145B2
100
AcDbEntity
  8
0
 48
50.0
100
AcDbBlockBegin
  2
*D16
 70
     1
 10
0.0
 20
0.0
 30
0.0
  3
*D16
  1

  0
LINE
  5
1D191
330
145B2
100
AcDbEntity
  8
寸法
 62
     0
 48
50.0
370
    -2
100
AcDbLine
 10
7411.396575107
 20
8589.755905383606
 30
0.0
 11
7806.754300969024
 21
8483.820122017473
 31
0.0
  0
LINE
  5
1D192
330
145B2
100
AcDbEntity
  8
寸法
 62
     0
 48
50.0
370
    -2
100
AcDbLine
 10
7411.396575107
 20
8139.755905383609
 30
0.0
 11
7806.754300969024
 21
8033.820122017473
 31
0.0
  0
LINE
  5
1D193
330
145B2
100
AcDbEntity
  8
寸法
 62
     0
 48
50.0
370
    -2
100
AcDbLine
 10
7746.754300969023
 20
8499.897073563339
 30
0.0
 11
7746.754300969023
 21
8049.897073563341
 31
0.0
  0
INSERT
  5
1D194
330
145B2
100
AcDbEntity
  8
寸法
 62
     0
 48
50.0
370
    -2
100
AcDbBlockReference
  2
_DOTSMALL
 10
7746.754300969023
 20
8499.897073563339
 30
0.0
 41
100.0
 42
100.0
 43
100.0
 50
90.0
  0
INSERT
  5
1D195
330
145B2
100
AcDbEntity
  8
寸法
 62
     0
 48
50.0
370
    -2
100
AcDbBlockReference
  2
_DOTSMALL
 10
7746.754300969023
 20
8049.897073563341
 30
0.0
 41
100.0
 42
100.0
 43
100.0
 50
270.0
  0
MTEXT
  5
1D196
330
145B2
100
AcDbEntity
  8
寸法
 62
     7
 48
50.0
100
AcDbMText
 10
7646.754300969023
 20
8274.897073563341
 30
0.0
 40
120.0
 41
0.0
 71
     5
 72
     1
  1
\A1;450
  7
STYLE1
 11
0.0000000000000001
 21
1.0
 31
0.0
 73
     1
 44
1.0
1001
ACAD
1000
MTEXTBEGIN
1070
    73
1070
     1
1070
    44
1040
1.0
1070
    74
1070
     0
1000
MTEXTEND
  0
POINT
  5
1D197
330
145B2
100
AcDbEntity
  8
DEFPOINTS
 62
     0
 48
50.0
100
AcDbPoint
 10
7391.396575106999
 20
8595.114889232229
 30
0.0
  0
POINT
  5
1D198
330
145B2
100
AcDbEntity
  8
DEFPOINTS
 62
     0
 48
50.0
100
AcDbPoint
 10
7391.396575106999
 20
8145.11488923223
 30
0.0
  0
POINT
  5
1D199
330
145B2
100
AcDbEntity
  8
DEFPOINTS
 62
     0
 48
50.0
100
AcDbPoint
 10
7746.754300969023
 20
8049.897073563341
 30
0.0
  0
ENDBLK
  5
14BE5
330
145B2
100
AcDbEntity
  8
0
 48
50.0
100
AcDbBlockEnd
  0
BLOCK
  5
1496A
330
145BE
100
AcDbEntity
  8
0
 48
50.0
100
AcDbBlockBegin
  2
*D17
 70
     1
 10
0.0
 20
0.0
 30
0.0
  3
*D17
  1

  0
LINE
  5
1D186
330
145BE
100
AcDbEntity
  8
寸法
 62
     0
 48
50.0
370
    -2
100
AcDbLine
 10
7439.896575106974
 20
7310.114889232226
 30
0.0
 11
8127.322920841384
 21
7310.114889232226
 31
0.0
  0
LINE
  5
1D187
330
145BE
100
AcDbEntity
  8
寸法
 62
     0
 48
50.0
370
    -2
100
AcDbLine
 10
7439.896575106974
 20
7255.114889232229
 30
0.0
 11
8127.322920841384
 21
7255.114889232229
 31
0.0
  0
LINE
  5
1D188
330
145BE
100
AcDbEntity
  8
寸法
 62
     0
 48
50.0
370
    -2
100
AcDbLine
 10
8067.322920841386
 20
7310.114889232226
 30
0.0
 11
8067.322920841386
 21
7410.114889232225
 31
0.0
  0
LINE
  5
1D189
330
145BE
100
AcDbEntity
  8
寸法
 62
     0
 48
50.0
370
    -2
100
AcDbLine
 10
8067.322920841386
 20
7255.114889232229
 30
0.0
 11
8067.322920841386
 21
6768.768140953127
 31
0.0
  0
LINE
  5
1D18A
330
145BE
100
AcDbEntity
  8
寸法
 62
     0
 48
50.0
370
    -2
100
AcDbLine
 10
8067.322920841386
 20
7310.114889232226
 30
0.0
 11
8067.322920841386
 21
7255.114889232229
 31
0.0
  0
INSERT
  5
1D18B
330
145BE
100
AcDbEntity
  8
寸法
 62
     0
 48
50.0
370
    -2
100
AcDbBlockReference
  2
_DOTSMALL
 10
8067.322920841386
 20
7310.114889232226
 30
0.0
 41
100.0
 42
100.0
 43
100.0
 50
270.0
  0
INSERT
  5
1D18C
330
145BE
100
AcDbEntity
  8
寸法
 62
     0
 48
50.0
370
    -2
100
AcDbBlockReference
  2
_DOTSMALL
 10
8067.322920841386
 20
7255.114889232229
 30
0.0
 41
100.0
 42
100.0
 43
100.0
 50
90.0
  0
MTEXT
  5
1D18D
330
145BE
100
AcDbEntity
  8
寸法
 62
     7
 48
50.0
100
AcDbMText
 10
7967.322920841382
 20
6877.253422327368
 30
0.0
 40
120.0
 41
0.0
 71
     5
 72
     1
  1
\A1;55
  7
STYLE1
 11
0.0000000000000001
 21
1.0
 31
0.0
 73
     1
 44
1.0
1001
ACAD
1000
MTEXTBEGIN
1070
    73
1070
     1
1070
    44
1040
1.0
1070
    74
1070
     0
1000
MTEXTEND
  0
POINT
  5
1D18E
330
145BE
100
AcDbEntity
  8
DEFPOINTS
 62
     0
 48
50.0
100
AcDbPoint
 10
7419.896575106974
 20
7310.114889232226
 30
0.0
  0
POINT
  5
1D18F
330
145BE
100
AcDbEntity
  8
DEFPOINTS
 62
     0
 48
50.0
100
AcDbPoint
 10
7419.896575106974
 20
7255.114889232229
 30
0.0
  0
POINT
  5
1D190
330
145BE
100
AcDbEntity
  8
DEFPOINTS
 62
     0
 48
50.0
100
AcDbPoint
 10
8067.322920841386
 20
7255.114889232229
 30
0.0
  0
ENDBLK
  5
14976
330
145BE
100
AcDbEntity
  8
0
 48
50.0
100
AcDbBlockEnd
  0
BLOCK
  5
14D4C
330
145CC
100
AcDbEntity
  8
0
 48
50.0
100
AcDbBlockBegin
  2
*D18
 70
     1
 10
0.0
 20
0.0
 30
0.0
  3
*D18
  1

  0
LINE
  5
1D17D
330
145CC
100
AcDbEntity
  8
寸法
 62
     0
 48
50.0
370
    -2
100
AcDbLine
 10
7439.896575106999
 20
8570.114889232232
 30
0.0
 11
8127.322920841409
 21
8570.114889232232
 31
0.0
  0
LINE
  5
1D17E
330
145CC
100
AcDbEntity
  8
寸法
 62
     0
 48
50.0
370
    -2
100
AcDbLine
 10
7439.896575106974
 20
7310.114889232226
 30
0.0
 11
8127.322920841409
 21
7310.114889232226
 31
0.0
  0
LINE
  5
1D17F
330
145CC
100
AcDbEntity
  8
寸法
 62
     0
 48
50.0
370
    -2
100
AcDbLine
 10
8067.322920841411
 20
8570.114889232232
 30
0.0
 11
8067.322920841411
 21
7310.114889232226
 31
0.0
  0
INSERT
  5
1D180
330
145CC
100
AcDbEntity
  8
寸法
 62
     0
 48
50.0
370
    -2
100
AcDbBlockReference
  2
_DOTSMALL
 10
8067.322920841411
 20
8570.114889232232
 30
0.0
 41
100.0
 42
100.0
 43
100.0
 50
90.0
  0
INSERT
  5
1D181
330
145CC
100
AcDbEntity
  8
寸法
 62
     0
 48
50.0
370
    -2
100
AcDbBlockReference
  2
_DOTSMALL
 10
8067.322920841411
 20
7310.114889232226
 30
0.0
 41
100.0
 42
100.0
 43
100.0
 50
270.0
  0
MTEXT
  5
1D182
330
145CC
100
AcDbEntity
  8
寸法
 62
     7
 48
50.0
100
AcDbMText
 10
7967.311109817787
 20
7908.561499081232
 30
0.0
 40
120.0
 41
0.0
 71
     5
 72
     1
  1
\A1;3X420=1260
  7
STYLE1
 11
0.0000000000000001
 21
1.0
 31
0.0
 73
     1
 44
1.0
1001
ACAD
1000
MTEXTBEGIN
1070
    73
1070
     1
1070
    44
1040
1.0
1070
    74
1070
     0
1000
MTEXTEND
  0
POINT
  5
1D183
330
145CC
100
AcDbEntity
  8
DEFPOINTS
 62
     0
 48
50.0
100
AcDbPoint
 10
7419.896575106999
 20
8570.114889232232
 30
0.0
  0
POINT
  5
1D184
330
145CC
100
AcDbEntity
  8
DEFPOINTS
 62
     0
 48
50.0
100
AcDbPoint
 10
7419.896575106974
 20
7310.114889232226
 30
0.0
  0
POINT
  5
1D185
330
145CC
100
AcDbEntity
  8
DEFPOINTS
 62
     0
 48
50.0
100
AcDbPoint
 10
8067.322920841411
 20
7310.114889232226
 30
0.0
  0
ENDBLK
  5
14D56
330
145CC
100
AcDbEntity
  8
0
 48
50.0
100
AcDbBlockEnd
  0
BLOCK
  5
14954
330
145D8
100
AcDbEntity
  8
0
 48
50.0
100
AcDbBlockBegin
  2
*D19
 70
     1
 10
0.0
 20
0.0
 30
0.0
  3
*D19
  1

  0
LINE
  5
1D174
330
145D8
100
AcDbEntity
  8
寸法
 62
     0
 48
50.0
370
    -2
100
AcDbLine
 10
5629.896575106992
 20
7235.114889232065
 30
0.0
 11
5629.896575106992
 21
6430.97891987854
 31
0.0
  0
LINE
  5
1D175
330
145D8
100
AcDbEntity
  8
寸法
 62
     0
 48
50.0
370
    -2
100
AcDbLine
 10
7419.896575106974
 20
7235.114889232194
 30
0.0
 11
7419.896575106974
 21
6430.97891987854
 31
0.0
  0
LINE
  5
1D176
330
145D8
100
AcDbEntity
  8
寸法
 62
     0
 48
50.0
370
    -2
100
AcDbLine
 10
5629.896575106992
 20
6490.97891987854
 30
0.0
 11
7419.896575106974
 21
6490.97891987854
 31
0.0
  0
INSERT
  5
1D177
330
145D8
100
AcDbEntity
  8
寸法
 62
     0
 48
50.0
370
    -2
100
AcDbBlockReference
  2
_DOTSMALL
 10
5629.896575106992
 20
6490.97891987854
 30
0.0
 41
100.0
 42
100.0
 43
100.0
 50
180.0
  0
INSERT
  5
1D178
330
145D8
100
AcDbEntity
  8
寸法
 62
     0
 48
50.0
370
    -2
100
AcDbBlockReference
  2
_DOTSMALL
 10
7419.896575106974
 20
6490.97891987854
 30
0.0
 41
100.0
 42
100.0
 43
100.0
  0
MTEXT
  5
1D179
330
145D8
100
AcDbEntity
  8
寸法
 62
     7
 48
50.0
100
AcDbMText
 10
6524.896575106983
 20
6590.978919878541
 30
0.0
 40
120.0
 41
0.0
 71
     5
 72
     1
  1
\A1;1790
  7
STYLE1
 73
     1
 44
1.0
1001
ACAD
1000
MTEXTBEGIN
1070
    73
1070
     1
1070
    44
1040
1.0
1070
    74
1070
     0
1000
MTEXTEND
  0
POINT
  5
1D17A
330
145D8
100
AcDbEntity
  8
DEFPOINTS
 62
     0
 48
50.0
100
AcDbPoint
 10
5629.896575106992
 20
7255.114889232065
 30
0.0
  0
POINT
  5
1D17B
330
145D8
100
AcDbEntity
  8
DEFPOINTS
 62
     0
 48
50.0
100
AcDbPoint
 10
7419.896575106974
 20
7255.114889232195
 30
0.0
  0
POINT
  5
1D17C
330
145D8
100
AcDbEntity
  8
DEFPOINTS
 62
     0
 48
50.0
100
AcDbPoint
 10
7419.896575106974
 20
6490.97891987854
 30
0.0
  0
ENDBLK
  5
1495E
330
145D8
100
AcDbEntity
  8
0
 48
50.0
100
AcDbBlockEnd
  0
BLOCK
  5
14D90
330
145E4
100
AcDbEntity
  8
0
 48
50.0
100
AcDbBlockBegin
  2
*D20
 70
     1
 10
0.0
 20
0.0
 30
0.0
  3
*D20
  1

  0
LINE
  5
1D16B
330
145E4
100
AcDbEntity
  8
寸法
 62
     0
 48
50.0
370
    -2
100
AcDbLine
 10
6687.896575106989
 20
7235.114889232207
 30
0.0
 11
6687.896575106989
 21
6635.555483463683
 31
0.0
  0
LINE
  5
1D16C
330
145E4
100
AcDbEntity
  8
寸法
 62
     0
 48
50.0
370
    -2
100
AcDbLine
 10
5689.896575106992
 20
7235.114889232098
 30
0.0
 11
5689.896575106992
 21
6635.555483463683
 31
0.0
  0
LINE
  5
1D16D
330
145E4
100
AcDbEntity
  8
寸法
 62
     0
 48
50.0
370
    -2
100
AcDbLine
 10
6687.896575106989
 20
6695.555483463683
 30
0.0
 11
5689.896575106992
 21
6695.555483463683
 31
0.0
  0
INSERT
  5
1D16E
330
145E4
100
AcDbEntity
  8
寸法
 62
     0
 48
50.0
370
    -2
100
AcDbBlockReference
  2
_DOTSMALL
 10
6687.896575106989
 20
6695.555483463683
 30
0.0
 41
100.0
 42
100.0
 43
100.0
  0
INSERT
  5
1D16F
330
145E4
100
AcDbEntity
  8
寸法
 62
     0
 48
50.0
370
    -2
100
AcDbBlockReference
  2
_DOTSMALL
 10
5689.896575106992
 20
6695.555483463683
 30
0.0
 41
100.0
 42
100.0
 43
100.0
 50
180.0
  0
MTEXT
  5
1D170
330
145E4
100
AcDbEntity
  8
寸法
 62
     7
 48
50.0
100
AcDbMText
 10
6188.896575106991
 20
6895.555483463683
 30
0.0
 40
120.0
 41
0.0
 71
     5
 72
     1
  1
\A1;有効開口部間口\P998
  7
STYLE1
 73
     1
 44
1.0
1001
ACAD
1000
MTEXTBEGIN
1070
    73
1070
     1
1070
    44
1040
1.0
1070
    74
1070
     0
1000
MTEXTEND
  0
POINT
  5
1D171
330
145E4
100
AcDbEntity
  8
DEFPOINTS
 62
     0
 48
50.0
100
AcDbPoint
 10
6687.896575106989
 20
7255.114889232207
 30
0.0
  0
POINT
  5
1D172
330
145E4
100
AcDbEntity
  8
DEFPOINTS
 62
     0
 48
50.0
100
AcDbPoint
 10
5689.896575106992
 20
7255.114889232098
 30
0.0
  0
POINT
  5
1D173
330
145E4
100
AcDbEntity
  8
DEFPOINTS
 62
     0
 48
50.0
100
AcDbPoint
 10
5689.896575106992
 20
6695.555483463683
 30
0.0
  0
ENDBLK
  5
14D9A
330
145E4
100
AcDbEntity
  8
0
 48
50.0
100
AcDbBlockEnd
  0
BLOCK
  5
14D57
330
145FC
100
AcDbEntity
  8
0
 48
50.0
100
AcDbBlockBegin
  2
*D21
 70
     1
 10
0.0
 20
0.0
 30
0.0
  3
*D21
  1

  0
LINE
  5
1D162
330
145FC
100
AcDbEntity
  8
寸法
 62
     0
 48
50.0
370
    -2
100
AcDbLine
 10
6533.037591258376
 20
8125.114889232238
 30
0.0
 11
6463.626127267151
 21
7866.067778989253
 31
0.0
  0
LINE
  5
1D163
330
145FC
100
AcDbEntity
  8
寸法
 62
     0
 48
50.0
370
    -2
100
AcDbLine
 10
7386.037591258387
 20
8125.114889232234
 30
0.0
 11
7316.626127267165
 21
7866.067778989253
 31
0.0
  0
LINE
  5
1D164
330
145FC
100
AcDbEntity
  8
寸法
 62
     0
 48
50.0
370
    -2
100
AcDbLine
 10
6479.703078813018
 20
7926.067778989253
 30
0.0
 11
7332.703078813032
 21
7926.067778989253
 31
0.0
  0
INSERT
  5
1D165
330
145FC
100
AcDbEntity
  8
寸法
 62
     0
 48
50.0
370
    -2
100
AcDbBlockReference
  2
_DOTSMALL
 10
6479.703078813018
 20
7926.067778989253
 30
0.0
 41
100.0
 42
100.0
 43
100.0
 50
180.0
  0
INSERT
  5
1D166
330
145FC
100
AcDbEntity
  8
寸法
 62
     0
 48
50.0
370
    -2
100
AcDbBlockReference
  2
_DOTSMALL
 10
7332.703078813032
 20
7926.067778989253
 30
0.0
 41
100.0
 42
100.0
 43
100.0
  0
MTEXT
  5
1D167
330
145FC
100
AcDbEntity
  8
寸法
 62
     7
 48
50.0
100
AcDbMText
 10
6917.743637225267
 20
8026.067778989252
 30
0.0
 40
120.0
 41
0.0
 71
     5
 72
     1
  1
\A1;853
  7
STYLE1
 73
     1
 44
1.0
1001
ACAD
1000
MTEXTBEGIN
1070
    73
1070
     1
1070
    44
1040
1.0
1070
    74
1070
     0
1000
MTEXTEND
  0
POINT
  5
1D168
330
145FC
100
AcDbEntity
  8
DEFPOINTS
 62
     0
 48
50.0
100
AcDbPoint
 10
6538.396575106998
 20
8145.114889232237
 30
0.0
  0
POINT
  5
1D169
330
145FC
100
AcDbEntity
  8
DEFPOINTS
 62
     0
 48
50.0
100
AcDbPoint
 10
7391.396575107011
 20
8145.114889232232
 30
0.0
  0
POINT
  5
1D16A
330
145FC
100
AcDbEntity
  8
DEFPOINTS
 62
     0
 48
50.0
100
AcDbPoint
 10
7332.703078813032
 20
7926.067778989253
 30
0.0
  0
ENDBLK
  5
14D61
330
145FC
100
AcDbEntity
  8
0
 48
50.0
100
AcDbBlockEnd
  0
BLOCK
  5
148D5
330
14608
100
AcDbEntity
  8
0
 48
50.0
100
AcDbBlockBegin
  2
*D22
 70
     1
 10
0.0
 20
0.0
 30
0.0
  3
*D22
  1

  0
LINE
  5
1D157
330
14608
100
AcDbEntity
  8
寸法
 62
     0
 48
50.0
370
    -2
100
AcDbLine
 10
7364.896575107
 20
8645.11488923223
 30
0.0
 11
7364.896575107
 21
8900.923108857211
 31
0.0
  0
LINE
  5
1D158
330
14608
100
AcDbEntity
  8
寸法
 62
     0
 48
50.0
370
    -2
100
AcDbLine
 10
7419.896575106999
 20
8645.11488923223
 30
0.0
 11
7419.896575106999
 21
8900.923108857211
 31
0.0
  0
LINE
  5
1D159
330
14608
100
AcDbEntity
  8
寸法
 62
     0
 48
50.0
370
    -2
100
AcDbLine
 10
7364.896575107
 20
8840.923108857213
 30
0.0
 11
7264.896575106999
 21
8840.923108857213
 31
0.0
  0
LINE
  5
1D15A
330
14608
100
AcDbEntity
  8
寸法
 62
     0
 48
50.0
370
    -2
100
AcDbLine
 10
7419.896575106999
 20
8840.923108857213
 30
0.0
 11
7836.867137855477
 21
8840.923108857213
 31
0.0
  0
LINE
  5
1D15B
330
14608
100
AcDbEntity
  8
寸法
 62
     0
 48
50.0
370
    -2
100
AcDbLine
 10
7364.896575107
 20
8840.923108857213
 30
0.0
 11
7419.896575106999
 21
8840.923108857213
 31
0.0
  0
INSERT
  5
1D15C
330
14608
100
AcDbEntity
  8
寸法
 62
     0
 48
50.0
370
    -2
100
AcDbBlockReference
  2
_DOTSMALL
 10
7364.896575107
 20
8840.923108857213
 30
0.0
 41
100.0
 42
100.0
 43
100.0
  0
INSERT
  5
1D15D
330
14608
100
AcDbEntity
  8
寸法
 62
     0
 48
50.0
370
    -2
100
AcDbBlockReference
  2
_DOTSMALL
 10
7419.896575106999
 20
8840.923108857213
 30
0.0
 41
100.0
 42
100.0
 43
100.0
 50
180.0
  0
MTEXT
  5
1D15E
330
14608
100
AcDbEntity
  8
寸法
 62
     7
 48
50.0
100
AcDbMText
 10
7728.381856481238
 20
8940.923108857212
 30
0.0
 40
120.0
 41
0.0
 71
     5
 72
     1
  1
\A1;55
  7
STYLE1
 73
     1
 44
1.0
1001
ACAD
1000
MTEXTBEGIN
1070
    73
1070
     1
1070
    44
1040
1.0
1070
    74
1070
     0
1000
MTEXTEND
  0
POINT
  5
1D15F
330
14608
100
AcDbEntity
  8
DEFPOINTS
 62
     0
 48
50.0
100
AcDbPoint
 10
7364.896575107
 20
8625.114889232229
 30
0.0
  0
POINT
  5
1D160
330
14608
100
AcDbEntity
  8
DEFPOINTS
 62
     0
 48
50.0
100
AcDbPoint
 10
7419.896575106999
 20
8625.114889232229
 30
0.0
  0
POINT
  5
1D161
330
14608
100
AcDbEntity
  8
DEFPOINTS
 62
     0
 48
50.0
100
AcDbPoint
 10
7419.896575106999
 20
8840.923108857213
 30
0.0
  0
ENDBLK
  5
148E1
330
14608
100
AcDbEntity
  8
0
 48
50.0
100
AcDbBlockEnd
  0
BLOCK
  5
14B64
330
14616
100
AcDbEntity
  8
0
 48
50.0
100
AcDbBlockBegin
  2
*D23
 70
     1
 10
0.0
 20
0.0
 30
0.0
  3
*D23
  1

  0
LINE
  5
1D14E
330
14616
100
AcDbEntity
  8
寸法
 62
     0
 48
50.0
370
    -2
100
AcDbLine
 10
5684.896575106998
 20
8645.114889232134
 30
0.0
 11
5684.896575106998
 21
8900.923108857233
 31
0.0
  0
LINE
  5
1D14F
330
14616
100
AcDbEntity
  8
寸法
 62
     0
 48
50.0
370
    -2
100
AcDbLine
 10
7364.896575107
 20
8645.11488923223
 30
0.0
 11
7364.896575107
 21
8900.923108857233
 31
0.0
  0
LINE
  5
1D150
330
14616
100
AcDbEntity
  8
寸法
 62
     0
 48
50.0
370
    -2
100
AcDbLine
 10
5684.896575106998
 20
8840.923108857232
 30
0.0
 11
7364.896575107
 21
8840.923108857232
 31
0.0
  0
INSERT
  5
1D151
330
14616
100
AcDbEntity
  8
寸法
 62
     0
 48
50.0
370
    -2
100
AcDbBlockReference
  2
_DOTSMALL
 10
5684.896575106998
 20
8840.923108857232
 30
0.0
 41
100.0
 42
100.0
 43
100.0
 50
180.0
  0
INSERT
  5
1D152
330
14616
100
AcDbEntity
  8
寸法
 62
     0
 48
50.0
370
    -2
100
AcDbBlockReference
  2
_DOTSMALL
 10
7364.896575107
 20
8840.923108857232
 30
0.0
 41
100.0
 42
100.0
 43
100.0
  0
MTEXT
  5
1D153
330
14616
100
AcDbEntity
  8
寸法
 62
     7
 48
50.0
100
AcDbMText
 10
6524.896575106997
 20
8940.934919880854
 30
0.0
 40
120.0
 41
0.0
 71
     5
 72
     1
  1
\A1;4X420=1680
  7
STYLE1
 73
     1
 44
1.0
1001
ACAD
1000
MTEXTBEGIN
1070
    73
1070
     1
1070
    44
1040
1.0
1070
    74
1070
     0
1000
MTEXTEND
  0
POINT
  5
1D154
330
14616
100
AcDbEntity
  8
DEFPOINTS
 62
     0
 48
50.0
100
AcDbPoint
 10
5684.896575106998
 20
8625.114889232134
 30
0.0
  0
POINT
  5
1D155
330
14616
100
AcDbEntity
  8
DEFPOINTS
 62
     0
 48
50.0
100
AcDbPoint
 10
7364.896575107
 20
8625.114889232229
 30
0.0
  0
POINT
  5
1D156
330
14616
100
AcDbEntity
  8
DEFPOINTS
 62
     0
 48
50.0
100
AcDbPoint
 10
7364.896575107
 20
8840.923108857232
 30
0.0
  0
ENDBLK
  5
14B6E
330
14616
100
AcDbEntity
  8
0
 48
50.0
100
AcDbBlockEnd
  0
BLOCK
  5
14A72
330
146DC
100
AcDbEntity
  8
0
 48
50.0
100
AcDbBlockBegin
  2
*D24
 70
     1
 10
0.0
 20
0.0
 30
0.0
  3
*D24
  1

  0
LINE
  5
1C3F3
330
146DC
100
AcDbEntity
  8
寸法
 62
     0
 48
50.0
370
    -2
100
AcDbLine
 10
7419.896575106993
 20
5195.000000000005
 30
0.0
 11
7419.896575106993
 21
5439.620259427273
 31
0.0
  0
LINE
  5
1C3F4
330
146DC
100
AcDbEntity
  8
寸法
 62
     0
 48
50.0
370
    -2
100
AcDbLine
 10
5629.896575106992
 20
5195.000000000007
 30
0.0
 11
5629.896575106992
 21
5439.620259427273
 31
0.0
  0
LINE
  5
1C3F5
330
146DC
100
AcDbEntity
  8
寸法
 62
     0
 48
50.0
370
    -2
100
AcDbLine
 10
7419.896575106993
 20
5379.620259427273
 30
0.0
 11
5629.896575106992
 21
5379.620259427273
 31
0.0
  0
INSERT
  5
1C3F6
330
146DC
100
AcDbEntity
  8
寸法
 62
     0
 48
50.0
370
    -2
100
AcDbBlockReference
  2
_DOTSMALL
 10
7419.896575106993
 20
5379.620259427273
 30
0.0
 41
100.0
 42
100.0
 43
100.0
  0
INSERT
  5
1C3F7
330
146DC
100
AcDbEntity
  8
寸法
 62
     0
 48
50.0
370
    -2
100
AcDbBlockReference
  2
_DOTSMALL
 10
5629.896575106992
 20
5379.620259427273
 30
0.0
 41
100.0
 42
100.0
 43
100.0
 50
180.0
  0
MTEXT
  5
1C3F8
330
146DC
100
AcDbEntity
  8
寸法
 62
     7
 48
50.0
100
AcDbMText
 10
6499.077414038605
 20
5479.620259427273
 30
0.0
 40
120.0
 41
0.0
 71
     5
 72
     1
  1
\A1;柱外寸法1790
  7
STYLE1
 73
     1
 44
1.0
1001
ACAD
1000
MTEXTBEGIN
1070
    73
1070
     1
1070
    44
1040
1.0
1070
    74
1070
     0
1000
MTEXTEND
  0
POINT
  5
1C3F9
330
146DC
100
AcDbEntity
  8
DEFPOINTS
 62
     0
 48
50.0
100
AcDbPoint
 10
7419.896575106993
 20
5175.000000000006
 30
0.0
  0
POINT
  5
1C3FA
330
146DC
100
AcDbEntity
  8
DEFPOINTS
 62
     0
 48
50.0
100
AcDbPoint
 10
5629.896575106992
 20
5175.000000000006
 30
0.0
  0
POINT
  5
1C3FB
330
146DC
100
AcDbEntity
  8
DEFPOINTS
 62
     0
 48
50.0
100
AcDbPoint
 10
5629.896575106992
 20
5379.620259427273
 30
0.0
  0
ENDBLK
  5
14A7C
330
146DC
100
AcDbEntity
  8
0
 48
50.0
100
AcDbBlockEnd
  0
BLOCK
  5
14D64
330
14D63
100
AcDbEntity
  8
0
 48
50.0
100
AcDbBlockBegin
  2
*D25
 70
     1
 10
0.0
 20
0.0
 30
0.0
  3
*D25
  1

  0
LINE
  5
1D145
330
14D63
100
AcDbEntity
  8
寸法
 62
     0
 48
50.0
370
    -2
100
AcDbLine
 10
5653.037591258378
 20
8125.114889232133
 30
0.0
 11
5583.626127267153
 21
7866.067778989147
 31
0.0
  0
LINE
  5
1D146
330
14D63
100
AcDbEntity
  8
寸法
 62
     0
 48
50.0
370
    -2
100
AcDbLine
 10
6506.037591258389
 20
8125.114889232127
 30
0.0
 11
6436.626127267166
 21
7866.067778989147
 31
0.0
  0
LINE
  5
1D147
330
14D63
100
AcDbEntity
  8
寸法
 62
     0
 48
50.0
370
    -2
100
AcDbLine
 10
5599.70307881302
 20
7926.067778989147
 30
0.0
 11
6452.703078813034
 21
7926.067778989147
 31
0.0
  0
INSERT
  5
1D148
330
14D63
100
AcDbEntity
  8
寸法
 62
     0
 48
50.0
370
    -2
100
AcDbBlockReference
  2
_DOTSMALL
 10
5599.70307881302
 20
7926.067778989147
 30
0.0
 41
100.0
 42
100.0
 43
100.0
 50
180.0
  0
INSERT
  5
1D149
330
14D63
100
AcDbEntity
  8
寸法
 62
     0
 48
50.0
370
    -2
100
AcDbBlockReference
  2
_DOTSMALL
 10
6452.703078813034
 20
7926.067778989147
 30
0.0
 41
100.0
 42
100.0
 43
100.0
  0
MTEXT
  5
1D14A
330
14D63
100
AcDbEntity
  8
寸法
 62
     7
 48
50.0
100
AcDbMText
 10
6037.743637225268
 20
8026.067778989148
 30
0.0
 40
120.0
 41
0.0
 71
     5
 72
     1
  1
\A1;853
  7
STYLE1
 73
     1
 44
1.0
1001
ACAD
1000
MTEXTBEGIN
1070
    73
1070
     1
1070
    44
1040
1.0
1070
    74
1070
     0
1000
MTEXTEND
  0
POINT
  5
1D14B
330
14D63
100
AcDbEntity
  8
DEFPOINTS
 62
     0
 48
50.0
100
AcDbPoint
 10
5658.396575107
 20
8145.114889232132
 30
0.0
  0
POINT
  5
1D14C
330
14D63
100
AcDbEntity
  8
DEFPOINTS
 62
     0
 48
50.0
100
AcDbPoint
 10
6511.396575107013
 20
8145.114889232127
 30
0.0
  0
POINT
  5
1D14D
330
14D63
100
AcDbEntity
  8
DEFPOINTS
 62
     0
 48
50.0
100
AcDbPoint
 10
6452.703078813034
 20
7926.067778989147
 30
0.0
  0
ENDBLK
  5
14D6E
330
14D63
100
AcDbEntity
  8
0
 48
50.0
100
AcDbBlockEnd
  0
BLOCK
  5
19885
330
19879
100
AcDbEntity
  8
0
 48
50.0
100
AcDbBlockBegin
  2
*D26
 70
     1
 10
0.0
 20
0.0
 30
0.0
  3
*D26
  1

  0
LINE
  5
1D049
330
19879
100
AcDbEntity
  8
寸法
 62
     0
 48
50.0
370
    -2
100
AcDbLine
 10
10725.69395691447
 20
5141.810679611654
 30
0.0
 11
10725.69395691447
 21
5633.657453579304
 31
0.0
  0
LINE
  5
1D04A
330
19879
100
AcDbEntity
  8
寸法
 62
     0
 48
50.0
370
    -2
100
AcDbLine
 10
10805.69395691447
 20
5140.000000000001
 30
0.0
 11
10805.69395691447
 21
5633.657453579304
 31
0.0
  0
LINE
  5
1D04B
330
19879
100
AcDbEntity
  8
寸法
 62
     0
 48
50.0
370
    -2
100
AcDbLine
 10
10725.69395691447
 20
5573.657453579304
 30
0.0
 11
10805.69395691447
 21
5573.657453579304
 31
0.0
  0
LINE
  5
1D04C
330
19879
100
AcDbEntity
  8
寸法
 62
     0
 48
50.0
370
    -2
100
AcDbLine
 10
10805.69395691447
 20
5573.657453579304
 30
0.0
 11
11117.78844510345
 21
5573.657453579304
 31
0.0
  0
INSERT
  5
1D04D
330
19879
100
AcDbEntity
  8
寸法
 62
     0
 48
50.0
370
    -2
100
AcDbBlockReference
  2
_DOTSMALL
 10
10725.69395691447
 20
5573.657453579304
 30
0.0
 41
100.0
 42
100.0
 43
100.0
 50
180.0
  0
INSERT
  5
1D04E
330
19879
100
AcDbEntity
  8
寸法
 62
     0
 48
50.0
370
    -2
100
AcDbBlockReference
  2
_DOTSMALL
 10
10805.69395691447
 20
5573.657453579304
 30
0.0
 41
100.0
 42
100.0
 43
100.0
  0
MTEXT
  5
1D04F
330
19879
100
AcDbEntity
  8
寸法
 62
     7
 48
50.0
100
AcDbMText
 10
11011.74120100896
 20
5673.657453579305
 30
0.0
 40
120.0
 41
0.0
 71
     5
 72
     1
  1
\A1;80
  7
STYLE1
 73
     1
 44
1.0
1001
ACAD
1000
MTEXTBEGIN
1070
    73
1070
     1
1070
    44
1040
1.0
1070
    74
1070
     0
1000
MTEXTEND
  0
POINT
  5
1D050
330
19879
100
AcDbEntity
  8
DEFPOINTS
 62
     0
 48
50.0
100
AcDbPoint
 10
10725.69395691447
 20
5121.810679611654
 30
0.0
  0
POINT
  5
1D051
330
19879
100
AcDbEntity
  8
DEFPOINTS
 62
     0
 48
50.0
100
AcDbPoint
 10
10805.69395691447
 20
5120.0
 30
0.0
  0
POINT
  5
1D052
330
19879
100
AcDbEntity
  8
DEFPOINTS
 62
     0
 48
50.0
100
AcDbPoint
 10
10805.69395691447
 20
5573.657453579304
 30
0.0
  0
ENDBLK
  5
19886
330
19879
100
AcDbEntity
  8
0
 48
50.0
100
AcDbBlockEnd
  0
BLOCK
  5
19A52
330
19A47
100
AcDbEntity
  8
0
 48
50.0
100
AcDbBlockBegin
  2
*D27
 70
     1
 10
0.0
 20
0.0
 30
0.0
  3
*D27
  1

  0
LINE
  5
1C3D6
330
19A47
100
AcDbEntity
  8
寸法
 62
     0
 48
50.0
370
    -2
100
AcDbLine
 10
9291.050761601976
 20
5033.535611473499
 30
0.0
 11
8638.150591307564
 21
5058.186642714234
 31
0.0
  0
LINE
  5
1C3D7
330
19A47
100
AcDbEntity
  8
寸法
 62
     0
 48
50.0
370
    -2
100
AcDbLine
 10
9296.370595753931
 20
5174.435218870382
 30
0.0
 11
8643.470425459517
 21
5199.086250111117
 31
0.0
  0
LINE
  5
1C3D8
330
19A47
100
AcDbEntity
  8
寸法
 62
     0
 48
50.0
370
    -2
100
AcDbLine
 10
8698.107871050918
 20
5055.922883500637
 30
0.0
 11
8703.427705202869
 21
5196.82249089752
 31
0.0
  0
LINE
  5
1C3D9
330
19A47
100
AcDbEntity
  8
寸法
 62
     0
 48
50.0
370
    -2
100
AcDbLine
 10
8703.427705202869
 20
5196.82249089752
 30
0.0
 11
8717.010260484453
 21
5556.566169357646
 31
0.0
  0
INSERT
  5
1C3DA
330
19A47
100
AcDbEntity
  8
寸法
 62
     0
 48
50.0
370
    -2
100
AcDbBlockReference
  2
_DOTSMALL
 10
8698.107871050918
 20
5055.922883500637
 30
0.0
 41
100.0
 42
100.0
 43
100.0
 50
267.8377559870924
  0
INSERT
  5
1C3DB
330
19A47
100
AcDbEntity
  8
寸法
 62
     0
 48
50.0
370
    -2
100
AcDbBlockReference
  2
_DOTSMALL
 10
8703.427705202869
 20
5196.82249089752
 30
0.0
 41
100.0
 42
100.0
 43
100.0
 50
87.83775598709235
  0
MTEXT
  5
1C3DC
330
19A47
100
AcDbEntity
  8
寸法
 62
     7
 48
50.0
100
AcDbMText
 10
8612.176649282734
 20
5430.431661936374
 30
0.0
 40
120.0
 41
0.0
 71
     5
 72
     1
  1
\A1;141
  7
STYLE1
 11
0.0377293202266152
 21
0.9992879957225731
 31
0.0
 73
     1
 44
1.0
1001
ACAD
1000
MTEXTBEGIN
1070
    73
1070
     1
1070
    44
1040
1.0
1070
    74
1070
     0
1000
MTEXTEND
  0
POINT
  5
1C3DD
330
19A47
100
AcDbEntity
  8
DEFPOINTS
 62
     0
 48
50.0
100
AcDbPoint
 10
9311.036521516426
 20
5032.781025068967
 30
0.0
  0
POINT
  5
1C3DE
330
19A47
100
AcDbEntity
  8
DEFPOINTS
 62
     0
 48
50.0
100
AcDbPoint
 10
9316.35635566838
 20
5173.680632465849
 30
0.0
  0
POINT
  5
1C3DF
330
19A47
100
AcDbEntity
  8
DEFPOINTS
 62
     0
 48
50.0
100
AcDbPoint
 10
8703.427705202869
 20
5196.82249089752
 30
0.0
  0
ENDBLK
  5
19A53
330
19A47
100
AcDbEntity
  8
0
 48
50.0
100
AcDbBlockEnd
  0
BLOCK
  5
1D9AB
330
1D9A1
100
AcDbEntity
  8
0
 48
50.0
100
AcDbBlockBegin
  2
*D28
 70
     1
 10
0.0
 20
0.0
 30
0.0
  3
*D28
  1

  0
LINE
  5
1D9AD
330
1D9A1
100
AcDbEntity
  8
寸法
 62
     0
 48
50.0
370
    -2
100
AcDbLine
 10
7519.89657510699
 20
2779.999999999998
 30
0.0
 11
7519.89657510699
 21
2453.952670699622
 31
0.0
  0
LINE
  5
1D9AE
330
1D9A1
100
AcDbEntity
  8
寸法
 62
     0
 48
50.0
370
    -2
100
AcDbLine
 10
7319.896575106993
 20
2779.999999999999
 30
0.0
 11
7319.896575106993
 21
2453.952670699622
 31
0.0
  0
LINE
  5
1D9AF
330
1D9A1
100
AcDbEntity
  8
寸法
 62
     0
 48
50.0
370
    -2
100
AcDbLine
 10
7519.89657510699
 20
2513.952670699622
 30
0.0
 11
7319.896575106993
 21
2513.952670699622
 31
0.0
  0
INSERT
  5
1D9B0
330
1D9A1
100
AcDbEntity
  8
寸法
 62
     0
 48
50.0
370
    -2
100
AcDbBlockReference
  2
_DOTSMALL
 10
7519.89657510699
 20
2513.952670699622
 30
0.0
 41
100.0
 42
100.0
 43
100.0
  0
INSERT
  5
1D9B1
330
1D9A1
100
AcDbEntity
  8
寸法
 62
     0
 48
50.0
370
    -2
100
AcDbBlockReference
  2
_DOTSMALL
 10
7319.896575106993
 20
2513.952670699622
 30
0.0
 41
100.0
 42
100.0
 43
100.0
 50
180.0
  0
MTEXT
  5
1D9B2
330
1D9A1
100
AcDbEntity
  8
寸法
 62
     7
 48
50.0
100
AcDbMText
 10
7419.896575106992
 20
2613.964481723245
 30
0.0
 40
120.0
 41
0.0
 71
     5
 72
     1
  1
\A1;200
  7
STYLE1
 73
     1
 44
1.0
1001
ACAD
1000
MTEXTBEGIN
1070
    73
1070
     1
1070
    44
1040
1.0
1070
    74
1070
     0
1000
MTEXTEND
  0
POINT
  5
1D9B3
330
1D9A1
100
AcDbEntity
  8
DEFPOINTS
 62
     0
 48
50.0
100
AcDbPoint
 10
7519.89657510699
 20
2799.999999999998
 30
0.0
  0
POINT
  5
1D9B4
330
1D9A1
100
AcDbEntity
  8
DEFPOINTS
 62
     0
 48
50.0
100
AcDbPoint
 10
7319.896575106993
 20
2799.999999999999
 30
0.0
  0
POINT
  5
1D9B5
330
1D9A1
100
AcDbEntity
  8
DEFPOINTS
 62
     0
 48
50.0
100
AcDbPoint
 10
7319.896575106993
 20
2513.952670699622
 30
0.0
  0
ENDBLK
  5
1D9AC
330
1D9A1
100
AcDbEntity
  8
0
 48
50.0
100
AcDbBlockEnd
  0
BLOCK
  5
1D9C5
330
1D9BB
100
AcDbEntity
  8
0
 48
50.0
100
AcDbBlockBegin
  2
*D29
 70
     1
 10
0.0
 20
0.0
 30
0.0
  3
*D29
  1

  0
LINE
  5
1D9D3
330
1D9BB
100
AcDbEntity
  8
寸法
 62
     0
 48
50.0
370
    -2
100
AcDbLine
 10
9483.193956914474
 20
2779.999999999998
 30
0.0
 11
9483.193956914474
 21
2453.952670699622
 31
0.0
  0
LINE
  5
1D9D4
330
1D9BB
100
AcDbEntity
  8
寸法
 62
     0
 48
50.0
370
    -2
100
AcDbLine
 10
9283.193956914479
 20
2779.999999999999
 30
0.0
 11
9283.193956914479
 21
2453.952670699622
 31
0.0
  0
LINE
  5
1D9D5
330
1D9BB
100
AcDbEntity
  8
寸法
 62
     0
 48
50.0
370
    -2
100
AcDbLine
 10
9483.193956914474
 20
2513.952670699622
 30
0.0
 11
9283.193956914479
 21
2513.952670699622
 31
0.0
  0
INSERT
  5
1D9D6
330
1D9BB
100
AcDbEntity
  8
寸法
 62
     0
 48
50.0
370
    -2
100
AcDbBlockReference
  2
_DOTSMALL
 10
9483.193956914474
 20
2513.952670699622
 30
0.0
 41
100.0
 42
100.0
 43
100.0
  0
INSERT
  5
1D9D7
330
1D9BB
100
AcDbEntity
  8
寸法
 62
     0
 48
50.0
370
    -2
100
AcDbBlockReference
  2
_DOTSMALL
 10
9283.193956914479
 20
2513.952670699622
 30
0.0
 41
100.0
 42
100.0
 43
100.0
 50
180.0
  0
MTEXT
  5
1D9D8
330
1D9BB
100
AcDbEntity
  8
寸法
 62
     7
 48
50.0
100
AcDbMText
 10
9383.193956914476
 20
2613.964481723244
 30
0.0
 40
120.0
 41
0.0
 71
     5
 72
     1
  1
\A1;200
  7
STYLE1
 73
     1
 44
1.0
1001
ACAD
1000
MTEXTBEGIN
1070
    73
1070
     1
1070
    44
1040
1.0
1070
    74
1070
     0
1000
MTEXTEND
  0
POINT
  5
1D9D9
330
1D9BB
100
AcDbEntity
  8
DEFPOINTS
 62
     0
 48
50.0
100
AcDbPoint
 10
9483.193956914474
 20
2799.999999999998
 30
0.0
  0
POINT
  5
1D9DA
330
1D9BB
100
AcDbEntity
  8
DEFPOINTS
 62
     0
 48
50.0
100
AcDbPoint
 10
9283.193956914479
 20
2799.999999999999
 30
0.0
  0
POINT
  5
1D9DB
330
1D9BB
100
AcDbEntity
  8
DEFPOINTS
 62
     0
 48
50.0
100
AcDbPoint
 10
9283.193956914479
 20
2513.952670699622
 30
0.0
  0
ENDBLK
  5
1D9C6
330
1D9BB
100
AcDbEntity
  8
0
 48
50.0
100
AcDbBlockEnd
  0
BLOCK
  5
1D9D1
330
1D9C7
100
AcDbEntity
  8
0
 48
50.0
100
AcDbBlockBegin
  2
*D30
 70
     1
 10
0.0
 20
0.0
 30
0.0
  3
*D30
  1

  0
LINE
  5
1D9DC
330
1D9C7
100
AcDbEntity
  8
寸法
 62
     0
 48
50.0
370
    -2
100
AcDbLine
 10
9263.193956914477
 20
2799.999999999999
 30
0.0
 11
9073.69395366784
 21
2799.999999999999
 31
0.0
  0
LINE
  5
1D9DD
330
1D9C7
100
AcDbEntity
  8
寸法
 62
     0
 48
50.0
370
    -2
100
AcDbLine
 10
9238.193956914477
 20
3000.0
 30
0.0
 11
9073.69395366784
 21
3000.0
 31
0.0
  0
LINE
  5
1D9DE
330
1D9C7
100
AcDbEntity
  8
寸法
 62
     0
 48
50.0
370
    -2
100
AcDbLine
 10
9133.69395366784
 20
2799.999999999999
 30
0.0
 11
9133.69395366784
 21
3000.0
 31
0.0
  0
INSERT
  5
1D9DF
330
1D9C7
100
AcDbEntity
  8
寸法
 62
     0
 48
50.0
370
    -2
100
AcDbBlockReference
  2
_DOTSMALL
 10
9133.69395366784
 20
2799.999999999999
 30
0.0
 41
100.0
 42
100.0
 43
100.0
 50
270.0
  0
INSERT
  5
1D9E0
330
1D9C7
100
AcDbEntity
  8
寸法
 62
     0
 48
50.0
370
    -2
100
AcDbBlockReference
  2
_DOTSMALL
 10
9133.69395366784
 20
3000.0
 30
0.0
 41
100.0
 42
100.0
 43
100.0
 50
90.0
  0
MTEXT
  5
1D9E1
330
1D9C7
100
AcDbEntity
  8
寸法
 62
     7
 48
50.0
100
AcDbMText
 10
9033.682142644218
 20
2900.000000000001
 30
0.0
 40
120.0
 41
0.0
 71
     5
 72
     1
  1
\A1;200
  7
STYLE1
 11
0.0000000000000001
 21
1.0
 31
0.0
 73
     1
 44
1.0
1001
ACAD
1000
MTEXTBEGIN
1070
    73
1070
     1
1070
    44
1040
1.0
1070
    74
1070
     0
1000
MTEXTEND
  0
POINT
  5
1D9E2
330
1D9C7
100
AcDbEntity
  8
DEFPOINTS
 62
     0
 48
50.0
100
AcDbPoint
 10
9283.193956914479
 20
2799.999999999999
 30
0.0
  0
POINT
  5
1D9E3
330
1D9C7
100
AcDbEntity
  8
DEFPOINTS
 62
     0
 48
50.0
100
AcDbPoint
 10
9258.193956914476
 20
3000.0
 30
0.0
  0
POINT
  5
1D9E4
330
1D9C7
100
AcDbEntity
  8
DEFPOINTS
 62
     0
 48
50.0
100
AcDbPoint
 10
9133.69395366784
 20
3000.0
 30
0.0
  0
ENDBLK
  5
1D9D2
330
1D9C7
100
AcDbEntity
  8
0
 48
50.0
100
AcDbBlockEnd
  0
ENDSEC
  0
SECTION
  2
ENTITIES
  0
LINE
  5
10B57
330
747D
100
AcDbEntity
  8
補助
  6
PHANTOM
 62
   230
 48
50.0
100
AcDbLine
 10
139.9999999999995
 20
11409.6
 30
0.0
 11
16307.2
 21
11409.6
 31
0.0
  0
LINE
  5
10B59
330
747D
100
AcDbEntity
  8
仕様書枠
  6
Continuous
 48
50.0
100
AcDbLine
 10
13107.2
 20
1200.0
 30
0.0
 11
13107.2
 21
-0.0000000000000729
 31
0.0
  0
LINE
  5
10B5C
330
747D
100
AcDbEntity
  8
仕様書枠
 48
50.0
100
AcDbLine
 10
16307.2
 20
1200.0
 30
0.0
 11
16307.2
 21
-0.0000000000000909
 31
0.0
  0
LINE
  5
10B5D
330
747D
100
AcDbEntity
  8
仕様書枠
 48
50.0
100
AcDbLine
 10
140.0
 20
0.0
 30
0.0
 11
16307.2
 21
-0.0000000000000909
 31
0.0
  0
LINE
  5
10B5E
330
747D
100
AcDbEntity
  8
補助
  6
PHANTOM
 62
   230
 48
50.0
100
AcDbLine
 10
16307.2
 20
11409.6
 30
0.0
 11
16307.2
 21
1200.0
 31
0.0
  0
LINE
  5
10B6C
330
747D
100
AcDbEntity
  8
仕様書枠
 48
50.0
100
AcDbLine
 10
13107.2
 20
1200.0
 30
0.0
 11
16307.2
 21
1200.0
 31
0.0
  0
LINE
  5
10B6D
330
747D
100
AcDbEntity
  8
補助
  6
PHANTOM
 62
   230
 48
50.0
100
AcDbLine
 10
13107.2
 20
11409.6
 30
0.0
 11
13107.2
 21
4800.0
 31
0.0
  0
LINE
  5
10B6F
330
747D
100
AcDbEntity
  8
補助
  6
PHANTOM
 62
   230
 48
50.0
100
AcDbLine
 10
13107.2
 20
4800.0
 30
0.0
 11
16307.2
 21
4800.0
 31
0.0
  0
LINE
  5
10B72
330
747D
100
AcDbEntity
  8
文字
 62
     7
 48
50.0
100
AcDbLine
 10
13187.2
 20
400.0
 30
0.0
 11
16227.2
 21
400.0
 31
0.0
  0
TEXT
  5
10B73
330
747D
100
AcDbEntity
  8
文字
 62
     7
 48
50.0
100
AcDbText
 10
13162.9790565769
 20
895.0906074299405
 30
0.0
 40
200.0
  1
外 形 図
  7
STYLE2
100
AcDbText
  0
TEXT
  5
10B74
330
747D
100
AcDbEntity
  8
文字
 62
     7
 48
50.0
100
AcDbText
 10
13201.43669998441
 20
477.2740661031255
 30
0.0
 40
160.0
  1
機種名
  7
STYLE2
100
AcDbText
  0
TEXT
  5
10B79
330
747D
100
AcDbEntity
  8
文字
 62
     7
 48
50.0
100
AcDbText
 10
14524.131837222
 20
1031.557706291228
 30
0.0
 40
100.0
  1
NO.11      <縮尺> S=1/40
  7
STYLE2
100
AcDbText
  0
LINE
  5
10B7B
330
747D
100
AcDbEntity
  8
仕様書枠
 48
50.0
100
AcDbLine
 10
13107.2
 20
800.0
 30
0.0
 11
14251.2
 21
800.0
 31
0.0
  0
LINE
  5
10B88
330
747D
100
AcDbEntity
  8
仕様書枠
  6
Continuous
 48
50.0
100
AcDbLine
 10
14251.2
 20
1200.0
 30
0.0
 11
14251.2
 21
800.0
 31
0.0
  0
LINE
  5
12765
330
747D
100
AcDbEntity
  8
Ｇ．Ｌ
100
AcDbLine
 10
4541.629972436509
 20
3000.0
 30
0.0
 11
11379.44238282794
 21
3000.0
 31
0.0
  0
LINE
  5
12766
330
747D
100
AcDbEntity
  8
部品1
100
AcDbLine
 10
9355.693956914475
 20
4940.0
 30
0.0
 11
10725.69395691448
 21
4940.0
 31
0.0
  0
LINE
  5
12767
330
747D
100
AcDbEntity
  8
部品1
100
AcDbLine
 10
9355.693956914475
 20
3150.0
 30
0.0
 11
10725.69395691448
 21
3150.0
 31
0.0
  0
LINE
  5
12768
330
747D
100
AcDbEntity
  8
部品1
100
AcDbLine
 10
9355.693956914475
 20
3100.0
 30
0.0
 11
9363.193956914475
 21
3100.0
 31
0.0
  0
LINE
  5
12773
330
747D
100
AcDbEntity
  8
部品1
100
AcDbLine
 10
9410.693956914474
 20
4940.0
 30
0.0
 11
9410.693956914474
 21
3150.0
 31
0.0
  0
LINE
  5
12777
330
747D
100
AcDbEntity
  8
部品1
100
AcDbLine
 10
9355.69395691448
 20
5031.576893940442
 30
0.0
 11
9355.693956914475
 21
3000.0
 31
0.0
  0
DIMENSION
  5
12778
330
747D
100
AcDbEntity
  8
寸法
100
AcDbDimension
  2
*D5
 10
8810.78531551722
 20
3162.000000000001
 30
0.0
 11
8710.785315517219
 21
4047.000000000001
 31
0.0
 70
    32
  1
有効開口部高サ<>
 71
     5
 42
1769.999999999999
  3
INABA_S40G
100
AcDbAlignedDimension
 13
9355.693956914475
 23
4932.0
 33
0.0
 14
9355.693956914475
 24
3162.0
 34
0.0
 50
90.0
100
AcDbRotatedDimension
1001
ACAD
1000
DSTYLE
1002
{
1070
   174
1070
     0
1070
   272
1070
     1
1070
   288
1070
     0
1070
   341
1005
0
1002
}
  0
DIMENSION
  5
12779
330
747D
100
AcDbEntity
  8
寸法
100
AcDbDimension
  2
*D4
 10
8511.943827731213
 20
3150.0
 30
0.0
 11
8411.943827731214
 21
4045.000000000001
 31
0.0
 70
    32
 71
     5
 42
1789.999999999999
  3
INABA_S40G
100
AcDbAlignedDimension
 13
9355.693956914475
 23
4940.0
 33
0.0
 14
9355.693956914475
 24
3150.0
 34
0.0
 50
90.0
100
AcDbRotatedDimension
1001
ACAD
1000
DSTYLE
1002
{
1070
   174
1070
     0
1070
   272
1070
     1
1070
   288
1070
     0
1070
   341
1005
0
1002
}
  0
DIMENSION
  5
1277A
330
747D
100
AcDbEntity
  8
寸法
100
AcDbDimension
  2
*D3
 10
8211.943827731214
 20
5175.000000000005
 30
0.0
 11
8111.932016707591
 21
4137.500000000003
 31
0.0
 70
    32
 71
     5
 42
2075.000000000004
  3
INABA_S40G
100
AcDbAlignedDimension
 13
9355.693956914475
 23
3100.0
 33
0.0
 14
9295.693956914476
 24
5175.000000000005
 34
0.0
 50
90.0
100
AcDbRotatedDimension
1001
ACAD
1000
DSTYLE
1002
{
1070
   174
1070
     0
1070
   272
1070
     1
1070
   288
1070
     0
1070
   341
1005
0
1002
}
  0
DIMENSION
  5
1277B
330
747D
100
AcDbEntity
  8
寸法
100
AcDbDimension
  2
*D1
 10
8211.943827731214
 20
3000.0
 30
0.0
 11
8211.943827731214
 21
2763.952755905513
 31
0.0
 70
   160
 71
     5
 42
100.0000000000004
  3
INABA_S40G
100
AcDbAlignedDimension
 13
9300.693956914475
 23
3100.0
 33
0.0
 14
8299.192881019342
 24
3000.0
 34
0.0
 50
90.0
100
AcDbRotatedDimension
1001
ACAD
1000
DSTYLE
1002
{
1070
   174
1070
     0
1070
   272
1070
     1
1070
   288
1070
     0
1070
   341
1005
0
1002
}
  0
DIMENSION
  5
1277C
330
747D
100
AcDbEntity
  8
寸法
100
AcDbDimension
  2
*D2
 10
8511.943827731213
 20
3100.0
 30
0.0
 11
8511.943827731213
 21
2793.952755905514
 31
0.0
 70
   160
 71
     5
 42
50.0
  3
INABA_S40G
100
AcDbAlignedDimension
 13
9355.693956914475
 23
3150.0
 33
0.0
 14
9300.693956914475
 24
3100.0
 34
0.0
 50
90.0
100
AcDbRotatedDimension
1001
ACAD
1000
DSTYLE
1002
{
1070
   174
1070
     0
1070
   272
1070
     1
1070
   288
1070
     0
1070
   341
1005
0
1002
}
  0
LINE
  5
12787
330
747D
100
AcDbEntity
  8
部品1
100
AcDbLine
 10
9830.693956914474
 20
4940.0
 30
0.0
 11
9830.693956914474
 21
3150.0
 31
0.0
  0
LINE
  5
1279B
330
747D
100
AcDbEntity
  8
部品1
100
AcDbLine
 10
10725.69395691447
 20
4994.636580835253
 30
0.0
 11
10725.69395691448
 21
3000.0
 31
0.0
  0
LINE
  5
1279C
330
747D
100
AcDbEntity
  8
部品1
100
AcDbLine
 10
10670.69395691448
 20
4940.0
 30
0.0
 11
10670.69395691448
 21
3150.0
 31
0.0
  0
DIMENSION
  5
127A4
330
747D
100
AcDbEntity
  8
寸法
100
AcDbDimension
  2
*D6
 10
11430.6211148866
 20
5120.0
 30
0.0
 11
11330.60930386298
 21
4110.000000000002
 31
0.0
 70
    32
 71
     5
 42
2020.000000000001
  3
INABA_S40G
100
AcDbAlignedDimension
 13
10725.69395691448
 23
3100.0
 33
0.0
 14
10805.69395691447
 24
5120.0
 34
0.0
 50
90.0
100
AcDbRotatedDimension
1001
ACAD
1000
DSTYLE
1002
{
1070
   174
1070
     0
1070
   272
1070
     1
1070
   288
1070
     0
1070
   341
1005
0
1002
}
  0
TEXT
  5
127AA
330
747D
100
AcDbEntity
  8
部品1
100
AcDbText
 10
4599.545247166584
 20
3013.953728039225
 30
0.0
 40
125.0
  1
▽G.L
  7
STYLE2
100
AcDbText
  0
LINE
  5
1283F
330
747D
100
AcDbEntity
  8
部品1
100
AcDbLine
 10
9555.693956914474
 20
3100.0
 30
0.0
 11
9555.693956914474
 21
3000.0
 31
0.0
  0
LINE
  5
12840
330
747D
100
AcDbEntity
  8
部品1
100
AcDbLine
 10
10525.69395691448
 20
3100.0
 30
0.0
 11
10525.69395691448
 21
3000.0
 31
0.0
  0
DIMENSION
  5
13B51
330
747D
100
AcDbEntity
  8
寸法
 48
50.0
100
AcDbDimension
  2
*D7
 10
9355.693956914477
 20
5573.657453579304
 30
0.0
 11
10005.51298980502
 21
5573.657453579304
 31
0.0
 70
   160
  1
柱外寸法<>
 71
     5
 42
1370.0
  3
INABA_S40G
100
AcDbAlignedDimension
 13
10725.69395691447
 23
5121.810679611654
 33
0.0
 14
9355.693956914477
 24
5171.001618122977
 34
0.0
100
AcDbRotatedDimension
1001
ACAD
1000
DSTYLE
1002
{
1070
   174
1070
     0
1070
   272
1070
     1
1070
   288
1070
     0
1070
   341
1005
0
1002
}
  0
DIMENSION
  5
13B6D
330
747D
100
AcDbEntity
  8
寸法
 48
50.0
100
AcDbDimension
  2
*D8
 10
9295.693956914476
 20
5573.657453579304
 30
0.0
 11
8986.056161638886
 21
5573.657453579304
 31
0.0
 70
   160
 71
     5
 42
60.0
  3
INABA_S40G
100
AcDbAlignedDimension
 13
9355.693956914477
 23
5171.001618122977
 33
0.0
 14
9295.693956914476
 24
5175.000000000005
 34
0.0
100
AcDbRotatedDimension
1001
ACAD
1000
DSTYLE
1002
{
1070
   174
1070
     0
1070
   272
1070
     1
1070
   288
1070
     0
1070
   341
1005
0
1002
}
  0
DIMENSION
  5
13BBF
330
747D
100
AcDbEntity
  8
寸法
 48
50.0
100
AcDbDimension
  2
*D9
 10
9295.693956914476
 20
5781.831774771268
 30
0.0
 11
10022.8187866163
 21
5781.831774771268
 31
0.0
 70
   160
 71
     5
 42
1510.0
  3
INABA_S40G
100
AcDbAlignedDimension
 13
10805.69395691447
 23
5120.0
 33
0.0
 14
9295.693956914476
 24
5175.000000000005
 34
0.0
100
AcDbRotatedDimension
1001
ACAD
1000
DSTYLE
1002
{
1070
   174
1070
     0
1070
   272
1070
     1
1070
   288
1070
     0
1070
   341
1005
0
1002
}
  0
LINE
  5
13BE8
330
747D
100
AcDbEntity
  8
部品1
100
AcDbLine
 10
5629.896575106992
 20
3100.0
 30
0.0
 11
7419.896575106992
 21
3100.0
 31
0.0
  0
LINE
  5
13BE9
330
747D
100
AcDbEntity
  8
部品1
100
AcDbLine
 10
5629.896575106992
 20
4940.0
 30
0.0
 11
7419.896575106992
 21
4940.0
 31
0.0
  0
LINE
  5
13BEF
330
747D
100
AcDbEntity
  8
部品1
100
AcDbLine
 10
5689.896575106992
 20
3149.000000000004
 30
0.0
 11
6344.896575106992
 21
3149.00000000001
 31
0.0
  0
DIMENSION
  5
13BF0
330
747D
100
AcDbEntity
  8
寸法
 48
50.0
100
AcDbDimension
  2
*D10
 10
7469.896575106992
 20
5589.214133848724
 30
0.0
 11
6524.896575106989
 21
5589.214133848724
 31
0.0
 70
   160
 71
     5
 42
1889.999999999999
  3
INABA_S40G
100
AcDbAlignedDimension
 13
5579.896575106992
 23
5175.000000000006
 33
0.0
 14
7469.896575106992
 24
5175.000000000003
 34
0.0
100
AcDbRotatedDimension
  0
LINE
  5
13C1F
330
747D
100
AcDbEntity
  8
部品1
100
AcDbLine
 10
5629.896575106993
 20
5034.000000000004
 30
0.0
 11
5629.896575106992
 21
3000.0
 31
0.0
  0
LINE
  5
13CFC
330
747D
100
AcDbEntity
  8
部品1
100
AcDbLine
 10
7359.896575106993
 20
4940.0
 30
0.0
 11
7359.896575106993
 21
3142.00000000002
 31
0.0
  0
LINE
  5
13CFE
330
747D
100
AcDbEntity
  8
部品1
100
AcDbLine
 10
5689.896575106992
 20
4940.0
 30
0.0
 11
5689.896575106992
 21
3142.000000000004
 31
0.0
  0
LINE
  5
13D18
330
747D
100
AcDbEntity
  8
部品1
100
AcDbLine
 10
7419.896575106992
 20
5034.000000000004
 30
0.0
 11
7419.896575106992
 21
3000.0
 31
0.0
  0
LINE
  5
13E0C
330
747D
100
AcDbEntity
  8
部品1
100
AcDbLine
 10
7019.896575106992
 20
3100.0
 30
0.0
 11
7019.896575106992
 21
3000.0
 31
0.0
  0
LINE
  5
13E0D
330
747D
100
AcDbEntity
  8
部品1
100
AcDbLine
 10
6029.896575106992
 20
3100.0
 30
0.0
 11
6029.896575106992
 21
3000.0
 31
0.0
  0
DIMENSION
  5
141C3
330
747D
100
AcDbEntity
  8
寸法
 48
50.0
100
AcDbDimension
  2
*D11
 10
7419.896575106993
 20
5379.620259427273
 30
0.0
 11
7783.381856481231
 21
5379.620259427273
 31
0.0
 70
   160
 71
     5
 42
49.99999999999909
  3
INABA_S40G
100
AcDbAlignedDimension
 13
7469.896575106992
 23
5175.000000000003
 33
0.0
 14
7419.896575106993
 24
5175.000000000006
 34
0.0
100
AcDbRotatedDimension
  0
DIMENSION
  5
14206
330
747D
100
AcDbEntity
  8
寸法
 48
50.0
100
AcDbDimension
  2
*D12
 10
5579.896575106992
 20
5379.620259427273
 30
0.0
 11
5266.411293732747
 21
5379.620259427273
 31
0.0
 70
   160
 71
     5
 42
49.99999999999909
  3
INABA_S40G
100
AcDbAlignedDimension
 13
5629.896575106992
 23
5175.000000000006
 33
0.0
 14
5579.896575106992
 24
5175.000000000006
 34
0.0
100
AcDbRotatedDimension
1001
ACAD
1000
DSTYLE
1002
{
1002
}
  0
LINE
  5
1426B
330
747D
100
AcDbEntity
  8
部品1
 48
50.0
100
AcDbLine
 10
6424.896575106991
 20
3100.0
 30
0.0
 11
6424.896575106991
 21
3000.0
 31
0.0
  0
LINE
  5
1426C
330
747D
100
AcDbEntity
  8
部品1
 48
50.0
100
AcDbLine
 10
6624.896575106991
 20
3100.0
 30
0.0
 11
6624.896575106991
 21
3000.0
 31
0.0
  0
LINE
  5
1427D
330
747D
100
AcDbEntity
  8
部品1
100
AcDbLine
 10
6344.896575106992
 20
3156.50000000001
 30
0.0
 11
7359.896575106993
 21
3156.500000000021
 31
0.0
  0
LINE
  5
144FC
330
747D
100
AcDbEntity
  8
破線
  6
HIDDEN
 48
5.0
100
AcDbLine
 10
10733.19395691447
 20
2845.0
 30
0.0
 11
10663.19395691447
 21
2845.0
 31
0.0
  0
LINE
  5
144FD
330
747D
100
AcDbEntity
  8
破線
  6
HIDDEN
 48
5.0
100
AcDbLine
 10
10678.19395691447
 20
2995.0
 30
0.0
 11
10663.19395691447
 21
2847.3
 31
0.0
  0
LINE
  5
144FE
330
747D
100
AcDbEntity
  8
破線
  6
HIDDEN
 48
5.0
100
AcDbLine
 10
10663.19395691447
 20
2847.3
 30
0.0
 11
10663.19395691447
 21
2845.0
 31
0.0
  0
LINE
  5
144FF
330
747D
100
AcDbEntity
  8
破線
  6
HIDDEN
 48
5.0
100
AcDbLine
 10
10718.19395691447
 20
2995.0
 30
0.0
 11
10733.19395691447
 21
2847.3
 31
0.0
  0
LINE
  5
14500
330
747D
100
AcDbEntity
  8
破線
  6
HIDDEN
 48
5.0
100
AcDbLine
 10
10733.19395691447
 20
2847.3
 30
0.0
 11
10733.19395691447
 21
2845.0
 31
0.0
  0
LINE
  5
14503
330
747D
100
AcDbEntity
  8
破線
  6
HIDDEN
 48
5.0
100
AcDbLine
 10
9348.193956914473
 20
2845.0
 30
0.0
 11
9418.193956914473
 21
2845.0
 31
0.0
  0
LINE
  5
14504
330
747D
100
AcDbEntity
  8
破線
  6
HIDDEN
 48
5.0
100
AcDbLine
 10
9348.193956914473
 20
2847.3
 30
0.0
 11
9348.193956914473
 21
2845.0
 31
0.0
  0
LINE
  5
14505
330
747D
100
AcDbEntity
  8
破線
  6
HIDDEN
 48
5.0
100
AcDbLine
 10
9418.193956914477
 20
2847.3
 30
0.0
 11
9418.193956914473
 21
2845.0
 31
0.0
  0
LINE
  5
14506
330
747D
100
AcDbEntity
  8
破線
  6
HIDDEN
 48
5.0
100
AcDbLine
 10
9363.193956914477
 20
2995.000000000001
 30
0.0
 11
9348.193956914473
 21
2847.3
 31
0.0
  0
LINE
  5
14507
330
747D
100
AcDbEntity
  8
破線
  6
HIDDEN
 48
5.0
100
AcDbLine
 10
9403.193956914476
 20
2995.0
 30
0.0
 11
9418.193956914477
 21
2847.3
 31
0.0
  0
LINE
  5
14509
330
747D
100
AcDbEntity
  8
部品1
 48
50.0
100
AcDbLine
 10
9363.193956914471
 20
3140.000000000001
 30
0.0
 11
9363.193956914477
 21
3000.0
 31
0.0
  0
LINE
  5
1450A
330
747D
100
AcDbEntity
  8
部品1
 48
50.0
100
AcDbLine
 10
9403.193956914476
 20
3140.0
 30
0.0
 11
9403.193956914472
 21
3000.0
 31
0.0
  0
LINE
  5
1450B
330
747D
100
AcDbEntity
  8
部品1
100
AcDbLine
 10
9368.193956914472
 20
3145.000000000001
 30
0.0
 11
9398.193956914475
 21
3145.0
 31
0.0
  0
ARC
  5
1450C
330
747D
100
AcDbEntity
  8
部品1
 48
50.0
100
AcDbCircle
 10
9368.193956914472
 20
3140.000000000001
 30
0.0
 40
5.0
100
AcDbArc
 50
89.99999999999934
 51
180.0000000000013
  0
ARC
  5
1450D
330
747D
100
AcDbEntity
  8
部品1
 48
50.0
100
AcDbCircle
 10
9398.193956914475
 20
3140.0
 30
0.0
 40
5.0
100
AcDbArc
 50
359.9999999999986
 51
89.99999999999927
  0
LINE
  5
1450E
330
747D
100
AcDbEntity
  8
部品1
 48
50.0
100
AcDbLine
 10
10678.19395691447
 20
3140.0
 30
0.0
 11
10678.19395691447
 21
3000.0
 31
0.0
  0
LINE
  5
1450F
330
747D
100
AcDbEntity
  8
部品1
 48
50.0
100
AcDbLine
 10
10718.19395691447
 20
3140.0
 30
0.0
 11
10718.19395691447
 21
3000.0
 31
0.0
  0
LINE
  5
14510
330
747D
100
AcDbEntity
  8
部品1
100
AcDbLine
 10
10713.19395691447
 20
3145.0
 30
0.0
 11
10683.19395691447
 21
3145.0
 31
0.0
  0
ARC
  5
14511
330
747D
100
AcDbEntity
  8
部品1
 48
50.0
100
AcDbCircle
 10
10683.19395691447
 20
3140.0
 30
0.0
 40
5.0
100
AcDbArc
 50
90.00000000000074
 51
180.0000000000014
  0
ARC
  5
14512
330
747D
100
AcDbEntity
  8
部品1
 48
50.0
100
AcDbCircle
 10
10713.19395691447
 20
3140.0
 30
0.0
 40
5.0
100
AcDbArc
 50
359.9999999999986
 51
90.00000000000063
  0
LINE
  5
14513
330
747D
100
AcDbEntity
  8
破線
  6
HIDDEN
 48
5.0
100
AcDbLine
 10
10678.19395691447
 20
3000.0
 30
0.0
 11
10678.19395691447
 21
2995.0
 31
0.0
  0
LINE
  5
14514
330
747D
100
AcDbEntity
  8
破線
  6
HIDDEN
 48
5.0
100
AcDbLine
 10
10718.19395691447
 20
3000.0
 30
0.0
 11
10718.19395691447
 21
2995.0
 31
0.0
  0
LINE
  5
14515
330
747D
100
AcDbEntity
  8
破線
  6
HIDDEN
 48
5.0
100
AcDbLine
 10
9363.19395691448
 20
3000.0
 30
0.0
 11
9363.19395691448
 21
2995.000000000001
 31
0.0
  0
LINE
  5
14516
330
747D
100
AcDbEntity
  8
破線
  6
HIDDEN
 48
5.0
100
AcDbLine
 10
9403.193956914476
 20
3000.0
 30
0.0
 11
9403.193956914476
 21
2995.0
 31
0.0
  0
LINE
  5
14517
330
747D
100
AcDbEntity
  8
部品1
100
AcDbLine
 10
7424.896575106991
 20
3145.000000000001
 30
0.0
 11
7424.896575106991
 21
3000.0
 31
0.0
  0
LINE
  5
1451B
330
747D
100
AcDbEntity
  8
破線
 48
5.0
100
AcDbLine
 10
7444.896575106992
 20
2845.0
 30
0.0
 11
7424.89657510699
 21
2845.0
 31
0.0
  0
LINE
  5
1451C
330
747D
100
AcDbEntity
  8
部品1
100
AcDbLine
 10
5624.896575106991
 20
3145.000000000002
 30
0.0
 11
5624.896575106993
 21
3000.0
 31
0.0
  0
LINE
  5
1451F
330
747D
100
AcDbEntity
  8
破線
 48
5.0
100
AcDbLine
 10
5604.896575106992
 20
2845.000000000001
 30
0.0
 11
5624.896575106994
 21
2845.000000000001
 31
0.0
  0
DIMENSION
  5
14521
330
747D
100
AcDbEntity
  8
寸法
100
AcDbDimension
  2
*D13
 10
5684.896575106998
 20
8840.923108857117
 30
0.0
 11
5321.411293732726
 21
8840.923108857117
 31
0.0
 70
   160
 71
     5
 42
55.00000000003456
  3
INABA_S40G
100
AcDbAlignedDimension
 13
5629.896575106964
 23
8625.114889232134
 33
0.0
 14
5684.896575106998
 24
8625.114889232134
 34
0.0
100
AcDbRotatedDimension
1001
ACAD
1000
DSTYLE
1002
{
1002
}
  0
LINE
  5
14522
330
747D
100
AcDbEntity
  8
部品1
100
AcDbLine
 10
5684.896575106964
 20
8625.114889232101
 30
0.0
 11
5684.896575106965
 21
8597.1148892321
 31
0.0
  0
LINE
  5
14523
330
747D
100
AcDbEntity
  8
部品1
100
AcDbLine
 10
5629.896575106951
 20
8625.114889232133
 30
0.0
 11
5629.896575106992
 21
7255.1148892321
 31
0.0
  0
LINE
  5
14524
330
747D
100
AcDbEntity
  8
部品1
100
AcDbLine
 10
7364.896575107
 20
8625.114889232229
 30
0.0
 11
7364.896575107
 21
8597.114889232228
 31
0.0
  0
LINE
  5
14525
330
747D
100
AcDbEntity
  8
部品1
100
AcDbLine
 10
7364.896575107
 20
8625.114889232248
 30
0.0
 11
7364.896575107
 21
8597.114889232249
 31
0.0
  0
DIMENSION
  5
14526
330
747D
100
AcDbEntity
  8
寸法
100
AcDbDimension
  2
*D14
 10
8364.703743008178
 20
7255.114889232229
 30
0.0
 11
8364.703743008176
 21
7922.024927490852
 31
0.0
 70
   160
 71
     5
 42
1370.0
  3
INABA_S40G
100
AcDbAlignedDimension
 13
7419.89657510701
 23
8625.114889232229
 33
0.0
 14
7419.896575106974
 24
7255.114889232229
 34
0.0
 50
90.0
100
AcDbRotatedDimension
1001
ACAD
1000
DSTYLE
1002
{
1002
}
  0
LINE
  5
14527
330
747D
100
AcDbEntity
  8
部品1
100
AcDbLine
 10
7419.89657510701
 20
8625.11488923223
 30
0.0
 11
7419.896575106974
 21
7255.114889232229
 31
0.0
  0
LINE
  5
14528
330
747D
100
AcDbEntity
  8
部品1
100
AcDbLine
 10
6944.896575106998
 20
8625.114889232248
 30
0.0
 11
6944.896575106998
 21
8597.114889232249
 31
0.0
  0
LINE
  5
14529
330
747D
100
AcDbEntity
  8
部品1
100
AcDbLine
 10
6524.896575106999
 20
8625.114889232248
 30
0.0
 11
6524.896575106999
 21
8597.114889232249
 31
0.0
  0
LINE
  5
1452A
330
747D
100
AcDbEntity
  8
部品1
100
AcDbLine
 10
6104.896575106998
 20
8625.114889232248
 30
0.0
 11
6104.896575106998
 21
8597.114889232249
 31
0.0
  0
LINE
  5
1452B
330
747D
100
AcDbEntity
  8
部品1
100
AcDbLine
 10
6104.896575106998
 20
8625.114889232133
 30
0.0
 11
6104.896575106998
 21
8597.114889232132
 31
0.0
  0
LINE
  5
1452C
330
747D
100
AcDbEntity
  8
部品1
100
AcDbLine
 10
6104.896575106998
 20
8625.114889232134
 30
0.0
 11
6104.896575106998
 21
8597.114889232136
 31
0.0
  0
LINE
  5
1452D
330
747D
100
AcDbEntity
  8
部品1
100
AcDbLine
 10
5684.896575106998
 20
8625.114889232134
 30
0.0
 11
5684.896575106998
 21
8597.114889232136
 31
0.0
  0
DIMENSION
  5
1452E
330
747D
100
AcDbEntity
  8
寸法
100
AcDbDimension
  2
*D15
 10
8067.322920841411
 20
8570.114889232232
 30
0.0
 11
8067.322920841409
 21
8933.600170606469
 31
0.0
 70
   160
 71
     5
 42
54.99999999999636
  3
INABA_S40G
100
AcDbAlignedDimension
 13
7419.896575106999
 23
8625.114889232229
 33
0.0
 14
7419.896575106999
 24
8570.114889232232
 34
0.0
 50
90.0
100
AcDbRotatedDimension
1001
ACAD
1000
DSTYLE
1002
{
1002
}
  0
DIMENSION
  5
1452F
330
747D
100
AcDbEntity
  8
寸法
100
AcDbDimension
  2
*D16
 10
7746.754300969023
 20
8049.897073563341
 30
0.0
 11
7646.754300969023
 21
8274.897073563341
 31
0.0
 70
    32
 71
     5
 42
449.9999999999982
  3
INABA_S40G
100
AcDbAlignedDimension
 13
7391.396575106999
 23
8595.114889232229
 33
0.0
 14
7391.396575106999
 24
8145.11488923223
 34
0.0
 50
90.0
100
AcDbRotatedDimension
1001
ACAD
1000
DSTYLE
1002
{
1002
}
  0
DIMENSION
  5
14530
330
747D
100
AcDbEntity
  8
寸法
100
AcDbDimension
  2
*D17
 10
8067.322920841386
 20
7255.114889232229
 30
0.0
 11
8067.322920841382
 21
6877.253422327368
 31
0.0
 70
   160
 71
     5
 42
54.99999999999636
  3
INABA_S40G
100
AcDbAlignedDimension
 13
7419.896575106974
 23
7310.114889232226
 33
0.0
 14
7419.896575106974
 24
7255.114889232229
 34
0.0
 50
90.0
100
AcDbRotatedDimension
1001
ACAD
1000
DSTYLE
1002
{
1002
}
  0
DIMENSION
  5
14531
330
747D
100
AcDbEntity
  8
寸法
100
AcDbDimension
  2
*D18
 10
8067.322920841411
 20
7310.114889232226
 30
0.0
 11
8067.322920841409
 21
7908.561499081232
 31
0.0
 70
   160
  1
3X420=<>
 71
     5
 42
1260.000000000007
  3
INABA_S40G
100
AcDbAlignedDimension
 13
7419.896575106999
 23
8570.114889232232
 33
0.0
 14
7419.896575106974
 24
7310.114889232226
 34
0.0
 50
90.0
100
AcDbRotatedDimension
1001
ACAD
1000
DSTYLE
1002
{
1002
}
  0
DIMENSION
  5
14532
330
747D
100
AcDbEntity
  8
寸法
100
AcDbDimension
  2
*D19
 10
7419.896575106974
 20
6490.97891987854
 30
0.0
 11
6524.896575106983
 21
6490.97891987854
 31
0.0
 70
   160
 71
     5
 42
1789.999999999982
  3
INABA_S40G
100
AcDbAlignedDimension
 13
5629.896575106992
 23
7255.114889232065
 33
0.0
 14
7419.896575106974
 24
7255.114889232195
 34
0.0
100
AcDbRotatedDimension
1001
ACAD
1000
DSTYLE
1002
{
1002
}
  0
DIMENSION
  5
14533
330
747D
100
AcDbEntity
  8
寸法
100
AcDbDimension
  2
*D20
 10
5689.896575106992
 20
6695.555483463683
 30
0.0
 11
6188.896575106991
 21
6695.555483463683
 31
0.0
 70
   160
  1
有効開口部間口\P<>
 71
     5
 42
997.9999999999982
  3
INABA_S40G
100
AcDbAlignedDimension
 13
6687.896575106989
 23
7255.114889232207
 33
0.0
 14
5689.896575106992
 24
7255.114889232098
 34
0.0
100
AcDbRotatedDimension
1001
ACAD
1000
DSTYLE
1002
{
1002
}
  0
LWPOLYLINE
  5
14534
330
747D
100
AcDbEntity
  8
部品1
100
AcDbPolyline
 90
        4
 70
     1
 43
0.0
 10
6143.161241992779
 20
6320.02887121833
 10
6143.161241992779
 20
6080.136549672797
 10
6906.631908221219
 20
6080.136549672797
 10
6906.631908221219
 20
6320.02887121833
  0
TEXT
  5
14535
330
747D
100
AcDbEntity
  8
部品1
100
AcDbText
 10
6233.080851821817
 20
6127.135341999806
 30
0.0
 40
135.0
  1
平面図
  7
STYLE2
100
AcDbText
  0
LINE
  5
14538
330
747D
100
AcDbEntity
  8
部品1
100
AcDbLine
 10
7391.896575106976
 20
7357.114889232232
 30
0.0
 11
5657.896575106973
 21
7357.114889232133
 31
0.0
  0
LINE
  5
1453A
330
747D
100
AcDbEntity
  8
細線
100
AcDbLine
 10
6858.896575106992
 20
7292.114889232229
 30
0.0
 11
6756.396575106994
 21
7292.114889232229
 31
0.0
  0
LINE
  5
1453B
330
747D
100
AcDbEntity
  8
細線
100
AcDbLine
 10
6843.896575106986
 20
7315.11488923223
 30
0.0
 11
6318.89657510699
 21
7315.114889232237
 31
0.0
  0
LINE
  5
1453C
330
747D
100
AcDbEntity
  8
細線
 48
50.0
100
AcDbLine
 10
7359.896575106974
 20
7271.114889232229
 30
0.0
 11
6344.896575106989
 21
7271.114889232229
 31
0.0
  0
LINE
  5
1453E
330
747D
100
AcDbEntity
  8
部品1
100
AcDbLine
 10
5658.396575106999
 20
8145.114889232132
 30
0.0
 11
6511.396575106997
 21
8145.114889232237
 31
0.0
  0
DIMENSION
  5
1453F
330
747D
100
AcDbEntity
  8
寸法
100
AcDbDimension
  2
*D21
 10
7332.703078813032
 20
7926.067778989253
 30
0.0
 11
6917.743637225267
 21
7926.067778989253
 31
0.0
 70
   160
 71
     5
 42
853.0000000000118
  3
INABA_S40G
100
AcDbAlignedDimension
 13
6538.396575106998
 23
8145.114889232237
 33
0.0
 14
7391.396575107011
 24
8145.114889232232
 34
0.0
100
AcDbRotatedDimension
1001
ACAD
1000
DSTYLE
1002
{
1002
}
  0
LINE
  5
14540
330
747D
100
AcDbEntity
  8
細線
 48
50.0
100
AcDbLine
 10
6511.396575106998
 20
8595.114889232236
 30
0.0
 11
5658.396575106998
 21
8145.114889232132
 31
0.0
  0
LINE
  5
14541
330
747D
100
AcDbEntity
  8
細線
 48
50.0
100
AcDbLine
 10
6511.396575106997
 20
8145.114889232237
 30
0.0
 11
5658.396575106998
 21
8595.114889232133
 31
0.0
  0
LINE
  5
14542
330
747D
100
AcDbEntity
  8
部品1
100
AcDbLine
 10
5658.396575106998
 20
8595.114889232133
 30
0.0
 11
6511.396575106998
 21
8595.11488923224
 31
0.0
  0
LINE
  5
14543
330
747D
100
AcDbEntity
  8
部品1
100
AcDbLine
 10
5684.896575106998
 20
8597.114889232249
 30
0.0
 11
6512.396575106996
 21
8597.114889232249
 31
0.0
  0
LINE
  5
14544
330
747D
100
AcDbEntity
  8
部品1
100
AcDbLine
 10
7419.896575106974
 20
7255.114889232229
 30
0.0
 11
5629.896575106992
 21
7255.114889232135
 31
0.0
  0
LINE
  5
14546
330
747D
100
AcDbEntity
  8
部品1
100
AcDbLine
 10
5657.896575106974
 20
7310.114889232096
 30
0.0
 11
5657.89657510701
 21
8597.114889232136
 31
0.0
  0
LINE
  5
14547
330
747D
100
AcDbEntity
  8
細線
 48
50.0
100
AcDbLine
 10
6303.896575106981
 20
7305.114889232219
 30
0.0
 11
5689.896575106988
 21
7305.114889232115
 31
0.0
  0
LINE
  5
14548
330
747D
100
AcDbEntity
  8
細線
100
AcDbLine
 10
6344.896575106992
 20
7258.114889232242
 30
0.0
 11
6244.896575106984
 21
7258.114889232228
 31
0.0
  0
LINE
  5
14549
330
747D
100
AcDbEntity
  8
細線
100
AcDbLine
 10
6329.896575106989
 20
7281.114889232239
 30
0.0
 11
5704.896575106989
 21
7281.114889232146
 31
0.0
  0
LINE
  5
1454A
330
747D
100
AcDbEntity
  8
部品1
100
AcDbLine
 10
5680.896575106991
 20
7255.1148892321
 30
0.0
 11
5629.896575106992
 21
7255.1148892321
 31
0.0
  0
LINE
  5
1454B
330
747D
100
AcDbEntity
  8
部品1
100
AcDbLine
 10
5657.896575106974
 20
7310.114889232064
 30
0.0
 11
5629.89657510699
 21
7310.114889232064
 31
0.0
  0
LINE
  5
1454C
330
747D
100
AcDbEntity
  8
部品1
100
AcDbLine
 10
5657.896575106974
 20
7310.114889232098
 30
0.0
 11
5629.89657510699
 21
7310.114889232098
 31
0.0
  0
LINE
  5
1454D
330
747D
100
AcDbEntity
  8
部品1
100
AcDbLine
 10
5657.89657510699
 20
7310.114889232112
 30
0.0
 11
5629.89657510699
 21
7310.114889232112
 31
0.0
  0
LINE
  5
1454E
330
747D
100
AcDbEntity
  8
部品1
100
AcDbLine
 10
5629.89657510699
 20
7310.114889232064
 30
0.0
 11
5629.896575106992
 21
7255.114889232065
 31
0.0
  0
LINE
  5
1454F
330
747D
100
AcDbEntity
  8
部品1
100
AcDbLine
 10
5689.896575106988
 20
7310.114889232062
 30
0.0
 11
5661.896575106988
 21
7310.114889232062
 31
0.0
  0
LINE
  5
14550
330
747D
100
AcDbEntity
  8
部品1
100
AcDbLine
 10
5680.896575106991
 20
7255.114889232064
 30
0.0
 11
5680.89657510699
 21
7262.1148892321
 31
0.0
  0
LINE
  5
14551
330
747D
100
AcDbEntity
  8
部品1
100
AcDbLine
 10
5689.89657510699
 20
7262.114889232099
 30
0.0
 11
5680.89657510699
 21
7262.1148892321
 31
0.0
  0
LINE
  5
14552
330
747D
100
AcDbEntity
  8
部品1
100
AcDbLine
 10
5689.89657510699
 20
7262.114889232099
 30
0.0
 11
5689.896575106988
 21
7310.114889232064
 31
0.0
  0
LINE
  5
14553
330
747D
100
AcDbEntity
  8
細線
100
AcDbLine
 10
5704.896575106989
 20
7288.114889232145
 30
0.0
 11
5704.896575106989
 21
7281.114889232146
 31
0.0
  0
LINE
  5
14554
330
747D
100
AcDbEntity
  8
細線
100
AcDbLine
 10
5704.896575106989
 20
7288.114889232145
 30
0.0
 11
5689.896575106989
 21
7288.114889232145
 31
0.0
  0
LINE
  5
1455D
330
747D
100
AcDbEntity
  8
部品1
100
AcDbLine
 10
5657.896575106998
 20
8597.114889232136
 30
0.0
 11
6104.896575106998
 21
8597.114889232138
 31
0.0
  0
LINE
  5
1455E
330
747D
100
AcDbEntity
  8
部品1
 48
50.0
100
AcDbLine
 10
5658.396575106998
 20
8595.114889232128
 30
0.0
 11
5658.396575106998
 21
8145.114889232131
 31
0.0
  0
LINE
  5
1455F
330
747D
100
AcDbEntity
  8
部品1
100
AcDbLine
 10
5657.896575106973
 20
8150.114889232105
 30
0.0
 11
5629.896575106973
 21
8150.114889232105
 31
0.0
  0
LINE
  5
14560
330
747D
100
AcDbEntity
  8
部品1
100
AcDbLine
 10
5657.896575106965
 20
8570.114889232106
 30
0.0
 11
5629.896575106966
 21
8570.114889232106
 31
0.0
  0
LINE
  5
14562
330
747D
100
AcDbEntity
  8
部品1
100
AcDbLine
 10
7391.89657510701
 20
8597.114889232228
 30
0.0
 11
7391.896575106976
 21
7310.114889232226
 31
0.0
  0
LINE
  5
14563
330
747D
100
AcDbEntity
  8
細線
100
AcDbLine
 10
7357.896575106973
 20
7328.114889232226
 30
0.0
 11
7298.896575106972
 21
7328.114889232228
 31
0.0
  0
LINE
  5
14564
330
747D
100
AcDbEntity
  8
細線
 48
50.0
100
AcDbLine
 10
7359.896575106974
 20
7305.114889232233
 30
0.0
 11
6858.896575106995
 21
7305.114889232235
 31
0.0
  0
LINE
  5
14565
330
747D
100
AcDbEntity
  8
細線
100
AcDbLine
 10
7391.896575106976
 20
7356.114889232222
 30
0.0
 11
6817.896575106992
 21
7356.114889232229
 31
0.0
  0
LINE
  5
14566
330
747D
100
AcDbEntity
  8
細線
100
AcDbLine
 10
6837.896575106992
 20
7320.114889232229
 30
0.0
 11
6837.896575106992
 21
7328.114889232229
 31
0.0
  0
LINE
  5
14567
330
747D
100
AcDbEntity
  8
細線
100
AcDbLine
 10
6837.896575106992
 20
7320.114889232229
 30
0.0
 11
6817.896575106992
 21
7320.114889232229
 31
0.0
  0
LINE
  5
14568
330
747D
100
AcDbEntity
  8
細線
100
AcDbLine
 10
6817.896575106992
 20
7320.114889232229
 30
0.0
 11
6817.896575106992
 21
7356.114889232225
 31
0.0
  0
LINE
  5
14569
330
747D
100
AcDbEntity
  8
細線
100
AcDbLine
 10
6858.896575106992
 20
7292.114889232229
 30
0.0
 11
6858.896575106999
 21
7322.114889232228
 31
0.0
  0
LINE
  5
1456A
330
747D
100
AcDbEntity
  8
部品1
100
AcDbLine
 10
7419.896575106974
 20
7255.114889232229
 30
0.0
 11
7368.896575106974
 21
7255.114889232229
 31
0.0
  0
LINE
  5
1456B
330
747D
100
AcDbEntity
  8
部品1
100
AcDbLine
 10
7419.896575106974
 20
7310.114889232226
 30
0.0
 11
7419.896575106974
 21
7255.114889232229
 31
0.0
  0
LINE
  5
1456C
330
747D
100
AcDbEntity
  8
部品1
100
AcDbLine
 10
7391.896575106976
 20
7310.114889232226
 30
0.0
 11
7419.896575106974
 21
7310.114889232226
 31
0.0
  0
LINE
  5
1456E
330
747D
100
AcDbEntity
  8
部品1
100
AcDbLine
 10
7359.896575106974
 20
7310.114889232226
 30
0.0
 11
7391.896575106976
 21
7310.114889232226
 31
0.0
  0
LINE
  5
1456F
330
747D
100
AcDbEntity
  8
細線
100
AcDbLine
 10
7357.896575106973
 20
7310.114889232226
 30
0.0
 11
7357.896575106973
 21
7328.114889232224
 31
0.0
  0
LINE
  5
14570
330
747D
100
AcDbEntity
  8
部品1
100
AcDbLine
 10
7368.896575106974
 20
7255.114889232228
 30
0.0
 11
7368.896575106974
 21
7262.114889232229
 31
0.0
  0
LINE
  5
14571
330
747D
100
AcDbEntity
  8
部品1
100
AcDbLine
 10
7368.896575106974
 20
7262.114889232229
 30
0.0
 11
7359.896575106974
 21
7262.114889232229
 31
0.0
  0
LINE
  5
14572
330
747D
100
AcDbEntity
  8
部品1
100
AcDbLine
 10
7359.896575106974
 20
7262.114889232229
 30
0.0
 11
7359.896575106974
 21
7310.114889232226
 31
0.0
  0
LINE
  5
14573
330
747D
100
AcDbEntity
  8
部品1
100
AcDbLine
 10
7391.896575107006
 20
7310.114889232242
 30
0.0
 11
7419.896575107006
 21
7310.114889232242
 31
0.0
  0
LINE
  5
14575
330
747D
100
AcDbEntity
  8
部品1
100
AcDbLine
 10
6538.396575106998
 20
8145.114889232237
 30
0.0
 11
7391.396575106999
 21
8145.11488923223
 31
0.0
  0
LINE
  5
14576
330
747D
100
AcDbEntity
  8
細線
 48
50.0
100
AcDbLine
 10
7391.396575106999
 20
8595.114889232229
 30
0.0
 11
6538.396575106998
 21
8145.114889232237
 31
0.0
  0
LINE
  5
14577
330
747D
100
AcDbEntity
  8
細線
 48
50.0
100
AcDbLine
 10
7391.396575106999
 20
8145.11488923223
 30
0.0
 11
6538.396575106998
 21
8595.114889232233
 31
0.0
  0
LINE
  5
14578
330
747D
100
AcDbEntity
  8
部品1
100
AcDbLine
 10
6538.396575106998
 20
8595.114889232236
 30
0.0
 11
7391.396575106999
 21
8595.114889232229
 31
0.0
  0
LINE
  5
14579
330
747D
100
AcDbEntity
  8
部品1
100
AcDbLine
 10
6537.396575106999
 20
8597.114889232248
 30
0.0
 11
7391.896575106999
 21
8597.114889232228
 31
0.0
  0
LINE
  5
1457A
330
747D
100
AcDbEntity
  8
部品1
 48
50.0
100
AcDbLine
 10
6538.396575106998
 20
8595.114889232233
 30
0.0
 11
6538.396575106998
 21
8145.114889232237
 31
0.0
  0
LINE
  5
1457B
330
747D
100
AcDbEntity
  8
部品1
 48
50.0
100
AcDbLine
 10
6511.396575106998
 20
8595.114889232236
 30
0.0
 11
6511.396575106998
 21
8145.114889232237
 31
0.0
  0
LINE
  5
1457C
330
747D
100
AcDbEntity
  8
部品1
 48
50.0
100
AcDbLine
 10
6537.396575106999
 20
8597.114889232237
 30
0.0
 11
6537.396575106999
 21
8145.114889232237
 31
0.0
  0
LINE
  5
1457D
330
747D
100
AcDbEntity
  8
部品1
 48
50.0
100
AcDbLine
 10
6512.396575106997
 20
8597.114889232242
 30
0.0
 11
6512.396575106999
 21
8145.114889232237
 31
0.0
  0
LINE
  5
1457E
330
747D
100
AcDbEntity
  8
部品1
100
AcDbLine
 10
6512.396575106999
 20
8145.114889232237
 30
0.0
 11
6537.396575106999
 21
8145.114889232237
 31
0.0
  0
LINE
  5
1457F
330
747D
100
AcDbEntity
  8
部品1
100
AcDbLine
 10
6512.396575106999
 20
8589.114889232233
 30
0.0
 11
6537.396575106999
 21
8589.114889232236
 31
0.0
  0
LINE
  5
14580
330
747D
100
AcDbEntity
  8
部品1
100
AcDbLine
 10
6553.896575106998
 20
8615.114889232236
 30
0.0
 11
6559.896575106998
 21
8615.114889232236
 31
0.0
  0
LINE
  5
14581
330
747D
100
AcDbEntity
  8
部品1
100
AcDbLine
 10
6559.896575106998
 20
8615.114889232236
 30
0.0
 11
6559.896575106998
 21
8597.114889232235
 31
0.0
  0
LINE
  5
14582
330
747D
100
AcDbEntity
  8
部品1
100
AcDbLine
 10
6489.896575106998
 20
8615.114889232236
 30
0.0
 11
6495.896575106998
 21
8615.114889232236
 31
0.0
  0
LINE
  5
14583
330
747D
100
AcDbEntity
  8
部品1
100
AcDbLine
 10
6489.896575106998
 20
8615.114889232236
 30
0.0
 11
6489.896575106998
 21
8597.114889232235
 31
0.0
  0
LINE
  5
14584
330
747D
100
AcDbEntity
  8
部品1
100
AcDbLine
 10
7391.396575106999
 20
8595.114889232229
 30
0.0
 11
7391.396575106999
 21
8145.11488923223
 31
0.0
  0
LINE
  5
14585
330
747D
100
AcDbEntity
  8
部品1
100
AcDbLine
 10
7391.896575106999
 20
8150.114889232233
 30
0.0
 11
7419.896575106999
 21
8150.114889232233
 31
0.0
  0
LINE
  5
14586
330
747D
100
AcDbEntity
  8
部品1
100
AcDbLine
 10
7391.896575106999
 20
8570.114889232232
 30
0.0
 11
7419.896575106999
 21
8570.114889232232
 31
0.0
  0
DIMENSION
  5
14587
330
747D
100
AcDbEntity
  8
寸法
100
AcDbDimension
  2
*D22
 10
7419.896575106999
 20
8840.923108857213
 30
0.0
 11
7728.381856481238
 21
8840.923108857213
 31
0.0
 70
   160
 71
     5
 42
55.0
  3
INABA_S40G
100
AcDbAlignedDimension
 13
7364.896575107
 23
8625.114889232229
 33
0.0
 14
7419.896575106999
 24
8625.114889232229
 34
0.0
100
AcDbRotatedDimension
1001
ACAD
1000
DSTYLE
1002
{
1002
}
  0
LINE
  5
14588
330
747D
100
AcDbEntity
  8
部品1
100
AcDbLine
 10
5629.896575106998
 20
8625.114889232134
 30
0.0
 11
7419.896575106999
 21
8625.114889232229
 31
0.0
  0
DIMENSION
  5
14589
330
747D
100
AcDbEntity
  8
寸法
100
AcDbDimension
  2
*D23
 10
7364.896575107
 20
8840.923108857232
 30
0.0
 11
6524.896575106997
 21
8840.923108857232
 31
0.0
 70
   160
  1
4X420=<>
 71
     5
 42
1680.000000000001
  3
INABA_S40G
100
AcDbAlignedDimension
 13
5684.896575106998
 23
8625.114889232134
 33
0.0
 14
7364.896575107
 24
8625.114889232229
 34
0.0
100
AcDbRotatedDimension
1001
ACAD
1000
DSTYLE
1002
{
1002
}
  0
LINE
  5
146B0
330
747D
100
AcDbEntity
  8
部品1
100
AcDbLine
 10
10718.19395691447
 20
3100.0
 30
0.0
 11
10725.69395691448
 21
3100.0
 31
0.0
  0
LINE
  5
146B1
330
747D
100
AcDbEntity
  8
部品1
100
AcDbLine
 10
9403.193956914476
 20
3100.0
 30
0.0
 11
10678.19395691447
 21
3100.0
 31
0.0
  0
LINE
  5
146B2
330
747D
100
AcDbEntity
  8
破線
 48
5.0
100
AcDbLine
 10
7424.896575106991
 20
3000.0
 30
0.0
 11
7424.896575106991
 21
2845.0
 31
0.0
  0
LINE
  5
146B3
330
747D
100
AcDbEntity
  8
破線
 48
5.0
100
AcDbLine
 10
5624.896575106993
 20
3000.0
 30
0.0
 11
5624.896575106991
 21
2845.000000000001
 31
0.0
  0
DIMENSION
  5
146E8
330
747D
100
AcDbEntity
  8
寸法
 48
50.0
100
AcDbDimension
  2
*D24
 10
5629.896575106992
 20
5379.620259427273
 30
0.0
 11
6499.077414038605
 21
5379.620259427273
 31
0.0
 70
   160
  1
柱外寸法<>
 71
     5
 42
1790.000000000001
  3
INABA_S40G
100
AcDbAlignedDimension
 13
7419.896575106993
 23
5175.000000000006
 33
0.0
 14
5629.896575106992
 24
5175.000000000006
 34
0.0
100
AcDbRotatedDimension
  0
LINE
  5
1483A
330
747D
100
AcDbEntity
  8
寸法
 48
50.0
100
AcDbLine
 10
6413.563058493193
 20
7185.44248684568
 30
0.0
 11
6632.714998668918
 21
7185.44248684568
 31
0.0
  0
LINE
  5
1483B
330
747D
100
AcDbEntity
  8
寸法
 48
50.0
100
AcDbLine
 10
6632.714998668918
 20
7185.44248684568
 30
0.0
 11
6543.430780073497
 21
7209.366121115168
 31
0.0
  0
LINE
  5
1483C
330
747D
100
AcDbEntity
  8
寸法
 48
50.0
100
AcDbLine
 10
6543.430780073497
 20
7209.366121115168
 30
0.0
 11
6543.430780073497
 21
7155.702486533377
 31
0.0
  0
LINE
  5
1483D
330
747D
100
AcDbEntity
  8
寸法
 48
50.0
100
AcDbLine
 10
5955.252704552266
 20
7152.220530360344
 30
0.0
 11
6006.658712462369
 21
7152.220530360344
 31
0.0
  0
LINE
  5
1483E
330
747D
100
AcDbEntity
  8
寸法
 48
50.0
100
AcDbLine
 10
6006.658712462369
 20
7152.220530360344
 30
0.0
 11
6006.658712462369
 21
7183.530689012511
 31
0.0
  0
LINE
  5
1483F
330
747D
100
AcDbEntity
  8
寸法
 48
50.0
100
AcDbLine
 10
6006.658712462369
 20
7183.530689012511
 30
0.0
 11
6036.420044453793
 21
7183.530689012511
 31
0.0
  0
LINE
  5
14840
330
747D
100
AcDbEntity
  8
寸法
 48
50.0
100
AcDbLine
 10
6036.420044453793
 20
7183.530689012511
 30
0.0
 11
5980.955708507319
 21
7221.110139941122
 31
0.0
  0
LINE
  5
14841
330
747D
100
AcDbEntity
  8
寸法
 48
50.0
100
AcDbLine
 10
5925.491372560842
 20
7183.530689012511
 30
0.0
 11
5980.955708507317
 21
7221.110139941123
 31
0.0
  0
LINE
  5
14842
330
747D
100
AcDbEntity
  8
寸法
 48
50.0
100
AcDbLine
 10
5955.252704552266
 20
7183.530689012511
 30
0.0
 11
5925.491372560842
 21
7183.530689012511
 31
0.0
  0
LINE
  5
14843
330
747D
100
AcDbEntity
  8
寸法
 48
50.0
100
AcDbLine
 10
5955.252704552266
 20
7152.220530360344
 30
0.0
 11
5955.252704552266
 21
7183.530689012511
 31
0.0
  0
LINE
  5
14844
330
747D
100
AcDbEntity
  8
寸法
 48
50.0
100
AcDbLine
 10
6006.658712462369
 20
7152.220530360344
 30
0.0
 11
5955.252704552266
 21
7152.220530360344
 31
0.0
  0
TEXT
  5
149A1
330
747D
100
AcDbEntity
  8
部品1
100
AcDbText
 10
6233.686645730735
 20
2014.21966086888
 30
0.0
 40
135.0
  1
正面図
  7
STYLE2
100
AcDbText
  0
LWPOLYLINE
  5
149A2
330
747D
100
AcDbEntity
  8
部品1
100
AcDbPolyline
 90
        4
 70
     1
 43
0.0
 10
6143.161241992779
 20
2207.113190087403
 10
6143.161241992779
 20
1967.220868541871
 10
6906.631908221219
 20
1967.220868541871
 10
6906.631908221219
 20
2207.113190087403
  0
TEXT
  5
149A3
330
747D
100
AcDbEntity
  8
部品1
100
AcDbText
 10
9758.404725223863
 20
2014.21966086888
 30
0.0
 40
135.0
  1
側面図
  7
STYLE2
100
AcDbText
  0
LWPOLYLINE
  5
149A4
330
747D
100
AcDbEntity
  8
部品1
100
AcDbPolyline
 90
        4
 70
     1
 43
0.0
 10
9668.958623800257
 20
2207.113190087403
 10
9668.958623800257
 20
1967.22086854187
 10
10432.42929002869
 20
1967.22086854187
 10
10432.42929002869
 20
2207.113190087403
  0
LINE
  5
149E3
330
747D
100
AcDbEntity
  8
部品1
100
AcDbLine
 10
5629.896575106992
 20
3142.000000000004
 30
0.0
 11
7419.896575106992
 21
3142.00000000002
 31
0.0
  0
LINE
  5
14A32
330
747D
100
AcDbEntity
  8
細線
100
AcDbLine
 10
6858.896575106992
 20
7322.114889232229
 30
0.0
 11
6843.896575106988
 21
7322.114889232226
 31
0.0
  0
LINE
  5
14A33
330
747D
100
AcDbEntity
  8
細線
100
AcDbLine
 10
6843.896575106987
 20
7315.114889232226
 30
0.0
 11
6843.896575106988
 21
7322.114889232226
 31
0.0
  0
LINE
  5
14A58
330
747D
100
AcDbEntity
  8
細線
100
AcDbLine
 10
6843.896575106994
 20
7328.114889232229
 30
0.0
 11
6837.896575106992
 21
7328.114889232229
 31
0.0
  0
LINE
  5
14AA3
330
747D
100
AcDbEntity
  8
細線
 48
50.0
100
AcDbLine
 10
7357.896575106973
 20
7310.114889232226
 30
0.0
 11
7359.896575106974
 21
7310.114889232226
 31
0.0
  0
LINE
  5
14AC7
330
747D
100
AcDbEntity
  8
破線
 48
10.0
100
AcDbLine
 10
6549.896575106967
 20
7385.614889232184
 30
0.0
 11
6549.896575106973
 21
8145.114889232237
 31
0.0
  0
LINE
  5
14AC8
330
747D
100
AcDbEntity
  8
破線
 48
10.0
100
AcDbLine
 10
6499.89657510697
 20
7385.614889232183
 30
0.0
 11
6499.896575106967
 21
8145.114889232237
 31
0.0
  0
LINE
  5
14ADA
330
747D
100
AcDbEntity
  8
細線
100
AcDbLine
 10
6936.896575106977
 20
7356.114889232228
 30
0.0
 11
6936.896575106975
 21
7328.114889232231
 31
0.0
  0
LINE
  5
14ADC
330
747D
100
AcDbEntity
  8
細線
100
AcDbLine
 10
6921.896575106976
 20
7356.114889232228
 30
0.0
 11
6906.896575106974
 21
7328.114889232231
 31
0.0
  0
LINE
  5
14AE0
330
747D
100
AcDbEntity
  8
細線
100
AcDbLine
 10
6681.396575107012
 20
7292.114889232305
 30
0.0
 11
6673.896575107017
 21
7315.114889232233
 31
0.0
  0
LINE
  5
14AE1
330
747D
100
AcDbEntity
  8
細線
100
AcDbLine
 10
6621.396575107012
 20
7292.114889232315
 30
0.0
 11
6628.896575107018
 21
7315.114889232233
 31
0.0
  0
LINE
  5
14C0C
330
747D
100
AcDbEntity
  8
部品1
100
AcDbLine
 10
7363.396575106978
 20
7385.614889232231
 30
0.0
 11
5686.396575106893
 21
7385.614889232136
 31
0.0
  0
LINE
  5
14C0D
330
747D
100
AcDbEntity
  8
破線
 48
10.0
100
AcDbLine
 10
7339.896575106978
 20
7409.114889232229
 30
0.0
 11
6549.89657510697
 21
7409.114889232185
 31
0.0
  0
LINE
  5
14C0E
330
747D
100
AcDbEntity
  8
破線
 48
10.0
100
AcDbLine
 10
6499.89657510697
 20
7409.114889232181
 30
0.0
 11
5709.896575106985
 21
7409.114889232134
 31
0.0
  0
LINE
  5
14C1E
330
747D
100
AcDbEntity
  8
部品1
100
AcDbLine
 10
7363.396575107008
 20
8145.114889232232
 30
0.0
 11
7363.396575106975
 21
7385.614889232233
 31
0.0
  0
LINE
  5
14C1F
330
747D
100
AcDbEntity
  8
破線
 48
10.0
100
AcDbLine
 10
7339.896575107009
 20
8145.114889232232
 30
0.0
 11
7339.89657510698
 21
7409.114889232229
 31
0.0
  0
LINE
  5
14C20
330
747D
100
AcDbEntity
  8
部品1
 48
50.0
100
AcDbLine
 10
7363.396575106978
 20
7385.614889232231
 30
0.0
 11
7391.896575106976
 21
7357.114889232232
 31
0.0
  0
LINE
  5
14C31
330
747D
100
AcDbEntity
  8
部品1
100
AcDbLine
 10
5686.396575106959
 20
8145.114889232138
 30
0.0
 11
5686.396575106988
 21
7385.614889232229
 31
0.0
  0
LINE
  5
14C32
330
747D
100
AcDbEntity
  8
破線
 48
10.0
100
AcDbLine
 10
5709.896575106956
 20
8145.114889232138
 30
0.0
 11
5709.896575106986
 21
7409.114889232134
 31
0.0
  0
LINE
  5
14C33
330
747D
100
AcDbEntity
  8
部品1
 48
50.0
100
AcDbLine
 10
5686.396575106988
 20
7385.614889232231
 30
0.0
 11
5657.89657510699
 21
7357.114889232232
 31
0.0
  0
LINE
  5
14C5B
330
747D
100
AcDbEntity
  8
細線
100
AcDbLine
 10
5689.89657510699
 20
7262.114889232098
 30
0.0
 11
5689.89657510699
 21
7258.114889232146
 31
0.0
  0
DIMENSION
  5
14D62
330
747D
100
AcDbEntity
  8
寸法
100
AcDbDimension
  2
*D25
 10
6452.703078813034
 20
7926.067778989147
 30
0.0
 11
6037.743637225268
 21
7926.067778989147
 31
0.0
 70
   160
 71
     5
 42
853.0000000000118
  3
INABA_S40G
100
AcDbAlignedDimension
 13
5658.396575107
 23
8145.114889232132
 33
0.0
 14
6511.396575107013
 24
8145.114889232127
 34
0.0
100
AcDbRotatedDimension
1001
ACAD
1000
DSTYLE
1002
{
1002
}
  0
LINE
  5
14D86
330
747D
100
AcDbEntity
  8
細線
100
AcDbLine
 10
5689.896575106992
 20
4932.000000000003
 30
0.0
 11
7359.896575106993
 21
4932.000000000001
 31
0.0
  0
TEXT
  5
14DEF
330
747D
100
AcDbEntity
  8
文字
 62
     7
 48
50.0
100
AcDbText
 10
14641.2525855784
 20
871.1744590657925
 30
0.0
 40
100.0
  1
～一般型・多雪地型～
  7
STYLE2
100
AcDbText
  0
TEXT
  5
15A0C
330
747D
100
AcDbEntity
  8
文字
 62
     7
 48
50.0
100
AcDbText
 10
13583.11819016568
 20
8720.013745883727
 30
0.0
 40
100.0
  1
アンカープレート
  7
STYLE1
100
AcDbText
  0
TEXT
  5
15A0D
330
747D
100
AcDbEntity
  8
文字
 62
     7
 48
50.0
100
AcDbText
 10
15022.63965474514
 20
8720.013745883722
 30
0.0
 40
100.0
  1
F12            2.3
  7
STYLE1
100
AcDbText
  0
LINE
  5
15A0E
330
747D
100
AcDbEntity
  8
仕様書枠
 48
50.0
100
AcDbLine
 10
16307.19999999999
 20
10049.6
 30
0.0
 11
13127.19999999999
 21
10049.6
 31
0.0
  0
LINE
  5
15A0F
330
747D
100
AcDbEntity
  8
仕様書枠
 48
50.0
100
AcDbLine
 10
16307.19999999999
 20
11409.6
 30
0.0
 11
13127.2
 21
11409.6
 31
0.0
  0
LINE
  5
15A10
330
747D
100
AcDbEntity
  8
仕様書枠
 48
50.0
100
AcDbLine
 10
16307.19999999999
 20
8349.600000000002
 30
0.0
 11
16307.2
 21
11409.6
 31
0.0
  0
LINE
  5
15A11
330
747D
100
AcDbEntity
  8
仕様書枠
 48
50.0
100
AcDbLine
 10
14785.2
 20
11409.59999999999
 30
0.0
 11
14785.2
 21
8689.600000000005
 31
0.0
  0
LINE
  5
15A12
330
747D
100
AcDbEntity
  8
仕様書枠
 48
50.0
100
AcDbLine
 10
13490.2
 20
11409.6
 30
0.0
 11
13490.20000000001
 21
8689.600000000003
 31
0.0
  0
LINE
  5
15A13
330
747D
100
AcDbEntity
  8
仕様書枠
 48
50.0
100
AcDbLine
 10
16307.19999999999
 20
11239.6
 30
0.0
 11
13127.2
 21
11239.6
 31
0.0
  0
LINE
  5
15A14
330
747D
100
AcDbEntity
  8
仕様書枠
 48
50.0
100
AcDbLine
 10
16307.19999999999
 20
10899.6
 30
0.0
 11
13127.2
 21
10899.6
 31
0.0
  0
LINE
  5
15A15
330
747D
100
AcDbEntity
  8
仕様書枠
 48
50.0
100
AcDbLine
 10
16307.19999999999
 20
11069.6
 30
0.0
 11
13127.2
 21
11069.6
 31
0.0
  0
LINE
  5
15A16
330
747D
100
AcDbEntity
  8
仕様書枠
 48
50.0
100
AcDbLine
 10
16307.19999999999
 20
10559.6
 30
0.0
 11
13127.19999999999
 21
10559.6
 31
0.0
  0
LINE
  5
15A17
330
747D
100
AcDbEntity
  8
仕様書枠
 48
50.0
100
AcDbLine
 10
16307.19999999999
 20
10389.6
 30
0.0
 11
13127.19999999999
 21
10389.6
 31
0.0
  0
LINE
  5
15A18
330
747D
100
AcDbEntity
  8
仕様書枠
 48
50.0
100
AcDbLine
 10
16307.19999999999
 20
10729.6
 30
0.0
 11
13127.19999999999
 21
10729.6
 31
0.0
  0
TEXT
  5
15A19
330
747D
100
AcDbEntity
  8
文字
 62
     7
 48
50.0
100
AcDbText
 10
13197.42518560407
 20
11270.01374588372
 30
0.0
 40
100.0
  1
品番
  7
STYLE1
100
AcDbText
  0
TEXT
  5
15A1A
330
747D
100
AcDbEntity
  8
文字
 62
     7
 48
50.0
100
AcDbText
 10
13271.19032244792
 20
11100.01374588373
 30
0.0
 40
100.0
  1
1
  7
STYLE1
100
AcDbText
  0
TEXT
  5
15A1B
330
747D
100
AcDbEntity
  8
文字
 62
     7
 48
50.0
100
AcDbText
 10
13271.19032244792
 20
10930.01374588373
 30
0.0
 40
100.0
  1
2
  7
STYLE1
100
AcDbText
  0
TEXT
  5
15A1C
330
747D
100
AcDbEntity
  8
文字
 62
     7
 48
50.0
100
AcDbText
 10
13271.19032244792
 20
10590.01374588373
 30
0.0
 40
100.0
  1
4
  7
STYLE1
100
AcDbText
  0
TEXT
  5
15A1D
330
747D
100
AcDbEntity
  8
文字
 62
     7
 48
50.0
100
AcDbText
 10
13271.19032244792
 20
10760.01374588373
 30
0.0
 40
100.0
  1
3
  7
STYLE1
100
AcDbText
  0
TEXT
  5
15A1E
330
747D
100
AcDbEntity
  8
文字
 62
     7
 48
50.0
100
AcDbText
 10
13732.03840939434
 20
11270.01374588372
 30
0.0
 40
100.0
  1
部　　品　　名
  7
STYLE1
100
AcDbText
  0
TEXT
  5
15A1F
330
747D
100
AcDbEntity
  8
文字
 62
     7
 48
50.0
100
AcDbText
 10
14859.79774614482
 20
11270.01374588372
 30
0.0
 40
100.0
  1
材料（材質）　　単位mm
  7
STYLE1
100
AcDbText
  0
TEXT
  5
15A20
330
747D
100
AcDbEntity
  8
文字
 62
     7
 48
50.0
100
AcDbText
 10
13583.11819016569
 20
11100.01374588373
 30
0.0
 40
100.0
  1
土台枠
  7
STYLE1
100
AcDbText
  0
TEXT
  5
15A21
330
747D
100
AcDbEntity
  8
文字
 62
     7
 48
50.0
100
AcDbText
 10
13583.1181901657
 20
10760.01374588372
 30
0.0
 40
100.0
  1
柱
  7
STYLE1
100
AcDbText
  0
TEXT
  5
15A22
330
747D
100
AcDbEntity
  8
文字
 62
     7
 48
50.0
100
AcDbText
 10
13583.11819016569
 20
10420.01374588372
 30
0.0
 40
100.0
  1
鴨居
  7
STYLE1
100
AcDbText
  0
TEXT
  5
15A23
330
747D
100
AcDbEntity
  8
文字
 62
     7
 48
50.0
100
AcDbText
 10
13583.11819016569
 20
10250.01374588373
 30
0.0
 40
100.0
  1
桁後
  7
STYLE1
100
AcDbText
  0
TEXT
  5
15A24
330
747D
100
AcDbEntity
  8
文字
 62
     7
 48
50.0
100
AcDbText
 10
13271.19032244792
 20
10420.01374588372
 30
0.0
 40
100.0
  1
5
  7
STYLE1
100
AcDbText
  0
TEXT
  5
15A25
330
747D
100
AcDbEntity
  8
文字
 62
     7
 48
50.0
100
AcDbText
 10
13583.11819016569
 20
10080.01374588372
 30
0.0
 40
100.0
  1
妻板左右
  7
STYLE1
100
AcDbText
  0
TEXT
  5
15A27
330
747D
100
AcDbEntity
  8
文字
 62
     7
 48
50.0
100
AcDbText
 10
13248.77747366447
 20
9570.013745883727
 30
0.0
 40
100.0
  1
10
  7
STYLE1
100
AcDbText
  0
TEXT
  5
15A28
330
747D
100
AcDbEntity
  8
文字
 62
     7
 48
50.0
100
AcDbText
 10
13583.11819016568
 20
9400.013745883729
 30
0.0
 40
100.0
  1
壁パネル
  7
STYLE1
100
AcDbText
  0
TEXT
  5
15A29
330
747D
100
AcDbEntity
  8
文字
 62
     7
 48
50.0
100
AcDbText
 10
13583.11819016569
 20
9740.013745883729
 30
0.0
 40
100.0
  1
屋根パネル
  7
STYLE1
100
AcDbText
  0
TEXT
  5
15A2B
330
747D
100
AcDbEntity
  8
文字
 62
     7
 48
50.0
100
AcDbText
 10
13583.11819016569
 20
9910.013745883727
 30
0.0
 40
100.0
  1
鼻隠シ前後
  7
STYLE1
100
AcDbText
  0
TEXT
  5
15A2C
330
747D
100
AcDbEntity
  8
文字
 62
     7
 48
50.0
100
AcDbText
 10
13271.19032244792
 20
9910.01374588373
 30
0.0
 40
100.0
  1
8
  7
STYLE1
100
AcDbText
  0
TEXT
  5
15A2D
330
747D
100
AcDbEntity
  8
文字
 62
     7
 48
50.0
100
AcDbText
 10
13271.19032244792
 20
9740.013745883729
 30
0.0
 40
100.0
  1
9
  7
STYLE1
100
AcDbText
  0
TEXT
  5
15A2E
330
747D
100
AcDbEntity
  8
文字
 62
     7
 48
50.0
100
AcDbText
 10
13271.19032244792
 20
10080.01374588373
 30
0.0
 40
100.0
  1
7
  7
STYLE1
100
AcDbText
  0
TEXT
  5
15A2F
330
747D
100
AcDbEntity
  8
文字
 62
     7
 48
50.0
100
AcDbText
 10
13271.19032244792
 20
10250.01374588373
 30
0.0
 40
100.0
  1
6
  7
STYLE1
100
AcDbText
  0
LINE
  5
15A30
330
747D
100
AcDbEntity
  8
仕様書枠
 48
50.0
100
AcDbLine
 10
16307.19999999999
 20
9709.6
 30
0.0
 11
13127.19999999999
 21
9709.600000000001
 31
0.0
  0
LINE
  5
15A31
330
747D
100
AcDbEntity
  8
仕様書枠
 48
50.0
100
AcDbLine
 10
16307.19999999999
 20
9369.599999999998
 30
0.0
 11
13127.19999999999
 21
9369.600000000001
 31
0.0
  0
LINE
  5
15A32
330
747D
100
AcDbEntity
  8
仕様書枠
 48
50.0
100
AcDbLine
 10
16307.19999999999
 20
9539.599999999998
 30
0.0
 11
13127.19999999999
 21
9539.6
 31
0.0
  0
LINE
  5
15A33
330
747D
100
AcDbEntity
  8
仕様書枠
 48
50.0
100
AcDbLine
 10
16307.19999999999
 20
10219.6
 30
0.0
 11
13127.2
 21
10219.6
 31
0.0
  0
LINE
  5
15A34
330
747D
100
AcDbEntity
  8
仕様書枠
 48
50.0
100
AcDbLine
 10
16307.19999999999
 20
9879.599999999999
 30
0.0
 11
13127.19999999999
 21
9879.600000000001
 31
0.0
  0
TEXT
  5
15A35
330
747D
100
AcDbEntity
  8
文字
 62
     7
 48
50.0
100
AcDbText
 10
13248.77747366447
 20
9400.013745883727
 30
0.0
 40
100.0
  1
11
  7
STYLE1
100
AcDbText
  0
LINE
  5
15A37
330
747D
100
AcDbEntity
  8
仕様書枠
 48
50.0
100
AcDbLine
 10
16307.19999999999
 20
9199.599999999998
 30
0.0
 11
13127.19999999999
 21
9199.600000000001
 31
0.0
  0
LINE
  5
15A38
330
747D
100
AcDbEntity
  8
仕様書枠
 48
50.0
100
AcDbLine
 10
16307.19999999999
 20
8859.6
 30
0.0
 11
13127.19999999999
 21
8859.600000000002
 31
0.0
  0
TEXT
  5
15A3A
330
747D
100
AcDbEntity
  8
文字
 62
     7
 48
50.0
100
AcDbText
 10
13248.77747366447
 20
9060.013745883729
 30
0.0
 40
100.0
  1
13
  7
STYLE1
100
AcDbText
  0
TEXT
  5
15A3B
330
747D
100
AcDbEntity
  8
文字
 62
     7
 48
50.0
100
AcDbText
 10
13248.77747366447
 20
9230.013745883729
 30
0.0
 40
100.0
  1
12
  7
STYLE1
100
AcDbText
  0
TEXT
  5
15A3C
330
747D
100
AcDbEntity
  8
文字
 62
     7
 48
50.0
100
AcDbText
 10
15022.63965474517
 20
11100.01374588372
 30
0.0
 40
100.0
  1
F12            1.2
  7
STYLE1
100
AcDbText
  0
TEXT
  5
15A3D
330
747D
100
AcDbEntity
  8
文字
 62
     7
 48
50.0
100
AcDbText
 10
15022.63965474518
 20
10760.01374588372
 30
0.0
 40
100.0
  1
F12            1.0
  7
STYLE1
100
AcDbText
  0
TEXT
  5
15A3E
330
747D
100
AcDbEntity
  8
文字
 62
     7
 48
50.0
100
AcDbText
 10
15022.63965474517
 20
10420.01374588372
 30
0.0
 40
100.0
  1
Y10            1.0
  7
STYLE1
100
AcDbText
  0
TEXT
  5
15A3F
330
747D
100
AcDbEntity
  8
文字
 62
     7
 48
50.0
100
AcDbText
 10
15022.63965474516
 20
10250.01374588372
 30
0.0
 40
100.0
  1
Y10            1.0
  7
STYLE1
100
AcDbText
  0
TEXT
  5
15A40
330
747D
100
AcDbEntity
  8
文字
 62
     7
 48
50.0
100
AcDbText
 10
15022.63965474517
 20
10080.01374588372
 30
0.0
 40
100.0
  1
Y10            0.7
  7
STYLE1
100
AcDbText
  0
TEXT
  5
15A41
330
747D
100
AcDbEntity
  8
文字
 62
     7
 48
50.0
100
AcDbText
 10
15022.63965474516
 20
9910.013745883725
 30
0.0
 40
100.0
  1
Y10            0.7
  7
STYLE1
100
AcDbText
  0
TEXT
  5
15A42
330
747D
100
AcDbEntity
  8
文字
 62
     7
 48
50.0
100
AcDbText
 10
15022.63965474517
 20
9740.013745883725
 30
0.0
 40
100.0
  1
Y10            0.5
  7
STYLE1
100
AcDbText
  0
TEXT
  5
15A43
330
747D
100
AcDbEntity
  8
文字
 62
     7
 48
50.0
100
AcDbText
 10
15022.63965474515
 20
9400.013745883725
 30
0.0
 40
100.0
  1
F12            0.6
  7
STYLE1
100
AcDbText
  0
LINE
  5
15A47
330
747D
100
AcDbEntity
  8
仕様書枠
 48
50.0
100
AcDbLine
 10
16307.19999999998
 20
8689.600000000003
 30
0.0
 11
13127.19999999999
 21
8689.600000000003
 31
0.0
  0
LINE
  5
15A48
330
747D
100
AcDbEntity
  8
仕様書枠
 48
50.0
100
AcDbLine
 10
16307.19999999998
 20
8519.600000000002
 30
0.0
 11
13127.19999999999
 21
8519.600000000004
 31
0.0
  0
TEXT
  5
15A4A
330
747D
100
AcDbEntity
  8
文字
 62
     7
 48
50.0
100
AcDbText
 10
13229.83081656553
 20
8550.013745883731
 30
0.0
 40
100.0
  1
F12→溶融亜鉛めっき鋼板(JIS G 3302)
  7
STYLE1
100
AcDbText
  0
TEXT
  5
15A4B
330
747D
100
AcDbEntity
  8
文字
 62
     7
 48
50.0
100
AcDbText
 10
13229.83081656553
 20
8380.013745883731
 30
0.0
 40
100.0
  1
Y10→溶融亜鉛-5％アルミニウム合金めっき鋼板(JIS G 3317)
 41
0.9
  7
STYLE1
100
AcDbText
  0
LINE
  5
15A4D
330
747D
100
AcDbEntity
  8
仕様書枠
 48
50.0
100
AcDbLine
 10
13127.2
 20
11409.6
 30
0.0
 11
13127.19999999999
 21
8349.600000000002
 31
0.0
  0
LINE
  5
15A50
330
747D
100
AcDbEntity
  8
仕様書枠
 48
50.0
100
AcDbLine
 10
16307.19999999999
 20
9029.6
 30
0.0
 11
13127.19999999999
 21
9029.600000000002
 31
0.0
  0
TEXT
  5
15A51
330
747D
100
AcDbEntity
  8
文字
 62
     7
 48
50.0
100
AcDbText
 10
13583.1181901657
 20
10590.01374588373
 30
0.0
 40
100.0
  1
床パネル
 41
0.9
  7
STYLE1
100
AcDbText
  0
TEXT
  5
15A52
330
747D
100
AcDbEntity
  8
文字
 62
     7
 48
50.0
100
AcDbText
 10
13583.11819016569
 20
10930.01374588372
 30
0.0
 40
100.0
  1
根太
  7
STYLE1
100
AcDbText
  0
TEXT
  5
15A53
330
747D
100
AcDbEntity
  8
文字
 62
     7
 48
50.0
100
AcDbText
 10
13248.77747366447
 20
8890.013745883729
 30
0.0
 40
100.0
  1
14
  7
STYLE1
100
AcDbText
  0
TEXT
  5
15A55
330
747D
100
AcDbEntity
  8
文字
 62
     7
 48
50.0
100
AcDbText
 10
15022.63965474516
 20
10930.01374588372
 30
0.0
 40
100.0
  1
F12            1.2
  7
STYLE1
100
AcDbText
  0
TEXT
  5
15A56
330
747D
100
AcDbEntity
  8
文字
 62
     7
 48
50.0
100
AcDbText
 10
15022.63965474517
 20
10590.01374588372
 30
0.0
 40
100.0
  1
F12            1.0
  7
STYLE1
100
AcDbText
  0
TEXT
  5
15A76
330
747D
100
AcDbEntity
  8
文字
 62
     7
 48
50.0
100
AcDbText
 10
14491.96323844892
 20
483.8967129911411
 30
0.0
 40
160.0
  1
ＮＸＮ－２５Ｓ
  7
STYLE2
100
AcDbText
  0
TEXT
  5
15A89
330
747D
100
AcDbEntity
  8
文字
 62
     7
 48
50.0
100
AcDbText
 10
15022.63965474515
 20
9230.013745883725
 30
0.0
 40
100.0
  1
F12            0.7
  7
STYLE1
100
AcDbText
  0
TEXT
  5
15A8A
330
747D
100
AcDbEntity
  8
文字
 62
     7
 48
50.0
100
AcDbText
 10
13583.11819016568
 20
9230.013745883729
 30
0.0
 40
100.0
  1
正面パネル
  7
STYLE1
100
AcDbText
  0
TEXT
  5
15A8B
330
747D
100
AcDbEntity
  8
文字
 62
     7
 48
50.0
100
AcDbText
 10
15022.63965474515
 20
9060.013745883725
 30
0.0
 40
100.0
  1
F12            0.8
  7
STYLE1
100
AcDbText
  0
TEXT
  5
15A8C
330
747D
100
AcDbEntity
  8
文字
 62
     7
 48
50.0
100
AcDbText
 10
13583.11819016568
 20
9060.013745883729
 30
0.0
 40
100.0
  1
扉
  7
STYLE1
100
AcDbText
  0
TEXT
  5
15A8D
330
747D
100
AcDbEntity
  8
文字
 62
     7
 48
50.0
100
AcDbText
 10
15022.63965474515
 20
8890.013745883727
 30
0.0
 40
100.0
  1
F12            0.6
  7
STYLE1
100
AcDbText
  0
TEXT
  5
15A8E
330
747D
100
AcDbEntity
  8
文字
 62
     7
 48
50.0
100
AcDbText
 10
13583.11819016568
 20
8890.013745883731
 30
0.0
 40
100.0
  1
棚板
  7
STYLE1
100
AcDbText
  0
LINE
  5
15A9A
330
747D
100
AcDbEntity
  8
細線
 48
50.0
100
AcDbLine
 10
9908.193956914475
 20
4940.0
 30
0.0
 11
9908.193956914475
 21
3150.0
 31
0.0
  0
LINE
  5
15A9B
330
747D
100
AcDbEntity
  8
細線
 48
50.0
100
AcDbLine
 10
9893.193956914474
 20
4940.0
 30
0.0
 11
9893.193956914474
 21
3150.0
 31
0.0
  0
LINE
  5
15A9C
330
747D
100
AcDbEntity
  8
細線
 48
50.0
100
AcDbLine
 10
10033.19395691447
 20
4940.0
 30
0.0
 11
10033.19395691447
 21
3150.0
 31
0.0
  0
LINE
  5
15A9D
330
747D
100
AcDbEntity
  8
細線
 48
50.0
100
AcDbLine
 10
10048.19395691447
 20
4940.0
 30
0.0
 11
10048.19395691447
 21
3150.0
 31
0.0
  0
LINE
  5
15A9E
330
747D
100
AcDbEntity
  8
細線
 48
50.0
100
AcDbLine
 10
10188.19395691447
 20
4940.0
 30
0.0
 11
10188.19395691447
 21
3150.0
 31
0.0
  0
LINE
  5
15A9F
330
747D
100
AcDbEntity
  8
細線
 48
50.0
100
AcDbLine
 10
10173.19395691447
 20
4940.0
 30
0.0
 11
10173.19395691447
 21
3150.0
 31
0.0
  0
LINE
  5
15AA0
330
747D
100
AcDbEntity
  8
細線
 48
50.0
100
AcDbLine
 10
9753.193956914474
 20
4940.0
 30
0.0
 11
9753.193956914474
 21
3150.0
 31
0.0
  0
LINE
  5
15AA1
330
747D
100
AcDbEntity
  8
細線
 48
50.0
100
AcDbLine
 10
9768.193956914474
 20
4940.0
 30
0.0
 11
9768.193956914474
 21
3150.0
 31
0.0
  0
LINE
  5
15AA2
330
747D
100
AcDbEntity
  8
細線
 48
50.0
100
AcDbLine
 10
9628.193956914474
 20
4940.0
 30
0.0
 11
9628.193956914474
 21
3150.0
 31
0.0
  0
LINE
  5
15AA3
330
747D
100
AcDbEntity
  8
細線
 48
50.0
100
AcDbLine
 10
9613.193956914475
 20
4940.0
 30
0.0
 11
9613.193956914475
 21
3150.0
 31
0.0
  0
LINE
  5
15AA4
330
747D
100
AcDbEntity
  8
細線
 48
50.0
100
AcDbLine
 10
9473.193956914474
 20
4940.0
 30
0.0
 11
9473.193956914474
 21
3150.0
 31
0.0
  0
LINE
  5
15AA5
330
747D
100
AcDbEntity
  8
細線
 48
50.0
100
AcDbLine
 10
9488.193956914475
 20
4940.0
 30
0.0
 11
9488.193956914475
 21
3150.0
 31
0.0
  0
LINE
  5
18FE5
330
747D
100
AcDbEntity
  8
部品1
100
AcDbLine
 10
9303.238943271436
 20
5173.717735334267
 30
0.0
 11
10798.30583377594
 21
5118.050841327565
 31
0.0
  0
LINE
  5
18FE6
330
747D
100
AcDbEntity
  8
部品1
100
AcDbLine
 10
9311.036521516429
 20
5032.781025068967
 30
0.0
 11
10780.35765745432
 21
4993.162643453187
 31
0.0
  0
LINE
  5
18FE9
330
747D
100
AcDbEntity
  8
細線
 48
50.0
100
AcDbLine
 10
9328.693956914476
 20
5172.399676375405
 30
0.0
 11
9323.404855358965
 21
5032.31404374805
 31
0.0
  0
LINE
  5
18FEA
330
747D
100
AcDbEntity
  8
細線
 48
50.0
100
AcDbLine
 10
10772.69395691447
 20
5119.377022653722
 30
0.0
 11
10767.94627402647
 21
4993.631250162977
 31
0.0
  0
LINE
  5
1982C
330
747D
100
AcDbEntity
  8
部品1
 48
50.0
100
AcDbLine
 10
9295.878242827582
 20
5166.593546164693
 30
0.0
 11
9296.258502605395
 21
5146.666581718282
 31
0.0
  0
LINE
  5
1982D
330
747D
100
AcDbEntity
  8
部品1
 48
50.0
100
AcDbLine
 10
9299.32727471164
 20
5143.091300224809
 30
0.0
 11
9301.031176203006
 21
5053.800803518162
 31
0.0
  0
LINE
  5
1982F
330
747D
100
AcDbEntity
  8
細線
 48
50.0
100
AcDbLine
 10
9296.733380015288
 20
5146.017081841361
 30
0.0
 11
10802.36936476045
 21
5089.802920818959
 31
0.0
  0
LINE
  5
19830
330
747D
100
AcDbEntity
  8
細線
 48
50.0
100
AcDbLine
 10
9301.493855252575
 20
5053.155570143498
 30
0.0
 11
10791.49751968321
 21
5012.75629478743
 31
0.0
  0
LINE
  5
19831
330
747D
100
AcDbEntity
  8
部品1
 48
50.0
100
AcDbLine
 10
9304.099948309247
 20
5050.22552202469
 30
0.0
 11
9304.301900929678
 21
5039.642486631597
 31
0.0
  0
ARC
  5
19832
330
747D
100
AcDbEntity
  8
部品1
 48
50.0
100
AcDbCircle
 10
9302.876968655921
 20
5166.727100572121
 30
0.0
 40
7.0
100
AcDbArc
 50
87.03587545295627
 51
181.093224029279
  0
ARC
  5
19833
330
747D
100
AcDbEntity
  8
部品1
 48
50.0
100
AcDbCircle
 10
9311.300626758017
 20
5039.776041039026
 30
0.0
 40
7.0
100
AcDbArc
 50
181.0932240292862
 51
267.8377559870786
  0
ARC
  5
19835
330
747D
100
AcDbEntity
  8
部品1
100
AcDbCircle
 10
9301.100494382813
 20
5050.168284421507
 30
0.0
 40
3.0
100
AcDbArc
 50
1.093224029286912
 51
80.18775403152167
  0
ARC
  5
19836
330
747D
100
AcDbEntity
  8
部品1
100
AcDbCircle
 10
9296.32782078521
 20
5143.034062621626
 30
0.0
 40
3.0
100
AcDbArc
 50
1.093224029279533
 51
80.18775403159015
  0
ARC
  5
19837
330
747D
100
AcDbEntity
  8
部品1
100
AcDbCircle
 10
9296.95837518823
 20
5146.679937159023
 30
0.0
 40
0.7
100
AcDbArc
 50
181.0932240292223
 51
260.1877540315805
  0
ARC
  5
19838
330
747D
100
AcDbEntity
  8
部品1
100
AcDbCircle
 10
9301.731048785839
 20
5053.814158958903
 30
0.0
 40
0.7
100
AcDbArc
 50
181.0932240292252
 51
260.1877540315805
  0
LINE
  5
1983C
330
747D
100
AcDbEntity
  8
部品1
 48
50.0
100
AcDbLine
 10
10804.90785972517
 20
5110.351195892643
 30
0.0
 11
10802.8772385342
 21
5090.406154634864
 31
0.0
  0
LINE
  5
1983D
330
747D
100
AcDbEntity
  8
部品1
 48
50.0
100
AcDbLine
 10
10799.52467204972
 20
5087.095520561955
 30
0.0
 11
10792.01789278488
 21
5013.362899816943
 31
0.0
  0
LINE
  5
1983E
330
747D
100
AcDbEntity
  8
部品1
 48
50.0
100
AcDbLine
 10
10788.6653263004
 20
5010.052265744031
 30
0.0
 11
10787.58576326066
 21
4999.448648750473
 31
0.0
  0
ARC
  5
1983F
330
747D
100
AcDbEntity
  8
部品1
 48
50.0
100
AcDbCircle
 10
10797.94385916042
 20
5111.060206565419
 30
0.0
 40
7.0
100
AcDbArc
 50
354.1866997665259
 51
87.03587545295638
  0
ARC
  5
19840
330
747D
100
AcDbEntity
  8
部品1
 48
50.0
100
AcDbCircle
 10
10780.6217626959
 20
5000.157659423246
 30
0.0
 40
7.0
100
AcDbArc
 50
267.8377559870788
 51
354.1866997665298
  0
ARC
  5
19841
330
747D
100
AcDbEntity
  8
部品1
100
AcDbCircle
 10
10791.64989797101
 20
5009.748404027128
 30
0.0
 40
3.0
100
AcDbArc
 50
95.09216976421097
 51
174.1866997665351
  0
ARC
  5
19842
330
747D
100
AcDbEntity
  8
部品1
100
AcDbCircle
 10
10802.50924372033
 20
5086.791658845052
 30
0.0
 40
3.0
100
AcDbArc
 50
95.09216976431478
 51
174.1866997665315
  0
ARC
  5
19843
330
747D
100
AcDbEntity
  8
部品1
100
AcDbCircle
 10
10802.18083847773
 20
5090.477055702141
 30
0.0
 40
0.7
100
AcDbArc
 50
275.0921697642604
 51
354.1866997665291
  0
ARC
  5
19844
330
747D
100
AcDbEntity
  8
部品1
100
AcDbCircle
 10
10791.32149272841
 20
5013.433800884218
 30
0.0
 40
0.7
100
AcDbArc
 50
275.0921697642539
 51
354.1866997666923
  0
DIMENSION
  5
19878
330
747D
100
AcDbEntity
  8
寸法
 48
50.0
100
AcDbDimension
  2
*D26
 10
10805.69395691447
 20
5573.657453579304
 30
0.0
 11
11011.74120100896
 21
5573.657453579304
 31
0.0
 70
   160
 71
     5
 42
80.0
  3
INABA_S40G
100
AcDbAlignedDimension
 13
10725.69395691447
 23
5121.810679611654
 33
0.0
 14
10805.69395691447
 24
5120.0
 34
0.0
100
AcDbRotatedDimension
1001
ACAD
1000
DSTYLE
1002
{
1070
   174
1070
     0
1070
   272
1070
     1
1070
   288
1070
     0
1070
   341
1005
0
1002
}
  0
DIMENSION
  5
19A46
330
747D
100
AcDbEntity
  8
寸法
 48
50.0
100
AcDbDimension
  2
*D27
 10
8703.427705202869
 20
5196.82249089752
 30
0.0
 11
8712.105448854991
 21
5426.658729913714
 31
0.0
 70
   160
 71
     5
 42
141.0
  3
INABA_S40G
100
AcDbAlignedDimension
 13
9311.036521516429
 23
5032.781025068967
 33
0.0
 14
9316.356355668384
 24
5173.68063246585
 34
0.0
 50
87.83775598709235
100
AcDbRotatedDimension
1001
ACAD
1000
DSTYLE
1002
{
1070
   174
1070
     0
1070
   272
1070
     1
1070
   288
1070
     0
1070
   341
1005
0
1002
}
  0
LINE
  5
1B03B
330
747D
100
AcDbEntity
  8
部品1
100
AcDbLine
 10
6344.896575106992
 20
4932.000000000002
 30
0.0
 11
6344.896575106992
 21
3149.00000000001
 31
0.0
  0
LINE
  5
1B049
330
747D
100
AcDbEntity
  8
部品1
100
AcDbLine
 10
6858.896575106992
 20
4932.000000000002
 30
0.0
 11
6858.896575106993
 21
3156.500000000015
 31
0.0
  0
LINE
  5
1B556
330
747D
100
AcDbEntity
  8
細線
100
AcDbLine
 10
6244.896575106992
 20
4932.000000000002
 30
0.0
 11
6244.896575106992
 21
3149.000000000009
 31
0.0
  0
LINE
  5
1B557
330
747D
100
AcDbEntity
  8
細線
100
AcDbLine
 10
6174.896575106991
 20
4932.000000000002
 30
0.0
 11
6174.896575106991
 21
3149.000000000008
 31
0.0
  0
LINE
  5
1B558
330
747D
100
AcDbEntity
  8
細線
100
AcDbLine
 10
6104.896575106992
 20
4932.000000000002
 30
0.0
 11
6104.896575106991
 21
3149.000000000008
 31
0.0
  0
LINE
  5
1B559
330
747D
100
AcDbEntity
  8
細線
100
AcDbLine
 10
6034.896575106992
 20
4932.000000000002
 30
0.0
 11
6034.896575106991
 21
3149.000000000007
 31
0.0
  0
LINE
  5
1B55A
330
747D
100
AcDbEntity
  8
細線
100
AcDbLine
 10
5964.896575106991
 20
4932.000000000002
 30
0.0
 11
5964.89657510699
 21
3149.000000000006
 31
0.0
  0
LINE
  5
1B55B
330
747D
100
AcDbEntity
  8
細線
100
AcDbLine
 10
5894.896575106992
 20
4932.000000000002
 30
0.0
 11
5894.896575106991
 21
3149.000000000005
 31
0.0
  0
LINE
  5
1B55D
330
747D
100
AcDbEntity
  8
部品1
100
AcDbLine
 10
5850.896575106991
 20
4932.000000000003
 30
0.0
 11
5850.896575106993
 21
3149.000000000006
 31
0.0
  0
LINE
  5
1B55E
330
747D
100
AcDbEntity
  8
部品1
100
AcDbLine
 10
5800.896575106991
 20
4932.000000000003
 30
0.0
 11
5800.896575106992
 21
3149.000000000005
 31
0.0
  0
LINE
  5
1B560
330
747D
100
AcDbEntity
  8
細線
100
AcDbLine
 10
5842.896575106991
 20
4932.000000000003
 30
0.0
 11
5842.896575106993
 21
3149.000000000006
 31
0.0
  0
LINE
  5
1B561
330
747D
100
AcDbEntity
  8
細線
100
AcDbLine
 10
5808.896575106991
 20
4932.000000000003
 30
0.0
 11
5808.896575106992
 21
3149.000000000005
 31
0.0
  0
LINE
  5
1B562
330
747D
100
AcDbEntity
  8
細線
100
AcDbLine
 10
6756.396575106991
 20
4932.000000000002
 30
0.0
 11
6756.396575106993
 21
3156.500000000015
 31
0.0
  0
LINE
  5
1B563
330
747D
100
AcDbEntity
  8
細線
100
AcDbLine
 10
6686.396575106991
 20
4932.000000000002
 30
0.0
 11
6686.396575106993
 21
3156.500000000015
 31
0.0
  0
LINE
  5
1B564
330
747D
100
AcDbEntity
  8
細線
100
AcDbLine
 10
6616.396575106993
 20
4932.000000000002
 30
0.0
 11
6616.396575106993
 21
3156.500000000015
 31
0.0
  0
LINE
  5
1B565
330
747D
100
AcDbEntity
  8
細線
100
AcDbLine
 10
6546.396575106992
 20
4932.000000000002
 30
0.0
 11
6546.396575106993
 21
3156.500000000015
 31
0.0
  0
LINE
  5
1B566
330
747D
100
AcDbEntity
  8
細線
100
AcDbLine
 10
6476.396575106992
 20
4932.000000000002
 30
0.0
 11
6476.396575106993
 21
3156.500000000015
 31
0.0
  0
LINE
  5
1B567
330
747D
100
AcDbEntity
  8
細線
100
AcDbLine
 10
6406.396575106992
 20
4932.000000000002
 30
0.0
 11
6406.396575106993
 21
3156.500000000015
 31
0.0
  0
LINE
  5
1B594
330
747D
100
AcDbEntity
  8
細線
100
AcDbLine
 10
7298.896575106993
 20
4932.000000000002
 30
0.0
 11
7298.896575106993
 21
3156.500000000021
 31
0.0
  0
LINE
  5
1B595
330
747D
100
AcDbEntity
  8
細線
100
AcDbLine
 10
7228.896575106992
 20
4932.000000000002
 30
0.0
 11
7228.896575106992
 21
3156.500000000021
 31
0.0
  0
LINE
  5
1B596
330
747D
100
AcDbEntity
  8
細線
100
AcDbLine
 10
7158.896575106993
 20
4932.000000000002
 30
0.0
 11
7158.896575106993
 21
3156.500000000021
 31
0.0
  0
LINE
  5
1B597
330
747D
100
AcDbEntity
  8
細線
100
AcDbLine
 10
7088.896575106993
 20
4932.000000000002
 30
0.0
 11
7088.896575106993
 21
3156.500000000021
 31
0.0
  0
LINE
  5
1B598
330
747D
100
AcDbEntity
  8
細線
100
AcDbLine
 10
7018.896575106992
 20
4932.000000000002
 30
0.0
 11
7018.896575106992
 21
3156.500000000021
 31
0.0
  0
LINE
  5
1B599
330
747D
100
AcDbEntity
  8
細線
100
AcDbLine
 10
6948.896575106992
 20
4932.000000000002
 30
0.0
 11
6948.896575106992
 21
3156.500000000021
 31
0.0
  0
LINE
  5
1B9FE
330
747D
100
AcDbEntity
  8
部品1
 48
50.0
100
AcDbLine
 10
5724.896575106992
 20
4105.500000000011
 30
0.0
 11
5777.896575106992
 21
4105.500000000012
 31
0.0
  0
LINE
  5
1BA4E
330
747D
100
AcDbEntity
  8
部品1
 48
50.0
100
AcDbLine
 10
9900.693956914476
 20
5305.86813910128
 30
0.0
 11
10200.69395691447
 21
5305.86813910128
 31
0.0
  0
LINE
  5
1BA4F
330
747D
100
AcDbEntity
  8
部品1
 48
50.0
100
AcDbLine
 10
10200.69395691447
 20
5305.86813910128
 30
0.0
 11
10200.69395691447
 21
5284.26813910128
 31
0.0
  0
TEXT
  5
1BA51
330
747D
100
AcDbEntity
  8
部品1
 48
50.0
100
AcDbText
 10
9888.961792138204
 20
5341.752161253713
 30
0.0
 40
120.0
  1
1000
  7
STYLE1
100
AcDbText
  0
TEXT
  5
1BA52
330
747D
100
AcDbEntity
  8
部品1
 48
50.0
100
AcDbText
 10
10377.78680420234
 20
5204.25090303543
 30
0.0
 40
120.0
  1
71
 50
90.0
  7
STYLE1
100
AcDbText
  0
ARC
  5
1BAB8
330
747D
100
AcDbEntity
  8
部品1
 48
0.01
100
AcDbCircle
 10
6906.896575106992
 20
4972.5
 30
0.0
 40
2.0
100
AcDbArc
 50
180.0
 51
270.0
  0
ARC
  5
1BAB9
330
747D
100
AcDbEntity
  8
部品1
 48
0.01
100
AcDbCircle
 10
6906.896575106992
 20
5004.0
 30
0.0
 40
2.0
100
AcDbArc
 50
90.0
 51
180.0
  0
ARC
  5
1BABA
330
747D
100
AcDbEntity
  8
部品1
 48
0.01
100
AcDbCircle
 10
7082.896575106992
 20
4972.5
 30
0.0
 40
2.0
100
AcDbArc
 50
270.0
 51
0.0
  0
ARC
  5
1BABB
330
747D
100
AcDbEntity
  8
部品1
 48
0.01
100
AcDbCircle
 10
7082.896575106992
 20
5004.0
 30
0.0
 40
2.0
100
AcDbArc
 50
0.0
 51
90.0
  0
LINE
  5
1BABC
330
747D
100
AcDbEntity
  8
細線
100
AcDbLine
 10
6994.896575106993
 20
4976.5
 30
0.0
 11
6920.896575106993
 21
4976.5
 31
0.0
  0
LINE
  5
1BABD
330
747D
100
AcDbEntity
  8
細線
100
AcDbLine
 10
6994.896575106992
 20
4999.500000000001
 30
0.0
 11
7068.896575106991
 21
4999.500000000001
 31
0.0
  0
LINE
  5
1BABE
330
747D
100
AcDbEntity
  8
細線
100
AcDbLine
 10
7068.896575106991
 20
4976.5
 30
0.0
 11
6994.896575106992
 21
4976.5
 31
0.0
  0
LINE
  5
1BABF
330
747D
100
AcDbEntity
  8
細線
100
AcDbLine
 10
6920.896575106993
 20
4999.500000000001
 30
0.0
 11
6994.896575106992
 21
4999.500000000001
 31
0.0
  0
LINE
  5
1BAC0
330
747D
100
AcDbEntity
  8
細線
100
AcDbLine
 10
6920.896575106993
 20
4976.5
 30
0.0
 11
6920.896575106993
 21
4999.500000000001
 31
0.0
  0
LINE
  5
1BAC1
330
747D
100
AcDbEntity
  8
細線
100
AcDbLine
 10
7068.896575106991
 20
4999.500000000001
 30
0.0
 11
7068.896575106991
 21
4976.5
 31
0.0
  0
LINE
  5
1BAC2
330
747D
100
AcDbEntity
  8
部品1
 48
0.01
100
AcDbLine
 10
6904.896575106993
 20
4972.5
 30
0.0
 11
6904.896575106992
 21
5004.0
 31
0.0
  0
LINE
  5
1BAC3
330
747D
100
AcDbEntity
  8
部品1
 48
0.01
100
AcDbLine
 10
7082.896575106992
 20
4970.5
 30
0.0
 11
6906.896575106992
 21
4970.5
 31
0.0
  0
LINE
  5
1BAC4
330
747D
100
AcDbEntity
  8
部品1
 48
0.01
100
AcDbLine
 10
7084.896575106992
 20
5004.0
 30
0.0
 11
7084.896575106992
 21
4972.5
 31
0.0
  0
LINE
  5
1BAC5
330
747D
100
AcDbEntity
  8
部品1
 48
0.01
100
AcDbLine
 10
6906.896575106992
 20
5006.0
 30
0.0
 11
7082.896575106992
 21
5006.0
 31
0.0
  0
LINE
  5
1BAD3
330
747D
100
AcDbEntity
  8
細線
100
AcDbLine
 10
7068.896575106991
 20
4993.5
 30
0.0
 11
6994.896575106992
 21
4993.5
 31
0.0
  0
LINE
  5
1BAD4
330
747D
100
AcDbEntity
  8
細線
100
AcDbLine
 10
7068.896575106991
 20
4987.5
 30
0.0
 11
6994.896575106992
 21
4987.5
 31
0.0
  0
LINE
  5
1BAD5
330
747D
100
AcDbEntity
  8
細線
100
AcDbLine
 10
7068.896575106993
 20
4981.5
 30
0.0
 11
6994.896575106992
 21
4981.5
 31
0.0
  0
LINE
  5
1BAD7
330
747D
100
AcDbEntity
  8
細線
100
AcDbLine
 10
7068.896575106991
 20
4993.5
 30
0.0
 11
6999.896575106991
 21
4993.5
 31
0.0
  0
LINE
  5
1BAE0
330
747D
100
AcDbEntity
  8
細線
100
AcDbLine
 10
6920.896575106993
 20
4993.5
 30
0.0
 11
6994.896575106992
 21
4993.5
 31
0.0
  0
LINE
  5
1BAE4
330
747D
100
AcDbEntity
  8
細線
100
AcDbLine
 10
6920.896575106993
 20
4981.499999999999
 30
0.0
 11
6994.896575106992
 21
4981.5
 31
0.0
  0
LINE
  5
1BAE5
330
747D
100
AcDbEntity
  8
細線
100
AcDbLine
 10
6920.896575106993
 20
4987.5
 30
0.0
 11
6994.896575106992
 21
4987.5
 31
0.0
  0
LINE
  5
1BDC6
330
747D
100
AcDbEntity
  8
細線
100
AcDbLine
 10
6994.896575106992
 20
4999.500000000001
 30
0.0
 11
6994.896575106993
 21
4976.5
 31
0.0
  0
LINE
  5
1BDD2
330
747D
100
AcDbEntity
  8
細線
100
AcDbLine
 10
6054.896575106992
 20
4999.500000000001
 30
0.0
 11
6054.89657510699
 21
4976.5
 31
0.0
  0
LINE
  5
1BDD3
330
747D
100
AcDbEntity
  8
細線
100
AcDbLine
 10
6128.896575106991
 20
4987.5
 30
0.0
 11
6054.896575106992
 21
4987.5
 31
0.0
  0
LINE
  5
1BDD4
330
747D
100
AcDbEntity
  8
細線
100
AcDbLine
 10
6128.896575106991
 20
4981.499999999999
 30
0.0
 11
6054.896575106992
 21
4981.5
 31
0.0
  0
LINE
  5
1BDD5
330
747D
100
AcDbEntity
  8
細線
100
AcDbLine
 10
6128.896575106991
 20
4993.5
 30
0.0
 11
6054.896575106992
 21
4993.5
 31
0.0
  0
LINE
  5
1BDD6
330
747D
100
AcDbEntity
  8
細線
100
AcDbLine
 10
5980.896575106992
 20
4993.5
 30
0.0
 11
6049.896575106991
 21
4993.5
 31
0.0
  0
LINE
  5
1BDD7
330
747D
100
AcDbEntity
  8
細線
100
AcDbLine
 10
5980.896575106991
 20
4981.5
 30
0.0
 11
6054.896575106992
 21
4981.5
 31
0.0
  0
LINE
  5
1BDD8
330
747D
100
AcDbEntity
  8
細線
100
AcDbLine
 10
5980.896575106992
 20
4987.5
 30
0.0
 11
6054.896575106992
 21
4987.5
 31
0.0
  0
LINE
  5
1BDD9
330
747D
100
AcDbEntity
  8
細線
100
AcDbLine
 10
5980.896575106992
 20
4993.5
 30
0.0
 11
6054.896575106992
 21
4993.5
 31
0.0
  0
LINE
  5
1BDDA
330
747D
100
AcDbEntity
  8
部品1
 48
0.01
100
AcDbLine
 10
6142.896575106991
 20
5006.0
 30
0.0
 11
5966.896575106992
 21
5006.0
 31
0.0
  0
LINE
  5
1BDDB
330
747D
100
AcDbEntity
  8
部品1
 48
0.01
100
AcDbLine
 10
5964.896575106991
 20
5004.0
 30
0.0
 11
5964.896575106991
 21
4972.5
 31
0.0
  0
LINE
  5
1BDDC
330
747D
100
AcDbEntity
  8
部品1
 48
0.01
100
AcDbLine
 10
5966.896575106992
 20
4970.5
 30
0.0
 11
6142.896575106991
 21
4970.5
 31
0.0
  0
LINE
  5
1BDDD
330
747D
100
AcDbEntity
  8
部品1
 48
0.01
100
AcDbLine
 10
6144.896575106991
 20
4972.5
 30
0.0
 11
6144.896575106992
 21
5004.0
 31
0.0
  0
LINE
  5
1BDDE
330
747D
100
AcDbEntity
  8
細線
100
AcDbLine
 10
5980.896575106992
 20
4999.500000000001
 30
0.0
 11
5980.896575106992
 21
4976.5
 31
0.0
  0
LINE
  5
1BDDF
330
747D
100
AcDbEntity
  8
細線
100
AcDbLine
 10
6128.896575106992
 20
4976.5
 30
0.0
 11
6128.896575106992
 21
4999.500000000001
 31
0.0
  0
LINE
  5
1BDE0
330
747D
100
AcDbEntity
  8
細線
100
AcDbLine
 10
6128.896575106992
 20
4999.500000000001
 30
0.0
 11
6054.896575106992
 21
4999.500000000001
 31
0.0
  0
LINE
  5
1BDE1
330
747D
100
AcDbEntity
  8
細線
100
AcDbLine
 10
5980.896575106992
 20
4976.5
 30
0.0
 11
6054.896575106992
 21
4976.5
 31
0.0
  0
LINE
  5
1BDE2
330
747D
100
AcDbEntity
  8
細線
100
AcDbLine
 10
6054.896575106992
 20
4999.500000000001
 30
0.0
 11
5980.896575106992
 21
4999.500000000001
 31
0.0
  0
LINE
  5
1BDE3
330
747D
100
AcDbEntity
  8
細線
100
AcDbLine
 10
6054.89657510699
 20
4976.5
 30
0.0
 11
6128.896575106992
 21
4976.5
 31
0.0
  0
ARC
  5
1BDE4
330
747D
100
AcDbEntity
  8
部品1
 48
0.01
100
AcDbCircle
 10
5966.896575106992
 20
5004.0
 30
0.0
 40
2.0
100
AcDbArc
 50
90.0
 51
180.0
  0
ARC
  5
1BDE5
330
747D
100
AcDbEntity
  8
部品1
 48
0.01
100
AcDbCircle
 10
5966.896575106992
 20
4972.5
 30
0.0
 40
2.0
100
AcDbArc
 50
180.0
 51
270.0
  0
ARC
  5
1BDE6
330
747D
100
AcDbEntity
  8
部品1
 48
0.01
100
AcDbCircle
 10
6142.896575106991
 20
5004.0
 30
0.0
 40
2.0
100
AcDbArc
 50
0.000000000000007
 51
90.0
  0
ARC
  5
1BDE7
330
747D
100
AcDbEntity
  8
部品1
 48
0.01
100
AcDbCircle
 10
6142.896575106991
 20
4972.5
 30
0.0
 40
2.0
100
AcDbArc
 50
270.0
 51
0.000000000000007
  0
LINE
  5
1BDE8
330
747D
100
AcDbEntity
  8
部品1
 48
50.0
100
AcDbLine
 10
7462.48815400056
 20
5175.000000000005
 30
0.0
 11
5587.304996213424
 21
5175.000000000006
 31
0.0
  0
LINE
  5
1BDE9
330
747D
100
AcDbEntity
  8
部品1
 48
50.0
100
AcDbLine
 10
7449.272830539527
 20
5034.000000000006
 30
0.0
 11
5600.520319674457
 21
5034.000000000005
 31
0.0
  0
LINE
  5
1BDEA
330
747D
100
AcDbEntity
  8
細線
 48
50.0
100
AcDbLine
 10
7467.857036885551
 20
5147.000000000005
 30
0.0
 11
5581.936113328431
 21
5147.000000000003
 31
0.0
  0
LINE
  5
1BDEB
330
747D
100
AcDbEntity
  8
細線
 48
50.0
100
AcDbLine
 10
7459.621006360714
 20
5054.800000000003
 30
0.0
 11
5590.17214385326
 21
5054.800000000006
 31
0.0
  0
LINE
  5
1BDEC
330
747D
100
AcDbEntity
  8
部品1
100
AcDbLine
 10
7469.476914091659
 20
5167.603474604764
 30
0.0
 11
7468.343516759313
 21
5147.627346622165
 31
0.0
  0
LINE
  5
1BDEE
330
747D
100
AcDbEntity
  8
細線
 48
50.0
100
AcDbLine
 10
7436.896575106992
 20
5175.000000000005
 30
0.0
 11
7436.896575106992
 21
5034.000000000005
 31
0.0
  0
LINE
  5
1BDEF
330
747D
100
AcDbEntity
  8
細線
 48
50.0
100
AcDbLine
 10
5612.896575106993
 20
5175.000000000005
 30
0.0
 11
5612.896575106993
 21
5034.000000000005
 31
0.0
  0
LINE
  5
1BE41
330
747D
100
AcDbEntity
  8
部品1
100
AcDbLine
 10
7456.906496437736
 20
5051.969939455105
 30
0.0
 11
7456.261590630626
 21
5040.603474604766
 31
0.0
  0
LINE
  5
1BE42
330
747D
100
AcDbEntity
  8
部品1
100
AcDbLine
 10
7465.142526962582
 20
5144.169939455108
 30
0.0
 11
7460.10748623447
 21
5055.427346622163
 31
0.0
  0
ARC
  5
1BE44
330
747D
100
AcDbEntity
  8
部品1
 48
50.0
100
AcDbCircle
 10
7468.137709858766
 20
5144.000000000005
 30
0.0
 40
3.0
100
AcDbArc
 50
97.65812720738011
 51
176.7526572096774
  0
ARC
  5
1BE45
330
747D
100
AcDbEntity
  8
部品1
 48
50.0
100
AcDbCircle
 10
7459.901679333923
 20
5051.800000000003
 30
0.0
 40
3.0
100
AcDbArc
 50
97.6581272073629
 51
176.7526572096767
  0
ARC
  5
1BE46
330
747D
100
AcDbEntity
  8
部品1
 48
50.0
100
AcDbCircle
 10
7459.408610225363
 20
5055.466999161687
 30
0.0
 40
0.7
100
AcDbArc
 50
277.6581272073433
 51
356.7526572097019
  0
ARC
  5
1BE47
330
747D
100
AcDbEntity
  8
部品1
 48
50.0
100
AcDbCircle
 10
7467.644640750204
 20
5147.66699916169
 30
0.0
 40
0.7
100
AcDbArc
 50
277.6581272073433
 51
356.7526572096275
  0
ARC
  5
1BE48
330
747D
100
AcDbEntity
  8
部品1
100
AcDbCircle
 10
7449.272830539527
 20
5041.000000000005
 30
0.0
 40
7.0
100
AcDbArc
 50
270.0
 51
356.7526572096773
  0
ARC
  5
1BE49
330
747D
100
AcDbEntity
  8
部品1
100
AcDbCircle
 10
7462.48815400056
 20
5168.000000000005
 30
0.0
 40
7.0
100
AcDbArc
 50
356.752657209676
 51
89.99999999999998
  0
ARC
  5
1BE4A
330
747D
100
AcDbEntity
  8
部品1
100
AcDbCircle
 10
5587.304996213424
 20
5168.000000000005
 30
0.0
 40
7.0
100
AcDbArc
 50
90.00000000000003
 51
183.247342790324
  0
ARC
  5
1BE4B
330
747D
100
AcDbEntity
  8
部品1
100
AcDbCircle
 10
5600.520319674457
 20
5041.000000000005
 30
0.0
 40
7.0
100
AcDbArc
 50
183.2473427903227
 51
270.0
  0
ARC
  5
1BE4C
330
747D
100
AcDbEntity
  8
部品1
 48
50.0
100
AcDbCircle
 10
5582.148509463779
 20
5147.66699916169
 30
0.0
 40
0.7
100
AcDbArc
 50
183.2473427903725
 51
262.3418727926567
  0
ARC
  5
1BE4D
330
747D
100
AcDbEntity
  8
部品1
 48
50.0
100
AcDbCircle
 10
5590.384539988622
 20
5055.466999161687
 30
0.0
 40
0.7
100
AcDbArc
 50
183.2473427902981
 51
262.3418727926567
  0
ARC
  5
1BE4E
330
747D
100
AcDbEntity
  8
部品1
 48
50.0
100
AcDbCircle
 10
5589.89147088006
 20
5051.800000000003
 30
0.0
 40
3.0
100
AcDbArc
 50
3.247342790323342
 51
82.34187279263712
  0
ARC
  5
1BE4F
330
747D
100
AcDbEntity
  8
部品1
 48
50.0
100
AcDbCircle
 10
5581.655440355217
 20
5144.000000000005
 30
0.0
 40
3.0
100
AcDbArc
 50
3.247342790322579
 51
82.34187279261989
  0
LINE
  5
1BE50
330
747D
100
AcDbEntity
  8
部品1
100
AcDbLine
 10
5584.650623251402
 20
5144.169939455108
 30
0.0
 11
5589.685663979513
 21
5055.427346622163
 31
0.0
  0
LINE
  5
1BE51
330
747D
100
AcDbEntity
  8
部品1
100
AcDbLine
 10
5592.886653776248
 20
5051.969939455105
 30
0.0
 11
5593.531559583357
 21
5040.603474604766
 31
0.0
  0
LINE
  5
1BE52
330
747D
100
AcDbEntity
  8
部品1
100
AcDbLine
 10
5580.316236122325
 20
5167.603474604764
 30
0.0
 11
5581.449633454671
 21
5147.627346622165
 31
0.0
  0
LINE
  5
1C310
330
747D
100
AcDbEntity
  8
細線
100
AcDbLine
 10
6244.896575106979
 20
7258.114889232243
 30
0.0
 11
6242.565036816212
 21
7263.114889232229
 31
0.0
  0
LINE
  5
1C316
330
747D
100
AcDbEntity
  8
細線
100
AcDbLine
 10
6242.565036816213
 20
7263.114889232229
 30
0.0
 11
6177.228113397738
 21
7263.114889232217
 31
0.0
  0
LINE
  5
1C318
330
747D
100
AcDbEntity
  8
細線
100
AcDbLine
 10
6174.896575106984
 20
7258.114889232217
 30
0.0
 11
6104.896575106984
 21
7258.114889232207
 31
0.0
  0
LINE
  5
1C319
330
747D
100
AcDbEntity
  8
細線
100
AcDbLine
 10
6034.896575106984
 20
7258.114889232198
 30
0.0
 11
5964.896575106984
 21
7258.114889232188
 31
0.0
  0
LINE
  5
1C31B
330
747D
100
AcDbEntity
  8
細線
100
AcDbLine
 10
5894.896575106985
 20
7258.114889232176
 30
0.0
 11
5680.88426845794
 21
7258.114889232145
 31
0.0
  0
LINE
  5
1C31C
330
747D
100
AcDbEntity
  8
細線
100
AcDbLine
 10
6174.896575106984
 20
7258.114889232262
 30
0.0
 11
6177.228113397752
 21
7263.114889232245
 31
0.0
  0
LINE
  5
1C31D
330
747D
100
AcDbEntity
  8
細線
100
AcDbLine
 10
6102.56503681621
 20
7263.114889232207
 30
0.0
 11
6037.228113397737
 21
7263.114889232196
 31
0.0
  0
LINE
  5
1C31E
330
747D
100
AcDbEntity
  8
細線
100
AcDbLine
 10
6104.896575106977
 20
7258.114889232222
 30
0.0
 11
6102.565036816209
 21
7263.114889232207
 31
0.0
  0
LINE
  5
1C31F
330
747D
100
AcDbEntity
  8
細線
100
AcDbLine
 10
6034.896575106983
 20
7258.11488923224
 30
0.0
 11
6037.22811339775
 21
7263.114889232226
 31
0.0
  0
LINE
  5
1C320
330
747D
100
AcDbEntity
  8
細線
100
AcDbLine
 10
5962.565036816211
 20
7263.114889232189
 30
0.0
 11
5897.228113397737
 21
7263.114889232177
 31
0.0
  0
LINE
  5
1C321
330
747D
100
AcDbEntity
  8
細線
100
AcDbLine
 10
5964.896575106978
 20
7258.114889232203
 30
0.0
 11
5962.565036816211
 21
7263.114889232189
 31
0.0
  0
LINE
  5
1C322
330
747D
100
AcDbEntity
  8
細線
100
AcDbLine
 10
5894.896575106983
 20
7258.114889232221
 30
0.0
 11
5897.228113397751
 21
7263.114889232205
 31
0.0
  0
LINE
  5
1C333
330
747D
100
AcDbEntity
  8
細線
100
AcDbLine
 10
5846.396575106989
 20
7276.11488923217
 30
0.0
 11
5846.396575106989
 21
7258.114889232146
 31
0.0
  0
LINE
  5
1C334
330
747D
100
AcDbEntity
  8
細線
100
AcDbLine
 10
5805.39657510699
 20
7276.114889232164
 30
0.0
 11
5805.39657510699
 21
7258.114889232146
 31
0.0
  0
LINE
  5
1C335
330
747D
100
AcDbEntity
  8
細線
100
AcDbLine
 10
5846.396575106989
 20
7276.11488923217
 30
0.0
 11
5805.39657510699
 21
7276.114889232164
 31
0.0
  0
ARC
  5
1C337
330
747D
100
AcDbEntity
  8
部品1
100
AcDbCircle
 10
5807.940730984267
 20
7257.614889232169
 30
0.0
 40
1.0
100
AcDbArc
 50
270.0
 51
19.47122063447127
  0
LINE
  5
1C339
330
747D
100
AcDbEntity
  8
部品1
 48
0.01
100
AcDbLine
 10
5800.896575106984
 20
7258.114889232169
 30
0.0
 11
5800.896575106984
 21
7257.114889232169
 31
0.0
  0
LINE
  5
1C33C
330
747D
100
AcDbEntity
  8
部品1
 48
0.01
100
AcDbLine
 10
5801.396575106984
 20
7256.614889232169
 30
0.0
 11
5807.940730984267
 21
7256.614889232167
 31
0.0
  0
ARC
  5
1C33D
330
747D
100
AcDbEntity
  8
部品1
 48
0.01
100
AcDbCircle
 10
5801.396575106984
 20
7257.114889232169
 30
0.0
 40
0.5
100
AcDbArc
 50
180.0
 51
270.0
  0
ARC
  5
1C33F
330
747D
100
AcDbEntity
  8
部品1
100
AcDbCircle
 10
5833.396575106984
 20
7266.614889232169
 30
0.0
 40
26.0
100
AcDbArc
 50
180.0
 51
199.4712206344713
  0
ARC
  5
1C341
330
747D
100
AcDbEntity
  8
部品1
 48
0.01
100
AcDbCircle
 10
5809.396575106983
 20
7271.614889232168
 30
0.0
 40
2.0
100
AcDbArc
 50
90.0
 51
180.0
  0
LINE
  5
1C343
330
747D
100
AcDbEntity
  8
部品1
100
AcDbLine
 10
5807.396575106984
 20
7266.614889232169
 30
0.0
 11
5807.396575106984
 21
7271.614889232168
 31
0.0
  0
ARC
  5
1C344
330
747D
100
AcDbEntity
  8
部品1
100
AcDbCircle
 10
5825.896575106984
 20
7282.414889232168
 30
0.0
 40
16.0
100
AcDbArc
 50
218.3930440192126
 51
254.0576313943716
  0
ARC
  5
1C346
330
747D
100
AcDbEntity
  8
部品1
100
AcDbCircle
 10
5811.004966731795
 20
7270.614889232168
 30
0.0
 40
3.0
100
AcDbArc
 50
38.39304401921267
 51
90.0
  0
LINE
  5
1C347
330
747D
100
AcDbEntity
  8
部品1
 48
0.01
100
AcDbLine
 10
5809.396575106983
 20
7273.614889232168
 30
0.0
 11
5811.004966731795
 21
7273.614889232168
 31
0.0
  0
ARC
  5
1C358
330
747D
100
AcDbEntity
  8
部品1
100
AcDbCircle
 10
5825.896575106984
 20
7282.414889232168
 30
0.0
 40
16.0
100
AcDbArc
 50
285.9423686056284
 51
321.6069559807873
  0
LINE
  5
1C35E
330
747D
100
AcDbEntity
  8
部品1
100
AcDbLine
 10
5829.467289321255
 20
7266.914889232168
 30
0.0
 11
5822.325860892711
 21
7266.914889232168
 31
0.0
  0
ARC
  5
1C360
330
747D
100
AcDbEntity
  8
部品1
100
AcDbCircle
 10
5829.467289321255
 20
7269.914889232168
 30
0.0
 40
3.0
100
AcDbArc
 50
270.0
 51
285.9423686056284
  0
ARC
  5
1C362
330
747D
100
AcDbEntity
  8
部品1
100
AcDbCircle
 10
5822.325860892711
 20
7269.914889232168
 30
0.0
 40
3.0
100
AcDbArc
 50
254.0576313943716
 51
270.0
  0
LINE
  5
1C363
330
747D
100
AcDbEntity
  8
部品1
 48
0.01
100
AcDbLine
 10
5842.396575106984
 20
7273.614889232168
 30
0.0
 11
5840.788183482172
 21
7273.614889232168
 31
0.0
  0
ARC
  5
1C366
330
747D
100
AcDbEntity
  8
部品1
100
AcDbCircle
 10
5840.788183482172
 20
7270.614889232168
 30
0.0
 40
3.0
100
AcDbArc
 50
90.0
 51
141.6069559807873
  0
ARC
  5
1C368
330
747D
100
AcDbEntity
  8
部品1
 48
0.01
100
AcDbCircle
 10
5842.396575106984
 20
7271.614889232168
 30
0.0
 40
2.0
100
AcDbArc
 50
0.0
 51
90.0
  0
LINE
  5
1C369
330
747D
100
AcDbEntity
  8
部品1
100
AcDbLine
 10
5844.396575106983
 20
7266.614889232169
 30
0.0
 11
5844.396575106983
 21
7271.614889232168
 31
0.0
  0
ARC
  5
1C36C
330
747D
100
AcDbEntity
  8
部品1
100
AcDbCircle
 10
5818.396575106984
 20
7266.614889232169
 30
0.0
 40
26.0
100
AcDbArc
 50
340.5287793655287
 51
0.0
  0
ARC
  5
1C36D
330
747D
100
AcDbEntity
  8
部品1
100
AcDbCircle
 10
5843.852419229699
 20
7257.614889232169
 30
0.0
 40
1.0
100
AcDbArc
 50
160.5287793655287
 51
270.0
  0
LINE
  5
1C36F
330
747D
100
AcDbEntity
  8
部品1
 48
0.01
100
AcDbLine
 10
5850.396575106984
 20
7256.614889232169
 30
0.0
 11
5843.784069676921
 21
7256.614889232167
 31
0.0
  0
LINE
  5
1C372
330
747D
100
AcDbEntity
  8
部品1
 48
0.01
100
AcDbLine
 10
5850.896575106983
 20
7258.114889232169
 30
0.0
 11
5850.896575106983
 21
7257.114889232169
 31
0.0
  0
LINE
  5
1C373
330
747D
100
AcDbEntity
  8
部品1
 48
0.01
100
AcDbLine
 10
5850.896575106983
 20
7258.114889232169
 30
0.0
 11
5850.896575106983
 21
7257.114889232169
 31
0.0
  0
ARC
  5
1C374
330
747D
100
AcDbEntity
  8
部品1
 48
0.01
100
AcDbCircle
 10
5850.396575106984
 20
7257.114889232169
 30
0.0
 40
0.5
100
AcDbArc
 50
270.0
 51
0.0
  0
LINE
  5
1C386
330
747D
100
AcDbEntity
  8
細線
100
AcDbLine
 10
6406.39657510699
 20
7292.114889232222
 30
0.0
 11
6408.728113397758
 21
7297.114889232208
 31
0.0
  0
LINE
  5
1C387
330
747D
100
AcDbEntity
  8
細線
100
AcDbLine
 10
6476.396575106985
 20
7292.114889232204
 30
0.0
 11
6474.065036816217
 21
7297.114889232189
 31
0.0
  0
LINE
  5
1C388
330
747D
100
AcDbEntity
  8
細線
100
AcDbLine
 10
6474.065036816218
 20
7297.114889232189
 30
0.0
 11
6408.728113397744
 21
7297.114889232178
 31
0.0
  0
LINE
  5
1C389
330
747D
100
AcDbEntity
  8
細線
100
AcDbLine
 10
6546.396575106989
 20
7292.114889232241
 30
0.0
 11
6548.728113397757
 21
7297.114889232226
 31
0.0
  0
LINE
  5
1C38A
330
747D
100
AcDbEntity
  8
細線
100
AcDbLine
 10
6616.396575106984
 20
7292.114889232222
 30
0.0
 11
6614.065036816215
 21
7297.114889232208
 31
0.0
  0
LINE
  5
1C38B
330
747D
100
AcDbEntity
  8
細線
100
AcDbLine
 10
6614.065036816217
 20
7297.114889232208
 30
0.0
 11
6548.728113397743
 21
7297.114889232197
 31
0.0
  0
LINE
  5
1C38C
330
747D
100
AcDbEntity
  8
細線
100
AcDbLine
 10
6686.396575106991
 20
7292.114889232262
 30
0.0
 11
6688.728113397758
 21
7297.114889232247
 31
0.0
  0
LINE
  5
1C38D
330
747D
100
AcDbEntity
  8
細線
100
AcDbLine
 10
6754.065036816219
 20
7297.114889232229
 30
0.0
 11
6688.728113397745
 21
7297.114889232218
 31
0.0
  0
LINE
  5
1C38E
330
747D
100
AcDbEntity
  8
細線
100
AcDbLine
 10
6756.396575106986
 20
7292.114889232244
 30
0.0
 11
6754.065036816218
 21
7297.114889232229
 31
0.0
  0
LINE
  5
1C3A4
330
747D
100
AcDbEntity
  8
細線
100
AcDbLine
 10
7298.896575106967
 20
7328.11488923224
 30
0.0
 11
7296.5650368162
 21
7333.114889232226
 31
0.0
  0
LINE
  5
1C3A5
330
747D
100
AcDbEntity
  8
細線
100
AcDbLine
 10
7296.5650368162
 20
7333.114889232226
 30
0.0
 11
7231.228113397726
 21
7333.114889232215
 31
0.0
  0
LINE
  5
1C3A6
330
747D
100
AcDbEntity
  8
細線
100
AcDbLine
 10
7228.896575106972
 20
7328.114889232257
 30
0.0
 11
7231.22811339774
 21
7333.114889232243
 31
0.0
  0
LINE
  5
1C3A7
330
747D
100
AcDbEntity
  8
細線
100
AcDbLine
 10
7156.565036816198
 20
7333.114889232205
 30
0.0
 11
7091.228113397725
 21
7333.114889232193
 31
0.0
  0
LINE
  5
1C3A8
330
747D
100
AcDbEntity
  8
細線
100
AcDbLine
 10
7158.896575106965
 20
7328.114889232219
 30
0.0
 11
7156.565036816198
 21
7333.114889232205
 31
0.0
  0
LINE
  5
1C3A9
330
747D
100
AcDbEntity
  8
細線
100
AcDbLine
 10
7088.896575106971
 20
7328.114889232238
 30
0.0
 11
7091.228113397739
 21
7333.114889232223
 31
0.0
  0
LINE
  5
1C3AA
330
747D
100
AcDbEntity
  8
細線
100
AcDbLine
 10
7016.565036816199
 20
7333.114889232184
 30
0.0
 11
6951.228113397725
 21
7333.114889232175
 31
0.0
  0
LINE
  5
1C3AB
330
747D
100
AcDbEntity
  8
細線
100
AcDbLine
 10
7018.896575106966
 20
7328.1148892322
 30
0.0
 11
7016.565036816199
 21
7333.114889232184
 31
0.0
  0
LINE
  5
1C3AC
330
747D
100
AcDbEntity
  8
細線
100
AcDbLine
 10
6948.896575106971
 20
7328.114889232217
 30
0.0
 11
6951.228113397739
 21
7333.114889232203
 31
0.0
  0
LINE
  5
1C3AD
330
747D
100
AcDbEntity
  8
細線
100
AcDbLine
 10
7228.89657510696
 20
7328.114889232228
 30
0.0
 11
7158.896575106961
 21
7328.114889232228
 31
0.0
  0
LINE
  5
1C3AE
330
747D
100
AcDbEntity
  8
細線
100
AcDbLine
 10
7088.896575106966
 20
7328.114889232228
 30
0.0
 11
7018.896575106954
 21
7328.114889232228
 31
0.0
  0
LINE
  5
1C3AF
330
747D
100
AcDbEntity
  8
細線
100
AcDbLine
 10
6948.896575106975
 20
7328.114889232228
 30
0.0
 11
6849.896575106995
 21
7328.114889232229
 31
0.0
  0
LINE
  5
1C3B0
330
747D
100
AcDbEntity
  8
細線
100
AcDbLine
 10
6686.396575106975
 20
7292.114889232229
 30
0.0
 11
6616.396575106981
 21
7292.114889232229
 31
0.0
  0
LINE
  5
1C3B1
330
747D
100
AcDbEntity
  8
細線
100
AcDbLine
 10
6546.396575106983
 20
7292.11488923223
 30
0.0
 11
6476.396575106971
 21
7292.11488923223
 31
0.0
  0
LINE
  5
1C3B2
330
747D
100
AcDbEntity
  8
細線
100
AcDbLine
 10
6406.396575106995
 20
7292.114889232232
 30
0.0
 11
6335.896575107001
 21
7292.114889232235
 31
0.0
  0
TEXT
  5
1C9E3
330
747D
100
AcDbEntity
  8
文字
 62
     7
 48
50.0
100
AcDbText
 10
13209.4053442172
 20
76.09434707649325
 30
0.0
 40
100.0
  1
○床面積 ： 2.45㎡(0.74坪) 　
  7
STYLE2
100
AcDbText
  0
TEXT
  5
1C9E4
330
747D
100
AcDbEntity
  8
文字
 62
     7
 48
50.0
100
AcDbText
 10
13209.4053442172
 20
228.5435242569015
 30
0.0
 40
100.0
  1
○有効開口寸法 ： 998×1770(mm)
  7
STYLE2
100
AcDbText
  0
LINE
  5
1CF26
330
747D
100
AcDbEntity
  8
部品1
100
AcDbLine
 10
7391.896575106999
 20
7730.114889232233
 30
0.0
 11
7419.896575106999
 21
7730.114889232233
 31
0.0
  0
LINE
  5
1CF27
330
747D
100
AcDbEntity
  8
部品1
100
AcDbLine
 10
5657.896575106973
 20
7730.114889232104
 30
0.0
 11
5629.896575106973
 21
7730.114889232104
 31
0.0
  0
LINE
  5
1CF28
330
747D
100
AcDbEntity
  8
部品1
 48
50.0
100
AcDbLine
 10
7363.396575106978
 20
7730.114889232233
 30
0.0
 11
5686.396575106979
 21
7730.11488923232
 31
0.0
  0
LINE
  5
1D09C
330
747D
100
AcDbEntity
  8
部品1
100
AcDbLine
 10
10250.69395691447
 20
4940.0
 30
0.0
 11
10250.69395691447
 21
3150.0
 31
0.0
  0
LINE
  5
1D09D
330
747D
100
AcDbEntity
  8
細線
 48
50.0
100
AcDbLine
 10
10593.19395691447
 20
4940.0
 30
0.0
 11
10593.19395691447
 21
3150.0
 31
0.0
  0
LINE
  5
1D09E
330
747D
100
AcDbEntity
  8
細線
 48
50.0
100
AcDbLine
 10
10608.19395691448
 20
4940.0
 30
0.0
 11
10608.19395691448
 21
3150.0
 31
0.0
  0
LINE
  5
1D09F
330
747D
100
AcDbEntity
  8
細線
 48
50.0
100
AcDbLine
 10
10468.19395691447
 20
4940.0
 30
0.0
 11
10468.19395691447
 21
3150.0
 31
0.0
  0
LINE
  5
1D0A0
330
747D
100
AcDbEntity
  8
細線
 48
50.0
100
AcDbLine
 10
10453.19395691448
 20
4940.0
 30
0.0
 11
10453.19395691448
 21
3150.0
 31
0.0
  0
LINE
  5
1D0A1
330
747D
100
AcDbEntity
  8
細線
 48
50.0
100
AcDbLine
 10
10313.19395691448
 20
4940.0
 30
0.0
 11
10313.19395691448
 21
3150.0
 31
0.0
  0
LINE
  5
1D0A2
330
747D
100
AcDbEntity
  8
細線
 48
50.0
100
AcDbLine
 10
10328.19395691447
 20
4940.0
 30
0.0
 11
10328.19395691447
 21
3150.0
 31
0.0
  0
LINE
  5
1D0A4
330
747D
100
AcDbEntity
  8
部品1
 48
50.0
100
AcDbLine
 10
10140.69395691447
 20
3100.0
 30
0.0
 11
10140.69395691447
 21
3000.0
 31
0.0
  0
LINE
  5
1D0A5
330
747D
100
AcDbEntity
  8
部品1
 48
50.0
100
AcDbLine
 10
9940.693956914474
 20
3100.0
 30
0.0
 11
9940.693956914474
 21
3000.0
 31
0.0
  0
LINE
  5
1D0AB
330
747D
100
AcDbEntity
  8
部品1
 48
50.0
100
AcDbLine
 10
9900.693956914476
 20
5305.86813910128
 30
0.0
 11
10200.69395691447
 21
5284.26813910128
 31
0.0
  0
LINE
  5
1D0C3
330
747D
100
AcDbEntity
  8
仕様書枠
 48
50.0
100
AcDbLine
 10
16307.19999999998
 20
8349.600000000002
 30
0.0
 11
13127.19999999999
 21
8349.600000000004
 31
0.0
  0
TEXT
  5
1D0C4
330
747D
100
AcDbEntity
  8
文字
 62
     7
 48
50.0
100
AcDbText
 10
13248.77747366447
 20
8720.013745883731
 30
0.0
 40
100.0
  1
15
  7
STYLE1
100
AcDbText
  0
TEXT
  5
1D0C5
330
747D
100
AcDbEntity
  8
文字
 62
     7
 48
50.0
100
AcDbText
 10
13583.11819016569
 20
9570.013745883727
 30
0.0
 40
100.0
  1
母屋中
  7
STYLE1
100
AcDbText
  0
TEXT
  5
1D0C6
330
747D
100
AcDbEntity
  8
文字
 62
     7
 48
50.0
100
AcDbText
 10
15022.63965474516
 20
9570.013745883725
 30
0.0
 40
100.0
  1
F12            1.0
  7
STYLE1
100
AcDbText
  0
DIMENSION
  5
1D99A
330
747D
100
AcDbEntity
  8
寸法
 48
50.0
100
AcDbDimension
  2
*D28
 10
7319.896575106993
 20
2513.952670699622
 30
0.0
 11
7419.896575106992
 21
2513.952670699622
 31
0.0
 70
   160
 71
     5
 42
199.9999999999982
  3
INABA_S40G
100
AcDbAlignedDimension
 13
7519.89657510699
 23
2799.999999999998
 33
0.0
 14
7319.896575106993
 24
2799.999999999999
 34
0.0
100
AcDbRotatedDimension
  0
LINE
  5
1D99B
330
747D
100
AcDbEntity
  8
破線
 48
5.0
100
AcDbLine
 10
7319.896575106992
 20
3000.0
 30
0.0
 11
7319.896575106993
 21
2799.999999999999
 31
0.0
  0
LINE
  5
1D99C
330
747D
100
AcDbEntity
  8
破線
 48
5.0
100
AcDbLine
 10
7519.896575106992
 20
3000.0
 30
0.0
 11
7519.89657510699
 21
2799.999999999998
 31
0.0
  0
LINE
  5
1D99D
330
747D
100
AcDbEntity
  8
破線
 48
5.0
100
AcDbLine
 10
7519.89657510699
 20
2799.999999999998
 30
0.0
 11
7319.896575106993
 21
2799.999999999999
 31
0.0
  0
LINE
  5
1D99E
330
747D
100
AcDbEntity
  8
破線
 48
5.0
100
AcDbLine
 10
5719.896575106993
 20
3000.000000000001
 30
0.0
 11
5719.896575106993
 21
2800.0
 31
0.0
  0
LINE
  5
1D99F
330
747D
100
AcDbEntity
  8
破線
 48
5.0
100
AcDbLine
 10
5719.896575106993
 20
2800.0
 30
0.0
 11
5519.896575106995
 21
2800.0
 31
0.0
  0
LINE
  5
1D9A0
330
747D
100
AcDbEntity
  8
破線
 48
5.0
100
AcDbLine
 10
5519.896575106994
 20
3000.000000000001
 30
0.0
 11
5519.896575106995
 21
2800.0
 31
0.0
  0
DIMENSION
  5
1D9B6
330
747D
100
AcDbEntity
  8
寸法
 48
50.0
100
AcDbDimension
  2
*D30
 10
9133.69395366784
 20
3000.0
 30
0.0
 11
9133.69395366784
 21
2900.000000000001
 31
0.0
 70
   160
 71
     5
 42
200.0000000000009
  3
INABA_S40G
100
AcDbAlignedDimension
 13
9283.193956914479
 23
2799.999999999999
 33
0.0
 14
9258.193956914476
 24
3000.0
 34
0.0
 50
90.0
100
AcDbRotatedDimension
1001
ACAD
1000
DSTYLE
1002
{
1070
   174
1070
     0
1070
   272
1070
     1
1070
   288
1070
     0
1070
   341
1005
0
1002
}
  0
LINE
  5
1D9B7
330
747D
100
AcDbEntity
  8
破線
 48
5.0
100
AcDbLine
 10
9483.193956914474
 20
2799.999999999998
 30
0.0
 11
9283.193956914479
 21
2799.999999999999
 31
0.0
  0
LINE
  5
1D9B8
330
747D
100
AcDbEntity
  8
破線
 48
5.0
100
AcDbLine
 10
9483.193956914476
 20
3000.0
 30
0.0
 11
9483.193956914474
 21
2799.999999999998
 31
0.0
  0
LINE
  5
1D9B9
330
747D
100
AcDbEntity
  8
破線
 48
5.0
100
AcDbLine
 10
9283.193956914477
 20
3000.0
 30
0.0
 11
9283.193956914479
 21
2799.999999999999
 31
0.0
  0
DIMENSION
  5
1D9BA
330
747D
100
AcDbEntity
  8
寸法
 48
50.0
100
AcDbDimension
  2
*D29
 10
9283.193956914479
 20
2513.952670699622
 30
0.0
 11
9383.193956914476
 21
2513.952670699622
 31
0.0
 70
   160
 71
     5
 42
199.9999999999963
  3
INABA_S40G
100
AcDbAlignedDimension
 13
9483.193956914474
 23
2799.999999999998
 33
0.0
 14
9283.193956914479
 24
2799.999999999999
 34
0.0
100
AcDbRotatedDimension
  0
LINE
  5
1D9E5
330
747D
100
AcDbEntity
  8
破線
 48
5.0
100
AcDbLine
 10
10798.19395691448
 20
3000.0
 30
0.0
 11
10798.19395691448
 21
2799.999999999998
 31
0.0
  0
LINE
  5
1D9E6
330
747D
100
AcDbEntity
  8
破線
 48
5.0
100
AcDbLine
 10
10798.19395691448
 20
2799.999999999998
 30
0.0
 11
10598.19395691448
 21
2799.999999999999
 31
0.0
  0
LINE
  5
1D9E7
330
747D
100
AcDbEntity
  8
破線
 48
5.0
100
AcDbLine
 10
10598.19395691448
 20
3000.0
 30
0.0
 11
10598.19395691448
 21
2799.999999999999
 31
0.0
  0
LINE
  5
1D9E8
330
747D
100
AcDbEntity
  8
細線
100
AcDbLine
 10
6323.896575106974
 20
7288.114889232227
 30
0.0
 11
6323.896575106975
 21
7292.114889232229
 31
0.0
  0
LINE
  5
1D9E9
330
747D
100
AcDbEntity
  8
細線
100
AcDbLine
 10
6323.896575106974
 20
7288.114889232227
 30
0.0
 11
6303.896575106985
 21
7288.114889232227
 31
0.0
  0
LINE
  5
1D9EA
330
747D
100
AcDbEntity
  8
細線
100
AcDbLine
 10
6303.896575106985
 20
7288.114889232227
 30
0.0
 11
6303.896575106994
 21
7322.114889232236
 31
0.0
  0
LINE
  5
1D9EB
330
747D
100
AcDbEntity
  8
細線
100
AcDbLine
 10
6344.896575106992
 20
7258.114889232242
 30
0.0
 11
6344.896575107
 21
7288.114889232241
 31
0.0
  0
LINE
  5
1D9EC
330
747D
100
AcDbEntity
  8
細線
100
AcDbLine
 10
6344.896575106999
 20
7288.114889232241
 30
0.0
 11
6329.896575106996
 21
7288.114889232239
 31
0.0
  0
LINE
  5
1D9ED
330
747D
100
AcDbEntity
  8
細線
100
AcDbLine
 10
6329.896575106995
 20
7281.114889232238
 30
0.0
 11
6329.896575106996
 21
7288.114889232239
 31
0.0
  0
LINE
  5
1D9EE
330
747D
100
AcDbEntity
  8
細線
100
AcDbLine
 10
6329.896575106976
 20
7292.114889232235
 30
0.0
 11
6323.896575106975
 21
7292.114889232235
 31
0.0
  0
LINE
  5
1D9EF
330
747D
100
AcDbEntity
  8
細線
100
AcDbLine
 10
6335.896575107001
 20
7291.414889232235
 30
0.0
 11
6335.896575107001
 21
7292.114889232235
 31
0.0
  0
ARC
  5
1D9F0
330
747D
100
AcDbEntity
  8
細線
100
AcDbCircle
 10
6333.896575107
 20
7291.414889232235
 30
0.0
 40
2.0
100
AcDbArc
 50
270.0
 51
0.0
  0
LINE
  5
1D9F1
330
747D
100
AcDbEntity
  8
細線
100
AcDbLine
 10
6331.896575107001
 20
7289.414889232233
 30
0.0
 11
6333.896575107001
 21
7289.414889232233
 31
0.0
  0
LINE
  5
1D9F2
330
747D
100
AcDbEntity
  8
細線
100
AcDbLine
 10
6329.896575107
 20
7291.414889232235
 30
0.0
 11
6329.896575107
 21
7292.114889232235
 31
0.0
  0
ARC
  5
1D9F3
330
747D
100
AcDbEntity
  8
細線
100
AcDbCircle
 10
6331.896575107
 20
7291.414889232235
 30
0.0
 40
2.0
100
AcDbArc
 50
180.0
 51
270.0
  0
LINE
  5
1D9F5
330
747D
100
AcDbEntity
  8
細線
100
AcDbLine
 10
6318.89657510699
 20
7315.114889232233
 30
0.0
 11
6318.896575106993
 21
7322.114889232236
 31
0.0
  0
ARC
  5
1D9F6
330
747D
100
AcDbEntity
  8
細線
100
AcDbCircle
 10
6139.896581606882
 20
7283.61488923222
 30
0.0
 40
6.0
100
AcDbArc
 50
204.6243183521779
 51
335.3756816478222
  0
LINE
  5
1D9F7
330
747D
100
AcDbEntity
  8
細線
100
AcDbLine
 10
6169.896575106909
 20
7258.114889232318
 30
0.0
 11
6162.396575106914
 21
7281.114889232249
 31
0.0
  0
LINE
  5
1D9F8
330
747D
100
AcDbEntity
  8
細線
100
AcDbLine
 10
6109.896575106909
 20
7258.11488923233
 30
0.0
 11
6117.396575106915
 21
7281.114889232249
 31
0.0
  0
ARC
  5
1D9F9
330
747D
100
AcDbEntity
  8
細線
100
AcDbCircle
 10
6651.396581606975
 20
7317.614889232233
 30
0.0
 40
6.0
100
AcDbArc
 50
204.6243183521779
 51
335.3756816478222
  0
ARC
  5
1D9FA
330
747D
100
AcDbEntity
  8
細線
100
AcDbCircle
 10
6845.896575106992
 20
7327.414889232229
 30
0.0
 40
2.0
100
AcDbArc
 50
180.0
 51
270.0
  0
LINE
  5
1D9FB
330
747D
100
AcDbEntity
  8
細線
100
AcDbLine
 10
6843.896575106994
 20
7327.41488923223
 30
0.0
 11
6843.896575106994
 21
7328.114889232229
 31
0.0
  0
LINE
  5
1D9FC
330
747D
100
AcDbEntity
  8
細線
100
AcDbLine
 10
6845.896575106994
 20
7325.414889232231
 30
0.0
 11
6847.896575106993
 21
7325.414889232231
 31
0.0
  0
ARC
  5
1D9FD
330
747D
100
AcDbEntity
  8
細線
100
AcDbCircle
 10
6847.896575106993
 20
7327.414889232229
 30
0.0
 40
2.0
100
AcDbArc
 50
270.0
 51
0.0
  0
LINE
  5
1D9FE
330
747D
100
AcDbEntity
  8
細線
100
AcDbLine
 10
6849.896575106993
 20
7327.41488923223
 30
0.0
 11
6849.896575106993
 21
7328.114889232229
 31
0.0
  0
LINE
  5
1DD51
330
747D
100
AcDbEntity
  8
細線
100
AcDbLine
 10
6318.896575106993
 20
7322.114889232236
 30
0.0
 11
6303.896575106993
 21
7322.114889232236
 31
0.0
  0
LINE
  5
1DD52
330
747D
100
AcDbEntity
  8
細線
100
AcDbLine
 10
6832.896575106992
 20
7351.61488923223
 30
0.0
 11
6832.896575106992
 21
7356.114889232225
 31
0.0
  0
MTEXT
  5
1DD75
330
747D
100
AcDbEntity
  8
寸法
 62
     7
 48
50.0
100
AcDbMText
 10
6097.611773179634
 20
8209.521158199263
 30
0.0
 40
96.0
 41
0.0
 71
     5
 72
     1
  1
棚 2段
  7
STYLE1
 73
     1
 44
1.0
1001
ACAD
1000
MTEXTBEGIN
1070
    73
1070
     1
1070
    44
1040
1.0
1070
    74
1070
     0
1000
MTEXTEND
  0
MTEXT
  5
1DD76
330
747D
100
AcDbEntity
  8
寸法
 62
     7
 48
50.0
100
AcDbMText
 10
6977.611773179633
 20
8209.52115819931
 30
0.0
 40
96.0
 41
0.0
 71
     5
 72
     1
  1
棚 2段
  7
STYLE1
 73
     1
 44
1.0
1001
ACAD
1000
MTEXTBEGIN
1070
    73
1070
     1
1070
    44
1040
1.0
1070
    74
1070
     0
1000
MTEXTEND
  0
LWPOLYLINE
  5
1DDC3
330
747D
100
AcDbEntity
  8
部品1
 48
50.0
100
AcDbPolyline
 90
        4
 70
     1
 43
0.0
 10
5749.946575106991
 20
4020.25000000001
 10
5752.846575106993
 20
4020.25000000001
 10
5752.846575106993
 20
4029.750000000011
 10
5749.946575106991
 20
4029.750000000011
  0
CIRCLE
  5
1DDC4
330
747D
100
AcDbEntity
  8
部品1
 48
50.0
100
AcDbCircle
 10
5751.396575106991
 20
4025.000000000011
 30
0.0
 40
9.0
  0
ARC
  5
1DDC5
330
747D
100
AcDbEntity
  8
細線
 48
50.0
100
AcDbCircle
 10
5751.396575106991
 20
4025.000000000011
 30
0.0
 40
4.0
100
AcDbArc
 50
111.2538091853132
 51
248.7461908146868
  0
ARC
  5
1DDC6
330
747D
100
AcDbEntity
  8
細線
 48
50.0
100
AcDbCircle
 10
5751.396575106991
 20
4025.000000000011
 30
0.0
 40
17.5
100
AcDbArc
 50
306.4837370612677
 51
233.5162629387323
  0
LINE
  5
1DDC7
330
747D
100
AcDbEntity
  8
細線
 48
50.0
100
AcDbLine
 10
5761.396575106989
 20
4001.141039419128
 30
0.0
 11
5761.396575106992
 21
4010.125525219369
 31
0.0
  0
LINE
  5
1DDC8
330
747D
100
AcDbEntity
  8
細線
 48
50.0
100
AcDbLine
 10
5741.396575106992
 20
4001.14103941913
 30
0.0
 11
5741.396575106992
 21
4010.125525219366
 31
0.0
  0
ARC
  5
1DDC9
330
747D
100
AcDbEntity
  8
細線
 48
50.0
100
AcDbCircle
 10
5751.396575106991
 20
4025.000000000011
 30
0.0
 40
26.5
100
AcDbArc
 50
249.332683506403
 51
290.6673164933835
  0
ARC
  5
1DDCA
330
747D
100
AcDbEntity
  8
細線
 48
50.0
100
AcDbCircle
 10
5760.396575106984
 20
4001.141039419128
 30
0.0
 40
1.0
100
AcDbArc
 50
290.667316493597
 51
359.9999999998958
  0
ARC
  5
1DDCB
330
747D
100
AcDbEntity
  8
細線
 48
50.0
100
AcDbCircle
 10
5742.396575106992
 20
4001.14103941913
 30
0.0
 40
1.0
100
AcDbArc
 50
180.0
 51
249.3326835066164
  0
ARC
  5
1DDCC
330
747D
100
AcDbEntity
  8
細線
 48
50.0
100
AcDbCircle
 10
5740.396575106991
 20
4010.125525219366
 30
0.0
 40
1.0
100
AcDbArc
 50
0.0
 51
53.51626293873231
  0
ARC
  5
1DDCD
330
747D
100
AcDbEntity
  8
細線
 48
50.0
100
AcDbCircle
 10
5762.396575106995
 20
4010.125525219369
 30
0.0
 40
1.0
100
AcDbArc
 50
126.4837370615282
 51
180.0
  0
ARC
  5
1DDCE
330
747D
100
AcDbEntity
  8
細線
 48
50.0
100
AcDbCircle
 10
5751.396575106991
 20
4025.000000000011
 30
0.0
 40
21.5
100
AcDbArc
 50
255.8014401250294
 51
284.1985598749706
  0
ARC
  5
1DDCF
330
747D
100
AcDbEntity
  8
細線
 48
50.0
100
AcDbCircle
 10
5751.396575106991
 20
4025.000000000011
 30
0.0
 40
16.5
100
AcDbArc
 50
251.9694646069326
 51
288.0305353930674
  0
LINE
  5
1DDD0
330
747D
100
AcDbEntity
  8
細線
 48
50.0
100
AcDbLine
 10
5756.896575106992
 20
4004.447627874204
 30
0.0
 11
5756.896575106992
 21
4009.025019561541
 31
0.0
  0
LINE
  5
1DDD1
330
747D
100
AcDbEntity
  8
細線
 48
50.0
100
AcDbLine
 10
5745.896575106992
 20
4004.447627874204
 30
0.0
 11
5745.896575106992
 21
4009.025019561539
 31
0.0
  0
ARC
  5
1DDD2
330
747D
100
AcDbEntity
  8
細線
 48
50.0
100
AcDbCircle
 10
5746.196575106995
 20
4009.025019561539
 30
0.0
 40
0.3
100
AcDbArc
 50
71.96946460693259
 51
180.0
  0
ARC
  5
1DDD3
330
747D
100
AcDbEntity
  8
細線
 48
50.0
100
AcDbCircle
 10
5756.596575106993
 20
4009.025019561541
 30
0.0
 40
0.3
100
AcDbArc
 50
0.0
 51
108.0305353930674
  0
ARC
  5
1DDD4
330
747D
100
AcDbEntity
  8
細線
 48
50.0
100
AcDbCircle
 10
5756.596575106989
 20
4004.447627874204
 30
0.0
 40
0.3
100
AcDbArc
 50
284.1985598747557
 51
0.0000000001042204
  0
ARC
  5
1DDD5
330
747D
100
AcDbEntity
  8
細線
 48
50.0
100
AcDbCircle
 10
5746.196575106995
 20
4004.447627874204
 30
0.0
 40
0.3
100
AcDbArc
 50
180.0
 51
255.8014401248145
  0
CIRCLE
  5
1DDD6
330
747D
100
AcDbEntity
  8
細線
 48
50.0
100
AcDbCircle
 10
5751.396575106991
 20
4025.000000000011
 30
0.0
 40
12.0
  0
ARC
  5
1DDD7
330
747D
100
AcDbEntity
  8
部品1
 48
50.0
100
AcDbCircle
 10
5751.396575106991
 20
4075.00000000001
 30
0.0
 40
8.5
100
AcDbArc
 50
114.315739171091
 51
245.684260828909
  0
CIRCLE
  5
1DDD8
330
747D
100
AcDbEntity
  8
細線
 48
50.0
100
AcDbCircle
 10
5751.396575106991
 20
4075.00000000001
 30
0.0
 40
4.5
  0
LWPOLYLINE
  5
1DDD9
330
747D
100
AcDbEntity
  8
部品1
 48
50.0
100
AcDbPolyline
 90
        2
 70
     0
 43
0.0
 10
5747.896575106992
 20
4093.674849396993
 10
5747.896575106992
 20
4082.745966692426
  0
CIRCLE
  5
1DDDA
330
747D
100
AcDbEntity
  8
部品1
 48
50.0
100
AcDbCircle
 10
5751.396575106991
 20
4075.00000000001
 30
0.0
 40
19.0
  0
LWPOLYLINE
  5
1DDDB
330
747D
100
AcDbEntity
  8
部品1
 48
50.0
100
AcDbPolyline
 90
        2
 70
     0
 43
0.0
 10
5747.896575106992
 20
4067.254033307595
 10
5747.896575106992
 20
4056.325150603028
  0
LWPOLYLINE
  5
1DDDC
330
747D
100
AcDbEntity
  8
部品1
 48
50.0
100
AcDbPolyline
 90
        2
 70
     0
 43
0.0
 10
5754.896575106992
 20
4082.745966692426
 10
5754.896575106992
 20
4093.674849396993
  0
ARC
  5
1DDDD
330
747D
100
AcDbEntity
  8
部品1
 48
50.0
100
AcDbCircle
 10
5751.396575106991
 20
4075.00000000001
 30
0.0
 40
8.5
100
AcDbArc
 50
294.315739171091
 51
65.68426082890896
  0
LWPOLYLINE
  5
1DDDE
330
747D
100
AcDbEntity
  8
部品1
 48
50.0
100
AcDbPolyline
 90
        2
 70
     0
 43
0.0
 10
5754.896575106992
 20
4056.325150603028
 10
5754.896575106992
 20
4067.254033307595
  0
ARC
  5
1DDDF
330
747D
100
AcDbEntity
  8
細線
 48
50.0
100
AcDbCircle
 10
5751.396575106991
 20
4075.00000000001
 30
0.0
 40
16.5
100
AcDbArc
 50
332.0012352654438
 51
27.99876473455621
  0
ARC
  5
1DDE0
330
747D
100
AcDbEntity
  8
細線
 48
50.0
100
AcDbCircle
 10
5751.396575106991
 20
4075.00000000001
 30
0.0
 40
14.0
100
AcDbArc
 50
326.407443611277
 51
33.59255638872305
  0
LINE
  5
1DDE1
330
747D
100
AcDbEntity
  8
細線
 48
50.0
100
AcDbLine
 10
5736.82777282266
 20
4082.745966692426
 30
0.0
 11
5739.734671317303
 21
4082.745966692426
 31
0.0
  0
LINE
  5
1DDE2
330
747D
100
AcDbEntity
  8
細線
 48
50.0
100
AcDbLine
 10
5736.82777282266
 20
4067.254033307595
 30
0.0
 11
5739.734671317303
 21
4067.254033307595
 31
0.0
  0
LINE
  5
1DDE3
330
747D
100
AcDbEntity
  8
細線
 48
50.0
100
AcDbLine
 10
5763.058478896681
 20
4082.745966692426
 30
0.0
 11
5765.965377391327
 21
4082.745966692426
 31
0.0
  0
LINE
  5
1DDE4
330
747D
100
AcDbEntity
  8
細線
 48
50.0
100
AcDbLine
 10
5763.058478896681
 20
4067.254033307595
 30
0.0
 11
5765.965377391327
 21
4067.254033307595
 31
0.0
  0
ARC
  5
1DDE5
330
747D
100
AcDbEntity
  8
細線
 48
50.0
100
AcDbCircle
 10
5751.396575106991
 20
4075.00000000001
 30
0.0
 40
14.0
100
AcDbArc
 50
146.4074436112769
 51
213.592556388723
  0
ARC
  5
1DDE6
330
747D
100
AcDbEntity
  8
細線
 48
50.0
100
AcDbCircle
 10
5751.396575106991
 20
4075.00000000001
 30
0.0
 40
16.5
100
AcDbArc
 50
152.0012352654438
 51
207.9987647345562
  0
ARC
  5
1DDE7
330
747D
100
AcDbEntity
  8
部品1
 48
50.0
100
AcDbCircle
 10
5724.896575106992
 20
4100.50000000001
 30
0.0
 40
5.0
100
AcDbArc
 50
90.0
 51
180.0
  0
ARC
  5
1DDE8
330
747D
100
AcDbEntity
  8
部品1
 48
50.0
100
AcDbCircle
 10
5724.896575106992
 20
3989.500000000011
 30
0.0
 40
5.0
100
AcDbArc
 50
180.0
 51
270.0
  0
ARC
  5
1DDE9
330
747D
100
AcDbEntity
  8
部品1
 48
50.0
100
AcDbCircle
 10
5777.896575106992
 20
3989.500000000011
 30
0.0
 40
5.0
100
AcDbArc
 50
270.0
 51
0.0
  0
ARC
  5
1DDEA
330
747D
100
AcDbEntity
  8
部品1
 48
50.0
100
AcDbCircle
 10
5777.896575106992
 20
4100.50000000001
 30
0.0
 40
5.0
100
AcDbArc
 50
0.0
 51
90.0
  0
LINE
  5
1DDEB
330
747D
100
AcDbEntity
  8
部品1
 48
50.0
100
AcDbLine
 10
5719.896575106992
 20
3989.500000000011
 30
0.0
 11
5719.896575106992
 21
4100.50000000001
 31
0.0
  0
LINE
  5
1DDEC
330
747D
100
AcDbEntity
  8
部品1
 48
50.0
100
AcDbLine
 10
5777.896575106992
 20
3984.500000000011
 30
0.0
 11
5724.896575106992
 21
3984.500000000011
 31
0.0
  0
LINE
  5
1DDED
330
747D
100
AcDbEntity
  8
部品1
 48
50.0
100
AcDbLine
 10
5782.896575106992
 20
4100.50000000001
 30
0.0
 11
5782.896575106992
 21
3989.500000000011
 31
0.0
  0
ENDSEC
  0
SECTION
  2
OBJECTS
  0
DICTIONARY
  5
7471
330
0
100
AcDbDictionary
281
     1
  3
ACAD_COLOR
350
159B0
  3
ACAD_GROUP
350
7472
  3
ACAD_LAYOUT
350
159B1
  3
ACAD_MATERIAL
350
159AF
  3
ACAD_MLINESTYLE
350
7473
  3
ACAD_PLOTSETTINGS
350
159B2
  3
ACAD_PLOTSTYLENAME
350
159AD
  3
ACDBHEADERROUNDTRIPXREC
350
1DDFC
  3
AcDbVariableDictionary
350
1DDF8
  3
CONTENTDICTIONARY
350
E71C
  3
DRAWINGVARIABLESDICT
350
F3B9
  0
DICTIONARY
  5
1D35E
330
7467
100
AcDbDictionary
280
     1
281
     1
  3
ACAD_LAYERSTATES
360
1D35F
  0
DICTIONARY
  5
159B0
102
{ACAD_REACTORS
330
7471
102
}
330
7471
100
AcDbDictionary
281
     1
  0
DICTIONARY
  5
7472
102
{ACAD_REACTORS
330
7471
102
}
330
7471
100
AcDbDictionary
281
     1
  0
DICTIONARY
  5
159B1
102
{ACAD_REACTORS
330
7471
102
}
330
7471
100
AcDbDictionary
281
     1
  3
Model
350
159B3
  3
レイアウト1
350
159B4
  0
DICTIONARY
  5
159AF
102
{ACAD_REACTORS
330
7471
102
}
330
7471
100
AcDbDictionary
281
     1
  0
DICTIONARY
  5
7473
102
{ACAD_REACTORS
330
7471
102
}
330
7471
100
AcDbDictionary
281
     1
  3
STANDARD
350
7480
  0
DICTIONARY
  5
159B2
102
{ACAD_REACTORS
330
7471
102
}
330
7471
100
AcDbDictionary
281
     1
  0
ACDBDICTIONARYWDFLT
  5
159AD
102
{ACAD_REACTORS
330
7471
102
}
330
7471
100
AcDbDictionary
281
     1
  3
Normal
350
159AE
100
AcDbDictionaryWithDefault
340
159AE
  0
DICTIONARY
  5
1DDFC
102
{ACAD_REACTORS
330
7471
102
}
330
7471
100
AcDbDictionary
281
     1
  3
COLORDICT
350
1DDFE
  3
MATERIALDICT
350
1DDFD
  0
DICTIONARY
  5
1DDF8
102
{ACAD_REACTORS
330
7471
102
}
330
7471
100
AcDbDictionary
281
     1
  3
DIMASSOC
350
1DDF9
  3
PROJECTNAME
350
1DDFA
  0
DICTIONARY
  5
E71C
102
{ACAD_REACTORS
330
7471
102
}
330
7471
100
AcDbDictionary
281
     1
  0
DICTIONARY
  5
F3B9
102
{ACAD_REACTORS
330
7471
102
}
330
7471
100
AcDbDictionary
281
     1
1001
DRAWINGVARIABLESXDATA
1000
POLARMODE
1000
1
  0
DICTIONARY
  5
1D35F
102
{ACAD_REACTORS
330
1D35E
102
}
330
1D35E
100
AcDbDictionary
281
     1
  0
LAYOUT
  5
159B3
102
{ACAD_XDICTIONARY
360
1DDFF
102
}
102
{ACAD_REACTORS
330
159B1
102
}
330
159B1
100
AcDbPlotSettings
  1

  2
none_device
  4
Letter_(8.50_x_11.00_Inches)
  6

 40
6.349999904632568
 41
6.349999904632568
 42
6.350006103515625
 43
6.350006103515625
 44
215.8999938964844
 45
279.3999938964844
 46
0.0
 47
0.0
 48
0.0
 49
0.0
140
0.0
141
0.0
142
1.0
143
1.0
 70
 11952
 72
     1
 73
     1
 74
     0
  7

 75
     0
147
1.0
148
-4149.571981164617
149
65.56433826894044
100
AcDbLayout
  1
Model
 70
     1
 71
     0
 10
0.0
 20
0.0
 11
12.0
 21
9.0
 12
0.0
 22
0.0
 32
0.0
 14
0.0
 24
0.0
 34
0.0
 15
0.0
 25
0.0
 35
0.0
146
0.0
 13
0.0
 23
0.0
 33
0.0
 16
1.0
 26
0.0
 36
0.0
 17
0.0
 27
1.0
 37
0.0
 76
     0
330
747D
  0
LAYOUT
  5
159B4
102
{ACAD_XDICTIONARY
360
1DE01
102
}
102
{ACAD_REACTORS
330
159B1
102
}
330
159B1
100
AcDbPlotSettings
  1

  2
自動 EPSON LP-8400FX (TATENO 上)
  4

  6

 40
0.0
 41
0.0
 42
0.0
 43
0.0
 44
0.0
 45
0.0
 46
0.0
 47
0.0
 48
0.0
 49
0.0
140
0.0
141
0.0
142
1.0
143
1.0
 70
   688
 72
     0
 73
     0
 74
     5
  7
inaba.ctb
 75
    16
147
1.0
148
0.0
149
0.0
100
AcDbLayout
  1
レイアウト1
 70
     0
 71
     1
 10
0.0
 20
0.0
 11
420.0
 21
297.0
 12
0.0
 22
0.0
 32
0.0
 14
1.000000000000000E+20
 24
1.000000000000000E+20
 34
1.000000000000000E+20
 15
-1.000000000000000E+20
 25
-1.000000000000000E+20
 35
-1.000000000000000E+20
146
0.0
 13
0.0
 23
0.0
 33
0.0
 16
1.0
 26
0.0
 36
0.0
 17
0.0
 27
1.0
 37
0.0
 76
     0
330
747A
  0
MLINESTYLE
  5
7480
102
{ACAD_REACTORS
330
7473
102
}
330
7473
100
AcDbMlineStyle
  2
STANDARD
 70
     0
  3

 62
     0
 51
90.0
 52
90.0
 71
     2
 49
0.5
 62
   256
  6
BYLAYER
 49
-0.5
 62
   256
  6
BYLAYER
  0
ACDBPLACEHOLDER
  5
159AE
102
{ACAD_REACTORS
330
159AD
102
}
330
159AD
  0
XRECORD
  5
1DDFE
102
{ACAD_REACTORS
330
1DDFC
102
}
330
1DDFC
100
AcDbXrecord
280
     1
340
159B0
  0
XRECORD
  5
1DDFD
102
{ACAD_REACTORS
330
1DDFC
102
}
330
1DDFC
100
AcDbXrecord
280
     1
340
159AF
  0
DICTIONARYVAR
  5
1DDF9
102
{ACAD_REACTORS
330
1DDF8
102
}
330
1DDF8
100
DictionaryVariables
280
     0
  1
1
  0
DICTIONARYVAR
  5
1DDFA
102
{ACAD_REACTORS
330
1DDF8
102
}
330
1DDF8
100
DictionaryVariables
280
     0
  1

  0
DICTIONARY
  5
1DDFF
330
159B3
100
AcDbDictionary
280
     1
281
     1
  3
ACAD_XREC_ROUNDTRIP
360
1DE00
  0
DICTIONARY
  5
1DE01
330
159B4
100
AcDbDictionary
280
     1
281
     1
  3
ACAD_XREC_ROUNDTRIP
360
1DE02
  0
XRECORD
  5
1DE00
102
{ACAD_REACTORS
330
1DDFF
102
}
330
1DDFF
100
AcDbXrecord
280
     1
102
SHADEPLOT
 70
     0
102
SHADEPLOTRESLEVEL
 70
     2
102
SHADEPLOTCUSTOMDPI
 70
   300
  0
XRECORD
  5
1DE02
102
{ACAD_REACTORS
330
1DE01
102
}
330
1DE01
100
AcDbXrecord
280
     1
102
SHADEPLOT
 70
     0
102
SHADEPLOTRESLEVEL
 70
     2
102
SHADEPLOTCUSTOMDPI
 70
   300
  0
ENDSEC
  0
EOF
