  0
SECTION
  2
HEADER
  9
$ACADVER
  1
AC1015
  9
$ACADMAINTVER
 70
    20
  9
$DWGCODEPAGE
  3
ANSI_932
  9
$INSBASE
 10
0.0
 20
0.0
 30
0.0
  9
$EXTMIN
 10
139.9999999999995
 20
-0.0000000000000909
 30
0.0
  9
$EXTMAX
 10
16307.2
 20
11409.6
 30
0.0
  9
$LIMMIN
 10
-25.79074261211281
 20
-125.8223078213959
  9
$LIMMAX
 10
16471.10331197129
 20
11496.44801950658
  9
$ORTHOMODE
 70
     0
  9
$REGENMODE
 70
     1
  9
$FILLMODE
 70
     1
  9
$QTEXTMODE
 70
     0
  9
$MIRRTEXT
 70
     1
  9
$LTSCALE
 40
20.0
  9
$ATTMODE
 70
     1
  9
$TEXTSIZE
 40
4.0
  9
$TRACEWID
 40
1.0
  9
$TEXTSTYLE
  7
STYLE1
  9
$CLAYER
  8
寸法
  9
$CELTYPE
  6
BYLAYER
  9
$CECOLOR
 62
   256
  9
$CELTSCALE
 40
50.0
  9
$DISPSILH
 70
     0
  9
$DIMSCALE
 40
40.0
  9
$DIMASZ
 40
2.5
  9
$DIMEXO
 40
0.5
  9
$DIMDLI
 40
7.0
  9
$DIMRND
 40
0.0
  9
$DIMDLE
 40
0.0
  9
$DIMEXE
 40
1.5
  9
$DIMTP
 40
0.0
  9
$DIMTM
 40
0.0
  9
$DIMTXT
 40
3.0
  9
$DIMCEN
 40
0.0
  9
$DIMTSZ
 40
0.0
  9
$DIMTOL
 70
     0
  9
$DIMLIM
 70
     0
  9
$DIMTIH
 70
     0
  9
$DIMTOH
 70
     0
  9
$DIMSE1
 70
     0
  9
$DIMSE2
 70
     0
  9
$DIMTAD
 70
     3
  9
$DIMZIN
 70
     8
  9
$DIMBLK
  1

  9
$DIMASO
 70
     1
  9
$DIMSHO
 70
     1
  9
$DIMPOST
  1

  9
$DIMAPOST
  1

  9
$DIMALT
 70
     0
  9
$DIMALTD
 70
     2
  9
$DIMALTF
 40
0.0394
  9
$DIMLFAC
 40
1.0
  9
$DIMTOFL
 70
     1
  9
$DIMTVP
 40
0.0
  9
$DIMTIX
 70
     1
  9
$DIMSOXD
 70
     0
  9
$DIMSAH
 70
     1
  9
$DIMBLK1
  1
DOTSMALL
  9
$DIMBLK2
  1
DOTSMALL
  9
$DIMSTYLE
  2
INABA_S40G
  9
$DIMCLRD
 70
     0
  9
$DIMCLRE
 70
     0
  9
$DIMCLRT
 70
     7
  9
$DIMTFAC
 40
1.0
  9
$DIMGAP
 40
1.0
  9
$DIMJUST
 70
     0
  9
$DIMSD1
 70
     0
  9
$DIMSD2
 70
     0
  9
$DIMTOLJ
 70
     1
  9
$DIMTZIN
 70
     0
  9
$DIMALTZ
 70
     0
  9
$DIMALTTZ
 70
     0
  9
$DIMUPT
 70
     1
  9
$DIMDEC
 70
     1
  9
$DIMTDEC
 70
     4
  9
$DIMALTU
 70
     2
  9
$DIMALTTD
 70
     2
  9
$DIMTXSTY
  7
STYLE1
  9
$DIMAUNIT
 70
     0
  9
$DIMADEC
 70
     0
  9
$DIMALTRND
 40
0.0
  9
$DIMAZIN
 70
     0
  9
$DIMDSEP
 70
    46
  9
$DIMATFIT
 70
     3
  9
$DIMFRAC
 70
     0
  9
$DIMLDRBLK
  1

  9
$DIMLUNIT
 70
     2
  9
$DIMLWD
 70
    -2
  9
$DIMLWE
 70
    -2
  9
$DIMTMOVE
 70
     0
  9
$LUNITS
 70
     2
  9
$LUPREC
 70
     1
  9
$SKETCHINC
 40
1.0
  9
$FILLETRAD
 40
3.0
  9
$AUNITS
 70
     0
  9
$AUPREC
 70
     0
  9
$MENU
  1
acad
  9
$ELEVATION
 40
0.0
  9
$PELEVATION
 40
0.0
  9
$THICKNESS
 40
0.0
  9
$LIMCHECK
 70
     0
  9
$CHAMFERA
 40
0.0
  9
$CHAMFERB
 40
0.0
  9
$CHAMFERC
 40
0.0
  9
$CHAMFERD
 40
0.0
  9
$SKPOLY
 70
     0
  9
$TDCREATE
 40
2451368.612993866
  9
$TDUCREATE
 40
2451368.237993866
  9
$TDUPDATE
 40
2455575.682473044
  9
$TDUUPDATE
 40
2455575.307473044
  9
$TDINDWG
 40
0.4330895370
  9
$TDUSRTIMER
 40
0.4330895370
  9
$USRTIMER
 70
     1
  9
$ANGBASE
 50
0.0
  9
$ANGDIR
 70
     0
  9
$PDMODE
 70
     3
  9
$PDSIZE
 40
2.0
  9
$PLINEWID
 40
0.0
  9
$SPLFRAME
 70
     0
  9
$SPLINETYPE
 70
     6
  9
$SPLINESEGS
 70
     8
  9
$HANDSEED
  5
16E16
  9
$SURFTAB1
 70
     6
  9
$SURFTAB2
 70
     6
  9
$SURFTYPE
 70
     6
  9
$SURFU
 70
     6
  9
$SURFV
 70
     6
  9
$UCSBASE
  2

  9
$UCSNAME
  2

  9
$UCSORG
 10
0.0
 20
0.0
 30
0.0
  9
$UCSXDIR
 10
1.0
 20
0.0
 30
0.0
  9
$UCSYDIR
 10
0.0
 20
1.0
 30
0.0
  9
$UCSORTHOREF
  2

  9
$UCSORTHOVIEW
 70
     0
  9
$UCSORGTOP
 10
0.0
 20
0.0
 30
0.0
  9
$UCSORGBOTTOM
 10
0.0
 20
0.0
 30
0.0
  9
$UCSORGLEFT
 10
0.0
 20
0.0
 30
0.0
  9
$UCSORGRIGHT
 10
0.0
 20
0.0
 30
0.0
  9
$UCSORGFRONT
 10
0.0
 20
0.0
 30
0.0
  9
$UCSORGBACK
 10
0.0
 20
0.0
 30
0.0
  9
$PUCSBASE
  2

  9
$PUCSNAME
  2

  9
$PUCSORG
 10
0.0
 20
0.0
 30
0.0
  9
$PUCSXDIR
 10
1.0
 20
0.0
 30
0.0
  9
$PUCSYDIR
 10
0.0
 20
1.0
 30
0.0
  9
$PUCSORTHOREF
  2

  9
$PUCSORTHOVIEW
 70
     0
  9
$PUCSORGTOP
 10
0.0
 20
0.0
 30
0.0
  9
$PUCSORGBOTTOM
 10
0.0
 20
0.0
 30
0.0
  9
$PUCSORGLEFT
 10
0.0
 20
0.0
 30
0.0
  9
$PUCSORGRIGHT
 10
0.0
 20
0.0
 30
0.0
  9
$PUCSORGFRONT
 10
0.0
 20
0.0
 30
0.0
  9
$PUCSORGBACK
 10
0.0
 20
0.0
 30
0.0
  9
$USERI1
 70
     0
  9
$USERI2
 70
     0
  9
$USERI3
 70
     0
  9
$USERI4
 70
     0
  9
$USERI5
 70
     0
  9
$USERR1
 40
0.0
  9
$USERR2
 40
0.0
  9
$USERR3
 40
0.0
  9
$USERR4
 40
0.0
  9
$USERR5
 40
0.0
  9
$WORLDVIEW
 70
     1
  9
$SHADEDGE
 70
     3
  9
$SHADEDIF
 70
    70
  9
$TILEMODE
 70
     1
  9
$MAXACTVP
 70
    16
  9
$PINSBASE
 10
0.0
 20
0.0
 30
0.0
  9
$PLIMCHECK
 70
     0
  9
$PEXTMIN
 10
1.000000000000000E+20
 20
1.000000000000000E+20
 30
1.000000000000000E+20
  9
$PEXTMAX
 10
-1.000000000000000E+20
 20
-1.000000000000000E+20
 30
-1.000000000000000E+20
  9
$PLIMMIN
 10
0.0
 20
0.0
  9
$PLIMMAX
 10
420.0
 20
297.0
  9
$UNITMODE
 70
     0
  9
$VISRETAIN
 70
     0
  9
$PLINEGEN
 70
     0
  9
$PSLTSCALE
 70
     0
  9
$TREEDEPTH
 70
  3020
  9
$CMLSTYLE
  2
STANDARD
  9
$CMLJUST
 70
     0
  9
$CMLSCALE
 40
1.0
  9
$PROXYGRAPHICS
 70
     1
  9
$MEASUREMENT
 70
     1
  9
$CELWEIGHT
370
    -1
  9
$ENDCAPS
280
     0
  9
$JOINSTYLE
280
     0
  9
$LWDISPLAY
290
     0
  9
$INSUNITS
 70
     0
  9
$HYPERLINKBASE
  1

  9
$STYLESHEET
  1
inaba.ctb
  9
$XEDIT
290
     1
  9
$CEPSNTYPE
380
     0
  9
$PSTYLEMODE
290
     1
  9
$FINGERPRINTGUID
  2
{6AC082C2-C512-47CE-8FE2-293A8D541B5D}
  9
$VERSIONGUID
  2
{56DC4A68-ECC9-4693-9629-D7A3ECADA578}
  9
$EXTNAMES
290
     1
  9
$PSVPSCALE
 40
0.0
  9
$OLESTARTUP
290
     0
  0
ENDSEC
  0
SECTION
  2
CLASSES
  0
CLASS
  1
ACDBDICTIONARYWDFLT
  2
AcDbDictionaryWithDefault
  3
ObjectDBX Classes
 90
        0
280
     0
281
     0
  0
CLASS
  1
DICTIONARYVAR
  2
AcDbDictionaryVar
  3
ObjectDBX Classes
 90
        0
280
     0
281
     0
  0
CLASS
  1
ACDBPLACEHOLDER
  2
AcDbPlaceHolder
  3
ObjectDBX Classes
 90
        0
280
     0
281
     0
  0
CLASS
  1
LAYOUT
  2
AcDbLayout
  3
ObjectDBX Classes
 90
        0
280
     0
281
     0
  0
ENDSEC
  0
SECTION
  2
TABLES
  0
TABLE
  2
VPORT
  5
746D
330
0
100
AcDbSymbolTable
 70
     2
  0
VPORT
  5
16E0E
330
746D
100
AcDbSymbolTableRecord
100
AcDbViewportTableRecord
  2
*Active
 70
     0
 10
0.0
 20
0.0
 11
1.0
 21
1.0
 12
8223.761025238504
 22
5704.608037261908
 13
0.0
 23
0.0
 14
10.0
 24
10.0
 15
10.0
 25
10.0
 16
0.0
 26
0.0
 36
1.0
 17
0.0
 27
0.0
 37
0.0
 40
11495.08541324274
 41
1.525925925925925
 42
50.0
 43
0.0
 44
0.0
 50
0.0
 51
0.0
 71
     0
 72
     0
 73
     1
 74
     0
 75
     0
 76
     0
 77
     0
 78
     0
281
     0
 65
     1
110
0.0
120
0.0
130
0.0
111
1.0
121
0.0
131
0.0
112
0.0
122
1.0
132
0.0
 79
     0
146
0.0
  0
ENDTAB
  0
TABLE
  2
LTYPE
  5
746A
330
0
100
AcDbSymbolTable
 70
     4
  0
LTYPE
  5
7477
330
746A
100
AcDbSymbolTableRecord
100
AcDbLinetypeTableRecord
  2
BYBLOCK
 70
     0
  3

 72
    65
 73
     0
 40
0.0
  0
LTYPE
  5
7478
330
746A
100
AcDbSymbolTableRecord
100
AcDbLinetypeTableRecord
  2
BYLAYER
 70
     0
  3

 72
    65
 73
     0
 40
0.0
  0
LTYPE
  5
7479
330
746A
100
AcDbSymbolTableRecord
100
AcDbLinetypeTableRecord
  2
CONTINUOUS
 70
     0
  3
Solid line
 72
    65
 73
     0
 40
0.0
  0
LTYPE
  5
7816
330
746A
100
AcDbSymbolTableRecord
100
AcDbLinetypeTableRecord
  2
CENTER
 70
     0
  3
____ _ ____ _ ____ _ ____ _ ____ _ ____ _ ____ 
 72
    65
 73
     4
 40
2.0
 49
1.25
 74
     0
 49
-0.25
 74
     0
 49
0.25
 74
     0
 49
-0.25
 74
     0
  0
LTYPE
  5
781A
330
746A
100
AcDbSymbolTableRecord
100
AcDbLinetypeTableRecord
  2
HIDDEN
 70
     0
  3
__ __ __ __ __ __ __ __ __ __ __ __ __ __ __ __
 72
    65
 73
     2
 40
0.375
 49
0.25
 74
     0
 49
-0.125
 74
     0
  0
LTYPE
  5
781B
330
746A
100
AcDbSymbolTableRecord
100
AcDbLinetypeTableRecord
  2
PHANTOM
 70
     0
  3
______  __  __  ______  __  __  ______  __  __ 
 72
    65
 73
     6
 40
2.5
 49
1.25
 74
     0
 49
-0.25
 74
     0
 49
0.25
 74
     0
 49
-0.25
 74
     0
 49
0.25
 74
     0
 49
-0.25
 74
     0
  0
ENDTAB
  0
TABLE
  2
LAYER
  5
7467
102
{ACAD_XDICTIONARY
360
159F5
102
}
330
0
100
AcDbSymbolTable
 70
    12
  0
LAYER
  5
7474
330
7467
100
AcDbSymbolTableRecord
100
AcDbLayerTableRecord
  2
0
 70
     0
 62
     7
  6
CONTINUOUS
370
    -3
390
15859
  0
LAYER
  5
DEB2
330
7467
100
AcDbSymbolTableRecord
100
AcDbLayerTableRecord
  2
センター
 70
     0
 62
     3
  6
CENTER
370
    -3
390
15859
  0
LAYER
  5
DEB3
330
7467
100
AcDbSymbolTableRecord
100
AcDbLayerTableRecord
  2
寸法
 70
     0
 62
     4
  6
CONTINUOUS
370
    -3
390
15859
  0
LAYER
  5
DEB4
330
7467
100
AcDbSymbolTableRecord
100
AcDbLayerTableRecord
  2
部品1
 70
     0
 62
     7
  6
CONTINUOUS
370
    -3
390
15859
  0
LAYER
  5
DEB5
330
7467
100
AcDbSymbolTableRecord
100
AcDbLayerTableRecord
  2
補助
 70
     0
 62
    -1
  6
CONTINUOUS
370
    -3
390
15859
  0
LAYER
  5
DEB6
330
7467
100
AcDbSymbolTableRecord
100
AcDbLayerTableRecord
  2
文字
 70
     0
 62
     7
  6
CONTINUOUS
370
    -3
390
15859
  0
LAYER
  5
F255
330
7467
100
AcDbSymbolTableRecord
100
AcDbLayerTableRecord
  2
DEFPOINTS
 70
     0
 62
     7
  6
CONTINUOUS
290
     0
370
    -3
390
15859
  0
LAYER
  5
10B54
330
7467
100
AcDbSymbolTableRecord
100
AcDbLayerTableRecord
  2
仕様書枠
 70
     0
 62
   230
  6
CONTINUOUS
370
    -3
390
15859
  0
LAYER
  5
11729
330
7467
100
AcDbSymbolTableRecord
100
AcDbLayerTableRecord
  2
Ｇ．Ｌ
 70
     0
 62
    30
  6
CONTINUOUS
370
    -3
390
15859
  0
LAYER
  5
1173F
330
7467
100
AcDbSymbolTableRecord
100
AcDbLayerTableRecord
  2
細線
 70
     0
 62
     5
  6
CONTINUOUS
370
    -3
390
15859
  0
LAYER
  5
12CC4
330
7467
100
AcDbSymbolTableRecord
100
AcDbLayerTableRecord
  2
想像線
 70
     0
 62
     6
  6
PHANTOM
370
    -3
390
15859
  0
LAYER
  5
142E2
330
7467
100
AcDbSymbolTableRecord
100
AcDbLayerTableRecord
  2
破線
 70
     0
 62
     2
  6
HIDDEN
370
    -3
390
15859
  0
ENDTAB
  0
TABLE
  2
STYLE
  5
7468
330
0
100
AcDbSymbolTable
 70
     4
  0
STYLE
  5
7475
330
7468
100
AcDbSymbolTableRecord
100
AcDbTextStyleTableRecord
  2
STANDARD
 70
     0
 40
0.0
 41
1.0
 50
0.0
 71
     0
 42
4.0
  3
txt
  4
C:\AutoCAD LT\bigfont.shx
  0
STYLE
  5
F706
330
7468
100
AcDbSymbolTableRecord
100
AcDbTextStyleTableRecord
  2
STYLE1
 70
     0
 40
0.0
 41
1.0
 50
0.0
 71
     0
 42
4.0
  3
isocp.shx
  4
bigfont.shx
  0
STYLE
  5
103BF
330
7468
100
AcDbSymbolTableRecord
100
AcDbTextStyleTableRecord
  2
STYLE2
 70
     0
 40
0.0
 41
1.0
 50
0.0
 71
     0
 42
100.0
  3
MS PGothic.ttf
  4

1001
ACAD
1000
MS PGothic
1071
    32818
  0
STYLE
  5
16443
330
7468
100
AcDbSymbolTableRecord
100
AcDbTextStyleTableRecord
  2
STYLE3
 70
     0
 40
0.0
 41
1.0
 50
0.0
 71
     0
 42
100.0
  3
DFPGothic-EB.ttf
  4

1001
ACAD
1000
DFPGothic-EB
1071
    32818
  0
ENDTAB
  0
TABLE
  2
VIEW
  5
746B
330
0
100
AcDbSymbolTable
 70
     0
  0
ENDTAB
  0
TABLE
  2
UCS
  5
746C
330
0
100
AcDbSymbolTable
 70
     0
  0
ENDTAB
  0
TABLE
  2
APPID
  5
746E
330
0
100
AcDbSymbolTable
 70
     6
  0
APPID
  5
7476
330
746E
100
AcDbSymbolTableRecord
100
AcDbRegAppTableRecord
  2
ACAD
 70
     0
  0
APPID
  5
DEA9
330
746E
100
AcDbSymbolTableRecord
100
AcDbRegAppTableRecord
  2
CONTENTBLOCKICON
 70
     0
  0
APPID
  5
DEAA
330
746E
100
AcDbSymbolTableRecord
100
AcDbRegAppTableRecord
  2
CONTENTBLOCKDESCRIPTION
 70
     0
  0
APPID
  5
E71D
330
746E
100
AcDbSymbolTableRecord
100
AcDbRegAppTableRecord
  2
CONTENTTABDATA
 70
     0
  0
APPID
  5
E71E
330
746E
100
AcDbSymbolTableRecord
100
AcDbRegAppTableRecord
  2
CONTENTCURRENTTAB
 70
     0
  0
APPID
  5
F3BA
330
746E
100
AcDbSymbolTableRecord
100
AcDbRegAppTableRecord
  2
DRAWINGVARIABLESXDATA
 70
     0
  0
ENDTAB
  0
TABLE
  2
DIMSTYLE
  5
746F
330
0
100
AcDbSymbolTable
 70
     5
100
AcDbDimStyleTable
 71
     0
  0
DIMSTYLE
105
7484
330
746F
100
AcDbSymbolTableRecord
100
AcDbDimStyleTableRecord
  2
JIS
 70
     0
 41
2.5
 42
1.0
 43
7.0
 44
1.0
 73
     0
 74
     0
 77
     1
 78
     8
140
2.5
141
0.0
143
0.0394
147
0.0
172
     1
174
     1
175
     1
340
7475
  0
DIMSTYLE
105
F71F
102
{ACAD_REACTORS
330
15CAD
330
15CAE
330
15CAF
330
15CB0
330
15CBC
330
15CBF
330
15CC0
330
15CC1
330
15D00
330
15D01
330
15E25
330
15E26
330
15E82
330
15E83
330
15E84
330
15EFA
330
15F04
330
15F06
330
15F24
330
15F28
330
15F29
330
15F2A
330
15F2B
330
15F33
330
15F38
330
164F6
330
16512
330
16511
330
16A1F
330
16AFF
102
}
330
746F
100
AcDbSymbolTableRecord
100
AcDbDimStyleTableRecord
  2
INABA_S40G
 70
     0
 40
40.0
 41
2.5
 42
0.5
 43
7.0
 44
1.5
 73
     0
 74
     0
 77
     3
 78
     8
140
3.0
141
0.0
143
0.0394
147
1.0
172
     1
173
     1
174
     1
178
     7
271
     1
288
     1
340
F706
341
F770
343
F770
344
F770
  0
DIMSTYLE
105
159F4
102
{ACAD_REACTORS
330
167D7
330
16A20
102
}
330
746F
100
AcDbSymbolTableRecord
100
AcDbDimStyleTableRecord
  2
INABA_S40
 70
     0
 40
40.0
 41
2.5
 42
0.5
 43
7.0
 44
1.5
 73
     0
 74
     0
 77
     3
 78
     8
140
3.0
141
0.0
143
0.0394
147
1.0
172
     1
173
     1
174
     1
175
     1
178
     7
340
7475
  0
DIMSTYLE
105
16444
330
746F
100
AcDbSymbolTableRecord
100
AcDbDimStyleTableRecord
  2
INABA_S50G
 70
     0
 41
125.0
 42
25.0
 43
7.0
 44
75.0
 73
     0
 74
     0
 77
     3
 78
     8
140
150.0
141
0.0
143
0.0394
147
25.0
172
     1
173
     1
174
     1
175
     1
178
     7
271
     1
340
F706
341
F770
343
F770
344
F770
  0
DIMSTYLE
105
16D94
330
746F
100
AcDbSymbolTableRecord
100
AcDbDimStyleTableRecord
  2
INABA_S20G
 70
     0
 40
20.0
 41
2.5
 42
0.5
 43
7.0
 44
1.5
 73
     0
 74
     0
 77
     3
 78
     8
140
3.0
141
0.0
143
0.0394
147
1.0
172
     1
173
     1
174
     1
178
     7
271
     1
340
F706
341
F770
343
F770
344
F770
  0
ENDTAB
  0
TABLE
  2
BLOCK_RECORD
  5
7466
330
0
100
AcDbSymbolTable
 70
    34
  0
BLOCK_RECORD
  5
747D
330
7466
100
AcDbSymbolTableRecord
100
AcDbBlockTableRecord
  2
*MODEL_SPACE
340
1585E
  0
BLOCK_RECORD
  5
747A
330
7466
100
AcDbSymbolTableRecord
100
AcDbBlockTableRecord
  2
*PAPER_SPACE
340
1585F
  0
BLOCK_RECORD
  5
F770
330
7466
100
AcDbSymbolTableRecord
100
AcDbBlockTableRecord
  2
_DOTSMALL
340
0
102
{BLKREFS
331
16545
331
16546
331
1654E
331
1654F
331
16557
331
16558
331
165D6
331
165D7
331
165E1
331
165E2
331
165EA
331
165EB
331
165FE
331
165FF
331
16611
331
16612
331
1661B
331
1661C
331
16624
331
16625
331
1662F
331
16630
331
16638
331
16639
331
16641
331
16642
331
1665D
331
1665E
331
16668
331
16669
331
1668E
331
1668F
331
16698
331
16699
331
166A1
331
166A2
331
16CEA
331
16CEB
331
16CFE
331
16CFF
331
16D12
331
16D13
331
16D26
331
16D27
331
16D2F
331
16D30
331
16D3A
331
16D3B
331
16D43
331
16D44
331
16D4C
331
16D4D
331
16D57
331
16D58
331
16D60
331
16D61
331
16D69
331
16D6A
331
16D85
331
16D86
102
}
  0
BLOCK_RECORD
  5
158FE
330
7466
100
AcDbSymbolTableRecord
100
AcDbBlockTableRecord
  2
_DOT
340
0
102
{BLKREFS
331
16CF5
331
16CF6
331
16D07
331
16D08
102
}
  0
BLOCK_RECORD
  5
15F59
330
7466
100
AcDbSymbolTableRecord
100
AcDbBlockTableRecord
  2
*D2
340
0
  0
BLOCK_RECORD
  5
15F67
330
7466
100
AcDbSymbolTableRecord
100
AcDbBlockTableRecord
  2
*D3
340
0
  0
BLOCK_RECORD
  5
15F74
330
7466
100
AcDbSymbolTableRecord
100
AcDbBlockTableRecord
  2
*D4
340
0
  0
BLOCK_RECORD
  5
15F80
330
7466
100
AcDbSymbolTableRecord
100
AcDbBlockTableRecord
  2
*D5
340
0
  0
BLOCK_RECORD
  5
15F8C
330
7466
100
AcDbSymbolTableRecord
100
AcDbBlockTableRecord
  2
*D6
340
0
  0
BLOCK_RECORD
  5
15F98
330
7466
100
AcDbSymbolTableRecord
100
AcDbBlockTableRecord
  2
*D7
340
0
  0
BLOCK_RECORD
  5
15FA4
330
7466
100
AcDbSymbolTableRecord
100
AcDbBlockTableRecord
  2
*D8
340
0
  0
BLOCK_RECORD
  5
15FB2
330
7466
100
AcDbSymbolTableRecord
100
AcDbBlockTableRecord
  2
*D9
340
0
  0
BLOCK_RECORD
  5
15FBE
330
7466
100
AcDbSymbolTableRecord
100
AcDbBlockTableRecord
  2
*D10
340
0
  0
BLOCK_RECORD
  5
15FCB
330
7466
100
AcDbSymbolTableRecord
100
AcDbBlockTableRecord
  2
*D11
340
0
  0
BLOCK_RECORD
  5
15FFC
330
7466
100
AcDbSymbolTableRecord
100
AcDbBlockTableRecord
  2
*D12
340
0
  0
BLOCK_RECORD
  5
1600A
330
7466
100
AcDbSymbolTableRecord
100
AcDbBlockTableRecord
  2
*D13
340
0
  0
BLOCK_RECORD
  5
16016
330
7466
100
AcDbSymbolTableRecord
100
AcDbBlockTableRecord
  2
*D14
340
0
  0
BLOCK_RECORD
  5
16022
330
7466
100
AcDbSymbolTableRecord
100
AcDbBlockTableRecord
  2
*D15
340
0
  0
BLOCK_RECORD
  5
16030
330
7466
100
AcDbSymbolTableRecord
100
AcDbBlockTableRecord
  2
*D16
340
0
  0
BLOCK_RECORD
  5
1604A
330
7466
100
AcDbSymbolTableRecord
100
AcDbBlockTableRecord
  2
*D17
340
0
  0
BLOCK_RECORD
  5
16062
330
7466
100
AcDbSymbolTableRecord
100
AcDbBlockTableRecord
  2
*D18
340
0
  0
BLOCK_RECORD
  5
1606E
330
7466
100
AcDbSymbolTableRecord
100
AcDbBlockTableRecord
  2
*D19
340
0
  0
BLOCK_RECORD
  5
1607C
330
7466
100
AcDbSymbolTableRecord
100
AcDbBlockTableRecord
  2
*D20
340
0
  0
BLOCK_RECORD
  5
16094
330
7466
100
AcDbSymbolTableRecord
100
AcDbBlockTableRecord
  2
*D21
340
0
  0
BLOCK_RECORD
  5
160A0
330
7466
100
AcDbSymbolTableRecord
100
AcDbBlockTableRecord
  2
*D22
340
0
  0
BLOCK_RECORD
  5
160AE
330
7466
100
AcDbSymbolTableRecord
100
AcDbBlockTableRecord
  2
*D23
340
0
  0
BLOCK_RECORD
  5
160BA
330
7466
100
AcDbSymbolTableRecord
100
AcDbBlockTableRecord
  2
*D24
340
0
  0
BLOCK_RECORD
  5
160C8
330
7466
100
AcDbSymbolTableRecord
100
AcDbBlockTableRecord
  2
*D25
340
0
  0
BLOCK_RECORD
  5
160D4
330
7466
100
AcDbSymbolTableRecord
100
AcDbBlockTableRecord
  2
*D26
340
0
  0
BLOCK_RECORD
  5
164FA
330
7466
100
AcDbSymbolTableRecord
100
AcDbBlockTableRecord
  2
*D27
340
0
  0
BLOCK_RECORD
  5
16517
330
7466
100
AcDbSymbolTableRecord
100
AcDbBlockTableRecord
  2
*D28
340
0
  0
BLOCK_RECORD
  5
16523
330
7466
100
AcDbSymbolTableRecord
100
AcDbBlockTableRecord
  2
*D29
340
0
  0
BLOCK_RECORD
  5
1683B
330
7466
100
AcDbSymbolTableRecord
100
AcDbBlockTableRecord
  2
*D30
340
0
  0
BLOCK_RECORD
  5
16B11
330
7466
100
AcDbSymbolTableRecord
100
AcDbBlockTableRecord
  2
*D31
340
0
  0
BLOCK_RECORD
  5
16B1D
330
7466
100
AcDbSymbolTableRecord
100
AcDbBlockTableRecord
  2
*D32
340
0
  0
BLOCK_RECORD
  5
16B69
330
7466
100
AcDbSymbolTableRecord
100
AcDbBlockTableRecord
  2
*D33
340
0
  0
ENDTAB
  0
ENDSEC
  0
SECTION
  2
BLOCKS
  0
BLOCK
  5
7489
330
747D
100
AcDbEntity
  8
0
100
AcDbBlockBegin
  2
*MODEL_SPACE
 70
     0
 10
0.0
 20
0.0
 30
0.0
  3
*MODEL_SPACE
  1

  0
ENDBLK
  5
748A
330
747D
100
AcDbEntity
  8
0
100
AcDbBlockEnd
  0
BLOCK
  5
7487
330
747A
100
AcDbEntity
 67
     1
  8
0
100
AcDbBlockBegin
  2
*PAPER_SPACE
 70
     0
 10
0.0
 20
0.0
 30
0.0
  3
*PAPER_SPACE
  1

  0
ENDBLK
  5
7488
330
747A
100
AcDbEntity
 67
     1
  8
0
100
AcDbBlockEnd
  0
BLOCK
  5
F771
330
F770
100
AcDbEntity
  8
0
 48
50.0
100
AcDbBlockBegin
  2
_DOTSMALL
 70
     0
 10
0.0
 20
0.0
 30
0.0
  3
_DOTSMALL
  1

  0
LWPOLYLINE
  5
F772
330
F770
100
AcDbEntity
  8
0
  6
ByBlock
 62
     0
 48
50.0
100
AcDbPolyline
 90
        2
 70
     1
 43
0.5
 10
-0.0625
 20
0.0
 42
1.0
 10
0.0625
 20
0.0
 42
1.0
  0
ENDBLK
  5
F776
330
F770
100
AcDbEntity
  8
0
 48
50.0
100
AcDbBlockEnd
  0
BLOCK
  5
158FF
330
158FE
100
AcDbEntity
  8
0
 48
50.0
100
AcDbBlockBegin
  2
_DOT
 70
     0
 10
0.0
 20
0.0
 30
0.0
  3
_DOT
  1

  0
LWPOLYLINE
  5
15900
330
158FE
100
AcDbEntity
  8
0
  6
ByBlock
 62
     0
 48
50.0
100
AcDbPolyline
 90
        2
 70
     1
 43
0.5
 10
-0.25
 20
0.0
 42
1.0
 10
0.25
 20
0.0
 42
1.0
  0
LINE
  5
15901
330
158FE
100
AcDbEntity
  8
0
  6
ByBlock
 62
     0
 48
50.0
100
AcDbLine
 10
-0.5
 20
0.0
 30
0.0
 11
-1.0
 21
0.0
 31
0.0
  0
ENDBLK
  5
15902
330
158FE
100
AcDbEntity
  8
0
 48
50.0
100
AcDbBlockEnd
  0
BLOCK
  5
15F65
330
15F59
100
AcDbEntity
  8
0
 48
50.0
100
AcDbBlockBegin
  2
*D2
 70
     1
 10
0.0
 20
0.0
 30
0.0
  3
*D2
  1

  0
LINE
  5
16663
330
15F59
100
AcDbEntity
  8
寸法
 62
     0
 48
50.0
370
    -2
100
AcDbLine
 10
5748.34051860912
 20
3004.710702045573
 30
0.0
 11
5084.687809450824
 21
3004.710702045573
 31
0.0
  0
LINE
  5
16664
330
15F59
100
AcDbEntity
  8
寸法
 62
     0
 48
50.0
370
    -2
100
AcDbLine
 10
5693.340518609121
 20
2954.710702045572
 30
0.0
 11
5084.687809450824
 21
2954.710702045573
 31
0.0
  0
LINE
  5
16665
330
15F59
100
AcDbEntity
  8
寸法
 62
     0
 48
50.0
370
    -2
100
AcDbLine
 10
5144.687809450823
 20
3004.710702045573
 30
0.0
 11
5144.687809450823
 21
3104.710702045573
 31
0.0
  0
LINE
  5
16666
330
15F59
100
AcDbEntity
  8
寸法
 62
     0
 48
50.0
370
    -2
100
AcDbLine
 10
5144.687809450823
 20
2954.710702045572
 30
0.0
 11
5144.687809450823
 21
2542.616213856591
 31
0.0
  0
LINE
  5
16667
330
15F59
100
AcDbEntity
  8
寸法
 62
     0
 48
50.0
370
    -2
100
AcDbLine
 10
5144.687809450823
 20
3004.710702045573
 30
0.0
 11
5144.687809450823
 21
2954.710702045572
 31
0.0
  0
INSERT
  5
16668
330
15F59
100
AcDbEntity
  8
寸法
 62
     0
 48
50.0
370
    -2
100
AcDbBlockReference
  2
_DOTSMALL
 10
5144.687809450823
 20
3004.710702045573
 30
0.0
 41
100.0
 42
100.0
 43
100.0
 50
270.0
  0
INSERT
  5
16669
330
15F59
100
AcDbEntity
  8
寸法
 62
     0
 48
50.0
370
    -2
100
AcDbBlockReference
  2
_DOTSMALL
 10
5144.687809450823
 20
2954.710702045572
 30
0.0
 41
100.0
 42
100.0
 43
100.0
 50
90.0
  0
MTEXT
  5
1666A
330
15F59
100
AcDbEntity
  8
寸法
 62
     7
 48
50.0
100
AcDbMText
 10
5044.687809450823
 20
2648.663457951081
 30
0.0
 40
120.0
 41
0.0
 71
     5
 72
     1
  1
\A1;50
  7
STYLE1
 11
0.0000000000000001
 21
1.0
 31
0.0
 73
     1
 44
1.0
1001
ACAD
1000
MTEXTBEGIN
1070
    73
1070
     1
1070
    44
1040
1.0
1070
    74
1070
     0
1000
MTEXTEND
  0
POINT
  5
1666B
330
15F59
100
AcDbEntity
  8
DEFPOINTS
 62
     0
 48
50.0
100
AcDbPoint
 10
5768.340518609121
 20
3004.710702045573
 30
0.0
  0
POINT
  5
1666C
330
15F59
100
AcDbEntity
  8
DEFPOINTS
 62
     0
 48
50.0
100
AcDbPoint
 10
5713.34051860912
 20
2954.710702045572
 30
0.0
  0
POINT
  5
1666D
330
15F59
100
AcDbEntity
  8
DEFPOINTS
 62
     0
 48
50.0
100
AcDbPoint
 10
5144.687809450823
 20
2954.710702045572
 30
0.0
  0
ENDBLK
  5
15F66
330
15F59
100
AcDbEntity
  8
0
 48
50.0
100
AcDbBlockEnd
  0
BLOCK
  5
15F72
330
15F67
100
AcDbEntity
  8
0
 48
50.0
100
AcDbBlockBegin
  2
*D3
 70
     1
 10
0.0
 20
0.0
 30
0.0
  3
*D3
  1

  0
LINE
  5
16659
330
15F67
100
AcDbEntity
  8
寸法
 62
     0
 48
50.0
370
    -2
100
AcDbLine
 10
5693.340518609121
 20
2954.710702045572
 30
0.0
 11
4799.701136679762
 21
2954.710702045573
 31
0.0
  0
LINE
  5
1665A
330
15F67
100
AcDbEntity
  8
寸法
 62
     0
 48
50.0
370
    -2
100
AcDbLine
 10
5124.687809450823
 20
2854.710702045573
 30
0.0
 11
4799.701136679762
 21
2854.710702045573
 31
0.0
  0
LINE
  5
1665B
330
15F67
100
AcDbEntity
  8
寸法
 62
     0
 48
50.0
370
    -2
100
AcDbLine
 10
4859.701136679762
 20
2954.710702045573
 30
0.0
 11
4859.701136679762
 21
2854.710702045573
 31
0.0
  0
LINE
  5
1665C
330
15F67
100
AcDbEntity
  8
寸法
 62
     0
 48
50.0
370
    -2
100
AcDbLine
 10
4859.701136679762
 20
2854.710702045573
 30
0.0
 11
4859.701136679762
 21
2482.616213856592
 31
0.0
  0
INSERT
  5
1665D
330
15F67
100
AcDbEntity
  8
寸法
 62
     0
 48
50.0
370
    -2
100
AcDbBlockReference
  2
_DOTSMALL
 10
4859.701136679762
 20
2954.710702045573
 30
0.0
 41
100.0
 42
100.0
 43
100.0
 50
90.0
  0
INSERT
  5
1665E
330
15F67
100
AcDbEntity
  8
寸法
 62
     0
 48
50.0
370
    -2
100
AcDbBlockReference
  2
_DOTSMALL
 10
4859.701136679762
 20
2854.710702045573
 30
0.0
 41
100.0
 42
100.0
 43
100.0
 50
270.0
  0
MTEXT
  5
1665F
330
15F67
100
AcDbEntity
  8
寸法
 62
     7
 48
50.0
100
AcDbMText
 10
4759.701136679761
 20
2618.66345795108
 30
0.0
 40
120.0
 41
0.0
 71
     5
 72
     1
  1
\A1;100
  7
STYLE1
 11
0.0000000000000001
 21
1.0
 31
0.0
 73
     1
 44
1.0
1001
ACAD
1000
MTEXTBEGIN
1070
    73
1070
     1
1070
    44
1040
1.0
1070
    74
1070
     0
1000
MTEXTEND
  0
POINT
  5
16660
330
15F67
100
AcDbEntity
  8
DEFPOINTS
 62
     0
 48
50.0
100
AcDbPoint
 10
5713.34051860912
 20
2954.710702045572
 30
0.0
  0
POINT
  5
16661
330
15F67
100
AcDbEntity
  8
DEFPOINTS
 62
     0
 48
50.0
100
AcDbPoint
 10
5144.687809450823
 20
2854.710702045573
 30
0.0
  0
POINT
  5
16662
330
15F67
100
AcDbEntity
  8
DEFPOINTS
 62
     0
 48
50.0
100
AcDbPoint
 10
4859.701136679762
 20
2854.710702045573
 30
0.0
  0
ENDBLK
  5
15F73
330
15F67
100
AcDbEntity
  8
0
 48
50.0
100
AcDbBlockEnd
  0
BLOCK
  5
15F7E
330
15F74
100
AcDbEntity
  8
0
 48
50.0
100
AcDbBlockBegin
  2
*D4
 70
     1
 10
0.0
 20
0.0
 30
0.0
  3
*D4
  1

  0
LINE
  5
1669E
330
15F74
100
AcDbEntity
  8
寸法
 62
     0
 48
50.0
370
    -2
100
AcDbLine
 10
5748.34051860912
 20
2954.710702045572
 30
0.0
 11
4799.701136679762
 21
2954.710702045573
 31
0.0
  0
LINE
  5
1669F
330
15F74
100
AcDbEntity
  8
寸法
 62
     0
 48
50.0
370
    -2
100
AcDbLine
 10
5688.34051860912
 20
5329.710702045577
 30
0.0
 11
4799.701136679762
 21
5329.710702045577
 31
0.0
  0
LINE
  5
166A0
330
15F74
100
AcDbEntity
  8
寸法
 62
     0
 48
50.0
370
    -2
100
AcDbLine
 10
4859.701136679762
 20
2954.710702045573
 30
0.0
 11
4859.701136679762
 21
5329.710702045577
 31
0.0
  0
INSERT
  5
166A1
330
15F74
100
AcDbEntity
  8
寸法
 62
     0
 48
50.0
370
    -2
100
AcDbBlockReference
  2
_DOTSMALL
 10
4859.701136679762
 20
2954.710702045573
 30
0.0
 41
100.0
 42
100.0
 43
100.0
 50
270.0
  0
INSERT
  5
166A2
330
15F74
100
AcDbEntity
  8
寸法
 62
     0
 48
50.0
370
    -2
100
AcDbBlockReference
  2
_DOTSMALL
 10
4859.701136679762
 20
5329.710702045577
 30
0.0
 41
100.0
 42
100.0
 43
100.0
 50
90.0
  0
MTEXT
  5
166A3
330
15F74
100
AcDbEntity
  8
寸法
 62
     7
 48
50.0
100
AcDbMText
 10
4759.68932565614
 20
4049.710702045572
 30
0.0
 40
120.0
 41
0.0
 71
     5
 72
     1
  1
\A1;2375
  7
STYLE1
 11
0.0000000000000001
 21
1.0
 31
0.0
 73
     1
 44
1.0
1001
ACAD
1000
MTEXTBEGIN
1070
    73
1070
     1
1070
    44
1040
1.0
1070
    74
1070
     0
1000
MTEXTEND
  0
POINT
  5
166A4
330
15F74
100
AcDbEntity
  8
DEFPOINTS
 62
     0
 48
50.0
100
AcDbPoint
 10
5768.340518609121
 20
2954.710702045572
 30
0.0
  0
POINT
  5
166A5
330
15F74
100
AcDbEntity
  8
DEFPOINTS
 62
     0
 48
50.0
100
AcDbPoint
 10
5708.34051860912
 20
5329.710702045577
 30
0.0
  0
POINT
  5
166A6
330
15F74
100
AcDbEntity
  8
DEFPOINTS
 62
     0
 48
50.0
100
AcDbPoint
 10
4859.701136679762
 20
5329.710702045577
 30
0.0
  0
ENDBLK
  5
15F7F
330
15F74
100
AcDbEntity
  8
0
 48
50.0
100
AcDbBlockEnd
  0
BLOCK
  5
15F8A
330
15F80
100
AcDbEntity
  8
0
 48
50.0
100
AcDbBlockBegin
  2
*D5
 70
     1
 10
0.0
 20
0.0
 30
0.0
  3
*D5
  1

  0
LINE
  5
16695
330
15F80
100
AcDbEntity
  8
寸法
 62
     0
 48
50.0
370
    -2
100
AcDbLine
 10
5748.34051860912
 20
5094.710702045572
 30
0.0
 11
5084.687809450824
 21
5094.710702045572
 31
0.0
  0
LINE
  5
16696
330
15F80
100
AcDbEntity
  8
寸法
 62
     0
 48
50.0
370
    -2
100
AcDbLine
 10
5748.34051860912
 20
3004.710702045573
 30
0.0
 11
5084.687809450824
 21
3004.710702045573
 31
0.0
  0
LINE
  5
16697
330
15F80
100
AcDbEntity
  8
寸法
 62
     0
 48
50.0
370
    -2
100
AcDbLine
 10
5144.687809450823
 20
5094.710702045572
 30
0.0
 11
5144.687809450823
 21
3004.710702045573
 31
0.0
  0
INSERT
  5
16698
330
15F80
100
AcDbEntity
  8
寸法
 62
     0
 48
50.0
370
    -2
100
AcDbBlockReference
  2
_DOTSMALL
 10
5144.687809450823
 20
5094.710702045572
 30
0.0
 41
100.0
 42
100.0
 43
100.0
 50
90.0
  0
INSERT
  5
16699
330
15F80
100
AcDbEntity
  8
寸法
 62
     0
 48
50.0
370
    -2
100
AcDbBlockReference
  2
_DOTSMALL
 10
5144.687809450823
 20
3004.710702045573
 30
0.0
 41
100.0
 42
100.0
 43
100.0
 50
270.0
  0
MTEXT
  5
1669A
330
15F80
100
AcDbEntity
  8
寸法
 62
     7
 48
50.0
100
AcDbMText
 10
5044.675998427202
 20
4049.710702045572
 30
0.0
 40
120.0
 41
0.0
 71
     5
 72
     1
  1
\A1;2090
  7
STYLE1
 11
0.0000000000000001
 21
1.0
 31
0.0
 73
     1
 44
1.0
1001
ACAD
1000
MTEXTBEGIN
1070
    73
1070
     1
1070
    44
1040
1.0
1070
    74
1070
     0
1000
MTEXTEND
  0
POINT
  5
1669B
330
15F80
100
AcDbEntity
  8
DEFPOINTS
 62
     0
 48
50.0
100
AcDbPoint
 10
5768.340518609121
 20
5094.710702045572
 30
0.0
  0
POINT
  5
1669C
330
15F80
100
AcDbEntity
  8
DEFPOINTS
 62
     0
 48
50.0
100
AcDbPoint
 10
5768.340518609121
 20
3004.710702045573
 30
0.0
  0
POINT
  5
1669D
330
15F80
100
AcDbEntity
  8
DEFPOINTS
 62
     0
 48
50.0
100
AcDbPoint
 10
5144.687809450823
 20
3004.710702045573
 30
0.0
  0
ENDBLK
  5
15F8B
330
15F80
100
AcDbEntity
  8
0
 48
50.0
100
AcDbBlockEnd
  0
BLOCK
  5
15F96
330
15F8C
100
AcDbEntity
  8
0
 48
50.0
100
AcDbBlockBegin
  2
*D6
 70
     1
 10
0.0
 20
0.0
 30
0.0
  3
*D6
  1

  0
LINE
  5
1663E
330
15F8C
100
AcDbEntity
  8
寸法
 62
     0
 48
50.0
370
    -2
100
AcDbLine
 10
7235.340518609124
 20
2954.710702045572
 30
0.0
 11
7903.267676581248
 21
2954.710702045572
 31
0.0
  0
LINE
  5
1663F
330
15F8C
100
AcDbEntity
  8
寸法
 62
     0
 48
50.0
370
    -2
100
AcDbLine
 10
7238.34051860912
 20
5274.710702045574
 30
0.0
 11
7903.267676581248
 21
5274.710702045574
 31
0.0
  0
LINE
  5
16640
330
15F8C
100
AcDbEntity
  8
寸法
 62
     0
 48
50.0
370
    -2
100
AcDbLine
 10
7843.267676581248
 20
2954.710702045572
 30
0.0
 11
7843.267676581248
 21
5274.710702045574
 31
0.0
  0
INSERT
  5
16641
330
15F8C
100
AcDbEntity
  8
寸法
 62
     0
 48
50.0
370
    -2
100
AcDbBlockReference
  2
_DOTSMALL
 10
7843.267676581248
 20
2954.710702045572
 30
0.0
 41
100.0
 42
100.0
 43
100.0
 50
270.0
  0
INSERT
  5
16642
330
15F8C
100
AcDbEntity
  8
寸法
 62
     0
 48
50.0
370
    -2
100
AcDbBlockReference
  2
_DOTSMALL
 10
7843.267676581248
 20
5274.710702045574
 30
0.0
 41
100.0
 42
100.0
 43
100.0
 50
90.0
  0
MTEXT
  5
16643
330
15F8C
100
AcDbEntity
  8
寸法
 62
     7
 48
50.0
100
AcDbMText
 10
7743.255865557626
 20
4114.710702045574
 30
0.0
 40
120.0
 41
0.0
 71
     5
 72
     1
  1
\A1;2320
  7
STYLE1
 11
0.0000000000000001
 21
1.0
 31
0.0
 73
     1
 44
1.0
1001
ACAD
1000
MTEXTBEGIN
1070
    73
1070
     1
1070
    44
1040
1.0
1070
    74
1070
     0
1000
MTEXTEND
  0
POINT
  5
16644
330
15F8C
100
AcDbEntity
  8
DEFPOINTS
 62
     0
 48
50.0
100
AcDbPoint
 10
7215.340518609124
 20
2954.710702045572
 30
0.0
  0
POINT
  5
16645
330
15F8C
100
AcDbEntity
  8
DEFPOINTS
 62
     0
 48
50.0
100
AcDbPoint
 10
7218.340518609121
 20
5274.710702045574
 30
0.0
  0
POINT
  5
16646
330
15F8C
100
AcDbEntity
  8
DEFPOINTS
 62
     0
 48
50.0
100
AcDbPoint
 10
7843.267676581248
 20
5274.710702045574
 30
0.0
  0
ENDBLK
  5
15F97
330
15F8C
100
AcDbEntity
  8
0
 48
50.0
100
AcDbBlockEnd
  0
BLOCK
  5
15FA2
330
15F98
100
AcDbEntity
  8
0
 48
50.0
100
AcDbBlockBegin
  2
*D7
 70
     1
 10
0.0
 20
0.0
 30
0.0
  3
*D7
  1

  0
LINE
  5
16635
330
15F98
100
AcDbEntity
  8
寸法
 62
     0
 48
50.0
370
    -2
100
AcDbLine
 10
7138.340518609121
 20
5296.521381657226
 30
0.0
 11
7138.340518609121
 21
5788.368155624877
 31
0.0
  0
LINE
  5
16636
330
15F98
100
AcDbEntity
  8
寸法
 62
     0
 48
50.0
370
    -2
100
AcDbLine
 10
5768.340518609121
 20
5345.71232016855
 30
0.0
 11
5768.340518609121
 21
5788.368155624877
 31
0.0
  0
LINE
  5
16637
330
15F98
100
AcDbEntity
  8
寸法
 62
     0
 48
50.0
370
    -2
100
AcDbLine
 10
7138.340518609121
 20
5728.368155624877
 30
0.0
 11
5768.340518609121
 21
5728.368155624877
 31
0.0
  0
INSERT
  5
16638
330
15F98
100
AcDbEntity
  8
寸法
 62
     0
 48
50.0
370
    -2
100
AcDbBlockReference
  2
_DOTSMALL
 10
7138.340518609121
 20
5728.368155624877
 30
0.0
 41
100.0
 42
100.0
 43
100.0
  0
INSERT
  5
16639
330
15F98
100
AcDbEntity
  8
寸法
 62
     0
 48
50.0
370
    -2
100
AcDbBlockReference
  2
_DOTSMALL
 10
5768.340518609121
 20
5728.368155624877
 30
0.0
 41
100.0
 42
100.0
 43
100.0
 50
180.0
  0
MTEXT
  5
1663A
330
15F98
100
AcDbEntity
  8
寸法
 62
     7
 48
50.0
100
AcDbMText
 10
6418.159551499666
 20
5828.368155624878
 30
0.0
 40
120.0
 41
0.0
 71
     5
 72
     1
  1
\A1;柱外寸法1370
  7
STYLE1
 73
     1
 44
1.0
1001
ACAD
1000
MTEXTBEGIN
1070
    73
1070
     1
1070
    44
1040
1.0
1070
    74
1070
     0
1000
MTEXTEND
  0
POINT
  5
1663B
330
15F98
100
AcDbEntity
  8
DEFPOINTS
 62
     0
 48
50.0
100
AcDbPoint
 10
7138.340518609121
 20
5276.521381657227
 30
0.0
  0
POINT
  5
1663C
330
15F98
100
AcDbEntity
  8
DEFPOINTS
 62
     0
 48
50.0
100
AcDbPoint
 10
5768.340518609121
 20
5325.71232016855
 30
0.0
  0
POINT
  5
1663D
330
15F98
100
AcDbEntity
  8
DEFPOINTS
 62
     0
 48
50.0
100
AcDbPoint
 10
5768.340518609121
 20
5728.368155624877
 30
0.0
  0
ENDBLK
  5
15FA3
330
15F98
100
AcDbEntity
  8
0
 48
50.0
100
AcDbBlockEnd
  0
BLOCK
  5
15FB0
330
15FA4
100
AcDbEntity
  8
0
 48
50.0
100
AcDbBlockBegin
  2
*D8
 70
     1
 10
0.0
 20
0.0
 30
0.0
  3
*D8
  1

  0
LINE
  5
1662A
330
15FA4
100
AcDbEntity
  8
寸法
 62
     0
 48
50.0
370
    -2
100
AcDbLine
 10
5768.340518609121
 20
5345.71232016855
 30
0.0
 11
5768.340518609121
 21
5788.368155624877
 31
0.0
  0
LINE
  5
1662B
330
15FA4
100
AcDbEntity
  8
寸法
 62
     0
 48
50.0
370
    -2
100
AcDbLine
 10
5708.34051860912
 20
5349.710702045578
 30
0.0
 11
5708.34051860912
 21
5788.368155624877
 31
0.0
  0
LINE
  5
1662C
330
15FA4
100
AcDbEntity
  8
寸法
 62
     0
 48
50.0
370
    -2
100
AcDbLine
 10
5768.340518609121
 20
5728.368155624877
 30
0.0
 11
5868.34051860912
 21
5728.368155624877
 31
0.0
  0
LINE
  5
1662D
330
15FA4
100
AcDbEntity
  8
寸法
 62
     0
 48
50.0
370
    -2
100
AcDbLine
 10
5708.34051860912
 20
5728.368155624877
 30
0.0
 11
5289.064928057939
 21
5728.368155624877
 31
0.0
  0
LINE
  5
1662E
330
15FA4
100
AcDbEntity
  8
寸法
 62
     0
 48
50.0
370
    -2
100
AcDbLine
 10
5768.340518609121
 20
5728.368155624877
 30
0.0
 11
5708.34051860912
 21
5728.368155624877
 31
0.0
  0
INSERT
  5
1662F
330
15FA4
100
AcDbEntity
  8
寸法
 62
     0
 48
50.0
370
    -2
100
AcDbBlockReference
  2
_DOTSMALL
 10
5768.340518609121
 20
5728.368155624877
 30
0.0
 41
100.0
 42
100.0
 43
100.0
 50
180.0
  0
INSERT
  5
16630
330
15FA4
100
AcDbEntity
  8
寸法
 62
     0
 48
50.0
370
    -2
100
AcDbBlockReference
  2
_DOTSMALL
 10
5708.34051860912
 20
5728.368155624877
 30
0.0
 41
100.0
 42
100.0
 43
100.0
  0
MTEXT
  5
16631
330
15FA4
100
AcDbEntity
  8
寸法
 62
     7
 48
50.0
100
AcDbMText
 10
5398.70272333353
 20
5828.368155624878
 30
0.0
 40
120.0
 41
0.0
 71
     5
 72
     1
  1
\A1;60
  7
STYLE1
 73
     1
 44
1.0
1001
ACAD
1000
MTEXTBEGIN
1070
    73
1070
     1
1070
    44
1040
1.0
1070
    74
1070
     0
1000
MTEXTEND
  0
POINT
  5
16632
330
15FA4
100
AcDbEntity
  8
DEFPOINTS
 62
     0
 48
50.0
100
AcDbPoint
 10
5768.340518609121
 20
5325.71232016855
 30
0.0
  0
POINT
  5
16633
330
15FA4
100
AcDbEntity
  8
DEFPOINTS
 62
     0
 48
50.0
100
AcDbPoint
 10
5708.34051860912
 20
5329.710702045577
 30
0.0
  0
POINT
  5
16634
330
15FA4
100
AcDbEntity
  8
DEFPOINTS
 62
     0
 48
50.0
100
AcDbPoint
 10
5708.34051860912
 20
5728.368155624877
 30
0.0
  0
ENDBLK
  5
15FB1
330
15FA4
100
AcDbEntity
  8
0
 48
50.0
100
AcDbBlockEnd
  0
BLOCK
  5
15FBC
330
15FB2
100
AcDbEntity
  8
0
 48
50.0
100
AcDbBlockBegin
  2
*D9
 70
     1
 10
0.0
 20
0.0
 30
0.0
  3
*D9
  1

  0
LINE
  5
16621
330
15FB2
100
AcDbEntity
  8
寸法
 62
     0
 48
50.0
370
    -2
100
AcDbLine
 10
7218.340518609121
 20
5294.710702045574
 30
0.0
 11
7218.340518609121
 21
5996.542476816841
 31
0.0
  0
LINE
  5
16622
330
15FB2
100
AcDbEntity
  8
寸法
 62
     0
 48
50.0
370
    -2
100
AcDbLine
 10
5708.34051860912
 20
5349.710702045578
 30
0.0
 11
5708.34051860912
 21
5996.542476816841
 31
0.0
  0
LINE
  5
16623
330
15FB2
100
AcDbEntity
  8
寸法
 62
     0
 48
50.0
370
    -2
100
AcDbLine
 10
7218.340518609121
 20
5936.542476816842
 30
0.0
 11
5708.34051860912
 21
5936.542476816842
 31
0.0
  0
INSERT
  5
16624
330
15FB2
100
AcDbEntity
  8
寸法
 62
     0
 48
50.0
370
    -2
100
AcDbBlockReference
  2
_DOTSMALL
 10
7218.340518609121
 20
5936.542476816842
 30
0.0
 41
100.0
 42
100.0
 43
100.0
  0
INSERT
  5
16625
330
15FB2
100
AcDbEntity
  8
寸法
 62
     0
 48
50.0
370
    -2
100
AcDbBlockReference
  2
_DOTSMALL
 10
5708.34051860912
 20
5936.542476816842
 30
0.0
 41
100.0
 42
100.0
 43
100.0
 50
180.0
  0
MTEXT
  5
16626
330
15FB2
100
AcDbEntity
  8
寸法
 62
     7
 48
50.0
100
AcDbMText
 10
6435.465348310943
 20
6036.542476816841
 30
0.0
 40
120.0
 41
0.0
 71
     5
 72
     1
  1
\A1;1510
  7
STYLE1
 73
     1
 44
1.0
1001
ACAD
1000
MTEXTBEGIN
1070
    73
1070
     1
1070
    44
1040
1.0
1070
    74
1070
     0
1000
MTEXTEND
  0
POINT
  5
16627
330
15FB2
100
AcDbEntity
  8
DEFPOINTS
 62
     0
 48
50.0
100
AcDbPoint
 10
7218.340518609121
 20
5274.710702045574
 30
0.0
  0
POINT
  5
16628
330
15FB2
100
AcDbEntity
  8
DEFPOINTS
 62
     0
 48
50.0
100
AcDbPoint
 10
5708.34051860912
 20
5329.710702045577
 30
0.0
  0
POINT
  5
16629
330
15FB2
100
AcDbEntity
  8
DEFPOINTS
 62
     0
 48
50.0
100
AcDbPoint
 10
5708.34051860912
 20
5936.542476816842
 30
0.0
  0
ENDBLK
  5
15FBD
330
15FB2
100
AcDbEntity
  8
0
 48
50.0
100
AcDbBlockEnd
  0
BLOCK
  5
15FC9
330
15FBE
100
AcDbEntity
  8
0
 48
50.0
100
AcDbBlockBegin
  2
*D10
 70
     1
 10
0.0
 20
0.0
 30
0.0
  3
*D10
  1

  0
LINE
  5
16617
330
15FBE
100
AcDbEntity
  8
寸法
 62
     0
 48
50.0
370
    -2
100
AcDbLine
 10
7138.340518609121
 20
5296.521381657226
 30
0.0
 11
7138.340518609121
 21
5788.368155624877
 31
0.0
  0
LINE
  5
16618
330
15FBE
100
AcDbEntity
  8
寸法
 62
     0
 48
50.0
370
    -2
100
AcDbLine
 10
7218.340518609121
 20
5294.710702045574
 30
0.0
 11
7218.340518609121
 21
5788.368155624877
 31
0.0
  0
LINE
  5
16619
330
15FBE
100
AcDbEntity
  8
寸法
 62
     0
 48
50.0
370
    -2
100
AcDbLine
 10
7138.340518609121
 20
5728.368155624877
 30
0.0
 11
7218.340518609121
 21
5728.368155624877
 31
0.0
  0
LINE
  5
1661A
330
15FBE
100
AcDbEntity
  8
寸法
 62
     0
 48
50.0
370
    -2
100
AcDbLine
 10
7218.340518609121
 20
5728.368155624877
 30
0.0
 11
7530.435006798096
 21
5728.368155624877
 31
0.0
  0
INSERT
  5
1661B
330
15FBE
100
AcDbEntity
  8
寸法
 62
     0
 48
50.0
370
    -2
100
AcDbBlockReference
  2
_DOTSMALL
 10
7138.340518609121
 20
5728.368155624877
 30
0.0
 41
100.0
 42
100.0
 43
100.0
 50
180.0
  0
INSERT
  5
1661C
330
15FBE
100
AcDbEntity
  8
寸法
 62
     0
 48
50.0
370
    -2
100
AcDbBlockReference
  2
_DOTSMALL
 10
7218.340518609121
 20
5728.368155624877
 30
0.0
 41
100.0
 42
100.0
 43
100.0
  0
MTEXT
  5
1661D
330
15FBE
100
AcDbEntity
  8
寸法
 62
     7
 48
50.0
100
AcDbMText
 10
7424.387762703609
 20
5828.368155624878
 30
0.0
 40
120.0
 41
0.0
 71
     5
 72
     1
  1
\A1;80
  7
STYLE1
 73
     1
 44
1.0
1001
ACAD
1000
MTEXTBEGIN
1070
    73
1070
     1
1070
    44
1040
1.0
1070
    74
1070
     0
1000
MTEXTEND
  0
POINT
  5
1661E
330
15FBE
100
AcDbEntity
  8
DEFPOINTS
 62
     0
 48
50.0
100
AcDbPoint
 10
7138.340518609121
 20
5276.521381657227
 30
0.0
  0
POINT
  5
1661F
330
15FBE
100
AcDbEntity
  8
DEFPOINTS
 62
     0
 48
50.0
100
AcDbPoint
 10
7218.340518609121
 20
5274.710702045574
 30
0.0
  0
POINT
  5
16620
330
15FBE
100
AcDbEntity
  8
DEFPOINTS
 62
     0
 48
50.0
100
AcDbPoint
 10
7218.340518609121
 20
5728.368155624877
 30
0.0
  0
ENDBLK
  5
15FCA
330
15FBE
100
AcDbEntity
  8
0
 48
50.0
100
AcDbBlockEnd
  0
BLOCK
  5
15FD6
330
15FCB
100
AcDbEntity
  8
0
 48
50.0
100
AcDbBlockBegin
  2
*D11
 70
     1
 10
0.0
 20
0.0
 30
0.0
  3
*D11
  1

  0
LINE
  5
1660D
330
15FCB
100
AcDbEntity
  8
寸法
 62
     0
 48
50.0
370
    -2
100
AcDbLine
 10
5703.697323296621
 20
5188.246313519049
 30
0.0
 11
5050.797153002599
 21
5212.897344759028
 31
0.0
  0
LINE
  5
1660E
330
15FCB
100
AcDbEntity
  8
寸法
 62
     0
 48
50.0
370
    -2
100
AcDbLine
 10
5709.017157448575
 20
5329.145920915933
 30
0.0
 11
5056.116987154392
 21
5353.796952155918
 31
0.0
  0
LINE
  5
1660F
330
15FCB
100
AcDbEntity
  8
寸法
 62
     0
 48
50.0
370
    -2
100
AcDbLine
 10
5110.754432745956
 20
5210.633585545499
 30
0.0
 11
5116.074266897748
 21
5351.533192942389
 31
0.0
  0
LINE
  5
16610
330
15FCB
100
AcDbEntity
  8
寸法
 62
     0
 48
50.0
370
    -2
100
AcDbLine
 10
5116.074266897748
 20
5351.533192942389
 30
0.0
 11
5129.656822178947
 21
5711.276871403227
 31
0.0
  0
INSERT
  5
16611
330
15FCB
100
AcDbEntity
  8
寸法
 62
     0
 48
50.0
370
    -2
100
AcDbBlockReference
  2
_DOTSMALL
 10
5110.754432745956
 20
5210.633585545499
 30
0.0
 41
100.0
 42
100.0
 43
100.0
 50
267.8377559871574
  0
INSERT
  5
16612
330
15FCB
100
AcDbEntity
  8
寸法
 62
     0
 48
50.0
370
    -2
100
AcDbBlockReference
  2
_DOTSMALL
 10
5116.074266897748
 20
5351.533192942389
 30
0.0
 41
100.0
 42
100.0
 43
100.0
 50
87.83775598715743
  0
MTEXT
  5
16613
330
15FCB
100
AcDbEntity
  8
寸法
 62
     7
 48
50.0
100
AcDbMText
 10
5024.823210977374
 20
5585.142363981834
 30
0.0
 40
120.0
 41
0.0
 71
     5
 72
     1
  1
\A1;141
  7
STYLE1
 11
0.03772932022548
 21
0.9992879957226159
 31
0.0
 73
     1
 44
1.0
1001
ACAD
1000
MTEXTBEGIN
1070
    73
1070
     1
1070
    44
1040
1.0
1070
    74
1070
     0
1000
MTEXTEND
  0
POINT
  5
16614
330
15FCB
100
AcDbEntity
  8
DEFPOINTS
 62
     0
 48
50.0
100
AcDbPoint
 10
5723.683083211072
 20
5187.49172711454
 30
0.0
  0
POINT
  5
16615
330
15FCB
100
AcDbEntity
  8
DEFPOINTS
 62
     0
 48
50.0
100
AcDbPoint
 10
5729.002917363027
 20
5328.391334511423
 30
0.0
  0
POINT
  5
16616
330
15FCB
100
AcDbEntity
  8
DEFPOINTS
 62
     0
 48
50.0
100
AcDbPoint
 10
5116.074266897748
 20
5351.533192942389
 30
0.0
  0
ENDBLK
  5
15FD7
330
15FCB
100
AcDbEntity
  8
0
 48
50.0
100
AcDbBlockEnd
  0
BLOCK
  5
16008
330
15FFC
100
AcDbEntity
  8
0
 48
50.0
100
AcDbBlockBegin
  2
*D12
 70
     1
 10
0.0
 20
0.0
 30
0.0
  3
*D12
  1

  0
LINE
  5
165F9
330
15FFC
100
AcDbEntity
  8
寸法
 62
     0
 48
50.0
370
    -2
100
AcDbLine
 10
10797.36193696936
 20
5349.710702045576
 30
0.0
 11
10797.36193696936
 21
5788.803871385046
 31
0.0
  0
LINE
  5
165FA
330
15FFC
100
AcDbEntity
  8
寸法
 62
     0
 48
50.0
370
    -2
100
AcDbLine
 10
10747.36193696936
 20
5349.710702045578
 30
0.0
 11
10747.36193696936
 21
5788.803871385046
 31
0.0
  0
LINE
  5
165FB
330
15FFC
100
AcDbEntity
  8
寸法
 62
     0
 48
50.0
370
    -2
100
AcDbLine
 10
10747.36193696936
 20
5728.803871385046
 30
0.0
 11
10647.36193696936
 21
5728.803871385046
 31
0.0
  0
LINE
  5
165FC
330
15FFC
100
AcDbEntity
  8
寸法
 62
     0
 48
50.0
370
    -2
100
AcDbLine
 10
10797.36193696936
 20
5728.803871385046
 30
0.0
 11
11216.89446243809
 21
5728.803871385046
 31
0.0
  0
LINE
  5
165FD
330
15FFC
100
AcDbEntity
  8
寸法
 62
     0
 48
50.0
370
    -2
100
AcDbLine
 10
10747.36193696936
 20
5728.803871385046
 30
0.0
 11
10797.36193696936
 21
5728.803871385046
 31
0.0
  0
INSERT
  5
165FE
330
15FFC
100
AcDbEntity
  8
寸法
 62
     0
 48
50.0
370
    -2
100
AcDbBlockReference
  2
_DOTSMALL
 10
10747.36193696936
 20
5728.803871385046
 30
0.0
 41
100.0
 42
100.0
 43
100.0
  0
INSERT
  5
165FF
330
15FFC
100
AcDbEntity
  8
寸法
 62
     0
 48
50.0
370
    -2
100
AcDbBlockReference
  2
_DOTSMALL
 10
10797.36193696936
 20
5728.803871385046
 30
0.0
 41
100.0
 42
100.0
 43
100.0
 50
180.0
  0
MTEXT
  5
16600
330
15FFC
100
AcDbEntity
  8
寸法
 62
     7
 48
50.0
100
AcDbMText
 10
11110.8472183436
 20
5828.803871385047
 30
0.0
 40
120.0
 41
0.0
 71
     5
 72
     1
  1
\A1;50
  7
STYLE1
 73
     1
 44
1.0
1001
ACAD
1000
MTEXTBEGIN
1070
    73
1070
     1
1070
    44
1040
1.0
1070
    74
1070
     0
1000
MTEXTEND
  0
POINT
  5
16601
330
15FFC
100
AcDbEntity
  8
DEFPOINTS
 62
     0
 48
50.0
100
AcDbPoint
 10
10797.36193696936
 20
5329.710702045576
 30
0.0
  0
POINT
  5
16602
330
15FFC
100
AcDbEntity
  8
DEFPOINTS
 62
     0
 48
50.0
100
AcDbPoint
 10
10747.36193696936
 20
5329.710702045579
 30
0.0
  0
POINT
  5
16603
330
15FFC
100
AcDbEntity
  8
DEFPOINTS
 62
     0
 48
50.0
100
AcDbPoint
 10
10747.36193696936
 20
5728.803871385046
 30
0.0
  0
ENDBLK
  5
16009
330
15FFC
100
AcDbEntity
  8
0
 48
50.0
100
AcDbBlockEnd
  0
BLOCK
  5
16014
330
1600A
100
AcDbEntity
  8
0
 48
50.0
100
AcDbBlockBegin
  2
*D13
 70
     1
 10
0.0
 20
0.0
 30
0.0
  3
*D13
  1

  0
LINE
  5
1668B
330
1600A
100
AcDbEntity
  8
寸法
 62
     0
 48
50.0
370
    -2
100
AcDbLine
 10
8965.361936969383
 20
5037.710702045573
 30
0.0
 11
8597.065433517419
 21
5037.710702045573
 31
0.0
  0
LINE
  5
1668C
330
1600A
100
AcDbEntity
  8
寸法
 62
     0
 48
50.0
370
    -2
100
AcDbLine
 10
8965.361936969383
 20
3012.710702045573
 30
0.0
 11
8597.065433517419
 21
3012.710702045573
 31
0.0
  0
LINE
  5
1668D
330
1600A
100
AcDbEntity
  8
寸法
 62
     0
 48
50.0
370
    -2
100
AcDbLine
 10
8657.065433517422
 20
5037.710702045573
 30
0.0
 11
8657.065433517418
 21
3012.710702045573
 31
0.0
  0
INSERT
  5
1668E
330
1600A
100
AcDbEntity
  8
寸法
 62
     0
 48
50.0
370
    -2
100
AcDbBlockReference
  2
_DOTSMALL
 10
8657.065433517422
 20
5037.710702045573
 30
0.0
 41
100.0
 42
100.0
 43
100.0
 50
90.0
  0
INSERT
  5
1668F
330
1600A
100
AcDbEntity
  8
寸法
 62
     0
 48
50.0
370
    -2
100
AcDbBlockReference
  2
_DOTSMALL
 10
8657.065433517418
 20
3012.710702045573
 30
0.0
 41
100.0
 42
100.0
 43
100.0
 50
270.0
  0
MTEXT
  5
16690
330
1600A
100
AcDbEntity
  8
寸法
 62
     7
 48
50.0
100
AcDbMText
 10
8557.053622493796
 20
4045.940002126728
 30
0.0
 40
120.0
 41
0.0
 71
     5
 72
     1
  1
\A1;有効開口部高サ2025
  7
STYLE1
 11
0.0000000000000001
 21
1.0
 31
0.0
 73
     1
 44
1.0
1001
ACAD
1000
MTEXTBEGIN
1070
    73
1070
     1
1070
    44
1040
1.0
1070
    74
1070
     0
1000
MTEXTEND
  0
POINT
  5
16691
330
1600A
100
AcDbEntity
  8
DEFPOINTS
 62
     0
 48
50.0
100
AcDbPoint
 10
8985.361936969383
 20
5037.710702045573
 30
0.0
  0
POINT
  5
16692
330
1600A
100
AcDbEntity
  8
DEFPOINTS
 62
     0
 48
50.0
100
AcDbPoint
 10
8985.361936969383
 20
3012.710702045573
 30
0.0
  0
POINT
  5
16693
330
1600A
100
AcDbEntity
  8
DEFPOINTS
 62
     0
 48
50.0
100
AcDbPoint
 10
8657.065433517418
 20
3012.710702045573
 30
0.0
  0
ENDBLK
  5
16015
330
1600A
100
AcDbEntity
  8
0
 48
50.0
100
AcDbBlockEnd
  0
BLOCK
  5
16020
330
16016
100
AcDbEntity
  8
0
 48
50.0
100
AcDbBlockBegin
  2
*D14
 70
     1
 10
0.0
 20
0.0
 30
0.0
  3
*D14
  1

  0
LINE
  5
165E7
330
16016
100
AcDbEntity
  8
寸法
 62
     0
 48
50.0
370
    -2
100
AcDbLine
 10
8907.361936969365
 20
5349.710702045578
 30
0.0
 11
8907.361936969365
 21
6005.329971003492
 31
0.0
  0
LINE
  5
165E8
330
16016
100
AcDbEntity
  8
寸法
 62
     0
 48
50.0
370
    -2
100
AcDbLine
 10
10797.36193696936
 20
5349.710702045576
 30
0.0
 11
10797.36193696936
 21
6005.329971003492
 31
0.0
  0
LINE
  5
165E9
330
16016
100
AcDbEntity
  8
寸法
 62
     0
 48
50.0
370
    -2
100
AcDbLine
 10
8907.361936969365
 20
5945.329971003491
 30
0.0
 11
10797.36193696936
 21
5945.329971003491
 31
0.0
  0
INSERT
  5
165EA
330
16016
100
AcDbEntity
  8
寸法
 62
     0
 48
50.0
370
    -2
100
AcDbBlockReference
  2
_DOTSMALL
 10
8907.361936969365
 20
5945.329971003491
 30
0.0
 41
100.0
 42
100.0
 43
100.0
 50
180.0
  0
INSERT
  5
165EB
330
16016
100
AcDbEntity
  8
寸法
 62
     0
 48
50.0
370
    -2
100
AcDbBlockReference
  2
_DOTSMALL
 10
10797.36193696936
 20
5945.329971003491
 30
0.0
 41
100.0
 42
100.0
 43
100.0
  0
MTEXT
  5
165EC
330
16016
100
AcDbEntity
  8
寸法
 62
     7
 48
50.0
100
AcDbMText
 10
9852.361936969366
 20
6045.329971003492
 30
0.0
 40
120.0
 41
0.0
 71
     5
 72
     1
  1
\A1;1890
  7
STYLE1
 73
     1
 44
1.0
1001
ACAD
1000
MTEXTBEGIN
1070
    73
1070
     1
1070
    44
1040
1.0
1070
    74
1070
     0
1000
MTEXTEND
  0
POINT
  5
165ED
330
16016
100
AcDbEntity
  8
DEFPOINTS
 62
     0
 48
50.0
100
AcDbPoint
 10
8907.361936969365
 20
5329.710702045579
 30
0.0
  0
POINT
  5
165EE
330
16016
100
AcDbEntity
  8
DEFPOINTS
 62
     0
 48
50.0
100
AcDbPoint
 10
10797.36193696936
 20
5329.710702045576
 30
0.0
  0
POINT
  5
165EF
330
16016
100
AcDbEntity
  8
DEFPOINTS
 62
     0
 48
50.0
100
AcDbPoint
 10
10797.36193696936
 20
5945.329971003491
 30
0.0
  0
ENDBLK
  5
16021
330
16016
100
AcDbEntity
  8
0
 48
50.0
100
AcDbBlockEnd
  0
BLOCK
  5
1602E
330
16022
100
AcDbEntity
  8
0
 48
50.0
100
AcDbBlockBegin
  2
*D15
 70
     1
 10
0.0
 20
0.0
 30
0.0
  3
*D15
  1

  0
LINE
  5
165DC
330
16022
100
AcDbEntity
  8
寸法
 62
     0
 48
50.0
370
    -2
100
AcDbLine
 10
8957.361936969366
 20
5349.71070204558
 30
0.0
 11
8957.361936969366
 21
5788.803871385046
 31
0.0
  0
LINE
  5
165DD
330
16022
100
AcDbEntity
  8
寸法
 62
     0
 48
50.0
370
    -2
100
AcDbLine
 10
8907.361936969365
 20
5349.710702045578
 30
0.0
 11
8907.361936969365
 21
5788.803871385046
 31
0.0
  0
LINE
  5
165DE
330
16022
100
AcDbEntity
  8
寸法
 62
     0
 48
50.0
370
    -2
100
AcDbLine
 10
8957.361936969366
 20
5728.803871385046
 30
0.0
 11
9057.361936969366
 21
5728.803871385046
 31
0.0
  0
LINE
  5
165DF
330
16022
100
AcDbEntity
  8
寸法
 62
     0
 48
50.0
370
    -2
100
AcDbLine
 10
8907.361936969365
 20
5728.803871385046
 30
0.0
 11
8487.829411500632
 21
5728.803871385046
 31
0.0
  0
LINE
  5
165E0
330
16022
100
AcDbEntity
  8
寸法
 62
     0
 48
50.0
370
    -2
100
AcDbLine
 10
8957.361936969366
 20
5728.803871385046
 30
0.0
 11
8907.361936969365
 21
5728.803871385046
 31
0.0
  0
INSERT
  5
165E1
330
16022
100
AcDbEntity
  8
寸法
 62
     0
 48
50.0
370
    -2
100
AcDbBlockReference
  2
_DOTSMALL
 10
8957.361936969366
 20
5728.803871385046
 30
0.0
 41
100.0
 42
100.0
 43
100.0
 50
180.0
  0
INSERT
  5
165E2
330
16022
100
AcDbEntity
  8
寸法
 62
     0
 48
50.0
370
    -2
100
AcDbBlockReference
  2
_DOTSMALL
 10
8907.361936969365
 20
5728.803871385046
 30
0.0
 41
100.0
 42
100.0
 43
100.0
  0
MTEXT
  5
165E3
330
16022
100
AcDbEntity
  8
寸法
 62
     7
 48
50.0
100
AcDbMText
 10
8593.876655595119
 20
5828.803871385047
 30
0.0
 40
120.0
 41
0.0
 71
     5
 72
     1
  1
\A1;50
  7
STYLE1
 73
     1
 44
1.0
1001
ACAD
1000
MTEXTBEGIN
1070
    73
1070
     1
1070
    44
1040
1.0
1070
    74
1070
     0
1000
MTEXTEND
  0
POINT
  5
165E4
330
16022
100
AcDbEntity
  8
DEFPOINTS
 62
     0
 48
50.0
100
AcDbPoint
 10
8957.361936969366
 20
5329.71070204558
 30
0.0
  0
POINT
  5
165E5
330
16022
100
AcDbEntity
  8
DEFPOINTS
 62
     0
 48
50.0
100
AcDbPoint
 10
8907.361936969365
 20
5329.710702045579
 30
0.0
  0
POINT
  5
165E6
330
16022
100
AcDbEntity
  8
DEFPOINTS
 62
     0
 48
50.0
100
AcDbPoint
 10
8907.361936969365
 20
5728.803871385046
 30
0.0
  0
ENDBLK
  5
1602F
330
16022
100
AcDbEntity
  8
0
 48
50.0
100
AcDbBlockEnd
  0
BLOCK
  5
1603A
330
16030
100
AcDbEntity
  8
0
 48
50.0
100
AcDbBlockBegin
  2
*D16
 70
     1
 10
0.0
 20
0.0
 30
0.0
  3
*D16
  1

  0
LINE
  5
165D3
330
16030
100
AcDbEntity
  8
寸法
 62
     0
 48
50.0
370
    -2
100
AcDbLine
 10
10747.36193696936
 20
5349.710702045578
 30
0.0
 11
10747.36193696936
 21
5788.803871385046
 31
0.0
  0
LINE
  5
165D4
330
16030
100
AcDbEntity
  8
寸法
 62
     0
 48
50.0
370
    -2
100
AcDbLine
 10
8957.361936969366
 20
5349.71070204558
 30
0.0
 11
8957.361936969366
 21
5788.803871385046
 31
0.0
  0
LINE
  5
165D5
330
16030
100
AcDbEntity
  8
寸法
 62
     0
 48
50.0
370
    -2
100
AcDbLine
 10
10747.36193696936
 20
5728.803871385046
 30
0.0
 11
8957.361936969366
 21
5728.803871385046
 31
0.0
  0
INSERT
  5
165D6
330
16030
100
AcDbEntity
  8
寸法
 62
     0
 48
50.0
370
    -2
100
AcDbBlockReference
  2
_DOTSMALL
 10
10747.36193696936
 20
5728.803871385046
 30
0.0
 41
100.0
 42
100.0
 43
100.0
  0
INSERT
  5
165D7
330
16030
100
AcDbEntity
  8
寸法
 62
     0
 48
50.0
370
    -2
100
AcDbBlockReference
  2
_DOTSMALL
 10
8957.361936969366
 20
5728.803871385046
 30
0.0
 41
100.0
 42
100.0
 43
100.0
 50
180.0
  0
MTEXT
  5
165D8
330
16030
100
AcDbEntity
  8
寸法
 62
     7
 48
50.0
100
AcDbMText
 10
9852.361936969366
 20
5828.803871385047
 30
0.0
 40
120.0
 41
0.0
 71
     5
 72
     1
  1
\A1;柱外寸法1790
  7
STYLE1
 73
     1
 44
1.0
1001
ACAD
1000
MTEXTBEGIN
1070
    73
1070
     1
1070
    44
1040
1.0
1070
    74
1070
     0
1000
MTEXTEND
  0
POINT
  5
165D9
330
16030
100
AcDbEntity
  8
DEFPOINTS
 62
     0
 48
50.0
100
AcDbPoint
 10
10747.36193696936
 20
5329.710702045579
 30
0.0
  0
POINT
  5
165DA
330
16030
100
AcDbEntity
  8
DEFPOINTS
 62
     0
 48
50.0
100
AcDbPoint
 10
8957.361936969366
 20
5329.71070204558
 30
0.0
  0
POINT
  5
165DB
330
16030
100
AcDbEntity
  8
DEFPOINTS
 62
     0
 48
50.0
100
AcDbPoint
 10
8957.361936969366
 20
5728.803871385046
 30
0.0
  0
ENDBLK
  5
1603B
330
16030
100
AcDbEntity
  8
0
 48
50.0
100
AcDbBlockEnd
  0
BLOCK
  5
16054
330
1604A
100
AcDbEntity
  8
0
 48
50.0
100
AcDbBlockBegin
  2
*D17
 70
     1
 10
0.0
 20
0.0
 30
0.0
  3
*D17
  1

  0
LINE
  5
16D66
330
1604A
100
AcDbEntity
  8
寸法
 62
     0
 48
50.0
370
    -2
100
AcDbLine
 10
8980.502953120751
 20
9364.046704359326
 30
0.0
 11
8891.216211867075
 21
9030.824049558352
 31
0.0
  0
LINE
  5
16D67
330
1604A
100
AcDbEntity
  8
寸法
 62
     0
 48
50.0
370
    -2
100
AcDbLine
 10
9833.502953120763
 20
9364.046704359321
 30
0.0
 11
9744.216211867088
 21
9030.824049558352
 31
0.0
  0
LINE
  5
16D68
330
1604A
100
AcDbEntity
  8
寸法
 62
     0
 48
50.0
370
    -2
100
AcDbLine
 10
8907.293163412942
 20
9090.824049558353
 30
0.0
 11
9760.293163412955
 21
9090.824049558353
 31
0.0
  0
INSERT
  5
16D69
330
1604A
100
AcDbEntity
  8
寸法
 62
     0
 48
50.0
370
    -2
100
AcDbBlockReference
  2
_DOTSMALL
 10
8907.293163412942
 20
9090.824049558353
 30
0.0
 41
100.0
 42
100.0
 43
100.0
 50
180.0
  0
INSERT
  5
16D6A
330
1604A
100
AcDbEntity
  8
寸法
 62
     0
 48
50.0
370
    -2
100
AcDbBlockReference
  2
_DOTSMALL
 10
9760.293163412955
 20
9090.824049558353
 30
0.0
 41
100.0
 42
100.0
 43
100.0
  0
MTEXT
  5
16D6B
330
1604A
100
AcDbEntity
  8
寸法
 62
     7
 48
50.0
100
AcDbMText
 10
9365.208999087641
 20
9190.824049558353
 30
0.0
 40
120.0
 41
0.0
 71
     5
 72
     1
  1
\A1;853
  7
STYLE1
 73
     1
 44
1.0
1001
ACAD
1000
MTEXTBEGIN
1070
    73
1070
     1
1070
    44
1040
1.0
1070
    74
1070
     0
1000
MTEXTEND
  0
POINT
  5
16D6C
330
1604A
100
AcDbEntity
  8
DEFPOINTS
 62
     0
 48
50.0
100
AcDbPoint
 10
8985.861936969374
 20
9384.046704359326
 30
0.0
  0
POINT
  5
16D6D
330
1604A
100
AcDbEntity
  8
DEFPOINTS
 62
     0
 48
50.0
100
AcDbPoint
 10
9838.861936969385
 20
9384.046704359318
 30
0.0
  0
POINT
  5
16D6E
330
1604A
100
AcDbEntity
  8
DEFPOINTS
 62
     0
 48
50.0
100
AcDbPoint
 10
9760.293163412955
 20
9090.824049558353
 30
0.0
  0
ENDBLK
  5
16055
330
1604A
100
AcDbEntity
  8
0
 48
50.0
100
AcDbBlockEnd
  0
BLOCK
  5
1606C
330
16062
100
AcDbEntity
  8
0
 48
50.0
100
AcDbBlockBegin
  2
*D18
 70
     1
 10
0.0
 20
0.0
 30
0.0
  3
*D18
  1

  0
LINE
  5
16D5D
330
16062
100
AcDbEntity
  8
寸法
 62
     0
 48
50.0
370
    -2
100
AcDbLine
 10
9012.361936969375
 20
9884.046704359327
 30
0.0
 11
9012.361936969375
 21
10220.85373116765
 31
0.0
  0
LINE
  5
16D5E
330
16062
100
AcDbEntity
  8
寸法
 62
     0
 48
50.0
370
    -2
100
AcDbLine
 10
10692.36193696937
 20
9884.046704359422
 30
0.0
 11
10692.36193696937
 21
10220.85373116765
 31
0.0
  0
LINE
  5
16D5F
330
16062
100
AcDbEntity
  8
寸法
 62
     0
 48
50.0
370
    -2
100
AcDbLine
 10
9012.361936969375
 20
10160.85373116765
 30
0.0
 11
10692.36193696937
 21
10160.85373116765
 31
0.0
  0
INSERT
  5
16D60
330
16062
100
AcDbEntity
  8
寸法
 62
     0
 48
50.0
370
    -2
100
AcDbBlockReference
  2
_DOTSMALL
 10
9012.361936969375
 20
10160.85373116765
 30
0.0
 41
100.0
 42
100.0
 43
100.0
 50
180.0
  0
INSERT
  5
16D61
330
16062
100
AcDbEntity
  8
寸法
 62
     0
 48
50.0
370
    -2
100
AcDbBlockReference
  2
_DOTSMALL
 10
10692.36193696937
 20
10160.85373116765
 30
0.0
 41
100.0
 42
100.0
 43
100.0
  0
MTEXT
  5
16D62
330
16062
100
AcDbEntity
  8
寸法
 62
     7
 48
50.0
100
AcDbMText
 10
9852.361936969373
 20
10260.86554219127
 30
0.0
 40
120.0
 41
0.0
 71
     5
 72
     1
  1
\A1;4X420=1680
  7
STYLE1
 73
     1
 44
1.0
1001
ACAD
1000
MTEXTBEGIN
1070
    73
1070
     1
1070
    44
1040
1.0
1070
    74
1070
     0
1000
MTEXTEND
  0
POINT
  5
16D63
330
16062
100
AcDbEntity
  8
DEFPOINTS
 62
     0
 48
50.0
100
AcDbPoint
 10
9012.361936969375
 20
9864.046704359328
 30
0.0
  0
POINT
  5
16D64
330
16062
100
AcDbEntity
  8
DEFPOINTS
 62
     0
 48
50.0
100
AcDbPoint
 10
10692.36193696937
 20
9864.046704359422
 30
0.0
  0
POINT
  5
16D65
330
16062
100
AcDbEntity
  8
DEFPOINTS
 62
     0
 48
50.0
100
AcDbPoint
 10
10692.36193696937
 20
10160.85373116765
 30
0.0
  0
ENDBLK
  5
1606D
330
16062
100
AcDbEntity
  8
0
 48
50.0
100
AcDbBlockEnd
  0
BLOCK
  5
1607A
330
1606E
100
AcDbEntity
  8
0
 48
50.0
100
AcDbBlockBegin
  2
*D19
 70
     1
 10
0.0
 20
0.0
 30
0.0
  3
*D19
  1

  0
LINE
  5
16D52
330
1606E
100
AcDbEntity
  8
寸法
 62
     0
 48
50.0
370
    -2
100
AcDbLine
 10
10692.36193696937
 20
9884.046704359422
 30
0.0
 11
10692.36193696937
 21
10220.85373116763
 31
0.0
  0
LINE
  5
16D53
330
1606E
100
AcDbEntity
  8
寸法
 62
     0
 48
50.0
370
    -2
100
AcDbLine
 10
10747.36193696937
 20
9884.046704359422
 30
0.0
 11
10747.36193696937
 21
10220.85373116763
 31
0.0
  0
LINE
  5
16D54
330
1606E
100
AcDbEntity
  8
寸法
 62
     0
 48
50.0
370
    -2
100
AcDbLine
 10
10692.36193696937
 20
10160.85373116763
 30
0.0
 11
10592.36193696937
 21
10160.85373116763
 31
0.0
  0
LINE
  5
16D55
330
1606E
100
AcDbEntity
  8
寸法
 62
     0
 48
50.0
370
    -2
100
AcDbLine
 10
10747.36193696937
 20
10160.85373116763
 30
0.0
 11
11164.33249971785
 21
10160.85373116763
 31
0.0
  0
LINE
  5
16D56
330
1606E
100
AcDbEntity
  8
寸法
 62
     0
 48
50.0
370
    -2
100
AcDbLine
 10
10692.36193696937
 20
10160.85373116763
 30
0.0
 11
10747.36193696937
 21
10160.85373116763
 31
0.0
  0
INSERT
  5
16D57
330
1606E
100
AcDbEntity
  8
寸法
 62
     0
 48
50.0
370
    -2
100
AcDbBlockReference
  2
_DOTSMALL
 10
10692.36193696937
 20
10160.85373116763
 30
0.0
 41
100.0
 42
100.0
 43
100.0
  0
INSERT
  5
16D58
330
1606E
100
AcDbEntity
  8
寸法
 62
     0
 48
50.0
370
    -2
100
AcDbBlockReference
  2
_DOTSMALL
 10
10747.36193696937
 20
10160.85373116763
 30
0.0
 41
100.0
 42
100.0
 43
100.0
 50
180.0
  0
MTEXT
  5
16D59
330
1606E
100
AcDbEntity
  8
寸法
 62
     7
 48
50.0
100
AcDbMText
 10
11055.84721834361
 20
10260.85373116763
 30
0.0
 40
120.0
 41
0.0
 71
     5
 72
     1
  1
\A1;55
  7
STYLE1
 73
     1
 44
1.0
1001
ACAD
1000
MTEXTBEGIN
1070
    73
1070
     1
1070
    44
1040
1.0
1070
    74
1070
     0
1000
MTEXTEND
  0
POINT
  5
16D5A
330
1606E
100
AcDbEntity
  8
DEFPOINTS
 62
     0
 48
50.0
100
AcDbPoint
 10
10692.36193696937
 20
9864.046704359422
 30
0.0
  0
POINT
  5
16D5B
330
1606E
100
AcDbEntity
  8
DEFPOINTS
 62
     0
 48
50.0
100
AcDbPoint
 10
10747.36193696937
 20
9864.046704359422
 30
0.0
  0
POINT
  5
16D5C
330
1606E
100
AcDbEntity
  8
DEFPOINTS
 62
     0
 48
50.0
100
AcDbPoint
 10
10747.36193696937
 20
10160.85373116763
 30
0.0
  0
ENDBLK
  5
1607B
330
1606E
100
AcDbEntity
  8
0
 48
50.0
100
AcDbBlockEnd
  0
BLOCK
  5
16086
330
1607C
100
AcDbEntity
  8
0
 48
50.0
100
AcDbBlockBegin
  2
*D20
 70
     1
 10
0.0
 20
0.0
 30
0.0
  3
*D20
  1

  0
LINE
  5
16D49
330
1607C
100
AcDbEntity
  8
寸法
 62
     0
 48
50.0
370
    -2
100
AcDbLine
 10
9860.50295312075
 20
9364.046704359431
 30
0.0
 11
9771.216211867075
 21
9030.824049558459
 31
0.0
  0
LINE
  5
16D4A
330
1607C
100
AcDbEntity
  8
寸法
 62
     0
 48
50.0
370
    -2
100
AcDbLine
 10
10713.50295312076
 20
9364.046704359425
 30
0.0
 11
10624.21621186709
 21
9030.824049558459
 31
0.0
  0
LINE
  5
16D4B
330
1607C
100
AcDbEntity
  8
寸法
 62
     0
 48
50.0
370
    -2
100
AcDbLine
 10
9787.293163412941
 20
9090.824049558458
 30
0.0
 11
10640.29316341295
 21
9090.824049558458
 31
0.0
  0
INSERT
  5
16D4C
330
1607C
100
AcDbEntity
  8
寸法
 62
     0
 48
50.0
370
    -2
100
AcDbBlockReference
  2
_DOTSMALL
 10
9787.293163412941
 20
9090.824049558458
 30
0.0
 41
100.0
 42
100.0
 43
100.0
 50
180.0
  0
INSERT
  5
16D4D
330
1607C
100
AcDbEntity
  8
寸法
 62
     0
 48
50.0
370
    -2
100
AcDbBlockReference
  2
_DOTSMALL
 10
10640.29316341295
 20
9090.824049558458
 30
0.0
 41
100.0
 42
100.0
 43
100.0
  0
MTEXT
  5
16D4E
330
1607C
100
AcDbEntity
  8
寸法
 62
     7
 48
50.0
100
AcDbMText
 10
10245.20899908764
 20
9190.824049558457
 30
0.0
 40
120.0
 41
0.0
 71
     5
 72
     1
  1
\A1;853
  7
STYLE1
 73
     1
 44
1.0
1001
ACAD
1000
MTEXTBEGIN
1070
    73
1070
     1
1070
    44
1040
1.0
1070
    74
1070
     0
1000
MTEXTEND
  0
POINT
  5
16D4F
330
1607C
100
AcDbEntity
  8
DEFPOINTS
 62
     0
 48
50.0
100
AcDbPoint
 10
9865.861936969373
 20
9384.046704359432
 30
0.0
  0
POINT
  5
16D50
330
1607C
100
AcDbEntity
  8
DEFPOINTS
 62
     0
 48
50.0
100
AcDbPoint
 10
10718.86193696938
 20
9384.046704359425
 30
0.0
  0
POINT
  5
16D51
330
1607C
100
AcDbEntity
  8
DEFPOINTS
 62
     0
 48
50.0
100
AcDbPoint
 10
10640.29316341295
 20
9090.824049558458
 30
0.0
  0
ENDBLK
  5
16087
330
1607C
100
AcDbEntity
  8
0
 48
50.0
100
AcDbBlockEnd
  0
BLOCK
  5
1609E
330
16094
100
AcDbEntity
  8
0
 48
50.0
100
AcDbBlockBegin
  2
*D21
 70
     1
 10
0.0
 20
0.0
 30
0.0
  3
*D21
  1

  0
LINE
  5
16D40
330
16094
100
AcDbEntity
  8
寸法
 62
     0
 48
50.0
370
    -2
100
AcDbLine
 10
10767.36193696937
 20
9809.046704359426
 30
0.0
 11
11454.78828270378
 21
9809.046704359426
 31
0.0
  0
LINE
  5
16D41
330
16094
100
AcDbEntity
  8
寸法
 62
     0
 48
50.0
370
    -2
100
AcDbLine
 10
10767.36193696935
 20
8549.04670435941
 30
0.0
 11
11454.78828270378
 21
8549.04670435941
 31
0.0
  0
LINE
  5
16D42
330
16094
100
AcDbEntity
  8
寸法
 62
     0
 48
50.0
370
    -2
100
AcDbLine
 10
11394.78828270378
 20
9809.046704359426
 30
0.0
 11
11394.78828270378
 21
8549.04670435941
 31
0.0
  0
INSERT
  5
16D43
330
16094
100
AcDbEntity
  8
寸法
 62
     0
 48
50.0
370
    -2
100
AcDbBlockReference
  2
_DOTSMALL
 10
11394.78828270378
 20
9809.046704359426
 30
0.0
 41
100.0
 42
100.0
 43
100.0
 50
90.0
  0
INSERT
  5
16D44
330
16094
100
AcDbEntity
  8
寸法
 62
     0
 48
50.0
370
    -2
100
AcDbBlockReference
  2
_DOTSMALL
 10
11394.78828270378
 20
8549.04670435941
 30
0.0
 41
100.0
 42
100.0
 43
100.0
 50
270.0
  0
MTEXT
  5
16D45
330
16094
100
AcDbEntity
  8
寸法
 62
     7
 48
50.0
100
AcDbMText
 10
11294.77647168016
 20
9179.046704359418
 30
0.0
 40
120.0
 41
0.0
 71
     5
 72
     1
  1
\A1;3X420=1260
  7
STYLE1
 11
0.0000000000000001
 21
1.0
 31
0.0
 73
     1
 44
1.0
1001
ACAD
1000
MTEXTBEGIN
1070
    73
1070
     1
1070
    44
1040
1.0
1070
    74
1070
     0
1000
MTEXTEND
  0
POINT
  5
16D46
330
16094
100
AcDbEntity
  8
DEFPOINTS
 62
     0
 48
50.0
100
AcDbPoint
 10
10747.36193696937
 20
9809.046704359426
 30
0.0
  0
POINT
  5
16D47
330
16094
100
AcDbEntity
  8
DEFPOINTS
 62
     0
 48
50.0
100
AcDbPoint
 10
10747.36193696935
 20
8549.04670435941
 30
0.0
  0
POINT
  5
16D48
330
16094
100
AcDbEntity
  8
DEFPOINTS
 62
     0
 48
50.0
100
AcDbPoint
 10
11394.78828270378
 20
8549.04670435941
 30
0.0
  0
ENDBLK
  5
1609F
330
16094
100
AcDbEntity
  8
0
 48
50.0
100
AcDbBlockEnd
  0
BLOCK
  5
160AC
330
160A0
100
AcDbEntity
  8
0
 48
50.0
100
AcDbBlockBegin
  2
*D22
 70
     1
 10
0.0
 20
0.0
 30
0.0
  3
*D22
  1

  0
LINE
  5
16D35
330
160A0
100
AcDbEntity
  8
寸法
 62
     0
 48
50.0
370
    -2
100
AcDbLine
 10
10767.36193696935
 20
8549.04670435941
 30
0.0
 11
11454.78828270376
 21
8549.04670435941
 31
0.0
  0
LINE
  5
16D36
330
160A0
100
AcDbEntity
  8
寸法
 62
     0
 48
50.0
370
    -2
100
AcDbLine
 10
10767.36193696935
 20
8494.046704359412
 30
0.0
 11
11454.78828270376
 21
8494.046704359412
 31
0.0
  0
LINE
  5
16D37
330
160A0
100
AcDbEntity
  8
寸法
 62
     0
 48
50.0
370
    -2
100
AcDbLine
 10
11394.78828270376
 20
8549.04670435941
 30
0.0
 11
11394.78828270376
 21
8649.04670435941
 31
0.0
  0
LINE
  5
16D38
330
160A0
100
AcDbEntity
  8
寸法
 62
     0
 48
50.0
370
    -2
100
AcDbLine
 10
11394.78828270376
 20
8494.046704359412
 30
0.0
 11
11394.78828270376
 21
8007.699956080314
 31
0.0
  0
LINE
  5
16D39
330
160A0
100
AcDbEntity
  8
寸法
 62
     0
 48
50.0
370
    -2
100
AcDbLine
 10
11394.78828270376
 20
8549.04670435941
 30
0.0
 11
11394.78828270376
 21
8494.046704359412
 31
0.0
  0
INSERT
  5
16D3A
330
160A0
100
AcDbEntity
  8
寸法
 62
     0
 48
50.0
370
    -2
100
AcDbBlockReference
  2
_DOTSMALL
 10
11394.78828270376
 20
8549.04670435941
 30
0.0
 41
100.0
 42
100.0
 43
100.0
 50
270.0
  0
INSERT
  5
16D3B
330
160A0
100
AcDbEntity
  8
寸法
 62
     0
 48
50.0
370
    -2
100
AcDbBlockReference
  2
_DOTSMALL
 10
11394.78828270376
 20
8494.046704359412
 30
0.0
 41
100.0
 42
100.0
 43
100.0
 50
90.0
  0
MTEXT
  5
16D3C
330
160A0
100
AcDbEntity
  8
寸法
 62
     7
 48
50.0
100
AcDbMText
 10
11294.78828270376
 20
8116.185237454553
 30
0.0
 40
120.0
 41
0.0
 71
     5
 72
     1
  1
\A1;55
  7
STYLE1
 11
0.0000000000000001
 21
1.0
 31
0.0
 73
     1
 44
1.0
1001
ACAD
1000
MTEXTBEGIN
1070
    73
1070
     1
1070
    44
1040
1.0
1070
    74
1070
     0
1000
MTEXTEND
  0
POINT
  5
16D3D
330
160A0
100
AcDbEntity
  8
DEFPOINTS
 62
     0
 48
50.0
100
AcDbPoint
 10
10747.36193696935
 20
8549.04670435941
 30
0.0
  0
POINT
  5
16D3E
330
160A0
100
AcDbEntity
  8
DEFPOINTS
 62
     0
 48
50.0
100
AcDbPoint
 10
10747.36193696935
 20
8494.046704359412
 30
0.0
  0
POINT
  5
16D3F
330
160A0
100
AcDbEntity
  8
DEFPOINTS
 62
     0
 48
50.0
100
AcDbPoint
 10
11394.78828270376
 20
8494.046704359412
 30
0.0
  0
ENDBLK
  5
160AD
330
160A0
100
AcDbEntity
  8
0
 48
50.0
100
AcDbBlockEnd
  0
BLOCK
  5
160B8
330
160AE
100
AcDbEntity
  8
0
 48
50.0
100
AcDbBlockBegin
  2
*D23
 70
     1
 10
0.0
 20
0.0
 30
0.0
  3
*D23
  1

  0
LINE
  5
16D2C
330
160AE
100
AcDbEntity
  8
寸法
 62
     0
 48
50.0
370
    -2
100
AcDbLine
 10
10738.86193696937
 20
9828.687720510799
 30
0.0
 11
11134.21966283139
 21
9722.751937144664
 31
0.0
  0
LINE
  5
16D2D
330
160AE
100
AcDbEntity
  8
寸法
 62
     0
 48
50.0
370
    -2
100
AcDbLine
 10
10738.86193696937
 20
9378.687720510802
 30
0.0
 11
11134.21966283139
 21
9272.751937144667
 31
0.0
  0
LINE
  5
16D2E
330
160AE
100
AcDbEntity
  8
寸法
 62
     0
 48
50.0
370
    -2
100
AcDbLine
 10
11074.2196628314
 20
9738.828888690534
 30
0.0
 11
11074.2196628314
 21
9288.828888690535
 31
0.0
  0
INSERT
  5
16D2F
330
160AE
100
AcDbEntity
  8
寸法
 62
     0
 48
50.0
370
    -2
100
AcDbBlockReference
  2
_DOTSMALL
 10
11074.2196628314
 20
9738.828888690534
 30
0.0
 41
100.0
 42
100.0
 43
100.0
 50
90.0
  0
INSERT
  5
16D30
330
160AE
100
AcDbEntity
  8
寸法
 62
     0
 48
50.0
370
    -2
100
AcDbBlockReference
  2
_DOTSMALL
 10
11074.2196628314
 20
9288.828888690535
 30
0.0
 41
100.0
 42
100.0
 43
100.0
 50
270.0
  0
MTEXT
  5
16D31
330
160AE
100
AcDbEntity
  8
寸法
 62
     7
 48
50.0
100
AcDbMText
 10
10974.21966283139
 20
9513.828888690536
 30
0.0
 40
120.0
 41
0.0
 71
     5
 72
     1
  1
\A1;450
  7
STYLE1
 11
0.0000000000000001
 21
1.0
 31
0.0
 73
     1
 44
1.0
1001
ACAD
1000
MTEXTBEGIN
1070
    73
1070
     1
1070
    44
1040
1.0
1070
    74
1070
     0
1000
MTEXTEND
  0
POINT
  5
16D32
330
160AE
100
AcDbEntity
  8
DEFPOINTS
 62
     0
 48
50.0
100
AcDbPoint
 10
10718.86193696937
 20
9834.046704359423
 30
0.0
  0
POINT
  5
16D33
330
160AE
100
AcDbEntity
  8
DEFPOINTS
 62
     0
 48
50.0
100
AcDbPoint
 10
10718.86193696937
 20
9384.046704359423
 30
0.0
  0
POINT
  5
16D34
330
160AE
100
AcDbEntity
  8
DEFPOINTS
 62
     0
 48
50.0
100
AcDbPoint
 10
11074.2196628314
 20
9288.828888690535
 30
0.0
  0
ENDBLK
  5
160B9
330
160AE
100
AcDbEntity
  8
0
 48
50.0
100
AcDbBlockEnd
  0
BLOCK
  5
160C6
330
160BA
100
AcDbEntity
  8
0
 48
50.0
100
AcDbBlockBegin
  2
*D24
 70
     1
 10
0.0
 20
0.0
 30
0.0
  3
*D24
  1

  0
LINE
  5
16D21
330
160BA
100
AcDbEntity
  8
寸法
 62
     0
 48
50.0
370
    -2
100
AcDbLine
 10
10767.36193696937
 20
9864.046704359422
 30
0.0
 11
11454.78828270378
 21
9864.046704359422
 31
0.0
  0
LINE
  5
16D22
330
160BA
100
AcDbEntity
  8
寸法
 62
     0
 48
50.0
370
    -2
100
AcDbLine
 10
10767.36193696937
 20
9809.046704359426
 30
0.0
 11
11454.78828270378
 21
9809.046704359426
 31
0.0
  0
LINE
  5
16D23
330
160BA
100
AcDbEntity
  8
寸法
 62
     0
 48
50.0
370
    -2
100
AcDbLine
 10
11394.78828270378
 20
9809.046704359426
 30
0.0
 11
11394.78828270378
 21
9709.046704359426
 31
0.0
  0
LINE
  5
16D24
330
160BA
100
AcDbEntity
  8
寸法
 62
     0
 48
50.0
370
    -2
100
AcDbLine
 10
11394.78828270378
 20
9864.046704359422
 30
0.0
 11
11394.78828270378
 21
10281.0172671079
 31
0.0
  0
LINE
  5
16D25
330
160BA
100
AcDbEntity
  8
寸法
 62
     0
 48
50.0
370
    -2
100
AcDbLine
 10
11394.78828270378
 20
9809.046704359426
 30
0.0
 11
11394.78828270378
 21
9864.046704359422
 31
0.0
  0
INSERT
  5
16D26
330
160BA
100
AcDbEntity
  8
寸法
 62
     0
 48
50.0
370
    -2
100
AcDbBlockReference
  2
_DOTSMALL
 10
11394.78828270378
 20
9809.046704359426
 30
0.0
 41
100.0
 42
100.0
 43
100.0
 50
90.0
  0
INSERT
  5
16D27
330
160BA
100
AcDbEntity
  8
寸法
 62
     0
 48
50.0
370
    -2
100
AcDbBlockReference
  2
_DOTSMALL
 10
11394.78828270378
 20
9864.046704359422
 30
0.0
 41
100.0
 42
100.0
 43
100.0
 50
270.0
  0
MTEXT
  5
16D28
330
160BA
100
AcDbEntity
  8
寸法
 62
     7
 48
50.0
100
AcDbMText
 10
11294.78828270378
 20
10172.53198573366
 30
0.0
 40
120.0
 41
0.0
 71
     5
 72
     1
  1
\A1;55
  7
STYLE1
 11
0.0000000000000001
 21
1.0
 31
0.0
 73
     1
 44
1.0
1001
ACAD
1000
MTEXTBEGIN
1070
    73
1070
     1
1070
    44
1040
1.0
1070
    74
1070
     0
1000
MTEXTEND
  0
POINT
  5
16D29
330
160BA
100
AcDbEntity
  8
DEFPOINTS
 62
     0
 48
50.0
100
AcDbPoint
 10
10747.36193696937
 20
9864.046704359422
 30
0.0
  0
POINT
  5
16D2A
330
160BA
100
AcDbEntity
  8
DEFPOINTS
 62
     0
 48
50.0
100
AcDbPoint
 10
10747.36193696937
 20
9809.046704359426
 30
0.0
  0
POINT
  5
16D2B
330
160BA
100
AcDbEntity
  8
DEFPOINTS
 62
     0
 48
50.0
100
AcDbPoint
 10
11394.78828270378
 20
9809.046704359426
 30
0.0
  0
ENDBLK
  5
160C7
330
160BA
100
AcDbEntity
  8
0
 48
50.0
100
AcDbBlockEnd
  0
BLOCK
  5
160D2
330
160C8
100
AcDbEntity
  8
0
 48
50.0
100
AcDbBlockBegin
  2
*D25
 70
     1
 10
0.0
 20
0.0
 30
0.0
  3
*D25
  1

  0
LINE
  5
16D82
330
160C8
100
AcDbEntity
  8
寸法
 62
     0
 48
50.0
370
    -2
100
AcDbLine
 10
10767.36193696937
 20
9864.046704359422
 30
0.0
 11
11752.20161332704
 21
9864.046704359422
 31
0.0
  0
LINE
  5
16D83
330
160C8
100
AcDbEntity
  8
寸法
 62
     0
 48
50.0
370
    -2
100
AcDbLine
 10
10767.36193696935
 20
8494.046704359412
 30
0.0
 11
11752.20161332704
 21
8494.046704359412
 31
0.0
  0
LINE
  5
16D84
330
160C8
100
AcDbEntity
  8
寸法
 62
     0
 48
50.0
370
    -2
100
AcDbLine
 10
11692.20161332704
 20
9864.046704359422
 30
0.0
 11
11692.20161332704
 21
8494.046704359412
 31
0.0
  0
INSERT
  5
16D85
330
160C8
100
AcDbEntity
  8
寸法
 62
     0
 48
50.0
370
    -2
100
AcDbBlockReference
  2
_DOTSMALL
 10
11692.20161332704
 20
9864.046704359422
 30
0.0
 41
100.0
 42
100.0
 43
100.0
 50
90.0
  0
INSERT
  5
16D86
330
160C8
100
AcDbEntity
  8
寸法
 62
     0
 48
50.0
370
    -2
100
AcDbBlockReference
  2
_DOTSMALL
 10
11692.20161332704
 20
8494.046704359412
 30
0.0
 41
100.0
 42
100.0
 43
100.0
 50
270.0
  0
MTEXT
  5
16D87
330
160C8
100
AcDbEntity
  8
寸法
 62
     7
 48
50.0
100
AcDbMText
 10
11592.20161332704
 20
9213.518751885196
 30
0.0
 40
120.0
 41
0.0
 71
     5
 72
     1
  1
\A1;1370
  7
STYLE1
 11
0.0000000000000001
 21
1.0
 31
0.0
 73
     1
 44
1.0
1001
ACAD
1000
MTEXTBEGIN
1070
    73
1070
     1
1070
    44
1040
1.0
1070
    74
1070
     0
1000
MTEXTEND
  0
POINT
  5
16D88
330
160C8
100
AcDbEntity
  8
DEFPOINTS
 62
     0
 48
50.0
100
AcDbPoint
 10
10747.36193696937
 20
9864.046704359422
 30
0.0
  0
POINT
  5
16D89
330
160C8
100
AcDbEntity
  8
DEFPOINTS
 62
     0
 48
50.0
100
AcDbPoint
 10
10747.36193696935
 20
8494.046704359412
 30
0.0
  0
POINT
  5
16D8A
330
160C8
100
AcDbEntity
  8
DEFPOINTS
 62
     0
 48
50.0
100
AcDbPoint
 10
11692.20161332704
 20
8494.046704359412
 30
0.0
  0
ENDBLK
  5
160D3
330
160C8
100
AcDbEntity
  8
0
 48
50.0
100
AcDbBlockEnd
  0
BLOCK
  5
160E0
330
160D4
100
AcDbEntity
  8
0
 48
50.0
100
AcDbBlockBegin
  2
*D26
 70
     1
 10
0.0
 20
0.0
 30
0.0
  3
*D26
  1

  0
LINE
  5
16D0D
330
160D4
100
AcDbEntity
  8
寸法
 62
     0
 48
50.0
370
    -2
100
AcDbLine
 10
8957.361936969338
 20
9884.046704359327
 30
0.0
 11
8957.361936969338
 21
10220.85373116753
 31
0.0
  0
LINE
  5
16D0E
330
160D4
100
AcDbEntity
  8
寸法
 62
     0
 48
50.0
370
    -2
100
AcDbLine
 10
9012.361936969375
 20
9884.046704359327
 30
0.0
 11
9012.361936969375
 21
10220.85373116753
 31
0.0
  0
LINE
  5
16D0F
330
160D4
100
AcDbEntity
  8
寸法
 62
     0
 48
50.0
370
    -2
100
AcDbLine
 10
9012.361936969375
 20
10160.85373116753
 30
0.0
 11
9112.361936969374
 21
10160.85373116753
 31
0.0
  0
LINE
  5
16D10
330
160D4
100
AcDbEntity
  8
寸法
 62
     0
 48
50.0
370
    -2
100
AcDbLine
 10
8957.361936969338
 20
10160.85373116753
 30
0.0
 11
8540.39137422086
 21
10160.85373116753
 31
0.0
  0
LINE
  5
16D11
330
160D4
100
AcDbEntity
  8
寸法
 62
     0
 48
50.0
370
    -2
100
AcDbLine
 10
9012.361936969375
 20
10160.85373116753
 30
0.0
 11
8957.361936969338
 21
10160.85373116753
 31
0.0
  0
INSERT
  5
16D12
330
160D4
100
AcDbEntity
  8
寸法
 62
     0
 48
50.0
370
    -2
100
AcDbBlockReference
  2
_DOTSMALL
 10
9012.361936969375
 20
10160.85373116753
 30
0.0
 41
100.0
 42
100.0
 43
100.0
 50
180.0
  0
INSERT
  5
16D13
330
160D4
100
AcDbEntity
  8
寸法
 62
     0
 48
50.0
370
    -2
100
AcDbBlockReference
  2
_DOTSMALL
 10
8957.361936969338
 20
10160.85373116753
 30
0.0
 41
100.0
 42
100.0
 43
100.0
  0
MTEXT
  5
16D14
330
160D4
100
AcDbEntity
  8
寸法
 62
     7
 48
50.0
100
AcDbMText
 10
8648.876655595099
 20
10260.85373116753
 30
0.0
 40
120.0
 41
0.0
 71
     5
 72
     1
  1
\A1;55
  7
STYLE1
 73
     1
 44
1.0
1001
ACAD
1000
MTEXTBEGIN
1070
    73
1070
     1
1070
    44
1040
1.0
1070
    74
1070
     0
1000
MTEXTEND
  0
POINT
  5
16D15
330
160D4
100
AcDbEntity
  8
DEFPOINTS
 62
     0
 48
50.0
100
AcDbPoint
 10
8957.361936969338
 20
9864.046704359328
 30
0.0
  0
POINT
  5
16D16
330
160D4
100
AcDbEntity
  8
DEFPOINTS
 62
     0
 48
50.0
100
AcDbPoint
 10
9012.361936969375
 20
9864.046704359328
 30
0.0
  0
POINT
  5
16D17
330
160D4
100
AcDbEntity
  8
DEFPOINTS
 62
     0
 48
50.0
100
AcDbPoint
 10
9012.361936969375
 20
10160.85373116753
 30
0.0
  0
ENDBLK
  5
160E1
330
160D4
100
AcDbEntity
  8
0
 48
50.0
100
AcDbBlockEnd
  0
BLOCK
  5
16504
330
164FA
100
AcDbEntity
  8
0
 48
50.0
100
AcDbBlockBegin
  2
*D27
 70
     1
 10
0.0
 20
0.0
 30
0.0
  3
*D27
  1

  0
LINE
  5
16554
330
164FA
100
AcDbEntity
  8
寸法
 62
     0
 48
50.0
370
    -2
100
AcDbLine
 10
9082.361936969368
 20
2584.710702045573
 30
0.0
 11
9082.361936969368
 21
2258.663372745195
 31
0.0
  0
LINE
  5
16555
330
164FA
100
AcDbEntity
  8
寸法
 62
     0
 48
50.0
370
    -2
100
AcDbLine
 10
8832.361936969366
 20
2584.710702045573
 30
0.0
 11
8832.361936969366
 21
2258.663372745195
 31
0.0
  0
LINE
  5
16556
330
164FA
100
AcDbEntity
  8
寸法
 62
     0
 48
50.0
370
    -2
100
AcDbLine
 10
9082.361936969368
 20
2318.663372745195
 30
0.0
 11
8832.361936969366
 21
2318.663372745195
 31
0.0
  0
INSERT
  5
16557
330
164FA
100
AcDbEntity
  8
寸法
 62
     0
 48
50.0
370
    -2
100
AcDbBlockReference
  2
_DOTSMALL
 10
9082.361936969368
 20
2318.663372745195
 30
0.0
 41
100.0
 42
100.0
 43
100.0
  0
INSERT
  5
16558
330
164FA
100
AcDbEntity
  8
寸法
 62
     0
 48
50.0
370
    -2
100
AcDbBlockReference
  2
_DOTSMALL
 10
8832.361936969366
 20
2318.663372745195
 30
0.0
 41
100.0
 42
100.0
 43
100.0
 50
180.0
  0
MTEXT
  5
16559
330
164FA
100
AcDbEntity
  8
寸法
 62
     7
 48
50.0
100
AcDbMText
 10
8957.361936969366
 20
2418.675183768818
 30
0.0
 40
120.0
 41
0.0
 71
     5
 72
     1
  1
\A1;250
  7
STYLE1
 73
     1
 44
1.0
1001
ACAD
1000
MTEXTBEGIN
1070
    73
1070
     1
1070
    44
1040
1.0
1070
    74
1070
     0
1000
MTEXTEND
  0
POINT
  5
1655A
330
164FA
100
AcDbEntity
  8
DEFPOINTS
 62
     0
 48
50.0
100
AcDbPoint
 10
9082.361936969368
 20
2604.710702045573
 30
0.0
  0
POINT
  5
1655B
330
164FA
100
AcDbEntity
  8
DEFPOINTS
 62
     0
 48
50.0
100
AcDbPoint
 10
8832.361936969366
 20
2604.710702045573
 30
0.0
  0
POINT
  5
1655C
330
164FA
100
AcDbEntity
  8
DEFPOINTS
 62
     0
 48
50.0
100
AcDbPoint
 10
8832.361936969366
 20
2318.663372745195
 30
0.0
  0
ENDBLK
  5
16505
330
164FA
100
AcDbEntity
  8
0
 48
50.0
100
AcDbBlockEnd
  0
BLOCK
  5
16521
330
16517
100
AcDbEntity
  8
0
 48
50.0
100
AcDbBlockBegin
  2
*D28
 70
     1
 10
0.0
 20
0.0
 30
0.0
  3
*D28
  1

  0
LINE
  5
16542
330
16517
100
AcDbEntity
  8
寸法
 62
     0
 48
50.0
370
    -2
100
AcDbLine
 10
7235.84051860912
 20
2584.710702045573
 30
0.0
 11
7235.84051860912
 21
2258.663372745195
 31
0.0
  0
LINE
  5
16543
330
16517
100
AcDbEntity
  8
寸法
 62
     0
 48
50.0
370
    -2
100
AcDbLine
 10
6985.84051860912
 20
2584.710702045572
 30
0.0
 11
6985.84051860912
 21
2258.663372745195
 31
0.0
  0
LINE
  5
16544
330
16517
100
AcDbEntity
  8
寸法
 62
     0
 48
50.0
370
    -2
100
AcDbLine
 10
7235.84051860912
 20
2318.663372745195
 30
0.0
 11
6985.84051860912
 21
2318.663372745195
 31
0.0
  0
INSERT
  5
16545
330
16517
100
AcDbEntity
  8
寸法
 62
     0
 48
50.0
370
    -2
100
AcDbBlockReference
  2
_DOTSMALL
 10
7235.84051860912
 20
2318.663372745195
 30
0.0
 41
100.0
 42
100.0
 43
100.0
  0
INSERT
  5
16546
330
16517
100
AcDbEntity
  8
寸法
 62
     0
 48
50.0
370
    -2
100
AcDbBlockReference
  2
_DOTSMALL
 10
6985.84051860912
 20
2318.663372745195
 30
0.0
 41
100.0
 42
100.0
 43
100.0
 50
180.0
  0
MTEXT
  5
16547
330
16517
100
AcDbEntity
  8
寸法
 62
     7
 48
50.0
100
AcDbMText
 10
7110.84051860912
 20
2418.675183768818
 30
0.0
 40
120.0
 41
0.0
 71
     5
 72
     1
  1
\A1;250
  7
STYLE1
 73
     1
 44
1.0
1001
ACAD
1000
MTEXTBEGIN
1070
    73
1070
     1
1070
    44
1040
1.0
1070
    74
1070
     0
1000
MTEXTEND
  0
POINT
  5
16548
330
16517
100
AcDbEntity
  8
DEFPOINTS
 62
     0
 48
50.0
100
AcDbPoint
 10
7235.84051860912
 20
2604.710702045573
 30
0.0
  0
POINT
  5
16549
330
16517
100
AcDbEntity
  8
DEFPOINTS
 62
     0
 48
50.0
100
AcDbPoint
 10
6985.84051860912
 20
2604.710702045572
 30
0.0
  0
POINT
  5
1654A
330
16517
100
AcDbEntity
  8
DEFPOINTS
 62
     0
 48
50.0
100
AcDbPoint
 10
6985.84051860912
 20
2318.663372745195
 30
0.0
  0
ENDBLK
  5
16522
330
16517
100
AcDbEntity
  8
0
 48
50.0
100
AcDbBlockEnd
  0
BLOCK
  5
1652D
330
16523
100
AcDbEntity
  8
0
 48
50.0
100
AcDbBlockBegin
  2
*D29
 70
     1
 10
0.0
 20
0.0
 30
0.0
  3
*D29
  1

  0
LINE
  5
1654B
330
16523
100
AcDbEntity
  8
寸法
 62
     0
 48
50.0
370
    -2
100
AcDbLine
 10
7255.840518609121
 20
2604.710702045573
 30
0.0
 11
7650.998173447876
 21
2604.710702045573
 31
0.0
  0
LINE
  5
1654C
330
16523
100
AcDbEntity
  8
寸法
 62
     0
 48
50.0
370
    -2
100
AcDbLine
 10
7255.840518609121
 20
2854.710702045573
 30
0.0
 11
7650.998173447876
 21
2854.710702045573
 31
0.0
  0
LINE
  5
1654D
330
16523
100
AcDbEntity
  8
寸法
 62
     0
 48
50.0
370
    -2
100
AcDbLine
 10
7590.998173447876
 20
2604.710702045573
 30
0.0
 11
7590.998173447876
 21
2854.710702045573
 31
0.0
  0
INSERT
  5
1654E
330
16523
100
AcDbEntity
  8
寸法
 62
     0
 48
50.0
370
    -2
100
AcDbBlockReference
  2
_DOTSMALL
 10
7590.998173447876
 20
2604.710702045573
 30
0.0
 41
100.0
 42
100.0
 43
100.0
 50
270.0
  0
INSERT
  5
1654F
330
16523
100
AcDbEntity
  8
寸法
 62
     0
 48
50.0
370
    -2
100
AcDbBlockReference
  2
_DOTSMALL
 10
7590.998173447876
 20
2854.710702045573
 30
0.0
 41
100.0
 42
100.0
 43
100.0
 50
90.0
  0
MTEXT
  5
16550
330
16523
100
AcDbEntity
  8
寸法
 62
     7
 48
50.0
100
AcDbMText
 10
7490.986362424253
 20
2729.710702045574
 30
0.0
 40
120.0
 41
0.0
 71
     5
 72
     1
  1
\A1;250
  7
STYLE1
 11
0.0000000000000001
 21
1.0
 31
0.0
 73
     1
 44
1.0
1001
ACAD
1000
MTEXTBEGIN
1070
    73
1070
     1
1070
    44
1040
1.0
1070
    74
1070
     0
1000
MTEXTEND
  0
POINT
  5
16551
330
16523
100
AcDbEntity
  8
DEFPOINTS
 62
     0
 48
50.0
100
AcDbPoint
 10
7235.84051860912
 20
2604.710702045573
 30
0.0
  0
POINT
  5
16552
330
16523
100
AcDbEntity
  8
DEFPOINTS
 62
     0
 48
50.0
100
AcDbPoint
 10
7235.84051860912
 20
2854.710702045573
 30
0.0
  0
POINT
  5
16553
330
16523
100
AcDbEntity
  8
DEFPOINTS
 62
     0
 48
50.0
100
AcDbPoint
 10
7590.998173447876
 20
2854.710702045573
 30
0.0
  0
ENDBLK
  5
1652E
330
16523
100
AcDbEntity
  8
0
 48
50.0
100
AcDbBlockEnd
  0
BLOCK
  5
16845
330
1683B
100
AcDbEntity
  8
0
 48
50.0
100
AcDbBlockBegin
  2
*D30
 70
     1
 10
0.0
 20
0.0
 30
0.0
  3
*D30
  1

  0
LINE
  5
16D04
330
1683B
100
AcDbEntity
  8
寸法
 62
     0
 48
50.0
370
    -2
100
AcDbLine
 10
9024.361936969338
 20
8397.046704359254
 30
0.0
 11
9024.361936969338
 21
7751.97168631103
 31
0.0
  0
LINE
  5
16D05
330
1683B
100
AcDbEntity
  8
寸法
 62
     0
 48
50.0
370
    -2
100
AcDbLine
 10
9974.361936969337
 20
8397.046704359254
 30
0.0
 11
9974.361936969337
 21
7751.97168631103
 31
0.0
  0
LINE
  5
16D06
330
1683B
100
AcDbEntity
  8
寸法
 62
     0
 48
50.0
370
    -2
100
AcDbLine
 10
9044.361936969336
 20
7791.971686311029
 30
0.0
 11
9954.361936969338
 21
7791.971686311029
 31
0.0
  0
INSERT
  5
16D07
330
1683B
100
AcDbEntity
  8
寸法
 62
     0
 48
50.0
370
    -2
100
AcDbBlockReference
  2
_DOT
 10
9024.361936969338
 20
7791.971686311029
 30
0.0
 41
20.0
 42
20.0
 43
20.0
 50
180.0
  0
INSERT
  5
16D08
330
1683B
100
AcDbEntity
  8
寸法
 62
     0
 48
50.0
370
    -2
100
AcDbBlockReference
  2
_DOT
 10
9974.361936969337
 20
7791.971686311029
 30
0.0
 41
20.0
 42
20.0
 43
20.0
  0
MTEXT
  5
16D09
330
1683B
100
AcDbEntity
  8
寸法
 62
     7
 48
50.0
100
AcDbMText
 10
9499.361936969338
 20
7983.971686311029
 30
0.0
 40
120.0
 41
0.0
 71
     5
 72
     1
  1
\A1;有効開口部間口\P950
  7
STYLE1
 73
     1
 44
1.0
1001
ACAD
1000
MTEXTBEGIN
1070
    73
1070
     1
1070
    44
1040
1.0
1070
    74
1070
     0
1000
MTEXTEND
  0
POINT
  5
16D0A
330
1683B
100
AcDbEntity
  8
DEFPOINTS
 62
     0
 48
50.0
100
AcDbPoint
 10
9024.361936969338
 20
8417.046704359256
 30
0.0
  0
POINT
  5
16D0B
330
1683B
100
AcDbEntity
  8
DEFPOINTS
 62
     0
 48
50.0
100
AcDbPoint
 10
9974.361936969337
 20
8417.046704359256
 30
0.0
  0
POINT
  5
16D0C
330
1683B
100
AcDbEntity
  8
DEFPOINTS
 62
     0
 48
50.0
100
AcDbPoint
 10
9974.361936969337
 20
7791.971686311029
 30
0.0
  0
ENDBLK
  5
16846
330
1683B
100
AcDbEntity
  8
0
 48
50.0
100
AcDbBlockEnd
  0
BLOCK
  5
16B1B
330
16B11
100
AcDbEntity
  8
0
 48
50.0
100
AcDbBlockBegin
  2
*D31
 70
     1
 10
0.0
 20
0.0
 30
0.0
  3
*D31
  1

  0
LINE
  5
16CFB
330
16B11
100
AcDbEntity
  8
寸法
 62
     0
 48
50.0
370
    -2
100
AcDbLine
 10
8985.361936969338
 20
8397.046704359254
 30
0.0
 11
8985.361936969338
 21
7481.976434508474
 31
0.0
  0
LINE
  5
16CFC
330
16B11
100
AcDbEntity
  8
寸法
 62
     0
 48
50.0
370
    -2
100
AcDbLine
 10
10719.36193696934
 20
8397.046704359253
 30
0.0
 11
10719.36193696934
 21
7481.976434508474
 31
0.0
  0
LINE
  5
16CFD
330
16B11
100
AcDbEntity
  8
寸法
 62
     0
 48
50.0
370
    -2
100
AcDbLine
 10
8985.361936969338
 20
7541.976434508473
 30
0.0
 11
10719.36193696934
 21
7541.976434508473
 31
0.0
  0
INSERT
  5
16CFE
330
16B11
100
AcDbEntity
  8
寸法
 62
     0
 48
50.0
370
    -2
100
AcDbBlockReference
  2
_DOTSMALL
 10
8985.361936969338
 20
7541.976434508473
 30
0.0
 41
100.0
 42
100.0
 43
100.0
 50
180.0
  0
INSERT
  5
16CFF
330
16B11
100
AcDbEntity
  8
寸法
 62
     0
 48
50.0
370
    -2
100
AcDbBlockReference
  2
_DOTSMALL
 10
10719.36193696934
 20
7541.976434508473
 30
0.0
 41
100.0
 42
100.0
 43
100.0
  0
MTEXT
  5
16D00
330
16B11
100
AcDbEntity
  8
寸法
 62
     7
 48
50.0
100
AcDbMText
 10
9842.943680921159
 20
7641.976434508473
 30
0.0
 40
120.0
 41
0.0
 71
     5
 72
     1
  1
\A1;1734
  7
STYLE1
 73
     1
 44
1.0
1001
ACAD
1000
MTEXTBEGIN
1070
    73
1070
     1
1070
    44
1040
1.0
1070
    74
1070
     0
1000
MTEXTEND
  0
POINT
  5
16D01
330
16B11
100
AcDbEntity
  8
DEFPOINTS
 62
     0
 48
50.0
100
AcDbPoint
 10
8985.361936969338
 20
8417.046704359256
 30
0.0
  0
POINT
  5
16D02
330
16B11
100
AcDbEntity
  8
DEFPOINTS
 62
     0
 48
50.0
100
AcDbPoint
 10
10719.36193696934
 20
8417.046704359252
 30
0.0
  0
POINT
  5
16D03
330
16B11
100
AcDbEntity
  8
DEFPOINTS
 62
     0
 48
50.0
100
AcDbPoint
 10
10719.36193696934
 20
7541.976434508473
 30
0.0
  0
ENDBLK
  5
16B1C
330
16B11
100
AcDbEntity
  8
0
 48
50.0
100
AcDbBlockEnd
  0
BLOCK
  5
16B29
330
16B1D
100
AcDbEntity
  8
0
 48
50.0
100
AcDbBlockBegin
  2
*D32
 70
     1
 10
0.0
 20
0.0
 30
0.0
  3
*D32
  1

  0
LINE
  5
16CF0
330
16B1D
100
AcDbEntity
  8
寸法
 62
     0
 48
50.0
370
    -2
100
AcDbLine
 10
8937.361936969365
 20
8494.046704359249
 30
0.0
 11
8622.75069134265
 21
8494.046704359249
 31
0.0
  0
LINE
  5
16CF1
330
16B1D
100
AcDbEntity
  8
寸法
 62
     0
 48
50.0
370
    -2
100
AcDbLine
 10
8965.361936969344
 20
8419.046704359249
 30
0.0
 11
8622.75069134265
 21
8419.046704359249
 31
0.0
  0
LINE
  5
16CF2
330
16B1D
100
AcDbEntity
  8
寸法
 62
     0
 48
50.0
370
    -2
100
AcDbLine
 10
8662.750691342649
 20
8514.04670435925
 30
0.0
 11
8662.750691342649
 21
8534.04670435925
 31
0.0
  0
LINE
  5
16CF3
330
16B1D
100
AcDbEntity
  8
寸法
 62
     0
 48
50.0
370
    -2
100
AcDbLine
 10
8662.750691342649
 20
8399.046704359248
 30
0.0
 11
8662.750691342649
 21
8178.07614161077
 31
0.0
  0
LINE
  5
16CF4
330
16B1D
100
AcDbEntity
  8
寸法
 62
     0
 48
50.0
370
    -2
100
AcDbLine
 10
8662.750691342649
 20
8494.046704359249
 30
0.0
 11
8662.750691342649
 21
8419.046704359249
 31
0.0
  0
INSERT
  5
16CF5
330
16B1D
100
AcDbEntity
  8
寸法
 62
     0
 48
50.0
370
    -2
100
AcDbBlockReference
  2
_DOT
 10
8662.750691342649
 20
8494.046704359249
 30
0.0
 41
20.0
 42
20.0
 43
20.0
 50
270.0
  0
INSERT
  5
16CF6
330
16B1D
100
AcDbEntity
  8
寸法
 62
     0
 48
50.0
370
    -2
100
AcDbBlockReference
  2
_DOT
 10
8662.750691342649
 20
8419.046704359249
 30
0.0
 41
20.0
 42
20.0
 43
20.0
 50
90.0
  0
MTEXT
  5
16CF7
330
16B1D
100
AcDbEntity
  8
寸法
 62
     7
 48
50.0
100
AcDbMText
 10
8570.750691342649
 20
8278.561422985012
 30
0.0
 40
120.0
 41
0.0
 71
     5
 72
     1
  1
\A1;75
  7
STYLE1
 11
0.0000000000000001
 21
1.0
 31
0.0
 73
     1
 44
1.0
1001
ACAD
1000
MTEXTBEGIN
1070
    73
1070
     1
1070
    44
1040
1.0
1070
    74
1070
     0
1000
MTEXTEND
  0
POINT
  5
16CF8
330
16B1D
100
AcDbEntity
  8
DEFPOINTS
 62
     0
 48
50.0
100
AcDbPoint
 10
8957.361936969366
 20
8494.046704359249
 30
0.0
  0
POINT
  5
16CF9
330
16B1D
100
AcDbEntity
  8
DEFPOINTS
 62
     0
 48
50.0
100
AcDbPoint
 10
8985.361936969345
 20
8419.046704359249
 30
0.0
  0
POINT
  5
16CFA
330
16B1D
100
AcDbEntity
  8
DEFPOINTS
 62
     0
 48
50.0
100
AcDbPoint
 10
8662.750691342649
 20
8419.046704359249
 30
0.0
  0
ENDBLK
  5
16B2A
330
16B1D
100
AcDbEntity
  8
0
 48
50.0
100
AcDbBlockEnd
  0
BLOCK
  5
16B73
330
16B69
100
AcDbEntity
  8
0
 48
50.0
100
AcDbBlockBegin
  2
*D33
 70
     1
 10
0.0
 20
0.0
 30
0.0
  3
*D33
  1

  0
LINE
  5
16CE7
330
16B69
100
AcDbEntity
  8
寸法
 62
     0
 48
50.0
370
    -2
100
AcDbLine
 10
8957.361936969366
 20
8474.046704359249
 30
0.0
 11
8957.361936969366
 21
7242.218913614346
 31
0.0
  0
LINE
  5
16CE8
330
16B69
100
AcDbEntity
  8
寸法
 62
     0
 48
50.0
370
    -2
100
AcDbLine
 10
10747.36193696935
 20
8474.046704359379
 30
0.0
 11
10747.36193696935
 21
7242.218913614346
 31
0.0
  0
LINE
  5
16CE9
330
16B69
100
AcDbEntity
  8
寸法
 62
     0
 48
50.0
370
    -2
100
AcDbLine
 10
8957.361936969366
 20
7302.218913614346
 30
0.0
 11
10747.36193696935
 21
7302.218913614346
 31
0.0
  0
INSERT
  5
16CEA
330
16B69
100
AcDbEntity
  8
寸法
 62
     0
 48
50.0
370
    -2
100
AcDbBlockReference
  2
_DOTSMALL
 10
8957.361936969366
 20
7302.218913614346
 30
0.0
 41
100.0
 42
100.0
 43
100.0
 50
180.0
  0
INSERT
  5
16CEB
330
16B69
100
AcDbEntity
  8
寸法
 62
     0
 48
50.0
370
    -2
100
AcDbBlockReference
  2
_DOTSMALL
 10
10747.36193696935
 20
7302.218913614346
 30
0.0
 41
100.0
 42
100.0
 43
100.0
  0
MTEXT
  5
16CEC
330
16B69
100
AcDbEntity
  8
寸法
 62
     7
 48
50.0
100
AcDbMText
 10
9840.508687300721
 20
7402.218913614347
 30
0.0
 40
120.0
 41
0.0
 71
     5
 72
     1
  1
\A1;1790
  7
STYLE1
 73
     1
 44
1.0
1001
ACAD
1000
MTEXTBEGIN
1070
    73
1070
     1
1070
    44
1040
1.0
1070
    74
1070
     0
1000
MTEXTEND
  0
POINT
  5
16CED
330
16B69
100
AcDbEntity
  8
DEFPOINTS
 62
     0
 48
50.0
100
AcDbPoint
 10
8957.361936969366
 20
8494.046704359249
 30
0.0
  0
POINT
  5
16CEE
330
16B69
100
AcDbEntity
  8
DEFPOINTS
 62
     0
 48
50.0
100
AcDbPoint
 10
10747.36193696935
 20
8494.046704359378
 30
0.0
  0
POINT
  5
16CEF
330
16B69
100
AcDbEntity
  8
DEFPOINTS
 62
     0
 48
50.0
100
AcDbPoint
 10
10747.36193696935
 20
7302.218913614346
 30
0.0
  0
ENDBLK
  5
16B74
330
16B69
100
AcDbEntity
  8
0
 48
50.0
100
AcDbBlockEnd
  0
ENDSEC
  0
SECTION
  2
ENTITIES
  0
LINE
  5
10B57
330
747D
100
AcDbEntity
  8
補助
  6
PHANTOM
 62
   230
 48
50.0
100
AcDbLine
 10
139.9999999999995
 20
11409.6
 30
0.0
 11
16307.2
 21
11409.6
 31
0.0
  0
LINE
  5
10B59
330
747D
100
AcDbEntity
  8
仕様書枠
  6
Continuous
 48
50.0
100
AcDbLine
 10
13107.2
 20
1200.0
 30
0.0
 11
13107.2
 21
-0.0000000000000729
 31
0.0
  0
LINE
  5
10B5C
330
747D
100
AcDbEntity
  8
仕様書枠
 48
50.0
100
AcDbLine
 10
16307.2
 20
1200.0
 30
0.0
 11
16307.2
 21
-0.0000000000000909
 31
0.0
  0
LINE
  5
10B5D
330
747D
100
AcDbEntity
  8
仕様書枠
 48
50.0
100
AcDbLine
 10
140.0
 20
0.0
 30
0.0
 11
16307.2
 21
-0.0000000000000909
 31
0.0
  0
LINE
  5
10B5E
330
747D
100
AcDbEntity
  8
補助
  6
PHANTOM
 62
   230
 48
50.0
100
AcDbLine
 10
16307.2
 20
11409.6
 30
0.0
 11
16307.2
 21
1200.0
 31
0.0
  0
LINE
  5
10B6C
330
747D
100
AcDbEntity
  8
仕様書枠
 48
50.0
100
AcDbLine
 10
13107.2
 20
1200.0
 30
0.0
 11
16307.2
 21
1200.0
 31
0.0
  0
LINE
  5
10B6D
330
747D
100
AcDbEntity
  8
補助
  6
PHANTOM
 62
   230
 48
50.0
100
AcDbLine
 10
13107.2
 20
11409.6
 30
0.0
 11
13107.2
 21
4800.0
 31
0.0
  0
LINE
  5
10B6F
330
747D
100
AcDbEntity
  8
補助
  6
PHANTOM
 62
   230
 48
50.0
100
AcDbLine
 10
13107.2
 20
4800.0
 30
0.0
 11
16307.2
 21
4800.0
 31
0.0
  0
LINE
  5
10B72
330
747D
100
AcDbEntity
  8
文字
 62
     7
 48
50.0
100
AcDbLine
 10
13187.2
 20
400.0
 30
0.0
 11
16227.2
 21
400.0
 31
0.0
  0
TEXT
  5
10B73
330
747D
100
AcDbEntity
  8
文字
 62
     7
 48
50.0
100
AcDbText
 10
13162.9790565769
 20
895.0906074299405
 30
0.0
 40
200.0
  1
外 形 図
  7
STYLE2
100
AcDbText
  0
TEXT
  5
10B74
330
747D
100
AcDbEntity
  8
文字
 62
     7
 48
50.0
100
AcDbText
 10
13201.43669998441
 20
477.2740661031255
 30
0.0
 40
160.0
  1
機種名
  7
STYLE2
100
AcDbText
  0
TEXT
  5
10B76
330
747D
100
AcDbEntity
  8
文字
 62
     7
 48
50.0
100
AcDbText
 10
13209.4053442172
 20
76.09434707649343
 30
0.0
 40
100.0
  1
○床面積 ： 2.59㎡(0.78坪) 　
  7
STYLE2
100
AcDbText
  0
TEXT
  5
10B79
330
747D
100
AcDbEntity
  8
文字
 62
     7
 48
50.0
100
AcDbText
 10
14524.131837222
 20
1031.557706291228
 30
0.0
 40
100.0
  1
NO.05      <縮尺> S=1/40
  7
STYLE2
100
AcDbText
  0
LINE
  5
10B7B
330
747D
100
AcDbEntity
  8
仕様書枠
 48
50.0
100
AcDbLine
 10
13107.2
 20
800.0
 30
0.0
 11
14251.2
 21
800.0
 31
0.0
  0
LINE
  5
10B88
330
747D
100
AcDbEntity
  8
仕様書枠
  6
Continuous
 48
50.0
100
AcDbLine
 10
14251.2
 20
1200.0
 30
0.0
 11
14251.2
 21
800.0
 31
0.0
  0
TEXT
  5
14D2F
330
747D
100
AcDbEntity
  8
文字
 62
     7
 48
50.0
100
AcDbText
 10
14644.07818602837
 20
876.4448062548634
 30
0.0
 40
100.0
  1
～一般型・多雪地型～
  7
STYLE2
100
AcDbText
  0
MTEXT
  5
15CAA
330
747D
100
AcDbEntity
  8
寸法
 62
     7
 48
50.0
100
AcDbMText
 10
10307.46447406251
 20
9450.281522556732
 30
0.0
 40
96.0
 41
0.0
 71
     5
 72
     1
  1
棚 3段
  7
STYLE1
 73
     1
 44
1.0
1001
ACAD
1000
MTEXTBEGIN
1070
    73
1070
     1
1070
    44
1040
1.0
1070
    74
1070
     0
1000
MTEXTEND
  0
LINE
  5
15CAB
330
747D
100
AcDbEntity
  8
部品1
 48
50.0
100
AcDbLine
 10
6553.340518609124
 20
2954.710702045574
 30
0.0
 11
6553.340518609123
 21
2854.710702045574
 31
0.0
  0
LINE
  5
15CAC
330
747D
100
AcDbEntity
  8
部品1
 48
50.0
100
AcDbLine
 10
6353.340518609122
 20
2954.710702045574
 30
0.0
 11
6353.340518609122
 21
2854.710702045574
 31
0.0
  0
DIMENSION
  5
15CAD
330
747D
100
AcDbEntity
  8
寸法
100
AcDbDimension
  2
*D2
 10
5144.687809450823
 20
2954.710702045572
 30
0.0
 11
5144.687809450823
 21
2648.663457951081
 31
0.0
 70
   160
 71
     5
 42
50.0
  3
INABA_S40G
100
AcDbAlignedDimension
 13
5768.340518609121
 23
3004.710702045573
 33
0.0
 14
5713.34051860912
 24
2954.710702045572
 34
0.0
 50
90.0
100
AcDbRotatedDimension
1001
ACAD
1000
DSTYLE
1002
{
1070
   174
1070
     0
1070
   272
1070
     1
1070
   288
1070
     0
1070
   341
1005
0
1002
}
  0
DIMENSION
  5
15CAE
330
747D
100
AcDbEntity
  8
寸法
100
AcDbDimension
  2
*D3
 10
4859.701136679762
 20
2854.710702045573
 30
0.0
 11
4859.701136679762
 21
2618.66345795108
 31
0.0
 70
   160
 71
     5
 42
100.0
  3
INABA_S40G
100
AcDbAlignedDimension
 13
5713.34051860912
 23
2954.710702045572
 33
0.0
 14
5144.687809450823
 24
2854.710702045573
 34
0.0
 50
90.0
100
AcDbRotatedDimension
1001
ACAD
1000
DSTYLE
1002
{
1070
   174
1070
     0
1070
   272
1070
     1
1070
   288
1070
     0
1070
   341
1005
0
1002
}
  0
DIMENSION
  5
15CAF
330
747D
100
AcDbEntity
  8
寸法
100
AcDbDimension
  2
*D4
 10
4859.701136679762
 20
5329.710702045577
 30
0.0
 11
4859.701136679762
 21
4049.710702045572
 31
0.0
 70
   160
 71
     5
 42
2375.000000000004
  3
INABA_S40G
100
AcDbAlignedDimension
 13
5768.340518609121
 23
2954.710702045572
 33
0.0
 14
5708.34051860912
 24
5329.710702045577
 34
0.0
 50
90.0
100
AcDbRotatedDimension
1001
ACAD
1000
DSTYLE
1002
{
1070
   174
1070
     0
1070
   272
1070
     1
1070
   288
1070
     0
1070
   341
1005
0
1002
}
  0
DIMENSION
  5
15CB0
330
747D
100
AcDbEntity
  8
寸法
100
AcDbDimension
  2
*D5
 10
5144.687809450823
 20
3004.710702045573
 30
0.0
 11
5144.687809450823
 21
4049.710702045572
 31
0.0
 70
   160
 71
     5
 42
2089.999999999999
  3
INABA_S40G
100
AcDbAlignedDimension
 13
5768.340518609121
 23
5094.710702045572
 33
0.0
 14
5768.340518609121
 24
3004.710702045573
 34
0.0
 50
90.0
100
AcDbRotatedDimension
1001
ACAD
1000
DSTYLE
1002
{
1070
   174
1070
     0
1070
   272
1070
     1
1070
   288
1070
     0
1070
   341
1005
0
1002
}
  0
LINE
  5
15CB1
330
747D
100
AcDbEntity
  8
部品1
 48
50.0
100
AcDbLine
 10
7215.340518609124
 20
2954.710702045572
 30
0.0
 11
7138.340518609123
 21
2954.710702045573
 31
0.0
  0
LINE
  5
15CB2
330
747D
100
AcDbEntity
  8
部品1
 48
50.0
100
AcDbLine
 10
7215.340518609124
 20
5079.710702045573
 30
0.0
 11
7215.340518609124
 21
2854.710702045573
 31
0.0
  0
LINE
  5
15CB3
330
747D
100
AcDbEntity
  8
部品1
 48
50.0
100
AcDbLine
 10
7138.340518609123
 20
5089.710702045572
 30
0.0
 11
7215.340518609124
 21
5079.710702045573
 31
0.0
  0
LINE
  5
15CB4
330
747D
100
AcDbEntity
  8
部品1
100
AcDbLine
 10
5768.340518609118
 20
5094.710702045573
 30
0.0
 11
7138.340518609123
 21
5094.710702045573
 31
0.0
  0
LINE
  5
15CB5
330
747D
100
AcDbEntity
  8
部品1
100
AcDbLine
 10
5768.340518609118
 20
3004.710702045573
 30
0.0
 11
7138.340518609123
 21
3004.710702045574
 31
0.0
  0
LINE
  5
15CB6
330
747D
100
AcDbEntity
  8
部品1
100
AcDbLine
 10
5768.340518609118
 20
2954.710702045574
 30
0.0
 11
5775.840518609118
 21
2954.710702045573
 31
0.0
  0
LINE
  5
15CB7
330
747D
100
AcDbEntity
  8
部品1
100
AcDbLine
 10
5823.340518609119
 20
5094.710702045573
 30
0.0
 11
5823.340518609119
 21
3004.710702045573
 31
0.0
  0
LINE
  5
15CB8
330
747D
100
AcDbEntity
  8
部品1
100
AcDbLine
 10
5768.340518609124
 20
5186.287595986016
 30
0.0
 11
5768.340518609118
 21
2854.710702045574
 31
0.0
  0
LINE
  5
15CB9
330
747D
100
AcDbEntity
  8
部品1
100
AcDbLine
 10
6243.340518609119
 20
5094.710702045573
 30
0.0
 11
6243.340518609119
 21
3004.710702045573
 31
0.0
  0
LINE
  5
15CBA
330
747D
100
AcDbEntity
  8
部品1
100
AcDbLine
 10
7138.340518609118
 20
5149.347282880826
 30
0.0
 11
7138.340518609123
 21
2854.710702045574
 31
0.0
  0
LINE
  5
15CBB
330
747D
100
AcDbEntity
  8
部品1
100
AcDbLine
 10
7083.340518609123
 20
5094.710702045573
 30
0.0
 11
7083.340518609123
 21
3004.710702045573
 31
0.0
  0
DIMENSION
  5
15CBC
330
747D
100
AcDbEntity
  8
寸法
100
AcDbDimension
  2
*D6
 10
7843.267676581248
 20
5274.710702045574
 30
0.0
 11
7743.255865557626
 21
4114.710702045574
 31
0.0
 70
    32
 71
     5
 42
2320.000000000002
  3
INABA_S40G
100
AcDbAlignedDimension
 13
7215.340518609124
 23
2954.710702045572
 33
0.0
 14
7218.340518609121
 24
5274.710702045574
 34
0.0
 50
90.0
100
AcDbRotatedDimension
1001
ACAD
1000
DSTYLE
1002
{
1070
   174
1070
     0
1070
   272
1070
     1
1070
   288
1070
     0
1070
   341
1005
0
1002
}
  0
LINE
  5
15CBD
330
747D
100
AcDbEntity
  8
部品1
100
AcDbLine
 10
5968.340518609118
 20
2954.710702045574
 30
0.0
 11
5968.340518609118
 21
2854.710702045574
 31
0.0
  0
LINE
  5
15CBE
330
747D
100
AcDbEntity
  8
部品1
100
AcDbLine
 10
6938.340518609122
 20
2954.710702045574
 30
0.0
 11
6938.340518609122
 21
2854.710702045574
 31
0.0
  0
DIMENSION
  5
15CBF
330
747D
100
AcDbEntity
  8
寸法
 48
50.0
100
AcDbDimension
  2
*D7
 10
5768.340518609121
 20
5728.368155624877
 30
0.0
 11
6418.159551499666
 21
5728.368155624877
 31
0.0
 70
   160
  1
柱外寸法<>
 71
     5
 42
1370.0
  3
INABA_S40G
100
AcDbAlignedDimension
 13
7138.340518609121
 23
5276.521381657227
 33
0.0
 14
5768.340518609121
 24
5325.71232016855
 34
0.0
100
AcDbRotatedDimension
1001
ACAD
1000
DSTYLE
1002
{
1070
   174
1070
     0
1070
   272
1070
     1
1070
   288
1070
     0
1070
   341
1005
0
1002
}
  0
DIMENSION
  5
15CC0
330
747D
100
AcDbEntity
  8
寸法
 48
50.0
100
AcDbDimension
  2
*D8
 10
5708.34051860912
 20
5728.368155624877
 30
0.0
 11
5398.70272333353
 21
5728.368155624877
 31
0.0
 70
   160
 71
     5
 42
60.0
  3
INABA_S40G
100
AcDbAlignedDimension
 13
5768.340518609121
 23
5325.71232016855
 33
0.0
 14
5708.34051860912
 24
5329.710702045577
 34
0.0
100
AcDbRotatedDimension
1001
ACAD
1000
DSTYLE
1002
{
1070
   174
1070
     0
1070
   272
1070
     1
1070
   288
1070
     0
1070
   341
1005
0
1002
}
  0
DIMENSION
  5
15CC1
330
747D
100
AcDbEntity
  8
寸法
 48
50.0
100
AcDbDimension
  2
*D9
 10
5708.34051860912
 20
5936.542476816842
 30
0.0
 11
6435.465348310943
 21
5936.542476816842
 31
0.0
 70
   160
 71
     5
 42
1510.0
  3
INABA_S40G
100
AcDbAlignedDimension
 13
7218.340518609121
 23
5274.710702045574
 33
0.0
 14
5708.34051860912
 24
5329.710702045577
 34
0.0
100
AcDbRotatedDimension
1001
ACAD
1000
DSTYLE
1002
{
1070
   174
1070
     0
1070
   272
1070
     1
1070
   288
1070
     0
1070
   341
1005
0
1002
}
  0
LINE
  5
15CC2
330
747D
100
AcDbEntity
  8
破線
  6
HIDDEN
 48
5.0
100
AcDbLine
 10
7145.840518609121
 20
2699.710702045573
 30
0.0
 11
7075.840518609121
 21
2699.710702045573
 31
0.0
  0
LINE
  5
15CC3
330
747D
100
AcDbEntity
  8
破線
  6
HIDDEN
 48
5.0
100
AcDbLine
 10
7090.840518609117
 20
2849.710702045573
 30
0.0
 11
7075.840518609121
 21
2702.010702045574
 31
0.0
  0
LINE
  5
15CC4
330
747D
100
AcDbEntity
  8
破線
  6
HIDDEN
 48
5.0
100
AcDbLine
 10
7075.840518609121
 20
2702.010702045574
 30
0.0
 11
7075.840518609121
 21
2699.710702045573
 31
0.0
  0
LINE
  5
15CC5
330
747D
100
AcDbEntity
  8
破線
  6
HIDDEN
 48
5.0
100
AcDbLine
 10
7130.840518609121
 20
2849.710702045573
 30
0.0
 11
7145.840518609121
 21
2702.010702045574
 31
0.0
  0
LINE
  5
15CC6
330
747D
100
AcDbEntity
  8
破線
  6
HIDDEN
 48
5.0
100
AcDbLine
 10
7145.840518609121
 20
2702.010702045574
 30
0.0
 11
7145.840518609121
 21
2699.710702045573
 31
0.0
  0
LINE
  5
15CC7
330
747D
100
AcDbEntity
  8
破線
  6
HIDDEN
 48
5.0
100
AcDbLine
 10
5760.840518609117
 20
2699.710702045573
 30
0.0
 11
5830.840518609117
 21
2699.710702045573
 31
0.0
  0
LINE
  5
15CC8
330
747D
100
AcDbEntity
  8
破線
  6
HIDDEN
 48
5.0
100
AcDbLine
 10
5760.840518609117
 20
2702.010702045573
 30
0.0
 11
5760.840518609117
 21
2699.710702045573
 31
0.0
  0
LINE
  5
15CC9
330
747D
100
AcDbEntity
  8
破線
  6
HIDDEN
 48
5.0
100
AcDbLine
 10
5830.840518609121
 20
2702.010702045573
 30
0.0
 11
5830.840518609117
 21
2699.710702045573
 31
0.0
  0
LINE
  5
15CCA
330
747D
100
AcDbEntity
  8
破線
  6
HIDDEN
 48
5.0
100
AcDbLine
 10
5775.84051860912
 20
2849.710702045573
 30
0.0
 11
5760.840518609117
 21
2702.010702045573
 31
0.0
  0
LINE
  5
15CCB
330
747D
100
AcDbEntity
  8
破線
  6
HIDDEN
 48
5.0
100
AcDbLine
 10
5815.840518609121
 20
2849.710702045573
 30
0.0
 11
5830.840518609121
 21
2702.010702045573
 31
0.0
  0
LINE
  5
15CCC
330
747D
100
AcDbEntity
  8
部品1
 48
50.0
100
AcDbLine
 10
5775.840518609117
 20
2994.710702045574
 30
0.0
 11
5775.84051860912
 21
2854.710702045573
 31
0.0
  0
LINE
  5
15CCD
330
747D
100
AcDbEntity
  8
部品1
 48
50.0
100
AcDbLine
 10
5815.840518609121
 20
2994.710702045573
 30
0.0
 11
5815.840518609117
 21
2854.710702045573
 31
0.0
  0
LINE
  5
15CCE
330
747D
100
AcDbEntity
  8
部品1
100
AcDbLine
 10
5780.840518609117
 20
2999.710702045574
 30
0.0
 11
5810.84051860912
 21
2999.710702045573
 31
0.0
  0
ARC
  5
15CCF
330
747D
100
AcDbEntity
  8
部品1
 48
50.0
100
AcDbCircle
 10
5780.840518609117
 20
2994.710702045574
 30
0.0
 40
5.0
100
AcDbArc
 50
90.0
 51
180.0
  0
ARC
  5
15CD0
330
747D
100
AcDbEntity
  8
部品1
 48
50.0
100
AcDbCircle
 10
5810.84051860912
 20
2994.710702045573
 30
0.0
 40
5.0
100
AcDbArc
 50
0.0
 51
90.0
  0
LINE
  5
15CD1
330
747D
100
AcDbEntity
  8
部品1
 48
50.0
100
AcDbLine
 10
7090.840518609117
 20
2994.710702045573
 30
0.0
 11
7090.84051860912
 21
2854.710702045574
 31
0.0
  0
LINE
  5
15CD2
330
747D
100
AcDbEntity
  8
部品1
 48
50.0
100
AcDbLine
 10
7130.840518609121
 20
2994.710702045573
 30
0.0
 11
7130.840518609116
 21
2854.710702045574
 31
0.0
  0
LINE
  5
15CD3
330
747D
100
AcDbEntity
  8
部品1
100
AcDbLine
 10
7125.840518609121
 20
2999.710702045573
 30
0.0
 11
7095.840518609117
 21
2999.710702045573
 31
0.0
  0
ARC
  5
15CD4
330
747D
100
AcDbEntity
  8
部品1
 48
50.0
100
AcDbCircle
 10
7095.840518609117
 20
2994.710702045573
 30
0.0
 40
5.0
100
AcDbArc
 50
90.0
 51
180.0
  0
ARC
  5
15CD5
330
747D
100
AcDbEntity
  8
部品1
 48
50.0
100
AcDbCircle
 10
7125.840518609121
 20
2994.710702045573
 30
0.0
 40
5.0
100
AcDbArc
 50
0.0
 51
90.0
  0
LINE
  5
15CD6
330
747D
100
AcDbEntity
  8
破線
  6
HIDDEN
 48
5.0
100
AcDbLine
 10
7090.84051860912
 20
2854.710702045574
 30
0.0
 11
7090.84051860912
 21
2849.710702045573
 31
0.0
  0
LINE
  5
15CD7
330
747D
100
AcDbEntity
  8
破線
  6
HIDDEN
 48
5.0
100
AcDbLine
 10
7130.840518609116
 20
2854.710702045574
 30
0.0
 11
7130.840518609116
 21
2849.710702045573
 31
0.0
  0
LINE
  5
15CD8
330
747D
100
AcDbEntity
  8
破線
  6
HIDDEN
 48
5.0
100
AcDbLine
 10
5775.840518609124
 20
2854.710702045573
 30
0.0
 11
5775.840518609124
 21
2849.710702045573
 31
0.0
  0
LINE
  5
15CD9
330
747D
100
AcDbEntity
  8
破線
  6
HIDDEN
 48
5.0
100
AcDbLine
 10
5815.840518609121
 20
2854.710702045573
 30
0.0
 11
5815.840518609121
 21
2849.710702045573
 31
0.0
  0
LINE
  5
15CDA
330
747D
100
AcDbEntity
  8
部品1
100
AcDbLine
 10
7130.840518609121
 20
2954.710702045574
 30
0.0
 11
7138.340518609123
 21
2954.710702045574
 31
0.0
  0
LINE
  5
15CDB
330
747D
100
AcDbEntity
  8
部品1
100
AcDbLine
 10
5815.840518609121
 20
2954.710702045574
 30
0.0
 11
7090.840518609119
 21
2954.710702045574
 31
0.0
  0
LINE
  5
15CDC
330
747D
100
AcDbEntity
  8
細線
 48
50.0
100
AcDbLine
 10
6320.840518609118
 20
5094.710702045573
 30
0.0
 11
6320.840518609118
 21
3004.710702045573
 31
0.0
  0
LINE
  5
15CDD
330
747D
100
AcDbEntity
  8
細線
 48
50.0
100
AcDbLine
 10
6305.840518609119
 20
5094.710702045573
 30
0.0
 11
6305.840518609119
 21
3004.710702045573
 31
0.0
  0
LINE
  5
15CDE
330
747D
100
AcDbEntity
  8
細線
 48
50.0
100
AcDbLine
 10
6445.840518609118
 20
5094.710702045573
 30
0.0
 11
6445.840518609118
 21
3004.710702045573
 31
0.0
  0
LINE
  5
15CDF
330
747D
100
AcDbEntity
  8
細線
 48
50.0
100
AcDbLine
 10
6460.840518609119
 20
5094.710702045573
 30
0.0
 11
6460.840518609119
 21
3004.710702045573
 31
0.0
  0
LINE
  5
15CE0
330
747D
100
AcDbEntity
  8
細線
 48
50.0
100
AcDbLine
 10
6600.840518609118
 20
5094.710702045573
 30
0.0
 11
6600.840518609118
 21
3004.710702045573
 31
0.0
  0
LINE
  5
15CE1
330
747D
100
AcDbEntity
  8
細線
 48
50.0
100
AcDbLine
 10
6585.840518609119
 20
5094.710702045573
 30
0.0
 11
6585.840518609119
 21
3004.710702045573
 31
0.0
  0
LINE
  5
15CE2
330
747D
100
AcDbEntity
  8
細線
 48
50.0
100
AcDbLine
 10
6165.840518609119
 20
5094.710702045573
 30
0.0
 11
6165.840518609119
 21
3004.710702045573
 31
0.0
  0
LINE
  5
15CE3
330
747D
100
AcDbEntity
  8
細線
 48
50.0
100
AcDbLine
 10
6180.840518609119
 20
5094.710702045573
 30
0.0
 11
6180.840518609119
 21
3004.710702045573
 31
0.0
  0
LINE
  5
15CE4
330
747D
100
AcDbEntity
  8
細線
 48
50.0
100
AcDbLine
 10
6040.840518609119
 20
5094.710702045573
 30
0.0
 11
6040.840518609119
 21
3004.710702045573
 31
0.0
  0
LINE
  5
15CE5
330
747D
100
AcDbEntity
  8
細線
 48
50.0
100
AcDbLine
 10
6025.840518609118
 20
5094.710702045573
 30
0.0
 11
6025.840518609118
 21
3004.710702045573
 31
0.0
  0
LINE
  5
15CE6
330
747D
100
AcDbEntity
  8
細線
 48
50.0
100
AcDbLine
 10
5885.840518609119
 20
5094.710702045573
 30
0.0
 11
5885.840518609119
 21
3004.710702045573
 31
0.0
  0
LINE
  5
15CE7
330
747D
100
AcDbEntity
  8
細線
 48
50.0
100
AcDbLine
 10
5900.840518609118
 20
5094.710702045573
 30
0.0
 11
5900.840518609118
 21
3004.710702045573
 31
0.0
  0
LINE
  5
15CE8
330
747D
100
AcDbEntity
  8
部品1
100
AcDbLine
 10
5715.885504966081
 20
5328.42843737984
 30
0.0
 11
7210.952395470582
 21
5272.761543373138
 31
0.0
  0
LINE
  5
15CE9
330
747D
100
AcDbEntity
  8
部品1
100
AcDbLine
 10
5723.683083211074
 20
5187.49172711454
 30
0.0
 11
7193.004219148964
 21
5147.87334549876
 31
0.0
  0
LINE
  5
15CEA
330
747D
100
AcDbEntity
  8
細線
 48
50.0
100
AcDbLine
 10
5741.340518609121
 20
5327.110378420979
 30
0.0
 11
5736.05141705361
 21
5187.024745793624
 31
0.0
  0
LINE
  5
15CEB
330
747D
100
AcDbEntity
  8
細線
 48
50.0
100
AcDbLine
 10
7185.340518609121
 20
5274.087724699295
 30
0.0
 11
7180.59283572112
 21
5148.34195220855
 31
0.0
  0
LINE
  5
15CEC
330
747D
100
AcDbEntity
  8
部品1
 48
50.0
100
AcDbLine
 10
5708.524804522227
 20
5321.304248210267
 30
0.0
 11
5708.905064300039
 21
5301.377283763855
 31
0.0
  0
LINE
  5
15CED
330
747D
100
AcDbEntity
  8
部品1
 48
50.0
100
AcDbLine
 10
5711.973836406283
 20
5297.802002270382
 30
0.0
 11
5713.67773789765
 21
5208.511505563735
 31
0.0
  0
LINE
  5
15CEE
330
747D
100
AcDbEntity
  8
細線
 48
50.0
100
AcDbLine
 10
5709.379941709933
 20
5300.727783886935
 30
0.0
 11
7215.015926455101
 21
5244.513622864532
 31
0.0
  0
LINE
  5
15CEF
330
747D
100
AcDbEntity
  8
細線
 48
50.0
100
AcDbLine
 10
5714.140416947219
 20
5207.866272189072
 30
0.0
 11
7204.144081377855
 21
5167.466996833003
 31
0.0
  0
LINE
  5
15CF0
330
747D
100
AcDbEntity
  8
部品1
 48
50.0
100
AcDbLine
 10
5716.74651000389
 20
5204.936224070263
 30
0.0
 11
5716.948462624323
 21
5194.353188677171
 31
0.0
  0
ARC
  5
15CF1
330
747D
100
AcDbEntity
  8
部品1
 48
50.0
100
AcDbCircle
 10
5715.523530350566
 20
5321.437802617694
 30
0.0
 40
7.0
100
AcDbArc
 50
87.03587545303944
 51
181.0932240292635
  0
ARC
  5
15CF2
330
747D
100
AcDbEntity
  8
部品1
 48
50.0
100
AcDbCircle
 10
5723.947188452661
 20
5194.486743084599
 30
0.0
 40
7.0
100
AcDbArc
 50
181.0932240293156
 51
267.837755986949
  0
ARC
  5
15CF3
330
747D
100
AcDbEntity
  8
部品1
100
AcDbCircle
 10
5713.747056077458
 20
5204.87898646708
 30
0.0
 40
3.0
100
AcDbArc
 50
1.093224029315636
 51
80.18775403148712
  0
ARC
  5
15CF4
330
747D
100
AcDbEntity
  8
部品1
100
AcDbCircle
 10
5708.974382479853
 20
5297.744764667199
 30
0.0
 40
3.0
100
AcDbArc
 50
1.093224029263536
 51
80.18775403148865
  0
ARC
  5
15CF5
330
747D
100
AcDbEntity
  8
部品1
100
AcDbCircle
 10
5709.604936882875
 20
5301.390639204597
 30
0.0
 40
0.7
100
AcDbArc
 50
181.0932240292114
 51
260.1877540314886
  0
ARC
  5
15CF6
330
747D
100
AcDbEntity
  8
部品1
100
AcDbCircle
 10
5714.377610480483
 20
5208.524861004477
 30
0.0
 40
0.7
100
AcDbArc
 50
181.0932240292114
 51
260.1877540314886
  0
LINE
  5
15CF7
330
747D
100
AcDbEntity
  8
部品1
 48
50.0
100
AcDbLine
 10
7217.554421419819
 20
5265.061897938217
 30
0.0
 11
7215.52380022885
 21
5245.116856680437
 31
0.0
  0
LINE
  5
15CF8
330
747D
100
AcDbEntity
  8
部品1
 48
50.0
100
AcDbLine
 10
7212.171233744368
 20
5241.806222607528
 30
0.0
 11
7204.664454479531
 21
5168.073601862516
 31
0.0
  0
LINE
  5
15CF9
330
747D
100
AcDbEntity
  8
部品1
 48
50.0
100
AcDbLine
 10
7201.311887995045
 20
5164.762967789604
 30
0.0
 11
7200.232324955305
 21
5154.159350796045
 31
0.0
  0
ARC
  5
15CFA
330
747D
100
AcDbEntity
  8
部品1
 48
50.0
100
AcDbCircle
 10
7210.590420855066
 20
5265.770908610992
 30
0.0
 40
7.0
100
AcDbArc
 50
354.1866997665013
 51
87.03587545303944
  0
ARC
  5
15CFB
330
747D
100
AcDbEntity
  8
部品1
 48
50.0
100
AcDbCircle
 10
7193.26832439055
 20
5154.868361468818
 30
0.0
 40
7.0
100
AcDbArc
 50
267.837755986949
 51
354.1866997665524
  0
ARC
  5
15CFC
330
747D
100
AcDbEntity
  8
部品1
100
AcDbCircle
 10
7204.296459665653
 20
5164.459106072701
 30
0.0
 40
3.0
100
AcDbArc
 50
95.0921697642102
 51
174.1866997665523
  0
ARC
  5
15CFD
330
747D
100
AcDbEntity
  8
部品1
100
AcDbCircle
 10
7215.155805414979
 20
5241.502360890625
 30
0.0
 40
3.0
100
AcDbArc
 50
95.09216976441866
 51
174.1866997665523
  0
ARC
  5
15CFE
330
747D
100
AcDbEntity
  8
部品1
100
AcDbCircle
 10
7214.827400172376
 20
5245.187757747714
 30
0.0
 40
0.7
100
AcDbArc
 50
275.0921697642107
 51
354.1866997665524
  0
ARC
  5
15CFF
330
747D
100
AcDbEntity
  8
部品1
100
AcDbCircle
 10
7203.968054423056
 20
5168.144502929791
 30
0.0
 40
0.7
100
AcDbArc
 50
275.0921697642107
 51
354.1866997667087
  0
DIMENSION
  5
15D00
330
747D
100
AcDbEntity
  8
寸法
 48
50.0
100
AcDbDimension
  2
*D10
 10
7218.340518609121
 20
5728.368155624877
 30
0.0
 11
7424.387762703609
 21
5728.368155624877
 31
0.0
 70
   160
 71
     5
 42
80.0
  3
INABA_S40G
100
AcDbAlignedDimension
 13
7138.340518609121
 23
5276.521381657227
 33
0.0
 14
7218.340518609121
 24
5274.710702045574
 34
0.0
100
AcDbRotatedDimension
1001
ACAD
1000
DSTYLE
1002
{
1070
   174
1070
     0
1070
   272
1070
     1
1070
   288
1070
     0
1070
   341
1005
0
1002
}
  0
DIMENSION
  5
15D01
330
747D
100
AcDbEntity
  8
寸法
 48
50.0
100
AcDbDimension
  2
*D11
 10
5116.074266897748
 20
5351.533192942389
 30
0.0
 11
5124.752010549636
 21
5581.369431959286
 31
0.0
 70
   160
 71
     5
 42
141.0000000000009
  3
INABA_S40G
100
AcDbAlignedDimension
 13
5723.683083211074
 23
5187.49172711454
 33
0.0
 14
5729.002917363028
 24
5328.391334511423
 34
0.0
 50
87.83775598715743
100
AcDbRotatedDimension
1001
ACAD
1000
DSTYLE
1002
{
1070
   174
1070
     0
1070
   272
1070
     1
1070
   288
1070
     0
1070
   341
1005
0
1002
}
  0
LINE
  5
15D02
330
747D
100
AcDbEntity
  8
部品1
 48
50.0
100
AcDbLine
 10
6313.34051860912
 20
5460.578841146853
 30
0.0
 11
6613.34051860912
 21
5460.578841146853
 31
0.0
  0
LINE
  5
15D03
330
747D
100
AcDbEntity
  8
部品1
 48
50.0
100
AcDbLine
 10
6613.34051860912
 20
5460.578841146853
 30
0.0
 11
6613.34051860912
 21
5438.978841146854
 31
0.0
  0
TEXT
  5
15D04
330
747D
100
AcDbEntity
  8
部品1
 48
50.0
100
AcDbText
 10
6301.608353832848
 20
5496.462863299286
 30
0.0
 40
120.0
  1
1000
  7
STYLE1
100
AcDbText
  0
TEXT
  5
15D05
330
747D
100
AcDbEntity
  8
部品1
 48
50.0
100
AcDbText
 10
6790.43336589698
 20
5358.961605081003
 30
0.0
 40
120.0
  1
71
 50
90.0
  7
STYLE1
100
AcDbText
  0
LINE
  5
15D06
330
747D
100
AcDbEntity
  8
部品1
100
AcDbLine
 10
6663.340518609118
 20
5094.710702045573
 30
0.0
 11
6663.340518609118
 21
3004.710702045573
 31
0.0
  0
LINE
  5
15D07
330
747D
100
AcDbEntity
  8
細線
 48
50.0
100
AcDbLine
 10
7005.840518609122
 20
5094.710702045573
 30
0.0
 11
7005.840518609122
 21
3004.710702045573
 31
0.0
  0
LINE
  5
15D08
330
747D
100
AcDbEntity
  8
細線
 48
50.0
100
AcDbLine
 10
7020.840518609123
 20
5094.710702045573
 30
0.0
 11
7020.840518609123
 21
3004.710702045573
 31
0.0
  0
LINE
  5
15D09
330
747D
100
AcDbEntity
  8
細線
 48
50.0
100
AcDbLine
 10
6880.840518609122
 20
5094.710702045573
 30
0.0
 11
6880.840518609122
 21
3004.710702045573
 31
0.0
  0
LINE
  5
15D0A
330
747D
100
AcDbEntity
  8
細線
 48
50.0
100
AcDbLine
 10
6865.840518609123
 20
5094.710702045573
 30
0.0
 11
6865.840518609123
 21
3004.710702045573
 31
0.0
  0
LINE
  5
15D0B
330
747D
100
AcDbEntity
  8
細線
 48
50.0
100
AcDbLine
 10
6725.840518609122
 20
5094.710702045573
 30
0.0
 11
6725.840518609122
 21
3004.710702045573
 31
0.0
  0
LINE
  5
15D0C
330
747D
100
AcDbEntity
  8
細線
 48
50.0
100
AcDbLine
 10
6740.840518609123
 20
5094.710702045573
 30
0.0
 11
6740.840518609123
 21
3004.710702045573
 31
0.0
  0
LINE
  5
15D0D
330
747D
100
AcDbEntity
  8
部品1
 48
50.0
100
AcDbLine
 10
6313.34051860912
 20
5460.578841146853
 30
0.0
 11
6613.34051860912
 21
5438.978841146854
 31
0.0
  0
LINE
  5
15D16
330
747D
100
AcDbEntity
  8
細線
100
AcDbLine
 10
10292.36197228826
 20
5037.710702045555
 30
0.0
 11
10292.36197228826
 21
3012.210702045573
 31
0.0
  0
LINE
  5
15D17
330
747D
100
AcDbEntity
  8
細線
100
AcDbLine
 10
10222.36197228826
 20
5037.710702045555
 30
0.0
 11
10222.36197228826
 21
3012.210702045573
 31
0.0
  0
LINE
  5
15D18
330
747D
100
AcDbEntity
  8
細線
100
AcDbLine
 10
10362.36193696937
 20
5037.710702045555
 30
0.0
 11
10362.36193696937
 21
3012.210702045573
 31
0.0
  0
LINE
  5
15D19
330
747D
100
AcDbEntity
  8
細線
100
AcDbLine
 10
9704.361936969366
 20
5037.710702045566
 30
0.0
 11
9704.36193696937
 21
3012.210702045581
 31
0.0
  0
LINE
  5
15D1A
330
747D
100
AcDbEntity
  8
細線
100
AcDbLine
 10
9774.361936969366
 20
5037.710702045566
 30
0.0
 11
9774.361936969368
 21
3012.210702045581
 31
0.0
  0
LINE
  5
15D1B
330
747D
100
AcDbEntity
  8
細線
100
AcDbLine
 10
9325.36192878395
 20
5037.710702045566
 30
0.0
 11
9325.36192878395
 21
3004.71070204557
 31
0.0
  0
LINE
  5
15D1C
330
747D
100
AcDbEntity
  8
細線
100
AcDbLine
 10
10432.36193696936
 20
5037.710702045555
 30
0.0
 11
10432.36193696936
 21
3012.210702045573
 31
0.0
  0
LINE
  5
15D1D
330
747D
100
AcDbEntity
  8
細線
100
AcDbLine
 10
10502.36193696937
 20
5037.710702045555
 30
0.0
 11
10502.36193696937
 21
3012.210702045573
 31
0.0
  0
LINE
  5
15D1E
330
747D
100
AcDbEntity
  8
細線
100
AcDbLine
 10
10572.36193696936
 20
5037.710702045555
 30
0.0
 11
10572.36193696936
 21
3012.210702045573
 31
0.0
  0
LINE
  5
15D1F
330
747D
100
AcDbEntity
  8
細線
100
AcDbLine
 10
9844.361936969367
 20
5037.710702045566
 30
0.0
 11
9844.361936969368
 21
3012.210702045581
 31
0.0
  0
LINE
  5
15D20
330
747D
100
AcDbEntity
  8
細線
100
AcDbLine
 10
9914.361936969367
 20
5037.710702045566
 30
0.0
 11
9914.361936969369
 21
3012.210702045581
 31
0.0
  0
LINE
  5
15D21
330
747D
100
AcDbEntity
  8
細線
100
AcDbLine
 10
9984.361936969367
 20
5037.710702045566
 30
0.0
 11
9984.361936969369
 21
3012.210702045581
 31
0.0
  0
LINE
  5
15D22
330
747D
100
AcDbEntity
  8
細線
100
AcDbLine
 10
10054.36193696936
 20
5037.710702045566
 30
0.0
 11
10054.36193696937
 21
3012.210702045581
 31
0.0
  0
LINE
  5
15D23
330
747D
100
AcDbEntity
  8
細線
100
AcDbLine
 10
9143.361936969368
 20
5037.710702045566
 30
0.0
 11
9143.361936969368
 21
3004.710702045573
 31
0.0
  0
LINE
  5
15D24
330
747D
100
AcDbEntity
  8
細線
100
AcDbLine
 10
9177.361936969367
 20
5037.710702045566
 30
0.0
 11
9177.361936969367
 21
3004.710702045573
 31
0.0
  0
LINE
  5
15D25
330
747D
100
AcDbEntity
  8
部品1
100
AcDbLine
 10
9135.361936969367
 20
5037.710702045566
 30
0.0
 11
9135.361936969367
 21
3004.710702045573
 31
0.0
  0
LINE
  5
15D26
330
747D
100
AcDbEntity
  8
部品1
100
AcDbLine
 10
9185.361936969368
 20
5037.710702045566
 30
0.0
 11
9185.361936969368
 21
3004.710702045573
 31
0.0
  0
LINE
  5
15D27
330
747D
100
AcDbEntity
  8
細線
100
AcDbLine
 10
9395.36192878395
 20
5037.710702045566
 30
0.0
 11
9395.36192878395
 21
3004.71070204557
 31
0.0
  0
LINE
  5
15D28
330
747D
100
AcDbEntity
  8
細線
100
AcDbLine
 10
9465.36192878395
 20
5037.710702045566
 30
0.0
 11
9465.36192878395
 21
3004.71070204557
 31
0.0
  0
LINE
  5
15D29
330
747D
100
AcDbEntity
  8
細線
100
AcDbLine
 10
9535.361928783951
 20
5037.710702045566
 30
0.0
 11
9535.361928783951
 21
3004.71070204557
 31
0.0
  0
LINE
  5
15D2A
330
747D
100
AcDbEntity
  8
部品1
 48
50.0
100
AcDbLine
 10
10145.86193696937
 20
5037.710702045573
 30
0.0
 11
10145.86193696937
 21
3012.210702045573
 31
0.0
  0
LINE
  5
15D2B
330
747D
100
AcDbEntity
  8
部品1
 48
50.0
100
AcDbLine
 10
9653.861936969374
 20
5037.710702045573
 30
0.0
 11
9653.86193696937
 21
3004.710702045573
 31
0.0
  0
LINE
  5
15D2C
330
747D
100
AcDbEntity
  8
部品1
 48
50.0
100
AcDbLine
 10
8985.361936969365
 20
5089.710702045573
 30
0.0
 11
8985.361936969365
 21
2954.710702045574
 31
0.0
  0
LINE
  5
15D2D
330
747D
100
AcDbEntity
  8
細線
 48
50.0
100
AcDbLine
 10
9015.361936969368
 20
5047.210702045573
 30
0.0
 11
9015.361936969364
 21
2954.710702045574
 31
0.0
  0
LINE
  5
15D2E
330
747D
100
AcDbEntity
  8
部品1
 48
50.0
100
AcDbLine
 10
9015.361936969366
 20
3004.710702045573
 30
0.0
 11
9015.361936969368
 21
5037.710702045573
 31
0.0
  0
LINE
  5
15D2F
330
747D
100
AcDbEntity
  8
部品1
 48
50.0
100
AcDbLine
 10
10680.36193696936
 20
3001.710702045573
 30
0.0
 11
10680.36193696936
 21
5037.710702045573
 31
0.0
  0
LINE
  5
15D30
330
747D
100
AcDbEntity
  8
細線
 48
50.0
100
AcDbLine
 10
10689.36193696936
 20
2954.710702045574
 30
0.0
 11
10689.36193696936
 21
5047.210702045573
 31
0.0
  0
LINE
  5
15D31
330
747D
100
AcDbEntity
  8
部品1
 48
50.0
100
AcDbLine
 10
10719.36193696936
 20
2954.710702045574
 30
0.0
 11
10719.36193696936
 21
5089.710702045573
 31
0.0
  0
LINE
  5
15D32
330
747D
100
AcDbEntity
  8
細線
 48
50.0
100
AcDbLine
 10
9653.86193696937
 20
3012.210702045573
 30
0.0
 11
10663.36193696936
 21
3012.210702045573
 31
0.0
  0
LINE
  5
15D33
330
747D
100
AcDbEntity
  8
細線
 48
50.0
100
AcDbLine
 10
9015.361936969366
 20
3001.710702045573
 30
0.0
 11
10689.36193696936
 21
3001.710702045573
 31
0.0
  0
LINE
  5
15D34
330
747D
100
AcDbEntity
  8
細線
 48
50.0
100
AcDbLine
 10
9015.361936969366
 20
2997.710702045573
 30
0.0
 11
10689.36193696936
 21
2997.710702045573
 31
0.0
  0
LINE
  5
15D35
330
747D
100
AcDbEntity
  8
部品1
 48
50.0
100
AcDbLine
 10
8985.361936969365
 20
2954.710702045574
 30
0.0
 11
10719.36193696936
 21
2954.710702045574
 31
0.0
  0
LINE
  5
15D36
330
747D
100
AcDbEntity
  8
部品1
 48
50.0
100
AcDbLine
 10
9015.361936969366
 20
3004.710702045573
 30
0.0
 11
9653.86193696937
 21
3004.710702045573
 31
0.0
  0
LINE
  5
15D37
330
747D
100
AcDbEntity
  8
部品1
 48
50.0
100
AcDbLine
 10
9024.361936969366
 20
3004.710702045573
 30
0.0
 11
9024.361936969366
 21
3001.710702045573
 31
0.0
  0
LINE
  5
15D38
330
747D
100
AcDbEntity
  8
細線
 48
50.0
100
AcDbLine
 10
10667.36193696936
 20
3001.710702045573
 30
0.0
 11
10663.36193696936
 21
3012.210702045573
 31
0.0
  0
LINE
  5
15D39
330
747D
100
AcDbEntity
  8
部品1
 48
50.0
100
AcDbLine
 10
10719.36193696936
 20
5089.710702045573
 30
0.0
 11
8985.361936969365
 21
5089.710702045573
 31
0.0
  0
LINE
  5
15D3A
330
747D
100
AcDbEntity
  8
細線
 48
50.0
100
AcDbLine
 10
10719.36193696936
 20
5079.710702045574
 30
0.0
 11
8985.361936969365
 21
5079.710702045574
 31
0.0
  0
LINE
  5
15D3B
330
747D
100
AcDbEntity
  8
細線
 48
50.0
100
AcDbLine
 10
10689.36193696936
 20
5037.710702045573
 30
0.0
 11
9015.361936969366
 21
5037.710702045573
 31
0.0
  0
LINE
  5
15D3C
330
747D
100
AcDbEntity
  8
細線
 48
50.0
100
AcDbLine
 10
10689.36193696936
 20
5047.210702045573
 30
0.0
 11
9015.361936969366
 21
5047.210702045573
 31
0.0
  0
LINE
  5
15D3D
330
747D
100
AcDbEntity
  8
部品1
 48
50.0
100
AcDbLine
 10
9015.361936969366
 20
5045.710702045574
 30
0.0
 11
8985.361936969365
 21
5045.710702045574
 31
0.0
  0
LINE
  5
15D3E
330
747D
100
AcDbEntity
  8
部品1
 48
50.0
100
AcDbLine
 10
10719.36193696936
 20
5045.710702045574
 30
0.0
 11
10689.36193696936
 21
5045.710702045574
 31
0.0
  0
LINE
  5
15DFD
330
747D
100
AcDbEntity
  8
部品1
100
AcDbLine
 10
10540.36193696938
 20
5324.710702054046
 30
0.0
 11
10540.36193696938
 21
5227.299634545475
 31
0.0
  0
LINE
  5
15DFE
330
747D
100
AcDbEntity
  8
部品1
100
AcDbLine
 10
10515.36193696938
 20
5324.710702054046
 30
0.0
 11
10515.36193696938
 21
5227.299634545475
 31
0.0
  0
LINE
  5
15DFF
330
747D
100
AcDbEntity
  8
部品1
100
AcDbLine
 10
10442.36193696938
 20
5324.710702054046
 30
0.0
 11
10442.36193696938
 21
5227.299634545475
 31
0.0
  0
LINE
  5
15E00
330
747D
100
AcDbEntity
  8
部品1
100
AcDbLine
 10
10467.36193696938
 20
5324.710702054046
 30
0.0
 11
10467.36193696938
 21
5227.299634545475
 31
0.0
  0
LINE
  5
15E01
330
747D
100
AcDbEntity
  8
部品1
100
AcDbLine
 10
10430.36193696937
 20
5305.310702054044
 30
0.0
 11
10286.86193696937
 21
5305.310702054044
 31
0.0
  0
LINE
  5
15E02
330
747D
100
AcDbEntity
  8
部品1
100
AcDbLine
 10
10663.86193696937
 20
5305.31070205403
 30
0.0
 11
10552.36193696938
 21
5305.31070205403
 31
0.0
  0
LINE
  5
15E03
330
747D
100
AcDbEntity
  8
部品1
 48
50.0
100
AcDbLine
 10
10513.86193696937
 20
5324.71070205405
 30
0.0
 11
10541.86193696937
 21
5324.71070205405
 31
0.0
  0
LINE
  5
15E04
330
747D
100
AcDbEntity
  8
部品1
 48
50.0
100
AcDbLine
 10
10541.86193696937
 20
5324.71070205405
 30
0.0
 11
10552.36193696937
 21
5305.310702054049
 31
0.0
  0
LINE
  5
15E05
330
747D
100
AcDbEntity
  8
部品1
 48
50.0
100
AcDbLine
 10
10513.86193696937
 20
5324.71070205405
 30
0.0
 11
10503.36193696937
 21
5305.310702054049
 31
0.0
  0
LINE
  5
15E06
330
747D
100
AcDbEntity
  8
部品1
 48
50.0
100
AcDbLine
 10
10440.86193696937
 20
5324.71070205405
 30
0.0
 11
10468.86193696937
 21
5324.71070205405
 31
0.0
  0
LINE
  5
15E07
330
747D
100
AcDbEntity
  8
部品1
 48
50.0
100
AcDbLine
 10
10440.86193696937
 20
5324.71070205405
 30
0.0
 11
10430.36193696937
 21
5305.310702054049
 31
0.0
  0
LINE
  5
15E08
330
747D
100
AcDbEntity
  8
部品1
 48
50.0
100
AcDbLine
 10
10468.86193696937
 20
5324.71070205405
 30
0.0
 11
10479.36193696937
 21
5305.310702054049
 31
0.0
  0
LINE
  5
15E09
330
747D
100
AcDbEntity
  8
部品1
100
AcDbLine
 10
10503.36193696937
 20
5305.310702054044
 30
0.0
 11
10479.36193696937
 21
5305.310702054044
 31
0.0
  0
LINE
  5
15E0A
330
747D
100
AcDbEntity
  8
部品1
100
AcDbLine
 10
10747.43256496256
 20
5305.310702054041
 30
0.0
 11
10706.86193696935
 21
5305.310702054041
 31
0.0
  0
LINE
  5
15E0B
330
747D
100
AcDbEntity
  8
部品1
 48
50.0
100
AcDbLine
 10
10704.36193696935
 20
5324.710702054046
 30
0.0
 11
10706.86193696936
 21
5305.310702054044
 31
0.0
  0
LINE
  5
15E0C
330
747D
100
AcDbEntity
  8
部品1
 48
50.0
100
AcDbLine
 10
10665.15059676317
 20
5315.310702054045
 30
0.0
 11
10663.86193696935
 21
5305.310702054044
 31
0.0
  0
LINE
  5
15E0D
330
747D
100
AcDbEntity
  8
部品1
 48
50.0
100
AcDbLine
 10
10665.15059676317
 20
5315.310702054045
 30
0.0
 11
10679.15059676317
 21
5315.310702054045
 31
0.0
  0
LINE
  5
15E0E
330
747D
100
AcDbEntity
  8
部品1
 48
50.0
100
AcDbLine
 10
10680.36193696936
 20
5324.710702054046
 30
0.0
 11
10679.15059676317
 21
5315.310702054045
 31
0.0
  0
LINE
  5
15E0F
330
747D
100
AcDbEntity
  8
細線
 48
50.0
100
AcDbLine
 10
10747.43256496256
 20
5246.682534793523
 30
0.0
 11
10795.49580624651
 21
5246.68253479353
 31
0.0
  0
LINE
  5
15E10
330
747D
100
AcDbEntity
  8
細線
 48
50.0
100
AcDbLine
 10
10764.87302687364
 20
5274.710702045574
 30
0.0
 11
10764.87302687364
 21
5148.210702045574
 31
0.0
  0
ARC
  5
15E11
330
747D
100
AcDbEntity
  8
部品1
100
AcDbCircle
 10
10790.37589315215
 20
5322.710702062471
 30
0.0
 40
7.0
100
AcDbArc
 50
356.3813705198589
 51
90.0
  0
LINE
  5
15E12
330
747D
100
AcDbEntity
  8
部品1
100
AcDbLine
 10
10752.43256496256
 20
5329.710702062471
 30
0.0
 11
10790.37589315215
 21
5329.710702062471
 31
0.0
  0
ARC
  5
15E13
330
747D
100
AcDbEntity
  8
部品1
100
AcDbCircle
 10
10752.43256496256
 20
5324.710702062471
 30
0.0
 40
5.0
100
AcDbArc
 50
90.0
 51
180.0
  0
LINE
  5
15E14
330
747D
100
AcDbEntity
  8
部品1
 48
50.0
100
AcDbLine
 10
10797.36193696936
 20
5267.268896902984
 30
0.0
 11
10797.36193696936
 21
5322.268896919883
 31
0.0
  0
LINE
  5
15E15
330
747D
100
AcDbEntity
  8
部品1
100
AcDbLine
 10
10747.43256496256
 20
5324.710702062471
 30
0.0
 11
10747.43256496256
 21
5227.299634545471
 31
0.0
  0
ARC
  5
15E16
330
747D
100
AcDbEntity
  8
部品1
100
AcDbCircle
 10
10752.43256496256
 20
5269.710702045573
 30
0.0
 40
5.0
100
AcDbArc
 50
90.0
 51
180.0
  0
LINE
  5
15E17
330
747D
100
AcDbEntity
  8
部品1
100
AcDbLine
 10
10752.43256496256
 20
5274.710702045574
 30
0.0
 11
10790.37589315215
 21
5274.710702045574
 31
0.0
  0
LINE
  5
15E18
330
747D
100
AcDbEntity
  8
部品1
100
AcDbLine
 10
10796.10139891079
 20
5247.336638851902
 30
0.0
 11
10797.36193696936
 21
5267.268896902984
 31
0.0
  0
LINE
  5
15E19
330
747D
100
AcDbEntity
  8
部品1
100
AcDbLine
 10
10784.23532612339
 20
5154.768896902984
 30
0.0
 11
10784.90765182797
 21
5165.400047106685
 31
0.0
  0
ARC
  5
15E1A
330
747D
100
AcDbEntity
  8
部品1
100
AcDbCircle
 10
10790.37589315215
 20
5267.710702045573
 30
0.0
 40
7.0
100
AcDbArc
 50
356.3813705198589
 51
90.0
  0
ARC
  5
15E1B
330
747D
100
AcDbEntity
  8
部品1
100
AcDbCircle
 10
10777.24928230617
 20
5155.210702045573
 30
0.0
 40
7.0
100
AcDbArc
 50
270.0
 51
356.3813705198589
  0
ARC
  5
15E1C
330
747D
100
AcDbEntity
  8
部品1
100
AcDbCircle
 10
10787.90167060677
 20
5165.210702045573
 30
0.0
 40
3.0
100
AcDbArc
 50
90.0
 51
176.3813705198589
  0
ARC
  5
15E1D
330
747D
100
AcDbEntity
  8
部品1
100
AcDbCircle
 10
10787.43237448158
 20
5168.880819366163
 30
0.0
 40
0.7
100
AcDbArc
 50
277.2868405166462
 51
356.3813705198589
  0
LINE
  5
15E1E
330
747D
100
AcDbEntity
  8
部品1
100
AcDbLine
 10
10792.87807187546
 20
5243.900047106684
 30
0.0
 11
10788.1309788633
 21
5168.836638851903
 31
0.0
  0
ARC
  5
15E1F
330
747D
100
AcDbEntity
  8
部品1
100
AcDbCircle
 10
10795.87209065426
 20
5243.710702045573
 30
0.0
 40
3.0
100
AcDbArc
 50
90.0
 51
176.3813705198589
  0
ARC
  5
15E20
330
747D
100
AcDbEntity
  8
部品1
100
AcDbCircle
 10
10795.40279452907
 20
5247.380819366163
 30
0.0
 40
0.7
100
AcDbArc
 50
277.2868405166462
 51
356.3813705198589
  0
LINE
  5
15E21
330
747D
100
AcDbEntity
  8
部品1
 48
50.0
100
AcDbLine
 10
10752.43256496256
 20
5274.710702045574
 30
0.0
 11
10790.37589315215
 21
5274.710702045574
 31
0.0
  0
LINE
  5
15E22
330
747D
100
AcDbEntity
  8
部品1
 48
50.0
100
AcDbLine
 10
10680.36193696936
 20
5324.710702054046
 30
0.0
 11
10704.36193696935
 21
5324.710702054046
 31
0.0
  0
LINE
  5
15E23
330
747D
100
AcDbEntity
  8
部品1
100
AcDbLine
 10
10701.36193696935
 20
5324.710702054046
 30
0.0
 11
10701.36193696935
 21
5227.299634545471
 31
0.0
  0
LINE
  5
15E24
330
747D
100
AcDbEntity
  8
部品1
100
AcDbLine
 10
10683.36193696935
 20
5324.710702054035
 30
0.0
 11
10683.36193696935
 21
5227.29963454547
 31
0.0
  0
DIMENSION
  5
15E25
330
747D
100
AcDbEntity
  8
寸法
 48
50.0
100
AcDbDimension
  2
*D12
 10
10747.36193696936
 20
5728.803871385046
 30
0.0
 11
11110.8472183436
 21
5728.803871385046
 31
0.0
 70
   160
 71
     5
 42
50.0
  3
INABA_S40G
100
AcDbAlignedDimension
 13
10797.36193696936
 23
5329.710702045576
 33
0.0
 14
10747.36193696936
 24
5329.710702045579
 34
0.0
100
AcDbRotatedDimension
  0
DIMENSION
  5
15E26
330
747D
100
AcDbEntity
  8
寸法
 48
50.0
100
AcDbDimension
  2
*D13
 10
8657.065433517418
 20
3012.710702045573
 30
0.0
 11
8657.065433517418
 21
4045.940002126728
 31
0.0
 70
   160
  1
有効開口部高サ<>
 71
     5
 42
2025.0
  3
INABA_S40G
100
AcDbAlignedDimension
 13
8985.361936969383
 23
5037.710702045573
 33
0.0
 14
8985.361936969383
 24
3012.710702045573
 34
0.0
 50
90.0
100
AcDbRotatedDimension
1001
ACAD
1000
DSTYLE
1002
{
1070
   341
1005
0
1002
}
  0
LINE
  5
15E27
330
747D
100
AcDbEntity
  8
部品1
 48
50.0
100
AcDbLine
 10
8939.850847065093
 20
5227.299634545471
 30
0.0
 11
10764.87302687364
 21
5227.29963454547
 31
0.0
  0
LINE
  5
15E28
330
747D
100
AcDbEntity
  8
部品1
 48
50.0
100
AcDbLine
 10
10284.36193696937
 20
5324.710702054046
 30
0.0
 11
10286.86193696937
 21
5305.310702054044
 31
0.0
  0
LINE
  5
15E29
330
747D
100
AcDbEntity
  8
部品1
 48
50.0
100
AcDbLine
 10
10245.15059676319
 20
5315.310702054045
 30
0.0
 11
10243.86193696937
 21
5305.310702054044
 31
0.0
  0
LINE
  5
15E2A
330
747D
100
AcDbEntity
  8
部品1
 48
50.0
100
AcDbLine
 10
10245.15059676319
 20
5315.310702054045
 30
0.0
 11
10259.15059676319
 21
5315.310702054045
 31
0.0
  0
LINE
  5
15E2B
330
747D
100
AcDbEntity
  8
部品1
 48
50.0
100
AcDbLine
 10
10260.36193696937
 20
5324.710702054046
 30
0.0
 11
10259.15059676319
 21
5315.310702054045
 31
0.0
  0
LINE
  5
15E2C
330
747D
100
AcDbEntity
  8
部品1
 48
50.0
100
AcDbLine
 10
10260.36193696937
 20
5324.710702054046
 30
0.0
 11
10284.36193696937
 21
5324.710702054046
 31
0.0
  0
LINE
  5
15E2D
330
747D
100
AcDbEntity
  8
部品1
100
AcDbLine
 10
10281.36193696937
 20
5324.710702054046
 30
0.0
 11
10281.36193696937
 21
5227.299634545471
 31
0.0
  0
LINE
  5
15E2E
330
747D
100
AcDbEntity
  8
部品1
100
AcDbLine
 10
10263.36193696937
 20
5324.710702054035
 30
0.0
 11
10263.36193696937
 21
5227.29963454547
 31
0.0
  0
LINE
  5
15E2F
330
747D
100
AcDbEntity
  8
細線
 48
50.0
100
AcDbLine
 10
8957.291308976165
 20
5246.682534793523
 30
0.0
 11
8909.22806769222
 21
5246.68253479353
 31
0.0
  0
LINE
  5
15E30
330
747D
100
AcDbEntity
  8
細線
 48
50.0
100
AcDbLine
 10
8939.850847065091
 20
5274.710702045574
 30
0.0
 11
8939.850847065091
 21
5148.210702045574
 31
0.0
  0
LINE
  5
15E31
330
747D
100
AcDbEntity
  8
細線
 48
50.0
100
AcDbLine
 10
10788.14029464242
 20
5168.983944609359
 30
0.0
 11
8917.245528601892
 21
5168.983944609359
 31
0.0
  0
ARC
  5
15E32
330
747D
100
AcDbEntity
  8
部品1
100
AcDbCircle
 10
8914.347980786585
 20
5322.710702062471
 30
0.0
 40
7.0
100
AcDbArc
 50
90.0
 51
183.618629480141
  0
LINE
  5
15E33
330
747D
100
AcDbEntity
  8
部品1
100
AcDbLine
 10
8952.291308976167
 20
5329.710702062471
 30
0.0
 11
8914.347980786585
 21
5329.710702062471
 31
0.0
  0
ARC
  5
15E34
330
747D
100
AcDbEntity
  8
部品1
100
AcDbCircle
 10
8952.291308976167
 20
5324.710702062471
 30
0.0
 40
5.0
100
AcDbArc
 50
0.0
 51
90.0
  0
LINE
  5
15E35
330
747D
100
AcDbEntity
  8
部品1
 48
50.0
100
AcDbLine
 10
8907.361936969373
 20
5267.268896902984
 30
0.0
 11
8907.361936969373
 21
5322.268896919883
 31
0.0
  0
LINE
  5
15E36
330
747D
100
AcDbEntity
  8
部品1
100
AcDbLine
 10
10777.24928230617
 20
5148.210702045574
 30
0.0
 11
8927.474591632556
 21
5148.210702045574
 31
0.0
  0
LINE
  5
15E37
330
747D
100
AcDbEntity
  8
部品1
100
AcDbLine
 10
8957.291308976168
 20
5324.710702062471
 30
0.0
 11
8957.291308976165
 21
5227.306673372904
 31
0.0
  0
ARC
  5
15E38
330
747D
100
AcDbEntity
  8
部品1
100
AcDbCircle
 10
8952.291308976167
 20
5269.710702045573
 30
0.0
 40
5.0
100
AcDbArc
 50
0.0
 51
90.0
  0
LINE
  5
15E39
330
747D
100
AcDbEntity
  8
部品1
100
AcDbLine
 10
8952.291308976167
 20
5274.710702045574
 30
0.0
 11
8914.347980786585
 21
5274.710702045574
 31
0.0
  0
LINE
  5
15E3A
330
747D
100
AcDbEntity
  8
部品1
100
AcDbLine
 10
8908.622475027939
 20
5247.336638851902
 30
0.0
 11
8907.361936969373
 21
5267.268896902984
 31
0.0
  0
LINE
  5
15E3B
330
747D
100
AcDbEntity
  8
部品1
100
AcDbLine
 10
8920.488547815343
 20
5154.768896902984
 30
0.0
 11
8919.816222110764
 21
5165.400047106685
 31
0.0
  0
ARC
  5
15E3C
330
747D
100
AcDbEntity
  8
部品1
100
AcDbCircle
 10
8914.347980786585
 20
5267.710702045573
 30
0.0
 40
7.0
100
AcDbArc
 50
90.0
 51
183.618629480141
  0
ARC
  5
15E3D
330
747D
100
AcDbEntity
  8
部品1
100
AcDbCircle
 10
8927.474591632556
 20
5155.210702045573
 30
0.0
 40
7.0
100
AcDbArc
 50
183.618629480141
 51
270.0
  0
ARC
  5
15E3E
330
747D
100
AcDbEntity
  8
部品1
100
AcDbCircle
 10
8916.822203331959
 20
5165.210702045573
 30
0.0
 40
3.0
100
AcDbArc
 50
3.618629480141039
 51
90.0
  0
ARC
  5
15E3F
330
747D
100
AcDbEntity
  8
部品1
100
AcDbCircle
 10
8917.291499457153
 20
5168.880819366163
 30
0.0
 40
0.7
100
AcDbArc
 50
183.618629480141
 51
262.7131594833538
  0
LINE
  5
15E40
330
747D
100
AcDbEntity
  8
部品1
100
AcDbLine
 10
8911.845802063272
 20
5243.900047106684
 30
0.0
 11
8916.592895075432
 21
5168.836638851903
 31
0.0
  0
ARC
  5
15E41
330
747D
100
AcDbEntity
  8
部品1
100
AcDbCircle
 10
8908.851783284466
 20
5243.710702045573
 30
0.0
 40
3.0
100
AcDbArc
 50
3.618629480141039
 51
90.0
  0
ARC
  5
15E42
330
747D
100
AcDbEntity
  8
部品1
100
AcDbCircle
 10
8909.321079409663
 20
5247.380819366163
 30
0.0
 40
0.7
100
AcDbArc
 50
183.618629480141
 51
262.7131594833538
  0
LINE
  5
15E43
330
747D
100
AcDbEntity
  8
部品1
 48
50.0
100
AcDbLine
 10
8952.291308976167
 20
5274.710702045574
 30
0.0
 11
8914.347980786585
 21
5274.710702045574
 31
0.0
  0
LINE
  5
15E44
330
747D
100
AcDbEntity
  8
部品1
100
AcDbLine
 10
10243.86193696937
 20
5305.310702054026
 30
0.0
 11
10132.36193696938
 21
5305.310702054026
 31
0.0
  0
LINE
  5
15E45
330
747D
100
AcDbEntity
  8
部品1
100
AcDbLine
 10
10752.4322743625
 20
5329.710702054027
 30
0.0
 11
8931.794097350282
 21
5329.710702054047
 31
0.0
  0
LINE
  5
15E46
330
747D
100
AcDbEntity
  8
部品1
 48
50.0
100
AcDbLine
 10
9405.150596763185
 20
5315.310702054045
 30
0.0
 11
9419.150596763186
 21
5315.310702054045
 31
0.0
  0
LINE
  5
15E47
330
747D
100
AcDbEntity
  8
部品1
100
AcDbLine
 10
9170.361936969374
 20
5305.310702054041
 30
0.0
 11
9026.861936969373
 21
5305.310702054044
 31
0.0
  0
LINE
  5
15E48
330
747D
100
AcDbEntity
  8
部品1
 48
50.0
100
AcDbLine
 10
9024.361936969373
 20
5324.710702054046
 30
0.0
 11
9000.361936969374
 21
5324.710702054046
 31
0.0
  0
LINE
  5
15E49
330
747D
100
AcDbEntity
  8
部品1
 48
50.0
100
AcDbLine
 10
9000.361936969374
 20
5324.710702054046
 30
0.0
 11
8999.150596763184
 21
5315.310702054045
 31
0.0
  0
LINE
  5
15E4A
330
747D
100
AcDbEntity
  8
部品1
 48
50.0
100
AcDbLine
 10
8985.150596763185
 20
5315.310702054045
 30
0.0
 11
8983.861936969374
 21
5305.310702054044
 31
0.0
  0
LINE
  5
15E4B
330
747D
100
AcDbEntity
  8
部品1
 48
50.0
100
AcDbLine
 10
8985.150596763185
 20
5315.310702054045
 30
0.0
 11
8999.150596763184
 21
5315.310702054045
 31
0.0
  0
LINE
  5
15E4C
330
747D
100
AcDbEntity
  8
部品1
100
AcDbLine
 10
8983.861936969374
 20
5305.310702054044
 30
0.0
 11
8957.361936969373
 21
5305.310702054044
 31
0.0
  0
LINE
  5
15E4D
330
747D
100
AcDbEntity
  8
部品1
 48
50.0
100
AcDbLine
 10
9024.361936969373
 20
5324.710702054046
 30
0.0
 11
9026.861936969373
 21
5305.310702054044
 31
0.0
  0
LINE
  5
15E4E
330
747D
100
AcDbEntity
  8
部品1
100
AcDbLine
 10
9003.361936969382
 20
5324.710702054046
 30
0.0
 11
9003.361936969382
 21
5227.299634545471
 31
0.0
  0
LINE
  5
15E4F
330
747D
100
AcDbEntity
  8
部品1
100
AcDbLine
 10
9021.36193696938
 20
5324.710702054035
 30
0.0
 11
9021.36193696938
 21
5227.299634545471
 31
0.0
  0
LINE
  5
15E50
330
747D
100
AcDbEntity
  8
部品1
 48
50.0
100
AcDbLine
 10
9253.861936969373
 20
5324.710702054046
 30
0.0
 11
9243.361936969373
 21
5305.310702054044
 31
0.0
  0
LINE
  5
15E51
330
747D
100
AcDbEntity
  8
部品1
 48
50.0
100
AcDbLine
 10
9180.861936969373
 20
5324.710702054046
 30
0.0
 11
9208.86193696937
 21
5324.710702054046
 31
0.0
  0
LINE
  5
15E52
330
747D
100
AcDbEntity
  8
部品1
 48
50.0
100
AcDbLine
 10
9180.861936969373
 20
5324.710702054046
 30
0.0
 11
9170.361936969374
 21
5305.310702054044
 31
0.0
  0
LINE
  5
15E53
330
747D
100
AcDbEntity
  8
部品1
100
AcDbLine
 10
9182.36193696938
 20
5324.710702054042
 30
0.0
 11
9182.361936969378
 21
5227.299634545471
 31
0.0
  0
LINE
  5
15E54
330
747D
100
AcDbEntity
  8
部品1
 48
50.0
100
AcDbLine
 10
9208.861936969373
 20
5324.710702054046
 30
0.0
 11
9219.361936969374
 21
5305.310702054044
 31
0.0
  0
LINE
  5
15E55
330
747D
100
AcDbEntity
  8
部品1
100
AcDbLine
 10
9207.36193696938
 20
5324.710702054042
 30
0.0
 11
9207.361936969382
 21
5227.29963454547
 31
0.0
  0
LINE
  5
15E56
330
747D
100
AcDbEntity
  8
部品1
100
AcDbLine
 10
9243.361936969369
 20
5305.310702054041
 30
0.0
 11
9219.361936969374
 21
5305.310702054044
 31
0.0
  0
LINE
  5
15E57
330
747D
100
AcDbEntity
  8
部品1
 48
50.0
100
AcDbLine
 10
9405.150596763185
 20
5315.310702054045
 30
0.0
 11
9403.861936969374
 21
5305.310702054044
 31
0.0
  0
LINE
  5
15E58
330
747D
100
AcDbEntity
  8
部品1
 48
50.0
100
AcDbLine
 10
9253.861936969373
 20
5324.710702054046
 30
0.0
 11
9281.861936969368
 21
5324.710702054046
 31
0.0
  0
LINE
  5
15E59
330
747D
100
AcDbEntity
  8
部品1
 48
50.0
100
AcDbLine
 10
9281.861936969374
 20
5324.710702054046
 30
0.0
 11
9292.361936969374
 21
5305.310702054044
 31
0.0
  0
LINE
  5
15E5A
330
747D
100
AcDbEntity
  8
部品1
100
AcDbLine
 10
9280.361936969381
 20
5324.710702054042
 30
0.0
 11
9280.361936969381
 21
5227.299634545471
 31
0.0
  0
LINE
  5
15E5B
330
747D
100
AcDbEntity
  8
部品1
100
AcDbLine
 10
9255.36193696938
 20
5324.710702054042
 30
0.0
 11
9255.36193696938
 21
5227.299634545471
 31
0.0
  0
LINE
  5
15E5C
330
747D
100
AcDbEntity
  8
部品1
100
AcDbLine
 10
9403.861936969374
 20
5305.310702054041
 30
0.0
 11
9292.361936969374
 21
5305.310702054041
 31
0.0
  0
LINE
  5
15E5D
330
747D
100
AcDbEntity
  8
部品1
100
AcDbLine
 10
10083.36193696937
 20
5305.310702054041
 30
0.0
 11
10059.36193696937
 21
5305.310702054041
 31
0.0
  0
LINE
  5
15E5E
330
747D
100
AcDbEntity
  8
部品1
100
AcDbLine
 10
9823.861936969374
 20
5305.310702054041
 30
0.0
 11
9712.361936969374
 21
5305.310702054041
 31
0.0
  0
LINE
  5
15E5F
330
747D
100
AcDbEntity
  8
部品1
100
AcDbLine
 10
9590.361936969371
 20
5305.310702054041
 30
0.0
 11
9446.861936969369
 21
5305.310702054041
 31
0.0
  0
LINE
  5
15E60
330
747D
100
AcDbEntity
  8
部品1
 48
50.0
100
AcDbLine
 10
9444.361936969373
 20
5324.710702054046
 30
0.0
 11
9446.861936969375
 21
5305.310702054044
 31
0.0
  0
LINE
  5
15E61
330
747D
100
AcDbEntity
  8
部品1
 48
50.0
100
AcDbLine
 10
9420.361936969374
 20
5324.710702054046
 30
0.0
 11
9419.150596763186
 21
5315.310702054045
 31
0.0
  0
LINE
  5
15E62
330
747D
100
AcDbEntity
  8
部品1
 48
50.0
100
AcDbLine
 10
9444.361936969373
 20
5324.710702054046
 30
0.0
 11
9420.361936969374
 21
5324.710702054046
 31
0.0
  0
LINE
  5
15E63
330
747D
100
AcDbEntity
  8
部品1
100
AcDbLine
 10
9423.361936969381
 20
5324.710702054035
 30
0.0
 11
9423.361936969383
 21
5227.299634545471
 31
0.0
  0
LINE
  5
15E64
330
747D
100
AcDbEntity
  8
部品1
100
AcDbLine
 10
9441.36193696938
 20
5324.710702054035
 30
0.0
 11
9441.361936969382
 21
5227.299634545471
 31
0.0
  0
LINE
  5
15E65
330
747D
100
AcDbEntity
  8
部品1
 48
50.0
100
AcDbLine
 10
9673.861936969373
 20
5324.710702054046
 30
0.0
 11
9701.86193696937
 21
5324.710702054046
 31
0.0
  0
LINE
  5
15E66
330
747D
100
AcDbEntity
  8
部品1
 48
50.0
100
AcDbLine
 10
9600.861936969373
 20
5324.710702054046
 30
0.0
 11
9628.861936969371
 21
5324.710702054046
 31
0.0
  0
LINE
  5
15E67
330
747D
100
AcDbEntity
  8
部品1
 48
50.0
100
AcDbLine
 10
9673.861936969373
 20
5324.710702054046
 30
0.0
 11
9663.361936969373
 21
5305.310702054044
 31
0.0
  0
LINE
  5
15E68
330
747D
100
AcDbEntity
  8
部品1
 48
50.0
100
AcDbLine
 10
9628.861936969373
 20
5324.710702054046
 30
0.0
 11
9639.361936969374
 21
5305.310702054044
 31
0.0
  0
LINE
  5
15E69
330
747D
100
AcDbEntity
  8
部品1
100
AcDbLine
 10
9663.361936969371
 20
5305.310702054041
 30
0.0
 11
9639.361936969374
 21
5305.310702054041
 31
0.0
  0
LINE
  5
15E6A
330
747D
100
AcDbEntity
  8
部品1
 48
50.0
100
AcDbLine
 10
9600.861936969373
 20
5324.710702054046
 30
0.0
 11
9590.361936969372
 21
5305.310702054044
 31
0.0
  0
LINE
  5
15E6B
330
747D
100
AcDbEntity
  8
部品1
100
AcDbLine
 10
9675.36193696938
 20
5324.710702054042
 30
0.0
 11
9675.36193696938
 21
5227.299634545471
 31
0.0
  0
LINE
  5
15E6C
330
747D
100
AcDbEntity
  8
部品1
100
AcDbLine
 10
9627.36193696938
 20
5324.710702054042
 30
0.0
 11
9627.36193696938
 21
5227.299634545471
 31
0.0
  0
LINE
  5
15E6D
330
747D
100
AcDbEntity
  8
部品1
100
AcDbLine
 10
9602.36193696938
 20
5324.710702054042
 30
0.0
 11
9602.36193696938
 21
5227.29963454547
 31
0.0
  0
LINE
  5
15E6E
330
747D
100
AcDbEntity
  8
部品1
 48
50.0
100
AcDbLine
 10
9701.861936969374
 20
5324.710702054046
 30
0.0
 11
9712.361936969374
 21
5305.310702054044
 31
0.0
  0
LINE
  5
15E6F
330
747D
100
AcDbEntity
  8
部品1
100
AcDbLine
 10
9700.361936969381
 20
5324.710702054042
 30
0.0
 11
9700.361936969382
 21
5227.29963454547
 31
0.0
  0
LINE
  5
15E70
330
747D
100
AcDbEntity
  8
部品1
100
AcDbLine
 10
10010.36193696937
 20
5305.310702054041
 30
0.0
 11
9866.861936969371
 21
5305.310702054041
 31
0.0
  0
LINE
  5
15E71
330
747D
100
AcDbEntity
  8
部品1
 48
50.0
100
AcDbLine
 10
9864.361936969373
 20
5324.710702054046
 30
0.0
 11
9840.361936969372
 21
5324.710702054046
 31
0.0
  0
LINE
  5
15E72
330
747D
100
AcDbEntity
  8
部品1
 48
50.0
100
AcDbLine
 10
9840.361936969372
 20
5324.710702054046
 30
0.0
 11
9839.150596763186
 21
5315.310702054045
 31
0.0
  0
LINE
  5
15E73
330
747D
100
AcDbEntity
  8
部品1
 48
50.0
100
AcDbLine
 10
9825.150596763187
 20
5315.310702054045
 30
0.0
 11
9839.150596763186
 21
5315.310702054045
 31
0.0
  0
LINE
  5
15E74
330
747D
100
AcDbEntity
  8
部品1
 48
50.0
100
AcDbLine
 10
9825.150596763187
 20
5315.310702054045
 30
0.0
 11
9823.861936969374
 21
5305.310702054044
 31
0.0
  0
LINE
  5
15E75
330
747D
100
AcDbEntity
  8
部品1
100
AcDbLine
 10
9843.361936969381
 20
5324.710702054035
 30
0.0
 11
9843.361936969383
 21
5227.29963454547
 31
0.0
  0
LINE
  5
15E76
330
747D
100
AcDbEntity
  8
部品1
 48
50.0
100
AcDbLine
 10
9864.361936969373
 20
5324.710702054046
 30
0.0
 11
9866.861936969373
 21
5305.310702054044
 31
0.0
  0
LINE
  5
15E77
330
747D
100
AcDbEntity
  8
部品1
100
AcDbLine
 10
9861.36193696938
 20
5324.710702054035
 30
0.0
 11
9861.361936969382
 21
5227.299634545471
 31
0.0
  0
LINE
  5
15E78
330
747D
100
AcDbEntity
  8
部品1
 48
50.0
100
AcDbLine
 10
10048.86193696937
 20
5324.710702054046
 30
0.0
 11
10059.36193696937
 21
5305.310702054044
 31
0.0
  0
LINE
  5
15E79
330
747D
100
AcDbEntity
  8
部品1
100
AcDbLine
 10
10047.36193696938
 20
5324.710702054042
 30
0.0
 11
10047.36193696938
 21
5227.299634545471
 31
0.0
  0
LINE
  5
15E7A
330
747D
100
AcDbEntity
  8
部品1
 48
50.0
100
AcDbLine
 10
10020.86193696937
 20
5324.710702054046
 30
0.0
 11
10010.36193696937
 21
5305.310702054044
 31
0.0
  0
LINE
  5
15E7B
330
747D
100
AcDbEntity
  8
部品1
100
AcDbLine
 10
10022.36193696938
 20
5324.710702054042
 30
0.0
 11
10022.36193696938
 21
5227.299634545471
 31
0.0
  0
LINE
  5
15E7C
330
747D
100
AcDbEntity
  8
部品1
 48
50.0
100
AcDbLine
 10
10020.86193696937
 20
5324.710702054046
 30
0.0
 11
10048.86193696937
 21
5324.710702054046
 31
0.0
  0
LINE
  5
15E7D
330
747D
100
AcDbEntity
  8
部品1
 48
50.0
100
AcDbLine
 10
10093.86193696937
 20
5324.710702054046
 30
0.0
 11
10083.36193696937
 21
5305.310702054044
 31
0.0
  0
LINE
  5
15E7E
330
747D
100
AcDbEntity
  8
部品1
 48
50.0
100
AcDbLine
 10
10121.86193696937
 20
5324.710702054046
 30
0.0
 11
10132.36193696937
 21
5305.310702054044
 31
0.0
  0
LINE
  5
15E7F
330
747D
100
AcDbEntity
  8
部品1
 48
50.0
100
AcDbLine
 10
10093.86193696937
 20
5324.710702054046
 30
0.0
 11
10121.86193696937
 21
5324.710702054046
 31
0.0
  0
LINE
  5
15E80
330
747D
100
AcDbEntity
  8
部品1
100
AcDbLine
 10
10095.36193696938
 20
5324.710702054042
 30
0.0
 11
10095.36193696938
 21
5227.299634545471
 31
0.0
  0
LINE
  5
15E81
330
747D
100
AcDbEntity
  8
部品1
100
AcDbLine
 10
10120.36193696938
 20
5324.710702054042
 30
0.0
 11
10120.36193696938
 21
5227.299634545471
 31
0.0
  0
DIMENSION
  5
15E82
330
747D
100
AcDbEntity
  8
寸法
 48
50.0
100
AcDbDimension
  2
*D14
 10
10797.36193696936
 20
5945.329971003491
 30
0.0
 11
9852.361936969366
 21
5945.329971003491
 31
0.0
 70
   160
 71
     5
 42
1890.0
  3
INABA_S40G
100
AcDbAlignedDimension
 13
8907.361936969365
 23
5329.710702045579
 33
0.0
 14
10797.36193696936
 24
5329.710702045576
 34
0.0
100
AcDbRotatedDimension
  0
DIMENSION
  5
15E83
330
747D
100
AcDbEntity
  8
寸法
 48
50.0
100
AcDbDimension
  2
*D15
 10
8907.361936969365
 20
5728.803871385046
 30
0.0
 11
8593.876655595119
 21
5728.803871385046
 31
0.0
 70
   160
 71
     5
 42
50.0
  3
INABA_S40G
100
AcDbAlignedDimension
 13
8957.361936969366
 23
5329.71070204558
 33
0.0
 14
8907.361936969365
 24
5329.710702045579
 34
0.0
100
AcDbRotatedDimension
1001
ACAD
1000
DSTYLE
1002
{
1002
}
  0
DIMENSION
  5
15E84
330
747D
100
AcDbEntity
  8
寸法
 48
50.0
100
AcDbDimension
  2
*D16
 10
8957.361936969366
 20
5728.803871385046
 30
0.0
 11
9852.361936969366
 21
5728.803871385046
 31
0.0
 70
   160
  1
柱外寸法<>
 71
     5
 42
1790.0
  3
INABA_S40G
100
AcDbAlignedDimension
 13
10747.36193696936
 23
5329.710702045579
 33
0.0
 14
8957.361936969366
 24
5329.71070204558
 34
0.0
100
AcDbRotatedDimension
  0
MTEXT
  5
15E85
330
747D
100
AcDbEntity
  8
寸法
 62
     7
 48
50.0
100
AcDbMText
 10
9427.46447406251
 20
9450.281522556684
 30
0.0
 40
96.0
 41
0.0
 71
     5
 72
     1
  1
棚 3段
  7
STYLE1
 73
     1
 44
1.0
1001
ACAD
1000
MTEXTBEGIN
1070
    73
1070
     1
1070
    44
1040
1.0
1070
    74
1070
     0
1000
MTEXTEND
  0
TEXT
  5
15E87
330
747D
100
AcDbEntity
  8
文字
 62
     7
 48
50.0
100
AcDbText
 10
14491.96323844892
 20
483.8967129911416
 30
0.0
 40
160.0
  1
ＮＸＮ－２５ＨＡ
  7
STYLE2
100
AcDbText
  0
TEXT
  5
15E88
330
747D
100
AcDbEntity
  8
文字
 62
     7
 48
50.0
100
AcDbText
 10
13583.11819016569
 20
8550.013745883735
 30
0.0
 40
100.0
  1
棚板
  7
STYLE1
100
AcDbText
  0
TEXT
  5
15E89
330
747D
100
AcDbEntity
  8
文字
 62
     7
 48
50.0
100
AcDbText
 10
15022.63965474516
 20
8550.013745883731
 30
0.0
 40
100.0
  1
F12            0.6
  7
STYLE1
100
AcDbText
  0
TEXT
  5
15E8A
330
747D
100
AcDbEntity
  8
文字
 62
     7
 48
50.0
100
AcDbText
 10
15022.63965474515
 20
9740.013745883729
 30
0.0
 40
100.0
  1
F12            1.0
  7
STYLE1
100
AcDbText
  0
TEXT
  5
15E8B
330
747D
100
AcDbEntity
  8
文字
 62
     7
 48
50.0
100
AcDbText
 10
13583.11819016569
 20
9740.013745883731
 30
0.0
 40
100.0
  1
母屋中
  7
STYLE1
100
AcDbText
  0
TEXT
  5
15E8C
330
747D
100
AcDbEntity
  8
文字
 62
     7
 48
50.0
100
AcDbText
 10
13248.77747366447
 20
8720.013745883733
 30
0.0
 40
100.0
  1
15
  7
STYLE1
100
AcDbText
  0
LINE
  5
15E8D
330
747D
100
AcDbEntity
  8
仕様書枠
 48
50.0
100
AcDbLine
 10
16307.19999999999
 20
8009.600000000007
 30
0.0
 11
13127.19999999999
 21
8009.600000000011
 31
0.0
  0
TEXT
  5
15E8E
330
747D
100
AcDbEntity
  8
文字
 62
     7
 48
50.0
100
AcDbText
 10
13583.11819016569
 20
8720.013745883735
 30
0.0
 40
100.0
  1
扉
  7
STYLE1
100
AcDbText
  0
TEXT
  5
15E8F
330
747D
100
AcDbEntity
  8
文字
 62
     7
 48
50.0
100
AcDbText
 10
15022.63965474516
 20
8720.013745883731
 30
0.0
 40
100.0
  1
F12            0.8
  7
STYLE1
100
AcDbText
  0
TEXT
  5
15E90
330
747D
100
AcDbEntity
  8
文字
 62
     7
 48
50.0
100
AcDbText
 10
13583.11819016568
 20
8890.013745883734
 30
0.0
 40
100.0
  1
正面パネル
  7
STYLE1
100
AcDbText
  0
TEXT
  5
15E91
330
747D
100
AcDbEntity
  8
文字
 62
     7
 48
50.0
100
AcDbText
 10
15022.63965474515
 20
8890.013745883731
 30
0.0
 40
100.0
  1
F12            0.7
  7
STYLE1
100
AcDbText
  0
TEXT
  5
15E92
330
747D
100
AcDbEntity
  8
文字
 62
     7
 48
50.0
100
AcDbText
 10
15022.63965474517
 20
10590.01374588373
 30
0.0
 40
100.0
  1
F12            1.0
  7
STYLE1
100
AcDbText
  0
TEXT
  5
15E93
330
747D
100
AcDbEntity
  8
文字
 62
     7
 48
50.0
100
AcDbText
 10
15022.63965474516
 20
10930.01374588373
 30
0.0
 40
100.0
  1
F12            1.2
  7
STYLE1
100
AcDbText
  0
TEXT
  5
15E94
330
747D
100
AcDbEntity
  8
文字
 62
     7
 48
50.0
100
AcDbText
 10
13248.77747366448
 20
8890.013745883731
 30
0.0
 40
100.0
  1
14
  7
STYLE1
100
AcDbText
  0
TEXT
  5
15E95
330
747D
100
AcDbEntity
  8
文字
 62
     7
 48
50.0
100
AcDbText
 10
13583.11819016569
 20
10930.01374588373
 30
0.0
 40
100.0
  1
根太
  7
STYLE1
100
AcDbText
  0
TEXT
  5
15E96
330
747D
100
AcDbEntity
  8
文字
 62
     7
 48
50.0
100
AcDbText
 10
13583.1181901657
 20
10590.01374588373
 30
0.0
 40
100.0
  1
床パネル
 41
0.9
  7
STYLE1
100
AcDbText
  0
LINE
  5
15E97
330
747D
100
AcDbEntity
  8
仕様書枠
 48
50.0
100
AcDbLine
 10
16307.19999999999
 20
9029.600000000003
 30
0.0
 11
13127.2
 21
9029.600000000007
 31
0.0
  0
LINE
  5
15E98
330
747D
100
AcDbEntity
  8
仕様書枠
 48
50.0
100
AcDbLine
 10
13127.2
 20
11409.6
 30
0.0
 11
13127.19999999999
 21
8009.600000000011
 31
0.0
  0
TEXT
  5
15E99
330
747D
100
AcDbEntity
  8
文字
 62
     7
 48
50.0
100
AcDbText
 10
13229.83081656554
 20
8040.013745883737
 30
0.0
 40
100.0
  1
Y10→溶融亜鉛-5％アルミニウム合金めっき鋼板(JIS G 3317)
 41
0.9
  7
STYLE1
100
AcDbText
  0
TEXT
  5
15E9A
330
747D
100
AcDbEntity
  8
文字
 62
     7
 48
50.0
100
AcDbText
 10
13229.83081656554
 20
8210.013745883737
 30
0.0
 40
100.0
  1
F12→溶融亜鉛めっき鋼板(JIS G 3302)
  7
STYLE1
100
AcDbText
  0
LINE
  5
15E9B
330
747D
100
AcDbEntity
  8
仕様書枠
 48
50.0
100
AcDbLine
 10
16307.19999999999
 20
8179.600000000007
 30
0.0
 11
13127.19999999999
 21
8179.600000000009
 31
0.0
  0
LINE
  5
15E9C
330
747D
100
AcDbEntity
  8
仕様書枠
 48
50.0
100
AcDbLine
 10
16307.19999999999
 20
8349.600000000007
 30
0.0
 11
13127.19999999999
 21
8349.600000000009
 31
0.0
  0
TEXT
  5
15E9D
330
747D
100
AcDbEntity
  8
文字
 62
     7
 48
50.0
100
AcDbText
 10
15022.63965474515
 20
9570.013745883729
 30
0.0
 40
100.0
  1
F12            0.7
  7
STYLE1
100
AcDbText
  0
TEXT
  5
15E9E
330
747D
100
AcDbEntity
  8
文字
 62
     7
 48
50.0
100
AcDbText
 10
15022.63965474517
 20
9910.01374588373
 30
0.0
 40
100.0
  1
Y10            0.5
  7
STYLE1
100
AcDbText
  0
TEXT
  5
15E9F
330
747D
100
AcDbEntity
  8
文字
 62
     7
 48
50.0
100
AcDbText
 10
15022.63965474516
 20
10080.01374588373
 30
0.0
 40
100.0
  1
Y10            0.7
  7
STYLE1
100
AcDbText
  0
TEXT
  5
15EA0
330
747D
100
AcDbEntity
  8
文字
 62
     7
 48
50.0
100
AcDbText
 10
15022.63965474516
 20
10250.01374588373
 30
0.0
 40
100.0
  1
Y10            0.7
  7
STYLE1
100
AcDbText
  0
TEXT
  5
15EA1
330
747D
100
AcDbEntity
  8
文字
 62
     7
 48
50.0
100
AcDbText
 10
15022.63965474516
 20
10420.01374588373
 30
0.0
 40
100.0
  1
Y10            1.0
  7
STYLE1
100
AcDbText
  0
TEXT
  5
15EA2
330
747D
100
AcDbEntity
  8
文字
 62
     7
 48
50.0
100
AcDbText
 10
15022.63965474518
 20
10760.01374588373
 30
0.0
 40
100.0
  1
F12            1.0
  7
STYLE1
100
AcDbText
  0
TEXT
  5
15EA3
330
747D
100
AcDbEntity
  8
文字
 62
     7
 48
50.0
100
AcDbText
 10
15022.63965474517
 20
11100.01374588373
 30
0.0
 40
100.0
  1
F12            1.2
  7
STYLE1
100
AcDbText
  0
TEXT
  5
15EA4
330
747D
100
AcDbEntity
  8
文字
 62
     7
 48
50.0
100
AcDbText
 10
13248.77747366448
 20
9230.013745883731
 30
0.0
 40
100.0
  1
12
  7
STYLE1
100
AcDbText
  0
TEXT
  5
15EA5
330
747D
100
AcDbEntity
  8
文字
 62
     7
 48
50.0
100
AcDbText
 10
13248.77747366448
 20
9060.013745883731
 30
0.0
 40
100.0
  1
13
  7
STYLE1
100
AcDbText
  0
LINE
  5
15EA6
330
747D
100
AcDbEntity
  8
仕様書枠
 48
50.0
100
AcDbLine
 10
16307.19999999999
 20
8859.600000000005
 30
0.0
 11
13127.2
 21
8859.600000000005
 31
0.0
  0
LINE
  5
15EA7
330
747D
100
AcDbEntity
  8
仕様書枠
 48
50.0
100
AcDbLine
 10
16307.19999999999
 20
9199.600000000001
 30
0.0
 11
13127.2
 21
9199.600000000003
 31
0.0
  0
TEXT
  5
15EA8
330
747D
100
AcDbEntity
  8
文字
 62
     7
 48
50.0
100
AcDbText
 10
13248.77747366447
 20
9400.013745883731
 30
0.0
 40
100.0
  1
11
  7
STYLE1
100
AcDbText
  0
LINE
  5
15EA9
330
747D
100
AcDbEntity
  8
仕様書枠
 48
50.0
100
AcDbLine
 10
16307.2
 20
9879.600000000003
 30
0.0
 11
13127.2
 21
9879.600000000005
 31
0.0
  0
LINE
  5
15EAA
330
747D
100
AcDbEntity
  8
仕様書枠
 48
50.0
100
AcDbLine
 10
16307.2
 20
10219.6
 30
0.0
 11
13127.2
 21
10219.6
 31
0.0
  0
LINE
  5
15EAB
330
747D
100
AcDbEntity
  8
仕様書枠
 48
50.0
100
AcDbLine
 10
16307.19999999999
 20
9539.600000000003
 30
0.0
 11
13127.2
 21
9539.600000000005
 31
0.0
  0
LINE
  5
15EAC
330
747D
100
AcDbEntity
  8
仕様書枠
 48
50.0
100
AcDbLine
 10
16307.19999999999
 20
9369.600000000003
 30
0.0
 11
13127.2
 21
9369.600000000003
 31
0.0
  0
LINE
  5
15EAD
330
747D
100
AcDbEntity
  8
仕様書枠
 48
50.0
100
AcDbLine
 10
16307.19999999999
 20
9709.600000000001
 30
0.0
 11
13127.2
 21
9709.600000000005
 31
0.0
  0
TEXT
  5
15EAE
330
747D
100
AcDbEntity
  8
文字
 62
     7
 48
50.0
100
AcDbText
 10
13271.19032244792
 20
10250.01374588373
 30
0.0
 40
100.0
  1
6
  7
STYLE1
100
AcDbText
  0
TEXT
  5
15EAF
330
747D
100
AcDbEntity
  8
文字
 62
     7
 48
50.0
100
AcDbText
 10
13271.19032244792
 20
10080.01374588373
 30
0.0
 40
100.0
  1
7
  7
STYLE1
100
AcDbText
  0
TEXT
  5
15EB0
330
747D
100
AcDbEntity
  8
文字
 62
     7
 48
50.0
100
AcDbText
 10
13271.19032244792
 20
9740.013745883732
 30
0.0
 40
100.0
  1
9
  7
STYLE1
100
AcDbText
  0
TEXT
  5
15EB1
330
747D
100
AcDbEntity
  8
文字
 62
     7
 48
50.0
100
AcDbText
 10
13271.19032244792
 20
9910.013745883732
 30
0.0
 40
100.0
  1
8
  7
STYLE1
100
AcDbText
  0
TEXT
  5
15EB2
330
747D
100
AcDbEntity
  8
文字
 62
     7
 48
50.0
100
AcDbText
 10
13583.11819016569
 20
10080.01374588373
 30
0.0
 40
100.0
  1
鼻隠シ前後
  7
STYLE1
100
AcDbText
  0
TEXT
  5
15EB3
330
747D
100
AcDbEntity
  8
文字
 62
     7
 48
50.0
100
AcDbText
 10
13583.11819016569
 20
9910.01374588373
 30
0.0
 40
100.0
  1
屋根パネル
  7
STYLE1
100
AcDbText
  0
TEXT
  5
15EB4
330
747D
100
AcDbEntity
  8
文字
 62
     7
 48
50.0
100
AcDbText
 10
13583.11819016568
 20
9570.013745883732
 30
0.0
 40
100.0
  1
壁パネル
  7
STYLE1
100
AcDbText
  0
TEXT
  5
15EB5
330
747D
100
AcDbEntity
  8
文字
 62
     7
 48
50.0
100
AcDbText
 10
13248.77747366447
 20
9570.013745883731
 30
0.0
 40
100.0
  1
10
  7
STYLE1
100
AcDbText
  0
TEXT
  5
15EB6
330
747D
100
AcDbEntity
  8
文字
 62
     7
 48
50.0
100
AcDbText
 10
13583.11819016569
 20
10250.01374588373
 30
0.0
 40
100.0
  1
妻板左右
  7
STYLE1
100
AcDbText
  0
TEXT
  5
15EB7
330
747D
100
AcDbEntity
  8
文字
 62
     7
 48
50.0
100
AcDbText
 10
13271.19032244792
 20
10420.01374588373
 30
0.0
 40
100.0
  1
5
  7
STYLE1
100
AcDbText
  0
TEXT
  5
15EB8
330
747D
100
AcDbEntity
  8
文字
 62
     7
 48
50.0
100
AcDbText
 10
13583.11819016569
 20
10420.01374588373
 30
0.0
 40
100.0
  1
桁前後
  7
STYLE1
100
AcDbText
  0
TEXT
  5
15EB9
330
747D
100
AcDbEntity
  8
文字
 62
     7
 48
50.0
100
AcDbText
 10
13583.1181901657
 20
10760.01374588373
 30
0.0
 40
100.0
  1
柱
  7
STYLE1
100
AcDbText
  0
TEXT
  5
15EBA
330
747D
100
AcDbEntity
  8
文字
 62
     7
 48
50.0
100
AcDbText
 10
13583.11819016569
 20
11100.01374588373
 30
0.0
 40
100.0
  1
土台枠
  7
STYLE1
100
AcDbText
  0
TEXT
  5
15EBB
330
747D
100
AcDbEntity
  8
文字
 62
     7
 48
50.0
100
AcDbText
 10
14859.79774614482
 20
11270.01374588373
 30
0.0
 40
100.0
  1
材料（材質）　　単位mm
  7
STYLE1
100
AcDbText
  0
TEXT
  5
15EBC
330
747D
100
AcDbEntity
  8
文字
 62
     7
 48
50.0
100
AcDbText
 10
13732.03840939434
 20
11270.01374588373
 30
0.0
 40
100.0
  1
部　　品　　名
  7
STYLE1
100
AcDbText
  0
TEXT
  5
15EBD
330
747D
100
AcDbEntity
  8
文字
 62
     7
 48
50.0
100
AcDbText
 10
13271.19032244792
 20
10760.01374588373
 30
0.0
 40
100.0
  1
3
  7
STYLE1
100
AcDbText
  0
TEXT
  5
15EBE
330
747D
100
AcDbEntity
  8
文字
 62
     7
 48
50.0
100
AcDbText
 10
13271.19032244792
 20
10590.01374588373
 30
0.0
 40
100.0
  1
4
  7
STYLE1
100
AcDbText
  0
TEXT
  5
15EBF
330
747D
100
AcDbEntity
  8
文字
 62
     7
 48
50.0
100
AcDbText
 10
13271.19032244792
 20
10930.01374588373
 30
0.0
 40
100.0
  1
2
  7
STYLE1
100
AcDbText
  0
TEXT
  5
15EC0
330
747D
100
AcDbEntity
  8
文字
 62
     7
 48
50.0
100
AcDbText
 10
13271.19032244792
 20
11100.01374588373
 30
0.0
 40
100.0
  1
1
  7
STYLE1
100
AcDbText
  0
TEXT
  5
15EC1
330
747D
100
AcDbEntity
  8
文字
 62
     7
 48
50.0
100
AcDbText
 10
13197.42518560407
 20
11270.01374588373
 30
0.0
 40
100.0
  1
品番
  7
STYLE1
100
AcDbText
  0
LINE
  5
15EC2
330
747D
100
AcDbEntity
  8
仕様書枠
 48
50.0
100
AcDbLine
 10
16307.19999999999
 20
10729.6
 30
0.0
 11
13127.2
 21
10729.6
 31
0.0
  0
LINE
  5
15EC3
330
747D
100
AcDbEntity
  8
仕様書枠
 48
50.0
100
AcDbLine
 10
16307.19999999999
 20
10389.6
 30
0.0
 11
13127.2
 21
10389.6
 31
0.0
  0
LINE
  5
15EC4
330
747D
100
AcDbEntity
  8
仕様書枠
 48
50.0
100
AcDbLine
 10
16307.19999999999
 20
10559.6
 30
0.0
 11
13127.2
 21
10559.6
 31
0.0
  0
LINE
  5
15EC5
330
747D
100
AcDbEntity
  8
仕様書枠
 48
50.0
100
AcDbLine
 10
16307.2
 20
11069.6
 30
0.0
 11
13127.2
 21
11069.6
 31
0.0
  0
LINE
  5
15EC6
330
747D
100
AcDbEntity
  8
仕様書枠
 48
50.0
100
AcDbLine
 10
16307.2
 20
10899.6
 30
0.0
 11
13127.2
 21
10899.6
 31
0.0
  0
LINE
  5
15EC7
330
747D
100
AcDbEntity
  8
仕様書枠
 48
50.0
100
AcDbLine
 10
16307.2
 20
11239.6
 30
0.0
 11
13127.2
 21
11239.6
 31
0.0
  0
LINE
  5
15EC8
330
747D
100
AcDbEntity
  8
仕様書枠
 48
50.0
100
AcDbLine
 10
13490.2
 20
11409.6
 30
0.0
 11
13490.20000000001
 21
8349.600000000009
 31
0.0
  0
LINE
  5
15EC9
330
747D
100
AcDbEntity
  8
仕様書枠
 48
50.0
100
AcDbLine
 10
14785.2
 20
11409.6
 30
0.0
 11
14785.2
 21
8349.600000000007
 31
0.0
  0
LINE
  5
15ECA
330
747D
100
AcDbEntity
  8
仕様書枠
 48
50.0
100
AcDbLine
 10
16307.19999999999
 20
8009.600000000007
 30
0.0
 11
16307.2
 21
11409.6
 31
0.0
  0
LINE
  5
15ECB
330
747D
100
AcDbEntity
  8
仕様書枠
 48
50.0
100
AcDbLine
 10
16307.2
 20
11409.6
 30
0.0
 11
13127.2
 21
11409.6
 31
0.0
  0
LINE
  5
15ECC
330
747D
100
AcDbEntity
  8
仕様書枠
 48
50.0
100
AcDbLine
 10
16307.2
 20
10049.6
 30
0.0
 11
13127.2
 21
10049.6
 31
0.0
  0
TEXT
  5
15ECD
330
747D
100
AcDbEntity
  8
文字
 62
     7
 48
50.0
100
AcDbText
 10
15022.63965474515
 20
8380.013745883728
 30
0.0
 40
100.0
  1
F12            2.3
  7
STYLE1
100
AcDbText
  0
TEXT
  5
15ECE
330
747D
100
AcDbEntity
  8
文字
 62
     7
 48
50.0
100
AcDbText
 10
13583.11819016569
 20
8380.013745883733
 30
0.0
 40
100.0
  1
アンカープレート
  7
STYLE1
100
AcDbText
  0
LINE
  5
15ECF
330
747D
100
AcDbEntity
  8
仕様書枠
 48
50.0
100
AcDbLine
 10
16307.19999999999
 20
8519.600000000009
 30
0.0
 11
13127.2
 21
8519.600000000009
 31
0.0
  0
LINE
  5
15ED0
330
747D
100
AcDbEntity
  8
仕様書枠
 48
50.0
100
AcDbLine
 10
16307.19999999999
 20
8689.600000000007
 30
0.0
 11
13127.2
 21
8689.600000000011
 31
0.0
  0
TEXT
  5
15ED1
330
747D
100
AcDbEntity
  8
文字
 62
     7
 48
50.0
100
AcDbText
 10
13583.11819016569
 20
9400.013745883732
 30
0.0
 40
100.0
  1
壁面扉鴨居
  7
STYLE1
100
AcDbText
  0
TEXT
  5
15ED2
330
747D
100
AcDbEntity
  8
文字
 62
     7
 48
50.0
100
AcDbText
 10
13583.11819016569
 20
9230.013745883736
 30
0.0
 40
100.0
  1
壁面扉敷居
  7
STYLE1
100
AcDbText
  0
TEXT
  5
15ED3
330
747D
100
AcDbEntity
  8
文字
 62
     7
 48
50.0
100
AcDbText
 10
15022.63965474515
 20
9400.013745883731
 30
0.0
 40
100.0
  1
F12            0.7
  7
STYLE1
100
AcDbText
  0
TEXT
  5
15ED4
330
747D
100
AcDbEntity
  8
文字
 62
     7
 48
50.0
100
AcDbText
 10
15022.63965474517
 20
9230.013745883729
 30
0.0
 40
100.0
  1
F12            1.0
  7
STYLE1
100
AcDbText
  0
TEXT
  5
15ED5
330
747D
100
AcDbEntity
  8
文字
 62
     7
 48
50.0
100
AcDbText
 10
13583.11819016569
 20
9060.013745883736
 30
0.0
 40
100.0
  1
壁面扉枠左右
  7
STYLE1
100
AcDbText
  0
TEXT
  5
15ED6
330
747D
100
AcDbEntity
  8
文字
 62
     7
 48
50.0
100
AcDbText
 10
15022.63965474517
 20
9060.013745883729
 30
0.0
 40
100.0
  1
F12            1.0
  7
STYLE1
100
AcDbText
  0
TEXT
  5
15ED7
330
747D
100
AcDbEntity
  8
文字
 62
     7
 48
50.0
100
AcDbText
 10
13248.77747366447
 20
8550.013745883733
 30
0.0
 40
100.0
  1
16
  7
STYLE1
100
AcDbText
  0
TEXT
  5
15ED8
330
747D
100
AcDbEntity
  8
文字
 62
     7
 48
50.0
100
AcDbText
 10
13248.77747366447
 20
8380.013745883733
 30
0.0
 40
100.0
  1
17
  7
STYLE1
100
AcDbText
  0
LINE
  5
15ED9
330
747D
100
AcDbEntity
  8
部品1
100
AcDbLine
 10
6845.07585172334
 20
1975.395159070614
 30
0.0
 11
6081.6051854949
 21
1975.395159070614
 31
0.0
  0
LINE
  5
15EDA
330
747D
100
AcDbEntity
  8
部品1
100
AcDbLine
 10
6845.07585172334
 20
1735.502837525081
 30
0.0
 11
6845.07585172334
 21
1975.395159070614
 31
0.0
  0
LINE
  5
15EDB
330
747D
100
AcDbEntity
  8
部品1
100
AcDbLine
 10
6081.6051854949
 20
1735.502837525081
 30
0.0
 11
6845.07585172334
 21
1735.502837525081
 31
0.0
  0
LINE
  5
15EDC
330
747D
100
AcDbEntity
  8
部品1
100
AcDbLine
 10
6081.6051854949
 20
1975.395159070614
 30
0.0
 11
6081.6051854949
 21
1735.502837525081
 31
0.0
  0
LINE
  5
15EDD
330
747D
100
AcDbEntity
  8
部品1
100
AcDbLine
 10
10234.09727008358
 20
1975.395159070614
 30
0.0
 11
9470.626603855146
 21
1975.395159070614
 31
0.0
  0
LINE
  5
15EDE
330
747D
100
AcDbEntity
  8
部品1
100
AcDbLine
 10
10234.09727008358
 20
1735.502837525081
 30
0.0
 11
10234.09727008358
 21
1975.395159070614
 31
0.0
  0
LINE
  5
15EDF
330
747D
100
AcDbEntity
  8
部品1
100
AcDbLine
 10
9470.626603855146
 20
1735.502837525081
 30
0.0
 11
10234.09727008358
 21
1735.502837525081
 31
0.0
  0
LINE
  5
15EE0
330
747D
100
AcDbEntity
  8
部品1
100
AcDbLine
 10
9470.626603855146
 20
1975.395159070614
 30
0.0
 11
9470.626603855146
 21
1735.502837525081
 31
0.0
  0
LINE
  5
15EE5
330
747D
100
AcDbEntity
  8
部品1
100
AcDbLine
 10
10719.36193696936
 20
3004.710702045593
 30
0.0
 11
10747.36193696936
 21
3004.710702045593
 31
0.0
  0
LINE
  5
15EE6
330
747D
100
AcDbEntity
  8
部品1
 48
50.0
100
AcDbLine
 10
8985.361936969367
 20
2954.710702045572
 30
0.0
 11
10719.36193696936
 21
2954.710702045572
 31
0.0
  0
LINE
  5
15EE7
330
747D
100
AcDbEntity
  8
部品1
 48
50.0
100
AcDbLine
 10
10692.36193696934
 20
8494.046704359407
 30
0.0
 11
10692.36193696933
 21
8522.046704359407
 31
0.0
  0
LINE
  5
15EE8
330
747D
100
AcDbEntity
  8
部品1
 48
50.0
100
AcDbLine
 10
9012.361936969337
 20
8494.046704359254
 30
0.0
 11
9012.361936969339
 21
8522.046704359251
 31
0.0
  0
LINE
  5
15EE9
330
747D
100
AcDbEntity
  8
部品1
100
AcDbLine
 10
9012.361936969364
 20
5094.710702045569
 30
0.0
 11
9012.361936969364
 21
5089.710702045573
 31
0.0
  0
LINE
  5
15EEA
330
747D
100
AcDbEntity
  8
部品1
100
AcDbLine
 10
10692.36193696936
 20
5094.710702045573
 30
0.0
 11
10692.36193696936
 21
5089.710702045573
 31
0.0
  0
LINE
  5
15EEB
330
747D
100
AcDbEntity
  8
部品1
 48
50.0
100
AcDbLine
 10
10692.36193696937
 20
8494.046704359407
 30
0.0
 11
10747.36193696935
 21
8494.046704359412
 31
0.0
  0
LINE
  5
15EEC
330
747D
100
AcDbEntity
  8
部品1
 48
50.0
100
AcDbLine
 10
8985.361936969345
 20
8522.046704359251
 30
0.0
 11
10719.36193696934
 21
8522.046704359409
 31
0.0
  0
LINE
  5
15EED
330
747D
100
AcDbEntity
  8
部品1
 48
50.0
100
AcDbLine
 10
8957.361936969366
 20
8494.046704359249
 30
0.0
 11
9012.361936969337
 21
8494.046704359254
 31
0.0
  0
LINE
  5
15EEE
330
747D
100
AcDbEntity
  8
部品1
100
AcDbLine
 10
8985.36193696934
 20
8549.04670435928
 30
0.0
 11
8957.36193696934
 21
8549.04670435928
 31
0.0
  0
LINE
  5
15EEF
330
747D
100
AcDbEntity
  8
部品1
100
AcDbLine
 10
10719.36193696937
 20
8549.046704359152
 30
0.0
 11
10747.36193696937
 21
8549.046704359152
 31
0.0
  0
LINE
  5
15EF1
330
747D
100
AcDbEntity
  8
部品1
 48
50.0
100
AcDbLine
 10
9013.861936969359
 20
8550.546704359407
 30
0.0
 11
8985.36193696936
 21
8522.046704359409
 31
0.0
  0
LINE
  5
15EF2
330
747D
100
AcDbEntity
  8
破線
 48
10.0
100
AcDbLine
 10
9037.361936969348
 20
9384.046704359425
 30
0.0
 11
9037.361936969363
 21
8574.046704359313
 31
0.0
  0
LINE
  5
15EF3
330
747D
100
AcDbEntity
  8
部品1
100
AcDbLine
 10
9013.86193696935
 20
9384.046704359423
 30
0.0
 11
9013.861936969362
 21
8550.54670435941
 31
0.0
  0
LINE
  5
15EF4
330
747D
100
AcDbEntity
  8
部品1
 48
50.0
100
AcDbLine
 10
10690.86193696935
 20
8550.546704359407
 30
0.0
 11
10719.36193696934
 21
8522.046704359409
 31
0.0
  0
LINE
  5
15EF5
330
747D
100
AcDbEntity
  8
破線
 48
10.0
100
AcDbLine
 10
10667.36193696936
 20
9384.046704359425
 30
0.0
 11
10667.36193696935
 21
8574.046704359409
 31
0.0
  0
LINE
  5
15EF6
330
747D
100
AcDbEntity
  8
部品1
100
AcDbLine
 10
10690.86193696936
 20
9384.046704359423
 30
0.0
 11
10690.86193696935
 21
8550.546704359407
 31
0.0
  0
LINE
  5
15EF7
330
747D
100
AcDbEntity
  8
破線
 48
10.0
100
AcDbLine
 10
9827.361936969341
 20
8574.046704359359
 30
0.0
 11
9037.361936969356
 21
8574.046704359311
 31
0.0
  0
LINE
  5
15EF8
330
747D
100
AcDbEntity
  8
破線
 48
10.0
100
AcDbLine
 10
10667.36193696935
 20
8574.046704359409
 30
0.0
 11
9877.361936969341
 21
8574.046704359362
 31
0.0
  0
LINE
  5
15EF9
330
747D
100
AcDbEntity
  8
部品1
100
AcDbLine
 10
10690.86193696935
 20
8550.546704359407
 30
0.0
 11
9013.861936969265
 21
8550.546704359312
 31
0.0
  0
DIMENSION
  5
15EFA
330
747D
100
AcDbEntity
  8
寸法
100
AcDbDimension
  2
*D17
 10
9760.293163412955
 20
9090.824049558353
 30
0.0
 11
9365.208999087641
 21
9090.824049558353
 31
0.0
 70
   160
 71
     5
 42
853.0000000000109
  3
INABA_S40G
100
AcDbAlignedDimension
 13
8985.861936969374
 23
9384.046704359326
 33
0.0
 14
9838.861936969385
 24
9384.046704359318
 34
0.0
100
AcDbRotatedDimension
1001
ACAD
1000
DSTYLE
1002
{
1002
}
  0
LINE
  5
15EFB
330
747D
100
AcDbEntity
  8
破線
 48
10.0
100
AcDbLine
 10
9827.361936969346
 20
8550.54670435936
 30
0.0
 11
9827.361936969346
 21
9384.046704359432
 31
0.0
  0
LINE
  5
15EFC
330
747D
100
AcDbEntity
  8
破線
 48
10.0
100
AcDbLine
 10
9877.361936969343
 20
8550.546704359364
 30
0.0
 11
9877.361936969345
 21
9384.046704359432
 31
0.0
  0
LINE
  5
15EFD
330
747D
100
AcDbEntity
  8
部品1
100
AcDbLine
 10
8957.361936969366
 20
3004.710702045577
 30
0.0
 11
8985.361936969367
 21
3004.710702045577
 31
0.0
  0
LINE
  5
15EFE
330
747D
100
AcDbEntity
  8
部品1
 48
50.0
100
AcDbLine
 10
10690.86193696935
 20
8969.046704359426
 30
0.0
 11
9013.861936969357
 21
8969.046704359513
 31
0.0
  0
TEXT
  5
15EFF
330
747D
100
AcDbEntity
  8
部品1
100
AcDbText
 10
6171.051286918508
 20
1782.50162985209
 30
0.0
 40
135.0
  1
側面図
  7
STYLE2
100
AcDbText
  0
TEXT
  5
15F00
330
747D
100
AcDbEntity
  8
部品1
100
AcDbText
 10
9561.152007593101
 20
1782.50162985209
 30
0.0
 40
135.0
  1
正面図
  7
STYLE2
100
AcDbText
  0
LINE
  5
15F02
330
747D
100
AcDbEntity
  8
破線
 48
5.0
100
AcDbLine
 10
8952.361936969365
 20
2854.710702045574
 30
0.0
 11
8952.361936969365
 21
2699.710702045575
 31
0.0
  0
LINE
  5
15F03
330
747D
100
AcDbEntity
  8
破線
 48
5.0
100
AcDbLine
 10
10752.36193696936
 20
2854.710702045574
 30
0.0
 11
10752.36193696936
 21
2699.710702045573
 31
0.0
  0
DIMENSION
  5
15F04
330
747D
100
AcDbEntity
  8
寸法
100
AcDbDimension
  2
*D18
 10
10692.36193696937
 20
10160.85373116765
 30
0.0
 11
9852.361936969373
 21
10160.85373116765
 31
0.0
 70
   160
  1
4X420=<>
 71
     5
 42
1680.0
  3
INABA_S40G
100
AcDbAlignedDimension
 13
9012.361936969375
 23
9864.046704359328
 33
0.0
 14
10692.36193696937
 24
9864.046704359422
 34
0.0
100
AcDbRotatedDimension
1001
ACAD
1000
DSTYLE
1002
{
1002
}
  0
LINE
  5
15F05
330
747D
100
AcDbEntity
  8
部品1
100
AcDbLine
 10
8957.361936969373
 20
9864.046704359328
 30
0.0
 11
10747.36193696937
 21
9864.046704359422
 31
0.0
  0
DIMENSION
  5
15F06
330
747D
100
AcDbEntity
  8
寸法
100
AcDbDimension
  2
*D19
 10
10747.36193696937
 20
10160.85373116763
 30
0.0
 11
11055.84721834361
 21
10160.85373116763
 31
0.0
 70
   160
 71
     5
 42
55.0
  3
INABA_S40G
100
AcDbAlignedDimension
 13
10692.36193696937
 23
9864.046704359422
 33
0.0
 14
10747.36193696937
 24
9864.046704359422
 34
0.0
100
AcDbRotatedDimension
1001
ACAD
1000
DSTYLE
1002
{
1002
}
  0
LINE
  5
15F07
330
747D
100
AcDbEntity
  8
部品1
100
AcDbLine
 10
10719.36193696937
 20
9809.046704359426
 30
0.0
 11
10747.36193696937
 21
9809.046704359426
 31
0.0
  0
LINE
  5
15F08
330
747D
100
AcDbEntity
  8
部品1
100
AcDbLine
 10
10719.36193696937
 20
9389.046704359426
 30
0.0
 11
10747.36193696937
 21
9389.046704359426
 31
0.0
  0
LINE
  5
15F09
330
747D
100
AcDbEntity
  8
部品1
100
AcDbLine
 10
10718.86193696937
 20
9834.046704359423
 30
0.0
 11
10718.86193696937
 21
9384.046704359423
 31
0.0
  0
LINE
  5
15F0A
330
747D
100
AcDbEntity
  8
部品1
100
AcDbLine
 10
9817.361936969374
 20
9854.046704359429
 30
0.0
 11
9817.361936969374
 21
9836.04670435943
 31
0.0
  0
LINE
  5
15F0B
330
747D
100
AcDbEntity
  8
部品1
100
AcDbLine
 10
9817.361936969374
 20
9854.046704359429
 30
0.0
 11
9823.361936969375
 21
9854.046704359429
 31
0.0
  0
LINE
  5
15F0C
330
747D
100
AcDbEntity
  8
部品1
100
AcDbLine
 10
9887.361936969375
 20
9854.046704359429
 30
0.0
 11
9887.361936969375
 21
9836.04670435943
 31
0.0
  0
LINE
  5
15F0D
330
747D
100
AcDbEntity
  8
部品1
100
AcDbLine
 10
9881.361936969375
 20
9854.046704359429
 30
0.0
 11
9887.361936969375
 21
9854.046704359429
 31
0.0
  0
LINE
  5
15F0E
330
747D
100
AcDbEntity
  8
部品1
100
AcDbLine
 10
9839.861936969374
 20
9828.046704359426
 30
0.0
 11
9864.861936969374
 21
9828.046704359429
 31
0.0
  0
LINE
  5
15F0F
330
747D
100
AcDbEntity
  8
部品1
100
AcDbLine
 10
9839.861936969374
 20
9384.046704359432
 30
0.0
 11
9864.861936969374
 21
9384.046704359432
 31
0.0
  0
LINE
  5
15F10
330
747D
100
AcDbEntity
  8
部品1
 48
50.0
100
AcDbLine
 10
9839.861936969372
 20
9836.046704359437
 30
0.0
 11
9839.861936969374
 21
9384.046704359432
 31
0.0
  0
LINE
  5
15F11
330
747D
100
AcDbEntity
  8
部品1
 48
50.0
100
AcDbLine
 10
9864.861936969374
 20
9836.046704359432
 30
0.0
 11
9864.861936969374
 21
9384.046704359432
 31
0.0
  0
LINE
  5
15F12
330
747D
100
AcDbEntity
  8
部品1
 48
50.0
100
AcDbLine
 10
9838.861936969374
 20
9834.04670435943
 30
0.0
 11
9838.861936969374
 21
9384.046704359432
 31
0.0
  0
LINE
  5
15F13
330
747D
100
AcDbEntity
  8
部品1
 48
50.0
100
AcDbLine
 10
9865.861936969373
 20
9834.046704359426
 30
0.0
 11
9865.861936969373
 21
9384.046704359432
 31
0.0
  0
LINE
  5
15F14
330
747D
100
AcDbEntity
  8
部品1
100
AcDbLine
 10
9864.861936969374
 20
9836.046704359439
 30
0.0
 11
10719.36193696937
 21
9836.046704359421
 31
0.0
  0
LINE
  5
15F15
330
747D
100
AcDbEntity
  8
部品1
100
AcDbLine
 10
9865.861936969373
 20
9834.04670435943
 30
0.0
 11
10718.86193696937
 21
9834.046704359423
 31
0.0
  0
LINE
  5
15F16
330
747D
100
AcDbEntity
  8
細線
 48
50.0
100
AcDbLine
 10
10718.86193696937
 20
9384.046704359423
 30
0.0
 11
9865.861936969373
 21
9834.046704359426
 31
0.0
  0
LINE
  5
15F17
330
747D
100
AcDbEntity
  8
細線
 48
50.0
100
AcDbLine
 10
10718.86193696937
 20
9834.046704359423
 30
0.0
 11
9865.861936969373
 21
9384.046704359432
 31
0.0
  0
LINE
  5
15F18
330
747D
100
AcDbEntity
  8
部品1
100
AcDbLine
 10
9865.861936969373
 20
9384.046704359432
 30
0.0
 11
10718.86193696937
 21
9384.046704359423
 31
0.0
  0
LINE
  5
15F19
330
747D
100
AcDbEntity
  8
部品1
100
AcDbLine
 10
10719.36193696938
 20
8969.046704359426
 30
0.0
 11
10747.36193696937
 21
8969.046704359426
 31
0.0
  0
LINE
  5
15F1A
330
747D
100
AcDbEntity
  8
部品1
100
AcDbLine
 10
10719.36193696937
 20
9836.046704359421
 30
0.0
 11
10719.36193696935
 21
8522.046704359409
 31
0.0
  0
LINE
  5
15F1B
330
747D
100
AcDbEntity
  8
部品1
100
AcDbLine
 10
8985.36193696934
 20
9809.046704359298
 30
0.0
 11
8957.36193696934
 21
9809.046704359298
 31
0.0
  0
LINE
  5
15F1C
330
747D
100
AcDbEntity
  8
部品1
100
AcDbLine
 10
8985.361936969347
 20
9389.046704359296
 30
0.0
 11
8957.361936969347
 21
9389.046704359296
 31
0.0
  0
LINE
  5
15F1D
330
747D
100
AcDbEntity
  8
部品1
 48
50.0
100
AcDbLine
 10
8985.861936969371
 20
9834.046704359323
 30
0.0
 11
8985.861936969374
 21
9384.046704359324
 31
0.0
  0
LINE
  5
15F1E
330
747D
100
AcDbEntity
  8
部品1
100
AcDbLine
 10
8985.361936969352
 20
8969.046704359296
 30
0.0
 11
8957.361936969352
 21
8969.046704359296
 31
0.0
  0
LINE
  5
15F1F
330
747D
100
AcDbEntity
  8
部品1
100
AcDbLine
 10
8985.361936969345
 20
8522.046704359251
 30
0.0
 11
8985.361936969374
 21
9836.046704359327
 31
0.0
  0
LINE
  5
15F20
330
747D
100
AcDbEntity
  8
部品1
100
AcDbLine
 10
8985.361936969374
 20
9836.046704359445
 30
0.0
 11
9839.86193696937
 21
9836.046704359443
 31
0.0
  0
LINE
  5
15F21
330
747D
100
AcDbEntity
  8
部品1
100
AcDbLine
 10
8985.861936969371
 20
9834.046704359328
 30
0.0
 11
9838.861936969374
 21
9834.046704359433
 31
0.0
  0
LINE
  5
15F22
330
747D
100
AcDbEntity
  8
細線
 48
50.0
100
AcDbLine
 10
9838.861936969372
 20
9384.046704359432
 30
0.0
 11
8985.861936969371
 21
9834.046704359328
 31
0.0
  0
LINE
  5
15F23
330
747D
100
AcDbEntity
  8
細線
 48
50.0
100
AcDbLine
 10
9838.861936969374
 20
9834.04670435943
 30
0.0
 11
8985.861936969374
 21
9384.046704359326
 31
0.0
  0
DIMENSION
  5
15F24
330
747D
100
AcDbEntity
  8
寸法
100
AcDbDimension
  2
*D20
 10
10640.29316341295
 20
9090.824049558458
 30
0.0
 11
10245.20899908764
 21
9090.824049558458
 31
0.0
 70
   160
 71
     5
 42
853.0000000000109
  3
INABA_S40G
100
AcDbAlignedDimension
 13
9865.861936969373
 23
9384.046704359432
 33
0.0
 14
10718.86193696938
 24
9384.046704359425
 34
0.0
100
AcDbRotatedDimension
1001
ACAD
1000
DSTYLE
1002
{
1002
}
  0
LINE
  5
15F25
330
747D
100
AcDbEntity
  8
部品1
100
AcDbLine
 10
8985.861936969374
 20
9384.046704359326
 30
0.0
 11
9838.861936969372
 21
9384.046704359432
 31
0.0
  0
DIMENSION
  5
15F28
330
747D
100
AcDbEntity
  8
寸法
100
AcDbDimension
  2
*D21
 10
11394.78828270378
 20
8549.04670435941
 30
0.0
 11
11394.78828270378
 21
9179.046704359418
 31
0.0
 70
   160
  1
3X420=<>
 71
     5
 42
1260.000000000016
  3
INABA_S40G
100
AcDbAlignedDimension
 13
10747.36193696937
 23
9809.046704359426
 33
0.0
 14
10747.36193696935
 24
8549.04670435941
 34
0.0
 50
90.0
100
AcDbRotatedDimension
1001
ACAD
1000
DSTYLE
1002
{
1002
}
  0
DIMENSION
  5
15F29
330
747D
100
AcDbEntity
  8
寸法
100
AcDbDimension
  2
*D22
 10
11394.78828270376
 20
8494.046704359412
 30
0.0
 11
11394.78828270376
 21
8116.185237454553
 31
0.0
 70
   160
 71
     5
 42
54.99999999999636
  3
INABA_S40G
100
AcDbAlignedDimension
 13
10747.36193696935
 23
8549.04670435941
 33
0.0
 14
10747.36193696935
 24
8494.046704359412
 34
0.0
 50
90.0
100
AcDbRotatedDimension
1001
ACAD
1000
DSTYLE
1002
{
1002
}
  0
DIMENSION
  5
15F2A
330
747D
100
AcDbEntity
  8
寸法
100
AcDbDimension
  2
*D23
 10
11074.2196628314
 20
9288.828888690535
 30
0.0
 11
10974.21966283139
 21
9513.828888690536
 31
0.0
 70
    32
 71
     5
 42
449.9999999999982
  3
INABA_S40G
100
AcDbAlignedDimension
 13
10718.86193696937
 23
9834.046704359423
 33
0.0
 14
10718.86193696937
 24
9384.046704359423
 34
0.0
 50
90.0
100
AcDbRotatedDimension
1001
ACAD
1000
DSTYLE
1002
{
1002
}
  0
DIMENSION
  5
15F2B
330
747D
100
AcDbEntity
  8
寸法
100
AcDbDimension
  2
*D24
 10
11394.78828270378
 20
9809.046704359426
 30
0.0
 11
11394.78828270378
 21
10172.53198573366
 31
0.0
 70
   160
 71
     5
 42
54.99999999999636
  3
INABA_S40G
100
AcDbAlignedDimension
 13
10747.36193696937
 23
9864.046704359422
 33
0.0
 14
10747.36193696937
 24
9809.046704359426
 34
0.0
 50
90.0
100
AcDbRotatedDimension
1001
ACAD
1000
DSTYLE
1002
{
1002
}
  0
LINE
  5
15F2C
330
747D
100
AcDbEntity
  8
部品1
100
AcDbLine
 10
9012.361936969375
 20
9864.046704359328
 30
0.0
 11
9012.361936969375
 21
9836.046704359327
 31
0.0
  0
LINE
  5
15F2D
330
747D
100
AcDbEntity
  8
部品1
100
AcDbLine
 10
9432.361936969373
 20
9864.046704359328
 30
0.0
 11
9432.361936969373
 21
9836.046704359327
 31
0.0
  0
LINE
  5
15F2E
330
747D
100
AcDbEntity
  8
部品1
100
AcDbLine
 10
9432.361936969373
 20
9864.046704359326
 30
0.0
 11
9432.361936969373
 21
9836.046704359326
 31
0.0
  0
LINE
  5
15F2F
330
747D
100
AcDbEntity
  8
部品1
100
AcDbLine
 10
9432.361936969373
 20
9864.046704359441
 30
0.0
 11
9432.361936969373
 21
9836.046704359443
 31
0.0
  0
LINE
  5
15F30
330
747D
100
AcDbEntity
  8
部品1
100
AcDbLine
 10
9852.361936969373
 20
9864.046704359441
 30
0.0
 11
9852.361936969373
 21
9836.046704359443
 31
0.0
  0
LINE
  5
15F31
330
747D
100
AcDbEntity
  8
部品1
100
AcDbLine
 10
10272.36193696937
 20
9864.046704359441
 30
0.0
 11
10272.36193696937
 21
9836.046704359443
 31
0.0
  0
LINE
  5
15F32
330
747D
100
AcDbEntity
  8
部品1
100
AcDbLine
 10
10747.36193696937
 20
9864.046704359422
 30
0.0
 11
10747.36193696935
 21
8494.046704359412
 31
0.0
  0
DIMENSION
  5
15F33
330
747D
100
AcDbEntity
  8
寸法
100
AcDbDimension
  2
*D25
 10
11692.20161332704
 20
8494.046704359412
 30
0.0
 11
11692.20161332704
 21
9213.518751885196
 31
0.0
 70
   160
 71
     5
 42
1370.000000000009
  3
INABA_S40G
100
AcDbAlignedDimension
 13
10747.36193696937
 23
9864.046704359422
 33
0.0
 14
10747.36193696935
 24
8494.046704359412
 34
0.0
 50
90.0
100
AcDbRotatedDimension
1001
ACAD
1000
DSTYLE
1002
{
1002
}
  0
LINE
  5
15F34
330
747D
100
AcDbEntity
  8
部品1
100
AcDbLine
 10
10692.36193696937
 20
9864.046704359441
 30
0.0
 11
10692.36193696937
 21
9836.046704359443
 31
0.0
  0
LINE
  5
15F35
330
747D
100
AcDbEntity
  8
部品1
100
AcDbLine
 10
10692.36193696937
 20
9864.046704359422
 30
0.0
 11
10692.36193696937
 21
9836.046704359421
 31
0.0
  0
LINE
  5
15F36
330
747D
100
AcDbEntity
  8
部品1
100
AcDbLine
 10
8957.361936969338
 20
9864.046704359296
 30
0.0
 11
8957.361936969366
 21
8494.046704359282
 31
0.0
  0
LINE
  5
15F37
330
747D
100
AcDbEntity
  8
部品1
100
AcDbLine
 10
9012.361936969337
 20
9864.046704359296
 30
0.0
 11
9012.361936969339
 21
9836.046704359295
 31
0.0
  0
DIMENSION
  5
15F38
330
747D
100
AcDbEntity
  8
寸法
100
AcDbDimension
  2
*D26
 10
9012.361936969375
 20
10160.85373116753
 30
0.0
 11
8648.876655595099
 21
10160.85373116753
 31
0.0
 70
   160
 71
     5
 42
55.00000000003637
  3
INABA_S40G
100
AcDbAlignedDimension
 13
8957.361936969338
 23
9864.046704359328
 33
0.0
 14
9012.361936969375
 24
9864.046704359328
 34
0.0
100
AcDbRotatedDimension
1001
ACAD
1000
DSTYLE
1002
{
1002
}
  0
LINE
  5
15F3A
330
747D
100
AcDbEntity
  8
破線
 48
5.0
100
AcDbLine
 10
8932.361936969366
 20
2699.710702045575
 30
0.0
 11
8952.361936969367
 21
2699.710702045575
 31
0.0
  0
LINE
  5
15F3D
330
747D
100
AcDbEntity
  8
部品1
100
AcDbLine
 10
8952.361936969365
 20
2999.710702045575
 30
0.0
 11
8952.361936969365
 21
2854.710702045574
 31
0.0
  0
LINE
  5
15F3E
330
747D
100
AcDbEntity
  8
破線
 48
5.0
100
AcDbLine
 10
10772.36193696936
 20
2699.710702045573
 30
0.0
 11
10752.36193696936
 21
2699.710702045573
 31
0.0
  0
LINE
  5
15F42
330
747D
100
AcDbEntity
  8
部品1
100
AcDbLine
 10
10752.36193696936
 20
2999.710702045574
 30
0.0
 11
10752.36193696936
 21
2854.710702045574
 31
0.0
  0
LINE
  5
15F43
330
747D
100
AcDbEntity
  8
部品1
 48
50.0
100
AcDbLine
 10
9952.361936969367
 20
2954.710702045574
 30
0.0
 11
9952.361936969367
 21
2854.710702045574
 31
0.0
  0
LINE
  5
15F44
330
747D
100
AcDbEntity
  8
部品1
 48
50.0
100
AcDbLine
 10
9752.361936969366
 20
2954.710702045574
 30
0.0
 11
9752.361936969366
 21
2854.710702045574
 31
0.0
  0
LINE
  5
15F45
330
747D
100
AcDbEntity
  8
部品1
100
AcDbLine
 10
9357.361936969367
 20
2954.710702045573
 30
0.0
 11
9357.361936969367
 21
2854.710702045574
 31
0.0
  0
LINE
  5
15F46
330
747D
100
AcDbEntity
  8
部品1
100
AcDbLine
 10
10347.36193696936
 20
2954.710702045573
 30
0.0
 11
10347.36193696936
 21
2854.710702045574
 31
0.0
  0
LINE
  5
15F47
330
747D
100
AcDbEntity
  8
部品1
100
AcDbLine
 10
10747.36193696937
 20
5148.210702045574
 30
0.0
 11
10747.36193696936
 21
2854.710702045574
 31
0.0
  0
LINE
  5
15F48
330
747D
100
AcDbEntity
  8
部品1
100
AcDbLine
 10
8957.361936969368
 20
5148.210702045574
 30
0.0
 11
8957.361936969366
 21
2854.710702045574
 31
0.0
  0
LINE
  5
15F49
330
747D
100
AcDbEntity
  8
部品1
100
AcDbLine
 10
8957.361936969366
 20
5094.710702045573
 30
0.0
 11
10747.36193696936
 21
5094.710702045573
 31
0.0
  0
LINE
  5
15F4A
330
747D
100
AcDbEntity
  8
部品1
100
AcDbLine
 10
8957.361936969366
 20
2954.710702045574
 30
0.0
 11
10747.36193696936
 21
2954.710702045574
 31
0.0
  0
TEXT
  5
15F4B
330
747D
100
AcDbEntity
  8
部品1
100
AcDbText
 10
3706.786070467406
 20
2890.817605651475
 30
0.0
 40
125.0
  1
▽G.L
  7
STYLE2
100
AcDbText
  0
LINE
  5
15F4C
330
747D
100
AcDbEntity
  8
Ｇ．Ｌ
100
AcDbLine
 10
3716.996419644468
 20
2854.710702045574
 30
0.0
 11
11381.38351073812
 21
2854.710702045574
 31
0.0
  0
TEXT
  5
15F51
330
747D
100
AcDbEntity
  8
文字
 62
     7
 48
50.0
100
AcDbText
 10
13209.4053442172
 20
228.5435242569015
 30
0.0
 40
100.0
  1
○有効開口寸法 ： 950×2025(mm)
  7
STYLE2
100
AcDbText
  0
LINE
  5
1620E
330
747D
100
AcDbEntity
  8
補助
  6
PHANTOM
 62
   230
 48
50.0
100
AcDbLine
 10
140.0
 20
0.0
 30
0.0
 11
140.0
 21
11409.6
 31
0.0
  0
LINE
  5
164B3
330
747D
100
AcDbEntity
  8
部品1
 48
50.0
100
AcDbLine
 10
9059.361936969368
 20
4086.210702045566
 30
0.0
 11
9112.361936969369
 21
4086.210702045566
 31
0.0
  0
LINE
  5
164F3
330
747D
100
AcDbEntity
  8
破線
 48
5.0
100
AcDbLine
 10
10622.36193696936
 20
2854.710702045574
 30
0.0
 11
10622.36193696936
 21
2604.710702045573
 31
0.0
  0
LINE
  5
164F4
330
747D
100
AcDbEntity
  8
破線
 48
5.0
100
AcDbLine
 10
10622.36193696936
 20
2604.710702045573
 30
0.0
 11
10872.36193696937
 21
2604.710702045573
 31
0.0
  0
LINE
  5
164F5
330
747D
100
AcDbEntity
  8
破線
 48
5.0
100
AcDbLine
 10
10872.36193696936
 20
2854.710702045574
 30
0.0
 11
10872.36193696936
 21
2604.710702045573
 31
0.0
  0
DIMENSION
  5
164F6
330
747D
100
AcDbEntity
  8
寸法
 48
50.0
100
AcDbDimension
  2
*D27
 10
8832.361936969366
 20
2318.663372745195
 30
0.0
 11
8957.361936969366
 21
2318.663372745195
 31
0.0
 70
   160
 71
     5
 42
250.0000000000018
  3
INABA_S40G
100
AcDbAlignedDimension
 13
9082.361936969368
 23
2604.710702045573
 33
0.0
 14
8832.361936969366
 24
2604.710702045573
 34
0.0
100
AcDbRotatedDimension
  0
LINE
  5
164F7
330
747D
100
AcDbEntity
  8
破線
 48
5.0
100
AcDbLine
 10
9082.361936969366
 20
2854.710702045574
 30
0.0
 11
9082.361936969366
 21
2604.710702045573
 31
0.0
  0
LINE
  5
164F8
330
747D
100
AcDbEntity
  8
破線
 48
5.0
100
AcDbLine
 10
8832.361936969366
 20
2854.710702045574
 30
0.0
 11
8832.361936969366
 21
2604.710702045573
 31
0.0
  0
LINE
  5
164F9
330
747D
100
AcDbEntity
  8
破線
 48
5.0
100
AcDbLine
 10
8832.361936969366
 20
2604.710702045573
 30
0.0
 11
9082.361936969368
 21
2604.710702045573
 31
0.0
  0
LINE
  5
1650F
330
747D
100
AcDbEntity
  8
破線
  6
HIDDEN
 48
5.0
100
AcDbLine
 10
6985.84051860912
 20
2854.710702045573
 30
0.0
 11
6985.840518609125
 21
2604.710702045572
 31
0.0
  0
LINE
  5
16510
330
747D
100
AcDbEntity
  8
破線
  6
HIDDEN
 48
5.0
100
AcDbLine
 10
7235.84051860912
 20
2854.710702045573
 30
0.0
 11
7235.84051860912
 21
2604.710702045573
 31
0.0
  0
DIMENSION
  5
16511
330
747D
100
AcDbEntity
  8
寸法
 48
50.0
100
AcDbDimension
  2
*D29
 10
7590.998173447876
 20
2854.710702045573
 30
0.0
 11
7590.998173447875
 21
2729.710702045574
 31
0.0
 70
   160
 71
     5
 42
250.0
  3
INABA_S40G
100
AcDbAlignedDimension
 13
7235.84051860912
 23
2604.710702045573
 33
0.0
 14
7235.84051860912
 24
2854.710702045573
 34
0.0
 50
270.0
100
AcDbRotatedDimension
  0
DIMENSION
  5
16512
330
747D
100
AcDbEntity
  8
寸法
 48
50.0
100
AcDbDimension
  2
*D28
 10
6985.84051860912
 20
2318.663372745195
 30
0.0
 11
7110.84051860912
 21
2318.663372745195
 31
0.0
 70
   160
 71
     5
 42
250.0
  3
INABA_S40G
100
AcDbAlignedDimension
 13
7235.84051860912
 23
2604.710702045573
 33
0.0
 14
6985.84051860912
 24
2604.710702045572
 34
0.0
100
AcDbRotatedDimension
  0
LINE
  5
16513
330
747D
100
AcDbEntity
  8
破線
  6
HIDDEN
 48
5.0
100
AcDbLine
 10
7235.84051860912
 20
2604.710702045573
 30
0.0
 11
6985.84051860912
 21
2604.710702045572
 31
0.0
  0
LINE
  5
16514
330
747D
100
AcDbEntity
  8
破線
  6
HIDDEN
 48
5.0
100
AcDbLine
 10
5920.840518609124
 20
2854.710702045573
 30
0.0
 11
5920.840518609121
 21
2604.710702045572
 31
0.0
  0
LINE
  5
16515
330
747D
100
AcDbEntity
  8
破線
  6
HIDDEN
 48
5.0
100
AcDbLine
 10
5670.840518609124
 20
2854.710702045573
 30
0.0
 11
5670.840518609124
 21
2604.710702045573
 31
0.0
  0
LINE
  5
16516
330
747D
100
AcDbEntity
  8
破線
  6
HIDDEN
 48
5.0
100
AcDbLine
 10
5670.840518609124
 20
2604.710702045573
 30
0.0
 11
5920.840518609124
 21
2604.710702045572
 31
0.0
  0
LINE
  5
1677F
330
747D
100
AcDbEntity
  8
細線
 48
50.0
100
AcDbLine
 10
9535.361936969335
 20
8422.04687853621
 30
0.0
 11
9653.861936969335
 21
8422.04687853621
 31
0.0
  0
LINE
  5
16780
330
747D
100
AcDbEntity
  8
細線
 48
50.0
100
AcDbLine
 10
9623.861936969341
 20
8439.196878536208
 30
0.0
 11
9623.861936969341
 21
8444.046878536211
 31
0.0
  0
LINE
  5
16781
330
747D
100
AcDbEntity
  8
細線
 48
50.0
100
AcDbLine
 10
9623.861936969341
 20
8444.046878536211
 30
0.0
 11
9638.861936969339
 21
8444.046878536211
 31
0.0
  0
LINE
  5
16782
330
747D
100
AcDbEntity
  8
細線
 48
50.0
100
AcDbLine
 10
9638.861936969339
 20
8444.046878536211
 30
0.0
 11
9638.861936969341
 21
8451.04687853621
 31
0.0
  0
LINE
  5
16783
330
747D
100
AcDbEntity
  8
細線
 48
50.0
100
AcDbLine
 10
9638.861936969341
 20
8451.04687853621
 30
0.0
 11
9653.86193696934
 21
8451.04687853621
 31
0.0
  0
LINE
  5
16784
330
747D
100
AcDbEntity
  8
細線
 48
50.0
100
AcDbLine
 10
9653.86193696934
 20
8451.04687853621
 30
0.0
 11
9653.86193696934
 21
8422.04687853621
 31
0.0
  0
LINE
  5
16785
330
747D
100
AcDbEntity
  8
細線
 48
50.0
100
AcDbLine
 10
9642.861936969339
 20
8473.543072801716
 30
0.0
 11
9642.861936969339
 21
8478.043072801716
 31
0.0
  0
LINE
  5
16786
330
747D
100
AcDbEntity
  8
細線
 48
50.0
100
AcDbLine
 10
9642.861936969339
 20
8478.043072801716
 30
0.0
 11
9627.861936969338
 21
8478.043072801716
 31
0.0
  0
LINE
  5
16787
330
747D
100
AcDbEntity
  8
細線
 48
50.0
100
AcDbLine
 10
9627.861936969338
 20
8478.043072801716
 30
0.0
 11
9627.861936969338
 21
8485.043072801715
 31
0.0
  0
LINE
  5
16788
330
747D
100
AcDbEntity
  8
細線
 48
50.0
100
AcDbLine
 10
9627.861936969338
 20
8485.043072801715
 30
0.0
 11
9612.861936969341
 21
8485.043072801714
 31
0.0
  0
LINE
  5
16789
330
747D
100
AcDbEntity
  8
細線
 48
50.0
100
AcDbLine
 10
9612.861936969341
 20
8485.043072801714
 30
0.0
 11
9612.861936969341
 21
8447.442844698603
 31
0.0
  0
LINE
  5
1678A
330
747D
100
AcDbEntity
  8
細線
 48
50.0
100
AcDbLine
 10
9612.861936969341
 20
8447.442844698603
 30
0.0
 11
9632.861944270516
 21
8447.442886248143
 31
0.0
  0
LINE
  5
1678B
330
747D
100
AcDbEntity
  8
細線
 48
50.0
100
AcDbLine
 10
9632.861899401575
 20
8456.046347883953
 30
0.0
 11
9632.861944270516
 21
8447.442886248143
 31
0.0
  0
LINE
  5
1678C
330
747D
100
AcDbEntity
  8
細線
 48
50.0
100
AcDbLine
 10
9632.861899401575
 20
8456.046347883953
 30
0.0
 11
9644.094588756283
 21
8456.046530837099
 31
0.0
  0
ARC
  5
1678D
330
747D
100
AcDbEntity
  8
細線
 48
50.0
100
AcDbCircle
 10
9650.676881063619
 20
8454.846694750711
 30
0.0
 40
1.8
100
AcDbArc
 50
270.0006665777295
 51
345.0005554812987
  0
LINE
  5
1678E
330
747D
100
AcDbEntity
  8
細線
 48
50.0
100
AcDbLine
 10
9652.663314509698
 20
8455.30553520799
 30
0.0
 11
9652.4155520675
 21
8454.380837325883
 31
0.0
  0
LINE
  5
1678F
330
747D
100
AcDbEntity
  8
細線
 48
50.0
100
AcDbLine
 10
9650.676902004775
 20
8453.046694750831
 30
0.0
 11
9647.046974586007
 21
8453.046652520352
 31
0.0
  0
ARC
  5
16790
330
747D
100
AcDbEntity
  8
細線
 48
50.0
100
AcDbCircle
 10
9647.046953644853
 20
8454.846652520231
 30
0.0
 40
1.8
100
AcDbArc
 50
195.0010443049394
 51
270.0006665777295
  0
LINE
  5
16791
330
747D
100
AcDbEntity
  8
細線
 48
50.0
100
AcDbLine
 10
9645.060526152596
 20
8455.305367487795
 30
0.0
 11
9645.308295649108
 21
8454.380746549214
 31
0.0
  0
ARC
  5
16792
330
747D
100
AcDbEntity
  8
細線
 48
50.0
100
AcDbCircle
 10
9644.094605043846
 20
8455.046530837234
 30
0.0
 40
1.0
100
AcDbArc
 50
15.00104430493943
 51
90.00093320877969
  0
LINE
  5
16793
330
747D
100
AcDbEntity
  8
細線
 48
50.0
100
AcDbLine
 10
9653.629235864803
 20
8456.046725527505
 30
0.0
 11
9654.570996015706
 21
8456.046732101354
 31
0.0
  0
ARC
  5
16794
330
747D
100
AcDbEntity
  8
細線
 48
50.0
100
AcDbCircle
 10
9653.629242845187
 20
8455.046725527529
 30
0.0
 40
1.0
100
AcDbArc
 50
90.0003999466794
 51
165.0005554812987
  0
LINE
  5
16795
330
747D
100
AcDbEntity
  8
細線
 48
50.0
100
AcDbLine
 10
10689.86193696934
 20
8515.046704359258
 30
0.0
 11
10689.86193696933
 21
8490.046704359254
 31
0.0
  0
LINE
  5
16796
330
747D
100
AcDbEntity
  8
細線
100
AcDbLine
 10
10680.36193696933
 20
8490.046704359254
 30
0.0
 11
10572.36193696933
 21
8490.046704359254
 31
0.0
  0
LINE
  5
16797
330
747D
100
AcDbEntity
  8
細線
 48
50.0
100
AcDbLine
 10
10104.86194212024
 20
8482.046704359259
 30
0.0
 11
10104.86194212024
 21
8520.04670435925
 31
0.0
  0
LINE
  5
16798
330
747D
100
AcDbEntity
  8
細線
 48
50.0
100
AcDbLine
 10
10104.86194212024
 20
8520.04670435925
 30
0.0
 11
10119.86194212024
 21
8520.046704359254
 31
0.0
  0
LINE
  5
16799
330
747D
100
AcDbEntity
  8
細線
 48
50.0
100
AcDbLine
 10
10119.86194212024
 20
8520.046704359254
 30
0.0
 11
10119.86194212024
 21
8515.046704359255
 31
0.0
  0
LINE
  5
1679A
330
747D
100
AcDbEntity
  8
細線
 48
50.0
100
AcDbLine
 10
10104.86194212024
 20
8482.046704359259
 30
0.0
 11
10124.86194212024
 21
8482.046704359254
 31
0.0
  0
LINE
  5
1679B
330
747D
100
AcDbEntity
  8
細線
 48
50.0
100
AcDbLine
 10
10124.86194212024
 20
8482.046704359254
 30
0.0
 11
10124.86194212024
 21
8490.046704359254
 31
0.0
  0
LINE
  5
1679C
330
747D
100
AcDbEntity
  8
細線
100
AcDbLine
 10
10362.36193696933
 20
8490.046704359254
 30
0.0
 11
10292.36193696933
 21
8490.046704359254
 31
0.0
  0
LINE
  5
1679D
330
747D
100
AcDbEntity
  8
細線
 48
50.0
100
AcDbLine
 10
10222.36193696933
 20
8490.046704359254
 30
0.0
 11
10137.65772169308
 21
8490.046704359254
 31
0.0
  0
LINE
  5
1679E
330
747D
100
AcDbEntity
  8
細線
100
AcDbLine
 10
10502.36193696933
 20
8490.046704359254
 30
0.0
 11
10432.36193696933
 21
8490.046704359254
 31
0.0
  0
LINE
  5
1679F
330
747D
100
AcDbEntity
  8
細線
100
AcDbLine
 10
10330.36193696933
 20
8490.046704359254
 30
0.0
 11
10330.36193696933
 21
8519.346704359254
 31
0.0
  0
LINE
  5
167A0
330
747D
100
AcDbEntity
  8
細線
100
AcDbLine
 10
10310.36193696933
 20
8519.346704359254
 30
0.0
 11
10330.36193696933
 21
8519.346704359254
 31
0.0
  0
LINE
  5
167A1
330
747D
100
AcDbEntity
  8
細線
100
AcDbLine
 10
10310.36193696933
 20
8490.046704359254
 30
0.0
 11
10310.36193696933
 21
8519.346704359254
 31
0.0
  0
LINE
  5
167A2
330
747D
100
AcDbEntity
  8
細線
 48
50.0
100
AcDbLine
 10
10673.96193696934
 20
8515.046704359255
 30
0.0
 11
10663.96193696934
 21
8520.046704359254
 31
0.0
  0
LINE
  5
167A3
330
747D
100
AcDbEntity
  8
細線
 48
50.0
100
AcDbLine
 10
10689.86193696934
 20
8515.046704359258
 30
0.0
 11
10673.96193696934
 21
8515.046704359255
 31
0.0
  0
LINE
  5
167A4
330
747D
100
AcDbEntity
  8
細線
 48
50.0
100
AcDbLine
 10
10663.96193696934
 20
8520.046704359252
 30
0.0
 11
10119.86194212024
 21
8520.04670435925
 31
0.0
  0
LINE
  5
167A5
330
747D
100
AcDbEntity
  8
細線
 48
50.0
100
AcDbLine
 10
10130.86194212024
 20
8489.246704359254
 30
0.0
 11
10130.86194212024
 21
8487.746704359254
 31
0.0
  0
LINE
  5
167A6
330
747D
100
AcDbEntity
  8
細線
 48
50.0
100
AcDbLine
 10
10131.56194212024
 20
8487.046704359254
 30
0.0
 11
10136.16194212024
 21
8487.046704359254
 31
0.0
  0
LINE
  5
167A7
330
747D
100
AcDbEntity
  8
細線
 48
50.0
100
AcDbLine
 10
10136.86194212024
 20
8487.746704359254
 30
0.0
 11
10136.86194894536
 21
8489.246719250742
 31
0.0
  0
ARC
  5
167A8
330
747D
100
AcDbEntity
  8
細線
 48
50.0
100
AcDbCircle
 10
10136.16194212024
 20
8487.746704359254
 30
0.0
 40
0.7
100
AcDbArc
 50
270.0
 51
0.0
  0
ARC
  5
167A9
330
747D
100
AcDbEntity
  8
細線
 48
50.0
100
AcDbCircle
 10
10131.56194212024
 20
8487.746704359254
 30
0.0
 40
0.7
100
AcDbArc
 50
180.0
 51
270.0
  0
LINE
  5
167AA
330
747D
100
AcDbEntity
  8
細線
 48
50.0
100
AcDbLine
 10
10130.06194398169
 20
8490.046704359254
 30
0.0
 11
10124.86194212024
 21
8490.046704359254
 31
0.0
  0
ARC
  5
167AB
330
747D
100
AcDbEntity
  8
細線
 48
50.0
100
AcDbCircle
 10
10137.66194894535
 20
8489.246715527873
 30
0.0
 40
0.8
100
AcDbArc
 50
90.00014387753465
 51
179.9997333689498
  0
ARC
  5
167AC
330
747D
100
AcDbEntity
  8
細線
 48
50.0
100
AcDbCircle
 10
10130.06194212025
 20
8489.246704359254
 30
0.0
 40
0.8
100
AcDbArc
 50
359.9997333689499
 51
89.99986668437072
  0
LINE
  5
167AD
330
747D
100
AcDbEntity
  8
細線
 48
50.0
100
AcDbLine
 10
9844.361901650444
 20
8456.046716221841
 30
0.0
 11
9774.361884362569
 21
8456.046716221848
 31
0.0
  0
LINE
  5
167AE
330
747D
100
AcDbEntity
  8
細線
 48
50.0
100
AcDbLine
 10
9704.361936969338
 20
8456.04672440921
 30
0.0
 11
9654.570996015706
 21
8456.046732101354
 31
0.0
  0
LINE
  5
167AF
330
747D
100
AcDbEntity
  8
細線
 48
50.0
100
AcDbLine
 10
10054.36192873257
 20
8456.046716221845
 30
0.0
 11
10145.86193696934
 21
8456.046716221845
 31
0.0
  0
LINE
  5
167B0
330
747D
100
AcDbEntity
  8
細線
 48
50.0
100
AcDbLine
 10
9984.361936969337
 20
8456.046713471838
 30
0.0
 11
9914.362180866335
 21
8456.046718971874
 31
0.0
  0
LINE
  5
167B1
330
747D
100
AcDbEntity
  8
細線
 48
50.0
100
AcDbLine
 10
10145.86194727116
 20
8485.046922394118
 30
0.0
 11
10145.86193696934
 21
8456.046716221845
 31
0.0
  0
LINE
  5
167B2
330
747D
100
AcDbEntity
  8
細線
 48
50.0
100
AcDbLine
 10
10130.86194910063
 20
8485.046922394118
 30
0.0
 11
10145.86194727116
 21
8485.046922394118
 31
0.0
  0
LINE
  5
167B3
330
747D
100
AcDbEntity
  8
細線
 48
50.0
100
AcDbLine
 10
10130.86193746665
 20
8478.046922394074
 30
0.0
 11
10130.86194910063
 21
8485.046922394118
 31
0.0
  0
LINE
  5
167B4
330
747D
100
AcDbEntity
  8
細線
 48
50.0
100
AcDbLine
 10
10115.86193746665
 20
8478.046922394074
 30
0.0
 11
10130.86193746665
 21
8478.046922394074
 31
0.0
  0
LINE
  5
167B5
330
747D
100
AcDbEntity
  8
細線
 48
50.0
100
AcDbLine
 10
10115.86193746665
 20
8473.196922394077
 30
0.0
 11
10115.86193746665
 21
8478.046922394074
 31
0.0
  0
LINE
  5
167B6
330
747D
100
AcDbEntity
  8
細線
 48
50.0
100
AcDbLine
 10
10115.86193746665
 20
8476.646922394078
 30
0.0
 11
9642.861936969339
 21
8476.646922394072
 31
0.0
  0
LINE
  5
167B7
330
747D
100
AcDbEntity
  8
細線
 48
50.0
100
AcDbLine
 10
9623.861936969341
 20
8442.646878536208
 30
0.0
 11
9038.361941622929
 21
8442.646878536208
 31
0.0
  0
LINE
  5
167B8
330
747D
100
AcDbEntity
  8
細線
 48
50.0
100
AcDbLine
 10
9446.74502864003
 20
8440.317729826704
 30
0.0
 11
9452.500546222699
 21
8422.04687853621
 31
0.0
  0
LINE
  5
167B9
330
747D
100
AcDbEntity
  8
細線
 48
50.0
100
AcDbLine
 10
9435.816580159599
 20
8440.3177298267
 30
0.0
 11
9446.74502864003
 21
8440.317729826704
 31
0.0
  0
ARC
  5
167BA
330
747D
100
AcDbEntity
  8
細線
 48
50.0
100
AcDbCircle
 10
9430.36222410228
 20
8441.8177298267
 30
0.0
 40
5.0
100
AcDbArc
 50
204.6243183521304
 51
335.3756816478695
  0
ARC
  5
167BB
330
747D
100
AcDbEntity
  8
細線
 48
50.0
100
AcDbCircle
 10
9435.816580159599
 20
8439.317729826701
 30
0.0
 40
1.0
100
AcDbArc
 50
90.0
 51
155.3756816478695
  0
ARC
  5
167BC
330
747D
100
AcDbEntity
  8
細線
 48
50.0
100
AcDbCircle
 10
9424.907868044964
 20
8439.317729826701
 30
0.0
 40
1.0
100
AcDbArc
 50
24.62431835213048
 51
90.0
  0
LINE
  5
167BD
330
747D
100
AcDbEntity
  8
細線
 48
50.0
100
AcDbLine
 10
9413.979419564531
 20
8440.317729826704
 30
0.0
 11
9424.907868044964
 21
8440.3177298267
 31
0.0
  0
LINE
  5
167BE
330
747D
100
AcDbEntity
  8
細線
 48
50.0
100
AcDbLine
 10
9408.223901981862
 20
8422.04687853621
 30
0.0
 11
9413.979419564531
 21
8440.317729826704
 31
0.0
  0
LINE
  5
167BF
330
747D
100
AcDbEntity
  8
細線
 48
50.0
100
AcDbLine
 10
9395.361936969335
 20
8422.04687853621
 30
0.0
 11
9465.361936969335
 21
8422.04687853621
 31
0.0
  0
LINE
  5
167C0
330
747D
100
AcDbEntity
  8
細線
 48
50.0
100
AcDbLine
 10
9015.361936969338
 20
8422.044212879679
 30
0.0
 11
9325.362490073764
 21
8422.048099779875
 31
0.0
  0
LINE
  5
167C1
330
747D
100
AcDbEntity
  8
細線
 48
50.0
100
AcDbLine
 10
9038.361941622929
 20
8451.043028943848
 30
0.0
 11
9024.361936969338
 21
8451.043028943844
 31
0.0
  0
LINE
  5
167C2
330
747D
100
AcDbEntity
  8
細線
 48
50.0
100
AcDbLine
 10
9038.361941622929
 20
8442.646878536208
 30
0.0
 11
9038.361941622929
 21
8451.043028943848
 31
0.0
  0
LINE
  5
167C3
330
747D
100
AcDbEntity
  8
細線
  6
Continuous
 62
     5
100
AcDbLine
 10
10117.86194212024
 20
8475.04670435925
 30
0.0
 11
10117.86194212024
 21
8475.04670435925
 31
0.0
  0
LINE
  5
167C4
330
747D
100
AcDbEntity
  8
部品1
100
AcDbLine
 10
9015.361936969338
 20
8417.046704359256
 30
0.0
 11
10719.36193696934
 21
8417.046704359252
 31
0.0
  0
LINE
  5
167C5
330
747D
100
AcDbEntity
  8
部品1
100
AcDbLine
 10
10689.36193696933
 20
8417.046704359256
 30
0.0
 11
10719.36193696933
 21
8417.046704359256
 31
0.0
  0
LINE
  5
167C6
330
747D
100
AcDbEntity
  8
部品1
100
AcDbLine
 10
9012.361936969337
 20
8521.046704359251
 30
0.0
 11
10692.36193696933
 21
8521.046704359255
 31
0.0
  0
LINE
  5
167C7
330
747D
100
AcDbEntity
  8
部品1
100
AcDbLine
 10
9012.361936969337
 20
8521.046704359251
 30
0.0
 11
9012.361936969337
 21
8490.046704359254
 31
0.0
  0
LINE
  5
167C8
330
747D
100
AcDbEntity
  8
部品1
100
AcDbLine
 10
9024.361936969338
 20
8490.046704359254
 30
0.0
 11
9024.361936969338
 21
8426.046704359254
 31
0.0
  0
LINE
  5
167C9
330
747D
100
AcDbEntity
  8
部品1
100
AcDbLine
 10
8985.361936969338
 20
8417.046704359256
 30
0.0
 11
8985.361936969338
 21
8494.046704359254
 31
0.0
  0
LINE
  5
167CA
330
747D
100
AcDbEntity
  8
部品1
100
AcDbLine
 10
9015.361936969338
 20
8417.046704359256
 30
0.0
 11
8985.361936969338
 21
8417.046704359256
 31
0.0
  0
LINE
  5
167CB
330
747D
100
AcDbEntity
  8
部品1
100
AcDbLine
 10
9024.361936969338
 20
8426.046704359254
 30
0.0
 11
9015.361936969338
 21
8426.046704359254
 31
0.0
  0
LINE
  5
167CC
330
747D
100
AcDbEntity
  8
部品1
100
AcDbLine
 10
9015.361936969338
 20
8426.046704359254
 30
0.0
 11
9015.361936969338
 21
8417.046704359256
 31
0.0
  0
LINE
  5
167CD
330
747D
100
AcDbEntity
  8
部品1
100
AcDbLine
 10
8985.361936969338
 20
8494.046704359254
 30
0.0
 11
9012.361936969337
 21
8494.046704359254
 31
0.0
  0
LINE
  5
167CE
330
747D
100
AcDbEntity
  8
部品1
100
AcDbLine
 10
9024.361936969338
 20
8490.046704359254
 30
0.0
 11
9012.361936969337
 21
8490.046704359254
 31
0.0
  0
LINE
  5
167CF
330
747D
100
AcDbEntity
  8
部品1
100
AcDbLine
 10
10692.36193696933
 20
8521.046704359255
 30
0.0
 11
10692.36193696933
 21
8490.046704359254
 31
0.0
  0
LINE
  5
167D0
330
747D
100
AcDbEntity
  8
部品1
100
AcDbLine
 10
10680.36193696933
 20
8490.046704359254
 30
0.0
 11
10680.36193696933
 21
8426.046704359254
 31
0.0
  0
LINE
  5
167D1
330
747D
100
AcDbEntity
  8
部品1
100
AcDbLine
 10
10680.36193696933
 20
8426.046704359254
 30
0.0
 11
10689.36193696933
 21
8426.046704359254
 31
0.0
  0
LINE
  5
167D2
330
747D
100
AcDbEntity
  8
部品1
100
AcDbLine
 10
10689.36193696933
 20
8426.046704359254
 30
0.0
 11
10689.36193696933
 21
8417.046704359256
 31
0.0
  0
LINE
  5
167D3
330
747D
100
AcDbEntity
  8
部品1
100
AcDbLine
 10
10680.36193696933
 20
8490.046704359254
 30
0.0
 11
10692.36193696933
 21
8490.046704359254
 31
0.0
  0
LINE
  5
167D4
330
747D
100
AcDbEntity
  8
部品1
100
AcDbLine
 10
10719.36193696933
 20
8417.046704359256
 30
0.0
 11
10719.36193696933
 21
8494.046704359254
 31
0.0
  0
LINE
  5
167D6
330
747D
100
AcDbEntity
  8
部品1
100
AcDbLine
 10
10692.36193696933
 20
8494.046704359254
 30
0.0
 11
10719.36193696933
 21
8494.046704359254
 31
0.0
  0
DIMENSION
  5
167D7
330
747D
100
AcDbEntity
  8
寸法
 48
50.0
100
AcDbDimension
  2
*D30
 10
9974.361936969337
 20
7791.971686311029
 30
0.0
 11
9499.361936969338
 21
7791.971686311029
 31
0.0
 70
   160
  1
有効開口部間口\P<>
 71
     5
 42
950.0
  3
INABA_S40
100
AcDbAlignedDimension
 13
9024.361936969338
 23
8417.046704359256
 33
0.0
 14
9974.361936969337
 24
8417.046704359256
 34
0.0
100
AcDbRotatedDimension
1001
ACAD
1000
DSTYLE
1002
{
1070
    41
1040
0.5
1070
    44
1040
1.0
1070
   147
1040
0.8
1070
   271
1070
     2
1070
   272
1070
     2
1070
   289
1070
     3
1070
   340
1005
F706
1070
   343
1005
158FE
1070
   344
1005
158FE
1002
}
  0
LINE
  5
167D8
330
747D
100
AcDbEntity
  8
細線
100
AcDbLine
 10
9024.361936969338
 20
8426.046704359254
 30
0.0
 11
9024.361936969338
 21
8422.046704359301
 31
0.0
  0
LINE
  5
167D9
330
747D
100
AcDbEntity
  8
細線
100
AcDbLine
 10
9180.861830370599
 20
8440.045773904854
 30
0.0
 11
9180.861830370599
 21
8422.045773904828
 31
0.0
  0
LINE
  5
167DA
330
747D
100
AcDbEntity
  8
細線
100
AcDbLine
 10
9139.861830370598
 20
8440.045773904847
 30
0.0
 11
9139.861830370598
 21
8422.045773904828
 31
0.0
  0
LINE
  5
167DB
330
747D
100
AcDbEntity
  8
細線
100
AcDbLine
 10
9180.861830370599
 20
8440.045773904854
 30
0.0
 11
9139.861830370598
 21
8440.045773904847
 31
0.0
  0
ARC
  5
167DC
330
747D
100
AcDbEntity
  8
部品1
100
AcDbCircle
 10
9142.405986247876
 20
8421.545773904851
 30
0.0
 40
1.0
100
AcDbArc
 50
270.0
 51
19.47122063442214
  0
LINE
  5
167DD
330
747D
100
AcDbEntity
  8
部品1
 48
0.01
100
AcDbLine
 10
9135.361830370591
 20
8422.045773904851
 30
0.0
 11
9135.361830370591
 21
8421.04577390485
 31
0.0
  0
LINE
  5
167DE
330
747D
100
AcDbEntity
  8
部品1
 48
0.01
100
AcDbLine
 10
9135.861830370592
 20
8420.545773904851
 30
0.0
 11
9142.405986247876
 21
8420.545773904851
 31
0.0
  0
ARC
  5
167DF
330
747D
100
AcDbEntity
  8
部品1
 48
0.01
100
AcDbCircle
 10
9135.861830370592
 20
8421.04577390485
 30
0.0
 40
0.5
100
AcDbArc
 50
180.0
 51
270.0
  0
ARC
  5
167E0
330
747D
100
AcDbEntity
  8
部品1
100
AcDbCircle
 10
9167.861830370592
 20
8430.545773904851
 30
0.0
 40
26.0
100
AcDbArc
 50
180.0
 51
199.4712206344221
  0
ARC
  5
167E1
330
747D
100
AcDbEntity
  8
部品1
 48
0.01
100
AcDbCircle
 10
9143.861830370592
 20
8435.54577390485
 30
0.0
 40
2.0
100
AcDbArc
 50
90.0
 51
180.0
  0
LINE
  5
167E2
330
747D
100
AcDbEntity
  8
部品1
100
AcDbLine
 10
9141.861830370592
 20
8430.545773904851
 30
0.0
 11
9141.861830370592
 21
8435.54577390485
 31
0.0
  0
ARC
  5
167E3
330
747D
100
AcDbEntity
  8
部品1
100
AcDbCircle
 10
9160.361830370591
 20
8446.345773904853
 30
0.0
 40
16.0
100
AcDbArc
 50
218.3930440192126
 51
254.0576313943215
  0
ARC
  5
167E4
330
747D
100
AcDbEntity
  8
部品1
100
AcDbCircle
 10
9145.470221995402
 20
8434.545773904851
 30
0.0
 40
3.0
100
AcDbArc
 50
38.39304401921267
 51
90.0
  0
LINE
  5
167E5
330
747D
100
AcDbEntity
  8
部品1
 48
0.01
100
AcDbLine
 10
9143.861830370592
 20
8437.545773904851
 30
0.0
 11
9145.470221995402
 21
8437.545773904851
 31
0.0
  0
ARC
  5
167E6
330
747D
100
AcDbEntity
  8
部品1
100
AcDbCircle
 10
9160.361830370591
 20
8446.345773904853
 30
0.0
 40
16.0
100
AcDbArc
 50
285.9423686056786
 51
321.6069559807873
  0
LINE
  5
167E7
330
747D
100
AcDbEntity
  8
部品1
100
AcDbLine
 10
9163.932544584863
 20
8430.845773904854
 30
0.0
 11
9156.79111615632
 21
8430.845773904854
 31
0.0
  0
ARC
  5
167E8
330
747D
100
AcDbEntity
  8
部品1
100
AcDbCircle
 10
9163.932544584863
 20
8433.845773904854
 30
0.0
 40
3.0
100
AcDbArc
 50
270.0
 51
285.9423686056786
  0
ARC
  5
167E9
330
747D
100
AcDbEntity
  8
部品1
100
AcDbCircle
 10
9156.79111615632
 20
8433.845773904854
 30
0.0
 40
3.0
100
AcDbArc
 50
254.0576313943215
 51
270.0
  0
LINE
  5
167EA
330
747D
100
AcDbEntity
  8
部品1
 48
0.01
100
AcDbLine
 10
9176.861830370592
 20
8437.545773904851
 30
0.0
 11
9175.25343874578
 21
8437.545773904851
 31
0.0
  0
ARC
  5
167EB
330
747D
100
AcDbEntity
  8
部品1
100
AcDbCircle
 10
9175.25343874578
 20
8434.545773904851
 30
0.0
 40
3.0
100
AcDbArc
 50
90.0
 51
141.6069559807873
  0
ARC
  5
167EC
330
747D
100
AcDbEntity
  8
部品1
 48
0.01
100
AcDbCircle
 10
9176.861830370592
 20
8435.54577390485
 30
0.0
 40
2.0
100
AcDbArc
 50
0.0
 51
90.0
  0
LINE
  5
167ED
330
747D
100
AcDbEntity
  8
部品1
100
AcDbLine
 10
9178.861830370591
 20
8430.545773904851
 30
0.0
 11
9178.861830370591
 21
8435.54577390485
 31
0.0
  0
ARC
  5
167EE
330
747D
100
AcDbEntity
  8
部品1
100
AcDbCircle
 10
9152.861830370591
 20
8430.545773904851
 30
0.0
 40
26.0
100
AcDbArc
 50
340.5287793655779
 51
0.0
  0
ARC
  5
167EF
330
747D
100
AcDbEntity
  8
部品1
100
AcDbCircle
 10
9178.317674493309
 20
8421.545773904851
 30
0.0
 40
1.0
100
AcDbArc
 50
160.5287793655778
 51
270.0
  0
LINE
  5
167F0
330
747D
100
AcDbEntity
  8
部品1
 48
0.01
100
AcDbLine
 10
9184.861830370591
 20
8420.545773904851
 30
0.0
 11
9178.249324940528
 21
8420.545773904851
 31
0.0
  0
LINE
  5
167F1
330
747D
100
AcDbEntity
  8
部品1
 48
0.01
100
AcDbLine
 10
9185.361830370592
 20
8422.045773904851
 30
0.0
 11
9185.361830370592
 21
8421.04577390485
 31
0.0
  0
LINE
  5
167F2
330
747D
100
AcDbEntity
  8
部品1
 48
0.01
100
AcDbLine
 10
9185.361830370592
 20
8422.045773904851
 30
0.0
 11
9185.361830370592
 21
8421.04577390485
 31
0.0
  0
ARC
  5
167F3
330
747D
100
AcDbEntity
  8
部品1
 48
0.01
100
AcDbCircle
 10
9184.861830370591
 20
8421.04577390485
 30
0.0
 40
0.5
100
AcDbArc
 50
270.0
 51
0.0
  0
LINE
  5
167F4
330
747D
100
AcDbEntity
  8
細線
100
AcDbLine
 10
9325.36192878392
 20
8422.04689608992
 30
0.0
 11
9327.693467074686
 21
8427.046896089905
 31
0.0
  0
LINE
  5
167F5
330
747D
100
AcDbEntity
  8
細線
100
AcDbLine
 10
9395.361936969335
 20
8422.04687853621
 30
0.0
 11
9393.030390493148
 21
8427.046896089887
 31
0.0
  0
LINE
  5
167F6
330
747D
100
AcDbEntity
  8
細線
100
AcDbLine
 10
9393.030390493148
 20
8427.046896089887
 30
0.0
 11
9327.693467074674
 21
8427.046896089876
 31
0.0
  0
LINE
  5
167F7
330
747D
100
AcDbEntity
  8
細線
100
AcDbLine
 10
9533.030390493149
 20
8427.046896089887
 30
0.0
 11
9467.693467074674
 21
8427.04689608988
 31
0.0
  0
LINE
  5
167F8
330
747D
100
AcDbEntity
  8
細線
100
AcDbLine
 10
9535.361936969335
 20
8422.04687853621
 30
0.0
 11
9533.030390493149
 21
8427.046896089887
 31
0.0
  0
LINE
  5
167F9
330
747D
100
AcDbEntity
  8
細線
100
AcDbLine
 10
9465.361928783918
 20
8422.046896089923
 30
0.0
 11
9467.693467074687
 21
8427.04689608991
 31
0.0
  0
LINE
  5
167FA
330
747D
100
AcDbEntity
  8
細線
100
AcDbLine
 10
9772.030398678564
 20
8461.046724409177
 30
0.0
 11
9706.69347526009
 21
8461.046724409166
 31
0.0
  0
LINE
  5
167FB
330
747D
100
AcDbEntity
  8
細線
100
AcDbLine
 10
9774.361945154753
 20
8456.0467068555
 30
0.0
 11
9772.030398678564
 21
8461.046724409177
 31
0.0
  0
LINE
  5
167FC
330
747D
100
AcDbEntity
  8
細線
100
AcDbLine
 10
9704.361936969338
 20
8456.04672440921
 30
0.0
 11
9706.693475260104
 21
8461.046724409197
 31
0.0
  0
LINE
  5
167FD
330
747D
100
AcDbEntity
  8
細線
100
AcDbLine
 10
9844.361901650444
 20
8456.046716221841
 30
0.0
 11
9846.693439941212
 21
8461.046716221828
 31
0.0
  0
LINE
  5
167FE
330
747D
100
AcDbEntity
  8
細線
100
AcDbLine
 10
9914.361909835861
 20
8456.046698668131
 30
0.0
 11
9912.03036335967
 21
8461.046716221812
 31
0.0
  0
LINE
  5
167FF
330
747D
100
AcDbEntity
  8
細線
100
AcDbLine
 10
9912.030363359672
 20
8461.046716221812
 30
0.0
 11
9846.693439941198
 21
8461.046716221797
 31
0.0
  0
LINE
  5
16800
330
747D
100
AcDbEntity
  8
細線
100
AcDbLine
 10
10052.03039990961
 20
8461.046695918069
 30
0.0
 11
9986.693476491135
 21
8461.046695918055
 31
0.0
  0
LINE
  5
16801
330
747D
100
AcDbEntity
  8
細線
100
AcDbLine
 10
10054.36194638579
 20
8456.046678364391
 30
0.0
 11
10052.03039990961
 21
8461.046695918069
 31
0.0
  0
LINE
  5
16802
330
747D
100
AcDbEntity
  8
細線
100
AcDbLine
 10
9984.361936969337
 20
8456.046693278123
 30
0.0
 11
9986.693476491147
 21
8461.046695918085
 31
0.0
  0
LINE
  5
16803
330
747D
100
AcDbEntity
  8
細線
 48
50.0
100
AcDbLine
 10
9927.224158893887
 20
8456.046716221841
 30
0.0
 11
9932.979676476556
 21
8474.317567512335
 31
0.0
  0
LINE
  5
16804
330
747D
100
AcDbEntity
  8
細線
 48
50.0
100
AcDbLine
 10
9932.979676476556
 20
8474.317567512335
 30
0.0
 11
9943.908124956987
 21
8474.317567512335
 31
0.0
  0
ARC
  5
16805
330
747D
100
AcDbEntity
  8
細線
 48
50.0
100
AcDbCircle
 10
9943.908124956987
 20
8473.317567512335
 30
0.0
 40
1.0
100
AcDbArc
 50
24.62431835213048
 51
90.0
  0
ARC
  5
16806
330
747D
100
AcDbEntity
  8
細線
 48
50.0
100
AcDbCircle
 10
9954.816837071623
 20
8473.317567512335
 30
0.0
 40
1.0
100
AcDbArc
 50
90.0
 51
155.3756816478695
  0
ARC
  5
16807
330
747D
100
AcDbEntity
  8
細線
 48
50.0
100
AcDbCircle
 10
9949.362481014304
 20
8475.817567512335
 30
0.0
 40
5.0
100
AcDbArc
 50
204.6243183521304
 51
335.3756816478695
  0
LINE
  5
16808
330
747D
100
AcDbEntity
  8
細線
 48
50.0
100
AcDbLine
 10
9954.816837071623
 20
8474.317567512335
 30
0.0
 11
9965.745285552053
 21
8474.317567512335
 31
0.0
  0
LINE
  5
16809
330
747D
100
AcDbEntity
  8
細線
 48
50.0
100
AcDbLine
 10
9965.745285552053
 20
8474.317567512335
 30
0.0
 11
9971.500803134723
 21
8456.046716221848
 31
0.0
  0
LINE
  5
1680A
330
747D
100
AcDbEntity
  8
細線
100
AcDbLine
 10
10290.0303999096
 20
8495.046706999202
 30
0.0
 11
10224.69347649113
 21
8495.046706999186
 31
0.0
  0
LINE
  5
1680B
330
747D
100
AcDbEntity
  8
細線
100
AcDbLine
 10
10292.36194638579
 20
8490.04668944552
 30
0.0
 11
10290.0303999096
 21
8495.046706999202
 31
0.0
  0
LINE
  5
1680C
330
747D
100
AcDbEntity
  8
細線
100
AcDbLine
 10
10222.36193696933
 20
8490.046704359254
 30
0.0
 11
10224.69347649115
 21
8495.046706999216
 31
0.0
  0
LINE
  5
1680D
330
747D
100
AcDbEntity
  8
細線
100
AcDbLine
 10
10362.36192755288
 20
8490.046719272989
 30
0.0
 11
10364.69346707469
 21
8495.046721912949
 31
0.0
  0
LINE
  5
1680E
330
747D
100
AcDbEntity
  8
細線
100
AcDbLine
 10
10432.36193696933
 20
8490.046704359254
 30
0.0
 11
10430.03039049315
 21
8495.046721912935
 31
0.0
  0
LINE
  5
1680F
330
747D
100
AcDbEntity
  8
細線
100
AcDbLine
 10
10430.03039049315
 20
8495.046721912935
 30
0.0
 11
10364.69346707467
 21
8495.04672191292
 31
0.0
  0
LINE
  5
16810
330
747D
100
AcDbEntity
  8
細線
100
AcDbLine
 10
10570.03039049315
 20
8495.046721912935
 30
0.0
 11
10504.69346707467
 21
8495.04672191292
 31
0.0
  0
LINE
  5
16811
330
747D
100
AcDbEntity
  8
細線
100
AcDbLine
 10
10572.36193696933
 20
8490.046704359254
 30
0.0
 11
10570.03039049315
 21
8495.046721912935
 31
0.0
  0
LINE
  5
16812
330
747D
100
AcDbEntity
  8
細線
100
AcDbLine
 10
10502.36192755288
 20
8490.046719272989
 30
0.0
 11
10504.69346707469
 21
8495.046721912949
 31
0.0
  0
LINE
  5
16813
330
747D
100
AcDbEntity
  8
細線
 48
50.0
100
AcDbLine
 10
9612.861936969341
 20
8466.242958750157
 30
0.0
 11
9024.361936969338
 21
8466.242958750154
 31
0.0
  0
LINE
  5
16814
330
747D
100
AcDbEntity
  8
細線
 48
50.0
100
AcDbLine
 10
9653.86193696934
 20
8436.838050753904
 30
0.0
 11
10680.36193696933
 21
8436.838050753904
 31
0.0
  0
LINE
  5
16815
330
747D
100
AcDbEntity
  8
細線
 48
50.0
100
AcDbLine
 10
10145.86194212025
 20
8470.54681930798
 30
0.0
 11
10680.36193696934
 21
8470.54681930798
 31
0.0
  0
LINE
  5
16816
330
747D
100
AcDbEntity
  8
寸法
 48
50.0
100
AcDbLine
 10
9596.862755947736
 20
8305.305412413455
 30
0.0
 11
9816.01469612346
 21
8305.305412413455
 31
0.0
  0
LINE
  5
16817
330
747D
100
AcDbEntity
  8
寸法
 48
50.0
100
AcDbLine
 10
9816.01469612346
 20
8305.305412413455
 30
0.0
 11
9726.730477528038
 21
8329.229046682939
 31
0.0
  0
LINE
  5
16818
330
747D
100
AcDbEntity
  8
寸法
 48
50.0
100
AcDbLine
 10
9726.730477528038
 20
8329.229046682939
 30
0.0
 11
9726.730477528038
 21
8275.565412101149
 31
0.0
  0
LINE
  5
16819
330
747D
100
AcDbEntity
  8
寸法
 48
50.0
100
AcDbLine
 10
9396.158935341079
 20
8272.083455928116
 30
0.0
 11
9447.564943251181
 21
8272.083455928116
 31
0.0
  0
LINE
  5
1681A
330
747D
100
AcDbEntity
  8
寸法
 48
50.0
100
AcDbLine
 10
9447.564943251181
 20
8272.083455928116
 30
0.0
 11
9447.564943251181
 21
8303.393614580285
 31
0.0
  0
LINE
  5
1681B
330
747D
100
AcDbEntity
  8
寸法
 48
50.0
100
AcDbLine
 10
9447.564943251181
 20
8303.393614580285
 30
0.0
 11
9477.326275242605
 21
8303.393614580285
 31
0.0
  0
LINE
  5
1681C
330
747D
100
AcDbEntity
  8
寸法
 48
50.0
100
AcDbLine
 10
9477.326275242605
 20
8303.393614580285
 30
0.0
 11
9421.86193929613
 21
8340.973065508894
 31
0.0
  0
LINE
  5
1681D
330
747D
100
AcDbEntity
  8
寸法
 48
50.0
100
AcDbLine
 10
9366.397603349655
 20
8303.393614580285
 30
0.0
 11
9421.86193929613
 21
8340.973065508894
 31
0.0
  0
LINE
  5
1681E
330
747D
100
AcDbEntity
  8
寸法
 48
50.0
100
AcDbLine
 10
9396.158935341079
 20
8303.393614580285
 30
0.0
 11
9366.397603349655
 21
8303.393614580285
 31
0.0
  0
LINE
  5
1681F
330
747D
100
AcDbEntity
  8
寸法
 48
50.0
100
AcDbLine
 10
9396.158935341079
 20
8272.083455928116
 30
0.0
 11
9396.158935341079
 21
8303.393614580285
 31
0.0
  0
LINE
  5
16820
330
747D
100
AcDbEntity
  8
寸法
 48
50.0
100
AcDbLine
 10
9447.564943251181
 20
8272.083455928116
 30
0.0
 11
9396.158935341079
 21
8272.083455928116
 31
0.0
  0
DIMENSION
  5
16A1F
330
747D
100
AcDbEntity
  8
寸法
 48
50.0
100
AcDbDimension
  2
*D31
 10
10719.36193696934
 20
7541.976434508473
 30
0.0
 11
9842.943680921159
 21
7541.976434508473
 31
0.0
 70
   160
 71
     5
 42
1734.0
  3
INABA_S40G
100
AcDbAlignedDimension
 13
8985.361936969338
 23
8417.046704359256
 33
0.0
 14
10719.36193696934
 24
8417.046704359252
 34
0.0
100
AcDbRotatedDimension
1001
ACAD
1000
DSTYLE
1002
{
1070
   341
1005
0
1002
}
  0
DIMENSION
  5
16A20
330
747D
100
AcDbEntity
  8
寸法
100
AcDbDimension
  2
*D32
 10
8662.750691342649
 20
8419.046704359249
 30
0.0
 11
8662.750691342647
 21
8278.561422985012
 31
0.0
 70
   160
 71
     5
 42
75.0
  3
INABA_S40
100
AcDbAlignedDimension
 13
8957.361936969366
 23
8494.046704359249
 33
0.0
 14
8985.361936969345
 24
8419.046704359249
 34
0.0
 50
90.0
100
AcDbRotatedDimension
1001
ACAD
1000
DSTYLE
1002
{
1070
    41
1040
0.5
1070
    44
1040
1.0
1070
   147
1040
0.8
1070
   271
1070
     2
1070
   272
1070
     2
1070
   289
1070
     3
1070
   340
1005
F706
1070
   343
1005
158FE
1070
   344
1005
158FE
1002
}
  0
LINE
  5
16AC4
330
747D
100
AcDbEntity
  8
部品1
100
AcDbLine
 10
10234.09727008358
 20
7022.970569971981
 30
0.0
 11
9470.626603855146
 21
7022.970569971981
 31
0.0
  0
LINE
  5
16AC5
330
747D
100
AcDbEntity
  8
部品1
100
AcDbLine
 10
10234.09727008358
 20
6783.07824842645
 30
0.0
 11
10234.09727008358
 21
7022.970569971981
 31
0.0
  0
LINE
  5
16AC6
330
747D
100
AcDbEntity
  8
部品1
100
AcDbLine
 10
9470.626603855146
 20
6783.07824842645
 30
0.0
 11
10234.09727008358
 21
6783.07824842645
 31
0.0
  0
LINE
  5
16AC7
330
747D
100
AcDbEntity
  8
部品1
100
AcDbLine
 10
9470.626603855146
 20
7022.970569971981
 30
0.0
 11
9470.626603855146
 21
6783.07824842645
 31
0.0
  0
TEXT
  5
16AFE
330
747D
100
AcDbEntity
  8
部品1
100
AcDbText
 10
9560.546213684183
 20
6830.07704075346
 30
0.0
 40
135.0
  1
平面図
  7
STYLE2
100
AcDbText
  0
DIMENSION
  5
16AFF
330
747D
100
AcDbEntity
  8
寸法
100
AcDbDimension
  2
*D33
 10
10747.36193696935
 20
7302.218913614346
 30
0.0
 11
9840.508687300721
 21
7302.218913614346
 31
0.0
 70
   160
 71
     5
 42
1789.999999999982
  3
INABA_S40G
100
AcDbAlignedDimension
 13
8957.361936969366
 23
8494.046704359249
 33
0.0
 14
10747.36193696935
 24
8494.046704359378
 34
0.0
100
AcDbRotatedDimension
1001
ACAD
1000
DSTYLE
1002
{
1002
}
  0
LWPOLYLINE
  5
16DC5
330
747D
100
AcDbEntity
  8
部品1
 48
50.0
100
AcDbPolyline
 90
        4
 70
     1
 43
0.0
 10
9084.411936969367
 20
4000.960702045566
 10
9087.311936969369
 20
4000.960702045566
 10
9087.311936969369
 20
4010.460702045565
 10
9084.411936969367
 20
4010.460702045565
  0
CIRCLE
  5
16DC6
330
747D
100
AcDbEntity
  8
部品1
 48
50.0
100
AcDbCircle
 10
9085.861936969369
 20
4005.710702045566
 30
0.0
 40
9.0
  0
ARC
  5
16DC7
330
747D
100
AcDbEntity
  8
細線
 48
50.0
100
AcDbCircle
 10
9085.861936969369
 20
4005.710702045566
 30
0.0
 40
4.0
100
AcDbArc
 50
111.2538091853132
 51
248.7461908146868
  0
ARC
  5
16DC8
330
747D
100
AcDbEntity
  8
細線
 48
50.0
100
AcDbCircle
 10
9085.861936969369
 20
4005.710702045566
 30
0.0
 40
17.5
100
AcDbArc
 50
306.4837370612677
 51
233.5162629387323
  0
LINE
  5
16DC9
330
747D
100
AcDbEntity
  8
細線
 48
50.0
100
AcDbLine
 10
9095.861936969365
 20
3981.851741464684
 30
0.0
 11
9095.861936969368
 21
3990.836227264925
 31
0.0
  0
LINE
  5
16DCA
330
747D
100
AcDbEntity
  8
細線
 48
50.0
100
AcDbLine
 10
9075.861936969367
 20
3981.851741464685
 30
0.0
 11
9075.861936969367
 21
3990.836227264921
 31
0.0
  0
ARC
  5
16DCB
330
747D
100
AcDbEntity
  8
細線
 48
50.0
100
AcDbCircle
 10
9085.861936969369
 20
4005.710702045566
 30
0.0
 40
26.5
100
AcDbArc
 50
249.3326835063939
 51
290.6673164933835
  0
ARC
  5
16DCC
330
747D
100
AcDbEntity
  8
細線
 48
50.0
100
AcDbCircle
 10
9094.86193696936
 20
3981.851741464684
 30
0.0
 40
1.0
100
AcDbArc
 50
290.6673164936062
 51
359.9999999998958
  0
ARC
  5
16DCD
330
747D
100
AcDbEntity
  8
細線
 48
50.0
100
AcDbCircle
 10
9076.861936969368
 20
3981.851741464685
 30
0.0
 40
1.0
100
AcDbArc
 50
180.0
 51
249.3326835066164
  0
ARC
  5
16DCE
330
747D
100
AcDbEntity
  8
細線
 48
50.0
100
AcDbCircle
 10
9074.861936969368
 20
3990.836227264921
 30
0.0
 40
1.0
100
AcDbArc
 50
0.0
 51
53.51626293873231
  0
ARC
  5
16DCF
330
747D
100
AcDbEntity
  8
細線
 48
50.0
100
AcDbCircle
 10
9096.861936969371
 20
3990.836227264925
 30
0.0
 40
1.0
100
AcDbArc
 50
126.4837370615127
 51
180.0
  0
ARC
  5
16DD0
330
747D
100
AcDbEntity
  8
細線
 48
50.0
100
AcDbCircle
 10
9085.861936969369
 20
4005.710702045566
 30
0.0
 40
21.5
100
AcDbArc
 50
255.8014401250294
 51
284.1985598749706
  0
ARC
  5
16DD1
330
747D
100
AcDbEntity
  8
細線
 48
50.0
100
AcDbCircle
 10
9085.861936969369
 20
4005.710702045566
 30
0.0
 40
16.5
100
AcDbArc
 50
251.9694646069326
 51
288.0305353930674
  0
LINE
  5
16DD2
330
747D
100
AcDbEntity
  8
細線
 48
50.0
100
AcDbLine
 10
9091.361936969368
 20
3985.158329919759
 30
0.0
 11
9091.361936969368
 21
3989.735721607096
 31
0.0
  0
LINE
  5
16DD3
330
747D
100
AcDbEntity
  8
細線
 48
50.0
100
AcDbLine
 10
9080.361936969367
 20
3985.158329919759
 30
0.0
 11
9080.361936969367
 21
3989.735721607095
 31
0.0
  0
ARC
  5
16DD4
330
747D
100
AcDbEntity
  8
細線
 48
50.0
100
AcDbCircle
 10
9080.66193696937
 20
3989.735721607095
 30
0.0
 40
0.3
100
AcDbArc
 50
71.96946460693259
 51
180.0
  0
ARC
  5
16DD5
330
747D
100
AcDbEntity
  8
細線
 48
50.0
100
AcDbCircle
 10
9091.061936969369
 20
3989.735721607096
 30
0.0
 40
0.3
100
AcDbArc
 50
0.0
 51
108.0305353930674
  0
ARC
  5
16DD6
330
747D
100
AcDbEntity
  8
細線
 48
50.0
100
AcDbCircle
 10
9091.061936969365
 20
3985.158329919759
 30
0.0
 40
0.3
100
AcDbArc
 50
284.1985598747622
 51
0.0000000001042204
  0
ARC
  5
16DD7
330
747D
100
AcDbEntity
  8
細線
 48
50.0
100
AcDbCircle
 10
9080.66193696937
 20
3985.158329919759
 30
0.0
 40
0.3
100
AcDbArc
 50
180.0
 51
255.8014401248081
  0
CIRCLE
  5
16DD8
330
747D
100
AcDbEntity
  8
細線
 48
50.0
100
AcDbCircle
 10
9085.861936969369
 20
4005.710702045566
 30
0.0
 40
12.0
  0
ARC
  5
16DD9
330
747D
100
AcDbEntity
  8
部品1
 48
50.0
100
AcDbCircle
 10
9085.861936969369
 20
4055.710702045566
 30
0.0
 40
8.5
100
AcDbArc
 50
114.315739171091
 51
245.684260828909
  0
CIRCLE
  5
16DDA
330
747D
100
AcDbEntity
  8
細線
 48
50.0
100
AcDbCircle
 10
9085.861936969369
 20
4055.710702045566
 30
0.0
 40
4.5
  0
LWPOLYLINE
  5
16DDB
330
747D
100
AcDbEntity
  8
部品1
 48
50.0
100
AcDbPolyline
 90
        2
 70
     0
 43
0.0
 10
9082.361936969368
 20
4074.385551442548
 10
9082.361936969368
 20
4063.45666873798
  0
CIRCLE
  5
16DDC
330
747D
100
AcDbEntity
  8
部品1
 48
50.0
100
AcDbCircle
 10
9085.861936969369
 20
4055.710702045566
 30
0.0
 40
19.0
  0
LWPOLYLINE
  5
16DDD
330
747D
100
AcDbEntity
  8
部品1
 48
50.0
100
AcDbPolyline
 90
        2
 70
     0
 43
0.0
 10
9082.361936969368
 20
4047.964735353151
 10
9082.361936969368
 20
4037.035852648584
  0
LWPOLYLINE
  5
16DDE
330
747D
100
AcDbEntity
  8
部品1
 48
50.0
100
AcDbPolyline
 90
        2
 70
     0
 43
0.0
 10
9089.361936969368
 20
4063.45666873798
 10
9089.361936969368
 20
4074.385551442548
  0
ARC
  5
16DDF
330
747D
100
AcDbEntity
  8
部品1
 48
50.0
100
AcDbCircle
 10
9085.861936969369
 20
4055.710702045566
 30
0.0
 40
8.5
100
AcDbArc
 50
294.315739171091
 51
65.68426082890896
  0
LWPOLYLINE
  5
16DE0
330
747D
100
AcDbEntity
  8
部品1
 48
50.0
100
AcDbPolyline
 90
        2
 70
     0
 43
0.0
 10
9089.361936969368
 20
4037.035852648584
 10
9089.361936969368
 20
4047.964735353151
  0
ARC
  5
16DE1
330
747D
100
AcDbEntity
  8
細線
 48
50.0
100
AcDbCircle
 10
9085.861936969369
 20
4055.710702045566
 30
0.0
 40
16.5
100
AcDbArc
 50
332.0012352654438
 51
27.99876473455621
  0
ARC
  5
16DE2
330
747D
100
AcDbEntity
  8
細線
 48
50.0
100
AcDbCircle
 10
9085.861936969369
 20
4055.710702045566
 30
0.0
 40
14.0
100
AcDbArc
 50
326.4074436112986
 51
33.59255638870134
  0
LINE
  5
16DE3
330
747D
100
AcDbEntity
  8
細線
 48
50.0
100
AcDbLine
 10
9071.293134685037
 20
4063.45666873798
 30
0.0
 11
9074.200033179678
 21
4063.45666873798
 31
0.0
  0
LINE
  5
16DE4
330
747D
100
AcDbEntity
  8
細線
 48
50.0
100
AcDbLine
 10
9071.293134685037
 20
4047.964735353151
 30
0.0
 11
9074.200033179678
 21
4047.964735353151
 31
0.0
  0
LINE
  5
16DE5
330
747D
100
AcDbEntity
  8
細線
 48
50.0
100
AcDbLine
 10
9097.523840759057
 20
4063.45666873798
 30
0.0
 11
9100.430739253702
 21
4063.45666873798
 31
0.0
  0
LINE
  5
16DE6
330
747D
100
AcDbEntity
  8
細線
 48
50.0
100
AcDbLine
 10
9097.523840759057
 20
4047.964735353151
 30
0.0
 11
9100.430739253702
 21
4047.964735353151
 31
0.0
  0
ARC
  5
16DE7
330
747D
100
AcDbEntity
  8
細線
 48
50.0
100
AcDbCircle
 10
9085.861936969369
 20
4055.710702045566
 30
0.0
 40
14.0
100
AcDbArc
 50
146.4074436112986
 51
213.5925563887013
  0
ARC
  5
16DE8
330
747D
100
AcDbEntity
  8
細線
 48
50.0
100
AcDbCircle
 10
9085.861936969369
 20
4055.710702045566
 30
0.0
 40
16.5
100
AcDbArc
 50
152.0012352654438
 51
207.9987647345562
  0
ARC
  5
16DE9
330
747D
100
AcDbEntity
  8
部品1
 48
50.0
100
AcDbCircle
 10
9059.361936969368
 20
4081.210702045566
 30
0.0
 40
5.0
100
AcDbArc
 50
90.0
 51
180.0
  0
ARC
  5
16DEA
330
747D
100
AcDbEntity
  8
部品1
 48
50.0
100
AcDbCircle
 10
9059.361936969368
 20
3970.210702045566
 30
0.0
 40
5.0
100
AcDbArc
 50
180.0
 51
270.0
  0
ARC
  5
16DEB
330
747D
100
AcDbEntity
  8
部品1
 48
50.0
100
AcDbCircle
 10
9112.361936969369
 20
3970.210702045566
 30
0.0
 40
5.0
100
AcDbArc
 50
270.0
 51
0.0
  0
ARC
  5
16DEC
330
747D
100
AcDbEntity
  8
部品1
 48
50.0
100
AcDbCircle
 10
9112.361936969369
 20
4081.210702045566
 30
0.0
 40
5.0
100
AcDbArc
 50
0.0
 51
90.0
  0
LINE
  5
16DEE
330
747D
100
AcDbEntity
  8
部品1
 48
50.0
100
AcDbLine
 10
9054.361936969369
 20
3970.210702045566
 30
0.0
 11
9054.361936969369
 21
4081.210702045566
 31
0.0
  0
LINE
  5
16DEF
330
747D
100
AcDbEntity
  8
部品1
 48
50.0
100
AcDbLine
 10
9112.361936969369
 20
3965.210702045566
 30
0.0
 11
9059.361936969368
 21
3965.210702045566
 31
0.0
  0
LINE
  5
16DF0
330
747D
100
AcDbEntity
  8
部品1
 48
50.0
100
AcDbLine
 10
9117.361936969368
 20
4081.210702045566
 30
0.0
 11
9117.361936969368
 21
3970.210702045566
 31
0.0
  0
ENDSEC
  0
SECTION
  2
OBJECTS
  0
DICTIONARY
  5
7471
330
0
100
AcDbDictionary
281
     1
  3
ACAD_COLOR
350
1585B
  3
ACAD_GROUP
350
7472
  3
ACAD_LAYOUT
350
1585C
  3
ACAD_MATERIAL
350
1585A
  3
ACAD_MLINESTYLE
350
7473
  3
ACAD_PLOTSETTINGS
350
1585D
  3
ACAD_PLOTSTYLENAME
350
15858
  3
ACDBHEADERROUNDTRIPXREC
350
16E0F
  3
AcDbVariableDictionary
350
16E0B
  3
CONTENTDICTIONARY
350
E71C
  3
DRAWINGVARIABLESDICT
350
F3B9
  0
DICTIONARY
  5
159F5
330
7467
100
AcDbDictionary
280
     1
281
     1
  3
ACAD_LAYERSTATES
360
159F6
  0
DICTIONARY
  5
1585B
102
{ACAD_REACTORS
330
7471
102
}
330
7471
100
AcDbDictionary
281
     1
  0
DICTIONARY
  5
7472
102
{ACAD_REACTORS
330
7471
102
}
330
7471
100
AcDbDictionary
281
     1
  0
DICTIONARY
  5
1585C
102
{ACAD_REACTORS
330
7471
102
}
330
7471
100
AcDbDictionary
281
     1
  3
Model
350
1585E
  3
レイアウト1
350
1585F
  0
DICTIONARY
  5
1585A
102
{ACAD_REACTORS
330
7471
102
}
330
7471
100
AcDbDictionary
281
     1
  0
DICTIONARY
  5
7473
102
{ACAD_REACTORS
330
7471
102
}
330
7471
100
AcDbDictionary
281
     1
  3
STANDARD
350
7480
  0
DICTIONARY
  5
1585D
102
{ACAD_REACTORS
330
7471
102
}
330
7471
100
AcDbDictionary
281
     1
  0
ACDBDICTIONARYWDFLT
  5
15858
102
{ACAD_REACTORS
330
7471
102
}
330
7471
100
AcDbDictionary
281
     1
  3
Normal
350
15859
100
AcDbDictionaryWithDefault
340
15859
  0
DICTIONARY
  5
16E0F
102
{ACAD_REACTORS
330
7471
102
}
330
7471
100
AcDbDictionary
281
     1
  3
COLORDICT
350
16E11
  3
MATERIALDICT
350
16E10
  0
DICTIONARY
  5
16E0B
102
{ACAD_REACTORS
330
7471
102
}
330
7471
100
AcDbDictionary
281
     1
  3
DIMASSOC
350
16E0C
  3
PROJECTNAME
350
16E0D
  0
DICTIONARY
  5
E71C
102
{ACAD_REACTORS
330
7471
102
}
330
7471
100
AcDbDictionary
281
     1
  0
DICTIONARY
  5
F3B9
102
{ACAD_REACTORS
330
7471
102
}
330
7471
100
AcDbDictionary
281
     1
1001
DRAWINGVARIABLESXDATA
1000
POLARMODE
1000
1
  0
DICTIONARY
  5
159F6
102
{ACAD_REACTORS
330
159F5
102
}
330
159F5
100
AcDbDictionary
281
     1
  0
LAYOUT
  5
1585E
102
{ACAD_XDICTIONARY
360
16E12
102
}
102
{ACAD_REACTORS
330
1585C
102
}
330
1585C
100
AcDbPlotSettings
  1

  2
クセロPDF
  4
A3
  6

 40
3.174999952316284
 41
3.174999952316284
 42
3.17498779296875
 43
3.17498779296875
 44
419.9466552734374
 45
296.9259948730469
 46
0.0
 47
0.0
 48
3.619013395666115
 49
-4.192117100517862
140
820.022926294543
141
573.2392198881443
142
1.0
143
39.99735023620806
 70
 11952
 72
     1
 73
     0
 74
     2
  7
inaba.ctb
 75
     0
147
0.0250016562120842
148
25.79074261211281
149
125.8223078213959
100
AcDbLayout
  1
Model
 70
     1
 71
     0
 10
0.0
 20
0.0
 11
12.0
 21
9.0
 12
0.0
 22
0.0
 32
0.0
 14
0.0
 24
0.0
 34
0.0
 15
0.0
 25
0.0
 35
0.0
146
0.0
 13
0.0
 23
0.0
 33
0.0
 16
1.0
 26
0.0
 36
0.0
 17
0.0
 27
1.0
 37
0.0
 76
     0
330
747D
  0
LAYOUT
  5
1585F
102
{ACAD_XDICTIONARY
360
16E14
102
}
102
{ACAD_REACTORS
330
1585C
102
}
330
1585C
100
AcDbPlotSettings
  1

  2
Microsoft Office Document Image Writer
  4

  6

 40
0.0
 41
0.0
 42
0.0
 43
0.0
 44
0.0
 45
0.0
 46
0.0
 47
0.0
 48
0.0
 49
0.0
140
0.0
141
0.0
142
1.0
143
1.0
 70
   688
 72
     0
 73
     0
 74
     5
  7

 75
    16
147
1.0
148
0.0
149
0.0
100
AcDbLayout
  1
レイアウト1
 70
     0
 71
     1
 10
0.0
 20
0.0
 11
420.0
 21
297.0
 12
0.0
 22
0.0
 32
0.0
 14
1.000000000000000E+20
 24
1.000000000000000E+20
 34
1.000000000000000E+20
 15
-1.000000000000000E+20
 25
-1.000000000000000E+20
 35
-1.000000000000000E+20
146
0.0
 13
0.0
 23
0.0
 33
0.0
 16
1.0
 26
0.0
 36
0.0
 17
0.0
 27
1.0
 37
0.0
 76
     0
330
747A
  0
MLINESTYLE
  5
7480
102
{ACAD_REACTORS
330
7473
102
}
330
7473
100
AcDbMlineStyle
  2
STANDARD
 70
     0
  3

 62
     0
 51
90.0
 52
90.0
 71
     2
 49
0.5
 62
   256
  6
BYLAYER
 49
-0.5
 62
   256
  6
BYLAYER
  0
ACDBPLACEHOLDER
  5
15859
102
{ACAD_REACTORS
330
15858
102
}
330
15858
  0
XRECORD
  5
16E11
102
{ACAD_REACTORS
330
16E0F
102
}
330
16E0F
100
AcDbXrecord
280
     1
340
1585B
  0
XRECORD
  5
16E10
102
{ACAD_REACTORS
330
16E0F
102
}
330
16E0F
100
AcDbXrecord
280
     1
340
1585A
  0
DICTIONARYVAR
  5
16E0C
102
{ACAD_REACTORS
330
16E0B
102
}
330
16E0B
100
DictionaryVariables
280
     0
  1
1
  0
DICTIONARYVAR
  5
16E0D
102
{ACAD_REACTORS
330
16E0B
102
}
330
16E0B
100
DictionaryVariables
280
     0
  1

  0
DICTIONARY
  5
16E12
330
1585E
100
AcDbDictionary
280
     1
281
     1
  3
ACAD_XREC_ROUNDTRIP
360
16E13
  0
DICTIONARY
  5
16E14
330
1585F
100
AcDbDictionary
280
     1
281
     1
  3
ACAD_XREC_ROUNDTRIP
360
16E15
  0
XRECORD
  5
16E13
102
{ACAD_REACTORS
330
16E12
102
}
330
16E12
100
AcDbXrecord
280
     1
102
SHADEPLOT
 70
     0
102
SHADEPLOTRESLEVEL
 70
     2
102
SHADEPLOTCUSTOMDPI
 70
   150
  0
XRECORD
  5
16E15
102
{ACAD_REACTORS
330
16E14
102
}
330
16E14
100
AcDbXrecord
280
     1
102
SHADEPLOT
 70
     0
102
SHADEPLOTRESLEVEL
 70
     2
102
SHADEPLOTCUSTOMDPI
 70
   300
  0
ENDSEC
  0
EOF
