  0
SECTION
  2
HEADER
  9
$ACADVER
  1
AC1015
  9
$ACADMAINTVER
 70
    20
  9
$DWGCODEPAGE
  3
ANSI_932
  9
$INSBASE
 10
0.0
 20
0.0
 30
0.0
  9
$EXTMIN
 10
139.9999999999995
 20
-0.0000000000000909
 30
0.0
  9
$EXTMAX
 10
16307.2
 20
11409.6
 30
0.0
  9
$LIMMIN
 10
0.0
 20
0.0
  9
$LIMMAX
 10
16800.0
 20
11880.0
  9
$ORTHOMODE
 70
     0
  9
$REGENMODE
 70
     1
  9
$FILLMODE
 70
     1
  9
$QTEXTMODE
 70
     0
  9
$MIRRTEXT
 70
     1
  9
$LTSCALE
 40
20.0
  9
$ATTMODE
 70
     1
  9
$TEXTSIZE
 40
100.0
  9
$TRACEWID
 40
1.0
  9
$TEXTSTYLE
  7
STYLE2
  9
$CLAYER
  8
部品1
  9
$CELTYPE
  6
BYLAYER
  9
$CECOLOR
 62
   256
  9
$CELTSCALE
 40
50.0
  9
$DISPSILH
 70
     0
  9
$DIMSCALE
 40
40.0
  9
$DIMASZ
 40
2.5
  9
$DIMEXO
 40
0.5
  9
$DIMDLI
 40
7.0
  9
$DIMRND
 40
0.0
  9
$DIMDLE
 40
0.0
  9
$DIMEXE
 40
1.5
  9
$DIMTP
 40
0.0
  9
$DIMTM
 40
0.0
  9
$DIMTXT
 40
3.0
  9
$DIMCEN
 40
0.0
  9
$DIMTSZ
 40
0.0
  9
$DIMTOL
 70
     0
  9
$DIMLIM
 70
     0
  9
$DIMTIH
 70
     0
  9
$DIMTOH
 70
     0
  9
$DIMSE1
 70
     0
  9
$DIMSE2
 70
     0
  9
$DIMTAD
 70
     3
  9
$DIMZIN
 70
     8
  9
$DIMBLK
  1

  9
$DIMASO
 70
     1
  9
$DIMSHO
 70
     1
  9
$DIMPOST
  1

  9
$DIMAPOST
  1

  9
$DIMALT
 70
     0
  9
$DIMALTD
 70
     2
  9
$DIMALTF
 40
0.0394
  9
$DIMLFAC
 40
1.0
  9
$DIMTOFL
 70
     1
  9
$DIMTVP
 40
0.0
  9
$DIMTIX
 70
     0
  9
$DIMSOXD
 70
     0
  9
$DIMSAH
 70
     1
  9
$DIMBLK1
  1
DOTSMALL
  9
$DIMBLK2
  1
DOTSMALL
  9
$DIMSTYLE
  2
INABA_S40G
  9
$DIMCLRD
 70
     0
  9
$DIMCLRE
 70
     0
  9
$DIMCLRT
 70
     7
  9
$DIMTFAC
 40
1.0
  9
$DIMGAP
 40
1.0
  9
$DIMJUST
 70
     0
  9
$DIMSD1
 70
     0
  9
$DIMSD2
 70
     0
  9
$DIMTOLJ
 70
     1
  9
$DIMTZIN
 70
     0
  9
$DIMALTZ
 70
     0
  9
$DIMALTTZ
 70
     0
  9
$DIMUPT
 70
     0
  9
$DIMDEC
 70
     1
  9
$DIMTDEC
 70
     1
  9
$DIMALTU
 70
     2
  9
$DIMALTTD
 70
     2
  9
$DIMTXSTY
  7
STYLE1
  9
$DIMAUNIT
 70
     0
  9
$DIMADEC
 70
     0
  9
$DIMALTRND
 40
0.0
  9
$DIMAZIN
 70
     0
  9
$DIMDSEP
 70
    46
  9
$DIMATFIT
 70
     3
  9
$DIMFRAC
 70
     0
  9
$DIMLDRBLK
  1

  9
$DIMLUNIT
 70
     2
  9
$DIMLWD
 70
    -2
  9
$DIMLWE
 70
    -2
  9
$DIMTMOVE
 70
     0
  9
$LUNITS
 70
     2
  9
$LUPREC
 70
     1
  9
$SKETCHINC
 40
1.0
  9
$FILLETRAD
 40
7.0
  9
$AUNITS
 70
     0
  9
$AUPREC
 70
     0
  9
$MENU
  1
acad
  9
$ELEVATION
 40
0.0
  9
$PELEVATION
 40
0.0
  9
$THICKNESS
 40
0.0
  9
$LIMCHECK
 70
     0
  9
$CHAMFERA
 40
3.0
  9
$CHAMFERB
 40
3.0
  9
$CHAMFERC
 40
0.0
  9
$CHAMFERD
 40
0.0
  9
$SKPOLY
 70
     0
  9
$TDCREATE
 40
2451368.612993866
  9
$TDUCREATE
 40
2451368.237993866
  9
$TDUPDATE
 40
2455575.696487084
  9
$TDUUPDATE
 40
2455575.321487084
  9
$TDINDWG
 40
1.2727465278
  9
$TDUSRTIMER
 40
1.2727465278
  9
$USRTIMER
 70
     1
  9
$ANGBASE
 50
0.0
  9
$ANGDIR
 70
     0
  9
$PDMODE
 70
     3
  9
$PDSIZE
 40
2.0
  9
$PLINEWID
 40
0.0
  9
$SPLFRAME
 70
     0
  9
$SPLINETYPE
 70
     6
  9
$SPLINESEGS
 70
     8
  9
$HANDSEED
  5
20974
  9
$SURFTAB1
 70
     6
  9
$SURFTAB2
 70
     6
  9
$SURFTYPE
 70
     6
  9
$SURFU
 70
     6
  9
$SURFV
 70
     6
  9
$UCSBASE
  2

  9
$UCSNAME
  2

  9
$UCSORG
 10
0.0
 20
0.0
 30
0.0
  9
$UCSXDIR
 10
1.0
 20
0.0
 30
0.0
  9
$UCSYDIR
 10
0.0
 20
1.0
 30
0.0
  9
$UCSORTHOREF
  2

  9
$UCSORTHOVIEW
 70
     0
  9
$UCSORGTOP
 10
0.0
 20
0.0
 30
0.0
  9
$UCSORGBOTTOM
 10
0.0
 20
0.0
 30
0.0
  9
$UCSORGLEFT
 10
0.0
 20
0.0
 30
0.0
  9
$UCSORGRIGHT
 10
0.0
 20
0.0
 30
0.0
  9
$UCSORGFRONT
 10
0.0
 20
0.0
 30
0.0
  9
$UCSORGBACK
 10
0.0
 20
0.0
 30
0.0
  9
$PUCSBASE
  2

  9
$PUCSNAME
  2

  9
$PUCSORG
 10
0.0
 20
0.0
 30
0.0
  9
$PUCSXDIR
 10
1.0
 20
0.0
 30
0.0
  9
$PUCSYDIR
 10
0.0
 20
1.0
 30
0.0
  9
$PUCSORTHOREF
  2

  9
$PUCSORTHOVIEW
 70
     0
  9
$PUCSORGTOP
 10
0.0
 20
0.0
 30
0.0
  9
$PUCSORGBOTTOM
 10
0.0
 20
0.0
 30
0.0
  9
$PUCSORGLEFT
 10
0.0
 20
0.0
 30
0.0
  9
$PUCSORGRIGHT
 10
0.0
 20
0.0
 30
0.0
  9
$PUCSORGFRONT
 10
0.0
 20
0.0
 30
0.0
  9
$PUCSORGBACK
 10
0.0
 20
0.0
 30
0.0
  9
$USERI1
 70
     0
  9
$USERI2
 70
     0
  9
$USERI3
 70
     0
  9
$USERI4
 70
     0
  9
$USERI5
 70
     0
  9
$USERR1
 40
0.0
  9
$USERR2
 40
0.0
  9
$USERR3
 40
0.0
  9
$USERR4
 40
0.0
  9
$USERR5
 40
0.0
  9
$WORLDVIEW
 70
     1
  9
$SHADEDGE
 70
     3
  9
$SHADEDIF
 70
    70
  9
$TILEMODE
 70
     1
  9
$MAXACTVP
 70
    16
  9
$PINSBASE
 10
0.0
 20
0.0
 30
0.0
  9
$PLIMCHECK
 70
     0
  9
$PEXTMIN
 10
1.000000000000000E+20
 20
1.000000000000000E+20
 30
1.000000000000000E+20
  9
$PEXTMAX
 10
-1.000000000000000E+20
 20
-1.000000000000000E+20
 30
-1.000000000000000E+20
  9
$PLIMMIN
 10
0.0
 20
0.0
  9
$PLIMMAX
 10
420.0
 20
297.0
  9
$UNITMODE
 70
     0
  9
$VISRETAIN
 70
     0
  9
$PLINEGEN
 70
     0
  9
$PSLTSCALE
 70
     0
  9
$TREEDEPTH
 70
  3020
  9
$CMLSTYLE
  2
STANDARD
  9
$CMLJUST
 70
     0
  9
$CMLSCALE
 40
1.0
  9
$PROXYGRAPHICS
 70
     1
  9
$MEASUREMENT
 70
     1
  9
$CELWEIGHT
370
    -1
  9
$ENDCAPS
280
     0
  9
$JOINSTYLE
280
     0
  9
$LWDISPLAY
290
     0
  9
$INSUNITS
 70
     0
  9
$HYPERLINKBASE
  1

  9
$STYLESHEET
  1
inaba.ctb
  9
$XEDIT
290
     1
  9
$CEPSNTYPE
380
     0
  9
$PSTYLEMODE
290
     1
  9
$FINGERPRINTGUID
  2
{3B57B35E-7D77-4BBF-81B7-6C583B9EB24C}
  9
$VERSIONGUID
  2
{B9190D79-F23C-4C2D-B90C-2836B02DF237}
  9
$EXTNAMES
290
     1
  9
$PSVPSCALE
 40
0.0
  9
$OLESTARTUP
290
     0
  0
ENDSEC
  0
SECTION
  2
CLASSES
  0
CLASS
  1
ACDBDICTIONARYWDFLT
  2
AcDbDictionaryWithDefault
  3
ObjectDBX Classes
 90
        0
280
     0
281
     0
  0
CLASS
  1
DICTIONARYVAR
  2
AcDbDictionaryVar
  3
ObjectDBX Classes
 90
        0
280
     0
281
     0
  0
CLASS
  1
ACDBPLACEHOLDER
  2
AcDbPlaceHolder
  3
ObjectDBX Classes
 90
        0
280
     0
281
     0
  0
CLASS
  1
LAYOUT
  2
AcDbLayout
  3
ObjectDBX Classes
 90
        0
280
     0
281
     0
  0
ENDSEC
  0
SECTION
  2
TABLES
  0
TABLE
  2
VPORT
  5
746D
330
0
100
AcDbSymbolTable
 70
     2
  0
VPORT
  5
2096C
330
746D
100
AcDbSymbolTableRecord
100
AcDbViewportTableRecord
  2
*Active
 70
     0
 10
0.0
 20
0.0
 11
1.0
 21
1.0
 12
8223.761025238502
 22
6358.711715091549
 13
0.0
 23
0.0
 14
10.0
 24
10.0
 15
10.0
 25
10.0
 16
0.0
 26
0.0
 36
1.0
 17
0.0
 27
0.0
 37
0.0
 40
12826.15697312098
 41
1.525925925925925
 42
50.0
 43
0.0
 44
0.0
 50
0.0
 51
0.0
 71
     0
 72
     0
 73
     1
 74
     0
 75
     0
 76
     0
 77
     0
 78
     0
281
     0
 65
     1
110
0.0
120
0.0
130
0.0
111
1.0
121
0.0
131
0.0
112
0.0
122
1.0
132
0.0
 79
     0
146
0.0
  0
ENDTAB
  0
TABLE
  2
LTYPE
  5
746A
330
0
100
AcDbSymbolTable
 70
     3
  0
LTYPE
  5
7477
330
746A
100
AcDbSymbolTableRecord
100
AcDbLinetypeTableRecord
  2
BYBLOCK
 70
     0
  3

 72
    65
 73
     0
 40
0.0
  0
LTYPE
  5
7478
330
746A
100
AcDbSymbolTableRecord
100
AcDbLinetypeTableRecord
  2
BYLAYER
 70
     0
  3

 72
    65
 73
     0
 40
0.0
  0
LTYPE
  5
7479
330
746A
100
AcDbSymbolTableRecord
100
AcDbLinetypeTableRecord
  2
CONTINUOUS
 70
     0
  3
Solid line
 72
    65
 73
     0
 40
0.0
  0
LTYPE
  5
781A
330
746A
100
AcDbSymbolTableRecord
100
AcDbLinetypeTableRecord
  2
HIDDEN
 70
     0
  3
__ __ __ __ __ __ __ __ __ __ __ __ __ __ __ __
 72
    65
 73
     2
 40
0.375
 49
0.25
 74
     0
 49
-0.125
 74
     0
  0
LTYPE
  5
781B
330
746A
100
AcDbSymbolTableRecord
100
AcDbLinetypeTableRecord
  2
PHANTOM
 70
     0
  3
______  __  __  ______  __  __  ______  __  __ 
 72
    65
 73
     6
 40
2.5
 49
1.25
 74
     0
 49
-0.25
 74
     0
 49
0.25
 74
     0
 49
-0.25
 74
     0
 49
0.25
 74
     0
 49
-0.25
 74
     0
  0
ENDTAB
  0
TABLE
  2
LAYER
  5
7467
102
{ACAD_XDICTIONARY
360
1D35E
102
}
330
0
100
AcDbSymbolTable
 70
    10
  0
LAYER
  5
7474
330
7467
100
AcDbSymbolTableRecord
100
AcDbLayerTableRecord
  2
0
 70
     0
 62
     7
  6
CONTINUOUS
370
    -3
390
159AE
  0
LAYER
  5
DEB3
330
7467
100
AcDbSymbolTableRecord
100
AcDbLayerTableRecord
  2
寸法
 70
     0
 62
     4
  6
CONTINUOUS
370
    -3
390
159AE
  0
LAYER
  5
DEB4
330
7467
100
AcDbSymbolTableRecord
100
AcDbLayerTableRecord
  2
部品1
 70
     0
 62
     7
  6
CONTINUOUS
370
    -3
390
159AE
  0
LAYER
  5
DEB5
330
7467
100
AcDbSymbolTableRecord
100
AcDbLayerTableRecord
  2
補助
 70
     0
 62
    -1
  6
CONTINUOUS
370
    -3
390
159AE
  0
LAYER
  5
DEB6
330
7467
100
AcDbSymbolTableRecord
100
AcDbLayerTableRecord
  2
文字
 70
     0
 62
     7
  6
CONTINUOUS
370
    -3
390
159AE
  0
LAYER
  5
F255
330
7467
100
AcDbSymbolTableRecord
100
AcDbLayerTableRecord
  2
DEFPOINTS
 70
     0
 62
     7
  6
CONTINUOUS
290
     0
370
    -3
390
159AE
  0
LAYER
  5
10B54
330
7467
100
AcDbSymbolTableRecord
100
AcDbLayerTableRecord
  2
仕様書枠
 70
     0
 62
   230
  6
CONTINUOUS
370
    -3
390
159AE
  0
LAYER
  5
11729
330
7467
100
AcDbSymbolTableRecord
100
AcDbLayerTableRecord
  2
Ｇ．Ｌ
 70
     0
 62
    30
  6
CONTINUOUS
370
    -3
390
159AE
  0
LAYER
  5
1173F
330
7467
100
AcDbSymbolTableRecord
100
AcDbLayerTableRecord
  2
細線
 70
     0
 62
     5
  6
CONTINUOUS
370
    -3
390
159AE
  0
LAYER
  5
142E2
330
7467
100
AcDbSymbolTableRecord
100
AcDbLayerTableRecord
  2
破線
 70
     0
 62
     2
  6
HIDDEN
370
    -3
390
159AE
  0
ENDTAB
  0
TABLE
  2
STYLE
  5
7468
330
0
100
AcDbSymbolTable
 70
     4
  0
STYLE
  5
7475
330
7468
100
AcDbSymbolTableRecord
100
AcDbTextStyleTableRecord
  2
STANDARD
 70
     0
 40
0.0
 41
1.0
 50
0.0
 71
     0
 42
4.0
  3
txt
  4
C:\AutoCAD LT\bigfont.shx
  0
STYLE
  5
F706
330
7468
100
AcDbSymbolTableRecord
100
AcDbTextStyleTableRecord
  2
STYLE1
 70
     0
 40
0.0
 41
1.0
 50
0.0
 71
     0
 42
100.0
  3
isocp.shx
  4
bigfont.shx
  0
STYLE
  5
103BF
330
7468
100
AcDbSymbolTableRecord
100
AcDbTextStyleTableRecord
  2
STYLE2
 70
     0
 40
0.0
 41
1.0
 50
0.0
 71
     0
 42
100.0
  3
MS PGothic.ttf
  4

1001
ACAD
1000
MS PGothic
1071
    32818
  0
STYLE
  5
207A7
330
7468
100
AcDbSymbolTableRecord
100
AcDbTextStyleTableRecord
  2
STYLE3
 70
     0
 40
0.0
 41
1.0
 50
0.0
 71
     0
 42
100.0
  3

  4

1001
ACAD
1000
DFPGothic-EB
1071
    32818
  0
ENDTAB
  0
TABLE
  2
VIEW
  5
746B
330
0
100
AcDbSymbolTable
 70
     0
  0
ENDTAB
  0
TABLE
  2
UCS
  5
746C
330
0
100
AcDbSymbolTable
 70
     0
  0
ENDTAB
  0
TABLE
  2
APPID
  5
746E
330
0
100
AcDbSymbolTable
 70
     6
  0
APPID
  5
7476
330
746E
100
AcDbSymbolTableRecord
100
AcDbRegAppTableRecord
  2
ACAD
 70
     0
  0
APPID
  5
DEA9
330
746E
100
AcDbSymbolTableRecord
100
AcDbRegAppTableRecord
  2
CONTENTBLOCKICON
 70
     0
  0
APPID
  5
DEAA
330
746E
100
AcDbSymbolTableRecord
100
AcDbRegAppTableRecord
  2
CONTENTBLOCKDESCRIPTION
 70
     0
  0
APPID
  5
E71D
330
746E
100
AcDbSymbolTableRecord
100
AcDbRegAppTableRecord
  2
CONTENTTABDATA
 70
     0
  0
APPID
  5
E71E
330
746E
100
AcDbSymbolTableRecord
100
AcDbRegAppTableRecord
  2
CONTENTCURRENTTAB
 70
     0
  0
APPID
  5
F3BA
330
746E
100
AcDbSymbolTableRecord
100
AcDbRegAppTableRecord
  2
DRAWINGVARIABLESXDATA
 70
     0
  0
ENDTAB
  0
TABLE
  2
DIMSTYLE
  5
746F
330
0
100
AcDbSymbolTable
 70
     2
100
AcDbDimStyleTable
 71
     1
340
F71F
  0
DIMSTYLE
105
F71F
102
{ACAD_REACTORS
330
141C3
330
14206
330
146E8
330
13BF0
330
14521
330
14526
330
1452E
330
14530
330
14531
330
14532
330
14533
330
14587
330
14589
330
19A46
330
19878
330
13BBF
330
13B6D
330
13B51
330
127A4
330
1277C
330
1277B
330
1277A
330
12779
330
12778
330
1D99A
330
1D9BA
330
1D9B6
330
2007C
330
200C2
102
}
330
746F
100
AcDbSymbolTableRecord
100
AcDbDimStyleTableRecord
  2
INABA_S40G
 70
     0
 40
40.0
 41
2.5
 42
0.5
 43
7.0
 44
1.5
 73
     0
 74
     0
 77
     3
 78
     8
140
3.0
141
0.0
143
0.0394
147
1.0
172
     1
173
     1
174
     1
178
     7
271
     1
288
     1
340
F706
341
F770
343
F770
344
F770
  0
DIMSTYLE
105
207A8
330
746F
100
AcDbSymbolTableRecord
100
AcDbDimStyleTableRecord
  2
INABA_S20G
 70
     0
 40
20.0
 41
2.5
 42
0.5
 43
7.0
 44
1.5
 73
     0
 74
     0
 77
     3
 78
     8
140
3.0
141
0.0
143
0.0394
147
1.0
172
     1
173
     1
174
     1
178
     7
271
     1
340
F706
341
F770
343
F770
344
F770
  0
ENDTAB
  0
TABLE
  2
BLOCK_RECORD
  5
7466
330
0
100
AcDbSymbolTable
 70
    30
  0
BLOCK_RECORD
  5
747D
330
7466
100
AcDbSymbolTableRecord
100
AcDbBlockTableRecord
  2
*MODEL_SPACE
340
159B3
  0
BLOCK_RECORD
  5
747A
330
7466
100
AcDbSymbolTableRecord
100
AcDbBlockTableRecord
  2
*PAPER_SPACE
340
159B4
  0
BLOCK_RECORD
  5
F770
330
7466
100
AcDbSymbolTableRecord
100
AcDbBlockTableRecord
  2
_DOTSMALL
340
0
102
{BLKREFS
331
1C3DA
331
1C3DB
331
1C4AF
331
1C4B0
331
1C4CC
331
1C4CD
331
1C4D6
331
1C4D7
331
1C4DF
331
1C4E0
331
1C4E8
331
1C4E9
331
1C4F1
331
1C4F2
331
1D04D
331
1D04E
331
1D056
331
1D057
331
1D08C
331
1D08D
331
1D095
331
1D096
331
1D9B0
331
1D9B1
331
1D9D6
331
1D9D7
331
1D9DF
331
1D9E0
331
1F873
331
1F874
331
1F885
331
1F886
331
200DE
331
200DF
331
200E9
331
200EA
331
200F3
331
200F4
331
200FC
331
200FD
331
20105
331
20106
331
20110
331
20111
331
20119
331
2011A
331
20122
331
20123
331
2012B
331
2012C
331
20136
331
20137
331
20141
331
20142
331
2014A
331
2014B
331
20155
331
20156
102
}
  0
BLOCK_RECORD
  5
127B0
330
7466
100
AcDbSymbolTableRecord
100
AcDbBlockTableRecord
  2
*D1
340
0
  0
BLOCK_RECORD
  5
127BE
330
7466
100
AcDbSymbolTableRecord
100
AcDbBlockTableRecord
  2
*D2
340
0
  0
BLOCK_RECORD
  5
127CC
330
7466
100
AcDbSymbolTableRecord
100
AcDbBlockTableRecord
  2
*D3
340
0
  0
BLOCK_RECORD
  5
127E6
330
7466
100
AcDbSymbolTableRecord
100
AcDbBlockTableRecord
  2
*D4
340
0
  0
BLOCK_RECORD
  5
127F2
330
7466
100
AcDbSymbolTableRecord
100
AcDbBlockTableRecord
  2
*D5
340
0
  0
BLOCK_RECORD
  5
12832
330
7466
100
AcDbSymbolTableRecord
100
AcDbBlockTableRecord
  2
*D6
340
0
  0
BLOCK_RECORD
  5
13B45
330
7466
100
AcDbSymbolTableRecord
100
AcDbBlockTableRecord
  2
*D7
340
0
  0
BLOCK_RECORD
  5
13B60
330
7466
100
AcDbSymbolTableRecord
100
AcDbBlockTableRecord
  2
*D8
340
0
  0
BLOCK_RECORD
  5
13BB3
330
7466
100
AcDbSymbolTableRecord
100
AcDbBlockTableRecord
  2
*D9
340
0
  0
BLOCK_RECORD
  5
13DA8
330
7466
100
AcDbSymbolTableRecord
100
AcDbBlockTableRecord
  2
*D10
340
0
  0
BLOCK_RECORD
  5
141B5
330
7466
100
AcDbSymbolTableRecord
100
AcDbBlockTableRecord
  2
*D11
340
0
  0
BLOCK_RECORD
  5
141F9
330
7466
100
AcDbSymbolTableRecord
100
AcDbBlockTableRecord
  2
*D12
340
0
  0
BLOCK_RECORD
  5
1458A
330
7466
100
AcDbSymbolTableRecord
100
AcDbBlockTableRecord
  2
*D13
340
0
  0
BLOCK_RECORD
  5
14598
330
7466
100
AcDbSymbolTableRecord
100
AcDbBlockTableRecord
  2
*D14
340
0
  0
BLOCK_RECORD
  5
145A4
330
7466
100
AcDbSymbolTableRecord
100
AcDbBlockTableRecord
  2
*D15
340
0
  0
BLOCK_RECORD
  5
145BE
330
7466
100
AcDbSymbolTableRecord
100
AcDbBlockTableRecord
  2
*D16
340
0
  0
BLOCK_RECORD
  5
145CC
330
7466
100
AcDbSymbolTableRecord
100
AcDbBlockTableRecord
  2
*D17
340
0
  0
BLOCK_RECORD
  5
145D8
330
7466
100
AcDbSymbolTableRecord
100
AcDbBlockTableRecord
  2
*D18
340
0
  0
BLOCK_RECORD
  5
145E4
330
7466
100
AcDbSymbolTableRecord
100
AcDbBlockTableRecord
  2
*D19
340
0
  0
BLOCK_RECORD
  5
14608
330
7466
100
AcDbSymbolTableRecord
100
AcDbBlockTableRecord
  2
*D20
340
0
  0
BLOCK_RECORD
  5
14616
330
7466
100
AcDbSymbolTableRecord
100
AcDbBlockTableRecord
  2
*D21
340
0
  0
BLOCK_RECORD
  5
146DC
330
7466
100
AcDbSymbolTableRecord
100
AcDbBlockTableRecord
  2
*D22
340
0
  0
BLOCK_RECORD
  5
19879
330
7466
100
AcDbSymbolTableRecord
100
AcDbBlockTableRecord
  2
*D23
340
0
  0
BLOCK_RECORD
  5
19A47
330
7466
100
AcDbSymbolTableRecord
100
AcDbBlockTableRecord
  2
*D24
340
0
  0
BLOCK_RECORD
  5
1D9A1
330
7466
100
AcDbSymbolTableRecord
100
AcDbBlockTableRecord
  2
*D25
340
0
  0
BLOCK_RECORD
  5
1D9BB
330
7466
100
AcDbSymbolTableRecord
100
AcDbBlockTableRecord
  2
*D26
340
0
  0
BLOCK_RECORD
  5
1D9C7
330
7466
100
AcDbSymbolTableRecord
100
AcDbBlockTableRecord
  2
*D27
340
0
  0
BLOCK_RECORD
  5
20083
330
7466
100
AcDbSymbolTableRecord
100
AcDbBlockTableRecord
  2
*D28
340
0
  0
BLOCK_RECORD
  5
200C3
330
7466
100
AcDbSymbolTableRecord
100
AcDbBlockTableRecord
  2
*D29
340
0
  0
ENDTAB
  0
ENDSEC
  0
SECTION
  2
BLOCKS
  0
BLOCK
  5
7489
330
747D
100
AcDbEntity
  8
0
100
AcDbBlockBegin
  2
*MODEL_SPACE
 70
     0
 10
0.0
 20
0.0
 30
0.0
  3
*MODEL_SPACE
  1

  0
ENDBLK
  5
748A
330
747D
100
AcDbEntity
  8
0
100
AcDbBlockEnd
  0
BLOCK
  5
7487
330
747A
100
AcDbEntity
 67
     1
  8
0
100
AcDbBlockBegin
  2
*PAPER_SPACE
 70
     0
 10
0.0
 20
0.0
 30
0.0
  3
*PAPER_SPACE
  1

  0
ENDBLK
  5
7488
330
747A
100
AcDbEntity
 67
     1
  8
0
100
AcDbBlockEnd
  0
BLOCK
  5
F771
330
F770
100
AcDbEntity
  8
0
 48
50.0
100
AcDbBlockBegin
  2
_DOTSMALL
 70
     0
 10
0.0
 20
0.0
 30
0.0
  3
_DOTSMALL
  1

  0
LWPOLYLINE
  5
F772
330
F770
100
AcDbEntity
  8
0
  6
ByBlock
 62
     0
 48
50.0
100
AcDbPolyline
 90
        2
 70
     1
 43
0.5
 10
-0.0625
 20
0.0
 42
1.0
 10
0.0625
 20
0.0
 42
1.0
  0
ENDBLK
  5
F776
330
F770
100
AcDbEntity
  8
0
 48
50.0
100
AcDbBlockEnd
  0
BLOCK
  5
139D7
330
127B0
100
AcDbEntity
  8
0
 48
50.0
100
AcDbBlockBegin
  2
*D1
 70
     1
 10
0.0
 20
0.0
 30
0.0
  3
*D1
  1

  0
LINE
  5
1C4D2
330
127B0
100
AcDbEntity
  8
寸法
 62
     0
 48
50.0
370
    -2
100
AcDbLine
 10
9280.693956914474
 20
3100.0
 30
0.0
 11
8151.943827731216
 21
3100.0
 31
0.0
  0
LINE
  5
1C4D3
330
127B0
100
AcDbEntity
  8
寸法
 62
     0
 48
50.0
370
    -2
100
AcDbLine
 10
8279.192881019342
 20
3000.0
 30
0.0
 11
8151.943827731216
 21
3000.0
 31
0.0
  0
LINE
  5
1C4D4
330
127B0
100
AcDbEntity
  8
寸法
 62
     0
 48
50.0
370
    -2
100
AcDbLine
 10
8211.943827731214
 20
3100.0
 30
0.0
 11
8211.943827731214
 21
3000.0
 31
0.0
  0
LINE
  5
1C4D5
330
127B0
100
AcDbEntity
  8
寸法
 62
     0
 48
50.0
370
    -2
100
AcDbLine
 10
8211.943827731214
 20
3000.0
 30
0.0
 11
8211.943827731214
 21
2627.905511811024
 31
0.0
  0
INSERT
  5
1C4D6
330
127B0
100
AcDbEntity
  8
寸法
 62
     0
 48
50.0
370
    -2
100
AcDbBlockReference
  2
_DOTSMALL
 10
8211.943827731214
 20
3100.0
 30
0.0
 41
100.0
 42
100.0
 43
100.0
 50
90.0
  0
INSERT
  5
1C4D7
330
127B0
100
AcDbEntity
  8
寸法
 62
     0
 48
50.0
370
    -2
100
AcDbBlockReference
  2
_DOTSMALL
 10
8211.943827731214
 20
3000.0
 30
0.0
 41
100.0
 42
100.0
 43
100.0
 50
270.0
  0
MTEXT
  5
1C4D8
330
127B0
100
AcDbEntity
  8
寸法
 62
     7
 48
50.0
100
AcDbMText
 10
8111.943827731215
 20
2763.952755905513
 30
0.0
 40
120.0
 41
0.0
 71
     5
 72
     1
  1
\A1;100
  7
STYLE1
 11
0.0000000000000001
 21
1.0
 31
0.0
 73
     1
 44
1.0
1001
ACAD
1000
MTEXTBEGIN
1070
    73
1070
     1
1070
    44
1040
1.0
1070
    74
1070
     0
1000
MTEXTEND
  0
POINT
  5
1C4D9
330
127B0
100
AcDbEntity
  8
DEFPOINTS
 62
     0
 48
50.0
100
AcDbPoint
 10
9300.693956914475
 20
3100.0
 30
0.0
  0
POINT
  5
1C4DA
330
127B0
100
AcDbEntity
  8
DEFPOINTS
 62
     0
 48
50.0
100
AcDbPoint
 10
8299.192881019342
 20
3000.0
 30
0.0
  0
POINT
  5
1C4DB
330
127B0
100
AcDbEntity
  8
DEFPOINTS
 62
     0
 48
50.0
100
AcDbPoint
 10
8211.943827731214
 20
3000.0
 30
0.0
  0
ENDBLK
  5
139E2
330
127B0
100
AcDbEntity
  8
0
 48
50.0
100
AcDbBlockEnd
  0
BLOCK
  5
139E3
330
127BE
100
AcDbEntity
  8
0
 48
50.0
100
AcDbBlockBegin
  2
*D2
 70
     1
 10
0.0
 20
0.0
 30
0.0
  3
*D2
  1

  0
LINE
  5
1C4C7
330
127BE
100
AcDbEntity
  8
寸法
 62
     0
 48
50.0
370
    -2
100
AcDbLine
 10
9335.693956914473
 20
3150.0
 30
0.0
 11
8451.943827731215
 21
3150.0
 31
0.0
  0
LINE
  5
1C4C8
330
127BE
100
AcDbEntity
  8
寸法
 62
     0
 48
50.0
370
    -2
100
AcDbLine
 10
9280.693956914474
 20
3100.0
 30
0.0
 11
8451.943827731215
 21
3100.0
 31
0.0
  0
LINE
  5
1C4C9
330
127BE
100
AcDbEntity
  8
寸法
 62
     0
 48
50.0
370
    -2
100
AcDbLine
 10
8511.943827731213
 20
3150.0
 30
0.0
 11
8511.943827731213
 21
3250.000000000001
 31
0.0
  0
LINE
  5
1C4CA
330
127BE
100
AcDbEntity
  8
寸法
 62
     0
 48
50.0
370
    -2
100
AcDbLine
 10
8511.943827731213
 20
3100.0
 30
0.0
 11
8511.943827731213
 21
2687.905511811024
 31
0.0
  0
LINE
  5
1C4CB
330
127BE
100
AcDbEntity
  8
寸法
 62
     0
 48
50.0
370
    -2
100
AcDbLine
 10
8511.943827731213
 20
3150.0
 30
0.0
 11
8511.943827731213
 21
3100.0
 31
0.0
  0
INSERT
  5
1C4CC
330
127BE
100
AcDbEntity
  8
寸法
 62
     0
 48
50.0
370
    -2
100
AcDbBlockReference
  2
_DOTSMALL
 10
8511.943827731213
 20
3150.0
 30
0.0
 41
100.0
 42
100.0
 43
100.0
 50
270.0
  0
INSERT
  5
1C4CD
330
127BE
100
AcDbEntity
  8
寸法
 62
     0
 48
50.0
370
    -2
100
AcDbBlockReference
  2
_DOTSMALL
 10
8511.943827731213
 20
3100.0
 30
0.0
 41
100.0
 42
100.0
 43
100.0
 50
90.0
  0
MTEXT
  5
1C4CE
330
127BE
100
AcDbEntity
  8
寸法
 62
     7
 48
50.0
100
AcDbMText
 10
8411.943827731214
 20
2793.952755905514
 30
0.0
 40
120.0
 41
0.0
 71
     5
 72
     1
  1
\A1;50
  7
STYLE1
 11
0.0000000000000001
 21
1.0
 31
0.0
 73
     1
 44
1.0
1001
ACAD
1000
MTEXTBEGIN
1070
    73
1070
     1
1070
    44
1040
1.0
1070
    74
1070
     0
1000
MTEXTEND
  0
POINT
  5
1C4CF
330
127BE
100
AcDbEntity
  8
DEFPOINTS
 62
     0
 48
50.0
100
AcDbPoint
 10
9355.693956914475
 20
3150.0
 30
0.0
  0
POINT
  5
1C4D0
330
127BE
100
AcDbEntity
  8
DEFPOINTS
 62
     0
 48
50.0
100
AcDbPoint
 10
9300.693956914475
 20
3100.0
 30
0.0
  0
POINT
  5
1C4D1
330
127BE
100
AcDbEntity
  8
DEFPOINTS
 62
     0
 48
50.0
100
AcDbPoint
 10
8511.943827731213
 20
3100.0
 30
0.0
  0
ENDBLK
  5
139EF
330
127BE
100
AcDbEntity
  8
0
 48
50.0
100
AcDbBlockEnd
  0
BLOCK
  5
13B92
330
127CC
100
AcDbEntity
  8
0
 48
50.0
100
AcDbBlockBegin
  2
*D3
 70
     1
 10
0.0
 20
0.0
 30
0.0
  3
*D3
  1

  0
LINE
  5
1C4DC
330
127CC
100
AcDbEntity
  8
寸法
 62
     0
 48
50.0
370
    -2
100
AcDbLine
 10
9335.693956914473
 20
3100.0
 30
0.0
 11
8151.943827731214
 21
3100.0
 31
0.0
  0
LINE
  5
1C4DD
330
127CC
100
AcDbEntity
  8
寸法
 62
     0
 48
50.0
370
    -2
100
AcDbLine
 10
9275.693956914476
 20
5175.000000000005
 30
0.0
 11
8151.943827731214
 21
5175.000000000005
 31
0.0
  0
LINE
  5
1C4DE
330
127CC
100
AcDbEntity
  8
寸法
 62
     0
 48
50.0
370
    -2
100
AcDbLine
 10
8211.943827731213
 20
3100.0
 30
0.0
 11
8211.943827731214
 21
5175.000000000005
 31
0.0
  0
INSERT
  5
1C4DF
330
127CC
100
AcDbEntity
  8
寸法
 62
     0
 48
50.0
370
    -2
100
AcDbBlockReference
  2
_DOTSMALL
 10
8211.943827731213
 20
3100.0
 30
0.0
 41
100.0
 42
100.0
 43
100.0
 50
270.0
  0
INSERT
  5
1C4E0
330
127CC
100
AcDbEntity
  8
寸法
 62
     0
 48
50.0
370
    -2
100
AcDbBlockReference
  2
_DOTSMALL
 10
8211.943827731214
 20
5175.000000000005
 30
0.0
 41
100.0
 42
100.0
 43
100.0
 50
90.0
  0
MTEXT
  5
1C4E1
330
127CC
100
AcDbEntity
  8
寸法
 62
     7
 48
50.0
100
AcDbMText
 10
8111.932016707591
 20
4137.500000000003
 30
0.0
 40
120.0
 41
0.0
 71
     5
 72
     1
  1
\A1;2075
  7
STYLE1
 11
0.0000000000000001
 21
1.0
 31
0.0
 73
     1
 44
1.0
1001
ACAD
1000
MTEXTBEGIN
1070
    73
1070
     1
1070
    44
1040
1.0
1070
    74
1070
     0
1000
MTEXTEND
  0
POINT
  5
1C4E2
330
127CC
100
AcDbEntity
  8
DEFPOINTS
 62
     0
 48
50.0
100
AcDbPoint
 10
9355.693956914475
 20
3100.0
 30
0.0
  0
POINT
  5
1C4E3
330
127CC
100
AcDbEntity
  8
DEFPOINTS
 62
     0
 48
50.0
100
AcDbPoint
 10
9295.693956914476
 20
5175.000000000005
 30
0.0
  0
POINT
  5
1C4E4
330
127CC
100
AcDbEntity
  8
DEFPOINTS
 62
     0
 48
50.0
100
AcDbPoint
 10
8211.943827731214
 20
5175.000000000005
 30
0.0
  0
ENDBLK
  5
13B9C
330
127CC
100
AcDbEntity
  8
0
 48
50.0
100
AcDbBlockEnd
  0
BLOCK
  5
139C1
330
127E6
100
AcDbEntity
  8
0
 48
50.0
100
AcDbBlockBegin
  2
*D4
 70
     1
 10
0.0
 20
0.0
 30
0.0
  3
*D4
  1

  0
LINE
  5
1C4E5
330
127E6
100
AcDbEntity
  8
寸法
 62
     0
 48
50.0
370
    -2
100
AcDbLine
 10
9335.693956914473
 20
4940.0
 30
0.0
 11
8451.943827731216
 21
4940.0
 31
0.0
  0
LINE
  5
1C4E6
330
127E6
100
AcDbEntity
  8
寸法
 62
     0
 48
50.0
370
    -2
100
AcDbLine
 10
9335.693956914473
 20
3150.0
 30
0.0
 11
8451.943827731215
 21
3150.0
 31
0.0
  0
LINE
  5
1C4E7
330
127E6
100
AcDbEntity
  8
寸法
 62
     0
 48
50.0
370
    -2
100
AcDbLine
 10
8511.943827731217
 20
4940.0
 30
0.0
 11
8511.943827731213
 21
3150.0
 31
0.0
  0
INSERT
  5
1C4E8
330
127E6
100
AcDbEntity
  8
寸法
 62
     0
 48
50.0
370
    -2
100
AcDbBlockReference
  2
_DOTSMALL
 10
8511.943827731217
 20
4940.0
 30
0.0
 41
100.0
 42
100.0
 43
100.0
 50
90.0
  0
INSERT
  5
1C4E9
330
127E6
100
AcDbEntity
  8
寸法
 62
     0
 48
50.0
370
    -2
100
AcDbBlockReference
  2
_DOTSMALL
 10
8511.943827731213
 20
3150.0
 30
0.0
 41
100.0
 42
100.0
 43
100.0
 50
270.0
  0
MTEXT
  5
1C4EA
330
127E6
100
AcDbEntity
  8
寸法
 62
     7
 48
50.0
100
AcDbMText
 10
8411.943827731214
 20
4045.000000000001
 30
0.0
 40
120.0
 41
0.0
 71
     5
 72
     1
  1
\A1;1790
  7
STYLE1
 11
0.0000000000000001
 21
1.0
 31
0.0
 73
     1
 44
1.0
1001
ACAD
1000
MTEXTBEGIN
1070
    73
1070
     1
1070
    44
1040
1.0
1070
    74
1070
     0
1000
MTEXTEND
  0
POINT
  5
1C4EB
330
127E6
100
AcDbEntity
  8
DEFPOINTS
 62
     0
 48
50.0
100
AcDbPoint
 10
9355.693956914475
 20
4940.0
 30
0.0
  0
POINT
  5
1C4EC
330
127E6
100
AcDbEntity
  8
DEFPOINTS
 62
     0
 48
50.0
100
AcDbPoint
 10
9355.693956914475
 20
3150.0
 30
0.0
  0
POINT
  5
1C4ED
330
127E6
100
AcDbEntity
  8
DEFPOINTS
 62
     0
 48
50.0
100
AcDbPoint
 10
8511.943827731213
 20
3150.0
 30
0.0
  0
ENDBLK
  5
139CB
330
127E6
100
AcDbEntity
  8
0
 48
50.0
100
AcDbBlockEnd
  0
BLOCK
  5
14CA7
330
127F2
100
AcDbEntity
  8
0
 48
50.0
100
AcDbBlockBegin
  2
*D5
 70
     1
 10
0.0
 20
0.0
 30
0.0
  3
*D5
  1

  0
LINE
  5
1C4EE
330
127F2
100
AcDbEntity
  8
寸法
 62
     0
 48
50.0
370
    -2
100
AcDbLine
 10
9335.693956914473
 20
4932.0
 30
0.0
 11
8750.785315517221
 21
4932.0
 31
0.0
  0
LINE
  5
1C4EF
330
127F2
100
AcDbEntity
  8
寸法
 62
     0
 48
50.0
370
    -2
100
AcDbLine
 10
9335.693956914473
 20
3162.0
 30
0.0
 11
8750.785315517219
 21
3162.000000000001
 31
0.0
  0
LINE
  5
1C4F0
330
127F2
100
AcDbEntity
  8
寸法
 62
     0
 48
50.0
370
    -2
100
AcDbLine
 10
8810.785315517222
 20
4932.0
 30
0.0
 11
8810.78531551722
 21
3162.000000000001
 31
0.0
  0
INSERT
  5
1C4F1
330
127F2
100
AcDbEntity
  8
寸法
 62
     0
 48
50.0
370
    -2
100
AcDbBlockReference
  2
_DOTSMALL
 10
8810.785315517222
 20
4932.0
 30
0.0
 41
100.0
 42
100.0
 43
100.0
 50
90.0
  0
INSERT
  5
1C4F2
330
127F2
100
AcDbEntity
  8
寸法
 62
     0
 48
50.0
370
    -2
100
AcDbBlockReference
  2
_DOTSMALL
 10
8810.78531551722
 20
3162.000000000001
 30
0.0
 41
100.0
 42
100.0
 43
100.0
 50
270.0
  0
MTEXT
  5
1C4F3
330
127F2
100
AcDbEntity
  8
寸法
 62
     7
 48
50.0
100
AcDbMText
 10
8710.785315517219
 20
4047.000000000001
 30
0.0
 40
120.0
 41
0.0
 71
     5
 72
     1
  1
\A1;有効開口部高サ1770
  7
STYLE1
 11
0.0000000000000001
 21
1.0
 31
0.0
 73
     1
 44
1.0
1001
ACAD
1000
MTEXTBEGIN
1070
    73
1070
     1
1070
    44
1040
1.0
1070
    74
1070
     0
1000
MTEXTEND
  0
POINT
  5
1C4F4
330
127F2
100
AcDbEntity
  8
DEFPOINTS
 62
     0
 48
50.0
100
AcDbPoint
 10
9355.693956914475
 20
4932.0
 30
0.0
  0
POINT
  5
1C4F5
330
127F2
100
AcDbEntity
  8
DEFPOINTS
 62
     0
 48
50.0
100
AcDbPoint
 10
9355.693956914475
 20
3162.0
 30
0.0
  0
POINT
  5
1C4F6
330
127F2
100
AcDbEntity
  8
DEFPOINTS
 62
     0
 48
50.0
100
AcDbPoint
 10
8810.78531551722
 20
3162.000000000001
 30
0.0
  0
ENDBLK
  5
14CB1
330
127F2
100
AcDbEntity
  8
0
 48
50.0
100
AcDbBlockEnd
  0
BLOCK
  5
13B9D
330
12832
100
AcDbEntity
  8
0
 48
50.0
100
AcDbBlockBegin
  2
*D6
 70
     1
 10
0.0
 20
0.0
 30
0.0
  3
*D6
  1

  0
LINE
  5
1D053
330
12832
100
AcDbEntity
  8
寸法
 62
     0
 48
50.0
370
    -2
100
AcDbLine
 10
10745.69395691448
 20
3100.0
 30
0.0
 11
11490.6211148866
 21
3100.0
 31
0.0
  0
LINE
  5
1D054
330
12832
100
AcDbEntity
  8
寸法
 62
     0
 48
50.0
370
    -2
100
AcDbLine
 10
10825.69395691447
 20
5120.0
 30
0.0
 11
11490.6211148866
 21
5120.0
 31
0.0
  0
LINE
  5
1D055
330
12832
100
AcDbEntity
  8
寸法
 62
     0
 48
50.0
370
    -2
100
AcDbLine
 10
11430.6211148866
 20
3100.0
 30
0.0
 11
11430.6211148866
 21
5120.0
 31
0.0
  0
INSERT
  5
1D056
330
12832
100
AcDbEntity
  8
寸法
 62
     0
 48
50.0
370
    -2
100
AcDbBlockReference
  2
_DOTSMALL
 10
11430.6211148866
 20
3100.0
 30
0.0
 41
100.0
 42
100.0
 43
100.0
 50
270.0
  0
INSERT
  5
1D057
330
12832
100
AcDbEntity
  8
寸法
 62
     0
 48
50.0
370
    -2
100
AcDbBlockReference
  2
_DOTSMALL
 10
11430.6211148866
 20
5120.0
 30
0.0
 41
100.0
 42
100.0
 43
100.0
 50
90.0
  0
MTEXT
  5
1D058
330
12832
100
AcDbEntity
  8
寸法
 62
     7
 48
50.0
100
AcDbMText
 10
11330.60930386298
 20
4110.000000000002
 30
0.0
 40
120.0
 41
0.0
 71
     5
 72
     1
  1
\A1;2020
  7
STYLE1
 11
0.0000000000000001
 21
1.0
 31
0.0
 73
     1
 44
1.0
1001
ACAD
1000
MTEXTBEGIN
1070
    73
1070
     1
1070
    44
1040
1.0
1070
    74
1070
     0
1000
MTEXTEND
  0
POINT
  5
1D059
330
12832
100
AcDbEntity
  8
DEFPOINTS
 62
     0
 48
50.0
100
AcDbPoint
 10
10725.69395691448
 20
3100.0
 30
0.0
  0
POINT
  5
1D05A
330
12832
100
AcDbEntity
  8
DEFPOINTS
 62
     0
 48
50.0
100
AcDbPoint
 10
10805.69395691447
 20
5120.0
 30
0.0
  0
POINT
  5
1D05B
330
12832
100
AcDbEntity
  8
DEFPOINTS
 62
     0
 48
50.0
100
AcDbPoint
 10
11430.6211148866
 20
5120.0
 30
0.0
  0
ENDBLK
  5
13BA7
330
12832
100
AcDbEntity
  8
0
 48
50.0
100
AcDbBlockEnd
  0
BLOCK
  5
14D1F
330
13B45
100
AcDbEntity
  8
0
 48
50.0
100
AcDbBlockBegin
  2
*D7
 70
     1
 10
0.0
 20
0.0
 30
0.0
  3
*D7
  1

  0
LINE
  5
1D092
330
13B45
100
AcDbEntity
  8
寸法
 62
     0
 48
50.0
370
    -2
100
AcDbLine
 10
10725.69395691447
 20
5141.810679611654
 30
0.0
 11
10725.69395691447
 21
5633.657453579304
 31
0.0
  0
LINE
  5
1D093
330
13B45
100
AcDbEntity
  8
寸法
 62
     0
 48
50.0
370
    -2
100
AcDbLine
 10
9355.693956914477
 20
5191.001618122976
 30
0.0
 11
9355.693956914477
 21
5633.657453579304
 31
0.0
  0
LINE
  5
1D094
330
13B45
100
AcDbEntity
  8
寸法
 62
     0
 48
50.0
370
    -2
100
AcDbLine
 10
10725.69395691447
 20
5573.657453579304
 30
0.0
 11
9355.693956914477
 21
5573.657453579304
 31
0.0
  0
INSERT
  5
1D095
330
13B45
100
AcDbEntity
  8
寸法
 62
     0
 48
50.0
370
    -2
100
AcDbBlockReference
  2
_DOTSMALL
 10
10725.69395691447
 20
5573.657453579304
 30
0.0
 41
100.0
 42
100.0
 43
100.0
  0
INSERT
  5
1D096
330
13B45
100
AcDbEntity
  8
寸法
 62
     0
 48
50.0
370
    -2
100
AcDbBlockReference
  2
_DOTSMALL
 10
9355.693956914477
 20
5573.657453579304
 30
0.0
 41
100.0
 42
100.0
 43
100.0
 50
180.0
  0
MTEXT
  5
1D097
330
13B45
100
AcDbEntity
  8
寸法
 62
     7
 48
50.0
100
AcDbMText
 10
10005.51298980502
 20
5673.657453579305
 30
0.0
 40
120.0
 41
0.0
 71
     5
 72
     1
  1
\A1;柱外寸法1370
  7
STYLE1
 73
     1
 44
1.0
1001
ACAD
1000
MTEXTBEGIN
1070
    73
1070
     1
1070
    44
1040
1.0
1070
    74
1070
     0
1000
MTEXTEND
  0
POINT
  5
1D098
330
13B45
100
AcDbEntity
  8
DEFPOINTS
 62
     0
 48
50.0
100
AcDbPoint
 10
10725.69395691447
 20
5121.810679611654
 30
0.0
  0
POINT
  5
1D099
330
13B45
100
AcDbEntity
  8
DEFPOINTS
 62
     0
 48
50.0
100
AcDbPoint
 10
9355.693956914477
 20
5171.001618122977
 30
0.0
  0
POINT
  5
1D09A
330
13B45
100
AcDbEntity
  8
DEFPOINTS
 62
     0
 48
50.0
100
AcDbPoint
 10
9355.693956914477
 20
5573.657453579304
 30
0.0
  0
ENDBLK
  5
14D29
330
13B45
100
AcDbEntity
  8
0
 48
50.0
100
AcDbBlockEnd
  0
BLOCK
  5
149C9
330
13B60
100
AcDbEntity
  8
0
 48
50.0
100
AcDbBlockBegin
  2
*D8
 70
     1
 10
0.0
 20
0.0
 30
0.0
  3
*D8
  1

  0
LINE
  5
1C4AA
330
13B60
100
AcDbEntity
  8
寸法
 62
     0
 48
50.0
370
    -2
100
AcDbLine
 10
9355.693956914477
 20
5191.001618122976
 30
0.0
 11
9355.693956914477
 21
5633.657453579304
 31
0.0
  0
LINE
  5
1C4AB
330
13B60
100
AcDbEntity
  8
寸法
 62
     0
 48
50.0
370
    -2
100
AcDbLine
 10
9295.693956914476
 20
5195.000000000004
 30
0.0
 11
9295.693956914476
 21
5633.657453579304
 31
0.0
  0
LINE
  5
1C4AC
330
13B60
100
AcDbEntity
  8
寸法
 62
     0
 48
50.0
370
    -2
100
AcDbLine
 10
9355.693956914477
 20
5573.657453579304
 30
0.0
 11
9455.693956914476
 21
5573.657453579304
 31
0.0
  0
LINE
  5
1C4AD
330
13B60
100
AcDbEntity
  8
寸法
 62
     0
 48
50.0
370
    -2
100
AcDbLine
 10
9295.693956914476
 20
5573.657453579304
 30
0.0
 11
8876.418366363296
 21
5573.657453579304
 31
0.0
  0
LINE
  5
1C4AE
330
13B60
100
AcDbEntity
  8
寸法
 62
     0
 48
50.0
370
    -2
100
AcDbLine
 10
9355.693956914477
 20
5573.657453579304
 30
0.0
 11
9295.693956914476
 21
5573.657453579304
 31
0.0
  0
INSERT
  5
1C4AF
330
13B60
100
AcDbEntity
  8
寸法
 62
     0
 48
50.0
370
    -2
100
AcDbBlockReference
  2
_DOTSMALL
 10
9355.693956914477
 20
5573.657453579304
 30
0.0
 41
100.0
 42
100.0
 43
100.0
 50
180.0
  0
INSERT
  5
1C4B0
330
13B60
100
AcDbEntity
  8
寸法
 62
     0
 48
50.0
370
    -2
100
AcDbBlockReference
  2
_DOTSMALL
 10
9295.693956914476
 20
5573.657453579304
 30
0.0
 41
100.0
 42
100.0
 43
100.0
  0
MTEXT
  5
1C4B1
330
13B60
100
AcDbEntity
  8
寸法
 62
     7
 48
50.0
100
AcDbMText
 10
8986.056161638886
 20
5673.657453579305
 30
0.0
 40
120.0
 41
0.0
 71
     5
 72
     1
  1
\A1;60
  7
STYLE1
 73
     1
 44
1.0
1001
ACAD
1000
MTEXTBEGIN
1070
    73
1070
     1
1070
    44
1040
1.0
1070
    74
1070
     0
1000
MTEXTEND
  0
POINT
  5
1C4B2
330
13B60
100
AcDbEntity
  8
DEFPOINTS
 62
     0
 48
50.0
100
AcDbPoint
 10
9355.693956914477
 20
5171.001618122977
 30
0.0
  0
POINT
  5
1C4B3
330
13B60
100
AcDbEntity
  8
DEFPOINTS
 62
     0
 48
50.0
100
AcDbPoint
 10
9295.693956914476
 20
5175.000000000005
 30
0.0
  0
POINT
  5
1C4B4
330
13B60
100
AcDbEntity
  8
DEFPOINTS
 62
     0
 48
50.0
100
AcDbPoint
 10
9295.693956914476
 20
5573.657453579304
 30
0.0
  0
ENDBLK
  5
149D4
330
13B60
100
AcDbEntity
  8
0
 48
50.0
100
AcDbBlockEnd
  0
BLOCK
  5
14D2A
330
13BB3
100
AcDbEntity
  8
0
 48
50.0
100
AcDbBlockBegin
  2
*D9
 70
     1
 10
0.0
 20
0.0
 30
0.0
  3
*D9
  1

  0
LINE
  5
1D089
330
13BB3
100
AcDbEntity
  8
寸法
 62
     0
 48
50.0
370
    -2
100
AcDbLine
 10
10805.69395691447
 20
5140.000000000001
 30
0.0
 11
10805.69395691447
 21
5841.831774771268
 31
0.0
  0
LINE
  5
1D08A
330
13BB3
100
AcDbEntity
  8
寸法
 62
     0
 48
50.0
370
    -2
100
AcDbLine
 10
9295.693956914476
 20
5195.000000000004
 30
0.0
 11
9295.693956914476
 21
5841.831774771268
 31
0.0
  0
LINE
  5
1D08B
330
13BB3
100
AcDbEntity
  8
寸法
 62
     0
 48
50.0
370
    -2
100
AcDbLine
 10
10805.69395691447
 20
5781.831774771268
 30
0.0
 11
9295.693956914476
 21
5781.831774771268
 31
0.0
  0
INSERT
  5
1D08C
330
13BB3
100
AcDbEntity
  8
寸法
 62
     0
 48
50.0
370
    -2
100
AcDbBlockReference
  2
_DOTSMALL
 10
10805.69395691447
 20
5781.831774771268
 30
0.0
 41
100.0
 42
100.0
 43
100.0
  0
INSERT
  5
1D08D
330
13BB3
100
AcDbEntity
  8
寸法
 62
     0
 48
50.0
370
    -2
100
AcDbBlockReference
  2
_DOTSMALL
 10
9295.693956914476
 20
5781.831774771268
 30
0.0
 41
100.0
 42
100.0
 43
100.0
 50
180.0
  0
MTEXT
  5
1D08E
330
13BB3
100
AcDbEntity
  8
寸法
 62
     7
 48
50.0
100
AcDbMText
 10
10022.8187866163
 20
5881.831774771268
 30
0.0
 40
120.0
 41
0.0
 71
     5
 72
     1
  1
\A1;1510
  7
STYLE1
 73
     1
 44
1.0
1001
ACAD
1000
MTEXTBEGIN
1070
    73
1070
     1
1070
    44
1040
1.0
1070
    74
1070
     0
1000
MTEXTEND
  0
POINT
  5
1D08F
330
13BB3
100
AcDbEntity
  8
DEFPOINTS
 62
     0
 48
50.0
100
AcDbPoint
 10
10805.69395691447
 20
5120.0
 30
0.0
  0
POINT
  5
1D090
330
13BB3
100
AcDbEntity
  8
DEFPOINTS
 62
     0
 48
50.0
100
AcDbPoint
 10
9295.693956914476
 20
5175.000000000005
 30
0.0
  0
POINT
  5
1D091
330
13BB3
100
AcDbEntity
  8
DEFPOINTS
 62
     0
 48
50.0
100
AcDbPoint
 10
9295.693956914476
 20
5781.831774771268
 30
0.0
  0
ENDBLK
  5
14D34
330
13BB3
100
AcDbEntity
  8
0
 48
50.0
100
AcDbBlockEnd
  0
BLOCK
  5
14A98
330
13DA8
100
AcDbEntity
  8
0
 48
50.0
100
AcDbBlockBegin
  2
*D10
 70
     1
 10
0.0
 20
0.0
 30
0.0
  3
*D10
  1

  0
LINE
  5
1F870
330
13DA8
100
AcDbEntity
  8
寸法
 62
     0
 48
50.0
370
    -2
100
AcDbLine
 10
5999.896575106994
 20
5195.000000000005
 30
0.0
 11
5999.896575106994
 21
5640.635192946
 31
0.0
  0
LINE
  5
1F871
330
13DA8
100
AcDbEntity
  8
寸法
 62
     0
 48
50.0
370
    -2
100
AcDbLine
 10
7469.896575106992
 20
5195.000000000003
 30
0.0
 11
7469.896575106992
 21
5640.635192946
 31
0.0
  0
LINE
  5
1F872
330
13DA8
100
AcDbEntity
  8
寸法
 62
     0
 48
50.0
370
    -2
100
AcDbLine
 10
5999.896575106994
 20
5580.635192946
 30
0.0
 11
7469.896575106992
 21
5580.635192946
 31
0.0
  0
INSERT
  5
1F873
330
13DA8
100
AcDbEntity
  8
寸法
 62
     0
 48
50.0
370
    -2
100
AcDbBlockReference
  2
_DOTSMALL
 10
5999.896575106994
 20
5580.635192946
 30
0.0
 41
100.0
 42
100.0
 43
100.0
 50
180.0
  0
INSERT
  5
1F874
330
13DA8
100
AcDbEntity
  8
寸法
 62
     0
 48
50.0
370
    -2
100
AcDbBlockReference
  2
_DOTSMALL
 10
7469.896575106992
 20
5580.635192946
 30
0.0
 41
100.0
 42
100.0
 43
100.0
  0
MTEXT
  5
1F875
330
13DA8
100
AcDbEntity
  8
寸法
 62
     7
 48
50.0
100
AcDbMText
 10
6707.969587758532
 20
5680.635192946
 30
0.0
 40
120.0
 41
0.0
 71
     5
 72
     1
  1
\A1;1470
  7
STYLE1
 73
     1
 44
1.0
1001
ACAD
1000
MTEXTBEGIN
1070
    73
1070
     1
1070
    44
1040
1.0
1070
    74
1070
     0
1000
MTEXTEND
  0
POINT
  5
1F876
330
13DA8
100
AcDbEntity
  8
DEFPOINTS
 62
     0
 48
50.0
100
AcDbPoint
 10
5999.896575106994
 20
5175.000000000006
 30
0.0
  0
POINT
  5
1F877
330
13DA8
100
AcDbEntity
  8
DEFPOINTS
 62
     0
 48
50.0
100
AcDbPoint
 10
7469.896575106992
 20
5175.000000000003
 30
0.0
  0
POINT
  5
1F878
330
13DA8
100
AcDbEntity
  8
DEFPOINTS
 62
     0
 48
50.0
100
AcDbPoint
 10
7469.896575106992
 20
5580.635192946
 30
0.0
  0
ENDBLK
  5
14AA2
330
13DA8
100
AcDbEntity
  8
0
 48
50.0
100
AcDbBlockEnd
  0
BLOCK
  5
14A8A
330
141B5
100
AcDbEntity
  8
0
 48
50.0
100
AcDbBlockBegin
  2
*D11
 70
     1
 10
0.0
 20
0.0
 30
0.0
  3
*D11
  1

  0
LINE
  5
200E4
330
141B5
100
AcDbEntity
  8
寸法
 62
     0
 48
50.0
370
    -2
100
AcDbLine
 10
7469.896575106992
 20
5195.000000000003
 30
0.0
 11
7469.896575106992
 21
5440.72627173191
 31
0.0
  0
LINE
  5
200E5
330
141B5
100
AcDbEntity
  8
寸法
 62
     0
 48
50.0
370
    -2
100
AcDbLine
 10
7419.896575106993
 20
5195.000000000005
 30
0.0
 11
7419.896575106993
 21
5440.72627173191
 31
0.0
  0
LINE
  5
200E6
330
141B5
100
AcDbEntity
  8
寸法
 62
     0
 48
50.0
370
    -2
100
AcDbLine
 10
7419.896575106993
 20
5380.726271731909
 30
0.0
 11
7319.896575106993
 21
5380.726271731909
 31
0.0
  0
LINE
  5
200E7
330
141B5
100
AcDbEntity
  8
寸法
 62
     0
 48
50.0
370
    -2
100
AcDbLine
 10
7469.896575106992
 20
5380.726271731909
 30
0.0
 11
7889.429100575718
 21
5380.726271731909
 31
0.0
  0
LINE
  5
200E8
330
141B5
100
AcDbEntity
  8
寸法
 62
     0
 48
50.0
370
    -2
100
AcDbLine
 10
7419.896575106993
 20
5380.726271731909
 30
0.0
 11
7469.896575106992
 21
5380.726271731909
 31
0.0
  0
INSERT
  5
200E9
330
141B5
100
AcDbEntity
  8
寸法
 62
     0
 48
50.0
370
    -2
100
AcDbBlockReference
  2
_DOTSMALL
 10
7419.896575106993
 20
5380.726271731909
 30
0.0
 41
100.0
 42
100.0
 43
100.0
  0
INSERT
  5
200EA
330
141B5
100
AcDbEntity
  8
寸法
 62
     0
 48
50.0
370
    -2
100
AcDbBlockReference
  2
_DOTSMALL
 10
7469.896575106992
 20
5380.726271731909
 30
0.0
 41
100.0
 42
100.0
 43
100.0
 50
180.0
  0
MTEXT
  5
200EB
330
141B5
100
AcDbEntity
  8
寸法
 62
     7
 48
50.0
100
AcDbMText
 10
7783.381856481231
 20
5480.72627173191
 30
0.0
 40
120.0
 41
0.0
 71
     5
 72
     1
  1
\A1;50
  7
STYLE1
 73
     1
 44
1.0
1001
ACAD
1000
MTEXTBEGIN
1070
    73
1070
     1
1070
    44
1040
1.0
1070
    74
1070
     0
1000
MTEXTEND
  0
POINT
  5
200EC
330
141B5
100
AcDbEntity
  8
DEFPOINTS
 62
     0
 48
50.0
100
AcDbPoint
 10
7469.896575106992
 20
5175.000000000003
 30
0.0
  0
POINT
  5
200ED
330
141B5
100
AcDbEntity
  8
DEFPOINTS
 62
     0
 48
50.0
100
AcDbPoint
 10
7419.896575106993
 20
5175.000000000006
 30
0.0
  0
POINT
  5
200EE
330
141B5
100
AcDbEntity
  8
DEFPOINTS
 62
     0
 48
50.0
100
AcDbPoint
 10
7419.896575106993
 20
5380.726271731909
 30
0.0
  0
ENDBLK
  5
14A96
330
141B5
100
AcDbEntity
  8
0
 48
50.0
100
AcDbBlockEnd
  0
BLOCK
  5
14A7D
330
141F9
100
AcDbEntity
  8
0
 48
50.0
100
AcDbBlockBegin
  2
*D12
 70
     1
 10
0.0
 20
0.0
 30
0.0
  3
*D12
  1

  0
LINE
  5
200D9
330
141F9
100
AcDbEntity
  8
寸法
 62
     0
 48
50.0
370
    -2
100
AcDbLine
 10
6049.896575106993
 20
5195.000000000007
 30
0.0
 11
6049.896575106993
 21
5440.72627173191
 31
0.0
  0
LINE
  5
200DA
330
141F9
100
AcDbEntity
  8
寸法
 62
     0
 48
50.0
370
    -2
100
AcDbLine
 10
5999.896575106994
 20
5195.000000000005
 30
0.0
 11
5999.896575106994
 21
5440.72627173191
 31
0.0
  0
LINE
  5
200DB
330
141F9
100
AcDbEntity
  8
寸法
 62
     0
 48
50.0
370
    -2
100
AcDbLine
 10
6049.896575106993
 20
5380.726271731909
 30
0.0
 11
6149.896575106993
 21
5380.726271731909
 31
0.0
  0
LINE
  5
200DC
330
141F9
100
AcDbEntity
  8
寸法
 62
     0
 48
50.0
370
    -2
100
AcDbLine
 10
5999.896575106994
 20
5380.726271731909
 30
0.0
 11
5580.364049638259
 21
5380.726271731909
 31
0.0
  0
LINE
  5
200DD
330
141F9
100
AcDbEntity
  8
寸法
 62
     0
 48
50.0
370
    -2
100
AcDbLine
 10
6049.896575106993
 20
5380.726271731909
 30
0.0
 11
5999.896575106994
 21
5380.726271731909
 31
0.0
  0
INSERT
  5
200DE
330
141F9
100
AcDbEntity
  8
寸法
 62
     0
 48
50.0
370
    -2
100
AcDbBlockReference
  2
_DOTSMALL
 10
6049.896575106993
 20
5380.726271731909
 30
0.0
 41
100.0
 42
100.0
 43
100.0
 50
180.0
  0
INSERT
  5
200DF
330
141F9
100
AcDbEntity
  8
寸法
 62
     0
 48
50.0
370
    -2
100
AcDbBlockReference
  2
_DOTSMALL
 10
5999.896575106994
 20
5380.726271731909
 30
0.0
 41
100.0
 42
100.0
 43
100.0
  0
MTEXT
  5
200E0
330
141F9
100
AcDbEntity
  8
寸法
 62
     7
 48
50.0
100
AcDbMText
 10
5686.411293732748
 20
5480.72627173191
 30
0.0
 40
120.0
 41
0.0
 71
     5
 72
     1
  1
\A1;50
  7
STYLE1
 73
     1
 44
1.0
1001
ACAD
1000
MTEXTBEGIN
1070
    73
1070
     1
1070
    44
1040
1.0
1070
    74
1070
     0
1000
MTEXTEND
  0
POINT
  5
200E1
330
141F9
100
AcDbEntity
  8
DEFPOINTS
 62
     0
 48
50.0
100
AcDbPoint
 10
6049.896575106993
 20
5175.000000000006
 30
0.0
  0
POINT
  5
200E2
330
141F9
100
AcDbEntity
  8
DEFPOINTS
 62
     0
 48
50.0
100
AcDbPoint
 10
5999.896575106994
 20
5175.000000000006
 30
0.0
  0
POINT
  5
200E3
330
141F9
100
AcDbEntity
  8
DEFPOINTS
 62
     0
 48
50.0
100
AcDbPoint
 10
5999.896575106994
 20
5380.726271731909
 30
0.0
  0
ENDBLK
  5
14A89
330
141F9
100
AcDbEntity
  8
0
 48
50.0
100
AcDbBlockEnd
  0
BLOCK
  5
148C8
330
1458A
100
AcDbEntity
  8
0
 48
50.0
100
AcDbBlockBegin
  2
*D13
 70
     1
 10
0.0
 20
0.0
 30
0.0
  3
*D13
  1

  0
LINE
  5
20150
330
1458A
100
AcDbEntity
  8
寸法
 62
     0
 48
50.0
370
    -2
100
AcDbLine
 10
6049.896575106998
 20
8871.523725666422
 30
0.0
 11
6049.896575106998
 21
9394.44319812498
 31
0.0
  0
LINE
  5
20151
330
1458A
100
AcDbEntity
  8
寸法
 62
     0
 48
50.0
370
    -2
100
AcDbLine
 10
6104.896575107033
 20
8871.523725666422
 30
0.0
 11
6104.896575107033
 21
9394.44319812498
 31
0.0
  0
LINE
  5
20152
330
1458A
100
AcDbEntity
  8
寸法
 62
     0
 48
50.0
370
    -2
100
AcDbLine
 10
6104.896575107033
 20
9334.443198124979
 30
0.0
 11
6204.896575107032
 21
9334.443198124979
 31
0.0
  0
LINE
  5
20153
330
1458A
100
AcDbEntity
  8
寸法
 62
     0
 48
50.0
370
    -2
100
AcDbLine
 10
6049.896575106998
 20
9334.443198124979
 30
0.0
 11
5632.92601235852
 21
9334.443198124979
 31
0.0
  0
LINE
  5
20154
330
1458A
100
AcDbEntity
  8
寸法
 62
     0
 48
50.0
370
    -2
100
AcDbLine
 10
6104.896575107033
 20
9334.443198124979
 30
0.0
 11
6049.896575106998
 21
9334.443198124979
 31
0.0
  0
INSERT
  5
20155
330
1458A
100
AcDbEntity
  8
寸法
 62
     0
 48
50.0
370
    -2
100
AcDbBlockReference
  2
_DOTSMALL
 10
6104.896575107033
 20
9334.443198124979
 30
0.0
 41
100.0
 42
100.0
 43
100.0
 50
180.0
  0
INSERT
  5
20156
330
1458A
100
AcDbEntity
  8
寸法
 62
     0
 48
50.0
370
    -2
100
AcDbBlockReference
  2
_DOTSMALL
 10
6049.896575106998
 20
9334.443198124979
 30
0.0
 41
100.0
 42
100.0
 43
100.0
  0
MTEXT
  5
20157
330
1458A
100
AcDbEntity
  8
寸法
 62
     7
 48
50.0
100
AcDbMText
 10
5741.41129373276
 20
9434.443198124979
 30
0.0
 40
120.0
 41
0.0
 71
     5
 72
     1
  1
\A1;55
  7
STYLE1
 73
     1
 44
1.0
1001
ACAD
1000
MTEXTBEGIN
1070
    73
1070
     1
1070
    44
1040
1.0
1070
    74
1070
     0
1000
MTEXTEND
  0
POINT
  5
20158
330
1458A
100
AcDbEntity
  8
DEFPOINTS
 62
     0
 48
50.0
100
AcDbPoint
 10
6049.896575106998
 20
8851.523725666423
 30
0.0
  0
POINT
  5
20159
330
1458A
100
AcDbEntity
  8
DEFPOINTS
 62
     0
 48
50.0
100
AcDbPoint
 10
6104.896575107033
 20
8851.523725666423
 30
0.0
  0
POINT
  5
2015A
330
1458A
100
AcDbEntity
  8
DEFPOINTS
 62
     0
 48
50.0
100
AcDbPoint
 10
6104.896575107033
 20
9334.443198124979
 30
0.0
  0
ENDBLK
  5
148D4
330
1458A
100
AcDbEntity
  8
0
 48
50.0
100
AcDbBlockEnd
  0
BLOCK
  5
14D6F
330
14598
100
AcDbEntity
  8
0
 48
50.0
100
AcDbBlockBegin
  2
*D14
 70
     1
 10
0.0
 20
0.0
 30
0.0
  3
*D14
  1

  0
LINE
  5
20147
330
14598
100
AcDbEntity
  8
寸法
 62
     0
 48
50.0
370
    -2
100
AcDbLine
 10
7439.89657510701
 20
8851.52372566646
 30
0.0
 11
8424.703743008178
 21
8851.52372566646
 31
0.0
  0
LINE
  5
20148
330
14598
100
AcDbEntity
  8
寸法
 62
     0
 48
50.0
370
    -2
100
AcDbLine
 10
7439.896575106974
 20
7481.52372566646
 30
0.0
 11
8424.703743008178
 21
7481.52372566646
 31
0.0
  0
LINE
  5
20149
330
14598
100
AcDbEntity
  8
寸法
 62
     0
 48
50.0
370
    -2
100
AcDbLine
 10
8364.703743008178
 20
8851.52372566646
 30
0.0
 11
8364.703743008178
 21
7481.52372566646
 31
0.0
  0
INSERT
  5
2014A
330
14598
100
AcDbEntity
  8
寸法
 62
     0
 48
50.0
370
    -2
100
AcDbBlockReference
  2
_DOTSMALL
 10
8364.703743008178
 20
8851.52372566646
 30
0.0
 41
100.0
 42
100.0
 43
100.0
 50
90.0
  0
INSERT
  5
2014B
330
14598
100
AcDbEntity
  8
寸法
 62
     0
 48
50.0
370
    -2
100
AcDbBlockReference
  2
_DOTSMALL
 10
8364.703743008178
 20
7481.52372566646
 30
0.0
 41
100.0
 42
100.0
 43
100.0
 50
270.0
  0
MTEXT
  5
2014C
330
14598
100
AcDbEntity
  8
寸法
 62
     7
 48
50.0
100
AcDbMText
 10
8264.703743008176
 20
8148.433763925083
 30
0.0
 40
120.0
 41
0.0
 71
     5
 72
     1
  1
\A1;1370
  7
STYLE1
 11
0.0000000000000001
 21
1.0
 31
0.0
 73
     1
 44
1.0
1001
ACAD
1000
MTEXTBEGIN
1070
    73
1070
     1
1070
    44
1040
1.0
1070
    74
1070
     0
1000
MTEXTEND
  0
POINT
  5
2014D
330
14598
100
AcDbEntity
  8
DEFPOINTS
 62
     0
 48
50.0
100
AcDbPoint
 10
7419.89657510701
 20
8851.52372566646
 30
0.0
  0
POINT
  5
2014E
330
14598
100
AcDbEntity
  8
DEFPOINTS
 62
     0
 48
50.0
100
AcDbPoint
 10
7419.896575106974
 20
7481.52372566646
 30
0.0
  0
POINT
  5
2014F
330
14598
100
AcDbEntity
  8
DEFPOINTS
 62
     0
 48
50.0
100
AcDbPoint
 10
8364.703743008178
 20
7481.52372566646
 30
0.0
  0
ENDBLK
  5
14D79
330
14598
100
AcDbEntity
  8
0
 48
50.0
100
AcDbBlockEnd
  0
BLOCK
  5
1492F
330
145A4
100
AcDbEntity
  8
0
 48
50.0
100
AcDbBlockBegin
  2
*D15
 70
     1
 10
0.0
 20
0.0
 30
0.0
  3
*D15
  1

  0
LINE
  5
2013C
330
145A4
100
AcDbEntity
  8
寸法
 62
     0
 48
50.0
370
    -2
100
AcDbLine
 10
7439.896575106999
 20
8851.52372566646
 30
0.0
 11
8127.322920841409
 21
8851.52372566646
 31
0.0
  0
LINE
  5
2013D
330
145A4
100
AcDbEntity
  8
寸法
 62
     0
 48
50.0
370
    -2
100
AcDbLine
 10
7439.896575106999
 20
8796.523725666464
 30
0.0
 11
8127.322920841409
 21
8796.523725666464
 31
0.0
  0
LINE
  5
2013E
330
145A4
100
AcDbEntity
  8
寸法
 62
     0
 48
50.0
370
    -2
100
AcDbLine
 10
8067.322920841411
 20
8796.523725666464
 30
0.0
 11
8067.322920841411
 21
8696.523725666464
 31
0.0
  0
LINE
  5
2013F
330
145A4
100
AcDbEntity
  8
寸法
 62
     0
 48
50.0
370
    -2
100
AcDbLine
 10
8067.322920841411
 20
8851.52372566646
 30
0.0
 11
8067.322920841411
 21
9268.494288414936
 31
0.0
  0
LINE
  5
20140
330
145A4
100
AcDbEntity
  8
寸法
 62
     0
 48
50.0
370
    -2
100
AcDbLine
 10
8067.322920841411
 20
8796.523725666464
 30
0.0
 11
8067.322920841411
 21
8851.52372566646
 31
0.0
  0
INSERT
  5
20141
330
145A4
100
AcDbEntity
  8
寸法
 62
     0
 48
50.0
370
    -2
100
AcDbBlockReference
  2
_DOTSMALL
 10
8067.322920841411
 20
8796.523725666464
 30
0.0
 41
100.0
 42
100.0
 43
100.0
 50
90.0
  0
INSERT
  5
20142
330
145A4
100
AcDbEntity
  8
寸法
 62
     0
 48
50.0
370
    -2
100
AcDbBlockReference
  2
_DOTSMALL
 10
8067.322920841411
 20
8851.52372566646
 30
0.0
 41
100.0
 42
100.0
 43
100.0
 50
270.0
  0
MTEXT
  5
20143
330
145A4
100
AcDbEntity
  8
寸法
 62
     7
 48
50.0
100
AcDbMText
 10
7967.322920841408
 20
9160.0090070407
 30
0.0
 40
120.0
 41
0.0
 71
     5
 72
     1
  1
\A1;55
  7
STYLE1
 11
0.0000000000000001
 21
1.0
 31
0.0
 73
     1
 44
1.0
1001
ACAD
1000
MTEXTBEGIN
1070
    73
1070
     1
1070
    44
1040
1.0
1070
    74
1070
     0
1000
MTEXTEND
  0
POINT
  5
20144
330
145A4
100
AcDbEntity
  8
DEFPOINTS
 62
     0
 48
50.0
100
AcDbPoint
 10
7419.896575106999
 20
8851.52372566646
 30
0.0
  0
POINT
  5
20145
330
145A4
100
AcDbEntity
  8
DEFPOINTS
 62
     0
 48
50.0
100
AcDbPoint
 10
7419.896575106999
 20
8796.523725666464
 30
0.0
  0
POINT
  5
20146
330
145A4
100
AcDbEntity
  8
DEFPOINTS
 62
     0
 48
50.0
100
AcDbPoint
 10
8067.322920841411
 20
8796.523725666464
 30
0.0
  0
ENDBLK
  5
1493B
330
145A4
100
AcDbEntity
  8
0
 48
50.0
100
AcDbBlockEnd
  0
BLOCK
  5
1496A
330
145BE
100
AcDbEntity
  8
0
 48
50.0
100
AcDbBlockBegin
  2
*D16
 70
     1
 10
0.0
 20
0.0
 30
0.0
  3
*D16
  1

  0
LINE
  5
20131
330
145BE
100
AcDbEntity
  8
寸法
 62
     0
 48
50.0
370
    -2
100
AcDbLine
 10
7439.896575106974
 20
7536.523725666457
 30
0.0
 11
8127.322920841384
 21
7536.523725666457
 31
0.0
  0
LINE
  5
20132
330
145BE
100
AcDbEntity
  8
寸法
 62
     0
 48
50.0
370
    -2
100
AcDbLine
 10
7439.896575106974
 20
7481.52372566646
 30
0.0
 11
8127.322920841384
 21
7481.52372566646
 31
0.0
  0
LINE
  5
20133
330
145BE
100
AcDbEntity
  8
寸法
 62
     0
 48
50.0
370
    -2
100
AcDbLine
 10
8067.322920841386
 20
7536.523725666457
 30
0.0
 11
8067.322920841386
 21
7636.523725666457
 31
0.0
  0
LINE
  5
20134
330
145BE
100
AcDbEntity
  8
寸法
 62
     0
 48
50.0
370
    -2
100
AcDbLine
 10
8067.322920841386
 20
7481.52372566646
 30
0.0
 11
8067.322920841386
 21
6995.176977387359
 31
0.0
  0
LINE
  5
20135
330
145BE
100
AcDbEntity
  8
寸法
 62
     0
 48
50.0
370
    -2
100
AcDbLine
 10
8067.322920841386
 20
7536.523725666457
 30
0.0
 11
8067.322920841386
 21
7481.52372566646
 31
0.0
  0
INSERT
  5
20136
330
145BE
100
AcDbEntity
  8
寸法
 62
     0
 48
50.0
370
    -2
100
AcDbBlockReference
  2
_DOTSMALL
 10
8067.322920841386
 20
7536.523725666457
 30
0.0
 41
100.0
 42
100.0
 43
100.0
 50
270.0
  0
INSERT
  5
20137
330
145BE
100
AcDbEntity
  8
寸法
 62
     0
 48
50.0
370
    -2
100
AcDbBlockReference
  2
_DOTSMALL
 10
8067.322920841386
 20
7481.52372566646
 30
0.0
 41
100.0
 42
100.0
 43
100.0
 50
90.0
  0
MTEXT
  5
20138
330
145BE
100
AcDbEntity
  8
寸法
 62
     7
 48
50.0
100
AcDbMText
 10
7967.322920841382
 20
7103.662258761599
 30
0.0
 40
120.0
 41
0.0
 71
     5
 72
     1
  1
\A1;55
  7
STYLE1
 11
0.0000000000000001
 21
1.0
 31
0.0
 73
     1
 44
1.0
1001
ACAD
1000
MTEXTBEGIN
1070
    73
1070
     1
1070
    44
1040
1.0
1070
    74
1070
     0
1000
MTEXTEND
  0
POINT
  5
20139
330
145BE
100
AcDbEntity
  8
DEFPOINTS
 62
     0
 48
50.0
100
AcDbPoint
 10
7419.896575106974
 20
7536.523725666457
 30
0.0
  0
POINT
  5
2013A
330
145BE
100
AcDbEntity
  8
DEFPOINTS
 62
     0
 48
50.0
100
AcDbPoint
 10
7419.896575106974
 20
7481.52372566646
 30
0.0
  0
POINT
  5
2013B
330
145BE
100
AcDbEntity
  8
DEFPOINTS
 62
     0
 48
50.0
100
AcDbPoint
 10
8067.322920841386
 20
7481.52372566646
 30
0.0
  0
ENDBLK
  5
14976
330
145BE
100
AcDbEntity
  8
0
 48
50.0
100
AcDbBlockEnd
  0
BLOCK
  5
14D4C
330
145CC
100
AcDbEntity
  8
0
 48
50.0
100
AcDbBlockBegin
  2
*D17
 70
     1
 10
0.0
 20
0.0
 30
0.0
  3
*D17
  1

  0
LINE
  5
20128
330
145CC
100
AcDbEntity
  8
寸法
 62
     0
 48
50.0
370
    -2
100
AcDbLine
 10
7439.896575106999
 20
8796.523725666464
 30
0.0
 11
8127.322920841409
 21
8796.523725666464
 31
0.0
  0
LINE
  5
20129
330
145CC
100
AcDbEntity
  8
寸法
 62
     0
 48
50.0
370
    -2
100
AcDbLine
 10
7439.896575106974
 20
7536.523725666457
 30
0.0
 11
8127.322920841409
 21
7536.523725666457
 31
0.0
  0
LINE
  5
2012A
330
145CC
100
AcDbEntity
  8
寸法
 62
     0
 48
50.0
370
    -2
100
AcDbLine
 10
8067.322920841411
 20
8796.523725666464
 30
0.0
 11
8067.322920841411
 21
7536.523725666457
 31
0.0
  0
INSERT
  5
2012B
330
145CC
100
AcDbEntity
  8
寸法
 62
     0
 48
50.0
370
    -2
100
AcDbBlockReference
  2
_DOTSMALL
 10
8067.322920841411
 20
8796.523725666464
 30
0.0
 41
100.0
 42
100.0
 43
100.0
 50
90.0
  0
INSERT
  5
2012C
330
145CC
100
AcDbEntity
  8
寸法
 62
     0
 48
50.0
370
    -2
100
AcDbBlockReference
  2
_DOTSMALL
 10
8067.322920841411
 20
7536.523725666457
 30
0.0
 41
100.0
 42
100.0
 43
100.0
 50
270.0
  0
MTEXT
  5
2012D
330
145CC
100
AcDbEntity
  8
寸法
 62
     7
 48
50.0
100
AcDbMText
 10
7967.311109817787
 20
8134.970335515463
 30
0.0
 40
120.0
 41
0.0
 71
     5
 72
     1
  1
\A1;3X420=1260
  7
STYLE1
 11
0.0000000000000001
 21
1.0
 31
0.0
 73
     1
 44
1.0
1001
ACAD
1000
MTEXTBEGIN
1070
    73
1070
     1
1070
    44
1040
1.0
1070
    74
1070
     0
1000
MTEXTEND
  0
POINT
  5
2012E
330
145CC
100
AcDbEntity
  8
DEFPOINTS
 62
     0
 48
50.0
100
AcDbPoint
 10
7419.896575106999
 20
8796.523725666464
 30
0.0
  0
POINT
  5
2012F
330
145CC
100
AcDbEntity
  8
DEFPOINTS
 62
     0
 48
50.0
100
AcDbPoint
 10
7419.896575106974
 20
7536.523725666457
 30
0.0
  0
POINT
  5
20130
330
145CC
100
AcDbEntity
  8
DEFPOINTS
 62
     0
 48
50.0
100
AcDbPoint
 10
8067.322920841411
 20
7536.523725666457
 30
0.0
  0
ENDBLK
  5
14D56
330
145CC
100
AcDbEntity
  8
0
 48
50.0
100
AcDbBlockEnd
  0
BLOCK
  5
14954
330
145D8
100
AcDbEntity
  8
0
 48
50.0
100
AcDbBlockBegin
  2
*D18
 70
     1
 10
0.0
 20
0.0
 30
0.0
  3
*D18
  1

  0
LINE
  5
2011F
330
145D8
100
AcDbEntity
  8
寸法
 62
     0
 48
50.0
370
    -2
100
AcDbLine
 10
6049.896575107027
 20
7461.52372566639
 30
0.0
 11
6049.896575107027
 21
6602.613828860805
 31
0.0
  0
LINE
  5
20120
330
145D8
100
AcDbEntity
  8
寸法
 62
     0
 48
50.0
370
    -2
100
AcDbLine
 10
7419.896575106974
 20
7461.523725666426
 30
0.0
 11
7419.896575106974
 21
6602.613828860805
 31
0.0
  0
LINE
  5
20121
330
145D8
100
AcDbEntity
  8
寸法
 62
     0
 48
50.0
370
    -2
100
AcDbLine
 10
6049.896575107027
 20
6662.613828860806
 30
0.0
 11
7419.896575106974
 21
6662.613828860806
 31
0.0
  0
INSERT
  5
20122
330
145D8
100
AcDbEntity
  8
寸法
 62
     0
 48
50.0
370
    -2
100
AcDbBlockReference
  2
_DOTSMALL
 10
6049.896575107027
 20
6662.613828860806
 30
0.0
 41
100.0
 42
100.0
 43
100.0
 50
180.0
  0
INSERT
  5
20123
330
145D8
100
AcDbEntity
  8
寸法
 62
     0
 48
50.0
370
    -2
100
AcDbBlockReference
  2
_DOTSMALL
 10
7419.896575106974
 20
6662.613828860806
 30
0.0
 41
100.0
 42
100.0
 43
100.0
  0
MTEXT
  5
20124
330
145D8
100
AcDbEntity
  8
寸法
 62
     7
 48
50.0
100
AcDbMText
 10
6738.461756745383
 20
6762.613828860806
 30
0.0
 40
120.0
 41
0.0
 71
     5
 72
     1
  1
\A1;1370
  7
STYLE1
 73
     1
 44
1.0
1001
ACAD
1000
MTEXTBEGIN
1070
    73
1070
     1
1070
    44
1040
1.0
1070
    74
1070
     0
1000
MTEXTEND
  0
POINT
  5
20125
330
145D8
100
AcDbEntity
  8
DEFPOINTS
 62
     0
 48
50.0
100
AcDbPoint
 10
6049.896575107027
 20
7481.523725666389
 30
0.0
  0
POINT
  5
20126
330
145D8
100
AcDbEntity
  8
DEFPOINTS
 62
     0
 48
50.0
100
AcDbPoint
 10
7419.896575106974
 20
7481.523725666426
 30
0.0
  0
POINT
  5
20127
330
145D8
100
AcDbEntity
  8
DEFPOINTS
 62
     0
 48
50.0
100
AcDbPoint
 10
7419.896575106974
 20
6662.613828860806
 30
0.0
  0
ENDBLK
  5
1495E
330
145D8
100
AcDbEntity
  8
0
 48
50.0
100
AcDbBlockEnd
  0
BLOCK
  5
14D90
330
145E4
100
AcDbEntity
  8
0
 48
50.0
100
AcDbBlockBegin
  2
*D19
 70
     1
 10
0.0
 20
0.0
 30
0.0
  3
*D19
  1

  0
LINE
  5
20116
330
145E4
100
AcDbEntity
  8
寸法
 62
     0
 48
50.0
370
    -2
100
AcDbLine
 10
6795.896575107026
 20
7461.523725666461
 30
0.0
 11
6795.896575107026
 21
6861.964319897971
 31
0.0
  0
LINE
  5
20117
330
145E4
100
AcDbEntity
  8
寸法
 62
     0
 48
50.0
370
    -2
100
AcDbLine
 10
6109.896575107026
 20
7461.523725666386
 30
0.0
 11
6109.896575107026
 21
6861.964319897971
 31
0.0
  0
LINE
  5
20118
330
145E4
100
AcDbEntity
  8
寸法
 62
     0
 48
50.0
370
    -2
100
AcDbLine
 10
6795.896575107026
 20
6921.964319897971
 30
0.0
 11
6109.896575107026
 21
6921.964319897971
 31
0.0
  0
INSERT
  5
20119
330
145E4
100
AcDbEntity
  8
寸法
 62
     0
 48
50.0
370
    -2
100
AcDbBlockReference
  2
_DOTSMALL
 10
6795.896575107026
 20
6921.964319897971
 30
0.0
 41
100.0
 42
100.0
 43
100.0
  0
INSERT
  5
2011A
330
145E4
100
AcDbEntity
  8
寸法
 62
     0
 48
50.0
370
    -2
100
AcDbBlockReference
  2
_DOTSMALL
 10
6109.896575107026
 20
6921.964319897971
 30
0.0
 41
100.0
 42
100.0
 43
100.0
 50
180.0
  0
MTEXT
  5
2011B
330
145E4
100
AcDbEntity
  8
寸法
 62
     7
 48
50.0
100
AcDbMText
 10
6452.896575107025
 20
7121.964319897971
 30
0.0
 40
120.0
 41
0.0
 71
     5
 72
     1
  1
\A1;有効開口部間口\P686
  7
STYLE1
 73
     1
 44
1.0
1001
ACAD
1000
MTEXTBEGIN
1070
    73
1070
     1
1070
    44
1040
1.0
1070
    74
1070
     0
1000
MTEXTEND
  0
POINT
  5
2011C
330
145E4
100
AcDbEntity
  8
DEFPOINTS
 62
     0
 48
50.0
100
AcDbPoint
 10
6795.896575107026
 20
7481.523725666462
 30
0.0
  0
POINT
  5
2011D
330
145E4
100
AcDbEntity
  8
DEFPOINTS
 62
     0
 48
50.0
100
AcDbPoint
 10
6109.896575107026
 20
7481.523725666386
 30
0.0
  0
POINT
  5
2011E
330
145E4
100
AcDbEntity
  8
DEFPOINTS
 62
     0
 48
50.0
100
AcDbPoint
 10
6109.896575107026
 20
6921.964319897971
 30
0.0
  0
ENDBLK
  5
14D9A
330
145E4
100
AcDbEntity
  8
0
 48
50.0
100
AcDbBlockEnd
  0
BLOCK
  5
148D5
330
14608
100
AcDbEntity
  8
0
 48
50.0
100
AcDbBlockBegin
  2
*D20
 70
     1
 10
0.0
 20
0.0
 30
0.0
  3
*D20
  1

  0
LINE
  5
2010B
330
14608
100
AcDbEntity
  8
寸法
 62
     0
 48
50.0
370
    -2
100
AcDbLine
 10
7364.896575107
 20
8871.523725666461
 30
0.0
 11
7364.896575107
 21
9394.44319812498
 31
0.0
  0
LINE
  5
2010C
330
14608
100
AcDbEntity
  8
寸法
 62
     0
 48
50.0
370
    -2
100
AcDbLine
 10
7419.896575106999
 20
8871.523725666461
 30
0.0
 11
7419.896575106999
 21
9394.44319812498
 31
0.0
  0
LINE
  5
2010D
330
14608
100
AcDbEntity
  8
寸法
 62
     0
 48
50.0
370
    -2
100
AcDbLine
 10
7364.896575107
 20
9334.443198124979
 30
0.0
 11
7264.896575106999
 21
9334.443198124979
 31
0.0
  0
LINE
  5
2010E
330
14608
100
AcDbEntity
  8
寸法
 62
     0
 48
50.0
370
    -2
100
AcDbLine
 10
7419.896575106999
 20
9334.443198124979
 30
0.0
 11
7836.867137855477
 21
9334.443198124979
 31
0.0
  0
LINE
  5
2010F
330
14608
100
AcDbEntity
  8
寸法
 62
     0
 48
50.0
370
    -2
100
AcDbLine
 10
7364.896575107
 20
9334.443198124979
 30
0.0
 11
7419.896575106999
 21
9334.443198124979
 31
0.0
  0
INSERT
  5
20110
330
14608
100
AcDbEntity
  8
寸法
 62
     0
 48
50.0
370
    -2
100
AcDbBlockReference
  2
_DOTSMALL
 10
7364.896575107
 20
9334.443198124979
 30
0.0
 41
100.0
 42
100.0
 43
100.0
  0
INSERT
  5
20111
330
14608
100
AcDbEntity
  8
寸法
 62
     0
 48
50.0
370
    -2
100
AcDbBlockReference
  2
_DOTSMALL
 10
7419.896575106999
 20
9334.443198124979
 30
0.0
 41
100.0
 42
100.0
 43
100.0
 50
180.0
  0
MTEXT
  5
20112
330
14608
100
AcDbEntity
  8
寸法
 62
     7
 48
50.0
100
AcDbMText
 10
7728.381856481238
 20
9434.443198124979
 30
0.0
 40
120.0
 41
0.0
 71
     5
 72
     1
  1
\A1;55
  7
STYLE1
 73
     1
 44
1.0
1001
ACAD
1000
MTEXTBEGIN
1070
    73
1070
     1
1070
    44
1040
1.0
1070
    74
1070
     0
1000
MTEXTEND
  0
POINT
  5
20113
330
14608
100
AcDbEntity
  8
DEFPOINTS
 62
     0
 48
50.0
100
AcDbPoint
 10
7364.896575107
 20
8851.52372566646
 30
0.0
  0
POINT
  5
20114
330
14608
100
AcDbEntity
  8
DEFPOINTS
 62
     0
 48
50.0
100
AcDbPoint
 10
7419.896575106999
 20
8851.52372566646
 30
0.0
  0
POINT
  5
20115
330
14608
100
AcDbEntity
  8
DEFPOINTS
 62
     0
 48
50.0
100
AcDbPoint
 10
7419.896575106999
 20
9334.443198124979
 30
0.0
  0
ENDBLK
  5
148E1
330
14608
100
AcDbEntity
  8
0
 48
50.0
100
AcDbBlockEnd
  0
BLOCK
  5
14B64
330
14616
100
AcDbEntity
  8
0
 48
50.0
100
AcDbBlockBegin
  2
*D21
 70
     1
 10
0.0
 20
0.0
 30
0.0
  3
*D21
  1

  0
LINE
  5
20102
330
14616
100
AcDbEntity
  8
寸法
 62
     0
 48
50.0
370
    -2
100
AcDbLine
 10
6104.896575107033
 20
8871.523725666422
 30
0.0
 11
6104.896575107033
 21
9394.44319812498
 31
0.0
  0
LINE
  5
20103
330
14616
100
AcDbEntity
  8
寸法
 62
     0
 48
50.0
370
    -2
100
AcDbLine
 10
7364.896575107
 20
8871.523725666461
 30
0.0
 11
7364.896575107
 21
9394.44319812498
 31
0.0
  0
LINE
  5
20104
330
14616
100
AcDbEntity
  8
寸法
 62
     0
 48
50.0
370
    -2
100
AcDbLine
 10
6104.896575107033
 20
9334.443198124979
 30
0.0
 11
7364.896575107
 21
9334.443198124979
 31
0.0
  0
INSERT
  5
20105
330
14616
100
AcDbEntity
  8
寸法
 62
     0
 48
50.0
370
    -2
100
AcDbBlockReference
  2
_DOTSMALL
 10
6104.896575107033
 20
9334.443198124979
 30
0.0
 41
100.0
 42
100.0
 43
100.0
 50
180.0
  0
INSERT
  5
20106
330
14616
100
AcDbEntity
  8
寸法
 62
     0
 48
50.0
370
    -2
100
AcDbBlockReference
  2
_DOTSMALL
 10
7364.896575107
 20
9334.443198124979
 30
0.0
 41
100.0
 42
100.0
 43
100.0
  0
MTEXT
  5
20107
330
14616
100
AcDbEntity
  8
寸法
 62
     7
 48
50.0
100
AcDbMText
 10
6741.542682472122
 20
9434.455009148601
 30
0.0
 40
120.0
 41
0.0
 71
     5
 72
     1
  1
\A1;3X420=1260
  7
STYLE1
 73
     1
 44
1.0
1001
ACAD
1000
MTEXTBEGIN
1070
    73
1070
     1
1070
    44
1040
1.0
1070
    74
1070
     0
1000
MTEXTEND
  0
POINT
  5
20108
330
14616
100
AcDbEntity
  8
DEFPOINTS
 62
     0
 48
50.0
100
AcDbPoint
 10
6104.896575107033
 20
8851.523725666423
 30
0.0
  0
POINT
  5
20109
330
14616
100
AcDbEntity
  8
DEFPOINTS
 62
     0
 48
50.0
100
AcDbPoint
 10
7364.896575107
 20
8851.52372566646
 30
0.0
  0
POINT
  5
2010A
330
14616
100
AcDbEntity
  8
DEFPOINTS
 62
     0
 48
50.0
100
AcDbPoint
 10
7364.896575107
 20
9334.443198124979
 30
0.0
  0
ENDBLK
  5
14B6E
330
14616
100
AcDbEntity
  8
0
 48
50.0
100
AcDbBlockEnd
  0
BLOCK
  5
14A72
330
146DC
100
AcDbEntity
  8
0
 48
50.0
100
AcDbBlockBegin
  2
*D22
 70
     1
 10
0.0
 20
0.0
 30
0.0
  3
*D22
  1

  0
LINE
  5
1F882
330
146DC
100
AcDbEntity
  8
寸法
 62
     0
 48
50.0
370
    -2
100
AcDbLine
 10
7419.896575106993
 20
5195.000000000005
 30
0.0
 11
7419.896575106993
 21
5440.72627173191
 31
0.0
  0
LINE
  5
1F883
330
146DC
100
AcDbEntity
  8
寸法
 62
     0
 48
50.0
370
    -2
100
AcDbLine
 10
6049.896575106993
 20
5195.000000000007
 30
0.0
 11
6049.896575106993
 21
5440.72627173191
 31
0.0
  0
LINE
  5
1F884
330
146DC
100
AcDbEntity
  8
寸法
 62
     0
 48
50.0
370
    -2
100
AcDbLine
 10
7419.896575106993
 20
5380.726271731909
 30
0.0
 11
6049.896575106993
 21
5380.726271731909
 31
0.0
  0
INSERT
  5
1F885
330
146DC
100
AcDbEntity
  8
寸法
 62
     0
 48
50.0
370
    -2
100
AcDbBlockReference
  2
_DOTSMALL
 10
7419.896575106993
 20
5380.726271731909
 30
0.0
 41
100.0
 42
100.0
 43
100.0
  0
INSERT
  5
1F886
330
146DC
100
AcDbEntity
  8
寸法
 62
     0
 48
50.0
370
    -2
100
AcDbBlockReference
  2
_DOTSMALL
 10
6049.896575106993
 20
5380.726271731909
 30
0.0
 41
100.0
 42
100.0
 43
100.0
 50
180.0
  0
MTEXT
  5
1F887
330
146DC
100
AcDbEntity
  8
寸法
 62
     7
 48
50.0
100
AcDbMText
 10
6738.489115474847
 20
5480.72627173191
 30
0.0
 40
120.0
 41
0.0
 71
     5
 72
     1
  1
\A1;柱外寸法1370
  7
STYLE1
 73
     1
 44
1.0
1001
ACAD
1000
MTEXTBEGIN
1070
    73
1070
     1
1070
    44
1040
1.0
1070
    74
1070
     0
1000
MTEXTEND
  0
POINT
  5
1F888
330
146DC
100
AcDbEntity
  8
DEFPOINTS
 62
     0
 48
50.0
100
AcDbPoint
 10
7419.896575106993
 20
5175.000000000006
 30
0.0
  0
POINT
  5
1F889
330
146DC
100
AcDbEntity
  8
DEFPOINTS
 62
     0
 48
50.0
100
AcDbPoint
 10
6049.896575106993
 20
5175.000000000006
 30
0.0
  0
POINT
  5
1F88A
330
146DC
100
AcDbEntity
  8
DEFPOINTS
 62
     0
 48
50.0
100
AcDbPoint
 10
6049.896575106993
 20
5380.726271731909
 30
0.0
  0
ENDBLK
  5
14A7C
330
146DC
100
AcDbEntity
  8
0
 48
50.0
100
AcDbBlockEnd
  0
BLOCK
  5
19885
330
19879
100
AcDbEntity
  8
0
 48
50.0
100
AcDbBlockBegin
  2
*D23
 70
     1
 10
0.0
 20
0.0
 30
0.0
  3
*D23
  1

  0
LINE
  5
1D049
330
19879
100
AcDbEntity
  8
寸法
 62
     0
 48
50.0
370
    -2
100
AcDbLine
 10
10725.69395691447
 20
5141.810679611654
 30
0.0
 11
10725.69395691447
 21
5633.657453579304
 31
0.0
  0
LINE
  5
1D04A
330
19879
100
AcDbEntity
  8
寸法
 62
     0
 48
50.0
370
    -2
100
AcDbLine
 10
10805.69395691447
 20
5140.000000000001
 30
0.0
 11
10805.69395691447
 21
5633.657453579304
 31
0.0
  0
LINE
  5
1D04B
330
19879
100
AcDbEntity
  8
寸法
 62
     0
 48
50.0
370
    -2
100
AcDbLine
 10
10725.69395691447
 20
5573.657453579304
 30
0.0
 11
10805.69395691447
 21
5573.657453579304
 31
0.0
  0
LINE
  5
1D04C
330
19879
100
AcDbEntity
  8
寸法
 62
     0
 48
50.0
370
    -2
100
AcDbLine
 10
10805.69395691447
 20
5573.657453579304
 30
0.0
 11
11117.78844510345
 21
5573.657453579304
 31
0.0
  0
INSERT
  5
1D04D
330
19879
100
AcDbEntity
  8
寸法
 62
     0
 48
50.0
370
    -2
100
AcDbBlockReference
  2
_DOTSMALL
 10
10725.69395691447
 20
5573.657453579304
 30
0.0
 41
100.0
 42
100.0
 43
100.0
 50
180.0
  0
INSERT
  5
1D04E
330
19879
100
AcDbEntity
  8
寸法
 62
     0
 48
50.0
370
    -2
100
AcDbBlockReference
  2
_DOTSMALL
 10
10805.69395691447
 20
5573.657453579304
 30
0.0
 41
100.0
 42
100.0
 43
100.0
  0
MTEXT
  5
1D04F
330
19879
100
AcDbEntity
  8
寸法
 62
     7
 48
50.0
100
AcDbMText
 10
11011.74120100896
 20
5673.657453579305
 30
0.0
 40
120.0
 41
0.0
 71
     5
 72
     1
  1
\A1;80
  7
STYLE1
 73
     1
 44
1.0
1001
ACAD
1000
MTEXTBEGIN
1070
    73
1070
     1
1070
    44
1040
1.0
1070
    74
1070
     0
1000
MTEXTEND
  0
POINT
  5
1D050
330
19879
100
AcDbEntity
  8
DEFPOINTS
 62
     0
 48
50.0
100
AcDbPoint
 10
10725.69395691447
 20
5121.810679611654
 30
0.0
  0
POINT
  5
1D051
330
19879
100
AcDbEntity
  8
DEFPOINTS
 62
     0
 48
50.0
100
AcDbPoint
 10
10805.69395691447
 20
5120.0
 30
0.0
  0
POINT
  5
1D052
330
19879
100
AcDbEntity
  8
DEFPOINTS
 62
     0
 48
50.0
100
AcDbPoint
 10
10805.69395691447
 20
5573.657453579304
 30
0.0
  0
ENDBLK
  5
19886
330
19879
100
AcDbEntity
  8
0
 48
50.0
100
AcDbBlockEnd
  0
BLOCK
  5
19A52
330
19A47
100
AcDbEntity
  8
0
 48
50.0
100
AcDbBlockBegin
  2
*D24
 70
     1
 10
0.0
 20
0.0
 30
0.0
  3
*D24
  1

  0
LINE
  5
1C3D6
330
19A47
100
AcDbEntity
  8
寸法
 62
     0
 48
50.0
370
    -2
100
AcDbLine
 10
9291.050761601976
 20
5033.535611473499
 30
0.0
 11
8638.150591307564
 21
5058.186642714234
 31
0.0
  0
LINE
  5
1C3D7
330
19A47
100
AcDbEntity
  8
寸法
 62
     0
 48
50.0
370
    -2
100
AcDbLine
 10
9296.370595753931
 20
5174.435218870382
 30
0.0
 11
8643.470425459517
 21
5199.086250111117
 31
0.0
  0
LINE
  5
1C3D8
330
19A47
100
AcDbEntity
  8
寸法
 62
     0
 48
50.0
370
    -2
100
AcDbLine
 10
8698.107871050918
 20
5055.922883500637
 30
0.0
 11
8703.427705202869
 21
5196.82249089752
 31
0.0
  0
LINE
  5
1C3D9
330
19A47
100
AcDbEntity
  8
寸法
 62
     0
 48
50.0
370
    -2
100
AcDbLine
 10
8703.427705202869
 20
5196.82249089752
 30
0.0
 11
8717.010260484453
 21
5556.566169357646
 31
0.0
  0
INSERT
  5
1C3DA
330
19A47
100
AcDbEntity
  8
寸法
 62
     0
 48
50.0
370
    -2
100
AcDbBlockReference
  2
_DOTSMALL
 10
8698.107871050918
 20
5055.922883500637
 30
0.0
 41
100.0
 42
100.0
 43
100.0
 50
267.8377559870924
  0
INSERT
  5
1C3DB
330
19A47
100
AcDbEntity
  8
寸法
 62
     0
 48
50.0
370
    -2
100
AcDbBlockReference
  2
_DOTSMALL
 10
8703.427705202869
 20
5196.82249089752
 30
0.0
 41
100.0
 42
100.0
 43
100.0
 50
87.83775598709235
  0
MTEXT
  5
1C3DC
330
19A47
100
AcDbEntity
  8
寸法
 62
     7
 48
50.0
100
AcDbMText
 10
8612.176649282734
 20
5430.431661936374
 30
0.0
 40
120.0
 41
0.0
 71
     5
 72
     1
  1
\A1;141
  7
STYLE1
 11
0.0377293202266152
 21
0.9992879957225731
 31
0.0
 73
     1
 44
1.0
1001
ACAD
1000
MTEXTBEGIN
1070
    73
1070
     1
1070
    44
1040
1.0
1070
    74
1070
     0
1000
MTEXTEND
  0
POINT
  5
1C3DD
330
19A47
100
AcDbEntity
  8
DEFPOINTS
 62
     0
 48
50.0
100
AcDbPoint
 10
9311.036521516426
 20
5032.781025068967
 30
0.0
  0
POINT
  5
1C3DE
330
19A47
100
AcDbEntity
  8
DEFPOINTS
 62
     0
 48
50.0
100
AcDbPoint
 10
9316.35635566838
 20
5173.680632465849
 30
0.0
  0
POINT
  5
1C3DF
330
19A47
100
AcDbEntity
  8
DEFPOINTS
 62
     0
 48
50.0
100
AcDbPoint
 10
8703.427705202869
 20
5196.82249089752
 30
0.0
  0
ENDBLK
  5
19A53
330
19A47
100
AcDbEntity
  8
0
 48
50.0
100
AcDbBlockEnd
  0
BLOCK
  5
1D9AB
330
1D9A1
100
AcDbEntity
  8
0
 48
50.0
100
AcDbBlockBegin
  2
*D25
 70
     1
 10
0.0
 20
0.0
 30
0.0
  3
*D25
  1

  0
LINE
  5
1D9AD
330
1D9A1
100
AcDbEntity
  8
寸法
 62
     0
 48
50.0
370
    -2
100
AcDbLine
 10
7519.89657510699
 20
2779.999999999998
 30
0.0
 11
7519.89657510699
 21
2453.952670699622
 31
0.0
  0
LINE
  5
1D9AE
330
1D9A1
100
AcDbEntity
  8
寸法
 62
     0
 48
50.0
370
    -2
100
AcDbLine
 10
7319.896575106993
 20
2779.999999999999
 30
0.0
 11
7319.896575106993
 21
2453.952670699622
 31
0.0
  0
LINE
  5
1D9AF
330
1D9A1
100
AcDbEntity
  8
寸法
 62
     0
 48
50.0
370
    -2
100
AcDbLine
 10
7519.89657510699
 20
2513.952670699622
 30
0.0
 11
7319.896575106993
 21
2513.952670699622
 31
0.0
  0
INSERT
  5
1D9B0
330
1D9A1
100
AcDbEntity
  8
寸法
 62
     0
 48
50.0
370
    -2
100
AcDbBlockReference
  2
_DOTSMALL
 10
7519.89657510699
 20
2513.952670699622
 30
0.0
 41
100.0
 42
100.0
 43
100.0
  0
INSERT
  5
1D9B1
330
1D9A1
100
AcDbEntity
  8
寸法
 62
     0
 48
50.0
370
    -2
100
AcDbBlockReference
  2
_DOTSMALL
 10
7319.896575106993
 20
2513.952670699622
 30
0.0
 41
100.0
 42
100.0
 43
100.0
 50
180.0
  0
MTEXT
  5
1D9B2
330
1D9A1
100
AcDbEntity
  8
寸法
 62
     7
 48
50.0
100
AcDbMText
 10
7419.896575106992
 20
2613.964481723245
 30
0.0
 40
120.0
 41
0.0
 71
     5
 72
     1
  1
\A1;200
  7
STYLE1
 73
     1
 44
1.0
1001
ACAD
1000
MTEXTBEGIN
1070
    73
1070
     1
1070
    44
1040
1.0
1070
    74
1070
     0
1000
MTEXTEND
  0
POINT
  5
1D9B3
330
1D9A1
100
AcDbEntity
  8
DEFPOINTS
 62
     0
 48
50.0
100
AcDbPoint
 10
7519.89657510699
 20
2799.999999999998
 30
0.0
  0
POINT
  5
1D9B4
330
1D9A1
100
AcDbEntity
  8
DEFPOINTS
 62
     0
 48
50.0
100
AcDbPoint
 10
7319.896575106993
 20
2799.999999999999
 30
0.0
  0
POINT
  5
1D9B5
330
1D9A1
100
AcDbEntity
  8
DEFPOINTS
 62
     0
 48
50.0
100
AcDbPoint
 10
7319.896575106993
 20
2513.952670699622
 30
0.0
  0
ENDBLK
  5
1D9AC
330
1D9A1
100
AcDbEntity
  8
0
 48
50.0
100
AcDbBlockEnd
  0
BLOCK
  5
1D9C5
330
1D9BB
100
AcDbEntity
  8
0
 48
50.0
100
AcDbBlockBegin
  2
*D26
 70
     1
 10
0.0
 20
0.0
 30
0.0
  3
*D26
  1

  0
LINE
  5
1D9D3
330
1D9BB
100
AcDbEntity
  8
寸法
 62
     0
 48
50.0
370
    -2
100
AcDbLine
 10
9483.193956914474
 20
2779.999999999998
 30
0.0
 11
9483.193956914474
 21
2453.952670699622
 31
0.0
  0
LINE
  5
1D9D4
330
1D9BB
100
AcDbEntity
  8
寸法
 62
     0
 48
50.0
370
    -2
100
AcDbLine
 10
9283.193956914479
 20
2779.999999999999
 30
0.0
 11
9283.193956914479
 21
2453.952670699622
 31
0.0
  0
LINE
  5
1D9D5
330
1D9BB
100
AcDbEntity
  8
寸法
 62
     0
 48
50.0
370
    -2
100
AcDbLine
 10
9483.193956914474
 20
2513.952670699622
 30
0.0
 11
9283.193956914479
 21
2513.952670699622
 31
0.0
  0
INSERT
  5
1D9D6
330
1D9BB
100
AcDbEntity
  8
寸法
 62
     0
 48
50.0
370
    -2
100
AcDbBlockReference
  2
_DOTSMALL
 10
9483.193956914474
 20
2513.952670699622
 30
0.0
 41
100.0
 42
100.0
 43
100.0
  0
INSERT
  5
1D9D7
330
1D9BB
100
AcDbEntity
  8
寸法
 62
     0
 48
50.0
370
    -2
100
AcDbBlockReference
  2
_DOTSMALL
 10
9283.193956914479
 20
2513.952670699622
 30
0.0
 41
100.0
 42
100.0
 43
100.0
 50
180.0
  0
MTEXT
  5
1D9D8
330
1D9BB
100
AcDbEntity
  8
寸法
 62
     7
 48
50.0
100
AcDbMText
 10
9383.193956914476
 20
2613.964481723244
 30
0.0
 40
120.0
 41
0.0
 71
     5
 72
     1
  1
\A1;200
  7
STYLE1
 73
     1
 44
1.0
1001
ACAD
1000
MTEXTBEGIN
1070
    73
1070
     1
1070
    44
1040
1.0
1070
    74
1070
     0
1000
MTEXTEND
  0
POINT
  5
1D9D9
330
1D9BB
100
AcDbEntity
  8
DEFPOINTS
 62
     0
 48
50.0
100
AcDbPoint
 10
9483.193956914474
 20
2799.999999999998
 30
0.0
  0
POINT
  5
1D9DA
330
1D9BB
100
AcDbEntity
  8
DEFPOINTS
 62
     0
 48
50.0
100
AcDbPoint
 10
9283.193956914479
 20
2799.999999999999
 30
0.0
  0
POINT
  5
1D9DB
330
1D9BB
100
AcDbEntity
  8
DEFPOINTS
 62
     0
 48
50.0
100
AcDbPoint
 10
9283.193956914479
 20
2513.952670699622
 30
0.0
  0
ENDBLK
  5
1D9C6
330
1D9BB
100
AcDbEntity
  8
0
 48
50.0
100
AcDbBlockEnd
  0
BLOCK
  5
1D9D1
330
1D9C7
100
AcDbEntity
  8
0
 48
50.0
100
AcDbBlockBegin
  2
*D27
 70
     1
 10
0.0
 20
0.0
 30
0.0
  3
*D27
  1

  0
LINE
  5
1D9DC
330
1D9C7
100
AcDbEntity
  8
寸法
 62
     0
 48
50.0
370
    -2
100
AcDbLine
 10
9263.193956914477
 20
2799.999999999999
 30
0.0
 11
9073.69395366784
 21
2799.999999999999
 31
0.0
  0
LINE
  5
1D9DD
330
1D9C7
100
AcDbEntity
  8
寸法
 62
     0
 48
50.0
370
    -2
100
AcDbLine
 10
9238.193956914477
 20
3000.0
 30
0.0
 11
9073.69395366784
 21
3000.0
 31
0.0
  0
LINE
  5
1D9DE
330
1D9C7
100
AcDbEntity
  8
寸法
 62
     0
 48
50.0
370
    -2
100
AcDbLine
 10
9133.69395366784
 20
2799.999999999999
 30
0.0
 11
9133.69395366784
 21
3000.0
 31
0.0
  0
INSERT
  5
1D9DF
330
1D9C7
100
AcDbEntity
  8
寸法
 62
     0
 48
50.0
370
    -2
100
AcDbBlockReference
  2
_DOTSMALL
 10
9133.69395366784
 20
2799.999999999999
 30
0.0
 41
100.0
 42
100.0
 43
100.0
 50
270.0
  0
INSERT
  5
1D9E0
330
1D9C7
100
AcDbEntity
  8
寸法
 62
     0
 48
50.0
370
    -2
100
AcDbBlockReference
  2
_DOTSMALL
 10
9133.69395366784
 20
3000.0
 30
0.0
 41
100.0
 42
100.0
 43
100.0
 50
90.0
  0
MTEXT
  5
1D9E1
330
1D9C7
100
AcDbEntity
  8
寸法
 62
     7
 48
50.0
100
AcDbMText
 10
9033.682142644218
 20
2900.000000000001
 30
0.0
 40
120.0
 41
0.0
 71
     5
 72
     1
  1
\A1;200
  7
STYLE1
 11
0.0000000000000001
 21
1.0
 31
0.0
 73
     1
 44
1.0
1001
ACAD
1000
MTEXTBEGIN
1070
    73
1070
     1
1070
    44
1040
1.0
1070
    74
1070
     0
1000
MTEXTEND
  0
POINT
  5
1D9E2
330
1D9C7
100
AcDbEntity
  8
DEFPOINTS
 62
     0
 48
50.0
100
AcDbPoint
 10
9283.193956914479
 20
2799.999999999999
 30
0.0
  0
POINT
  5
1D9E3
330
1D9C7
100
AcDbEntity
  8
DEFPOINTS
 62
     0
 48
50.0
100
AcDbPoint
 10
9258.193956914476
 20
3000.0
 30
0.0
  0
POINT
  5
1D9E4
330
1D9C7
100
AcDbEntity
  8
DEFPOINTS
 62
     0
 48
50.0
100
AcDbPoint
 10
9133.69395366784
 20
3000.0
 30
0.0
  0
ENDBLK
  5
1D9D2
330
1D9C7
100
AcDbEntity
  8
0
 48
50.0
100
AcDbBlockEnd
  0
BLOCK
  5
2008D
330
20083
100
AcDbEntity
  8
0
 48
50.0
100
AcDbBlockBegin
  2
*D28
 70
     1
 10
0.0
 20
0.0
 30
0.0
  3
*D28
  1

  0
LINE
  5
200F9
330
20083
100
AcDbEntity
  8
寸法
 62
     0
 48
50.0
370
    -2
100
AcDbLine
 10
7381.537591258385
 20
8839.023725666482
 30
0.0
 11
7295.768305230298
 21
9159.119058852205
 31
0.0
  0
LINE
  5
200FA
330
20083
100
AcDbEntity
  8
寸法
 62
     0
 48
50.0
370
    -2
100
AcDbLine
 10
6931.537591258386
 20
8839.02372566648
 30
0.0
 11
6845.7683052303
 21
9159.119058852205
 31
0.0
  0
LINE
  5
200FB
330
20083
100
AcDbEntity
  8
寸法
 62
     0
 48
50.0
370
    -2
100
AcDbLine
 10
7311.845256776165
 20
9099.119058852206
 30
0.0
 11
6861.845256776167
 21
9099.119058852206
 31
0.0
  0
INSERT
  5
200FC
330
20083
100
AcDbEntity
  8
寸法
 62
     0
 48
50.0
370
    -2
100
AcDbBlockReference
  2
_DOTSMALL
 10
7311.845256776165
 20
9099.119058852206
 30
0.0
 41
100.0
 42
100.0
 43
100.0
  0
INSERT
  5
200FD
330
20083
100
AcDbEntity
  8
寸法
 62
     0
 48
50.0
370
    -2
100
AcDbBlockReference
  2
_DOTSMALL
 10
6861.845256776167
 20
9099.119058852206
 30
0.0
 41
100.0
 42
100.0
 43
100.0
 50
180.0
  0
MTEXT
  5
200FE
330
20083
100
AcDbEntity
  8
寸法
 62
     7
 48
50.0
100
AcDbMText
 10
7065.332367499021
 20
9199.119058852206
 30
0.0
 40
120.0
 41
0.0
 71
     5
 72
     1
  1
\A1;450
  7
STYLE1
 73
     1
 44
1.0
1001
ACAD
1000
MTEXTBEGIN
1070
    73
1070
     1
1070
    44
1040
1.0
1070
    74
1070
     0
1000
MTEXTEND
  0
POINT
  5
200FF
330
20083
100
AcDbEntity
  8
DEFPOINTS
 62
     0
 48
50.0
100
AcDbPoint
 10
7386.896575107006
 20
8819.023725666482
 30
0.0
  0
POINT
  5
20100
330
20083
100
AcDbEntity
  8
DEFPOINTS
 62
     0
 48
50.0
100
AcDbPoint
 10
6936.896575107008
 20
8819.023725666481
 30
0.0
  0
POINT
  5
20101
330
20083
100
AcDbEntity
  8
DEFPOINTS
 62
     0
 48
50.0
100
AcDbPoint
 10
6861.845256776167
 20
9099.119058852206
 30
0.0
  0
ENDBLK
  5
2008E
330
20083
100
AcDbEntity
  8
0
 48
50.0
100
AcDbBlockEnd
  0
BLOCK
  5
200CD
330
200C3
100
AcDbEntity
  8
0
 48
50.0
100
AcDbBlockBegin
  2
*D29
 70
     1
 10
0.0
 20
0.0
 30
0.0
  3
*D29
  1

  0
LINE
  5
200F0
330
200C3
100
AcDbEntity
  8
寸法
 62
     0
 48
50.0
370
    -2
100
AcDbLine
 10
7406.896575107007
 20
8813.664741817859
 30
0.0
 11
7862.079782507708
 21
8691.698768986633
 31
0.0
  0
LINE
  5
200F1
330
200C3
100
AcDbEntity
  8
寸法
 62
     0
 48
50.0
370
    -2
100
AcDbLine
 10
7406.896575107221
 20
7553.664741817856
 30
0.0
 11
7862.079782507708
 21
7431.698768986688
 31
0.0
  0
LINE
  5
200F2
330
200C3
100
AcDbEntity
  8
寸法
 62
     0
 48
50.0
370
    -2
100
AcDbLine
 10
7802.079782507707
 20
8707.775720532501
 30
0.0
 11
7802.079782507707
 21
7447.775720532554
 31
0.0
  0
INSERT
  5
200F3
330
200C3
100
AcDbEntity
  8
寸法
 62
     0
 48
50.0
370
    -2
100
AcDbBlockReference
  2
_DOTSMALL
 10
7802.079782507707
 20
8707.775720532501
 30
0.0
 41
100.0
 42
100.0
 43
100.0
 50
90.0
  0
INSERT
  5
200F4
330
200C3
100
AcDbEntity
  8
寸法
 62
     0
 48
50.0
370
    -2
100
AcDbBlockReference
  2
_DOTSMALL
 10
7802.079782507707
 20
7447.775720532554
 30
0.0
 41
100.0
 42
100.0
 43
100.0
 50
270.0
  0
MTEXT
  5
200F5
330
200C3
100
AcDbEntity
  8
寸法
 62
     7
 48
50.0
100
AcDbMText
 10
7702.067971484085
 20
8195.03363146309
 30
0.0
 40
120.0
 41
0.0
 71
     5
 72
     1
  1
\A1;1260
  7
STYLE1
 11
0.0000000000000001
 21
1.0
 31
0.0
 73
     1
 44
1.0
1001
ACAD
1000
MTEXTBEGIN
1070
    73
1070
     1
1070
    44
1040
1.0
1070
    74
1070
     0
1000
MTEXTEND
  0
POINT
  5
200F6
330
200C3
100
AcDbEntity
  8
DEFPOINTS
 62
     0
 48
50.0
100
AcDbPoint
 10
7386.896575107006
 20
8819.023725666482
 30
0.0
  0
POINT
  5
200F7
330
200C3
100
AcDbEntity
  8
DEFPOINTS
 62
     0
 48
50.0
100
AcDbPoint
 10
7386.896575107221
 20
7559.023725666479
 30
0.0
  0
POINT
  5
200F8
330
200C3
100
AcDbEntity
  8
DEFPOINTS
 62
     0
 48
50.0
100
AcDbPoint
 10
7802.079782507707
 20
7447.775720532554
 30
0.0
  0
ENDBLK
  5
200CE
330
200C3
100
AcDbEntity
  8
0
 48
50.0
100
AcDbBlockEnd
  0
ENDSEC
  0
SECTION
  2
ENTITIES
  0
LINE
  5
10B57
330
747D
100
AcDbEntity
  8
補助
  6
PHANTOM
 62
   230
 48
50.0
100
AcDbLine
 10
139.9999999999995
 20
11409.6
 30
0.0
 11
16307.2
 21
11409.6
 31
0.0
  0
LINE
  5
10B59
330
747D
100
AcDbEntity
  8
仕様書枠
  6
Continuous
 48
50.0
100
AcDbLine
 10
13107.2
 20
1200.0
 30
0.0
 11
13107.2
 21
-0.0000000000000729
 31
0.0
  0
LINE
  5
10B5C
330
747D
100
AcDbEntity
  8
仕様書枠
 48
50.0
100
AcDbLine
 10
16307.2
 20
1200.0
 30
0.0
 11
16307.2
 21
-0.0000000000000909
 31
0.0
  0
LINE
  5
10B5D
330
747D
100
AcDbEntity
  8
仕様書枠
 48
50.0
100
AcDbLine
 10
140.0
 20
0.0
 30
0.0
 11
16307.2
 21
-0.0000000000000909
 31
0.0
  0
LINE
  5
10B5E
330
747D
100
AcDbEntity
  8
補助
  6
PHANTOM
 62
   230
 48
50.0
100
AcDbLine
 10
16307.2
 20
11409.6
 30
0.0
 11
16307.2
 21
1200.0
 31
0.0
  0
LINE
  5
10B6C
330
747D
100
AcDbEntity
  8
仕様書枠
 48
50.0
100
AcDbLine
 10
13107.2
 20
1200.0
 30
0.0
 11
16307.2
 21
1200.0
 31
0.0
  0
LINE
  5
10B6D
330
747D
100
AcDbEntity
  8
補助
  6
PHANTOM
 62
   230
 48
50.0
100
AcDbLine
 10
13107.2
 20
11409.6
 30
0.0
 11
13107.2
 21
4800.0
 31
0.0
  0
LINE
  5
10B6F
330
747D
100
AcDbEntity
  8
補助
  6
PHANTOM
 62
   230
 48
50.0
100
AcDbLine
 10
13107.2
 20
4800.0
 30
0.0
 11
16307.2
 21
4800.0
 31
0.0
  0
LINE
  5
10B72
330
747D
100
AcDbEntity
  8
文字
 62
     7
 48
50.0
100
AcDbLine
 10
13187.2
 20
400.0
 30
0.0
 11
16227.2
 21
400.0
 31
0.0
  0
TEXT
  5
10B73
330
747D
100
AcDbEntity
  8
文字
 62
     7
 48
50.0
100
AcDbText
 10
13162.9790565769
 20
895.0906074299405
 30
0.0
 40
200.0
  1
外 形 図
  7
STYLE2
100
AcDbText
  0
TEXT
  5
10B74
330
747D
100
AcDbEntity
  8
文字
 62
     7
 48
50.0
100
AcDbText
 10
13201.43669998441
 20
477.2740661031255
 30
0.0
 40
160.0
  1
機種名
  7
STYLE2
100
AcDbText
  0
LINE
  5
10B7B
330
747D
100
AcDbEntity
  8
仕様書枠
 48
50.0
100
AcDbLine
 10
13107.2
 20
800.0
 30
0.0
 11
14251.2
 21
800.0
 31
0.0
  0
LINE
  5
10B88
330
747D
100
AcDbEntity
  8
仕様書枠
  6
Continuous
 48
50.0
100
AcDbLine
 10
14251.2
 20
1200.0
 30
0.0
 11
14251.2
 21
800.0
 31
0.0
  0
LINE
  5
12765
330
747D
100
AcDbEntity
  8
Ｇ．Ｌ
100
AcDbLine
 10
4894.3644776898
 20
3000.0
 30
0.0
 11
11381.78302616891
 21
3000.0
 31
0.0
  0
LINE
  5
12766
330
747D
100
AcDbEntity
  8
部品1
100
AcDbLine
 10
9355.693956914475
 20
4940.0
 30
0.0
 11
10725.69395691448
 21
4940.0
 31
0.0
  0
LINE
  5
12767
330
747D
100
AcDbEntity
  8
部品1
100
AcDbLine
 10
9355.693956914475
 20
3150.0
 30
0.0
 11
10725.69395691448
 21
3150.0
 31
0.0
  0
LINE
  5
12768
330
747D
100
AcDbEntity
  8
部品1
100
AcDbLine
 10
9355.693956914475
 20
3100.0
 30
0.0
 11
9363.193956914475
 21
3100.0
 31
0.0
  0
LINE
  5
12773
330
747D
100
AcDbEntity
  8
部品1
100
AcDbLine
 10
9410.693956914474
 20
4940.0
 30
0.0
 11
9410.693956914474
 21
3150.0
 31
0.0
  0
LINE
  5
12777
330
747D
100
AcDbEntity
  8
部品1
100
AcDbLine
 10
9355.69395691448
 20
5031.576893940442
 30
0.0
 11
9355.693956914475
 21
3000.0
 31
0.0
  0
DIMENSION
  5
12778
330
747D
100
AcDbEntity
  8
寸法
100
AcDbDimension
  2
*D5
 10
8810.78531551722
 20
3162.000000000001
 30
0.0
 11
8710.785315517219
 21
4047.000000000001
 31
0.0
 70
    32
  1
有効開口部高サ<>
 71
     5
 42
1769.999999999999
  3
INABA_S40G
100
AcDbAlignedDimension
 13
9355.693956914475
 23
4932.0
 33
0.0
 14
9355.693956914475
 24
3162.0
 34
0.0
 50
90.0
100
AcDbRotatedDimension
1001
ACAD
1000
DSTYLE
1002
{
1070
   174
1070
     0
1070
   272
1070
     1
1070
   288
1070
     0
1070
   341
1005
0
1002
}
  0
DIMENSION
  5
12779
330
747D
100
AcDbEntity
  8
寸法
100
AcDbDimension
  2
*D4
 10
8511.943827731213
 20
3150.0
 30
0.0
 11
8411.943827731214
 21
4045.000000000001
 31
0.0
 70
    32
 71
     5
 42
1789.999999999999
  3
INABA_S40G
100
AcDbAlignedDimension
 13
9355.693956914475
 23
4940.0
 33
0.0
 14
9355.693956914475
 24
3150.0
 34
0.0
 50
90.0
100
AcDbRotatedDimension
1001
ACAD
1000
DSTYLE
1002
{
1070
   174
1070
     0
1070
   272
1070
     1
1070
   288
1070
     0
1070
   341
1005
0
1002
}
  0
DIMENSION
  5
1277A
330
747D
100
AcDbEntity
  8
寸法
100
AcDbDimension
  2
*D3
 10
8211.943827731214
 20
5175.000000000005
 30
0.0
 11
8111.932016707591
 21
4137.500000000003
 31
0.0
 70
    32
 71
     5
 42
2075.000000000004
  3
INABA_S40G
100
AcDbAlignedDimension
 13
9355.693956914475
 23
3100.0
 33
0.0
 14
9295.693956914476
 24
5175.000000000005
 34
0.0
 50
90.0
100
AcDbRotatedDimension
1001
ACAD
1000
DSTYLE
1002
{
1070
   174
1070
     0
1070
   272
1070
     1
1070
   288
1070
     0
1070
   341
1005
0
1002
}
  0
DIMENSION
  5
1277B
330
747D
100
AcDbEntity
  8
寸法
100
AcDbDimension
  2
*D1
 10
8211.943827731214
 20
3000.0
 30
0.0
 11
8211.943827731214
 21
2763.952755905513
 31
0.0
 70
   160
 71
     5
 42
100.0000000000004
  3
INABA_S40G
100
AcDbAlignedDimension
 13
9300.693956914475
 23
3100.0
 33
0.0
 14
8299.192881019342
 24
3000.0
 34
0.0
 50
90.0
100
AcDbRotatedDimension
1001
ACAD
1000
DSTYLE
1002
{
1070
   174
1070
     0
1070
   272
1070
     1
1070
   288
1070
     0
1070
   341
1005
0
1002
}
  0
DIMENSION
  5
1277C
330
747D
100
AcDbEntity
  8
寸法
100
AcDbDimension
  2
*D2
 10
8511.943827731213
 20
3100.0
 30
0.0
 11
8511.943827731213
 21
2793.952755905514
 31
0.0
 70
   160
 71
     5
 42
50.0
  3
INABA_S40G
100
AcDbAlignedDimension
 13
9355.693956914475
 23
3150.0
 33
0.0
 14
9300.693956914475
 24
3100.0
 34
0.0
 50
90.0
100
AcDbRotatedDimension
1001
ACAD
1000
DSTYLE
1002
{
1070
   174
1070
     0
1070
   272
1070
     1
1070
   288
1070
     0
1070
   341
1005
0
1002
}
  0
LINE
  5
12787
330
747D
100
AcDbEntity
  8
部品1
100
AcDbLine
 10
9830.693956914474
 20
4940.0
 30
0.0
 11
9830.693956914474
 21
3150.0
 31
0.0
  0
LINE
  5
1279B
330
747D
100
AcDbEntity
  8
部品1
100
AcDbLine
 10
10725.69395691447
 20
4994.636580835253
 30
0.0
 11
10725.69395691448
 21
3000.0
 31
0.0
  0
LINE
  5
1279C
330
747D
100
AcDbEntity
  8
部品1
100
AcDbLine
 10
10670.69395691448
 20
4940.0
 30
0.0
 11
10670.69395691448
 21
3150.0
 31
0.0
  0
DIMENSION
  5
127A4
330
747D
100
AcDbEntity
  8
寸法
100
AcDbDimension
  2
*D6
 10
11430.6211148866
 20
5120.0
 30
0.0
 11
11330.60930386298
 21
4110.000000000002
 31
0.0
 70
    32
 71
     5
 42
2020.000000000001
  3
INABA_S40G
100
AcDbAlignedDimension
 13
10725.69395691448
 23
3100.0
 33
0.0
 14
10805.69395691447
 24
5120.0
 34
0.0
 50
90.0
100
AcDbRotatedDimension
1001
ACAD
1000
DSTYLE
1002
{
1070
   174
1070
     0
1070
   272
1070
     1
1070
   288
1070
     0
1070
   341
1005
0
1002
}
  0
TEXT
  5
127AA
330
747D
100
AcDbEntity
  8
部品1
100
AcDbText
 10
5019.545247166586
 20
3013.953728039225
 30
0.0
 40
125.0
  1
▽G.L
  7
STYLE2
100
AcDbText
  0
LINE
  5
1283F
330
747D
100
AcDbEntity
  8
部品1
100
AcDbLine
 10
9555.693956914474
 20
3100.0
 30
0.0
 11
9555.693956914474
 21
3000.0
 31
0.0
  0
LINE
  5
12840
330
747D
100
AcDbEntity
  8
部品1
100
AcDbLine
 10
10525.69395691448
 20
3100.0
 30
0.0
 11
10525.69395691448
 21
3000.0
 31
0.0
  0
DIMENSION
  5
13B51
330
747D
100
AcDbEntity
  8
寸法
 48
50.0
100
AcDbDimension
  2
*D7
 10
9355.693956914477
 20
5573.657453579304
 30
0.0
 11
10005.51298980502
 21
5573.657453579304
 31
0.0
 70
   160
  1
柱外寸法<>
 71
     5
 42
1370.0
  3
INABA_S40G
100
AcDbAlignedDimension
 13
10725.69395691447
 23
5121.810679611654
 33
0.0
 14
9355.693956914477
 24
5171.001618122977
 34
0.0
100
AcDbRotatedDimension
1001
ACAD
1000
DSTYLE
1002
{
1070
   174
1070
     0
1070
   272
1070
     1
1070
   288
1070
     0
1070
   341
1005
0
1002
}
  0
DIMENSION
  5
13B6D
330
747D
100
AcDbEntity
  8
寸法
 48
50.0
100
AcDbDimension
  2
*D8
 10
9295.693956914476
 20
5573.657453579304
 30
0.0
 11
8986.056161638886
 21
5573.657453579304
 31
0.0
 70
   160
 71
     5
 42
60.0
  3
INABA_S40G
100
AcDbAlignedDimension
 13
9355.693956914477
 23
5171.001618122977
 33
0.0
 14
9295.693956914476
 24
5175.000000000005
 34
0.0
100
AcDbRotatedDimension
1001
ACAD
1000
DSTYLE
1002
{
1070
   174
1070
     0
1070
   272
1070
     1
1070
   288
1070
     0
1070
   341
1005
0
1002
}
  0
DIMENSION
  5
13BBF
330
747D
100
AcDbEntity
  8
寸法
 48
50.0
100
AcDbDimension
  2
*D9
 10
9295.693956914476
 20
5781.831774771268
 30
0.0
 11
10022.8187866163
 21
5781.831774771268
 31
0.0
 70
   160
 71
     5
 42
1510.0
  3
INABA_S40G
100
AcDbAlignedDimension
 13
10805.69395691447
 23
5120.0
 33
0.0
 14
9295.693956914476
 24
5175.000000000005
 34
0.0
100
AcDbRotatedDimension
1001
ACAD
1000
DSTYLE
1002
{
1070
   174
1070
     0
1070
   272
1070
     1
1070
   288
1070
     0
1070
   341
1005
0
1002
}
  0
LINE
  5
13BE8
330
747D
100
AcDbEntity
  8
部品1
100
AcDbLine
 10
6049.896575106994
 20
3100.0
 30
0.0
 11
7419.896575106992
 21
3100.0
 31
0.0
  0
LINE
  5
13BE9
330
747D
100
AcDbEntity
  8
部品1
100
AcDbLine
 10
6049.896575106995
 20
4940.0
 30
0.0
 11
7419.896575106992
 21
4940.0
 31
0.0
  0
LINE
  5
13BEF
330
747D
100
AcDbEntity
  8
部品1
100
AcDbLine
 10
6109.896575106993
 20
3149.000000000004
 30
0.0
 11
6560.896575106993
 21
3149.000000000008
 31
0.0
  0
DIMENSION
  5
13BF0
330
747D
100
AcDbEntity
  8
寸法
 48
50.0
100
AcDbDimension
  2
*D10
 10
7469.896575106992
 20
5580.635192946
 30
0.0
 11
6707.969587758532
 21
5580.635192946
 31
0.0
 70
   160
 71
     5
 42
1469.999999999998
  3
INABA_S40G
100
AcDbAlignedDimension
 13
5999.896575106994
 23
5175.000000000006
 33
0.0
 14
7469.896575106992
 24
5175.000000000003
 34
0.0
100
AcDbRotatedDimension
  0
LINE
  5
13C1F
330
747D
100
AcDbEntity
  8
部品1
100
AcDbLine
 10
6049.896575106994
 20
5034.000000000004
 30
0.0
 11
6049.896575106993
 21
3000.0
 31
0.0
  0
LINE
  5
13CFC
330
747D
100
AcDbEntity
  8
部品1
100
AcDbLine
 10
7359.896575106993
 20
4940.0
 30
0.0
 11
7359.896575106993
 21
3142.00000000002
 31
0.0
  0
LINE
  5
13CFE
330
747D
100
AcDbEntity
  8
部品1
100
AcDbLine
 10
6109.896575106993
 20
4940.0
 30
0.0
 11
6109.896575106993
 21
3142.000000000004
 31
0.0
  0
LINE
  5
13D18
330
747D
100
AcDbEntity
  8
部品1
100
AcDbLine
 10
7419.896575106992
 20
5034.000000000004
 30
0.0
 11
7419.896575106992
 21
3000.0
 31
0.0
  0
LINE
  5
13E0C
330
747D
100
AcDbEntity
  8
部品1
100
AcDbLine
 10
7019.896575106992
 20
3100.0
 30
0.0
 11
7019.896575106992
 21
3000.0
 31
0.0
  0
DIMENSION
  5
141C3
330
747D
100
AcDbEntity
  8
寸法
 48
50.0
100
AcDbDimension
  2
*D11
 10
7419.896575106993
 20
5380.726271731909
 30
0.0
 11
7783.381856481231
 21
5380.726271731909
 31
0.0
 70
   160
 71
     5
 42
49.99999999999909
  3
INABA_S40G
100
AcDbAlignedDimension
 13
7469.896575106992
 23
5175.000000000003
 33
0.0
 14
7419.896575106993
 24
5175.000000000006
 34
0.0
100
AcDbRotatedDimension
  0
DIMENSION
  5
14206
330
747D
100
AcDbEntity
  8
寸法
 48
50.0
100
AcDbDimension
  2
*D12
 10
5999.896575106994
 20
5380.726271731909
 30
0.0
 11
5686.411293732748
 21
5380.726271731909
 31
0.0
 70
   160
 71
     5
 42
49.99999999999909
  3
INABA_S40G
100
AcDbAlignedDimension
 13
6049.896575106993
 23
5175.000000000006
 33
0.0
 14
5999.896575106994
 24
5175.000000000006
 34
0.0
100
AcDbRotatedDimension
1001
ACAD
1000
DSTYLE
1002
{
1002
}
  0
LINE
  5
1426B
330
747D
100
AcDbEntity
  8
部品1
 48
50.0
100
AcDbLine
 10
6424.896575106991
 20
3100.0
 30
0.0
 11
6424.896575106991
 21
3000.0
 31
0.0
  0
LINE
  5
1427D
330
747D
100
AcDbEntity
  8
部品1
100
AcDbLine
 10
6560.896575106993
 20
3156.500000000012
 30
0.0
 11
7359.896575106993
 21
3156.500000000021
 31
0.0
  0
LINE
  5
144FC
330
747D
100
AcDbEntity
  8
破線
  6
HIDDEN
 48
5.0
100
AcDbLine
 10
10733.19395691447
 20
2845.0
 30
0.0
 11
10663.19395691447
 21
2845.0
 31
0.0
  0
LINE
  5
144FD
330
747D
100
AcDbEntity
  8
破線
  6
HIDDEN
 48
5.0
100
AcDbLine
 10
10678.19395691447
 20
2995.0
 30
0.0
 11
10663.19395691447
 21
2847.3
 31
0.0
  0
LINE
  5
144FE
330
747D
100
AcDbEntity
  8
破線
  6
HIDDEN
 48
5.0
100
AcDbLine
 10
10663.19395691447
 20
2847.3
 30
0.0
 11
10663.19395691447
 21
2845.0
 31
0.0
  0
LINE
  5
144FF
330
747D
100
AcDbEntity
  8
破線
  6
HIDDEN
 48
5.0
100
AcDbLine
 10
10718.19395691447
 20
2995.0
 30
0.0
 11
10733.19395691447
 21
2847.3
 31
0.0
  0
LINE
  5
14500
330
747D
100
AcDbEntity
  8
破線
  6
HIDDEN
 48
5.0
100
AcDbLine
 10
10733.19395691447
 20
2847.3
 30
0.0
 11
10733.19395691447
 21
2845.0
 31
0.0
  0
LINE
  5
14503
330
747D
100
AcDbEntity
  8
破線
  6
HIDDEN
 48
5.0
100
AcDbLine
 10
9348.193956914473
 20
2845.0
 30
0.0
 11
9418.193956914473
 21
2845.0
 31
0.0
  0
LINE
  5
14504
330
747D
100
AcDbEntity
  8
破線
  6
HIDDEN
 48
5.0
100
AcDbLine
 10
9348.193956914473
 20
2847.3
 30
0.0
 11
9348.193956914473
 21
2845.0
 31
0.0
  0
LINE
  5
14505
330
747D
100
AcDbEntity
  8
破線
  6
HIDDEN
 48
5.0
100
AcDbLine
 10
9418.193956914477
 20
2847.3
 30
0.0
 11
9418.193956914473
 21
2845.0
 31
0.0
  0
LINE
  5
14506
330
747D
100
AcDbEntity
  8
破線
  6
HIDDEN
 48
5.0
100
AcDbLine
 10
9363.193956914477
 20
2995.000000000001
 30
0.0
 11
9348.193956914473
 21
2847.3
 31
0.0
  0
LINE
  5
14507
330
747D
100
AcDbEntity
  8
破線
  6
HIDDEN
 48
5.0
100
AcDbLine
 10
9403.193956914476
 20
2995.0
 30
0.0
 11
9418.193956914477
 21
2847.3
 31
0.0
  0
LINE
  5
14509
330
747D
100
AcDbEntity
  8
部品1
 48
50.0
100
AcDbLine
 10
9363.193956914471
 20
3140.000000000001
 30
0.0
 11
9363.193956914477
 21
3000.0
 31
0.0
  0
LINE
  5
1450A
330
747D
100
AcDbEntity
  8
部品1
 48
50.0
100
AcDbLine
 10
9403.193956914476
 20
3140.0
 30
0.0
 11
9403.193956914472
 21
3000.0
 31
0.0
  0
LINE
  5
1450B
330
747D
100
AcDbEntity
  8
部品1
100
AcDbLine
 10
9368.193956914472
 20
3145.000000000001
 30
0.0
 11
9398.193956914475
 21
3145.0
 31
0.0
  0
ARC
  5
1450C
330
747D
100
AcDbEntity
  8
部品1
 48
50.0
100
AcDbCircle
 10
9368.193956914472
 20
3140.000000000001
 30
0.0
 40
5.0
100
AcDbArc
 50
89.99999999999934
 51
180.0000000000013
  0
ARC
  5
1450D
330
747D
100
AcDbEntity
  8
部品1
 48
50.0
100
AcDbCircle
 10
9398.193956914475
 20
3140.0
 30
0.0
 40
5.0
100
AcDbArc
 50
359.9999999999986
 51
89.99999999999927
  0
LINE
  5
1450E
330
747D
100
AcDbEntity
  8
部品1
 48
50.0
100
AcDbLine
 10
10678.19395691447
 20
3140.0
 30
0.0
 11
10678.19395691447
 21
3000.0
 31
0.0
  0
LINE
  5
1450F
330
747D
100
AcDbEntity
  8
部品1
 48
50.0
100
AcDbLine
 10
10718.19395691447
 20
3140.0
 30
0.0
 11
10718.19395691447
 21
3000.0
 31
0.0
  0
LINE
  5
14510
330
747D
100
AcDbEntity
  8
部品1
100
AcDbLine
 10
10713.19395691447
 20
3145.0
 30
0.0
 11
10683.19395691447
 21
3145.0
 31
0.0
  0
ARC
  5
14511
330
747D
100
AcDbEntity
  8
部品1
 48
50.0
100
AcDbCircle
 10
10683.19395691447
 20
3140.0
 30
0.0
 40
5.0
100
AcDbArc
 50
90.00000000000074
 51
180.0000000000014
  0
ARC
  5
14512
330
747D
100
AcDbEntity
  8
部品1
 48
50.0
100
AcDbCircle
 10
10713.19395691447
 20
3140.0
 30
0.0
 40
5.0
100
AcDbArc
 50
359.9999999999986
 51
90.00000000000063
  0
LINE
  5
14513
330
747D
100
AcDbEntity
  8
破線
  6
HIDDEN
 48
5.0
100
AcDbLine
 10
10678.19395691447
 20
3000.0
 30
0.0
 11
10678.19395691447
 21
2995.0
 31
0.0
  0
LINE
  5
14514
330
747D
100
AcDbEntity
  8
破線
  6
HIDDEN
 48
5.0
100
AcDbLine
 10
10718.19395691447
 20
3000.0
 30
0.0
 11
10718.19395691447
 21
2995.0
 31
0.0
  0
LINE
  5
14515
330
747D
100
AcDbEntity
  8
破線
  6
HIDDEN
 48
5.0
100
AcDbLine
 10
9363.19395691448
 20
3000.0
 30
0.0
 11
9363.19395691448
 21
2995.000000000001
 31
0.0
  0
LINE
  5
14516
330
747D
100
AcDbEntity
  8
破線
  6
HIDDEN
 48
5.0
100
AcDbLine
 10
9403.193956914476
 20
3000.0
 30
0.0
 11
9403.193956914476
 21
2995.0
 31
0.0
  0
LINE
  5
14517
330
747D
100
AcDbEntity
  8
部品1
100
AcDbLine
 10
7424.896575106991
 20
3145.000000000001
 30
0.0
 11
7424.896575106991
 21
3000.0
 31
0.0
  0
LINE
  5
1451B
330
747D
100
AcDbEntity
  8
破線
 48
5.0
100
AcDbLine
 10
7444.896575106992
 20
2845.0
 30
0.0
 11
7424.89657510699
 21
2845.0
 31
0.0
  0
LINE
  5
1451C
330
747D
100
AcDbEntity
  8
部品1
100
AcDbLine
 10
6044.896575106992
 20
3145.000000000002
 30
0.0
 11
6044.896575106993
 21
3000.0
 31
0.0
  0
LINE
  5
1451F
330
747D
100
AcDbEntity
  8
破線
 48
5.0
100
AcDbLine
 10
6024.896575106993
 20
2845.000000000001
 30
0.0
 11
6044.896575106995
 21
2845.000000000001
 31
0.0
  0
DIMENSION
  5
14521
330
747D
100
AcDbEntity
  8
寸法
100
AcDbDimension
  2
*D13
 10
6104.896575107033
 20
9334.443198124979
 30
0.0
 11
5741.41129373276
 21
9334.443198124979
 31
0.0
 70
   160
 71
     5
 42
55.00000000003456
  3
INABA_S40G
100
AcDbAlignedDimension
 13
6049.896575106998
 23
8851.523725666423
 33
0.0
 14
6104.896575107033
 24
8851.523725666423
 34
0.0
100
AcDbRotatedDimension
1001
ACAD
1000
DSTYLE
1002
{
1002
}
  0
LINE
  5
14522
330
747D
100
AcDbEntity
  8
部品1
100
AcDbLine
 10
6104.896575106998
 20
8851.523725666389
 30
0.0
 11
6104.896575107
 21
8823.523725666388
 31
0.0
  0
LINE
  5
14523
330
747D
100
AcDbEntity
  8
部品1
100
AcDbLine
 10
6049.896575106988
 20
8851.523725666387
 30
0.0
 11
6049.896575107027
 21
7481.523725666388
 31
0.0
  0
LINE
  5
14524
330
747D
100
AcDbEntity
  8
部品1
100
AcDbLine
 10
7364.896575107
 20
8851.52372566646
 30
0.0
 11
7364.896575107
 21
8823.52372566646
 31
0.0
  0
LINE
  5
14525
330
747D
100
AcDbEntity
  8
部品1
100
AcDbLine
 10
7364.896575107
 20
8851.52372566648
 30
0.0
 11
7364.896575107
 21
8823.523725666481
 31
0.0
  0
DIMENSION
  5
14526
330
747D
100
AcDbEntity
  8
寸法
100
AcDbDimension
  2
*D14
 10
8364.703743008178
 20
7481.52372566646
 30
0.0
 11
8364.703743008176
 21
8148.433763925083
 31
0.0
 70
   160
 71
     5
 42
1370.0
  3
INABA_S40G
100
AcDbAlignedDimension
 13
7419.89657510701
 23
8851.52372566646
 33
0.0
 14
7419.896575106974
 24
7481.52372566646
 34
0.0
 50
90.0
100
AcDbRotatedDimension
1001
ACAD
1000
DSTYLE
1002
{
1002
}
  0
LINE
  5
14527
330
747D
100
AcDbEntity
  8
部品1
100
AcDbLine
 10
7419.89657510701
 20
8851.523725666462
 30
0.0
 11
7419.896575106974
 21
7481.52372566646
 31
0.0
  0
LINE
  5
14528
330
747D
100
AcDbEntity
  8
部品1
100
AcDbLine
 10
6944.896575106998
 20
8851.52372566648
 30
0.0
 11
6944.896575106998
 21
8823.523725666481
 31
0.0
  0
LINE
  5
1452D
330
747D
100
AcDbEntity
  8
部品1
100
AcDbLine
 10
6104.896575107033
 20
8851.523725666423
 30
0.0
 11
6104.896575107033
 21
8823.523725666422
 31
0.0
  0
DIMENSION
  5
1452E
330
747D
100
AcDbEntity
  8
寸法
100
AcDbDimension
  2
*D15
 10
8067.322920841411
 20
8796.523725666464
 30
0.0
 11
8067.322920841409
 21
9160.0090070407
 31
0.0
 70
   160
 71
     5
 42
54.99999999999636
  3
INABA_S40G
100
AcDbAlignedDimension
 13
7419.896575106999
 23
8851.52372566646
 33
0.0
 14
7419.896575106999
 24
8796.523725666464
 34
0.0
 50
90.0
100
AcDbRotatedDimension
1001
ACAD
1000
DSTYLE
1002
{
1002
}
  0
DIMENSION
  5
14530
330
747D
100
AcDbEntity
  8
寸法
100
AcDbDimension
  2
*D16
 10
8067.322920841386
 20
7481.52372566646
 30
0.0
 11
8067.322920841382
 21
7103.662258761599
 31
0.0
 70
   160
 71
     5
 42
54.99999999999636
  3
INABA_S40G
100
AcDbAlignedDimension
 13
7419.896575106974
 23
7536.523725666457
 33
0.0
 14
7419.896575106974
 24
7481.52372566646
 34
0.0
 50
90.0
100
AcDbRotatedDimension
1001
ACAD
1000
DSTYLE
1002
{
1002
}
  0
DIMENSION
  5
14531
330
747D
100
AcDbEntity
  8
寸法
100
AcDbDimension
  2
*D17
 10
8067.322920841411
 20
7536.523725666457
 30
0.0
 11
8067.322920841409
 21
8134.970335515463
 31
0.0
 70
   160
  1
3X420=<>
 71
     5
 42
1260.000000000007
  3
INABA_S40G
100
AcDbAlignedDimension
 13
7419.896575106999
 23
8796.523725666464
 33
0.0
 14
7419.896575106974
 24
7536.523725666457
 34
0.0
 50
90.0
100
AcDbRotatedDimension
1001
ACAD
1000
DSTYLE
1002
{
1002
}
  0
DIMENSION
  5
14532
330
747D
100
AcDbEntity
  8
寸法
100
AcDbDimension
  2
*D18
 10
7419.896575106974
 20
6662.613828860806
 30
0.0
 11
6738.461756745383
 21
6662.613828860806
 31
0.0
 70
   160
 71
     5
 42
1369.999999999947
  3
INABA_S40G
100
AcDbAlignedDimension
 13
6049.896575107027
 23
7481.523725666389
 33
0.0
 14
7419.896575106974
 24
7481.523725666426
 34
0.0
100
AcDbRotatedDimension
1001
ACAD
1000
DSTYLE
1002
{
1002
}
  0
DIMENSION
  5
14533
330
747D
100
AcDbEntity
  8
寸法
100
AcDbDimension
  2
*D19
 10
6109.896575107026
 20
6921.964319897971
 30
0.0
 11
6452.896575107025
 21
6921.964319897971
 31
0.0
 70
   160
  1
有効開口部間口\P<>
 71
     5
 42
686.0
  3
INABA_S40G
100
AcDbAlignedDimension
 13
6795.896575107026
 23
7481.523725666462
 33
0.0
 14
6109.896575107026
 24
7481.523725666386
 34
0.0
100
AcDbRotatedDimension
1001
ACAD
1000
DSTYLE
1002
{
1002
}
  0
LWPOLYLINE
  5
14534
330
747D
100
AcDbEntity
  8
部品1
100
AcDbPolyline
 90
        4
 70
     1
 43
0.0
 10
6353.161241992796
 20
6546.437707652561
 10
6353.161241992796
 20
6306.545386107028
 10
7116.631908221235
 20
6306.545386107028
 10
7116.631908221235
 20
6546.437707652561
  0
TEXT
  5
14535
330
747D
100
AcDbEntity
  8
部品1
100
AcDbText
 10
6443.080851821834
 20
6353.544178434038
 30
0.0
 40
135.0
  1
平面図
  7
STYLE2
100
AcDbText
  0
LINE
  5
14538
330
747D
100
AcDbEntity
  8
部品1
100
AcDbLine
 10
6936.896575107216
 20
7583.523725666438
 30
0.0
 11
6077.89657510701
 21
7583.523725666388
 31
0.0
  0
LINE
  5
1453A
330
747D
100
AcDbEntity
  8
細線
100
AcDbLine
 10
6966.896575107027
 20
7518.523725666518
 30
0.0
 11
6848.396575107024
 21
7518.523725666518
 31
0.0
  0
LINE
  5
1453B
330
747D
100
AcDbEntity
  8
細線
100
AcDbLine
 10
6951.896575107022
 20
7541.523725666543
 30
0.0
 11
6534.896575107024
 21
7541.523725666578
 31
0.0
  0
LINE
  5
1453C
330
747D
100
AcDbEntity
  8
細線
 48
50.0
100
AcDbLine
 10
7359.896575106974
 20
7497.523725666461
 30
0.0
 11
6560.896575107027
 21
7497.523725666461
 31
0.0
  0
LINE
  5
14544
330
747D
100
AcDbEntity
  8
部品1
100
AcDbLine
 10
7419.896575106974
 20
7481.52372566646
 30
0.0
 11
6049.896575107027
 21
7481.523725666389
 31
0.0
  0
LINE
  5
14546
330
747D
100
AcDbEntity
  8
部品1
100
AcDbLine
 10
6077.896575107008
 20
7536.523725666384
 30
0.0
 11
6077.896575107043
 21
8823.52372566649
 31
0.0
  0
LINE
  5
14547
330
747D
100
AcDbEntity
  8
細線
 48
50.0
100
AcDbLine
 10
6519.896575107023
 20
7531.52372566647
 30
0.0
 11
6109.896575107023
 21
7531.523725666402
 31
0.0
  0
LINE
  5
14548
330
747D
100
AcDbEntity
  8
細線
100
AcDbLine
 10
6560.896575107024
 20
7484.523725666434
 30
0.0
 11
6460.896575107017
 21
7484.52372566642
 31
0.0
  0
LINE
  5
14549
330
747D
100
AcDbEntity
  8
細線
100
AcDbLine
 10
6545.896575107028
 20
7507.523725666496
 30
0.0
 11
6124.896575107023
 21
7507.523725666434
 31
0.0
  0
LINE
  5
1454A
330
747D
100
AcDbEntity
  8
部品1
100
AcDbLine
 10
6100.896575107026
 20
7481.523725666388
 30
0.0
 11
6049.896575107027
 21
7481.523725666388
 31
0.0
  0
LINE
  5
1454B
330
747D
100
AcDbEntity
  8
部品1
100
AcDbLine
 10
6077.896575107008
 20
7536.523725666352
 30
0.0
 11
6049.896575107024
 21
7536.523725666352
 31
0.0
  0
LINE
  5
1454C
330
747D
100
AcDbEntity
  8
部品1
100
AcDbLine
 10
6077.896575107008
 20
7536.523725666386
 30
0.0
 11
6049.896575107024
 21
7536.523725666386
 31
0.0
  0
LINE
  5
1454D
330
747D
100
AcDbEntity
  8
部品1
100
AcDbLine
 10
6077.896575107025
 20
7536.5237256664
 30
0.0
 11
6049.896575107024
 21
7536.5237256664
 31
0.0
  0
LINE
  5
1454E
330
747D
100
AcDbEntity
  8
部品1
100
AcDbLine
 10
6049.896575107024
 20
7536.523725666352
 30
0.0
 11
6049.896575107027
 21
7481.523725666353
 31
0.0
  0
LINE
  5
1454F
330
747D
100
AcDbEntity
  8
部品1
100
AcDbLine
 10
6109.896575107023
 20
7536.523725666349
 30
0.0
 11
6081.896575107023
 21
7536.523725666349
 31
0.0
  0
LINE
  5
14550
330
747D
100
AcDbEntity
  8
部品1
100
AcDbLine
 10
6100.896575107026
 20
7481.523725666351
 30
0.0
 11
6100.896575107025
 21
7488.523725666389
 31
0.0
  0
LINE
  5
14551
330
747D
100
AcDbEntity
  8
部品1
100
AcDbLine
 10
6109.896575107025
 20
7488.523725666386
 30
0.0
 11
6100.896575107025
 21
7488.523725666389
 31
0.0
  0
LINE
  5
14552
330
747D
100
AcDbEntity
  8
部品1
100
AcDbLine
 10
6109.896575107025
 20
7488.523725666386
 30
0.0
 11
6109.896575107023
 21
7536.523725666352
 31
0.0
  0
LINE
  5
14553
330
747D
100
AcDbEntity
  8
細線
100
AcDbLine
 10
6124.896575107023
 20
7514.523725666433
 30
0.0
 11
6124.896575107023
 21
7507.523725666434
 31
0.0
  0
LINE
  5
14554
330
747D
100
AcDbEntity
  8
細線
100
AcDbLine
 10
6124.896575107023
 20
7514.523725666433
 30
0.0
 11
6109.896575107024
 21
7514.523725666433
 31
0.0
  0
LINE
  5
1455F
330
747D
100
AcDbEntity
  8
部品1
100
AcDbLine
 10
6077.896575107008
 20
8376.523725666391
 30
0.0
 11
6049.896575107007
 21
8376.523725666391
 31
0.0
  0
LINE
  5
14560
330
747D
100
AcDbEntity
  8
部品1
100
AcDbLine
 10
6077.896575107001
 20
8796.523725666395
 30
0.0
 11
6049.896575107
 21
8796.523725666395
 31
0.0
  0
LINE
  5
14562
330
747D
100
AcDbEntity
  8
部品1
100
AcDbLine
 10
7391.89657510701
 20
8823.52372566646
 30
0.0
 11
7391.896575106976
 21
7536.523725666457
 31
0.0
  0
LINE
  5
14563
330
747D
100
AcDbEntity
  8
細線
100
AcDbLine
 10
7357.896575106973
 20
7554.523725666458
 30
0.0
 11
7264.396575107041
 21
7554.523725666462
 31
0.0
  0
LINE
  5
14564
330
747D
100
AcDbEntity
  8
細線
 48
50.0
100
AcDbLine
 10
7359.896575106974
 20
7531.523725666464
 30
0.0
 11
6966.896575107032
 21
7531.523725666464
 31
0.0
  0
LINE
  5
14565
330
747D
100
AcDbEntity
  8
細線
100
AcDbLine
 10
6936.896575107216
 20
7582.523725666459
 30
0.0
 11
6925.896575107028
 21
7582.523725666459
 31
0.0
  0
LINE
  5
14566
330
747D
100
AcDbEntity
  8
細線
100
AcDbLine
 10
6945.896575107028
 20
7546.523725666517
 30
0.0
 11
6945.896575107028
 21
7554.523725666517
 31
0.0
  0
LINE
  5
14567
330
747D
100
AcDbEntity
  8
細線
100
AcDbLine
 10
6945.896575107028
 20
7546.523725666517
 30
0.0
 11
6925.896575107028
 21
7546.523725666517
 31
0.0
  0
LINE
  5
14568
330
747D
100
AcDbEntity
  8
細線
100
AcDbLine
 10
6925.896575107028
 20
7546.523725666517
 30
0.0
 11
6925.896575107028
 21
7582.523725666513
 31
0.0
  0
LINE
  5
14569
330
747D
100
AcDbEntity
  8
細線
100
AcDbLine
 10
6966.896575107027
 20
7518.523725666518
 30
0.0
 11
6966.896575107035
 21
7548.523725666516
 31
0.0
  0
LINE
  5
1456A
330
747D
100
AcDbEntity
  8
部品1
100
AcDbLine
 10
7419.896575106974
 20
7481.52372566646
 30
0.0
 11
7368.896575106974
 21
7481.52372566646
 31
0.0
  0
LINE
  5
1456B
330
747D
100
AcDbEntity
  8
部品1
100
AcDbLine
 10
7419.896575106974
 20
7536.523725666457
 30
0.0
 11
7419.896575106974
 21
7481.52372566646
 31
0.0
  0
LINE
  5
1456C
330
747D
100
AcDbEntity
  8
部品1
100
AcDbLine
 10
7391.896575106976
 20
7536.523725666457
 30
0.0
 11
7419.896575106974
 21
7536.523725666457
 31
0.0
  0
LINE
  5
1456E
330
747D
100
AcDbEntity
  8
部品1
100
AcDbLine
 10
7359.896575106974
 20
7536.523725666457
 30
0.0
 11
7391.896575106976
 21
7536.523725666457
 31
0.0
  0
LINE
  5
1456F
330
747D
100
AcDbEntity
  8
細線
100
AcDbLine
 10
7357.896575106973
 20
7536.523725666457
 30
0.0
 11
7357.896575106973
 21
7554.523725666456
 31
0.0
  0
LINE
  5
14570
330
747D
100
AcDbEntity
  8
部品1
100
AcDbLine
 10
7368.896575106974
 20
7481.523725666459
 30
0.0
 11
7368.896575106974
 21
7488.52372566646
 31
0.0
  0
LINE
  5
14571
330
747D
100
AcDbEntity
  8
部品1
100
AcDbLine
 10
7368.896575106974
 20
7488.52372566646
 30
0.0
 11
7359.896575106974
 21
7488.52372566646
 31
0.0
  0
LINE
  5
14572
330
747D
100
AcDbEntity
  8
部品1
100
AcDbLine
 10
7359.896575106974
 20
7488.52372566646
 30
0.0
 11
7359.896575106974
 21
7536.523725666457
 31
0.0
  0
LINE
  5
14573
330
747D
100
AcDbEntity
  8
部品1
100
AcDbLine
 10
7391.896575107006
 20
7536.523725666473
 30
0.0
 11
7419.896575107006
 21
7536.523725666473
 31
0.0
  0
LINE
  5
14579
330
747D
100
AcDbEntity
  8
部品1
100
AcDbLine
 10
6077.896575107043
 20
8823.52372566649
 30
0.0
 11
7391.896575106999
 21
8823.52372566646
 31
0.0
  0
LINE
  5
14585
330
747D
100
AcDbEntity
  8
部品1
100
AcDbLine
 10
7391.896575106999
 20
8376.523725666464
 30
0.0
 11
7419.896575106999
 21
8376.523725666464
 31
0.0
  0
LINE
  5
14586
330
747D
100
AcDbEntity
  8
部品1
100
AcDbLine
 10
7391.896575106999
 20
8796.523725666464
 30
0.0
 11
7419.896575106999
 21
8796.523725666464
 31
0.0
  0
DIMENSION
  5
14587
330
747D
100
AcDbEntity
  8
寸法
100
AcDbDimension
  2
*D20
 10
7419.896575106999
 20
9334.443198124979
 30
0.0
 11
7728.381856481238
 21
9334.443198124979
 31
0.0
 70
   160
 71
     5
 42
55.0
  3
INABA_S40G
100
AcDbAlignedDimension
 13
7364.896575107
 23
8851.52372566646
 33
0.0
 14
7419.896575106999
 24
8851.52372566646
 34
0.0
100
AcDbRotatedDimension
1001
ACAD
1000
DSTYLE
1002
{
1002
}
  0
LINE
  5
14588
330
747D
100
AcDbEntity
  8
部品1
100
AcDbLine
 10
6049.896575106988
 20
8851.523725666387
 30
0.0
 11
7419.896575106999
 21
8851.52372566646
 31
0.0
  0
DIMENSION
  5
14589
330
747D
100
AcDbEntity
  8
寸法
100
AcDbDimension
  2
*D21
 10
7364.896575107
 20
9334.443198124979
 30
0.0
 11
6741.542682472122
 21
9334.443198124979
 31
0.0
 70
   160
  1
3X420=<>
 71
     5
 42
1259.999999999966
  3
INABA_S40G
100
AcDbAlignedDimension
 13
6104.896575107033
 23
8851.523725666423
 33
0.0
 14
7364.896575107
 24
8851.52372566646
 34
0.0
100
AcDbRotatedDimension
1001
ACAD
1000
DSTYLE
1002
{
1002
}
  0
LINE
  5
146B0
330
747D
100
AcDbEntity
  8
部品1
100
AcDbLine
 10
10718.19395691447
 20
3100.0
 30
0.0
 11
10725.69395691448
 21
3100.0
 31
0.0
  0
LINE
  5
146B1
330
747D
100
AcDbEntity
  8
部品1
100
AcDbLine
 10
9403.193956914476
 20
3100.0
 30
0.0
 11
10678.19395691447
 21
3100.0
 31
0.0
  0
LINE
  5
146B2
330
747D
100
AcDbEntity
  8
破線
 48
5.0
100
AcDbLine
 10
7424.896575106991
 20
3000.0
 30
0.0
 11
7424.896575106991
 21
2845.0
 31
0.0
  0
LINE
  5
146B3
330
747D
100
AcDbEntity
  8
破線
 48
5.0
100
AcDbLine
 10
6044.896575106993
 20
3000.0
 30
0.0
 11
6044.896575106992
 21
2845.000000000001
 31
0.0
  0
DIMENSION
  5
146E8
330
747D
100
AcDbEntity
  8
寸法
 48
50.0
100
AcDbDimension
  2
*D22
 10
6049.896575106993
 20
5380.726271731909
 30
0.0
 11
6738.489115474847
 21
5380.726271731909
 31
0.0
 70
   160
  1
柱外寸法<>
 71
     5
 42
1370.0
  3
INABA_S40G
100
AcDbAlignedDimension
 13
7419.896575106993
 23
5175.000000000006
 33
0.0
 14
6049.896575106993
 24
5175.000000000006
 34
0.0
100
AcDbRotatedDimension
  0
LINE
  5
1483A
330
747D
100
AcDbEntity
  8
寸法
 48
50.0
100
AcDbLine
 10
6483.133173206915
 20
7411.851323279968
 30
0.0
 11
6702.285113382639
 21
7411.851323279968
 31
0.0
  0
LINE
  5
1483B
330
747D
100
AcDbEntity
  8
寸法
 48
50.0
100
AcDbLine
 10
6702.285113382639
 20
7411.851323279968
 30
0.0
 11
6613.000894787217
 21
7435.774957549455
 31
0.0
  0
LINE
  5
1483C
330
747D
100
AcDbEntity
  8
寸法
 48
50.0
100
AcDbLine
 10
6613.000894787217
 20
7435.774957549455
 30
0.0
 11
6613.000894787217
 21
7382.111322967666
 31
0.0
  0
LINE
  5
1483D
330
747D
100
AcDbEntity
  8
寸法
 48
50.0
100
AcDbLine
 10
6282.429352600257
 20
7378.629366794632
 30
0.0
 11
6333.83536051036
 21
7378.629366794632
 31
0.0
  0
LINE
  5
1483E
330
747D
100
AcDbEntity
  8
寸法
 48
50.0
100
AcDbLine
 10
6333.83536051036
 20
7378.629366794632
 30
0.0
 11
6333.83536051036
 21
7409.939525446798
 31
0.0
  0
LINE
  5
1483F
330
747D
100
AcDbEntity
  8
寸法
 48
50.0
100
AcDbLine
 10
6333.83536051036
 20
7409.939525446798
 30
0.0
 11
6363.596692501784
 21
7409.939525446798
 31
0.0
  0
LINE
  5
14840
330
747D
100
AcDbEntity
  8
寸法
 48
50.0
100
AcDbLine
 10
6363.596692501784
 20
7409.939525446798
 30
0.0
 11
6308.132356555309
 21
7447.51897637541
 31
0.0
  0
LINE
  5
14841
330
747D
100
AcDbEntity
  8
寸法
 48
50.0
100
AcDbLine
 10
6252.668020608833
 20
7409.939525446798
 30
0.0
 11
6308.132356555308
 21
7447.51897637541
 31
0.0
  0
LINE
  5
14842
330
747D
100
AcDbEntity
  8
寸法
 48
50.0
100
AcDbLine
 10
6282.429352600257
 20
7409.939525446798
 30
0.0
 11
6252.668020608833
 21
7409.939525446798
 31
0.0
  0
LINE
  5
14843
330
747D
100
AcDbEntity
  8
寸法
 48
50.0
100
AcDbLine
 10
6282.429352600257
 20
7378.629366794632
 30
0.0
 11
6282.429352600257
 21
7409.939525446798
 31
0.0
  0
LINE
  5
14844
330
747D
100
AcDbEntity
  8
寸法
 48
50.0
100
AcDbLine
 10
6333.83536051036
 20
7378.629366794632
 30
0.0
 11
6282.429352600257
 21
7378.629366794632
 31
0.0
  0
TEXT
  5
149A1
330
747D
100
AcDbEntity
  8
部品1
100
AcDbText
 10
6443.686645730752
 20
2014.21966086888
 30
0.0
 40
135.0
  1
正面図
  7
STYLE2
100
AcDbText
  0
LWPOLYLINE
  5
149A2
330
747D
100
AcDbEntity
  8
部品1
100
AcDbPolyline
 90
        4
 70
     1
 43
0.0
 10
6353.161241992796
 20
2207.113190087403
 10
6353.161241992796
 20
1967.220868541871
 10
7116.631908221235
 20
1967.220868541871
 10
7116.631908221235
 20
2207.113190087403
  0
TEXT
  5
149A3
330
747D
100
AcDbEntity
  8
部品1
100
AcDbText
 10
9758.404725223863
 20
2014.21966086888
 30
0.0
 40
135.0
  1
側面図
  7
STYLE2
100
AcDbText
  0
LWPOLYLINE
  5
149A4
330
747D
100
AcDbEntity
  8
部品1
100
AcDbPolyline
 90
        4
 70
     1
 43
0.0
 10
9668.958623800257
 20
2207.113190087403
 10
9668.958623800257
 20
1967.22086854187
 10
10432.42929002869
 20
1967.22086854187
 10
10432.42929002869
 20
2207.113190087403
  0
LINE
  5
149E3
330
747D
100
AcDbEntity
  8
部品1
100
AcDbLine
 10
6049.896575106994
 20
3142.000000000008
 30
0.0
 11
7419.896575106992
 21
3142.00000000002
 31
0.0
  0
LINE
  5
14A32
330
747D
100
AcDbEntity
  8
細線
100
AcDbLine
 10
6966.896575107027
 20
7548.523725666517
 30
0.0
 11
6951.896575107024
 21
7548.523725666512
 31
0.0
  0
LINE
  5
14A33
330
747D
100
AcDbEntity
  8
細線
100
AcDbLine
 10
6951.896575107022
 20
7541.523725666514
 30
0.0
 11
6951.896575107024
 21
7548.523725666512
 31
0.0
  0
LINE
  5
14A58
330
747D
100
AcDbEntity
  8
細線
100
AcDbLine
 10
6951.89657510703
 20
7554.523725666517
 30
0.0
 11
6945.896575107028
 21
7554.523725666517
 31
0.0
  0
LINE
  5
14AA3
330
747D
100
AcDbEntity
  8
細線
 48
50.0
100
AcDbLine
 10
7357.896575106973
 20
7536.523725666457
 30
0.0
 11
7359.896575106974
 21
7536.523725666457
 31
0.0
  0
LINE
  5
14C0C
330
747D
100
AcDbEntity
  8
部品1
100
AcDbLine
 10
6936.896575107211
 20
7612.023725666438
 30
0.0
 11
6106.396575107023
 21
7612.023725666389
 31
0.0
  0
LINE
  5
14C0E
330
747D
100
AcDbEntity
  8
破線
 48
10.0
100
AcDbLine
 10
6936.896575107207
 20
7635.523725666438
 30
0.0
 11
6129.896575107022
 21
7635.523725666391
 31
0.0
  0
LINE
  5
14C31
330
747D
100
AcDbEntity
  8
部品1
100
AcDbLine
 10
6106.396575106977
 20
8795.023725666487
 30
0.0
 11
6106.396575107023
 21
7612.023725666389
 31
0.0
  0
LINE
  5
14C32
330
747D
100
AcDbEntity
  8
破線
 48
10.0
100
AcDbLine
 10
6129.896575106973
 20
8771.523725666488
 30
0.0
 11
6129.896575106994
 21
8229.023725666358
 31
0.0
  0
LINE
  5
14C33
330
747D
100
AcDbEntity
  8
部品1
 48
50.0
100
AcDbLine
 10
6106.396575107023
 20
7612.023725666519
 30
0.0
 11
6077.896575107025
 21
7583.523725666521
 31
0.0
  0
LINE
  5
14C5B
330
747D
100
AcDbEntity
  8
細線
100
AcDbLine
 10
6109.896575107025
 20
7488.523725666386
 30
0.0
 11
6109.896575107025
 21
7484.523725666434
 31
0.0
  0
LINE
  5
14D86
330
747D
100
AcDbEntity
  8
細線
100
AcDbLine
 10
6109.896575106993
 20
4932.000000000003
 30
0.0
 11
7359.896575106993
 21
4932.000000000001
 31
0.0
  0
LINE
  5
15A0F
330
747D
100
AcDbEntity
  8
仕様書枠
 48
50.0
100
AcDbLine
 10
16307.19999999999
 20
11409.6
 30
0.0
 11
13127.2
 21
11409.6
 31
0.0
  0
TEXT
  5
15A76
330
747D
100
AcDbEntity
  8
文字
 62
     7
 48
50.0
100
AcDbText
 10
14491.96323844892
 20
483.8967129911411
 30
0.0
 40
160.0
  1
ＮＸＮ－２０ＣＳ
  7
STYLE2
100
AcDbText
  0
LINE
  5
15A9A
330
747D
100
AcDbEntity
  8
細線
 48
50.0
100
AcDbLine
 10
9908.193956914475
 20
4940.0
 30
0.0
 11
9908.193956914475
 21
3150.0
 31
0.0
  0
LINE
  5
15A9B
330
747D
100
AcDbEntity
  8
細線
 48
50.0
100
AcDbLine
 10
9893.193956914474
 20
4940.0
 30
0.0
 11
9893.193956914474
 21
3150.0
 31
0.0
  0
LINE
  5
15A9C
330
747D
100
AcDbEntity
  8
細線
 48
50.0
100
AcDbLine
 10
10033.19395691447
 20
4940.0
 30
0.0
 11
10033.19395691447
 21
3150.0
 31
0.0
  0
LINE
  5
15A9D
330
747D
100
AcDbEntity
  8
細線
 48
50.0
100
AcDbLine
 10
10048.19395691447
 20
4940.0
 30
0.0
 11
10048.19395691447
 21
3150.0
 31
0.0
  0
LINE
  5
15A9E
330
747D
100
AcDbEntity
  8
細線
 48
50.0
100
AcDbLine
 10
10188.19395691447
 20
4940.0
 30
0.0
 11
10188.19395691447
 21
3150.0
 31
0.0
  0
LINE
  5
15A9F
330
747D
100
AcDbEntity
  8
細線
 48
50.0
100
AcDbLine
 10
10173.19395691447
 20
4940.0
 30
0.0
 11
10173.19395691447
 21
3150.0
 31
0.0
  0
LINE
  5
15AA0
330
747D
100
AcDbEntity
  8
細線
 48
50.0
100
AcDbLine
 10
9753.193956914474
 20
4940.0
 30
0.0
 11
9753.193956914474
 21
3150.0
 31
0.0
  0
LINE
  5
15AA1
330
747D
100
AcDbEntity
  8
細線
 48
50.0
100
AcDbLine
 10
9768.193956914474
 20
4940.0
 30
0.0
 11
9768.193956914474
 21
3150.0
 31
0.0
  0
LINE
  5
15AA2
330
747D
100
AcDbEntity
  8
細線
 48
50.0
100
AcDbLine
 10
9628.193956914474
 20
4940.0
 30
0.0
 11
9628.193956914474
 21
3150.0
 31
0.0
  0
LINE
  5
15AA3
330
747D
100
AcDbEntity
  8
細線
 48
50.0
100
AcDbLine
 10
9613.193956914475
 20
4940.0
 30
0.0
 11
9613.193956914475
 21
3150.0
 31
0.0
  0
LINE
  5
15AA4
330
747D
100
AcDbEntity
  8
細線
 48
50.0
100
AcDbLine
 10
9473.193956914474
 20
4940.0
 30
0.0
 11
9473.193956914474
 21
3150.0
 31
0.0
  0
LINE
  5
15AA5
330
747D
100
AcDbEntity
  8
細線
 48
50.0
100
AcDbLine
 10
9488.193956914475
 20
4940.0
 30
0.0
 11
9488.193956914475
 21
3150.0
 31
0.0
  0
LINE
  5
18FE5
330
747D
100
AcDbEntity
  8
部品1
100
AcDbLine
 10
9303.238943271436
 20
5173.717735334267
 30
0.0
 11
10798.30583377594
 21
5118.050841327565
 31
0.0
  0
LINE
  5
18FE6
330
747D
100
AcDbEntity
  8
部品1
100
AcDbLine
 10
9311.036521516429
 20
5032.781025068967
 30
0.0
 11
10780.35765745432
 21
4993.162643453187
 31
0.0
  0
LINE
  5
18FE9
330
747D
100
AcDbEntity
  8
細線
 48
50.0
100
AcDbLine
 10
9328.693956914476
 20
5172.399676375405
 30
0.0
 11
9323.404855358965
 21
5032.31404374805
 31
0.0
  0
LINE
  5
18FEA
330
747D
100
AcDbEntity
  8
細線
 48
50.0
100
AcDbLine
 10
10772.69395691447
 20
5119.377022653722
 30
0.0
 11
10767.94627402647
 21
4993.631250162977
 31
0.0
  0
LINE
  5
1982C
330
747D
100
AcDbEntity
  8
部品1
 48
50.0
100
AcDbLine
 10
9295.878242827582
 20
5166.593546164693
 30
0.0
 11
9296.258502605395
 21
5146.666581718282
 31
0.0
  0
LINE
  5
1982D
330
747D
100
AcDbEntity
  8
部品1
 48
50.0
100
AcDbLine
 10
9299.32727471164
 20
5143.091300224809
 30
0.0
 11
9301.031176203006
 21
5053.800803518162
 31
0.0
  0
LINE
  5
1982F
330
747D
100
AcDbEntity
  8
細線
 48
50.0
100
AcDbLine
 10
9296.733380015288
 20
5146.017081841361
 30
0.0
 11
10802.36936476045
 21
5089.802920818959
 31
0.0
  0
LINE
  5
19830
330
747D
100
AcDbEntity
  8
細線
 48
50.0
100
AcDbLine
 10
9301.493855252575
 20
5053.155570143498
 30
0.0
 11
10791.49751968321
 21
5012.75629478743
 31
0.0
  0
LINE
  5
19831
330
747D
100
AcDbEntity
  8
部品1
 48
50.0
100
AcDbLine
 10
9304.099948309247
 20
5050.22552202469
 30
0.0
 11
9304.301900929678
 21
5039.642486631597
 31
0.0
  0
ARC
  5
19832
330
747D
100
AcDbEntity
  8
部品1
 48
50.0
100
AcDbCircle
 10
9302.876968655921
 20
5166.727100572121
 30
0.0
 40
7.0
100
AcDbArc
 50
87.03587545295627
 51
181.093224029279
  0
ARC
  5
19833
330
747D
100
AcDbEntity
  8
部品1
 48
50.0
100
AcDbCircle
 10
9311.300626758017
 20
5039.776041039026
 30
0.0
 40
7.0
100
AcDbArc
 50
181.0932240292862
 51
267.8377559870786
  0
ARC
  5
19835
330
747D
100
AcDbEntity
  8
部品1
100
AcDbCircle
 10
9301.100494382813
 20
5050.168284421507
 30
0.0
 40
3.0
100
AcDbArc
 50
1.093224029286912
 51
80.18775403152167
  0
ARC
  5
19836
330
747D
100
AcDbEntity
  8
部品1
100
AcDbCircle
 10
9296.32782078521
 20
5143.034062621626
 30
0.0
 40
3.0
100
AcDbArc
 50
1.093224029279533
 51
80.18775403159015
  0
ARC
  5
19837
330
747D
100
AcDbEntity
  8
部品1
100
AcDbCircle
 10
9296.95837518823
 20
5146.679937159023
 30
0.0
 40
0.7
100
AcDbArc
 50
181.0932240292223
 51
260.1877540315805
  0
ARC
  5
19838
330
747D
100
AcDbEntity
  8
部品1
100
AcDbCircle
 10
9301.731048785839
 20
5053.814158958903
 30
0.0
 40
0.7
100
AcDbArc
 50
181.0932240292252
 51
260.1877540315805
  0
LINE
  5
1983C
330
747D
100
AcDbEntity
  8
部品1
 48
50.0
100
AcDbLine
 10
10804.90785972517
 20
5110.351195892643
 30
0.0
 11
10802.8772385342
 21
5090.406154634864
 31
0.0
  0
LINE
  5
1983D
330
747D
100
AcDbEntity
  8
部品1
 48
50.0
100
AcDbLine
 10
10799.52467204972
 20
5087.095520561955
 30
0.0
 11
10792.01789278488
 21
5013.362899816943
 31
0.0
  0
LINE
  5
1983E
330
747D
100
AcDbEntity
  8
部品1
 48
50.0
100
AcDbLine
 10
10788.6653263004
 20
5010.052265744031
 30
0.0
 11
10787.58576326066
 21
4999.448648750473
 31
0.0
  0
ARC
  5
1983F
330
747D
100
AcDbEntity
  8
部品1
 48
50.0
100
AcDbCircle
 10
10797.94385916042
 20
5111.060206565419
 30
0.0
 40
7.0
100
AcDbArc
 50
354.1866997665259
 51
87.03587545295638
  0
ARC
  5
19840
330
747D
100
AcDbEntity
  8
部品1
 48
50.0
100
AcDbCircle
 10
10780.6217626959
 20
5000.157659423246
 30
0.0
 40
7.0
100
AcDbArc
 50
267.8377559870788
 51
354.1866997665298
  0
ARC
  5
19841
330
747D
100
AcDbEntity
  8
部品1
100
AcDbCircle
 10
10791.64989797101
 20
5009.748404027128
 30
0.0
 40
3.0
100
AcDbArc
 50
95.09216976421097
 51
174.1866997665351
  0
ARC
  5
19842
330
747D
100
AcDbEntity
  8
部品1
100
AcDbCircle
 10
10802.50924372033
 20
5086.791658845052
 30
0.0
 40
3.0
100
AcDbArc
 50
95.09216976431478
 51
174.1866997665315
  0
ARC
  5
19843
330
747D
100
AcDbEntity
  8
部品1
100
AcDbCircle
 10
10802.18083847773
 20
5090.477055702141
 30
0.0
 40
0.7
100
AcDbArc
 50
275.0921697642604
 51
354.1866997665291
  0
ARC
  5
19844
330
747D
100
AcDbEntity
  8
部品1
100
AcDbCircle
 10
10791.32149272841
 20
5013.433800884218
 30
0.0
 40
0.7
100
AcDbArc
 50
275.0921697642539
 51
354.1866997666923
  0
DIMENSION
  5
19878
330
747D
100
AcDbEntity
  8
寸法
 48
50.0
100
AcDbDimension
  2
*D23
 10
10805.69395691447
 20
5573.657453579304
 30
0.0
 11
11011.74120100896
 21
5573.657453579304
 31
0.0
 70
   160
 71
     5
 42
80.0
  3
INABA_S40G
100
AcDbAlignedDimension
 13
10725.69395691447
 23
5121.810679611654
 33
0.0
 14
10805.69395691447
 24
5120.0
 34
0.0
100
AcDbRotatedDimension
1001
ACAD
1000
DSTYLE
1002
{
1070
   174
1070
     0
1070
   272
1070
     1
1070
   288
1070
     0
1070
   341
1005
0
1002
}
  0
DIMENSION
  5
19A46
330
747D
100
AcDbEntity
  8
寸法
 48
50.0
100
AcDbDimension
  2
*D24
 10
8703.427705202869
 20
5196.82249089752
 30
0.0
 11
8712.105448854991
 21
5426.658729913714
 31
0.0
 70
   160
 71
     5
 42
141.0
  3
INABA_S40G
100
AcDbAlignedDimension
 13
9311.036521516429
 23
5032.781025068967
 33
0.0
 14
9316.356355668384
 24
5173.68063246585
 34
0.0
 50
87.83775598709235
100
AcDbRotatedDimension
1001
ACAD
1000
DSTYLE
1002
{
1070
   174
1070
     0
1070
   272
1070
     1
1070
   288
1070
     0
1070
   341
1005
0
1002
}
  0
LINE
  5
1B03B
330
747D
100
AcDbEntity
  8
部品1
100
AcDbLine
 10
6560.896575106993
 20
4932.0
 30
0.0
 11
6560.896575106993
 21
3149.000000000008
 31
0.0
  0
LINE
  5
1B55D
330
747D
100
AcDbEntity
  8
部品1
100
AcDbLine
 10
6270.896575106991
 20
4932.000000000003
 30
0.0
 11
6270.896575106994
 21
3149.000000000006
 31
0.0
  0
LINE
  5
1B55E
330
747D
100
AcDbEntity
  8
部品1
100
AcDbLine
 10
6220.896575106992
 20
4932.000000000003
 30
0.0
 11
6220.896575106994
 21
3149.000000000005
 31
0.0
  0
LINE
  5
1B560
330
747D
100
AcDbEntity
  8
細線
100
AcDbLine
 10
6262.896575106992
 20
4932.000000000003
 30
0.0
 11
6262.896575106993
 21
3149.000000000006
 31
0.0
  0
LINE
  5
1B561
330
747D
100
AcDbEntity
  8
細線
100
AcDbLine
 10
6228.896575106992
 20
4932.000000000003
 30
0.0
 11
6228.896575106993
 21
3149.000000000005
 31
0.0
  0
LINE
  5
1B594
330
747D
100
AcDbEntity
  8
細線
100
AcDbLine
 10
7256.896575106992
 20
4932.000000000003
 30
0.0
 11
7256.896575106992
 21
3156.500000000022
 31
0.0
  0
LINE
  5
1B595
330
747D
100
AcDbEntity
  8
細線
100
AcDbLine
 10
7186.896575106992
 20
4932.000000000003
 30
0.0
 11
7186.896575106992
 21
3156.500000000022
 31
0.0
  0
LINE
  5
1B596
330
747D
100
AcDbEntity
  8
細線
100
AcDbLine
 10
7116.896575106991
 20
4932.000000000003
 30
0.0
 11
7116.896575106991
 21
3156.500000000022
 31
0.0
  0
LINE
  5
1B597
330
747D
100
AcDbEntity
  8
細線
100
AcDbLine
 10
7046.896575106991
 20
4932.000000000003
 30
0.0
 11
7046.896575106991
 21
3156.500000000022
 31
0.0
  0
LINE
  5
1B9FE
330
747D
100
AcDbEntity
  8
部品1
 48
50.0
100
AcDbLine
 10
6144.896575106993
 20
4105.500000000011
 30
0.0
 11
6197.896575106993
 21
4105.500000000012
 31
0.0
  0
LINE
  5
1BA4E
330
747D
100
AcDbEntity
  8
部品1
 48
50.0
100
AcDbLine
 10
9900.693956914476
 20
5305.86813910128
 30
0.0
 11
10200.69395691447
 21
5305.86813910128
 31
0.0
  0
LINE
  5
1BA4F
330
747D
100
AcDbEntity
  8
部品1
 48
50.0
100
AcDbLine
 10
10200.69395691447
 20
5305.86813910128
 30
0.0
 11
10200.69395691447
 21
5284.26813910128
 31
0.0
  0
TEXT
  5
1BA51
330
747D
100
AcDbEntity
  8
部品1
 48
50.0
100
AcDbText
 10
9888.961792138204
 20
5341.752161253713
 30
0.0
 40
120.0
  1
1000
  7
STYLE1
100
AcDbText
  0
TEXT
  5
1BA52
330
747D
100
AcDbEntity
  8
部品1
 48
50.0
100
AcDbText
 10
10377.78680420234
 20
5204.25090303543
 30
0.0
 40
120.0
  1
71
 50
90.0
  7
STYLE1
100
AcDbText
  0
ARC
  5
1BAB8
330
747D
100
AcDbEntity
  8
部品1
 48
0.01
100
AcDbCircle
 10
6956.896575106992
 20
4972.5
 30
0.0
 40
2.0
100
AcDbArc
 50
180.0
 51
270.0
  0
ARC
  5
1BAB9
330
747D
100
AcDbEntity
  8
部品1
 48
0.01
100
AcDbCircle
 10
6956.896575106992
 20
5004.0
 30
0.0
 40
2.0
100
AcDbArc
 50
90.0
 51
180.0
  0
ARC
  5
1BABA
330
747D
100
AcDbEntity
  8
部品1
 48
0.01
100
AcDbCircle
 10
7132.896575106991
 20
4972.5
 30
0.0
 40
2.0
100
AcDbArc
 50
270.0
 51
0.0
  0
ARC
  5
1BABB
330
747D
100
AcDbEntity
  8
部品1
 48
0.01
100
AcDbCircle
 10
7132.896575106991
 20
5004.0
 30
0.0
 40
2.0
100
AcDbArc
 50
0.0
 51
90.0
  0
LINE
  5
1BABC
330
747D
100
AcDbEntity
  8
細線
100
AcDbLine
 10
7044.896575106993
 20
4976.5
 30
0.0
 11
6970.896575106992
 21
4976.5
 31
0.0
  0
LINE
  5
1BABD
330
747D
100
AcDbEntity
  8
細線
100
AcDbLine
 10
7044.896575106992
 20
4999.500000000001
 30
0.0
 11
7118.896575106991
 21
4999.500000000001
 31
0.0
  0
LINE
  5
1BABE
330
747D
100
AcDbEntity
  8
細線
100
AcDbLine
 10
7118.896575106991
 20
4976.5
 30
0.0
 11
7044.896575106992
 21
4976.5
 31
0.0
  0
LINE
  5
1BABF
330
747D
100
AcDbEntity
  8
細線
100
AcDbLine
 10
6970.896575106992
 20
4999.500000000001
 30
0.0
 11
7044.896575106992
 21
4999.500000000001
 31
0.0
  0
LINE
  5
1BAC0
330
747D
100
AcDbEntity
  8
細線
100
AcDbLine
 10
6970.896575106992
 20
4976.5
 30
0.0
 11
6970.896575106992
 21
4999.500000000001
 31
0.0
  0
LINE
  5
1BAC1
330
747D
100
AcDbEntity
  8
細線
100
AcDbLine
 10
7118.896575106991
 20
4999.500000000001
 30
0.0
 11
7118.896575106991
 21
4976.5
 31
0.0
  0
LINE
  5
1BAC2
330
747D
100
AcDbEntity
  8
部品1
 48
0.01
100
AcDbLine
 10
6954.896575106992
 20
4972.5
 30
0.0
 11
6954.896575106991
 21
5004.0
 31
0.0
  0
LINE
  5
1BAC3
330
747D
100
AcDbEntity
  8
部品1
 48
0.01
100
AcDbLine
 10
7132.896575106991
 20
4970.5
 30
0.0
 11
6956.896575106992
 21
4970.5
 31
0.0
  0
LINE
  5
1BAC4
330
747D
100
AcDbEntity
  8
部品1
 48
0.01
100
AcDbLine
 10
7134.896575106992
 20
5004.0
 30
0.0
 11
7134.896575106992
 21
4972.5
 31
0.0
  0
LINE
  5
1BAC5
330
747D
100
AcDbEntity
  8
部品1
 48
0.01
100
AcDbLine
 10
6956.896575106992
 20
5006.0
 30
0.0
 11
7132.896575106991
 21
5006.0
 31
0.0
  0
LINE
  5
1BAD3
330
747D
100
AcDbEntity
  8
細線
100
AcDbLine
 10
7118.896575106991
 20
4993.5
 30
0.0
 11
7044.896575106992
 21
4993.5
 31
0.0
  0
LINE
  5
1BAD4
330
747D
100
AcDbEntity
  8
細線
100
AcDbLine
 10
7118.896575106991
 20
4987.5
 30
0.0
 11
7044.896575106992
 21
4987.5
 31
0.0
  0
LINE
  5
1BAD5
330
747D
100
AcDbEntity
  8
細線
100
AcDbLine
 10
7118.896575106993
 20
4981.5
 30
0.0
 11
7044.896575106992
 21
4981.5
 31
0.0
  0
LINE
  5
1BAD7
330
747D
100
AcDbEntity
  8
細線
100
AcDbLine
 10
7118.896575106991
 20
4993.5
 30
0.0
 11
7049.896575106991
 21
4993.5
 31
0.0
  0
LINE
  5
1BAE0
330
747D
100
AcDbEntity
  8
細線
100
AcDbLine
 10
6970.896575106992
 20
4993.5
 30
0.0
 11
7044.896575106992
 21
4993.5
 31
0.0
  0
LINE
  5
1BAE4
330
747D
100
AcDbEntity
  8
細線
100
AcDbLine
 10
6970.896575106992
 20
4981.499999999999
 30
0.0
 11
7044.896575106992
 21
4981.5
 31
0.0
  0
LINE
  5
1BAE5
330
747D
100
AcDbEntity
  8
細線
100
AcDbLine
 10
6970.896575106992
 20
4987.5
 30
0.0
 11
7044.896575106992
 21
4987.5
 31
0.0
  0
LINE
  5
1BDC6
330
747D
100
AcDbEntity
  8
細線
100
AcDbLine
 10
7044.896575106992
 20
4999.500000000001
 30
0.0
 11
7044.896575106993
 21
4976.5
 31
0.0
  0
LINE
  5
1BDD2
330
747D
100
AcDbEntity
  8
細線
100
AcDbLine
 10
6424.896575106993
 20
4999.500000000001
 30
0.0
 11
6424.896575106991
 21
4976.5
 31
0.0
  0
LINE
  5
1BDD3
330
747D
100
AcDbEntity
  8
細線
100
AcDbLine
 10
6498.896575106991
 20
4987.5
 30
0.0
 11
6424.896575106993
 21
4987.5
 31
0.0
  0
LINE
  5
1BDD4
330
747D
100
AcDbEntity
  8
細線
100
AcDbLine
 10
6498.896575106991
 20
4981.499999999999
 30
0.0
 11
6424.896575106993
 21
4981.5
 31
0.0
  0
LINE
  5
1BDD5
330
747D
100
AcDbEntity
  8
細線
100
AcDbLine
 10
6498.896575106991
 20
4993.5
 30
0.0
 11
6424.896575106993
 21
4993.5
 31
0.0
  0
LINE
  5
1BDD6
330
747D
100
AcDbEntity
  8
細線
100
AcDbLine
 10
6350.896575106993
 20
4993.5
 30
0.0
 11
6419.896575106993
 21
4993.5
 31
0.0
  0
LINE
  5
1BDD7
330
747D
100
AcDbEntity
  8
細線
100
AcDbLine
 10
6350.896575106992
 20
4981.5
 30
0.0
 11
6424.896575106993
 21
4981.5
 31
0.0
  0
LINE
  5
1BDD8
330
747D
100
AcDbEntity
  8
細線
100
AcDbLine
 10
6350.896575106993
 20
4987.5
 30
0.0
 11
6424.896575106993
 21
4987.5
 31
0.0
  0
LINE
  5
1BDD9
330
747D
100
AcDbEntity
  8
細線
100
AcDbLine
 10
6350.896575106993
 20
4993.5
 30
0.0
 11
6424.896575106993
 21
4993.5
 31
0.0
  0
LINE
  5
1BDDA
330
747D
100
AcDbEntity
  8
部品1
 48
0.01
100
AcDbLine
 10
6512.896575106992
 20
5006.0
 30
0.0
 11
6336.896575106993
 21
5006.0
 31
0.0
  0
LINE
  5
1BDDB
330
747D
100
AcDbEntity
  8
部品1
 48
0.01
100
AcDbLine
 10
6334.896575106992
 20
5004.0
 30
0.0
 11
6334.896575106992
 21
4972.5
 31
0.0
  0
LINE
  5
1BDDC
330
747D
100
AcDbEntity
  8
部品1
 48
0.01
100
AcDbLine
 10
6336.896575106993
 20
4970.5
 30
0.0
 11
6512.896575106991
 21
4970.5
 31
0.0
  0
LINE
  5
1BDDD
330
747D
100
AcDbEntity
  8
部品1
 48
0.01
100
AcDbLine
 10
6514.896575106992
 20
4972.5
 30
0.0
 11
6514.896575106992
 21
5004.0
 31
0.0
  0
LINE
  5
1BDDE
330
747D
100
AcDbEntity
  8
細線
100
AcDbLine
 10
6350.896575106993
 20
4999.500000000001
 30
0.0
 11
6350.896575106993
 21
4976.5
 31
0.0
  0
LINE
  5
1BDDF
330
747D
100
AcDbEntity
  8
細線
100
AcDbLine
 10
6498.896575106993
 20
4976.5
 30
0.0
 11
6498.896575106993
 21
4999.500000000001
 31
0.0
  0
LINE
  5
1BDE0
330
747D
100
AcDbEntity
  8
細線
100
AcDbLine
 10
6498.896575106993
 20
4999.500000000001
 30
0.0
 11
6424.896575106993
 21
4999.500000000001
 31
0.0
  0
LINE
  5
1BDE1
330
747D
100
AcDbEntity
  8
細線
100
AcDbLine
 10
6350.896575106993
 20
4976.5
 30
0.0
 11
6424.896575106993
 21
4976.5
 31
0.0
  0
LINE
  5
1BDE2
330
747D
100
AcDbEntity
  8
細線
100
AcDbLine
 10
6424.896575106993
 20
4999.500000000001
 30
0.0
 11
6350.896575106993
 21
4999.500000000001
 31
0.0
  0
LINE
  5
1BDE3
330
747D
100
AcDbEntity
  8
細線
100
AcDbLine
 10
6424.896575106991
 20
4976.5
 30
0.0
 11
6498.896575106993
 21
4976.5
 31
0.0
  0
ARC
  5
1BDE4
330
747D
100
AcDbEntity
  8
部品1
 48
0.01
100
AcDbCircle
 10
6336.896575106993
 20
5004.0
 30
0.0
 40
2.0
100
AcDbArc
 50
90.0
 51
180.0
  0
ARC
  5
1BDE5
330
747D
100
AcDbEntity
  8
部品1
 48
0.01
100
AcDbCircle
 10
6336.896575106993
 20
4972.5
 30
0.0
 40
2.0
100
AcDbArc
 50
180.0
 51
270.0
  0
ARC
  5
1BDE6
330
747D
100
AcDbEntity
  8
部品1
 48
0.01
100
AcDbCircle
 10
6512.896575106992
 20
5004.0
 30
0.0
 40
2.0
100
AcDbArc
 50
0.000000000000007
 51
90.0
  0
ARC
  5
1BDE7
330
747D
100
AcDbEntity
  8
部品1
 48
0.01
100
AcDbCircle
 10
6512.896575106991
 20
4972.5
 30
0.0
 40
2.0
100
AcDbArc
 50
270.0
 51
0.000000000000007
  0
LINE
  5
1BDE8
330
747D
100
AcDbEntity
  8
部品1
 48
50.0
100
AcDbLine
 10
7462.48815400056
 20
5175.000000000005
 30
0.0
 11
6007.304996213425
 21
5175.000000000006
 31
0.0
  0
LINE
  5
1BDE9
330
747D
100
AcDbEntity
  8
部品1
 48
50.0
100
AcDbLine
 10
7449.272830539527
 20
5034.000000000006
 30
0.0
 11
6020.520319674457
 21
5034.000000000006
 31
0.0
  0
LINE
  5
1BDEA
330
747D
100
AcDbEntity
  8
細線
 48
50.0
100
AcDbLine
 10
7467.857036885551
 20
5147.000000000005
 30
0.0
 11
6001.936113328437
 21
5147.000000000002
 31
0.0
  0
LINE
  5
1BDEB
330
747D
100
AcDbEntity
  8
細線
 48
50.0
100
AcDbLine
 10
7459.621006360714
 20
5054.800000000003
 30
0.0
 11
6010.172143853265
 21
5054.800000000005
 31
0.0
  0
LINE
  5
1BDEC
330
747D
100
AcDbEntity
  8
部品1
100
AcDbLine
 10
7469.476914091659
 20
5167.603474604764
 30
0.0
 11
7468.343516759313
 21
5147.627346622165
 31
0.0
  0
LINE
  5
1BDEE
330
747D
100
AcDbEntity
  8
細線
 48
50.0
100
AcDbLine
 10
7436.896575106992
 20
5175.000000000005
 30
0.0
 11
7436.896575106992
 21
5034.000000000005
 31
0.0
  0
LINE
  5
1BDEF
330
747D
100
AcDbEntity
  8
細線
 48
50.0
100
AcDbLine
 10
6032.896575106994
 20
5175.000000000005
 30
0.0
 11
6032.896575106994
 21
5034.000000000005
 31
0.0
  0
LINE
  5
1BE41
330
747D
100
AcDbEntity
  8
部品1
100
AcDbLine
 10
7456.906496437736
 20
5051.969939455105
 30
0.0
 11
7456.261590630626
 21
5040.603474604766
 31
0.0
  0
LINE
  5
1BE42
330
747D
100
AcDbEntity
  8
部品1
100
AcDbLine
 10
7465.142526962582
 20
5144.169939455108
 30
0.0
 11
7460.10748623447
 21
5055.427346622163
 31
0.0
  0
ARC
  5
1BE44
330
747D
100
AcDbEntity
  8
部品1
 48
50.0
100
AcDbCircle
 10
7468.137709858766
 20
5144.000000000005
 30
0.0
 40
3.0
100
AcDbArc
 50
97.65812720738011
 51
176.7526572096774
  0
ARC
  5
1BE45
330
747D
100
AcDbEntity
  8
部品1
 48
50.0
100
AcDbCircle
 10
7459.901679333923
 20
5051.800000000003
 30
0.0
 40
3.0
100
AcDbArc
 50
97.6581272073629
 51
176.7526572096767
  0
ARC
  5
1BE46
330
747D
100
AcDbEntity
  8
部品1
 48
50.0
100
AcDbCircle
 10
7459.408610225363
 20
5055.466999161687
 30
0.0
 40
0.7
100
AcDbArc
 50
277.6581272073433
 51
356.7526572097019
  0
ARC
  5
1BE47
330
747D
100
AcDbEntity
  8
部品1
 48
50.0
100
AcDbCircle
 10
7467.644640750204
 20
5147.66699916169
 30
0.0
 40
0.7
100
AcDbArc
 50
277.6581272073433
 51
356.7526572096275
  0
ARC
  5
1BE48
330
747D
100
AcDbEntity
  8
部品1
100
AcDbCircle
 10
7449.272830539527
 20
5041.000000000005
 30
0.0
 40
7.0
100
AcDbArc
 50
270.0
 51
356.7526572096773
  0
ARC
  5
1BE49
330
747D
100
AcDbEntity
  8
部品1
100
AcDbCircle
 10
7462.48815400056
 20
5168.000000000005
 30
0.0
 40
7.0
100
AcDbArc
 50
356.752657209676
 51
89.99999999999998
  0
ARC
  5
1BE4A
330
747D
100
AcDbEntity
  8
部品1
100
AcDbCircle
 10
6007.304996213425
 20
5168.000000000005
 30
0.0
 40
7.0
100
AcDbArc
 50
90.00000000000003
 51
183.247342790324
  0
ARC
  5
1BE4B
330
747D
100
AcDbEntity
  8
部品1
100
AcDbCircle
 10
6020.520319674457
 20
5041.000000000005
 30
0.0
 40
7.0
100
AcDbArc
 50
183.2473427903227
 51
270.0
  0
ARC
  5
1BE4C
330
747D
100
AcDbEntity
  8
部品1
 48
50.0
100
AcDbCircle
 10
6002.14850946378
 20
5147.66699916169
 30
0.0
 40
0.7
100
AcDbArc
 50
183.2473427903725
 51
262.3418727926567
  0
ARC
  5
1BE4D
330
747D
100
AcDbEntity
  8
部品1
 48
50.0
100
AcDbCircle
 10
6010.384539988622
 20
5055.466999161687
 30
0.0
 40
0.7
100
AcDbArc
 50
183.2473427902981
 51
262.3418727926567
  0
ARC
  5
1BE4E
330
747D
100
AcDbEntity
  8
部品1
 48
50.0
100
AcDbCircle
 10
6009.891470880061
 20
5051.800000000003
 30
0.0
 40
3.0
100
AcDbArc
 50
3.247342790323342
 51
82.34187279263712
  0
ARC
  5
1BE4F
330
747D
100
AcDbEntity
  8
部品1
 48
50.0
100
AcDbCircle
 10
6001.655440355218
 20
5144.000000000005
 30
0.0
 40
3.0
100
AcDbArc
 50
3.247342790322579
 51
82.34187279261989
  0
LINE
  5
1BE50
330
747D
100
AcDbEntity
  8
部品1
100
AcDbLine
 10
6004.650623251404
 20
5144.169939455108
 30
0.0
 11
6009.685663979514
 21
5055.427346622163
 31
0.0
  0
LINE
  5
1BE51
330
747D
100
AcDbEntity
  8
部品1
100
AcDbLine
 10
6012.886653776249
 20
5051.969939455105
 30
0.0
 11
6013.531559583359
 21
5040.603474604766
 31
0.0
  0
LINE
  5
1BE52
330
747D
100
AcDbEntity
  8
部品1
100
AcDbLine
 10
6000.316236122326
 20
5167.603474604764
 30
0.0
 11
6001.449633454672
 21
5147.627346622165
 31
0.0
  0
LINE
  5
1C31B
330
747D
100
AcDbEntity
  8
細線
100
AcDbLine
 10
6390.896575107024
 20
7484.523725666474
 30
0.0
 11
6100.884268457974
 21
7484.523725666433
 31
0.0
  0
LINE
  5
1C320
330
747D
100
AcDbEntity
  8
細線
100
AcDbLine
 10
6458.565036816252
 20
7489.523725666446
 30
0.0
 11
6393.228113397777
 21
7489.523725666434
 31
0.0
  0
LINE
  5
1C321
330
747D
100
AcDbEntity
  8
細線
100
AcDbLine
 10
6460.896575107018
 20
7484.52372566646
 30
0.0
 11
6458.56503681625
 21
7489.523725666446
 31
0.0
  0
LINE
  5
1C322
330
747D
100
AcDbEntity
  8
細線
100
AcDbLine
 10
6390.896575107024
 20
7484.523725666479
 30
0.0
 11
6393.228113397792
 21
7489.523725666464
 31
0.0
  0
LINE
  5
1C333
330
747D
100
AcDbEntity
  8
細線
100
AcDbLine
 10
6266.396575107024
 20
7502.523725666458
 30
0.0
 11
6266.396575107024
 21
7484.523725666434
 31
0.0
  0
LINE
  5
1C334
330
747D
100
AcDbEntity
  8
細線
100
AcDbLine
 10
6225.396575107025
 20
7502.523725666453
 30
0.0
 11
6225.396575107025
 21
7484.523725666434
 31
0.0
  0
LINE
  5
1C335
330
747D
100
AcDbEntity
  8
細線
100
AcDbLine
 10
6266.396575107024
 20
7502.523725666458
 30
0.0
 11
6225.396575107025
 21
7502.523725666453
 31
0.0
  0
ARC
  5
1C337
330
747D
100
AcDbEntity
  8
部品1
100
AcDbCircle
 10
6227.940730984301
 20
7484.023725666457
 30
0.0
 40
1.0
100
AcDbArc
 50
270.0
 51
19.47122063447127
  0
LINE
  5
1C339
330
747D
100
AcDbEntity
  8
部品1
 48
0.01
100
AcDbLine
 10
6220.896575107018
 20
7484.523725666457
 30
0.0
 11
6220.896575107018
 21
7483.523725666457
 31
0.0
  0
LINE
  5
1C33C
330
747D
100
AcDbEntity
  8
部品1
 48
0.01
100
AcDbLine
 10
6221.396575107018
 20
7483.023725666457
 30
0.0
 11
6227.940730984301
 21
7483.023725666456
 31
0.0
  0
ARC
  5
1C33D
330
747D
100
AcDbEntity
  8
部品1
 48
0.01
100
AcDbCircle
 10
6221.396575107018
 20
7483.523725666457
 30
0.0
 40
0.5
100
AcDbArc
 50
180.0
 51
270.0
  0
ARC
  5
1C33F
330
747D
100
AcDbEntity
  8
部品1
100
AcDbCircle
 10
6253.396575107018
 20
7493.023725666455
 30
0.0
 40
26.0
100
AcDbArc
 50
180.0
 51
199.4712206344713
  0
ARC
  5
1C341
330
747D
100
AcDbEntity
  8
部品1
 48
0.01
100
AcDbCircle
 10
6229.396575107018
 20
7498.023725666456
 30
0.0
 40
2.0
100
AcDbArc
 50
90.0
 51
180.0
  0
LINE
  5
1C343
330
747D
100
AcDbEntity
  8
部品1
100
AcDbLine
 10
6227.396575107018
 20
7493.023725666455
 30
0.0
 11
6227.396575107018
 21
7498.023725666456
 31
0.0
  0
ARC
  5
1C344
330
747D
100
AcDbEntity
  8
部品1
100
AcDbCircle
 10
6245.896575107018
 20
7508.823725666457
 30
0.0
 40
16.0
100
AcDbArc
 50
218.3930440192126
 51
254.0576313943716
  0
ARC
  5
1C346
330
747D
100
AcDbEntity
  8
部品1
100
AcDbCircle
 10
6231.004966731831
 20
7497.023725666456
 30
0.0
 40
3.0
100
AcDbArc
 50
38.39304401921267
 51
90.0
  0
LINE
  5
1C347
330
747D
100
AcDbEntity
  8
部品1
 48
0.01
100
AcDbLine
 10
6229.396575107018
 20
7500.023725666456
 30
0.0
 11
6231.004966731831
 21
7500.023725666456
 31
0.0
  0
ARC
  5
1C358
330
747D
100
AcDbEntity
  8
部品1
100
AcDbCircle
 10
6245.896575107018
 20
7508.823725666457
 30
0.0
 40
16.0
100
AcDbArc
 50
285.9423686056284
 51
321.6069559807873
  0
LINE
  5
1C35E
330
747D
100
AcDbEntity
  8
部品1
100
AcDbLine
 10
6249.467289321289
 20
7493.323725666456
 30
0.0
 11
6242.325860892746
 21
7493.323725666456
 31
0.0
  0
ARC
  5
1C360
330
747D
100
AcDbEntity
  8
部品1
100
AcDbCircle
 10
6249.467289321289
 20
7496.323725666456
 30
0.0
 40
3.0
100
AcDbArc
 50
270.0
 51
285.9423686056284
  0
ARC
  5
1C362
330
747D
100
AcDbEntity
  8
部品1
100
AcDbCircle
 10
6242.325860892746
 20
7496.323725666456
 30
0.0
 40
3.0
100
AcDbArc
 50
254.0576313943716
 51
270.0
  0
LINE
  5
1C363
330
747D
100
AcDbEntity
  8
部品1
 48
0.01
100
AcDbLine
 10
6262.396575107018
 20
7500.023725666456
 30
0.0
 11
6260.788183482207
 21
7500.023725666456
 31
0.0
  0
ARC
  5
1C366
330
747D
100
AcDbEntity
  8
部品1
100
AcDbCircle
 10
6260.788183482207
 20
7497.023725666456
 30
0.0
 40
3.0
100
AcDbArc
 50
90.0
 51
141.6069559807873
  0
ARC
  5
1C368
330
747D
100
AcDbEntity
  8
部品1
 48
0.01
100
AcDbCircle
 10
6262.396575107018
 20
7498.023725666456
 30
0.0
 40
2.0
100
AcDbArc
 50
0.0
 51
90.0
  0
LINE
  5
1C369
330
747D
100
AcDbEntity
  8
部品1
100
AcDbLine
 10
6264.396575107018
 20
7493.023725666455
 30
0.0
 11
6264.396575107018
 21
7498.023725666456
 31
0.0
  0
ARC
  5
1C36C
330
747D
100
AcDbEntity
  8
部品1
100
AcDbCircle
 10
6238.396575107018
 20
7493.023725666455
 30
0.0
 40
26.0
100
AcDbArc
 50
340.5287793655287
 51
0.0
  0
ARC
  5
1C36D
330
747D
100
AcDbEntity
  8
部品1
100
AcDbCircle
 10
6263.852419229734
 20
7484.023725666457
 30
0.0
 40
1.0
100
AcDbArc
 50
160.5287793655287
 51
270.0
  0
LINE
  5
1C36F
330
747D
100
AcDbEntity
  8
部品1
 48
0.01
100
AcDbLine
 10
6270.396575107018
 20
7483.023725666457
 30
0.0
 11
6263.784069676956
 21
7483.023725666456
 31
0.0
  0
LINE
  5
1C372
330
747D
100
AcDbEntity
  8
部品1
 48
0.01
100
AcDbLine
 10
6270.896575107018
 20
7484.523725666457
 30
0.0
 11
6270.896575107018
 21
7483.523725666457
 31
0.0
  0
LINE
  5
1C373
330
747D
100
AcDbEntity
  8
部品1
 48
0.01
100
AcDbLine
 10
6270.896575107018
 20
7484.523725666457
 30
0.0
 11
6270.896575107018
 21
7483.523725666457
 31
0.0
  0
ARC
  5
1C374
330
747D
100
AcDbEntity
  8
部品1
 48
0.01
100
AcDbCircle
 10
6270.396575107018
 20
7483.523725666457
 30
0.0
 40
0.5
100
AcDbArc
 50
270.0
 51
0.0
  0
LINE
  5
1C389
330
747D
100
AcDbEntity
  8
細線
100
AcDbLine
 10
6638.396575107022
 20
7518.523725666529
 30
0.0
 11
6640.728113397789
 21
7523.523725666514
 31
0.0
  0
LINE
  5
1C38A
330
747D
100
AcDbEntity
  8
細線
100
AcDbLine
 10
6708.396575107016
 20
7518.52372566651
 30
0.0
 11
6706.065036816248
 21
7523.523725666496
 31
0.0
  0
LINE
  5
1C38B
330
747D
100
AcDbEntity
  8
細線
100
AcDbLine
 10
6706.06503681625
 20
7523.523725666496
 30
0.0
 11
6640.728113397776
 21
7523.523725666485
 31
0.0
  0
LINE
  5
1C38C
330
747D
100
AcDbEntity
  8
細線
100
AcDbLine
 10
6778.396575107024
 20
7518.52372566655
 30
0.0
 11
6780.728113397791
 21
7523.523725666535
 31
0.0
  0
LINE
  5
1C38D
330
747D
100
AcDbEntity
  8
細線
100
AcDbLine
 10
6846.065036816252
 20
7523.523725666517
 30
0.0
 11
6780.728113397778
 21
7523.523725666506
 31
0.0
  0
LINE
  5
1C38E
330
747D
100
AcDbEntity
  8
細線
100
AcDbLine
 10
6848.396575107019
 20
7518.523725666532
 30
0.0
 11
6846.06503681625
 21
7523.523725666517
 31
0.0
  0
LINE
  5
1C3A8
330
747D
100
AcDbEntity
  8
細線
100
AcDbLine
 10
7264.396575107034
 20
7554.523725666479
 30
0.0
 11
7262.298190645338
 21
7559.023725666479
 31
0.0
  0
LINE
  5
1C3A9
330
747D
100
AcDbEntity
  8
細線
100
AcDbLine
 10
7194.396575107039
 20
7554.523725666498
 30
0.0
 11
7196.728113397806
 21
7559.523725666483
 31
0.0
  0
LINE
  5
1C3AB
330
747D
100
AcDbEntity
  8
細線
100
AcDbLine
 10
7124.396575107024
 20
7554.523725666489
 30
0.0
 11
7122.298190645331
 21
7559.023725666479
 31
0.0
  0
LINE
  5
1C3AC
330
747D
100
AcDbEntity
  8
細線
100
AcDbLine
 10
7054.396575107029
 20
7554.523725666507
 30
0.0
 11
7056.494959568711
 21
7559.023725666479
 31
0.0
  0
LINE
  5
1C3AE
330
747D
100
AcDbEntity
  8
細線
100
AcDbLine
 10
7194.396575107034
 20
7554.523725666488
 30
0.0
 11
7124.396575107024
 21
7554.523725666489
 31
0.0
  0
LINE
  5
1C3AF
330
747D
100
AcDbEntity
  8
細線
100
AcDbLine
 10
7054.396575107031
 20
7554.523725666514
 30
0.0
 11
6957.89657510703
 21
7554.523725666517
 31
0.0
  0
LINE
  5
1C3B0
330
747D
100
AcDbEntity
  8
細線
100
AcDbLine
 10
6778.396575107008
 20
7518.523725666518
 30
0.0
 11
6708.396575107014
 21
7518.523725666518
 31
0.0
  0
LINE
  5
1C3B2
330
747D
100
AcDbEntity
  8
細線
100
AcDbLine
 10
6638.396575107018
 20
7518.52372566652
 30
0.0
 11
6551.896575107034
 21
7518.523725666522
 31
0.0
  0
LINE
  5
1CF26
330
747D
100
AcDbEntity
  8
部品1
100
AcDbLine
 10
7391.896575106999
 20
7956.523725666464
 30
0.0
 11
7419.896575106999
 21
7956.523725666464
 31
0.0
  0
LINE
  5
1CF27
330
747D
100
AcDbEntity
  8
部品1
100
AcDbLine
 10
6077.896575107008
 20
7956.523725666392
 30
0.0
 11
6049.896575107007
 21
7956.523725666392
 31
0.0
  0
LINE
  5
1D09C
330
747D
100
AcDbEntity
  8
部品1
100
AcDbLine
 10
10250.69395691447
 20
4940.0
 30
0.0
 11
10250.69395691447
 21
3150.0
 31
0.0
  0
LINE
  5
1D09D
330
747D
100
AcDbEntity
  8
細線
 48
50.0
100
AcDbLine
 10
10593.19395691447
 20
4940.0
 30
0.0
 11
10593.19395691447
 21
3150.0
 31
0.0
  0
LINE
  5
1D09E
330
747D
100
AcDbEntity
  8
細線
 48
50.0
100
AcDbLine
 10
10608.19395691448
 20
4940.0
 30
0.0
 11
10608.19395691448
 21
3150.0
 31
0.0
  0
LINE
  5
1D09F
330
747D
100
AcDbEntity
  8
細線
 48
50.0
100
AcDbLine
 10
10468.19395691447
 20
4940.0
 30
0.0
 11
10468.19395691447
 21
3150.0
 31
0.0
  0
LINE
  5
1D0A0
330
747D
100
AcDbEntity
  8
細線
 48
50.0
100
AcDbLine
 10
10453.19395691448
 20
4940.0
 30
0.0
 11
10453.19395691448
 21
3150.0
 31
0.0
  0
LINE
  5
1D0A1
330
747D
100
AcDbEntity
  8
細線
 48
50.0
100
AcDbLine
 10
10313.19395691448
 20
4940.0
 30
0.0
 11
10313.19395691448
 21
3150.0
 31
0.0
  0
LINE
  5
1D0A2
330
747D
100
AcDbEntity
  8
細線
 48
50.0
100
AcDbLine
 10
10328.19395691447
 20
4940.0
 30
0.0
 11
10328.19395691447
 21
3150.0
 31
0.0
  0
LINE
  5
1D0AB
330
747D
100
AcDbEntity
  8
部品1
 48
50.0
100
AcDbLine
 10
9900.693956914476
 20
5305.86813910128
 30
0.0
 11
10200.69395691447
 21
5284.26813910128
 31
0.0
  0
DIMENSION
  5
1D99A
330
747D
100
AcDbEntity
  8
寸法
 48
50.0
100
AcDbDimension
  2
*D25
 10
7319.896575106993
 20
2513.952670699622
 30
0.0
 11
7419.896575106992
 21
2513.952670699622
 31
0.0
 70
   160
 71
     5
 42
199.9999999999982
  3
INABA_S40G
100
AcDbAlignedDimension
 13
7519.89657510699
 23
2799.999999999998
 33
0.0
 14
7319.896575106993
 24
2799.999999999999
 34
0.0
100
AcDbRotatedDimension
  0
LINE
  5
1D99B
330
747D
100
AcDbEntity
  8
破線
 48
5.0
100
AcDbLine
 10
7319.896575106992
 20
3000.0
 30
0.0
 11
7319.896575106993
 21
2799.999999999999
 31
0.0
  0
LINE
  5
1D99C
330
747D
100
AcDbEntity
  8
破線
 48
5.0
100
AcDbLine
 10
7519.896575106992
 20
3000.0
 30
0.0
 11
7519.89657510699
 21
2799.999999999998
 31
0.0
  0
LINE
  5
1D99D
330
747D
100
AcDbEntity
  8
破線
 48
5.0
100
AcDbLine
 10
7519.89657510699
 20
2799.999999999998
 30
0.0
 11
7319.896575106993
 21
2799.999999999999
 31
0.0
  0
LINE
  5
1D99E
330
747D
100
AcDbEntity
  8
破線
 48
5.0
100
AcDbLine
 10
6139.896575106995
 20
3000.000000000001
 30
0.0
 11
6139.896575106994
 21
2800.0
 31
0.0
  0
LINE
  5
1D99F
330
747D
100
AcDbEntity
  8
破線
 48
5.0
100
AcDbLine
 10
6139.896575106994
 20
2800.0
 30
0.0
 11
5939.896575106995
 21
2800.0
 31
0.0
  0
LINE
  5
1D9A0
330
747D
100
AcDbEntity
  8
破線
 48
5.0
100
AcDbLine
 10
5939.896575106994
 20
3000.000000000001
 30
0.0
 11
5939.896575106995
 21
2800.0
 31
0.0
  0
DIMENSION
  5
1D9B6
330
747D
100
AcDbEntity
  8
寸法
 48
50.0
100
AcDbDimension
  2
*D27
 10
9133.69395366784
 20
3000.0
 30
0.0
 11
9133.69395366784
 21
2900.000000000001
 31
0.0
 70
   160
 71
     5
 42
200.0000000000009
  3
INABA_S40G
100
AcDbAlignedDimension
 13
9283.193956914479
 23
2799.999999999999
 33
0.0
 14
9258.193956914476
 24
3000.0
 34
0.0
 50
90.0
100
AcDbRotatedDimension
1001
ACAD
1000
DSTYLE
1002
{
1070
   174
1070
     0
1070
   272
1070
     1
1070
   288
1070
     0
1070
   341
1005
0
1002
}
  0
LINE
  5
1D9B7
330
747D
100
AcDbEntity
  8
破線
 48
5.0
100
AcDbLine
 10
9483.193956914474
 20
2799.999999999998
 30
0.0
 11
9283.193956914479
 21
2799.999999999999
 31
0.0
  0
LINE
  5
1D9B8
330
747D
100
AcDbEntity
  8
破線
 48
5.0
100
AcDbLine
 10
9483.193956914476
 20
3000.0
 30
0.0
 11
9483.193956914474
 21
2799.999999999998
 31
0.0
  0
LINE
  5
1D9B9
330
747D
100
AcDbEntity
  8
破線
 48
5.0
100
AcDbLine
 10
9283.193956914477
 20
3000.0
 30
0.0
 11
9283.193956914479
 21
2799.999999999999
 31
0.0
  0
DIMENSION
  5
1D9BA
330
747D
100
AcDbEntity
  8
寸法
 48
50.0
100
AcDbDimension
  2
*D26
 10
9283.193956914479
 20
2513.952670699622
 30
0.0
 11
9383.193956914476
 21
2513.952670699622
 31
0.0
 70
   160
 71
     5
 42
199.9999999999963
  3
INABA_S40G
100
AcDbAlignedDimension
 13
9483.193956914474
 23
2799.999999999998
 33
0.0
 14
9283.193956914479
 24
2799.999999999999
 34
0.0
100
AcDbRotatedDimension
  0
LINE
  5
1D9E5
330
747D
100
AcDbEntity
  8
破線
 48
5.0
100
AcDbLine
 10
10798.19395691448
 20
3000.0
 30
0.0
 11
10798.19395691448
 21
2799.999999999998
 31
0.0
  0
LINE
  5
1D9E6
330
747D
100
AcDbEntity
  8
破線
 48
5.0
100
AcDbLine
 10
10798.19395691448
 20
2799.999999999998
 30
0.0
 11
10598.19395691448
 21
2799.999999999999
 31
0.0
  0
LINE
  5
1D9E7
330
747D
100
AcDbEntity
  8
破線
 48
5.0
100
AcDbLine
 10
10598.19395691448
 20
3000.0
 30
0.0
 11
10598.19395691448
 21
2799.999999999999
 31
0.0
  0
LINE
  5
1D9E8
330
747D
100
AcDbEntity
  8
細線
100
AcDbLine
 10
6539.896575107007
 20
7514.52372566642
 30
0.0
 11
6539.896575107007
 21
7518.523725666421
 31
0.0
  0
LINE
  5
1D9E9
330
747D
100
AcDbEntity
  8
細線
100
AcDbLine
 10
6539.896575107007
 20
7514.52372566642
 30
0.0
 11
6519.896575107018
 21
7514.52372566642
 31
0.0
  0
LINE
  5
1D9EA
330
747D
100
AcDbEntity
  8
細線
100
AcDbLine
 10
6519.896575107018
 20
7514.52372566642
 30
0.0
 11
6519.896575107027
 21
7548.523725666427
 31
0.0
  0
LINE
  5
1D9EB
330
747D
100
AcDbEntity
  8
細線
100
AcDbLine
 10
6560.896575107024
 20
7484.523725666434
 30
0.0
 11
6560.896575107033
 21
7514.523725666435
 31
0.0
  0
LINE
  5
1D9EC
330
747D
100
AcDbEntity
  8
細線
100
AcDbLine
 10
6560.896575107031
 20
7514.523725666435
 30
0.0
 11
6545.896575107029
 21
7514.52372566643
 31
0.0
  0
LINE
  5
1D9ED
330
747D
100
AcDbEntity
  8
細線
100
AcDbLine
 10
6545.896575107028
 20
7507.52372566643
 30
0.0
 11
6545.896575107029
 21
7514.52372566643
 31
0.0
  0
LINE
  5
1D9EE
330
747D
100
AcDbEntity
  8
細線
100
AcDbLine
 10
6545.896575107008
 20
7518.523725666426
 30
0.0
 11
6539.896575107007
 21
7518.523725666426
 31
0.0
  0
LINE
  5
1D9EF
330
747D
100
AcDbEntity
  8
細線
100
AcDbLine
 10
6551.896575107034
 20
7517.823725666426
 30
0.0
 11
6551.896575107034
 21
7518.523725666426
 31
0.0
  0
ARC
  5
1D9F0
330
747D
100
AcDbEntity
  8
細線
100
AcDbCircle
 10
6549.896575107033
 20
7517.823725666426
 30
0.0
 40
2.0
100
AcDbArc
 50
270.0
 51
0.0
  0
LINE
  5
1D9F1
330
747D
100
AcDbEntity
  8
細線
100
AcDbLine
 10
6547.896575107033
 20
7515.823725666426
 30
0.0
 11
6549.896575107034
 21
7515.823725666426
 31
0.0
  0
LINE
  5
1D9F2
330
747D
100
AcDbEntity
  8
細線
100
AcDbLine
 10
6545.896575107033
 20
7517.823725666426
 30
0.0
 11
6545.896575107033
 21
7518.523725666426
 31
0.0
  0
ARC
  5
1D9F3
330
747D
100
AcDbEntity
  8
細線
100
AcDbCircle
 10
6547.896575107033
 20
7517.823725666426
 30
0.0
 40
2.0
100
AcDbArc
 50
180.0
 51
270.0
  0
LINE
  5
1D9F5
330
747D
100
AcDbEntity
  8
細線
100
AcDbLine
 10
6534.896575107024
 20
7541.523725666427
 30
0.0
 11
6534.896575107025
 21
7548.523725666429
 31
0.0
  0
ARC
  5
1D9FA
330
747D
100
AcDbEntity
  8
細線
100
AcDbCircle
 10
6953.896575107028
 20
7553.823725666517
 30
0.0
 40
2.0
100
AcDbArc
 50
180.0
 51
270.0
  0
LINE
  5
1D9FB
330
747D
100
AcDbEntity
  8
細線
100
AcDbLine
 10
6951.89657510703
 20
7553.823725666518
 30
0.0
 11
6951.89657510703
 21
7554.523725666517
 31
0.0
  0
LINE
  5
1D9FC
330
747D
100
AcDbEntity
  8
細線
100
AcDbLine
 10
6953.896575107029
 20
7551.823725666519
 30
0.0
 11
6955.896575107029
 21
7551.823725666519
 31
0.0
  0
ARC
  5
1D9FD
330
747D
100
AcDbEntity
  8
細線
100
AcDbCircle
 10
6955.896575107029
 20
7553.823725666517
 30
0.0
 40
2.0
100
AcDbArc
 50
270.0
 51
0.0
  0
LINE
  5
1D9FE
330
747D
100
AcDbEntity
  8
細線
100
AcDbLine
 10
6957.89657510703
 20
7553.823725666518
 30
0.0
 11
6957.89657510703
 21
7554.523725666517
 31
0.0
  0
LINE
  5
1DD51
330
747D
100
AcDbEntity
  8
細線
100
AcDbLine
 10
6534.896575107025
 20
7548.523725666429
 30
0.0
 11
6519.896575107026
 21
7548.523725666427
 31
0.0
  0
MTEXT
  5
1DD76
330
747D
100
AcDbEntity
  8
寸法
 62
     7
 48
50.0
100
AcDbMText
 10
7023.025189285059
 20
8201.811906380994
 30
0.0
 40
96.0
 41
0.0
 71
     5
 72
     1
  1
棚 2段
  7
STYLE1
 11
0.0000000000000001
 21
1.0
 31
0.0
 73
     1
 44
1.0
1001
ACAD
1000
MTEXTBEGIN
1070
    73
1070
     1
1070
    44
1040
1.0
1070
    74
1070
     0
1000
MTEXTEND
  0
LINE
  5
1F88C
330
747D
100
AcDbEntity
  8
細線
100
AcDbLine
 10
6460.896575106993
 20
4932.0
 30
0.0
 11
6460.896575106993
 21
3149.000000000008
 31
0.0
  0
LINE
  5
1F88D
330
747D
100
AcDbEntity
  8
細線
100
AcDbLine
 10
6390.896575106993
 20
4932.0
 30
0.0
 11
6390.896575106993
 21
3149.000000000008
 31
0.0
  0
LINE
  5
1F88F
330
747D
100
AcDbEntity
  8
部品1
100
AcDbLine
 10
6966.896575106992
 20
4932.000000000003
 30
0.0
 11
6966.896575106992
 21
3156.500000000022
 31
0.0
  0
LINE
  5
1FD0F
330
747D
100
AcDbEntity
  8
細線
100
AcDbLine
 10
6848.396575106992
 20
4932.000000000009
 30
0.0
 11
6848.396575106992
 21
3156.500000000022
 31
0.0
  0
LINE
  5
1FD10
330
747D
100
AcDbEntity
  8
細線
100
AcDbLine
 10
6778.396575106992
 20
4932.000000000009
 30
0.0
 11
6778.396575106992
 21
3156.500000000022
 31
0.0
  0
LINE
  5
1FD11
330
747D
100
AcDbEntity
  8
細線
100
AcDbLine
 10
6708.396575106992
 20
4932.000000000009
 30
0.0
 11
6708.396575106992
 21
3156.500000000022
 31
0.0
  0
LINE
  5
1FD12
330
747D
100
AcDbEntity
  8
細線
100
AcDbLine
 10
6638.396575106992
 20
4932.000000000009
 30
0.0
 11
6638.396575106992
 21
3156.500000000022
 31
0.0
  0
LINE
  5
1FD13
330
747D
100
AcDbEntity
  8
部品1
100
AcDbLine
 10
6524.896575106997
 20
8851.52372566648
 30
0.0
 11
6524.896575106997
 21
8823.523725666481
 31
0.0
  0
LINE
  5
20078
330
747D
100
AcDbEntity
  8
部品1
100
AcDbLine
 10
6106.396575106977
 20
8795.023725666487
 30
0.0
 11
6936.896575107015
 21
8795.023725666469
 31
0.0
  0
LINE
  5
20079
330
747D
100
AcDbEntity
  8
破線
 48
10.0
100
AcDbLine
 10
6129.896575106973
 20
8771.523725666488
 30
0.0
 11
6936.89657510702
 21
8771.523725666469
 31
0.0
  0
LINE
  5
2007A
330
747D
100
AcDbEntity
  8
部品1
 48
50.0
100
AcDbLine
 10
6077.896575107043
 20
8823.52372566649
 30
0.0
 11
6106.396575106977
 21
8795.023725666487
 31
0.0
  0
DIMENSION
  5
2007C
330
747D
100
AcDbEntity
  8
寸法
 48
50.0
100
AcDbDimension
  2
*D28
 10
6861.845256776167
 20
9099.119058852206
 30
0.0
 11
7065.332367499021
 21
9099.119058852206
 31
0.0
 70
   160
 71
     5
 42
449.9999999999982
  3
INABA_S40G
100
AcDbAlignedDimension
 13
7386.896575107006
 23
8819.023725666482
 33
0.0
 14
6936.896575107008
 24
8819.023725666481
 34
0.0
100
AcDbRotatedDimension
  0
LINE
  5
2007D
330
747D
100
AcDbEntity
  8
部品1
100
AcDbLine
 10
6936.89657510701
 20
8819.023725666479
 30
0.0
 11
6936.896575107218
 21
7559.023725666493
 31
0.0
  0
LINE
  5
2007E
330
747D
100
AcDbEntity
  8
細線
 48
50.0
100
AcDbLine
 10
7386.896575107215
 20
7559.023725666493
 30
0.0
 11
6936.89657510701
 21
8819.023725666481
 31
0.0
  0
LINE
  5
2007F
330
747D
100
AcDbEntity
  8
部品1
 48
50.0
100
AcDbLine
 10
7386.896575107006
 20
8819.023725666482
 30
0.0
 11
6936.896575107008
 21
8819.023725666481
 31
0.0
  0
LINE
  5
20080
330
747D
100
AcDbEntity
  8
細線
 48
50.0
100
AcDbLine
 10
6936.896575107218
 20
7559.023725666493
 30
0.0
 11
7386.896575107012
 21
8819.023725666482
 31
0.0
  0
LINE
  5
20081
330
747D
100
AcDbEntity
  8
部品1
100
AcDbLine
 10
7386.896575107012
 20
8819.023725666482
 30
0.0
 11
7386.896575107219
 21
7559.023725666493
 31
0.0
  0
LINE
  5
20082
330
747D
100
AcDbEntity
  8
部品1
100
AcDbLine
 10
7386.896575107105
 20
7559.023725666479
 30
0.0
 11
6936.896575107105
 21
7559.023725666479
 31
0.0
  0
LINE
  5
200C0
330
747D
100
AcDbEntity
  8
部品1
 48
50.0
100
AcDbLine
 10
6524.896575106999
 20
8795.023725666599
 30
0.0
 11
6524.896575107089
 21
7612.023725666505
 31
0.0
  0
DIMENSION
  5
200C2
330
747D
100
AcDbEntity
  8
寸法
 48
50.0
100
AcDbDimension
  2
*D29
 10
7802.079782507707
 20
7447.775720532554
 30
0.0
 11
7802.079782507707
 21
8195.03363146309
 31
0.0
 70
   160
 71
     5
 42
1260.000000000004
  3
INABA_S40G
100
AcDbAlignedDimension
 13
7386.896575107006
 23
8819.023725666482
 33
0.0
 14
7386.896575107221
 24
7559.023725666479
 34
0.0
 50
90.0
100
AcDbRotatedDimension
  0
TEXT
  5
20771
330
747D
100
AcDbEntity
  8
文字
 62
     7
 48
50.0
100
AcDbText
 10
13209.4053442172
 20
52.87949550329631
 30
0.0
 40
100.0
  1
○床面積 ： 1.88㎡(0.57坪) 　
  7
STYLE2
100
AcDbText
  0
TEXT
  5
20777
330
747D
100
AcDbEntity
  8
文字
 62
     7
 48
50.0
100
AcDbText
 10
13209.4053442172
 20
228.5435242569015
 30
0.0
 40
100.0
  1
○有効開口寸法 ： 686×1770(mm)
  7
STYLE2
100
AcDbText
  0
TEXT
  5
20781
330
747D
100
AcDbEntity
  8
文字
 62
     7
 48
50.0
100
AcDbText
 10
14641.2525855784
 20
871.1744590657925
 30
0.0
 40
100.0
  1
～一般型・多雪地型～
  7
STYLE2
100
AcDbText
  0
TEXT
  5
20782
330
747D
100
AcDbEntity
  8
文字
 62
     7
 48
50.0
100
AcDbText
 10
14524.131837222
 20
1031.557706291228
 30
0.0
 40
100.0
  1
NO.01      <縮尺> S=1/40
  7
STYLE2
100
AcDbText
  0
LWPOLYLINE
  5
207D8
330
747D
100
AcDbEntity
  8
部品1
 48
50.0
100
AcDbPolyline
 90
        4
 70
     1
 43
0.0
 10
6169.946575106992
 20
4020.25000000001
 10
6172.846575106993
 20
4020.25000000001
 10
6172.846575106993
 20
4029.750000000011
 10
6169.946575106992
 20
4029.750000000011
  0
CIRCLE
  5
207D9
330
747D
100
AcDbEntity
  8
部品1
 48
50.0
100
AcDbCircle
 10
6171.396575106992
 20
4025.000000000011
 30
0.0
 40
9.0
  0
ARC
  5
207DA
330
747D
100
AcDbEntity
  8
細線
 48
50.0
100
AcDbCircle
 10
6171.396575106992
 20
4025.000000000011
 30
0.0
 40
4.0
100
AcDbArc
 50
111.2538091853132
 51
248.7461908146868
  0
ARC
  5
207DB
330
747D
100
AcDbEntity
  8
細線
 48
50.0
100
AcDbCircle
 10
6171.396575106992
 20
4025.000000000011
 30
0.0
 40
17.5
100
AcDbArc
 50
306.4837370612677
 51
233.5162629387323
  0
LINE
  5
207DC
330
747D
100
AcDbEntity
  8
細線
 48
50.0
100
AcDbLine
 10
6181.396575106989
 20
4001.141039419128
 30
0.0
 11
6181.396575106993
 21
4010.125525219369
 31
0.0
  0
LINE
  5
207DD
330
747D
100
AcDbEntity
  8
細線
 48
50.0
100
AcDbLine
 10
6161.396575106993
 20
4001.14103941913
 30
0.0
 11
6161.396575106993
 21
4010.125525219366
 31
0.0
  0
ARC
  5
207DE
330
747D
100
AcDbEntity
  8
細線
 48
50.0
100
AcDbCircle
 10
6171.396575106992
 20
4025.000000000011
 30
0.0
 40
26.5
100
AcDbArc
 50
249.332683506403
 51
290.6673164933835
  0
ARC
  5
207DF
330
747D
100
AcDbEntity
  8
細線
 48
50.0
100
AcDbCircle
 10
6180.396575106986
 20
4001.141039419128
 30
0.0
 40
1.0
100
AcDbArc
 50
290.667316493597
 51
359.9999999998958
  0
ARC
  5
207E0
330
747D
100
AcDbEntity
  8
細線
 48
50.0
100
AcDbCircle
 10
6162.396575106993
 20
4001.14103941913
 30
0.0
 40
1.0
100
AcDbArc
 50
180.0
 51
249.3326835066164
  0
ARC
  5
207E1
330
747D
100
AcDbEntity
  8
細線
 48
50.0
100
AcDbCircle
 10
6160.396575106993
 20
4010.125525219366
 30
0.0
 40
1.0
100
AcDbArc
 50
0.0
 51
53.51626293873231
  0
ARC
  5
207E2
330
747D
100
AcDbEntity
  8
細線
 48
50.0
100
AcDbCircle
 10
6182.396575106996
 20
4010.125525219369
 30
0.0
 40
1.0
100
AcDbArc
 50
126.4837370615282
 51
180.0
  0
ARC
  5
207E3
330
747D
100
AcDbEntity
  8
細線
 48
50.0
100
AcDbCircle
 10
6171.396575106992
 20
4025.000000000011
 30
0.0
 40
21.5
100
AcDbArc
 50
255.8014401250294
 51
284.1985598749706
  0
ARC
  5
207E4
330
747D
100
AcDbEntity
  8
細線
 48
50.0
100
AcDbCircle
 10
6171.396575106992
 20
4025.000000000011
 30
0.0
 40
16.5
100
AcDbArc
 50
251.9694646069326
 51
288.0305353930674
  0
LINE
  5
207E5
330
747D
100
AcDbEntity
  8
細線
 48
50.0
100
AcDbLine
 10
6176.896575106993
 20
4004.447627874204
 30
0.0
 11
6176.896575106993
 21
4009.025019561541
 31
0.0
  0
LINE
  5
207E6
330
747D
100
AcDbEntity
  8
細線
 48
50.0
100
AcDbLine
 10
6165.896575106993
 20
4004.447627874204
 30
0.0
 11
6165.896575106993
 21
4009.025019561539
 31
0.0
  0
ARC
  5
207E7
330
747D
100
AcDbEntity
  8
細線
 48
50.0
100
AcDbCircle
 10
6166.196575106996
 20
4009.025019561539
 30
0.0
 40
0.3
100
AcDbArc
 50
71.96946460693259
 51
180.0
  0
ARC
  5
207E8
330
747D
100
AcDbEntity
  8
細線
 48
50.0
100
AcDbCircle
 10
6176.596575106994
 20
4009.025019561541
 30
0.0
 40
0.3
100
AcDbArc
 50
0.0
 51
108.0305353930674
  0
ARC
  5
207E9
330
747D
100
AcDbEntity
  8
細線
 48
50.0
100
AcDbCircle
 10
6176.59657510699
 20
4004.447627874204
 30
0.0
 40
0.3
100
AcDbArc
 50
284.1985598747557
 51
0.0000000001042204
  0
ARC
  5
207EA
330
747D
100
AcDbEntity
  8
細線
 48
50.0
100
AcDbCircle
 10
6166.196575106996
 20
4004.447627874204
 30
0.0
 40
0.3
100
AcDbArc
 50
180.0
 51
255.8014401248145
  0
CIRCLE
  5
207EB
330
747D
100
AcDbEntity
  8
細線
 48
50.0
100
AcDbCircle
 10
6171.396575106992
 20
4025.000000000011
 30
0.0
 40
12.0
  0
ARC
  5
207EC
330
747D
100
AcDbEntity
  8
部品1
 48
50.0
100
AcDbCircle
 10
6171.396575106992
 20
4075.00000000001
 30
0.0
 40
8.5
100
AcDbArc
 50
114.315739171091
 51
245.684260828909
  0
CIRCLE
  5
207ED
330
747D
100
AcDbEntity
  8
細線
 48
50.0
100
AcDbCircle
 10
6171.396575106992
 20
4075.00000000001
 30
0.0
 40
4.5
  0
LWPOLYLINE
  5
207EE
330
747D
100
AcDbEntity
  8
部品1
 48
50.0
100
AcDbPolyline
 90
        2
 70
     0
 43
0.0
 10
6167.896575106993
 20
4093.674849396993
 10
6167.896575106993
 20
4082.745966692426
  0
CIRCLE
  5
207EF
330
747D
100
AcDbEntity
  8
部品1
 48
50.0
100
AcDbCircle
 10
6171.396575106992
 20
4075.00000000001
 30
0.0
 40
19.0
  0
LWPOLYLINE
  5
207F0
330
747D
100
AcDbEntity
  8
部品1
 48
50.0
100
AcDbPolyline
 90
        2
 70
     0
 43
0.0
 10
6167.896575106993
 20
4067.254033307595
 10
6167.896575106993
 20
4056.325150603028
  0
LWPOLYLINE
  5
207F1
330
747D
100
AcDbEntity
  8
部品1
 48
50.0
100
AcDbPolyline
 90
        2
 70
     0
 43
0.0
 10
6174.896575106993
 20
4082.745966692426
 10
6174.896575106993
 20
4093.674849396993
  0
ARC
  5
207F2
330
747D
100
AcDbEntity
  8
部品1
 48
50.0
100
AcDbCircle
 10
6171.396575106992
 20
4075.00000000001
 30
0.0
 40
8.5
100
AcDbArc
 50
294.315739171091
 51
65.68426082890896
  0
LWPOLYLINE
  5
207F3
330
747D
100
AcDbEntity
  8
部品1
 48
50.0
100
AcDbPolyline
 90
        2
 70
     0
 43
0.0
 10
6174.896575106993
 20
4056.325150603028
 10
6174.896575106993
 20
4067.254033307595
  0
ARC
  5
207F4
330
747D
100
AcDbEntity
  8
細線
 48
50.0
100
AcDbCircle
 10
6171.396575106992
 20
4075.00000000001
 30
0.0
 40
16.5
100
AcDbArc
 50
332.0012352654438
 51
27.99876473455621
  0
ARC
  5
207F5
330
747D
100
AcDbEntity
  8
細線
 48
50.0
100
AcDbCircle
 10
6171.396575106992
 20
4075.00000000001
 30
0.0
 40
14.0
100
AcDbArc
 50
326.407443611277
 51
33.59255638872305
  0
LINE
  5
207F6
330
747D
100
AcDbEntity
  8
細線
 48
50.0
100
AcDbLine
 10
6156.827772822661
 20
4082.745966692426
 30
0.0
 11
6159.734671317304
 21
4082.745966692426
 31
0.0
  0
LINE
  5
207F7
330
747D
100
AcDbEntity
  8
細線
 48
50.0
100
AcDbLine
 10
6156.827772822661
 20
4067.254033307595
 30
0.0
 11
6159.734671317304
 21
4067.254033307595
 31
0.0
  0
LINE
  5
207F8
330
747D
100
AcDbEntity
  8
細線
 48
50.0
100
AcDbLine
 10
6183.058478896682
 20
4082.745966692426
 30
0.0
 11
6185.965377391328
 21
4082.745966692426
 31
0.0
  0
LINE
  5
207F9
330
747D
100
AcDbEntity
  8
細線
 48
50.0
100
AcDbLine
 10
6183.058478896682
 20
4067.254033307595
 30
0.0
 11
6185.965377391328
 21
4067.254033307595
 31
0.0
  0
ARC
  5
207FA
330
747D
100
AcDbEntity
  8
細線
 48
50.0
100
AcDbCircle
 10
6171.396575106992
 20
4075.00000000001
 30
0.0
 40
14.0
100
AcDbArc
 50
146.4074436112769
 51
213.592556388723
  0
ARC
  5
207FB
330
747D
100
AcDbEntity
  8
細線
 48
50.0
100
AcDbCircle
 10
6171.396575106992
 20
4075.00000000001
 30
0.0
 40
16.5
100
AcDbArc
 50
152.0012352654438
 51
207.9987647345562
  0
ARC
  5
207FC
330
747D
100
AcDbEntity
  8
部品1
 48
50.0
100
AcDbCircle
 10
6144.896575106993
 20
4100.50000000001
 30
0.0
 40
5.0
100
AcDbArc
 50
90.0
 51
180.0
  0
ARC
  5
207FD
330
747D
100
AcDbEntity
  8
部品1
 48
50.0
100
AcDbCircle
 10
6144.896575106993
 20
3989.500000000011
 30
0.0
 40
5.0
100
AcDbArc
 50
180.0
 51
270.0
  0
ARC
  5
207FE
330
747D
100
AcDbEntity
  8
部品1
 48
50.0
100
AcDbCircle
 10
6197.896575106993
 20
3989.500000000011
 30
0.0
 40
5.0
100
AcDbArc
 50
270.0
 51
0.0
  0
ARC
  5
207FF
330
747D
100
AcDbEntity
  8
部品1
 48
50.0
100
AcDbCircle
 10
6197.896575106993
 20
4100.50000000001
 30
0.0
 40
5.0
100
AcDbArc
 50
0.0
 51
90.0
  0
LINE
  5
20800
330
747D
100
AcDbEntity
  8
部品1
 48
50.0
100
AcDbLine
 10
6139.896575106993
 20
3989.500000000011
 30
0.0
 11
6139.896575106993
 21
4100.50000000001
 31
0.0
  0
LINE
  5
20801
330
747D
100
AcDbEntity
  8
部品1
 48
50.0
100
AcDbLine
 10
6197.896575106993
 20
3984.500000000011
 30
0.0
 11
6144.896575106993
 21
3984.500000000011
 31
0.0
  0
LINE
  5
20802
330
747D
100
AcDbEntity
  8
部品1
 48
50.0
100
AcDbLine
 10
6202.896575106993
 20
4100.50000000001
 30
0.0
 11
6202.896575106993
 21
3989.500000000011
 31
0.0
  0
LINE
  5
2080A
330
747D
100
AcDbEntity
  8
破線
 48
10.0
100
AcDbLine
 10
6936.896575107041
 20
8229.023725666422
 30
0.0
 11
6106.396575107012
 21
8229.023725666358
 31
0.0
  0
LINE
  5
2080B
330
747D
100
AcDbEntity
  8
破線
 48
10.0
100
AcDbLine
 10
6936.896575107041
 20
8179.023725666423
 30
0.0
 11
6106.396575107012
 21
8179.023725666359
 31
0.0
  0
LINE
  5
2080C
330
747D
100
AcDbEntity
  8
破線
 48
10.0
100
AcDbLine
 10
6129.896575106997
 20
8179.023725666359
 30
0.0
 11
6129.896575107022
 21
7635.523725666391
 31
0.0
  0
TEXT
  5
208F8
330
747D
100
AcDbEntity
  8
文字
 62
     7
 48
50.0
100
AcDbText
 10
15022.63965474516
 20
9570.013745883725
 30
0.0
 40
100.0
  1
F12            1.0
  7
STYLE1
100
AcDbText
  0
TEXT
  5
208F9
330
747D
100
AcDbEntity
  8
文字
 62
     7
 48
50.0
100
AcDbText
 10
13583.11819016569
 20
9570.013745883727
 30
0.0
 40
100.0
  1
母屋中
  7
STYLE1
100
AcDbText
  0
TEXT
  5
208FA
330
747D
100
AcDbEntity
  8
文字
 62
     7
 48
50.0
100
AcDbText
 10
13248.77747366447
 20
8720.013745883731
 30
0.0
 40
100.0
  1
15
  7
STYLE1
100
AcDbText
  0
LINE
  5
208FB
330
747D
100
AcDbEntity
  8
仕様書枠
 48
50.0
100
AcDbLine
 10
16307.19999999998
 20
8349.600000000002
 30
0.0
 11
13127.19999999999
 21
8349.600000000004
 31
0.0
  0
TEXT
  5
208FC
330
747D
100
AcDbEntity
  8
文字
 62
     7
 48
50.0
100
AcDbText
 10
13583.11819016568
 20
8890.013745883731
 30
0.0
 40
100.0
  1
棚板
  7
STYLE1
100
AcDbText
  0
TEXT
  5
208FD
330
747D
100
AcDbEntity
  8
文字
 62
     7
 48
50.0
100
AcDbText
 10
15022.63965474515
 20
8890.013745883727
 30
0.0
 40
100.0
  1
F12            0.6
  7
STYLE1
100
AcDbText
  0
TEXT
  5
208FE
330
747D
100
AcDbEntity
  8
文字
 62
     7
 48
50.0
100
AcDbText
 10
13583.11819016568
 20
9060.013745883729
 30
0.0
 40
100.0
  1
扉
  7
STYLE1
100
AcDbText
  0
TEXT
  5
208FF
330
747D
100
AcDbEntity
  8
文字
 62
     7
 48
50.0
100
AcDbText
 10
15022.63965474515
 20
9060.013745883725
 30
0.0
 40
100.0
  1
F12            0.8
  7
STYLE1
100
AcDbText
  0
TEXT
  5
20900
330
747D
100
AcDbEntity
  8
文字
 62
     7
 48
50.0
100
AcDbText
 10
13583.11819016568
 20
9230.013745883729
 30
0.0
 40
100.0
  1
正面パネル
  7
STYLE1
100
AcDbText
  0
TEXT
  5
20901
330
747D
100
AcDbEntity
  8
文字
 62
     7
 48
50.0
100
AcDbText
 10
15022.63965474515
 20
9230.013745883725
 30
0.0
 40
100.0
  1
F12            0.7
  7
STYLE1
100
AcDbText
  0
TEXT
  5
20902
330
747D
100
AcDbEntity
  8
文字
 62
     7
 48
50.0
100
AcDbText
 10
15022.63965474517
 20
10590.01374588372
 30
0.0
 40
100.0
  1
F12            1.0
  7
STYLE1
100
AcDbText
  0
TEXT
  5
20903
330
747D
100
AcDbEntity
  8
文字
 62
     7
 48
50.0
100
AcDbText
 10
15022.63965474516
 20
10930.01374588372
 30
0.0
 40
100.0
  1
F12            1.2
  7
STYLE1
100
AcDbText
  0
TEXT
  5
20904
330
747D
100
AcDbEntity
  8
文字
 62
     7
 48
50.0
100
AcDbText
 10
13248.77747366447
 20
8890.013745883729
 30
0.0
 40
100.0
  1
14
  7
STYLE1
100
AcDbText
  0
TEXT
  5
20905
330
747D
100
AcDbEntity
  8
文字
 62
     7
 48
50.0
100
AcDbText
 10
13583.11819016569
 20
10930.01374588372
 30
0.0
 40
100.0
  1
根太
  7
STYLE1
100
AcDbText
  0
TEXT
  5
20906
330
747D
100
AcDbEntity
  8
文字
 62
     7
 48
50.0
100
AcDbText
 10
13583.1181901657
 20
10590.01374588373
 30
0.0
 40
100.0
  1
床パネル
 41
0.9
  7
STYLE1
100
AcDbText
  0
LINE
  5
20907
330
747D
100
AcDbEntity
  8
仕様書枠
 48
50.0
100
AcDbLine
 10
16307.19999999999
 20
9029.6
 30
0.0
 11
13127.19999999999
 21
9029.600000000002
 31
0.0
  0
LINE
  5
20908
330
747D
100
AcDbEntity
  8
仕様書枠
 48
50.0
100
AcDbLine
 10
13127.2
 20
11409.6
 30
0.0
 11
13127.19999999999
 21
8349.600000000002
 31
0.0
  0
TEXT
  5
20909
330
747D
100
AcDbEntity
  8
文字
 62
     7
 48
50.0
100
AcDbText
 10
13229.83081656553
 20
8380.013745883731
 30
0.0
 40
100.0
  1
Y10→溶融亜鉛-5％アルミニウム合金めっき鋼板(JIS G 3317)
 41
0.9
  7
STYLE1
100
AcDbText
  0
TEXT
  5
2090A
330
747D
100
AcDbEntity
  8
文字
 62
     7
 48
50.0
100
AcDbText
 10
13229.83081656553
 20
8550.013745883731
 30
0.0
 40
100.0
  1
F12→溶融亜鉛めっき鋼板(JIS G 3302)
  7
STYLE1
100
AcDbText
  0
LINE
  5
2090B
330
747D
100
AcDbEntity
  8
仕様書枠
 48
50.0
100
AcDbLine
 10
16307.19999999998
 20
8519.600000000002
 30
0.0
 11
13127.19999999999
 21
8519.600000000004
 31
0.0
  0
LINE
  5
2090C
330
747D
100
AcDbEntity
  8
仕様書枠
 48
50.0
100
AcDbLine
 10
16307.19999999998
 20
8689.600000000003
 30
0.0
 11
13127.19999999999
 21
8689.600000000003
 31
0.0
  0
TEXT
  5
2090D
330
747D
100
AcDbEntity
  8
文字
 62
     7
 48
50.0
100
AcDbText
 10
15022.63965474515
 20
9400.013745883725
 30
0.0
 40
100.0
  1
F12            0.6
  7
STYLE1
100
AcDbText
  0
TEXT
  5
2090E
330
747D
100
AcDbEntity
  8
文字
 62
     7
 48
50.0
100
AcDbText
 10
15022.63965474517
 20
9740.013745883725
 30
0.0
 40
100.0
  1
Y10            0.5
  7
STYLE1
100
AcDbText
  0
TEXT
  5
2090F
330
747D
100
AcDbEntity
  8
文字
 62
     7
 48
50.0
100
AcDbText
 10
15022.63965474516
 20
9910.013745883725
 30
0.0
 40
100.0
  1
Y10            0.7
  7
STYLE1
100
AcDbText
  0
TEXT
  5
20910
330
747D
100
AcDbEntity
  8
文字
 62
     7
 48
50.0
100
AcDbText
 10
15022.63965474517
 20
10080.01374588372
 30
0.0
 40
100.0
  1
Y10            0.7
  7
STYLE1
100
AcDbText
  0
TEXT
  5
20911
330
747D
100
AcDbEntity
  8
文字
 62
     7
 48
50.0
100
AcDbText
 10
15022.63965474516
 20
10250.01374588372
 30
0.0
 40
100.0
  1
Y10            1.0
  7
STYLE1
100
AcDbText
  0
TEXT
  5
20912
330
747D
100
AcDbEntity
  8
文字
 62
     7
 48
50.0
100
AcDbText
 10
15022.63965474517
 20
10420.01374588372
 30
0.0
 40
100.0
  1
Y10            1.0
  7
STYLE1
100
AcDbText
  0
TEXT
  5
20913
330
747D
100
AcDbEntity
  8
文字
 62
     7
 48
50.0
100
AcDbText
 10
15022.63965474518
 20
10760.01374588372
 30
0.0
 40
100.0
  1
F12            1.0
  7
STYLE1
100
AcDbText
  0
TEXT
  5
20914
330
747D
100
AcDbEntity
  8
文字
 62
     7
 48
50.0
100
AcDbText
 10
15022.63965474517
 20
11100.01374588372
 30
0.0
 40
100.0
  1
F12            1.2
  7
STYLE1
100
AcDbText
  0
TEXT
  5
20915
330
747D
100
AcDbEntity
  8
文字
 62
     7
 48
50.0
100
AcDbText
 10
13248.77747366447
 20
9230.013745883729
 30
0.0
 40
100.0
  1
12
  7
STYLE1
100
AcDbText
  0
TEXT
  5
20916
330
747D
100
AcDbEntity
  8
文字
 62
     7
 48
50.0
100
AcDbText
 10
13248.77747366447
 20
9060.013745883729
 30
0.0
 40
100.0
  1
13
  7
STYLE1
100
AcDbText
  0
LINE
  5
20917
330
747D
100
AcDbEntity
  8
仕様書枠
 48
50.0
100
AcDbLine
 10
16307.19999999999
 20
8859.6
 30
0.0
 11
13127.19999999999
 21
8859.600000000002
 31
0.0
  0
LINE
  5
20918
330
747D
100
AcDbEntity
  8
仕様書枠
 48
50.0
100
AcDbLine
 10
16307.19999999999
 20
9199.599999999998
 30
0.0
 11
13127.19999999999
 21
9199.600000000001
 31
0.0
  0
TEXT
  5
20919
330
747D
100
AcDbEntity
  8
文字
 62
     7
 48
50.0
100
AcDbText
 10
13248.77747366447
 20
9400.013745883727
 30
0.0
 40
100.0
  1
11
  7
STYLE1
100
AcDbText
  0
LINE
  5
2091A
330
747D
100
AcDbEntity
  8
仕様書枠
 48
50.0
100
AcDbLine
 10
16307.19999999999
 20
9879.599999999999
 30
0.0
 11
13127.19999999999
 21
9879.600000000001
 31
0.0
  0
LINE
  5
2091B
330
747D
100
AcDbEntity
  8
仕様書枠
 48
50.0
100
AcDbLine
 10
16307.19999999999
 20
10219.6
 30
0.0
 11
13127.2
 21
10219.6
 31
0.0
  0
LINE
  5
2091C
330
747D
100
AcDbEntity
  8
仕様書枠
 48
50.0
100
AcDbLine
 10
16307.19999999999
 20
9539.599999999998
 30
0.0
 11
13127.19999999999
 21
9539.6
 31
0.0
  0
LINE
  5
2091D
330
747D
100
AcDbEntity
  8
仕様書枠
 48
50.0
100
AcDbLine
 10
16307.19999999999
 20
9369.599999999998
 30
0.0
 11
13127.19999999999
 21
9369.600000000001
 31
0.0
  0
LINE
  5
2091E
330
747D
100
AcDbEntity
  8
仕様書枠
 48
50.0
100
AcDbLine
 10
16307.19999999999
 20
9709.6
 30
0.0
 11
13127.19999999999
 21
9709.600000000001
 31
0.0
  0
TEXT
  5
2091F
330
747D
100
AcDbEntity
  8
文字
 62
     7
 48
50.0
100
AcDbText
 10
13271.19032244792
 20
10250.01374588373
 30
0.0
 40
100.0
  1
6
  7
STYLE1
100
AcDbText
  0
TEXT
  5
20920
330
747D
100
AcDbEntity
  8
文字
 62
     7
 48
50.0
100
AcDbText
 10
13271.19032244792
 20
10080.01374588373
 30
0.0
 40
100.0
  1
7
  7
STYLE1
100
AcDbText
  0
TEXT
  5
20921
330
747D
100
AcDbEntity
  8
文字
 62
     7
 48
50.0
100
AcDbText
 10
13271.19032244792
 20
9740.013745883729
 30
0.0
 40
100.0
  1
9
  7
STYLE1
100
AcDbText
  0
TEXT
  5
20922
330
747D
100
AcDbEntity
  8
文字
 62
     7
 48
50.0
100
AcDbText
 10
13271.19032244792
 20
9910.01374588373
 30
0.0
 40
100.0
  1
8
  7
STYLE1
100
AcDbText
  0
TEXT
  5
20923
330
747D
100
AcDbEntity
  8
文字
 62
     7
 48
50.0
100
AcDbText
 10
13583.11819016569
 20
9910.013745883727
 30
0.0
 40
100.0
  1
鼻隠シ前後
  7
STYLE1
100
AcDbText
  0
TEXT
  5
20924
330
747D
100
AcDbEntity
  8
文字
 62
     7
 48
50.0
100
AcDbText
 10
13583.11819016569
 20
9740.013745883729
 30
0.0
 40
100.0
  1
屋根パネル
  7
STYLE1
100
AcDbText
  0
TEXT
  5
20925
330
747D
100
AcDbEntity
  8
文字
 62
     7
 48
50.0
100
AcDbText
 10
13583.11819016568
 20
9400.013745883729
 30
0.0
 40
100.0
  1
壁パネル
  7
STYLE1
100
AcDbText
  0
TEXT
  5
20926
330
747D
100
AcDbEntity
  8
文字
 62
     7
 48
50.0
100
AcDbText
 10
13248.77747366447
 20
9570.013745883727
 30
0.0
 40
100.0
  1
10
  7
STYLE1
100
AcDbText
  0
TEXT
  5
20927
330
747D
100
AcDbEntity
  8
文字
 62
     7
 48
50.0
100
AcDbText
 10
13583.11819016569
 20
10080.01374588372
 30
0.0
 40
100.0
  1
妻板左右
  7
STYLE1
100
AcDbText
  0
TEXT
  5
20928
330
747D
100
AcDbEntity
  8
文字
 62
     7
 48
50.0
100
AcDbText
 10
13271.19032244792
 20
10420.01374588372
 30
0.0
 40
100.0
  1
5
  7
STYLE1
100
AcDbText
  0
TEXT
  5
20929
330
747D
100
AcDbEntity
  8
文字
 62
     7
 48
50.0
100
AcDbText
 10
13583.11819016569
 20
10250.01374588373
 30
0.0
 40
100.0
  1
桁後
  7
STYLE1
100
AcDbText
  0
TEXT
  5
2092A
330
747D
100
AcDbEntity
  8
文字
 62
     7
 48
50.0
100
AcDbText
 10
13583.11819016569
 20
10420.01374588372
 30
0.0
 40
100.0
  1
鴨居
  7
STYLE1
100
AcDbText
  0
TEXT
  5
2092B
330
747D
100
AcDbEntity
  8
文字
 62
     7
 48
50.0
100
AcDbText
 10
13583.1181901657
 20
10760.01374588372
 30
0.0
 40
100.0
  1
柱
  7
STYLE1
100
AcDbText
  0
TEXT
  5
2092C
330
747D
100
AcDbEntity
  8
文字
 62
     7
 48
50.0
100
AcDbText
 10
13583.11819016569
 20
11100.01374588373
 30
0.0
 40
100.0
  1
土台枠
  7
STYLE1
100
AcDbText
  0
TEXT
  5
2092D
330
747D
100
AcDbEntity
  8
文字
 62
     7
 48
50.0
100
AcDbText
 10
14859.79774614482
 20
11270.01374588372
 30
0.0
 40
100.0
  1
材料（材質）　　単位mm
  7
STYLE1
100
AcDbText
  0
TEXT
  5
2092E
330
747D
100
AcDbEntity
  8
文字
 62
     7
 48
50.0
100
AcDbText
 10
13732.03840939434
 20
11270.01374588372
 30
0.0
 40
100.0
  1
部　　品　　名
  7
STYLE1
100
AcDbText
  0
TEXT
  5
2092F
330
747D
100
AcDbEntity
  8
文字
 62
     7
 48
50.0
100
AcDbText
 10
13271.19032244792
 20
10760.01374588373
 30
0.0
 40
100.0
  1
3
  7
STYLE1
100
AcDbText
  0
TEXT
  5
20930
330
747D
100
AcDbEntity
  8
文字
 62
     7
 48
50.0
100
AcDbText
 10
13271.19032244792
 20
10590.01374588373
 30
0.0
 40
100.0
  1
4
  7
STYLE1
100
AcDbText
  0
TEXT
  5
20931
330
747D
100
AcDbEntity
  8
文字
 62
     7
 48
50.0
100
AcDbText
 10
13271.19032244792
 20
10930.01374588373
 30
0.0
 40
100.0
  1
2
  7
STYLE1
100
AcDbText
  0
TEXT
  5
20932
330
747D
100
AcDbEntity
  8
文字
 62
     7
 48
50.0
100
AcDbText
 10
13271.19032244792
 20
11100.01374588373
 30
0.0
 40
100.0
  1
1
  7
STYLE1
100
AcDbText
  0
TEXT
  5
20933
330
747D
100
AcDbEntity
  8
文字
 62
     7
 48
50.0
100
AcDbText
 10
13197.42518560407
 20
11270.01374588372
 30
0.0
 40
100.0
  1
品番
  7
STYLE1
100
AcDbText
  0
LINE
  5
20934
330
747D
100
AcDbEntity
  8
仕様書枠
 48
50.0
100
AcDbLine
 10
16307.19999999999
 20
10729.6
 30
0.0
 11
13127.19999999999
 21
10729.6
 31
0.0
  0
LINE
  5
20935
330
747D
100
AcDbEntity
  8
仕様書枠
 48
50.0
100
AcDbLine
 10
16307.19999999999
 20
10389.6
 30
0.0
 11
13127.19999999999
 21
10389.6
 31
0.0
  0
LINE
  5
20936
330
747D
100
AcDbEntity
  8
仕様書枠
 48
50.0
100
AcDbLine
 10
16307.19999999999
 20
10559.6
 30
0.0
 11
13127.19999999999
 21
10559.6
 31
0.0
  0
LINE
  5
20937
330
747D
100
AcDbEntity
  8
仕様書枠
 48
50.0
100
AcDbLine
 10
16307.19999999999
 20
11069.6
 30
0.0
 11
13127.2
 21
11069.6
 31
0.0
  0
LINE
  5
20938
330
747D
100
AcDbEntity
  8
仕様書枠
 48
50.0
100
AcDbLine
 10
16307.19999999999
 20
10899.6
 30
0.0
 11
13127.2
 21
10899.6
 31
0.0
  0
LINE
  5
20939
330
747D
100
AcDbEntity
  8
仕様書枠
 48
50.0
100
AcDbLine
 10
16307.19999999999
 20
11239.6
 30
0.0
 11
13127.2
 21
11239.6
 31
0.0
  0
LINE
  5
2093A
330
747D
100
AcDbEntity
  8
仕様書枠
 48
50.0
100
AcDbLine
 10
13490.2
 20
11409.6
 30
0.0
 11
13490.20000000001
 21
8689.600000000003
 31
0.0
  0
LINE
  5
2093B
330
747D
100
AcDbEntity
  8
仕様書枠
 48
50.0
100
AcDbLine
 10
14785.2
 20
11409.59999999999
 30
0.0
 11
14785.2
 21
8689.600000000005
 31
0.0
  0
LINE
  5
2093C
330
747D
100
AcDbEntity
  8
仕様書枠
 48
50.0
100
AcDbLine
 10
16307.19999999999
 20
8349.600000000002
 30
0.0
 11
16307.2
 21
11409.6
 31
0.0
  0
LINE
  5
2093E
330
747D
100
AcDbEntity
  8
仕様書枠
 48
50.0
100
AcDbLine
 10
16307.19999999999
 20
10049.6
 30
0.0
 11
13127.19999999999
 21
10049.6
 31
0.0
  0
TEXT
  5
2093F
330
747D
100
AcDbEntity
  8
文字
 62
     7
 48
50.0
100
AcDbText
 10
15022.63965474514
 20
8720.013745883722
 30
0.0
 40
100.0
  1
F12            2.3
  7
STYLE1
100
AcDbText
  0
TEXT
  5
20940
330
747D
100
AcDbEntity
  8
文字
 62
     7
 48
50.0
100
AcDbText
 10
13583.11819016568
 20
8720.013745883727
 30
0.0
 40
100.0
  1
アンカープレート
  7
STYLE1
100
AcDbText
  0
LINE
  5
20950
330
747D
100
AcDbEntity
  8
部品1
 48
50.0
100
AcDbLine
 10
10178.69395691447
 20
3100.0
 30
0.0
 11
10178.69395691447
 21
3000.0
 31
0.0
  0
LINE
  5
20951
330
747D
100
AcDbEntity
  8
部品1
 48
50.0
100
AcDbLine
 10
9978.693956914476
 20
3100.0
 30
0.0
 11
9978.693956914476
 21
3000.0
 31
0.0
  0
ENDSEC
  0
SECTION
  2
OBJECTS
  0
DICTIONARY
  5
7471
330
0
100
AcDbDictionary
281
     1
  3
ACAD_COLOR
350
159B0
  3
ACAD_GROUP
350
7472
  3
ACAD_LAYOUT
350
159B1
  3
ACAD_MATERIAL
350
159AF
  3
ACAD_MLINESTYLE
350
7473
  3
ACAD_PLOTSETTINGS
350
159B2
  3
ACAD_PLOTSTYLENAME
350
159AD
  3
ACDBHEADERROUNDTRIPXREC
350
2096D
  3
AcDbVariableDictionary
350
20969
  3
CONTENTDICTIONARY
350
E71C
  3
DRAWINGVARIABLESDICT
350
F3B9
  0
DICTIONARY
  5
1D35E
330
7467
100
AcDbDictionary
280
     1
281
     1
  3
ACAD_LAYERSTATES
360
1D35F
  0
DICTIONARY
  5
159B0
102
{ACAD_REACTORS
330
7471
102
}
330
7471
100
AcDbDictionary
281
     1
  0
DICTIONARY
  5
7472
102
{ACAD_REACTORS
330
7471
102
}
330
7471
100
AcDbDictionary
281
     1
  0
DICTIONARY
  5
159B1
102
{ACAD_REACTORS
330
7471
102
}
330
7471
100
AcDbDictionary
281
     1
  3
Model
350
159B3
  3
レイアウト1
350
159B4
  0
DICTIONARY
  5
159AF
102
{ACAD_REACTORS
330
7471
102
}
330
7471
100
AcDbDictionary
281
     1
  0
DICTIONARY
  5
7473
102
{ACAD_REACTORS
330
7471
102
}
330
7471
100
AcDbDictionary
281
     1
  3
STANDARD
350
7480
  0
DICTIONARY
  5
159B2
102
{ACAD_REACTORS
330
7471
102
}
330
7471
100
AcDbDictionary
281
     1
  0
ACDBDICTIONARYWDFLT
  5
159AD
102
{ACAD_REACTORS
330
7471
102
}
330
7471
100
AcDbDictionary
281
     1
  3
Normal
350
159AE
100
AcDbDictionaryWithDefault
340
159AE
  0
DICTIONARY
  5
2096D
102
{ACAD_REACTORS
330
7471
102
}
330
7471
100
AcDbDictionary
281
     1
  3
COLORDICT
350
2096F
  3
MATERIALDICT
350
2096E
  0
DICTIONARY
  5
20969
102
{ACAD_REACTORS
330
7471
102
}
330
7471
100
AcDbDictionary
281
     1
  3
DIMASSOC
350
2096A
  3
PROJECTNAME
350
2096B
  0
DICTIONARY
  5
E71C
102
{ACAD_REACTORS
330
7471
102
}
330
7471
100
AcDbDictionary
281
     1
  0
DICTIONARY
  5
F3B9
102
{ACAD_REACTORS
330
7471
102
}
330
7471
100
AcDbDictionary
281
     1
1001
DRAWINGVARIABLESXDATA
1000
POLARMODE
1000
1
  0
DICTIONARY
  5
1D35F
102
{ACAD_REACTORS
330
1D35E
102
}
330
1D35E
100
AcDbDictionary
281
     1
  0
LAYOUT
  5
159B3
102
{ACAD_XDICTIONARY
360
20970
102
}
102
{ACAD_REACTORS
330
159B1
102
}
330
159B1
100
AcDbPlotSettings
  1

  2
EPSON LP-8100
  4
A3
  6

 40
5.873749732971191
 41
5.873747825622558
 42
5.873748779296875
 43
5.873748779296875
 44
297.0106506347656
 45
419.9466552734374
 46
0.0
 47
0.0
 48
0.0
 49
0.0
140
0.0
141
0.0
142
1.0
143
40.0
 70
 11952
 72
     1
 73
     1
 74
     2
  7
inaba.ctb
 75
    24
147
0.025
148
0.0
149
0.0
100
AcDbLayout
  1
Model
 70
     1
 71
     0
 10
0.0
 20
0.0
 11
12.0
 21
9.0
 12
0.0
 22
0.0
 32
0.0
 14
0.0
 24
0.0
 34
0.0
 15
0.0
 25
0.0
 35
0.0
146
0.0
 13
0.0
 23
0.0
 33
0.0
 16
1.0
 26
0.0
 36
0.0
 17
0.0
 27
1.0
 37
0.0
 76
     0
330
747D
  0
LAYOUT
  5
159B4
102
{ACAD_XDICTIONARY
360
20972
102
}
102
{ACAD_REACTORS
330
159B1
102
}
330
159B1
100
AcDbPlotSettings
  1

  2
自動 EPSON LP-8400FX (TATENO 上)
  4

  6

 40
0.0
 41
0.0
 42
0.0
 43
0.0
 44
0.0
 45
0.0
 46
0.0
 47
0.0
 48
0.0
 49
0.0
140
0.0
141
0.0
142
1.0
143
1.0
 70
   688
 72
     0
 73
     0
 74
     5
  7
inaba.ctb
 75
    16
147
1.0
148
0.0
149
0.0
100
AcDbLayout
  1
レイアウト1
 70
     0
 71
     1
 10
0.0
 20
0.0
 11
420.0
 21
297.0
 12
0.0
 22
0.0
 32
0.0
 14
1.000000000000000E+20
 24
1.000000000000000E+20
 34
1.000000000000000E+20
 15
-1.000000000000000E+20
 25
-1.000000000000000E+20
 35
-1.000000000000000E+20
146
0.0
 13
0.0
 23
0.0
 33
0.0
 16
1.0
 26
0.0
 36
0.0
 17
0.0
 27
1.0
 37
0.0
 76
     0
330
747A
  0
MLINESTYLE
  5
7480
102
{ACAD_REACTORS
330
7473
102
}
330
7473
100
AcDbMlineStyle
  2
STANDARD
 70
     0
  3

 62
     0
 51
90.0
 52
90.0
 71
     2
 49
0.5
 62
   256
  6
BYLAYER
 49
-0.5
 62
   256
  6
BYLAYER
  0
ACDBPLACEHOLDER
  5
159AE
102
{ACAD_REACTORS
330
159AD
102
}
330
159AD
  0
XRECORD
  5
2096F
102
{ACAD_REACTORS
330
2096D
102
}
330
2096D
100
AcDbXrecord
280
     1
340
159B0
  0
XRECORD
  5
2096E
102
{ACAD_REACTORS
330
2096D
102
}
330
2096D
100
AcDbXrecord
280
     1
340
159AF
  0
DICTIONARYVAR
  5
2096A
102
{ACAD_REACTORS
330
20969
102
}
330
20969
100
DictionaryVariables
280
     0
  1
1
  0
DICTIONARYVAR
  5
2096B
102
{ACAD_REACTORS
330
20969
102
}
330
20969
100
DictionaryVariables
280
     0
  1

  0
DICTIONARY
  5
20970
330
159B3
100
AcDbDictionary
280
     1
281
     1
  3
ACAD_XREC_ROUNDTRIP
360
20971
  0
DICTIONARY
  5
20972
330
159B4
100
AcDbDictionary
280
     1
281
     1
  3
ACAD_XREC_ROUNDTRIP
360
20973
  0
XRECORD
  5
20971
102
{ACAD_REACTORS
330
20970
102
}
330
20970
100
AcDbXrecord
280
     1
102
SHADEPLOT
 70
     0
102
SHADEPLOTRESLEVEL
 70
     2
102
SHADEPLOTCUSTOMDPI
 70
   150
  0
XRECORD
  5
20973
102
{ACAD_REACTORS
330
20972
102
}
330
20972
100
AcDbXrecord
280
     1
102
SHADEPLOT
 70
     0
102
SHADEPLOTRESLEVEL
 70
     2
102
SHADEPLOTCUSTOMDPI
 70
   300
  0
ENDSEC
  0
EOF
