  0
SECTION
  2
HEADER
  9
$ACADVER
  1
AC1015
  9
$ACADMAINTVER
 70
    20
  9
$DWGCODEPAGE
  3
ANSI_932
  9
$INSBASE
 10
0.0
 20
0.0
 30
0.0
  9
$EXTMIN
 10
139.9999999999995
 20
-0.0000000000000909
 30
0.0
  9
$EXTMAX
 10
16307.2
 20
11409.6
 30
0.0
  9
$LIMMIN
 10
0.0
 20
0.0
  9
$LIMMAX
 10
16800.0
 20
11880.0
  9
$ORTHOMODE
 70
     0
  9
$REGENMODE
 70
     1
  9
$FILLMODE
 70
     1
  9
$QTEXTMODE
 70
     0
  9
$MIRRTEXT
 70
     1
  9
$LTSCALE
 40
20.0
  9
$ATTMODE
 70
     1
  9
$TEXTSIZE
 40
4.0
  9
$TRACEWID
 40
1.0
  9
$TEXTSTYLE
  7
STYLE1
  9
$CLAYER
  8
細線
  9
$CELTYPE
  6
BYLAYER
  9
$CECOLOR
 62
   256
  9
$CELTSCALE
 40
50.0
  9
$DISPSILH
 70
     0
  9
$DIMSCALE
 40
40.0
  9
$DIMASZ
 40
2.5
  9
$DIMEXO
 40
0.5
  9
$DIMDLI
 40
7.0
  9
$DIMRND
 40
0.0
  9
$DIMDLE
 40
0.0
  9
$DIMEXE
 40
1.5
  9
$DIMTP
 40
0.0
  9
$DIMTM
 40
0.0
  9
$DIMTXT
 40
3.0
  9
$DIMCEN
 40
0.0
  9
$DIMTSZ
 40
0.0
  9
$DIMTOL
 70
     0
  9
$DIMLIM
 70
     0
  9
$DIMTIH
 70
     0
  9
$DIMTOH
 70
     0
  9
$DIMSE1
 70
     0
  9
$DIMSE2
 70
     0
  9
$DIMTAD
 70
     3
  9
$DIMZIN
 70
     8
  9
$DIMBLK
  1

  9
$DIMASO
 70
     1
  9
$DIMSHO
 70
     1
  9
$DIMPOST
  1

  9
$DIMAPOST
  1

  9
$DIMALT
 70
     0
  9
$DIMALTD
 70
     2
  9
$DIMALTF
 40
0.0394
  9
$DIMLFAC
 40
1.0
  9
$DIMTOFL
 70
     1
  9
$DIMTVP
 40
0.0
  9
$DIMTIX
 70
     1
  9
$DIMSOXD
 70
     0
  9
$DIMSAH
 70
     1
  9
$DIMBLK1
  1
DOTSMALL
  9
$DIMBLK2
  1
DOTSMALL
  9
$DIMSTYLE
  2
INABA_S40G
  9
$DIMCLRD
 70
     0
  9
$DIMCLRE
 70
     0
  9
$DIMCLRT
 70
     7
  9
$DIMTFAC
 40
1.0
  9
$DIMGAP
 40
1.0
  9
$DIMJUST
 70
     0
  9
$DIMSD1
 70
     0
  9
$DIMSD2
 70
     0
  9
$DIMTOLJ
 70
     1
  9
$DIMTZIN
 70
     0
  9
$DIMALTZ
 70
     0
  9
$DIMALTTZ
 70
     0
  9
$DIMUPT
 70
     0
  9
$DIMDEC
 70
     1
  9
$DIMTDEC
 70
     4
  9
$DIMALTU
 70
     2
  9
$DIMALTTD
 70
     2
  9
$DIMTXSTY
  7
STYLE1
  9
$DIMAUNIT
 70
     0
  9
$DIMADEC
 70
     0
  9
$DIMALTRND
 40
0.0
  9
$DIMAZIN
 70
     0
  9
$DIMDSEP
 70
    46
  9
$DIMATFIT
 70
     3
  9
$DIMFRAC
 70
     0
  9
$DIMLDRBLK
  1

  9
$DIMLUNIT
 70
     2
  9
$DIMLWD
 70
    -2
  9
$DIMLWE
 70
    -2
  9
$DIMTMOVE
 70
     0
  9
$LUNITS
 70
     2
  9
$LUPREC
 70
     1
  9
$SKETCHINC
 40
1.0
  9
$FILLETRAD
 40
3.0
  9
$AUNITS
 70
     0
  9
$AUPREC
 70
     0
  9
$MENU
  1
acad
  9
$ELEVATION
 40
0.0
  9
$PELEVATION
 40
0.0
  9
$THICKNESS
 40
0.0
  9
$LIMCHECK
 70
     0
  9
$CHAMFERA
 40
0.0
  9
$CHAMFERB
 40
0.0
  9
$CHAMFERC
 40
0.0
  9
$CHAMFERD
 40
0.0
  9
$SKPOLY
 70
     0
  9
$TDCREATE
 40
2451368.612993866
  9
$TDUCREATE
 40
2451368.237993866
  9
$TDUPDATE
 40
2455827.788077755
  9
$TDUUPDATE
 40
2455827.413077754
  9
$TDINDWG
 40
0.7506482407
  9
$TDUSRTIMER
 40
0.7506482407
  9
$USRTIMER
 70
     1
  9
$ANGBASE
 50
0.0
  9
$ANGDIR
 70
     0
  9
$PDMODE
 70
     3
  9
$PDSIZE
 40
2.0
  9
$PLINEWID
 40
0.0
  9
$SPLFRAME
 70
     0
  9
$SPLINETYPE
 70
     6
  9
$SPLINESEGS
 70
     8
  9
$HANDSEED
  5
1F761
  9
$SURFTAB1
 70
     6
  9
$SURFTAB2
 70
     6
  9
$SURFTYPE
 70
     6
  9
$SURFU
 70
     6
  9
$SURFV
 70
     6
  9
$UCSBASE
  2

  9
$UCSNAME
  2

  9
$UCSORG
 10
0.0
 20
0.0
 30
0.0
  9
$UCSXDIR
 10
1.0
 20
0.0
 30
0.0
  9
$UCSYDIR
 10
0.0
 20
1.0
 30
0.0
  9
$UCSORTHOREF
  2

  9
$UCSORTHOVIEW
 70
     0
  9
$UCSORGTOP
 10
0.0
 20
0.0
 30
0.0
  9
$UCSORGBOTTOM
 10
0.0
 20
0.0
 30
0.0
  9
$UCSORGLEFT
 10
0.0
 20
0.0
 30
0.0
  9
$UCSORGRIGHT
 10
0.0
 20
0.0
 30
0.0
  9
$UCSORGFRONT
 10
0.0
 20
0.0
 30
0.0
  9
$UCSORGBACK
 10
0.0
 20
0.0
 30
0.0
  9
$PUCSBASE
  2

  9
$PUCSNAME
  2

  9
$PUCSORG
 10
0.0
 20
0.0
 30
0.0
  9
$PUCSXDIR
 10
1.0
 20
0.0
 30
0.0
  9
$PUCSYDIR
 10
0.0
 20
1.0
 30
0.0
  9
$PUCSORTHOREF
  2

  9
$PUCSORTHOVIEW
 70
     0
  9
$PUCSORGTOP
 10
0.0
 20
0.0
 30
0.0
  9
$PUCSORGBOTTOM
 10
0.0
 20
0.0
 30
0.0
  9
$PUCSORGLEFT
 10
0.0
 20
0.0
 30
0.0
  9
$PUCSORGRIGHT
 10
0.0
 20
0.0
 30
0.0
  9
$PUCSORGFRONT
 10
0.0
 20
0.0
 30
0.0
  9
$PUCSORGBACK
 10
0.0
 20
0.0
 30
0.0
  9
$USERI1
 70
     0
  9
$USERI2
 70
     0
  9
$USERI3
 70
     0
  9
$USERI4
 70
     0
  9
$USERI5
 70
     0
  9
$USERR1
 40
0.0
  9
$USERR2
 40
0.0
  9
$USERR3
 40
0.0
  9
$USERR4
 40
0.0
  9
$USERR5
 40
0.0
  9
$WORLDVIEW
 70
     1
  9
$SHADEDGE
 70
     3
  9
$SHADEDIF
 70
    70
  9
$TILEMODE
 70
     1
  9
$MAXACTVP
 70
    16
  9
$PINSBASE
 10
0.0
 20
0.0
 30
0.0
  9
$PLIMCHECK
 70
     0
  9
$PEXTMIN
 10
1.000000000000000E+20
 20
1.000000000000000E+20
 30
1.000000000000000E+20
  9
$PEXTMAX
 10
-1.000000000000000E+20
 20
-1.000000000000000E+20
 30
-1.000000000000000E+20
  9
$PLIMMIN
 10
0.0
 20
0.0
  9
$PLIMMAX
 10
420.0
 20
297.0
  9
$UNITMODE
 70
     0
  9
$VISRETAIN
 70
     0
  9
$PLINEGEN
 70
     0
  9
$PSLTSCALE
 70
     0
  9
$TREEDEPTH
 70
  3020
  9
$CMLSTYLE
  2
STANDARD
  9
$CMLJUST
 70
     0
  9
$CMLSCALE
 40
1.0
  9
$PROXYGRAPHICS
 70
     1
  9
$MEASUREMENT
 70
     1
  9
$CELWEIGHT
370
    -1
  9
$ENDCAPS
280
     0
  9
$JOINSTYLE
280
     0
  9
$LWDISPLAY
290
     0
  9
$INSUNITS
 70
     0
  9
$HYPERLINKBASE
  1

  9
$STYLESHEET
  1
inaba.ctb
  9
$XEDIT
290
     1
  9
$CEPSNTYPE
380
     0
  9
$PSTYLEMODE
290
     1
  9
$FINGERPRINTGUID
  2
{5EAC461A-2277-4BF8-9AB0-99C43BB394F0}
  9
$VERSIONGUID
  2
{497D2D8B-6111-44B4-B7B7-FE8DC469A2F8}
  9
$EXTNAMES
290
     1
  9
$PSVPSCALE
 40
0.0
  9
$OLESTARTUP
290
     0
  0
ENDSEC
  0
SECTION
  2
CLASSES
  0
CLASS
  1
ACDBDICTIONARYWDFLT
  2
AcDbDictionaryWithDefault
  3
ObjectDBX Classes
 90
        0
280
     0
281
     0
  0
CLASS
  1
DICTIONARYVAR
  2
AcDbDictionaryVar
  3
ObjectDBX Classes
 90
        0
280
     0
281
     0
  0
CLASS
  1
ACDBPLACEHOLDER
  2
AcDbPlaceHolder
  3
ObjectDBX Classes
 90
        0
280
     0
281
     0
  0
CLASS
  1
LAYOUT
  2
AcDbLayout
  3
ObjectDBX Classes
 90
        0
280
     0
281
     0
  0
ENDSEC
  0
SECTION
  2
TABLES
  0
TABLE
  2
VPORT
  5
746D
330
0
100
AcDbSymbolTable
 70
     2
  0
VPORT
  5
1F759
330
746D
100
AcDbSymbolTableRecord
100
AcDbViewportTableRecord
  2
*Active
 70
     0
 10
0.0
 20
0.0
 11
1.0
 21
1.0
 12
8223.761025238502
 22
5704.608037261908
 13
0.0
 23
0.0
 14
10.0
 24
10.0
 15
10.0
 25
10.0
 16
0.0
 26
0.0
 36
1.0
 17
0.0
 27
0.0
 37
0.0
 40
11495.08541324274
 41
1.522222222222221
 42
50.0
 43
0.0
 44
0.0
 50
0.0
 51
0.0
 71
     0
 72
     0
 73
     1
 74
     0
 75
     0
 76
     0
 77
     0
 78
     0
281
     0
 65
     1
110
0.0
120
0.0
130
0.0
111
1.0
121
0.0
131
0.0
112
0.0
122
1.0
132
0.0
 79
     0
146
0.0
  0
ENDTAB
  0
TABLE
  2
LTYPE
  5
746A
330
0
100
AcDbSymbolTable
 70
     3
  0
LTYPE
  5
7477
330
746A
100
AcDbSymbolTableRecord
100
AcDbLinetypeTableRecord
  2
BYBLOCK
 70
     0
  3

 72
    65
 73
     0
 40
0.0
  0
LTYPE
  5
7478
330
746A
100
AcDbSymbolTableRecord
100
AcDbLinetypeTableRecord
  2
BYLAYER
 70
     0
  3

 72
    65
 73
     0
 40
0.0
  0
LTYPE
  5
7479
330
746A
100
AcDbSymbolTableRecord
100
AcDbLinetypeTableRecord
  2
CONTINUOUS
 70
     0
  3
Solid line
 72
    65
 73
     0
 40
0.0
  0
LTYPE
  5
7816
330
746A
100
AcDbSymbolTableRecord
100
AcDbLinetypeTableRecord
  2
CENTER
 70
     0
  3
____ _ ____ _ ____ _ ____ _ ____ _ ____ _ ____ 
 72
    65
 73
     4
 40
2.0
 49
1.25
 74
     0
 49
-0.25
 74
     0
 49
0.25
 74
     0
 49
-0.25
 74
     0
  0
LTYPE
  5
781B
330
746A
100
AcDbSymbolTableRecord
100
AcDbLinetypeTableRecord
  2
PHANTOM
 70
     0
  3
______  __  __  ______  __  __  ______  __  __ 
 72
    65
 73
     6
 40
2.5
 49
1.25
 74
     0
 49
-0.25
 74
     0
 49
0.25
 74
     0
 49
-0.25
 74
     0
 49
0.25
 74
     0
 49
-0.25
 74
     0
  0
ENDTAB
  0
TABLE
  2
LAYER
  5
7467
102
{ACAD_XDICTIONARY
360
1758F
102
}
330
0
100
AcDbSymbolTable
 70
    10
  0
LAYER
  5
7474
330
7467
100
AcDbSymbolTableRecord
100
AcDbLayerTableRecord
  2
0
 70
     0
 62
     7
  6
CONTINUOUS
370
    -3
390
173D0
  0
LAYER
  5
DEB2
330
7467
100
AcDbSymbolTableRecord
100
AcDbLayerTableRecord
  2
センター
 70
     0
 62
     3
  6
CENTER
370
    -3
390
173D0
  0
LAYER
  5
DEB3
330
7467
100
AcDbSymbolTableRecord
100
AcDbLayerTableRecord
  2
寸法
 70
     0
 62
     4
  6
CONTINUOUS
370
    -3
390
173D0
  0
LAYER
  5
DEB4
330
7467
100
AcDbSymbolTableRecord
100
AcDbLayerTableRecord
  2
部品1
 70
     0
 62
     7
  6
CONTINUOUS
370
    -3
390
173D0
  0
LAYER
  5
DEB5
330
7467
100
AcDbSymbolTableRecord
100
AcDbLayerTableRecord
  2
補助
 70
     0
 62
    -1
  6
CONTINUOUS
370
    -3
390
173D0
  0
LAYER
  5
DEB6
330
7467
100
AcDbSymbolTableRecord
100
AcDbLayerTableRecord
  2
文字
 70
     0
 62
     7
  6
CONTINUOUS
370
    -3
390
173D0
  0
LAYER
  5
F255
330
7467
100
AcDbSymbolTableRecord
100
AcDbLayerTableRecord
  2
DEFPOINTS
 70
     0
 62
     7
  6
CONTINUOUS
290
     0
370
    -3
390
173D0
  0
LAYER
  5
10B54
330
7467
100
AcDbSymbolTableRecord
100
AcDbLayerTableRecord
  2
仕様書枠
 70
     0
 62
   230
  6
CONTINUOUS
370
    -3
390
173D0
  0
LAYER
  5
1173F
330
7467
100
AcDbSymbolTableRecord
100
AcDbLayerTableRecord
  2
細線
 70
     0
 62
     5
  6
CONTINUOUS
370
    -3
390
173D0
  0
LAYER
  5
12CC4
330
7467
100
AcDbSymbolTableRecord
100
AcDbLayerTableRecord
  2
想像線
 70
     0
 62
     6
  6
PHANTOM
370
    -3
390
173D0
  0
ENDTAB
  0
TABLE
  2
STYLE
  5
7468
330
0
100
AcDbSymbolTable
 70
     4
  0
STYLE
  5
7475
330
7468
100
AcDbSymbolTableRecord
100
AcDbTextStyleTableRecord
  2
STANDARD
 70
     0
 40
0.0
 41
1.0
 50
0.0
 71
     0
 42
4.0
  3
txt
  4
C:\AutoCAD LT\bigfont.shx
  0
STYLE
  5
763C
330
7468
100
AcDbSymbolTableRecord
100
AcDbTextStyleTableRecord
  2
MSMINCHO
 70
     0
 40
0.0
 41
1.0
 50
0.0
 71
     0
 42
1.199999999999999
  3
C:\AutoCAD LT\msminch2.TTF
  4

  0
STYLE
  5
F706
330
7468
100
AcDbSymbolTableRecord
100
AcDbTextStyleTableRecord
  2
STYLE1
 70
     0
 40
0.0
 41
1.0
 50
0.0
 71
     0
 42
4.0
  3
isocp.shx
  4
bigfont.shx
  0
STYLE
  5
103BF
330
7468
100
AcDbSymbolTableRecord
100
AcDbTextStyleTableRecord
  2
STYLE2
 70
     0
 40
0.0
 41
1.0
 50
0.0
 71
     0
 42
100.0
  3
MS PGothic.ttf
  4

1001
ACAD
1000
MS PGothic
1071
    32818
  0
ENDTAB
  0
TABLE
  2
VIEW
  5
746B
330
0
100
AcDbSymbolTable
 70
     0
  0
ENDTAB
  0
TABLE
  2
UCS
  5
746C
330
0
100
AcDbSymbolTable
 70
     0
  0
ENDTAB
  0
TABLE
  2
APPID
  5
746E
330
0
100
AcDbSymbolTable
 70
     6
  0
APPID
  5
7476
330
746E
100
AcDbSymbolTableRecord
100
AcDbRegAppTableRecord
  2
ACAD
 70
     0
  0
APPID
  5
DEA9
330
746E
100
AcDbSymbolTableRecord
100
AcDbRegAppTableRecord
  2
CONTENTBLOCKICON
 70
     0
  0
APPID
  5
DEAA
330
746E
100
AcDbSymbolTableRecord
100
AcDbRegAppTableRecord
  2
CONTENTBLOCKDESCRIPTION
 70
     0
  0
APPID
  5
E71D
330
746E
100
AcDbSymbolTableRecord
100
AcDbRegAppTableRecord
  2
CONTENTTABDATA
 70
     0
  0
APPID
  5
E71E
330
746E
100
AcDbSymbolTableRecord
100
AcDbRegAppTableRecord
  2
CONTENTCURRENTTAB
 70
     0
  0
APPID
  5
F3BA
330
746E
100
AcDbSymbolTableRecord
100
AcDbRegAppTableRecord
  2
DRAWINGVARIABLESXDATA
 70
     0
  0
ENDTAB
  0
TABLE
  2
DIMSTYLE
  5
746F
330
0
100
AcDbSymbolTable
 70
     1
100
AcDbDimStyleTable
 71
     1
340
F71F
  0
DIMSTYLE
105
F71F
102
{ACAD_REACTORS
330
1F4BD
330
1F4BA
330
1F4B9
330
1F4B7
330
1F4B4
330
1F4B1
330
1F4B0
330
1F4AE
330
1F4AD
330
1F4AA
330
1F4A9
330
1F49C
330
1F49B
330
1F49A
330
1F458
330
1F443
330
1F441
330
1F43B
330
1F3A2
330
1F103
330
1E911
330
1DACA
330
1DAC9
330
1DAC8
330
1DAC7
330
1D333
330
1D2D6
330
1B3B1
330
1B3B0
330
1B31D
330
1B31A
330
1B315
330
1B30F
330
1B30E
330
1B30D
330
1B30C
330
1B26C
330
1B191
330
1B151
330
1B150
330
1B14F
330
1B14E
330
1B14D
330
1B14C
330
1B14A
330
1B149
330
1B146
330
1B144
330
1B143
330
1B13B
330
1AC2C
330
1AC27
102
}
330
746F
100
AcDbSymbolTableRecord
100
AcDbDimStyleTableRecord
  2
INABA_S40G
 70
     0
 40
40.0
 41
2.5
 42
0.5
 43
7.0
 44
1.5
 73
     0
 74
     0
 77
     3
 78
     8
140
3.0
141
0.0
143
0.0394
147
1.0
172
     1
173
     1
174
     1
178
     7
271
     1
340
F706
341
F770
343
F770
344
F770
  0
ENDTAB
  0
TABLE
  2
BLOCK_RECORD
  5
7466
330
0
100
AcDbSymbolTable
 70
    36
  0
BLOCK_RECORD
  5
747D
330
7466
100
AcDbSymbolTableRecord
100
AcDbBlockTableRecord
  2
*MODEL_SPACE
340
173D5
  0
BLOCK_RECORD
  5
747A
330
7466
100
AcDbSymbolTableRecord
100
AcDbBlockTableRecord
  2
*PAPER_SPACE
340
173D6
  0
BLOCK_RECORD
  5
F770
330
7466
100
AcDbSymbolTableRecord
100
AcDbBlockTableRecord
  2
_DOTSMALL
340
0
102
{BLKREFS
331
1F5BB
331
1F5BC
331
1F5C4
331
1F5C5
331
1F5CD
331
1F5CE
331
1F5D6
331
1F5D7
331
1F5DF
331
1F5E0
331
1F5EA
331
1F5EB
331
1F5F3
331
1F5F4
331
1F5FD
331
1F5FE
331
1F607
331
1F608
331
1F610
331
1F611
331
1F61A
331
1F61B
331
1F625
331
1F626
331
1F62F
331
1F630
331
1F63A
331
1F63B
331
1F644
331
1F645
331
1F64E
331
1F64F
331
1F658
331
1F659
331
1F662
331
1F663
331
1F66D
331
1F66E
331
1F677
331
1F678
331
1F682
331
1F683
331
1F68B
331
1F68C
331
1F694
331
1F695
331
1F69F
331
1F6A0
331
1F6A9
331
1F6AA
331
1F6B2
331
1F6B3
331
1F6BB
331
1F6BC
331
1F6C4
331
1F6C5
331
1F6CD
331
1F6CE
331
1F6D6
331
1F6D7
331
1F6DF
331
1F6E0
331
1F6E9
331
1F6EA
331
1F6F2
331
1F6F3
331
1F6FB
331
1F6FC
331
1F704
331
1F705
102
}
  0
BLOCK_RECORD
  5
1B7E6
330
7466
100
AcDbSymbolTableRecord
100
AcDbBlockTableRecord
  2
*D1
340
0
  0
BLOCK_RECORD
  5
1B7F2
330
7466
100
AcDbSymbolTableRecord
100
AcDbBlockTableRecord
  2
*D2
340
0
  0
BLOCK_RECORD
  5
1B7FD
330
7466
100
AcDbSymbolTableRecord
100
AcDbBlockTableRecord
  2
*D3
340
0
  0
BLOCK_RECORD
  5
1B814
330
7466
100
AcDbSymbolTableRecord
100
AcDbBlockTableRecord
  2
*D4
340
0
  0
BLOCK_RECORD
  5
1B821
330
7466
100
AcDbSymbolTableRecord
100
AcDbBlockTableRecord
  2
*D5
340
0
  0
BLOCK_RECORD
  5
1B82D
330
7466
100
AcDbSymbolTableRecord
100
AcDbBlockTableRecord
  2
*D6
340
0
  0
BLOCK_RECORD
  5
1B838
330
7466
100
AcDbSymbolTableRecord
100
AcDbBlockTableRecord
  2
*D7
340
0
  0
BLOCK_RECORD
  5
1B844
330
7466
100
AcDbSymbolTableRecord
100
AcDbBlockTableRecord
  2
*D8
340
0
  0
BLOCK_RECORD
  5
1B84F
330
7466
100
AcDbSymbolTableRecord
100
AcDbBlockTableRecord
  2
*D9
340
0
  0
BLOCK_RECORD
  5
1B85B
330
7466
100
AcDbSymbolTableRecord
100
AcDbBlockTableRecord
  2
*D10
340
0
  0
BLOCK_RECORD
  5
1B866
330
7466
100
AcDbSymbolTableRecord
100
AcDbBlockTableRecord
  2
*D11
340
0
  0
BLOCK_RECORD
  5
1B873
330
7466
100
AcDbSymbolTableRecord
100
AcDbBlockTableRecord
  2
*D12
340
0
  0
BLOCK_RECORD
  5
1B898
330
7466
100
AcDbSymbolTableRecord
100
AcDbBlockTableRecord
  2
*D13
340
0
  0
BLOCK_RECORD
  5
1B8A4
330
7466
100
AcDbSymbolTableRecord
100
AcDbBlockTableRecord
  2
*D14
340
0
  0
BLOCK_RECORD
  5
1B8B0
330
7466
100
AcDbSymbolTableRecord
100
AcDbBlockTableRecord
  2
*D15
340
0
  0
BLOCK_RECORD
  5
1B8BA
330
7466
100
AcDbSymbolTableRecord
100
AcDbBlockTableRecord
  2
*D16
340
0
  0
BLOCK_RECORD
  5
1B8C7
330
7466
100
AcDbSymbolTableRecord
100
AcDbBlockTableRecord
  2
*D17
340
0
  0
BLOCK_RECORD
  5
1B8D4
330
7466
100
AcDbSymbolTableRecord
100
AcDbBlockTableRecord
  2
*D18
340
0
  0
BLOCK_RECORD
  5
1B8E1
330
7466
100
AcDbSymbolTableRecord
100
AcDbBlockTableRecord
  2
*D19
340
0
  0
BLOCK_RECORD
  5
1B8EE
330
7466
100
AcDbSymbolTableRecord
100
AcDbBlockTableRecord
  2
*D20
340
0
  0
BLOCK_RECORD
  5
1B8FB
330
7466
100
AcDbSymbolTableRecord
100
AcDbBlockTableRecord
  2
*D21
340
0
  0
BLOCK_RECORD
  5
1B921
330
7466
100
AcDbSymbolTableRecord
100
AcDbBlockTableRecord
  2
*D22
340
0
  0
BLOCK_RECORD
  5
1B92E
330
7466
100
AcDbSymbolTableRecord
100
AcDbBlockTableRecord
  2
*D23
340
0
  0
BLOCK_RECORD
  5
1DACB
330
7466
100
AcDbSymbolTableRecord
100
AcDbBlockTableRecord
  2
*D24
340
0
  0
BLOCK_RECORD
  5
1DAD7
330
7466
100
AcDbSymbolTableRecord
100
AcDbBlockTableRecord
  2
*D25
340
0
  0
BLOCK_RECORD
  5
1DAE5
330
7466
100
AcDbSymbolTableRecord
100
AcDbBlockTableRecord
  2
*D26
340
0
  0
BLOCK_RECORD
  5
1DAF2
330
7466
100
AcDbSymbolTableRecord
100
AcDbBlockTableRecord
  2
*D27
340
0
  0
BLOCK_RECORD
  5
1E912
330
7466
100
AcDbSymbolTableRecord
100
AcDbBlockTableRecord
  2
*D28
340
0
  0
BLOCK_RECORD
  5
1F104
330
7466
100
AcDbSymbolTableRecord
100
AcDbBlockTableRecord
  2
*D29
340
0
  0
BLOCK_RECORD
  5
1F4C8
330
7466
100
AcDbSymbolTableRecord
100
AcDbBlockTableRecord
  2
*D30
340
0
  0
BLOCK_RECORD
  5
1F4D6
330
7466
100
AcDbSymbolTableRecord
100
AcDbBlockTableRecord
  2
*D31
340
0
  0
BLOCK_RECORD
  5
1F4E1
330
7466
100
AcDbSymbolTableRecord
100
AcDbBlockTableRecord
  2
*D32
340
0
  0
BLOCK_RECORD
  5
1F4ED
330
7466
100
AcDbSymbolTableRecord
100
AcDbBlockTableRecord
  2
*D33
340
0
  0
BLOCK_RECORD
  5
1F4F9
330
7466
100
AcDbSymbolTableRecord
100
AcDbBlockTableRecord
  2
*D34
340
0
  0
BLOCK_RECORD
  5
1F505
330
7466
100
AcDbSymbolTableRecord
100
AcDbBlockTableRecord
  2
*D35
340
0
  0
ENDTAB
  0
ENDSEC
  0
SECTION
  2
BLOCKS
  0
BLOCK
  5
7489
330
747D
100
AcDbEntity
  8
0
100
AcDbBlockBegin
  2
*MODEL_SPACE
 70
     0
 10
0.0
 20
0.0
 30
0.0
  3
*MODEL_SPACE
  1

  0
ENDBLK
  5
748A
330
747D
100
AcDbEntity
  8
0
100
AcDbBlockEnd
  0
BLOCK
  5
7487
330
747A
100
AcDbEntity
 67
     1
  8
0
100
AcDbBlockBegin
  2
*PAPER_SPACE
 70
     0
 10
0.0
 20
0.0
 30
0.0
  3
*PAPER_SPACE
  1

  0
ENDBLK
  5
7488
330
747A
100
AcDbEntity
 67
     1
  8
0
100
AcDbBlockEnd
  0
BLOCK
  5
F771
330
F770
100
AcDbEntity
  8
0
 48
50.0
100
AcDbBlockBegin
  2
_DOTSMALL
 70
     0
 10
0.0
 20
0.0
 30
0.0
  3
_DOTSMALL
  1

  0
LWPOLYLINE
  5
F772
330
F770
100
AcDbEntity
  8
0
  6
ByBlock
 62
     0
 48
50.0
100
AcDbPolyline
 90
        2
 70
     1
 43
0.5
 10
-0.0625
 20
0.0
 42
1.0
 10
0.0625
 20
0.0
 42
1.0
  0
ENDBLK
  5
F776
330
F770
100
AcDbEntity
  8
0
 48
50.0
100
AcDbBlockEnd
  0
BLOCK
  5
1B7F0
330
1B7E6
100
AcDbEntity
  8
0
 48
50.0
100
AcDbBlockBegin
  2
*D1
 70
     1
 10
0.0
 20
0.0
 30
0.0
  3
*D1
  1

  0
LINE
  5
1F701
330
1B7E6
100
AcDbEntity
  8
寸法
 62
     0
 48
50.0
370
    -2
100
AcDbLine
 10
9963.600000000001
 20
8428.388227968408
 30
0.0
 11
9963.600000000001
 21
8995.297993616736
 31
0.0
  0
LINE
  5
1F702
330
1B7E6
100
AcDbEntity
  8
寸法
 62
     0
 48
50.0
370
    -2
100
AcDbLine
 10
9055.600000000001
 20
7753.388227968407
 30
0.0
 11
9055.600000000001
 21
8995.297993616736
 31
0.0
  0
LINE
  5
1F703
330
1B7E6
100
AcDbEntity
  8
寸法
 62
     0
 48
50.0
370
    -2
100
AcDbLine
 10
9963.600000000001
 20
8935.297993616735
 30
0.0
 11
9055.600000000001
 21
8935.297993616735
 31
0.0
  0
INSERT
  5
1F704
330
1B7E6
100
AcDbEntity
  8
寸法
 62
     0
 48
50.0
370
    -2
100
AcDbBlockReference
  2
_DOTSMALL
 10
9963.600000000001
 20
8935.297993616735
 30
0.0
 41
100.0
 42
100.0
 43
100.0
  0
INSERT
  5
1F705
330
1B7E6
100
AcDbEntity
  8
寸法
 62
     0
 48
50.0
370
    -2
100
AcDbBlockReference
  2
_DOTSMALL
 10
9055.600000000001
 20
8935.297993616735
 30
0.0
 41
100.0
 42
100.0
 43
100.0
 50
180.0
  0
MTEXT
  5
1F706
330
1B7E6
100
AcDbEntity
  8
寸法
 62
     7
 48
50.0
100
AcDbMText
 10
9534.51852200628
 20
9035.297993616735
 30
0.0
 40
120.0
 41
0.0
 71
     5
 72
     1
  1
\A1;908
  7
STYLE1
 73
     1
 44
1.0
1001
ACAD
1000
MTEXTBEGIN
1070
    73
1070
     1
1070
    44
1040
1.0
1070
    74
1070
     0
1000
MTEXTEND
  0
POINT
  5
1F707
330
1B7E6
100
AcDbEntity
  8
DEFPOINTS
 62
     0
 48
50.0
100
AcDbPoint
 10
9963.600000000001
 20
8408.388227968407
 30
0.0
  0
POINT
  5
1F708
330
1B7E6
100
AcDbEntity
  8
DEFPOINTS
 62
     0
 48
50.0
100
AcDbPoint
 10
9055.600000000001
 20
7733.388227968408
 30
0.0
  0
POINT
  5
1F709
330
1B7E6
100
AcDbEntity
  8
DEFPOINTS
 62
     0
 48
50.0
100
AcDbPoint
 10
9055.600000000001
 20
8935.297993616735
 30
0.0
  0
ENDBLK
  5
1B7F1
330
1B7E6
100
AcDbEntity
  8
0
 48
50.0
100
AcDbBlockEnd
  0
BLOCK
  5
1B7FB
330
1B7F2
100
AcDbEntity
  8
0
 48
50.0
100
AcDbBlockBegin
  2
*D2
 70
     1
 10
0.0
 20
0.0
 30
0.0
  3
*D2
  1

  0
LINE
  5
1F6F8
330
1B7F2
100
AcDbEntity
  8
寸法
 62
     0
 48
50.0
370
    -2
100
AcDbLine
 10
6483.6
 20
8428.388227968408
 30
0.0
 11
6483.6
 21
9426.608550027328
 31
0.0
  0
LINE
  5
1F6F9
330
1B7F2
100
AcDbEntity
  8
寸法
 62
     0
 48
50.0
370
    -2
100
AcDbLine
 10
9963.600000000001
 20
8428.388227968408
 30
0.0
 11
9963.600000000001
 21
9426.608550027328
 31
0.0
  0
LINE
  5
1F6FA
330
1B7F2
100
AcDbEntity
  8
寸法
 62
     0
 48
50.0
370
    -2
100
AcDbLine
 10
6483.6
 20
9366.608550027327
 30
0.0
 11
9963.600000000001
 21
9366.608550027327
 31
0.0
  0
INSERT
  5
1F6FB
330
1B7F2
100
AcDbEntity
  8
寸法
 62
     0
 48
50.0
370
    -2
100
AcDbBlockReference
  2
_DOTSMALL
 10
6483.6
 20
9366.608550027327
 30
0.0
 41
100.0
 42
100.0
 43
100.0
 50
180.0
  0
INSERT
  5
1F6FC
330
1B7F2
100
AcDbEntity
  8
寸法
 62
     0
 48
50.0
370
    -2
100
AcDbBlockReference
  2
_DOTSMALL
 10
9963.600000000001
 20
9366.608550027327
 30
0.0
 41
100.0
 42
100.0
 43
100.0
  0
MTEXT
  5
1F6FD
330
1B7F2
100
AcDbEntity
  8
寸法
 62
     7
 48
50.0
100
AcDbMText
 10
8223.600000000001
 20
9466.608550027329
 30
0.0
 40
120.0
 41
0.0
 71
     5
 72
     1
  1
\A1;3480
  7
STYLE1
 73
     1
 44
1.0
1001
ACAD
1000
MTEXTBEGIN
1070
    73
1070
     1
1070
    44
1040
1.0
1070
    74
1070
     0
1000
MTEXTEND
  0
POINT
  5
1F6FE
330
1B7F2
100
AcDbEntity
  8
DEFPOINTS
 62
     0
 48
50.0
100
AcDbPoint
 10
6483.6
 20
8408.388227968407
 30
0.0
  0
POINT
  5
1F6FF
330
1B7F2
100
AcDbEntity
  8
DEFPOINTS
 62
     0
 48
50.0
100
AcDbPoint
 10
9963.600000000001
 20
8408.388227968407
 30
0.0
  0
POINT
  5
1F700
330
1B7F2
100
AcDbEntity
  8
DEFPOINTS
 62
     0
 48
50.0
100
AcDbPoint
 10
9963.600000000001
 20
9366.608550027327
 30
0.0
  0
ENDBLK
  5
1B7FC
330
1B7F2
100
AcDbEntity
  8
0
 48
50.0
100
AcDbBlockEnd
  0
BLOCK
  5
1B806
330
1B7FD
100
AcDbEntity
  8
0
 48
50.0
100
AcDbBlockBegin
  2
*D3
 70
     1
 10
0.0
 20
0.0
 30
0.0
  3
*D3
  1

  0
LINE
  5
1F6EF
330
1B7FD
100
AcDbEntity
  8
寸法
 62
     0
 48
50.0
370
    -2
100
AcDbLine
 10
9840.600000000002
 20
8355.388227968408
 30
0.0
 11
9840.600000000002
 21
9214.147854510491
 31
0.0
  0
LINE
  5
1F6F0
330
1B7FD
100
AcDbEntity
  8
寸法
 62
     0
 48
50.0
370
    -2
100
AcDbLine
 10
6606.6
 20
8355.388227968408
 30
0.0
 11
6606.6
 21
9214.147854510491
 31
0.0
  0
LINE
  5
1F6F1
330
1B7FD
100
AcDbEntity
  8
寸法
 62
     0
 48
50.0
370
    -2
100
AcDbLine
 10
9840.600000000002
 20
9154.14785451049
 30
0.0
 11
6606.6
 21
9154.14785451049
 31
0.0
  0
INSERT
  5
1F6F2
330
1B7FD
100
AcDbEntity
  8
寸法
 62
     0
 48
50.0
370
    -2
100
AcDbBlockReference
  2
_DOTSMALL
 10
9840.600000000002
 20
9154.14785451049
 30
0.0
 41
100.0
 42
100.0
 43
100.0
  0
INSERT
  5
1F6F3
330
1B7FD
100
AcDbEntity
  8
寸法
 62
     0
 48
50.0
370
    -2
100
AcDbBlockReference
  2
_DOTSMALL
 10
6606.6
 20
9154.14785451049
 30
0.0
 41
100.0
 42
100.0
 43
100.0
 50
180.0
  0
MTEXT
  5
1F6F4
330
1B7FD
100
AcDbEntity
  8
寸法
 62
     7
 48
50.0
100
AcDbMText
 10
8223.600000000001
 20
9254.159665534112
 30
0.0
 40
120.0
 41
0.0
 71
     5
 72
     1
  1
\A1;3234
  7
STYLE1
 73
     1
 44
1.0
1001
ACAD
1000
MTEXTBEGIN
1070
    73
1070
     1
1070
    44
1040
1.0
1070
    74
1070
     0
1000
MTEXTEND
  0
POINT
  5
1F6F5
330
1B7FD
100
AcDbEntity
  8
DEFPOINTS
 62
     0
 48
50.0
100
AcDbPoint
 10
9840.600000000002
 20
8335.388227968406
 30
0.0
  0
POINT
  5
1F6F6
330
1B7FD
100
AcDbEntity
  8
DEFPOINTS
 62
     0
 48
50.0
100
AcDbPoint
 10
6606.6
 20
8335.388227968406
 30
0.0
  0
POINT
  5
1F6F7
330
1B7FD
100
AcDbEntity
  8
DEFPOINTS
 62
     0
 48
50.0
100
AcDbPoint
 10
6606.6
 20
9154.14785451049
 30
0.0
  0
ENDBLK
  5
1B807
330
1B7FD
100
AcDbEntity
  8
0
 48
50.0
100
AcDbBlockEnd
  0
BLOCK
  5
1B81F
330
1B814
100
AcDbEntity
  8
0
 48
50.0
100
AcDbBlockBegin
  2
*D4
 70
     1
 10
0.0
 20
0.0
 30
0.0
  3
*D4
  1

  0
LINE
  5
1F6E5
330
1B814
100
AcDbEntity
  8
寸法
 62
     0
 48
50.0
370
    -2
100
AcDbLine
 10
6784.989764952815
 20
8288.388227968409
 30
0.0
 11
6990.307249876099
 21
8288.388227968409
 31
0.0
  0
LINE
  5
1F6E6
330
1B814
100
AcDbEntity
  8
寸法
 62
     0
 48
50.0
370
    -2
100
AcDbLine
 10
6733.6
 20
8178.388227968403
 30
0.0
 11
6990.307249876099
 21
8178.388227968403
 31
0.0
  0
LINE
  5
1F6E7
330
1B814
100
AcDbEntity
  8
寸法
 62
     0
 48
50.0
370
    -2
100
AcDbLine
 10
6930.307249876098
 20
8288.388227968409
 30
0.0
 11
6930.307249876098
 21
8178.388227968403
 31
0.0
  0
LINE
  5
1F6E8
330
1B814
100
AcDbEntity
  8
寸法
 62
     0
 48
50.0
370
    -2
100
AcDbLine
 10
6930.307249876098
 20
8178.388227968403
 30
0.0
 11
6930.307249876098
 21
7714.281928755804
 31
0.0
  0
INSERT
  5
1F6E9
330
1B814
100
AcDbEntity
  8
寸法
 62
     0
 48
50.0
370
    -2
100
AcDbBlockReference
  2
_DOTSMALL
 10
6930.307249876098
 20
8288.388227968409
 30
0.0
 41
100.0
 42
100.0
 43
100.0
 50
90.0
  0
INSERT
  5
1F6EA
330
1B814
100
AcDbEntity
  8
寸法
 62
     0
 48
50.0
370
    -2
100
AcDbBlockReference
  2
_DOTSMALL
 10
6930.307249876098
 20
8178.388227968403
 30
0.0
 41
100.0
 42
100.0
 43
100.0
 50
270.0
  0
MTEXT
  5
1F6EB
330
1B814
100
AcDbEntity
  8
寸法
 62
     7
 48
50.0
100
AcDbMText
 10
6830.307249876098
 20
7838.329172850293
 30
0.0
 40
120.0
 41
0.0
 71
     5
 72
     1
  1
\A1;110
  7
STYLE1
 11
0.0000000000000001
 21
1.0
 31
0.0
 73
     1
 44
1.0
1001
ACAD
1000
MTEXTBEGIN
1070
    73
1070
     1
1070
    44
1040
1.0
1070
    74
1070
     0
1000
MTEXTEND
  0
POINT
  5
1F6EC
330
1B814
100
AcDbEntity
  8
DEFPOINTS
 62
     0
 48
50.0
100
AcDbPoint
 10
6764.989764952814
 20
8288.388227968409
 30
0.0
  0
POINT
  5
1F6ED
330
1B814
100
AcDbEntity
  8
DEFPOINTS
 62
     0
 48
50.0
100
AcDbPoint
 10
6713.600000000001
 20
8178.388227968403
 30
0.0
  0
POINT
  5
1F6EE
330
1B814
100
AcDbEntity
  8
DEFPOINTS
 62
     0
 48
50.0
100
AcDbPoint
 10
6930.307249876098
 20
8178.388227968403
 30
0.0
  0
ENDBLK
  5
1B820
330
1B814
100
AcDbEntity
  8
0
 48
50.0
100
AcDbBlockEnd
  0
BLOCK
  5
1B82B
330
1B821
100
AcDbEntity
  8
0
 48
50.0
100
AcDbBlockBegin
  2
*D5
 70
     1
 10
0.0
 20
0.0
 30
0.0
  3
*D5
  1

  0
LINE
  5
1F6DC
330
1B821
100
AcDbEntity
  8
寸法
 62
     0
 48
50.0
370
    -2
100
AcDbLine
 10
6536.599999999999
 20
8285.388227968407
 30
0.0
 11
5927.657733986179
 21
8285.388227968407
 31
0.0
  0
LINE
  5
1F6DD
330
1B821
100
AcDbEntity
  8
寸法
 62
     0
 48
50.0
370
    -2
100
AcDbLine
 10
6536.600000000007
 20
5891.388227968409
 30
0.0
 11
5927.657733986178
 21
5891.38822796841
 31
0.0
  0
LINE
  5
1F6DE
330
1B821
100
AcDbEntity
  8
寸法
 62
     0
 48
50.0
370
    -2
100
AcDbLine
 10
5987.657733986178
 20
8285.388227968407
 30
0.0
 11
5987.657733986178
 21
5891.38822796841
 31
0.0
  0
INSERT
  5
1F6DF
330
1B821
100
AcDbEntity
  8
寸法
 62
     0
 48
50.0
370
    -2
100
AcDbBlockReference
  2
_DOTSMALL
 10
5987.657733986178
 20
8285.388227968407
 30
0.0
 41
100.0
 42
100.0
 43
100.0
 50
90.0
  0
INSERT
  5
1F6E0
330
1B821
100
AcDbEntity
  8
寸法
 62
     0
 48
50.0
370
    -2
100
AcDbBlockReference
  2
_DOTSMALL
 10
5987.657733986178
 20
5891.38822796841
 30
0.0
 41
100.0
 42
100.0
 43
100.0
 50
270.0
  0
MTEXT
  5
1F6E1
330
1B821
100
AcDbEntity
  8
寸法
 62
     7
 48
50.0
100
AcDbMText
 10
5887.645922962555
 20
7088.38822796841
 30
0.0
 40
120.0
 41
0.0
 71
     5
 72
     1
  1
\A1;2394
  7
STYLE1
 11
0.0000000000000001
 21
1.0
 31
0.0
 73
     1
 44
1.0
1001
ACAD
1000
MTEXTBEGIN
1070
    73
1070
     1
1070
    44
1040
1.0
1070
    74
1070
     0
1000
MTEXTEND
  0
POINT
  5
1F6E2
330
1B821
100
AcDbEntity
  8
DEFPOINTS
 62
     0
 48
50.0
100
AcDbPoint
 10
6556.6
 20
8285.388227968407
 30
0.0
  0
POINT
  5
1F6E3
330
1B821
100
AcDbEntity
  8
DEFPOINTS
 62
     0
 48
50.0
100
AcDbPoint
 10
6556.600000000007
 20
5891.388227968409
 30
0.0
  0
POINT
  5
1F6E4
330
1B821
100
AcDbEntity
  8
DEFPOINTS
 62
     0
 48
50.0
100
AcDbPoint
 10
5987.657733986178
 20
5891.38822796841
 30
0.0
  0
ENDBLK
  5
1B82C
330
1B821
100
AcDbEntity
  8
0
 48
50.0
100
AcDbBlockEnd
  0
BLOCK
  5
1B836
330
1B82D
100
AcDbEntity
  8
0
 48
50.0
100
AcDbBlockBegin
  2
*D6
 70
     1
 10
0.0
 20
0.0
 30
0.0
  3
*D6
  1

  0
LINE
  5
1F6D3
330
1B82D
100
AcDbEntity
  8
寸法
 62
     0
 48
50.0
370
    -2
100
AcDbLine
 10
6463.600000000001
 20
8408.388227968407
 30
0.0
 11
5682.164931848212
 21
8408.388227968407
 31
0.0
  0
LINE
  5
1F6D4
330
1B82D
100
AcDbEntity
  8
寸法
 62
     0
 48
50.0
370
    -2
100
AcDbLine
 10
6463.600000000001
 20
5768.388227968408
 30
0.0
 11
5682.164931848211
 21
5768.388227968408
 31
0.0
  0
LINE
  5
1F6D5
330
1B82D
100
AcDbEntity
  8
寸法
 62
     0
 48
50.0
370
    -2
100
AcDbLine
 10
5742.164931848211
 20
8408.388227968407
 30
0.0
 11
5742.16493184821
 21
5768.388227968408
 31
0.0
  0
INSERT
  5
1F6D6
330
1B82D
100
AcDbEntity
  8
寸法
 62
     0
 48
50.0
370
    -2
100
AcDbBlockReference
  2
_DOTSMALL
 10
5742.164931848211
 20
8408.388227968407
 30
0.0
 41
100.0
 42
100.0
 43
100.0
 50
90.0
  0
INSERT
  5
1F6D7
330
1B82D
100
AcDbEntity
  8
寸法
 62
     0
 48
50.0
370
    -2
100
AcDbBlockReference
  2
_DOTSMALL
 10
5742.16493184821
 20
5768.388227968408
 30
0.0
 41
100.0
 42
100.0
 43
100.0
 50
270.0
  0
MTEXT
  5
1F6D8
330
1B82D
100
AcDbEntity
  8
寸法
 62
     7
 48
50.0
100
AcDbMText
 10
5642.153120824588
 20
7088.38822796841
 30
0.0
 40
120.0
 41
0.0
 71
     5
 72
     1
  1
\A1;2640
  7
STYLE1
 11
0.0000000000000001
 21
1.0
 31
0.0
 73
     1
 44
1.0
1001
ACAD
1000
MTEXTBEGIN
1070
    73
1070
     1
1070
    44
1040
1.0
1070
    74
1070
     0
1000
MTEXTEND
  0
POINT
  5
1F6D9
330
1B82D
100
AcDbEntity
  8
DEFPOINTS
 62
     0
 48
50.0
100
AcDbPoint
 10
6483.6
 20
8408.388227968407
 30
0.0
  0
POINT
  5
1F6DA
330
1B82D
100
AcDbEntity
  8
DEFPOINTS
 62
     0
 48
50.0
100
AcDbPoint
 10
6483.6
 20
5768.388227968408
 30
0.0
  0
POINT
  5
1F6DB
330
1B82D
100
AcDbEntity
  8
DEFPOINTS
 62
     0
 48
50.0
100
AcDbPoint
 10
5742.16493184821
 20
5768.388227968408
 30
0.0
  0
ENDBLK
  5
1B837
330
1B82D
100
AcDbEntity
  8
0
 48
50.0
100
AcDbBlockEnd
  0
BLOCK
  5
1B842
330
1B838
100
AcDbEntity
  8
0
 48
50.0
100
AcDbBlockBegin
  2
*D7
 70
     1
 10
0.0
 20
0.0
 30
0.0
  3
*D7
  1

  0
LINE
  5
1F6CA
330
1B838
100
AcDbEntity
  8
寸法
 62
     0
 48
50.0
370
    -2
100
AcDbLine
 10
8223.600000000001
 20
7753.388227968407
 30
0.0
 11
8223.600000000001
 21
8995.297993616736
 31
0.0
  0
LINE
  5
1F6CB
330
1B838
100
AcDbEntity
  8
寸法
 62
     0
 48
50.0
370
    -2
100
AcDbLine
 10
7391.600000000001
 20
7753.388227968407
 30
0.0
 11
7391.600000000001
 21
8995.297993616736
 31
0.0
  0
LINE
  5
1F6CC
330
1B838
100
AcDbEntity
  8
寸法
 62
     0
 48
50.0
370
    -2
100
AcDbLine
 10
8223.600000000001
 20
8935.297993616735
 30
0.0
 11
7391.600000000001
 21
8935.297993616735
 31
0.0
  0
INSERT
  5
1F6CD
330
1B838
100
AcDbEntity
  8
寸法
 62
     0
 48
50.0
370
    -2
100
AcDbBlockReference
  2
_DOTSMALL
 10
8223.600000000001
 20
8935.297993616735
 30
0.0
 41
100.0
 42
100.0
 43
100.0
  0
INSERT
  5
1F6CE
330
1B838
100
AcDbEntity
  8
寸法
 62
     0
 48
50.0
370
    -2
100
AcDbBlockReference
  2
_DOTSMALL
 10
7391.600000000001
 20
8935.297993616735
 30
0.0
 41
100.0
 42
100.0
 43
100.0
 50
180.0
  0
MTEXT
  5
1F6CF
330
1B838
100
AcDbEntity
  8
寸法
 62
     7
 48
50.0
100
AcDbMText
 10
7807.6
 20
9035.309804640357
 30
0.0
 40
120.0
 41
0.0
 71
     5
 72
     1
  1
\A1;832
  7
STYLE1
 73
     1
 44
1.0
1001
ACAD
1000
MTEXTBEGIN
1070
    73
1070
     1
1070
    44
1040
1.0
1070
    74
1070
     0
1000
MTEXTEND
  0
POINT
  5
1F6D0
330
1B838
100
AcDbEntity
  8
DEFPOINTS
 62
     0
 48
50.0
100
AcDbPoint
 10
8223.600000000001
 20
7733.388227968408
 30
0.0
  0
POINT
  5
1F6D1
330
1B838
100
AcDbEntity
  8
DEFPOINTS
 62
     0
 48
50.0
100
AcDbPoint
 10
7391.600000000001
 20
7733.388227968408
 30
0.0
  0
POINT
  5
1F6D2
330
1B838
100
AcDbEntity
  8
DEFPOINTS
 62
     0
 48
50.0
100
AcDbPoint
 10
7391.600000000001
 20
8935.297993616735
 30
0.0
  0
ENDBLK
  5
1B843
330
1B838
100
AcDbEntity
  8
0
 48
50.0
100
AcDbBlockEnd
  0
BLOCK
  5
1B84D
330
1B844
100
AcDbEntity
  8
0
 48
50.0
100
AcDbBlockBegin
  2
*D8
 70
     1
 10
0.0
 20
0.0
 30
0.0
  3
*D8
  1

  0
LINE
  5
1F6C1
330
1B844
100
AcDbEntity
  8
寸法
 62
     0
 48
50.0
370
    -2
100
AcDbLine
 10
7391.600000000001
 20
7753.388227968407
 30
0.0
 11
7391.600000000001
 21
8995.297993616736
 31
0.0
  0
LINE
  5
1F6C2
330
1B844
100
AcDbEntity
  8
寸法
 62
     0
 48
50.0
370
    -2
100
AcDbLine
 10
6483.6
 20
8428.388227968408
 30
0.0
 11
6483.6
 21
8995.297993616736
 31
0.0
  0
LINE
  5
1F6C3
330
1B844
100
AcDbEntity
  8
寸法
 62
     0
 48
50.0
370
    -2
100
AcDbLine
 10
7391.600000000001
 20
8935.297993616735
 30
0.0
 11
6483.6
 21
8935.297993616735
 31
0.0
  0
INSERT
  5
1F6C4
330
1B844
100
AcDbEntity
  8
寸法
 62
     0
 48
50.0
370
    -2
100
AcDbBlockReference
  2
_DOTSMALL
 10
7391.600000000001
 20
8935.297993616735
 30
0.0
 41
100.0
 42
100.0
 43
100.0
  0
INSERT
  5
1F6C5
330
1B844
100
AcDbEntity
  8
寸法
 62
     0
 48
50.0
370
    -2
100
AcDbBlockReference
  2
_DOTSMALL
 10
6483.6
 20
8935.297993616735
 30
0.0
 41
100.0
 42
100.0
 43
100.0
 50
180.0
  0
MTEXT
  5
1F6C6
330
1B844
100
AcDbEntity
  8
寸法
 62
     7
 48
50.0
100
AcDbMText
 10
6937.6
 20
9035.297993616735
 30
0.0
 40
120.0
 41
0.0
 71
     5
 72
     1
  1
\A1;908
  7
STYLE1
 73
     1
 44
1.0
1001
ACAD
1000
MTEXTBEGIN
1070
    73
1070
     1
1070
    44
1040
1.0
1070
    74
1070
     0
1000
MTEXTEND
  0
POINT
  5
1F6C7
330
1B844
100
AcDbEntity
  8
DEFPOINTS
 62
     0
 48
50.0
100
AcDbPoint
 10
7391.600000000001
 20
7733.388227968408
 30
0.0
  0
POINT
  5
1F6C8
330
1B844
100
AcDbEntity
  8
DEFPOINTS
 62
     0
 48
50.0
100
AcDbPoint
 10
6483.6
 20
8408.388227968407
 30
0.0
  0
POINT
  5
1F6C9
330
1B844
100
AcDbEntity
  8
DEFPOINTS
 62
     0
 48
50.0
100
AcDbPoint
 10
6483.6
 20
8935.297993616735
 30
0.0
  0
ENDBLK
  5
1B84E
330
1B844
100
AcDbEntity
  8
0
 48
50.0
100
AcDbBlockEnd
  0
BLOCK
  5
1B859
330
1B84F
100
AcDbEntity
  8
0
 48
50.0
100
AcDbBlockBegin
  2
*D9
 70
     1
 10
0.0
 20
0.0
 30
0.0
  3
*D9
  1

  0
LINE
  5
1F6B8
330
1B84F
100
AcDbEntity
  8
寸法
 62
     0
 48
50.0
370
    -2
100
AcDbLine
 10
9055.600000000001
 20
7753.388227968407
 30
0.0
 11
9055.600000000001
 21
8995.297993616736
 31
0.0
  0
LINE
  5
1F6B9
330
1B84F
100
AcDbEntity
  8
寸法
 62
     0
 48
50.0
370
    -2
100
AcDbLine
 10
8223.600000000001
 20
7753.388227968407
 30
0.0
 11
8223.600000000001
 21
8995.297993616736
 31
0.0
  0
LINE
  5
1F6BA
330
1B84F
100
AcDbEntity
  8
寸法
 62
     0
 48
50.0
370
    -2
100
AcDbLine
 10
9055.600000000001
 20
8935.297993616735
 30
0.0
 11
8223.600000000001
 21
8935.297993616735
 31
0.0
  0
INSERT
  5
1F6BB
330
1B84F
100
AcDbEntity
  8
寸法
 62
     0
 48
50.0
370
    -2
100
AcDbBlockReference
  2
_DOTSMALL
 10
9055.600000000001
 20
8935.297993616735
 30
0.0
 41
100.0
 42
100.0
 43
100.0
  0
INSERT
  5
1F6BC
330
1B84F
100
AcDbEntity
  8
寸法
 62
     0
 48
50.0
370
    -2
100
AcDbBlockReference
  2
_DOTSMALL
 10
8223.600000000001
 20
8935.297993616735
 30
0.0
 41
100.0
 42
100.0
 43
100.0
 50
180.0
  0
MTEXT
  5
1F6BD
330
1B84F
100
AcDbEntity
  8
寸法
 62
     7
 48
50.0
100
AcDbMText
 10
8639.599999999999
 20
9035.309804640357
 30
0.0
 40
120.0
 41
0.0
 71
     5
 72
     1
  1
\A1;832
  7
STYLE1
 73
     1
 44
1.0
1001
ACAD
1000
MTEXTBEGIN
1070
    73
1070
     1
1070
    44
1040
1.0
1070
    74
1070
     0
1000
MTEXTEND
  0
POINT
  5
1F6BE
330
1B84F
100
AcDbEntity
  8
DEFPOINTS
 62
     0
 48
50.0
100
AcDbPoint
 10
9055.600000000001
 20
7733.388227968408
 30
0.0
  0
POINT
  5
1F6BF
330
1B84F
100
AcDbEntity
  8
DEFPOINTS
 62
     0
 48
50.0
100
AcDbPoint
 10
8223.600000000001
 20
7733.388227968408
 30
0.0
  0
POINT
  5
1F6C0
330
1B84F
100
AcDbEntity
  8
DEFPOINTS
 62
     0
 48
50.0
100
AcDbPoint
 10
8223.600000000001
 20
8935.297993616735
 30
0.0
  0
ENDBLK
  5
1B85A
330
1B84F
100
AcDbEntity
  8
0
 48
50.0
100
AcDbBlockEnd
  0
BLOCK
  5
1B864
330
1B85B
100
AcDbEntity
  8
0
 48
50.0
100
AcDbBlockBegin
  2
*D10
 70
     1
 10
0.0
 20
0.0
 30
0.0
  3
*D10
  1

  0
LINE
  5
1F6AF
330
1B85B
100
AcDbEntity
  8
寸法
 62
     0
 48
50.0
370
    -2
100
AcDbLine
 10
7271.600000000001
 20
7533.388227968406
 30
0.0
 11
7082.143301171608
 21
7533.388227968406
 31
0.0
  0
LINE
  5
1F6B0
330
1B85B
100
AcDbEntity
  8
寸法
 62
     0
 48
50.0
370
    -2
100
AcDbLine
 10
6894.600000000001
 20
8408.388227968407
 30
0.0
 11
7202.143301171608
 21
8408.388227968407
 31
0.0
  0
LINE
  5
1F6B1
330
1B85B
100
AcDbEntity
  8
寸法
 62
     0
 48
50.0
370
    -2
100
AcDbLine
 10
7142.143301171607
 20
7533.388227968406
 30
0.0
 11
7142.143301171607
 21
8408.388227968407
 31
0.0
  0
INSERT
  5
1F6B2
330
1B85B
100
AcDbEntity
  8
寸法
 62
     0
 48
50.0
370
    -2
100
AcDbBlockReference
  2
_DOTSMALL
 10
7142.143301171607
 20
7533.388227968406
 30
0.0
 41
100.0
 42
100.0
 43
100.0
 50
270.0
  0
INSERT
  5
1F6B3
330
1B85B
100
AcDbEntity
  8
寸法
 62
     0
 48
50.0
370
    -2
100
AcDbBlockReference
  2
_DOTSMALL
 10
7142.143301171607
 20
8408.388227968407
 30
0.0
 41
100.0
 42
100.0
 43
100.0
 50
90.0
  0
MTEXT
  5
1F6B4
330
1B85B
100
AcDbEntity
  8
寸法
 62
     7
 48
50.0
100
AcDbMText
 10
7042.143301171607
 20
7971.62872474358
 30
0.0
 40
120.0
 41
0.0
 71
     5
 72
     1
  1
\A1;875
  7
STYLE1
 11
0.0000000000000001
 21
1.0
 31
0.0
 73
     1
 44
1.0
1001
ACAD
1000
MTEXTBEGIN
1070
    73
1070
     1
1070
    44
1040
1.0
1070
    74
1070
     0
1000
MTEXTEND
  0
POINT
  5
1F6B5
330
1B85B
100
AcDbEntity
  8
DEFPOINTS
 62
     0
 48
50.0
100
AcDbPoint
 10
7291.600000000001
 20
7533.388227968406
 30
0.0
  0
POINT
  5
1F6B6
330
1B85B
100
AcDbEntity
  8
DEFPOINTS
 62
     0
 48
50.0
100
AcDbPoint
 10
6874.6
 20
8408.388227968407
 30
0.0
  0
POINT
  5
1F6B7
330
1B85B
100
AcDbEntity
  8
DEFPOINTS
 62
     0
 48
50.0
100
AcDbPoint
 10
7142.143301171607
 20
8408.388227968407
 30
0.0
  0
ENDBLK
  5
1B865
330
1B85B
100
AcDbEntity
  8
0
 48
50.0
100
AcDbBlockEnd
  0
BLOCK
  5
1B871
330
1B866
100
AcDbEntity
  8
0
 48
50.0
100
AcDbBlockBegin
  2
*D11
 70
     1
 10
0.0
 20
0.0
 30
0.0
  3
*D11
  1

  0
LINE
  5
1F6A5
330
1B866
100
AcDbEntity
  8
寸法
 62
     0
 48
50.0
370
    -2
100
AcDbLine
 10
6536.600000000007
 20
5891.388227968409
 30
0.0
 11
5927.657733986179
 21
5891.38822796841
 31
0.0
  0
LINE
  5
1F6A6
330
1B866
100
AcDbEntity
  8
寸法
 62
     0
 48
50.0
370
    -2
100
AcDbLine
 10
6463.600000000001
 20
5768.388227968408
 30
0.0
 11
5927.657733986179
 21
5768.388227968408
 31
0.0
  0
LINE
  5
1F6A7
330
1B866
100
AcDbEntity
  8
寸法
 62
     0
 48
50.0
370
    -2
100
AcDbLine
 10
5987.657733986178
 20
5891.38822796841
 30
0.0
 11
5987.657733986178
 21
5768.388227968408
 31
0.0
  0
LINE
  5
1F6A8
330
1B866
100
AcDbEntity
  8
寸法
 62
     0
 48
50.0
370
    -2
100
AcDbLine
 10
5987.657733986178
 20
5768.388227968408
 30
0.0
 11
5987.657733986178
 21
5294.371997751575
 31
0.0
  0
INSERT
  5
1F6A9
330
1B866
100
AcDbEntity
  8
寸法
 62
     0
 48
50.0
370
    -2
100
AcDbBlockReference
  2
_DOTSMALL
 10
5987.657733986178
 20
5891.38822796841
 30
0.0
 41
100.0
 42
100.0
 43
100.0
 50
90.0
  0
INSERT
  5
1F6AA
330
1B866
100
AcDbEntity
  8
寸法
 62
     0
 48
50.0
370
    -2
100
AcDbBlockReference
  2
_DOTSMALL
 10
5987.657733986178
 20
5768.388227968408
 30
0.0
 41
100.0
 42
100.0
 43
100.0
 50
270.0
  0
MTEXT
  5
1F6AB
330
1B866
100
AcDbEntity
  8
寸法
 62
     7
 48
50.0
100
AcDbMText
 10
5887.645922962556
 20
5432.857279125816
 30
0.0
 40
120.0
 41
0.0
 71
     5
 72
     1
  1
\A1;123
  7
STYLE1
 11
0.0000000000000001
 21
1.0
 31
0.0
 73
     1
 44
1.0
1001
ACAD
1000
MTEXTBEGIN
1070
    73
1070
     1
1070
    44
1040
1.0
1070
    74
1070
     0
1000
MTEXTEND
  0
POINT
  5
1F6AC
330
1B866
100
AcDbEntity
  8
DEFPOINTS
 62
     0
 48
50.0
100
AcDbPoint
 10
6556.600000000007
 20
5891.388227968409
 30
0.0
  0
POINT
  5
1F6AD
330
1B866
100
AcDbEntity
  8
DEFPOINTS
 62
     0
 48
50.0
100
AcDbPoint
 10
6483.6
 20
5768.388227968408
 30
0.0
  0
POINT
  5
1F6AE
330
1B866
100
AcDbEntity
  8
DEFPOINTS
 62
     0
 48
50.0
100
AcDbPoint
 10
5987.657733986178
 20
5768.388227968408
 30
0.0
  0
ENDBLK
  5
1B872
330
1B866
100
AcDbEntity
  8
0
 48
50.0
100
AcDbBlockEnd
  0
BLOCK
  5
1B87D
330
1B873
100
AcDbEntity
  8
0
 48
50.0
100
AcDbBlockBegin
  2
*D12
 70
     1
 10
0.0
 20
0.0
 30
0.0
  3
*D12
  1

  0
LINE
  5
1F69A
330
1B873
100
AcDbEntity
  8
寸法
 62
     0
 48
50.0
370
    -2
100
AcDbLine
 10
6463.600000000001
 20
5768.388227968408
 30
0.0
 11
5682.164931848211
 21
5768.388227968408
 31
0.0
  0
LINE
  5
1F69B
330
1B873
100
AcDbEntity
  8
寸法
 62
     0
 48
50.0
370
    -2
100
AcDbLine
 10
5967.657733986179
 20
5713.388227968419
 30
0.0
 11
5682.164931848211
 21
5713.388227968419
 31
0.0
  0
LINE
  5
1F69C
330
1B873
100
AcDbEntity
  8
寸法
 62
     0
 48
50.0
370
    -2
100
AcDbLine
 10
5742.16493184821
 20
5768.388227968408
 30
0.0
 11
5742.16493184821
 21
5868.388227968408
 31
0.0
  0
LINE
  5
1F69D
330
1B873
100
AcDbEntity
  8
寸法
 62
     0
 48
50.0
370
    -2
100
AcDbLine
 10
5742.16493184821
 20
5713.388227968419
 30
0.0
 11
5742.16493184821
 21
5613.388227968419
 31
0.0
  0
LINE
  5
1F69E
330
1B873
100
AcDbEntity
  8
寸法
 62
     0
 48
50.0
370
    -2
100
AcDbLine
 10
5742.16493184821
 20
5768.388227968408
 30
0.0
 11
5742.16493184821
 21
5713.388227968419
 31
0.0
  0
INSERT
  5
1F69F
330
1B873
100
AcDbEntity
  8
寸法
 62
     0
 48
50.0
370
    -2
100
AcDbBlockReference
  2
_DOTSMALL
 10
5742.16493184821
 20
5768.388227968408
 30
0.0
 41
100.0
 42
100.0
 43
100.0
 50
270.0
  0
INSERT
  5
1F6A0
330
1B873
100
AcDbEntity
  8
寸法
 62
     0
 48
50.0
370
    -2
100
AcDbBlockReference
  2
_DOTSMALL
 10
5742.16493184821
 20
5713.388227968419
 30
0.0
 41
100.0
 42
100.0
 43
100.0
 50
90.0
  0
MTEXT
  5
1F6A1
330
1B873
100
AcDbEntity
  8
寸法
 62
     7
 48
50.0
100
AcDbMText
 10
5642.16493184821
 20
5740.888227968415
 30
0.0
 40
120.0
 41
0.0
 71
     5
 72
     1
  1
\A1;b
  7
STYLE1
 11
0.0000000000000001
 21
1.0
 31
0.0
 73
     1
 44
1.0
1001
ACAD
1000
MTEXTBEGIN
1070
    73
1070
     1
1070
    44
1040
1.0
1070
    74
1070
     0
1000
MTEXTEND
  0
POINT
  5
1F6A2
330
1B873
100
AcDbEntity
  8
DEFPOINTS
 62
     0
 48
50.0
100
AcDbPoint
 10
6483.6
 20
5768.388227968408
 30
0.0
  0
POINT
  5
1F6A3
330
1B873
100
AcDbEntity
  8
DEFPOINTS
 62
     0
 48
50.0
100
AcDbPoint
 10
5987.657733986178
 20
5713.388227968419
 30
0.0
  0
POINT
  5
1F6A4
330
1B873
100
AcDbEntity
  8
DEFPOINTS
 62
     0
 48
50.0
100
AcDbPoint
 10
5742.16493184821
 20
5713.388227968419
 30
0.0
  0
ENDBLK
  5
1B87E
330
1B873
100
AcDbEntity
  8
0
 48
50.0
100
AcDbBlockEnd
  0
BLOCK
  5
1B8A2
330
1B898
100
AcDbEntity
  8
0
 48
50.0
100
AcDbBlockBegin
  2
*D13
 70
     1
 10
0.0
 20
0.0
 30
0.0
  3
*D13
  1

  0
LINE
  5
1F691
330
1B898
100
AcDbEntity
  8
寸法
 62
     0
 48
50.0
370
    -2
100
AcDbLine
 10
7271.600000000001
 20
6643.388227968405
 30
0.0
 11
7082.143301171608
 21
6643.388227968405
 31
0.0
  0
LINE
  5
1F692
330
1B898
100
AcDbEntity
  8
寸法
 62
     0
 48
50.0
370
    -2
100
AcDbLine
 10
7271.600000000001
 20
7533.388227968406
 30
0.0
 11
7082.143301171608
 21
7533.388227968406
 31
0.0
  0
LINE
  5
1F693
330
1B898
100
AcDbEntity
  8
寸法
 62
     0
 48
50.0
370
    -2
100
AcDbLine
 10
7142.143301171607
 20
6643.388227968405
 30
0.0
 11
7142.143301171607
 21
7533.388227968406
 31
0.0
  0
INSERT
  5
1F694
330
1B898
100
AcDbEntity
  8
寸法
 62
     0
 48
50.0
370
    -2
100
AcDbBlockReference
  2
_DOTSMALL
 10
7142.143301171607
 20
6643.388227968405
 30
0.0
 41
100.0
 42
100.0
 43
100.0
 50
270.0
  0
INSERT
  5
1F695
330
1B898
100
AcDbEntity
  8
寸法
 62
     0
 48
50.0
370
    -2
100
AcDbBlockReference
  2
_DOTSMALL
 10
7142.143301171607
 20
7533.388227968406
 30
0.0
 41
100.0
 42
100.0
 43
100.0
 50
90.0
  0
MTEXT
  5
1F696
330
1B898
100
AcDbEntity
  8
寸法
 62
     7
 48
50.0
100
AcDbMText
 10
7042.143301171606
 20
7088.388227968407
 30
0.0
 40
120.0
 41
0.0
 71
     5
 72
     1
  1
\A1;890
  7
STYLE1
 11
0.0000000000000001
 21
1.0
 31
0.0
 73
     1
 44
1.0
1001
ACAD
1000
MTEXTBEGIN
1070
    73
1070
     1
1070
    44
1040
1.0
1070
    74
1070
     0
1000
MTEXTEND
  0
POINT
  5
1F697
330
1B898
100
AcDbEntity
  8
DEFPOINTS
 62
     0
 48
50.0
100
AcDbPoint
 10
7291.600000000001
 20
6643.388227968405
 30
0.0
  0
POINT
  5
1F698
330
1B898
100
AcDbEntity
  8
DEFPOINTS
 62
     0
 48
50.0
100
AcDbPoint
 10
7291.600000000001
 20
7533.388227968406
 30
0.0
  0
POINT
  5
1F699
330
1B898
100
AcDbEntity
  8
DEFPOINTS
 62
     0
 48
50.0
100
AcDbPoint
 10
7142.143301171607
 20
7533.388227968406
 30
0.0
  0
ENDBLK
  5
1B8A3
330
1B898
100
AcDbEntity
  8
0
 48
50.0
100
AcDbBlockEnd
  0
BLOCK
  5
1B8AE
330
1B8A4
100
AcDbEntity
  8
0
 48
50.0
100
AcDbBlockBegin
  2
*D14
 70
     1
 10
0.0
 20
0.0
 30
0.0
  3
*D14
  1

  0
LINE
  5
1F688
330
1B8A4
100
AcDbEntity
  8
寸法
 62
     0
 48
50.0
370
    -2
100
AcDbLine
 10
6990.488508201206
 20
5768.388227968415
 30
0.0
 11
7202.143301171607
 21
5768.388227968415
 31
0.0
  0
LINE
  5
1F689
330
1B8A4
100
AcDbEntity
  8
寸法
 62
     0
 48
50.0
370
    -2
100
AcDbLine
 10
7271.600000000001
 20
6643.388227968405
 30
0.0
 11
7082.143301171608
 21
6643.388227968405
 31
0.0
  0
LINE
  5
1F68A
330
1B8A4
100
AcDbEntity
  8
寸法
 62
     0
 48
50.0
370
    -2
100
AcDbLine
 10
7142.143301171607
 20
5768.388227968415
 30
0.0
 11
7142.143301171607
 21
6643.388227968405
 31
0.0
  0
INSERT
  5
1F68B
330
1B8A4
100
AcDbEntity
  8
寸法
 62
     0
 48
50.0
370
    -2
100
AcDbBlockReference
  2
_DOTSMALL
 10
7142.143301171607
 20
5768.388227968415
 30
0.0
 41
100.0
 42
100.0
 43
100.0
 50
270.0
  0
INSERT
  5
1F68C
330
1B8A4
100
AcDbEntity
  8
寸法
 62
     0
 48
50.0
370
    -2
100
AcDbBlockReference
  2
_DOTSMALL
 10
7142.143301171607
 20
6643.388227968405
 30
0.0
 41
100.0
 42
100.0
 43
100.0
 50
90.0
  0
MTEXT
  5
1F68D
330
1B8A4
100
AcDbEntity
  8
寸法
 62
     7
 48
50.0
100
AcDbMText
 10
7042.143301171606
 20
6205.888227968411
 30
0.0
 40
120.0
 41
0.0
 71
     5
 72
     1
  1
\A1;875
  7
STYLE1
 11
0.0000000000000001
 21
1.0
 31
0.0
 73
     1
 44
1.0
1001
ACAD
1000
MTEXTBEGIN
1070
    73
1070
     1
1070
    44
1040
1.0
1070
    74
1070
     0
1000
MTEXTEND
  0
POINT
  5
1F68E
330
1B8A4
100
AcDbEntity
  8
DEFPOINTS
 62
     0
 48
50.0
100
AcDbPoint
 10
6970.488508201206
 20
5768.388227968415
 30
0.0
  0
POINT
  5
1F68F
330
1B8A4
100
AcDbEntity
  8
DEFPOINTS
 62
     0
 48
50.0
100
AcDbPoint
 10
7291.600000000001
 20
6643.388227968405
 30
0.0
  0
POINT
  5
1F690
330
1B8A4
100
AcDbEntity
  8
DEFPOINTS
 62
     0
 48
50.0
100
AcDbPoint
 10
7142.143301171607
 20
6643.388227968405
 30
0.0
  0
ENDBLK
  5
1B8AF
330
1B8A4
100
AcDbEntity
  8
0
 48
50.0
100
AcDbBlockEnd
  0
BLOCK
  5
1B8B8
330
1B8B0
100
AcDbEntity
  8
0
 48
50.0
100
AcDbBlockBegin
  2
*D15
 70
     1
 10
0.0
 20
0.0
 30
0.0
  3
*D15
  1

  0
LINE
  5
1F67D
330
1B8B0
100
AcDbEntity
  8
寸法
 62
     0
 48
50.0
370
    -2
100
AcDbLine
 10
5967.657733986179
 20
8483.38822796841
 30
0.0
 11
5682.164931848211
 21
8483.38822796841
 31
0.0
  0
LINE
  5
1F67E
330
1B8B0
100
AcDbEntity
  8
寸法
 62
     0
 48
50.0
370
    -2
100
AcDbLine
 10
6463.600000000001
 20
8408.388227968407
 30
0.0
 11
5682.164931848211
 21
8408.388227968407
 31
0.0
  0
LINE
  5
1F67F
330
1B8B0
100
AcDbEntity
  8
寸法
 62
     0
 48
50.0
370
    -2
100
AcDbLine
 10
5742.16493184821
 20
8483.38822796841
 30
0.0
 11
5742.16493184821
 21
8583.388227968409
 31
0.0
  0
LINE
  5
1F680
330
1B8B0
100
AcDbEntity
  8
寸法
 62
     0
 48
50.0
370
    -2
100
AcDbLine
 10
5742.16493184821
 20
8408.388227968407
 30
0.0
 11
5742.16493184821
 21
8308.388227968407
 31
0.0
  0
LINE
  5
1F681
330
1B8B0
100
AcDbEntity
  8
寸法
 62
     0
 48
50.0
370
    -2
100
AcDbLine
 10
5742.16493184821
 20
8483.38822796841
 30
0.0
 11
5742.16493184821
 21
8408.388227968407
 31
0.0
  0
INSERT
  5
1F682
330
1B8B0
100
AcDbEntity
  8
寸法
 62
     0
 48
50.0
370
    -2
100
AcDbBlockReference
  2
_DOTSMALL
 10
5742.16493184821
 20
8483.38822796841
 30
0.0
 41
100.0
 42
100.0
 43
100.0
 50
270.0
  0
INSERT
  5
1F683
330
1B8B0
100
AcDbEntity
  8
寸法
 62
     0
 48
50.0
370
    -2
100
AcDbBlockReference
  2
_DOTSMALL
 10
5742.16493184821
 20
8408.388227968407
 30
0.0
 41
100.0
 42
100.0
 43
100.0
 50
90.0
  0
MTEXT
  5
1F684
330
1B8B0
100
AcDbEntity
  8
寸法
 62
     7
 48
50.0
100
AcDbMText
 10
5642.16493184821
 20
8445.888227968412
 30
0.0
 40
120.0
 41
0.0
 71
     5
 72
     1
  1
\A1;c
  7
STYLE1
 11
0.0000000000000001
 21
1.0
 31
0.0
 73
     1
 44
1.0
1001
ACAD
1000
MTEXTBEGIN
1070
    73
1070
     1
1070
    44
1040
1.0
1070
    74
1070
     0
1000
MTEXTEND
  0
POINT
  5
1F685
330
1B8B0
100
AcDbEntity
  8
DEFPOINTS
 62
     0
 48
50.0
100
AcDbPoint
 10
5987.657733986178
 20
8483.38822796841
 30
0.0
  0
POINT
  5
1F686
330
1B8B0
100
AcDbEntity
  8
DEFPOINTS
 62
     0
 48
50.0
100
AcDbPoint
 10
6483.6
 20
8408.388227968407
 30
0.0
  0
POINT
  5
1F687
330
1B8B0
100
AcDbEntity
  8
DEFPOINTS
 62
     0
 48
50.0
100
AcDbPoint
 10
5742.16493184821
 20
8408.388227968407
 30
0.0
  0
ENDBLK
  5
1B8B9
330
1B8B0
100
AcDbEntity
  8
0
 48
50.0
100
AcDbBlockEnd
  0
BLOCK
  5
1B8C5
330
1B8BA
100
AcDbEntity
  8
0
 48
50.0
100
AcDbBlockBegin
  2
*D16
 70
     1
 10
0.0
 20
0.0
 30
0.0
  3
*D16
  1

  0
LINE
  5
1F673
330
1B8BA
100
AcDbEntity
  8
寸法
 62
     0
 48
50.0
370
    -2
100
AcDbLine
 10
6463.600000000001
 20
8408.388227968407
 30
0.0
 11
5927.657733986179
 21
8408.388227968407
 31
0.0
  0
LINE
  5
1F674
330
1B8BA
100
AcDbEntity
  8
寸法
 62
     0
 48
50.0
370
    -2
100
AcDbLine
 10
6536.599999999999
 20
8285.388227968407
 30
0.0
 11
5927.657733986179
 21
8285.388227968407
 31
0.0
  0
LINE
  5
1F675
330
1B8BA
100
AcDbEntity
  8
寸法
 62
     0
 48
50.0
370
    -2
100
AcDbLine
 10
5987.657733986178
 20
8285.388227968407
 30
0.0
 11
5987.657733986178
 21
8408.388227968407
 31
0.0
  0
LINE
  5
1F676
330
1B8BA
100
AcDbEntity
  8
寸法
 62
     0
 48
50.0
370
    -2
100
AcDbLine
 10
5987.657733986178
 20
8408.388227968407
 30
0.0
 11
5987.657733986178
 21
8819.980111060445
 31
0.0
  0
INSERT
  5
1F677
330
1B8BA
100
AcDbEntity
  8
寸法
 62
     0
 48
50.0
370
    -2
100
AcDbBlockReference
  2
_DOTSMALL
 10
5987.657733986178
 20
8285.388227968407
 30
0.0
 41
100.0
 42
100.0
 43
100.0
 50
270.0
  0
INSERT
  5
1F678
330
1B8BA
100
AcDbEntity
  8
寸法
 62
     0
 48
50.0
370
    -2
100
AcDbBlockReference
  2
_DOTSMALL
 10
5987.657733986178
 20
8408.388227968407
 30
0.0
 41
100.0
 42
100.0
 43
100.0
 50
90.0
  0
MTEXT
  5
1F679
330
1B8BA
100
AcDbEntity
  8
寸法
 62
     7
 48
50.0
100
AcDbMText
 10
5887.645922962556
 20
8681.49482968621
 30
0.0
 40
120.0
 41
0.0
 71
     5
 72
     1
  1
\A1;123
  7
STYLE1
 11
0.0000000000000001
 21
1.0
 31
0.0
 73
     1
 44
1.0
1001
ACAD
1000
MTEXTBEGIN
1070
    73
1070
     1
1070
    44
1040
1.0
1070
    74
1070
     0
1000
MTEXTEND
  0
POINT
  5
1F67A
330
1B8BA
100
AcDbEntity
  8
DEFPOINTS
 62
     0
 48
50.0
100
AcDbPoint
 10
6483.6
 20
8408.388227968407
 30
0.0
  0
POINT
  5
1F67B
330
1B8BA
100
AcDbEntity
  8
DEFPOINTS
 62
     0
 48
50.0
100
AcDbPoint
 10
6556.6
 20
8285.388227968407
 30
0.0
  0
POINT
  5
1F67C
330
1B8BA
100
AcDbEntity
  8
DEFPOINTS
 62
     0
 48
50.0
100
AcDbPoint
 10
5987.657733986178
 20
8285.388227968407
 30
0.0
  0
ENDBLK
  5
1B8C6
330
1B8BA
100
AcDbEntity
  8
0
 48
50.0
100
AcDbBlockEnd
  0
BLOCK
  5
1B8D2
330
1B8C7
100
AcDbEntity
  8
0
 48
50.0
100
AcDbBlockBegin
  2
*D17
 70
     1
 10
0.0
 20
0.0
 30
0.0
  3
*D17
  1

  0
LINE
  5
1F668
330
1B8C7
100
AcDbEntity
  8
寸法
 62
     0
 48
50.0
370
    -2
100
AcDbLine
 10
6438.600000000002
 20
9174.147854510492
 30
0.0
 11
6438.600000000002
 21
9426.60855002733
 31
0.0
  0
LINE
  5
1F669
330
1B8C7
100
AcDbEntity
  8
寸法
 62
     0
 48
50.0
370
    -2
100
AcDbLine
 10
6483.6
 20
8428.388227968408
 30
0.0
 11
6483.6
 21
9426.60855002733
 31
0.0
  0
LINE
  5
1F66A
330
1B8C7
100
AcDbEntity
  8
寸法
 62
     0
 48
50.0
370
    -2
100
AcDbLine
 10
6483.6
 20
9366.608550027329
 30
0.0
 11
6583.6
 21
9366.608550027329
 31
0.0
  0
LINE
  5
1F66B
330
1B8C7
100
AcDbEntity
  8
寸法
 62
     0
 48
50.0
370
    -2
100
AcDbLine
 10
6438.600000000002
 20
9366.608550027329
 30
0.0
 11
6101.250757595083
 21
9366.608550027329
 31
0.0
  0
LINE
  5
1F66C
330
1B8C7
100
AcDbEntity
  8
寸法
 62
     0
 48
50.0
370
    -2
100
AcDbLine
 10
6483.6
 20
9366.608550027329
 30
0.0
 11
6438.600000000002
 21
9366.608550027329
 31
0.0
  0
INSERT
  5
1F66D
330
1B8C7
100
AcDbEntity
  8
寸法
 62
     0
 48
50.0
370
    -2
100
AcDbBlockReference
  2
_DOTSMALL
 10
6483.6
 20
9366.608550027329
 30
0.0
 41
100.0
 42
100.0
 43
100.0
 50
180.0
  0
INSERT
  5
1F66E
330
1B8C7
100
AcDbEntity
  8
寸法
 62
     0
 48
50.0
370
    -2
100
AcDbBlockReference
  2
_DOTSMALL
 10
6438.600000000002
 20
9366.608550027329
 30
0.0
 41
100.0
 42
100.0
 43
100.0
  0
MTEXT
  5
1F66F
330
1B8C7
100
AcDbEntity
  8
寸法
 62
     7
 48
50.0
100
AcDbMText
 10
6167.425378797542
 20
9466.608550027329
 30
0.0
 40
120.0
 41
0.0
 71
     5
 72
     1
  1
\A1;a
  7
STYLE1
 73
     1
 44
1.0
1001
ACAD
1000
MTEXTBEGIN
1070
    73
1070
     1
1070
    44
1040
1.0
1070
    74
1070
     0
1000
MTEXTEND
  0
POINT
  5
1F670
330
1B8C7
100
AcDbEntity
  8
DEFPOINTS
 62
     0
 48
50.0
100
AcDbPoint
 10
6438.600000000002
 20
9154.14785451049
 30
0.0
  0
POINT
  5
1F671
330
1B8C7
100
AcDbEntity
  8
DEFPOINTS
 62
     0
 48
50.0
100
AcDbPoint
 10
6483.6
 20
8408.388227968407
 30
0.0
  0
POINT
  5
1F672
330
1B8C7
100
AcDbEntity
  8
DEFPOINTS
 62
     0
 48
50.0
100
AcDbPoint
 10
6483.6
 20
9366.608550027329
 30
0.0
  0
ENDBLK
  5
1B8D3
330
1B8C7
100
AcDbEntity
  8
0
 48
50.0
100
AcDbBlockEnd
  0
BLOCK
  5
1B8DF
330
1B8D4
100
AcDbEntity
  8
0
 48
50.0
100
AcDbBlockBegin
  2
*D18
 70
     1
 10
0.0
 20
0.0
 30
0.0
  3
*D18
  1

  0
LINE
  5
1F65E
330
1B8D4
100
AcDbEntity
  8
寸法
 62
     0
 48
50.0
370
    -2
100
AcDbLine
 10
6606.6
 20
8355.388227968408
 30
0.0
 11
6606.6
 21
9214.147854510491
 31
0.0
  0
LINE
  5
1F65F
330
1B8D4
100
AcDbEntity
  8
寸法
 62
     0
 48
50.0
370
    -2
100
AcDbLine
 10
6483.6
 20
8428.388227968408
 30
0.0
 11
6483.6
 21
9214.147854510491
 31
0.0
  0
LINE
  5
1F660
330
1B8D4
100
AcDbEntity
  8
寸法
 62
     0
 48
50.0
370
    -2
100
AcDbLine
 10
6606.6
 20
9154.14785451049
 30
0.0
 11
6483.6
 21
9154.14785451049
 31
0.0
  0
LINE
  5
1F661
330
1B8D4
100
AcDbEntity
  8
寸法
 62
     0
 48
50.0
370
    -2
100
AcDbLine
 10
6483.6
 20
9154.14785451049
 30
0.0
 11
6072.008116907963
 21
9154.14785451049
 31
0.0
  0
INSERT
  5
1F662
330
1B8D4
100
AcDbEntity
  8
寸法
 62
     0
 48
50.0
370
    -2
100
AcDbBlockReference
  2
_DOTSMALL
 10
6606.6
 20
9154.14785451049
 30
0.0
 41
100.0
 42
100.0
 43
100.0
  0
INSERT
  5
1F663
330
1B8D4
100
AcDbEntity
  8
寸法
 62
     0
 48
50.0
370
    -2
100
AcDbBlockReference
  2
_DOTSMALL
 10
6483.6
 20
9154.14785451049
 30
0.0
 41
100.0
 42
100.0
 43
100.0
 50
180.0
  0
MTEXT
  5
1F664
330
1B8D4
100
AcDbEntity
  8
寸法
 62
     7
 48
50.0
100
AcDbMText
 10
6210.493398282203
 20
9254.159665534112
 30
0.0
 40
120.0
 41
0.0
 71
     5
 72
     1
  1
\A1;123
  7
STYLE1
 73
     1
 44
1.0
1001
ACAD
1000
MTEXTBEGIN
1070
    73
1070
     1
1070
    44
1040
1.0
1070
    74
1070
     0
1000
MTEXTEND
  0
POINT
  5
1F665
330
1B8D4
100
AcDbEntity
  8
DEFPOINTS
 62
     0
 48
50.0
100
AcDbPoint
 10
6606.6
 20
8335.388227968406
 30
0.0
  0
POINT
  5
1F666
330
1B8D4
100
AcDbEntity
  8
DEFPOINTS
 62
     0
 48
50.0
100
AcDbPoint
 10
6483.6
 20
8408.388227968407
 30
0.0
  0
POINT
  5
1F667
330
1B8D4
100
AcDbEntity
  8
DEFPOINTS
 62
     0
 48
50.0
100
AcDbPoint
 10
6483.6
 20
9154.14785451049
 30
0.0
  0
ENDBLK
  5
1B8E0
330
1B8D4
100
AcDbEntity
  8
0
 48
50.0
100
AcDbBlockEnd
  0
BLOCK
  5
1B8EC
330
1B8E1
100
AcDbEntity
  8
0
 48
50.0
100
AcDbBlockBegin
  2
*D19
 70
     1
 10
0.0
 20
0.0
 30
0.0
  3
*D19
  1

  0
LINE
  5
1F654
330
1B8E1
100
AcDbEntity
  8
寸法
 62
     0
 48
50.0
370
    -2
100
AcDbLine
 10
6784.989764952815
 20
8288.388227968408
 30
0.0
 11
6990.307249876099
 21
8288.388227968408
 31
0.0
  0
LINE
  5
1F655
330
1B8E1
100
AcDbEntity
  8
寸法
 62
     0
 48
50.0
370
    -2
100
AcDbLine
 10
6733.600000000002
 20
8408.388227968407
 30
0.0
 11
6990.307249876099
 21
8408.388227968407
 31
0.0
  0
LINE
  5
1F656
330
1B8E1
100
AcDbEntity
  8
寸法
 62
     0
 48
50.0
370
    -2
100
AcDbLine
 10
6930.307249876098
 20
8288.388227968408
 30
0.0
 11
6930.307249876098
 21
8408.388227968407
 31
0.0
  0
LINE
  5
1F657
330
1B8E1
100
AcDbEntity
  8
寸法
 62
     0
 48
50.0
370
    -2
100
AcDbLine
 10
6930.307249876098
 20
8408.388227968407
 30
0.0
 11
6930.307249876098
 21
8822.51901533578
 31
0.0
  0
INSERT
  5
1F658
330
1B8E1
100
AcDbEntity
  8
寸法
 62
     0
 48
50.0
370
    -2
100
AcDbBlockReference
  2
_DOTSMALL
 10
6930.307249876098
 20
8288.388227968408
 30
0.0
 41
100.0
 42
100.0
 43
100.0
 50
270.0
  0
INSERT
  5
1F659
330
1B8E1
100
AcDbEntity
  8
寸法
 62
     0
 48
50.0
370
    -2
100
AcDbBlockReference
  2
_DOTSMALL
 10
6930.307249876098
 20
8408.388227968407
 30
0.0
 41
100.0
 42
100.0
 43
100.0
 50
90.0
  0
MTEXT
  5
1F65A
330
1B8E1
100
AcDbEntity
  8
寸法
 62
     7
 48
50.0
100
AcDbMText
 10
6830.295438852475
 20
8686.471771241292
 30
0.0
 40
120.0
 41
0.0
 71
     5
 72
     1
  1
\A1;120
  7
STYLE1
 11
0.0000000000000001
 21
1.0
 31
0.0
 73
     1
 44
1.0
1001
ACAD
1000
MTEXTBEGIN
1070
    73
1070
     1
1070
    44
1040
1.0
1070
    74
1070
     0
1000
MTEXTEND
  0
POINT
  5
1F65B
330
1B8E1
100
AcDbEntity
  8
DEFPOINTS
 62
     0
 48
50.0
100
AcDbPoint
 10
6764.989764952814
 20
8288.388227968408
 30
0.0
  0
POINT
  5
1F65C
330
1B8E1
100
AcDbEntity
  8
DEFPOINTS
 62
     0
 48
50.0
100
AcDbPoint
 10
6713.600000000003
 20
8408.388227968407
 30
0.0
  0
POINT
  5
1F65D
330
1B8E1
100
AcDbEntity
  8
DEFPOINTS
 62
     0
 48
50.0
100
AcDbPoint
 10
6930.307249876098
 20
8408.388227968407
 30
0.0
  0
ENDBLK
  5
1B8ED
330
1B8E1
100
AcDbEntity
  8
0
 48
50.0
100
AcDbBlockEnd
  0
BLOCK
  5
1B8F9
330
1B8EE
100
AcDbEntity
  8
0
 48
50.0
100
AcDbBlockBegin
  2
*D20
 70
     1
 10
0.0
 20
0.0
 30
0.0
  3
*D20
  1

  0
LINE
  5
1F64A
330
1B8EE
100
AcDbEntity
  8
寸法
 62
     0
 48
50.0
370
    -2
100
AcDbLine
 10
9843.600000000002
 20
7986.131849991725
 30
0.0
 11
9843.600000000002
 21
7890.679560468034
 31
0.0
  0
LINE
  5
1F64B
330
1B8EE
100
AcDbEntity
  8
寸法
 62
     0
 48
50.0
370
    -2
100
AcDbLine
 10
9733.600000000002
 20
8158.388227968407
 30
0.0
 11
9733.600000000002
 21
7890.679560468034
 31
0.0
  0
LINE
  5
1F64C
330
1B8EE
100
AcDbEntity
  8
寸法
 62
     0
 48
50.0
370
    -2
100
AcDbLine
 10
9843.600000000002
 20
7950.679560468033
 30
0.0
 11
9733.600000000002
 21
7950.679560468033
 31
0.0
  0
LINE
  5
1F64D
330
1B8EE
100
AcDbEntity
  8
寸法
 62
     0
 48
50.0
370
    -2
100
AcDbLine
 10
9733.600000000002
 20
7950.679560468033
 30
0.0
 11
9339.493700787402
 21
7950.679560468033
 31
0.0
  0
INSERT
  5
1F64E
330
1B8EE
100
AcDbEntity
  8
寸法
 62
     0
 48
50.0
370
    -2
100
AcDbBlockReference
  2
_DOTSMALL
 10
9843.600000000002
 20
7950.679560468033
 30
0.0
 41
100.0
 42
100.0
 43
100.0
  0
INSERT
  5
1F64F
330
1B8EE
100
AcDbEntity
  8
寸法
 62
     0
 48
50.0
370
    -2
100
AcDbBlockReference
  2
_DOTSMALL
 10
9733.600000000002
 20
7950.679560468033
 30
0.0
 41
100.0
 42
100.0
 43
100.0
 50
180.0
  0
MTEXT
  5
1F650
330
1B8EE
100
AcDbEntity
  8
寸法
 62
     7
 48
50.0
100
AcDbMText
 10
9463.54094488189
 20
8050.679560468033
 30
0.0
 40
120.0
 41
0.0
 71
     5
 72
     1
  1
\A1;110
  7
STYLE1
 73
     1
 44
1.0
1001
ACAD
1000
MTEXTBEGIN
1070
    73
1070
     1
1070
    44
1040
1.0
1070
    74
1070
     0
1000
MTEXTEND
  0
POINT
  5
1F651
330
1B8EE
100
AcDbEntity
  8
DEFPOINTS
 62
     0
 48
50.0
100
AcDbPoint
 10
9843.600000000002
 20
8006.131849991724
 30
0.0
  0
POINT
  5
1F652
330
1B8EE
100
AcDbEntity
  8
DEFPOINTS
 62
     0
 48
50.0
100
AcDbPoint
 10
9733.600000000002
 20
8178.388227968406
 30
0.0
  0
POINT
  5
1F653
330
1B8EE
100
AcDbEntity
  8
DEFPOINTS
 62
     0
 48
50.0
100
AcDbPoint
 10
9733.600000000002
 20
7950.679560468033
 30
0.0
  0
ENDBLK
  5
1B8FA
330
1B8EE
100
AcDbEntity
  8
0
 48
50.0
100
AcDbBlockEnd
  0
BLOCK
  5
1B906
330
1B8FB
100
AcDbEntity
  8
0
 48
50.0
100
AcDbBlockBegin
  2
*D21
 70
     1
 10
0.0
 20
0.0
 30
0.0
  3
*D21
  1

  0
LINE
  5
1F640
330
1B8FB
100
AcDbEntity
  8
寸法
 62
     0
 48
50.0
370
    -2
100
AcDbLine
 10
9963.600000000001
 20
7947.672824506864
 30
0.0
 11
9963.600000000001
 21
7890.679560468034
 31
0.0
  0
LINE
  5
1F641
330
1B8FB
100
AcDbEntity
  8
寸法
 62
     0
 48
50.0
370
    -2
100
AcDbLine
 10
9843.600000000002
 20
7986.131849991725
 30
0.0
 11
9843.600000000002
 21
7890.679560468034
 31
0.0
  0
LINE
  5
1F642
330
1B8FB
100
AcDbEntity
  8
寸法
 62
     0
 48
50.0
370
    -2
100
AcDbLine
 10
9843.600000000002
 20
7950.679560468033
 30
0.0
 11
9963.600000000001
 21
7950.679560468033
 31
0.0
  0
LINE
  5
1F643
330
1B8FB
100
AcDbEntity
  8
寸法
 62
     0
 48
50.0
370
    -2
100
AcDbLine
 10
9963.600000000001
 20
7950.679560468033
 30
0.0
 11
10369.7062992126
 21
7950.679560468033
 31
0.0
  0
INSERT
  5
1F644
330
1B8FB
100
AcDbEntity
  8
寸法
 62
     0
 48
50.0
370
    -2
100
AcDbBlockReference
  2
_DOTSMALL
 10
9843.600000000002
 20
7950.679560468033
 30
0.0
 41
100.0
 42
100.0
 43
100.0
 50
180.0
  0
INSERT
  5
1F645
330
1B8FB
100
AcDbEntity
  8
寸法
 62
     0
 48
50.0
370
    -2
100
AcDbBlockReference
  2
_DOTSMALL
 10
9963.600000000001
 20
7950.679560468033
 30
0.0
 41
100.0
 42
100.0
 43
100.0
  0
MTEXT
  5
1F646
330
1B8FB
100
AcDbEntity
  8
寸法
 62
     7
 48
50.0
100
AcDbMText
 10
10233.65905511811
 20
8050.691371491655
 30
0.0
 40
120.0
 41
0.0
 71
     5
 72
     1
  1
\A1;120
  7
STYLE1
 73
     1
 44
1.0
1001
ACAD
1000
MTEXTBEGIN
1070
    73
1070
     1
1070
    44
1040
1.0
1070
    74
1070
     0
1000
MTEXTEND
  0
POINT
  5
1F647
330
1B8FB
100
AcDbEntity
  8
DEFPOINTS
 62
     0
 48
50.0
100
AcDbPoint
 10
9963.600000000001
 20
7967.672824506864
 30
0.0
  0
POINT
  5
1F648
330
1B8FB
100
AcDbEntity
  8
DEFPOINTS
 62
     0
 48
50.0
100
AcDbPoint
 10
9843.600000000002
 20
8006.131849991724
 30
0.0
  0
POINT
  5
1F649
330
1B8FB
100
AcDbEntity
  8
DEFPOINTS
 62
     0
 48
50.0
100
AcDbPoint
 10
9843.600000000002
 20
7950.679560468033
 30
0.0
  0
ENDBLK
  5
1B907
330
1B8FB
100
AcDbEntity
  8
0
 48
50.0
100
AcDbBlockEnd
  0
BLOCK
  5
1B92C
330
1B921
100
AcDbEntity
  8
0
 48
50.0
100
AcDbBlockBegin
  2
*D22
 70
     1
 10
0.0
 20
0.0
 30
0.0
  3
*D22
  1

  0
LINE
  5
1F635
330
1B921
100
AcDbEntity
  8
寸法
 62
     0
 48
50.0
370
    -2
100
AcDbLine
 10
9963.600000000001
 20
8428.388227968408
 30
0.0
 11
9963.600000000001
 21
9426.60855002733
 31
0.0
  0
LINE
  5
1F636
330
1B921
100
AcDbEntity
  8
寸法
 62
     0
 48
50.0
370
    -2
100
AcDbLine
 10
10008.6
 20
9174.147854510492
 30
0.0
 11
10008.6
 21
9426.60855002733
 31
0.0
  0
LINE
  5
1F637
330
1B921
100
AcDbEntity
  8
寸法
 62
     0
 48
50.0
370
    -2
100
AcDbLine
 10
9963.600000000001
 20
9366.608550027329
 30
0.0
 11
9863.600000000001
 21
9366.608550027329
 31
0.0
  0
LINE
  5
1F638
330
1B921
100
AcDbEntity
  8
寸法
 62
     0
 48
50.0
370
    -2
100
AcDbLine
 10
10008.6
 20
9366.608550027329
 30
0.0
 11
10345.94924240492
 21
9366.608550027329
 31
0.0
  0
LINE
  5
1F639
330
1B921
100
AcDbEntity
  8
寸法
 62
     0
 48
50.0
370
    -2
100
AcDbLine
 10
9963.600000000001
 20
9366.608550027329
 30
0.0
 11
10008.6
 21
9366.608550027329
 31
0.0
  0
INSERT
  5
1F63A
330
1B921
100
AcDbEntity
  8
寸法
 62
     0
 48
50.0
370
    -2
100
AcDbBlockReference
  2
_DOTSMALL
 10
9963.600000000001
 20
9366.608550027329
 30
0.0
 41
100.0
 42
100.0
 43
100.0
  0
INSERT
  5
1F63B
330
1B921
100
AcDbEntity
  8
寸法
 62
     0
 48
50.0
370
    -2
100
AcDbBlockReference
  2
_DOTSMALL
 10
10008.6
 20
9366.608550027329
 30
0.0
 41
100.0
 42
100.0
 43
100.0
 50
180.0
  0
MTEXT
  5
1F63C
330
1B921
100
AcDbEntity
  8
寸法
 62
     7
 48
50.0
100
AcDbMText
 10
10279.77462120246
 20
9466.608550027329
 30
0.0
 40
120.0
 41
0.0
 71
     5
 72
     1
  1
\A1;a
  7
STYLE1
 73
     1
 44
1.0
1001
ACAD
1000
MTEXTBEGIN
1070
    73
1070
     1
1070
    44
1040
1.0
1070
    74
1070
     0
1000
MTEXTEND
  0
POINT
  5
1F63D
330
1B921
100
AcDbEntity
  8
DEFPOINTS
 62
     0
 48
50.0
100
AcDbPoint
 10
9963.600000000001
 20
8408.388227968407
 30
0.0
  0
POINT
  5
1F63E
330
1B921
100
AcDbEntity
  8
DEFPOINTS
 62
     0
 48
50.0
100
AcDbPoint
 10
10008.6
 20
9154.14785451049
 30
0.0
  0
POINT
  5
1F63F
330
1B921
100
AcDbEntity
  8
DEFPOINTS
 62
     0
 48
50.0
100
AcDbPoint
 10
10008.6
 20
9366.608550027329
 30
0.0
  0
ENDBLK
  5
1B92D
330
1B921
100
AcDbEntity
  8
0
 48
50.0
100
AcDbBlockEnd
  0
BLOCK
  5
1B939
330
1B92E
100
AcDbEntity
  8
0
 48
50.0
100
AcDbBlockBegin
  2
*D23
 70
     1
 10
0.0
 20
0.0
 30
0.0
  3
*D23
  1

  0
LINE
  5
1F62B
330
1B92E
100
AcDbEntity
  8
寸法
 62
     0
 48
50.0
370
    -2
100
AcDbLine
 10
9963.600000000001
 20
8428.388227968408
 30
0.0
 11
9963.600000000001
 21
9214.147854510491
 31
0.0
  0
LINE
  5
1F62C
330
1B92E
100
AcDbEntity
  8
寸法
 62
     0
 48
50.0
370
    -2
100
AcDbLine
 10
9840.600000000002
 20
8355.388227968408
 30
0.0
 11
9840.600000000002
 21
9214.147854510491
 31
0.0
  0
LINE
  5
1F62D
330
1B92E
100
AcDbEntity
  8
寸法
 62
     0
 48
50.0
370
    -2
100
AcDbLine
 10
9840.600000000002
 20
9154.14785451049
 30
0.0
 11
9963.600000000001
 21
9154.14785451049
 31
0.0
  0
LINE
  5
1F62E
330
1B92E
100
AcDbEntity
  8
寸法
 62
     0
 48
50.0
370
    -2
100
AcDbLine
 10
9963.600000000001
 20
9154.14785451049
 30
0.0
 11
10375.19188309203
 21
9154.14785451049
 31
0.0
  0
INSERT
  5
1F62F
330
1B92E
100
AcDbEntity
  8
寸法
 62
     0
 48
50.0
370
    -2
100
AcDbBlockReference
  2
_DOTSMALL
 10
9840.600000000002
 20
9154.14785451049
 30
0.0
 41
100.0
 42
100.0
 43
100.0
 50
180.0
  0
INSERT
  5
1F630
330
1B92E
100
AcDbEntity
  8
寸法
 62
     0
 48
50.0
370
    -2
100
AcDbBlockReference
  2
_DOTSMALL
 10
9963.600000000001
 20
9154.14785451049
 30
0.0
 41
100.0
 42
100.0
 43
100.0
  0
MTEXT
  5
1F631
330
1B92E
100
AcDbEntity
  8
寸法
 62
     7
 48
50.0
100
AcDbMText
 10
10236.7066017178
 20
9254.159665534112
 30
0.0
 40
120.0
 41
0.0
 71
     5
 72
     1
  1
\A1;123
  7
STYLE1
 73
     1
 44
1.0
1001
ACAD
1000
MTEXTBEGIN
1070
    73
1070
     1
1070
    44
1040
1.0
1070
    74
1070
     0
1000
MTEXTEND
  0
POINT
  5
1F632
330
1B92E
100
AcDbEntity
  8
DEFPOINTS
 62
     0
 48
50.0
100
AcDbPoint
 10
9963.600000000001
 20
8408.388227968407
 30
0.0
  0
POINT
  5
1F633
330
1B92E
100
AcDbEntity
  8
DEFPOINTS
 62
     0
 48
50.0
100
AcDbPoint
 10
9840.600000000002
 20
8335.388227968406
 30
0.0
  0
POINT
  5
1F634
330
1B92E
100
AcDbEntity
  8
DEFPOINTS
 62
     0
 48
50.0
100
AcDbPoint
 10
9840.600000000002
 20
9154.14785451049
 30
0.0
  0
ENDBLK
  5
1B93A
330
1B92E
100
AcDbEntity
  8
0
 48
50.0
100
AcDbBlockEnd
  0
BLOCK
  5
1DAD5
330
1DACB
100
AcDbEntity
  8
0
 48
50.0
100
AcDbBlockBegin
  2
*D24
 70
     1
 10
0.0
 20
0.0
 30
0.0
  3
*D24
  1

  0
LINE
  5
1F60D
330
1DACB
100
AcDbEntity
  8
寸法
 62
     0
 48
50.0
370
    -2
100
AcDbLine
 10
7356.6
 20
5673.388227968426
 30
0.0
 11
7356.6
 21
4918.523924544297
 31
0.0
  0
LINE
  5
1F60E
330
1DACB
100
AcDbEntity
  8
寸法
 62
     0
 48
50.0
370
    -2
100
AcDbLine
 10
6483.6
 20
5748.388227968407
 30
0.0
 11
6483.6
 21
4918.523924544297
 31
0.0
  0
LINE
  5
1F60F
330
1DACB
100
AcDbEntity
  8
寸法
 62
     0
 48
50.0
370
    -2
100
AcDbLine
 10
7356.6
 20
4978.523924544298
 30
0.0
 11
6483.6
 21
4978.523924544298
 31
0.0
  0
INSERT
  5
1F610
330
1DACB
100
AcDbEntity
  8
寸法
 62
     0
 48
50.0
370
    -2
100
AcDbBlockReference
  2
_DOTSMALL
 10
7356.6
 20
4978.523924544298
 30
0.0
 41
100.0
 42
100.0
 43
100.0
  0
INSERT
  5
1F611
330
1DACB
100
AcDbEntity
  8
寸法
 62
     0
 48
50.0
370
    -2
100
AcDbBlockReference
  2
_DOTSMALL
 10
6483.6
 20
4978.523924544298
 30
0.0
 41
100.0
 42
100.0
 43
100.0
 50
180.0
  0
MTEXT
  5
1F612
330
1DACB
100
AcDbEntity
  8
寸法
 62
     7
 48
50.0
100
AcDbMText
 10
6920.100000000001
 20
5078.523924544297
 30
0.0
 40
120.0
 41
0.0
 71
     5
 72
     1
  1
\A1;873
  7
STYLE1
 73
     1
 44
1.0
1001
ACAD
1000
MTEXTBEGIN
1070
    73
1070
     1
1070
    44
1040
1.0
1070
    74
1070
     0
1000
MTEXTEND
  0
POINT
  5
1F613
330
1DACB
100
AcDbEntity
  8
DEFPOINTS
 62
     0
 48
50.0
100
AcDbPoint
 10
7356.6
 20
5693.388227968426
 30
0.0
  0
POINT
  5
1F614
330
1DACB
100
AcDbEntity
  8
DEFPOINTS
 62
     0
 48
50.0
100
AcDbPoint
 10
6483.6
 20
5768.388227968408
 30
0.0
  0
POINT
  5
1F615
330
1DACB
100
AcDbEntity
  8
DEFPOINTS
 62
     0
 48
50.0
100
AcDbPoint
 10
6483.6
 20
4978.523924544298
 30
0.0
  0
ENDBLK
  5
1DAD6
330
1DACB
100
AcDbEntity
  8
0
 48
50.0
100
AcDbBlockEnd
  0
BLOCK
  5
1DAE3
330
1DAD7
100
AcDbEntity
  8
0
 48
50.0
100
AcDbBlockBegin
  2
*D25
 70
     1
 10
0.0
 20
0.0
 30
0.0
  3
*D25
  1

  0
LINE
  5
1F620
330
1DAD7
100
AcDbEntity
  8
寸法
 62
     0
 48
50.0
370
    -2
100
AcDbLine
 10
9531.599999999999
 20
5693.388227968424
 30
0.0
 11
9838.202780124333
 21
5693.388227968424
 31
0.0
  0
LINE
  5
1F621
330
1DAD7
100
AcDbEntity
  8
寸法
 62
     0
 48
50.0
370
    -2
100
AcDbLine
 10
9531.600000000002
 20
5768.388227968425
 30
0.0
 11
9838.202780124333
 21
5768.388227968425
 31
0.0
  0
LINE
  5
1F622
330
1DAD7
100
AcDbEntity
  8
寸法
 62
     0
 48
50.0
370
    -2
100
AcDbLine
 10
9778.202780124333
 20
5768.388227968425
 30
0.0
 11
9778.202780124333
 21
5868.388227968424
 31
0.0
  0
LINE
  5
1F623
330
1DAD7
100
AcDbEntity
  8
寸法
 62
     0
 48
50.0
370
    -2
100
AcDbLine
 10
9778.202780124333
 20
5693.388227968424
 30
0.0
 11
9778.202780124333
 21
4826.417665219946
 31
0.0
  0
LINE
  5
1F624
330
1DAD7
100
AcDbEntity
  8
寸法
 62
     0
 48
50.0
370
    -2
100
AcDbLine
 10
9778.202780124333
 20
5768.388227968425
 30
0.0
 11
9778.202780124333
 21
5693.388227968424
 31
0.0
  0
INSERT
  5
1F625
330
1DAD7
100
AcDbEntity
  8
寸法
 62
     0
 48
50.0
370
    -2
100
AcDbBlockReference
  2
_DOTSMALL
 10
9778.202780124333
 20
5768.388227968425
 30
0.0
 41
100.0
 42
100.0
 43
100.0
 50
270.0
  0
INSERT
  5
1F626
330
1DAD7
100
AcDbEntity
  8
寸法
 62
     0
 48
50.0
370
    -2
100
AcDbBlockReference
  2
_DOTSMALL
 10
9778.202780124333
 20
5693.388227968424
 30
0.0
 41
100.0
 42
100.0
 43
100.0
 50
90.0
  0
MTEXT
  5
1F627
330
1DAD7
100
AcDbEntity
  8
寸法
 62
     7
 48
50.0
100
AcDbMText
 10
9678.202780124331
 20
5159.902946594186
 30
0.0
 40
120.0
 41
0.0
 71
     5
 72
     1
  1
\A1;扉の出75
  7
STYLE1
 11
0.0000000000000001
 21
1.0
 31
0.0
 73
     1
 44
1.0
1001
ACAD
1000
MTEXTBEGIN
1070
    73
1070
     1
1070
    44
1040
1.0
1070
    74
1070
     0
1000
MTEXTEND
  0
POINT
  5
1F628
330
1DAD7
100
AcDbEntity
  8
DEFPOINTS
 62
     0
 48
50.0
100
AcDbPoint
 10
9511.599999999999
 20
5693.388227968424
 30
0.0
  0
POINT
  5
1F629
330
1DAD7
100
AcDbEntity
  8
DEFPOINTS
 62
     0
 48
50.0
100
AcDbPoint
 10
9511.600000000003
 20
5768.388227968425
 30
0.0
  0
POINT
  5
1F62A
330
1DAD7
100
AcDbEntity
  8
DEFPOINTS
 62
     0
 48
50.0
100
AcDbPoint
 10
9778.202780124333
 20
5768.388227968425
 30
0.0
  0
ENDBLK
  5
1DAE4
330
1DAD7
100
AcDbEntity
  8
0
 48
50.0
100
AcDbBlockEnd
  0
BLOCK
  5
1DAF0
330
1DAE5
100
AcDbEntity
  8
0
 48
50.0
100
AcDbBlockBegin
  2
*D26
 70
     1
 10
0.0
 20
0.0
 30
0.0
  3
*D26
  1

  0
LINE
  5
1F603
330
1DAE5
100
AcDbEntity
  8
寸法
 62
     0
 48
50.0
370
    -2
100
AcDbLine
 10
6768.248214430132
 20
5888.388227968412
 30
0.0
 11
6990.307249876096
 21
5888.388227968412
 31
0.0
  0
LINE
  5
1F604
330
1DAE5
100
AcDbEntity
  8
寸法
 62
     0
 48
50.0
370
    -2
100
AcDbLine
 10
6733.6
 20
5998.388227968411
 30
0.0
 11
6990.307249876096
 21
5998.388227968411
 31
0.0
  0
LINE
  5
1F605
330
1DAE5
100
AcDbEntity
  8
寸法
 62
     0
 48
50.0
370
    -2
100
AcDbLine
 10
6930.307249876097
 20
5888.388227968412
 30
0.0
 11
6930.307249876097
 21
5998.388227968411
 31
0.0
  0
LINE
  5
1F606
330
1DAE5
100
AcDbEntity
  8
寸法
 62
     0
 48
50.0
370
    -2
100
AcDbLine
 10
6930.307249876097
 20
5998.388227968411
 30
0.0
 11
6930.307249876098
 21
6392.494527181022
 31
0.0
  0
INSERT
  5
1F607
330
1DAE5
100
AcDbEntity
  8
寸法
 62
     0
 48
50.0
370
    -2
100
AcDbBlockReference
  2
_DOTSMALL
 10
6930.307249876097
 20
5888.388227968412
 30
0.0
 41
100.0
 42
100.0
 43
100.0
 50
270.0
  0
INSERT
  5
1F608
330
1DAE5
100
AcDbEntity
  8
寸法
 62
     0
 48
50.0
370
    -2
100
AcDbBlockReference
  2
_DOTSMALL
 10
6930.307249876097
 20
5998.388227968411
 30
0.0
 41
100.0
 42
100.0
 43
100.0
 50
90.0
  0
MTEXT
  5
1F609
330
1DAE5
100
AcDbEntity
  8
寸法
 62
     7
 48
50.0
100
AcDbMText
 10
6830.307249876096
 20
6268.447283086536
 30
0.0
 40
120.0
 41
0.0
 71
     5
 72
     1
  1
\A1;110
  7
STYLE1
 11
0.0000000000000001
 21
1.0
 31
0.0
 73
     1
 44
1.0
1001
ACAD
1000
MTEXTBEGIN
1070
    73
1070
     1
1070
    44
1040
1.0
1070
    74
1070
     0
1000
MTEXTEND
  0
POINT
  5
1F60A
330
1DAE5
100
AcDbEntity
  8
DEFPOINTS
 62
     0
 48
50.0
100
AcDbPoint
 10
6748.248214430131
 20
5888.388227968412
 30
0.0
  0
POINT
  5
1F60B
330
1DAE5
100
AcDbEntity
  8
DEFPOINTS
 62
     0
 48
50.0
100
AcDbPoint
 10
6713.600000000001
 20
5998.388227968411
 30
0.0
  0
POINT
  5
1F60C
330
1DAE5
100
AcDbEntity
  8
DEFPOINTS
 62
     0
 48
50.0
100
AcDbPoint
 10
6930.307249876097
 20
5998.388227968411
 30
0.0
  0
ENDBLK
  5
1DAF1
330
1DAE5
100
AcDbEntity
  8
0
 48
50.0
100
AcDbBlockEnd
  0
BLOCK
  5
1DAFD
330
1DAF2
100
AcDbEntity
  8
0
 48
50.0
100
AcDbBlockBegin
  2
*D27
 70
     1
 10
0.0
 20
0.0
 30
0.0
  3
*D27
  1

  0
LINE
  5
1F616
330
1DAF2
100
AcDbEntity
  8
寸法
 62
     0
 48
50.0
370
    -2
100
AcDbLine
 10
6805.419180988154
 20
5768.38822796842
 30
0.0
 11
6990.307249876099
 21
5768.38822796842
 31
0.0
  0
LINE
  5
1F617
330
1DAF2
100
AcDbEntity
  8
寸法
 62
     0
 48
50.0
370
    -2
100
AcDbLine
 10
6768.248214430132
 20
5888.388227968397
 30
0.0
 11
6990.307249876099
 21
5888.388227968397
 31
0.0
  0
LINE
  5
1F618
330
1DAF2
100
AcDbEntity
  8
寸法
 62
     0
 48
50.0
370
    -2
100
AcDbLine
 10
6930.307249876098
 20
5888.388227968397
 30
0.0
 11
6930.307249876098
 21
5768.38822796842
 31
0.0
  0
LINE
  5
1F619
330
1DAF2
100
AcDbEntity
  8
寸法
 62
     0
 48
50.0
370
    -2
100
AcDbLine
 10
6930.307249876098
 20
5768.38822796842
 30
0.0
 11
6930.307249876098
 21
5296.052678905963
 31
0.0
  0
INSERT
  5
1F61A
330
1DAF2
100
AcDbEntity
  8
寸法
 62
     0
 48
50.0
370
    -2
100
AcDbBlockReference
  2
_DOTSMALL
 10
6930.307249876098
 20
5888.388227968397
 30
0.0
 41
100.0
 42
100.0
 43
100.0
 50
90.0
  0
INSERT
  5
1F61B
330
1DAF2
100
AcDbEntity
  8
寸法
 62
     0
 48
50.0
370
    -2
100
AcDbBlockReference
  2
_DOTSMALL
 10
6930.307249876098
 20
5768.38822796842
 30
0.0
 41
100.0
 42
100.0
 43
100.0
 50
270.0
  0
MTEXT
  5
1F61C
330
1DAF2
100
AcDbEntity
  8
寸法
 62
     7
 48
50.0
100
AcDbMText
 10
6830.295438852475
 20
5432.099923000453
 30
0.0
 40
120.0
 41
0.0
 71
     5
 72
     1
  1
\A1;120
  7
STYLE1
 11
0.0000000000000001
 21
1.0
 31
0.0
 73
     1
 44
1.0
1001
ACAD
1000
MTEXTBEGIN
1070
    73
1070
     1
1070
    44
1040
1.0
1070
    74
1070
     0
1000
MTEXTEND
  0
POINT
  5
1F61D
330
1DAF2
100
AcDbEntity
  8
DEFPOINTS
 62
     0
 48
50.0
100
AcDbPoint
 10
6785.419180988154
 20
5768.38822796842
 30
0.0
  0
POINT
  5
1F61E
330
1DAF2
100
AcDbEntity
  8
DEFPOINTS
 62
     0
 48
50.0
100
AcDbPoint
 10
6748.248214430131
 20
5888.388227968397
 30
0.0
  0
POINT
  5
1F61F
330
1DAF2
100
AcDbEntity
  8
DEFPOINTS
 62
     0
 48
50.0
100
AcDbPoint
 10
6930.307249876098
 20
5888.388227968397
 30
0.0
  0
ENDBLK
  5
1DAFE
330
1DAF2
100
AcDbEntity
  8
0
 48
50.0
100
AcDbBlockEnd
  0
BLOCK
  5
1E91E
330
1E912
100
AcDbEntity
  8
0
 48
50.0
100
AcDbBlockBegin
  2
*D28
 70
     1
 10
0.0
 20
0.0
 30
0.0
  3
*D28
  1

  0
LINE
  5
1F5F9
330
1E912
100
AcDbEntity
  8
寸法
 62
     0
 48
50.0
370
    -2
100
AcDbLine
 10
7505.396634347635
 20
5888.388227968414
 30
0.0
 11
7668.966496672242
 21
5888.388227968414
 31
0.0
  0
LINE
  5
1F5FA
330
1E912
100
AcDbEntity
  8
寸法
 62
     0
 48
50.0
370
    -2
100
AcDbLine
 10
7470.587329399073
 20
5693.38822796841
 30
0.0
 11
7668.966496672242
 21
5693.38822796841
 31
0.0
  0
LINE
  5
1F5FB
330
1E912
100
AcDbEntity
  8
寸法
 62
     0
 48
50.0
370
    -2
100
AcDbLine
 10
7608.966496672242
 20
5888.388227968414
 30
0.0
 11
7608.966496672242
 21
5693.38822796841
 31
0.0
  0
LINE
  5
1F5FC
330
1E912
100
AcDbEntity
  8
寸法
 62
     0
 48
50.0
370
    -2
100
AcDbLine
 10
7608.966496672242
 20
5693.38822796841
 30
0.0
 11
7608.966496672242
 21
5255.716908811759
 31
0.0
  0
INSERT
  5
1F5FD
330
1E912
100
AcDbEntity
  8
寸法
 62
     0
 48
50.0
370
    -2
100
AcDbBlockReference
  2
_DOTSMALL
 10
7608.966496672242
 20
5888.388227968414
 30
0.0
 41
100.0
 42
100.0
 43
100.0
 50
90.0
  0
INSERT
  5
1F5FE
330
1E912
100
AcDbEntity
  8
寸法
 62
     0
 48
50.0
370
    -2
100
AcDbBlockReference
  2
_DOTSMALL
 10
7608.966496672242
 20
5693.38822796841
 30
0.0
 41
100.0
 42
100.0
 43
100.0
 50
270.0
  0
MTEXT
  5
1F5FF
330
1E912
100
AcDbEntity
  8
寸法
 62
     7
 48
50.0
100
AcDbMText
 10
7508.966496672241
 20
5394.411850015655
 30
0.0
 40
120.0
 41
0.0
 71
     5
 72
     1
  1
\A1;195
  7
STYLE1
 11
0.0000000000000001
 21
1.0
 31
0.0
 73
     1
 44
1.0
1001
ACAD
1000
MTEXTBEGIN
1070
    73
1070
     1
1070
    44
1040
1.0
1070
    74
1070
     0
1000
MTEXTEND
  0
POINT
  5
1F600
330
1E912
100
AcDbEntity
  8
DEFPOINTS
 62
     0
 48
50.0
100
AcDbPoint
 10
7485.396634347636
 20
5888.388227968414
 30
0.0
  0
POINT
  5
1F601
330
1E912
100
AcDbEntity
  8
DEFPOINTS
 62
     0
 48
50.0
100
AcDbPoint
 10
7450.587329399073
 20
5693.38822796841
 30
0.0
  0
POINT
  5
1F602
330
1E912
100
AcDbEntity
  8
DEFPOINTS
 62
     0
 48
50.0
100
AcDbPoint
 10
7608.966496672242
 20
5693.38822796841
 30
0.0
  0
ENDBLK
  5
1E91F
330
1E912
100
AcDbEntity
  8
0
 48
50.0
100
AcDbBlockEnd
  0
BLOCK
  5
1F10E
330
1F104
100
AcDbEntity
  8
0
 48
50.0
100
AcDbBlockBegin
  2
*D29
 70
     1
 10
0.0
 20
0.0
 30
0.0
  3
*D29
  1

  0
LINE
  5
1F5F0
330
1F104
100
AcDbEntity
  8
寸法
 62
     0
 48
50.0
370
    -2
100
AcDbLine
 10
9511.599999999999
 20
5673.388227968423
 30
0.0
 11
9511.599999999999
 21
4918.523924544297
 31
0.0
  0
LINE
  5
1F5F1
330
1F104
100
AcDbEntity
  8
寸法
 62
     0
 48
50.0
370
    -2
100
AcDbLine
 10
7356.6
 20
5673.388227968409
 30
0.0
 11
7356.6
 21
4918.523924544297
 31
0.0
  0
LINE
  5
1F5F2
330
1F104
100
AcDbEntity
  8
寸法
 62
     0
 48
50.0
370
    -2
100
AcDbLine
 10
9511.599999999999
 20
4978.523924544298
 30
0.0
 11
7356.6
 21
4978.523924544298
 31
0.0
  0
INSERT
  5
1F5F3
330
1F104
100
AcDbEntity
  8
寸法
 62
     0
 48
50.0
370
    -2
100
AcDbBlockReference
  2
_DOTSMALL
 10
9511.599999999999
 20
4978.523924544298
 30
0.0
 41
100.0
 42
100.0
 43
100.0
  0
INSERT
  5
1F5F4
330
1F104
100
AcDbEntity
  8
寸法
 62
     0
 48
50.0
370
    -2
100
AcDbBlockReference
  2
_DOTSMALL
 10
7356.6
 20
4978.523924544298
 30
0.0
 41
100.0
 42
100.0
 43
100.0
 50
180.0
  0
MTEXT
  5
1F5F5
330
1F104
100
AcDbEntity
  8
寸法
 62
     7
 48
50.0
100
AcDbMText
 10
8434.1
 20
5078.535735567919
 30
0.0
 40
120.0
 41
0.0
 71
     5
 72
     1
  1
\A1;扉の幅 2155
  7
STYLE1
 73
     1
 44
1.0
1001
ACAD
1000
MTEXTBEGIN
1070
    73
1070
     1
1070
    44
1040
1.0
1070
    74
1070
     0
1000
MTEXTEND
  0
POINT
  5
1F5F6
330
1F104
100
AcDbEntity
  8
DEFPOINTS
 62
     0
 48
50.0
100
AcDbPoint
 10
9511.599999999999
 20
5693.388227968424
 30
0.0
  0
POINT
  5
1F5F7
330
1F104
100
AcDbEntity
  8
DEFPOINTS
 62
     0
 48
50.0
100
AcDbPoint
 10
7356.6
 20
5693.38822796841
 30
0.0
  0
POINT
  5
1F5F8
330
1F104
100
AcDbEntity
  8
DEFPOINTS
 62
     0
 48
50.0
100
AcDbPoint
 10
7356.6
 20
4978.523924544298
 30
0.0
  0
ENDBLK
  5
1F10F
330
1F104
100
AcDbEntity
  8
0
 48
50.0
100
AcDbBlockEnd
  0
BLOCK
  5
1F4D4
330
1F4C8
100
AcDbEntity
  8
0
 48
50.0
100
AcDbBlockBegin
  2
*D30
 70
     1
 10
0.0
 20
0.0
 30
0.0
  3
*D30
  1

  0
LINE
  5
1F5E5
330
1F4C8
100
AcDbEntity
  8
寸法
 62
     0
 48
50.0
370
    -2
100
AcDbLine
 10
7159.244123611758
 20
1976.286935945114
 30
0.0
 11
8405.648205971596
 21
1976.286935945114
 31
0.0
  0
LINE
  5
1F5E6
330
1F4C8
100
AcDbEntity
  8
寸法
 62
     0
 48
50.0
370
    -2
100
AcDbLine
 10
7393.244123611758
 20
1910.336935945114
 30
0.0
 11
8405.648205971596
 21
1910.336935945113
 31
0.0
  0
LINE
  5
1F5E7
330
1F4C8
100
AcDbEntity
  8
寸法
 62
     0
 48
50.0
370
    -2
100
AcDbLine
 10
8345.648205971597
 20
1976.286935945114
 30
0.0
 11
8345.648205971597
 21
2076.286935945113
 31
0.0
  0
LINE
  5
1F5E8
330
1F4C8
100
AcDbEntity
  8
寸法
 62
     0
 48
50.0
370
    -2
100
AcDbLine
 10
8345.648205971597
 20
1910.336935945113
 30
0.0
 11
8345.648205971597
 21
1178.319129102148
 31
0.0
  0
LINE
  5
1F5E9
330
1F4C8
100
AcDbEntity
  8
寸法
 62
     0
 48
50.0
370
    -2
100
AcDbLine
 10
8345.648205971597
 20
1976.286935945114
 30
0.0
 11
8345.648205971597
 21
1910.336935945113
 31
0.0
  0
INSERT
  5
1F5EA
330
1F4C8
100
AcDbEntity
  8
寸法
 62
     0
 48
50.0
370
    -2
100
AcDbBlockReference
  2
_DOTSMALL
 10
8345.648205971597
 20
1976.286935945114
 30
0.0
 41
100.0
 42
100.0
 43
100.0
 50
270.0
  0
INSERT
  5
1F5EB
330
1F4C8
100
AcDbEntity
  8
寸法
 62
     0
 48
50.0
370
    -2
100
AcDbBlockReference
  2
_DOTSMALL
 10
8345.648205971597
 20
1910.336935945113
 30
0.0
 41
100.0
 42
100.0
 43
100.0
 50
90.0
  0
MTEXT
  5
1F5EC
330
1F4C8
100
AcDbEntity
  8
寸法
 62
     7
 48
50.0
100
AcDbMText
 10
8245.636394947975
 20
1444.328032523632
 30
0.0
 40
120.0
 41
0.0
 71
     5
 72
     1
  1
\A1;20～25
  7
STYLE1
 11
0.0000000000000001
 21
1.0
 31
0.0
 73
     1
 44
1.0
1001
ACAD
1000
MTEXTBEGIN
1070
    73
1070
     1
1070
    44
1040
1.0
1070
    74
1070
     0
1000
MTEXTEND
  0
POINT
  5
1F5ED
330
1F4C8
100
AcDbEntity
  8
DEFPOINTS
 62
     0
 48
50.0
100
AcDbPoint
 10
7139.244123611757
 20
1976.286935945114
 30
0.0
  0
POINT
  5
1F5EE
330
1F4C8
100
AcDbEntity
  8
DEFPOINTS
 62
     0
 48
50.0
100
AcDbPoint
 10
7373.244123611758
 20
1910.336935945114
 30
0.0
  0
POINT
  5
1F5EF
330
1F4C8
100
AcDbEntity
  8
DEFPOINTS
 62
     0
 48
50.0
100
AcDbPoint
 10
8345.648205971597
 20
1910.336935945113
 30
0.0
  0
ENDBLK
  5
1F4D5
330
1F4C8
100
AcDbEntity
  8
0
 48
50.0
100
AcDbBlockEnd
  0
BLOCK
  5
1F4DF
330
1F4D6
100
AcDbEntity
  8
0
 48
50.0
100
AcDbBlockBegin
  2
*D31
 70
     1
 10
0.0
 20
0.0
 30
0.0
  3
*D31
  1

  0
LINE
  5
1F5DC
330
1F4D6
100
AcDbEntity
  8
寸法
 62
     0
 48
50.0
370
    -2
100
AcDbLine
 10
7393.244123611758
 20
1910.336935945114
 30
0.0
 11
8060.579873322813
 21
1910.336935945113
 31
0.0
  0
LINE
  5
1F5DD
330
1F4D6
100
AcDbEntity
  8
寸法
 62
     0
 48
50.0
370
    -2
100
AcDbLine
 10
7393.244123611758
 20
1505.336935945112
 30
0.0
 11
8060.579873322813
 21
1505.336935945111
 31
0.0
  0
LINE
  5
1F5DE
330
1F4D6
100
AcDbEntity
  8
寸法
 62
     0
 48
50.0
370
    -2
100
AcDbLine
 10
8000.579873322813
 20
1910.336935945113
 30
0.0
 11
8000.579873322813
 21
1505.336935945111
 31
0.0
  0
INSERT
  5
1F5DF
330
1F4D6
100
AcDbEntity
  8
寸法
 62
     0
 48
50.0
370
    -2
100
AcDbBlockReference
  2
_DOTSMALL
 10
8000.579873322813
 20
1910.336935945113
 30
0.0
 41
100.0
 42
100.0
 43
100.0
 50
90.0
  0
INSERT
  5
1F5E0
330
1F4D6
100
AcDbEntity
  8
寸法
 62
     0
 48
50.0
370
    -2
100
AcDbBlockReference
  2
_DOTSMALL
 10
8000.579873322813
 20
1505.336935945111
 30
0.0
 41
100.0
 42
100.0
 43
100.0
 50
270.0
  0
MTEXT
  5
1F5E1
330
1F4D6
100
AcDbEntity
  8
寸法
 62
     7
 48
50.0
100
AcDbMText
 10
7900.579873322813
 20
1707.836935945114
 30
0.0
 40
120.0
 41
0.0
 71
     5
 72
     1
  1
\A1;180
  7
STYLE1
 11
0.0000000000000001
 21
1.0
 31
0.0
 73
     1
 44
1.0
1001
ACAD
1000
MTEXTBEGIN
1070
    73
1070
     1
1070
    44
1040
1.0
1070
    74
1070
     0
1000
MTEXTEND
  0
POINT
  5
1F5E2
330
1F4D6
100
AcDbEntity
  8
DEFPOINTS
 62
     0
 48
50.0
100
AcDbPoint
 10
7373.244123611758
 20
1910.336935945114
 30
0.0
  0
POINT
  5
1F5E3
330
1F4D6
100
AcDbEntity
  8
DEFPOINTS
 62
     0
 48
50.0
100
AcDbPoint
 10
7373.244123611758
 20
1505.336935945112
 30
0.0
  0
POINT
  5
1F5E4
330
1F4D6
100
AcDbEntity
  8
DEFPOINTS
 62
     0
 48
50.0
100
AcDbPoint
 10
8000.579873322813
 20
1505.336935945111
 30
0.0
  0
ENDBLK
  5
1F4E0
330
1F4D6
100
AcDbEntity
  8
0
 48
50.0
100
AcDbBlockEnd
  0
BLOCK
  5
1F4EB
330
1F4E1
100
AcDbEntity
  8
0
 48
50.0
100
AcDbBlockBegin
  2
*D32
 70
     1
 10
0.0
 20
0.0
 30
0.0
  3
*D32
  1

  0
LINE
  5
1F5D3
330
1F4E1
100
AcDbEntity
  8
寸法
 62
     0
 48
50.0
370
    -2
100
AcDbLine
 10
4570.694982140263
 20
750.3369359451125
 30
0.0
 11
4570.694982140263
 21
411.3848294891795
 31
0.0
  0
LINE
  5
1F5D4
330
1F4E1
100
AcDbEntity
  8
寸法
 62
     0
 48
50.0
370
    -2
100
AcDbLine
 10
5130.694982140266
 20
750.3369359451125
 30
0.0
 11
5130.694982140266
 21
411.3848294891795
 31
0.0
  0
LINE
  5
1F5D5
330
1F4E1
100
AcDbEntity
  8
寸法
 62
     0
 48
50.0
370
    -2
100
AcDbLine
 10
4570.694982140263
 20
471.3848294891795
 30
0.0
 11
5130.694982140266
 21
471.3848294891795
 31
0.0
  0
INSERT
  5
1F5D6
330
1F4E1
100
AcDbEntity
  8
寸法
 62
     0
 48
50.0
370
    -2
100
AcDbBlockReference
  2
_DOTSMALL
 10
4570.694982140263
 20
471.3848294891795
 30
0.0
 41
100.0
 42
100.0
 43
100.0
 50
180.0
  0
INSERT
  5
1F5D7
330
1F4E1
100
AcDbEntity
  8
寸法
 62
     0
 48
50.0
370
    -2
100
AcDbBlockReference
  2
_DOTSMALL
 10
5130.694982140266
 20
471.3848294891795
 30
0.0
 41
100.0
 42
100.0
 43
100.0
  0
MTEXT
  5
1F5D8
330
1F4E1
100
AcDbEntity
  8
寸法
 62
     7
 48
50.0
100
AcDbMText
 10
4850.694982140264
 20
571.3848294891795
 30
0.0
 40
120.0
 41
0.0
 71
     5
 72
     1
  1
\A1;300
  7
STYLE1
 73
     1
 44
1.0
1001
ACAD
1000
MTEXTBEGIN
1070
    73
1070
     1
1070
    44
1040
1.0
1070
    74
1070
     0
1000
MTEXTEND
  0
POINT
  5
1F5D9
330
1F4E1
100
AcDbEntity
  8
DEFPOINTS
 62
     0
 48
50.0
100
AcDbPoint
 10
4570.694982140263
 20
770.3369359451126
 30
0.0
  0
POINT
  5
1F5DA
330
1F4E1
100
AcDbEntity
  8
DEFPOINTS
 62
     0
 48
50.0
100
AcDbPoint
 10
5130.694982140266
 20
770.3369359451126
 30
0.0
  0
POINT
  5
1F5DB
330
1F4E1
100
AcDbEntity
  8
DEFPOINTS
 62
     0
 48
50.0
100
AcDbPoint
 10
5130.694982140266
 20
471.3848294891795
 30
0.0
  0
ENDBLK
  5
1F4EC
330
1F4E1
100
AcDbEntity
  8
0
 48
50.0
100
AcDbBlockEnd
  0
BLOCK
  5
1F4F7
330
1F4ED
100
AcDbEntity
  8
0
 48
50.0
100
AcDbBlockBegin
  2
*D33
 70
     1
 10
0.0
 20
0.0
 30
0.0
  3
*D33
  1

  0
LINE
  5
1F5CA
330
1F4ED
100
AcDbEntity
  8
寸法
 62
     0
 48
50.0
370
    -2
100
AcDbLine
 10
4710.694982140264
 20
1910.336935945114
 30
0.0
 11
3910.050044104201
 21
1910.336935945114
 31
0.0
  0
LINE
  5
1F5CB
330
1F4ED
100
AcDbEntity
  8
寸法
 62
     0
 48
50.0
370
    -2
100
AcDbLine
 10
4450.694982140269
 20
930.3369359451126
 30
0.0
 11
3910.050044104201
 21
930.3369359451126
 31
0.0
  0
LINE
  5
1F5CC
330
1F4ED
100
AcDbEntity
  8
寸法
 62
     0
 48
50.0
370
    -2
100
AcDbLine
 10
3970.050044104201
 20
1910.336935945114
 30
0.0
 11
3970.0500441042
 21
930.3369359451126
 31
0.0
  0
INSERT
  5
1F5CD
330
1F4ED
100
AcDbEntity
  8
寸法
 62
     0
 48
50.0
370
    -2
100
AcDbBlockReference
  2
_DOTSMALL
 10
3970.050044104201
 20
1910.336935945114
 30
0.0
 41
100.0
 42
100.0
 43
100.0
 50
90.0
  0
INSERT
  5
1F5CE
330
1F4ED
100
AcDbEntity
  8
寸法
 62
     0
 48
50.0
370
    -2
100
AcDbBlockReference
  2
_DOTSMALL
 10
3970.0500441042
 20
930.3369359451126
 30
0.0
 41
100.0
 42
100.0
 43
100.0
 50
270.0
  0
MTEXT
  5
1F5CF
330
1F4ED
100
AcDbEntity
  8
寸法
 62
     7
 48
50.0
100
AcDbMText
 10
3870.0500441042
 20
1420.336935945113
 30
0.0
 40
120.0
 41
0.0
 71
     5
 72
     1
  1
\A1;540
  7
STYLE1
 11
0.0000000000000001
 21
1.0
 31
0.0
 73
     1
 44
1.0
1001
ACAD
1000
MTEXTBEGIN
1070
    73
1070
     1
1070
    44
1040
1.0
1070
    74
1070
     0
1000
MTEXTEND
  0
POINT
  5
1F5D0
330
1F4ED
100
AcDbEntity
  8
DEFPOINTS
 62
     0
 48
50.0
100
AcDbPoint
 10
4730.694982140263
 20
1910.336935945114
 30
0.0
  0
POINT
  5
1F5D1
330
1F4ED
100
AcDbEntity
  8
DEFPOINTS
 62
     0
 48
50.0
100
AcDbPoint
 10
4470.694982140268
 20
930.3369359451126
 30
0.0
  0
POINT
  5
1F5D2
330
1F4ED
100
AcDbEntity
  8
DEFPOINTS
 62
     0
 48
50.0
100
AcDbPoint
 10
3970.0500441042
 20
930.3369359451126
 30
0.0
  0
ENDBLK
  5
1F4F8
330
1F4ED
100
AcDbEntity
  8
0
 48
50.0
100
AcDbBlockEnd
  0
BLOCK
  5
1F503
330
1F4F9
100
AcDbEntity
  8
0
 48
50.0
100
AcDbBlockBegin
  2
*D34
 70
     1
 10
0.0
 20
0.0
 30
0.0
  3
*D34
  1

  0
LINE
  5
1F5C1
330
1F4F9
100
AcDbEntity
  8
寸法
 62
     0
 48
50.0
370
    -2
100
AcDbLine
 10
4550.694982140264
 20
1230.336935945113
 30
0.0
 11
4332.66958997469
 21
1230.336935945113
 31
0.0
  0
LINE
  5
1F5C2
330
1F4F9
100
AcDbEntity
  8
寸法
 62
     0
 48
50.0
370
    -2
100
AcDbLine
 10
4450.694982140269
 20
930.3369359451126
 30
0.0
 11
4332.66958997469
 21
930.3369359451126
 31
0.0
  0
LINE
  5
1F5C3
330
1F4F9
100
AcDbEntity
  8
寸法
 62
     0
 48
50.0
370
    -2
100
AcDbLine
 10
4392.66958997469
 20
1230.336935945113
 30
0.0
 11
4392.66958997469
 21
930.3369359451126
 31
0.0
  0
INSERT
  5
1F5C4
330
1F4F9
100
AcDbEntity
  8
寸法
 62
     0
 48
50.0
370
    -2
100
AcDbBlockReference
  2
_DOTSMALL
 10
4392.66958997469
 20
1230.336935945113
 30
0.0
 41
100.0
 42
100.0
 43
100.0
 50
90.0
  0
INSERT
  5
1F5C5
330
1F4F9
100
AcDbEntity
  8
寸法
 62
     0
 48
50.0
370
    -2
100
AcDbBlockReference
  2
_DOTSMALL
 10
4392.66958997469
 20
930.3369359451126
 30
0.0
 41
100.0
 42
100.0
 43
100.0
 50
270.0
  0
MTEXT
  5
1F5C6
330
1F4F9
100
AcDbEntity
  8
寸法
 62
     7
 48
50.0
100
AcDbMText
 10
4292.66958997469
 20
1080.336935945112
 30
0.0
 40
120.0
 41
0.0
 71
     5
 72
     1
  1
\A1;150
  7
STYLE1
 11
0.0000000000000001
 21
1.0
 31
0.0
 73
     1
 44
1.0
1001
ACAD
1000
MTEXTBEGIN
1070
    73
1070
     1
1070
    44
1040
1.0
1070
    74
1070
     0
1000
MTEXTEND
  0
POINT
  5
1F5C7
330
1F4F9
100
AcDbEntity
  8
DEFPOINTS
 62
     0
 48
50.0
100
AcDbPoint
 10
4570.694982140263
 20
1230.336935945113
 30
0.0
  0
POINT
  5
1F5C8
330
1F4F9
100
AcDbEntity
  8
DEFPOINTS
 62
     0
 48
50.0
100
AcDbPoint
 10
4470.694982140268
 20
930.3369359451126
 30
0.0
  0
POINT
  5
1F5C9
330
1F4F9
100
AcDbEntity
  8
DEFPOINTS
 62
     0
 48
50.0
100
AcDbPoint
 10
4392.66958997469
 20
930.3369359451126
 30
0.0
  0
ENDBLK
  5
1F504
330
1F4F9
100
AcDbEntity
  8
0
 48
50.0
100
AcDbBlockEnd
  0
BLOCK
  5
1F50F
330
1F505
100
AcDbEntity
  8
0
 48
50.0
100
AcDbBlockBegin
  2
*D35
 70
     1
 10
0.0
 20
0.0
 30
0.0
  3
*D35
  1

  0
LINE
  5
1F5B8
330
1F505
100
AcDbEntity
  8
寸法
 62
     0
 48
50.0
370
    -2
100
AcDbLine
 10
4970.694982140265
 20
1930.336935945114
 30
0.0
 11
4970.694982140265
 21
2494.921695840589
 31
0.0
  0
LINE
  5
1F5B9
330
1F505
100
AcDbEntity
  8
寸法
 62
     0
 48
50.0
370
    -2
100
AcDbLine
 10
4730.694982140263
 20
1930.336935945114
 30
0.0
 11
4730.694982140263
 21
2494.921695840589
 31
0.0
  0
LINE
  5
1F5BA
330
1F505
100
AcDbEntity
  8
寸法
 62
     0
 48
50.0
370
    -2
100
AcDbLine
 10
4970.694982140265
 20
2434.921695840589
 30
0.0
 11
4730.694982140263
 21
2434.921695840589
 31
0.0
  0
INSERT
  5
1F5BB
330
1F505
100
AcDbEntity
  8
寸法
 62
     0
 48
50.0
370
    -2
100
AcDbBlockReference
  2
_DOTSMALL
 10
4970.694982140265
 20
2434.921695840589
 30
0.0
 41
100.0
 42
100.0
 43
100.0
  0
INSERT
  5
1F5BC
330
1F505
100
AcDbEntity
  8
寸法
 62
     0
 48
50.0
370
    -2
100
AcDbBlockReference
  2
_DOTSMALL
 10
4730.694982140263
 20
2434.921695840589
 30
0.0
 41
100.0
 42
100.0
 43
100.0
 50
180.0
  0
MTEXT
  5
1F5BD
330
1F505
100
AcDbEntity
  8
寸法
 62
     7
 48
50.0
100
AcDbMText
 10
4850.694982140264
 20
2640.962508405393
 30
0.0
 40
120.0
 41
0.0
 71
     5
 72
     1
  1
\A1;120\P(195)
  7
STYLE1
 73
     1
 44
1.0
1001
ACAD
1000
MTEXTBEGIN
1070
    73
1070
     1
1070
    44
1040
1.0
1070
    74
1070
     0
1000
MTEXTEND
  0
POINT
  5
1F5BE
330
1F505
100
AcDbEntity
  8
DEFPOINTS
 62
     0
 48
50.0
100
AcDbPoint
 10
4970.694982140265
 20
1910.336935945114
 30
0.0
  0
POINT
  5
1F5BF
330
1F505
100
AcDbEntity
  8
DEFPOINTS
 62
     0
 48
50.0
100
AcDbPoint
 10
4730.694982140263
 20
1910.336935945114
 30
0.0
  0
POINT
  5
1F5C0
330
1F505
100
AcDbEntity
  8
DEFPOINTS
 62
     0
 48
50.0
100
AcDbPoint
 10
4730.694982140263
 20
2434.921695840589
 30
0.0
  0
ENDBLK
  5
1F510
330
1F505
100
AcDbEntity
  8
0
 48
50.0
100
AcDbBlockEnd
  0
ENDSEC
  0
SECTION
  2
ENTITIES
  0
MTEXT
  5
763F
330
747D
100
AcDbEntity
  8
0
100
AcDbMText
 10
302.846345836809
 20
280.1983726409901
 30
0.0
 40
3.5
 41
5.323721266742722
 71
     1
 72
     5
  1

  7
MSMINCHO
 73
     1
 44
1.0
1001
ACAD
1000
MTEXTBEGIN
1070
    73
1070
     1
1070
    44
1040
1.0
1070
    74
1070
     0
1000
MTEXTEND
  0
LINE
  5
10B57
330
747D
100
AcDbEntity
  8
補助
  6
PHANTOM
 62
   230
 48
50.0
100
AcDbLine
 10
139.9999999999995
 20
11409.6
 30
0.0
 11
16307.2
 21
11409.6
 31
0.0
  0
LINE
  5
10B59
330
747D
100
AcDbEntity
  8
仕様書枠
  6
Continuous
 48
50.0
100
AcDbLine
 10
13107.2
 20
1200.0
 30
0.0
 11
13107.2
 21
-0.0000000000000729
 31
0.0
  0
LINE
  5
10B5D
330
747D
100
AcDbEntity
  8
仕様書枠
 48
50.0
100
AcDbLine
 10
140.0
 20
0.0
 30
0.0
 11
16307.2
 21
-0.0000000000000909
 31
0.0
  0
LINE
  5
10B5E
330
747D
100
AcDbEntity
  8
補助
  6
PHANTOM
 62
   230
 48
50.0
100
AcDbLine
 10
16307.2
 20
11409.6
 30
0.0
 11
16307.2
 21
1200.0
 31
0.0
  0
LINE
  5
10B6C
330
747D
100
AcDbEntity
  8
仕様書枠
 48
50.0
100
AcDbLine
 10
13107.2
 20
1200.0
 30
0.0
 11
16307.2
 21
1200.0
 31
0.0
  0
TEXT
  5
10B73
330
747D
100
AcDbEntity
  8
文字
 62
     7
 48
50.0
100
AcDbText
 10
13162.9790565769
 20
895.0906074299405
 30
0.0
 40
200.0
  1
基 礎 図
  7
STYLE2
100
AcDbText
  0
LINE
  5
10B7B
330
747D
100
AcDbEntity
  8
仕様書枠
 48
50.0
100
AcDbLine
 10
13107.2
 20
800.0
 30
0.0
 11
14251.2
 21
800.0
 31
0.0
  0
LINE
  5
10B88
330
747D
100
AcDbEntity
  8
仕様書枠
  6
Continuous
 48
50.0
100
AcDbLine
 10
14251.2
 20
1200.0
 30
0.0
 11
14251.2
 21
800.0
 31
0.0
  0
LINE
  5
16462
330
747D
100
AcDbEntity
  8
仕様書枠
 48
50.0
100
AcDbLine
 10
16307.2
 20
1200.0
 30
0.0
 11
16307.2
 21
-0.0000000000000909
 31
0.0
  0
LINE
  5
1903B
330
747D
100
AcDbEntity
  8
補助
  6
PHANTOM
 62
   230
 48
50.0
100
AcDbLine
 10
140.0
 20
0.0
 30
0.0
 11
139.9999999999995
 21
11409.6
 31
0.0
  0
LEADER
  5
1AC27
330
747D
100
AcDbEntity
  8
寸法
 48
50.0
100
AcDbLeader
  3
INABA_S40G
 73
     0
 74
     0
 75
     1
 40
120.0
 41
720.0000000000001
 76
     3
 10
9963.695499614997
 20
7083.139589391215
 30
0.0
 10
10130.46907400128
 20
6807.125675823383
 30
0.0
 10
10230.46907400128
 20
6807.125675823383
 30
0.0
340
1AC28
1001
ACAD
1000
DSTYLE
1002
{
1070
   341
1005
0
1002
}
  0
MTEXT
  5
1AC28
102
{ACAD_REACTORS
330
1AC27
102
}
330
747D
100
AcDbEntity
  8
部品1
 62
     7
 48
50.0
100
AcDbMText
 10
10990.46907400128
 20
6907.125675823383
 30
0.0
 40
120.0
 41
0.0
 71
     6
 72
     1
  1
\A1;床下換気口
  7
STYLE1
 73
     1
 44
1.0
1001
ACAD
1000
MTEXTBEGIN
1070
    73
1070
     1
1070
    44
1040
1.0
1070
    74
1070
     0
1000
MTEXTEND
  0
TEXT
  5
1AC29
330
747D
100
AcDbEntity
  8
部品1
 48
50.0
100
AcDbText
 10
10307.43013846117
 20
5771.767199899302
 30
0.0
 40
80.0
  1
(a=45,b=55,c=75)
  7
STYLE1
100
AcDbText
  0
TEXT
  5
1AC2A
330
747D
100
AcDbEntity
  8
部品1
 48
50.0
100
AcDbText
 10
10148.85112970687
 20
5878.612420768057
 30
0.0
 40
80.0
  1
※a,b,cは屋根の出幅です。
  7
STYLE1
100
AcDbText
  0
MTEXT
  5
1AC2B
102
{ACAD_REACTORS
330
1AC2C
102
}
330
747D
100
AcDbEntity
  8
部品1
 62
     7
 48
50.0
100
AcDbMText
 10
10946.63832569548
 20
6057.923107701132
 30
0.0
 40
120.0
 41
0.0
 71
     6
 72
     1
  1
\A1;屋根の外寸
  7
STYLE1
 73
     1
 44
1.0
1001
ACAD
1000
MTEXTBEGIN
1070
    73
1070
     1
1070
    44
1040
1.0
1070
    74
1070
     0
1000
MTEXTEND
  0
LEADER
  5
1AC2C
330
747D
100
AcDbEntity
  8
寸法
 48
50.0
100
AcDbLeader
  3
INABA_S40G
 73
     0
 74
     0
 75
     1
 40
120.0
 41
672.0
 76
     3
 10
10008.69831350344
 20
6231.812451164707
 30
0.0
 10
10134.63832569548
 20
5957.923107701132
 30
0.0
 10
10234.63832569548
 20
5957.923107701132
 30
0.0
340
1AC2B
1001
ACAD
1000
DSTYLE
1002
{
1070
   341
1005
0
1002
}
  0
LINE
  5
1B135
330
747D
100
AcDbEntity
  8
部品1
 48
50.0
100
AcDbLine
 10
9155.600000000001
 20
7733.388227968408
 30
0.0
 11
8955.600000000002
 21
7733.388227968408
 31
0.0
  0
LINE
  5
1B136
330
747D
100
AcDbEntity
  8
部品1
 48
50.0
100
AcDbLine
 10
9155.600000000001
 20
7333.388227968406
 30
0.0
 11
8955.600000000002
 21
7333.388227968406
 31
0.0
  0
LINE
  5
1B137
330
747D
100
AcDbEntity
  8
センター
 48
2.0
100
AcDbLine
 10
9005.600000000001
 20
7533.388227968408
 30
0.0
 11
9105.6
 21
7533.388227968408
 31
0.0
  0
LINE
  5
1B138
330
747D
100
AcDbEntity
  8
センター
 48
2.0
100
AcDbLine
 10
9005.600000000001
 20
6643.388227968407
 30
0.0
 11
9105.6
 21
6643.388227968407
 31
0.0
  0
LINE
  5
1B139
330
747D
100
AcDbEntity
  8
部品1
 48
50.0
100
AcDbLine
 10
9155.600000000001
 20
6443.388227968405
 30
0.0
 11
8955.600000000002
 21
6443.388227968405
 31
0.0
  0
LINE
  5
1B13A
330
747D
100
AcDbEntity
  8
部品1
 48
50.0
100
AcDbLine
 10
9155.600000000001
 20
6843.388227968408
 30
0.0
 11
8955.600000000002
 21
6843.388227968408
 31
0.0
  0
DIMENSION
  5
1B13B
330
747D
100
AcDbEntity
  8
寸法
 48
50.0
100
AcDbDimension
  2
*D1
 10
9055.600000000001
 20
8935.297993616735
 30
0.0
 11
9534.51852200628
 21
8935.297993616735
 31
0.0
 70
   160
 71
     5
 42
908.0
  3
INABA_S40G
100
AcDbAlignedDimension
 13
9963.600000000001
 23
8408.388227968407
 33
0.0
 14
9055.600000000001
 24
7733.388227968408
 34
0.0
100
AcDbRotatedDimension
1001
ACAD
1000
DSTYLE
1002
{
1070
   341
1005
0
1002
}
  0
LINE
  5
1B13D
330
747D
100
AcDbEntity
  8
部品1
 48
50.0
100
AcDbLine
 10
9511.599999999999
 20
5693.388227968424
 30
0.0
 11
7356.6
 21
5693.38822796841
 31
0.0
  0
LINE
  5
1B13E
330
747D
100
AcDbEntity
  8
部品1
 48
50.0
100
AcDbLine
 10
9733.600000000002
 20
5888.388227968424
 30
0.0
 11
6713.600000000001
 21
5888.388227968412
 31
0.0
  0
LINE
  5
1B141
330
747D
100
AcDbEntity
  8
部品1
 48
50.0
100
AcDbLine
 10
9963.600000000001
 20
8408.388227968407
 30
0.0
 11
6483.6
 21
8408.388227968407
 31
0.0
  0
LINE
  5
1B142
330
747D
100
AcDbEntity
  8
部品1
 48
50.0
100
AcDbLine
 10
9733.600000000002
 20
8288.388227968406
 30
0.0
 11
6713.600000000001
 21
8288.388227968408
 31
0.0
  0
DIMENSION
  5
1B143
330
747D
100
AcDbEntity
  8
寸法
 48
50.0
100
AcDbDimension
  2
*D2
 10
9963.600000000001
 20
9366.608550027327
 30
0.0
 11
8223.600000000001
 21
9466.608550027329
 31
0.0
 70
    32
 71
     5
 42
3480.0
  3
INABA_S40G
100
AcDbAlignedDimension
 13
6483.6
 23
8408.388227968407
 33
0.0
 14
9963.600000000001
 24
8408.388227968407
 34
0.0
100
AcDbRotatedDimension
1001
ACAD
1000
DSTYLE
1002
{
1070
   341
1005
0
1002
}
  0
DIMENSION
  5
1B144
330
747D
100
AcDbEntity
  8
寸法
 48
50.0
100
AcDbDimension
  2
*D3
 10
6606.6
 20
9154.14785451049
 30
0.0
 11
8223.600000000001
 21
9254.159665534112
 31
0.0
 70
    32
 71
     5
 42
3234.0
  3
INABA_S40G
100
AcDbAlignedDimension
 13
9840.600000000002
 23
8335.388227968406
 33
0.0
 14
6606.6
 24
8335.388227968406
 34
0.0
100
AcDbRotatedDimension
1001
ACAD
1000
DSTYLE
1002
{
1070
   341
1005
0
1002
}
  0
DIMENSION
  5
1B146
330
747D
100
AcDbEntity
  8
寸法
 48
50.0
100
AcDbDimension
  2
*D4
 10
6930.307249876098
 20
8178.388227968403
 30
0.0
 11
6930.307249876098
 21
7838.329172850293
 31
0.0
 70
   160
 71
     5
 42
110.0000000000054
  3
INABA_S40G
100
AcDbAlignedDimension
 13
6764.989764952814
 23
8288.388227968409
 33
0.0
 14
6713.600000000001
 24
8178.388227968403
 34
0.0
 50
90.0
100
AcDbRotatedDimension
1001
ACAD
1000
DSTYLE
1002
{
1070
   341
1005
0
1002
}
  0
LINE
  5
1B147
330
747D
100
AcDbEntity
  8
部品1
 48
50.0
100
AcDbLine
 10
6483.6
 20
5768.388227968408
 30
0.0
 11
6483.6
 21
8408.388227968407
 31
0.0
  0
LINE
  5
1B148
330
747D
100
AcDbEntity
  8
部品1
 48
50.0
100
AcDbLine
 10
6603.6
 20
5998.388227968409
 30
0.0
 11
6603.6
 21
8178.388227968403
 31
0.0
  0
DIMENSION
  5
1B149
330
747D
100
AcDbEntity
  8
寸法
 48
50.0
100
AcDbDimension
  2
*D5
 10
5987.657733986178
 20
5891.38822796841
 30
0.0
 11
5887.645922962555
 21
7088.38822796841
 31
0.0
 70
    32
 71
     5
 42
2393.999999999998
  3
INABA_S40G
100
AcDbAlignedDimension
 13
6556.6
 23
8285.388227968407
 33
0.0
 14
6556.600000000007
 24
5891.388227968409
 34
0.0
 50
90.0
100
AcDbRotatedDimension
1001
ACAD
1000
DSTYLE
1002
{
1070
   341
1005
0
1002
}
  0
DIMENSION
  5
1B14A
330
747D
100
AcDbEntity
  8
寸法
 48
50.0
100
AcDbDimension
  2
*D6
 10
5742.16493184821
 20
5768.388227968408
 30
0.0
 11
5642.153120824588
 21
7088.38822796841
 31
0.0
 70
    32
 71
     5
 42
2640.0
  3
INABA_S40G
100
AcDbAlignedDimension
 13
6483.6
 23
8408.388227968407
 33
0.0
 14
6483.6
 24
5768.388227968408
 34
0.0
 50
90.0
100
AcDbRotatedDimension
1001
ACAD
1000
DSTYLE
1002
{
1070
   341
1005
0
1002
}
  0
DIMENSION
  5
1B14C
330
747D
100
AcDbEntity
  8
寸法
 48
50.0
100
AcDbDimension
  2
*D7
 10
7391.600000000001
 20
8935.297993616735
 30
0.0
 11
7807.6
 21
9035.309804640357
 31
0.0
 70
    32
 71
     5
 42
832.0
  3
INABA_S40G
100
AcDbAlignedDimension
 13
8223.600000000001
 23
7733.388227968408
 33
0.0
 14
7391.600000000001
 24
7733.388227968408
 34
0.0
100
AcDbRotatedDimension
1001
ACAD
1000
DSTYLE
1002
{
1070
   341
1005
0
1002
}
  0
DIMENSION
  5
1B14D
330
747D
100
AcDbEntity
  8
寸法
 48
50.0
100
AcDbDimension
  2
*D8
 10
6483.6
 20
8935.297993616735
 30
0.0
 11
6937.6
 21
9035.297993616735
 31
0.0
 70
    32
 71
     5
 42
908.0
  3
INABA_S40G
100
AcDbAlignedDimension
 13
7391.600000000001
 23
7733.388227968408
 33
0.0
 14
6483.6
 24
8408.388227968407
 34
0.0
100
AcDbRotatedDimension
1001
ACAD
1000
DSTYLE
1002
{
1070
   341
1005
0
1002
}
  0
DIMENSION
  5
1B14E
330
747D
100
AcDbEntity
  8
寸法
 48
50.0
100
AcDbDimension
  2
*D9
 10
8223.600000000001
 20
8935.297993616735
 30
0.0
 11
8639.599999999999
 21
9035.309804640357
 31
0.0
 70
    32
 71
     5
 42
832.0
  3
INABA_S40G
100
AcDbAlignedDimension
 13
9055.600000000001
 23
7733.388227968408
 33
0.0
 14
8223.600000000001
 24
7733.388227968408
 34
0.0
100
AcDbRotatedDimension
1001
ACAD
1000
DSTYLE
1002
{
1070
   341
1005
0
1002
}
  0
DIMENSION
  5
1B14F
330
747D
100
AcDbEntity
  8
寸法
 48
50.0
100
AcDbDimension
  2
*D10
 10
7142.143301171607
 20
8408.388227968407
 30
0.0
 11
7142.143301171607
 21
7971.62872474358
 31
0.0
 70
   160
 71
     5
 42
875.0
  3
INABA_S40G
100
AcDbAlignedDimension
 13
7291.600000000001
 23
7533.388227968406
 33
0.0
 14
6874.6
 24
8408.388227968407
 34
0.0
 50
90.0
100
AcDbRotatedDimension
1001
ACAD
1000
DSTYLE
1002
{
1070
   341
1005
0
1002
}
  0
DIMENSION
  5
1B150
330
747D
100
AcDbEntity
  8
寸法
 48
50.0
100
AcDbDimension
  2
*D11
 10
5987.657733986178
 20
5768.388227968408
 30
0.0
 11
5987.657733986178
 21
5432.857279125816
 31
0.0
 70
   160
 71
     5
 42
123.0000000000018
  3
INABA_S40G
100
AcDbAlignedDimension
 13
6556.600000000007
 23
5891.388227968409
 33
0.0
 14
6483.6
 24
5768.388227968408
 34
0.0
 50
90.0
100
AcDbRotatedDimension
1001
ACAD
1000
DSTYLE
1002
{
1070
   341
1005
0
1002
}
  0
DIMENSION
  5
1B151
330
747D
100
AcDbEntity
  8
寸法
 48
50.0
100
AcDbDimension
  2
*D12
 10
5742.16493184821
 20
5713.388227968419
 30
0.0
 11
5642.16493184821
 21
5740.888227968415
 31
0.0
 70
    32
  1
b
 71
     5
 42
54.99999999998909
  3
INABA_S40G
100
AcDbAlignedDimension
 13
6483.6
 23
5768.388227968408
 33
0.0
 14
5987.657733986178
 24
5713.388227968419
 34
0.0
 50
90.0
100
AcDbRotatedDimension
1001
ACAD
1000
DSTYLE
1002
{
1070
   341
1005
0
1002
}
  0
LINE
  5
1B155
330
747D
100
AcDbEntity
  8
部品1
 48
50.0
100
AcDbLine
 10
7491.600000000001
 20
7733.388227968408
 30
0.0
 11
7291.600000000001
 21
7733.388227968408
 31
0.0
  0
LINE
  5
1B156
330
747D
100
AcDbEntity
  8
部品1
 48
50.0
100
AcDbLine
 10
7491.600000000001
 20
7333.388227968406
 30
0.0
 11
7291.600000000001
 21
7333.388227968406
 31
0.0
  0
LINE
  5
1B157
330
747D
100
AcDbEntity
  8
部品1
 48
50.0
100
AcDbLine
 10
7491.600000000001
 20
6443.388227968405
 30
0.0
 11
7291.600000000001
 21
6443.388227968405
 31
0.0
  0
LINE
  5
1B158
330
747D
100
AcDbEntity
  8
部品1
 48
50.0
100
AcDbLine
 10
7491.600000000001
 20
6843.388227968408
 30
0.0
 11
7291.600000000001
 21
6843.388227968408
 31
0.0
  0
LINE
  5
1B15C
330
747D
100
AcDbEntity
  8
部品1
 48
50.0
100
AcDbLine
 10
7291.600000000001
 20
6443.388227968407
 30
0.0
 11
7291.600000000001
 21
6843.388227968408
 31
0.0
  0
LINE
  5
1B15D
330
747D
100
AcDbEntity
  8
センター
 48
2.0
100
AcDbLine
 10
6556.600000000007
 20
5891.388227968409
 30
0.0
 11
6656.600000000008
 21
5891.388227968409
 31
0.0
  0
CIRCLE
  5
1B15E
330
747D
100
AcDbEntity
  8
部品1
 48
50.0
100
AcDbCircle
 10
6606.600000000007
 20
5891.388227968409
 30
0.0
 40
35.0
  0
LINE
  5
1B15F
330
747D
100
AcDbEntity
  8
部品1
 48
50.0
100
AcDbLine
 10
6713.600000000001
 20
5998.388227968411
 30
0.0
 11
6603.600000000001
 21
5998.38822796841
 31
0.0
  0
LINE
  5
1B160
330
747D
100
AcDbEntity
  8
部品1
 48
50.0
100
AcDbLine
 10
7356.6
 20
5768.38822796841
 30
0.0
 11
6483.6
 21
5768.388227968408
 31
0.0
  0
LINE
  5
1B161
330
747D
100
AcDbEntity
  8
センター
 48
2.0
100
AcDbLine
 10
6606.600000000007
 20
5941.38822796841
 30
0.0
 11
6606.600000000007
 21
5841.388227968409
 31
0.0
  0
LINE
  5
1B162
330
747D
100
AcDbEntity
  8
部品1
 48
50.0
100
AcDbLine
 10
6713.599999999999
 20
5888.38822796841
 30
0.0
 11
6713.600000000001
 21
5998.388227968411
 31
0.0
  0
LINE
  5
1B184
330
747D
100
AcDbEntity
  8
部品1
 48
50.0
100
AcDbLine
 10
7356.6
 20
5693.388227968426
 30
0.0
 11
7356.6
 21
5768.38822796841
 31
0.0
  0
LINE
  5
1B185
330
747D
100
AcDbEntity
  8
センター
 48
2.0
100
AcDbLine
 10
7391.600000000001
 20
6693.388227968407
 30
0.0
 11
7391.600000000001
 21
6593.388227968407
 31
0.0
  0
LINE
  5
1B186
330
747D
100
AcDbEntity
  8
センター
 48
2.0
100
AcDbLine
 10
7341.600000000001
 20
6643.388227968407
 30
0.0
 11
7441.600000000001
 21
6643.388227968407
 31
0.0
  0
LINE
  5
1B188
330
747D
100
AcDbEntity
  8
部品1
 48
50.0
100
AcDbLine
 10
6603.6
 20
6988.388227968409
 30
0.0
 11
6483.599999999999
 21
6988.388227968407
 31
0.0
  0
LINE
  5
1B189
330
747D
100
AcDbEntity
  8
部品1
 48
50.0
100
AcDbLine
 10
6603.6
 20
7188.388227968407
 30
0.0
 11
6483.599999999999
 21
7188.388227968407
 31
0.0
  0
LINE
  5
1B18A
330
747D
100
AcDbEntity
  8
部品1
 48
50.0
100
AcDbLine
 10
7291.600000000001
 20
7333.388227968407
 30
0.0
 11
7291.600000000001
 21
7733.388227968408
 31
0.0
  0
LINE
  5
1B18B
330
747D
100
AcDbEntity
  8
センター
 48
2.0
100
AcDbLine
 10
7391.600000000001
 20
7583.388227968407
 30
0.0
 11
7391.600000000001
 21
7483.388227968408
 31
0.0
  0
LINE
  5
1B18C
330
747D
100
AcDbEntity
  8
センター
 48
2.0
100
AcDbLine
 10
7341.600000000001
 20
7533.388227968408
 30
0.0
 11
7441.600000000001
 21
7533.388227968408
 31
0.0
  0
LINE
  5
1B18D
330
747D
100
AcDbEntity
  8
部品1
 48
50.0
100
AcDbLine
 10
8955.600000000002
 20
6443.388227968407
 30
0.0
 11
8955.600000000002
 21
6843.388227968408
 31
0.0
  0
LINE
  5
1B18E
330
747D
100
AcDbEntity
  8
部品1
 48
50.0
100
AcDbLine
 10
8323.6
 20
6443.388227968405
 30
0.0
 11
8323.6
 21
6843.388227968408
 31
0.0
  0
LINE
  5
1B18F
330
747D
100
AcDbEntity
  8
部品1
 48
50.0
100
AcDbLine
 10
8123.600000000001
 20
6443.388227968407
 30
0.0
 11
8123.600000000001
 21
6843.388227968408
 31
0.0
  0
LINE
  5
1B190
330
747D
100
AcDbEntity
  8
部品1
 48
50.0
100
AcDbLine
 10
7491.600000000001
 20
6443.388227968405
 30
0.0
 11
7491.600000000001
 21
6843.388227968408
 31
0.0
  0
DIMENSION
  5
1B191
330
747D
100
AcDbEntity
  8
寸法
 48
50.0
100
AcDbDimension
  2
*D13
 10
7142.143301171607
 20
7533.388227968406
 30
0.0
 11
7042.143301171606
 21
7088.388227968407
 31
0.0
 70
    32
 71
     5
 42
890.0
  3
INABA_S40G
100
AcDbAlignedDimension
 13
7291.600000000001
 23
6643.388227968405
 33
0.0
 14
7291.600000000001
 24
7533.388227968406
 34
0.0
 50
90.0
100
AcDbRotatedDimension
1001
ACAD
1000
DSTYLE
1002
{
1070
   341
1005
0
1002
}
  0
LINE
  5
1B196
330
747D
100
AcDbEntity
  8
部品1
 48
50.0
100
AcDbLine
 10
8323.6
 20
6443.388227968405
 30
0.0
 11
8123.600000000001
 21
6443.388227968405
 31
0.0
  0
LINE
  5
1B269
330
747D
100
AcDbEntity
  8
部品1
 48
50.0
100
AcDbLine
 10
8123.600000000019
 20
5693.388227968417
 30
0.0
 11
8123.600000000021
 21
5888.388227968419
 31
0.0
  0
LINE
  5
1B26A
330
747D
100
AcDbEntity
  8
センター
 48
2.0
100
AcDbLine
 10
8223.600000000001
 20
6693.388227968407
 30
0.0
 11
8223.600000000001
 21
6593.388227968407
 31
0.0
  0
LINE
  5
1B26B
330
747D
100
AcDbEntity
  8
センター
 48
2.0
100
AcDbLine
 10
8173.6
 20
6643.388227968407
 30
0.0
 11
8273.6
 21
6643.388227968407
 31
0.0
  0
DIMENSION
  5
1B26C
330
747D
100
AcDbEntity
  8
寸法
 48
50.0
100
AcDbDimension
  2
*D14
 10
7142.143301171607
 20
6643.388227968405
 30
0.0
 11
7042.143301171606
 21
6205.888227968411
 31
0.0
 70
    32
 71
     5
 42
874.9999999999909
  3
INABA_S40G
100
AcDbAlignedDimension
 13
6970.488508201206
 23
5768.388227968415
 33
0.0
 14
7291.600000000001
 24
6643.388227968405
 34
0.0
 50
90.0
100
AcDbRotatedDimension
1001
ACAD
1000
DSTYLE
1002
{
1070
   341
1005
0
1002
}
  0
LINE
  5
1B26E
330
747D
100
AcDbEntity
  8
部品1
 48
50.0
100
AcDbLine
 10
8323.600000000018
 20
5693.388227968417
 30
0.0
 11
8323.600000000018
 21
5888.38822796842
 31
0.0
  0
LINE
  5
1B301
330
747D
100
AcDbEntity
  8
センター
 48
2.0
100
AcDbLine
 10
9055.600000000001
 20
6693.388227968407
 30
0.0
 11
9055.600000000001
 21
6593.388227968407
 31
0.0
  0
LINE
  5
1B302
330
747D
100
AcDbEntity
  8
部品1
 48
50.0
100
AcDbLine
 10
8323.6
 20
7733.388227968408
 30
0.0
 11
8123.600000000001
 21
7733.388227968408
 31
0.0
  0
LINE
  5
1B303
330
747D
100
AcDbEntity
  8
部品1
 48
50.0
100
AcDbLine
 10
8323.6
 20
7333.388227968406
 30
0.0
 11
8123.600000000001
 21
7333.388227968406
 31
0.0
  0
LINE
  5
1B304
330
747D
100
AcDbEntity
  8
部品1
 48
50.0
100
AcDbLine
 10
8323.6
 20
6843.388227968408
 30
0.0
 11
8123.600000000001
 21
6843.388227968408
 31
0.0
  0
LINE
  5
1B305
330
747D
100
AcDbEntity
  8
部品1
 48
50.0
100
AcDbLine
 10
8123.600000000001
 20
7333.388227968407
 30
0.0
 11
8123.600000000001
 21
7733.388227968408
 31
0.0
  0
LINE
  5
1B306
330
747D
100
AcDbEntity
  8
部品1
 48
50.0
100
AcDbLine
 10
7491.600000000001
 20
7333.388227968406
 30
0.0
 11
7491.600000000001
 21
7733.388227968408
 31
0.0
  0
LINE
  5
1B307
330
747D
100
AcDbEntity
  8
センター
 48
2.0
100
AcDbLine
 10
8223.600000000001
 20
7583.388227968407
 30
0.0
 11
8223.600000000001
 21
7483.388227968408
 31
0.0
  0
LINE
  5
1B308
330
747D
100
AcDbEntity
  8
センター
 48
2.0
100
AcDbLine
 10
8173.6
 20
7533.388227968408
 30
0.0
 11
8273.6
 21
7533.388227968408
 31
0.0
  0
LINE
  5
1B309
330
747D
100
AcDbEntity
  8
部品1
 48
50.0
100
AcDbLine
 10
8955.600000000002
 20
7333.388227968407
 30
0.0
 11
8955.600000000002
 21
7733.388227968408
 31
0.0
  0
LINE
  5
1B30A
330
747D
100
AcDbEntity
  8
部品1
 48
50.0
100
AcDbLine
 10
8323.6
 20
7333.388227968406
 30
0.0
 11
8323.6
 21
7733.388227968408
 31
0.0
  0
LINE
  5
1B30B
330
747D
100
AcDbEntity
  8
センター
 48
2.0
100
AcDbLine
 10
9055.600000000001
 20
7583.388227968407
 30
0.0
 11
9055.600000000001
 21
7483.388227968408
 31
0.0
  0
DIMENSION
  5
1B30C
330
747D
100
AcDbEntity
  8
寸法
 48
50.0
100
AcDbDimension
  2
*D15
 10
5742.16493184821
 20
8408.388227968407
 30
0.0
 11
5642.16493184821
 21
8445.888227968412
 31
0.0
 70
    32
  1
c
 71
     5
 42
75.00000000000182
  3
INABA_S40G
100
AcDbAlignedDimension
 13
5987.657733986178
 23
8483.38822796841
 33
0.0
 14
6483.6
 24
8408.388227968407
 34
0.0
 50
90.0
100
AcDbRotatedDimension
1001
ACAD
1000
DSTYLE
1002
{
1070
   341
1005
0
1002
}
  0
DIMENSION
  5
1B30D
330
747D
100
AcDbEntity
  8
寸法
 48
50.0
100
AcDbDimension
  2
*D16
 10
5987.657733986178
 20
8285.388227968407
 30
0.0
 11
5987.657733986178
 21
8681.49482968621
 31
0.0
 70
   160
 71
     5
 42
123.0
  3
INABA_S40G
100
AcDbAlignedDimension
 13
6483.6
 23
8408.388227968407
 33
0.0
 14
6556.6
 24
8285.388227968407
 34
0.0
 50
90.0
100
AcDbRotatedDimension
1001
ACAD
1000
DSTYLE
1002
{
1070
   341
1005
0
1002
}
  0
DIMENSION
  5
1B30E
330
747D
100
AcDbEntity
  8
寸法
 48
50.0
100
AcDbDimension
  2
*D17
 10
6483.6
 20
9366.608550027329
 30
0.0
 11
6167.425378797542
 21
9366.608550027329
 31
0.0
 70
   160
  1
a
 71
     5
 42
44.99999999999817
  3
INABA_S40G
100
AcDbAlignedDimension
 13
6438.600000000002
 23
9154.14785451049
 33
0.0
 14
6483.6
 24
8408.388227968407
 34
0.0
100
AcDbRotatedDimension
1001
ACAD
1000
DSTYLE
1002
{
1070
   341
1005
0
1002
}
  0
DIMENSION
  5
1B30F
330
747D
100
AcDbEntity
  8
寸法
 48
50.0
100
AcDbDimension
  2
*D18
 10
6483.6
 20
9154.14785451049
 30
0.0
 11
6210.493398282203
 21
9154.14785451049
 31
0.0
 70
   160
 71
     5
 42
123.0
  3
INABA_S40G
100
AcDbAlignedDimension
 13
6606.6
 23
8335.388227968406
 33
0.0
 14
6483.6
 24
8408.388227968407
 34
0.0
100
AcDbRotatedDimension
1001
ACAD
1000
DSTYLE
1002
{
1070
   341
1005
0
1002
}
  0
CIRCLE
  5
1B310
330
747D
100
AcDbEntity
  8
部品1
 48
50.0
100
AcDbCircle
 10
6606.6
 20
8285.388227968407
 30
0.0
 40
35.0
  0
LINE
  5
1B311
330
747D
100
AcDbEntity
  8
部品1
 48
50.0
100
AcDbLine
 10
6713.599999999998
 20
8178.388227968403
 30
0.0
 11
6603.6
 21
8178.388227968406
 31
0.0
  0
LINE
  5
1B312
330
747D
100
AcDbEntity
  8
部品1
 48
50.0
100
AcDbLine
 10
6882.928907166848
 20
8408.388227968405
 30
0.0
 11
6483.6
 21
8408.388227968407
 31
0.0
  0
LINE
  5
1B313
330
747D
100
AcDbEntity
  8
センター
 48
2.0
100
AcDbLine
 10
6556.6
 20
8285.388227968407
 30
0.0
 11
6656.6
 21
8285.388227968407
 31
0.0
  0
LINE
  5
1B314
330
747D
100
AcDbEntity
  8
センター
 48
2.0
100
AcDbLine
 10
6606.6
 20
8335.388227968406
 30
0.0
 11
6606.6
 21
8235.388227968407
 31
0.0
  0
DIMENSION
  5
1B315
330
747D
100
AcDbEntity
  8
寸法
 48
50.0
100
AcDbDimension
  2
*D19
 10
6930.307249876098
 20
8408.388227968407
 30
0.0
 11
6930.307249876098
 21
8686.471771241292
 31
0.0
 70
   160
 71
     5
 42
119.9999999999981
  3
INABA_S40G
100
AcDbAlignedDimension
 13
6764.989764952814
 23
8288.388227968408
 33
0.0
 14
6713.600000000003
 24
8408.388227968407
 34
0.0
 50
90.0
100
AcDbRotatedDimension
1001
ACAD
1000
DSTYLE
1002
{
1070
   341
1005
0
1002
}
  0
LINE
  5
1B316
330
747D
100
AcDbEntity
  8
部品1
 48
50.0
100
AcDbLine
 10
6713.599999999998
 20
8178.388227968403
 30
0.0
 11
6713.599999999998
 21
8288.388227968408
 31
0.0
  0
LINE
  5
1B318
330
747D
100
AcDbEntity
  8
部品1
 48
50.0
100
AcDbLine
 10
8123.599999999997
 20
8288.388227968406
 30
0.0
 11
8123.599999999999
 21
8408.388227968407
 31
0.0
  0
LINE
  5
1B319
330
747D
100
AcDbEntity
  8
部品1
 48
50.0
100
AcDbLine
 10
8323.599999999998
 20
8288.388227968406
 30
0.0
 11
8323.599999999998
 21
8408.388227968407
 31
0.0
  0
DIMENSION
  5
1B31A
330
747D
100
AcDbEntity
  8
寸法
 48
50.0
100
AcDbDimension
  2
*D20
 10
9733.600000000002
 20
7950.679560468033
 30
0.0
 11
9463.54094488189
 21
7950.679560468033
 31
0.0
 70
   160
 71
     5
 42
110.0
  3
INABA_S40G
100
AcDbAlignedDimension
 13
9843.600000000002
 23
8006.131849991724
 33
0.0
 14
9733.600000000002
 24
8178.388227968406
 34
0.0
100
AcDbRotatedDimension
1001
ACAD
1000
DSTYLE
1002
{
1070
   341
1005
0
1002
}
  0
LINE
  5
1B31B
330
747D
100
AcDbEntity
  8
部品1
 48
50.0
100
AcDbLine
 10
9963.600000000001
 20
5768.388227968426
 30
0.0
 11
9963.600000000001
 21
8408.388227968407
 31
0.0
  0
LINE
  5
1B31C
330
747D
100
AcDbEntity
  8
部品1
 48
50.0
100
AcDbLine
 10
9843.600000000002
 20
5998.388227968428
 30
0.0
 11
9843.600000000002
 21
8178.388227968408
 31
0.0
  0
DIMENSION
  5
1B31D
330
747D
100
AcDbEntity
  8
寸法
 48
50.0
100
AcDbDimension
  2
*D21
 10
9843.600000000002
 20
7950.679560468033
 30
0.0
 11
10233.65905511811
 21
7950.679560468033
 31
0.0
 70
   160
 71
     5
 42
120.0
  3
INABA_S40G
100
AcDbAlignedDimension
 13
9963.600000000001
 23
7967.672824506864
 33
0.0
 14
9843.600000000002
 24
8006.131849991724
 34
0.0
100
AcDbRotatedDimension
1001
ACAD
1000
DSTYLE
1002
{
1070
   341
1005
0
1002
}
  0
LINE
  5
1B321
330
747D
100
AcDbEntity
  8
部品1
 48
50.0
100
AcDbLine
 10
9155.600000000001
 20
6443.388227968405
 30
0.0
 11
9155.600000000001
 21
6843.388227968408
 31
0.0
  0
LINE
  5
1B322
330
747D
100
AcDbEntity
  8
部品1
 48
50.0
100
AcDbLine
 10
9963.600000000001
 20
5768.388227968426
 30
0.0
 11
9511.599999999999
 21
5768.38822796842
 31
0.0
  0
LINE
  5
1B3A6
330
747D
100
AcDbEntity
  8
センター
 48
2.0
100
AcDbLine
 10
9840.600000000009
 20
5941.38822796841
 30
0.0
 11
9840.600000000009
 21
5841.388227968409
 31
0.0
  0
LINE
  5
1B3A7
330
747D
100
AcDbEntity
  8
部品1
 48
50.0
100
AcDbLine
 10
9733.600000000002
 20
5888.388227968424
 30
0.0
 11
9733.600000000002
 21
5998.388227968426
 31
0.0
  0
LINE
  5
1B3A8
330
747D
100
AcDbEntity
  8
部品1
 48
50.0
100
AcDbLine
 10
9511.599999999999
 20
5693.388227968426
 30
0.0
 11
9511.599999999999
 21
5768.388227968422
 31
0.0
  0
CIRCLE
  5
1B3A9
330
747D
100
AcDbEntity
  8
部品1
 48
50.0
100
AcDbCircle
 10
9840.600000000009
 20
5891.388227968409
 30
0.0
 40
35.0
  0
LINE
  5
1B3AA
330
747D
100
AcDbEntity
  8
センター
 48
2.0
100
AcDbLine
 10
9790.600000000008
 20
5891.388227968409
 30
0.0
 11
9890.600000000008
 21
5891.388227968409
 31
0.0
  0
LINE
  5
1B3AB
330
747D
100
AcDbEntity
  8
部品1
 48
50.0
100
AcDbLine
 10
9843.600000000002
 20
5998.388227968426
 30
0.0
 11
9733.600000000002
 21
5998.388227968426
 31
0.0
  0
LINE
  5
1B3AC
330
747D
100
AcDbEntity
  8
部品1
 48
50.0
100
AcDbLine
 10
9963.600000000001
 20
7188.388227968407
 30
0.0
 11
9843.6
 21
7188.388227968407
 31
0.0
  0
LINE
  5
1B3AD
330
747D
100
AcDbEntity
  8
部品1
 48
50.0
100
AcDbLine
 10
9963.600000000001
 20
6988.388227968407
 30
0.0
 11
9843.6
 21
6988.388227968407
 31
0.0
  0
LINE
  5
1B3AF
330
747D
100
AcDbEntity
  8
部品1
 48
50.0
100
AcDbLine
 10
9155.600000000001
 20
7333.388227968406
 30
0.0
 11
9155.600000000001
 21
7733.388227968408
 31
0.0
  0
DIMENSION
  5
1B3B0
330
747D
100
AcDbEntity
  8
寸法
 48
50.0
100
AcDbDimension
  2
*D22
 10
10008.6
 20
9366.608550027329
 30
0.0
 11
10279.77462120246
 21
9366.608550027329
 31
0.0
 70
   160
  1
a
 71
     5
 42
45.0
  3
INABA_S40G
100
AcDbAlignedDimension
 13
9963.600000000001
 23
8408.388227968407
 33
0.0
 14
10008.6
 24
9154.14785451049
 34
0.0
100
AcDbRotatedDimension
1001
ACAD
1000
DSTYLE
1002
{
1070
   341
1005
0
1002
}
  0
DIMENSION
  5
1B3B1
330
747D
100
AcDbEntity
  8
寸法
 48
50.0
100
AcDbDimension
  2
*D23
 10
9840.600000000002
 20
9154.14785451049
 30
0.0
 11
10236.7066017178
 21
9154.14785451049
 31
0.0
 70
   160
 71
     5
 42
123.0
  3
INABA_S40G
100
AcDbAlignedDimension
 13
9963.600000000001
 23
8408.388227968407
 33
0.0
 14
9840.600000000002
 24
8335.388227968406
 34
0.0
100
AcDbRotatedDimension
1001
ACAD
1000
DSTYLE
1002
{
1070
   341
1005
0
1002
}
  0
LINE
  5
1B3B2
330
747D
100
AcDbEntity
  8
センター
 48
2.0
100
AcDbLine
 10
9840.600000000002
 20
8335.388227968406
 30
0.0
 11
9840.600000000002
 21
8235.388227968407
 31
0.0
  0
LINE
  5
1B3B3
330
747D
100
AcDbEntity
  8
部品1
 48
50.0
100
AcDbLine
 10
9733.600000000002
 20
8178.388227968406
 30
0.0
 11
9733.600000000002
 21
8288.388227968406
 31
0.0
  0
CIRCLE
  5
1B3B4
330
747D
100
AcDbEntity
  8
部品1
 48
50.0
100
AcDbCircle
 10
9840.600000000002
 20
8285.388227968407
 30
0.0
 40
35.0
  0
LINE
  5
1B3B5
330
747D
100
AcDbEntity
  8
部品1
 48
50.0
100
AcDbLine
 10
9843.600000000002
 20
8178.38822796841
 30
0.0
 11
9733.600000000002
 21
8178.388227968406
 31
0.0
  0
LINE
  5
1B3B6
330
747D
100
AcDbEntity
  8
センター
 48
2.0
100
AcDbLine
 10
9790.600000000001
 20
8285.388227968407
 30
0.0
 11
9890.6
 21
8285.388227968407
 31
0.0
  0
TEXT
  5
1C7A1
330
747D
100
AcDbEntity
  8
文字
 62
     7
 48
50.0
100
AcDbText
 10
13188.16259899338
 20
79.80631269190417
 30
0.0
 40
80.0
  1
※布基礎には換気口を設けてください。
  7
STYLE2
100
AcDbText
  0
TEXT
  5
1C7E7
330
747D
100
AcDbEntity
  8
文字
 62
     7
 48
50.0
100
AcDbText
 10
13188.16259899338
 20
246.7109242801889
 30
0.0
 40
80.0
  1
※寒冷地等は地域の実情に合わせた基礎にして下さい。
  7
STYLE2
100
AcDbText
  0
TEXT
  5
1C7E8
330
747D
100
AcDbEntity
  8
文字
 62
     7
 48
50.0
100
AcDbText
 10
14478.98566430227
 20
499.5983841039506
 30
0.0
 40
160.0
  1
ＮＸＮ－９２S・Ｈ
  7
STYLE2
100
AcDbText
  0
TEXT
  5
1C7E9
330
747D
100
AcDbEntity
  8
文字
 62
     7
 48
50.0
100
AcDbText
 10
14865.18797541989
 20
871.1744590657927
 30
0.0
 40
100.0
  1
～一般型～
  7
STYLE2
100
AcDbText
  0
TEXT
  5
1C7EC
330
747D
100
AcDbEntity
  8
文字
 62
     7
 48
50.0
100
AcDbText
 10
14524.131837222
 20
1031.557706291229
 30
0.0
 40
100.0
  1
      <縮尺> S=1/40
  7
STYLE2
100
AcDbText
  0
TEXT
  5
1C7ED
330
747D
100
AcDbEntity
  8
文字
 62
     7
 48
50.0
100
AcDbText
 10
13201.43669998441
 20
477.2740661031257
 30
0.0
 40
160.0
  1
機種名
  7
STYLE2
100
AcDbText
  0
LINE
  5
1C7EF
330
747D
100
AcDbEntity
  8
文字
 62
     7
 48
50.0
100
AcDbLine
 10
13187.2
 20
400.0
 30
0.0
 11
16227.2
 21
400.0
 31
0.0
  0
MTEXT
  5
1D2D5
102
{ACAD_REACTORS
330
1D2D6
102
}
330
747D
100
AcDbEntity
  8
部品1
 62
     7
 48
50.0
100
AcDbMText
 10
11158.99523070988
 20
8688.270911534219
 30
0.0
 40
120.0
 41
0.0
 71
     6
 72
     1
  1
アンカーボルト
  7
STYLE1
 73
     1
 44
1.0
1001
ACAD
1000
MTEXTBEGIN
1070
    73
1070
     1
1070
    44
1040
1.0
1070
    74
1070
     0
1000
MTEXTEND
  0
LEADER
  5
1D2D6
330
747D
100
AcDbEntity
  8
寸法
 48
50.0
100
AcDbLeader
  3
INABA_S40G
 73
     0
 74
     0
 75
     1
 40
120.0
 41
994.3492424049171
 76
     3
 10
9840.680085757
 20
8285.596072327116
 30
0.0
 10
10024.64598830496
 20
8588.27091153422
 30
0.0
 10
10124.64598830496
 20
8588.27091153422
 30
0.0
340
1D2D5
1001
ACAD
1000
DSTYLE
1002
{
1070
   341
1005
0
1002
}
  0
MTEXT
  5
1D332
102
{ACAD_REACTORS
330
1D333
102
}
330
747D
100
AcDbEntity
  8
部品1
 62
     7
 48
50.0
100
AcDbMText
 10
8625.440328953416
 20
7195.398991704881
 30
0.0
 40
120.0
 41
0.0
 71
     6
 72
     1
  1
CB
  7
STYLE1
 73
     1
 44
1.0
1001
ACAD
1000
MTEXTBEGIN
1070
    73
1070
     1
1070
    44
1040
1.0
1070
    74
1070
     0
1000
MTEXTEND
  0
LEADER
  5
1D333
330
747D
100
AcDbEntity
  8
寸法
 48
50.0
100
AcDbLeader
  3
INABA_S40G
 73
     0
 74
     0
 75
     1
 40
120.0
 41
149.591883092037
 76
     3
 10
8198.565642998735
 20
7371.412905272714
 30
0.0
 10
8335.84844586138
 20
7095.398991704882
 30
0.0
 10
8435.848445861379
 20
7095.398991704882
 30
0.0
340
1D332
1001
ACAD
1000
DSTYLE
1002
{
1070
   341
1005
0
1002
}
  0
DIMENSION
  5
1DAC7
330
747D
100
AcDbEntity
  8
寸法
 48
50.0
100
AcDbDimension
  2
*D25
 10
9778.202780124333
 20
5768.388227968425
 30
0.0
 11
9778.202780124331
 21
5159.902946594186
 31
0.0
 70
   160
  1
扉の出<>
 71
     5
 42
75.00000000000091
  3
INABA_S40G
100
AcDbAlignedDimension
 13
9511.599999999999
 23
5693.388227968424
 33
0.0
 14
9511.600000000003
 24
5768.388227968425
 34
0.0
 50
90.0
100
AcDbRotatedDimension
1001
ACAD
1000
DSTYLE
1002
{
1070
   341
1005
0
1002
}
  0
DIMENSION
  5
1DAC8
330
747D
100
AcDbEntity
  8
寸法
 48
50.0
100
AcDbDimension
  2
*D27
 10
6930.307249876098
 20
5888.388227968397
 30
0.0
 11
6930.307249876098
 21
5432.099923000453
 31
0.0
 70
   160
 71
     5
 42
119.9999999999763
  3
INABA_S40G
100
AcDbAlignedDimension
 13
6785.419180988154
 23
5768.38822796842
 33
0.0
 14
6748.248214430131
 24
5888.388227968397
 34
0.0
 50
90.0
100
AcDbRotatedDimension
1001
ACAD
1000
DSTYLE
1002
{
1070
   341
1005
0
1002
}
  0
DIMENSION
  5
1DAC9
330
747D
100
AcDbEntity
  8
寸法
 48
50.0
100
AcDbDimension
  2
*D24
 10
6483.6
 20
4978.523924544298
 30
0.0
 11
6920.100000000001
 21
5078.523924544297
 31
0.0
 70
    32
 71
     5
 42
873.0
  3
INABA_S40G
100
AcDbAlignedDimension
 13
7356.6
 23
5693.388227968426
 33
0.0
 14
6483.6
 24
5768.388227968408
 34
0.0
100
AcDbRotatedDimension
1001
ACAD
1000
DSTYLE
1002
{
1070
   341
1005
0
1002
}
  0
DIMENSION
  5
1DACA
330
747D
100
AcDbEntity
  8
寸法
 48
50.0
100
AcDbDimension
  2
*D26
 10
6930.307249876097
 20
5998.388227968411
 30
0.0
 11
6930.307249876095
 21
6268.447283086536
 31
0.0
 70
   160
 71
     5
 42
110.0
  3
INABA_S40G
100
AcDbAlignedDimension
 13
6748.248214430131
 23
5888.388227968412
 33
0.0
 14
6713.600000000001
 24
5998.388227968411
 34
0.0
 50
90.0
100
AcDbRotatedDimension
1001
ACAD
1000
DSTYLE
1002
{
1070
   341
1005
0
1002
}
  0
DIMENSION
  5
1E911
330
747D
100
AcDbEntity
  8
寸法
 48
50.0
100
AcDbDimension
  2
*D28
 10
7608.966496672242
 20
5693.38822796841
 30
0.0
 11
7608.966496672241
 21
5394.411850015655
 31
0.0
 70
   160
 71
     5
 42
195.0000000000036
  3
INABA_S40G
100
AcDbAlignedDimension
 13
7485.396634347636
 23
5888.388227968414
 33
0.0
 14
7450.587329399073
 24
5693.38822796841
 34
0.0
 50
90.0
100
AcDbRotatedDimension
1001
ACAD
1000
DSTYLE
1002
{
1070
   341
1005
0
1002
}
  0
TEXT
  5
1EDAE
330
747D
100
AcDbEntity
  8
寸法
 62
     7
100
AcDbText
 10
7740.750754363529
 20
4437.955952570206
 30
0.0
 40
120.0
  1
扉の位置に合わせた基礎形状として下さい。
  7
STYLE1
100
AcDbText
  0
LWPOLYLINE
  5
1EDAF
330
747D
100
AcDbEntity
  8
寸法
 48
50.0
100
AcDbPolyline
 90
        3
 70
     0
 43
0.0
 10
-7965.145259673149
 20
5693.388227968414
 10
-7624.134795170776
 20
4587.291767905211
 10
-10438.19920810242
 20
4587.291767905211
210
0.0
220
0.0
230
-1.0
1001
ACAD
1000
DSTYLE
1002
{
1070
   341
1005
0
1070
    40
1040
1.0
1070
   343
1005
0
1070
   344
1005
0
1002
}
  0
SOLID
  5
1EDB0
330
747D
100
AcDbEntity
  8
寸法
 48
50.0
100
AcDbTrace
 10
-7948.236054003162
 20
5567.797199063527
 30
0.0
 11
-7965.145259673149
 21
5693.388227968414
 31
0.0
 12
-7908.417839529684
 22
5580.069970032436
 32
0.0
 13
-7908.417839529684
 23
5580.069970032436
 33
0.0
210
0.0
220
0.0
230
-1.0
1001
ACAD
1000
DSTYLE
1002
{
1070
   341
1005
0
1070
    40
1040
1.0
1070
   343
1005
0
1070
   344
1005
0
1002
}
  0
TEXT
  5
1EDB1
330
747D
100
AcDbEntity
  8
寸法
 62
     7
100
AcDbText
 10
7740.750754363529
 20
4609.559715453531
 30
0.0
 40
120.0
  1
扉位置 (2155x75)
  7
STYLE1
100
AcDbText
  0
LINE
  5
1F0E1
330
747D
100
AcDbEntity
  8
想像線
 48
10.0
100
AcDbLine
 10
9335.876885203731
 20
8483.388227968408
 30
0.0
 11
10008.59999999999
 21
8483.38822796841
 31
0.0
  0
LINE
  5
1F0E2
330
747D
100
AcDbEntity
  8
想像線
 48
10.0
100
AcDbLine
 10
10008.6
 20
5713.388227968419
 30
0.0
 11
10008.59999999999
 21
8483.38822796841
 31
0.0
  0
LINE
  5
1F0E3
330
747D
100
AcDbEntity
  8
想像線
 48
10.0
100
AcDbLine
 10
9849.451083471679
 20
5713.388227968419
 30
0.0
 11
10008.6
 21
5713.388227968419
 31
0.0
  0
DIMENSION
  5
1F103
330
747D
100
AcDbEntity
  8
寸法
 48
50.0
100
AcDbDimension
  2
*D29
 10
7356.6
 20
4978.523924544298
 30
0.0
 11
8434.1
 21
5078.535735567919
 31
0.0
 70
    32
  1
扉の幅 <>
 71
     5
 42
2155.0
  3
INABA_S40G
100
AcDbAlignedDimension
 13
9511.599999999999
 23
5693.388227968424
 33
0.0
 14
7356.6
 24
5693.38822796841
 34
0.0
100
AcDbRotatedDimension
1001
ACAD
1000
DSTYLE
1002
{
1070
   341
1005
0
1002
}
  0
HATCH
  5
1F170
330
747D
100
AcDbEntity
  8
細線
 48
50.0
100
AcDbHatch
 10
0.0
 20
0.0
 30
0.0
210
0.0
220
0.0
230
1.0
  2
LINE
 70
     0
 71
     0
 91
        1
 92
        7
 72
     0
 73
     1
 93
        4
 10
8323.60000000002
 20
5888.388227968419
 10
8123.600000000021
 20
5888.388227968416
 10
8123.600000000019
 20
5693.388227968414
 10
8323.60000000002
 20
5693.388227968416
 97
        0
 75
     0
 76
     1
 52
45.0
 41
10.0
 77
     0
 78
     1
 53
45.0
 43
0.0
 44
0.0
 45
-22.45064030267288
 46
22.45064030267288
 79
     0
 47
4.78631828365646
 98
        1
 10
8167.115231322233
 20
5804.545389260304
  0
HATCH
  5
1F1CE
330
747D
100
AcDbEntity
  8
細線
 48
50.0
100
AcDbHatch
 10
0.0
 20
0.0
 30
0.0
210
0.0
220
0.0
230
1.0
  2
LINE
 70
     0
 71
     0
 91
        1
 92
        7
 72
     0
 73
     1
 93
        4
 10
8323.6
 20
8408.388227968407
 10
8123.599999999997
 20
8408.388227968407
 10
8123.599999999997
 20
8288.388227968408
 10
8323.599999999998
 20
8288.388227968406
 97
        0
 75
     0
 76
     1
 52
45.0
 41
10.0
 77
     0
 78
     1
 53
45.0
 43
0.0
 44
0.0
 45
-22.45064030267288
 46
22.45064030267288
 79
     0
 47
5.888081252293655
 98
        1
 10
8155.16539451405
 20
8355.327712238061
  0
HATCH
  5
1F1EF
330
747D
100
AcDbEntity
  8
細線
 48
50.0
100
AcDbHatch
 10
0.0
 20
0.0
 30
0.0
210
0.0
220
0.0
230
1.0
  2
LINE
 70
     0
 71
     0
 91
        1
 92
        7
 72
     0
 73
     1
 93
        4
 10
6603.6
 20
7188.388227968407
 10
6483.600000000001
 20
7188.388227968409
 10
6483.6
 20
6988.388227968407
 10
6603.6
 20
6988.388227968409
 97
        0
 75
     0
 76
     1
 52
45.0
 41
10.0
 77
     0
 78
     1
 53
45.0
 43
0.0
 44
0.0
 45
-22.45064030267288
 46
22.45064030267288
 79
     0
 47
5.888081252293655
 98
        1
 10
6529.751883199948
 20
7118.830667084039
  0
HATCH
  5
1F210
330
747D
100
AcDbEntity
  8
細線
 48
50.0
100
AcDbHatch
 10
0.0
 20
0.0
 30
0.0
210
0.0
220
0.0
230
1.0
  2
LINE
 70
     0
 71
     0
 91
        1
 92
        7
 72
     0
 73
     1
 93
        4
 10
9963.600000000003
 20
7188.388227968407
 10
9843.6
 20
7188.388227968407
 10
9843.600000000002
 20
6988.388227968407
 10
9963.600000000003
 20
6988.388227968407
 97
        0
 75
     0
 76
     1
 52
45.0
 41
10.0
 77
     0
 78
     1
 53
45.0
 43
0.0
 44
0.0
 45
-22.45064030267288
 46
22.45064030267288
 79
     0
 47
5.888081252293655
 98
        1
 10
9880.69493132391
 20
7089.39022719027
  0
LINE
  5
1F393
330
747D
100
AcDbEntity
  8
細線
 48
50.0
100
AcDbLine
 10
9863.330340357794
 20
1465.713291378423
 30
0.0
 11
9855.291864584854
 21
1495.713291378423
 31
0.0
  0
LINE
  5
1F394
330
747D
100
AcDbEntity
  8
細線
100
AcDbLine
 10
9651.579958862734
 20
1495.713291378428
 30
0.0
 11
9766.203603429413
 21
1610.336935945113
 31
0.0
  0
LINE
  5
1F395
330
747D
100
AcDbEntity
  8
細線
100
AcDbLine
 10
9609.153551991544
 20
1495.713291378428
 30
0.0
 11
9723.777196558224
 21
1610.336935945113
 31
0.0
  0
LINE
  5
1F396
330
747D
100
AcDbEntity
  8
細線
100
AcDbLine
 10
9694.006365733924
 20
1495.713291378428
 30
0.0
 11
9808.630010300603
 21
1610.336935945113
 31
0.0
  0
LINE
  5
1F397
330
747D
100
AcDbEntity
  8
細線
 48
50.0
100
AcDbLine
 10
9666.110227989664
 20
1465.713291378426
 30
0.0
 11
9658.071752216724
 21
1495.713291378426
 31
0.0
  0
LINE
  5
1F398
330
747D
100
AcDbEntity
  8
細線
 48
50.0
100
AcDbLine
 10
9764.720284173733
 20
1465.713291378423
 30
0.0
 11
9756.681808400793
 21
1495.713291378423
 31
0.0
  0
LINE
  5
1F399
330
747D
100
AcDbEntity
  8
部品1
100
AcDbLine
 10
9767.858058867375
 20
1910.336935945114
 30
0.0
 11
9767.858058867375
 21
1610.336935945113
 31
0.0
  0
LINE
  5
1F39A
330
747D
100
AcDbEntity
  8
細線
 48
50.0
100
AcDbLine
 10
9468.890115621553
 20
1465.713291378426
 30
0.0
 11
9460.851639848623
 21
1495.713291378426
 31
0.0
  0
LINE
  5
1F39B
330
747D
100
AcDbEntity
  8
細線
 48
50.0
100
AcDbLine
 10
9567.500171805614
 20
1465.713291378426
 30
0.0
 11
9559.461696032684
 21
1495.713291378426
 31
0.0
  0
LINE
  5
1F39C
330
747D
100
AcDbEntity
  8
細線
100
AcDbLine
 10
9201.579958862735
 20
1495.713291378427
 30
0.0
 11
9316.203603429412
 21
1610.336935945113
 31
0.0
  0
LINE
  5
1F39D
330
747D
100
AcDbEntity
  8
細線
100
AcDbLine
 10
9244.006365733923
 20
1495.713291378427
 30
0.0
 11
9358.630010300604
 21
1610.336935945113
 31
0.0
  0
LINE
  5
1F39E
330
747D
100
AcDbEntity
  8
細線
 48
50.0
100
AcDbLine
 10
9370.280059437494
 20
1465.713291378426
 30
0.0
 11
9362.241583664562
 21
1495.713291378426
 31
0.0
  0
LINE
  5
1F39F
330
747D
100
AcDbEntity
  8
細線
 48
50.0
100
AcDbLine
 10
9271.670003253444
 20
1465.713291378426
 30
0.0
 11
9263.631527480503
 21
1495.713291378426
 31
0.0
  0
LINE
  5
1F3A0
330
747D
100
AcDbEntity
  8
細線
100
AcDbLine
 10
9686.921370626116
 20
1610.336935945113
 30
0.0
 11
9386.921370626115
 21
1910.336935945114
 31
0.0
  0
LINE
  5
1F3A1
330
747D
100
AcDbEntity
  8
細線
100
AcDbLine
 10
9750.560980932895
 20
1610.336935945115
 30
0.0
 11
9450.560980932904
 21
1910.336935945114
 31
0.0
  0
LEADER
  5
1F3A2
330
747D
100
AcDbEntity
  8
寸法
 48
50.0
100
AcDbLeader
  3
INABA_S40G
 73
     0
 74
     0
 75
     1
 40
150.0
 41
231.9898538650463
 76
     3
 10
9681.263573387274
 20
1910.336935945114
 30
0.0
 10
9770.186331679333
 20
2116.769836796536
 30
0.0
 10
9870.186331679335
 20
2116.769836796536
 30
0.0
340
1F3A3
1001
ACAD
1000
DSTYLE
1002
{
1070
   341
1005
0
1002
}
  0
MTEXT
  5
1F3A3
102
{ACAD_REACTORS
330
1F3A2
102
}
330
747D
100
AcDbEntity
  8
寸法
 62
     7
 48
50.0
100
AcDbMText
 10
9910.186331679334
 20
2231.769836796536
 30
0.0
 40
150.0
 41
1.0
 71
     4
 72
     1
  1
\A1;C.B
  7
STYLE1
 73
     1
 44
1.0
1001
ACAD
1000
MTEXTBEGIN
1070
    73
1070
     1
1070
    44
1040
1.0
1070
    74
1070
     0
1000
MTEXTEND
  0
LINE
  5
1F3A4
330
747D
100
AcDbEntity
  8
細線
 48
50.0
100
AcDbLine
 10
9836.535421114682
 20
1365.713291378423
 30
0.0
 11
9844.573896887613
 21
1335.713291378423
 31
0.0
  0
LINE
  5
1F3A5
330
747D
100
AcDbEntity
  8
細線
 48
50.0
100
AcDbLine
 10
9639.315308746564
 20
1365.713291378426
 30
0.0
 11
9647.353784519504
 21
1335.713291378425
 31
0.0
  0
LINE
  5
1F3A6
330
747D
100
AcDbEntity
  8
細線
 48
50.0
100
AcDbLine
 10
9737.925364930624
 20
1365.713291378423
 30
0.0
 11
9745.963840703552
 21
1335.713291378423
 31
0.0
  0
LINE
  5
1F3A7
330
747D
100
AcDbEntity
  8
細線
 48
50.0
100
AcDbLine
 10
9442.095196378444
 20
1365.713291378426
 30
0.0
 11
9450.133672151375
 21
1335.713291378425
 31
0.0
  0
LINE
  5
1F3A8
330
747D
100
AcDbEntity
  8
細線
 48
50.0
100
AcDbLine
 10
9540.705252562505
 20
1365.713291378426
 30
0.0
 11
9548.743728335434
 21
1335.713291378425
 31
0.0
  0
LINE
  5
1F3A9
330
747D
100
AcDbEntity
  8
細線
 48
50.0
100
AcDbLine
 10
9244.875084010333
 20
1365.713291378426
 30
0.0
 11
9252.913559783264
 21
1335.713291378425
 31
0.0
  0
LINE
  5
1F3AA
330
747D
100
AcDbEntity
  8
細線
 48
50.0
100
AcDbLine
 10
9343.485140194383
 20
1365.713291378426
 30
0.0
 11
9351.523615967323
 21
1335.713291378425
 31
0.0
  0
LINE
  5
1F3AB
330
747D
100
AcDbEntity
  8
細線
 48
50.0
100
AcDbLine
 10
9434.056720605504
 20
1335.713291378423
 30
0.0
 11
9476.928591394482
 21
1495.713291378423
 31
0.0
  0
LINE
  5
1F3AC
330
747D
100
AcDbEntity
  8
細線
 48
50.0
100
AcDbLine
 10
9236.836608237393
 20
1335.713291378425
 30
0.0
 11
9279.708479026364
 21
1495.713291378426
 31
0.0
  0
LINE
  5
1F3AD
330
747D
100
AcDbEntity
  8
細線
 48
50.0
100
AcDbLine
 10
9335.446664421443
 20
1335.713291378425
 30
0.0
 11
9378.318535210425
 21
1495.713291378423
 31
0.0
  0
LINE
  5
1F3AE
330
747D
100
AcDbEntity
  8
細線
 48
50.0
100
AcDbLine
 10
9631.276832973624
 20
1335.713291378423
 30
0.0
 11
9674.148703762595
 21
1495.713291378426
 31
0.0
  0
LINE
  5
1F3AF
330
747D
100
AcDbEntity
  8
細線
 48
50.0
100
AcDbLine
 10
9532.666776789563
 20
1335.713291378425
 30
0.0
 11
9575.538647578545
 21
1495.713291378423
 31
0.0
  0
LINE
  5
1F3B0
330
747D
100
AcDbEntity
  8
細線
 48
50.0
100
AcDbLine
 10
9828.496945341735
 20
1335.713291378423
 30
0.0
 11
9871.368816130724
 21
1495.713291378422
 31
0.0
  0
LINE
  5
1F3B1
330
747D
100
AcDbEntity
  8
細線
 48
50.0
100
AcDbLine
 10
9729.886889157684
 20
1335.713291378421
 30
0.0
 11
9772.758759946663
 21
1495.713291378422
 31
0.0
  0
LINE
  5
1F3B2
330
747D
100
AcDbEntity
  8
部品1
100
AcDbLine
 10
9917.858058867373
 20
1610.336935945113
 30
0.0
 11
9917.858058867373
 21
1335.713291378425
 31
0.0
  0
LINE
  5
1F3B3
330
747D
100
AcDbEntity
  8
部品1
100
AcDbLine
 10
10508.36898668651
 20
302.4819579180803
 30
0.0
 11
10508.36898668651
 21
3561.551460666171
 31
0.0
  0
TEXT
  5
1F3B4
330
747D
100
AcDbEntity
  8
部品1
100
AcDbText
 10
6617.82339910513
 20
3337.111545726884
 30
0.0
 40
150.0
  1
基礎詳細
  7
STYLE2
100
AcDbText
  0
LINE
  5
1F3B5
330
747D
100
AcDbEntity
  8
細線
 48
50.0
100
AcDbLine
 10
9173.059947069374
 20
1465.713291378426
 30
0.0
 11
9165.021471296443
 21
1495.713291378426
 31
0.0
  0
LINE
  5
1F3B6
330
747D
100
AcDbEntity
  8
細線
 48
50.0
100
AcDbLine
 10
9074.449890885313
 20
1465.713291378426
 30
0.0
 11
9066.411415112375
 21
1495.713291378426
 31
0.0
  0
LINE
  5
1F3B7
330
747D
100
AcDbEntity
  8
部品1
100
AcDbLine
 10
9167.858058867373
 20
1610.336935945113
 30
0.0
 11
9167.858058867373
 21
1910.336935945114
 31
0.0
  0
LINE
  5
1F3B8
330
747D
100
AcDbEntity
  8
細線
 48
50.0
100
AcDbLine
 10
9047.654971642202
 20
1365.713291378426
 30
0.0
 11
9055.693447415134
 21
1335.713291378425
 31
0.0
  0
LINE
  5
1F3B9
330
747D
100
AcDbEntity
  8
細線
 48
50.0
100
AcDbLine
 10
9146.265027826263
 20
1365.713291378426
 30
0.0
 11
9154.303503599193
 21
1335.713291378425
 31
0.0
  0
LINE
  5
1F3BA
330
747D
100
AcDbEntity
  8
細線
 48
50.0
100
AcDbLine
 10
7578.716405102177
 20
900.3369359451117
 30
0.0
 11
7570.677929329246
 21
930.3369359451117
 31
0.0
  0
LINE
  5
1F3BB
330
747D
100
AcDbEntity
  8
部品1
 48
50.0
100
AcDbLine
 10
7633.244123611762
 20
930.3369359451126
 30
0.0
 11
7633.244123611762
 21
770.3369359451126
 31
0.0
  0
LINE
  5
1F3BC
330
747D
100
AcDbEntity
  8
細線
 48
50.0
100
AcDbLine
 10
9039.616495869262
 20
1335.713291378425
 30
0.0
 11
9082.488366658242
 21
1495.713291378426
 31
0.0
  0
LINE
  5
1F3BD
330
747D
100
AcDbEntity
  8
部品1
100
AcDbLine
 10
9017.858058867373
 20
1335.713291378421
 30
0.0
 11
9017.858058867373
 21
1610.336935945113
 31
0.0
  0
TEXT
  5
1F3BE
330
747D
100
AcDbEntity
  8
部品1
 48
50.0
100
AcDbText
 10
8542.516430542075
 20
1276.837260148477
 30
0.0
 40
100.0
  1
ボルトの出
 50
90.0
  7
STYLE2
100
AcDbText
  0
LINE
  5
1F3BF
330
747D
100
AcDbEntity
  8
細線
 48
50.0
100
AcDbLine
 10
9138.226552053323
 20
1335.713291378423
 30
0.0
 11
9181.098422842303
 21
1495.713291378423
 31
0.0
  0
LINE
  5
1F3C0
330
747D
100
AcDbEntity
  8
部品1
 48
50.0
100
AcDbLine
 10
7152.494123611757
 20
2348.931037331542
 30
0.0
 11
7172.494123611757
 21
2358.931037331542
 31
0.0
  0
LINE
  5
1F3C1
330
747D
100
AcDbEntity
  8
部品1
 48
50.0
100
AcDbLine
 10
7152.494123611757
 20
2388.931037331542
 30
0.0
 11
7172.494123611757
 21
2398.931037331543
 31
0.0
  0
LINE
  5
1F3C2
330
747D
100
AcDbEntity
  8
細線
 48
50.0
100
AcDbLine
 10
7152.494123611757
 20
2348.931037331542
 30
0.0
 11
7152.494123611757
 21
2388.931037331542
 31
0.0
  0
LINE
  5
1F3C3
330
747D
100
AcDbEntity
  8
部品1
 48
50.0
100
AcDbLine
 10
7172.494123611757
 20
2358.931037331542
 30
0.0
 11
7172.494123611757
 21
2398.931037331543
 31
0.0
  0
LINE
  5
1F3C4
330
747D
100
AcDbEntity
  8
部品1
 48
50.0
100
AcDbLine
 10
7152.494123611757
 20
2408.931037331542
 30
0.0
 11
7172.494123611757
 21
2398.931037331543
 31
0.0
  0
LINE
  5
1F3C5
330
747D
100
AcDbEntity
  8
部品1
 48
50.0
100
AcDbLine
 10
7182.494123611758
 20
2234.741046500454
 30
0.0
 11
7182.494123611758
 21
2246.741046500454
 31
0.0
  0
LINE
  5
1F3C6
330
747D
100
AcDbEntity
  8
細線
 48
50.0
100
AcDbLine
 10
7112.494123611758
 20
2348.931037331542
 30
0.0
 11
7112.494123611758
 21
2388.931037331542
 31
0.0
  0
LINE
  5
1F3C7
330
747D
100
AcDbEntity
  8
部品1
 48
50.0
100
AcDbLine
 10
7092.494123611757
 20
2358.931037331542
 30
0.0
 11
7092.494123611757
 21
2398.931037331543
 31
0.0
  0
LINE
  5
1F3C8
330
747D
100
AcDbEntity
  8
部品1
 48
50.0
100
AcDbLine
 10
7092.494123611757
 20
2398.931037331543
 30
0.0
 11
7112.494123611758
 21
2388.931037331542
 31
0.0
  0
LINE
  5
1F3C9
330
747D
100
AcDbEntity
  8
部品1
 48
50.0
100
AcDbLine
 10
7092.494123611757
 20
2358.931037331542
 30
0.0
 11
7112.494123611758
 21
2348.931037331542
 31
0.0
  0
LINE
  5
1F3CA
330
747D
100
AcDbEntity
  8
部品1
 48
50.0
100
AcDbLine
 10
7092.494123611757
 20
2398.931037331543
 30
0.0
 11
7112.494123611758
 21
2408.931037331542
 31
0.0
  0
LINE
  5
1F3CB
330
747D
100
AcDbEntity
  8
部品1
100
AcDbLine
 10
6990.744123611758
 20
1982.336935945114
 30
0.0
 11
7040.244123611758
 21
1982.336935945114
 31
0.0
  0
ARC
  5
1F3CC
330
747D
100
AcDbEntity
  8
部品1
100
AcDbCircle
 10
6987.369123611758
 20
2046.46193594511
 30
0.0
 40
3.375
100
AcDbArc
 50
0.0
 51
90.0
  0
LINE
  5
1F3CD
330
747D
100
AcDbEntity
  8
部品1
100
AcDbLine
 10
6990.744123611758
 20
2046.46193594511
 30
0.0
 11
6990.744123611758
 21
1982.336935945114
 31
0.0
  0
LINE
  5
1F3CE
330
747D
100
AcDbEntity
  8
部品1
 48
50.0
100
AcDbLine
 10
7082.494123611758
 20
2246.741046500454
 30
0.0
 11
7082.494123611758
 21
2234.741046500454
 31
0.0
  0
LINE
  5
1F3CF
330
747D
100
AcDbEntity
  8
部品1
100
AcDbLine
 10
7019.994123611758
 20
1997.286935945114
 30
0.0
 11
7055.19412361176
 21
1997.286935945114
 31
0.0
  0
ARC
  5
1F3D0
330
747D
100
AcDbEntity
  8
部品1
100
AcDbCircle
 10
7019.994123611758
 20
1993.911935945115
 30
0.0
 40
3.375
100
AcDbArc
 50
90.0
 51
180.0
  0
ARC
  5
1F3D1
330
747D
100
AcDbEntity
  8
部品1
100
AcDbCircle
 10
7055.19412361176
 20
1993.911935945115
 30
0.0
 40
3.375
100
AcDbArc
 50
0.0
 51
90.0
  0
LINE
  5
1F3D2
330
747D
100
AcDbEntity
  8
部品1
100
AcDbLine
 10
7121.244123611757
 20
1971.786935945114
 30
0.0
 11
7143.744123611758
 21
1971.786935945114
 31
0.0
  0
LINE
  5
1F3D3
330
747D
100
AcDbEntity
  8
部品1
100
AcDbLine
 10
7125.744123611757
 20
1976.286935945114
 30
0.0
 11
7139.244123611757
 21
1976.286935945114
 31
0.0
  0
ARC
  5
1F3D4
330
747D
100
AcDbEntity
  8
部品1
100
AcDbCircle
 10
7040.244123611758
 20
1978.961935945114
 30
0.0
 40
3.375
100
AcDbArc
 50
0.0
 51
90.0
  0
LINE
  5
1F3D5
330
747D
100
AcDbEntity
  8
部品1
100
AcDbLine
 10
7016.619123611757
 20
1993.911935945115
 30
0.0
 11
7016.619123611757
 21
1972.536935945114
 31
0.0
  0
ARC
  5
1F3D6
330
747D
100
AcDbEntity
  8
部品1
100
AcDbCircle
 10
6934.494123611758
 20
2046.461935945114
 30
0.0
 40
3.375
100
AcDbArc
 50
90.0
 51
180.0
  0
LINE
  5
1F3D7
330
747D
100
AcDbEntity
  8
部品1
100
AcDbLine
 10
6931.119123611757
 20
2036.336935945114
 30
0.0
 11
6931.119123611757
 21
2036.336935945114
 31
0.0
  0
LINE
  5
1F3D8
330
747D
100
AcDbEntity
  8
部品1
100
AcDbLine
 10
6931.119123611757
 20
2036.336935945114
 30
0.0
 11
6931.119123611757
 21
2046.461935945114
 31
0.0
  0
LINE
  5
1F3D9
330
747D
100
AcDbEntity
  8
部品1
100
AcDbLine
 10
6927.744123611758
 20
2022.836935945114
 30
0.0
 11
6927.744123611758
 21
2032.961935945114
 31
0.0
  0
ARC
  5
1F3DA
330
747D
100
AcDbEntity
  8
部品1
100
AcDbCircle
 10
6931.119123611757
 20
2032.961935945114
 30
0.0
 40
3.375
100
AcDbArc
 50
90.0
 51
180.0
  0
LINE
  5
1F3DB
330
747D
100
AcDbEntity
  8
部品1
100
AcDbLine
 10
6877.119123611757
 20
2009.336935945114
 30
0.0
 11
6877.119123611757
 21
2019.461935945114
 31
0.0
  0
ARC
  5
1F3DC
330
747D
100
AcDbEntity
  8
部品1
100
AcDbCircle
 10
6880.494123611757
 20
2019.461935945114
 30
0.0
 40
3.375
100
AcDbArc
 50
90.0
 51
180.0
  0
ARC
  5
1F3DD
330
747D
100
AcDbEntity
  8
部品1
100
AcDbCircle
 10
6866.994123611758
 20
2003.326815573499
 30
0.0
 40
3.375
100
AcDbArc
 50
104.0362434679067
 51
180.0
  0
LINE
  5
1F3DE
330
747D
100
AcDbEntity
  8
部品1
100
AcDbLine
 10
6866.175565877258
 20
2006.601046511489
 30
0.0
 11
6877.119123611757
 21
2009.336935945114
 31
0.0
  0
LINE
  5
1F3DF
330
747D
100
AcDbEntity
  8
部品1
100
AcDbLine
 10
6880.494123611757
 20
2022.836935945114
 30
0.0
 11
6927.744123611758
 21
2022.836935945114
 31
0.0
  0
LINE
  5
1F3E0
330
747D
100
AcDbEntity
  8
部品1
100
AcDbLine
 10
6934.494123611758
 20
2049.836935945113
 30
0.0
 11
6987.369123611758
 21
2049.83693594511
 31
0.0
  0
ELLIPSE
  5
1F3E1
330
747D
100
AcDbEntity
  8
部品1
 48
50.0
100
AcDbEllipse
 10
7132.494123611758
 20
2246.741046500454
 30
0.0
 11
23.0
 21
0.0
 31
0.0
210
0.0
220
0.0
230
1.0
 40
0.3478260869565217
 41
0.0
 42
6.283185307179585
  0
ELLIPSE
  5
1F3E2
330
747D
100
AcDbEntity
  8
部品1
 48
50.0
100
AcDbEllipse
 10
7132.494123611758
 20
2246.741046500454
 30
0.0
 11
50.0
 21
0.0
 31
0.0
210
0.0
220
0.0
230
1.0
 40
0.4
 41
0.0
 42
6.283185307179585
  0
ELLIPSE
  5
1F3E3
330
747D
100
AcDbEntity
  8
部品1
 48
50.0
100
AcDbEllipse
 10
7132.494123611758
 20
2234.741046500454
 30
0.0
 11
50.0
 21
0.0
 31
0.0
210
0.0
220
0.0
230
1.0
 40
0.4
 41
3.141592653589792
 42
6.283185307179585
  0
LINE
  5
1F3E4
330
747D
100
AcDbEntity
  8
部品1
 48
50.0
100
AcDbLine
 10
7112.494123611758
 20
2408.931037331542
 30
0.0
 11
7152.494123611757
 21
2408.931037331542
 31
0.0
  0
ELLIPSE
  5
1F3E5
330
747D
100
AcDbEntity
  8
細線
 48
50.0
100
AcDbEllipse
 10
7132.494123611758
 20
2398.931037331543
 30
0.0
 11
18.45838483258558
 21
0.0
 31
0.0
210
0.0
220
0.0
230
1.0
 40
0.2071254069489396
 41
0.0
 42
6.283185307179585
  0
LINE
  5
1F3E6
330
747D
100
AcDbEntity
  8
部品1
 48
50.0
100
AcDbLine
 10
7112.494123611758
 20
2348.931037331542
 30
0.0
 11
7152.494123611757
 21
2348.931037331542
 31
0.0
  0
LINE
  5
1F3E7
330
747D
100
AcDbEntity
  8
部品1
 48
50.0
100
AcDbLine
 10
7112.494123611758
 20
2388.931037331542
 30
0.0
 11
7152.494123611757
 21
2388.931037331542
 31
0.0
  0
LINE
  5
1F3E8
330
747D
100
AcDbEntity
  8
細線
 48
50.0
100
AcDbLine
 10
7211.244123611759
 20
1711.747289055849
 30
0.0
 11
7373.244123611758
 21
1873.747289055848
 31
0.0
  0
LINE
  5
1F3E9
330
747D
100
AcDbEntity
  8
細線
 48
50.0
100
AcDbLine
 10
7211.244123611759
 20
1678.071328601828
 30
0.0
 11
7373.244123611758
 21
1840.071328601824
 31
0.0
  0
LINE
  5
1F3EA
330
747D
100
AcDbEntity
  8
部品1
100
AcDbLine
 10
7188.744123611758
 20
1606.586935945113
 30
0.0
 11
7188.744123611758
 21
1629.086935945113
 31
0.0
  0
LINE
  5
1F3EB
330
747D
100
AcDbEntity
  8
部品1
100
AcDbLine
 10
7211.244123611757
 20
1505.336935945113
 30
0.0
 11
7211.244123611757
 21
1910.336935945114
 31
0.0
  0
LINE
  5
1F3EC
330
747D
100
AcDbEntity
  8
細線
 48
50.0
100
AcDbLine
 10
7211.244123611759
 20
1644.395368147811
 30
0.0
 11
7373.244123611758
 21
1806.395368147801
 31
0.0
  0
LINE
  5
1F3ED
330
747D
100
AcDbEntity
  8
部品1
100
AcDbLine
 10
7025.619123611757
 20
1922.286935945114
 30
0.0
 11
7040.244123611758
 21
1922.286935945114
 31
0.0
  0
ARC
  5
1F3EE
330
747D
100
AcDbEntity
  8
部品1
100
AcDbCircle
 10
7061.944123611751
 20
1925.661935945114
 30
0.0
 40
3.375
100
AcDbArc
 50
180.0
 51
270.0
  0
ARC
  5
1F3EF
330
747D
100
AcDbEntity
  8
部品1
100
AcDbCircle
 10
7040.244123611758
 20
1925.661935945114
 30
0.0
 40
3.375
100
AcDbArc
 50
270.0
 51
0.0
  0
ARC
  5
1F3F0
330
747D
100
AcDbEntity
  8
部品1
100
AcDbCircle
 10
6866.994123611758
 20
1925.661935945114
 30
0.0
 40
3.375
100
AcDbArc
 50
180.0
 51
270.0
  0
LINE
  5
1F3F1
330
747D
100
AcDbEntity
  8
細線
 48
50.0
100
AcDbLine
 10
6855.744123611758
 20
1895.062656319995
 30
0.0
 11
6871.018403236876
 21
1910.336935945114
 31
0.0
  0
LINE
  5
1F3F2
330
747D
100
AcDbEntity
  8
部品1
100
AcDbLine
 10
6866.994123611758
 20
1922.286935945114
 30
0.0
 11
6881.61912361175
 21
1922.286935945114
 31
0.0
  0
LINE
  5
1F3F3
330
747D
100
AcDbEntity
  8
細線
 48
50.0
100
AcDbLine
 10
6855.744123611758
 20
1861.386695865986
 30
0.0
 11
6904.694363690889
 21
1910.336935945114
 31
0.0
  0
LINE
  5
1F3F4
330
747D
100
AcDbEntity
  8
細線
 48
50.0
100
AcDbLine
 10
6855.744123611758
 20
1827.710735411976
 30
0.0
 11
6938.370324144895
 21
1910.336935945114
 31
0.0
  0
ARC
  5
1F3F5
330
747D
100
AcDbEntity
  8
部品1
100
AcDbCircle
 10
7143.744123611758
 20
1629.086935945113
 30
0.0
 40
22.5
100
AcDbArc
 50
180.0
 51
270.0
  0
LINE
  5
1F3F6
330
747D
100
AcDbEntity
  8
細線
 48
50.0
100
AcDbLine
 10
6855.744123611758
 20
1558.303051779902
 30
0.0
 11
7053.744123611754
 21
1756.303051779892
 31
0.0
  0
LINE
  5
1F3F7
330
747D
100
AcDbEntity
  8
部品1
100
AcDbLine
 10
7053.74412361175
 20
1505.336935945113
 30
0.0
 11
7053.744123611757
 21
1910.336935945114
 31
0.0
  0
LINE
  5
1F3F8
330
747D
100
AcDbEntity
  8
細線
 48
50.0
100
AcDbLine
 10
6855.744123611758
 20
1625.654972687919
 30
0.0
 11
7053.744123611756
 21
1823.654972687917
 31
0.0
  0
LINE
  5
1F3F9
330
747D
100
AcDbEntity
  8
細線
 48
50.0
100
AcDbLine
 10
6855.744123611758
 20
1591.979012233911
 30
0.0
 11
7053.744123611756
 21
1789.979012233908
 31
0.0
  0
LINE
  5
1F3FA
330
747D
100
AcDbEntity
  8
部品1
100
AcDbLine
 10
7211.244123611757
 20
1505.336935945112
 30
0.0
 11
7053.74412361175
 21
1505.336935945112
 31
0.0
  0
LINE
  5
1F3FB
330
747D
100
AcDbEntity
  8
部品1
 48
50.0
100
AcDbLine
 10
6855.744123611758
 20
1910.336935945114
 30
0.0
 11
7373.244123611761
 21
1910.336935945114
 31
0.0
  0
LINE
  5
1F3FC
330
747D
100
AcDbEntity
  8
部品1
100
AcDbLine
 10
7061.944123611751
 20
1922.286935945114
 30
0.0
 11
7313.61912361175
 21
1922.286935945114
 31
0.0
  0
LINE
  5
1F3FD
330
747D
100
AcDbEntity
  8
部品1
100
AcDbLine
 10
7143.744123611758
 20
1606.586935945113
 30
0.0
 11
7188.744123611758
 21
1606.586935945113
 31
0.0
  0
LINE
  5
1F3FE
330
747D
100
AcDbEntity
  8
部品1
100
AcDbLine
 10
7143.744123611758
 20
1629.086935945113
 30
0.0
 11
7188.744123611758
 21
1629.086935945113
 31
0.0
  0
LINE
  5
1F3FF
330
747D
100
AcDbEntity
  8
部品1
100
AcDbLine
 10
6863.619123611758
 20
1925.661935945114
 30
0.0
 11
6863.619123611758
 21
2003.326815573499
 31
0.0
  0
LINE
  5
1F400
330
747D
100
AcDbEntity
  8
細線
100
AcDbLine
 10
7139.244123611757
 20
1922.286935945114
 30
0.0
 11
7139.244123611757
 21
1976.286935945114
 31
0.0
  0
LINE
  5
1F401
330
747D
100
AcDbEntity
  8
細線
100
AcDbLine
 10
7125.744123611761
 20
1922.286935945114
 30
0.0
 11
7125.744123611757
 21
1976.286935945114
 31
0.0
  0
LINE
  5
1F402
330
747D
100
AcDbEntity
  8
部品1
100
AcDbLine
 10
7043.619123611758
 20
1978.961935945114
 30
0.0
 11
7043.619123611758
 21
1925.661935945114
 31
0.0
  0
LINE
  5
1F403
330
747D
100
AcDbEntity
  8
部品1
100
AcDbLine
 10
7058.56912361176
 20
1993.911935945115
 30
0.0
 11
7058.569123611753
 21
1925.661935945114
 31
0.0
  0
LINE
  5
1F404
330
747D
100
AcDbEntity
  8
部品1
100
AcDbLine
 10
7143.744123611758
 20
1629.086935945113
 30
0.0
 11
7143.744123611753
 21
1971.786935945114
 31
0.0
  0
LINE
  5
1F405
330
747D
100
AcDbEntity
  8
部品1
100
AcDbLine
 10
7121.244123611757
 20
1629.086935945113
 30
0.0
 11
7121.244123611754
 21
1971.786935945114
 31
0.0
  0
TEXT
  5
1F406
330
747D
100
AcDbEntity
  8
部品1
 48
50.0
100
AcDbText
 10
6338.069246320561
 20
1624.385676299183
 30
0.0
 40
100.0
  1
▽G.L
  7
STYLE2
100
AcDbText
  0
LWPOLYLINE
  5
1F407
330
747D
100
AcDbEntity
  8
部品1
 48
50.0
100
AcDbPolyline
 90
        2
 70
     0
 43
10.0
 10
6338.069246320563
 20
1610.336935945115
 10
6855.744123611758
 20
1610.336935945115
  0
LINE
  5
1F408
330
747D
100
AcDbEntity
  8
部品1
 48
50.0
100
AcDbLine
 10
7373.244123611758
 20
1230.336935945113
 30
0.0
 11
7533.244123611757
 21
1230.336935945113
 31
0.0
  0
LINE
  5
1F409
330
747D
100
AcDbEntity
  8
細線
 48
50.0
100
AcDbLine
 10
7381.496292734046
 20
900.3369359451134
 30
0.0
 11
7373.457816961114
 21
930.3369359451126
 31
0.0
  0
LINE
  5
1F40A
330
747D
100
AcDbEntity
  8
細線
 48
50.0
100
AcDbLine
 10
7480.106348918117
 20
900.3369359451117
 30
0.0
 11
7472.067873145187
 21
930.3369359451117
 31
0.0
  0
LINE
  5
1F40B
330
747D
100
AcDbEntity
  8
細線
 48
50.0
100
AcDbLine
 10
7184.276180365943
 20
900.3369359451134
 30
0.0
 11
7176.237704593012
 21
930.3369359451126
 31
0.0
  0
LINE
  5
1F40C
330
747D
100
AcDbEntity
  8
細線
 48
50.0
100
AcDbLine
 10
7282.886236550002
 20
900.3369359451134
 30
0.0
 11
7274.847760777068
 21
930.3369359451126
 31
0.0
  0
LINE
  5
1F40D
330
747D
100
AcDbEntity
  8
細線
 48
50.0
100
AcDbLine
 10
7238.05682139725
 20
930.3369359451126
 30
0.0
 11
7533.244123611757
 21
1225.524238159622
 31
0.0
  0
LINE
  5
1F40E
330
747D
100
AcDbEntity
  8
細線
 48
50.0
100
AcDbLine
 10
7271.732781851262
 20
930.3369359451126
 30
0.0
 11
7533.244123611757
 21
1191.848277705606
 31
0.0
  0
LINE
  5
1F40F
330
747D
100
AcDbEntity
  8
細線
 48
50.0
100
AcDbLine
 10
7305.408742305267
 20
930.3369359451126
 30
0.0
 11
7533.244123611757
 21
1158.172317251608
 31
0.0
  0
LINE
  5
1F410
330
747D
100
AcDbEntity
  8
部品1
 48
50.0
100
AcDbLine
 10
7533.244123611757
 20
1230.336935945113
 30
0.0
 11
7533.244123611757
 21
930.3369359451126
 31
0.0
  0
LINE
  5
1F411
330
747D
100
AcDbEntity
  8
細線
 48
50.0
100
AcDbLine
 10
6987.056067997828
 20
900.3369359451134
 30
0.0
 11
6979.017592224896
 21
930.3369359451126
 31
0.0
  0
LINE
  5
1F412
330
747D
100
AcDbEntity
  8
細線
 48
50.0
100
AcDbLine
 10
7085.666124181885
 20
900.3369359451134
 30
0.0
 11
7077.627648408952
 21
930.3369359451126
 31
0.0
  0
LINE
  5
1F413
330
747D
100
AcDbEntity
  8
細線
 48
50.0
100
AcDbLine
 10
6789.835955629698
 20
900.3369359451134
 30
0.0
 11
6781.797479856765
 21
930.3369359451126
 31
0.0
  0
LINE
  5
1F414
330
747D
100
AcDbEntity
  8
細線
 48
50.0
100
AcDbLine
 10
6888.446011813764
 20
900.3369359451134
 30
0.0
 11
6880.407536040831
 21
930.3369359451126
 31
0.0
  0
LINE
  5
1F415
330
747D
100
AcDbEntity
  8
細線
 48
50.0
100
AcDbLine
 10
6968.649137765175
 20
930.3369359451126
 30
0.0
 11
7373.244123611755
 21
1334.931921791696
 31
0.0
  0
LINE
  5
1F416
330
747D
100
AcDbEntity
  8
細線
 48
50.0
100
AcDbLine
 10
7002.325098219185
 20
930.3369359451126
 30
0.0
 11
7373.244123611758
 21
1301.255961337679
 31
0.0
  0
LINE
  5
1F417
330
747D
100
AcDbEntity
  8
細線
 48
50.0
100
AcDbLine
 10
7036.001058673193
 20
930.3369359451126
 30
0.0
 11
7373.244123611758
 21
1267.580000883685
 31
0.0
  0
LINE
  5
1F418
330
747D
100
AcDbEntity
  8
細線
 48
50.0
100
AcDbLine
 10
7354.701373490946
 20
800.3369359451125
 30
0.0
 11
7362.739849263895
 21
770.3369359451126
 31
0.0
  0
LINE
  5
1F419
330
747D
100
AcDbEntity
  8
細線
 48
50.0
100
AcDbLine
 10
7453.311429675008
 20
800.3369359451117
 30
0.0
 11
7461.349905447942
 21
770.3369359451117
 31
0.0
  0
LINE
  5
1F41A
330
747D
100
AcDbEntity
  8
細線
 48
50.0
100
AcDbLine
 10
7157.481261122829
 20
800.3369359451125
 30
0.0
 11
7165.519736895766
 21
770.3369359451126
 31
0.0
  0
LINE
  5
1F41B
330
747D
100
AcDbEntity
  8
細線
 48
50.0
100
AcDbLine
 10
7256.091317306889
 20
800.3369359451125
 30
0.0
 11
7264.129793079823
 21
770.3369359451126
 31
0.0
  0
LINE
  5
1F41C
330
747D
100
AcDbEntity
  8
細線
 48
50.0
100
AcDbLine
 10
6960.261148754717
 20
800.3369359451125
 30
0.0
 11
6968.29962452765
 21
770.3369359451126
 31
0.0
  0
LINE
  5
1F41D
330
747D
100
AcDbEntity
  8
細線
 48
50.0
100
AcDbLine
 10
7058.871204938774
 20
800.3369359451125
 30
0.0
 11
7066.909680711707
 21
770.3369359451126
 31
0.0
  0
LINE
  5
1F41E
330
747D
100
AcDbEntity
  8
細線
 48
50.0
100
AcDbLine
 10
6763.041036386586
 20
800.3369359451125
 30
0.0
 11
6771.07951215952
 21
770.3369359451126
 31
0.0
  0
LINE
  5
1F41F
330
747D
100
AcDbEntity
  8
細線
 48
50.0
100
AcDbLine
 10
6861.651092570652
 20
800.3369359451125
 30
0.0
 11
6869.689568343587
 21
770.3369359451126
 31
0.0
  0
LINE
  5
1F420
330
747D
100
AcDbEntity
  8
細線
 48
50.0
100
AcDbLine
 10
7346.662897718009
 20
770.3369359451117
 30
0.0
 11
7389.534768506978
 21
930.3369359451126
 31
0.0
  0
LINE
  5
1F421
330
747D
100
AcDbEntity
  8
細線
 48
50.0
100
AcDbLine
 10
7445.272953902071
 20
770.3369359451098
 30
0.0
 11
7488.144824691049
 21
930.3369359451098
 31
0.0
  0
LINE
  5
1F422
330
747D
100
AcDbEntity
  8
細線
 48
50.0
100
AcDbLine
 10
7149.442785349894
 20
770.3369359451117
 30
0.0
 11
7192.314656138875
 21
930.3369359451117
 31
0.0
  0
LINE
  5
1F423
330
747D
100
AcDbEntity
  8
細線
 48
50.0
100
AcDbLine
 10
6952.222672981775
 20
770.3369359451126
 30
0.0
 11
6995.094543770754
 21
930.3369359451126
 31
0.0
  0
LINE
  5
1F424
330
747D
100
AcDbEntity
  8
細線
 48
50.0
100
AcDbLine
 10
7050.832729165833
 20
770.3369359451126
 30
0.0
 11
7093.704599954816
 21
930.3369359451117
 31
0.0
  0
LINE
  5
1F425
330
747D
100
AcDbEntity
  8
細線
 48
50.0
100
AcDbLine
 10
7248.052841533946
 20
770.3369359451126
 30
0.0
 11
7290.92471232293
 21
930.3369359451117
 31
0.0
  0
LINE
  5
1F426
330
747D
100
AcDbEntity
  8
細線
 48
50.0
100
AcDbLine
 10
6755.002560613653
 20
770.3369359451126
 30
0.0
 11
6797.874431402632
 21
930.3369359451126
 31
0.0
  0
LINE
  5
1F427
330
747D
100
AcDbEntity
  8
細線
 48
50.0
100
AcDbLine
 10
6853.612616797708
 20
770.3369359451117
 30
0.0
 11
6896.484487586689
 21
930.3369359451117
 31
0.0
  0
LINE
  5
1F428
330
747D
100
AcDbEntity
  8
細線
 48
50.0
100
AcDbLine
 10
6695.74412361175
 20
1196.247289055845
 30
0.0
 11
6729.833770501025
 21
1230.336935945113
 31
0.0
  0
LINE
  5
1F429
330
747D
100
AcDbEntity
  8
細線
 48
50.0
100
AcDbLine
 10
6595.744123611757
 20
912.0118371523377
 30
0.0
 11
6600.654319034501
 21
930.3369359451126
 31
0.0
  0
LINE
  5
1F42A
330
747D
100
AcDbEntity
  8
細線
 48
50.0
100
AcDbLine
 10
6691.225899445633
 20
900.3369359451134
 30
0.0
 11
6683.1874236727
 21
930.3369359451126
 31
0.0
  0
LINE
  5
1F42B
330
747D
100
AcDbEntity
  8
部品1
 48
50.0
100
AcDbLine
 10
6695.744123611757
 20
930.3369359451126
 30
0.0
 11
6695.744123611757
 21
1230.336935945113
 31
0.0
  0
LINE
  5
1F42C
330
747D
100
AcDbEntity
  8
細線
 48
50.0
100
AcDbLine
 10
6664.430980202522
 20
800.3369359451125
 30
0.0
 11
6672.469455975456
 21
770.3369359451126
 31
0.0
  0
LINE
  5
1F42D
330
747D
100
AcDbEntity
  8
部品1
 48
50.0
100
AcDbLine
 10
6595.744123611762
 20
770.3369359451126
 30
0.0
 11
6595.744123611762
 21
930.3369359451126
 31
0.0
  0
LINE
  5
1F42E
330
747D
100
AcDbEntity
  8
細線
 48
50.0
100
AcDbLine
 10
6656.392504429581
 20
770.3369359451117
 30
0.0
 11
6699.26437521856
 21
930.3369359451117
 31
0.0
  0
LINE
  5
1F42F
330
747D
100
AcDbEntity
  8
細線
 48
50.0
100
AcDbLine
 10
6695.74412361175
 20
1162.571328601832
 30
0.0
 11
6763.509730955039
 21
1230.336935945113
 31
0.0
  0
LINE
  5
1F430
330
747D
100
AcDbEntity
  8
細線
 48
50.0
100
AcDbLine
 10
6695.74412361175
 20
1128.895368147827
 30
0.0
 11
6797.185691409044
 21
1230.336935945113
 31
0.0
  0
LINE
  5
1F431
330
747D
100
AcDbEntity
  8
部品1
 48
50.0
100
AcDbLine
 10
6695.744123611757
 20
1230.336935945113
 30
0.0
 11
6855.744123611758
 21
1230.336935945113
 31
0.0
  0
LINE
  5
1F432
330
747D
100
AcDbEntity
  8
細線
 48
50.0
100
AcDbLine
 10
6699.2414541331
 20
930.3369359451126
 30
0.0
 11
7373.244123611755
 21
1604.33960542377
 31
0.0
  0
LINE
  5
1F433
330
747D
100
AcDbEntity
  8
部品1
100
AcDbLine
 10
7373.244123611755
 20
1230.336935945113
 30
0.0
 11
7373.244123611758
 21
1910.336935945114
 31
0.0
  0
LINE
  5
1F434
330
747D
100
AcDbEntity
  8
部品1
 48
50.0
100
AcDbLine
 10
6855.744123611758
 20
1230.336935945113
 30
0.0
 11
6855.744123611758
 21
1910.336935945114
 31
0.0
  0
LINE
  5
1F435
330
747D
100
AcDbEntity
  8
細線
 48
50.0
100
AcDbLine
 10
6855.744123611758
 20
1322.571328601836
 30
0.0
 11
7053.744123611749
 21
1520.571328601822
 31
0.0
  0
LINE
  5
1F436
330
747D
100
AcDbEntity
  8
細線
 48
50.0
100
AcDbLine
 10
6855.744123611758
 20
1288.895368147827
 30
0.0
 11
7072.185691409051
 21
1505.336935945112
 31
0.0
  0
LINE
  5
1F437
330
747D
100
AcDbEntity
  8
細線
 48
50.0
100
AcDbLine
 10
6855.744123611758
 20
1356.247289055845
 30
0.0
 11
7053.744123611749
 21
1554.247289055839
 31
0.0
  0
LINE
  5
1F438
330
747D
100
AcDbEntity
  8
細線
 48
50.0
100
AcDbLine
 10
6766.593375041118
 20
930.3369359451126
 30
0.0
 11
7373.244123611758
 21
1536.987684515749
 31
0.0
  0
LINE
  5
1F439
330
747D
100
AcDbEntity
  8
細線
 48
50.0
100
AcDbLine
 10
6732.91741458711
 20
930.3369359451126
 30
0.0
 11
7373.244123611761
 21
1570.663644969757
 31
0.0
  0
TEXT
  5
1F43A
330
747D
100
AcDbEntity
  8
部品1
 48
50.0
100
AcDbText
 10
7378.686103967293
 20
2355.185286897864
 30
0.0
 40
100.0
  1
基礎ボルト(市販品)
  7
STYLE2
100
AcDbText
  0
DIMENSION
  5
1F43B
330
747D
100
AcDbEntity
  8
寸法
 48
50.0
100
AcDbDimension
  2
*D30
 10
8345.648205971597
 20
1910.336935945113
 30
0.0
 11
8345.648205971597
 21
1444.328032523632
 31
0.0
 70
   160
  1
20～25
 71
     5
 42
65.94999999999981
  3
INABA_S40G
100
AcDbAlignedDimension
 13
7139.244123611757
 23
1976.286935945114
 33
0.0
 14
7373.244123611758
 24
1910.336935945114
 34
0.0
 50
90.0
100
AcDbRotatedDimension
1001
ACAD
1000
DSTYLE
1002
{
1070
   341
1005
0
1002
}
  0
LINE
  5
1F43C
330
747D
100
AcDbEntity
  8
細線
 48
50.0
100
AcDbLine
 10
7543.883010086125
 20
770.3369359451117
 30
0.0
 11
7586.754880875107
 21
930.3369359451098
 31
0.0
  0
LINE
  5
1F43D
330
747D
100
AcDbEntity
  8
部品1
 48
50.0
100
AcDbLine
 10
7633.244123611762
 20
770.3369359451126
 30
0.0
 11
6595.744123611762
 21
770.3369359451126
 31
0.0
  0
LINE
  5
1F43E
330
747D
100
AcDbEntity
  8
細線
 48
50.0
100
AcDbLine
 10
7551.921485859065
 20
800.3369359451117
 30
0.0
 11
7559.959961631999
 21
770.3369359451117
 31
0.0
  0
LINE
  5
1F43F
330
747D
100
AcDbEntity
  8
部品1
 48
50.0
100
AcDbLine
 10
7633.244123611762
 20
930.3369359451126
 30
0.0
 11
6595.744123611762
 21
930.3369359451126
 31
0.0
  0
LWPOLYLINE
  5
1F440
330
747D
100
AcDbEntity
  8
部品1
 48
50.0
100
AcDbPolyline
 90
        2
 70
     0
 43
10.0
 10
7373.244123611758
 20
1610.336935945115
 10
7740.372202860988
 20
1610.336935945115
  0
DIMENSION
  5
1F441
330
747D
100
AcDbEntity
  8
寸法
 48
50.0
100
AcDbDimension
  2
*D31
 10
8000.579873322813
 20
1505.336935945111
 30
0.0
 11
7900.579873322813
 21
1707.836935945114
 31
0.0
 70
    32
  1
180
 71
     5
 42
405.0000000000022
  3
INABA_S40G
100
AcDbAlignedDimension
 13
7373.244123611758
 23
1910.336935945114
 33
0.0
 14
7373.244123611758
 24
1505.336935945112
 34
0.0
 50
90.0
100
AcDbRotatedDimension
1001
ACAD
1000
DSTYLE
1002
{
1070
   341
1005
0
1002
}
  0
MTEXT
  5
1F442
102
{ACAD_REACTORS
330
1F443
102
}
330
747D
100
AcDbEntity
  8
部品1
 62
     7
 48
50.0
100
AcDbMText
 10
7384.424701635906
 20
2240.816093636652
 30
0.0
 40
100.0
 41
1.0
 71
     4
 72
     1
  1
M10X160
  7
STYLE2
 73
     1
 44
1.0
1001
ACAD
1000
MTEXTBEGIN
1070
    73
1070
     1
1070
    44
1040
1.0
1070
    74
1070
     0
1000
MTEXTEND
  0
LEADER
  5
1F443
330
747D
100
AcDbEntity
  8
寸法
 48
50.0
100
AcDbLeader
  3
INABA_S40G
 73
     0
 74
     0
 75
     1
 40
100.0
 41
543.75
 76
     3
 10
7143.744123611758
 20
1971.786935945114
 30
0.0
 10
7244.424701635906
 20
2150.816093636652
 30
0.0
 10
7344.424701635905
 20
2150.816093636652
 30
0.0
340
1F442
1001
ACAD
1000
DSTYLE
1002
{
1070
   341
1005
0
1002
}
  0
LINE
  5
1F444
330
747D
100
AcDbEntity
  8
細線
 48
50.0
100
AcDbLine
 10
4730.694982140265
 20
1861.386695865986
 30
0.0
 11
4779.645222219397
 21
1910.336935945114
 31
0.0
  0
LINE
  5
1F445
330
747D
100
AcDbEntity
  8
細線
 48
50.0
100
AcDbLine
 10
4730.694982140265
 20
1827.710735411976
 30
0.0
 11
4813.321182673402
 21
1910.336935945114
 31
0.0
  0
LINE
  5
1F446
330
747D
100
AcDbEntity
  8
細線
 48
50.0
100
AcDbLine
 10
4730.694982140265
 20
1895.062656319995
 30
0.0
 11
4745.969261765384
 21
1910.336935945114
 31
0.0
  0
ARC
  5
1F447
330
747D
100
AcDbEntity
  8
部品1
 48
50.0
100
AcDbCircle
 10
4850.694982140264
 20
1735.654972687919
 30
0.0
 40
30.0
100
AcDbArc
 50
0.0
 51
180.0
  0
CIRCLE
  5
1F448
330
747D
100
AcDbEntity
  8
部品1
 48
50.0
100
AcDbCircle
 10
4850.694982140264
 20
1735.654972687919
 30
0.0
 40
10.0
  0
LINE
  5
1F449
330
747D
100
AcDbEntity
  8
細線
 48
50.0
100
AcDbLine
 10
4840.694982140265
 20
1701.979012233911
 30
0.0
 11
4860.694982140265
 21
1721.979012233911
 31
0.0
  0
LINE
  5
1F44A
330
747D
100
AcDbEntity
  8
細線
 48
50.0
100
AcDbLine
 10
4880.694982140266
 20
1708.3030517799
 30
0.0
 11
4970.694982140265
 21
1798.303051779902
 31
0.0
  0
LINE
  5
1F44B
330
747D
100
AcDbEntity
  8
細線
 48
50.0
100
AcDbLine
 10
4880.135866222748
 20
1741.419896316391
 30
0.0
 11
4970.694982140265
 21
1831.979012233911
 31
0.0
  0
LINE
  5
1F44C
330
747D
100
AcDbEntity
  8
細線
 48
50.0
100
AcDbLine
 10
4866.310510268353
 20
1761.270500816008
 30
0.0
 11
4970.694982140265
 21
1865.65497268792
 31
0.0
  0
LINE
  5
1F44D
330
747D
100
AcDbEntity
  8
部品1
 48
50.0
100
AcDbLine
 10
4730.694982140265
 20
1910.336935945114
 30
0.0
 11
4970.694982140265
 21
1910.336935945114
 31
0.0
  0
LINE
  5
1F44E
330
747D
100
AcDbEntity
  8
細線
 48
50.0
100
AcDbLine
 10
4730.694982140265
 20
1558.303051779902
 30
0.0
 11
4835.387884676884
 21
1662.995954316517
 31
0.0
  0
LINE
  5
1F44F
330
747D
100
AcDbEntity
  8
部品1
 48
50.0
100
AcDbLine
 10
4840.694982140265
 20
1662.995954316517
 30
0.0
 11
4820.694982140265
 21
1662.995954316521
 31
0.0
  0
LINE
  5
1F450
330
747D
100
AcDbEntity
  8
細線
 48
50.0
100
AcDbLine
 10
4880.694982140273
 20
1438.895368147827
 30
0.0
 11
4970.694982140258
 21
1528.895368147827
 31
0.0
  0
LINE
  5
1F451
330
747D
100
AcDbEntity
  8
細線
 48
50.0
100
AcDbLine
 10
4880.694982140266
 20
1506.247289055845
 30
0.0
 11
4970.694982140265
 21
1596.247289055846
 31
0.0
  0
LINE
  5
1F452
330
747D
100
AcDbEntity
  8
細線
 48
50.0
100
AcDbLine
 10
4880.694982140273
 20
1472.57132860184
 30
0.0
 11
4970.694982140258
 21
1562.571328601833
 31
0.0
  0
LINE
  5
1F453
330
747D
100
AcDbEntity
  8
細線
 48
50.0
100
AcDbLine
 10
4730.694982140265
 20
1591.979012233911
 30
0.0
 11
4820.694982140265
 21
1681.979012233911
 31
0.0
  0
LINE
  5
1F454
330
747D
100
AcDbEntity
  8
細線
 48
50.0
100
AcDbLine
 10
4730.694982140265
 20
1625.654972687919
 30
0.0
 11
4820.694982140265
 21
1715.65497268792
 31
0.0
  0
LINE
  5
1F455
330
747D
100
AcDbEntity
  8
細線
 48
50.0
100
AcDbLine
 10
4840.694982140265
 20
1668.303051779902
 30
0.0
 11
4860.694982140265
 21
1688.303051779902
 31
0.0
  0
LINE
  5
1F456
330
747D
100
AcDbEntity
  8
部品1
 48
50.0
100
AcDbLine
 10
4820.694982140265
 20
1662.995954316521
 30
0.0
 11
4820.694982140265
 21
1735.654972687919
 31
0.0
  0
LINE
  5
1F457
330
747D
100
AcDbEntity
  8
部品1
 48
50.0
100
AcDbLine
 10
4840.694982140265
 20
1662.995954316517
 30
0.0
 11
4840.694982140265
 21
1735.654972687919
 31
0.0
  0
LEADER
  5
1F458
330
747D
100
AcDbEntity
  8
寸法
 48
50.0
100
AcDbLeader
  3
INABA_S40G
 71
     0
 73
     0
 74
     0
 75
     1
 40
100.0
 41
222.7272727272727
 76
     3
 10
4850.694982140264
 20
1735.654972687919
 30
0.0
 10
4949.302403424508
 20
1661.921387568773
 30
0.0
 10
5049.302403424508
 20
1661.921387568773
 30
0.0
1001
ACAD
1000
DSTYLE
1002
{
1070
   341
1005
0
1002
}
  0
LWPOLYLINE
  5
1F459
330
747D
100
AcDbEntity
  8
部品1
 48
50.0
100
AcDbPolyline
 90
        2
 70
     0
 43
10.0
 10
4970.694982140265
 20
1610.336935945115
 10
5488.369859431462
 20
1610.336935945115
  0
MTEXT
  5
1F45A
102
{ACAD_REACTORS
330
1F458
102
}
330
747D
100
AcDbEntity
  8
寸法
 62
     7
 48
50.0
100
AcDbMText
 10
5074.302403424508
 20
1736.921387568773
 30
0.0
 40
100.0
 41
1.0
 71
     4
 72
     1
  1
D13
  7
STYLE2
 73
     1
 44
1.0
1001
ACAD
1000
MTEXTBEGIN
1070
    73
1070
     1
1070
    44
1040
1.0
1070
    74
1070
     0
1000
MTEXTEND
  0
LINE
  5
1F45B
330
747D
100
AcDbEntity
  8
細線
 48
50.0
100
AcDbLine
 10
5157.83709507851
 20
900.3369359451134
 30
0.0
 11
5149.798619305575
 21
930.3369359451126
 31
0.0
  0
LINE
  5
1F45C
330
747D
100
AcDbEntity
  8
細線
 48
50.0
100
AcDbLine
 10
5113.007679925757
 20
930.3369359451126
 30
0.0
 11
5130.694982140266
 21
948.0242381596218
 31
0.0
  0
MTEXT
  5
1F45D
102
{ACAD_REACTORS
330
1F49C
102
}
330
747D
100
AcDbEntity
  8
寸法
 62
     7
 48
50.0
100
AcDbMText
 10
5259.854556898621
 20
1036.090599766397
 30
0.0
 40
100.0
 41
1.0
 71
     4
 72
     1
  1
D10
  7
STYLE2
 73
     1
 44
1.0
1001
ACAD
1000
MTEXTBEGIN
1070
    73
1070
     1
1070
    44
1040
1.0
1070
    74
1070
     0
1000
MTEXTEND
  0
LINE
  5
1F45E
330
747D
100
AcDbEntity
  8
部品1
 48
50.0
100
AcDbLine
 10
5130.694982140266
 20
1230.336935945113
 30
0.0
 11
5130.694982140266
 21
930.3369359451126
 31
0.0
  0
LINE
  5
1F45F
330
747D
100
AcDbEntity
  8
細線
 48
50.0
100
AcDbLine
 10
5131.042175835396
 20
800.3369359451125
 30
0.0
 11
5139.08065160833
 21
770.3369359451126
 31
0.0
  0
LINE
  5
1F460
330
747D
100
AcDbEntity
  8
細線
 48
50.0
100
AcDbLine
 10
5229.652232019454
 20
800.3369359451125
 30
0.0
 11
5230.694982140265
 21
796.4453395146574
 31
0.0
  0
LINE
  5
1F461
330
747D
100
AcDbEntity
  8
細線
 48
50.0
100
AcDbLine
 10
5221.613756246519
 20
770.3369359451117
 30
0.0
 11
5230.694982140265
 21
804.2285323755987
 31
0.0
  0
MTEXT
  5
1F462
102
{ACAD_REACTORS
330
1F49A
102
}
330
747D
100
AcDbEntity
  8
寸法
 62
     7
 48
50.0
100
AcDbMText
 10
5272.868051966828
 20
708.6505787799215
 30
0.0
 40
100.0
 41
1.0
 71
     4
 72
     1
  1
\A1;D10@300
  7
STYLE2
 73
     1
 44
1.0
1001
ACAD
1000
MTEXTBEGIN
1070
    73
1070
     1
1070
    44
1040
1.0
1070
    74
1070
     0
1000
MTEXTEND
  0
LINE
  5
1F463
330
747D
100
AcDbEntity
  8
部品1
 48
50.0
100
AcDbLine
 10
5230.694982140269
 20
930.3369359451126
 30
0.0
 11
5230.694982140269
 21
770.3369359451126
 31
0.0
  0
LINE
  5
1F464
330
747D
100
AcDbEntity
  8
細線
 48
50.0
100
AcDbLine
 10
5123.003700062456
 20
770.3369359451126
 30
0.0
 11
5165.875570851438
 21
930.3369359451117
 31
0.0
  0
LINE
  5
1F465
330
747D
100
AcDbEntity
  8
部品1
 48
50.0
100
AcDbLine
 10
4840.694982140265
 20
1152.995954316517
 30
0.0
 11
4820.694982140265
 21
1152.995954316517
 31
0.0
  0
LINE
  5
1F466
330
747D
100
AcDbEntity
  8
細線
 48
50.0
100
AcDbLine
 10
4830.52729148702
 20
1152.995954316517
 30
0.0
 11
4860.694982140272
 21
1183.163644969765
 31
0.0
  0
LINE
  5
1F467
330
747D
100
AcDbEntity
  8
細線
 48
50.0
100
AcDbLine
 10
4840.694982140265
 20
1129.487684515752
 30
0.0
 11
4860.694982140272
 21
1149.487684515752
 31
0.0
  0
LINE
  5
1F468
330
747D
100
AcDbEntity
  8
細線
 48
50.0
100
AcDbLine
 10
4880.694982140273
 20
1203.163644969765
 30
0.0
 11
4970.694982140258
 21
1293.163644969758
 31
0.0
  0
LINE
  5
1F469
330
747D
100
AcDbEntity
  8
細線
 48
50.0
100
AcDbLine
 10
4880.694982140273
 20
1236.839605423775
 30
0.0
 11
4970.694982140258
 21
1326.839605423771
 31
0.0
  0
LINE
  5
1F46A
330
747D
100
AcDbEntity
  8
細線
 48
50.0
100
AcDbLine
 10
4880.694982140273
 20
1169.487684515752
 30
0.0
 11
4970.694982140258
 21
1259.487684515752
 31
0.0
  0
LINE
  5
1F46B
330
747D
100
AcDbEntity
  8
細線
 48
50.0
100
AcDbLine
 10
4910.951917201701
 20
930.3369359451126
 30
0.0
 11
5030.953027008121
 21
1050.338045751537
 31
0.0
  0
LINE
  5
1F46C
330
747D
100
AcDbEntity
  8
部品1
 48
50.0
100
AcDbLine
 10
5060.694982140265
 20
1070.336935945112
 30
0.0
 11
5060.694982140265
 21
1050.336935945112
 31
0.0
  0
LINE
  5
1F46D
330
747D
100
AcDbEntity
  8
細線
 48
50.0
100
AcDbLine
 10
5059.227038894451
 20
900.3369359451134
 30
0.0
 11
5051.188563121517
 21
930.3369359451126
 31
0.0
  0
CIRCLE
  5
1F46E
330
747D
100
AcDbEntity
  8
部品1
 48
50.0
100
AcDbCircle
 10
5010.694982140265
 20
1080.336935945112
 30
0.0
 40
10.0
  0
LINE
  5
1F46F
330
747D
100
AcDbEntity
  8
細線
 48
50.0
100
AcDbLine
 10
4960.616982710393
 20
900.3369359451134
 30
0.0
 11
4952.578506937459
 21
930.3369359451126
 31
0.0
  0
ARC
  5
1F470
330
747D
100
AcDbEntity
  8
部品1
 48
50.0
100
AcDbCircle
 10
4850.694982140264
 20
1080.336935945112
 30
0.0
 40
30.0
100
AcDbArc
 50
340.5287793654709
 51
0.0
  0
LINE
  5
1F471
330
747D
100
AcDbEntity
  8
細線
 48
50.0
100
AcDbLine
 10
4862.006926526335
 20
900.3369359451134
 30
0.0
 11
4853.968450753402
 21
930.3369359451126
 31
0.0
  0
ARC
  5
1F472
330
747D
100
AcDbEntity
  8
部品1
 48
50.0
100
AcDbCircle
 10
4850.694982140264
 20
1080.336935945112
 30
0.0
 40
30.0
100
AcDbArc
 50
180.0
 51
199.4712206345291
  0
LINE
  5
1F473
330
747D
100
AcDbEntity
  8
細線
 48
50.0
100
AcDbLine
 10
4763.396870342271
 20
900.3369359451134
 30
0.0
 11
4755.358394569337
 21
930.3369359451126
 31
0.0
  0
CIRCLE
  5
1F474
330
747D
100
AcDbEntity
  8
部品1
 48
50.0
100
AcDbCircle
 10
4850.694982140264
 20
1080.336935945112
 30
0.0
 40
10.0
  0
LINE
  5
1F475
330
747D
100
AcDbEntity
  8
細線
 48
50.0
100
AcDbLine
 10
4877.275956747695
 20
930.3369359451126
 30
0.0
 11
4997.275956747695
 21
1050.336935945112
 31
0.0
  0
LINE
  5
1F476
330
747D
100
AcDbEntity
  8
細線
 48
50.0
100
AcDbLine
 10
4843.599996293682
 20
930.3369359451126
 30
0.0
 11
4963.599996293682
 21
1050.336935945112
 31
0.0
  0
LINE
  5
1F477
330
747D
100
AcDbEntity
  8
細線
 48
50.0
100
AcDbLine
 10
4714.192312661608
 20
1070.336935945112
 30
0.0
 11
4860.694982140265
 21
1216.839605423771
 31
0.0
  0
LINE
  5
1F478
330
747D
100
AcDbEntity
  8
細線
 48
50.0
100
AcDbLine
 10
4781.544233569626
 20
1070.336935945112
 30
0.0
 11
4820.694982140265
 21
1109.487684515752
 31
0.0
  0
LINE
  5
1F479
330
747D
100
AcDbEntity
  8
部品1
 48
50.0
100
AcDbLine
 10
4820.694982140265
 20
1152.995954316517
 30
0.0
 11
4820.694982140265
 21
1080.336935945112
 31
0.0
  0
LINE
  5
1F47A
330
747D
100
AcDbEntity
  8
細線
 48
50.0
100
AcDbLine
 10
4747.86827311562
 20
1070.336935945112
 30
0.0
 11
4820.694982140265
 21
1143.163644969761
 31
0.0
  0
LINE
  5
1F47B
330
747D
100
AcDbEntity
  8
部品1
 48
50.0
100
AcDbLine
 10
4840.694982140265
 20
1152.995954316517
 30
0.0
 11
4840.694982140265
 21
1080.336935945112
 31
0.0
  0
LINE
  5
1F47C
330
747D
100
AcDbEntity
  8
細線
 48
50.0
100
AcDbLine
 10
4570.694982140258
 20
1162.571328601832
 30
0.0
 11
4638.460589483545
 21
1230.336935945113
 31
0.0
  0
LINE
  5
1F47D
330
747D
100
AcDbEntity
  8
細線
 48
50.0
100
AcDbLine
 10
4570.694982140258
 20
1196.247289055845
 30
0.0
 11
4604.784629029533
 21
1230.336935945113
 31
0.0
  0
LINE
  5
1F47E
330
747D
100
AcDbEntity
  8
細線
 48
50.0
100
AcDbLine
 10
4570.694982140258
 20
1128.895368147827
 30
0.0
 11
4672.136549937551
 21
1230.336935945113
 31
0.0
  0
LINE
  5
1F47F
330
747D
100
AcDbEntity
  8
部品1
 48
50.0
100
AcDbLine
 10
4640.694982140264
 20
1070.336935945112
 30
0.0
 11
4640.694982140264
 21
1050.336935945112
 31
0.0
  0
LINE
  5
1F480
330
747D
100
AcDbEntity
  8
細線
 48
50.0
100
AcDbLine
 10
4664.786814158206
 20
900.3369359451134
 30
0.0
 11
4656.748338385273
 21
930.3369359451126
 31
0.0
  0
LINE
  5
1F481
330
747D
100
AcDbEntity
  8
細線
 48
50.0
100
AcDbLine
 10
4566.17675797414
 20
900.3369359451134
 30
0.0
 11
4558.138282201207
 21
930.3369359451126
 31
0.0
  0
LINE
  5
1F482
330
747D
100
AcDbEntity
  8
細線
 48
50.0
100
AcDbLine
 10
4470.694982140265
 20
912.0118371523377
 30
0.0
 11
4475.60517756301
 21
930.3369359451126
 31
0.0
  0
LINE
  5
1F483
330
747D
100
AcDbEntity
  8
部品1
 48
50.0
100
AcDbLine
 10
4570.694982140265
 20
930.3369359451126
 30
0.0
 11
4570.694982140265
 21
1230.336935945113
 31
0.0
  0
LINE
  5
1F484
330
747D
100
AcDbEntity
  8
部品1
 48
50.0
100
AcDbLine
 10
4640.694982140264
 20
1050.336935945112
 30
0.0
 11
5060.694982140265
 21
1050.336935945112
 31
0.0
  0
LINE
  5
1F485
330
747D
100
AcDbEntity
  8
部品1
 48
50.0
100
AcDbLine
 10
4640.694982140264
 20
1070.336935945112
 30
0.0
 11
5060.694982140265
 21
1070.336935945112
 31
0.0
  0
LINE
  5
1F486
330
747D
100
AcDbEntity
  8
細線
 48
50.0
100
AcDbLine
 10
4641.544233569626
 20
930.3369359451126
 30
0.0
 11
4761.544233569626
 21
1050.336935945112
 31
0.0
  0
CIRCLE
  5
1F487
330
747D
100
AcDbEntity
  8
部品1
 48
50.0
100
AcDbCircle
 10
4690.694982140264
 20
1080.336935945112
 30
0.0
 40
10.0
  0
LINE
  5
1F488
330
747D
100
AcDbEntity
  8
細線
 48
50.0
100
AcDbLine
 10
4607.86827311562
 20
930.3369359451126
 30
0.0
 11
4727.86827311562
 21
1050.336935945112
 31
0.0
  0
LINE
  5
1F489
330
747D
100
AcDbEntity
  8
細線
 48
50.0
100
AcDbLine
 10
4574.192312661607
 20
930.3369359451126
 30
0.0
 11
4694.192312661607
 21
1050.336935945112
 31
0.0
  0
LINE
  5
1F48A
330
747D
100
AcDbEntity
  8
部品1
 48
50.0
100
AcDbLine
 10
4570.694982140265
 20
1230.336935945113
 30
0.0
 11
4730.694982140265
 21
1230.336935945113
 31
0.0
  0
LINE
  5
1F48B
330
747D
100
AcDbEntity
  8
細線
 48
50.0
100
AcDbLine
 10
4933.822063467282
 20
800.3369359451125
 30
0.0
 11
4941.860539240215
 21
770.3369359451126
 31
0.0
  0
LINE
  5
1F48C
330
747D
100
AcDbEntity
  8
細線
 48
50.0
100
AcDbLine
 10
5032.432119651339
 20
800.3369359451125
 30
0.0
 11
5040.470595424273
 21
770.3369359451126
 31
0.0
  0
LINE
  5
1F48D
330
747D
100
AcDbEntity
  8
細線
 48
50.0
100
AcDbLine
 10
4736.601951099159
 20
800.3369359451125
 30
0.0
 11
4744.640426872092
 21
770.3369359451126
 31
0.0
  0
LINE
  5
1F48E
330
747D
100
AcDbEntity
  8
細線
 48
50.0
100
AcDbLine
 10
4835.212007283224
 20
800.3369359451125
 30
0.0
 11
4843.250483056158
 21
770.3369359451126
 31
0.0
  0
LINE
  5
1F48F
330
747D
100
AcDbEntity
  8
細線
 48
50.0
100
AcDbLine
 10
4539.38183873103
 20
800.3369359451125
 30
0.0
 11
4547.420314503963
 21
770.3369359451126
 31
0.0
  0
LINE
  5
1F490
330
747D
100
AcDbEntity
  8
細線
 48
50.0
100
AcDbLine
 10
4637.991894915094
 20
800.3369359451125
 30
0.0
 11
4646.030370688027
 21
770.3369359451126
 31
0.0
  0
LINE
  5
1F491
330
747D
100
AcDbEntity
  8
細線
 48
50.0
100
AcDbLine
 10
4925.783587694341
 20
770.3369359451126
 30
0.0
 11
4968.655458483323
 21
930.3369359451117
 31
0.0
  0
LINE
  5
1F492
330
747D
100
AcDbEntity
  8
細線
 48
50.0
100
AcDbLine
 10
4629.95341914216
 20
770.3369359451126
 30
0.0
 11
4672.825289931139
 21
930.3369359451126
 31
0.0
  0
LINE
  5
1F493
330
747D
100
AcDbEntity
  8
細線
 48
50.0
100
AcDbLine
 10
4728.563475326218
 20
770.3369359451117
 30
0.0
 11
4771.435346115196
 21
930.3369359451117
 31
0.0
  0
LINE
  5
1F494
330
747D
100
AcDbEntity
  8
細線
 48
50.0
100
AcDbLine
 10
4531.343362958089
 20
770.3369359451117
 30
0.0
 11
4574.215233747067
 21
930.3369359451117
 31
0.0
  0
LINE
  5
1F495
330
747D
100
AcDbEntity
  8
部品1
 48
50.0
100
AcDbLine
 10
4470.694982140268
 20
770.3369359451126
 30
0.0
 11
4470.694982140268
 21
930.3369359451126
 31
0.0
  0
LINE
  5
1F496
330
747D
100
AcDbEntity
  8
細線
 48
50.0
100
AcDbLine
 10
4827.173531510283
 20
770.3369359451126
 30
0.0
 11
4870.045402299261
 21
930.3369359451126
 31
0.0
  0
LINE
  5
1F497
330
747D
100
AcDbEntity
  8
細線
 48
50.0
100
AcDbLine
 10
5024.393643878402
 20
770.3369359451117
 30
0.0
 11
5067.26551466738
 21
930.3369359451117
 31
0.0
  0
LINE
  5
1F498
330
747D
100
AcDbEntity
  8
部品1
 48
50.0
100
AcDbLine
 10
5230.694982140269
 20
770.3369359451126
 30
0.0
 11
4470.694982140268
 21
770.3369359451126
 31
0.0
  0
LINE
  5
1F499
330
747D
100
AcDbEntity
  8
部品1
 48
50.0
100
AcDbLine
 10
5230.694982140269
 20
930.3369359451126
 30
0.0
 11
4470.694982140268
 21
930.3369359451126
 31
0.0
  0
LEADER
  5
1F49A
330
747D
100
AcDbEntity
  8
寸法
 48
50.0
100
AcDbLeader
  3
INABA_S40G
 71
     0
 73
     0
 74
     0
 75
     1
 40
100.0
 41
540.3409090909091
 76
     3
 10
4943.126443406733
 20
1059.411272928206
 30
0.0
 10
5147.868051966828
 20
632.3727504345843
 30
0.0
 10
5247.868051966829
 20
632.3727504345843
 30
0.0
213
0.0
223
-1.277828345336728
233
0.0
1001
ACAD
1000
DSTYLE
1002
{
1070
   341
1005
0
1002
}
  0
DIMENSION
  5
1F49B
330
747D
100
AcDbEntity
  8
寸法
 48
50.0
100
AcDbDimension
  2
*D32
 10
5130.694982140266
 20
471.3848294891795
 30
0.0
 11
4850.694982140264
 21
471.3848294891795
 31
0.0
 70
   160
  1
300
 71
     5
 42
560.0000000000009
  3
INABA_S40G
100
AcDbAlignedDimension
 13
4570.694982140263
 23
770.3369359451126
 33
0.0
 14
5130.694982140266
 24
770.3369359451126
 34
0.0
100
AcDbRotatedDimension
1001
ACAD
1000
DSTYLE
1002
{
1070
   341
1005
0
1002
}
  0
LEADER
  5
1F49C
330
747D
100
AcDbEntity
  8
寸法
 48
50.0
100
AcDbLeader
  3
INABA_S40G
 71
     0
 73
     0
 74
     0
 75
     1
 40
100.0
 41
225.0
 76
     3
 10
5010.573672580443
 20
1080.336935945112
 30
0.0
 10
5134.854556898621
 20
961.0905997663977
 30
0.0
 10
5234.854556898621
 20
961.0905997663977
 30
0.0
1001
ACAD
1000
DSTYLE
1002
{
1070
   341
1005
0
1002
}
  0
LINE
  5
1F49D
330
747D
100
AcDbEntity
  8
細線
 48
50.0
100
AcDbLine
 10
4983.599996293675
 20
1070.336935945112
 30
0.0
 11
5130.694982140266
 21
1217.431921791696
 31
0.0
  0
LINE
  5
1F49E
330
747D
100
AcDbEntity
  8
細線
 48
50.0
100
AcDbLine
 10
5050.9519172017
 20
1070.336935945112
 30
0.0
 11
5130.694982140266
 21
1150.080000883678
 31
0.0
  0
LINE
  5
1F49F
330
747D
100
AcDbEntity
  8
細線
 48
50.0
100
AcDbLine
 10
5017.275956747695
 20
1070.336935945112
 30
0.0
 11
5130.694982140266
 21
1183.755961337687
 31
0.0
  0
LINE
  5
1F4A0
330
747D
100
AcDbEntity
  8
部品1
 48
50.0
100
AcDbLine
 10
4970.694982140265
 20
1230.336935945113
 30
0.0
 11
5130.694982140266
 21
1230.336935945113
 31
0.0
  0
LINE
  5
1F4A1
330
747D
100
AcDbEntity
  8
部品1
 48
50.0
100
AcDbLine
 10
4880.694982140273
 20
1080.336935945112
 30
0.0
 11
4880.694982140266
 21
1735.654972687919
 31
0.0
  0
LINE
  5
1F4A2
330
747D
100
AcDbEntity
  8
部品1
 48
50.0
100
AcDbLine
 10
4860.694982140272
 20
1080.336935945112
 30
0.0
 11
4860.694982140258
 21
1735.654972687919
 31
0.0
  0
LINE
  5
1F4A3
330
747D
100
AcDbEntity
  8
部品1
 48
50.0
100
AcDbLine
 10
4730.694982140265
 20
1230.336935945113
 30
0.0
 11
4730.694982140265
 21
1910.336935945114
 31
0.0
  0
LINE
  5
1F4A4
330
747D
100
AcDbEntity
  8
細線
 48
50.0
100
AcDbLine
 10
4730.694982140265
 20
1322.571328601836
 30
0.0
 11
4860.694982140272
 21
1452.57132860184
 31
0.0
  0
LINE
  5
1F4A5
330
747D
100
AcDbEntity
  8
細線
 48
50.0
100
AcDbLine
 10
4730.694982140265
 20
1356.247289055845
 30
0.0
 11
4860.694982140265
 21
1486.247289055845
 31
0.0
  0
LINE
  5
1F4A6
330
747D
100
AcDbEntity
  8
細線
 48
50.0
100
AcDbLine
 10
4730.694982140265
 20
1288.895368147827
 30
0.0
 11
4860.694982140272
 21
1418.895368147827
 31
0.0
  0
LINE
  5
1F4A7
330
747D
100
AcDbEntity
  8
部品1
 48
50.0
100
AcDbLine
 10
4970.694982140265
 20
1910.336935945114
 30
0.0
 11
4970.694982140265
 21
1230.336935945113
 31
0.0
  0
MTEXT
  5
1F4A8
102
{ACAD_REACTORS
330
1F4A9
102
}
330
747D
100
AcDbEntity
  8
寸法
 62
     7
 48
50.0
100
AcDbMText
 10
4357.026199396272
 20
825.9335689220678
 30
0.0
 40
100.0
 41
1.0
 71
     6
 72
     1
  1
D10
  7
STYLE2
 73
     1
 44
1.0
1001
ACAD
1000
MTEXTBEGIN
1070
    73
1070
     1
1070
    44
1040
1.0
1070
    74
1070
     0
1000
MTEXTEND
  0
LEADER
  5
1F4A9
330
747D
100
AcDbEntity
  8
寸法
 48
50.0
100
AcDbLeader
  3
INABA_S40G
 71
     0
 73
     0
 75
     1
 40
100.0
 41
225.0
 76
     3
 10
4690.573672580444
 20
1080.336935945112
 30
0.0
 10
4482.026199396272
 20
750.9335689220679
 30
0.0
 10
4382.026199396271
 20
750.9335689220679
 30
0.0
1001
ACAD
1000
DSTYLE
1002
{
1070
   341
1005
0
1002
}
  0
LEADER
  5
1F4AA
330
747D
100
AcDbEntity
  8
寸法
 48
50.0
100
AcDbLeader
  3
INABA_S40G
 71
     0
 73
     0
 75
     1
 40
100.0
 41
222.7272727272727
 76
     3
 10
4850.694982140264
 20
1080.336935945112
 30
0.0
 10
4517.179608843065
 20
525.5383782477638
 30
0.0
 10
4417.179608843065
 20
525.5383782477638
 30
0.0
1001
ACAD
1000
DSTYLE
1002
{
1070
   341
1005
0
1002
}
  0
MTEXT
  5
1F4AB
102
{ACAD_REACTORS
330
1F4AA
102
}
330
747D
100
AcDbEntity
  8
寸法
 62
     7
 48
50.0
100
AcDbMText
 10
4392.179608843065
 20
600.5383782477638
 30
0.0
 40
100.0
 41
1.0
 71
     6
 72
     1
  1
D13
  7
STYLE2
 73
     1
 44
1.0
1001
ACAD
1000
MTEXTBEGIN
1070
    73
1070
     1
1070
    44
1040
1.0
1070
    74
1070
     0
1000
MTEXTEND
  0
MTEXT
  5
1F4AC
102
{ACAD_REACTORS
330
1F4AD
102
}
330
747D
100
AcDbEntity
  8
寸法
 62
     7
 48
50.0
100
AcDbMText
 10
4619.132414361758
 20
1411.962689466933
 30
0.0
 40
100.0
 41
1.0
 71
     6
 72
     1
  1
\A1;D10@300
  7
STYLE2
 73
     1
 44
1.0
1001
ACAD
1000
MTEXTBEGIN
1070
    73
1070
     1
1070
    44
1040
1.0
1070
    74
1070
     0
1000
MTEXTEND
  0
LEADER
  5
1F4AD
330
747D
100
AcDbEntity
  8
寸法
 48
50.0
100
AcDbLeader
  3
INABA_S40G
 71
     0
 73
     0
 75
     1
 40
100.0
 41
540.3409090909091
 76
     3
 10
4860.694982140265
 20
1607.995954316517
 30
0.0
 10
4731.967186479392
 20
1331.158043640512
 30
0.0
 10
4631.967186479392
 20
1331.158043640512
 30
0.0
213
-12.16522788236671
223
-5.804645826423211
233
0.0
1001
ACAD
1000
DSTYLE
1002
{
1070
   341
1005
0
1002
}
  0
LEADER
  5
1F4AE
330
747D
100
AcDbEntity
  8
寸法
 48
50.0
100
AcDbLeader
  3
INABA_S40G
 71
     0
 73
     0
 75
     1
 40
130.1136363636363
 41
651.1363636363636
 76
     3
 10
4830.694982140265
 20
1910.336935945114
 30
0.0
 10
4771.776982221982
 20
2085.925392765848
 30
0.0
 10
4671.776982221983
 20
2085.925392765848
 30
0.0
1001
ACAD
1000
DSTYLE
1002
{
1070
   341
1005
0
1002
}
  0
MTEXT
  5
1F4AF
102
{ACAD_REACTORS
330
1F4AE
102
}
330
747D
100
AcDbEntity
  8
寸法
 62
     7
 48
50.0
100
AcDbMText
 10
4646.776982221982
 20
2175.982210947667
 30
0.0
 40
100.0
 41
1.0
 71
     6
 72
     1
  1
\A1;金コテ押エ
  7
STYLE2
 73
     1
 44
1.0
1001
ACAD
1000
MTEXTBEGIN
1070
    73
1070
     1
1070
    44
1040
1.0
1070
    74
1070
     0
1000
MTEXTEND
  0
DIMENSION
  5
1F4B0
330
747D
100
AcDbEntity
  8
寸法
 48
50.0
100
AcDbDimension
  2
*D33
 10
3970.0500441042
 20
930.3369359451126
 30
0.0
 11
3970.0500441042
 21
1420.336935945113
 31
0.0
 70
   160
  1
540
 71
     5
 42
980.0000000000014
  3
INABA_S40G
100
AcDbAlignedDimension
 13
4730.694982140263
 23
1910.336935945114
 33
0.0
 14
4470.694982140268
 24
930.3369359451126
 34
0.0
 50
90.0
100
AcDbRotatedDimension
1001
ACAD
1000
DSTYLE
1002
{
1070
   341
1005
0
1002
}
  0
DIMENSION
  5
1F4B1
330
747D
100
AcDbEntity
  8
寸法
 48
50.0
100
AcDbDimension
  2
*D34
 10
4392.66958997469
 20
930.3369359451126
 30
0.0
 11
4392.66958997469
 21
1080.336935945112
 31
0.0
 70
   160
  1
150
 71
     5
 42
299.9999999999999
  3
INABA_S40G
100
AcDbAlignedDimension
 13
4570.694982140263
 23
1230.336935945113
 33
0.0
 14
4470.694982140268
 24
930.3369359451126
 34
0.0
 50
90.0
100
AcDbRotatedDimension
1001
ACAD
1000
DSTYLE
1002
{
1070
   341
1005
0
1002
}
  0
LWPOLYLINE
  5
1F4B2
330
747D
100
AcDbEntity
  8
部品1
 48
50.0
100
AcDbPolyline
 90
        2
 70
     0
 43
10.0
 10
4213.020104849069
 20
1610.336935945115
 10
4730.694982140263
 20
1610.336935945115
  0
TEXT
  5
1F4B3
330
747D
100
AcDbEntity
  8
部品1
 48
50.0
100
AcDbText
 10
4213.020104849069
 20
1624.385676299183
 30
0.0
 40
100.0
  1
▽G.L
  7
STYLE2
100
AcDbText
  0
LEADER
  5
1F4B4
330
747D
100
AcDbEntity
  8
寸法
 48
50.0
100
AcDbLeader
  3
INABA_S40G
 73
     0
 75
     1
 40
132.9545454545455
 41
1129.404378023068
 76
     3
 10
7019.994123611758
 20
1997.286935945114
 30
0.0
 10
6911.964033180584
 20
2456.111404340529
 30
0.0
 10
6811.964033180584
 20
2456.111404340529
 30
0.0
340
1F4B5
1001
ACAD
1000
DSTYLE
1002
{
1070
   341
1005
0
1002
}
  0
MTEXT
  5
1F4B5
102
{ACAD_REACTORS
330
1F4B4
102
}
330
747D
100
AcDbEntity
  8
寸法
 62
     7
 48
50.0
100
AcDbMText
 10
6771.964033180584
 20
2562.588677067803
 30
0.0
 40
100.0
 41
1.0
 71
     6
 72
     1
  1
アンカープレート {\fArial|b0|i0|c0|p32;U}
  7
STYLE2
 73
     1
 44
1.0
1001
ACAD
1000
MTEXTBEGIN
1070
    73
1070
     1
1070
    44
1040
1.0
1070
    74
1070
     0
1000
MTEXTEND
  0
MTEXT
  5
1F4B6
102
{ACAD_REACTORS
330
1F4B7
102
}
330
747D
100
AcDbEntity
  8
部品1
 62
     7
 48
50.0
100
AcDbMText
 10
7382.936587503455
 20
3017.167505760174
 30
0.0
 40
100.0
 41
1.0
 71
     4
 72
     1
  1
\A1;ナット(市販品)
  7
STYLE2
 73
     1
 44
1.0
1001
ACAD
1000
MTEXTBEGIN
1070
    73
1070
     1
1070
    44
1040
1.0
1070
    74
1070
     0
1000
MTEXTEND
  0
LEADER
  5
1F4B7
330
747D
100
AcDbEntity
  8
寸法
 48
50.0
100
AcDbLeader
  3
INABA_S40G
 73
     0
 74
     0
 75
     1
 40
127.8409090909091
 41
850.0
 76
     3
 10
7152.494123611757
 20
2408.931037331542
 30
0.0
 10
7242.936587503455
 20
2913.24705121472
 30
0.0
 10
7342.936587503455
 20
2913.24705121472
 30
0.0
340
1F4B6
1001
ACAD
1000
DSTYLE
1002
{
1070
   341
1005
0
1002
}
  0
MTEXT
  5
1F4B8
102
{ACAD_REACTORS
330
1F4B9
102
}
330
747D
100
AcDbEntity
  8
部品1
 62
     7
 48
50.0
100
AcDbMText
 10
7422.333611572809
 20
2785.956152304189
 30
0.0
 40
100.0
 41
1.0
 71
     4
 72
     1
  1
\A1;ワッシャー(市販品)
  7
STYLE2
 73
     1
 44
1.0
1001
ACAD
1000
MTEXTBEGIN
1070
    73
1070
     1
1070
    44
1040
1.0
1070
    74
1070
     0
1000
MTEXTEND
  0
LEADER
  5
1F4B9
330
747D
100
AcDbEntity
  8
寸法
 48
50.0
100
AcDbLeader
  3
INABA_S40G
 73
     0
 74
     0
 75
     1
 40
127.8409090909091
 41
1133.522727272727
 76
     3
 10
7182.494123611758
 20
2246.741046500464
 30
0.0
 10
7282.333611572809
 20
2682.035697758735
 30
0.0
 10
7382.33361157281
 20
2682.035697758735
 30
0.0
340
1F4B8
1001
ACAD
1000
DSTYLE
1002
{
1070
   341
1005
0
1002
}
  0
DIMENSION
  5
1F4BA
330
747D
100
AcDbEntity
  8
寸法
 48
50.0
100
AcDbDimension
  2
*D35
 10
4730.694982140263
 20
2434.921695840589
 30
0.0
 11
4850.694982140264
 21
2434.921695840589
 31
0.0
 70
   160
  1
120\P(195)
 71
     5
 42
240.0
  3
INABA_S40G
100
AcDbAlignedDimension
 13
4970.694982140265
 23
1910.336935945114
 33
0.0
 14
4730.694982140263
 24
1910.336935945114
 34
0.0
100
AcDbRotatedDimension
1001
ACAD
1000
DSTYLE
1002
{
1070
   341
1005
0
1002
}
  0
LINE
  5
1F4BB
330
747D
100
AcDbEntity
  8
部品1
100
AcDbLine
 10
3611.894290588486
 20
3561.551460666168
 30
0.0
 11
3611.894290588486
 21
302.4819613114814
 31
0.0
  0
MTEXT
  5
1F4BC
102
{ACAD_REACTORS
330
1F4BD
102
}
330
747D
100
AcDbEntity
  8
寸法
 62
     7
 48
50.0
100
AcDbMText
 10
6738.660275420136
 20
3013.444016952196
 30
0.0
 40
100.0
 41
1.0
 71
     6
 72
     1
  1
\A1;φ70スリーブ
  7
STYLE2
 73
     1
 44
1.0
1001
ACAD
1000
MTEXTBEGIN
1070
    73
1070
     1
1070
    44
1040
1.0
1070
    74
1070
     0
1000
MTEXTEND
  0
LEADER
  5
1F4BD
330
747D
100
AcDbEntity
  8
寸法
 48
50.0
100
AcDbLeader
  3
INABA_S40G
 73
     0
 75
     1
 40
141.4772727272727
 41
760.7954545454546
 76
     3
 10
7093.415061284318
 20
1847.231527642962
 30
0.0
 10
6878.660275420135
 20
2902.70538058856
 30
0.0
 10
6778.660275420135
 20
2902.70538058856
 30
0.0
340
1F4BC
1001
ACAD
1000
DSTYLE
1002
{
1070
   341
1005
0
1002
}
  0
LINE
  5
1F4BE
330
747D
100
AcDbEntity
  8
部品1
100
AcDbLine
 10
10508.36898668651
 20
3561.551460666171
 30
0.0
 11
3611.894290588481
 21
3561.551460666168
 31
0.0
  0
LINE
  5
1F4BF
330
747D
100
AcDbEntity
  8
部品1
100
AcDbLine
 10
10508.36898668651
 20
3261.551460666169
 30
0.0
 11
3611.894290588481
 21
3261.551460666169
 31
0.0
  0
LINE
  5
1F4C0
330
747D
100
AcDbEntity
  8
部品1
100
AcDbLine
 10
3611.894290588481
 20
302.4819613114814
 30
0.0
 11
10508.36898668651
 21
302.4819613114814
 31
0.0
  0
LINE
  5
1F4C1
330
747D
100
AcDbEntity
  8
部品1
100
AcDbLine
 10
9017.858058867373
 20
1335.713291378421
 30
0.0
 11
9917.858058867373
 21
1335.713291378425
 31
0.0
  0
LINE
  5
1F4C2
330
747D
100
AcDbEntity
  8
部品1
100
AcDbLine
 10
9017.858058867373
 20
1495.713291378426
 30
0.0
 11
9917.858058867373
 21
1495.713291378429
 31
0.0
  0
LWPOLYLINE
  5
1F4C3
330
747D
100
AcDbEntity
  8
部品1
 48
50.0
100
AcDbPolyline
 90
        2
 70
     0
 43
15.0
 10
8687.093981241892
 20
1610.336935945113
 10
10188.45936015642
 20
1610.336935945113
  0
LINE
  5
1F4C4
330
747D
100
AcDbEntity
  8
細線
100
AcDbLine
 10
9159.153551991535
 20
1495.713291378426
 30
0.0
 11
9273.777196558226
 21
1610.336935945112
 31
0.0
  0
LINE
  5
1F4C5
330
747D
100
AcDbEntity
  8
部品1
100
AcDbLine
 10
9167.858058867373
 20
1910.336935945114
 30
0.0
 11
9767.858058867375
 21
1910.336935945114
 31
0.0
  0
LINE
  5
1F4C6
330
747D
100
AcDbEntity
  8
細線
100
AcDbLine
 10
9347.510115656563
 20
1610.336935945113
 30
0.0
 11
9167.858058867373
 21
1789.988992734304
 31
0.0
  0
LINE
  5
1F4C7
330
747D
100
AcDbEntity
  8
細線
100
AcDbLine
 10
9411.149725963353
 20
1610.336935945113
 30
0.0
 11
9167.858058867373
 21
1853.628603041092
 31
0.0
  0
TEXT
  5
1F719
330
747D
100
AcDbEntity
  8
部品1
 48
50.0
100
AcDbText
 10
6272.948287666954
 20
2295.229096269633
 30
0.0
 40
100.0
  1
※(別売)
  7
STYLE2
100
AcDbText
  0
ENDSEC
  0
SECTION
  2
OBJECTS
  0
DICTIONARY
  5
7471
330
0
100
AcDbDictionary
281
     1
  3
ACAD_COLOR
350
173D2
  3
ACAD_GROUP
350
7472
  3
ACAD_LAYOUT
350
173D3
  3
ACAD_MATERIAL
350
173D1
  3
ACAD_MLINESTYLE
350
7473
  3
ACAD_PLOTSETTINGS
350
173D4
  3
ACAD_PLOTSTYLENAME
350
173CF
  3
ACDBHEADERROUNDTRIPXREC
350
1F75A
  3
AcDbVariableDictionary
350
1F13B
  3
CONTENTDICTIONARY
350
E71C
  3
DRAWINGVARIABLESDICT
350
F3B9
  0
DICTIONARY
  5
1758F
330
7467
100
AcDbDictionary
280
     1
281
     1
  3
ACAD_LAYERSTATES
360
17590
  0
DICTIONARY
  5
173D2
102
{ACAD_REACTORS
330
7471
102
}
330
7471
100
AcDbDictionary
281
     1
  0
DICTIONARY
  5
7472
102
{ACAD_REACTORS
330
7471
102
}
330
7471
100
AcDbDictionary
281
     1
  3
*A1
350
1D2A9
  0
DICTIONARY
  5
173D3
102
{ACAD_REACTORS
330
7471
102
}
330
7471
100
AcDbDictionary
281
     1
  3
Model
350
173D5
  3
レイアウト1
350
173D6
  0
DICTIONARY
  5
173D1
102
{ACAD_REACTORS
330
7471
102
}
330
7471
100
AcDbDictionary
281
     1
  0
DICTIONARY
  5
7473
102
{ACAD_REACTORS
330
7471
102
}
330
7471
100
AcDbDictionary
281
     1
  3
STANDARD
350
7480
  0
DICTIONARY
  5
173D4
102
{ACAD_REACTORS
330
7471
102
}
330
7471
100
AcDbDictionary
281
     1
  0
ACDBDICTIONARYWDFLT
  5
173CF
102
{ACAD_REACTORS
330
7471
102
}
330
7471
100
AcDbDictionary
281
     1
  3
Normal
350
173D0
100
AcDbDictionaryWithDefault
340
173D0
  0
DICTIONARY
  5
1F75A
102
{ACAD_REACTORS
330
7471
102
}
330
7471
100
AcDbDictionary
281
     1
  3
COLORDICT
350
1F75C
  3
MATERIALDICT
350
1F75B
  0
DICTIONARY
  5
1F13B
102
{ACAD_REACTORS
330
7471
102
}
330
7471
100
AcDbDictionary
281
     1
  3
DIMASSOC
350
1F13C
  3
PROJECTNAME
350
1F13D
  0
DICTIONARY
  5
E71C
102
{ACAD_REACTORS
330
7471
102
}
330
7471
100
AcDbDictionary
281
     1
  0
DICTIONARY
  5
F3B9
102
{ACAD_REACTORS
330
7471
102
}
330
7471
100
AcDbDictionary
281
     1
1001
DRAWINGVARIABLESXDATA
1000
POLARMODE
1000
1
  0
DICTIONARY
  5
17590
102
{ACAD_REACTORS
330
1758F
102
}
330
1758F
100
AcDbDictionary
281
     1
  0
GROUP
  5
1D2A9
102
{ACAD_REACTORS
330
7472
102
}
330
7472
100
AcDbGroup
300

 70
     1
 71
     1
  0
LAYOUT
  5
173D5
102
{ACAD_XDICTIONARY
360
1F75D
102
}
102
{ACAD_REACTORS
330
173D3
102
}
330
173D3
100
AcDbPlotSettings
  1

  2
クセロPDF
  4
A3
  6

 40
3.174999999999999
 41
3.174999999999999
 42
3.174987999999999
 43
3.174987999999999
 44
419.946655
 45
296.925995
 46
0.0
 47
0.0
 48
0.0
 49
0.0
140
0.0
141
0.0
142
1.0
143
40.88431155294937
 70
 11952
 72
     1
 73
     0
 74
     2
  7
inaba.ctb
 75
     0
147
0.0244592598484849
148
0.0
149
0.0
100
AcDbLayout
  1
Model
 70
     1
 71
     0
 10
0.0
 20
0.0
 11
12.0
 21
9.0
 12
0.0
 22
0.0
 32
0.0
 14
0.0
 24
0.0
 34
0.0
 15
0.0
 25
0.0
 35
0.0
146
0.0
 13
0.0
 23
0.0
 33
0.0
 16
1.0
 26
0.0
 36
0.0
 17
0.0
 27
1.0
 37
0.0
 76
     0
330
747D
  0
LAYOUT
  5
173D6
102
{ACAD_XDICTIONARY
360
1F75F
102
}
102
{ACAD_REACTORS
330
173D3
102
}
330
173D3
100
AcDbPlotSettings
  1

  2
Microsoft Office Document Image Writer
  4

  6

 40
0.0
 41
0.0
 42
0.0
 43
0.0
 44
0.0
 45
0.0
 46
0.0
 47
0.0
 48
0.0
 49
0.0
140
0.0
141
0.0
142
1.0
143
1.0
 70
   688
 72
     0
 73
     0
 74
     5
  7

 75
    16
147
1.0
148
0.0
149
0.0
100
AcDbLayout
  1
レイアウト1
 70
     0
 71
     1
 10
0.0
 20
0.0
 11
420.0
 21
297.0
 12
0.0
 22
0.0
 32
0.0
 14
1.000000000000000E+20
 24
1.000000000000000E+20
 34
1.000000000000000E+20
 15
-1.000000000000000E+20
 25
-1.000000000000000E+20
 35
-1.000000000000000E+20
146
0.0
 13
0.0
 23
0.0
 33
0.0
 16
1.0
 26
0.0
 36
0.0
 17
0.0
 27
1.0
 37
0.0
 76
     0
330
747A
  0
MLINESTYLE
  5
7480
102
{ACAD_REACTORS
330
7473
102
}
330
7473
100
AcDbMlineStyle
  2
STANDARD
 70
     0
  3

 62
     0
 51
90.0
 52
90.0
 71
     2
 49
0.5
 62
   256
  6
BYLAYER
 49
-0.5
 62
   256
  6
BYLAYER
  0
ACDBPLACEHOLDER
  5
173D0
102
{ACAD_REACTORS
330
173CF
102
}
330
173CF
  0
XRECORD
  5
1F75C
102
{ACAD_REACTORS
330
1F75A
102
}
330
1F75A
100
AcDbXrecord
280
     1
340
173D2
  0
XRECORD
  5
1F75B
102
{ACAD_REACTORS
330
1F75A
102
}
330
1F75A
100
AcDbXrecord
280
     1
340
173D1
  0
DICTIONARYVAR
  5
1F13C
102
{ACAD_REACTORS
330
1F13B
102
}
330
1F13B
100
DictionaryVariables
280
     0
  1
1
  0
DICTIONARYVAR
  5
1F13D
102
{ACAD_REACTORS
330
1F13B
102
}
330
1F13B
100
DictionaryVariables
280
     0
  1

  0
DICTIONARY
  5
1F75D
330
173D5
100
AcDbDictionary
280
     1
281
     1
  3
ACAD_XREC_ROUNDTRIP
360
1F75E
  0
DICTIONARY
  5
1F75F
330
173D6
100
AcDbDictionary
280
     1
281
     1
  3
ACAD_XREC_ROUNDTRIP
360
1F760
  0
XRECORD
  5
1F75E
102
{ACAD_REACTORS
330
1F75D
102
}
330
1F75D
100
AcDbXrecord
280
     1
102
SHADEPLOT
 70
     1
102
SHADEPLOTRESLEVEL
 70
     2
102
SHADEPLOTCUSTOMDPI
 70
   300
  0
XRECORD
  5
1F760
102
{ACAD_REACTORS
330
1F75F
102
}
330
1F75F
100
AcDbXrecord
280
     1
102
SHADEPLOT
 70
     0
102
SHADEPLOTRESLEVEL
 70
     2
102
SHADEPLOTCUSTOMDPI
 70
   300
  0
ENDSEC
  0
EOF
