  0
SECTION
  2
HEADER
  9
$ACADVER
  1
AC1015
  9
$ACADMAINTVER
 70
    20
  9
$DWGCODEPAGE
  3
ANSI_932
  9
$INSBASE
 10
0.0
 20
0.0
 30
0.0
  9
$EXTMIN
 10
139.9999999999995
 20
-0.0000000000000909
 30
0.0
  9
$EXTMAX
 10
16307.2
 20
11409.6
 30
0.0
  9
$LIMMIN
 10
0.0
 20
0.0
  9
$LIMMAX
 10
16800.0
 20
11880.0
  9
$ORTHOMODE
 70
     0
  9
$REGENMODE
 70
     1
  9
$FILLMODE
 70
     1
  9
$QTEXTMODE
 70
     0
  9
$MIRRTEXT
 70
     1
  9
$LTSCALE
 40
20.0
  9
$ATTMODE
 70
     1
  9
$TEXTSIZE
 40
100.0
  9
$TRACEWID
 40
1.0
  9
$TEXTSTYLE
  7
STYLE2
  9
$CLAYER
  8
部品1
  9
$CELTYPE
  6
BYLAYER
  9
$CECOLOR
 62
   256
  9
$CELTSCALE
 40
50.0
  9
$DISPSILH
 70
     0
  9
$DIMSCALE
 40
40.0
  9
$DIMASZ
 40
2.5
  9
$DIMEXO
 40
0.5
  9
$DIMDLI
 40
7.0
  9
$DIMRND
 40
0.0
  9
$DIMDLE
 40
0.0
  9
$DIMEXE
 40
1.5
  9
$DIMTP
 40
0.0
  9
$DIMTM
 40
0.0
  9
$DIMTXT
 40
3.0
  9
$DIMCEN
 40
0.0
  9
$DIMTSZ
 40
0.0
  9
$DIMTOL
 70
     0
  9
$DIMLIM
 70
     0
  9
$DIMTIH
 70
     0
  9
$DIMTOH
 70
     0
  9
$DIMSE1
 70
     0
  9
$DIMSE2
 70
     0
  9
$DIMTAD
 70
     3
  9
$DIMZIN
 70
     8
  9
$DIMBLK
  1

  9
$DIMASO
 70
     1
  9
$DIMSHO
 70
     1
  9
$DIMPOST
  1

  9
$DIMAPOST
  1

  9
$DIMALT
 70
     0
  9
$DIMALTD
 70
     2
  9
$DIMALTF
 40
0.0394
  9
$DIMLFAC
 40
1.0
  9
$DIMTOFL
 70
     1
  9
$DIMTVP
 40
0.0
  9
$DIMTIX
 70
     0
  9
$DIMSOXD
 70
     0
  9
$DIMSAH
 70
     1
  9
$DIMBLK1
  1
DOTSMALL
  9
$DIMBLK2
  1
DOTSMALL
  9
$DIMSTYLE
  2
INABA_S40G
  9
$DIMCLRD
 70
     0
  9
$DIMCLRE
 70
     0
  9
$DIMCLRT
 70
     7
  9
$DIMTFAC
 40
1.0
  9
$DIMGAP
 40
1.0
  9
$DIMJUST
 70
     0
  9
$DIMSD1
 70
     0
  9
$DIMSD2
 70
     0
  9
$DIMTOLJ
 70
     1
  9
$DIMTZIN
 70
     0
  9
$DIMALTZ
 70
     0
  9
$DIMALTTZ
 70
     0
  9
$DIMUPT
 70
     0
  9
$DIMDEC
 70
     1
  9
$DIMTDEC
 70
     1
  9
$DIMALTU
 70
     2
  9
$DIMALTTD
 70
     2
  9
$DIMTXSTY
  7
STYLE1
  9
$DIMAUNIT
 70
     0
  9
$DIMADEC
 70
     0
  9
$DIMALTRND
 40
0.0
  9
$DIMAZIN
 70
     0
  9
$DIMDSEP
 70
    46
  9
$DIMATFIT
 70
     3
  9
$DIMFRAC
 70
     0
  9
$DIMLDRBLK
  1

  9
$DIMLUNIT
 70
     2
  9
$DIMLWD
 70
    -2
  9
$DIMLWE
 70
    -2
  9
$DIMTMOVE
 70
     1
  9
$LUNITS
 70
     2
  9
$LUPREC
 70
     1
  9
$SKETCHINC
 40
1.0
  9
$FILLETRAD
 40
2.299999999999999
  9
$AUNITS
 70
     0
  9
$AUPREC
 70
     0
  9
$MENU
  1
acad
  9
$ELEVATION
 40
0.0
  9
$PELEVATION
 40
0.0
  9
$THICKNESS
 40
0.0
  9
$LIMCHECK
 70
     0
  9
$CHAMFERA
 40
3.0
  9
$CHAMFERB
 40
3.0
  9
$CHAMFERC
 40
0.0
  9
$CHAMFERD
 40
0.0
  9
$SKPOLY
 70
     0
  9
$TDCREATE
 40
2451368.612993866
  9
$TDUCREATE
 40
2451368.237993866
  9
$TDUPDATE
 40
2455826.654159062
  9
$TDUUPDATE
 40
2455826.279159063
  9
$TDINDWG
 40
1.7271617014
  9
$TDUSRTIMER
 40
1.7271617014
  9
$USRTIMER
 70
     1
  9
$ANGBASE
 50
0.0
  9
$ANGDIR
 70
     0
  9
$PDMODE
 70
     3
  9
$PDSIZE
 40
2.0
  9
$PLINEWID
 40
0.0
  9
$SPLFRAME
 70
     0
  9
$SPLINETYPE
 70
     6
  9
$SPLINESEGS
 70
     8
  9
$HANDSEED
  5
218E2
  9
$SURFTAB1
 70
     6
  9
$SURFTAB2
 70
     6
  9
$SURFTYPE
 70
     6
  9
$SURFU
 70
     6
  9
$SURFV
 70
     6
  9
$UCSBASE
  2

  9
$UCSNAME
  2

  9
$UCSORG
 10
0.0
 20
0.0
 30
0.0
  9
$UCSXDIR
 10
1.0
 20
0.0
 30
0.0
  9
$UCSYDIR
 10
0.0
 20
1.0
 30
0.0
  9
$UCSORTHOREF
  2

  9
$UCSORTHOVIEW
 70
     0
  9
$UCSORGTOP
 10
0.0
 20
0.0
 30
0.0
  9
$UCSORGBOTTOM
 10
0.0
 20
0.0
 30
0.0
  9
$UCSORGLEFT
 10
0.0
 20
0.0
 30
0.0
  9
$UCSORGRIGHT
 10
0.0
 20
0.0
 30
0.0
  9
$UCSORGFRONT
 10
0.0
 20
0.0
 30
0.0
  9
$UCSORGBACK
 10
0.0
 20
0.0
 30
0.0
  9
$PUCSBASE
  2

  9
$PUCSNAME
  2

  9
$PUCSORG
 10
0.0
 20
0.0
 30
0.0
  9
$PUCSXDIR
 10
1.0
 20
0.0
 30
0.0
  9
$PUCSYDIR
 10
0.0
 20
1.0
 30
0.0
  9
$PUCSORTHOREF
  2

  9
$PUCSORTHOVIEW
 70
     0
  9
$PUCSORGTOP
 10
0.0
 20
0.0
 30
0.0
  9
$PUCSORGBOTTOM
 10
0.0
 20
0.0
 30
0.0
  9
$PUCSORGLEFT
 10
0.0
 20
0.0
 30
0.0
  9
$PUCSORGRIGHT
 10
0.0
 20
0.0
 30
0.0
  9
$PUCSORGFRONT
 10
0.0
 20
0.0
 30
0.0
  9
$PUCSORGBACK
 10
0.0
 20
0.0
 30
0.0
  9
$USERI1
 70
     0
  9
$USERI2
 70
     0
  9
$USERI3
 70
     0
  9
$USERI4
 70
     0
  9
$USERI5
 70
     0
  9
$USERR1
 40
0.0
  9
$USERR2
 40
0.0
  9
$USERR3
 40
0.0
  9
$USERR4
 40
0.0
  9
$USERR5
 40
0.0
  9
$WORLDVIEW
 70
     1
  9
$SHADEDGE
 70
     3
  9
$SHADEDIF
 70
    70
  9
$TILEMODE
 70
     1
  9
$MAXACTVP
 70
    16
  9
$PINSBASE
 10
0.0
 20
0.0
 30
0.0
  9
$PLIMCHECK
 70
     0
  9
$PEXTMIN
 10
1.000000000000000E+20
 20
1.000000000000000E+20
 30
1.000000000000000E+20
  9
$PEXTMAX
 10
-1.000000000000000E+20
 20
-1.000000000000000E+20
 30
-1.000000000000000E+20
  9
$PLIMMIN
 10
0.0
 20
0.0
  9
$PLIMMAX
 10
420.0
 20
297.0
  9
$UNITMODE
 70
     0
  9
$VISRETAIN
 70
     0
  9
$PLINEGEN
 70
     0
  9
$PSLTSCALE
 70
     0
  9
$TREEDEPTH
 70
  3020
  9
$CMLSTYLE
  2
STANDARD
  9
$CMLJUST
 70
     0
  9
$CMLSCALE
 40
1.0
  9
$PROXYGRAPHICS
 70
     1
  9
$MEASUREMENT
 70
     1
  9
$CELWEIGHT
370
    -1
  9
$ENDCAPS
280
     0
  9
$JOINSTYLE
280
     0
  9
$LWDISPLAY
290
     0
  9
$INSUNITS
 70
     0
  9
$HYPERLINKBASE
  1

  9
$STYLESHEET
  1
inaba.ctb
  9
$XEDIT
290
     1
  9
$CEPSNTYPE
380
     0
  9
$PSTYLEMODE
290
     1
  9
$FINGERPRINTGUID
  2
{3B57B35E-7D77-4BBF-81B7-6C583B9EB24C}
  9
$VERSIONGUID
  2
{65D06104-A78E-4897-B962-1D4D506DEA0D}
  9
$EXTNAMES
290
     1
  9
$PSVPSCALE
 40
0.0
  9
$OLESTARTUP
290
     0
  0
ENDSEC
  0
SECTION
  2
CLASSES
  0
CLASS
  1
ACDBDICTIONARYWDFLT
  2
AcDbDictionaryWithDefault
  3
ObjectDBX Classes
 90
        0
280
     0
281
     0
  0
CLASS
  1
DICTIONARYVAR
  2
AcDbDictionaryVar
  3
ObjectDBX Classes
 90
        0
280
     0
281
     0
  0
CLASS
  1
ACDBPLACEHOLDER
  2
AcDbPlaceHolder
  3
ObjectDBX Classes
 90
        0
280
     0
281
     0
  0
CLASS
  1
LAYOUT
  2
AcDbLayout
  3
ObjectDBX Classes
 90
        0
280
     0
281
     0
  0
ENDSEC
  0
SECTION
  2
TABLES
  0
TABLE
  2
VPORT
  5
746D
330
0
100
AcDbSymbolTable
 70
     2
  0
VPORT
  5
218DA
330
746D
100
AcDbSymbolTableRecord
100
AcDbViewportTableRecord
  2
*Active
 70
     0
 10
0.0
 20
0.0
 11
1.0
 21
1.0
 12
8280.018387672276
 22
5755.693463262769
 13
0.0
 23
0.0
 14
10.0
 24
10.0
 15
10.0
 25
10.0
 16
0.0
 26
0.0
 36
1.0
 17
0.0
 27
0.0
 37
0.0
 40
11596.63010594768
 41
1.522222222222222
 42
50.0
 43
0.0
 44
0.0
 50
0.0
 51
0.0
 71
     0
 72
     0
 73
     1
 74
     0
 75
     0
 76
     0
 77
     0
 78
     0
281
     0
 65
     1
110
0.0
120
0.0
130
0.0
111
1.0
121
0.0
131
0.0
112
0.0
122
1.0
132
0.0
 79
     0
146
0.0
  0
ENDTAB
  0
TABLE
  2
LTYPE
  5
746A
330
0
100
AcDbSymbolTable
 70
     3
  0
LTYPE
  5
7477
330
746A
100
AcDbSymbolTableRecord
100
AcDbLinetypeTableRecord
  2
BYBLOCK
 70
     0
  3

 72
    65
 73
     0
 40
0.0
  0
LTYPE
  5
7478
330
746A
100
AcDbSymbolTableRecord
100
AcDbLinetypeTableRecord
  2
BYLAYER
 70
     0
  3

 72
    65
 73
     0
 40
0.0
  0
LTYPE
  5
7479
330
746A
100
AcDbSymbolTableRecord
100
AcDbLinetypeTableRecord
  2
CONTINUOUS
 70
     0
  3
Solid line
 72
    65
 73
     0
 40
0.0
  0
LTYPE
  5
7816
330
746A
100
AcDbSymbolTableRecord
100
AcDbLinetypeTableRecord
  2
CENTER
 70
     0
  3
____ _ ____ _ ____ _ ____ _ ____ _ ____ _ ____ 
 72
    65
 73
     4
 40
2.0
 49
1.25
 74
     0
 49
-0.25
 74
     0
 49
0.25
 74
     0
 49
-0.25
 74
     0
  0
LTYPE
  5
781B
330
746A
100
AcDbSymbolTableRecord
100
AcDbLinetypeTableRecord
  2
PHANTOM
 70
     0
  3
______  __  __  ______  __  __  ______  __  __ 
 72
    65
 73
     6
 40
2.5
 49
1.25
 74
     0
 49
-0.25
 74
     0
 49
0.25
 74
     0
 49
-0.25
 74
     0
 49
0.25
 74
     0
 49
-0.25
 74
     0
  0
ENDTAB
  0
TABLE
  2
LAYER
  5
7467
102
{ACAD_XDICTIONARY
360
21220
102
}
330
0
100
AcDbSymbolTable
 70
    10
  0
LAYER
  5
7474
330
7467
100
AcDbSymbolTableRecord
100
AcDbLayerTableRecord
  2
0
 70
     0
 62
     7
  6
CONTINUOUS
370
    -3
390
159AE
  0
LAYER
  5
DEB2
330
7467
100
AcDbSymbolTableRecord
100
AcDbLayerTableRecord
  2
センター
 70
     0
 62
     3
  6
CENTER
370
    -3
390
159AE
  0
LAYER
  5
DEB3
330
7467
100
AcDbSymbolTableRecord
100
AcDbLayerTableRecord
  2
寸法
 70
     0
 62
     4
  6
CONTINUOUS
370
    -3
390
159AE
  0
LAYER
  5
DEB4
330
7467
100
AcDbSymbolTableRecord
100
AcDbLayerTableRecord
  2
部品1
 70
     0
 62
     7
  6
CONTINUOUS
370
    -3
390
159AE
  0
LAYER
  5
DEB5
330
7467
100
AcDbSymbolTableRecord
100
AcDbLayerTableRecord
  2
補助
 70
     0
 62
    -1
  6
CONTINUOUS
370
    -3
390
159AE
  0
LAYER
  5
DEB6
330
7467
100
AcDbSymbolTableRecord
100
AcDbLayerTableRecord
  2
文字
 70
     0
 62
     7
  6
CONTINUOUS
370
    -3
390
159AE
  0
LAYER
  5
F255
330
7467
100
AcDbSymbolTableRecord
100
AcDbLayerTableRecord
  2
DEFPOINTS
 70
     0
 62
     7
  6
CONTINUOUS
290
     0
370
    -3
390
159AE
  0
LAYER
  5
10B54
330
7467
100
AcDbSymbolTableRecord
100
AcDbLayerTableRecord
  2
仕様書枠
 70
     0
 62
   230
  6
CONTINUOUS
370
    -3
390
159AE
  0
LAYER
  5
1173F
330
7467
100
AcDbSymbolTableRecord
100
AcDbLayerTableRecord
  2
細線
 70
     0
 62
     5
  6
CONTINUOUS
370
    -3
390
159AE
  0
LAYER
  5
12CC4
330
7467
100
AcDbSymbolTableRecord
100
AcDbLayerTableRecord
  2
想像線
 70
     0
 62
     6
  6
PHANTOM
370
    -3
390
159AE
  0
ENDTAB
  0
TABLE
  2
STYLE
  5
7468
330
0
100
AcDbSymbolTable
 70
     3
  0
STYLE
  5
7475
330
7468
100
AcDbSymbolTableRecord
100
AcDbTextStyleTableRecord
  2
STANDARD
 70
     0
 40
0.0
 41
1.0
 50
0.0
 71
     0
 42
4.0
  3
txt
  4
C:\AutoCAD LT\bigfont.shx
  0
STYLE
  5
F706
330
7468
100
AcDbSymbolTableRecord
100
AcDbTextStyleTableRecord
  2
STYLE1
 70
     0
 40
0.0
 41
1.0
 50
0.0
 71
     0
 42
100.0
  3
isocp.shx
  4
bigfont.shx
  0
STYLE
  5
103BF
330
7468
100
AcDbSymbolTableRecord
100
AcDbTextStyleTableRecord
  2
STYLE2
 70
     0
 40
0.0
 41
1.0
 50
0.0
 71
     0
 42
100.0
  3
MS PGothic.ttf
  4

1001
ACAD
1000
MS PGothic
1071
    32818
  0
ENDTAB
  0
TABLE
  2
VIEW
  5
746B
330
0
100
AcDbSymbolTable
 70
     0
  0
ENDTAB
  0
TABLE
  2
UCS
  5
746C
330
0
100
AcDbSymbolTable
 70
     0
  0
ENDTAB
  0
TABLE
  2
APPID
  5
746E
330
0
100
AcDbSymbolTable
 70
     6
  0
APPID
  5
7476
330
746E
100
AcDbSymbolTableRecord
100
AcDbRegAppTableRecord
  2
ACAD
 70
     0
  0
APPID
  5
DEA9
330
746E
100
AcDbSymbolTableRecord
100
AcDbRegAppTableRecord
  2
CONTENTBLOCKICON
 70
     0
  0
APPID
  5
DEAA
330
746E
100
AcDbSymbolTableRecord
100
AcDbRegAppTableRecord
  2
CONTENTBLOCKDESCRIPTION
 70
     0
  0
APPID
  5
E71D
330
746E
100
AcDbSymbolTableRecord
100
AcDbRegAppTableRecord
  2
CONTENTTABDATA
 70
     0
  0
APPID
  5
E71E
330
746E
100
AcDbSymbolTableRecord
100
AcDbRegAppTableRecord
  2
CONTENTCURRENTTAB
 70
     0
  0
APPID
  5
F3BA
330
746E
100
AcDbSymbolTableRecord
100
AcDbRegAppTableRecord
  2
DRAWINGVARIABLESXDATA
 70
     0
  0
ENDTAB
  0
TABLE
  2
DIMSTYLE
  5
746F
330
0
100
AcDbSymbolTable
 70
     1
100
AcDbDimStyleTable
 71
     1
340
F71F
  0
DIMSTYLE
105
F71F
102
{ACAD_REACTORS
330
215AB
330
2148E
330
2148C
330
21488
330
21487
330
21485
330
21483
330
2147F
330
2147E
330
2147D
330
2147B
330
2147A
330
21478
330
21475
330
21473
330
2146C
330
2146B
330
21468
330
21415
330
2135D
330
20E34
330
20D50
330
1FEC1
330
1FE4B
330
1F249
330
1F248
330
1F11C
330
1E98B
330
1E96D
330
1E701
330
1D959
330
1D947
330
1D946
330
1D942
330
1D93F
330
1D93E
330
1D934
330
1D933
330
1D92D
330
1D92C
330
1D929
330
1D927
330
1D926
330
1D925
330
1D920
330
1D91D
330
1D91C
330
1D91B
102
}
330
746F
100
AcDbSymbolTableRecord
100
AcDbDimStyleTableRecord
  2
INABA_S40G
 70
     0
 40
40.0
 41
2.5
 42
0.5
 43
7.0
 44
1.5
 73
     0
 74
     0
 77
     3
 78
     8
140
3.0
141
0.0
143
0.0394
147
1.0
172
     1
173
     1
174
     1
178
     7
271
     1
288
     1
340
F706
341
F770
343
F770
344
F770
  0
ENDTAB
  0
TABLE
  2
BLOCK_RECORD
  5
7466
330
0
100
AcDbSymbolTable
 70
    32
  0
BLOCK_RECORD
  5
747D
330
7466
100
AcDbSymbolTableRecord
100
AcDbBlockTableRecord
  2
*MODEL_SPACE
340
159B3
  0
BLOCK_RECORD
  5
747A
330
7466
100
AcDbSymbolTableRecord
100
AcDbBlockTableRecord
  2
*PAPER_SPACE
340
159B4
  0
BLOCK_RECORD
  5
F770
330
7466
100
AcDbSymbolTableRecord
100
AcDbBlockTableRecord
  2
_DOTSMALL
340
0
102
{BLKREFS
331
2178B
331
2178C
331
21793
331
21794
331
217A2
331
217A3
331
217AB
331
217AC
331
217B4
331
217B5
331
217BD
331
217BE
331
217C6
331
217C7
331
217CF
331
217D0
331
217D7
331
217D8
331
217E0
331
217E1
331
217E9
331
217EA
331
217F3
331
217F4
331
217FC
331
217FD
331
21804
331
21805
331
2180F
331
21810
331
21819
331
2181A
331
21823
331
21824
331
2182E
331
2182F
331
21837
331
21838
331
21842
331
21843
331
2184B
331
2184C
331
21856
331
21857
331
21860
331
21861
331
21869
331
2186A
331
21872
331
21873
331
2187D
331
2187E
331
21886
331
21887
331
2188E
331
2188F
331
21897
331
21898
331
218A2
331
218A3
331
218AC
331
218AD
102
}
  0
BLOCK_RECORD
  5
1DA44
330
7466
100
AcDbSymbolTableRecord
100
AcDbBlockTableRecord
  2
*D1
340
0
  0
BLOCK_RECORD
  5
1DA51
330
7466
100
AcDbSymbolTableRecord
100
AcDbBlockTableRecord
  2
*D2
340
0
  0
BLOCK_RECORD
  5
1DA5E
330
7466
100
AcDbSymbolTableRecord
100
AcDbBlockTableRecord
  2
*D3
340
0
  0
BLOCK_RECORD
  5
1DA69
330
7466
100
AcDbSymbolTableRecord
100
AcDbBlockTableRecord
  2
*D4
340
0
  0
BLOCK_RECORD
  5
1DA74
330
7466
100
AcDbSymbolTableRecord
100
AcDbBlockTableRecord
  2
*D5
340
0
  0
BLOCK_RECORD
  5
1DA81
330
7466
100
AcDbSymbolTableRecord
100
AcDbBlockTableRecord
  2
*D6
340
0
  0
BLOCK_RECORD
  5
1DA8E
330
7466
100
AcDbSymbolTableRecord
100
AcDbBlockTableRecord
  2
*D7
340
0
  0
BLOCK_RECORD
  5
1DA9A
330
7466
100
AcDbSymbolTableRecord
100
AcDbBlockTableRecord
  2
*D8
340
0
  0
BLOCK_RECORD
  5
1DAA5
330
7466
100
AcDbSymbolTableRecord
100
AcDbBlockTableRecord
  2
*D9
340
0
  0
BLOCK_RECORD
  5
1DAB2
330
7466
100
AcDbSymbolTableRecord
100
AcDbBlockTableRecord
  2
*D10
340
0
  0
BLOCK_RECORD
  5
1DABE
330
7466
100
AcDbSymbolTableRecord
100
AcDbBlockTableRecord
  2
*D11
340
0
  0
BLOCK_RECORD
  5
1DACB
330
7466
100
AcDbSymbolTableRecord
100
AcDbBlockTableRecord
  2
*D12
340
0
  0
BLOCK_RECORD
  5
1DAD9
330
7466
100
AcDbSymbolTableRecord
100
AcDbBlockTableRecord
  2
*D13
340
0
  0
BLOCK_RECORD
  5
1DAE6
330
7466
100
AcDbSymbolTableRecord
100
AcDbBlockTableRecord
  2
*D14
340
0
  0
BLOCK_RECORD
  5
1DAF3
330
7466
100
AcDbSymbolTableRecord
100
AcDbBlockTableRecord
  2
*D15
340
0
  0
BLOCK_RECORD
  5
1DB00
330
7466
100
AcDbSymbolTableRecord
100
AcDbBlockTableRecord
  2
*D16
340
0
  0
BLOCK_RECORD
  5
1DB1A
330
7466
100
AcDbSymbolTableRecord
100
AcDbBlockTableRecord
  2
*D17
340
0
  0
BLOCK_RECORD
  5
1E9D0
330
7466
100
AcDbSymbolTableRecord
100
AcDbBlockTableRecord
  2
*D18
340
0
  0
BLOCK_RECORD
  5
1EA32
330
7466
100
AcDbSymbolTableRecord
100
AcDbBlockTableRecord
  2
*D19
340
0
  0
BLOCK_RECORD
  5
1F24A
330
7466
100
AcDbSymbolTableRecord
100
AcDbBlockTableRecord
  2
*D20
340
0
  0
BLOCK_RECORD
  5
1F255
330
7466
100
AcDbSymbolTableRecord
100
AcDbBlockTableRecord
  2
*D21
340
0
  0
BLOCK_RECORD
  5
1FE4C
330
7466
100
AcDbSymbolTableRecord
100
AcDbBlockTableRecord
  2
*D22
340
0
  0
BLOCK_RECORD
  5
20D51
330
7466
100
AcDbSymbolTableRecord
100
AcDbBlockTableRecord
  2
*D23
340
0
  0
BLOCK_RECORD
  5
20E35
330
7466
100
AcDbSymbolTableRecord
100
AcDbBlockTableRecord
  2
*D24
340
0
  0
BLOCK_RECORD
  5
21492
330
7466
100
AcDbSymbolTableRecord
100
AcDbBlockTableRecord
  2
*D25
340
0
  0
BLOCK_RECORD
  5
2149E
330
7466
100
AcDbSymbolTableRecord
100
AcDbBlockTableRecord
  2
*D26
340
0
  0
BLOCK_RECORD
  5
214AA
330
7466
100
AcDbSymbolTableRecord
100
AcDbBlockTableRecord
  2
*D27
340
0
  0
BLOCK_RECORD
  5
214B6
330
7466
100
AcDbSymbolTableRecord
100
AcDbBlockTableRecord
  2
*D28
340
0
  0
BLOCK_RECORD
  5
214C2
330
7466
100
AcDbSymbolTableRecord
100
AcDbBlockTableRecord
  2
*D29
340
0
  0
BLOCK_RECORD
  5
214D0
330
7466
100
AcDbSymbolTableRecord
100
AcDbBlockTableRecord
  2
*D30
340
0
  0
BLOCK_RECORD
  5
215AC
330
7466
100
AcDbSymbolTableRecord
100
AcDbBlockTableRecord
  2
*D31
340
0
  0
ENDTAB
  0
ENDSEC
  0
SECTION
  2
BLOCKS
  0
BLOCK
  5
7489
330
747D
100
AcDbEntity
  8
0
100
AcDbBlockBegin
  2
*MODEL_SPACE
 70
     0
 10
0.0
 20
0.0
 30
0.0
  3
*MODEL_SPACE
  1

  0
ENDBLK
  5
748A
330
747D
100
AcDbEntity
  8
0
100
AcDbBlockEnd
  0
BLOCK
  5
7487
330
747A
100
AcDbEntity
 67
     1
  8
0
100
AcDbBlockBegin
  2
*PAPER_SPACE
 70
     0
 10
0.0
 20
0.0
 30
0.0
  3
*PAPER_SPACE
  1

  0
ENDBLK
  5
7488
330
747A
100
AcDbEntity
 67
     1
  8
0
100
AcDbBlockEnd
  0
BLOCK
  5
F771
330
F770
100
AcDbEntity
  8
0
 48
50.0
100
AcDbBlockBegin
  2
_DOTSMALL
 70
     0
 10
0.0
 20
0.0
 30
0.0
  3
_DOTSMALL
  1

  0
LWPOLYLINE
  5
F772
330
F770
100
AcDbEntity
  8
0
  6
ByBlock
 62
     0
 48
50.0
100
AcDbPolyline
 90
        2
 70
     1
 43
0.5
 10
-0.0625
 20
0.0
 42
1.0
 10
0.0625
 20
0.0
 42
1.0
  0
ENDBLK
  5
F776
330
F770
100
AcDbEntity
  8
0
 48
50.0
100
AcDbBlockEnd
  0
BLOCK
  5
1DA4F
330
1DA44
100
AcDbEntity
  8
0
 48
50.0
100
AcDbBlockBegin
  2
*D1
 70
     1
 10
0.0
 20
0.0
 30
0.0
  3
*D1
  1

  0
LINE
  5
218A7
330
1DA44
100
AcDbEntity
  8
寸法
 62
     0
 48
50.0
370
    -2
100
AcDbLine
 10
6729.213011273897
 20
5262.919036112862
 30
0.0
 11
6985.920261149995
 21
5262.919036112862
 31
0.0
  0
LINE
  5
218A8
330
1DA44
100
AcDbEntity
  8
寸法
 62
     0
 48
50.0
370
    -2
100
AcDbLine
 10
6729.213011273897
 20
5392.919036112863
 30
0.0
 11
6985.920261149995
 21
5392.919036112863
 31
0.0
  0
LINE
  5
218A9
330
1DA44
100
AcDbEntity
  8
寸法
 62
     0
 48
50.0
370
    -2
100
AcDbLine
 10
6925.920261149996
 20
5262.919036112862
 30
0.0
 11
6925.920261149996
 21
5392.919036112863
 31
0.0
  0
LINE
  5
218AA
330
1DA44
100
AcDbEntity
  8
寸法
 62
     0
 48
50.0
370
    -2
100
AcDbLine
 10
6925.920261149996
 20
5765.01352430184
 30
0.0
 11
6925.920261149996
 21
5392.919036112863
 31
0.0
  0
MTEXT
  5
218AB
330
1DA44
100
AcDbEntity
  8
寸法
 62
     7
 48
50.0
100
AcDbMText
 10
6825.920261149994
 20
5628.966280207354
 30
0.0
 40
120.0
 41
0.0
 71
     5
 72
     1
  1
\A1;130
  7
STYLE1
 11
0.0000000000000001
 21
1.0
 31
0.0
 73
     1
 44
1.0
1001
ACAD
1000
MTEXTBEGIN
1070
    73
1070
     1
1070
    44
1040
1.0
1070
    74
1070
     0
1000
MTEXTEND
  0
INSERT
  5
218AC
330
1DA44
100
AcDbEntity
  8
寸法
 62
     0
 48
50.0
370
    -2
100
AcDbBlockReference
  2
_DOTSMALL
 10
6925.920261149996
 20
5262.919036112862
 30
0.0
 41
100.0
 42
100.0
 43
100.0
 50
270.0
  0
INSERT
  5
218AD
330
1DA44
100
AcDbEntity
  8
寸法
 62
     0
 48
50.0
370
    -2
100
AcDbBlockReference
  2
_DOTSMALL
 10
6925.920261149996
 20
5392.919036112863
 30
0.0
 41
100.0
 42
100.0
 43
100.0
 50
90.0
  0
POINT
  5
218AE
330
1DA44
100
AcDbEntity
  8
DEFPOINTS
 62
     0
 48
50.0
100
AcDbPoint
 10
6709.213011273897
 20
5262.919036112862
 30
0.0
  0
POINT
  5
218AF
330
1DA44
100
AcDbEntity
  8
DEFPOINTS
 62
     0
 48
50.0
100
AcDbPoint
 10
6709.213011273897
 20
5392.919036112863
 30
0.0
  0
POINT
  5
218B0
330
1DA44
100
AcDbEntity
  8
DEFPOINTS
 62
     0
 48
50.0
100
AcDbPoint
 10
6925.920261149996
 20
5392.919036112863
 30
0.0
  0
ENDBLK
  5
1DA50
330
1DA44
100
AcDbEntity
  8
0
 48
50.0
100
AcDbBlockEnd
  0
BLOCK
  5
1DA5C
330
1DA51
100
AcDbEntity
  8
0
 48
50.0
100
AcDbBlockBegin
  2
*D2
 70
     1
 10
0.0
 20
0.0
 30
0.0
  3
*D2
  1

  0
LINE
  5
2189D
330
1DA51
100
AcDbEntity
  8
寸法
 62
     0
 48
50.0
370
    -2
100
AcDbLine
 10
6729.213011273897
 20
5262.919036112863
 30
0.0
 11
6985.920261149995
 21
5262.919036112863
 31
0.0
  0
LINE
  5
2189E
330
1DA51
100
AcDbEntity
  8
寸法
 62
     0
 48
50.0
370
    -2
100
AcDbLine
 10
6729.213011273897
 20
5092.919036112861
 30
0.0
 11
6985.920261149995
 21
5092.919036112861
 31
0.0
  0
LINE
  5
2189F
330
1DA51
100
AcDbEntity
  8
寸法
 62
     0
 48
50.0
370
    -2
100
AcDbLine
 10
6925.920261149996
 20
5262.919036112863
 30
0.0
 11
6925.920261149996
 21
5092.919036112861
 31
0.0
  0
LINE
  5
218A0
330
1DA51
100
AcDbEntity
  8
寸法
 62
     0
 48
50.0
370
    -2
100
AcDbLine
 10
6925.920261149996
 20
4720.824547923883
 30
0.0
 11
6925.920261149996
 21
5092.919036112861
 31
0.0
  0
MTEXT
  5
218A1
330
1DA51
100
AcDbEntity
  8
寸法
 62
     7
 48
50.0
100
AcDbMText
 10
6825.920261149994
 20
4856.871792018374
 30
0.0
 40
120.0
 41
0.0
 71
     5
 72
     1
  1
\A1;170
  7
STYLE1
 11
0.0000000000000001
 21
1.0
 31
0.0
 73
     1
 44
1.0
1001
ACAD
1000
MTEXTBEGIN
1070
    73
1070
     1
1070
    44
1040
1.0
1070
    74
1070
     0
1000
MTEXTEND
  0
INSERT
  5
218A2
330
1DA51
100
AcDbEntity
  8
寸法
 62
     0
 48
50.0
370
    -2
100
AcDbBlockReference
  2
_DOTSMALL
 10
6925.920261149996
 20
5262.919036112863
 30
0.0
 41
100.0
 42
100.0
 43
100.0
 50
90.0
  0
INSERT
  5
218A3
330
1DA51
100
AcDbEntity
  8
寸法
 62
     0
 48
50.0
370
    -2
100
AcDbBlockReference
  2
_DOTSMALL
 10
6925.920261149996
 20
5092.919036112861
 30
0.0
 41
100.0
 42
100.0
 43
100.0
 50
270.0
  0
POINT
  5
218A4
330
1DA51
100
AcDbEntity
  8
DEFPOINTS
 62
     0
 48
50.0
100
AcDbPoint
 10
6709.213011273897
 20
5262.919036112863
 30
0.0
  0
POINT
  5
218A5
330
1DA51
100
AcDbEntity
  8
DEFPOINTS
 62
     0
 48
50.0
100
AcDbPoint
 10
6709.213011273897
 20
5092.919036112861
 30
0.0
  0
POINT
  5
218A6
330
1DA51
100
AcDbEntity
  8
DEFPOINTS
 62
     0
 48
50.0
100
AcDbPoint
 10
6925.920261149996
 20
5092.919036112861
 30
0.0
  0
ENDBLK
  5
1DA5D
330
1DA51
100
AcDbEntity
  8
0
 48
50.0
100
AcDbBlockEnd
  0
BLOCK
  5
1DA67
330
1DA5E
100
AcDbEntity
  8
0
 48
50.0
100
AcDbBlockBegin
  2
*D3
 70
     1
 10
0.0
 20
0.0
 30
0.0
  3
*D3
  1

  0
LINE
  5
21894
330
1DA5E
100
AcDbEntity
  8
寸法
 62
     0
 48
50.0
370
    -2
100
AcDbLine
 10
9416.213011273896
 20
7679.919036112861
 30
0.0
 11
9416.213011273896
 21
8546.250847072711
 31
0.0
  0
LINE
  5
21895
330
1DA5E
100
AcDbEntity
  8
寸法
 62
     0
 48
50.0
370
    -2
100
AcDbLine
 10
6602.213011273896
 20
7679.919036112861
 30
0.0
 11
6602.213011273896
 21
8546.250847072711
 31
0.0
  0
LINE
  5
21896
330
1DA5E
100
AcDbEntity
  8
寸法
 62
     0
 48
50.0
370
    -2
100
AcDbLine
 10
9416.213011273896
 20
8486.250847072712
 30
0.0
 11
6602.213011273896
 21
8486.250847072712
 31
0.0
  0
INSERT
  5
21897
330
1DA5E
100
AcDbEntity
  8
寸法
 62
     0
 48
50.0
370
    -2
100
AcDbBlockReference
  2
_DOTSMALL
 10
9416.213011273896
 20
8486.250847072712
 30
0.0
 41
100.0
 42
100.0
 43
100.0
  0
INSERT
  5
21898
330
1DA5E
100
AcDbEntity
  8
寸法
 62
     0
 48
50.0
370
    -2
100
AcDbBlockReference
  2
_DOTSMALL
 10
6602.213011273896
 20
8486.250847072712
 30
0.0
 41
100.0
 42
100.0
 43
100.0
 50
180.0
  0
MTEXT
  5
21899
330
1DA5E
100
AcDbEntity
  8
寸法
 62
     7
 48
50.0
100
AcDbMText
 10
8009.213011273896
 20
8586.262658096334
 30
0.0
 40
120.0
 41
0.0
 71
     5
 72
     1
  1
\A1;2814
  7
STYLE1
 73
     1
 44
1.0
1001
ACAD
1000
MTEXTBEGIN
1070
    73
1070
     1
1070
    44
1040
1.0
1070
    74
1070
     0
1000
MTEXTEND
  0
POINT
  5
2189A
330
1DA5E
100
AcDbEntity
  8
DEFPOINTS
 62
     0
 48
50.0
100
AcDbPoint
 10
9416.213011273896
 20
7659.91903611286
 30
0.0
  0
POINT
  5
2189B
330
1DA5E
100
AcDbEntity
  8
DEFPOINTS
 62
     0
 48
50.0
100
AcDbPoint
 10
6602.213011273896
 20
7659.91903611286
 30
0.0
  0
POINT
  5
2189C
330
1DA5E
100
AcDbEntity
  8
DEFPOINTS
 62
     0
 48
50.0
100
AcDbPoint
 10
6602.213011273896
 20
8486.250847072712
 30
0.0
  0
ENDBLK
  5
1DA68
330
1DA5E
100
AcDbEntity
  8
0
 48
50.0
100
AcDbBlockEnd
  0
BLOCK
  5
1DA72
330
1DA69
100
AcDbEntity
  8
0
 48
50.0
100
AcDbBlockBegin
  2
*D4
 70
     1
 10
0.0
 20
0.0
 30
0.0
  3
*D4
  1

  0
LINE
  5
2188B
330
1DA69
100
AcDbEntity
  8
寸法
 62
     0
 48
50.0
370
    -2
100
AcDbLine
 10
6479.213011273895
 20
7752.919036112858
 30
0.0
 11
6479.213011273895
 21
8758.711542589548
 31
0.0
  0
LINE
  5
2188C
330
1DA69
100
AcDbEntity
  8
寸法
 62
     0
 48
50.0
370
    -2
100
AcDbLine
 10
9539.213011273897
 20
7752.919036112861
 30
0.0
 11
9539.213011273897
 21
8758.711542589548
 31
0.0
  0
LINE
  5
2188D
330
1DA69
100
AcDbEntity
  8
寸法
 62
     0
 48
50.0
370
    -2
100
AcDbLine
 10
6479.213011273895
 20
8698.711542589547
 30
0.0
 11
9539.213011273897
 21
8698.711542589547
 31
0.0
  0
INSERT
  5
2188E
330
1DA69
100
AcDbEntity
  8
寸法
 62
     0
 48
50.0
370
    -2
100
AcDbBlockReference
  2
_DOTSMALL
 10
6479.213011273895
 20
8698.711542589547
 30
0.0
 41
100.0
 42
100.0
 43
100.0
 50
180.0
  0
INSERT
  5
2188F
330
1DA69
100
AcDbEntity
  8
寸法
 62
     0
 48
50.0
370
    -2
100
AcDbBlockReference
  2
_DOTSMALL
 10
9539.213011273897
 20
8698.711542589547
 30
0.0
 41
100.0
 42
100.0
 43
100.0
  0
MTEXT
  5
21890
330
1DA69
100
AcDbEntity
  8
寸法
 62
     7
 48
50.0
100
AcDbMText
 10
8009.213011273896
 20
8798.711542589549
 30
0.0
 40
120.0
 41
0.0
 71
     5
 72
     1
  1
\A1;3060
  7
STYLE1
 73
     1
 44
1.0
1001
ACAD
1000
MTEXTBEGIN
1070
    73
1070
     1
1070
    44
1040
1.0
1070
    74
1070
     0
1000
MTEXTEND
  0
POINT
  5
21891
330
1DA69
100
AcDbEntity
  8
DEFPOINTS
 62
     0
 48
50.0
100
AcDbPoint
 10
6479.213011273895
 20
7732.919036112858
 30
0.0
  0
POINT
  5
21892
330
1DA69
100
AcDbEntity
  8
DEFPOINTS
 62
     0
 48
50.0
100
AcDbPoint
 10
9539.213011273897
 20
7732.919036112861
 30
0.0
  0
POINT
  5
21893
330
1DA69
100
AcDbEntity
  8
DEFPOINTS
 62
     0
 48
50.0
100
AcDbPoint
 10
9539.213011273897
 20
8698.711542589547
 30
0.0
  0
ENDBLK
  5
1DA73
330
1DA69
100
AcDbEntity
  8
0
 48
50.0
100
AcDbBlockEnd
  0
BLOCK
  5
1DA7F
330
1DA74
100
AcDbEntity
  8
0
 48
50.0
100
AcDbBlockBegin
  2
*D5
 70
     1
 10
0.0
 20
0.0
 30
0.0
  3
*D5
  1

  0
LINE
  5
21882
330
1DA74
100
AcDbEntity
  8
寸法
 62
     0
 48
50.0
370
    -2
100
AcDbLine
 10
6602.213011273896
 20
7679.919036112861
 30
0.0
 11
6602.213011273896
 21
8546.250847072711
 31
0.0
  0
LINE
  5
21883
330
1DA74
100
AcDbEntity
  8
寸法
 62
     0
 48
50.0
370
    -2
100
AcDbLine
 10
6479.213011273895
 20
7752.919036112858
 30
0.0
 11
6479.213011273895
 21
8546.250847072711
 31
0.0
  0
LINE
  5
21884
330
1DA74
100
AcDbEntity
  8
寸法
 62
     0
 48
50.0
370
    -2
100
AcDbLine
 10
6602.213011273896
 20
8486.250847072712
 30
0.0
 11
6479.213011273895
 21
8486.250847072712
 31
0.0
  0
MTEXT
  5
21885
330
1DA74
100
AcDbEntity
  8
寸法
 62
     7
 48
50.0
100
AcDbMText
 10
6240.727729899656
 20
8586.262658096334
 30
0.0
 40
120.0
 41
0.0
 71
     5
 72
     1
  1
\A1;123
  7
STYLE1
 73
     1
 44
1.0
1001
ACAD
1000
MTEXTBEGIN
1070
    73
1070
     1
1070
    44
1040
1.0
1070
    74
1070
     0
1000
MTEXTEND
  0
INSERT
  5
21886
330
1DA74
100
AcDbEntity
  8
寸法
 62
     0
 48
50.0
370
    -2
100
AcDbBlockReference
  2
_DOTSMALL
 10
6602.213011273896
 20
8486.250847072712
 30
0.0
 41
100.0
 42
100.0
 43
100.0
  0
INSERT
  5
21887
330
1DA74
100
AcDbEntity
  8
寸法
 62
     0
 48
50.0
370
    -2
100
AcDbBlockReference
  2
_DOTSMALL
 10
6479.213011273895
 20
8486.250847072712
 30
0.0
 41
100.0
 42
100.0
 43
100.0
 50
180.0
  0
POINT
  5
21888
330
1DA74
100
AcDbEntity
  8
DEFPOINTS
 62
     0
 48
50.0
100
AcDbPoint
 10
6602.213011273896
 20
7659.91903611286
 30
0.0
  0
POINT
  5
21889
330
1DA74
100
AcDbEntity
  8
DEFPOINTS
 62
     0
 48
50.0
100
AcDbPoint
 10
6479.213011273895
 20
7732.919036112858
 30
0.0
  0
POINT
  5
2188A
330
1DA74
100
AcDbEntity
  8
DEFPOINTS
 62
     0
 48
50.0
100
AcDbPoint
 10
6479.213011273895
 20
8486.250847072712
 30
0.0
  0
ENDBLK
  5
1DA80
330
1DA74
100
AcDbEntity
  8
0
 48
50.0
100
AcDbBlockEnd
  0
BLOCK
  5
1DA8C
330
1DA81
100
AcDbEntity
  8
0
 48
50.0
100
AcDbBlockBegin
  2
*D6
 70
     1
 10
0.0
 20
0.0
 30
0.0
  3
*D6
  1

  0
LINE
  5
21877
330
1DA81
100
AcDbEntity
  8
寸法
 62
     0
 48
50.0
370
    -2
100
AcDbLine
 10
6434.213011273893
 20
8506.250847072712
 30
0.0
 11
6434.213011273893
 21
8758.71154258955
 31
0.0
  0
LINE
  5
21878
330
1DA81
100
AcDbEntity
  8
寸法
 62
     0
 48
50.0
370
    -2
100
AcDbLine
 10
6479.213011273896
 20
7901.190236682781
 30
0.0
 11
6479.213011273896
 21
8758.71154258955
 31
0.0
  0
LINE
  5
21879
330
1DA81
100
AcDbEntity
  8
寸法
 62
     0
 48
50.0
370
    -2
100
AcDbLine
 10
6434.213011273893
 20
8698.711542589549
 30
0.0
 11
6334.213011273892
 21
8698.711542589549
 31
0.0
  0
LINE
  5
2187A
330
1DA81
100
AcDbEntity
  8
寸法
 62
     0
 48
50.0
370
    -2
100
AcDbLine
 10
6479.213011273896
 20
8698.711542589549
 30
0.0
 11
6579.213011273896
 21
8698.711542589549
 31
0.0
  0
MTEXT
  5
2187B
330
1DA81
100
AcDbEntity
  8
寸法
 62
     7
 48
50.0
100
AcDbMText
 10
6456.713011273894
 20
8798.711542589549
 30
0.0
 40
120.0
 41
0.0
 71
     5
 72
     1
  1
\A1;a
  7
STYLE1
 73
     1
 44
1.0
1001
ACAD
1000
MTEXTBEGIN
1070
    73
1070
     1
1070
    44
1040
1.0
1070
    74
1070
     0
1000
MTEXTEND
  0
LINE
  5
2187C
330
1DA81
100
AcDbEntity
  8
寸法
 62
     0
 48
50.0
370
    -2
100
AcDbLine
 10
6434.213011273893
 20
8698.711542589549
 30
0.0
 11
6479.213011273896
 21
8698.711542589549
 31
0.0
  0
INSERT
  5
2187D
330
1DA81
100
AcDbEntity
  8
寸法
 62
     0
 48
50.0
370
    -2
100
AcDbBlockReference
  2
_DOTSMALL
 10
6434.213011273893
 20
8698.711542589549
 30
0.0
 41
100.0
 42
100.0
 43
100.0
  0
INSERT
  5
2187E
330
1DA81
100
AcDbEntity
  8
寸法
 62
     0
 48
50.0
370
    -2
100
AcDbBlockReference
  2
_DOTSMALL
 10
6479.213011273896
 20
8698.711542589549
 30
0.0
 41
100.0
 42
100.0
 43
100.0
 50
180.0
  0
POINT
  5
2187F
330
1DA81
100
AcDbEntity
  8
DEFPOINTS
 62
     0
 48
50.0
100
AcDbPoint
 10
6434.213011273893
 20
8486.250847072712
 30
0.0
  0
POINT
  5
21880
330
1DA81
100
AcDbEntity
  8
DEFPOINTS
 62
     0
 48
50.0
100
AcDbPoint
 10
6479.213011273896
 20
7881.190236682782
 30
0.0
  0
POINT
  5
21881
330
1DA81
100
AcDbEntity
  8
DEFPOINTS
 62
     0
 48
50.0
100
AcDbPoint
 10
6479.213011273896
 20
8698.711542589549
 30
0.0
  0
ENDBLK
  5
1DA8D
330
1DA81
100
AcDbEntity
  8
0
 48
50.0
100
AcDbBlockEnd
  0
BLOCK
  5
1DA98
330
1DA8E
100
AcDbEntity
  8
0
 48
50.0
100
AcDbBlockBegin
  2
*D7
 70
     1
 10
0.0
 20
0.0
 30
0.0
  3
*D7
  1

  0
LINE
  5
2186E
330
1DA8E
100
AcDbEntity
  8
寸法
 62
     0
 48
50.0
370
    -2
100
AcDbLine
 10
6532.213011273896
 20
7609.91903611286
 30
0.0
 11
5923.270745260076
 21
7609.919036112862
 31
0.0
  0
LINE
  5
2186F
330
1DA8E
100
AcDbEntity
  8
寸法
 62
     0
 48
50.0
370
    -2
100
AcDbLine
 10
6532.213011273904
 20
5290.919036112861
 30
0.0
 11
5923.270745260076
 21
5290.919036112862
 31
0.0
  0
LINE
  5
21870
330
1DA8E
100
AcDbEntity
  8
寸法
 62
     0
 48
50.0
370
    -2
100
AcDbLine
 10
5983.270745260076
 20
7609.919036112862
 30
0.0
 11
5983.270745260075
 21
5290.919036112862
 31
0.0
  0
MTEXT
  5
21871
330
1DA8E
100
AcDbEntity
  8
寸法
 62
     7
 48
50.0
100
AcDbMText
 10
5883.258934236453
 20
6412.919036112862
 30
0.0
 40
120.0
 41
0.0
 71
     5
 72
     1
  1
\A1;2319
  7
STYLE1
 11
0.0000000000000001
 21
1.0
 31
0.0
 73
     1
 44
1.0
1001
ACAD
1000
MTEXTBEGIN
1070
    73
1070
     1
1070
    44
1040
1.0
1070
    74
1070
     0
1000
MTEXTEND
  0
INSERT
  5
21872
330
1DA8E
100
AcDbEntity
  8
寸法
 62
     0
 48
50.0
370
    -2
100
AcDbBlockReference
  2
_DOTSMALL
 10
5983.270745260076
 20
7609.919036112862
 30
0.0
 41
100.0
 42
100.0
 43
100.0
 50
90.0
  0
INSERT
  5
21873
330
1DA8E
100
AcDbEntity
  8
寸法
 62
     0
 48
50.0
370
    -2
100
AcDbBlockReference
  2
_DOTSMALL
 10
5983.270745260075
 20
5290.919036112862
 30
0.0
 41
100.0
 42
100.0
 43
100.0
 50
270.0
  0
POINT
  5
21874
330
1DA8E
100
AcDbEntity
  8
DEFPOINTS
 62
     0
 48
50.0
100
AcDbPoint
 10
6552.213011273896
 20
7609.91903611286
 30
0.0
  0
POINT
  5
21875
330
1DA8E
100
AcDbEntity
  8
DEFPOINTS
 62
     0
 48
50.0
100
AcDbPoint
 10
6552.213011273905
 20
5290.919036112861
 30
0.0
  0
POINT
  5
21876
330
1DA8E
100
AcDbEntity
  8
DEFPOINTS
 62
     0
 48
50.0
100
AcDbPoint
 10
5983.270745260075
 20
5290.919036112862
 30
0.0
  0
ENDBLK
  5
1DA99
330
1DA8E
100
AcDbEntity
  8
0
 48
50.0
100
AcDbBlockEnd
  0
BLOCK
  5
1DAA3
330
1DA9A
100
AcDbEntity
  8
0
 48
50.0
100
AcDbBlockBegin
  2
*D8
 70
     1
 10
0.0
 20
0.0
 30
0.0
  3
*D8
  1

  0
LINE
  5
21865
330
1DA9A
100
AcDbEntity
  8
寸法
 62
     0
 48
50.0
370
    -2
100
AcDbLine
 10
6459.213011273894
 20
7732.919036112862
 30
0.0
 11
5677.777943122112
 21
7732.919036112864
 31
0.0
  0
LINE
  5
21866
330
1DA9A
100
AcDbEntity
  8
寸法
 62
     0
 48
50.0
370
    -2
100
AcDbLine
 10
6459.213011273897
 20
5092.91903611286
 30
0.0
 11
5677.77794312211
 21
5092.91903611286
 31
0.0
  0
LINE
  5
21867
330
1DA9A
100
AcDbEntity
  8
寸法
 62
     0
 48
50.0
370
    -2
100
AcDbLine
 10
5737.777943122111
 20
7732.919036112864
 30
0.0
 11
5737.777943122111
 21
5092.91903611286
 31
0.0
  0
MTEXT
  5
21868
330
1DA9A
100
AcDbEntity
  8
寸法
 62
     7
 48
50.0
100
AcDbMText
 10
5637.766132098488
 20
6412.919036112862
 30
0.0
 40
120.0
 41
0.0
 71
     5
 72
     1
  1
\A1;2640
  7
STYLE1
 11
0.0000000000000001
 21
1.0
 31
0.0
 73
     1
 44
1.0
1001
ACAD
1000
MTEXTBEGIN
1070
    73
1070
     1
1070
    44
1040
1.0
1070
    74
1070
     0
1000
MTEXTEND
  0
INSERT
  5
21869
330
1DA9A
100
AcDbEntity
  8
寸法
 62
     0
 48
50.0
370
    -2
100
AcDbBlockReference
  2
_DOTSMALL
 10
5737.777943122111
 20
7732.919036112864
 30
0.0
 41
100.0
 42
100.0
 43
100.0
 50
90.0
  0
INSERT
  5
2186A
330
1DA9A
100
AcDbEntity
  8
寸法
 62
     0
 48
50.0
370
    -2
100
AcDbBlockReference
  2
_DOTSMALL
 10
5737.777943122111
 20
5092.91903611286
 30
0.0
 41
100.0
 42
100.0
 43
100.0
 50
270.0
  0
POINT
  5
2186B
330
1DA9A
100
AcDbEntity
  8
DEFPOINTS
 62
     0
 48
50.0
100
AcDbPoint
 10
6479.213011273895
 20
7732.919036112862
 30
0.0
  0
POINT
  5
2186C
330
1DA9A
100
AcDbEntity
  8
DEFPOINTS
 62
     0
 48
50.0
100
AcDbPoint
 10
6479.213011273897
 20
5092.91903611286
 30
0.0
  0
POINT
  5
2186D
330
1DA9A
100
AcDbEntity
  8
DEFPOINTS
 62
     0
 48
50.0
100
AcDbPoint
 10
5737.777943122111
 20
5092.91903611286
 30
0.0
  0
ENDBLK
  5
1DAA4
330
1DA9A
100
AcDbEntity
  8
0
 48
50.0
100
AcDbBlockEnd
  0
BLOCK
  5
1DAB0
330
1DAA5
100
AcDbEntity
  8
0
 48
50.0
100
AcDbBlockBegin
  2
*D9
 70
     1
 10
0.0
 20
0.0
 30
0.0
  3
*D9
  1

  0
LINE
  5
2185B
330
1DAA5
100
AcDbEntity
  8
寸法
 62
     0
 48
50.0
370
    -2
100
AcDbLine
 10
6532.213011273904
 20
5290.919036112861
 30
0.0
 11
5923.270745260076
 21
5290.919036112862
 31
0.0
  0
LINE
  5
2185C
330
1DAA5
100
AcDbEntity
  8
寸法
 62
     0
 48
50.0
370
    -2
100
AcDbLine
 10
6459.213011273897
 20
5092.91903611286
 30
0.0
 11
5923.270745260076
 21
5092.91903611286
 31
0.0
  0
LINE
  5
2185D
330
1DAA5
100
AcDbEntity
  8
寸法
 62
     0
 48
50.0
370
    -2
100
AcDbLine
 10
5983.270745260075
 20
5290.919036112862
 30
0.0
 11
5983.270745260075
 21
5092.91903611286
 31
0.0
  0
LINE
  5
2185E
330
1DAA5
100
AcDbEntity
  8
寸法
 62
     0
 48
50.0
370
    -2
100
AcDbLine
 10
5983.270745260075
 20
4720.499716453547
 30
0.0
 11
5983.270745260075
 21
5092.91903611286
 31
0.0
  0
MTEXT
  5
2185F
330
1DAA5
100
AcDbEntity
  8
寸法
 62
     7
 48
50.0
100
AcDbMText
 10
5883.270745260074
 20
4856.709376283204
 30
0.0
 40
120.0
 41
0.0
 71
     5
 72
     1
  1
\A1;198
  7
STYLE1
 11
0.0000000000000001
 21
1.0
 31
0.0
 73
     1
 44
1.0
1001
ACAD
1000
MTEXTBEGIN
1070
    73
1070
     1
1070
    44
1040
1.0
1070
    74
1070
     0
1000
MTEXTEND
  0
INSERT
  5
21860
330
1DAA5
100
AcDbEntity
  8
寸法
 62
     0
 48
50.0
370
    -2
100
AcDbBlockReference
  2
_DOTSMALL
 10
5983.270745260075
 20
5290.919036112862
 30
0.0
 41
100.0
 42
100.0
 43
100.0
 50
90.0
  0
INSERT
  5
21861
330
1DAA5
100
AcDbEntity
  8
寸法
 62
     0
 48
50.0
370
    -2
100
AcDbBlockReference
  2
_DOTSMALL
 10
5983.270745260075
 20
5092.91903611286
 30
0.0
 41
100.0
 42
100.0
 43
100.0
 50
270.0
  0
POINT
  5
21862
330
1DAA5
100
AcDbEntity
  8
DEFPOINTS
 62
     0
 48
50.0
100
AcDbPoint
 10
6552.213011273905
 20
5290.919036112861
 30
0.0
  0
POINT
  5
21863
330
1DAA5
100
AcDbEntity
  8
DEFPOINTS
 62
     0
 48
50.0
100
AcDbPoint
 10
6479.213011273897
 20
5092.91903611286
 30
0.0
  0
POINT
  5
21864
330
1DAA5
100
AcDbEntity
  8
DEFPOINTS
 62
     0
 48
50.0
100
AcDbPoint
 10
5983.270745260075
 20
5092.91903611286
 30
0.0
  0
ENDBLK
  5
1DAB1
330
1DAA5
100
AcDbEntity
  8
0
 48
50.0
100
AcDbBlockEnd
  0
BLOCK
  5
1DABC
330
1DAB2
100
AcDbEntity
  8
0
 48
50.0
100
AcDbBlockBegin
  2
*D10
 70
     1
 10
0.0
 20
0.0
 30
0.0
  3
*D10
  1

  0
LINE
  5
21850
330
1DAB2
100
AcDbEntity
  8
寸法
 62
     0
 48
50.0
370
    -2
100
AcDbLine
 10
6459.213011273897
 20
5092.91903611286
 30
0.0
 11
5677.777943122109
 21
5092.91903611286
 31
0.0
  0
LINE
  5
21851
330
1DAB2
100
AcDbEntity
  8
寸法
 62
     0
 48
50.0
370
    -2
100
AcDbLine
 10
5963.270745260075
 20
5037.919036112859
 30
0.0
 11
5677.777943122109
 21
5037.919036112859
 31
0.0
  0
LINE
  5
21852
330
1DAB2
100
AcDbEntity
  8
寸法
 62
     0
 48
50.0
370
    -2
100
AcDbLine
 10
5737.777943122108
 20
5092.91903611286
 30
0.0
 11
5737.777943122108
 21
5192.91903611286
 31
0.0
  0
LINE
  5
21853
330
1DAB2
100
AcDbEntity
  8
寸法
 62
     0
 48
50.0
370
    -2
100
AcDbLine
 10
5737.777943122108
 20
5037.919036112859
 30
0.0
 11
5737.777943122108
 21
4937.919036112859
 31
0.0
  0
MTEXT
  5
21854
330
1DAB2
100
AcDbEntity
  8
寸法
 62
     7
 48
50.0
100
AcDbMText
 10
5637.777943122108
 20
5065.41903611286
 30
0.0
 40
120.0
 41
0.0
 71
     5
 72
     1
  1
\A1;b
  7
STYLE1
 11
0.0000000000000001
 21
1.0
 31
0.0
 73
     1
 44
1.0
1001
ACAD
1000
MTEXTBEGIN
1070
    73
1070
     1
1070
    44
1040
1.0
1070
    74
1070
     0
1000
MTEXTEND
  0
LINE
  5
21855
330
1DAB2
100
AcDbEntity
  8
寸法
 62
     0
 48
50.0
370
    -2
100
AcDbLine
 10
5737.777943122108
 20
5092.91903611286
 30
0.0
 11
5737.777943122108
 21
5037.919036112859
 31
0.0
  0
INSERT
  5
21856
330
1DAB2
100
AcDbEntity
  8
寸法
 62
     0
 48
50.0
370
    -2
100
AcDbBlockReference
  2
_DOTSMALL
 10
5737.777943122108
 20
5092.91903611286
 30
0.0
 41
100.0
 42
100.0
 43
100.0
 50
270.0
  0
INSERT
  5
21857
330
1DAB2
100
AcDbEntity
  8
寸法
 62
     0
 48
50.0
370
    -2
100
AcDbBlockReference
  2
_DOTSMALL
 10
5737.777943122108
 20
5037.919036112859
 30
0.0
 41
100.0
 42
100.0
 43
100.0
 50
90.0
  0
POINT
  5
21858
330
1DAB2
100
AcDbEntity
  8
DEFPOINTS
 62
     0
 48
50.0
100
AcDbPoint
 10
6479.213011273897
 20
5092.91903611286
 30
0.0
  0
POINT
  5
21859
330
1DAB2
100
AcDbEntity
  8
DEFPOINTS
 62
     0
 48
50.0
100
AcDbPoint
 10
5983.270745260075
 20
5037.919036112859
 30
0.0
  0
POINT
  5
2185A
330
1DAB2
100
AcDbEntity
  8
DEFPOINTS
 62
     0
 48
50.0
100
AcDbPoint
 10
5737.777943122108
 20
5037.919036112859
 30
0.0
  0
ENDBLK
  5
1DABD
330
1DAB2
100
AcDbEntity
  8
0
 48
50.0
100
AcDbBlockEnd
  0
BLOCK
  5
1DAC9
330
1DABE
100
AcDbEntity
  8
0
 48
50.0
100
AcDbBlockBegin
  2
*D11
 70
     1
 10
0.0
 20
0.0
 30
0.0
  3
*D11
  1

  0
LINE
  5
21847
330
1DABE
100
AcDbEntity
  8
寸法
 62
     0
 48
50.0
370
    -2
100
AcDbLine
 10
6459.213011273895
 20
7732.919036112861
 30
0.0
 11
5923.270745260074
 21
7732.919036112861
 31
0.0
  0
LINE
  5
21848
330
1DABE
100
AcDbEntity
  8
寸法
 62
     0
 48
50.0
370
    -2
100
AcDbLine
 10
6532.213011273896
 20
7609.91903611286
 30
0.0
 11
5923.270745260074
 21
7609.919036112862
 31
0.0
  0
LINE
  5
21849
330
1DABE
100
AcDbEntity
  8
寸法
 62
     0
 48
50.0
370
    -2
100
AcDbLine
 10
5983.270745260075
 20
7732.919036112861
 30
0.0
 11
5983.270745260075
 21
7609.919036112862
 31
0.0
  0
MTEXT
  5
2184A
330
1DABE
100
AcDbEntity
  8
寸法
 62
     7
 48
50.0
100
AcDbMText
 10
5883.258934236452
 20
7971.404317487101
 30
0.0
 40
120.0
 41
0.0
 71
     5
 72
     1
  1
\A1;123
  7
STYLE1
 11
0.0000000000000001
 21
1.0
 31
0.0
 73
     1
 44
1.0
1001
ACAD
1000
MTEXTBEGIN
1070
    73
1070
     1
1070
    44
1040
1.0
1070
    74
1070
     0
1000
MTEXTEND
  0
INSERT
  5
2184B
330
1DABE
100
AcDbEntity
  8
寸法
 62
     0
 48
50.0
370
    -2
100
AcDbBlockReference
  2
_DOTSMALL
 10
5983.270745260075
 20
7732.919036112861
 30
0.0
 41
100.0
 42
100.0
 43
100.0
 50
90.0
  0
INSERT
  5
2184C
330
1DABE
100
AcDbEntity
  8
寸法
 62
     0
 48
50.0
370
    -2
100
AcDbBlockReference
  2
_DOTSMALL
 10
5983.270745260075
 20
7609.919036112862
 30
0.0
 41
100.0
 42
100.0
 43
100.0
 50
270.0
  0
POINT
  5
2184D
330
1DABE
100
AcDbEntity
  8
DEFPOINTS
 62
     0
 48
50.0
100
AcDbPoint
 10
6479.213011273896
 20
7732.919036112861
 30
0.0
  0
POINT
  5
2184E
330
1DABE
100
AcDbEntity
  8
DEFPOINTS
 62
     0
 48
50.0
100
AcDbPoint
 10
6552.213011273896
 20
7609.91903611286
 30
0.0
  0
POINT
  5
2184F
330
1DABE
100
AcDbEntity
  8
DEFPOINTS
 62
     0
 48
50.0
100
AcDbPoint
 10
5983.270745260075
 20
7609.919036112862
 30
0.0
  0
ENDBLK
  5
1DACA
330
1DABE
100
AcDbEntity
  8
0
 48
50.0
100
AcDbBlockEnd
  0
BLOCK
  5
1DAD7
330
1DACB
100
AcDbEntity
  8
0
 48
50.0
100
AcDbBlockBegin
  2
*D12
 70
     1
 10
0.0
 20
0.0
 30
0.0
  3
*D12
  1

  0
LINE
  5
2183C
330
1DACB
100
AcDbEntity
  8
寸法
 62
     0
 48
50.0
370
    -2
100
AcDbLine
 10
5963.270745260075
 20
7807.919036112861
 30
0.0
 11
5677.777943122107
 21
7807.919036112861
 31
0.0
  0
LINE
  5
2183D
330
1DACB
100
AcDbEntity
  8
寸法
 62
     0
 48
50.0
370
    -2
100
AcDbLine
 10
6459.213011273895
 20
7732.919036112861
 30
0.0
 11
5677.777943122107
 21
7732.919036112861
 31
0.0
  0
LINE
  5
2183E
330
1DACB
100
AcDbEntity
  8
寸法
 62
     0
 48
50.0
370
    -2
100
AcDbLine
 10
5737.777943122107
 20
7807.919036112861
 30
0.0
 11
5737.777943122107
 21
7907.919036112861
 31
0.0
  0
LINE
  5
2183F
330
1DACB
100
AcDbEntity
  8
寸法
 62
     0
 48
50.0
370
    -2
100
AcDbLine
 10
5737.777943122107
 20
7732.919036112861
 30
0.0
 11
5737.777943122107
 21
7632.919036112861
 31
0.0
  0
MTEXT
  5
21840
330
1DACB
100
AcDbEntity
  8
寸法
 62
     7
 48
50.0
100
AcDbMText
 10
5637.777943122106
 20
7770.419036112862
 30
0.0
 40
120.0
 41
0.0
 71
     5
 72
     1
  1
\A1;c
  7
STYLE1
 11
0.0000000000000001
 21
1.0
 31
0.0
 73
     1
 44
1.0
1001
ACAD
1000
MTEXTBEGIN
1070
    73
1070
     1
1070
    44
1040
1.0
1070
    74
1070
     0
1000
MTEXTEND
  0
LINE
  5
21841
330
1DACB
100
AcDbEntity
  8
寸法
 62
     0
 48
50.0
370
    -2
100
AcDbLine
 10
5737.777943122107
 20
7807.919036112861
 30
0.0
 11
5737.777943122107
 21
7732.919036112861
 31
0.0
  0
INSERT
  5
21842
330
1DACB
100
AcDbEntity
  8
寸法
 62
     0
 48
50.0
370
    -2
100
AcDbBlockReference
  2
_DOTSMALL
 10
5737.777943122107
 20
7807.919036112861
 30
0.0
 41
100.0
 42
100.0
 43
100.0
 50
270.0
  0
INSERT
  5
21843
330
1DACB
100
AcDbEntity
  8
寸法
 62
     0
 48
50.0
370
    -2
100
AcDbBlockReference
  2
_DOTSMALL
 10
5737.777943122107
 20
7732.919036112861
 30
0.0
 41
100.0
 42
100.0
 43
100.0
 50
90.0
  0
POINT
  5
21844
330
1DACB
100
AcDbEntity
  8
DEFPOINTS
 62
     0
 48
50.0
100
AcDbPoint
 10
5983.270745260075
 20
7807.919036112861
 30
0.0
  0
POINT
  5
21845
330
1DACB
100
AcDbEntity
  8
DEFPOINTS
 62
     0
 48
50.0
100
AcDbPoint
 10
6479.213011273896
 20
7732.919036112861
 30
0.0
  0
POINT
  5
21846
330
1DACB
100
AcDbEntity
  8
DEFPOINTS
 62
     0
 48
50.0
100
AcDbPoint
 10
5737.777943122107
 20
7732.919036112861
 30
0.0
  0
ENDBLK
  5
1DAD8
330
1DACB
100
AcDbEntity
  8
0
 48
50.0
100
AcDbBlockEnd
  0
BLOCK
  5
1DAE4
330
1DAD9
100
AcDbEntity
  8
0
 48
50.0
100
AcDbBlockBegin
  2
*D13
 70
     1
 10
0.0
 20
0.0
 30
0.0
  3
*D13
  1

  0
LINE
  5
21833
330
1DAD9
100
AcDbEntity
  8
寸法
 62
     0
 48
50.0
370
    -2
100
AcDbLine
 10
9539.213011273897
 20
7752.919036112861
 30
0.0
 11
9539.213011273897
 21
8546.250847072711
 31
0.0
  0
LINE
  5
21834
330
1DAD9
100
AcDbEntity
  8
寸法
 62
     0
 48
50.0
370
    -2
100
AcDbLine
 10
9416.213011273896
 20
7679.919036112861
 30
0.0
 11
9416.213011273896
 21
8546.250847072711
 31
0.0
  0
LINE
  5
21835
330
1DAD9
100
AcDbEntity
  8
寸法
 62
     0
 48
50.0
370
    -2
100
AcDbLine
 10
9539.213011273897
 20
8486.250847072712
 30
0.0
 11
9416.213011273896
 21
8486.250847072712
 31
0.0
  0
MTEXT
  5
21836
330
1DAD9
100
AcDbEntity
  8
寸法
 62
     7
 48
50.0
100
AcDbMText
 10
9777.698292648134
 20
8586.262658096334
 30
0.0
 40
120.0
 41
0.0
 71
     5
 72
     1
  1
\A1;123
  7
STYLE1
 73
     1
 44
1.0
1001
ACAD
1000
MTEXTBEGIN
1070
    73
1070
     1
1070
    44
1040
1.0
1070
    74
1070
     0
1000
MTEXTEND
  0
INSERT
  5
21837
330
1DAD9
100
AcDbEntity
  8
寸法
 62
     0
 48
50.0
370
    -2
100
AcDbBlockReference
  2
_DOTSMALL
 10
9539.213011273897
 20
8486.250847072712
 30
0.0
 41
100.0
 42
100.0
 43
100.0
  0
INSERT
  5
21838
330
1DAD9
100
AcDbEntity
  8
寸法
 62
     0
 48
50.0
370
    -2
100
AcDbBlockReference
  2
_DOTSMALL
 10
9416.213011273896
 20
8486.250847072712
 30
0.0
 41
100.0
 42
100.0
 43
100.0
 50
180.0
  0
POINT
  5
21839
330
1DAD9
100
AcDbEntity
  8
DEFPOINTS
 62
     0
 48
50.0
100
AcDbPoint
 10
9539.213011273897
 20
7732.919036112861
 30
0.0
  0
POINT
  5
2183A
330
1DAD9
100
AcDbEntity
  8
DEFPOINTS
 62
     0
 48
50.0
100
AcDbPoint
 10
9416.213011273896
 20
7659.91903611286
 30
0.0
  0
POINT
  5
2183B
330
1DAD9
100
AcDbEntity
  8
DEFPOINTS
 62
     0
 48
50.0
100
AcDbPoint
 10
9416.213011273896
 20
8486.250847072712
 30
0.0
  0
ENDBLK
  5
1DAE5
330
1DAD9
100
AcDbEntity
  8
0
 48
50.0
100
AcDbBlockEnd
  0
BLOCK
  5
1DAF1
330
1DAE6
100
AcDbEntity
  8
0
 48
50.0
100
AcDbBlockBegin
  2
*D14
 70
     1
 10
0.0
 20
0.0
 30
0.0
  3
*D14
  1

  0
LINE
  5
21828
330
1DAE6
100
AcDbEntity
  8
寸法
 62
     0
 48
50.0
370
    -2
100
AcDbLine
 10
9539.213011273897
 20
7901.190236682781
 30
0.0
 11
9539.213011273897
 21
8758.711542589548
 31
0.0
  0
LINE
  5
21829
330
1DAE6
100
AcDbEntity
  8
寸法
 62
     0
 48
50.0
370
    -2
100
AcDbLine
 10
9584.213011273895
 20
8506.250847072712
 30
0.0
 11
9584.213011273895
 21
8758.711542589548
 31
0.0
  0
LINE
  5
2182A
330
1DAE6
100
AcDbEntity
  8
寸法
 62
     0
 48
50.0
370
    -2
100
AcDbLine
 10
9539.213011273897
 20
8698.711542589547
 30
0.0
 11
9439.213011273897
 21
8698.711542589547
 31
0.0
  0
LINE
  5
2182B
330
1DAE6
100
AcDbEntity
  8
寸法
 62
     0
 48
50.0
370
    -2
100
AcDbLine
 10
9584.213011273895
 20
8698.711542589547
 30
0.0
 11
9684.213011273897
 21
8698.711542589547
 31
0.0
  0
MTEXT
  5
2182C
330
1DAE6
100
AcDbEntity
  8
寸法
 62
     7
 48
50.0
100
AcDbMText
 10
9561.713011273896
 20
8798.711542589549
 30
0.0
 40
120.0
 41
0.0
 71
     5
 72
     1
  1
\A1;a
  7
STYLE1
 73
     1
 44
1.0
1001
ACAD
1000
MTEXTBEGIN
1070
    73
1070
     1
1070
    44
1040
1.0
1070
    74
1070
     0
1000
MTEXTEND
  0
LINE
  5
2182D
330
1DAE6
100
AcDbEntity
  8
寸法
 62
     0
 48
50.0
370
    -2
100
AcDbLine
 10
9539.213011273897
 20
8698.711542589547
 30
0.0
 11
9584.213011273895
 21
8698.711542589547
 31
0.0
  0
INSERT
  5
2182E
330
1DAE6
100
AcDbEntity
  8
寸法
 62
     0
 48
50.0
370
    -2
100
AcDbBlockReference
  2
_DOTSMALL
 10
9539.213011273897
 20
8698.711542589547
 30
0.0
 41
100.0
 42
100.0
 43
100.0
  0
INSERT
  5
2182F
330
1DAE6
100
AcDbEntity
  8
寸法
 62
     0
 48
50.0
370
    -2
100
AcDbBlockReference
  2
_DOTSMALL
 10
9584.213011273895
 20
8698.711542589547
 30
0.0
 41
100.0
 42
100.0
 43
100.0
 50
180.0
  0
POINT
  5
21830
330
1DAE6
100
AcDbEntity
  8
DEFPOINTS
 62
     0
 48
50.0
100
AcDbPoint
 10
9539.213011273897
 20
7881.190236682782
 30
0.0
  0
POINT
  5
21831
330
1DAE6
100
AcDbEntity
  8
DEFPOINTS
 62
     0
 48
50.0
100
AcDbPoint
 10
9584.213011273895
 20
8486.250847072712
 30
0.0
  0
POINT
  5
21832
330
1DAE6
100
AcDbEntity
  8
DEFPOINTS
 62
     0
 48
50.0
100
AcDbPoint
 10
9584.213011273895
 20
8698.711542589547
 30
0.0
  0
ENDBLK
  5
1DAF2
330
1DAE6
100
AcDbEntity
  8
0
 48
50.0
100
AcDbBlockEnd
  0
BLOCK
  5
1DAFE
330
1DAF3
100
AcDbEntity
  8
0
 48
50.0
100
AcDbBlockBegin
  2
*D15
 70
     1
 10
0.0
 20
0.0
 30
0.0
  3
*D15
  1

  0
LINE
  5
2181E
330
1DAF3
100
AcDbEntity
  8
寸法
 62
     0
 48
50.0
370
    -2
100
AcDbLine
 10
9539.213011273897
 20
7022.91903611287
 30
0.0
 11
9539.213011273897
 21
6924.422404093454
 31
0.0
  0
LINE
  5
2181F
330
1DAF3
100
AcDbEntity
  8
寸法
 62
     0
 48
50.0
370
    -2
100
AcDbLine
 10
9419.213011273894
 20
7049.528470221973
 30
0.0
 11
9419.213011273894
 21
6924.422404093454
 31
0.0
  0
LINE
  5
21820
330
1DAF3
100
AcDbEntity
  8
寸法
 62
     0
 48
50.0
370
    -2
100
AcDbLine
 10
9539.213011273897
 20
6984.422404093454
 30
0.0
 11
9419.213011273894
 21
6984.422404093454
 31
0.0
  0
LINE
  5
21821
330
1DAF3
100
AcDbEntity
  8
寸法
 62
     0
 48
50.0
370
    -2
100
AcDbLine
 10
9911.307499462873
 20
6984.422404093454
 30
0.0
 11
9539.213011273897
 21
6984.422404093454
 31
0.0
  0
MTEXT
  5
21822
330
1DAF3
100
AcDbEntity
  8
寸法
 62
     7
 48
50.0
100
AcDbMText
 10
9775.260255368385
 20
7084.434215117075
 30
0.0
 40
120.0
 41
0.0
 71
     5
 72
     1
  1
\A1;120
  7
STYLE1
 73
     1
 44
1.0
1001
ACAD
1000
MTEXTBEGIN
1070
    73
1070
     1
1070
    44
1040
1.0
1070
    74
1070
     0
1000
MTEXTEND
  0
INSERT
  5
21823
330
1DAF3
100
AcDbEntity
  8
寸法
 62
     0
 48
50.0
370
    -2
100
AcDbBlockReference
  2
_DOTSMALL
 10
9539.213011273897
 20
6984.422404093454
 30
0.0
 41
100.0
 42
100.0
 43
100.0
  0
INSERT
  5
21824
330
1DAF3
100
AcDbEntity
  8
寸法
 62
     0
 48
50.0
370
    -2
100
AcDbBlockReference
  2
_DOTSMALL
 10
9419.213011273894
 20
6984.422404093454
 30
0.0
 41
100.0
 42
100.0
 43
100.0
 50
180.0
  0
POINT
  5
21825
330
1DAF3
100
AcDbEntity
  8
DEFPOINTS
 62
     0
 48
50.0
100
AcDbPoint
 10
9539.213011273897
 20
7042.919036112869
 30
0.0
  0
POINT
  5
21826
330
1DAF3
100
AcDbEntity
  8
DEFPOINTS
 62
     0
 48
50.0
100
AcDbPoint
 10
9419.213011273894
 20
7069.528470221974
 30
0.0
  0
POINT
  5
21827
330
1DAF3
100
AcDbEntity
  8
DEFPOINTS
 62
     0
 48
50.0
100
AcDbPoint
 10
9419.213011273894
 20
6984.422404093454
 30
0.0
  0
ENDBLK
  5
1DAFF
330
1DAF3
100
AcDbEntity
  8
0
 48
50.0
100
AcDbBlockEnd
  0
BLOCK
  5
1DB0B
330
1DB00
100
AcDbEntity
  8
0
 48
50.0
100
AcDbBlockBegin
  2
*D16
 70
     1
 10
0.0
 20
0.0
 30
0.0
  3
*D16
  1

  0
LINE
  5
21814
330
1DB00
100
AcDbEntity
  8
寸法
 62
     0
 48
50.0
370
    -2
100
AcDbLine
 10
6729.213011273896
 20
7612.91903611286
 30
0.0
 11
6999.72319518692
 21
7612.91903611286
 31
0.0
  0
LINE
  5
21815
330
1DB00
100
AcDbEntity
  8
寸法
 62
     0
 48
50.0
370
    -2
100
AcDbLine
 10
6729.213011273896
 20
7502.919036112857
 30
0.0
 11
6999.72319518692
 21
7502.919036112857
 31
0.0
  0
LINE
  5
21816
330
1DB00
100
AcDbEntity
  8
寸法
 62
     0
 48
50.0
370
    -2
100
AcDbLine
 10
6939.72319518692
 20
7612.91903611286
 30
0.0
 11
6939.72319518692
 21
7502.919036112857
 31
0.0
  0
LINE
  5
21817
330
1DB00
100
AcDbEntity
  8
寸法
 62
     0
 48
50.0
370
    -2
100
AcDbLine
 10
6939.72319518692
 20
7140.551083440442
 30
0.0
 11
6939.72319518692
 21
7502.919036112857
 31
0.0
  0
MTEXT
  5
21818
330
1DB00
100
AcDbEntity
  8
寸法
 62
     7
 48
50.0
100
AcDbMText
 10
6839.723195186919
 20
7264.598327534932
 30
0.0
 40
120.0
 41
0.0
 71
     5
 72
     1
  1
\A1;110
  7
STYLE1
 11
0.0000000000000001
 21
1.0
 31
0.0
 73
     1
 44
1.0
1001
ACAD
1000
MTEXTBEGIN
1070
    73
1070
     1
1070
    44
1040
1.0
1070
    74
1070
     0
1000
MTEXTEND
  0
INSERT
  5
21819
330
1DB00
100
AcDbEntity
  8
寸法
 62
     0
 48
50.0
370
    -2
100
AcDbBlockReference
  2
_DOTSMALL
 10
6939.72319518692
 20
7612.91903611286
 30
0.0
 41
100.0
 42
100.0
 43
100.0
 50
90.0
  0
INSERT
  5
2181A
330
1DB00
100
AcDbEntity
  8
寸法
 62
     0
 48
50.0
370
    -2
100
AcDbBlockReference
  2
_DOTSMALL
 10
6939.72319518692
 20
7502.919036112857
 30
0.0
 41
100.0
 42
100.0
 43
100.0
 50
270.0
  0
POINT
  5
2181B
330
1DB00
100
AcDbEntity
  8
DEFPOINTS
 62
     0
 48
50.0
100
AcDbPoint
 10
6709.213011273895
 20
7612.91903611286
 30
0.0
  0
POINT
  5
2181C
330
1DB00
100
AcDbEntity
  8
DEFPOINTS
 62
     0
 48
50.0
100
AcDbPoint
 10
6709.213011273895
 20
7502.919036112857
 30
0.0
  0
POINT
  5
2181D
330
1DB00
100
AcDbEntity
  8
DEFPOINTS
 62
     0
 48
50.0
100
AcDbPoint
 10
6939.72319518692
 20
7502.919036112857
 30
0.0
  0
ENDBLK
  5
1DB0C
330
1DB00
100
AcDbEntity
  8
0
 48
50.0
100
AcDbBlockEnd
  0
BLOCK
  5
1DB25
330
1DB1A
100
AcDbEntity
  8
0
 48
50.0
100
AcDbBlockBegin
  2
*D17
 70
     1
 10
0.0
 20
0.0
 30
0.0
  3
*D17
  1

  0
LINE
  5
2180A
330
1DB1A
100
AcDbEntity
  8
寸法
 62
     0
 48
50.0
370
    -2
100
AcDbLine
 10
6701.213011273896
 20
7732.919036112858
 30
0.0
 11
6999.72319518692
 21
7732.919036112858
 31
0.0
  0
LINE
  5
2180B
330
1DB1A
100
AcDbEntity
  8
寸法
 62
     0
 48
50.0
370
    -2
100
AcDbLine
 10
6729.213011273896
 20
7612.91903611286
 30
0.0
 11
6999.72319518692
 21
7612.91903611286
 31
0.0
  0
LINE
  5
2180C
330
1DB1A
100
AcDbEntity
  8
寸法
 62
     0
 48
50.0
370
    -2
100
AcDbLine
 10
6939.723195186918
 20
7732.919036112858
 30
0.0
 11
6939.723195186918
 21
7612.91903611286
 31
0.0
  0
LINE
  5
2180D
330
1DB1A
100
AcDbEntity
  8
寸法
 62
     0
 48
50.0
370
    -2
100
AcDbLine
 10
6939.723195186918
 20
8105.013524301837
 30
0.0
 11
6939.723195186918
 21
7732.919036112858
 31
0.0
  0
MTEXT
  5
2180E
330
1DB1A
100
AcDbEntity
  8
寸法
 62
     7
 48
50.0
100
AcDbMText
 10
6839.711384163296
 20
7968.96628020735
 30
0.0
 40
120.0
 41
0.0
 71
     5
 72
     1
  1
\A1;120
  7
STYLE1
 11
0.0000000000000001
 21
1.0
 31
0.0
 73
     1
 44
1.0
1001
ACAD
1000
MTEXTBEGIN
1070
    73
1070
     1
1070
    44
1040
1.0
1070
    74
1070
     0
1000
MTEXTEND
  0
INSERT
  5
2180F
330
1DB1A
100
AcDbEntity
  8
寸法
 62
     0
 48
50.0
370
    -2
100
AcDbBlockReference
  2
_DOTSMALL
 10
6939.723195186918
 20
7732.919036112858
 30
0.0
 41
100.0
 42
100.0
 43
100.0
 50
90.0
  0
INSERT
  5
21810
330
1DB1A
100
AcDbEntity
  8
寸法
 62
     0
 48
50.0
370
    -2
100
AcDbBlockReference
  2
_DOTSMALL
 10
6939.723195186918
 20
7612.91903611286
 30
0.0
 41
100.0
 42
100.0
 43
100.0
 50
270.0
  0
POINT
  5
21811
330
1DB1A
100
AcDbEntity
  8
DEFPOINTS
 62
     0
 48
50.0
100
AcDbPoint
 10
6681.213011273896
 20
7732.919036112858
 30
0.0
  0
POINT
  5
21812
330
1DB1A
100
AcDbEntity
  8
DEFPOINTS
 62
     0
 48
50.0
100
AcDbPoint
 10
6709.213011273895
 20
7612.91903611286
 30
0.0
  0
POINT
  5
21813
330
1DB1A
100
AcDbEntity
  8
DEFPOINTS
 62
     0
 48
50.0
100
AcDbPoint
 10
6939.723195186918
 20
7612.91903611286
 30
0.0
  0
ENDBLK
  5
1DB26
330
1DB1A
100
AcDbEntity
  8
0
 48
50.0
100
AcDbBlockEnd
  0
BLOCK
  5
1E9D9
330
1E9D0
100
AcDbEntity
  8
0
 48
50.0
100
AcDbBlockBegin
  2
*D18
 70
     1
 10
0.0
 20
0.0
 30
0.0
  3
*D18
  1

  0
LINE
  5
21801
330
1E9D0
100
AcDbEntity
  8
寸法
 62
     0
 48
50.0
370
    -2
100
AcDbLine
 10
8805.713011273898
 20
6857.919036112868
 30
0.0
 11
8991.087028824596
 21
6857.919036112868
 31
0.0
  0
LINE
  5
21802
330
1E9D0
100
AcDbEntity
  8
寸法
 62
     0
 48
50.0
370
    -2
100
AcDbLine
 10
8896.713011273908
 20
7732.919036112862
 30
0.0
 11
8991.087028824596
 21
7732.919036112862
 31
0.0
  0
LINE
  5
21803
330
1E9D0
100
AcDbEntity
  8
寸法
 62
     0
 48
50.0
370
    -2
100
AcDbLine
 10
8931.087028824595
 20
6857.919036112868
 30
0.0
 11
8931.087028824595
 21
7732.919036112862
 31
0.0
  0
INSERT
  5
21804
330
1E9D0
100
AcDbEntity
  8
寸法
 62
     0
 48
50.0
370
    -2
100
AcDbBlockReference
  2
_DOTSMALL
 10
8931.087028824595
 20
6857.919036112868
 30
0.0
 41
100.0
 42
100.0
 43
100.0
 50
270.0
  0
INSERT
  5
21805
330
1E9D0
100
AcDbEntity
  8
寸法
 62
     0
 48
50.0
370
    -2
100
AcDbBlockReference
  2
_DOTSMALL
 10
8931.087028824595
 20
7732.919036112862
 30
0.0
 41
100.0
 42
100.0
 43
100.0
 50
90.0
  0
MTEXT
  5
21806
330
1E9D0
100
AcDbEntity
  8
寸法
 62
     7
 48
50.0
100
AcDbMText
 10
8831.087028824594
 20
7295.419036112867
 30
0.0
 40
120.0
 41
0.0
 71
     5
 72
     1
  1
\A1;875
  7
STYLE1
 11
0.0000000000000001
 21
1.0
 31
0.0
 73
     1
 44
1.0
1001
ACAD
1000
MTEXTBEGIN
1070
    73
1070
     1
1070
    44
1040
1.0
1070
    74
1070
     0
1000
MTEXTEND
  0
POINT
  5
21807
330
1E9D0
100
AcDbEntity
  8
DEFPOINTS
 62
     0
 48
50.0
100
AcDbPoint
 10
8785.713011273898
 20
6857.919036112868
 30
0.0
  0
POINT
  5
21808
330
1E9D0
100
AcDbEntity
  8
DEFPOINTS
 62
     0
 48
50.0
100
AcDbPoint
 10
8876.713011273906
 20
7732.919036112862
 30
0.0
  0
POINT
  5
21809
330
1E9D0
100
AcDbEntity
  8
DEFPOINTS
 62
     0
 48
50.0
100
AcDbPoint
 10
8931.087028824595
 20
7732.919036112862
 30
0.0
  0
ENDBLK
  5
1E9DA
330
1E9D0
100
AcDbEntity
  8
0
 48
50.0
100
AcDbBlockEnd
  0
BLOCK
  5
1EA3C
330
1EA32
100
AcDbEntity
  8
0
 48
50.0
100
AcDbBlockBegin
  2
*D19
 70
     1
 10
0.0
 20
0.0
 30
0.0
  3
*D19
  1

  0
LINE
  5
217F8
330
1EA32
100
AcDbEntity
  8
寸法
 62
     0
 48
50.0
370
    -2
100
AcDbLine
 10
8896.713011273908
 20
5092.919036112869
 30
0.0
 11
8991.087028824606
 21
5092.919036112869
 31
0.0
  0
LINE
  5
217F9
330
1EA32
100
AcDbEntity
  8
寸法
 62
     0
 48
50.0
370
    -2
100
AcDbLine
 10
8805.713011273898
 20
5967.919036112861
 30
0.0
 11
8991.087028824606
 21
5967.919036112861
 31
0.0
  0
LINE
  5
217FA
330
1EA32
100
AcDbEntity
  8
寸法
 62
     0
 48
50.0
370
    -2
100
AcDbLine
 10
8931.087028824606
 20
5092.919036112869
 30
0.0
 11
8931.087028824606
 21
5967.919036112861
 31
0.0
  0
MTEXT
  5
217FB
330
1EA32
100
AcDbEntity
  8
寸法
 62
     7
 48
50.0
100
AcDbMText
 10
8837.557571339553
 20
5474.500182931485
 30
0.0
 40
120.0
 41
0.0
 71
     5
 72
     1
  1
\A1;875
  7
STYLE1
 11
0.0000000000000001
 21
1.0
 31
0.0
 73
     1
 44
1.0
1001
ACAD
1000
MTEXTBEGIN
1070
    73
1070
     1
1070
    44
1040
1.0
1070
    74
1070
     0
1000
MTEXTEND
  0
INSERT
  5
217FC
330
1EA32
100
AcDbEntity
  8
寸法
 62
     0
 48
50.0
370
    -2
100
AcDbBlockReference
  2
_DOTSMALL
 10
8931.087028824606
 20
5092.919036112869
 30
0.0
 41
100.0
 42
100.0
 43
100.0
 50
270.0
  0
INSERT
  5
217FD
330
1EA32
100
AcDbEntity
  8
寸法
 62
     0
 48
50.0
370
    -2
100
AcDbBlockReference
  2
_DOTSMALL
 10
8931.087028824606
 20
5967.919036112861
 30
0.0
 41
100.0
 42
100.0
 43
100.0
 50
90.0
  0
POINT
  5
217FE
330
1EA32
100
AcDbEntity
  8
DEFPOINTS
 62
     0
 48
50.0
100
AcDbPoint
 10
8876.713011273906
 20
5092.919036112869
 30
0.0
  0
POINT
  5
217FF
330
1EA32
100
AcDbEntity
  8
DEFPOINTS
 62
     0
 48
50.0
100
AcDbPoint
 10
8785.713011273898
 20
5967.919036112861
 30
0.0
  0
POINT
  5
21800
330
1EA32
100
AcDbEntity
  8
DEFPOINTS
 62
     0
 48
50.0
100
AcDbPoint
 10
8931.087028824606
 20
5967.919036112861
 30
0.0
  0
ENDBLK
  5
1EA3D
330
1EA32
100
AcDbEntity
  8
0
 48
50.0
100
AcDbBlockEnd
  0
BLOCK
  5
1F253
330
1F24A
100
AcDbEntity
  8
0
 48
50.0
100
AcDbBlockBegin
  2
*D20
 70
     1
 10
0.0
 20
0.0
 30
0.0
  3
*D20
  1

  0
LINE
  5
217E6
330
1F24A
100
AcDbEntity
  8
寸法
 62
     0
 48
50.0
370
    -2
100
AcDbLine
 10
7282.213011273896
 20
7077.91903611287
 30
0.0
 11
7282.213011273896
 21
8319.82880176119
 31
0.0
  0
LINE
  5
217E7
330
1F24A
100
AcDbEntity
  8
寸法
 62
     0
 48
50.0
370
    -2
100
AcDbLine
 10
6479.213011273895
 20
7752.919036112863
 30
0.0
 11
6479.213011273895
 21
8319.82880176119
 31
0.0
  0
LINE
  5
217E8
330
1F24A
100
AcDbEntity
  8
寸法
 62
     0
 48
50.0
370
    -2
100
AcDbLine
 10
7282.213011273896
 20
8259.828801761191
 30
0.0
 11
6479.213011273895
 21
8259.828801761191
 31
0.0
  0
INSERT
  5
217E9
330
1F24A
100
AcDbEntity
  8
寸法
 62
     0
 48
50.0
370
    -2
100
AcDbBlockReference
  2
_DOTSMALL
 10
7282.213011273896
 20
8259.828801761191
 30
0.0
 41
100.0
 42
100.0
 43
100.0
  0
INSERT
  5
217EA
330
1F24A
100
AcDbEntity
  8
寸法
 62
     0
 48
50.0
370
    -2
100
AcDbBlockReference
  2
_DOTSMALL
 10
6479.213011273895
 20
8259.828801761191
 30
0.0
 41
100.0
 42
100.0
 43
100.0
 50
180.0
  0
MTEXT
  5
217EB
330
1F24A
100
AcDbEntity
  8
寸法
 62
     7
 48
50.0
100
AcDbMText
 10
6880.713011273894
 20
8359.828801761191
 30
0.0
 40
120.0
 41
0.0
 71
     5
 72
     1
  1
\A1;803
  7
STYLE1
 73
     1
 44
1.0
1001
ACAD
1000
MTEXTBEGIN
1070
    73
1070
     1
1070
    44
1040
1.0
1070
    74
1070
     0
1000
MTEXTEND
  0
POINT
  5
217EC
330
1F24A
100
AcDbEntity
  8
DEFPOINTS
 62
     0
 48
50.0
100
AcDbPoint
 10
7282.213011273896
 20
7057.91903611287
 30
0.0
  0
POINT
  5
217ED
330
1F24A
100
AcDbEntity
  8
DEFPOINTS
 62
     0
 48
50.0
100
AcDbPoint
 10
6479.213011273895
 20
7732.919036112862
 30
0.0
  0
POINT
  5
217EE
330
1F24A
100
AcDbEntity
  8
DEFPOINTS
 62
     0
 48
50.0
100
AcDbPoint
 10
6479.213011273895
 20
8259.828801761191
 30
0.0
  0
ENDBLK
  5
1F254
330
1F24A
100
AcDbEntity
  8
0
 48
50.0
100
AcDbBlockEnd
  0
BLOCK
  5
1F25F
330
1F255
100
AcDbEntity
  8
0
 48
50.0
100
AcDbBlockBegin
  2
*D21
 70
     1
 10
0.0
 20
0.0
 30
0.0
  3
*D21
  1

  0
LINE
  5
217EF
330
1F255
100
AcDbEntity
  8
寸法
 62
     0
 48
50.0
370
    -2
100
AcDbLine
 10
9539.213011273892
 20
7752.919036112863
 30
0.0
 11
9539.213011273892
 21
8319.82880176119
 31
0.0
  0
LINE
  5
217F0
330
1F255
100
AcDbEntity
  8
寸法
 62
     0
 48
50.0
370
    -2
100
AcDbLine
 10
8736.213011273896
 20
7077.919036112868
 30
0.0
 11
8736.213011273896
 21
8319.82880176119
 31
0.0
  0
LINE
  5
217F1
330
1F255
100
AcDbEntity
  8
寸法
 62
     0
 48
50.0
370
    -2
100
AcDbLine
 10
9539.213011273892
 20
8259.828801761191
 30
0.0
 11
8736.213011273896
 21
8259.828801761191
 31
0.0
  0
MTEXT
  5
217F2
330
1F255
100
AcDbEntity
  8
寸法
 62
     7
 48
50.0
100
AcDbMText
 10
9115.983146456347
 20
8358.090767068199
 30
0.0
 40
120.0
 41
0.0
 71
     5
 72
     1
  1
\A1;803
  7
STYLE1
 73
     1
 44
1.0
1001
ACAD
1000
MTEXTBEGIN
1070
    73
1070
     1
1070
    44
1040
1.0
1070
    74
1070
     0
1000
MTEXTEND
  0
INSERT
  5
217F3
330
1F255
100
AcDbEntity
  8
寸法
 62
     0
 48
50.0
370
    -2
100
AcDbBlockReference
  2
_DOTSMALL
 10
9539.213011273892
 20
8259.828801761191
 30
0.0
 41
100.0
 42
100.0
 43
100.0
  0
INSERT
  5
217F4
330
1F255
100
AcDbEntity
  8
寸法
 62
     0
 48
50.0
370
    -2
100
AcDbBlockReference
  2
_DOTSMALL
 10
8736.213011273896
 20
8259.828801761191
 30
0.0
 41
100.0
 42
100.0
 43
100.0
 50
180.0
  0
POINT
  5
217F5
330
1F255
100
AcDbEntity
  8
DEFPOINTS
 62
     0
 48
50.0
100
AcDbPoint
 10
9539.213011273892
 20
7732.919036112862
 30
0.0
  0
POINT
  5
217F6
330
1F255
100
AcDbEntity
  8
DEFPOINTS
 62
     0
 48
50.0
100
AcDbPoint
 10
8736.213011273896
 20
7057.919036112868
 30
0.0
  0
POINT
  5
217F7
330
1F255
100
AcDbEntity
  8
DEFPOINTS
 62
     0
 48
50.0
100
AcDbPoint
 10
8736.213011273896
 20
8259.828801761191
 30
0.0
  0
ENDBLK
  5
1F260
330
1F255
100
AcDbEntity
  8
0
 48
50.0
100
AcDbBlockEnd
  0
BLOCK
  5
1FE56
330
1FE4C
100
AcDbEntity
  8
0
 48
50.0
100
AcDbBlockBegin
  2
*D22
 70
     1
 10
0.0
 20
0.0
 30
0.0
  3
*D22
  1

  0
LINE
  5
217DD
330
1FE4C
100
AcDbEntity
  8
寸法
 62
     0
 48
50.0
370
    -2
100
AcDbLine
 10
8009.213011273896
 20
7077.91903611287
 30
0.0
 11
8009.213011273896
 21
8319.82880176119
 31
0.0
  0
LINE
  5
217DE
330
1FE4C
100
AcDbEntity
  8
寸法
 62
     0
 48
50.0
370
    -2
100
AcDbLine
 10
8736.213011273896
 20
7077.919036112868
 30
0.0
 11
8736.213011273896
 21
8319.82880176119
 31
0.0
  0
LINE
  5
217DF
330
1FE4C
100
AcDbEntity
  8
寸法
 62
     0
 48
50.0
370
    -2
100
AcDbLine
 10
8009.213011273896
 20
8259.828801761191
 30
0.0
 11
8736.213011273896
 21
8259.828801761191
 31
0.0
  0
INSERT
  5
217E0
330
1FE4C
100
AcDbEntity
  8
寸法
 62
     0
 48
50.0
370
    -2
100
AcDbBlockReference
  2
_DOTSMALL
 10
8009.213011273896
 20
8259.828801761191
 30
0.0
 41
100.0
 42
100.0
 43
100.0
 50
180.0
  0
INSERT
  5
217E1
330
1FE4C
100
AcDbEntity
  8
寸法
 62
     0
 48
50.0
370
    -2
100
AcDbBlockReference
  2
_DOTSMALL
 10
8736.213011273896
 20
8259.828801761191
 30
0.0
 41
100.0
 42
100.0
 43
100.0
  0
MTEXT
  5
217E2
330
1FE4C
100
AcDbEntity
  8
寸法
 62
     7
 48
50.0
100
AcDbMText
 10
8372.713011273896
 20
8359.840612784813
 30
0.0
 40
120.0
 41
0.0
 71
     5
 72
     1
  1
\A1;727
  7
STYLE1
 73
     1
 44
1.0
1001
ACAD
1000
MTEXTBEGIN
1070
    73
1070
     1
1070
    44
1040
1.0
1070
    74
1070
     0
1000
MTEXTEND
  0
POINT
  5
217E3
330
1FE4C
100
AcDbEntity
  8
DEFPOINTS
 62
     0
 48
50.0
100
AcDbPoint
 10
8009.213011273896
 20
7057.91903611287
 30
0.0
  0
POINT
  5
217E4
330
1FE4C
100
AcDbEntity
  8
DEFPOINTS
 62
     0
 48
50.0
100
AcDbPoint
 10
8736.213011273896
 20
7057.919036112868
 30
0.0
  0
POINT
  5
217E5
330
1FE4C
100
AcDbEntity
  8
DEFPOINTS
 62
     0
 48
50.0
100
AcDbPoint
 10
8736.213011273896
 20
8259.828801761191
 30
0.0
  0
ENDBLK
  5
1FE57
330
1FE4C
100
AcDbEntity
  8
0
 48
50.0
100
AcDbBlockEnd
  0
BLOCK
  5
20D5B
330
20D51
100
AcDbEntity
  8
0
 48
50.0
100
AcDbBlockBegin
  2
*D23
 70
     1
 10
0.0
 20
0.0
 30
0.0
  3
*D23
  1

  0
LINE
  5
217D4
330
20D51
100
AcDbEntity
  8
寸法
 62
     0
 48
50.0
370
    -2
100
AcDbLine
 10
7282.213011273896
 20
7077.91903611287
 30
0.0
 11
7282.213011273896
 21
8319.82880176119
 31
0.0
  0
LINE
  5
217D5
330
20D51
100
AcDbEntity
  8
寸法
 62
     0
 48
50.0
370
    -2
100
AcDbLine
 10
8009.213011273898
 20
7077.91903611287
 30
0.0
 11
8009.213011273898
 21
8319.82880176119
 31
0.0
  0
LINE
  5
217D6
330
20D51
100
AcDbEntity
  8
寸法
 62
     0
 48
50.0
370
    -2
100
AcDbLine
 10
7282.213011273896
 20
8259.828801761191
 30
0.0
 11
8009.213011273898
 21
8259.828801761191
 31
0.0
  0
INSERT
  5
217D7
330
20D51
100
AcDbEntity
  8
寸法
 62
     0
 48
50.0
370
    -2
100
AcDbBlockReference
  2
_DOTSMALL
 10
7282.213011273896
 20
8259.828801761191
 30
0.0
 41
100.0
 42
100.0
 43
100.0
 50
180.0
  0
INSERT
  5
217D8
330
20D51
100
AcDbEntity
  8
寸法
 62
     0
 48
50.0
370
    -2
100
AcDbBlockReference
  2
_DOTSMALL
 10
8009.213011273898
 20
8259.828801761191
 30
0.0
 41
100.0
 42
100.0
 43
100.0
  0
MTEXT
  5
217D9
330
20D51
100
AcDbEntity
  8
寸法
 62
     7
 48
50.0
100
AcDbMText
 10
7645.713011273897
 20
8359.840612784813
 30
0.0
 40
120.0
 41
0.0
 71
     5
 72
     1
  1
\A1;727
  7
STYLE1
 73
     1
 44
1.0
1001
ACAD
1000
MTEXTBEGIN
1070
    73
1070
     1
1070
    44
1040
1.0
1070
    74
1070
     0
1000
MTEXTEND
  0
POINT
  5
217DA
330
20D51
100
AcDbEntity
  8
DEFPOINTS
 62
     0
 48
50.0
100
AcDbPoint
 10
7282.213011273896
 20
7057.91903611287
 30
0.0
  0
POINT
  5
217DB
330
20D51
100
AcDbEntity
  8
DEFPOINTS
 62
     0
 48
50.0
100
AcDbPoint
 10
8009.213011273898
 20
7057.91903611287
 30
0.0
  0
POINT
  5
217DC
330
20D51
100
AcDbEntity
  8
DEFPOINTS
 62
     0
 48
50.0
100
AcDbPoint
 10
8009.213011273898
 20
8259.828801761191
 30
0.0
  0
ENDBLK
  5
20D5C
330
20D51
100
AcDbEntity
  8
0
 48
50.0
100
AcDbBlockEnd
  0
BLOCK
  5
20E3F
330
20E35
100
AcDbEntity
  8
0
 48
50.0
100
AcDbBlockBegin
  2
*D24
 70
     1
 10
0.0
 20
0.0
 30
0.0
  3
*D24
  1

  0
LINE
  5
217CB
330
20E35
100
AcDbEntity
  8
寸法
 62
     0
 48
50.0
370
    -2
100
AcDbLine
 10
8806.213011273904
 20
5967.919036112861
 30
0.0
 11
8990.587028824601
 21
5967.919036112861
 31
0.0
  0
LINE
  5
217CC
330
20E35
100
AcDbEntity
  8
寸法
 62
     0
 48
50.0
370
    -2
100
AcDbLine
 10
8805.213011273892
 20
6857.919036112868
 30
0.0
 11
8990.587028824601
 21
6857.919036112868
 31
0.0
  0
LINE
  5
217CD
330
20E35
100
AcDbEntity
  8
寸法
 62
     0
 48
50.0
370
    -2
100
AcDbLine
 10
8930.587028824602
 20
5967.919036112861
 30
0.0
 11
8930.587028824602
 21
6857.919036112868
 31
0.0
  0
MTEXT
  5
217CE
330
20E35
100
AcDbEntity
  8
寸法
 62
     7
 48
50.0
100
AcDbMText
 10
8830.5870288246
 20
6412.919036112865
 30
0.0
 40
120.0
 41
0.0
 71
     5
 72
     1
  1
\A1;890
  7
STYLE1
 11
0.0000000000000001
 21
1.0
 31
0.0
 73
     1
 44
1.0
1001
ACAD
1000
MTEXTBEGIN
1070
    73
1070
     1
1070
    44
1040
1.0
1070
    74
1070
     0
1000
MTEXTEND
  0
INSERT
  5
217CF
330
20E35
100
AcDbEntity
  8
寸法
 62
     0
 48
50.0
370
    -2
100
AcDbBlockReference
  2
_DOTSMALL
 10
8930.587028824602
 20
5967.919036112861
 30
0.0
 41
100.0
 42
100.0
 43
100.0
 50
270.0
  0
INSERT
  5
217D0
330
20E35
100
AcDbEntity
  8
寸法
 62
     0
 48
50.0
370
    -2
100
AcDbBlockReference
  2
_DOTSMALL
 10
8930.587028824602
 20
6857.919036112868
 30
0.0
 41
100.0
 42
100.0
 43
100.0
 50
90.0
  0
POINT
  5
217D1
330
20E35
100
AcDbEntity
  8
DEFPOINTS
 62
     0
 48
50.0
100
AcDbPoint
 10
8786.213011273904
 20
5967.919036112861
 30
0.0
  0
POINT
  5
217D2
330
20E35
100
AcDbEntity
  8
DEFPOINTS
 62
     0
 48
50.0
100
AcDbPoint
 10
8785.213011273892
 20
6857.919036112868
 30
0.0
  0
POINT
  5
217D3
330
20E35
100
AcDbEntity
  8
DEFPOINTS
 62
     0
 48
50.0
100
AcDbPoint
 10
8930.587028824602
 20
6857.919036112868
 30
0.0
  0
ENDBLK
  5
20E40
330
20E35
100
AcDbEntity
  8
0
 48
50.0
100
AcDbBlockEnd
  0
BLOCK
  5
2149C
330
21492
100
AcDbEntity
  8
0
 48
50.0
100
AcDbBlockBegin
  2
*D25
 70
     1
 10
0.0
 20
0.0
 30
0.0
  3
*D25
  1

  0
LINE
  5
217C2
330
21492
100
AcDbEntity
  8
寸法
 62
     0
 48
50.0
370
    -2
100
AcDbLine
 10
6343.635625660132
 20
1922.958468401857
 30
0.0
 11
6343.635625660132
 21
2282.958468401857
 31
0.0
  0
LINE
  5
217C3
330
21492
100
AcDbEntity
  8
寸法
 62
     0
 48
50.0
370
    -2
100
AcDbLine
 10
6151.635625660132
 20
1922.958468401857
 30
0.0
 11
6151.635625660132
 21
2282.958468401857
 31
0.0
  0
LINE
  5
217C4
330
21492
100
AcDbEntity
  8
寸法
 62
     0
 48
50.0
370
    -2
100
AcDbLine
 10
6343.635625660132
 20
2222.958468401857
 30
0.0
 11
6151.635625660132
 21
2222.958468401857
 31
0.0
  0
MTEXT
  5
217C5
330
21492
100
AcDbEntity
  8
寸法
 62
     7
 48
50.0
100
AcDbMText
 10
6258.86195600533
 20
2522.63808734186
 30
0.0
 40
120.0
 41
0.0
 71
     5
 72
     1
  1
\A1;120\P170
  7
STYLE1
 73
     1
 44
1.0
1001
ACAD
1000
MTEXTBEGIN
1070
    73
1070
     1
1070
    44
1040
1.0
1070
    74
1070
     0
1000
MTEXTEND
  0
INSERT
  5
217C6
330
21492
100
AcDbEntity
  8
寸法
 62
     0
 48
50.0
370
    -2
100
AcDbBlockReference
  2
_DOTSMALL
 10
6343.635625660132
 20
2222.958468401857
 30
0.0
 41
100.0
 42
100.0
 43
100.0
  0
INSERT
  5
217C7
330
21492
100
AcDbEntity
  8
寸法
 62
     0
 48
50.0
370
    -2
100
AcDbBlockReference
  2
_DOTSMALL
 10
6151.635625660132
 20
2222.958468401857
 30
0.0
 41
100.0
 42
100.0
 43
100.0
 50
180.0
  0
POINT
  5
217C8
330
21492
100
AcDbEntity
  8
DEFPOINTS
 62
     0
 48
50.0
100
AcDbPoint
 10
6343.635625660132
 20
1902.958468401857
 30
0.0
  0
POINT
  5
217C9
330
21492
100
AcDbEntity
  8
DEFPOINTS
 62
     0
 48
50.0
100
AcDbPoint
 10
6151.635625660132
 20
1902.958468401857
 30
0.0
  0
POINT
  5
217CA
330
21492
100
AcDbEntity
  8
DEFPOINTS
 62
     0
 48
50.0
100
AcDbPoint
 10
6151.635625660132
 20
2222.958468401857
 30
0.0
  0
ENDBLK
  5
2149D
330
21492
100
AcDbEntity
  8
0
 48
50.0
100
AcDbBlockEnd
  0
BLOCK
  5
214A8
330
2149E
100
AcDbEntity
  8
0
 48
50.0
100
AcDbBlockBegin
  2
*D26
 70
     1
 10
0.0
 20
0.0
 30
0.0
  3
*D26
  1

  0
LINE
  5
217B9
330
2149E
100
AcDbEntity
  8
寸法
 62
     0
 48
50.0
370
    -2
100
AcDbLine
 10
6023.635625660132
 20
970.9584684018569
 30
0.0
 11
6023.635625660132
 21
520.5288303966967
 31
0.0
  0
LINE
  5
217BA
330
2149E
100
AcDbEntity
  8
寸法
 62
     0
 48
50.0
370
    -2
100
AcDbLine
 10
6471.635625660131
 20
970.9584684018569
 30
0.0
 11
6471.635625660131
 21
520.5288303966967
 31
0.0
  0
LINE
  5
217BB
330
2149E
100
AcDbEntity
  8
寸法
 62
     0
 48
50.0
370
    -2
100
AcDbLine
 10
6023.635625660132
 20
580.5288303966968
 30
0.0
 11
6471.635625660131
 21
580.5288303966968
 31
0.0
  0
MTEXT
  5
217BC
330
2149E
100
AcDbEntity
  8
寸法
 62
     7
 48
50.0
100
AcDbMText
 10
6227.538866981909
 20
680.5288303966968
 30
0.0
 40
120.0
 41
0.0
 71
     5
 72
     1
  1
\A1;300
  7
STYLE1
 73
     1
 44
1.0
1001
ACAD
1000
MTEXTBEGIN
1070
    73
1070
     1
1070
    44
1040
1.0
1070
    74
1070
     0
1000
MTEXTEND
  0
INSERT
  5
217BD
330
2149E
100
AcDbEntity
  8
寸法
 62
     0
 48
50.0
370
    -2
100
AcDbBlockReference
  2
_DOTSMALL
 10
6023.635625660132
 20
580.5288303966968
 30
0.0
 41
100.0
 42
100.0
 43
100.0
 50
180.0
  0
INSERT
  5
217BE
330
2149E
100
AcDbEntity
  8
寸法
 62
     0
 48
50.0
370
    -2
100
AcDbBlockReference
  2
_DOTSMALL
 10
6471.635625660131
 20
580.5288303966968
 30
0.0
 41
100.0
 42
100.0
 43
100.0
  0
POINT
  5
217BF
330
2149E
100
AcDbEntity
  8
DEFPOINTS
 62
     0
 48
50.0
100
AcDbPoint
 10
6023.635625660132
 20
990.9584684018568
 30
0.0
  0
POINT
  5
217C0
330
2149E
100
AcDbEntity
  8
DEFPOINTS
 62
     0
 48
50.0
100
AcDbPoint
 10
6471.635625660131
 20
990.9584684018568
 30
0.0
  0
POINT
  5
217C1
330
2149E
100
AcDbEntity
  8
DEFPOINTS
 62
     0
 48
50.0
100
AcDbPoint
 10
6471.635625660131
 20
580.5288303966968
 30
0.0
  0
ENDBLK
  5
214A9
330
2149E
100
AcDbEntity
  8
0
 48
50.0
100
AcDbBlockEnd
  0
BLOCK
  5
214B4
330
214AA
100
AcDbEntity
  8
0
 48
50.0
100
AcDbBlockBegin
  2
*D27
 70
     1
 10
0.0
 20
0.0
 30
0.0
  3
*D27
  1

  0
LINE
  5
217B0
330
214AA
100
AcDbEntity
  8
寸法
 62
     0
 48
50.0
370
    -2
100
AcDbLine
 10
6131.635625660132
 20
1902.958468401857
 30
0.0
 11
5356.598387098393
 21
1902.958468401857
 31
0.0
  0
LINE
  5
217B1
330
214AA
100
AcDbEntity
  8
寸法
 62
     0
 48
50.0
370
    -2
100
AcDbLine
 10
5923.635625660136
 20
1118.958468401856
 30
0.0
 11
5356.598387098393
 21
1118.958468401857
 31
0.0
  0
LINE
  5
217B2
330
214AA
100
AcDbEntity
  8
寸法
 62
     0
 48
50.0
370
    -2
100
AcDbLine
 10
5416.598387098392
 20
1902.958468401857
 30
0.0
 11
5416.598387098392
 21
1118.958468401857
 31
0.0
  0
MTEXT
  5
217B3
330
214AA
100
AcDbEntity
  8
寸法
 62
     7
 48
50.0
100
AcDbMText
 10
5316.598387098393
 20
1490.498618057857
 30
0.0
 40
120.0
 41
0.0
 71
     5
 72
     1
  1
\A1;540
  7
STYLE1
 11
0.0000000000000001
 21
1.0
 31
0.0
 73
     1
 44
1.0
1001
ACAD
1000
MTEXTBEGIN
1070
    73
1070
     1
1070
    44
1040
1.0
1070
    74
1070
     0
1000
MTEXTEND
  0
INSERT
  5
217B4
330
214AA
100
AcDbEntity
  8
寸法
 62
     0
 48
50.0
370
    -2
100
AcDbBlockReference
  2
_DOTSMALL
 10
5416.598387098392
 20
1902.958468401857
 30
0.0
 41
100.0
 42
100.0
 43
100.0
 50
90.0
  0
INSERT
  5
217B5
330
214AA
100
AcDbEntity
  8
寸法
 62
     0
 48
50.0
370
    -2
100
AcDbBlockReference
  2
_DOTSMALL
 10
5416.598387098392
 20
1118.958468401857
 30
0.0
 41
100.0
 42
100.0
 43
100.0
 50
270.0
  0
POINT
  5
217B6
330
214AA
100
AcDbEntity
  8
DEFPOINTS
 62
     0
 48
50.0
100
AcDbPoint
 10
6151.635625660132
 20
1902.958468401857
 30
0.0
  0
POINT
  5
217B7
330
214AA
100
AcDbEntity
  8
DEFPOINTS
 62
     0
 48
50.0
100
AcDbPoint
 10
5943.635625660135
 20
1118.958468401856
 30
0.0
  0
POINT
  5
217B8
330
214AA
100
AcDbEntity
  8
DEFPOINTS
 62
     0
 48
50.0
100
AcDbPoint
 10
5416.598387098392
 20
1118.958468401857
 30
0.0
  0
ENDBLK
  5
214B5
330
214AA
100
AcDbEntity
  8
0
 48
50.0
100
AcDbBlockEnd
  0
BLOCK
  5
214C0
330
214B6
100
AcDbEntity
  8
0
 48
50.0
100
AcDbBlockBegin
  2
*D28
 70
     1
 10
0.0
 20
0.0
 30
0.0
  3
*D28
  1

  0
LINE
  5
217A7
330
214B6
100
AcDbEntity
  8
寸法
 62
     0
 48
50.0
370
    -2
100
AcDbLine
 10
6003.635625660132
 20
1358.958468401857
 30
0.0
 11
5821.215311927673
 21
1358.958468401857
 31
0.0
  0
LINE
  5
217A8
330
214B6
100
AcDbEntity
  8
寸法
 62
     0
 48
50.0
370
    -2
100
AcDbLine
 10
5923.635625660136
 20
1118.958468401856
 30
0.0
 11
5821.215311927673
 21
1118.958468401856
 31
0.0
  0
LINE
  5
217A9
330
214B6
100
AcDbEntity
  8
寸法
 62
     0
 48
50.0
370
    -2
100
AcDbLine
 10
5881.215311927673
 20
1358.958468401857
 30
0.0
 11
5881.215311927673
 21
1118.958468401856
 31
0.0
  0
MTEXT
  5
217AA
330
214B6
100
AcDbEntity
  8
寸法
 62
     7
 48
50.0
100
AcDbMText
 10
5781.215311927674
 20
1238.958468401857
 30
0.0
 40
120.0
 41
0.0
 71
     5
 72
     1
  1
\A1;150
  7
STYLE1
 11
0.0000000000000001
 21
1.0
 31
0.0
 73
     1
 44
1.0
1001
ACAD
1000
MTEXTBEGIN
1070
    73
1070
     1
1070
    44
1040
1.0
1070
    74
1070
     0
1000
MTEXTEND
  0
INSERT
  5
217AB
330
214B6
100
AcDbEntity
  8
寸法
 62
     0
 48
50.0
370
    -2
100
AcDbBlockReference
  2
_DOTSMALL
 10
5881.215311927673
 20
1358.958468401857
 30
0.0
 41
100.0
 42
100.0
 43
100.0
 50
90.0
  0
INSERT
  5
217AC
330
214B6
100
AcDbEntity
  8
寸法
 62
     0
 48
50.0
370
    -2
100
AcDbBlockReference
  2
_DOTSMALL
 10
5881.215311927673
 20
1118.958468401856
 30
0.0
 41
100.0
 42
100.0
 43
100.0
 50
270.0
  0
POINT
  5
217AD
330
214B6
100
AcDbEntity
  8
DEFPOINTS
 62
     0
 48
50.0
100
AcDbPoint
 10
6023.635625660132
 20
1358.958468401857
 30
0.0
  0
POINT
  5
217AE
330
214B6
100
AcDbEntity
  8
DEFPOINTS
 62
     0
 48
50.0
100
AcDbPoint
 10
5943.635625660135
 20
1118.958468401856
 30
0.0
  0
POINT
  5
217AF
330
214B6
100
AcDbEntity
  8
DEFPOINTS
 62
     0
 48
50.0
100
AcDbPoint
 10
5881.215311927673
 20
1118.958468401856
 30
0.0
  0
ENDBLK
  5
214C1
330
214B6
100
AcDbEntity
  8
0
 48
50.0
100
AcDbBlockEnd
  0
BLOCK
  5
214CE
330
214C2
100
AcDbEntity
  8
0
 48
50.0
100
AcDbBlockBegin
  2
*D29
 70
     1
 10
0.0
 20
0.0
 30
0.0
  3
*D29
  1

  0
LINE
  5
21799
330
214C2
100
AcDbEntity
  8
寸法
 62
     0
 48
50.0
370
    -2
100
AcDbLine
 10
8098.474938837327
 20
1955.718468401858
 30
0.0
 11
8827.543538606171
 21
1955.718468401857
 31
0.0
  0
LINE
  5
2179A
330
214C2
100
AcDbEntity
  8
寸法
 62
     0
 48
50.0
370
    -2
100
AcDbLine
 10
8285.674938837326
 20
1902.958468401857
 30
0.0
 11
8827.543538606171
 21
1902.958468401856
 31
0.0
  0
LINE
  5
2179B
330
214C2
100
AcDbEntity
  8
寸法
 62
     0
 48
50.0
370
    -2
100
AcDbLine
 10
8767.543538606171
 20
1955.718468401857
 30
0.0
 11
8767.543538606171
 21
2055.718468401858
 31
0.0
  0
LINE
  5
2179C
330
214C2
100
AcDbEntity
  8
寸法
 62
     0
 48
50.0
370
    -2
100
AcDbLine
 10
8767.543538606171
 20
1902.958468401856
 30
0.0
 11
8767.543538606171
 21
1802.958468401856
 31
0.0
  0
LINE
  5
2179D
330
214C2
100
AcDbEntity
  8
寸法
 62
     0
 48
50.0
370
    -2
100
AcDbLine
 10
8767.543538606171
 20
1929.338468401857
 30
0.0
 11
9043.598204725197
 21
1917.834510797644
 31
0.0
  0
LINE
  5
2179E
330
214C2
100
AcDbEntity
  8
寸法
 62
     0
 48
50.0
370
    -2
100
AcDbLine
 10
9043.598204725197
 20
1917.834510797644
 30
0.0
 11
9043.598204725197
 21
1385.816703954678
 31
0.0
  0
MTEXT
  5
2179F
330
214C2
100
AcDbEntity
  8
寸法
 62
     7
 48
50.0
100
AcDbMText
 10
8943.586393701577
 20
1651.825607376162
 30
0.0
 40
120.0
 41
0.0
 71
     5
 72
     1
  1
\A1;20～25
  7
STYLE1
 11
0.0000000000000001
 21
1.0
 31
0.0
 73
     1
 44
1.0
1001
ACAD
1000
MTEXTBEGIN
1070
    73
1070
     1
1070
    44
1040
1.0
1070
    74
1070
     0
1000
MTEXTEND
  0
LINE
  5
217A0
330
214C2
100
AcDbEntity
  8
寸法
 62
     0
 48
50.0
370
    -2
100
AcDbLine
 10
8767.543538606171
 20
1955.718468401857
 30
0.0
 11
8767.543538606171
 21
1902.958468401856
 31
0.0
  0
LINE
  5
217A1
330
214C2
100
AcDbEntity
  8
寸法
 62
     0
 48
50.0
370
    -2
100
AcDbLine
 10
8767.543538606171
 20
1955.718468401857
 30
0.0
 11
8767.543538606171
 21
1902.958468401856
 31
0.0
  0
INSERT
  5
217A2
330
214C2
100
AcDbEntity
  8
寸法
 62
     0
 48
50.0
370
    -2
100
AcDbBlockReference
  2
_DOTSMALL
 10
8767.543538606171
 20
1955.718468401857
 30
0.0
 41
100.0
 42
100.0
 43
100.0
 50
270.0
  0
INSERT
  5
217A3
330
214C2
100
AcDbEntity
  8
寸法
 62
     0
 48
50.0
370
    -2
100
AcDbBlockReference
  2
_DOTSMALL
 10
8767.543538606171
 20
1902.958468401856
 30
0.0
 41
100.0
 42
100.0
 43
100.0
 50
90.0
  0
POINT
  5
217A4
330
214C2
100
AcDbEntity
  8
DEFPOINTS
 62
     0
 48
50.0
100
AcDbPoint
 10
8078.474938837327
 20
1955.718468401858
 30
0.0
  0
POINT
  5
217A5
330
214C2
100
AcDbEntity
  8
DEFPOINTS
 62
     0
 48
50.0
100
AcDbPoint
 10
8265.674938837326
 20
1902.958468401857
 30
0.0
  0
POINT
  5
217A6
330
214C2
100
AcDbEntity
  8
DEFPOINTS
 62
     0
 48
50.0
100
AcDbPoint
 10
8767.543538606171
 20
1902.958468401856
 30
0.0
  0
ENDBLK
  5
214CF
330
214C2
100
AcDbEntity
  8
0
 48
50.0
100
AcDbBlockEnd
  0
BLOCK
  5
214D9
330
214D0
100
AcDbEntity
  8
0
 48
50.0
100
AcDbBlockBegin
  2
*D30
 70
     1
 10
0.0
 20
0.0
 30
0.0
  3
*D30
  1

  0
LINE
  5
21790
330
214D0
100
AcDbEntity
  8
寸法
 62
     0
 48
50.0
370
    -2
100
AcDbLine
 10
8285.674938837326
 20
1902.958468401857
 30
0.0
 11
8827.543538606171
 21
1902.958468401856
 31
0.0
  0
LINE
  5
21791
330
214D0
100
AcDbEntity
  8
寸法
 62
     0
 48
50.0
370
    -2
100
AcDbLine
 10
8285.674938837326
 20
1578.958468401856
 30
0.0
 11
8827.543538606171
 21
1578.958468401856
 31
0.0
  0
LINE
  5
21792
330
214D0
100
AcDbEntity
  8
寸法
 62
     0
 48
50.0
370
    -2
100
AcDbLine
 10
8767.543538606171
 20
1902.958468401856
 30
0.0
 11
8767.543538606171
 21
1578.958468401856
 31
0.0
  0
INSERT
  5
21793
330
214D0
100
AcDbEntity
  8
寸法
 62
     0
 48
50.0
370
    -2
100
AcDbBlockReference
  2
_DOTSMALL
 10
8767.543538606171
 20
1902.958468401856
 30
0.0
 41
100.0
 42
100.0
 43
100.0
 50
90.0
  0
INSERT
  5
21794
330
214D0
100
AcDbEntity
  8
寸法
 62
     0
 48
50.0
370
    -2
100
AcDbBlockReference
  2
_DOTSMALL
 10
8767.543538606171
 20
1578.958468401856
 30
0.0
 41
100.0
 42
100.0
 43
100.0
 50
270.0
  0
MTEXT
  5
21795
330
214D0
100
AcDbEntity
  8
寸法
 62
     7
 48
50.0
100
AcDbMText
 10
8667.543538606171
 20
1740.958468401858
 30
0.0
 40
120.0
 41
0.0
 71
     5
 72
     1
  1
\A1;180
  7
STYLE1
 11
0.0000000000000001
 21
1.0
 31
0.0
 73
     1
 44
1.0
1001
ACAD
1000
MTEXTBEGIN
1070
    73
1070
     1
1070
    44
1040
1.0
1070
    74
1070
     0
1000
MTEXTEND
  0
POINT
  5
21796
330
214D0
100
AcDbEntity
  8
DEFPOINTS
 62
     0
 48
50.0
100
AcDbPoint
 10
8265.674938837326
 20
1902.958468401857
 30
0.0
  0
POINT
  5
21797
330
214D0
100
AcDbEntity
  8
DEFPOINTS
 62
     0
 48
50.0
100
AcDbPoint
 10
8265.674938837326
 20
1578.958468401856
 30
0.0
  0
POINT
  5
21798
330
214D0
100
AcDbEntity
  8
DEFPOINTS
 62
     0
 48
50.0
100
AcDbPoint
 10
8767.543538606171
 20
1578.958468401856
 30
0.0
  0
ENDBLK
  5
214DA
330
214D0
100
AcDbEntity
  8
0
 48
50.0
100
AcDbBlockEnd
  0
BLOCK
  5
215B7
330
215AC
100
AcDbEntity
  8
0
 48
50.0
100
AcDbBlockBegin
  2
*D31
 70
     1
 10
0.0
 20
0.0
 30
0.0
  3
*D31
  1

  0
LINE
  5
21786
330
215AC
100
AcDbEntity
  8
寸法
 62
     0
 48
50.0
370
    -2
100
AcDbLine
 10
9419.213011273894
 20
7049.528470221973
 30
0.0
 11
9419.213011273894
 21
6924.422404093454
 31
0.0
  0
LINE
  5
21787
330
215AC
100
AcDbEntity
  8
寸法
 62
     0
 48
50.0
370
    -2
100
AcDbLine
 10
9309.213011273895
 20
7482.919036112858
 30
0.0
 11
9309.213011273895
 21
6924.422404093454
 31
0.0
  0
LINE
  5
21788
330
215AC
100
AcDbEntity
  8
寸法
 62
     0
 48
50.0
370
    -2
100
AcDbLine
 10
9419.213011273894
 20
6984.422404093454
 30
0.0
 11
9309.213011273895
 21
6984.422404093454
 31
0.0
  0
LINE
  5
21789
330
215AC
100
AcDbEntity
  8
寸法
 62
     0
 48
50.0
370
    -2
100
AcDbLine
 10
8961.118523084918
 20
6984.422404093454
 30
0.0
 11
9309.213011273895
 21
6984.422404093454
 31
0.0
  0
MTEXT
  5
2178A
330
215AC
100
AcDbEntity
  8
寸法
 62
     7
 48
50.0
100
AcDbMText
 10
9085.165767179407
 20
7084.422404093453
 30
0.0
 40
120.0
 41
0.0
 71
     5
 72
     1
  1
\A1;110
  7
STYLE1
 73
     1
 44
1.0
1001
ACAD
1000
MTEXTBEGIN
1070
    73
1070
     1
1070
    44
1040
1.0
1070
    74
1070
     0
1000
MTEXTEND
  0
INSERT
  5
2178B
330
215AC
100
AcDbEntity
  8
寸法
 62
     0
 48
50.0
370
    -2
100
AcDbBlockReference
  2
_DOTSMALL
 10
9419.213011273894
 20
6984.422404093454
 30
0.0
 41
100.0
 42
100.0
 43
100.0
  0
INSERT
  5
2178C
330
215AC
100
AcDbEntity
  8
寸法
 62
     0
 48
50.0
370
    -2
100
AcDbBlockReference
  2
_DOTSMALL
 10
9309.213011273895
 20
6984.422404093454
 30
0.0
 41
100.0
 42
100.0
 43
100.0
 50
180.0
  0
POINT
  5
2178D
330
215AC
100
AcDbEntity
  8
DEFPOINTS
 62
     0
 48
50.0
100
AcDbPoint
 10
9419.213011273894
 20
7069.528470221974
 30
0.0
  0
POINT
  5
2178E
330
215AC
100
AcDbEntity
  8
DEFPOINTS
 62
     0
 48
50.0
100
AcDbPoint
 10
9309.213011273895
 20
7502.919036112858
 30
0.0
  0
POINT
  5
2178F
330
215AC
100
AcDbEntity
  8
DEFPOINTS
 62
     0
 48
50.0
100
AcDbPoint
 10
9309.213011273895
 20
6984.422404093454
 30
0.0
  0
ENDBLK
  5
215B8
330
215AC
100
AcDbEntity
  8
0
 48
50.0
100
AcDbBlockEnd
  0
ENDSEC
  0
SECTION
  2
ENTITIES
  0
LINE
  5
10B57
330
747D
100
AcDbEntity
  8
補助
  6
PHANTOM
 62
   230
 48
50.0
100
AcDbLine
 10
139.9999999999995
 20
11409.6
 30
0.0
 11
16307.2
 21
11409.6
 31
0.0
  0
LINE
  5
10B59
330
747D
100
AcDbEntity
  8
仕様書枠
  6
Continuous
 48
50.0
100
AcDbLine
 10
13107.2
 20
1200.0
 30
0.0
 11
13107.2
 21
-0.0000000000000729
 31
0.0
  0
LINE
  5
10B5C
330
747D
100
AcDbEntity
  8
仕様書枠
 48
50.0
100
AcDbLine
 10
16307.2
 20
1200.0
 30
0.0
 11
16307.2
 21
-0.0000000000000909
 31
0.0
  0
LINE
  5
10B5D
330
747D
100
AcDbEntity
  8
仕様書枠
 48
50.0
100
AcDbLine
 10
140.0
 20
0.0
 30
0.0
 11
16307.2
 21
-0.0000000000000909
 31
0.0
  0
LINE
  5
10B5E
330
747D
100
AcDbEntity
  8
補助
  6
PHANTOM
 62
   230
 48
50.0
100
AcDbLine
 10
16307.2
 20
11409.6
 30
0.0
 11
16307.2
 21
1200.0
 31
0.0
  0
LINE
  5
10B6C
330
747D
100
AcDbEntity
  8
仕様書枠
 48
50.0
100
AcDbLine
 10
13107.2
 20
1200.0
 30
0.0
 11
16307.2
 21
1200.0
 31
0.0
  0
LINE
  5
10B6D
330
747D
100
AcDbEntity
  8
補助
  6
PHANTOM
 62
   230
 48
50.0
100
AcDbLine
 10
13107.2
 20
11409.6
 30
0.0
 11
13107.2
 21
4800.0
 31
0.0
  0
LINE
  5
10B6F
330
747D
100
AcDbEntity
  8
補助
  6
PHANTOM
 62
   230
 48
50.0
100
AcDbLine
 10
13107.2
 20
4800.0
 30
0.0
 11
16307.2
 21
4800.0
 31
0.0
  0
LINE
  5
10B72
330
747D
100
AcDbEntity
  8
文字
 62
     7
 48
50.0
100
AcDbLine
 10
13187.2
 20
400.0
 30
0.0
 11
16227.2
 21
400.0
 31
0.0
  0
TEXT
  5
10B73
330
747D
100
AcDbEntity
  8
文字
 62
     7
 48
50.0
100
AcDbText
 10
13162.9790565769
 20
895.0906074299405
 30
0.0
 40
200.0
  1
基 礎 図
  7
STYLE2
100
AcDbText
  0
TEXT
  5
10B74
330
747D
100
AcDbEntity
  8
文字
 62
     7
 48
50.0
100
AcDbText
 10
13201.43669998441
 20
477.2740661031255
 30
0.0
 40
160.0
  1
機種名
  7
STYLE2
100
AcDbText
  0
TEXT
  5
10B79
330
747D
100
AcDbEntity
  8
文字
 62
     7
 48
50.0
100
AcDbText
 10
14524.131837222
 20
1031.557706291228
 30
0.0
 40
100.0
  1
      <縮尺> S=1/40
  7
STYLE2
100
AcDbText
  0
LINE
  5
10B7B
330
747D
100
AcDbEntity
  8
仕様書枠
 48
50.0
100
AcDbLine
 10
13107.2
 20
800.0
 30
0.0
 11
14251.2
 21
800.0
 31
0.0
  0
LINE
  5
10B88
330
747D
100
AcDbEntity
  8
仕様書枠
  6
Continuous
 48
50.0
100
AcDbLine
 10
14251.2
 20
1200.0
 30
0.0
 11
14251.2
 21
800.0
 31
0.0
  0
TEXT
  5
14DEF
330
747D
100
AcDbEntity
  8
文字
 62
     7
 48
50.0
100
AcDbText
 10
14641.2525855784
 20
871.1744590657925
 30
0.0
 40
100.0
  1
～一般型・多雪地型～
  7
STYLE2
100
AcDbText
  0
TEXT
  5
15A76
330
747D
100
AcDbEntity
  8
文字
 62
     7
 48
50.0
100
AcDbText
 10
14483.56764462811
 20
483.8967129911411
 30
0.0
 40
160.0
  1
ＮＸＮ－８０Ｓ・Ｈ
  7
STYLE2
100
AcDbText
  0
TEXT
  5
1D002
330
747D
100
AcDbEntity
  8
文字
 62
     7
 48
50.0
100
AcDbText
 10
13188.16259899338
 20
246.7109242801889
 30
0.0
 40
80.0
  1
※寒冷地等は地域の実情に合わせた基礎にして下さい。
  7
STYLE2
100
AcDbText
  0
DIMENSION
  5
1D91B
330
747D
100
AcDbEntity
  8
寸法
 48
50.0
100
AcDbDimension
  2
*D1
 10
6925.920261149996
 20
5392.919036112863
 30
0.0
 11
6925.920261149994
 21
5628.966280207354
 31
0.0
 70
   160
 71
     5
 42
130.0000000000018
  3
INABA_S40G
100
AcDbAlignedDimension
 13
6709.213011273897
 23
5262.919036112862
 33
0.0
 14
6709.213011273897
 24
5392.919036112863
 34
0.0
 50
90.0
100
AcDbRotatedDimension
1001
ACAD
1000
DSTYLE
1002
{
1070
   174
1070
     0
1070
   272
1070
     1
1070
   279
1070
     1
1070
   288
1070
     0
1070
   341
1005
0
1002
}
  0
DIMENSION
  5
1D91C
330
747D
100
AcDbEntity
  8
寸法
 48
50.0
100
AcDbDimension
  2
*D2
 10
6925.920261149996
 20
5092.919036112861
 30
0.0
 11
6925.920261149994
 21
4856.871792018374
 31
0.0
 70
   160
 71
     5
 42
170.0000000000018
  3
INABA_S40G
100
AcDbAlignedDimension
 13
6709.213011273897
 23
5262.919036112863
 33
0.0
 14
6709.213011273897
 24
5092.919036112861
 34
0.0
 50
90.0
100
AcDbRotatedDimension
1001
ACAD
1000
DSTYLE
1002
{
1070
   174
1070
     0
1070
   272
1070
     1
1070
   279
1070
     1
1070
   288
1070
     0
1070
   341
1005
0
1002
}
  0
DIMENSION
  5
1D91D
330
747D
100
AcDbEntity
  8
寸法
 48
50.0
100
AcDbDimension
  2
*D3
 10
6602.213011273896
 20
8486.250847072712
 30
0.0
 11
8009.213011273896
 21
8586.262658096334
 31
0.0
 70
    32
 71
     5
 42
2814.0
  3
INABA_S40G
100
AcDbAlignedDimension
 13
9416.213011273896
 23
7659.91903611286
 33
0.0
 14
6602.213011273896
 24
7659.91903611286
 34
0.0
100
AcDbRotatedDimension
1001
ACAD
1000
DSTYLE
1002
{
1070
   174
1070
     0
1070
   272
1070
     1
1070
   279
1070
     1
1070
   288
1070
     0
1070
   341
1005
0
1002
}
  0
LINE
  5
1D91E
330
747D
100
AcDbEntity
  8
部品1
 48
50.0
100
AcDbLine
 10
9309.213011273895
 20
5262.919036112876
 30
0.0
 11
6709.213011273899
 21
5262.919036112861
 31
0.0
  0
LINE
  5
1D91F
330
747D
100
AcDbEntity
  8
部品1
 48
50.0
100
AcDbLine
 10
9309.213011273895
 20
7612.91903611286
 30
0.0
 11
6709.213011273895
 21
7612.91903611286
 31
0.0
  0
DIMENSION
  5
1D920
330
747D
100
AcDbEntity
  8
寸法
 48
50.0
100
AcDbDimension
  2
*D4
 10
9539.213011273897
 20
8698.711542589547
 30
0.0
 11
8009.213011273896
 21
8798.711542589549
 31
0.0
 70
    32
 71
     5
 42
3060.000000000002
  3
INABA_S40G
100
AcDbAlignedDimension
 13
6479.213011273895
 23
7732.919036112858
 33
0.0
 14
9539.213011273897
 24
7732.919036112861
 34
0.0
100
AcDbRotatedDimension
1001
ACAD
1000
DSTYLE
1002
{
1070
   174
1070
     0
1070
   272
1070
     1
1070
   279
1070
     1
1070
   288
1070
     0
1070
   341
1005
0
1002
}
  0
LINE
  5
1D921
330
747D
100
AcDbEntity
  8
部品1
 48
50.0
100
AcDbLine
 10
9539.213011273897
 20
5092.919036112878
 30
0.0
 11
6482.213011273895
 21
5092.919036112856
 31
0.0
  0
LINE
  5
1D922
330
747D
100
AcDbEntity
  8
部品1
 48
50.0
100
AcDbLine
 10
9539.213011273897
 20
7732.919036112862
 30
0.0
 11
6479.213011273898
 21
7732.919036112864
 31
0.0
  0
LINE
  5
1D923
330
747D
100
AcDbEntity
  8
想像線
 48
10.0
100
AcDbLine
 10
9584.213011273895
 20
5037.919036112856
 30
0.0
 11
6437.213011273897
 21
5037.919036112861
 31
0.0
  0
LINE
  5
1D924
330
747D
100
AcDbEntity
  8
想像線
 48
10.0
100
AcDbLine
 10
6437.213011273897
 20
7807.91903611286
 30
0.0
 11
9584.213011273893
 21
7807.919036112865
 31
0.0
  0
DIMENSION
  5
1D925
330
747D
100
AcDbEntity
  8
寸法
 48
50.0
100
AcDbDimension
  2
*D5
 10
6479.213011273895
 20
8486.250847072712
 30
0.0
 11
6240.727729899656
 21
8486.250847072712
 31
0.0
 70
   160
 71
     5
 42
123.0000000000018
  3
INABA_S40G
100
AcDbAlignedDimension
 13
6602.213011273896
 23
7659.91903611286
 33
0.0
 14
6479.213011273895
 24
7732.919036112858
 34
0.0
100
AcDbRotatedDimension
1001
ACAD
1000
DSTYLE
1002
{
1070
   174
1070
     0
1070
   272
1070
     1
1070
   279
1070
     1
1070
   288
1070
     0
1070
   341
1005
0
1002
}
  0
DIMENSION
  5
1D926
330
747D
100
AcDbEntity
  8
寸法
 48
50.0
100
AcDbDimension
  2
*D6
 10
6479.213011273896
 20
8698.711542589549
 30
0.0
 11
6456.713011273894
 21
8698.711542589549
 31
0.0
 70
   160
  1
a
 71
     5
 42
45.00000000000364
  3
INABA_S40G
100
AcDbAlignedDimension
 13
6434.213011273893
 23
8486.250847072712
 33
0.0
 14
6479.213011273896
 24
7881.190236682782
 34
0.0
100
AcDbRotatedDimension
1001
ACAD
1000
DSTYLE
1002
{
1070
   174
1070
     0
1070
   272
1070
     1
1070
   279
1070
     1
1070
   288
1070
     0
1070
   341
1005
0
1002
}
  0
DIMENSION
  5
1D927
330
747D
100
AcDbEntity
  8
寸法
 48
50.0
100
AcDbDimension
  2
*D7
 10
5983.270745260075
 20
5290.919036112862
 30
0.0
 11
5983.270745260075
 21
6412.919036112862
 31
0.0
 70
   160
 71
     5
 42
2318.999999999999
  3
INABA_S40G
100
AcDbAlignedDimension
 13
6552.213011273896
 23
7609.91903611286
 33
0.0
 14
6552.213011273905
 24
5290.919036112861
 34
0.0
 50
90.0
100
AcDbRotatedDimension
1001
ACAD
1000
DSTYLE
1002
{
1070
   174
1070
     0
1070
   272
1070
     1
1070
   279
1070
     1
1070
   288
1070
     0
1070
   341
1005
0
1002
}
  0
LINE
  5
1D928
330
747D
100
AcDbEntity
  8
部品1
 48
50.0
100
AcDbLine
 10
6599.213011273898
 20
5392.919036112861
 30
0.0
 11
6599.213011273896
 21
7502.919036112858
 31
0.0
  0
DIMENSION
  5
1D929
330
747D
100
AcDbEntity
  8
寸法
 48
50.0
100
AcDbDimension
  2
*D8
 10
5737.777943122111
 20
5092.91903611286
 30
0.0
 11
5737.77794312211
 21
6412.919036112862
 31
0.0
 70
   160
 71
     5
 42
2640.000000000003
  3
INABA_S40G
100
AcDbAlignedDimension
 13
6479.213011273895
 23
7732.919036112862
 33
0.0
 14
6479.213011273897
 24
5092.91903611286
 34
0.0
 50
90.0
100
AcDbRotatedDimension
1001
ACAD
1000
DSTYLE
1002
{
1070
   174
1070
     0
1070
   272
1070
     1
1070
   279
1070
     1
1070
   288
1070
     0
1070
   341
1005
0
1002
}
  0
LINE
  5
1D92A
330
747D
100
AcDbEntity
  8
部品1
 48
50.0
100
AcDbLine
 10
6479.213011273895
 20
5095.919036112856
 30
0.0
 11
6479.213011273898
 21
7732.919036112864
 31
0.0
  0
LINE
  5
1D92B
330
747D
100
AcDbEntity
  8
想像線
 48
10.0
100
AcDbLine
 10
6434.213011273898
 20
5040.919036112861
 30
0.0
 11
6434.213011273898
 21
7804.91903611286
 31
0.0
  0
DIMENSION
  5
1D92C
330
747D
100
AcDbEntity
  8
寸法
 48
50.0
100
AcDbDimension
  2
*D9
 10
5983.270745260075
 20
5092.91903611286
 30
0.0
 11
5983.270745260075
 21
4856.709376283204
 31
0.0
 70
   160
 71
     5
 42
198.0000000000018
  3
INABA_S40G
100
AcDbAlignedDimension
 13
6552.213011273905
 23
5290.919036112861
 33
0.0
 14
6479.213011273897
 24
5092.91903611286
 34
0.0
 50
90.0
100
AcDbRotatedDimension
1001
ACAD
1000
DSTYLE
1002
{
1070
   174
1070
     0
1070
   272
1070
     1
1070
   279
1070
     1
1070
   288
1070
     0
1070
   341
1005
0
1002
}
  0
DIMENSION
  5
1D92D
330
747D
100
AcDbEntity
  8
寸法
 48
50.0
100
AcDbDimension
  2
*D10
 10
5737.777943122108
 20
5037.919036112859
 30
0.0
 11
5737.777943122107
 21
5065.41903611286
 31
0.0
 70
   160
  1
b
 71
     5
 42
55.00000000000091
  3
INABA_S40G
100
AcDbAlignedDimension
 13
6479.213011273897
 23
5092.91903611286
 33
0.0
 14
5983.270745260075
 24
5037.919036112859
 34
0.0
 50
90.0
100
AcDbRotatedDimension
1001
ACAD
1000
DSTYLE
1002
{
1070
   174
1070
     0
1070
   272
1070
     1
1070
   279
1070
     1
1070
   288
1070
     0
1070
   341
1005
0
1002
}
  0
LINE
  5
1D92E
330
747D
100
AcDbEntity
  8
センター
 48
2.0
100
AcDbLine
 10
6602.213011273905
 20
5340.919036112861
 30
0.0
 11
6602.213011273905
 21
5240.919036112861
 31
0.0
  0
LINE
  5
1D92F
330
747D
100
AcDbEntity
  8
センター
 48
2.0
100
AcDbLine
 10
6552.213011273905
 20
5290.919036112861
 30
0.0
 11
6652.213011273905
 21
5290.919036112861
 31
0.0
  0
CIRCLE
  5
1D930
330
747D
100
AcDbEntity
  8
部品1
 48
50.0
100
AcDbCircle
 10
6602.213011273905
 20
5290.919036112861
 30
0.0
 40
35.0
  0
LINE
  5
1D931
330
747D
100
AcDbEntity
  8
部品1
 48
50.0
100
AcDbLine
 10
6709.213011273897
 20
5392.919036112863
 30
0.0
 11
6599.213011273898
 21
5392.919036112861
 31
0.0
  0
LINE
  5
1D932
330
747D
100
AcDbEntity
  8
部品1
 48
50.0
100
AcDbLine
 10
6709.213011273899
 20
5262.919036112861
 30
0.0
 11
6709.213011273897
 21
5392.919036112863
 31
0.0
  0
DIMENSION
  5
1D933
330
747D
100
AcDbEntity
  8
寸法
 48
50.0
100
AcDbDimension
  2
*D11
 10
5983.270745260075
 20
7609.919036112862
 30
0.0
 11
5983.270745260074
 21
7971.404317487101
 31
0.0
 70
   160
 71
     5
 42
123.0
  3
INABA_S40G
100
AcDbAlignedDimension
 13
6479.213011273896
 23
7732.919036112861
 33
0.0
 14
6552.213011273896
 24
7609.91903611286
 34
0.0
 50
90.0
100
AcDbRotatedDimension
1001
ACAD
1000
DSTYLE
1002
{
1070
   174
1070
     0
1070
   272
1070
     1
1070
   279
1070
     1
1070
   288
1070
     0
1070
   341
1005
0
1002
}
  0
DIMENSION
  5
1D934
330
747D
100
AcDbEntity
  8
寸法
 48
50.0
100
AcDbDimension
  2
*D12
 10
5737.777943122107
 20
7732.919036112861
 30
0.0
 11
5737.777943122106
 21
7770.419036112862
 31
0.0
 70
   160
  1
c
 71
     5
 42
74.99999999999909
  3
INABA_S40G
100
AcDbAlignedDimension
 13
5983.270745260075
 23
7807.919036112861
 33
0.0
 14
6479.213011273896
 24
7732.919036112861
 34
0.0
 50
90.0
100
AcDbRotatedDimension
1001
ACAD
1000
DSTYLE
1002
{
1070
   174
1070
     0
1070
   272
1070
     1
1070
   279
1070
     1
1070
   288
1070
     0
1070
   341
1005
0
1002
}
  0
LINE
  5
1D935
330
747D
100
AcDbEntity
  8
部品1
 48
50.0
100
AcDbLine
 10
6599.213011273898
 20
6512.919036112861
 30
0.0
 11
6479.213011273897
 21
6512.919036112861
 31
0.0
  0
LINE
  5
1D936
330
747D
100
AcDbEntity
  8
部品1
 48
50.0
100
AcDbLine
 10
6599.213011273898
 20
6312.919036112861
 30
0.0
 11
6479.213011273897
 21
6312.919036112861
 31
0.0
  0
LINE
  5
1D938
330
747D
100
AcDbEntity
  8
センター
 48
2.0
100
AcDbLine
 10
6602.213011273896
 20
7659.91903611286
 30
0.0
 11
6602.213011273896
 21
7559.91903611286
 31
0.0
  0
LINE
  5
1D939
330
747D
100
AcDbEntity
  8
センター
 48
2.0
100
AcDbLine
 10
6552.213011273896
 20
7609.91903611286
 30
0.0
 11
6652.213011273897
 21
7609.91903611286
 31
0.0
  0
CIRCLE
  5
1D93A
330
747D
100
AcDbEntity
  8
部品1
 48
50.0
100
AcDbCircle
 10
6602.213011273896
 20
7609.91903611286
 30
0.0
 40
35.0
  0
LINE
  5
1D93B
330
747D
100
AcDbEntity
  8
部品1
 48
50.0
100
AcDbLine
 10
6709.213011273895
 20
7502.919036112857
 30
0.0
 11
6599.213011273896
 21
7502.919036112858
 31
0.0
  0
LINE
  5
1D93C
330
747D
100
AcDbEntity
  8
部品1
 48
50.0
100
AcDbLine
 10
6709.213011273895
 20
7502.919036112857
 30
0.0
 11
6709.213011273895
 21
7612.919036112862
 31
0.0
  0
DIMENSION
  5
1D93E
330
747D
100
AcDbEntity
  8
寸法
 48
50.0
100
AcDbDimension
  2
*D13
 10
9416.213011273896
 20
8486.250847072712
 30
0.0
 11
9777.698292648134
 21
8486.250847072712
 31
0.0
 70
   160
 71
     5
 42
123.0
  3
INABA_S40G
100
AcDbAlignedDimension
 13
9539.213011273897
 23
7732.919036112861
 33
0.0
 14
9416.213011273896
 24
7659.91903611286
 34
0.0
100
AcDbRotatedDimension
1001
ACAD
1000
DSTYLE
1002
{
1070
   174
1070
     0
1070
   272
1070
     1
1070
   279
1070
     1
1070
   288
1070
     0
1070
   341
1005
0
1002
}
  0
DIMENSION
  5
1D93F
330
747D
100
AcDbEntity
  8
寸法
 48
50.0
100
AcDbDimension
  2
*D14
 10
9584.213011273895
 20
8698.711542589547
 30
0.0
 11
9561.713011273896
 21
8698.711542589547
 31
0.0
 70
   160
  1
a
 71
     5
 42
45.0
  3
INABA_S40G
100
AcDbAlignedDimension
 13
9539.213011273897
 23
7881.190236682782
 33
0.0
 14
9584.213011273895
 24
8486.250847072712
 34
0.0
100
AcDbRotatedDimension
1001
ACAD
1000
DSTYLE
1002
{
1070
   174
1070
     0
1070
   272
1070
     1
1070
   279
1070
     1
1070
   288
1070
     0
1070
   341
1005
0
1002
}
  0
DIMENSION
  5
1D942
330
747D
100
AcDbEntity
  8
寸法
 48
50.0
100
AcDbDimension
  2
*D15
 10
9419.213011273894
 20
6984.422404093454
 30
0.0
 11
9775.260255368385
 21
6984.422404093454
 31
0.0
 70
   160
 71
     5
 42
120.0000000000018
  3
INABA_S40G
100
AcDbAlignedDimension
 13
9539.213011273897
 23
7042.919036112869
 33
0.0
 14
9419.213011273894
 24
7069.528470221974
 34
0.0
100
AcDbRotatedDimension
1001
ACAD
1000
DSTYLE
1002
{
1070
   174
1070
     0
1070
   272
1070
     1
1070
   279
1070
     1
1070
   288
1070
     0
1070
   341
1005
0
1002
}
  0
TEXT
  5
1D943
330
747D
100
AcDbEntity
  8
部品1
 48
50.0
100
AcDbText
 10
9626.033077952298
 20
4398.032239333585
 30
0.0
 40
80.0
  1
(a=45,b=55,c=75)
  7
STYLE1
100
AcDbText
  0
TEXT
  5
1D944
330
747D
100
AcDbEntity
  8
部品1
 48
50.0
100
AcDbText
 10
9556.156190347413
 20
4517.763285486725
 30
0.0
 40
80.0
  1
※a,b,cは屋根の出幅です。
  7
STYLE1
100
AcDbText
  0
MTEXT
  5
1D945
102
{ACAD_REACTORS
330
1D946
102
}
330
747D
100
AcDbEntity
  8
部品1
 62
     7
 48
50.0
100
AcDbMText
 10
10421.33878581221
 20
4741.901644153069
 30
0.0
 40
120.0
 41
0.0
 71
     6
 72
     1
  1
\A1;屋根の外寸
  7
STYLE1
 73
     1
 44
1.0
1001
ACAD
1000
MTEXTBEGIN
1070
    73
1070
     1
1070
    44
1040
1.0
1070
    74
1070
     0
1000
MTEXTEND
  0
LEADER
  5
1D946
330
747D
100
AcDbEntity
  8
寸法
 48
50.0
100
AcDbLeader
  3
INABA_S40G
 71
     0
 73
     0
 74
     0
 75
     1
 40
120.0
 41
672.0
 76
     3
 10
9351.101599207723
 20
5036.919036112859
 30
0.0
 10
9609.338785812216
 20
4641.901644153068
 30
0.0
 10
9709.338785812215
 20
4641.901644153068
 30
0.0
340
1D945
1001
ACAD
1000
DSTYLE
1002
{
1070
   174
1070
     0
1070
   272
1070
     1
1070
   279
1070
     1
1070
   288
1070
     0
1070
   341
1005
0
1002
}
  0
DIMENSION
  5
1D947
330
747D
100
AcDbEntity
  8
寸法
 48
50.0
100
AcDbDimension
  2
*D16
 10
6939.72319518692
 20
7502.919036112857
 30
0.0
 11
6939.723195186918
 21
7264.598327534932
 31
0.0
 70
   160
 71
     5
 42
110.0000000000045
  3
INABA_S40G
100
AcDbAlignedDimension
 13
6709.213011273895
 23
7612.91903611286
 33
0.0
 14
6709.213011273895
 24
7502.919036112857
 34
0.0
 50
90.0
100
AcDbRotatedDimension
1001
ACAD
1000
DSTYLE
1002
{
1070
   174
1070
     0
1070
   272
1070
     1
1070
   279
1070
     1
1070
   288
1070
     0
1070
   341
1005
0
1002
}
  0
LINE
  5
1D949
330
747D
100
AcDbEntity
  8
部品1
 48
50.0
100
AcDbLine
 10
9419.213011273896
 20
5392.919036112879
 30
0.0
 11
9419.213011273894
 21
7502.919036112863
 31
0.0
  0
LINE
  5
1D94A
330
747D
100
AcDbEntity
  8
部品1
 48
50.0
100
AcDbLine
 10
9539.213011273897
 20
5092.919036112878
 30
0.0
 11
9539.213011273897
 21
7732.919036112862
 31
0.0
  0
LINE
  5
1D94B
330
747D
100
AcDbEntity
  8
想像線
 48
10.0
100
AcDbLine
 10
9584.213011273893
 20
7807.919036112865
 30
0.0
 11
9584.213011273901
 21
5037.919036112859
 31
0.0
  0
TEXT
  5
1D94C
330
747D
100
AcDbEntity
  8
部品1
 48
50.0
100
AcDbText
 10
7881.213011273904
 20
4831.4665347094
 30
0.0
 40
120.0
  1
扉面
  7
STYLE1
 72
     1
 11
8009.213011273903
 21
4815.4665347094
 31
0.0
100
AcDbText
 73
     1
  0
HATCH
  5
1D94E
330
747D
100
AcDbEntity
  8
細線
 48
50.0
100
AcDbHatch
 10
0.0
 20
0.0
 30
0.0
210
0.0
220
0.0
230
1.0
  2
LINE
 70
     0
 71
     0
 91
        1
 92
        7
 72
     0
 73
     1
 93
        4
 10
8109.213011273919
 20
5092.919036112869
 10
8109.213011273919
 20
5262.919036112867
 10
7909.213011273918
 20
5262.919036112865
 10
7909.213011273918
 20
5092.919036112864
 97
        0
 75
     0
 76
     1
 52
45.0
 41
10.0
 77
     0
 78
     1
 53
45.0
 43
4406.101450287396
 44
-6058.622518963429
 45
-22.45064030267288
 46
22.45064030267288
 79
     0
 47
2.903594399684136
 98
        1
 10
8022.323011277004
 20
5131.946091545309
  0
LINE
  5
1D94F
330
747D
100
AcDbEntity
  8
部品1
 48
50.0
100
AcDbLine
 10
7909.213011273918
 20
5092.919036112869
 30
0.0
 11
7909.213011273918
 21
5262.919036112863
 31
0.0
  0
LINE
  5
1D950
330
747D
100
AcDbEntity
  8
部品1
 48
50.0
100
AcDbLine
 10
8109.213011273919
 20
5092.919036112869
 30
0.0
 11
8109.213011273919
 21
5262.919036112867
 31
0.0
  0
LINE
  5
1D951
330
747D
100
AcDbEntity
  8
センター
 48
2.0
100
AcDbLine
 10
9366.213011273904
 20
5290.919036112861
 30
0.0
 11
9466.213011273904
 21
5290.919036112861
 31
0.0
  0
CIRCLE
  5
1D952
330
747D
100
AcDbEntity
  8
部品1
 48
50.0
100
AcDbCircle
 10
9416.213011273903
 20
5290.919036112861
 30
0.0
 40
35.0
  0
LINE
  5
1D953
330
747D
100
AcDbEntity
  8
部品1
 48
50.0
100
AcDbLine
 10
9419.213011273896
 20
5392.919036112878
 30
0.0
 11
9309.213011273895
 21
5392.919036112878
 31
0.0
  0
LINE
  5
1D954
330
747D
100
AcDbEntity
  8
部品1
 48
50.0
100
AcDbLine
 10
9309.213011273895
 20
5262.919036112876
 30
0.0
 11
9309.213011273895
 21
5392.919036112878
 31
0.0
  0
LINE
  5
1D955
330
747D
100
AcDbEntity
  8
センター
 48
2.0
100
AcDbLine
 10
9416.213011273903
 20
5340.919036112861
 30
0.0
 11
9416.213011273903
 21
5240.919036112861
 31
0.0
  0
LINE
  5
1D956
330
747D
100
AcDbEntity
  8
部品1
 48
50.0
100
AcDbLine
 10
8109.213011273903
 20
7612.91903611286
 30
0.0
 11
8109.213011273903
 21
7732.919036112861
 31
0.0
  0
LINE
  5
1D957
330
747D
100
AcDbEntity
  8
部品1
 48
50.0
100
AcDbLine
 10
7909.213011273902
 20
7612.91903611286
 30
0.0
 11
7909.213011273902
 21
7732.919036112861
 31
0.0
  0
DIMENSION
  5
1D959
330
747D
100
AcDbEntity
  8
寸法
 48
50.0
100
AcDbDimension
  2
*D17
 10
6939.723195186918
 20
7612.91903611286
 30
0.0
 11
6939.723195186918
 21
7968.96628020735
 31
0.0
 70
   160
 71
     5
 42
119.9999999999972
  3
INABA_S40G
100
AcDbAlignedDimension
 13
6681.213011273896
 23
7732.919036112858
 33
0.0
 14
6709.213011273895
 24
7612.91903611286
 34
0.0
 50
90.0
100
AcDbRotatedDimension
1001
ACAD
1000
DSTYLE
1002
{
1070
   174
1070
     0
1070
   272
1070
     1
1070
   279
1070
     1
1070
   288
1070
     0
1070
   341
1005
0
1002
}
  0
LINE
  5
1D95A
330
747D
100
AcDbEntity
  8
センター
 48
2.0
100
AcDbLine
 10
9366.213011273897
 20
7609.91903611286
 30
0.0
 11
9466.213011273897
 21
7609.91903611286
 31
0.0
  0
CIRCLE
  5
1D95B
330
747D
100
AcDbEntity
  8
部品1
 48
50.0
100
AcDbCircle
 10
9416.213011273896
 20
7609.91903611286
 30
0.0
 40
35.0
  0
LINE
  5
1D95C
330
747D
100
AcDbEntity
  8
部品1
 48
50.0
100
AcDbLine
 10
9419.213011273894
 20
7502.919036112861
 30
0.0
 11
9309.213011273895
 21
7502.919036112858
 31
0.0
  0
LINE
  5
1D95D
330
747D
100
AcDbEntity
  8
部品1
 48
50.0
100
AcDbLine
 10
9309.213011273895
 20
7502.919036112858
 30
0.0
 11
9309.213011273895
 21
7612.91903611286
 31
0.0
  0
LINE
  5
1D95E
330
747D
100
AcDbEntity
  8
部品1
 48
50.0
100
AcDbLine
 10
9539.213011273899
 20
6512.919036112861
 30
0.0
 11
9419.213011273894
 21
6512.919036112861
 31
0.0
  0
LINE
  5
1D95F
330
747D
100
AcDbEntity
  8
部品1
 48
50.0
100
AcDbLine
 10
9539.213011273899
 20
6312.919036112861
 30
0.0
 11
9419.213011273894
 21
6312.919036112861
 31
0.0
  0
LINE
  5
1D961
330
747D
100
AcDbEntity
  8
センター
 48
2.0
100
AcDbLine
 10
9416.213011273896
 20
7659.91903611286
 30
0.0
 11
9416.213011273896
 21
7559.91903611286
 31
0.0
  0
TEXT
  5
1DEDA
330
747D
100
AcDbEntity
  8
文字
 62
     7
 48
50.0
100
AcDbText
 10
13188.16259899338
 20
79.80631269190325
 30
0.0
 40
80.0
  1
※布基礎には換気口を設けてください。
  7
STYLE2
100
AcDbText
  0
MTEXT
  5
1E700
102
{ACAD_REACTORS
330
1E701
102
}
330
747D
100
AcDbEntity
  8
部品1
 62
     7
 48
50.0
100
AcDbMText
 10
10589.02999071
 20
7975.944479920812
 30
0.0
 40
120.0
 41
0.0
 71
     6
 72
     1
  1
基礎ボルト芯
  7
STYLE1
 73
     1
 44
1.0
1001
ACAD
1000
MTEXTBEGIN
1070
    73
1070
     1
1070
    44
1040
1.0
1070
    74
1070
     0
1000
MTEXTEND
  0
LEADER
  5
1E701
330
747D
100
AcDbEntity
  8
寸法
 48
50.0
100
AcDbLeader
  3
INABA_S40G
 71
     0
 73
     0
 74
     0
 75
     1
 40
120.0
 41
846.0000000000002
 76
     3
 10
9416.213011273896
 20
7609.91903611286
 30
0.0
 10
9603.029990710002
 20
7875.944479920812
 30
0.0
 10
9703.029990710001
 20
7875.944479920812
 30
0.0
340
1E700
1001
ACAD
1000
DSTYLE
1002
{
1070
   174
1070
     0
1070
   272
1070
     1
1070
   279
1070
     1
1070
   288
1070
     0
1070
   341
1005
0
1002
}
  0
DIMENSION
  5
1E96D
330
747D
100
AcDbEntity
  8
寸法
 48
50.0
100
AcDbDimension
  2
*D18
 10
8931.087028824595
 20
7732.919036112862
 30
0.0
 11
8831.087028824594
 21
7295.419036112867
 31
0.0
 70
    32
 71
     5
 42
874.9999999999936
  3
INABA_S40G
100
AcDbAlignedDimension
 13
8785.713011273898
 23
6857.919036112868
 33
0.0
 14
8876.713011273906
 24
7732.919036112862
 34
0.0
 50
90.0
100
AcDbRotatedDimension
1001
ACAD
1000
DSTYLE
1002
{
1070
   174
1070
     0
1070
   272
1070
     1
1070
   279
1070
     1
1070
   288
1070
     0
1070
   341
1005
0
1002
}
  0
DIMENSION
  5
1E98B
330
747D
100
AcDbEntity
  8
寸法
 48
50.0
100
AcDbDimension
  2
*D19
 10
8931.087028824606
 20
5967.919036112861
 30
0.0
 11
8937.557571339553
 21
5474.500182931485
 31
0.0
 70
   160
 71
     5
 42
874.9999999999927
  3
INABA_S40G
100
AcDbAlignedDimension
 13
8876.713011273906
 23
5092.919036112869
 33
0.0
 14
8785.713011273898
 24
5967.919036112861
 34
0.0
 50
90.0
100
AcDbRotatedDimension
1001
ACAD
1000
DSTYLE
1002
{
1070
   174
1070
     0
1070
   272
1070
     1
1070
   279
1070
     1
1070
   288
1070
     0
1070
   341
1005
0
1002
}
  0
MTEXT
  5
1F11B
102
{ACAD_REACTORS
330
1F11C
102
}
330
747D
100
AcDbEntity
  8
部品1
 62
     7
 48
50.0
100
AcDbMText
 10
10609.45019787839
 20
6117.901644153088
 30
0.0
 40
120.0
 41
0.0
 71
     6
 72
     1
  1
床下換気口
  7
STYLE1
 73
     1
 44
1.0
1001
ACAD
1000
MTEXTBEGIN
1070
    73
1070
     1
1070
    44
1040
1.0
1070
    74
1070
     0
1000
MTEXTEND
  0
LEADER
  5
1F11C
330
747D
100
AcDbEntity
  8
寸法
 48
50.0
100
AcDbLeader
  3
INABA_S40G
 71
     0
 73
     0
 74
     0
 75
     1
 40
120.0
 41
720.0000000000001
 76
     3
 10
9539.213011273899
 20
6412.919036112879
 30
0.0
 10
9749.45019787839
 20
6017.901644153088
 30
0.0
 10
9849.45019787839
 20
6017.901644153088
 30
0.0
340
1F11B
1001
ACAD
1000
DSTYLE
1002
{
1070
   174
1070
     0
1070
   272
1070
     1
1070
   279
1070
     1
1070
   288
1070
     0
1070
   341
1005
0
1002
}
  0
DIMENSION
  5
1F248
330
747D
100
AcDbEntity
  8
寸法
 48
50.0
100
AcDbDimension
  2
*D21
 10
8736.213011273896
 20
8259.828801761191
 30
0.0
 11
9115.983146456347
 21
8258.0907670682
 31
0.0
 70
   160
 71
     5
 42
802.9999999999963
  3
INABA_S40G
100
AcDbAlignedDimension
 13
9539.213011273892
 23
7732.919036112862
 33
0.0
 14
8736.213011273896
 24
7057.919036112868
 34
0.0
100
AcDbRotatedDimension
1001
ACAD
1000
DSTYLE
1002
{
1070
   174
1070
     0
1070
   272
1070
     1
1070
   279
1070
     1
1070
   288
1070
     0
1070
   341
1005
0
1002
}
  0
DIMENSION
  5
1F249
330
747D
100
AcDbEntity
  8
寸法
 48
50.0
100
AcDbDimension
  2
*D20
 10
6479.213011273895
 20
8259.828801761191
 30
0.0
 11
6880.713011273894
 21
8359.828801761191
 31
0.0
 70
    32
 71
     5
 42
803.0000000000018
  3
INABA_S40G
100
AcDbAlignedDimension
 13
7282.213011273896
 23
7057.91903611287
 33
0.0
 14
6479.213011273895
 24
7732.919036112862
 34
0.0
100
AcDbRotatedDimension
1001
ACAD
1000
DSTYLE
1002
{
1070
   174
1070
     0
1070
   272
1070
     1
1070
   279
1070
     1
1070
   288
1070
     0
1070
   341
1005
0
1002
}
  0
LINE
  5
1F940
330
747D
100
AcDbEntity
  8
センター
 48
2.0
100
AcDbLine
 10
8736.213011273898
 20
6907.919036112868
 30
0.0
 11
8736.213011273898
 21
6807.919036112868
 31
0.0
  0
LINE
  5
1F941
330
747D
100
AcDbEntity
  8
部品1
 48
50.0
100
AcDbLine
 10
8836.213011273898
 20
6657.919036112867
 30
0.0
 11
8836.213011273898
 21
7057.91903611287
 31
0.0
  0
LINE
  5
1F942
330
747D
100
AcDbEntity
  8
部品1
 48
50.0
100
AcDbLine
 10
8636.213011273897
 20
6659.461499254287
 30
0.0
 11
8636.213011273904
 21
7057.91903611287
 31
0.0
  0
LINE
  5
1F943
330
747D
100
AcDbEntity
  8
センター
 48
2.0
100
AcDbLine
 10
8686.213011273897
 20
6857.919036112868
 30
0.0
 11
8786.213011273899
 21
6857.919036112868
 31
0.0
  0
LINE
  5
1FDB5
330
747D
100
AcDbEntity
  8
想像線
 48
10.0
100
AcDbLine
 10
6437.213011273897
 20
7807.91903611286
 30
0.0
 11
6434.213011273898
 21
7804.91903611286
 31
0.0
  0
LINE
  5
1FDB8
330
747D
100
AcDbEntity
  8
部品1
 48
50.0
100
AcDbLine
 10
6479.213011273895
 20
5095.919036112856
 30
0.0
 11
6482.213011273895
 21
5092.919036112856
 31
0.0
  0
LINE
  5
1FDB9
330
747D
100
AcDbEntity
  8
想像線
 48
10.0
100
AcDbLine
 10
6434.213011273898
 20
5040.919036112861
 30
0.0
 11
6437.213011273897
 21
5037.919036112861
 31
0.0
  0
LINE
  5
1FE23
330
747D
100
AcDbEntity
  8
センター
 48
2.0
100
AcDbLine
 10
7232.213011273896
 20
6857.919036112869
 30
0.0
 11
7332.213011273896
 21
6857.919036112869
 31
0.0
  0
LINE
  5
1FE24
330
747D
100
AcDbEntity
  8
部品1
 48
50.0
100
AcDbLine
 10
7182.213011273894
 20
6657.919036112868
 30
0.0
 11
7182.213011273899
 21
7057.91903611287
 31
0.0
  0
LINE
  5
1FE25
330
747D
100
AcDbEntity
  8
部品1
 48
50.0
100
AcDbLine
 10
7382.213011273896
 20
6657.919036112868
 30
0.0
 11
7382.213011273897
 21
7057.91903611287
 31
0.0
  0
LINE
  5
1FE26
330
747D
100
AcDbEntity
  8
センター
 48
2.0
100
AcDbLine
 10
7282.213011273896
 20
6907.919036112869
 30
0.0
 11
7282.213011273896
 21
6807.91903611287
 31
0.0
  0
DIMENSION
  5
1FE4B
330
747D
100
AcDbEntity
  8
寸法
 48
50.0
100
AcDbDimension
  2
*D22
 10
8736.213011273896
 20
8259.828801761191
 30
0.0
 11
8372.713011273896
 21
8359.840612784813
 31
0.0
 70
    32
 71
     5
 42
727.0
  3
INABA_S40G
100
AcDbAlignedDimension
 13
8009.213011273896
 23
7057.91903611287
 33
0.0
 14
8736.213011273896
 24
7057.919036112868
 34
0.0
100
AcDbRotatedDimension
1001
ACAD
1000
DSTYLE
1002
{
1070
   174
1070
     0
1070
   272
1070
     1
1070
   279
1070
     1
1070
   288
1070
     0
1070
   341
1005
0
1002
}
  0
LINE
  5
1FE61
330
747D
100
AcDbEntity
  8
寸法
 48
50.0
100
AcDbLine
 10
9419.213011273894
 20
7069.528470221974
 30
0.0
 11
9419.213011273894
 21
6924.422404093454
 31
0.0
  0
LEADER
  5
1FEC1
330
747D
100
AcDbEntity
  8
寸法
 48
50.0
100
AcDbLeader
  3
INABA_S40G
 71
     0
 73
     0
 75
     1
 40
120.0
 41
185.591883092037
 76
     3
 10
8680.423287550119
 20
6795.912101194047
 30
0.0
 10
8603.09779576958
 20
6603.118695381616
 30
0.0
 10
8503.09779576958
 20
6603.118695381616
 30
0.0
340
1FEC2
210
0.0
220
0.0
230
-1.0
213
-42.79594154601909
223
-42.66026254335156
233
0.0
1001
ACAD
1000
DSTYLE
1002
{
1070
   174
1070
     0
1070
   272
1070
     1
1070
   279
1070
     1
1070
   288
1070
     0
1070
   341
1005
0
1002
}
  0
MTEXT
  5
1FEC2
102
{ACAD_REACTORS
330
1FEC1
102
}
330
747D
100
AcDbEntity
  8
部品1
 62
     7
 48
50.0
100
AcDbMText
 10
8505.893737315599
 20
6665.778957924968
 30
0.0
 40
120.0
 41
0.0
 71
     6
 72
     1
  1
\A1;C.B
  7
STYLE1
 73
     1
 44
1.0
1001
ACAD
1000
MTEXTBEGIN
1070
    73
1070
     1
1070
    44
1040
1.0
1070
    74
1070
     0
1000
MTEXTEND
  0
LINE
  5
2076F
330
747D
100
AcDbEntity
  8
部品1
 48
50.0
100
AcDbLine
 10
7382.213011273896
 20
7057.91903611287
 30
0.0
 11
7182.213011273896
 21
7057.91903611287
 31
0.0
  0
LINE
  5
20770
330
747D
100
AcDbEntity
  8
部品1
 48
50.0
100
AcDbLine
 10
8836.213011273896
 20
7057.919036112868
 30
0.0
 11
8636.213011273897
 21
7057.919036112868
 31
0.0
  0
LINE
  5
20771
330
747D
100
AcDbEntity
  8
部品1
 48
50.0
100
AcDbLine
 10
7382.213011273896
 20
6657.919036112868
 30
0.0
 11
7182.213011273896
 21
6657.919036112868
 31
0.0
  0
LINE
  5
20772
330
747D
100
AcDbEntity
  8
部品1
 48
50.0
100
AcDbLine
 10
8836.213011273896
 20
6657.919036112867
 30
0.0
 11
8636.213011273897
 21
6657.919036112867
 31
0.0
  0
LINE
  5
20D41
330
747D
100
AcDbEntity
  8
部品1
 48
50.0
100
AcDbLine
 10
8109.213011273896
 20
6657.919036112868
 30
0.0
 11
7909.213011273895
 21
6657.919036112868
 31
0.0
  0
LINE
  5
20D42
330
747D
100
AcDbEntity
  8
部品1
 48
50.0
100
AcDbLine
 10
8109.213011273896
 20
7057.91903611287
 30
0.0
 11
7909.213011273895
 21
7057.91903611287
 31
0.0
  0
LINE
  5
20D43
330
747D
100
AcDbEntity
  8
センター
 48
2.0
100
AcDbLine
 10
8009.213011273896
 20
6907.919036112869
 30
0.0
 11
8009.213011273896
 21
6807.91903611287
 31
0.0
  0
LINE
  5
20D44
330
747D
100
AcDbEntity
  8
部品1
 48
50.0
100
AcDbLine
 10
8109.213011273892
 20
6657.919036112868
 30
0.0
 11
8109.213011273899
 21
7057.91903611287
 31
0.0
  0
LINE
  5
20D45
330
747D
100
AcDbEntity
  8
部品1
 48
50.0
100
AcDbLine
 10
7909.213011273894
 20
6657.919036112868
 30
0.0
 11
7909.213011273898
 21
7057.91903611287
 31
0.0
  0
LINE
  5
20D46
330
747D
100
AcDbEntity
  8
センター
 48
2.0
100
AcDbLine
 10
7959.213011273895
 20
6857.919036112869
 30
0.0
 11
8059.213011273895
 21
6857.919036112869
 31
0.0
  0
DIMENSION
  5
20D50
330
747D
100
AcDbEntity
  8
寸法
 48
50.0
100
AcDbDimension
  2
*D23
 10
8009.213011273898
 20
8259.828801761191
 30
0.0
 11
7645.713011273897
 21
8359.840612784813
 31
0.0
 70
    32
 71
     5
 42
727.0000000000009
  3
INABA_S40G
100
AcDbAlignedDimension
 13
7282.213011273896
 23
7057.91903611287
 33
0.0
 14
8009.213011273898
 24
7057.91903611287
 34
0.0
100
AcDbRotatedDimension
1001
ACAD
1000
DSTYLE
1002
{
1070
   174
1070
     0
1070
   272
1070
     1
1070
   279
1070
     1
1070
   288
1070
     0
1070
   341
1005
0
1002
}
  0
LINE
  5
20E19
330
747D
100
AcDbEntity
  8
センター
 48
2.0
100
AcDbLine
 10
7959.213011273902
 20
5967.919036112863
 30
0.0
 11
8059.213011273902
 21
5967.919036112863
 31
0.0
  0
LINE
  5
20E1A
330
747D
100
AcDbEntity
  8
部品1
 48
50.0
100
AcDbLine
 10
7909.213011273902
 20
5767.919036112861
 30
0.0
 11
7909.213011273905
 21
6167.919036112863
 31
0.0
  0
LINE
  5
20E1B
330
747D
100
AcDbEntity
  8
部品1
 48
50.0
100
AcDbLine
 10
8109.213011273903
 20
5767.919036112861
 30
0.0
 11
8109.213011273903
 21
6167.919036112863
 31
0.0
  0
LINE
  5
20E1C
330
747D
100
AcDbEntity
  8
センター
 48
2.0
100
AcDbLine
 10
8009.213011273903
 20
6017.919036112862
 30
0.0
 11
8009.213011273903
 21
5917.919036112863
 31
0.0
  0
LINE
  5
20E1D
330
747D
100
AcDbEntity
  8
部品1
 48
50.0
100
AcDbLine
 10
8109.213011273903
 20
6167.919036112863
 30
0.0
 11
7909.213011273902
 21
6167.919036112863
 31
0.0
  0
LINE
  5
20E1E
330
747D
100
AcDbEntity
  8
部品1
 48
50.0
100
AcDbLine
 10
8109.213011273903
 20
5767.919036112861
 30
0.0
 11
7909.213011273902
 21
5767.919036112861
 31
0.0
  0
LINE
  5
20E1F
330
747D
100
AcDbEntity
  8
部品1
 48
50.0
100
AcDbLine
 10
8836.213011273903
 20
5767.91903611286
 30
0.0
 11
8636.213011273904
 21
5767.91903611286
 31
0.0
  0
LINE
  5
20E20
330
747D
100
AcDbEntity
  8
部品1
 48
50.0
100
AcDbLine
 10
7382.213011273903
 20
5767.919036112861
 30
0.0
 11
7182.213011273903
 21
5767.919036112861
 31
0.0
  0
LINE
  5
20E21
330
747D
100
AcDbEntity
  8
部品1
 48
50.0
100
AcDbLine
 10
8836.213011273903
 20
6167.919036112861
 30
0.0
 11
8636.213011273904
 21
6167.919036112861
 31
0.0
  0
LINE
  5
20E22
330
747D
100
AcDbEntity
  8
部品1
 48
50.0
100
AcDbLine
 10
7382.213011273903
 20
6167.919036112863
 30
0.0
 11
7182.213011273903
 21
6167.919036112863
 31
0.0
  0
LINE
  5
20E23
330
747D
100
AcDbEntity
  8
センター
 48
2.0
100
AcDbLine
 10
7282.213011273903
 20
6017.919036112862
 30
0.0
 11
7282.213011273903
 21
5917.919036112863
 31
0.0
  0
LINE
  5
20E24
330
747D
100
AcDbEntity
  8
部品1
 48
50.0
100
AcDbLine
 10
7382.213011273901
 20
5767.919036112861
 30
0.0
 11
7382.213011273903
 21
6167.919036112863
 31
0.0
  0
LINE
  5
20E25
330
747D
100
AcDbEntity
  8
部品1
 48
50.0
100
AcDbLine
 10
7182.2130112739
 20
5767.919036112861
 30
0.0
 11
7182.213011273906
 21
6167.919036112863
 31
0.0
  0
LINE
  5
20E26
330
747D
100
AcDbEntity
  8
センター
 48
2.0
100
AcDbLine
 10
7232.213011273903
 20
5967.919036112863
 30
0.0
 11
7332.213011273903
 21
5967.919036112863
 31
0.0
  0
LINE
  5
20E27
330
747D
100
AcDbEntity
  8
センター
 48
2.0
100
AcDbLine
 10
8686.213011273904
 20
5967.919036112861
 30
0.0
 11
8786.213011273904
 21
5967.919036112861
 31
0.0
  0
LINE
  5
20E28
330
747D
100
AcDbEntity
  8
部品1
 48
50.0
100
AcDbLine
 10
8636.2130112739
 20
5767.91903611286
 30
0.0
 11
8636.213011273909
 21
6167.919036112861
 31
0.0
  0
LINE
  5
20E29
330
747D
100
AcDbEntity
  8
部品1
 48
50.0
100
AcDbLine
 10
8836.213011273903
 20
5767.91903611286
 30
0.0
 11
8836.213011273903
 21
6167.91903611286
 31
0.0
  0
LINE
  5
20E2A
330
747D
100
AcDbEntity
  8
センター
 48
2.0
100
AcDbLine
 10
8736.213011273903
 20
6017.919036112861
 30
0.0
 11
8736.213011273903
 21
5917.919036112861
 31
0.0
  0
DIMENSION
  5
20E34
330
747D
100
AcDbEntity
  8
寸法
 48
50.0
100
AcDbDimension
  2
*D24
 10
8930.587028824602
 20
6857.919036112868
 30
0.0
 11
8930.587028824602
 21
6412.919036112865
 31
0.0
 70
   160
 71
     5
 42
890.0000000000073
  3
INABA_S40G
100
AcDbAlignedDimension
 13
8786.213011273904
 23
5967.919036112861
 33
0.0
 14
8785.213011273892
 24
6857.919036112868
 34
0.0
 50
90.0
100
AcDbRotatedDimension
1001
ACAD
1000
DSTYLE
1002
{
1070
   174
1070
     0
1070
   272
1070
     1
1070
   279
1070
     1
1070
   288
1070
     0
1070
   341
1005
0
1002
}
  0
MTEXT
  5
2135C
102
{ACAD_REACTORS
330
2135D
102
}
330
747D
100
AcDbEntity
  8
寸法
 62
     7
 48
50.0
100
AcDbMText
 10
10559.07348938965
 20
2160.104789082994
 30
0.0
 40
120.0
 41
0.8
 71
     4
 72
     1
  1
\A1;C.B
  7
STYLE1
 73
     1
 44
1.0
1001
ACAD
1000
MTEXTBEGIN
1070
    73
1070
     1
1070
    44
1040
1.0
1070
    74
1070
     0
1000
MTEXTEND
  0
LEADER
  5
2135D
330
747D
100
AcDbEntity
  8
寸法
 48
50.0
100
AcDbLeader
  3
INABA_S40G
 73
     0
 74
     0
 75
     1
 40
120.0
 41
185.591883092037
 76
     3
 10
10375.93528275601
 20
1902.958468401857
 30
0.0
 10
10419.07348938965
 20
2060.104789082995
 30
0.0
 10
10519.07348938965
 20
2060.104789082995
 30
0.0
340
2135C
1001
ACAD
1000
DSTYLE
1002
{
1070
   174
1070
     0
1070
   272
1070
     1
1070
   279
1070
     1
1070
   288
1070
     0
1070
   341
1005
0
1002
}
  0
LINE
  5
2135E
330
747D
100
AcDbEntity
  8
細線
 48
50.0
100
AcDbLine
 10
10521.58869633242
 20
1547.259552748506
 30
0.0
 11
10515.15791571407
 21
1571.259552748506
 31
0.0
  0
LINE
  5
2135F
330
747D
100
AcDbEntity
  8
細線
 48
50.0
100
AcDbLine
 10
10500.15276093793
 20
1467.259552748506
 30
0.0
 11
10506.58354155627
 21
1443.259552748506
 31
0.0
  0
LINE
  5
21360
330
747D
100
AcDbEntity
  8
部品1
100
AcDbLine
 10
10565.21087114008
 20
1662.958468401857
 30
0.0
 11
10565.21087114008
 21
1443.259552748506
 31
0.0
  0
LINE
  5
21361
330
747D
100
AcDbEntity
  8
細線
 48
50.0
100
AcDbLine
 10
10493.72198031957
 20
1443.259552748506
 30
0.0
 11
10528.01947695076
 21
1571.259552748504
 31
0.0
  0
LINE
  5
21362
330
747D
100
AcDbEntity
  8
細線
 48
50.0
100
AcDbLine
 10
10442.70065138517
 20
1547.259552748506
 30
0.0
 11
10436.26987076682
 21
1571.259552748506
 31
0.0
  0
LINE
  5
21363
330
747D
100
AcDbEntity
  8
細線
100
AcDbLine
 10
10318.24726563942
 20
1571.259552748508
 30
0.0
 11
10409.94618129276
 21
1662.958468401857
 31
0.0
  0
LINE
  5
21364
330
747D
100
AcDbEntity
  8
細線
 48
50.0
100
AcDbLine
 10
10363.81260643791
 20
1547.259552748507
 30
0.0
 11
10357.38182581957
 21
1571.259552748507
 31
0.0
  0
LINE
  5
21365
330
747D
100
AcDbEntity
  8
細線
100
AcDbLine
 10
10352.18839113637
 20
1571.259552748508
 30
0.0
 11
10443.88730678971
 21
1662.958468401857
 31
0.0
  0
LINE
  5
21366
330
747D
100
AcDbEntity
  8
細線
 48
50.0
100
AcDbLine
 10
10127.14847159618
 20
1547.259552748507
 30
0.0
 11
10120.71769097784
 21
1571.259552748507
 31
0.0
  0
LINE
  5
21367
330
747D
100
AcDbEntity
  8
細線
 48
50.0
100
AcDbLine
 10
10206.03651654343
 20
1547.259552748507
 30
0.0
 11
10199.60573592508
 21
1571.259552748507
 31
0.0
  0
LINE
  5
21368
330
747D
100
AcDbEntity
  8
細線
 48
50.0
100
AcDbLine
 10
10284.92456149067
 20
1547.259552748507
 30
0.0
 11
10278.49378087233
 21
1571.259552748507
 31
0.0
  0
LINE
  5
21369
330
747D
100
AcDbEntity
  8
細線
 48
50.0
100
AcDbLine
 10
10421.26471599068
 20
1467.259552748506
 30
0.0
 11
10427.69549660903
 21
1443.259552748506
 31
0.0
  0
LINE
  5
2136A
330
747D
100
AcDbEntity
  8
細線
 48
50.0
100
AcDbLine
 10
10342.37667104343
 20
1467.259552748507
 30
0.0
 11
10348.80745166179
 21
1443.259552748506
 31
0.0
  0
LINE
  5
2136B
330
747D
100
AcDbEntity
  8
細線
 48
50.0
100
AcDbLine
 10
10184.60058114894
 20
1467.259552748507
 30
0.0
 11
10191.03136176729
 21
1443.259552748506
 31
0.0
  0
LINE
  5
2136C
330
747D
100
AcDbEntity
  8
細線
 48
50.0
100
AcDbLine
 10
10263.48862609618
 20
1467.259552748507
 30
0.0
 11
10269.91940671453
 21
1443.259552748506
 31
0.0
  0
LINE
  5
2136D
330
747D
100
AcDbEntity
  8
細線
 48
50.0
100
AcDbLine
 10
10257.05784547783
 20
1443.259552748506
 30
0.0
 11
10291.35534210902
 21
1571.259552748506
 31
0.0
  0
LINE
  5
2136E
330
747D
100
AcDbEntity
  8
細線
 48
50.0
100
AcDbLine
 10
10178.16980053059
 20
1443.259552748506
 30
0.0
 11
10212.46729716177
 21
1571.259552748506
 31
0.0
  0
LINE
  5
2136F
330
747D
100
AcDbEntity
  8
細線
 48
50.0
100
AcDbLine
 10
10335.94589042508
 20
1443.259552748506
 30
0.0
 11
10370.24338705626
 21
1571.259552748507
 31
0.0
  0
LINE
  5
21370
330
747D
100
AcDbEntity
  8
細線
100
AcDbLine
 10
10386.12951663332
 20
1571.259552748508
 30
0.0
 11
10477.82843228667
 21
1662.958468401857
 31
0.0
  0
LINE
  5
21371
330
747D
100
AcDbEntity
  8
細線
 48
50.0
100
AcDbLine
 10
10414.83393537233
 20
1443.259552748504
 30
0.0
 11
10449.13143200352
 21
1571.259552748504
 31
0.0
  0
LINE
  5
21372
330
747D
100
AcDbEntity
  8
部品1
100
AcDbLine
 10
10445.21087114008
 20
1902.958468401857
 30
0.0
 11
10445.21087114008
 21
1662.958468401857
 31
0.0
  0
LINE
  5
21373
330
747D
100
AcDbEntity
  8
細線
100
AcDbLine
 10
10431.3732087925
 20
1662.958468401859
 30
0.0
 11
10191.3732087925
 21
1902.958468401857
 31
0.0
  0
LINE
  5
21374
330
747D
100
AcDbEntity
  8
細線
100
AcDbLine
 10
10380.46152054707
 20
1662.958468401857
 30
0.0
 11
10140.46152054707
 21
1902.958468401857
 31
0.0
  0
LINE
  5
21375
330
747D
100
AcDbEntity
  8
細線
100
AcDbLine
 10
9992.188391136371
 20
1571.259552748507
 30
0.0
 11
10083.88730678971
 21
1662.958468401857
 31
0.0
  0
LINE
  5
21376
330
747D
100
AcDbEntity
  8
細線
100
AcDbLine
 10
9958.247265639414
 20
1571.259552748507
 30
0.0
 11
10049.94618129276
 21
1662.958468401857
 31
0.0
  0
LINE
  5
21377
330
747D
100
AcDbEntity
  8
細線
 48
50.0
100
AcDbLine
 10
9969.372381701687
 20
1547.259552748507
 30
0.0
 11
9962.94160108334
 21
1571.259552748507
 31
0.0
  0
LINE
  5
21378
330
747D
100
AcDbEntity
  8
細線
 48
50.0
100
AcDbLine
 10
10048.26042664894
 20
1547.259552748507
 30
0.0
 11
10041.82964603059
 21
1571.259552748507
 31
0.0
  0
LINE
  5
21379
330
747D
100
AcDbEntity
  8
細線
 48
50.0
100
AcDbLine
 10
9890.484336754434
 20
1547.259552748507
 30
0.0
 11
9884.053556136088
 21
1571.259552748507
 31
0.0
  0
LINE
  5
2137A
330
747D
100
AcDbEntity
  8
細線
 48
50.0
100
AcDbLine
 10
10105.71253620169
 20
1467.259552748507
 30
0.0
 11
10112.14331682004
 21
1443.259552748506
 31
0.0
  0
LINE
  5
2137B
330
747D
100
AcDbEntity
  8
細線
 48
50.0
100
AcDbLine
 10
10026.82449125445
 20
1467.259552748507
 30
0.0
 11
10033.25527187279
 21
1443.259552748506
 31
0.0
  0
LINE
  5
2137C
330
747D
100
AcDbEntity
  8
細線
 48
50.0
100
AcDbLine
 10
9869.048401359947
 20
1467.259552748507
 30
0.0
 11
9875.479181978294
 21
1443.259552748506
 31
0.0
  0
LINE
  5
2137D
330
747D
100
AcDbEntity
  8
細線
 48
50.0
100
AcDbLine
 10
9947.936446307195
 20
1467.259552748507
 30
0.0
 11
9954.367226925544
 21
1443.259552748506
 31
0.0
  0
LINE
  5
2137E
330
747D
100
AcDbEntity
  8
部品1
100
AcDbLine
 10
9845.210871140086
 20
1443.259552748503
 30
0.0
 11
9845.210871140086
 21
1662.958468401857
 31
0.0
  0
LINE
  5
2137F
330
747D
100
AcDbEntity
  8
細線
 48
50.0
100
AcDbLine
 10
9862.617620741598
 20
1443.259552748506
 30
0.0
 11
9896.915117372783
 21
1571.259552748507
 31
0.0
  0
LINE
  5
21380
330
747D
100
AcDbEntity
  8
細線
 48
50.0
100
AcDbLine
 10
10020.39371063609
 20
1443.259552748506
 30
0.0
 11
10054.69120726728
 21
1571.259552748507
 31
0.0
  0
LINE
  5
21381
330
747D
100
AcDbEntity
  8
細線
 48
50.0
100
AcDbLine
 10
9941.505665688845
 20
1443.259552748506
 30
0.0
 11
9975.803162320028
 21
1571.259552748506
 31
0.0
  0
LINE
  5
21382
330
747D
100
AcDbEntity
  8
部品1
100
AcDbLine
 10
9965.210871140087
 20
1662.958468401857
 30
0.0
 11
9965.210871140087
 21
1902.958468401857
 31
0.0
  0
TEXT
  5
21383
330
747D
100
AcDbEntity
  8
部品1
 48
50.0
100
AcDbText
 10
9201.092784381582
 20
1396.158727764548
 30
0.0
 40
80.0
  1
ボルトの出
 50
90.0
  7
STYLE2
100
AcDbText
  0
LINE
  5
21384
330
747D
100
AcDbEntity
  8
細線
100
AcDbLine
 10
10108.93251657144
 20
1662.958468401857
 30
0.0
 11
9965.210871140087
 21
1806.68011383321
 31
0.0
  0
LWPOLYLINE
  5
21385
330
747D
100
AcDbEntity
  8
部品1
 48
50.0
100
AcDbPolyline
 90
        2
 70
     0
 43
12.0
 10
9580.599609039698
 20
1662.958468401857
 10
10781.69191217132
 20
1662.958468401857
  0
LINE
  5
21386
330
747D
100
AcDbEntity
  8
細線
100
AcDbLine
 10
10026.12951663333
 20
1571.259552748507
 30
0.0
 11
10117.82843228667
 21
1662.958468401857
 31
0.0
  0
LINE
  5
21387
330
747D
100
AcDbEntity
  8
部品1
100
AcDbLine
 10
9845.210871140086
 20
1571.259552748507
 30
0.0
 11
10565.21087114008
 21
1571.259552748509
 31
0.0
  0
LINE
  5
21388
330
747D
100
AcDbEntity
  8
部品1
100
AcDbLine
 10
9845.210871140086
 20
1443.259552748503
 30
0.0
 11
10565.21087114008
 21
1443.259552748506
 31
0.0
  0
LINE
  5
21389
330
747D
100
AcDbEntity
  8
細線
 48
50.0
100
AcDbLine
 10
10099.28175558334
 20
1443.259552748506
 30
0.0
 11
10133.57925221453
 21
1571.259552748506
 31
0.0
  0
LINE
  5
2138A
330
747D
100
AcDbEntity
  8
部品1
100
AcDbLine
 10
9965.210871140087
 20
1902.958468401857
 30
0.0
 11
10445.21087114008
 21
1902.958468401857
 31
0.0
  0
LINE
  5
2138B
330
747D
100
AcDbEntity
  8
細線
100
AcDbLine
 10
10159.84420481687
 20
1662.958468401857
 30
0.0
 11
9965.210871140087
 21
1857.59180207864
 31
0.0
  0
LINE
  5
2138C
330
747D
100
AcDbEntity
  8
部品1
100
AcDbLine
 10
11151.95237223711
 20
259.6231185940546
 30
0.0
 11
11151.95237223712
 21
3223.930088178702
 31
0.0
  0
TEXT
  5
2138D
330
747D
100
AcDbEntity
  8
部品1
100
AcDbText
 10
7773.847188029257
 20
3044.378156227274
 30
0.0
 40
120.0
  1
基礎詳細
  7
STYLE2
100
AcDbText
  0
LINE
  5
2138E
330
747D
100
AcDbEntity
  8
部品1
 48
50.0
100
AcDbLine
 10
8089.074938837327
 20
2301.833749511
 30
0.0
 11
8105.074938837327
 21
2293.833749511
 31
0.0
  0
LINE
  5
2138F
330
747D
100
AcDbEntity
  8
細線
 48
50.0
100
AcDbLine
 10
8057.074938837329
 20
2253.833749511
 30
0.0
 11
8057.074938837329
 21
2285.833749511
 31
0.0
  0
LINE
  5
21390
330
747D
100
AcDbEntity
  8
部品1
 48
50.0
100
AcDbLine
 10
8105.074938837327
 20
2261.833749511
 30
0.0
 11
8105.074938837327
 21
2293.833749511
 31
0.0
  0
LINE
  5
21391
330
747D
100
AcDbEntity
  8
細線
 48
50.0
100
AcDbLine
 10
8089.074938837327
 20
2253.833749511
 30
0.0
 11
8089.074938837327
 21
2285.833749511
 31
0.0
  0
LINE
  5
21392
330
747D
100
AcDbEntity
  8
部品1
 48
50.0
100
AcDbLine
 10
8089.074938837327
 20
2285.833749511
 30
0.0
 11
8105.074938837327
 21
2293.833749511
 31
0.0
  0
LINE
  5
21393
330
747D
100
AcDbEntity
  8
部品1
 48
50.0
100
AcDbLine
 10
8057.074938837329
 20
2285.833749511
 30
0.0
 11
8089.074938837327
 21
2285.833749511
 31
0.0
  0
LINE
  5
21394
330
747D
100
AcDbEntity
  8
部品1
 48
50.0
100
AcDbLine
 10
8089.074938837327
 20
2253.833749511
 30
0.0
 11
8105.074938837327
 21
2261.833749511
 31
0.0
  0
LINE
  5
21395
330
747D
100
AcDbEntity
  8
部品1
 48
50.0
100
AcDbLine
 10
8057.074938837329
 20
2253.833749511
 30
0.0
 11
8089.074938837327
 21
2253.833749511
 31
0.0
  0
ELLIPSE
  5
21396
330
747D
100
AcDbEntity
  8
細線
 48
50.0
100
AcDbEllipse
 10
8073.074938837327
 20
2293.833749511
 30
0.0
 11
14.76670786606846
 21
0.0
 31
0.0
210
0.0
220
0.0
230
1.0
 40
0.2071254069489396
 41
0.0
 42
6.283185307179586
  0
LINE
  5
21397
330
747D
100
AcDbEntity
  8
部品1
 48
50.0
100
AcDbLine
 10
8057.074938837329
 20
2301.833749511
 30
0.0
 11
8089.074938837327
 21
2301.833749511
 31
0.0
  0
LINE
  5
21398
330
747D
100
AcDbEntity
  8
部品1
 48
50.0
100
AcDbLine
 10
8041.074938837327
 20
2261.833749511
 30
0.0
 11
8041.074938837327
 21
2293.833749511
 31
0.0
  0
LINE
  5
21399
330
747D
100
AcDbEntity
  8
部品1
 48
50.0
100
AcDbLine
 10
8041.074938837327
 20
2293.833749511
 30
0.0
 11
8057.074938837329
 21
2301.833749511
 31
0.0
  0
LINE
  5
2139A
330
747D
100
AcDbEntity
  8
部品1
 48
50.0
100
AcDbLine
 10
8041.074938837327
 20
2261.833749511
 30
0.0
 11
8057.074938837329
 21
2253.833749511
 31
0.0
  0
LINE
  5
2139B
330
747D
100
AcDbEntity
  8
部品1
 48
50.0
100
AcDbLine
 10
8041.074938837327
 20
2293.833749511
 30
0.0
 11
8057.074938837329
 21
2285.833749511
 31
0.0
  0
LINE
  5
2139C
330
747D
100
AcDbEntity
  8
部品1
 48
50.0
100
AcDbLine
 10
8113.074938837327
 20
2162.481756846129
 30
0.0
 11
8113.074938837327
 21
2172.081756846129
 31
0.0
  0
ELLIPSE
  5
2139D
330
747D
100
AcDbEntity
  8
部品1
 48
50.0
100
AcDbEllipse
 10
8073.074938837327
 20
2172.081756846129
 30
0.0
 11
18.4
 21
0.0
 31
0.0
210
0.0
220
0.0
230
1.0
 40
0.3478260869565217
 41
0.0
 42
6.283185307179586
  0
ARC
  5
2139E
330
747D
100
AcDbEntity
  8
部品1
100
AcDbCircle
 10
7911.974938837328
 20
2001.058468401857
 30
0.0
 40
2.7
100
AcDbArc
 50
90.0
 51
180.0
  0
LINE
  5
2139F
330
747D
100
AcDbEntity
  8
部品1
100
AcDbLine
 10
7914.674938837326
 20
2014.558468401857
 30
0.0
 11
7956.974938837328
 21
2014.558468401854
 31
0.0
  0
LINE
  5
213A0
330
747D
100
AcDbEntity
  8
部品1
100
AcDbLine
 10
7911.974938837328
 20
2003.758468401857
 30
0.0
 11
7911.974938837328
 21
2011.858468401857
 31
0.0
  0
LINE
  5
213A1
330
747D
100
AcDbEntity
  8
部品1
100
AcDbLine
 10
7911.974938837328
 20
2003.758468401857
 30
0.0
 11
7911.974938837328
 21
2003.758468401857
 31
0.0
  0
ARC
  5
213A2
330
747D
100
AcDbEntity
  8
部品1
100
AcDbCircle
 10
7914.674938837326
 20
2011.858468401857
 30
0.0
 40
2.7
100
AcDbArc
 50
90.0
 51
180.0
  0
ARC
  5
213A3
330
747D
100
AcDbEntity
  8
部品1
100
AcDbCircle
 10
7956.974938837328
 20
2011.858468401854
 30
0.0
 40
2.7
100
AcDbArc
 50
0.0
 51
90.0
  0
LINE
  5
213A4
330
747D
100
AcDbEntity
  8
部品1
 48
50.0
100
AcDbLine
 10
8033.074938837328
 20
2172.081756846129
 30
0.0
 11
8033.074938837328
 21
2162.481756846129
 31
0.0
  0
ELLIPSE
  5
213A5
330
747D
100
AcDbEntity
  8
部品1
 48
50.0
100
AcDbEllipse
 10
8073.074938837327
 20
2162.48175684613
 30
0.0
 11
40.0
 21
0.0
 31
0.0
210
0.0
220
0.0
230
1.0
 40
0.4
 41
3.141592653589793
 42
6.283185307179586
  0
ELLIPSE
  5
213A6
330
747D
100
AcDbEntity
  8
部品1
 48
50.0
100
AcDbEllipse
 10
8073.074938837327
 20
2172.081756846129
 30
0.0
 11
40.0
 21
0.0
 31
0.0
210
0.0
220
0.0
230
1.0
 40
0.4
 41
0.0
 42
6.283185307179586
  0
LINE
  5
213A7
330
747D
100
AcDbEntity
  8
部品1
100
AcDbLine
 10
8067.674938837326
 20
1955.718468401857
 30
0.0
 11
8078.474938837327
 21
1955.718468401857
 31
0.0
  0
LINE
  5
213A8
330
747D
100
AcDbEntity
  8
部品1
100
AcDbLine
 10
8064.074938837327
 20
1952.118468401857
 30
0.0
 11
8082.074938837328
 21
1952.118468401857
 31
0.0
  0
LINE
  5
213A9
330
747D
100
AcDbEntity
  8
細線
100
AcDbLine
 10
8067.674938837329
 20
1912.518468401857
 30
0.0
 11
8067.674938837326
 21
1955.718468401857
 31
0.0
  0
LINE
  5
213AA
330
747D
100
AcDbEntity
  8
細線
100
AcDbLine
 10
8078.474938837327
 20
1912.518468401857
 30
0.0
 11
8078.474938837327
 21
1955.718468401857
 31
0.0
  0
LINE
  5
213AB
330
747D
100
AcDbEntity
  8
部品1
100
AcDbLine
 10
7980.374938837328
 20
1969.818468401857
 30
0.0
 11
7980.374938837328
 21
1952.718468401857
 31
0.0
  0
LINE
  5
213AC
330
747D
100
AcDbEntity
  8
部品1
100
AcDbLine
 10
8013.934938837328
 20
1969.818468401857
 30
0.0
 11
8013.934938837325
 21
1915.218468401857
 31
0.0
  0
ARC
  5
213AD
330
747D
100
AcDbEntity
  8
部品1
100
AcDbCircle
 10
7999.274938837327
 20
1957.858468401856
 30
0.0
 40
2.7
100
AcDbArc
 50
0.0
 51
90.0
  0
LINE
  5
213AE
330
747D
100
AcDbEntity
  8
部品1
100
AcDbLine
 10
7959.674938837327
 20
1960.558468401857
 30
0.0
 11
7999.274938837327
 21
1960.558468401857
 31
0.0
  0
ARC
  5
213AF
330
747D
100
AcDbEntity
  8
部品1
100
AcDbCircle
 10
7999.274938837327
 20
1915.218468401857
 30
0.0
 40
2.7
100
AcDbArc
 50
270.0
 51
0.0
  0
ARC
  5
213B0
330
747D
100
AcDbEntity
  8
部品1
100
AcDbCircle
 10
8016.634938837322
 20
1915.218468401857
 30
0.0
 40
2.7
100
AcDbArc
 50
180.0
 51
270.0
  0
LINE
  5
213B1
330
747D
100
AcDbEntity
  8
部品1
100
AcDbLine
 10
7987.574938837328
 20
1912.518468401857
 30
0.0
 11
7999.274938837327
 21
1912.518468401857
 31
0.0
  0
LINE
  5
213B2
330
747D
100
AcDbEntity
  8
部品1
100
AcDbLine
 10
8001.974938837326
 20
1957.858468401856
 30
0.0
 11
8001.974938837326
 21
1915.218468401857
 31
0.0
  0
ARC
  5
213B3
330
747D
100
AcDbEntity
  8
部品1
100
AcDbCircle
 10
8011.234938837327
 20
1969.818468401857
 30
0.0
 40
2.7
100
AcDbArc
 50
0.0
 51
90.0
  0
ARC
  5
213B4
330
747D
100
AcDbEntity
  8
部品1
100
AcDbCircle
 10
7983.074938837328
 20
1969.818468401857
 30
0.0
 40
2.7
100
AcDbArc
 50
90.0
 51
180.0
  0
LINE
  5
213B5
330
747D
100
AcDbEntity
  8
部品1
100
AcDbLine
 10
7983.074938837328
 20
1972.518468401857
 30
0.0
 11
8011.234938837327
 21
1972.518468401857
 31
0.0
  0
LINE
  5
213B6
330
747D
100
AcDbEntity
  8
部品1
100
AcDbLine
 10
7959.674938837327
 20
2011.858468401854
 30
0.0
 11
7959.674938837327
 21
1960.558468401857
 31
0.0
  0
LINE
  5
213B7
330
747D
100
AcDbEntity
  8
部品1
100
AcDbLine
 10
7909.274938837326
 20
1992.958468401857
 30
0.0
 11
7909.274938837326
 21
2001.058468401857
 31
0.0
  0
LINE
  5
213B8
330
747D
100
AcDbEntity
  8
部品1
100
AcDbLine
 10
8016.634938837322
 20
1912.518468401857
 30
0.0
 11
8217.974938837322
 21
1912.518468401857
 31
0.0
  0
LINE
  5
213B9
330
747D
100
AcDbEntity
  8
部品1
100
AcDbLine
 10
7857.974938837327
 20
1915.218468401857
 30
0.0
 11
7857.974938837327
 21
1977.350372104565
 31
0.0
  0
LINE
  5
213BA
330
747D
100
AcDbEntity
  8
部品1
100
AcDbLine
 10
7860.674938837326
 20
1912.518468401857
 30
0.0
 11
7872.374938837322
 21
1912.518468401857
 31
0.0
  0
LINE
  5
213BB
330
747D
100
AcDbEntity
  8
細線
 48
50.0
100
AcDbLine
 10
7851.674938837327
 20
1890.739044701762
 30
0.0
 11
7863.894362537421
 21
1902.958468401857
 31
0.0
  0
ARC
  5
213BC
330
747D
100
AcDbEntity
  8
部品1
100
AcDbCircle
 10
7860.674938837326
 20
1915.218468401857
 30
0.0
 40
2.7
100
AcDbArc
 50
180.0
 51
270.0
  0
LINE
  5
213BD
330
747D
100
AcDbEntity
  8
部品1
100
AcDbLine
 10
7860.020092649728
 20
1979.969756854957
 30
0.0
 11
7868.774938837326
 21
1982.158468401857
 31
0.0
  0
ARC
  5
213BE
330
747D
100
AcDbEntity
  8
部品1
100
AcDbCircle
 10
7860.674938837326
 20
1977.350372104565
 30
0.0
 40
2.7
100
AcDbArc
 50
104.0362434679067
 51
180.0
  0
ARC
  5
213BF
330
747D
100
AcDbEntity
  8
部品1
100
AcDbCircle
 10
7871.474938837327
 20
1990.258468401857
 30
0.0
 40
2.7
100
AcDbArc
 50
90.0
 51
180.0
  0
LINE
  5
213C0
330
747D
100
AcDbEntity
  8
部品1
100
AcDbLine
 10
7868.774938837326
 20
1982.158468401857
 30
0.0
 11
7868.774938837326
 21
1990.258468401857
 31
0.0
  0
TEXT
  5
213C1
330
747D
100
AcDbEntity
  8
部品1
 48
50.0
100
AcDbText
 10
7425.228842257834
 20
2233.518989502333
 30
0.0
 40
80.0
  1
※(別売)
  7
STYLE2
100
AcDbText
  0
LINE
  5
213C2
330
747D
100
AcDbEntity
  8
部品1
 48
50.0
100
AcDbLine
 10
7851.674938837327
 20
1902.958468401857
 30
0.0
 11
8265.67493883733
 21
1902.958468401857
 31
0.0
  0
LINE
  5
213C3
330
747D
100
AcDbEntity
  8
細線
 48
50.0
100
AcDbLine
 10
7851.674938837327
 20
1836.857507975347
 30
0.0
 11
7917.775899263837
 21
1902.958468401857
 31
0.0
  0
LINE
  5
213C4
330
747D
100
AcDbEntity
  8
細線
 48
50.0
100
AcDbLine
 10
7851.674938837327
 20
1863.798276338554
 30
0.0
 11
7890.835130900632
 21
1902.958468401857
 31
0.0
  0
LINE
  5
213C5
330
747D
100
AcDbEntity
  8
部品1
100
AcDbLine
 10
7871.474938837327
 20
1992.958468401857
 30
0.0
 11
7909.274938837326
 21
1992.958468401857
 31
0.0
  0
LINE
  5
213C6
330
747D
100
AcDbEntity
  8
部品1
 48
50.0
100
AcDbLine
 10
8265.674938837326
 20
1358.958468401857
 30
0.0
 11
8393.674938837326
 21
1358.958468401857
 31
0.0
  0
LINE
  5
213C7
330
747D
100
AcDbEntity
  8
部品1
100
AcDbLine
 10
8082.074938837328
 20
1677.958468401857
 30
0.0
 11
8118.074938837329
 21
1677.958468401857
 31
0.0
  0
LINE
  5
213C8
330
747D
100
AcDbEntity
  8
部品1
100
AcDbLine
 10
8082.074938837328
 20
1659.958468401857
 30
0.0
 11
8118.074938837329
 21
1659.958468401857
 31
0.0
  0
ARC
  5
213C9
330
747D
100
AcDbEntity
  8
部品1
100
AcDbCircle
 10
8082.074938837328
 20
1677.958468401857
 30
0.0
 40
18.0
100
AcDbArc
 50
180.0
 51
270.0
  0
LINE
  5
213CA
330
747D
100
AcDbEntity
  8
部品1
100
AcDbLine
 10
8118.074938837329
 20
1659.958468401857
 30
0.0
 11
8118.074938837329
 21
1677.958468401857
 31
0.0
  0
LINE
  5
213CB
330
747D
100
AcDbEntity
  8
部品1
100
AcDbLine
 10
8136.074938837328
 20
1578.958468401855
 30
0.0
 11
8010.07493883732
 21
1578.958468401855
 31
0.0
  0
LINE
  5
213CC
330
747D
100
AcDbEntity
  8
細線
 48
50.0
100
AcDbLine
 10
8430.052764029662
 20
1094.958468401855
 30
0.0
 11
8423.621983411315
 21
1118.958468401855
 31
0.0
  0
LINE
  5
213CD
330
747D
100
AcDbEntity
  8
細線
 48
50.0
100
AcDbLine
 10
8351.164719082417
 20
1094.958468401855
 30
0.0
 11
8344.733938464072
 21
1118.958468401855
 31
0.0
  0
LINE
  5
213CE
330
747D
100
AcDbEntity
  8
細線
 48
50.0
100
AcDbLine
 10
8272.276674135161
 20
1094.958468401857
 30
0.0
 11
8265.845893516813
 21
1118.958468401856
 31
0.0
  0
LINE
  5
213CF
330
747D
100
AcDbEntity
  8
細線
 48
50.0
100
AcDbLine
 10
8408.616828635173
 20
1014.958468401855
 30
0.0
 11
8415.047609253521
 21
990.958468401855
 31
0.0
  0
LINE
  5
213D0
330
747D
100
AcDbEntity
  8
細線
 48
50.0
100
AcDbLine
 10
8329.728783687928
 20
1014.958468401855
 30
0.0
 11
8336.159564306274
 21
990.958468401855
 31
0.0
  0
LINE
  5
213D1
330
747D
100
AcDbEntity
  8
細線
 48
50.0
100
AcDbLine
 10
8250.840738740679
 20
1014.958468401857
 30
0.0
 11
8257.271519359035
 21
990.9584684018568
 31
0.0
  0
LINE
  5
213D2
330
747D
100
AcDbEntity
  8
細線
 48
50.0
100
AcDbLine
 10
8323.298003069579
 20
990.9584684018541
 30
0.0
 11
8357.595499700762
 21
1118.958468401854
 31
0.0
  0
LINE
  5
213D3
330
747D
100
AcDbEntity
  8
細線
 48
50.0
100
AcDbLine
 10
8244.40995812233
 20
990.958468401855
 30
0.0
 11
8278.707454753503
 21
1118.958468401856
 31
0.0
  0
LINE
  5
213D4
330
747D
100
AcDbEntity
  8
細線
 48
50.0
100
AcDbLine
 10
8402.186048016821
 20
990.958468401855
 30
0.0
 11
8436.483544648009
 21
1118.958468401854
 31
0.0
  0
LINE
  5
213D5
330
747D
100
AcDbEntity
  8
部品1
 48
50.0
100
AcDbLine
 10
8473.67493883733
 20
1118.958468401856
 30
0.0
 11
8473.67493883733
 21
990.9584684018568
 31
0.0
  0
LINE
  5
213D6
330
747D
100
AcDbEntity
  8
細線
 48
50.0
100
AcDbLine
 10
8193.388629187923
 20
1094.958468401857
 30
0.0
 11
8186.957848569576
 21
1118.958468401856
 31
0.0
  0
LINE
  5
213D7
330
747D
100
AcDbEntity
  8
細線
 48
50.0
100
AcDbLine
 10
8114.500584240676
 20
1094.958468401857
 30
0.0
 11
8108.069803622329
 21
1118.958468401856
 31
0.0
  0
LINE
  5
213D8
330
747D
100
AcDbEntity
  8
細線
 48
50.0
100
AcDbLine
 10
7956.724494346183
 20
1094.958468401857
 30
0.0
 11
7950.293713727837
 21
1118.958468401856
 31
0.0
  0
LINE
  5
213D9
330
747D
100
AcDbEntity
  8
細線
 48
50.0
100
AcDbLine
 10
8035.612539293429
 20
1094.958468401857
 30
0.0
 11
8029.181758675083
 21
1118.958468401856
 31
0.0
  0
LINE
  5
213DA
330
747D
100
AcDbEntity
  8
細線
 48
50.0
100
AcDbLine
 10
8093.064648846185
 20
1014.958468401857
 30
0.0
 11
8099.495429464534
 21
990.9584684018568
 31
0.0
  0
LINE
  5
213DB
330
747D
100
AcDbEntity
  8
細線
 48
50.0
100
AcDbLine
 10
8171.952693793434
 20
1014.958468401857
 30
0.0
 11
8178.383474411779
 21
990.9584684018568
 31
0.0
  0
LINE
  5
213DC
330
747D
100
AcDbEntity
  8
細線
 48
50.0
100
AcDbLine
 10
7935.288558951694
 20
1014.958468401857
 30
0.0
 11
7941.719339570042
 21
990.9584684018568
 31
0.0
  0
LINE
  5
213DD
330
747D
100
AcDbEntity
  8
細線
 48
50.0
100
AcDbLine
 10
8014.176603898942
 20
1014.958468401857
 30
0.0
 11
8020.607384517287
 21
990.9584684018568
 31
0.0
  0
LINE
  5
213DE
330
747D
100
AcDbEntity
  8
細線
 48
50.0
100
AcDbLine
 10
8165.52191317508
 20
990.9584684018568
 30
0.0
 11
8199.819409806265
 21
1118.958468401855
 31
0.0
  0
LINE
  5
213DF
330
747D
100
AcDbEntity
  8
細線
 48
50.0
100
AcDbLine
 10
8007.745823280588
 20
990.9584684018568
 30
0.0
 11
8042.043319911774
 21
1118.958468401855
 31
0.0
  0
LINE
  5
213E0
330
747D
100
AcDbEntity
  8
細線
 48
50.0
100
AcDbLine
 10
7928.857778333342
 20
990.9584684018568
 30
0.0
 11
7963.155274964525
 21
1118.958468401856
 31
0.0
  0
LINE
  5
213E1
330
747D
100
AcDbEntity
  8
細線
 48
50.0
100
AcDbLine
 10
8086.633868227837
 20
990.958468401855
 30
0.0
 11
8120.93136485902
 21
1118.958468401855
 31
0.0
  0
LINE
  5
213E2
330
747D
100
AcDbEntity
  8
細線
 48
50.0
100
AcDbLine
 10
8211.406633792135
 20
1118.958468401856
 30
0.0
 11
8393.674938837326
 21
1301.226773447053
 31
0.0
  0
LINE
  5
213E3
330
747D
100
AcDbEntity
  8
部品1
 48
50.0
100
AcDbLine
 10
8393.674938837326
 20
1358.958468401857
 30
0.0
 11
8393.674938837326
 21
1118.958468401856
 31
0.0
  0
LINE
  5
213E4
330
747D
100
AcDbEntity
  8
細線
 48
50.0
100
AcDbLine
 10
8184.465865428931
 20
1118.958468401856
 30
0.0
 11
8393.674938837326
 21
1328.16754181025
 31
0.0
  0
LINE
  5
213E5
330
747D
100
AcDbEntity
  8
細線
 48
50.0
100
AcDbLine
 10
8157.52509706572
 20
1118.958468401856
 30
0.0
 11
8393.674938837326
 21
1355.108310173465
 31
0.0
  0
LINE
  5
213E6
330
747D
100
AcDbEntity
  8
細線
 48
50.0
100
AcDbLine
 10
7941.998950160061
 20
1118.958468401856
 30
0.0
 11
8265.674938837326
 21
1442.634457079123
 31
0.0
  0
LINE
  5
213E7
330
747D
100
AcDbEntity
  8
細線
 48
50.0
100
AcDbLine
 10
7995.880486886476
 20
1118.958468401856
 30
0.0
 11
8265.674938837326
 21
1388.752920352714
 31
0.0
  0
LINE
  5
213E8
330
747D
100
AcDbEntity
  8
細線
 48
50.0
100
AcDbLine
 10
7968.939718523272
 20
1118.958468401856
 30
0.0
 11
8265.674938837326
 21
1415.693688715909
 31
0.0
  0
LINE
  5
213E9
330
747D
100
AcDbEntity
  8
細線
 48
50.0
100
AcDbLine
 10
7723.674938837321
 20
1331.686750890443
 30
0.0
 11
7750.946656348742
 21
1358.958468401857
 31
0.0
  0
LINE
  5
213EA
330
747D
100
AcDbEntity
  8
部品1
 48
50.0
100
AcDbLine
 10
7723.674938837326
 20
1358.958468401857
 30
0.0
 11
7851.674938837327
 21
1358.958468401857
 31
0.0
  0
LINE
  5
213EB
330
747D
100
AcDbEntity
  8
細線
 48
50.0
100
AcDbLine
 10
7723.674938837321
 20
1304.745982527232
 30
0.0
 11
7777.887424711952
 21
1358.958468401857
 31
0.0
  0
LWPOLYLINE
  5
213EC
330
747D
100
AcDbEntity
  8
部品1
 48
50.0
100
AcDbPolyline
 90
        2
 70
     0
 43
8.0
 10
7437.53503700437
 20
1662.958468401858
 10
7851.674938837327
 20
1662.958468401858
  0
LINE
  5
213ED
330
747D
100
AcDbEntity
  8
細線
 48
50.0
100
AcDbLine
 10
7798.94840445168
 20
1094.958468401857
 30
0.0
 11
7792.517623833333
 21
1118.958468401856
 31
0.0
  0
LINE
  5
213EE
330
747D
100
AcDbEntity
  8
細線
 48
50.0
100
AcDbLine
 10
7877.836449398931
 20
1094.958468401857
 30
0.0
 11
7871.405668780584
 21
1118.958468401856
 31
0.0
  0
LINE
  5
213EF
330
747D
100
AcDbEntity
  8
細線
 48
50.0
100
AcDbLine
 10
7720.060359504429
 20
1094.958468401857
 30
0.0
 11
7713.629578886081
 21
1118.958468401856
 31
0.0
  0
LINE
  5
213F0
330
747D
100
AcDbEntity
  8
細線
 48
50.0
100
AcDbLine
 10
7643.674938837327
 20
1104.298389367637
 30
0.0
 11
7647.603095175522
 21
1118.958468401856
 31
0.0
  0
LINE
  5
213F1
330
747D
100
AcDbEntity
  8
細線
 48
50.0
100
AcDbLine
 10
7777.51246905719
 20
1014.958468401857
 30
0.0
 11
7783.943249675537
 21
990.9584684018568
 31
0.0
  0
LINE
  5
213F2
330
747D
100
AcDbEntity
  8
細線
 48
50.0
100
AcDbLine
 10
7856.400514004443
 20
1014.958468401857
 30
0.0
 11
7862.83129462279
 21
990.9584684018568
 31
0.0
  0
LINE
  5
213F3
330
747D
100
AcDbEntity
  8
細線
 48
50.0
100
AcDbLine
 10
7698.62442410994
 20
1014.958468401857
 30
0.0
 11
7705.055204728285
 21
990.9584684018568
 31
0.0
  0
LINE
  5
213F4
330
747D
100
AcDbEntity
  8
細線
 48
50.0
100
AcDbLine
 10
7849.969733386089
 20
990.958468401855
 30
0.0
 11
7884.267230017272
 21
1118.958468401855
 31
0.0
  0
LINE
  5
213F5
330
747D
100
AcDbEntity
  8
細線
 48
50.0
100
AcDbLine
 10
7692.193643491586
 20
990.958468401855
 30
0.0
 11
7726.491140122769
 21
1118.958468401855
 31
0.0
  0
LINE
  5
213F6
330
747D
100
AcDbEntity
  8
部品1
 48
50.0
100
AcDbLine
 10
7643.67493883733
 20
990.9584684018568
 30
0.0
 11
7643.67493883733
 21
1118.958468401856
 31
0.0
  0
LINE
  5
213F7
330
747D
100
AcDbEntity
  8
細線
 48
50.0
100
AcDbLine
 10
7771.081688438845
 20
990.9584684018568
 30
0.0
 11
7805.379185070028
 21
1118.958468401856
 31
0.0
  0
LINE
  5
213F8
330
747D
100
AcDbEntity
  8
部品1
 48
50.0
100
AcDbLine
 10
7723.674938837326
 20
1118.958468401856
 30
0.0
 11
7723.674938837326
 21
1358.958468401857
 31
0.0
  0
LINE
  5
213F9
330
747D
100
AcDbEntity
  8
細線
 48
50.0
100
AcDbLine
 10
7723.674938837321
 20
1277.805214164028
 30
0.0
 11
7804.828193075157
 21
1358.958468401857
 31
0.0
  0
LINE
  5
213FA
330
747D
100
AcDbEntity
  8
部品1
 48
50.0
100
AcDbLine
 10
8473.67493883733
 20
990.9584684018568
 30
0.0
 11
7643.67493883733
 21
990.9584684018568
 31
0.0
  0
LINE
  5
213FB
330
747D
100
AcDbEntity
  8
部品1
 48
50.0
100
AcDbLine
 10
8473.67493883733
 20
1118.958468401856
 30
0.0
 11
7643.67493883733
 21
1118.958468401856
 31
0.0
  0
LINE
  5
213FC
330
747D
100
AcDbEntity
  8
細線
 48
50.0
100
AcDbLine
 10
7726.472803254401
 20
1118.958468401856
 30
0.0
 11
8265.674938837326
 21
1658.160603984782
 31
0.0
  0
LINE
  5
213FD
330
747D
100
AcDbEntity
  8
細線
 48
50.0
100
AcDbLine
 10
7753.413571617612
 20
1118.958468401856
 30
0.0
 11
8265.67493883733
 21
1631.219835621571
 31
0.0
  0
LINE
  5
213FE
330
747D
100
AcDbEntity
  8
細線
 48
50.0
100
AcDbLine
 10
7780.354339980816
 20
1118.958468401856
 30
0.0
 11
8265.674938837326
 21
1604.279067258364
 31
0.0
  0
LINE
  5
213FF
330
747D
100
AcDbEntity
  8
細線
 48
50.0
100
AcDbLine
 10
7851.674938837327
 20
1459.686750890443
 30
0.0
 11
8010.07493883732
 21
1618.086750890438
 31
0.0
  0
LINE
  5
21400
330
747D
100
AcDbEntity
  8
細線
 48
50.0
100
AcDbLine
 10
7851.674938837327
 20
1405.805214164027
 30
0.0
 11
8024.828193075164
 21
1578.958468401855
 31
0.0
  0
LINE
  5
21401
330
747D
100
AcDbEntity
  8
細線
 48
50.0
100
AcDbLine
 10
7851.674938837327
 20
1432.745982527235
 30
0.0
 11
8010.07493883732
 21
1591.145982527224
 31
0.0
  0
LINE
  5
21402
330
747D
100
AcDbEntity
  8
部品1
100
AcDbLine
 10
8010.07493883732
 20
1578.958468401857
 30
0.0
 11
8010.074938837327
 21
1902.958468401857
 31
0.0
  0
LINE
  5
21403
330
747D
100
AcDbEntity
  8
部品1
100
AcDbLine
 10
8136.074938837328
 20
1578.958468401857
 30
0.0
 11
8136.074938837328
 21
1902.958468401857
 31
0.0
  0
LINE
  5
21404
330
747D
100
AcDbEntity
  8
細線
 48
50.0
100
AcDbLine
 10
8136.074938837328
 20
1717.145982527228
 30
0.0
 11
8265.674938837326
 21
1846.745982527225
 31
0.0
  0
LINE
  5
21405
330
747D
100
AcDbEntity
  8
細線
 48
50.0
100
AcDbLine
 10
8136.074938837328
 20
1690.205214164015
 30
0.0
 11
8265.674938837326
 21
1819.805214164007
 31
0.0
  0
LINE
  5
21406
330
747D
100
AcDbEntity
  8
部品1
100
AcDbLine
 10
8064.074938837327
 20
1677.958468401857
 30
0.0
 11
8064.074938837324
 21
1952.118468401857
 31
0.0
  0
LINE
  5
21407
330
747D
100
AcDbEntity
  8
部品1
100
AcDbLine
 10
8082.074938837328
 20
1677.958468401857
 30
0.0
 11
8082.074938837324
 21
1952.118468401857
 31
0.0
  0
TEXT
  5
21408
330
747D
100
AcDbEntity
  8
部品1
 48
50.0
100
AcDbText
 10
7437.53503700437
 20
1674.197460685112
 30
0.0
 40
80.0
  1
▽G.L
  7
STYLE2
100
AcDbText
  0
LINE
  5
21409
330
747D
100
AcDbEntity
  8
細線
 48
50.0
100
AcDbLine
 10
7851.674938837327
 20
1621.331361069687
 30
0.0
 11
8010.074938837325
 21
1779.73136106968
 31
0.0
  0
LINE
  5
2140A
330
747D
100
AcDbEntity
  8
細線
 48
50.0
100
AcDbLine
 10
7851.674938837327
 20
1648.272129432894
 30
0.0
 11
8010.074938837325
 21
1806.672129432892
 31
0.0
  0
LINE
  5
2140B
330
747D
100
AcDbEntity
  8
細線
 48
50.0
100
AcDbLine
 10
7851.674938837327
 20
1675.212897796102
 30
0.0
 11
8010.074938837325
 21
1833.612897796099
 31
0.0
  0
LINE
  5
2140C
330
747D
100
AcDbEntity
  8
部品1
 48
50.0
100
AcDbLine
 10
7851.674938837327
 20
1358.958468401857
 30
0.0
 11
7851.674938837327
 21
1902.958468401857
 31
0.0
  0
LINE
  5
2140D
330
747D
100
AcDbEntity
  8
部品1
100
AcDbLine
 10
8265.674938837326
 20
1358.958468401857
 30
0.0
 11
8265.674938837326
 21
1902.958468401857
 31
0.0
  0
LINE
  5
2140E
330
747D
100
AcDbEntity
  8
細線
 48
50.0
100
AcDbLine
 10
8136.074938837328
 20
1744.086750890445
 30
0.0
 11
8265.674938837326
 21
1873.686750890444
 31
0.0
  0
LINE
  5
2140F
330
747D
100
AcDbEntity
  8
細線
 48
50.0
100
AcDbLine
 10
6260.128048162603
 20
1783.705320298573
 30
0.0
 11
6343.635625660134
 21
1867.212897796102
 31
0.0
  0
LINE
  5
21410
330
747D
100
AcDbEntity
  8
細線
 48
50.0
100
AcDbLine
 10
6271.188332926119
 20
1767.824836698878
 30
0.0
 11
6343.635625660134
 21
1840.272129432894
 31
0.0
  0
LINE
  5
21411
330
747D
100
AcDbEntity
  8
細線
 48
50.0
100
AcDbLine
 10
6151.635625660134
 20
1890.739044701762
 30
0.0
 11
6163.855049360229
 21
1902.958468401857
 31
0.0
  0
LINE
  5
21412
330
747D
100
AcDbEntity
  8
細線
 48
50.0
100
AcDbLine
 10
6151.635625660134
 20
1836.857507975347
 30
0.0
 11
6217.736586086643
 21
1902.958468401857
 31
0.0
  0
LINE
  5
21413
330
747D
100
AcDbEntity
  8
細線
 48
50.0
100
AcDbLine
 10
6151.635625660134
 20
1863.798276338554
 30
0.0
 11
6190.795817723437
 21
1902.958468401857
 31
0.0
  0
LINE
  5
21414
330
747D
100
AcDbEntity
  8
部品1
 48
50.0
100
AcDbLine
 10
6151.635625660134
 20
1902.958468401857
 30
0.0
 11
6343.635625660134
 21
1902.958468401857
 31
0.0
  0
DIMENSION
  5
21415
330
747D
100
AcDbEntity
  8
寸法
 48
50.0
100
AcDbDimension
  2
*D25
 10
6151.635625660132
 20
2222.958468401857
 30
0.0
 11
6258.86195600533
 21
2322.626276318237
 31
0.0
 70
   160
  1
120\P170
 71
     5
 42
192.0
  3
INABA_S40G
100
AcDbAlignedDimension
 13
6343.635625660132
 23
1902.958468401857
 33
0.0
 14
6151.635625660132
 24
1902.958468401857
 34
0.0
100
AcDbRotatedDimension
1001
ACAD
1000
DSTYLE
1002
{
1070
   174
1070
     0
1070
   272
1070
     1
1070
   279
1070
     1
1070
   288
1070
     0
1070
   341
1005
0
1002
}
  0
MTEXT
  5
21416
102
{ACAD_REACTORS
330
2146B
102
}
330
747D
100
AcDbEntity
  8
寸法
 62
     7
 48
50.0
100
AcDbMText
 10
6585.374081521384
 20
941.6093826697037
 30
0.0
 40
80.0
 41
0.8
 71
     4
 72
     1
  1
\A1;D10@300
  7
STYLE2
 73
     1
 44
1.0
1001
ACAD
1000
MTEXTBEGIN
1070
    73
1070
     1
1070
    44
1040
1.0
1070
    74
1070
     0
1000
MTEXTEND
  0
LINE
  5
21417
330
747D
100
AcDbEntity
  8
細線
 48
50.0
100
AcDbLine
 10
6271.635625660139
 20
1552.745982527238
 30
0.0
 11
6343.635625660127
 21
1624.745982527232
 31
0.0
  0
LINE
  5
21418
330
747D
100
AcDbEntity
  8
細線
 48
50.0
100
AcDbLine
 10
6271.635625660134
 20
1579.686750890443
 30
0.0
 11
6343.635625660134
 21
1651.686750890443
 31
0.0
  0
LINE
  5
21419
330
747D
100
AcDbEntity
  8
細線
 48
50.0
100
AcDbLine
 10
6271.635625660139
 20
1310.279067258368
 30
0.0
 11
6343.635625660127
 21
1382.279067258368
 31
0.0
  0
LINE
  5
2141A
330
747D
100
AcDbEntity
  8
細線
 48
50.0
100
AcDbLine
 10
6271.635625660139
 20
1364.160603984786
 30
0.0
 11
6343.635625660127
 21
1436.160603984782
 31
0.0
  0
LINE
  5
2141B
330
747D
100
AcDbEntity
  8
細線
 48
50.0
100
AcDbLine
 10
6271.635625660139
 20
1337.219835621578
 30
0.0
 11
6343.635625660127
 21
1409.219835621573
 31
0.0
  0
LINE
  5
2141C
330
747D
100
AcDbEntity
  8
部品1
 48
50.0
100
AcDbLine
 10
6343.635625660134
 20
1358.958468401857
 30
0.0
 11
6471.635625660134
 21
1358.958468401857
 31
0.0
  0
LINE
  5
2141D
330
747D
100
AcDbEntity
  8
細線
 48
50.0
100
AcDbLine
 10
6271.635625660139
 20
1525.805214164028
 30
0.0
 11
6343.635625660127
 21
1597.805214164028
 31
0.0
  0
LINE
  5
2141E
330
747D
100
AcDbEntity
  8
部品1
 48
50.0
100
AcDbLine
 10
6239.635625660135
 20
1705.085683098979
 30
0.0
 11
6239.635625660135
 21
1763.212897796102
 31
0.0
  0
LINE
  5
2141F
330
747D
100
AcDbEntity
  8
細線
 48
50.0
100
AcDbLine
 10
6151.635625660134
 20
1675.212897796102
 30
0.0
 11
6223.635625660134
 21
1747.212897796102
 31
0.0
  0
LINE
  5
21420
330
747D
100
AcDbEntity
  8
部品1
 48
50.0
100
AcDbLine
 10
6223.635625660134
 20
1705.085683098983
 30
0.0
 11
6223.635625660134
 21
1763.212897796102
 31
0.0
  0
LINE
  5
21421
330
747D
100
AcDbEntity
  8
細線
 48
50.0
100
AcDbLine
 10
6151.635625660134
 20
1648.272129432894
 30
0.0
 11
6223.635625660134
 21
1720.272129432894
 31
0.0
  0
LINE
  5
21422
330
747D
100
AcDbEntity
  8
細線
 48
50.0
100
AcDbLine
 10
6151.635625660134
 20
1621.331361069687
 30
0.0
 11
6235.389947689427
 21
1705.085683098979
 31
0.0
  0
LINE
  5
21423
330
747D
100
AcDbEntity
  8
部品1
 48
50.0
100
AcDbLine
 10
6239.635625660135
 20
1705.085683098979
 30
0.0
 11
6223.635625660134
 21
1705.085683098983
 31
0.0
  0
LINE
  5
21424
330
747D
100
AcDbEntity
  8
細線
 48
50.0
100
AcDbLine
 10
6023.635625660126
 20
1331.686750890443
 30
0.0
 11
6050.907343171548
 21
1358.958468401857
 31
0.0
  0
LINE
  5
21425
330
747D
100
AcDbEntity
  8
細線
 48
50.0
100
AcDbLine
 10
6023.635625660126
 20
1304.745982527232
 30
0.0
 11
6077.848111534759
 21
1358.958468401857
 31
0.0
  0
LINE
  5
21426
330
747D
100
AcDbEntity
  8
部品1
 48
50.0
100
AcDbLine
 10
6023.635625660133
 20
1358.958468401857
 30
0.0
 11
6151.635625660134
 21
1358.958468401857
 31
0.0
  0
LINE
  5
21427
330
747D
100
AcDbEntity
  8
細線
 48
50.0
100
AcDbLine
 10
6239.635625660135
 20
1736.272129432894
 30
0.0
 11
6255.635625660134
 21
1752.272129432894
 31
0.0
  0
LINE
  5
21428
330
747D
100
AcDbEntity
  8
細線
 48
50.0
100
AcDbLine
 10
6239.635625660135
 20
1709.331361069687
 30
0.0
 11
6255.635625660134
 21
1725.331361069687
 31
0.0
  0
LINE
  5
21429
330
747D
100
AcDbEntity
  8
細線
 48
50.0
100
AcDbLine
 10
6151.635625660134
 20
1405.805214164027
 30
0.0
 11
6255.63562566014
 21
1509.805214164028
 31
0.0
  0
LINE
  5
2142A
330
747D
100
AcDbEntity
  8
細線
 48
50.0
100
AcDbLine
 10
6151.635625660134
 20
1459.686750890443
 30
0.0
 11
6255.635625660134
 21
1563.686750890443
 31
0.0
  0
LINE
  5
2142B
330
747D
100
AcDbEntity
  8
細線
 48
50.0
100
AcDbLine
 10
6151.635625660134
 20
1432.745982527235
 30
0.0
 11
6255.63562566014
 21
1536.745982527238
 31
0.0
  0
LINE
  5
2142C
330
747D
100
AcDbEntity
  8
細線
 48
50.0
100
AcDbLine
 10
6414.461271063482
 20
1094.958468401857
 30
0.0
 11
6408.030490445135
 21
1118.958468401856
 31
0.0
  0
LINE
  5
2142D
330
747D
100
AcDbEntity
  8
細線
 48
50.0
100
AcDbLine
 10
6457.485783888528
 20
1118.958468401856
 30
0.0
 11
6471.635625660134
 21
1133.108310173463
 31
0.0
  0
LINE
  5
2142E
330
747D
100
AcDbEntity
  8
細線
 48
50.0
100
AcDbLine
 10
6493.349316010728
 20
1094.958468401857
 30
0.0
 11
6486.918535392381
 21
1118.958468401856
 31
0.0
  0
LINE
  5
2142F
330
747D
100
AcDbEntity
  8
部品1
 48
50.0
100
AcDbLine
 10
6415.635625660134
 20
1230.958468401857
 30
0.0
 11
6415.635625660134
 21
1214.958468401857
 31
0.0
  0
LINE
  5
21430
330
747D
100
AcDbEntity
  8
細線
 48
50.0
100
AcDbLine
 10
6295.84117370928
 20
1118.958468401856
 30
0.0
 11
6391.842061554418
 21
1214.959356246996
 31
0.0
  0
LINE
  5
21431
330
747D
100
AcDbEntity
  8
細線
 48
50.0
100
AcDbLine
 10
6268.900405346077
 20
1118.958468401856
 30
0.0
 11
6364.900405346078
 21
1214.958468401857
 31
0.0
  0
LINE
  5
21432
330
747D
100
AcDbEntity
  8
細線
 48
50.0
100
AcDbLine
 10
6335.573226116236
 20
1094.958468401857
 30
0.0
 11
6329.14244549789
 21
1118.958468401856
 31
0.0
  0
LINE
  5
21433
330
747D
100
AcDbEntity
  8
細線
 48
50.0
100
AcDbLine
 10
6256.68518116899
 20
1094.958468401857
 30
0.0
 11
6250.254400550643
 21
1118.958468401856
 31
0.0
  0
ARC
  5
21434
330
747D
100
AcDbEntity
  8
部品1
 48
50.0
100
AcDbCircle
 10
6247.635625660134
 20
1238.958468401857
 30
0.0
 40
24.0
100
AcDbArc
 50
340.5287793654919
 51
0.0
  0
CIRCLE
  5
21435
330
747D
100
AcDbEntity
  8
部品1
 48
50.0
100
AcDbCircle
 10
6375.635625660134
 20
1238.958468401857
 30
0.0
 40
8.0
  0
LINE
  5
21436
330
747D
100
AcDbEntity
  8
細線
 48
50.0
100
AcDbLine
 10
6407.841173709281
 20
1230.958468401857
 30
0.0
 11
6471.635625660134
 21
1294.752920352708
 31
0.0
  0
LINE
  5
21437
330
747D
100
AcDbEntity
  8
細線
 48
50.0
100
AcDbLine
 10
6544.370644945137
 20
990.958468401855
 30
0.0
 11
6551.635625660134
 21
1018.071745546245
 31
0.0
  0
LINE
  5
21438
330
747D
100
AcDbEntity
  8
細線
 48
50.0
100
AcDbLine
 10
6550.801425563486
 20
1014.958468401857
 30
0.0
 11
6551.635625660134
 21
1011.845191257492
 31
0.0
  0
LINE
  5
21439
330
747D
100
AcDbEntity
  8
細線
 48
50.0
100
AcDbLine
 10
6471.913380616239
 20
1014.958468401857
 30
0.0
 11
6478.344161234587
 21
990.9584684018568
 31
0.0
  0
LINE
  5
2143A
330
747D
100
AcDbEntity
  8
細線
 48
50.0
100
AcDbLine
 10
6314.137290721746
 20
1014.958468401857
 30
0.0
 11
6320.568071340092
 21
990.9584684018568
 31
0.0
  0
LINE
  5
2143B
330
747D
100
AcDbEntity
  8
細線
 48
50.0
100
AcDbLine
 10
6393.025335668991
 20
1014.958468401857
 30
0.0
 11
6399.456116287339
 21
990.9584684018568
 31
0.0
  0
LINE
  5
2143C
330
747D
100
AcDbEntity
  8
細線
 48
50.0
100
AcDbLine
 10
6386.594555050642
 20
990.958468401855
 30
0.0
 11
6420.892051681827
 21
1118.958468401855
 31
0.0
  0
LINE
  5
2143D
330
747D
100
AcDbEntity
  8
細線
 48
50.0
100
AcDbLine
 10
6307.706510103393
 20
990.9584684018568
 30
0.0
 11
6342.00400673458
 21
1118.958468401855
 31
0.0
  0
LINE
  5
2143E
330
747D
100
AcDbEntity
  8
細線
 48
50.0
100
AcDbLine
 10
6465.482599997888
 20
990.9584684018568
 30
0.0
 11
6499.780096629073
 21
1118.958468401855
 31
0.0
  0
LINE
  5
2143F
330
747D
100
AcDbEntity
  8
部品1
 48
50.0
100
AcDbLine
 10
6551.635625660137
 20
1118.958468401856
 30
0.0
 11
6551.635625660137
 21
990.9584684018568
 31
0.0
  0
LINE
  5
21440
330
747D
100
AcDbEntity
  8
部品1
 48
50.0
100
AcDbLine
 10
6239.635625660135
 20
1297.085683098979
 30
0.0
 11
6239.635625660135
 21
1238.958468401857
 31
0.0
  0
LINE
  5
21441
330
747D
100
AcDbEntity
  8
細線
 48
50.0
100
AcDbLine
 10
6165.374258440417
 20
1230.958468401857
 30
0.0
 11
6223.635625660134
 21
1289.219835621575
 31
0.0
  0
LINE
  5
21442
330
747D
100
AcDbEntity
  8
部品1
 48
50.0
100
AcDbLine
 10
6223.635625660134
 20
1297.085683098979
 30
0.0
 11
6223.635625660134
 21
1238.958468401857
 31
0.0
  0
LINE
  5
21443
330
747D
100
AcDbEntity
  8
細線
 48
50.0
100
AcDbLine
 10
6080.315026803623
 20
1118.958468401856
 30
0.0
 11
6176.315026803623
 21
1214.958468401857
 31
0.0
  0
LINE
  5
21444
330
747D
100
AcDbEntity
  8
細線
 48
50.0
100
AcDbLine
 10
6177.797136221737
 20
1094.958468401857
 30
0.0
 11
6171.366355603391
 21
1118.958468401856
 31
0.0
  0
LINE
  5
21445
330
747D
100
AcDbEntity
  8
細線
 48
50.0
100
AcDbLine
 10
6098.909091274485
 20
1094.958468401857
 30
0.0
 11
6092.478310656139
 21
1118.958468401856
 31
0.0
  0
ARC
  5
21446
330
747D
100
AcDbEntity
  8
部品1
 48
50.0
100
AcDbCircle
 10
6247.635625660134
 20
1238.958468401857
 30
0.0
 40
24.0
100
AcDbArc
 50
180.0
 51
199.4712206345081
  0
LINE
  5
21447
330
747D
100
AcDbEntity
  8
細線
 48
50.0
100
AcDbLine
 10
6192.315026803623
 20
1230.958468401857
 30
0.0
 11
6223.635625660134
 21
1262.279067258368
 31
0.0
  0
CIRCLE
  5
21448
330
747D
100
AcDbEntity
  8
部品1
 48
50.0
100
AcDbCircle
 10
6119.635625660134
 20
1238.958468401857
 30
0.0
 40
8.0
  0
LINE
  5
21449
330
747D
100
AcDbEntity
  8
部品1
 48
50.0
100
AcDbLine
 10
6239.635625660135
 20
1297.085683098979
 30
0.0
 11
6223.635625660134
 21
1297.085683098979
 31
0.0
  0
LINE
  5
2144A
330
747D
100
AcDbEntity
  8
細線
 48
50.0
100
AcDbLine
 10
5943.635625660134
 20
1104.298389367637
 30
0.0
 11
5947.563781998329
 21
1118.958468401856
 31
0.0
  0
LINE
  5
2144B
330
747D
100
AcDbEntity
  8
細線
 48
50.0
100
AcDbLine
 10
6020.021046327234
 20
1094.958468401857
 30
0.0
 11
6013.590265708886
 21
1118.958468401856
 31
0.0
  0
LINE
  5
2144C
330
747D
100
AcDbEntity
  8
部品1
 48
50.0
100
AcDbLine
 10
6079.635625660134
 20
1230.958468401857
 30
0.0
 11
6079.635625660134
 21
1214.958468401857
 31
0.0
  0
LINE
  5
2144D
330
747D
100
AcDbEntity
  8
細線
 48
50.0
100
AcDbLine
 10
6026.433490077206
 20
1118.958468401856
 30
0.0
 11
6122.433490077206
 21
1214.958468401857
 31
0.0
  0
LINE
  5
2144E
330
747D
100
AcDbEntity
  8
細線
 48
50.0
100
AcDbLine
 10
6053.374258440417
 20
1118.958468401856
 30
0.0
 11
6149.374258440417
 21
1214.958468401857
 31
0.0
  0
LINE
  5
2144F
330
747D
100
AcDbEntity
  8
細線
 48
50.0
100
AcDbLine
 10
6156.361200827248
 20
1014.958468401857
 30
0.0
 11
6162.791981445594
 21
990.9584684018568
 31
0.0
  0
LINE
  5
21450
330
747D
100
AcDbEntity
  8
細線
 48
50.0
100
AcDbLine
 10
6235.249245774501
 20
1014.958468401857
 30
0.0
 11
6241.680026392847
 21
990.9584684018568
 31
0.0
  0
LINE
  5
21451
330
747D
100
AcDbEntity
  8
細線
 48
50.0
100
AcDbLine
 10
5998.585110932745
 20
1014.958468401857
 30
0.0
 11
6005.015891551091
 21
990.9584684018568
 31
0.0
  0
LINE
  5
21452
330
747D
100
AcDbEntity
  8
細線
 48
50.0
100
AcDbLine
 10
6077.473155879996
 20
1014.958468401857
 30
0.0
 11
6083.903936498344
 21
990.9584684018568
 31
0.0
  0
LINE
  5
21453
330
747D
100
AcDbEntity
  8
部品1
 48
50.0
100
AcDbLine
 10
5943.635625660135
 20
990.9584684018568
 30
0.0
 11
5943.635625660135
 21
1118.958468401856
 31
0.0
  0
LINE
  5
21454
330
747D
100
AcDbEntity
  8
細線
 48
50.0
100
AcDbLine
 10
5992.154330314392
 20
990.958468401855
 30
0.0
 11
6026.451826945574
 21
1118.958468401855
 31
0.0
  0
LINE
  5
21455
330
747D
100
AcDbEntity
  8
細線
 48
50.0
100
AcDbLine
 10
6149.930420208895
 20
990.958468401855
 30
0.0
 11
6184.227916840079
 21
1118.958468401855
 31
0.0
  0
LINE
  5
21456
330
747D
100
AcDbEntity
  8
細線
 48
50.0
100
AcDbLine
 10
6071.04237526165
 20
990.9584684018568
 30
0.0
 11
6105.339871892833
 21
1118.958468401856
 31
0.0
  0
LINE
  5
21457
330
747D
100
AcDbEntity
  8
細線
 48
50.0
100
AcDbLine
 10
6241.959636982866
 20
1118.958468401856
 30
0.0
 11
6337.959636982867
 21
1214.958468401857
 31
0.0
  0
CIRCLE
  5
21458
330
747D
100
AcDbEntity
  8
部品1
 48
50.0
100
AcDbCircle
 10
6247.635625660134
 20
1238.958468401857
 30
0.0
 40
8.0
  0
LINE
  5
21459
330
747D
100
AcDbEntity
  8
部品1
 48
50.0
100
AcDbLine
 10
6551.635625660137
 20
1118.958468401856
 30
0.0
 11
5943.635625660135
 21
1118.958468401856
 31
0.0
  0
LINE
  5
2145A
330
747D
100
AcDbEntity
  8
部品1
 48
50.0
100
AcDbLine
 10
6079.635625660134
 20
1230.958468401857
 30
0.0
 11
6415.635625660134
 21
1230.958468401857
 31
0.0
  0
LINE
  5
2145B
330
747D
100
AcDbEntity
  8
部品1
 48
50.0
100
AcDbLine
 10
6079.635625660134
 20
1214.958468401857
 30
0.0
 11
6415.635625660134
 21
1214.958468401857
 31
0.0
  0
LINE
  5
2145C
330
747D
100
AcDbEntity
  8
部品1
 48
50.0
100
AcDbLine
 10
6551.635625660137
 20
990.9584684018568
 30
0.0
 11
5943.635625660135
 21
990.9584684018568
 31
0.0
  0
LINE
  5
2145D
330
747D
100
AcDbEntity
  8
細線
 48
50.0
100
AcDbLine
 10
6228.818465156148
 20
990.9584684018568
 30
0.0
 11
6263.115961787331
 21
1118.958468401856
 31
0.0
  0
LINE
  5
2145E
330
747D
100
AcDbEntity
  8
細線
 48
50.0
100
AcDbLine
 10
6239.635625660135
 20
1278.279067258368
 30
0.0
 11
6255.63562566014
 21
1294.279067258368
 31
0.0
  0
LINE
  5
2145F
330
747D
100
AcDbEntity
  8
部品1
 48
50.0
100
AcDbLine
 10
6255.63562566014
 20
1238.958468401857
 30
0.0
 11
6255.635625660127
 21
1763.212897796102
 31
0.0
  0
LINE
  5
21460
330
747D
100
AcDbEntity
  8
部品1
 48
50.0
100
AcDbLine
 10
6271.635625660139
 20
1238.958468401857
 30
0.0
 11
6271.635625660134
 21
1763.212897796102
 31
0.0
  0
LINE
  5
21461
330
747D
100
AcDbEntity
  8
部品1
 48
50.0
100
AcDbLine
 10
6471.635625660134
 20
1358.958468401857
 30
0.0
 11
6471.635625660134
 21
1118.958468401856
 31
0.0
  0
LINE
  5
21462
330
747D
100
AcDbEntity
  8
細線
 48
50.0
100
AcDbLine
 10
6353.959636982861
 20
1230.958468401857
 30
0.0
 11
6471.635625660134
 21
1348.634457079123
 31
0.0
  0
LINE
  5
21463
330
747D
100
AcDbEntity
  8
細線
 48
50.0
100
AcDbLine
 10
6380.900405346078
 20
1230.958468401857
 30
0.0
 11
6471.635625660134
 21
1321.693688715916
 31
0.0
  0
LINE
  5
21464
330
747D
100
AcDbEntity
  8
部品1
 48
50.0
100
AcDbLine
 10
6023.635625660133
 20
1118.958468401856
 30
0.0
 11
6023.635625660133
 21
1358.958468401857
 31
0.0
  0
LINE
  5
21465
330
747D
100
AcDbEntity
  8
細線
 48
50.0
100
AcDbLine
 10
6138.433490077207
 20
1230.958468401857
 30
0.0
 11
6255.635625660134
 21
1348.160603984782
 31
0.0
  0
LINE
  5
21466
330
747D
100
AcDbEntity
  8
細線
 48
50.0
100
AcDbLine
 10
6231.501473137537
 20
1297.085683098979
 30
0.0
 11
6255.63562566014
 21
1321.219835621578
 31
0.0
  0
LINE
  5
21467
330
747D
100
AcDbEntity
  8
細線
 48
50.0
100
AcDbLine
 10
6023.635625660126
 20
1277.805214164028
 30
0.0
 11
6104.788879897962
 21
1358.958468401857
 31
0.0
  0
LEADER
  5
21468
330
747D
100
AcDbEntity
  8
寸法
 48
50.0
100
AcDbLeader
  3
INABA_S40G
 71
     0
 73
     0
 74
     0
 75
     1
 40
100.0
 41
222.7272727272727
 76
     3
 10
6247.635625660132
 20
1763.212897796102
 30
0.0
 10
6306.521562687527
 20
1704.226029700785
 30
0.0
 10
6406.521562687527
 20
1704.226029700785
 30
0.0
1001
ACAD
1000
DSTYLE
1002
{
1070
   174
1070
     0
1070
   272
1070
     1
1070
   279
1070
     1
1070
   288
1070
     0
1070
   341
1005
0
1002
}
  0
LWPOLYLINE
  5
21469
330
747D
100
AcDbEntity
  8
部品1
 48
50.0
100
AcDbPolyline
 90
        2
 70
     0
 43
8.0
 10
6343.635625660132
 20
1662.958468401858
 10
6757.775527493089
 20
1662.958468401858
  0
MTEXT
  5
2146A
102
{ACAD_REACTORS
330
2146C
102
}
330
747D
100
AcDbEntity
  8
寸法
 62
     7
 48
50.0
100
AcDbMText
 10
6574.963285466818
 20
1203.561399458884
 30
0.0
 40
80.0
 41
0.8
 71
     4
 72
     1
  1
D10
  7
STYLE2
 73
     1
 44
1.0
1001
ACAD
1000
MTEXTBEGIN
1070
    73
1070
     1
1070
    44
1040
1.0
1070
    74
1070
     0
1000
MTEXTEND
  0
LEADER
  5
2146B
330
747D
100
AcDbEntity
  8
寸法
 48
50.0
100
AcDbLeader
  3
INABA_S40G
 71
     0
 73
     0
 74
     0
 75
     1
 40
100.0
 41
540.3409090909091
 76
     3
 10
6321.580794673308
 20
1222.217937988331
 30
0.0
 10
6465.374081521384
 20
880.587119993434
 30
0.0
 10
6565.374081521383
 20
880.587119993434
 30
0.0
213
0.0
223
-1.022262676269383
233
0.0
1001
ACAD
1000
DSTYLE
1002
{
1070
   174
1070
     0
1070
   272
1070
     1
1070
   279
1070
     1
1070
   288
1070
     0
1070
   341
1005
0
1002
}
  0
LEADER
  5
2146C
330
747D
100
AcDbEntity
  8
寸法
 48
50.0
100
AcDbLeader
  3
INABA_S40G
 71
     0
 73
     0
 74
     0
 75
     1
 40
100.0
 41
225.0
 76
     3
 10
6375.538578012276
 20
1238.958468401857
 30
0.0
 10
6454.963285466817
 20
1143.561399458884
 30
0.0
 10
6554.963285466818
 20
1143.561399458884
 30
0.0
1001
ACAD
1000
DSTYLE
1002
{
1070
   174
1070
     0
1070
   272
1070
     1
1070
   279
1070
     1
1070
   288
1070
     0
1070
   341
1005
0
1002
}
  0
MTEXT
  5
2146D
102
{ACAD_REACTORS
330
21468
102
}
330
747D
100
AcDbEntity
  8
寸法
 62
     7
 48
50.0
100
AcDbMText
 10
6426.521562687527
 20
1764.226029700784
 30
0.0
 40
80.0
 41
0.8
 71
     4
 72
     1
  1
D13
  7
STYLE2
 73
     1
 44
1.0
1001
ACAD
1000
MTEXTBEGIN
1070
    73
1070
     1
1070
    44
1040
1.0
1070
    74
1070
     0
1000
MTEXTEND
  0
LINE
  5
2146E
330
747D
100
AcDbEntity
  8
部品1
 48
50.0
100
AcDbLine
 10
6343.635625660134
 20
1902.958468401857
 30
0.0
 11
6343.635625660134
 21
1358.958468401857
 31
0.0
  0
LINE
  5
2146F
330
747D
100
AcDbEntity
  8
部品1
 48
50.0
100
AcDbLine
 10
6151.635625660134
 20
1358.958468401857
 30
0.0
 11
6151.635625660134
 21
1902.958468401857
 31
0.0
  0
CIRCLE
  5
21470
330
747D
100
AcDbEntity
  8
部品1
 48
50.0
100
AcDbCircle
 10
6247.635625660134
 20
1763.212897796102
 30
0.0
 40
8.0
  0
ARC
  5
21471
330
747D
100
AcDbEntity
  8
部品1
 48
50.0
100
AcDbCircle
 10
6247.635625660134
 20
1763.212897796102
 30
0.0
 40
24.0
100
AcDbArc
 50
0.0
 51
180.0
  0
LINE
  5
21472
330
747D
100
AcDbEntity
  8
細線
 48
50.0
100
AcDbLine
 10
6271.635625660134
 20
1741.331361069687
 30
0.0
 11
6343.635625660134
 21
1813.331361069687
 31
0.0
  0
LEADER
  5
21473
330
747D
100
AcDbEntity
  8
寸法
 48
50.0
100
AcDbLeader
  3
INABA_S40G
 73
     0
 75
     1
 40
106.3636363636363
 41
903.5235024184547
 76
     3
 10
7983.074938837326
 20
1972.518468401858
 30
0.0
 10
7924.650866492388
 20
2331.57804311819
 30
0.0
 10
7824.650866492388
 20
2331.57804311819
 30
0.0
340
21474
1001
ACAD
1000
DSTYLE
1002
{
1070
   174
1070
     0
1070
   272
1070
     1
1070
   279
1070
     1
1070
   288
1070
     0
1070
   341
1005
0
1002
}
  0
MTEXT
  5
21474
102
{ACAD_REACTORS
330
21473
102
}
330
747D
100
AcDbEntity
  8
寸法
 62
     7
 48
50.0
100
AcDbMText
 10
7784.650866492388
 20
2424.759861300009
 30
0.0
 40
80.0
 41
0.8
 71
     6
 72
     1
  1
アンカープレート {\fArial|b0|i0|c0|p32;U}
  7
STYLE2
 73
     1
 44
1.0
1001
ACAD
1000
MTEXTBEGIN
1070
    73
1070
     1
1070
    44
1040
1.0
1070
    74
1070
     0
1000
MTEXTEND
  0
DIMENSION
  5
21475
330
747D
100
AcDbEntity
  8
寸法
 48
50.0
100
AcDbDimension
  2
*D26
 10
6471.635625660131
 20
580.5288303966968
 30
0.0
 11
6227.538866981909
 21
580.5288303966968
 31
0.0
 70
   160
  1
300
 71
     5
 42
448.0
  3
INABA_S40G
100
AcDbAlignedDimension
 13
6023.635625660132
 23
990.9584684018568
 33
0.0
 14
6471.635625660131
 24
990.9584684018568
 34
0.0
100
AcDbRotatedDimension
1001
ACAD
1000
DSTYLE
1002
{
1070
   174
1070
     0
1070
   272
1070
     1
1070
   279
1070
     1
1070
   288
1070
     0
1070
   341
1005
0
1002
}
  0
MTEXT
  5
21476
102
{ACAD_REACTORS
330
2147E
102
}
330
747D
100
AcDbEntity
  8
寸法
 62
     7
 48
50.0
100
AcDbMText
 10
5852.700599464939
 20
1035.43577478342
 30
0.0
 40
80.0
 41
0.8
 71
     6
 72
     1
  1
D10
  7
STYLE2
 73
     1
 44
1.0
1001
ACAD
1000
MTEXTBEGIN
1070
    73
1070
     1
1070
    44
1040
1.0
1070
    74
1070
     0
1000
MTEXTEND
  0
MTEXT
  5
21477
102
{ACAD_REACTORS
330
2147D
102
}
330
747D
100
AcDbEntity
  8
寸法
 62
     7
 48
50.0
100
AcDbMText
 10
5880.823327022373
 20
855.119622243977
 30
0.0
 40
80.0
 41
0.8
 71
     6
 72
     1
  1
D13
  7
STYLE2
 73
     1
 44
1.0
1001
ACAD
1000
MTEXTBEGIN
1070
    73
1070
     1
1070
    44
1040
1.0
1070
    74
1070
     0
1000
MTEXTEND
  0
DIMENSION
  5
21478
330
747D
100
AcDbEntity
  8
寸法
 48
50.0
100
AcDbDimension
  2
*D27
 10
5416.598387098392
 20
1118.958468401857
 30
0.0
 11
5416.598387098392
 21
1490.498618057857
 31
0.0
 70
   160
  1
540
 71
     5
 42
784.0
  3
INABA_S40G
100
AcDbAlignedDimension
 13
6151.635625660132
 23
1902.958468401857
 33
0.0
 14
5943.635625660135
 24
1118.958468401856
 34
0.0
 50
90.0
100
AcDbRotatedDimension
1001
ACAD
1000
DSTYLE
1002
{
1070
   174
1070
     0
1070
   272
1070
     1
1070
   279
1070
     1
1070
   288
1070
     0
1070
   341
1005
0
1002
}
  0
MTEXT
  5
21479
102
{ACAD_REACTORS
330
2147A
102
}
330
747D
100
AcDbEntity
  8
寸法
 62
     7
 48
50.0
100
AcDbMText
 10
5931.537146176859
 20
2115.474688403899
 30
0.0
 40
80.0
 41
0.8
 71
     6
 72
     1
  1
\A1;金コテ押エ
  7
STYLE2
 73
     1
 44
1.0
1001
ACAD
1000
MTEXTBEGIN
1070
    73
1070
     1
1070
    44
1040
1.0
1070
    74
1070
     0
1000
MTEXTEND
  0
LEADER
  5
2147A
330
747D
100
AcDbEntity
  8
寸法
 48
50.0
100
AcDbLeader
  3
INABA_S40G
 71
     0
 73
     0
 75
     1
 40
130.1136363636363
 41
651.1363636363636
 76
     3
 10
6231.635625660132
 20
1902.958468401857
 30
0.0
 10
6094.211045496116
 20
2043.429233858445
 30
0.0
 10
5994.211045496117
 20
2043.429233858445
 30
0.0
1001
ACAD
1000
DSTYLE
1002
{
1070
   174
1070
     0
1070
   272
1070
     1
1070
   279
1070
     1
1070
   288
1070
     0
1070
   341
1005
0
1002
}
  0
LEADER
  5
2147B
330
747D
100
AcDbEntity
  8
寸法
 48
50.0
100
AcDbLeader
  3
INABA_S40G
 71
     0
 73
     0
 75
     1
 40
100.0
 41
540.3409090909091
 76
     3
 10
6255.635625660132
 20
1661.08568309898
 30
0.0
 10
6172.653389131434
 20
1439.615354558175
 30
0.0
 10
6072.653389131434
 20
1439.615354558175
 30
0.0
213
-9.732182305893367
223
-4.643716661138569
233
0.0
1001
ACAD
1000
DSTYLE
1002
{
1070
   174
1070
     0
1070
   272
1070
     1
1070
   279
1070
     1
1070
   288
1070
     0
1070
   341
1005
0
1002
}
  0
MTEXT
  5
2147C
102
{ACAD_REACTORS
330
2147B
102
}
330
747D
100
AcDbEntity
  8
寸法
 62
     7
 48
50.0
100
AcDbMText
 10
6062.385571437328
 20
1504.259071219314
 30
0.0
 40
80.0
 41
0.8
 71
     6
 72
     1
  1
\A1;D10@300
  7
STYLE2
 73
     1
 44
1.0
1001
ACAD
1000
MTEXTBEGIN
1070
    73
1070
     1
1070
    44
1040
1.0
1070
    74
1070
     0
1000
MTEXTEND
  0
LEADER
  5
2147D
330
747D
100
AcDbEntity
  8
寸法
 48
50.0
100
AcDbLeader
  3
INABA_S40G
 71
     0
 73
     0
 75
     1
 40
100.0
 41
222.7272727272727
 76
     3
 10
6247.635625660132
 20
1238.958468401857
 30
0.0
 10
6000.823327022374
 20
795.119622243977
 30
0.0
 10
5900.823327022374
 20
795.119622243977
 30
0.0
1001
ACAD
1000
DSTYLE
1002
{
1070
   174
1070
     0
1070
   272
1070
     1
1070
   279
1070
     1
1070
   288
1070
     0
1070
   341
1005
0
1002
}
  0
LEADER
  5
2147E
330
747D
100
AcDbEntity
  8
寸法
 48
50.0
100
AcDbLeader
  3
INABA_S40G
 71
     0
 73
     0
 75
     1
 40
100.0
 41
225.0
 76
     3
 10
6119.538578012276
 20
1238.958468401857
 30
0.0
 10
5972.700599464939
 20
975.4357747834205
 30
0.0
 10
5872.700599464939
 20
975.4357747834205
 30
0.0
1001
ACAD
1000
DSTYLE
1002
{
1070
   174
1070
     0
1070
   272
1070
     1
1070
   279
1070
     1
1070
   288
1070
     0
1070
   341
1005
0
1002
}
  0
DIMENSION
  5
2147F
330
747D
100
AcDbEntity
  8
寸法
 48
50.0
100
AcDbDimension
  2
*D28
 10
5881.215311927673
 20
1118.958468401856
 30
0.0
 11
5881.215311927673
 21
1238.958468401857
 31
0.0
 70
   160
  1
150
 71
     5
 42
240.0
  3
INABA_S40G
100
AcDbAlignedDimension
 13
6023.635625660132
 23
1358.958468401857
 33
0.0
 14
5943.635625660135
 24
1118.958468401856
 34
0.0
 50
90.0
100
AcDbRotatedDimension
1001
ACAD
1000
DSTYLE
1002
{
1070
   174
1070
     0
1070
   272
1070
     1
1070
   279
1070
     1
1070
   288
1070
     0
1070
   341
1005
0
1002
}
  0
TEXT
  5
21480
330
747D
100
AcDbEntity
  8
部品1
 48
50.0
100
AcDbText
 10
5737.495723827176
 20
1674.197460685112
 30
0.0
 40
80.0
  1
▽G.L
  7
STYLE2
100
AcDbText
  0
LWPOLYLINE
  5
21481
330
747D
100
AcDbEntity
  8
部品1
 48
50.0
100
AcDbPolyline
 90
        2
 70
     0
 43
8.0
 10
5737.495723827176
 20
1662.958468401858
 10
6151.635625660132
 20
1662.958468401858
  0
MTEXT
  5
21482
102
{ACAD_REACTORS
330
21483
102
}
330
747D
100
AcDbEntity
  8
寸法
 62
     7
 48
50.0
100
AcDbMText
 10
7758.00786028403
 20
2785.444133207523
 30
0.0
 40
80.0
 41
0.8
 71
     6
 72
     1
  1
\A1;φ70スリーブ
  7
STYLE2
 73
     1
 44
1.0
1001
ACAD
1000
MTEXTBEGIN
1070
    73
1070
     1
1070
    44
1040
1.0
1070
    74
1070
     0
1000
MTEXTEND
  0
LEADER
  5
21483
330
747D
100
AcDbEntity
  8
寸法
 48
50.0
100
AcDbLeader
  3
INABA_S40G
 73
     0
 75
     1
 40
113.1818181818182
 41
608.6363636363635
 76
     3
 10
8041.811688975377
 20
1852.474141760136
 30
0.0
 10
7898.007860284029
 20
2688.853224116614
 30
0.0
 10
7798.007860284029
 20
2688.853224116614
 30
0.0
340
21482
1001
ACAD
1000
DSTYLE
1002
{
1070
   174
1070
     0
1070
   272
1070
     1
1070
   279
1070
     1
1070
   288
1070
     0
1070
   341
1005
0
1002
}
  0
LINE
  5
21484
330
747D
100
AcDbEntity
  8
部品1
100
AcDbLine
 10
5080.96718685087
 20
3223.930088178702
 30
0.0
 11
5080.967186850872
 21
259.6231185940546
 31
0.0
  0
LEADER
  5
21485
330
747D
100
AcDbEntity
  8
寸法
 48
50.0
100
AcDbLeader
  3
INABA_S40G
 73
     0
 74
     0
 75
     1
 40
80.0
 41
435.0
 76
     3
 10
8082.074938837326
 20
1952.118468401857
 30
0.0
 10
8134.619401256648
 20
2087.341794555087
 30
0.0
 10
8234.619401256647
 20
2087.341794555087
 30
0.0
340
21486
1001
ACAD
1000
DSTYLE
1002
{
1070
   174
1070
     0
1070
   272
1070
     1
1070
   279
1070
     1
1070
   288
1070
     0
1070
   341
1005
0
1002
}
  0
MTEXT
  5
21486
102
{ACAD_REACTORS
330
21485
102
}
330
747D
100
AcDbEntity
  8
部品1
 62
     7
 48
50.0
100
AcDbMText
 10
8274.619401256646
 20
2167.341794555087
 30
0.0
 40
80.0
 41
0.8
 71
     4
 72
     1
  1
M10X160
  7
STYLE2
 73
     1
 44
1.0
1001
ACAD
1000
MTEXTBEGIN
1070
    73
1070
     1
1070
    44
1040
1.0
1070
    74
1070
     0
1000
MTEXTEND
  0
DIMENSION
  5
21487
330
747D
100
AcDbEntity
  8
寸法
 48
50.0
100
AcDbDimension
  2
*D29
 10
8767.543538606171
 20
1902.958468401856
 30
0.0
 11
9043.598204725197
 21
1877.834510797645
 31
0.0
 70
   160
  1
20～25
 71
     5
 42
52.76000000000113
  3
INABA_S40G
100
AcDbAlignedDimension
 13
8078.474938837327
 23
1955.718468401858
 33
0.0
 14
8265.674938837326
 24
1902.958468401857
 34
0.0
 50
90.0
100
AcDbRotatedDimension
1001
ACAD
1000
DSTYLE
1002
{
1070
   174
1070
     0
1070
   272
1070
     1
1070
   279
1070
     1
1070
   288
1070
     0
1070
   341
1005
0
1002
}
  0
DIMENSION
  5
21488
330
747D
100
AcDbEntity
  8
寸法
 48
50.0
100
AcDbDimension
  2
*D30
 10
8767.543538606171
 20
1578.958468401856
 30
0.0
 11
8667.543538606171
 21
1740.958468401858
 31
0.0
 70
    32
  1
180
 71
     5
 42
324.0000000000009
  3
INABA_S40G
100
AcDbAlignedDimension
 13
8265.674938837326
 23
1902.958468401857
 33
0.0
 14
8265.674938837326
 24
1578.958468401856
 34
0.0
 50
90.0
100
AcDbRotatedDimension
1001
ACAD
1000
DSTYLE
1002
{
1070
   174
1070
     0
1070
   272
1070
     1
1070
   279
1070
     1
1070
   288
1070
     0
1070
   341
1005
0
1002
}
  0
TEXT
  5
21489
330
747D
100
AcDbEntity
  8
部品1
 48
50.0
100
AcDbText
 10
8270.028523121755
 20
2258.837149164057
 30
0.0
 40
80.0
  1
基礎ボルト(市販品)
  7
STYLE2
100
AcDbText
  0
LWPOLYLINE
  5
2148A
330
747D
100
AcDbEntity
  8
部品1
 48
50.0
100
AcDbPolyline
 90
        2
 70
     0
 43
8.0
 10
8265.674938837326
 20
1662.958468401858
 10
8559.377402236711
 20
1662.958468401858
  0
MTEXT
  5
2148B
102
{ACAD_REACTORS
330
2148C
102
}
330
747D
100
AcDbEntity
  8
部品1
 62
     7
 48
50.0
100
AcDbMText
 10
8304.946529206167
 20
2603.453841489117
 30
0.0
 40
80.0
 41
0.8
 71
     4
 72
     1
  1
\A1;ワッシャー(市販品)
  7
STYLE2
 73
     1
 44
1.0
1001
ACAD
1000
MTEXTBEGIN
1070
    73
1070
     1
1070
    44
1040
1.0
1070
    74
1070
     0
1000
MTEXTEND
  0
LEADER
  5
2148C
330
747D
100
AcDbEntity
  8
寸法
 48
50.0
100
AcDbLeader
  3
INABA_S40G
 73
     0
 74
     0
 75
     1
 40
102.2727272727273
 41
906.8181818181818
 76
     3
 10
8113.074938837327
 20
2172.081756846137
 30
0.0
 10
8164.946529206167
 20
2512.317477852753
 30
0.0
 10
8264.946529206167
 20
2512.317477852753
 30
0.0
340
2148B
1001
ACAD
1000
DSTYLE
1002
{
1070
   174
1070
     0
1070
   272
1070
     1
1070
   279
1070
     1
1070
   288
1070
     0
1070
   341
1005
0
1002
}
  0
MTEXT
  5
2148D
102
{ACAD_REACTORS
330
2148E
102
}
330
747D
100
AcDbEntity
  8
部品1
 62
     7
 48
50.0
100
AcDbMText
 10
8273.428909950684
 20
2788.422924253905
 30
0.0
 40
80.0
 41
0.8
 71
     4
 72
     1
  1
\A1;ナット(市販品)
  7
STYLE2
 73
     1
 44
1.0
1001
ACAD
1000
MTEXTBEGIN
1070
    73
1070
     1
1070
    44
1040
1.0
1070
    74
1070
     0
1000
MTEXTEND
  0
LEADER
  5
2148E
330
747D
100
AcDbEntity
  8
寸法
 48
50.0
100
AcDbLeader
  3
INABA_S40G
 73
     0
 74
     0
 75
     1
 40
102.2727272727273
 41
680.0000000000001
 76
     3
 10
8089.074938837326
 20
2301.833749511
 30
0.0
 10
8133.428909950685
 20
2697.286560617541
 30
0.0
 10
8233.428909950685
 20
2697.286560617541
 30
0.0
340
2148D
1001
ACAD
1000
DSTYLE
1002
{
1070
   174
1070
     0
1070
   272
1070
     1
1070
   279
1070
     1
1070
   288
1070
     0
1070
   341
1005
0
1002
}
  0
LINE
  5
2148F
330
747D
100
AcDbEntity
  8
部品1
100
AcDbLine
 10
5080.967186850874
 20
259.6231185940546
 30
0.0
 11
11151.95237223712
 21
259.6231185940546
 31
0.0
  0
LINE
  5
21490
330
747D
100
AcDbEntity
  8
部品1
100
AcDbLine
 10
11151.95237223712
 20
2983.930088178699
 30
0.0
 11
5080.967186850872
 21
2983.930088178701
 31
0.0
  0
LINE
  5
21491
330
747D
100
AcDbEntity
  8
部品1
100
AcDbLine
 10
11151.95237223712
 20
3223.930088178702
 30
0.0
 11
5080.967186850869
 21
3223.930088178701
 31
0.0
  0
HATCH
  5
21545
330
747D
100
AcDbEntity
  8
細線
 48
50.0
100
AcDbHatch
 10
0.0
 20
0.0
 30
0.0
210
0.0
220
0.0
230
1.0
  2
LINE
 70
     0
 71
     0
 91
        1
 92
        7
 72
     0
 73
     1
 93
        4
 10
8109.213011273903
 20
7732.919036112861
 10
7909.213011273902
 20
7732.919036112861
 10
7909.213011273902
 20
7612.91903611286
 10
8109.213011273903
 20
7612.91903611286
 97
        0
 75
     0
 76
     1
 52
45.0
 41
10.0
 77
     0
 78
     1
 53
45.0
 43
0.0
 44
210.0
 45
-22.45064030267288
 46
22.45064030267288
 79
     0
 47
3.473469697878706
 98
        1
 10
8050.206599787074
 20
7688.658167041977
  0
HATCH
  5
21564
330
747D
100
AcDbEntity
  8
細線
 48
50.0
100
AcDbHatch
 10
0.0
 20
0.0
 30
0.0
210
0.0
220
0.0
230
1.0
  2
LINE
 70
     0
 71
     0
 91
        1
 92
        7
 72
     0
 73
     1
 93
        4
 10
9539.213011273899
 20
6512.919036112861
 10
9419.213011273894
 20
6512.919036112859
 10
9419.213011273892
 20
6312.919036112859
 10
9539.213011273897
 20
6312.919036112861
 97
        0
 75
     0
 76
     1
 52
45.0
 41
10.0
 77
     0
 78
     1
 53
45.0
 43
0.0
 44
0.0
 45
-22.45064030267288
 46
22.45064030267288
 79
     0
 47
3.473469697878706
 98
        1
 10
9453.802656639323
 20
6394.935630827189
  0
HATCH
  5
21583
330
747D
100
AcDbEntity
  8
細線
 48
50.0
100
AcDbHatch
 10
0.0
 20
0.0
 30
0.0
210
0.0
220
0.0
230
1.0
  2
LINE
 70
     0
 71
     0
 91
        1
 92
        7
 72
     0
 73
     1
 93
        4
 10
6599.213011273896
 20
6512.919036112861
 10
6479.213011273897
 20
6512.919036112859
 10
6479.213011273897
 20
6312.919036112861
 10
6599.213011273898
 20
6312.919036112859
 97
        0
 75
     0
 76
     1
 52
45.0
 41
10.0
 77
     0
 78
     1
 53
45.0
 43
0.0
 44
0.0
 45
-22.45064030267288
 46
22.45064030267288
 79
     0
 47
3.473469697878706
 98
        1
 10
6518.063322327179
 20
6429.670296786461
  0
DIMENSION
  5
215AB
330
747D
100
AcDbEntity
  8
寸法
 48
50.0
100
AcDbDimension
  2
*D31
 10
9309.213011273895
 20
6984.422404093454
 30
0.0
 11
9085.165767179407
 21
6984.422404093454
 31
0.0
 70
   160
 71
     5
 42
109.9999999999982
  3
INABA_S40G
100
AcDbAlignedDimension
 13
9419.213011273894
 23
7069.528470221974
 33
0.0
 14
9309.213011273895
 24
7502.919036112858
 34
0.0
100
AcDbRotatedDimension
1001
ACAD
1000
DSTYLE
1002
{
1070
   174
1070
     0
1070
   272
1070
     1
1070
   279
1070
     1
1070
   288
1070
     0
1070
   341
1005
0
1002
}
  0
ENDSEC
  0
SECTION
  2
OBJECTS
  0
DICTIONARY
  5
7471
330
0
100
AcDbDictionary
281
     1
  3
ACAD_COLOR
350
159B0
  3
ACAD_GROUP
350
7472
  3
ACAD_LAYOUT
350
159B1
  3
ACAD_MATERIAL
350
159AF
  3
ACAD_MLINESTYLE
350
7473
  3
ACAD_PLOTSETTINGS
350
159B2
  3
ACAD_PLOTSTYLENAME
350
159AD
  3
ACDBHEADERROUNDTRIPXREC
350
218DB
  3
AcDbVariableDictionary
350
20E90
  3
CONTENTDICTIONARY
350
E71C
  3
DRAWINGVARIABLESDICT
350
F3B9
  0
DICTIONARY
  5
21220
330
7467
100
AcDbDictionary
280
     1
281
     1
  3
ACAD_LAYERSTATES
360
21221
  0
DICTIONARY
  5
159B0
102
{ACAD_REACTORS
330
7471
102
}
330
7471
100
AcDbDictionary
281
     1
  0
DICTIONARY
  5
7472
102
{ACAD_REACTORS
330
7471
102
}
330
7471
100
AcDbDictionary
281
     1
  0
DICTIONARY
  5
159B1
102
{ACAD_REACTORS
330
7471
102
}
330
7471
100
AcDbDictionary
281
     1
  3
Model
350
159B3
  3
レイアウト1
350
159B4
  0
DICTIONARY
  5
159AF
102
{ACAD_REACTORS
330
7471
102
}
330
7471
100
AcDbDictionary
281
     1
  0
DICTIONARY
  5
7473
102
{ACAD_REACTORS
330
7471
102
}
330
7471
100
AcDbDictionary
281
     1
  3
STANDARD
350
7480
  0
DICTIONARY
  5
159B2
102
{ACAD_REACTORS
330
7471
102
}
330
7471
100
AcDbDictionary
281
     1
  0
ACDBDICTIONARYWDFLT
  5
159AD
102
{ACAD_REACTORS
330
7471
102
}
330
7471
100
AcDbDictionary
281
     1
  3
Normal
350
159AE
100
AcDbDictionaryWithDefault
340
159AE
  0
DICTIONARY
  5
218DB
102
{ACAD_REACTORS
330
7471
102
}
330
7471
100
AcDbDictionary
281
     1
  3
COLORDICT
350
218DD
  3
MATERIALDICT
350
218DC
  0
DICTIONARY
  5
20E90
102
{ACAD_REACTORS
330
7471
102
}
330
7471
100
AcDbDictionary
281
     1
  3
DIMASSOC
350
20E91
  3
PROJECTNAME
350
20E92
  0
DICTIONARY
  5
E71C
102
{ACAD_REACTORS
330
7471
102
}
330
7471
100
AcDbDictionary
281
     1
  0
DICTIONARY
  5
F3B9
102
{ACAD_REACTORS
330
7471
102
}
330
7471
100
AcDbDictionary
281
     1
1001
DRAWINGVARIABLESXDATA
1000
POLARMODE
1000
1
  0
DICTIONARY
  5
21221
102
{ACAD_REACTORS
330
21220
102
}
330
21220
100
AcDbDictionary
281
     1
  0
LAYOUT
  5
159B3
102
{ACAD_XDICTIONARY
360
218DE
102
}
102
{ACAD_REACTORS
330
159B1
102
}
330
159B1
100
AcDbPlotSettings
  1

  2
none_device
  4
Letter_(8.50_x_11.00_Inches)
  6

 40
6.349999904632568
 41
6.349999904632568
 42
6.350006103515625
 43
6.350006103515625
 44
215.8999938964844
 45
279.3999938964844
 46
0.0
 47
0.0
 48
0.0
 49
0.0
140
0.0
141
0.0
142
1.0
143
1.0
 70
 11952
 72
     1
 73
     1
 74
     0
  7

 75
     0
147
1.0
148
-4149.571981164617
149
65.56433826894044
100
AcDbLayout
  1
Model
 70
     1
 71
     0
 10
0.0
 20
0.0
 11
12.0
 21
9.0
 12
0.0
 22
0.0
 32
0.0
 14
0.0
 24
0.0
 34
0.0
 15
0.0
 25
0.0
 35
0.0
146
0.0
 13
0.0
 23
0.0
 33
0.0
 16
1.0
 26
0.0
 36
0.0
 17
0.0
 27
1.0
 37
0.0
 76
     0
330
747D
  0
LAYOUT
  5
159B4
102
{ACAD_XDICTIONARY
360
218E0
102
}
102
{ACAD_REACTORS
330
159B1
102
}
330
159B1
100
AcDbPlotSettings
  1

  2
自動 EPSON LP-8400FX (TATENO 上)
  4

  6

 40
0.0
 41
0.0
 42
0.0
 43
0.0
 44
0.0
 45
0.0
 46
0.0
 47
0.0
 48
0.0
 49
0.0
140
0.0
141
0.0
142
1.0
143
1.0
 70
   688
 72
     0
 73
     0
 74
     5
  7
inaba.ctb
 75
    16
147
1.0
148
0.0
149
0.0
100
AcDbLayout
  1
レイアウト1
 70
     0
 71
     1
 10
0.0
 20
0.0
 11
420.0
 21
297.0
 12
0.0
 22
0.0
 32
0.0
 14
1.000000000000000E+20
 24
1.000000000000000E+20
 34
1.000000000000000E+20
 15
-1.000000000000000E+20
 25
-1.000000000000000E+20
 35
-1.000000000000000E+20
146
0.0
 13
0.0
 23
0.0
 33
0.0
 16
1.0
 26
0.0
 36
0.0
 17
0.0
 27
1.0
 37
0.0
 76
     0
330
747A
  0
MLINESTYLE
  5
7480
102
{ACAD_REACTORS
330
7473
102
}
330
7473
100
AcDbMlineStyle
  2
STANDARD
 70
     0
  3

 62
     0
 51
90.0
 52
90.0
 71
     2
 49
0.5
 62
   256
  6
BYLAYER
 49
-0.5
 62
   256
  6
BYLAYER
  0
ACDBPLACEHOLDER
  5
159AE
102
{ACAD_REACTORS
330
159AD
102
}
330
159AD
  0
XRECORD
  5
218DD
102
{ACAD_REACTORS
330
218DB
102
}
330
218DB
100
AcDbXrecord
280
     1
340
159B0
  0
XRECORD
  5
218DC
102
{ACAD_REACTORS
330
218DB
102
}
330
218DB
100
AcDbXrecord
280
     1
340
159AF
  0
DICTIONARYVAR
  5
20E91
102
{ACAD_REACTORS
330
20E90
102
}
330
20E90
100
DictionaryVariables
280
     0
  1
1
  0
DICTIONARYVAR
  5
20E92
102
{ACAD_REACTORS
330
20E90
102
}
330
20E90
100
DictionaryVariables
280
     0
  1

  0
DICTIONARY
  5
218DE
330
159B3
100
AcDbDictionary
280
     1
281
     1
  3
ACAD_XREC_ROUNDTRIP
360
218DF
  0
DICTIONARY
  5
218E0
330
159B4
100
AcDbDictionary
280
     1
281
     1
  3
ACAD_XREC_ROUNDTRIP
360
218E1
  0
XRECORD
  5
218DF
102
{ACAD_REACTORS
330
218DE
102
}
330
218DE
100
AcDbXrecord
280
     1
102
SHADEPLOT
 70
     0
102
SHADEPLOTRESLEVEL
 70
     2
102
SHADEPLOTCUSTOMDPI
 70
   300
  0
XRECORD
  5
218E1
102
{ACAD_REACTORS
330
218E0
102
}
330
218E0
100
AcDbXrecord
280
     1
102
SHADEPLOT
 70
     0
102
SHADEPLOTRESLEVEL
 70
     2
102
SHADEPLOTCUSTOMDPI
 70
   300
  0
ENDSEC
  0
EOF
