  0
SECTION
  2
HEADER
  9
$ACADVER
  1
AC1015
  9
$ACADMAINTVER
 70
    20
  9
$DWGCODEPAGE
  3
ANSI_932
  9
$INSBASE
 10
0.0
 20
0.0
 30
0.0
  9
$EXTMIN
 10
139.9999999999995
 20
-0.0000000000000909
 30
0.0
  9
$EXTMAX
 10
16307.2
 20
11409.6
 30
0.0
  9
$LIMMIN
 10
0.0
 20
0.0
  9
$LIMMAX
 10
16800.0
 20
11880.0
  9
$ORTHOMODE
 70
     0
  9
$REGENMODE
 70
     1
  9
$FILLMODE
 70
     1
  9
$QTEXTMODE
 70
     0
  9
$MIRRTEXT
 70
     1
  9
$LTSCALE
 40
20.0
  9
$ATTMODE
 70
     1
  9
$TEXTSIZE
 40
4.0
  9
$TRACEWID
 40
1.0
  9
$TEXTSTYLE
  7
STYLE1
  9
$CLAYER
  8
細線
  9
$CELTYPE
  6
BYLAYER
  9
$CECOLOR
 62
   256
  9
$CELTSCALE
 40
50.0
  9
$DISPSILH
 70
     0
  9
$DIMSCALE
 40
40.0
  9
$DIMASZ
 40
2.5
  9
$DIMEXO
 40
0.5
  9
$DIMDLI
 40
7.0
  9
$DIMRND
 40
0.0
  9
$DIMDLE
 40
0.0
  9
$DIMEXE
 40
1.5
  9
$DIMTP
 40
0.0
  9
$DIMTM
 40
0.0
  9
$DIMTXT
 40
3.0
  9
$DIMCEN
 40
0.0
  9
$DIMTSZ
 40
0.0
  9
$DIMTOL
 70
     0
  9
$DIMLIM
 70
     0
  9
$DIMTIH
 70
     0
  9
$DIMTOH
 70
     0
  9
$DIMSE1
 70
     0
  9
$DIMSE2
 70
     0
  9
$DIMTAD
 70
     3
  9
$DIMZIN
 70
     8
  9
$DIMBLK
  1

  9
$DIMASO
 70
     1
  9
$DIMSHO
 70
     1
  9
$DIMPOST
  1

  9
$DIMAPOST
  1

  9
$DIMALT
 70
     0
  9
$DIMALTD
 70
     2
  9
$DIMALTF
 40
0.0394
  9
$DIMLFAC
 40
1.0
  9
$DIMTOFL
 70
     1
  9
$DIMTVP
 40
0.0
  9
$DIMTIX
 70
     1
  9
$DIMSOXD
 70
     0
  9
$DIMSAH
 70
     1
  9
$DIMBLK1
  1
DOTSMALL
  9
$DIMBLK2
  1
DOTSMALL
  9
$DIMSTYLE
  2
INABA_S40G
  9
$DIMCLRD
 70
     0
  9
$DIMCLRE
 70
     0
  9
$DIMCLRT
 70
     7
  9
$DIMTFAC
 40
1.0
  9
$DIMGAP
 40
1.0
  9
$DIMJUST
 70
     0
  9
$DIMSD1
 70
     0
  9
$DIMSD2
 70
     0
  9
$DIMTOLJ
 70
     1
  9
$DIMTZIN
 70
     0
  9
$DIMALTZ
 70
     0
  9
$DIMALTTZ
 70
     0
  9
$DIMUPT
 70
     0
  9
$DIMDEC
 70
     1
  9
$DIMTDEC
 70
     4
  9
$DIMALTU
 70
     2
  9
$DIMALTTD
 70
     2
  9
$DIMTXSTY
  7
STYLE1
  9
$DIMAUNIT
 70
     0
  9
$DIMADEC
 70
     0
  9
$DIMALTRND
 40
0.0
  9
$DIMAZIN
 70
     0
  9
$DIMDSEP
 70
    46
  9
$DIMATFIT
 70
     3
  9
$DIMFRAC
 70
     0
  9
$DIMLDRBLK
  1

  9
$DIMLUNIT
 70
     2
  9
$DIMLWD
 70
    -2
  9
$DIMLWE
 70
    -2
  9
$DIMTMOVE
 70
     0
  9
$LUNITS
 70
     2
  9
$LUPREC
 70
     1
  9
$SKETCHINC
 40
1.0
  9
$FILLETRAD
 40
3.0
  9
$AUNITS
 70
     0
  9
$AUPREC
 70
     0
  9
$MENU
  1
acad
  9
$ELEVATION
 40
0.0
  9
$PELEVATION
 40
0.0
  9
$THICKNESS
 40
0.0
  9
$LIMCHECK
 70
     0
  9
$CHAMFERA
 40
0.0
  9
$CHAMFERB
 40
0.0
  9
$CHAMFERC
 40
0.0
  9
$CHAMFERD
 40
0.0
  9
$SKPOLY
 70
     0
  9
$TDCREATE
 40
2451368.612993866
  9
$TDUCREATE
 40
2451368.237993866
  9
$TDUPDATE
 40
2455827.671434051
  9
$TDUUPDATE
 40
2455827.296434051
  9
$TDINDWG
 40
0.8298379051
  9
$TDUSRTIMER
 40
0.8298379051
  9
$USRTIMER
 70
     1
  9
$ANGBASE
 50
0.0
  9
$ANGDIR
 70
     0
  9
$PDMODE
 70
     3
  9
$PDSIZE
 40
2.0
  9
$PLINEWID
 40
0.0
  9
$SPLFRAME
 70
     0
  9
$SPLINETYPE
 70
     6
  9
$SPLINESEGS
 70
     8
  9
$HANDSEED
  5
277F6
  9
$SURFTAB1
 70
     6
  9
$SURFTAB2
 70
     6
  9
$SURFTYPE
 70
     6
  9
$SURFU
 70
     6
  9
$SURFV
 70
     6
  9
$UCSBASE
  2

  9
$UCSNAME
  2

  9
$UCSORG
 10
0.0
 20
0.0
 30
0.0
  9
$UCSXDIR
 10
1.0
 20
0.0
 30
0.0
  9
$UCSYDIR
 10
0.0
 20
1.0
 30
0.0
  9
$UCSORTHOREF
  2

  9
$UCSORTHOVIEW
 70
     0
  9
$UCSORGTOP
 10
0.0
 20
0.0
 30
0.0
  9
$UCSORGBOTTOM
 10
0.0
 20
0.0
 30
0.0
  9
$UCSORGLEFT
 10
0.0
 20
0.0
 30
0.0
  9
$UCSORGRIGHT
 10
0.0
 20
0.0
 30
0.0
  9
$UCSORGFRONT
 10
0.0
 20
0.0
 30
0.0
  9
$UCSORGBACK
 10
0.0
 20
0.0
 30
0.0
  9
$PUCSBASE
  2

  9
$PUCSNAME
  2

  9
$PUCSORG
 10
0.0
 20
0.0
 30
0.0
  9
$PUCSXDIR
 10
1.0
 20
0.0
 30
0.0
  9
$PUCSYDIR
 10
0.0
 20
1.0
 30
0.0
  9
$PUCSORTHOREF
  2

  9
$PUCSORTHOVIEW
 70
     0
  9
$PUCSORGTOP
 10
0.0
 20
0.0
 30
0.0
  9
$PUCSORGBOTTOM
 10
0.0
 20
0.0
 30
0.0
  9
$PUCSORGLEFT
 10
0.0
 20
0.0
 30
0.0
  9
$PUCSORGRIGHT
 10
0.0
 20
0.0
 30
0.0
  9
$PUCSORGFRONT
 10
0.0
 20
0.0
 30
0.0
  9
$PUCSORGBACK
 10
0.0
 20
0.0
 30
0.0
  9
$USERI1
 70
     0
  9
$USERI2
 70
     0
  9
$USERI3
 70
     0
  9
$USERI4
 70
     0
  9
$USERI5
 70
     0
  9
$USERR1
 40
0.0
  9
$USERR2
 40
0.0
  9
$USERR3
 40
0.0
  9
$USERR4
 40
0.0
  9
$USERR5
 40
0.0
  9
$WORLDVIEW
 70
     1
  9
$SHADEDGE
 70
     3
  9
$SHADEDIF
 70
    70
  9
$TILEMODE
 70
     1
  9
$MAXACTVP
 70
    16
  9
$PINSBASE
 10
0.0
 20
0.0
 30
0.0
  9
$PLIMCHECK
 70
     0
  9
$PEXTMIN
 10
1.000000000000000E+20
 20
1.000000000000000E+20
 30
1.000000000000000E+20
  9
$PEXTMAX
 10
-1.000000000000000E+20
 20
-1.000000000000000E+20
 30
-1.000000000000000E+20
  9
$PLIMMIN
 10
0.0
 20
0.0
  9
$PLIMMAX
 10
420.0
 20
297.0
  9
$UNITMODE
 70
     0
  9
$VISRETAIN
 70
     0
  9
$PLINEGEN
 70
     0
  9
$PSLTSCALE
 70
     0
  9
$TREEDEPTH
 70
  3020
  9
$CMLSTYLE
  2
STANDARD
  9
$CMLJUST
 70
     0
  9
$CMLSCALE
 40
1.0
  9
$PROXYGRAPHICS
 70
     1
  9
$MEASUREMENT
 70
     1
  9
$CELWEIGHT
370
    -1
  9
$ENDCAPS
280
     0
  9
$JOINSTYLE
280
     0
  9
$LWDISPLAY
290
     0
  9
$INSUNITS
 70
     0
  9
$HYPERLINKBASE
  1

  9
$STYLESHEET
  1
ACA3.ctb
  9
$XEDIT
290
     1
  9
$CEPSNTYPE
380
     0
  9
$PSTYLEMODE
290
     1
  9
$FINGERPRINTGUID
  2
{5EAC461A-2277-4BF8-9AB0-99C43BB394F0}
  9
$VERSIONGUID
  2
{0F5404D4-6547-406B-A5F2-18EB7D576031}
  9
$EXTNAMES
290
     1
  9
$PSVPSCALE
 40
0.0
  9
$OLESTARTUP
290
     0
  0
ENDSEC
  0
SECTION
  2
CLASSES
  0
CLASS
  1
ACDBDICTIONARYWDFLT
  2
AcDbDictionaryWithDefault
  3
ObjectDBX Classes
 90
        0
280
     0
281
     0
  0
CLASS
  1
DICTIONARYVAR
  2
AcDbDictionaryVar
  3
ObjectDBX Classes
 90
        0
280
     0
281
     0
  0
CLASS
  1
ACDBPLACEHOLDER
  2
AcDbPlaceHolder
  3
ObjectDBX Classes
 90
        0
280
     0
281
     0
  0
CLASS
  1
LAYOUT
  2
AcDbLayout
  3
ObjectDBX Classes
 90
        0
280
     0
281
     0
  0
ENDSEC
  0
SECTION
  2
TABLES
  0
TABLE
  2
VPORT
  5
746D
330
0
100
AcDbSymbolTable
 70
     2
  0
VPORT
  5
277EE
330
746D
100
AcDbSymbolTableRecord
100
AcDbViewportTableRecord
  2
*Active
 70
     0
 10
0.0
 20
0.0
 11
1.0
 21
1.0
 12
8399.999999999998
 22
6549.946086030115
 13
0.0
 23
0.0
 14
10.0
 24
10.0
 15
10.0
 25
10.0
 16
0.0
 26
0.0
 36
1.0
 17
0.0
 27
0.0
 37
0.0
 40
13195.53355943939
 41
1.522222222222222
 42
50.0
 43
0.0
 44
0.0
 50
0.0
 51
0.0
 71
     0
 72
     0
 73
     1
 74
     0
 75
     0
 76
     0
 77
     0
 78
     0
281
     0
 65
     1
110
0.0
120
0.0
130
0.0
111
1.0
121
0.0
131
0.0
112
0.0
122
1.0
132
0.0
 79
     0
146
0.0
  0
ENDTAB
  0
TABLE
  2
LTYPE
  5
746A
330
0
100
AcDbSymbolTable
 70
     5
  0
LTYPE
  5
7477
330
746A
100
AcDbSymbolTableRecord
100
AcDbLinetypeTableRecord
  2
BYBLOCK
 70
     0
  3

 72
    65
 73
     0
 40
0.0
  0
LTYPE
  5
7478
330
746A
100
AcDbSymbolTableRecord
100
AcDbLinetypeTableRecord
  2
BYLAYER
 70
     0
  3

 72
    65
 73
     0
 40
0.0
  0
LTYPE
  5
7479
330
746A
100
AcDbSymbolTableRecord
100
AcDbLinetypeTableRecord
  2
CONTINUOUS
 70
     0
  3
Solid line
 72
    65
 73
     0
 40
0.0
  0
LTYPE
  5
7816
330
746A
100
AcDbSymbolTableRecord
100
AcDbLinetypeTableRecord
  2
CENTER
 70
     0
  3
____ _ ____ _ ____ _ ____ _ ____ _ ____ _ ____ 
 72
    65
 73
     4
 40
2.0
 49
1.25
 74
     0
 49
-0.25
 74
     0
 49
0.25
 74
     0
 49
-0.25
 74
     0
  0
LTYPE
  5
781A
330
746A
100
AcDbSymbolTableRecord
100
AcDbLinetypeTableRecord
  2
HIDDEN
 70
     0
  3
__ __ __ __ __ __ __ __ __ __ __ __ __ __ __ __
 72
    65
 73
     2
 40
0.375
 49
0.25
 74
     0
 49
-0.125
 74
     0
  0
LTYPE
  5
781B
330
746A
100
AcDbSymbolTableRecord
100
AcDbLinetypeTableRecord
  2
PHANTOM
 70
     0
  3
______  __  __  ______  __  __  ______  __  __ 
 72
    65
 73
     6
 40
2.5
 49
1.25
 74
     0
 49
-0.25
 74
     0
 49
0.25
 74
     0
 49
-0.25
 74
     0
 49
0.25
 74
     0
 49
-0.25
 74
     0
  0
LTYPE
  5
12CC3
330
746A
100
AcDbSymbolTableRecord
100
AcDbLinetypeTableRecord
  2
HIDDENX2
 70
     0
  3
Hidden (2x) ____ ____ ____ ____ ____ ____ ____
 72
    65
 73
     2
 40
19.05
 49
12.7
 74
     0
 49
-6.349999999999999
 74
     0
  0
ENDTAB
  0
TABLE
  2
LAYER
  5
7467
102
{ACAD_XDICTIONARY
360
1758F
102
}
330
0
100
AcDbSymbolTable
 70
    12
  0
LAYER
  5
7474
330
7467
100
AcDbSymbolTableRecord
100
AcDbLayerTableRecord
  2
0
 70
     0
 62
     7
  6
CONTINUOUS
370
    -3
390
173D0
  0
LAYER
  5
DEB2
330
7467
100
AcDbSymbolTableRecord
100
AcDbLayerTableRecord
  2
センター
 70
     0
 62
     3
  6
CENTER
370
    -3
390
173D0
  0
LAYER
  5
DEB3
330
7467
100
AcDbSymbolTableRecord
100
AcDbLayerTableRecord
  2
寸法
 70
     0
 62
     4
  6
CONTINUOUS
370
    -3
390
173D0
  0
LAYER
  5
DEB4
330
7467
100
AcDbSymbolTableRecord
100
AcDbLayerTableRecord
  2
部品1
 70
     0
 62
     7
  6
CONTINUOUS
370
    -3
390
173D0
  0
LAYER
  5
DEB5
330
7467
100
AcDbSymbolTableRecord
100
AcDbLayerTableRecord
  2
補助
 70
     0
 62
    -1
  6
CONTINUOUS
370
    -3
390
173D0
  0
LAYER
  5
DEB6
330
7467
100
AcDbSymbolTableRecord
100
AcDbLayerTableRecord
  2
文字
 70
     0
 62
     7
  6
CONTINUOUS
370
    -3
390
173D0
  0
LAYER
  5
F255
330
7467
100
AcDbSymbolTableRecord
100
AcDbLayerTableRecord
  2
DEFPOINTS
 70
     0
 62
     7
  6
CONTINUOUS
290
     0
370
    -3
390
173D0
  0
LAYER
  5
10B54
330
7467
100
AcDbSymbolTableRecord
100
AcDbLayerTableRecord
  2
仕様書枠
 70
     0
 62
   230
  6
CONTINUOUS
370
    -3
390
173D0
  0
LAYER
  5
11729
330
7467
100
AcDbSymbolTableRecord
100
AcDbLayerTableRecord
  2
Ｇ．Ｌ
 70
     0
 62
    30
  6
CONTINUOUS
370
    -3
390
173D0
  0
LAYER
  5
1173F
330
7467
100
AcDbSymbolTableRecord
100
AcDbLayerTableRecord
  2
細線
 70
     0
 62
     5
  6
CONTINUOUS
370
    -3
390
173D0
  0
LAYER
  5
12CC4
330
7467
100
AcDbSymbolTableRecord
100
AcDbLayerTableRecord
  2
想像線
 70
     0
 62
     6
  6
PHANTOM
370
    -3
390
173D0
  0
LAYER
  5
142E2
330
7467
100
AcDbSymbolTableRecord
100
AcDbLayerTableRecord
  2
破線
 70
     0
 62
     2
  6
HIDDEN
370
    -3
390
173D0
  0
ENDTAB
  0
TABLE
  2
STYLE
  5
7468
330
0
100
AcDbSymbolTable
 70
     7
  0
STYLE
  5
7475
330
7468
100
AcDbSymbolTableRecord
100
AcDbTextStyleTableRecord
  2
STANDARD
 70
     0
 40
0.0
 41
1.0
 50
0.0
 71
     0
 42
4.0
  3
txt
  4
C:\AutoCAD LT\bigfont.shx
  0
STYLE
  5
763C
330
7468
100
AcDbSymbolTableRecord
100
AcDbTextStyleTableRecord
  2
MSMINCHO
 70
     0
 40
0.0
 41
1.0
 50
0.0
 71
     0
 42
1.199999999999999
  3
C:\AutoCAD LT\msminch2.TTF
  4

  0
STYLE
  5
F706
330
7468
100
AcDbSymbolTableRecord
100
AcDbTextStyleTableRecord
  2
STYLE1
 70
     0
 40
0.0
 41
1.0
 50
0.0
 71
     0
 42
4.0
  3
isocp.shx
  4
bigfont.shx
  0
STYLE
  5
103BF
330
7468
100
AcDbSymbolTableRecord
100
AcDbTextStyleTableRecord
  2
STYLE2
 70
     0
 40
0.0
 41
1.0
 50
0.0
 71
     0
 42
100.0
  3
MS PGothic.ttf
  4

1001
ACAD
1000
MS PGothic
1071
    32818
  0
STYLE
  5
10BAA
330
7468
100
AcDbSymbolTableRecord
100
AcDbTextStyleTableRecord
  2
STYLE3
 70
     0
 40
0.0
 41
1.0
 50
0.0
 71
     0
 42
100.0
  3

  4

1001
ACAD
1000
DFPGothic-EB
1071
    32818
  0
STYLE
  5
11A15
330
7468
100
AcDbSymbolTableRecord
100
AcDbTextStyleTableRecord
  2
MSGOTHIC
 70
     0
 40
0.0
 41
1.0
 50
0.0
 71
     0
 42
3.5
  3
msgothi2.ttf
  4

  0
STYLE
  5
13E96
330
7468
100
AcDbSymbolTableRecord
100
AcDbTextStyleTableRecord
  2
MSPゴシック
 70
     0
 40
0.0
 41
1.0
 50
0.0
 71
     0
 42
4.0
  3
MS PGothic.ttf
  4

1001
ACAD
1000
MS PGothic
1071
    32818
  0
ENDTAB
  0
TABLE
  2
VIEW
  5
746B
330
0
100
AcDbSymbolTable
 70
     0
  0
ENDTAB
  0
TABLE
  2
UCS
  5
746C
330
0
100
AcDbSymbolTable
 70
     0
  0
ENDTAB
  0
TABLE
  2
APPID
  5
746E
330
0
100
AcDbSymbolTable
 70
     6
  0
APPID
  5
7476
330
746E
100
AcDbSymbolTableRecord
100
AcDbRegAppTableRecord
  2
ACAD
 70
     0
  0
APPID
  5
DEA9
330
746E
100
AcDbSymbolTableRecord
100
AcDbRegAppTableRecord
  2
CONTENTBLOCKICON
 70
     0
  0
APPID
  5
DEAA
330
746E
100
AcDbSymbolTableRecord
100
AcDbRegAppTableRecord
  2
CONTENTBLOCKDESCRIPTION
 70
     0
  0
APPID
  5
E71D
330
746E
100
AcDbSymbolTableRecord
100
AcDbRegAppTableRecord
  2
CONTENTTABDATA
 70
     0
  0
APPID
  5
E71E
330
746E
100
AcDbSymbolTableRecord
100
AcDbRegAppTableRecord
  2
CONTENTCURRENTTAB
 70
     0
  0
APPID
  5
F3BA
330
746E
100
AcDbSymbolTableRecord
100
AcDbRegAppTableRecord
  2
DRAWINGVARIABLESXDATA
 70
     0
  0
ENDTAB
  0
TABLE
  2
DIMSTYLE
  5
746F
330
0
100
AcDbSymbolTable
 70
     6
100
AcDbDimStyleTable
 71
     1
340
F71F
  0
DIMSTYLE
105
7484
330
746F
100
AcDbSymbolTableRecord
100
AcDbDimStyleTableRecord
  2
JIS
 70
     0
 41
2.5
 42
1.0
 43
7.0
 44
1.0
 73
     0
 74
     0
 77
     1
 78
     8
140
2.5
141
0.0
143
0.0394
147
0.0
172
     1
174
     1
175
     1
340
7475
  0
DIMSTYLE
105
F236
330
746F
100
AcDbSymbolTableRecord
100
AcDbDimStyleTableRecord
  2
INABA_S40
 70
     0
 40
40.0
 41
2.5
 42
0.5
 43
7.0
 44
1.5
 73
     0
 74
     0
 77
     3
 78
     8
140
3.0
141
0.0
143
0.0394
147
1.0
172
     1
173
     1
174
     1
175
     1
178
     7
289
     0
340
7475
341
DEAC
343
DEAC
344
DEAC
  0
DIMSTYLE
105
F71F
102
{ACAD_REACTORS
330
2568F
330
25672
330
25663
330
2562B
330
2562A
330
25628
330
25624
330
2561F
330
25660
330
2565E
330
25633
330
25630
330
2562C
330
25675
330
25673
330
25670
330
25629
330
26097
330
26098
330
26510
330
26511
330
26512
330
26516
330
26573
330
26574
330
269D9
330
269DC
330
269DD
330
269E2
330
2762C
330
2762D
330
27635
330
2763C
330
2763F
330
2769F
102
}
330
746F
100
AcDbSymbolTableRecord
100
AcDbDimStyleTableRecord
  2
INABA_S40G
 70
     0
 40
40.0
 41
2.5
 42
0.5
 43
7.0
 44
1.5
 73
     0
 74
     0
 77
     3
 78
     8
140
3.0
141
0.0
143
0.0394
147
1.0
172
     1
173
     1
174
     1
178
     7
271
     1
340
F706
341
F770
343
F770
344
F770
  0
DIMSTYLE
105
142E3
330
746F
100
AcDbSymbolTableRecord
100
AcDbDimStyleTableRecord
  2
INABA_S1
 70
     0
 40
0.0
 41
2.5
 42
0.5
 43
7.0
 44
1.5
 73
     0
 74
     0
 77
     3
 78
     8
140
3.0
141
0.0
143
0.0394
146
0.5
147
0.5
172
     1
173
     1
176
   256
177
   256
178
     7
271
     2
272
     2
284
     8
288
     1
340
7475
341
DEAC
343
DEAC
344
DEAC
  0
DIMSTYLE
105
14463
330
746F
100
AcDbSymbolTableRecord
100
AcDbDimStyleTableRecord
  2
INABA_S30G
 70
     0
 40
30.0
 41
2.5
 42
0.5
 43
7.0
 44
1.5
 73
     0
 74
     0
 77
     3
 78
     8
140
3.0
141
0.0
143
0.0394
147
1.0
172
     1
173
     1
174
     1
175
     1
178
     7
271
     1
340
F706
341
F770
343
F770
344
F770
  0
DIMSTYLE
105
1758E
330
746F
100
AcDbSymbolTableRecord
100
AcDbDimStyleTableRecord
  2
INABA_S50G
 70
     0
 41
125.0
 42
25.0
 43
7.0
 44
75.0
 73
     0
 74
     0
 77
     3
 78
     8
140
150.0
141
0.0
143
0.0394
147
25.0
172
     1
173
     1
174
     1
175
     1
178
     7
271
     1
340
F706
341
F770
343
F770
344
F770
  0
ENDTAB
  0
TABLE
  2
BLOCK_RECORD
  5
7466
330
0
100
AcDbSymbolTable
 70
    66
  0
BLOCK_RECORD
  5
747D
330
7466
100
AcDbSymbolTableRecord
100
AcDbBlockTableRecord
  2
*MODEL_SPACE
340
173D5
  0
BLOCK_RECORD
  5
747A
330
7466
100
AcDbSymbolTableRecord
100
AcDbBlockTableRecord
  2
*PAPER_SPACE
340
173D6
  0
BLOCK_RECORD
  5
DEAC
330
7466
100
AcDbSymbolTableRecord
100
AcDbBlockTableRecord
  2
_OPEN
340
0
  0
BLOCK_RECORD
  5
F770
330
7466
100
AcDbSymbolTableRecord
100
AcDbBlockTableRecord
  2
_DOTSMALL
340
0
102
{BLKREFS
331
18C65
331
18C66
331
18C59
331
18C5A
331
18C4D
331
18C4E
331
18C41
331
18C42
331
18C35
331
18C36
331
18C29
331
18C2A
331
18C1D
331
18C1E
331
18C0F
331
18C10
331
18C03
331
18C04
331
18BF5
331
18BF6
331
18BE7
331
18BE8
331
18BD9
331
18BDA
331
18BCD
331
18BCE
331
25D85
331
25D86
331
25DA2
331
25DA3
331
25DB7
331
25DB8
331
25DC0
331
25DC1
331
25DC9
331
25DCA
331
25DD2
331
25DD3
331
25DFC
331
25DFD
331
25E06
331
25E07
331
25E2F
331
25E30
331
25E4C
331
25E4D
331
25E55
331
25E56
331
25E5E
331
25E5F
331
25E67
331
25E68
331
25E7A
331
25E7B
331
25E83
331
25E84
331
267CE
331
267CF
331
267D7
331
267D8
331
2680D
331
2680E
331
26C92
331
26C93
331
26C9D
331
26C9E
331
26CB3
331
26CB4
331
26CC9
331
26CCA
331
26DB4
331
26DB5
331
26DBE
331
26DBF
331
26DC8
331
26DC9
331
26DD2
331
26DD3
331
26DDC
331
26DDD
331
26DF0
331
26DF1
331
27451
331
27452
331
2745A
331
2745B
331
27463
331
27464
331
2746C
331
2746D
331
2747A
331
2747B
331
27482
331
27483
331
27496
331
27497
331
274AE
331
274AF
331
274A2
331
274A3
331
274E3
331
274E4
331
274D6
331
274D7
331
274CB
331
274CC
331
274BA
331
274BB
331
277A9
331
277AA
331
277B8
331
277B9
331
277C1
331
277C2
331
277CA
331
277CB
331
277D3
331
277D4
331
277DC
331
277DD
102
}
  0
BLOCK_RECORD
  5
164B4
330
7466
100
AcDbSymbolTableRecord
100
AcDbBlockTableRecord
  2
_DOT
340
0
102
{BLKREFS
331
18C73
331
18C74
102
}
  0
BLOCK_RECORD
  5
18BC8
330
7466
100
AcDbSymbolTableRecord
100
AcDbBlockTableRecord
  2
*D3
340
0
  0
BLOCK_RECORD
  5
18BD4
330
7466
100
AcDbSymbolTableRecord
100
AcDbBlockTableRecord
  2
*D4
340
0
  0
BLOCK_RECORD
  5
18BE0
330
7466
100
AcDbSymbolTableRecord
100
AcDbBlockTableRecord
  2
*D5
340
0
  0
BLOCK_RECORD
  5
18BEE
330
7466
100
AcDbSymbolTableRecord
100
AcDbBlockTableRecord
  2
*D6
340
0
  0
BLOCK_RECORD
  5
18BFC
330
7466
100
AcDbSymbolTableRecord
100
AcDbBlockTableRecord
  2
*D7
340
0
  0
BLOCK_RECORD
  5
18C0A
330
7466
100
AcDbSymbolTableRecord
100
AcDbBlockTableRecord
  2
*D8
340
0
  0
BLOCK_RECORD
  5
18C16
330
7466
100
AcDbSymbolTableRecord
100
AcDbBlockTableRecord
  2
*D9
340
0
  0
BLOCK_RECORD
  5
18C24
330
7466
100
AcDbSymbolTableRecord
100
AcDbBlockTableRecord
  2
*D10
340
0
  0
BLOCK_RECORD
  5
18C30
330
7466
100
AcDbSymbolTableRecord
100
AcDbBlockTableRecord
  2
*D11
340
0
  0
BLOCK_RECORD
  5
18C3C
330
7466
100
AcDbSymbolTableRecord
100
AcDbBlockTableRecord
  2
*D12
340
0
  0
BLOCK_RECORD
  5
18C48
330
7466
100
AcDbSymbolTableRecord
100
AcDbBlockTableRecord
  2
*D13
340
0
  0
BLOCK_RECORD
  5
18C54
330
7466
100
AcDbSymbolTableRecord
100
AcDbBlockTableRecord
  2
*D14
340
0
  0
BLOCK_RECORD
  5
18C60
330
7466
100
AcDbSymbolTableRecord
100
AcDbBlockTableRecord
  2
*D15
340
0
  0
BLOCK_RECORD
  5
18C6C
330
7466
100
AcDbSymbolTableRecord
100
AcDbBlockTableRecord
  2
*D16
340
0
  0
BLOCK_RECORD
  5
18C7A
330
7466
100
AcDbSymbolTableRecord
100
AcDbBlockTableRecord
  2
A$C3B1A506B
340
0
  0
BLOCK_RECORD
  5
1C4CA
330
7466
100
AcDbSymbolTableRecord
100
AcDbBlockTableRecord
  2
_NONE
340
0
  0
BLOCK_RECORD
  5
256A2
330
7466
100
AcDbSymbolTableRecord
100
AcDbBlockTableRecord
  2
*D19
340
0
  0
BLOCK_RECORD
  5
256AE
330
7466
100
AcDbSymbolTableRecord
100
AcDbBlockTableRecord
  2
*D20
340
0
  0
BLOCK_RECORD
  5
256B9
330
7466
100
AcDbSymbolTableRecord
100
AcDbBlockTableRecord
  2
*D21
340
0
  0
BLOCK_RECORD
  5
256C4
330
7466
100
AcDbSymbolTableRecord
100
AcDbBlockTableRecord
  2
*D22
340
0
  0
BLOCK_RECORD
  5
256D1
330
7466
100
AcDbSymbolTableRecord
100
AcDbBlockTableRecord
  2
*D23
340
0
  0
BLOCK_RECORD
  5
256DC
330
7466
100
AcDbSymbolTableRecord
100
AcDbBlockTableRecord
  2
*D24
340
0
  0
BLOCK_RECORD
  5
256E8
330
7466
100
AcDbSymbolTableRecord
100
AcDbBlockTableRecord
  2
*D25
340
0
  0
BLOCK_RECORD
  5
256F4
330
7466
100
AcDbSymbolTableRecord
100
AcDbBlockTableRecord
  2
*D26
340
0
  0
BLOCK_RECORD
  5
25717
330
7466
100
AcDbSymbolTableRecord
100
AcDbBlockTableRecord
  2
*D27
340
0
  0
BLOCK_RECORD
  5
25748
330
7466
100
AcDbSymbolTableRecord
100
AcDbBlockTableRecord
  2
*D28
340
0
  0
BLOCK_RECORD
  5
25755
330
7466
100
AcDbSymbolTableRecord
100
AcDbBlockTableRecord
  2
*D29
340
0
  0
BLOCK_RECORD
  5
2577B
330
7466
100
AcDbSymbolTableRecord
100
AcDbBlockTableRecord
  2
*D30
340
0
  0
BLOCK_RECORD
  5
25795
330
7466
100
AcDbSymbolTableRecord
100
AcDbBlockTableRecord
  2
*D31
340
0
  0
BLOCK_RECORD
  5
257AD
330
7466
100
AcDbSymbolTableRecord
100
AcDbBlockTableRecord
  2
*D32
340
0
  0
BLOCK_RECORD
  5
257B9
330
7466
100
AcDbSymbolTableRecord
100
AcDbBlockTableRecord
  2
*D33
340
0
  0
BLOCK_RECORD
  5
257C5
330
7466
100
AcDbSymbolTableRecord
100
AcDbBlockTableRecord
  2
*D34
340
0
  0
BLOCK_RECORD
  5
257D1
330
7466
100
AcDbSymbolTableRecord
100
AcDbBlockTableRecord
  2
*D35
340
0
  0
BLOCK_RECORD
  5
261FF
330
7466
100
AcDbSymbolTableRecord
100
AcDbBlockTableRecord
  2
*D36
340
0
  0
BLOCK_RECORD
  5
2620C
330
7466
100
AcDbSymbolTableRecord
100
AcDbBlockTableRecord
  2
*D37
340
0
  0
BLOCK_RECORD
  5
26579
330
7466
100
AcDbSymbolTableRecord
100
AcDbBlockTableRecord
  2
*D38
340
0
  0
BLOCK_RECORD
  5
26586
330
7466
100
AcDbSymbolTableRecord
100
AcDbBlockTableRecord
  2
*D39
340
0
  0
BLOCK_RECORD
  5
26593
330
7466
100
AcDbSymbolTableRecord
100
AcDbBlockTableRecord
  2
*D40
340
0
  0
BLOCK_RECORD
  5
2659F
330
7466
100
AcDbSymbolTableRecord
100
AcDbBlockTableRecord
  2
*D41
340
0
  0
BLOCK_RECORD
  5
266AA
330
7466
100
AcDbSymbolTableRecord
100
AcDbBlockTableRecord
  2
*D42
340
0
  0
BLOCK_RECORD
  5
266B8
330
7466
100
AcDbSymbolTableRecord
100
AcDbBlockTableRecord
  2
*D43
340
0
  0
BLOCK_RECORD
  5
26AF2
330
7466
100
AcDbSymbolTableRecord
100
AcDbBlockTableRecord
  2
*D44
340
0
  0
BLOCK_RECORD
  5
26B00
330
7466
100
AcDbSymbolTableRecord
100
AcDbBlockTableRecord
  2
*D45
340
0
  0
BLOCK_RECORD
  5
26B0E
330
7466
100
AcDbSymbolTableRecord
100
AcDbBlockTableRecord
  2
*D46
340
0
  0
BLOCK_RECORD
  5
26B1C
330
7466
100
AcDbSymbolTableRecord
100
AcDbBlockTableRecord
  2
*D47
340
0
  0
BLOCK_RECORD
  5
27759
330
7466
100
AcDbSymbolTableRecord
100
AcDbBlockTableRecord
  2
*D60
340
0
  0
BLOCK_RECORD
  5
27765
330
7466
100
AcDbSymbolTableRecord
100
AcDbBlockTableRecord
  2
*D61
340
0
  0
BLOCK_RECORD
  5
27776
330
7466
100
AcDbSymbolTableRecord
100
AcDbBlockTableRecord
  2
*D62
340
0
  0
BLOCK_RECORD
  5
27782
330
7466
100
AcDbSymbolTableRecord
100
AcDbBlockTableRecord
  2
*D63
340
0
  0
BLOCK_RECORD
  5
2778E
330
7466
100
AcDbSymbolTableRecord
100
AcDbBlockTableRecord
  2
*D64
340
0
  0
BLOCK_RECORD
  5
2779A
330
7466
100
AcDbSymbolTableRecord
100
AcDbBlockTableRecord
  2
*D65
340
0
  0
ENDTAB
  0
ENDSEC
  0
SECTION
  2
BLOCKS
  0
BLOCK
  5
7489
330
747D
100
AcDbEntity
  8
0
100
AcDbBlockBegin
  2
*MODEL_SPACE
 70
     0
 10
0.0
 20
0.0
 30
0.0
  3
*MODEL_SPACE
  1

  0
ENDBLK
  5
748A
330
747D
100
AcDbEntity
  8
0
100
AcDbBlockEnd
  0
BLOCK
  5
7487
330
747A
100
AcDbEntity
 67
     1
  8
0
100
AcDbBlockBegin
  2
*PAPER_SPACE
 70
     0
 10
0.0
 20
0.0
 30
0.0
  3
*PAPER_SPACE
  1

  0
ENDBLK
  5
7488
330
747A
100
AcDbEntity
 67
     1
  8
0
100
AcDbBlockEnd
  0
BLOCK
  5
DEAD
330
DEAC
100
AcDbEntity
  8
0
100
AcDbBlockBegin
  2
_OPEN
 70
     0
 10
0.0
 20
0.0
 30
0.0
  3
_OPEN
  1

  0
LINE
  5
DEAE
330
DEAC
100
AcDbEntity
  8
0
  6
ByBlock
 62
     0
100
AcDbLine
 10
-1.0
 20
0.1666666666666666
 30
0.0
 11
0.0
 21
0.0
 31
0.0
  0
LINE
  5
DEAF
330
DEAC
100
AcDbEntity
  8
0
  6
ByBlock
 62
     0
100
AcDbLine
 10
0.0
 20
0.0
 30
0.0
 11
-1.0
 21
-0.1666666666666666
 31
0.0
  0
LINE
  5
DEB0
330
DEAC
100
AcDbEntity
  8
0
  6
ByBlock
 62
     0
100
AcDbLine
 10
0.0
 20
0.0
 30
0.0
 11
-1.0
 21
0.0
 31
0.0
  0
ENDBLK
  5
DEB1
330
DEAC
100
AcDbEntity
  8
0
100
AcDbBlockEnd
  0
BLOCK
  5
F771
330
F770
100
AcDbEntity
  8
0
 48
50.0
100
AcDbBlockBegin
  2
_DOTSMALL
 70
     0
 10
0.0
 20
0.0
 30
0.0
  3
_DOTSMALL
  1

  0
LWPOLYLINE
  5
F772
330
F770
100
AcDbEntity
  8
0
  6
ByBlock
 62
     0
 48
50.0
100
AcDbPolyline
 90
        2
 70
     1
 43
0.5
 10
-0.0625
 20
0.0
 42
1.0
 10
0.0625
 20
0.0
 42
1.0
  0
ENDBLK
  5
F776
330
F770
100
AcDbEntity
  8
0
 48
50.0
100
AcDbBlockEnd
  0
BLOCK
  5
164BA
330
164B4
100
AcDbEntity
  8
0
 48
50.0
100
AcDbBlockBegin
  2
_DOT
 70
     0
 10
0.0
 20
0.0
 30
0.0
  3
_DOT
  1

  0
LWPOLYLINE
  5
164B5
330
164B4
100
AcDbEntity
  8
0
  6
ByBlock
 62
     0
 48
50.0
100
AcDbPolyline
 90
        2
 70
     1
 43
0.5
 10
-0.25
 20
0.0
 42
1.0
 10
0.25
 20
0.0
 42
1.0
  0
LINE
  5
164B9
330
164B4
100
AcDbEntity
  8
0
  6
ByBlock
 62
     0
 48
50.0
100
AcDbLine
 10
-0.5
 20
0.0
 30
0.0
 11
-1.0
 21
0.0
 31
0.0
  0
ENDBLK
  5
164BB
330
164B4
100
AcDbEntity
  8
0
 48
50.0
100
AcDbBlockEnd
  0
BLOCK
  5
18BC9
330
18BC8
100
AcDbEntity
  8
0
 48
50.0
100
AcDbBlockBegin
  2
*D3
 70
     1
 10
0.0
 20
0.0
 30
0.0
  3
*D3
  1

  0
LINE
  5
18BCA
330
18BC8
100
AcDbEntity
  8
寸法
 62
     0
 48
50.0
370
    -2
100
AcDbLine
 10
7649.896575106999
 20
9636.123139034717
 30
0.0
 11
8702.429862581047
 21
9636.123139034717
 31
0.0
  0
LINE
  5
18BCB
330
18BC8
100
AcDbEntity
  8
寸法
 62
     0
 48
50.0
370
    -2
100
AcDbLine
 10
7649.896575106973
 20
7846.123139034709
 30
0.0
 11
8702.429862581047
 21
7846.123139034709
 31
0.0
  0
LINE
  5
18BCC
330
18BC8
100
AcDbEntity
  8
寸法
 62
     0
 48
50.0
370
    -2
100
AcDbLine
 10
8642.429862581046
 20
9636.123139034717
 30
0.0
 11
8642.429862581046
 21
7846.123139034709
 31
0.0
  0
INSERT
  5
18BCD
330
18BC8
100
AcDbEntity
  8
寸法
 62
     0
 48
50.0
370
    -2
100
AcDbBlockReference
  2
_DOTSMALL
 10
8642.429862581046
 20
9636.123139034717
 30
0.0
 41
100.0
 42
100.0
 43
100.0
 50
90.0
  0
INSERT
  5
18BCE
330
18BC8
100
AcDbEntity
  8
寸法
 62
     0
 48
50.0
370
    -2
100
AcDbBlockReference
  2
_DOTSMALL
 10
8642.429862581046
 20
7846.123139034709
 30
0.0
 41
100.0
 42
100.0
 43
100.0
 50
270.0
  0
MTEXT
  5
18BCF
330
18BC8
100
AcDbEntity
  8
寸法
 62
     7
 48
50.0
100
AcDbMText
 10
8542.429862581045
 20
8741.123139034712
 30
0.0
 40
120.0
 41
0.0
 71
     5
 72
     1
  1
\A1;1790
  7
STYLE1
 11
0.0000000000000001
 21
1.0
 31
0.0
 73
     1
 44
1.0
1001
ACAD
1000
MTEXTBEGIN
1070
    73
1070
     1
1070
    44
1040
1.0
1070
    74
1070
     0
1000
MTEXTEND
  0
POINT
  5
18BD0
330
18BC8
100
AcDbEntity
  8
DEFPOINTS
 62
     0
 48
50.0
100
AcDbPoint
 10
7629.896575106998
 20
9636.123139034717
 30
0.0
  0
POINT
  5
18BD1
330
18BC8
100
AcDbEntity
  8
DEFPOINTS
 62
     0
 48
50.0
100
AcDbPoint
 10
7629.896575106974
 20
7846.123139034709
 30
0.0
  0
POINT
  5
18BD2
330
18BC8
100
AcDbEntity
  8
DEFPOINTS
 62
     0
 48
50.0
100
AcDbPoint
 10
8642.429862581046
 20
7846.123139034709
 30
0.0
  0
ENDBLK
  5
18BD3
330
18BC8
100
AcDbEntity
  8
0
 48
50.0
100
AcDbBlockEnd
  0
BLOCK
  5
18BD5
330
18BD4
100
AcDbEntity
  8
0
 48
50.0
100
AcDbBlockBegin
  2
*D4
 70
     1
 10
0.0
 20
0.0
 30
0.0
  3
*D4
  1

  0
LINE
  5
18BD6
330
18BD4
100
AcDbEntity
  8
寸法
 62
     0
 48
50.0
370
    -2
100
AcDbLine
 10
4214.896575106998
 20
9656.123139034622
 30
0.0
 11
4214.896575106998
 21
10211.93135865972
 31
0.0
  0
LINE
  5
18BD7
330
18BD4
100
AcDbEntity
  8
寸法
 62
     0
 48
50.0
370
    -2
100
AcDbLine
 10
7574.896575106999
 20
9656.123139034718
 30
0.0
 11
7574.896575106999
 21
10211.93135865972
 31
0.0
  0
LINE
  5
18BD8
330
18BD4
100
AcDbEntity
  8
寸法
 62
     0
 48
50.0
370
    -2
100
AcDbLine
 10
4214.896575106998
 20
10151.93135865972
 30
0.0
 11
7574.896575106999
 21
10151.93135865972
 31
0.0
  0
INSERT
  5
18BD9
330
18BD4
100
AcDbEntity
  8
寸法
 62
     0
 48
50.0
370
    -2
100
AcDbBlockReference
  2
_DOTSMALL
 10
4214.896575106998
 20
10151.93135865972
 30
0.0
 41
100.0
 42
100.0
 43
100.0
 50
180.0
  0
INSERT
  5
18BDA
330
18BD4
100
AcDbEntity
  8
寸法
 62
     0
 48
50.0
370
    -2
100
AcDbBlockReference
  2
_DOTSMALL
 10
7574.896575106999
 20
10151.93135865972
 30
0.0
 41
100.0
 42
100.0
 43
100.0
  0
MTEXT
  5
18BDB
330
18BD4
100
AcDbEntity
  8
寸法
 62
     7
 48
50.0
100
AcDbMText
 10
5894.896575106997
 20
10251.94316968334
 30
0.0
 40
120.0
 41
0.0
 71
     5
 72
     1
  1
\A1;8X420=3360
  7
STYLE1
 73
     1
 44
1.0
1001
ACAD
1000
MTEXTBEGIN
1070
    73
1070
     1
1070
    44
1040
1.0
1070
    74
1070
     0
1000
MTEXTEND
  0
POINT
  5
18BDC
330
18BD4
100
AcDbEntity
  8
DEFPOINTS
 62
     0
 48
50.0
100
AcDbPoint
 10
4214.896575106998
 20
9636.123139034623
 30
0.0
  0
POINT
  5
18BDD
330
18BD4
100
AcDbEntity
  8
DEFPOINTS
 62
     0
 48
50.0
100
AcDbPoint
 10
7574.896575106999
 20
9636.123139034717
 30
0.0
  0
POINT
  5
18BDE
330
18BD4
100
AcDbEntity
  8
DEFPOINTS
 62
     0
 48
50.0
100
AcDbPoint
 10
7574.896575106999
 20
10151.93135865972
 30
0.0
  0
ENDBLK
  5
18BDF
330
18BD4
100
AcDbEntity
  8
0
 48
50.0
100
AcDbBlockEnd
  0
BLOCK
  5
18BE1
330
18BE0
100
AcDbEntity
  8
0
 48
50.0
100
AcDbBlockBegin
  2
*D5
 70
     1
 10
0.0
 20
0.0
 30
0.0
  3
*D5
  1

  0
LINE
  5
18BE2
330
18BE0
100
AcDbEntity
  8
寸法
 62
     0
 48
50.0
370
    -2
100
AcDbLine
 10
7574.896575106999
 20
9656.123139034718
 30
0.0
 11
7574.896575106999
 21
10211.9313586597
 31
0.0
  0
LINE
  5
18BE3
330
18BE0
100
AcDbEntity
  8
寸法
 62
     0
 48
50.0
370
    -2
100
AcDbLine
 10
7629.896575106998
 20
9656.123139034718
 30
0.0
 11
7629.896575106998
 21
10211.9313586597
 31
0.0
  0
LINE
  5
18BE4
330
18BE0
100
AcDbEntity
  8
寸法
 62
     0
 48
50.0
370
    -2
100
AcDbLine
 10
7574.896575106999
 20
10151.9313586597
 30
0.0
 11
7474.896575106999
 21
10151.9313586597
 31
0.0
  0
LINE
  5
18BE5
330
18BE0
100
AcDbEntity
  8
寸法
 62
     0
 48
50.0
370
    -2
100
AcDbLine
 10
7629.896575106998
 20
10151.9313586597
 30
0.0
 11
8046.867137855477
 21
10151.9313586597
 31
0.0
  0
LINE
  5
18BE6
330
18BE0
100
AcDbEntity
  8
寸法
 62
     0
 48
50.0
370
    -2
100
AcDbLine
 10
7574.896575106999
 20
10151.9313586597
 30
0.0
 11
7629.896575106998
 21
10151.9313586597
 31
0.0
  0
INSERT
  5
18BE7
330
18BE0
100
AcDbEntity
  8
寸法
 62
     0
 48
50.0
370
    -2
100
AcDbBlockReference
  2
_DOTSMALL
 10
7574.896575106999
 20
10151.9313586597
 30
0.0
 41
100.0
 42
100.0
 43
100.0
  0
INSERT
  5
18BE8
330
18BE0
100
AcDbEntity
  8
寸法
 62
     0
 48
50.0
370
    -2
100
AcDbBlockReference
  2
_DOTSMALL
 10
7629.896575106998
 20
10151.9313586597
 30
0.0
 41
100.0
 42
100.0
 43
100.0
 50
180.0
  0
MTEXT
  5
18BE9
330
18BE0
100
AcDbEntity
  8
寸法
 62
     7
 48
50.0
100
AcDbMText
 10
7938.381856481237
 20
10251.9313586597
 30
0.0
 40
120.0
 41
0.0
 71
     5
 72
     1
  1
\A1;55
  7
STYLE1
 73
     1
 44
1.0
1001
ACAD
1000
MTEXTBEGIN
1070
    73
1070
     1
1070
    44
1040
1.0
1070
    74
1070
     0
1000
MTEXTEND
  0
POINT
  5
18BEA
330
18BE0
100
AcDbEntity
  8
DEFPOINTS
 62
     0
 48
50.0
100
AcDbPoint
 10
7574.896575106999
 20
9636.123139034717
 30
0.0
  0
POINT
  5
18BEB
330
18BE0
100
AcDbEntity
  8
DEFPOINTS
 62
     0
 48
50.0
100
AcDbPoint
 10
7629.896575106998
 20
9636.123139034717
 30
0.0
  0
POINT
  5
18BEC
330
18BE0
100
AcDbEntity
  8
DEFPOINTS
 62
     0
 48
50.0
100
AcDbPoint
 10
7629.896575106998
 20
10151.9313586597
 30
0.0
  0
ENDBLK
  5
18BED
330
18BE0
100
AcDbEntity
  8
0
 48
50.0
100
AcDbBlockEnd
  0
BLOCK
  5
18BEF
330
18BEE
100
AcDbEntity
  8
0
 48
50.0
100
AcDbBlockBegin
  2
*D6
 70
     1
 10
0.0
 20
0.0
 30
0.0
  3
*D6
  1

  0
LINE
  5
18BF0
330
18BEE
100
AcDbEntity
  8
寸法
 62
     0
 48
50.0
370
    -2
100
AcDbLine
 10
7649.896575106999
 20
9636.123139034717
 30
0.0
 11
8337.32292084141
 21
9636.123139034717
 31
0.0
  0
LINE
  5
18BF1
330
18BEE
100
AcDbEntity
  8
寸法
 62
     0
 48
50.0
370
    -2
100
AcDbLine
 10
7649.896575106999
 20
9581.123139034721
 30
0.0
 11
8337.32292084141
 21
9581.123139034721
 31
0.0
  0
LINE
  5
18BF2
330
18BEE
100
AcDbEntity
  8
寸法
 62
     0
 48
50.0
370
    -2
100
AcDbLine
 10
8277.322920841411
 20
9581.123139034721
 30
0.0
 11
8277.322920841411
 21
9481.123139034719
 31
0.0
  0
LINE
  5
18BF3
330
18BEE
100
AcDbEntity
  8
寸法
 62
     0
 48
50.0
370
    -2
100
AcDbLine
 10
8277.322920841411
 20
9636.123139034717
 30
0.0
 11
8277.322920841411
 21
10053.09370178319
 31
0.0
  0
LINE
  5
18BF4
330
18BEE
100
AcDbEntity
  8
寸法
 62
     0
 48
50.0
370
    -2
100
AcDbLine
 10
8277.322920841411
 20
9581.123139034721
 30
0.0
 11
8277.322920841411
 21
9636.123139034717
 31
0.0
  0
INSERT
  5
18BF5
330
18BEE
100
AcDbEntity
  8
寸法
 62
     0
 48
50.0
370
    -2
100
AcDbBlockReference
  2
_DOTSMALL
 10
8277.322920841411
 20
9581.123139034721
 30
0.0
 41
100.0
 42
100.0
 43
100.0
 50
90.0
  0
INSERT
  5
18BF6
330
18BEE
100
AcDbEntity
  8
寸法
 62
     0
 48
50.0
370
    -2
100
AcDbBlockReference
  2
_DOTSMALL
 10
8277.322920841411
 20
9636.123139034717
 30
0.0
 41
100.0
 42
100.0
 43
100.0
 50
270.0
  0
MTEXT
  5
18BF7
330
18BEE
100
AcDbEntity
  8
寸法
 62
     7
 48
50.0
100
AcDbMText
 10
8177.32292084141
 20
9944.608420408957
 30
0.0
 40
120.0
 41
0.0
 71
     5
 72
     1
  1
\A1;55
  7
STYLE1
 11
0.0000000000000001
 21
1.0
 31
0.0
 73
     1
 44
1.0
1001
ACAD
1000
MTEXTBEGIN
1070
    73
1070
     1
1070
    44
1040
1.0
1070
    74
1070
     0
1000
MTEXTEND
  0
POINT
  5
18BF8
330
18BEE
100
AcDbEntity
  8
DEFPOINTS
 62
     0
 48
50.0
100
AcDbPoint
 10
7629.896575106998
 20
9636.123139034717
 30
0.0
  0
POINT
  5
18BF9
330
18BEE
100
AcDbEntity
  8
DEFPOINTS
 62
     0
 48
50.0
100
AcDbPoint
 10
7629.896575106998
 20
9581.123139034721
 30
0.0
  0
POINT
  5
18BFA
330
18BEE
100
AcDbEntity
  8
DEFPOINTS
 62
     0
 48
50.0
100
AcDbPoint
 10
8277.322920841411
 20
9581.123139034721
 30
0.0
  0
ENDBLK
  5
18BFB
330
18BEE
100
AcDbEntity
  8
0
 48
50.0
100
AcDbBlockEnd
  0
BLOCK
  5
18BFD
330
18BFC
100
AcDbEntity
  8
0
 48
50.0
100
AcDbBlockBegin
  2
*D7
 70
     1
 10
0.0
 20
0.0
 30
0.0
  3
*D7
  1

  0
LINE
  5
18BFE
330
18BFC
100
AcDbEntity
  8
寸法
 62
     0
 48
50.0
370
    -2
100
AcDbLine
 10
4159.896575106963
 20
9656.123139034622
 30
0.0
 11
4159.896575106963
 21
10211.9313586596
 31
0.0
  0
LINE
  5
18BFF
330
18BFC
100
AcDbEntity
  8
寸法
 62
     0
 48
50.0
370
    -2
100
AcDbLine
 10
4214.896575106998
 20
9656.123139034622
 30
0.0
 11
4214.896575106998
 21
10211.9313586596
 31
0.0
  0
LINE
  5
18C00
330
18BFC
100
AcDbEntity
  8
寸法
 62
     0
 48
50.0
370
    -2
100
AcDbLine
 10
4214.896575106998
 20
10151.9313586596
 30
0.0
 11
4314.896575106998
 21
10151.9313586596
 31
0.0
  0
LINE
  5
18C01
330
18BFC
100
AcDbEntity
  8
寸法
 62
     0
 48
50.0
370
    -2
100
AcDbLine
 10
4159.896575106963
 20
10151.9313586596
 30
0.0
 11
3742.926012358486
 21
10151.9313586596
 31
0.0
  0
LINE
  5
18C02
330
18BFC
100
AcDbEntity
  8
寸法
 62
     0
 48
50.0
370
    -2
100
AcDbLine
 10
4214.896575106998
 20
10151.9313586596
 30
0.0
 11
4159.896575106963
 21
10151.9313586596
 31
0.0
  0
INSERT
  5
18C03
330
18BFC
100
AcDbEntity
  8
寸法
 62
     0
 48
50.0
370
    -2
100
AcDbBlockReference
  2
_DOTSMALL
 10
4214.896575106998
 20
10151.9313586596
 30
0.0
 41
100.0
 42
100.0
 43
100.0
 50
180.0
  0
INSERT
  5
18C04
330
18BFC
100
AcDbEntity
  8
寸法
 62
     0
 48
50.0
370
    -2
100
AcDbBlockReference
  2
_DOTSMALL
 10
4159.896575106963
 20
10151.9313586596
 30
0.0
 41
100.0
 42
100.0
 43
100.0
  0
MTEXT
  5
18C05
330
18BFC
100
AcDbEntity
  8
寸法
 62
     7
 48
50.0
100
AcDbMText
 10
3851.411293732725
 20
10251.9313586596
 30
0.0
 40
120.0
 41
0.0
 71
     5
 72
     1
  1
\A1;55
  7
STYLE1
 73
     1
 44
1.0
1001
ACAD
1000
MTEXTBEGIN
1070
    73
1070
     1
1070
    44
1040
1.0
1070
    74
1070
     0
1000
MTEXTEND
  0
POINT
  5
18C06
330
18BFC
100
AcDbEntity
  8
DEFPOINTS
 62
     0
 48
50.0
100
AcDbPoint
 10
4159.896575106963
 20
9636.123139034623
 30
0.0
  0
POINT
  5
18C07
330
18BFC
100
AcDbEntity
  8
DEFPOINTS
 62
     0
 48
50.0
100
AcDbPoint
 10
4214.896575106998
 20
9636.123139034623
 30
0.0
  0
POINT
  5
18C08
330
18BFC
100
AcDbEntity
  8
DEFPOINTS
 62
     0
 48
50.0
100
AcDbPoint
 10
4214.896575106998
 20
10151.9313586596
 30
0.0
  0
ENDBLK
  5
18C09
330
18BFC
100
AcDbEntity
  8
0
 48
50.0
100
AcDbBlockEnd
  0
BLOCK
  5
18C0B
330
18C0A
100
AcDbEntity
  8
0
 48
50.0
100
AcDbBlockBegin
  2
*D8
 70
     1
 10
0.0
 20
0.0
 30
0.0
  3
*D8
  1

  0
LINE
  5
18C0C
330
18C0A
100
AcDbEntity
  8
寸法
 62
     0
 48
50.0
370
    -2
100
AcDbLine
 10
4159.896575106992
 20
7826.123139034546
 30
0.0
 11
4159.896575106992
 21
6804.372203245664
 31
0.0
  0
LINE
  5
18C0D
330
18C0A
100
AcDbEntity
  8
寸法
 62
     0
 48
50.0
370
    -2
100
AcDbLine
 10
7629.896575106974
 20
7826.123139034674
 30
0.0
 11
7629.896575106974
 21
6804.372203245664
 31
0.0
  0
LINE
  5
18C0E
330
18C0A
100
AcDbEntity
  8
寸法
 62
     0
 48
50.0
370
    -2
100
AcDbLine
 10
4159.896575106992
 20
6864.372203245665
 30
0.0
 11
7629.896575106974
 21
6864.372203245665
 31
0.0
  0
INSERT
  5
18C0F
330
18C0A
100
AcDbEntity
  8
寸法
 62
     0
 48
50.0
370
    -2
100
AcDbBlockReference
  2
_DOTSMALL
 10
4159.896575106992
 20
6864.372203245665
 30
0.0
 41
100.0
 42
100.0
 43
100.0
 50
180.0
  0
INSERT
  5
18C10
330
18C0A
100
AcDbEntity
  8
寸法
 62
     0
 48
50.0
370
    -2
100
AcDbBlockReference
  2
_DOTSMALL
 10
7629.896575106974
 20
6864.372203245665
 30
0.0
 41
100.0
 42
100.0
 43
100.0
  0
MTEXT
  5
18C11
330
18C0A
100
AcDbEntity
  8
寸法
 62
     7
 48
50.0
100
AcDbMText
 10
5911.12376113973
 20
6964.372203245665
 30
0.0
 40
120.0
 41
0.0
 71
     5
 72
     1
  1
\A1;3470
  7
STYLE1
 73
     1
 44
1.0
1001
ACAD
1000
MTEXTBEGIN
1070
    73
1070
     1
1070
    44
1040
1.0
1070
    74
1070
     0
1000
MTEXTEND
  0
POINT
  5
18C12
330
18C0A
100
AcDbEntity
  8
DEFPOINTS
 62
     0
 48
50.0
100
AcDbPoint
 10
4159.896575106992
 20
7846.123139034546
 30
0.0
  0
POINT
  5
18C13
330
18C0A
100
AcDbEntity
  8
DEFPOINTS
 62
     0
 48
50.0
100
AcDbPoint
 10
7629.896575106974
 20
7846.123139034673
 30
0.0
  0
POINT
  5
18C14
330
18C0A
100
AcDbEntity
  8
DEFPOINTS
 62
     0
 48
50.0
100
AcDbPoint
 10
7629.896575106974
 20
6864.372203245665
 30
0.0
  0
ENDBLK
  5
18C15
330
18C0A
100
AcDbEntity
  8
0
 48
50.0
100
AcDbBlockEnd
  0
BLOCK
  5
18C17
330
18C16
100
AcDbEntity
  8
0
 48
50.0
100
AcDbBlockBegin
  2
*D9
 70
     1
 10
0.0
 20
0.0
 30
0.0
  3
*D9
  1

  0
LINE
  5
18C18
330
18C16
100
AcDbEntity
  8
寸法
 62
     0
 48
50.0
370
    -2
100
AcDbLine
 10
7649.896575106973
 20
7901.123139034706
 30
0.0
 11
8337.322920841385
 21
7901.123139034706
 31
0.0
  0
LINE
  5
18C19
330
18C16
100
AcDbEntity
  8
寸法
 62
     0
 48
50.0
370
    -2
100
AcDbLine
 10
7649.896575106973
 20
7846.123139034709
 30
0.0
 11
8337.322920841385
 21
7846.123139034709
 31
0.0
  0
LINE
  5
18C1A
330
18C16
100
AcDbEntity
  8
寸法
 62
     0
 48
50.0
370
    -2
100
AcDbLine
 10
8277.322920841385
 20
7901.123139034706
 30
0.0
 11
8277.322920841385
 21
8001.123139034707
 31
0.0
  0
LINE
  5
18C1B
330
18C16
100
AcDbEntity
  8
寸法
 62
     0
 48
50.0
370
    -2
100
AcDbLine
 10
8277.322920841385
 20
7846.123139034709
 30
0.0
 11
8277.322920841385
 21
7429.152576286229
 31
0.0
  0
LINE
  5
18C1C
330
18C16
100
AcDbEntity
  8
寸法
 62
     0
 48
50.0
370
    -2
100
AcDbLine
 10
8277.322920841385
 20
7901.123139034706
 30
0.0
 11
8277.322920841385
 21
7846.123139034709
 31
0.0
  0
INSERT
  5
18C1D
330
18C16
100
AcDbEntity
  8
寸法
 62
     0
 48
50.0
370
    -2
100
AcDbBlockReference
  2
_DOTSMALL
 10
8277.322920841385
 20
7901.123139034706
 30
0.0
 41
100.0
 42
100.0
 43
100.0
 50
270.0
  0
INSERT
  5
18C1E
330
18C16
100
AcDbEntity
  8
寸法
 62
     0
 48
50.0
370
    -2
100
AcDbBlockReference
  2
_DOTSMALL
 10
8277.322920841385
 20
7846.123139034709
 30
0.0
 41
100.0
 42
100.0
 43
100.0
 50
90.0
  0
MTEXT
  5
18C1F
330
18C16
100
AcDbEntity
  8
寸法
 62
     7
 48
50.0
100
AcDbMText
 10
8177.322920841383
 20
7537.637857660469
 30
0.0
 40
120.0
 41
0.0
 71
     5
 72
     1
  1
\A1;55
  7
STYLE1
 11
0.0000000000000001
 21
1.0
 31
0.0
 73
     1
 44
1.0
1001
ACAD
1000
MTEXTBEGIN
1070
    73
1070
     1
1070
    44
1040
1.0
1070
    74
1070
     0
1000
MTEXTEND
  0
POINT
  5
18C20
330
18C16
100
AcDbEntity
  8
DEFPOINTS
 62
     0
 48
50.0
100
AcDbPoint
 10
7629.896575106974
 20
7901.123139034706
 30
0.0
  0
POINT
  5
18C21
330
18C16
100
AcDbEntity
  8
DEFPOINTS
 62
     0
 48
50.0
100
AcDbPoint
 10
7629.896575106974
 20
7846.123139034709
 30
0.0
  0
POINT
  5
18C22
330
18C16
100
AcDbEntity
  8
DEFPOINTS
 62
     0
 48
50.0
100
AcDbPoint
 10
8277.322920841385
 20
7846.123139034709
 30
0.0
  0
ENDBLK
  5
18C23
330
18C16
100
AcDbEntity
  8
0
 48
50.0
100
AcDbBlockEnd
  0
BLOCK
  5
18C25
330
18C24
100
AcDbEntity
  8
0
 48
50.0
100
AcDbBlockBegin
  2
*D10
 70
     1
 10
0.0
 20
0.0
 30
0.0
  3
*D10
  1

  0
LINE
  5
18C26
330
18C24
100
AcDbEntity
  8
寸法
 62
     0
 48
50.0
370
    -2
100
AcDbLine
 10
6533.037591258376
 20
9136.123139034728
 30
0.0
 11
6465.083950562664
 21
8882.516699399049
 31
0.0
  0
LINE
  5
18C27
330
18C24
100
AcDbEntity
  8
寸法
 62
     0
 48
50.0
370
    -2
100
AcDbLine
 10
7596.037591258388
 20
9136.123139034721
 30
0.0
 11
7528.083950562677
 21
8882.516699399049
 31
0.0
  0
LINE
  5
18C28
330
18C24
100
AcDbEntity
  8
寸法
 62
     0
 48
50.0
370
    -2
100
AcDbLine
 10
6481.160902108531
 20
8942.51669939905
 30
0.0
 11
7544.160902108544
 21
8942.51669939905
 31
0.0
  0
INSERT
  5
18C29
330
18C24
100
AcDbEntity
  8
寸法
 62
     0
 48
50.0
370
    -2
100
AcDbBlockReference
  2
_DOTSMALL
 10
6481.160902108531
 20
8942.51669939905
 30
0.0
 41
100.0
 42
100.0
 43
100.0
 50
180.0
  0
INSERT
  5
18C2A
330
18C24
100
AcDbEntity
  8
寸法
 62
     0
 48
50.0
370
    -2
100
AcDbBlockReference
  2
_DOTSMALL
 10
7544.160902108544
 20
8942.51669939905
 30
0.0
 41
100.0
 42
100.0
 43
100.0
  0
MTEXT
  5
18C2B
330
18C24
100
AcDbEntity
  8
寸法
 62
     7
 48
50.0
100
AcDbMText
 10
7061.28653022935
 20
9042.516699399049
 30
0.0
 40
120.0
 41
0.0
 71
     5
 72
     1
  1
\A1;1063
  7
STYLE1
 73
     1
 44
1.0
1001
ACAD
1000
MTEXTBEGIN
1070
    73
1070
     1
1070
    44
1040
1.0
1070
    74
1070
     0
1000
MTEXTEND
  0
POINT
  5
18C2C
330
18C24
100
AcDbEntity
  8
DEFPOINTS
 62
     0
 48
50.0
100
AcDbPoint
 10
6538.396575106998
 20
9156.123139034727
 30
0.0
  0
POINT
  5
18C2D
330
18C24
100
AcDbEntity
  8
DEFPOINTS
 62
     0
 48
50.0
100
AcDbPoint
 10
7601.39657510701
 20
9156.12313903472
 30
0.0
  0
POINT
  5
18C2E
330
18C24
100
AcDbEntity
  8
DEFPOINTS
 62
     0
 48
50.0
100
AcDbPoint
 10
7544.160902108544
 20
8942.51669939905
 30
0.0
  0
ENDBLK
  5
18C2F
330
18C24
100
AcDbEntity
  8
0
 48
50.0
100
AcDbBlockEnd
  0
BLOCK
  5
18C31
330
18C30
100
AcDbEntity
  8
0
 48
50.0
100
AcDbBlockBegin
  2
*D11
 70
     1
 10
0.0
 20
0.0
 30
0.0
  3
*D11
  1

  0
LINE
  5
18C32
330
18C30
100
AcDbEntity
  8
寸法
 62
     0
 48
50.0
370
    -2
100
AcDbLine
 10
7621.396575106999
 20
9600.764155186094
 30
0.0
 11
8016.754300969024
 21
9494.828371819961
 31
0.0
  0
LINE
  5
18C33
330
18C30
100
AcDbEntity
  8
寸法
 62
     0
 48
50.0
370
    -2
100
AcDbLine
 10
7621.396575106999
 20
9150.764155186099
 30
0.0
 11
8016.754300969024
 21
9044.828371819964
 31
0.0
  0
LINE
  5
18C34
330
18C30
100
AcDbEntity
  8
寸法
 62
     0
 48
50.0
370
    -2
100
AcDbLine
 10
7956.754300969024
 20
9510.905323365827
 30
0.0
 11
7956.754300969024
 21
9060.90532336583
 31
0.0
  0
INSERT
  5
18C35
330
18C30
100
AcDbEntity
  8
寸法
 62
     0
 48
50.0
370
    -2
100
AcDbBlockReference
  2
_DOTSMALL
 10
7956.754300969024
 20
9510.905323365827
 30
0.0
 41
100.0
 42
100.0
 43
100.0
 50
90.0
  0
INSERT
  5
18C36
330
18C30
100
AcDbEntity
  8
寸法
 62
     0
 48
50.0
370
    -2
100
AcDbBlockReference
  2
_DOTSMALL
 10
7956.754300969024
 20
9060.90532336583
 30
0.0
 41
100.0
 42
100.0
 43
100.0
 50
270.0
  0
MTEXT
  5
18C37
330
18C30
100
AcDbEntity
  8
寸法
 62
     7
 48
50.0
100
AcDbMText
 10
7856.754300969022
 20
9285.905323365829
 30
0.0
 40
120.0
 41
0.0
 71
     5
 72
     1
  1
\A1;450
  7
STYLE1
 11
0.0000000000000001
 21
1.0
 31
0.0
 73
     1
 44
1.0
1001
ACAD
1000
MTEXTBEGIN
1070
    73
1070
     1
1070
    44
1040
1.0
1070
    74
1070
     0
1000
MTEXTEND
  0
POINT
  5
18C38
330
18C30
100
AcDbEntity
  8
DEFPOINTS
 62
     0
 48
50.0
100
AcDbPoint
 10
7601.396575106999
 20
9606.123139034718
 30
0.0
  0
POINT
  5
18C39
330
18C30
100
AcDbEntity
  8
DEFPOINTS
 62
     0
 48
50.0
100
AcDbPoint
 10
7601.396575106999
 20
9156.12313903472
 30
0.0
  0
POINT
  5
18C3A
330
18C30
100
AcDbEntity
  8
DEFPOINTS
 62
     0
 48
50.0
100
AcDbPoint
 10
7956.754300969024
 20
9060.90532336583
 30
0.0
  0
ENDBLK
  5
18C3B
330
18C30
100
AcDbEntity
  8
0
 48
50.0
100
AcDbBlockEnd
  0
BLOCK
  5
18C3D
330
18C3C
100
AcDbEntity
  8
0
 48
50.0
100
AcDbBlockBegin
  2
*D12
 70
     1
 10
0.0
 20
0.0
 30
0.0
  3
*D12
  1

  0
LINE
  5
18C3E
330
18C3C
100
AcDbEntity
  8
寸法
 62
     0
 48
50.0
370
    -2
100
AcDbLine
 10
7649.896575106999
 20
9581.123139034721
 30
0.0
 11
8337.32292084141
 21
9581.123139034721
 31
0.0
  0
LINE
  5
18C3F
330
18C3C
100
AcDbEntity
  8
寸法
 62
     0
 48
50.0
370
    -2
100
AcDbLine
 10
7649.896575106973
 20
7901.123139034706
 30
0.0
 11
8337.32292084141
 21
7901.123139034706
 31
0.0
  0
LINE
  5
18C40
330
18C3C
100
AcDbEntity
  8
寸法
 62
     0
 48
50.0
370
    -2
100
AcDbLine
 10
8277.322920841411
 20
9581.123139034721
 30
0.0
 11
8277.322920841411
 21
7901.123139034706
 31
0.0
  0
INSERT
  5
18C41
330
18C3C
100
AcDbEntity
  8
寸法
 62
     0
 48
50.0
370
    -2
100
AcDbBlockReference
  2
_DOTSMALL
 10
8277.322920841411
 20
9581.123139034721
 30
0.0
 41
100.0
 42
100.0
 43
100.0
 50
90.0
  0
INSERT
  5
18C42
330
18C3C
100
AcDbEntity
  8
寸法
 62
     0
 48
50.0
370
    -2
100
AcDbBlockReference
  2
_DOTSMALL
 10
8277.322920841411
 20
7901.123139034706
 30
0.0
 41
100.0
 42
100.0
 43
100.0
 50
270.0
  0
MTEXT
  5
18C43
330
18C3C
100
AcDbEntity
  8
寸法
 62
     7
 48
50.0
100
AcDbMText
 10
8177.311109817788
 20
8741.123139034712
 30
0.0
 40
120.0
 41
0.0
 71
     5
 72
     1
  1
\A1;4X420=1680
  7
STYLE1
 11
0.0000000000000001
 21
1.0
 31
0.0
 73
     1
 44
1.0
1001
ACAD
1000
MTEXTBEGIN
1070
    73
1070
     1
1070
    44
1040
1.0
1070
    74
1070
     0
1000
MTEXTEND
  0
POINT
  5
18C44
330
18C3C
100
AcDbEntity
  8
DEFPOINTS
 62
     0
 48
50.0
100
AcDbPoint
 10
7629.896575106998
 20
9581.123139034721
 30
0.0
  0
POINT
  5
18C45
330
18C3C
100
AcDbEntity
  8
DEFPOINTS
 62
     0
 48
50.0
100
AcDbPoint
 10
7629.896575106974
 20
7901.123139034706
 30
0.0
  0
POINT
  5
18C46
330
18C3C
100
AcDbEntity
  8
DEFPOINTS
 62
     0
 48
50.0
100
AcDbPoint
 10
8277.322920841411
 20
7901.123139034706
 30
0.0
  0
ENDBLK
  5
18C47
330
18C3C
100
AcDbEntity
  8
0
 48
50.0
100
AcDbBlockEnd
  0
BLOCK
  5
18C49
330
18C48
100
AcDbEntity
  8
0
 48
50.0
100
AcDbBlockBegin
  2
*D13
 70
     1
 10
0.0
 20
0.0
 30
0.0
  3
*D13
  1

  0
LINE
  5
18C4A
330
18C48
100
AcDbEntity
  8
寸法
 62
     0
 48
50.0
370
    -2
100
AcDbLine
 10
4183.037591258377
 20
9136.123139034619
 30
0.0
 11
4115.083950562663
 21
8882.516699398941
 31
0.0
  0
LINE
  5
18C4B
330
18C48
100
AcDbEntity
  8
寸法
 62
     0
 48
50.0
370
    -2
100
AcDbLine
 10
5246.037591258307
 20
9136.123139034671
 30
0.0
 11
5178.08395056258
 21
8882.516699398941
 31
0.0
  0
LINE
  5
18C4C
330
18C48
100
AcDbEntity
  8
寸法
 62
     0
 48
50.0
370
    -2
100
AcDbLine
 10
4131.160902108532
 20
8942.516699398941
 30
0.0
 11
5194.160902108448
 21
8942.516699398941
 31
0.0
  0
INSERT
  5
18C4D
330
18C48
100
AcDbEntity
  8
寸法
 62
     0
 48
50.0
370
    -2
100
AcDbBlockReference
  2
_DOTSMALL
 10
4131.160902108532
 20
8942.516699398941
 30
0.0
 41
100.0
 42
100.0
 43
100.0
 50
180.0
  0
INSERT
  5
18C4E
330
18C48
100
AcDbEntity
  8
寸法
 62
     0
 48
50.0
370
    -2
100
AcDbBlockReference
  2
_DOTSMALL
 10
5194.160902108448
 20
8942.516699398941
 30
0.0
 41
100.0
 42
100.0
 43
100.0
  0
MTEXT
  5
18C4F
330
18C48
100
AcDbEntity
  8
寸法
 62
     7
 48
50.0
100
AcDbMText
 10
4658.986452655306
 20
9042.516699398941
 30
0.0
 40
120.0
 41
0.0
 71
     5
 72
     1
  1
\A1;1063
  7
STYLE1
 73
     1
 44
1.0
1001
ACAD
1000
MTEXTBEGIN
1070
    73
1070
     1
1070
    44
1040
1.0
1070
    74
1070
     0
1000
MTEXTEND
  0
POINT
  5
18C50
330
18C48
100
AcDbEntity
  8
DEFPOINTS
 62
     0
 48
50.0
100
AcDbPoint
 10
4188.396575106999
 20
9156.123139034617
 30
0.0
  0
POINT
  5
18C51
330
18C48
100
AcDbEntity
  8
DEFPOINTS
 62
     0
 48
50.0
100
AcDbPoint
 10
5251.396575106929
 20
9156.123139034672
 30
0.0
  0
POINT
  5
18C52
330
18C48
100
AcDbEntity
  8
DEFPOINTS
 62
     0
 48
50.0
100
AcDbPoint
 10
5194.160902108448
 20
8942.516699398941
 30
0.0
  0
ENDBLK
  5
18C53
330
18C48
100
AcDbEntity
  8
0
 48
50.0
100
AcDbBlockEnd
  0
BLOCK
  5
18C55
330
18C54
100
AcDbEntity
  8
0
 48
50.0
100
AcDbBlockBegin
  2
*D14
 70
     1
 10
0.0
 20
0.0
 30
0.0
  3
*D14
  1

  0
LINE
  5
18C56
330
18C54
100
AcDbEntity
  8
寸法
 62
     0
 48
50.0
370
    -2
100
AcDbLine
 10
5274.037591258307
 20
9136.123139034669
 30
0.0
 11
5206.08395056258
 21
8882.516699398941
 31
0.0
  0
LINE
  5
18C57
330
18C54
100
AcDbEntity
  8
寸法
 62
     0
 48
50.0
370
    -2
100
AcDbLine
 10
6505.037591258377
 20
9136.123139034662
 30
0.0
 11
6437.083950562653
 21
8882.516699398941
 31
0.0
  0
LINE
  5
18C58
330
18C54
100
AcDbEntity
  8
寸法
 62
     0
 48
50.0
370
    -2
100
AcDbLine
 10
5222.160902108448
 20
8942.516699398941
 30
0.0
 11
6453.16090210852
 21
8942.516699398941
 31
0.0
  0
INSERT
  5
18C59
330
18C54
100
AcDbEntity
  8
寸法
 62
     0
 48
50.0
370
    -2
100
AcDbBlockReference
  2
_DOTSMALL
 10
5222.160902108448
 20
8942.516699398941
 30
0.0
 41
100.0
 42
100.0
 43
100.0
 50
180.0
  0
INSERT
  5
18C5A
330
18C54
100
AcDbEntity
  8
寸法
 62
     0
 48
50.0
370
    -2
100
AcDbBlockReference
  2
_DOTSMALL
 10
6453.16090210852
 20
8942.516699398941
 30
0.0
 41
100.0
 42
100.0
 43
100.0
  0
MTEXT
  5
18C5B
330
18C54
100
AcDbEntity
  8
寸法
 62
     7
 48
50.0
100
AcDbMText
 10
6081.244808320626
 20
9042.528510422561
 30
0.0
 40
120.0
 41
0.0
 71
     5
 72
     1
  1
\A1;1231
  7
STYLE1
 73
     1
 44
1.0
1001
ACAD
1000
MTEXTBEGIN
1070
    73
1070
     1
1070
    44
1040
1.0
1070
    74
1070
     0
1000
MTEXTEND
  0
POINT
  5
18C5C
330
18C54
100
AcDbEntity
  8
DEFPOINTS
 62
     0
 48
50.0
100
AcDbPoint
 10
5279.396575106929
 20
9156.123139034669
 30
0.0
  0
POINT
  5
18C5D
330
18C54
100
AcDbEntity
  8
DEFPOINTS
 62
     0
 48
50.0
100
AcDbPoint
 10
6510.396575106999
 20
9156.123139034662
 30
0.0
  0
POINT
  5
18C5E
330
18C54
100
AcDbEntity
  8
DEFPOINTS
 62
     0
 48
50.0
100
AcDbPoint
 10
6453.16090210852
 20
8942.516699398941
 30
0.0
  0
ENDBLK
  5
18C5F
330
18C54
100
AcDbEntity
  8
0
 48
50.0
100
AcDbBlockEnd
  0
BLOCK
  5
18C61
330
18C60
100
AcDbEntity
  8
0
 48
50.0
100
AcDbBlockBegin
  2
*D15
 70
     1
 10
0.0
 20
0.0
 30
0.0
  3
*D15
  1

  0
LINE
  5
18C62
330
18C60
100
AcDbEntity
  8
寸法
 62
     0
 48
50.0
370
    -2
100
AcDbLine
 10
5065.896575106966
 20
7749.123139034579
 30
0.0
 11
5065.896575106966
 21
7099.952920982538
 31
0.0
  0
LINE
  5
18C63
330
18C60
100
AcDbEntity
  8
寸法
 62
     0
 48
50.0
370
    -2
100
AcDbLine
 10
6331.896575106966
 20
7749.123139034579
 30
0.0
 11
6331.896575106966
 21
7099.952920982538
 31
0.0
  0
LINE
  5
18C64
330
18C60
100
AcDbEntity
  8
寸法
 62
     0
 48
50.0
370
    -2
100
AcDbLine
 10
5065.896575106966
 20
7159.952920982537
 30
0.0
 11
6331.896575106966
 21
7159.952920982537
 31
0.0
  0
INSERT
  5
18C65
330
18C60
100
AcDbEntity
  8
寸法
 62
     0
 48
50.0
370
    -2
100
AcDbBlockReference
  2
_DOTSMALL
 10
5065.896575106966
 20
7159.952920982537
 30
0.0
 41
100.0
 42
100.0
 43
100.0
 50
180.0
  0
INSERT
  5
18C66
330
18C60
100
AcDbEntity
  8
寸法
 62
     0
 48
50.0
370
    -2
100
AcDbBlockReference
  2
_DOTSMALL
 10
6331.896575106966
 20
7159.952920982537
 30
0.0
 41
100.0
 42
100.0
 43
100.0
  0
MTEXT
  5
18C67
330
18C60
100
AcDbEntity
  8
寸法
 62
     7
 48
50.0
100
AcDbMText
 10
5711.986008735934
 20
7359.964732006159
 30
0.0
 40
120.0
 41
0.0
 71
     5
 72
     1
  1
\A1;有効開口部間口\P1266
  7
STYLE1
 73
     1
 44
1.0
1001
ACAD
1000
MTEXTBEGIN
1070
    73
1070
     1
1070
    44
1040
1.0
1070
    74
1070
     0
1000
MTEXTEND
  0
POINT
  5
18C68
330
18C60
100
AcDbEntity
  8
DEFPOINTS
 62
     0
 48
50.0
100
AcDbPoint
 10
5065.896575106966
 20
7769.123139034579
 30
0.0
  0
POINT
  5
18C69
330
18C60
100
AcDbEntity
  8
DEFPOINTS
 62
     0
 48
50.0
100
AcDbPoint
 10
6331.896575106966
 20
7769.123139034579
 30
0.0
  0
POINT
  5
18C6A
330
18C60
100
AcDbEntity
  8
DEFPOINTS
 62
     0
 48
50.0
100
AcDbPoint
 10
6331.896575106966
 20
7159.952920982537
 30
0.0
  0
ENDBLK
  5
18C6B
330
18C60
100
AcDbEntity
  8
0
 48
50.0
100
AcDbBlockEnd
  0
BLOCK
  5
18C6D
330
18C6C
100
AcDbEntity
  8
0
 48
50.0
100
AcDbBlockBegin
  2
*D16
 70
     1
 10
0.0
 20
0.0
 30
0.0
  3
*D16
  1

  0
LINE
  5
18C6E
330
18C6C
100
AcDbEntity
  8
寸法
 62
     0
 48
50.0
370
    -2
100
AcDbLine
 10
7200.896575106966
 20
7846.123139034578
 30
0.0
 11
7457.192158500191
 21
7846.123139034578
 31
0.0
  0
LINE
  5
18C6F
330
18C6C
100
AcDbEntity
  8
寸法
 62
     0
 48
50.0
370
    -2
100
AcDbLine
 10
7199.896575106966
 20
7769.123139034579
 30
0.0
 11
7457.192158500191
 21
7769.123139034579
 31
0.0
  0
LINE
  5
18C70
330
18C6C
100
AcDbEntity
  8
寸法
 62
     0
 48
50.0
370
    -2
100
AcDbLine
 10
7417.192158500192
 20
7866.123139034579
 30
0.0
 11
7417.192158500192
 21
7886.123139034578
 31
0.0
  0
LINE
  5
18C71
330
18C6C
100
AcDbEntity
  8
寸法
 62
     0
 48
50.0
370
    -2
100
AcDbLine
 10
7417.192158500192
 20
7749.123139034579
 30
0.0
 11
7417.192158500192
 21
7533.123139034573
 31
0.0
  0
LINE
  5
18C72
330
18C6C
100
AcDbEntity
  8
寸法
 62
     0
 48
50.0
370
    -2
100
AcDbLine
 10
7417.192158500192
 20
7846.123139034578
 30
0.0
 11
7417.192158500192
 21
7769.123139034579
 31
0.0
  0
INSERT
  5
18C73
330
18C6C
100
AcDbEntity
  8
寸法
 62
     0
 48
50.0
370
    -2
100
AcDbBlockReference
  2
_DOT
 10
7417.192158500192
 20
7846.123139034578
 30
0.0
 41
20.0
 42
20.0
 43
20.0
 50
270.0
  0
INSERT
  5
18C74
330
18C6C
100
AcDbEntity
  8
寸法
 62
     0
 48
50.0
370
    -2
100
AcDbBlockReference
  2
_DOT
 10
7417.192158500192
 20
7769.123139034579
 30
0.0
 41
20.0
 42
20.0
 43
20.0
 50
90.0
  0
MTEXT
  5
18C75
330
18C6C
100
AcDbEntity
  8
寸法
 62
     7
 48
50.0
100
AcDbMText
 10
7325.192158500191
 20
7631.123139034575
 30
0.0
 40
120.0
 41
0.0
 71
     5
 72
     1
  1
\A1;77
  7
STYLE1
 11
0.0000000000000001
 21
1.0
 31
0.0
 73
     1
 44
1.0
1001
ACAD
1000
MTEXTBEGIN
1070
    73
1070
     1
1070
    44
1040
1.0
1070
    74
1070
     0
1000
MTEXTEND
  0
POINT
  5
18C76
330
18C6C
100
AcDbEntity
  8
DEFPOINTS
 62
     0
 48
50.0
100
AcDbPoint
 10
7180.896575106967
 20
7846.123139034578
 30
0.0
  0
POINT
  5
18C77
330
18C6C
100
AcDbEntity
  8
DEFPOINTS
 62
     0
 48
50.0
100
AcDbPoint
 10
7179.896575106965
 20
7769.123139034579
 30
0.0
  0
POINT
  5
18C78
330
18C6C
100
AcDbEntity
  8
DEFPOINTS
 62
     0
 48
50.0
100
AcDbPoint
 10
7417.192158500192
 20
7769.123139034579
 30
0.0
  0
ENDBLK
  5
18C79
330
18C6C
100
AcDbEntity
  8
0
 48
50.0
100
AcDbBlockEnd
  0
BLOCK
  5
18DA0
330
18C7A
100
AcDbEntity
  8
0
 48
50.0
100
AcDbBlockBegin
  2
A$C3B1A506B
 70
     0
 10
0.0
 20
0.0
 30
0.0
  3
A$C3B1A506B
  1

  0
MTEXT
  5
18C7B
330
18C7A
100
AcDbEntity
  8
寸法
 62
     7
 48
50.0
100
AcDbMText
 10
3342.250386887194
 20
2778.329429134012
 30
0.0
 40
96.0
 41
0.0
 71
     5
 72
     1
  1
棚 2段
  7
STYLE1
 73
     1
 44
1.0
1001
ACAD
1000
MTEXTBEGIN
1070
    73
1070
     1
1070
    44
1040
1.0
1070
    74
1070
     0
1000
MTEXTEND
  0
MTEXT
  5
18C7C
330
18C7A
100
AcDbEntity
  8
寸法
 62
     7
 48
50.0
100
AcDbMText
 10
2167.25038688716
 20
2778.329429133986
 30
0.0
 40
96.0
 41
0.0
 71
     5
 72
     1
  1
棚 2段
  7
STYLE1
 73
     1
 44
1.0
1001
ACAD
1000
MTEXTBEGIN
1070
    73
1070
     1
1070
    44
1040
1.0
1070
    74
1070
     0
1000
MTEXTEND
  0
MTEXT
  5
18C7D
330
18C7A
100
AcDbEntity
  8
寸法
 62
     7
 48
50.0
100
AcDbMText
 10
992.2503868871608
 20
2778.329429133935
 30
0.0
 40
96.0
 41
0.0
 71
     5
 72
     1
  1
棚 2段
  7
STYLE1
 73
     1
 44
1.0
1001
ACAD
1000
MTEXTBEGIN
1070
    73
1070
     1
1070
    44
1040
1.0
1070
    74
1070
     0
1000
MTEXTEND
  0
LINE
  5
18C7E
330
18C7A
100
AcDbEntity
  8
細線
 48
50.0
100
AcDbLine
 10
2771.970589276527
 20
1368.994384123192
 30
0.0
 11
3398.970589276523
 21
1368.994384123192
 31
0.0
  0
LINE
  5
18C7F
330
18C7A
100
AcDbEntity
  8
細線
 48
50.0
100
AcDbLine
 10
2117.970593930113
 20
1335.285615569113
 30
0.0
 11
3398.970589276523
 21
1335.285615569113
 31
0.0
  0
LINE
  5
18C80
330
18C7A
100
AcDbEntity
  8
細線
 48
50.0
100
AcDbLine
 10
2076.970593930115
 20
1364.690523565368
 30
0.0
 11
1322.970589276523
 21
1364.690523565367
 31
0.0
  0
LINE
  5
18C81
330
18C7A
100
AcDbEntity
  8
細線
100
AcDbLine
 10
3170.720579860066
 20
1388.494284088199
 30
0.0
 11
3173.052119381877
 21
1393.494286728162
 31
0.0
  0
LINE
  5
18C82
330
18C7A
100
AcDbEntity
  8
細線
100
AcDbLine
 10
3240.720589276525
 20
1388.494269174465
 30
0.0
 11
3238.389042800336
 21
1393.494286728144
 31
0.0
  0
LINE
  5
18C83
330
18C7A
100
AcDbEntity
  8
細線
100
AcDbLine
 10
3238.389042800336
 20
1393.494286728144
 30
0.0
 11
3173.052119381862
 21
1393.494286728133
 31
0.0
  0
LINE
  5
18C84
330
18C7A
100
AcDbEntity
  8
細線
100
AcDbLine
 10
3098.389042800336
 20
1393.494286728144
 30
0.0
 11
3033.052119381862
 21
1393.494286728133
 31
0.0
  0
LINE
  5
18C85
330
18C7A
100
AcDbEntity
  8
細線
100
AcDbLine
 10
3100.720589276523
 20
1388.494269174465
 30
0.0
 11
3098.389042800336
 21
1393.494286728144
 31
0.0
  0
LINE
  5
18C86
330
18C7A
100
AcDbEntity
  8
細線
100
AcDbLine
 10
3030.720579860066
 20
1388.494284088199
 30
0.0
 11
3033.052119381875
 21
1393.494286728162
 31
0.0
  0
LINE
  5
18C87
330
18C7A
100
AcDbEntity
  8
細線
100
AcDbLine
 10
2890.720589276525
 20
1388.494269174465
 30
0.0
 11
2893.052128798336
 21
1393.494271814428
 31
0.0
  0
LINE
  5
18C88
330
18C7A
100
AcDbEntity
  8
細線
100
AcDbLine
 10
2960.720598692984
 20
1388.494254260731
 30
0.0
 11
2958.389052216793
 21
1393.49427181441
 31
0.0
  0
LINE
  5
18C89
330
18C7A
100
AcDbEntity
  8
細線
100
AcDbLine
 10
2958.389052216795
 20
1393.49427181441
 30
0.0
 11
2893.052128798321
 21
1393.494271814399
 31
0.0
  0
LINE
  5
18C8A
330
18C7A
100
AcDbEntity
  8
細線
100
AcDbLine
 10
2667.139038146739
 20
1359.494298590735
 30
0.0
 11
2601.802114728263
 21
1359.494298590724
 31
0.0
  0
LINE
  5
18C8B
330
18C7A
100
AcDbEntity
  8
細線
100
AcDbLine
 10
2669.470584622926
 20
1354.494281037055
 30
0.0
 11
2667.139038146737
 21
1359.494298590735
 31
0.0
  0
LINE
  5
18C8C
330
18C7A
100
AcDbEntity
  8
細線
100
AcDbLine
 10
2599.470575206469
 20
1354.49429595079
 30
0.0
 11
2601.802114728278
 21
1359.494298590752
 31
0.0
  0
LINE
  5
18C8D
330
18C7A
100
AcDbEntity
  8
細線
 48
50.0
100
AcDbLine
 10
2440.853968524536
 20
1372.765132327548
 30
0.0
 11
2446.609486107205
 21
1354.494281037057
 31
0.0
  0
LINE
  5
18C8E
330
18C7A
100
AcDbEntity
  8
細線
 48
50.0
100
AcDbLine
 10
2429.925520044106
 20
1372.765132327546
 30
0.0
 11
2440.853968524536
 21
1372.765132327548
 31
0.0
  0
ARC
  5
18C8F
330
18C7A
100
AcDbEntity
  8
細線
 48
50.0
100
AcDbCircle
 10
2424.471163986787
 20
1374.265132327546
 30
0.0
 40
5.0
100
AcDbArc
 50
204.6243183520723
 51
335.3756816479278
  0
ARC
  5
18C90
330
18C7A
100
AcDbEntity
  8
細線
 48
50.0
100
AcDbCircle
 10
2429.925520044106
 20
1371.765132327546
 30
0.0
 40
1.0
100
AcDbArc
 50
90.0
 51
155.3756816479277
  0
ARC
  5
18C91
330
18C7A
100
AcDbEntity
  8
細線
 48
50.0
100
AcDbCircle
 10
2419.016807929469
 20
1371.765132327546
 30
0.0
 40
1.0
100
AcDbArc
 50
24.62431835207225
 51
90.0
  0
LINE
  5
18C92
330
18C7A
100
AcDbEntity
  8
細線
 48
50.0
100
AcDbLine
 10
2408.088359449037
 20
1372.765132327548
 30
0.0
 11
2419.016807929469
 21
1372.765132327546
 31
0.0
  0
LINE
  5
18C93
330
18C7A
100
AcDbEntity
  8
細線
 48
50.0
100
AcDbLine
 10
2402.33284186637
 20
1354.494281037054
 30
0.0
 11
2408.088359449037
 21
1372.765132327548
 31
0.0
  0
LINE
  5
18C94
330
18C7A
100
AcDbEntity
  8
細線
100
AcDbLine
 10
2458.070304175992
 20
1354.494278397076
 30
0.0
 11
2460.401843697802
 21
1359.494281037039
 31
0.0
  0
LINE
  5
18C95
330
18C7A
100
AcDbEntity
  8
細線
100
AcDbLine
 10
2528.070313592451
 20
1354.494263483342
 30
0.0
 11
2525.738767116262
 21
1359.494281037021
 31
0.0
  0
LINE
  5
18C96
330
18C7A
100
AcDbEntity
  8
細線
100
AcDbLine
 10
2525.738767116262
 20
1359.494281037021
 30
0.0
 11
2460.40184369779
 21
1359.49428103701
 31
0.0
  0
LINE
  5
18C97
330
18C7A
100
AcDbEntity
  8
細線
100
AcDbLine
 10
2387.139046332155
 20
1359.494281037021
 30
0.0
 11
2321.80212291368
 21
1359.49428103701
 31
0.0
  0
LINE
  5
18C98
330
18C7A
100
AcDbEntity
  8
細線
100
AcDbLine
 10
2389.470592808342
 20
1354.494263483342
 30
0.0
 11
2387.139046332153
 21
1359.494281037021
 31
0.0
  0
LINE
  5
18C99
330
18C7A
100
AcDbEntity
  8
細線
100
AcDbLine
 10
2319.470584622926
 20
1354.494281037054
 30
0.0
 11
2321.802122913694
 21
1359.494281037039
 31
0.0
  0
LINE
  5
18C9A
330
18C7A
100
AcDbEntity
  8
細線
100
AcDbLine
 10
2179.47061994182
 20
1354.494289224422
 30
0.0
 11
2181.802158232587
 21
1359.494289224407
 31
0.0
  0
LINE
  5
18C9B
330
18C7A
100
AcDbEntity
  8
細線
100
AcDbLine
 10
2249.470628127236
 20
1354.49427167071
 30
0.0
 11
2247.139081651047
 21
1359.494289224389
 31
0.0
  0
LINE
  5
18C9C
330
18C7A
100
AcDbEntity
  8
細線
100
AcDbLine
 10
2247.139081651047
 20
1359.494289224389
 30
0.0
 11
2181.802158232573
 21
1359.494289224378
 31
0.0
  0
LINE
  5
18C9D
330
18C7A
100
AcDbEntity
  8
細線
100
AcDbLine
 10
1807.970585744697
 20
1320.494460905133
 30
0.0
 11
1810.302124035464
 21
1325.494460905118
 31
0.0
  0
LINE
  5
18C9E
330
18C7A
100
AcDbEntity
  8
細線
100
AcDbLine
 10
1877.970593930113
 20
1320.494443351421
 30
0.0
 11
1875.639047453926
 21
1325.4944609051
 31
0.0
  0
LINE
  5
18C9F
330
18C7A
100
AcDbEntity
  8
細線
100
AcDbLine
 10
1875.639047453926
 20
1325.4944609051
 30
0.0
 11
1810.302124035452
 21
1325.494460905089
 31
0.0
  0
LINE
  5
18CA0
330
18C7A
100
AcDbEntity
  8
細線
100
AcDbLine
 10
2015.639047453926
 20
1325.4944609051
 30
0.0
 11
1950.302124035452
 21
1325.494460905089
 31
0.0
  0
LINE
  5
18CA1
330
18C7A
100
AcDbEntity
  8
細線
100
AcDbLine
 10
2017.970593930113
 20
1320.494443351421
 30
0.0
 11
2015.639047453924
 21
1325.4944609051
 31
0.0
  0
LINE
  5
18CA2
330
18C7A
100
AcDbEntity
  8
細線
100
AcDbLine
 10
1947.970585744697
 20
1320.494460905133
 30
0.0
 11
1950.302124035465
 21
1325.494460905118
 31
0.0
  0
LINE
  5
18CA3
330
18C7A
100
AcDbEntity
  8
細線
100
AcDbLine
 10
1735.639047453926
 20
1325.494460905098
 30
0.0
 11
1670.302124035454
 21
1325.494460905087
 31
0.0
  0
LINE
  5
18CA4
330
18C7A
100
AcDbEntity
  8
細線
100
AcDbLine
 10
1737.970593930113
 20
1320.494443351419
 30
0.0
 11
1735.639047453926
 21
1325.494460905098
 31
0.0
  0
LINE
  5
18CA5
330
18C7A
100
AcDbEntity
  8
細線
100
AcDbLine
 10
1667.970585744697
 20
1320.494460905131
 30
0.0
 11
1670.302124035465
 21
1325.494460905116
 31
0.0
  0
LINE
  5
18CA6
330
18C7A
100
AcDbEntity
  8
細線
100
AcDbLine
 10
1527.970593930113
 20
1320.494460905133
 30
0.0
 11
1530.302132220881
 21
1325.494460905118
 31
0.0
  0
LINE
  5
18CA7
330
18C7A
100
AcDbEntity
  8
細線
100
AcDbLine
 10
1597.970602115529
 20
1320.494443351421
 30
0.0
 11
1595.639055639342
 21
1325.4944609051
 31
0.0
  0
LINE
  5
18CA8
330
18C7A
100
AcDbEntity
  8
細線
100
AcDbLine
 10
1595.639055639342
 20
1325.4944609051
 30
0.0
 11
1530.302132220869
 21
1325.494460905089
 31
0.0
  0
ARC
  5
18CA9
330
18C7A
100
AcDbEntity
  8
部品1
 48
0.01
100
AcDbCircle
 10
1483.470482677778
 20
1319.493338720063
 30
0.0
 40
0.5
100
AcDbArc
 50
270.0
 51
0.0
  0
LINE
  5
18CAA
330
18C7A
100
AcDbEntity
  8
部品1
 48
0.01
100
AcDbLine
 10
1483.970482677778
 20
1320.493338720063
 30
0.0
 11
1483.970482677778
 21
1319.493338720063
 31
0.0
  0
LINE
  5
18CAB
330
18C7A
100
AcDbEntity
  8
部品1
 48
0.01
100
AcDbLine
 10
1483.970482677778
 20
1320.493338720063
 30
0.0
 11
1483.970482677778
 21
1319.493338720063
 31
0.0
  0
LINE
  5
18CAC
330
18C7A
100
AcDbEntity
  8
部品1
 48
0.01
100
AcDbLine
 10
1483.470482677778
 20
1318.993338720063
 30
0.0
 11
1476.857977247713
 21
1318.993338720062
 31
0.0
  0
ARC
  5
18CAD
330
18C7A
100
AcDbEntity
  8
部品1
100
AcDbCircle
 10
1476.926326800494
 20
1319.993338720062
 30
0.0
 40
1.0
100
AcDbArc
 50
160.5287793655865
 51
270.0
  0
ARC
  5
18CAE
330
18C7A
100
AcDbEntity
  8
部品1
100
AcDbCircle
 10
1451.470482677778
 20
1328.993338720062
 30
0.0
 40
26.0
100
AcDbArc
 50
340.5287793655865
 51
0.0
  0
LINE
  5
18CAF
330
18C7A
100
AcDbEntity
  8
部品1
100
AcDbLine
 10
1477.470482677778
 20
1328.993338720062
 30
0.0
 11
1477.470482677778
 21
1333.993338720061
 31
0.0
  0
ARC
  5
18CB0
330
18C7A
100
AcDbEntity
  8
部品1
 48
0.01
100
AcDbCircle
 10
1475.470482677778
 20
1333.993338720061
 30
0.0
 40
2.0
100
AcDbArc
 50
0.0
 51
90.0
  0
ARC
  5
18CB1
330
18C7A
100
AcDbEntity
  8
部品1
100
AcDbCircle
 10
1473.862091052968
 20
1332.993338720062
 30
0.0
 40
3.0
100
AcDbArc
 50
90.0
 51
141.6069559808035
  0
LINE
  5
18CB2
330
18C7A
100
AcDbEntity
  8
部品1
 48
0.01
100
AcDbLine
 10
1475.470482677778
 20
1335.993338720062
 30
0.0
 11
1473.862091052968
 21
1335.993338720062
 31
0.0
  0
ARC
  5
18CB3
330
18C7A
100
AcDbEntity
  8
部品1
100
AcDbCircle
 10
1455.399768463507
 20
1332.293338720065
 30
0.0
 40
3.0
100
AcDbArc
 50
254.0576313943215
 51
270.0
  0
ARC
  5
18CB4
330
18C7A
100
AcDbEntity
  8
部品1
100
AcDbCircle
 10
1462.541196892049
 20
1332.293338720065
 30
0.0
 40
3.0
100
AcDbArc
 50
270.0
 51
285.9423686056786
  0
LINE
  5
18CB5
330
18C7A
100
AcDbEntity
  8
部品1
100
AcDbLine
 10
1462.541196892049
 20
1329.293338720064
 30
0.0
 11
1455.399768463507
 21
1329.293338720064
 31
0.0
  0
ARC
  5
18CB6
330
18C7A
100
AcDbEntity
  8
部品1
100
AcDbCircle
 10
1458.970482677778
 20
1344.793338720065
 30
0.0
 40
16.0
100
AcDbArc
 50
285.9423686056786
 51
321.6069559808035
  0
LINE
  5
18CB7
330
18C7A
100
AcDbEntity
  8
部品1
 48
0.01
100
AcDbLine
 10
1442.470482677778
 20
1335.993338720062
 30
0.0
 11
1444.078874302588
 21
1335.993338720062
 31
0.0
  0
ARC
  5
18CB8
330
18C7A
100
AcDbEntity
  8
部品1
100
AcDbCircle
 10
1444.078874302588
 20
1332.993338720062
 30
0.0
 40
3.0
100
AcDbArc
 50
38.39304401919648
 51
90.0
  0
ARC
  5
18CB9
330
18C7A
100
AcDbEntity
  8
部品1
100
AcDbCircle
 10
1458.970482677778
 20
1344.793338720065
 30
0.0
 40
16.0
100
AcDbArc
 50
218.3930440191965
 51
254.0576313943215
  0
LINE
  5
18CBA
330
18C7A
100
AcDbEntity
  8
部品1
100
AcDbLine
 10
1440.470482677778
 20
1328.993338720062
 30
0.0
 11
1440.470482677778
 21
1333.993338720061
 31
0.0
  0
ARC
  5
18CBB
330
18C7A
100
AcDbEntity
  8
部品1
 48
0.01
100
AcDbCircle
 10
1442.470482677778
 20
1333.993338720061
 30
0.0
 40
2.0
100
AcDbArc
 50
90.0
 51
180.0
  0
ARC
  5
18CBC
330
18C7A
100
AcDbEntity
  8
部品1
100
AcDbCircle
 10
1466.470482677778
 20
1328.993338720062
 30
0.0
 40
26.0
100
AcDbArc
 50
180.0
 51
199.4712206344134
  0
ARC
  5
18CBD
330
18C7A
100
AcDbEntity
  8
部品1
 48
0.01
100
AcDbCircle
 10
1434.470482677778
 20
1319.493338720063
 30
0.0
 40
0.5
100
AcDbArc
 50
180.0
 51
270.0
  0
LINE
  5
18CBE
330
18C7A
100
AcDbEntity
  8
部品1
 48
0.01
100
AcDbLine
 10
1434.470482677778
 20
1318.993338720063
 30
0.0
 11
1441.014638555061
 21
1318.993338720062
 31
0.0
  0
LINE
  5
18CBF
330
18C7A
100
AcDbEntity
  8
部品1
 48
0.01
100
AcDbLine
 10
1433.970482677778
 20
1320.493338720063
 30
0.0
 11
1433.970482677778
 21
1319.493338720063
 31
0.0
  0
ARC
  5
18CC0
330
18C7A
100
AcDbEntity
  8
部品1
100
AcDbCircle
 10
1441.014638555061
 20
1319.993338720062
 30
0.0
 40
1.0
100
AcDbArc
 50
270.0
 51
19.47122063441346
  0
LINE
  5
18CC1
330
18C7A
100
AcDbEntity
  8
細線
100
AcDbLine
 10
1479.470482677785
 20
1338.493338720065
 30
0.0
 11
1438.470482677785
 21
1338.493338720058
 31
0.0
  0
LINE
  5
18CC2
330
18C7A
100
AcDbEntity
  8
細線
100
AcDbLine
 10
1438.470482677785
 20
1338.493338720058
 30
0.0
 11
1438.470482677785
 21
1320.49333872004
 31
0.0
  0
LINE
  5
18CC3
330
18C7A
100
AcDbEntity
  8
細線
100
AcDbLine
 10
1479.470482677785
 20
1338.493338720065
 30
0.0
 11
1479.470482677785
 21
1320.49333872004
 31
0.0
  0
LINE
  5
18CC4
330
18C7A
100
AcDbEntity
  8
細線
100
AcDbLine
 10
1322.970589276523
 20
1324.494269174465
 30
0.0
 11
1322.970589276523
 21
1320.494269174513
 31
0.0
  0
LINE
  5
18CC5
330
18C7A
100
AcDbEntity
  8
寸法
 48
50.0
100
AcDbLine
 10
1746.17359555837
 20
1170.531020743327
 30
0.0
 11
1694.767587648266
 21
1170.531020743327
 31
0.0
  0
LINE
  5
18CC6
330
18C7A
100
AcDbEntity
  8
寸法
 48
50.0
100
AcDbLine
 10
1694.767587648266
 20
1170.531020743327
 30
0.0
 11
1694.767587648266
 21
1201.841179395494
 31
0.0
  0
LINE
  5
18CC7
330
18C7A
100
AcDbEntity
  8
寸法
 48
50.0
100
AcDbLine
 10
1694.767587648266
 20
1201.841179395494
 30
0.0
 11
1665.006255656843
 21
1201.841179395494
 31
0.0
  0
LINE
  5
18CC8
330
18C7A
100
AcDbEntity
  8
寸法
 48
50.0
100
AcDbLine
 10
1665.006255656843
 20
1201.841179395494
 30
0.0
 11
1720.470591603318
 21
1239.420630324105
 31
0.0
  0
LINE
  5
18CC9
330
18C7A
100
AcDbEntity
  8
寸法
 48
50.0
100
AcDbLine
 10
1775.934927549793
 20
1201.841179395494
 30
0.0
 11
1720.470591603318
 21
1239.420630324105
 31
0.0
  0
LINE
  5
18CCA
330
18C7A
100
AcDbEntity
  8
寸法
 48
50.0
100
AcDbLine
 10
1746.17359555837
 20
1201.841179395494
 30
0.0
 11
1775.934927549793
 21
1201.841179395494
 31
0.0
  0
LINE
  5
18CCB
330
18C7A
100
AcDbEntity
  8
寸法
 48
50.0
100
AcDbLine
 10
1746.17359555837
 20
1170.531020743327
 30
0.0
 11
1746.17359555837
 21
1201.841179395494
 31
0.0
  0
LINE
  5
18CCC
330
18C7A
100
AcDbEntity
  8
寸法
 48
50.0
100
AcDbLine
 10
1694.767587648266
 20
1170.531020743327
 30
0.0
 11
1746.17359555837
 21
1170.531020743327
 31
0.0
  0
LINE
  5
18CCD
330
18C7A
100
AcDbEntity
  8
寸法
 48
50.0
100
AcDbLine
 10
2025.339129835225
 20
1227.676611498152
 30
0.0
 11
2025.339129835225
 21
1174.01297691636
 31
0.0
  0
LINE
  5
18CCE
330
18C7A
100
AcDbEntity
  8
寸法
 48
50.0
100
AcDbLine
 10
2114.623348430647
 20
1203.752977228664
 30
0.0
 11
2025.339129835225
 21
1227.676611498152
 31
0.0
  0
LINE
  5
18CCF
330
18C7A
100
AcDbEntity
  8
寸法
 48
50.0
100
AcDbLine
 10
1895.471408254923
 20
1203.752977228664
 30
0.0
 11
2114.623348430647
 21
1203.752977228664
 31
0.0
  0
DIMENSION
  5
18CD0
330
18C7A
100
AcDbEntity
  8
寸法
 48
50.0
100
AcDbDimension
  2
*D15
 10
2588.970589276523
 20
706.3240511224249
 30
0.0
 11
1969.060022905491
 21
706.3240511224249
 31
0.0
 12
-3742.925985830444
 22
-6453.628869860112
 32
0.0
 70
   128
  1
有効開口部間口\P<>
 71
     5
 42
1266.0
  3
INABA_S40G
100
AcDbAlignedDimension
 13
1322.970589276523
 23
1315.494269174465
 33
0.0
 14
2588.970589276523
 24
1315.494269174465
 34
0.0
100
AcDbRotatedDimension
1001
ACAD
1000
DSTYLE
1002
{
1070
   341
1005
0
1002
}
  0
LINE
  5
18CD1
330
18C7A
100
AcDbEntity
  8
部品1
100
AcDbLine
 10
3409.970589276524
 20
1392.494269174465
 30
0.0
 11
3437.970589276523
 21
1392.494269174465
 31
0.0
  0
DIMENSION
  5
18CD2
330
18C7A
100
AcDbEntity
  8
寸法
100
AcDbDimension
  2
*D16
 10
3674.266172669749
 20
1315.494269174465
 30
0.0
 11
3674.266172669748
 21
1177.494269174462
 31
0.0
 12
-3742.925985830444
 22
-6453.628869860112
 32
0.0
 70
   128
 71
     5
 42
77.0
  3
INABA_S40
100
AcDbAlignedDimension
 13
3437.970589276523
 23
1392.494269174465
 33
0.0
 14
3436.970589276523
 24
1315.494269174465
 34
0.0
 50
90.0
100
AcDbRotatedDimension
1001
ACAD
1000
DSTYLE
1002
{
1070
    41
1040
0.5
1070
    44
1040
1.0
1070
   147
1040
0.8
1070
   271
1070
     2
1070
   272
1070
     2
1070
   289
1070
     3
1070
   340
1005
F706
1070
   343
1005
164B4
1070
   344
1005
164B4
1002
}
  0
LINE
  5
18CD3
330
18C7A
100
AcDbEntity
  8
部品1
100
AcDbLine
 10
3437.970589276523
 20
1315.494269174465
 30
0.0
 11
3437.970589276523
 21
1392.494269174465
 31
0.0
  0
LINE
  5
18CD4
330
18C7A
100
AcDbEntity
  8
部品1
100
AcDbLine
 10
3398.970589276523
 20
1388.494269174465
 30
0.0
 11
3409.970589276524
 21
1388.494269174465
 31
0.0
  0
LINE
  5
18CD5
330
18C7A
100
AcDbEntity
  8
部品1
100
AcDbLine
 10
3407.970589276523
 20
1324.494269174465
 30
0.0
 11
3407.970589276523
 21
1315.494269174465
 31
0.0
  0
LINE
  5
18CD6
330
18C7A
100
AcDbEntity
  8
部品1
100
AcDbLine
 10
3398.970589276523
 20
1324.494269174465
 30
0.0
 11
3407.970589276523
 21
1324.494269174465
 31
0.0
  0
LINE
  5
18CD7
330
18C7A
100
AcDbEntity
  8
部品1
100
AcDbLine
 10
3398.970589276523
 20
1388.494269174465
 30
0.0
 11
3398.970589276523
 21
1324.494269174465
 31
0.0
  0
LINE
  5
18CD8
330
18C7A
100
AcDbEntity
  8
部品1
100
AcDbLine
 10
3409.970589276524
 20
1419.494269174465
 30
0.0
 11
3409.970589276524
 21
1388.494269174465
 31
0.0
  0
LINE
  5
18CD9
330
18C7A
100
AcDbEntity
  8
部品1
100
AcDbLine
 10
1322.970589276523
 20
1388.494269174465
 30
0.0
 11
1311.970589276523
 21
1388.494269174465
 31
0.0
  0
LINE
  5
18CDA
330
18C7A
100
AcDbEntity
  8
部品1
100
AcDbLine
 10
1283.970589276523
 20
1392.494269174465
 30
0.0
 11
1311.970589276523
 21
1392.494269174465
 31
0.0
  0
LINE
  5
18CDB
330
18C7A
100
AcDbEntity
  8
部品1
100
AcDbLine
 10
1313.970589276523
 20
1324.494269174465
 30
0.0
 11
1313.970589276523
 21
1315.494269174465
 31
0.0
  0
LINE
  5
18CDC
330
18C7A
100
AcDbEntity
  8
部品1
100
AcDbLine
 10
1322.970589276523
 20
1324.494269174465
 30
0.0
 11
1313.970589276523
 21
1324.494269174465
 31
0.0
  0
LINE
  5
18CDD
330
18C7A
100
AcDbEntity
  8
部品1
100
AcDbLine
 10
1313.970589276523
 20
1315.494269174465
 30
0.0
 11
1283.970589276523
 21
1315.494269174465
 31
0.0
  0
LINE
  5
18CDE
330
18C7A
100
AcDbEntity
  8
部品1
100
AcDbLine
 10
1283.970589276523
 20
1315.494269174465
 30
0.0
 11
1283.970589276523
 21
1392.494269174465
 31
0.0
  0
LINE
  5
18CDF
330
18C7A
100
AcDbEntity
  8
部品1
100
AcDbLine
 10
1322.970589276523
 20
1388.494269174465
 30
0.0
 11
1322.970589276523
 21
1324.494269174465
 31
0.0
  0
LINE
  5
18CE0
330
18C7A
100
AcDbEntity
  8
部品1
100
AcDbLine
 10
1311.970589276523
 20
1419.494269174462
 30
0.0
 11
1311.970589276523
 21
1388.494269174465
 31
0.0
  0
LINE
  5
18CE1
330
18C7A
100
AcDbEntity
  8
部品1
100
AcDbLine
 10
1311.970589276523
 20
1419.494269174462
 30
0.0
 11
3409.970589276524
 21
1419.494269174465
 31
0.0
  0
LINE
  5
18CE2
330
18C7A
100
AcDbEntity
  8
部品1
100
AcDbLine
 10
3407.970589276523
 20
1315.494269174465
 30
0.0
 11
3437.970589276523
 21
1315.494269174465
 31
0.0
  0
LINE
  5
18CE3
330
18C7A
100
AcDbEntity
  8
部品1
100
AcDbLine
 10
1313.970589276523
 20
1315.494269174465
 30
0.0
 11
3410.970589276523
 21
1315.494269174465
 31
0.0
  0
LINE
  5
18CE4
330
18C7A
100
AcDbEntity
  8
細線
  6
Continuous
 62
     5
100
AcDbLine
 10
2689.970589276527
 20
1354.494269174462
 30
0.0
 11
2689.970589276527
 21
1354.494269174462
 31
0.0
  0
LINE
  5
18CE5
330
18C7A
100
AcDbEntity
  8
細線
  6
Continuous
 62
     5
100
AcDbLine
 10
2682.470589276527
 20
1354.494269174462
 30
0.0
 11
2682.470589276527
 21
1354.494269174462
 31
0.0
  0
LINE
  5
18CE6
330
18C7A
100
AcDbEntity
  8
細線
  6
Continuous
 62
     5
100
AcDbLine
 10
2676.470589276527
 20
1354.494269174462
 30
0.0
 11
2676.470589276527
 21
1354.494269174462
 31
0.0
  0
LINE
  5
18CE7
330
18C7A
100
AcDbEntity
  8
細線
  6
Continuous
 62
     5
100
AcDbLine
 10
2743.970589276527
 20
1373.494269174462
 30
0.0
 11
2743.970589276527
 21
1373.494269174462
 31
0.0
  0
LINE
  5
18CE8
330
18C7A
100
AcDbEntity
  8
細線
 48
50.0
100
AcDbLine
 10
1336.970593930116
 20
1341.094443351418
 30
0.0
 11
1336.970593930113
 21
1349.490593759059
 31
0.0
  0
LINE
  5
18CE9
330
18C7A
100
AcDbEntity
  8
細線
 48
50.0
100
AcDbLine
 10
1336.970593930113
 20
1349.490593759059
 30
0.0
 11
1322.970589276523
 21
1349.490593759057
 31
0.0
  0
LINE
  5
18CEA
330
18C7A
100
AcDbEntity
  8
細線
 48
50.0
100
AcDbLine
 10
2087.970593930113
 20
1337.644443351419
 30
0.0
 11
2087.970593930113
 21
1342.494443351421
 31
0.0
  0
LINE
  5
18CEB
330
18C7A
100
AcDbEntity
  8
細線
 48
50.0
100
AcDbLine
 10
2087.970593930113
 20
1342.494443351421
 30
0.0
 11
2102.970593930113
 21
1342.494443351421
 31
0.0
  0
LINE
  5
18CEC
330
18C7A
100
AcDbEntity
  8
細線
 48
50.0
100
AcDbLine
 10
2102.970593930113
 20
1342.494443351421
 30
0.0
 11
2102.970593930115
 21
1349.494443351419
 31
0.0
  0
LINE
  5
18CED
330
18C7A
100
AcDbEntity
  8
細線
 48
50.0
100
AcDbLine
 10
2102.970593930115
 20
1349.494443351419
 30
0.0
 11
2117.970593930113
 21
1349.494443351419
 31
0.0
  0
LINE
  5
18CEE
330
18C7A
100
AcDbEntity
  8
細線
 48
50.0
100
AcDbLine
 10
2117.970593930113
 20
1349.494443351419
 30
0.0
 11
2117.970593930113
 21
1320.494443351421
 31
0.0
  0
LINE
  5
18CEF
330
18C7A
100
AcDbEntity
  8
細線
 48
50.0
100
AcDbLine
 10
1313.970589276523
 20
1320.491777694889
 30
0.0
 11
1527.970593930113
 21
1320.494460905133
 31
0.0
  0
LINE
  5
18CF0
330
18C7A
100
AcDbEntity
  8
細線
 48
50.0
100
AcDbLine
 10
2017.970593930113
 20
1320.494443351421
 30
0.0
 11
2117.970593930113
 21
1320.494443351421
 31
0.0
  0
LINE
  5
18CF1
330
18C7A
100
AcDbEntity
  8
細線
 48
50.0
100
AcDbLine
 10
1737.970593930113
 20
1320.494443351419
 30
0.0
 11
1807.970593930113
 21
1320.494443351423
 31
0.0
  0
LINE
  5
18CF2
330
18C7A
100
AcDbEntity
  8
細線
 48
50.0
100
AcDbLine
 10
1750.832558942642
 20
1320.494443351419
 30
0.0
 11
1756.588076525309
 21
1338.765294641913
 31
0.0
  0
LINE
  5
18CF3
330
18C7A
100
AcDbEntity
  8
細線
 48
50.0
100
AcDbLine
 10
1756.588076525309
 20
1338.765294641913
 30
0.0
 11
1767.516525005743
 21
1338.765294641911
 31
0.0
  0
ARC
  5
18CF4
330
18C7A
100
AcDbEntity
  8
細線
 48
50.0
100
AcDbCircle
 10
1767.516525005743
 20
1337.765294641911
 30
0.0
 40
1.0
100
AcDbArc
 50
24.62431835207225
 51
90.0
  0
ARC
  5
18CF5
330
18C7A
100
AcDbEntity
  8
細線
 48
50.0
100
AcDbCircle
 10
1778.425237120377
 20
1337.765294641911
 30
0.0
 40
1.0
100
AcDbArc
 50
90.0
 51
155.3756816479277
  0
ARC
  5
18CF6
330
18C7A
100
AcDbEntity
  8
細線
 48
50.0
100
AcDbCircle
 10
1772.970881063058
 20
1340.265294641911
 30
0.0
 40
5.0
100
AcDbArc
 50
204.6243183520723
 51
335.3756816479278
  0
LINE
  5
18CF7
330
18C7A
100
AcDbEntity
  8
細線
 48
50.0
100
AcDbLine
 10
1778.425237120377
 20
1338.765294641911
 30
0.0
 11
1789.35368560081
 21
1338.765294641913
 31
0.0
  0
LINE
  5
18CF8
330
18C7A
100
AcDbEntity
  8
細線
 48
50.0
100
AcDbLine
 10
1789.35368560081
 20
1338.765294641913
 30
0.0
 11
1795.109203183478
 21
1320.494443351423
 31
0.0
  0
LINE
  5
18CF9
330
18C7A
100
AcDbEntity
  8
細線
 48
50.0
100
AcDbLine
 10
2087.970593930113
 20
1341.094443351419
 30
0.0
 11
1336.970593930116
 21
1341.094443351418
 31
0.0
  0
LINE
  5
18CFA
330
18C7A
100
AcDbEntity
  8
細線
 48
50.0
100
AcDbLine
 10
1947.970593930113
 20
1320.494443351421
 30
0.0
 11
1877.970593930113
 21
1320.494443351421
 31
0.0
  0
LINE
  5
18CFB
330
18C7A
100
AcDbEntity
  8
細線
100
AcDbLine
 10
1667.970593930113
 20
1320.494443351421
 30
0.0
 11
1597.970602115529
 21
1320.494443351421
 31
0.0
  0
LINE
  5
18CFC
330
18C7A
100
AcDbEntity
  8
細線
 48
50.0
100
AcDbLine
 10
2741.970584622936
 20
1375.094487209288
 30
0.0
 11
2106.970593930113
 21
1375.094487209284
 31
0.0
  0
LINE
  5
18CFD
330
18C7A
100
AcDbEntity
  8
細線
 48
50.0
100
AcDbLine
 10
2106.970593930113
 20
1371.990637616925
 30
0.0
 11
2106.970593930113
 21
1376.490637616925
 31
0.0
  0
LINE
  5
18CFE
330
18C7A
100
AcDbEntity
  8
細線
 48
50.0
100
AcDbLine
 10
2106.970593930113
 20
1376.490637616925
 30
0.0
 11
2091.970593930113
 21
1376.490637616925
 31
0.0
  0
LINE
  5
18CFF
330
18C7A
100
AcDbEntity
  8
細線
 48
50.0
100
AcDbLine
 10
2091.970593930113
 20
1376.490637616925
 30
0.0
 11
2091.970593930113
 21
1383.490637616927
 31
0.0
  0
LINE
  5
18D00
330
18C7A
100
AcDbEntity
  8
細線
 48
50.0
100
AcDbLine
 10
2091.970593930113
 20
1383.490637616927
 30
0.0
 11
2076.970593930115
 21
1383.490637616924
 31
0.0
  0
LINE
  5
18D01
330
18C7A
100
AcDbEntity
  8
細線
 48
50.0
100
AcDbLine
 10
2076.970593930115
 20
1383.490637616924
 30
0.0
 11
2076.970593930115
 21
1345.890409513813
 31
0.0
  0
LINE
  5
18D02
330
18C7A
100
AcDbEntity
  8
細線
 48
50.0
100
AcDbLine
 10
2076.970593930115
 20
1345.890409513813
 30
0.0
 11
2096.970601231289
 21
1345.890451063353
 31
0.0
  0
LINE
  5
18D03
330
18C7A
100
AcDbEntity
  8
細線
 48
50.0
100
AcDbLine
 10
2096.970556362348
 20
1354.493912699161
 30
0.0
 11
2096.970601231289
 21
1345.890451063353
 31
0.0
  0
LINE
  5
18D04
330
18C7A
100
AcDbEntity
  8
細線
 48
50.0
100
AcDbLine
 10
2741.970584622936
 20
1371.644487209287
 30
0.0
 11
2741.970584622936
 21
1376.494487209284
 31
0.0
  0
LINE
  5
18D05
330
18C7A
100
AcDbEntity
  8
細線
 48
50.0
100
AcDbLine
 10
2741.970584622936
 20
1376.494487209284
 30
0.0
 11
2756.970584622934
 21
1376.494487209285
 31
0.0
  0
LINE
  5
18D06
330
18C7A
100
AcDbEntity
  8
細線
 48
50.0
100
AcDbLine
 10
2756.970584622934
 20
1376.494487209285
 30
0.0
 11
2756.970596256909
 21
1383.494487209331
 31
0.0
  0
LINE
  5
18D07
330
18C7A
100
AcDbEntity
  8
細線
 48
50.0
100
AcDbLine
 10
2756.970596256909
 20
1383.494487209331
 30
0.0
 11
2771.970594427439
 21
1383.494487209329
 31
0.0
  0
LINE
  5
18D08
330
18C7A
100
AcDbEntity
  8
細線
 48
50.0
100
AcDbLine
 10
2771.970594427439
 20
1383.494487209329
 30
0.0
 11
2771.970584125617
 21
1354.494281037055
 31
0.0
  0
LINE
  5
18D09
330
18C7A
100
AcDbEntity
  8
細線
 48
50.0
100
AcDbLine
 10
2458.070304175992
 20
1354.494278397076
 30
0.0
 11
2389.470863838818
 21
1354.494283787084
 31
0.0
  0
LINE
  5
18D0A
330
18C7A
100
AcDbEntity
  8
細線
 48
50.0
100
AcDbLine
 10
2096.970556362348
 20
1354.493912699161
 30
0.0
 11
2108.203245717057
 21
1354.494095652309
 31
0.0
  0
ARC
  5
18D0B
330
18C7A
100
AcDbEntity
  8
細線
 48
50.0
100
AcDbCircle
 10
2114.785538024393
 20
1353.294259565922
 30
0.0
 40
1.8
100
AcDbArc
 50
270.0006665777295
 51
345.000555481349
  0
LINE
  5
18D0C
330
18C7A
100
AcDbEntity
  8
細線
 48
50.0
100
AcDbLine
 10
2116.771971470473
 20
1353.753100023201
 30
0.0
 11
2116.524209028273
 21
1352.828402141094
 31
0.0
  0
LINE
  5
18D0D
330
18C7A
100
AcDbEntity
  8
細線
 48
50.0
100
AcDbLine
 10
2114.785558965548
 20
1351.494259566043
 30
0.0
 11
2111.155631546781
 21
1351.494217335563
 31
0.0
  0
ARC
  5
18D0E
330
18C7A
100
AcDbEntity
  8
細線
 48
50.0
100
AcDbCircle
 10
2111.155610605627
 20
1353.29421733544
 30
0.0
 40
1.8
100
AcDbArc
 50
195.0010443049965
 51
270.0006665777295
  0
LINE
  5
18D0F
330
18C7A
100
AcDbEntity
  8
細線
 48
50.0
100
AcDbLine
 10
2109.169183113368
 20
1353.752932303007
 30
0.0
 11
2109.416952609882
 21
1352.828311364425
 31
0.0
  0
ARC
  5
18D10
330
18C7A
100
AcDbEntity
  8
細線
 48
50.0
100
AcDbCircle
 10
2108.203262004622
 20
1353.494095652444
 30
0.0
 40
1.0
100
AcDbArc
 50
15.00104430499651
 51
90.00093320877969
  0
LINE
  5
18D11
330
18C7A
100
AcDbEntity
  8
細線
 48
50.0
100
AcDbLine
 10
2117.737892825577
 20
1354.494290342714
 30
0.0
 11
2118.679652976481
 21
1354.494296916564
 31
0.0
  0
ARC
  5
18D12
330
18C7A
100
AcDbEntity
  8
細線
 48
50.0
100
AcDbCircle
 10
2117.737899805961
 20
1353.49429034274
 30
0.0
 40
1.0
100
AcDbArc
 50
90.0003999466794
 51
165.000555481349
  0
LINE
  5
18D13
330
18C7A
100
AcDbEntity
  8
細線
 48
50.0
100
AcDbLine
 10
2669.470584622926
 20
1354.494281037055
 30
0.0
 11
2771.970584125617
 21
1354.494281037055
 31
0.0
  0
LINE
  5
18D14
330
18C7A
100
AcDbEntity
  8
細線
 48
50.0
100
AcDbLine
 10
2179.47061994182
 20
1354.494289224422
 30
0.0
 11
2118.370558714898
 21
1354.494296916564
 31
0.0
  0
LINE
  5
18D15
330
18C7A
100
AcDbEntity
  8
細線
 48
50.0
100
AcDbLine
 10
2599.470584622926
 20
1354.494281037057
 30
0.0
 11
2529.470584622926
 21
1354.494281037055
 31
0.0
  0
LINE
  5
18D16
330
18C7A
100
AcDbEntity
  8
細線
 48
50.0
100
AcDbLine
 10
2319.470584622926
 20
1354.494281037054
 30
0.0
 11
2249.470567335051
 21
1354.494281037057
 31
0.0
  0
ARC
  5
18D17
330
18C7A
100
AcDbEntity
  8
細線
 48
50.0
100
AcDbCircle
 10
2756.170589276533
 20
1387.694269174466
 30
0.0
 40
0.8
100
AcDbArc
 50
359.9997333689499
 51
89.99986668437072
  0
ARC
  5
18D18
330
18C7A
100
AcDbEntity
  8
細線
 48
50.0
100
AcDbCircle
 10
2763.770596101631
 20
1387.694280343081
 30
0.0
 40
0.8
100
AcDbArc
 50
90.00014387753465
 51
179.9997333689498
  0
LINE
  5
18D19
330
18C7A
100
AcDbEntity
  8
細線
 48
50.0
100
AcDbLine
 10
2756.170591137969
 20
1388.494269174465
 30
0.0
 11
2750.970589276525
 21
1388.494269174465
 31
0.0
  0
ARC
  5
18D1A
330
18C7A
100
AcDbEntity
  8
細線
 48
50.0
100
AcDbCircle
 10
2757.670589276524
 20
1386.194269174464
 30
0.0
 40
0.7
100
AcDbArc
 50
180.0
 51
270.0
  0
ARC
  5
18D1B
330
18C7A
100
AcDbEntity
  8
細線
 48
50.0
100
AcDbCircle
 10
2762.270589276524
 20
1386.194269174464
 30
0.0
 40
0.7
100
AcDbArc
 50
270.0
 51
0.0
  0
LINE
  5
18D1C
330
18C7A
100
AcDbEntity
  8
細線
 48
50.0
100
AcDbLine
 10
2762.970589276525
 20
1386.194269174464
 30
0.0
 11
2762.970596101639
 21
1387.694284065954
 31
0.0
  0
LINE
  5
18D1D
330
18C7A
100
AcDbEntity
  8
細線
 48
50.0
100
AcDbLine
 10
2757.670589276524
 20
1385.494269174465
 30
0.0
 11
2762.270589276524
 21
1385.494269174465
 31
0.0
  0
LINE
  5
18D1E
330
18C7A
100
AcDbEntity
  8
細線
 48
50.0
100
AcDbLine
 10
2756.970589276525
 20
1387.694269174466
 30
0.0
 11
2756.970589276525
 21
1386.194269174464
 31
0.0
  0
LINE
  5
18D1F
330
18C7A
100
AcDbEntity
  8
細線
 48
50.0
100
AcDbLine
 10
3382.570589276527
 20
1418.494269174465
 30
0.0
 11
2745.970589276525
 21
1418.494269174463
 31
0.0
  0
LINE
  5
18D20
330
18C7A
100
AcDbEntity
  8
細線
 48
50.0
100
AcDbLine
 10
3408.470589276525
 20
1413.494269174467
 30
0.0
 11
3392.570589276527
 21
1413.494269174465
 31
0.0
  0
LINE
  5
18D21
330
18C7A
100
AcDbEntity
  8
細線
 48
50.0
100
AcDbLine
 10
3392.570589276526
 20
1413.494269174465
 30
0.0
 11
3382.570589276527
 21
1418.494269174465
 31
0.0
  0
LINE
  5
18D22
330
18C7A
100
AcDbEntity
  8
細線
100
AcDbLine
 10
2993.470589276525
 20
1388.494269174465
 30
0.0
 11
2993.470589276525
 21
1417.794269174464
 31
0.0
  0
LINE
  5
18D23
330
18C7A
100
AcDbEntity
  8
細線
100
AcDbLine
 10
2993.470589276525
 20
1417.794269174464
 30
0.0
 11
3013.470589276525
 21
1417.794269174464
 31
0.0
  0
LINE
  5
18D24
330
18C7A
100
AcDbEntity
  8
細線
100
AcDbLine
 10
3013.470589276525
 20
1388.494269174465
 30
0.0
 11
3013.470589276525
 21
1417.794269174464
 31
0.0
  0
LINE
  5
18D25
330
18C7A
100
AcDbEntity
  8
細線
100
AcDbLine
 10
3170.720589276524
 20
1388.494269174465
 30
0.0
 11
3100.720589276523
 21
1388.494269174465
 31
0.0
  0
LINE
  5
18D26
330
18C7A
100
AcDbEntity
  8
細線
 48
50.0
100
AcDbLine
 10
2890.720589276525
 20
1388.494269174465
 30
0.0
 11
2763.766368849365
 21
1388.494269174465
 31
0.0
  0
LINE
  5
18D27
330
18C7A
100
AcDbEntity
  8
細線
100
AcDbLine
 10
3030.720589276525
 20
1388.494269174465
 30
0.0
 11
2960.720589276525
 21
1388.494269174465
 31
0.0
  0
LINE
  5
18D28
330
18C7A
100
AcDbEntity
  8
細線
 48
50.0
100
AcDbLine
 10
2750.970589276525
 20
1380.494269174465
 30
0.0
 11
2750.970589276525
 21
1388.494269174465
 31
0.0
  0
LINE
  5
18D29
330
18C7A
100
AcDbEntity
  8
細線
 48
50.0
100
AcDbLine
 10
2730.970589276524
 20
1380.494269174467
 30
0.0
 11
2750.970589276525
 21
1380.494269174465
 31
0.0
  0
LINE
  5
18D2A
330
18C7A
100
AcDbEntity
  8
細線
 48
50.0
100
AcDbLine
 10
2745.970589276525
 20
1418.494269174465
 30
0.0
 11
2745.970589276525
 21
1413.494269174465
 31
0.0
  0
LINE
  5
18D2B
330
18C7A
100
AcDbEntity
  8
細線
 48
50.0
100
AcDbLine
 10
2730.970589276525
 20
1418.494269174463
 30
0.0
 11
2745.970589276525
 21
1418.494269174465
 31
0.0
  0
LINE
  5
18D2C
330
18C7A
100
AcDbEntity
  8
細線
 48
50.0
100
AcDbLine
 10
2730.970589276524
 20
1380.494269174467
 30
0.0
 11
2730.970589276525
 21
1418.494269174463
 31
0.0
  0
LINE
  5
18D2D
330
18C7A
100
AcDbEntity
  8
細線
100
AcDbLine
 10
3398.970589276523
 20
1388.494269174465
 30
0.0
 11
3240.720589276525
 21
1388.494269174465
 31
0.0
  0
LINE
  5
18D2E
330
18C7A
100
AcDbEntity
  8
細線
 48
50.0
100
AcDbLine
 10
3408.470589276525
 20
1413.494269174467
 30
0.0
 11
3408.470589276524
 21
1388.494269174465
 31
0.0
  0
TEXT
  5
18D2F
330
18C7A
100
AcDbEntity
  8
部品1
100
AcDbText
 10
1860.154865991392
 20
46.99880823813145
 30
0.0
 40
135.0
  1
平面図
  7
STYLE2
100
AcDbText
  0
LWPOLYLINE
  5
18D30
330
18C7A
100
AcDbEntity
  8
部品1
100
AcDbPolyline
 90
        4
 70
     1
 43
0.0
 10
1770.23525616235
 20
239.8923374566548
 10
1770.23525616235
 20
0.0000159111223184
 10
2533.705922390791
 20
0.0000159111223184
 10
2533.705922390791
 20
239.8923374566548
  0
LINE
  5
18D31
330
18C7A
100
AcDbEntity
  8
部品1
100
AcDbLine
 10
1534.470589276487
 20
3154.494269174626
 30
0.0
 11
2769.470589276552
 21
3154.494269174626
 31
0.0
  0
LINE
  5
18D32
330
18C7A
100
AcDbEntity
  8
部品1
 48
50.0
100
AcDbLine
 10
1311.970589276523
 20
1420.494269174462
 30
0.0
 11
3411.970589276523
 21
1420.494269174465
 31
0.0
  0
LINE
  5
18D33
330
18C7A
100
AcDbEntity
  8
部品1
 48
50.0
100
AcDbLine
 10
471.9705892765232
 20
1392.494269174465
 30
0.0
 11
1311.970589276523
 21
1392.494269174465
 31
0.0
  0
DIMENSION
  5
18D34
330
18C7A
100
AcDbEntity
  8
寸法
100
AcDbDimension
  2
*D14
 10
2710.234916278077
 20
2488.887829538828
 30
0.0
 11
2338.318822490183
 21
2488.887829538828
 31
0.0
 12
-3742.925985830444
 22
-6453.628869860112
 32
0.0
 70
   128
 71
     5
 42
1231.00000000007
  3
INABA_S40G
100
AcDbAlignedDimension
 13
1536.470589276486
 23
2702.494269174557
 33
0.0
 14
2767.470589276556
 24
2702.494269174549
 34
0.0
100
AcDbRotatedDimension
1001
ACAD
1000
DSTYLE
1002
{
1002
}
  0
LINE
  5
18D35
330
18C7A
100
AcDbEntity
  8
部品1
100
AcDbLine
 10
1536.470589276487
 20
2702.494269174557
 30
0.0
 11
2767.470589276554
 21
2702.494269174615
 31
0.0
  0
LINE
  5
18D36
330
18C7A
100
AcDbEntity
  8
部品1
100
AcDbLine
 10
1536.470589276487
 20
3152.494269174557
 30
0.0
 11
2767.470589276556
 21
3152.494269174615
 31
0.0
  0
LINE
  5
18D37
330
18C7A
100
AcDbEntity
  8
細線
 48
50.0
100
AcDbLine
 10
1508.470589276487
 20
3152.494269174558
 30
0.0
 11
445.4705892765559
 21
2702.494269174509
 31
0.0
  0
LINE
  5
18D38
330
18C7A
100
AcDbEntity
  8
細線
 48
50.0
100
AcDbLine
 10
1508.470589276487
 20
2702.494269174558
 30
0.0
 11
445.4705892765542
 21
3152.494269174509
 31
0.0
  0
LINE
  5
18D39
330
18C7A
100
AcDbEntity
  8
部品1
100
AcDbLine
 10
1556.970589276487
 20
3172.494269174611
 30
0.0
 11
1556.970589276487
 21
3154.494269174611
 31
0.0
  0
LINE
  5
18D3A
330
18C7A
100
AcDbEntity
  8
部品1
100
AcDbLine
 10
1556.970589276487
 20
3172.494269174611
 30
0.0
 11
1550.970589276487
 21
3172.494269174611
 31
0.0
  0
LINE
  5
18D3B
330
18C7A
100
AcDbEntity
  8
部品1
100
AcDbLine
 10
1534.470589276487
 20
3146.494269174608
 30
0.0
 11
1509.470589276487
 21
3146.494269174611
 31
0.0
  0
LINE
  5
18D3C
330
18C7A
100
AcDbEntity
  8
部品1
100
AcDbLine
 10
1486.970589276487
 20
3172.494269174611
 30
0.0
 11
1486.970589276487
 21
3154.494269174611
 31
0.0
  0
LINE
  5
18D3D
330
18C7A
100
AcDbEntity
  8
部品1
100
AcDbLine
 10
1492.970589276487
 20
3172.494269174611
 30
0.0
 11
1486.970589276487
 21
3172.494269174611
 31
0.0
  0
LINE
  5
18D3E
330
18C7A
100
AcDbEntity
  8
部品1
100
AcDbLine
 10
1534.470589276487
 20
2702.494269174615
 30
0.0
 11
1509.470589276487
 21
2702.494269174615
 31
0.0
  0
LINE
  5
18D3F
330
18C7A
100
AcDbEntity
  8
部品1
 48
50.0
100
AcDbLine
 10
1536.470589276487
 20
3152.494269174611
 30
0.0
 11
1536.470589276487
 21
2702.494269174615
 31
0.0
  0
LINE
  5
18D40
330
18C7A
100
AcDbEntity
  8
部品1
 48
50.0
100
AcDbLine
 10
1508.470589276487
 20
3152.494269174607
 30
0.0
 11
1508.470589276487
 21
2702.494269174615
 31
0.0
  0
LINE
  5
18D41
330
18C7A
100
AcDbEntity
  8
部品1
 48
50.0
100
AcDbLine
 10
1534.470589276487
 20
3154.494269174618
 30
0.0
 11
1534.470589276487
 21
2702.494269174615
 31
0.0
  0
LINE
  5
18D42
330
18C7A
100
AcDbEntity
  8
部品1
 48
50.0
100
AcDbLine
 10
1509.470589276487
 20
3154.494269174615
 30
0.0
 11
1509.470589276487
 21
2702.494269174615
 31
0.0
  0
LINE
  5
18D43
330
18C7A
100
AcDbEntity
  8
部品1
100
AcDbLine
 10
3411.970589276556
 20
1392.494269174582
 30
0.0
 11
3411.970589276556
 21
1420.494269174596
 31
0.0
  0
LINE
  5
18D44
330
18C7A
100
AcDbEntity
  8
部品1
100
AcDbLine
 10
1311.970589276523
 20
1392.494269174596
 30
0.0
 11
1311.970589276523
 21
1420.494269174596
 31
0.0
  0
LINE
  5
18D45
330
18C7A
100
AcDbEntity
  8
部品1
100
AcDbLine
 10
891.9705892765232
 20
1392.494269174596
 30
0.0
 11
891.9705892765232
 21
1420.494269174596
 31
0.0
  0
LINE
  5
18D46
330
18C7A
100
AcDbEntity
  8
部品1
100
AcDbLine
 10
3411.97058927652
 20
3182.494269174477
 30
0.0
 11
3411.970589276523
 21
3154.494269174477
 31
0.0
  0
LINE
  5
18D47
330
18C7A
100
AcDbEntity
  8
部品1
100
AcDbLine
 10
2571.97058927652
 20
3182.494269174477
 30
0.0
 11
2571.970589276523
 21
3154.494269174477
 31
0.0
  0
LINE
  5
18D48
330
18C7A
100
AcDbEntity
  8
部品1
100
AcDbLine
 10
2991.97058927652
 20
3182.494269174477
 30
0.0
 11
2991.970589276523
 21
3154.494269174477
 31
0.0
  0
LINE
  5
18D49
330
18C7A
100
AcDbEntity
  8
部品1
100
AcDbLine
 10
2151.970589276519
 20
3182.494269174477
 30
0.0
 11
2151.970589276523
 21
3154.494269174477
 31
0.0
  0
LINE
  5
18D4A
330
18C7A
100
AcDbEntity
  8
部品1
100
AcDbLine
 10
1731.970589276519
 20
3182.494269174477
 30
0.0
 11
1731.970589276523
 21
3154.494269174477
 31
0.0
  0
LINE
  5
18D4B
330
18C7A
100
AcDbEntity
  8
部品1
100
AcDbLine
 10
1311.970589276519
 20
3182.494269174477
 30
0.0
 11
1311.970589276523
 21
3154.494269174477
 31
0.0
  0
LINE
  5
18D4C
330
18C7A
100
AcDbEntity
  8
部品1
100
AcDbLine
 10
891.9705892765195
 20
3182.494269174477
 30
0.0
 11
891.9705892765232
 21
3154.494269174477
 31
0.0
  0
LINE
  5
18D4D
330
18C7A
100
AcDbEntity
  8
部品1
100
AcDbLine
 10
471.9705892765232
 20
1392.494269174596
 30
0.0
 11
471.9705892765232
 21
1420.494269174596
 31
0.0
  0
LINE
  5
18D4E
330
18C7A
100
AcDbEntity
  8
部品1
100
AcDbLine
 10
444.9705892765305
 20
1420.494269174558
 30
0.0
 11
3858.970589276556
 21
1420.494269174596
 31
0.0
  0
LINE
  5
18D4F
330
18C7A
100
AcDbEntity
  8
部品1
100
AcDbLine
 10
3831.970589276556
 20
1392.494269174596
 30
0.0
 11
3831.970589276556
 21
1420.494269174596
 31
0.0
  0
LINE
  5
18D50
330
18C7A
100
AcDbEntity
  8
部品1
100
AcDbLine
 10
3858.970589276556
 20
1447.494269174593
 30
0.0
 11
3886.970589276556
 21
1447.494269174593
 31
0.0
  0
LINE
  5
18D51
330
18C7A
100
AcDbEntity
  8
部品1
100
AcDbLine
 10
3858.970589276556
 20
1867.494269174607
 30
0.0
 11
3886.970589276556
 21
1867.494269174607
 31
0.0
  0
LINE
  5
18D52
330
18C7A
100
AcDbEntity
  8
部品1
100
AcDbLine
 10
444.9705892765305
 20
1867.49426917448
 30
0.0
 11
416.9705892765305
 21
1867.49426917448
 31
0.0
  0
LINE
  5
18D53
330
18C7A
100
AcDbEntity
  8
部品1
100
AcDbLine
 10
3830.470589276541
 20
1867.49426917458
 30
0.0
 11
473.4705892765396
 21
1867.49426917448
 31
0.0
  0
LINE
  5
18D54
330
18C7A
100
AcDbEntity
  8
部品1
100
AcDbLine
 10
3830.470589276541
 20
2287.49426917458
 30
0.0
 11
473.4705892765396
 21
2287.49426917448
 31
0.0
  0
LINE
  5
18D55
330
18C7A
100
AcDbEntity
  8
部品1
100
AcDbLine
 10
444.9705892765305
 20
2287.49426917448
 30
0.0
 11
416.9705892765305
 21
2287.49426917448
 31
0.0
  0
LINE
  5
18D56
330
18C7A
100
AcDbEntity
  8
部品1
100
AcDbLine
 10
3858.970589276556
 20
2287.494269174608
 30
0.0
 11
3886.970589276556
 21
2287.494269174608
 31
0.0
  0
LINE
  5
18D57
330
18C7A
100
AcDbEntity
  8
部品1
 48
50.0
100
AcDbLine
 10
2151.970589276551
 20
2702.494269174586
 30
0.0
 11
2151.970589276581
 21
1448.994269174494
 31
0.0
  0
LINE
  5
18D58
330
18C7A
100
AcDbEntity
  8
破線
 48
10.0
100
AcDbLine
 10
2959.470589276535
 20
1472.494269174522
 30
0.0
 11
2176.970589276532
 21
1472.494269174505
 31
0.0
  0
LINE
  5
18D59
330
18C7A
100
AcDbEntity
  8
破線
 48
10.0
100
AcDbLine
 10
3009.47058927653
 20
1448.994269174509
 30
0.0
 11
3009.47058927653
 21
2702.494269174615
 31
0.0
  0
LINE
  5
18D5A
330
18C7A
100
AcDbEntity
  8
破線
 48
10.0
100
AcDbLine
 10
2959.470589276535
 20
1448.994269174505
 30
0.0
 11
2959.470589276531
 21
2702.494269174615
 31
0.0
  0
LINE
  5
18D5B
330
18C7A
100
AcDbEntity
  8
破線
 48
10.0
100
AcDbLine
 10
1344.47058927653
 20
1448.994269174509
 30
0.0
 11
1344.47058927653
 21
2702.494269174615
 31
0.0
  0
LINE
  5
18D5C
330
18C7A
100
AcDbEntity
  8
破線
 48
10.0
100
AcDbLine
 10
1294.470589276534
 20
1448.994269174505
 30
0.0
 11
1294.47058927653
 21
2702.494269174615
 31
0.0
  0
DIMENSION
  5
18D5D
330
18C7A
100
AcDbEntity
  8
寸法
100
AcDbDimension
  2
*D13
 10
1451.234916278005
 20
2488.887829538828
 30
0.0
 11
916.0604668248634
 21
2488.887829538828
 31
0.0
 12
-3742.925985830444
 22
-6453.628869860112
 32
0.0
 70
   128
 71
     5
 42
1062.99999999993
  3
INABA_S40G
100
AcDbAlignedDimension
 13
445.4705892765559
 23
2702.494269174505
 33
0.0
 14
1508.470589276486
 24
2702.494269174558
 34
0.0
100
AcDbRotatedDimension
1001
ACAD
1000
DSTYLE
1002
{
1002
}
  0
LINE
  5
18D5E
330
18C7A
100
AcDbEntity
  8
破線
 48
10.0
100
AcDbLine
 10
1294.470589276534
 20
1472.494269174469
 30
0.0
 11
496.9705892765414
 21
1472.494269174476
 31
0.0
  0
LINE
  5
18D5F
330
18C7A
100
AcDbEntity
  8
部品1
100
AcDbLine
 10
3831.970589276556
 20
3182.494269174604
 30
0.0
 11
3831.970589276556
 21
3154.494269174604
 31
0.0
  0
LINE
  5
18D60
330
18C7A
100
AcDbEntity
  8
部品1
100
AcDbLine
 10
3831.970589276556
 20
3182.494269174626
 30
0.0
 11
3831.970589276556
 21
3154.494269174626
 31
0.0
  0
LINE
  5
18D61
330
18C7A
100
AcDbEntity
  8
部品1
100
AcDbLine
 10
3858.970589276556
 20
3127.494269174607
 30
0.0
 11
3886.970589276556
 21
3127.494269174607
 31
0.0
  0
LINE
  5
18D62
330
18C7A
100
AcDbEntity
  8
部品1
100
AcDbLine
 10
3858.970589276556
 20
2707.494269174608
 30
0.0
 11
3886.970589276556
 21
2707.494269174608
 31
0.0
  0
LINE
  5
18D63
330
18C7A
100
AcDbEntity
  8
部品1
100
AcDbLine
 10
3858.470589276556
 20
3152.494269174604
 30
0.0
 11
3858.470589276556
 21
2702.494269174608
 31
0.0
  0
LINE
  5
18D64
330
18C7A
100
AcDbEntity
  8
部品1
100
AcDbLine
 10
3886.970589276533
 20
1447.494269174593
 30
0.0
 11
3886.970589276531
 21
1392.494269174596
 31
0.0
  0
LINE
  5
18D65
330
18C7A
100
AcDbEntity
  8
部品1
 48
50.0
100
AcDbLine
 10
3830.470589276556
 20
1448.994269174596
 30
0.0
 11
3858.970589276554
 21
1420.494269174596
 31
0.0
  0
LINE
  5
18D66
330
18C7A
100
AcDbEntity
  8
部品1
100
AcDbLine
 10
3886.970589276531
 20
1392.494269174596
 30
0.0
 11
3835.970589276531
 21
1392.494269174596
 31
0.0
  0
LINE
  5
18D67
330
18C7A
100
AcDbEntity
  8
部品1
100
AcDbLine
 10
3858.970589276533
 20
1447.494269174593
 30
0.0
 11
3886.970589276531
 21
1447.494269174593
 31
0.0
  0
LINE
  5
18D68
330
18C7A
100
AcDbEntity
  8
部品1
100
AcDbLine
 10
3886.970589276556
 20
3182.494269174604
 30
0.0
 11
3886.970589276531
 21
1392.494269174596
 31
0.0
  0
DIMENSION
  5
18D69
330
18C7A
100
AcDbEntity
  8
寸法
100
AcDbDimension
  2
*D12
 10
4534.396935010967
 20
1447.494269174593
 30
0.0
 11
4534.396935010965
 21
2287.4942691746
 31
0.0
 12
-3742.925985830444
 22
-6453.628869860112
 32
0.0
 70
   128
  1
4X420=<>
 71
     5
 42
1680.000000000014
  3
INABA_S40G
100
AcDbAlignedDimension
 13
3886.970589276556
 23
3127.494269174607
 33
0.0
 14
3886.970589276531
 24
1447.494269174593
 34
0.0
 50
90.0
100
AcDbRotatedDimension
1001
ACAD
1000
DSTYLE
1002
{
1002
}
  0
LINE
  5
18D6A
330
18C7A
100
AcDbEntity
  8
部品1
100
AcDbLine
 10
3858.970589276556
 20
3154.494269174604
 30
0.0
 11
3858.970589276534
 21
1420.494269174596
 31
0.0
  0
DIMENSION
  5
18D6B
330
18C7A
100
AcDbEntity
  8
寸法
100
AcDbDimension
  2
*D11
 10
4213.82831513858
 20
2607.276453505718
 30
0.0
 11
4113.828315138579
 21
2832.276453505718
 31
0.0
 12
-3742.925985830444
 22
-6453.628869860112
 32
0.0
 71
     5
 42
449.9999999999963
  3
INABA_S40G
100
AcDbAlignedDimension
 13
3858.470589276556
 23
3152.494269174604
 33
0.0
 14
3858.470589276556
 24
2702.494269174608
 34
0.0
 50
90.0
100
AcDbRotatedDimension
1001
ACAD
1000
DSTYLE
1002
{
1002
}
  0
LINE
  5
18D6C
330
18C7A
100
AcDbEntity
  8
部品1
100
AcDbLine
 10
3830.470589276547
 20
2702.494269174608
 30
0.0
 11
3830.470589276556
 21
1448.994269174596
 31
0.0
  0
LINE
  5
18D6D
330
18C7A
100
AcDbEntity
  8
破線
 48
10.0
100
AcDbLine
 10
3806.970589276549
 20
2702.494269174608
 30
0.0
 11
3806.970589276558
 21
1472.494269174593
 31
0.0
  0
LINE
  5
18D6E
330
18C7A
100
AcDbEntity
  8
部品1
100
AcDbLine
 10
2769.470589276556
 20
3146.494269174608
 30
0.0
 11
2794.470589276556
 21
3146.494269174611
 31
0.0
  0
LINE
  5
18D6F
330
18C7A
100
AcDbEntity
  8
部品1
100
AcDbLine
 10
2810.970589276556
 20
3172.494269174611
 30
0.0
 11
2816.970589276556
 21
3172.494269174611
 31
0.0
  0
LINE
  5
18D70
330
18C7A
100
AcDbEntity
  8
部品1
100
AcDbLine
 10
2816.970589276556
 20
3172.494269174611
 30
0.0
 11
2816.970589276556
 21
3154.494269174611
 31
0.0
  0
LINE
  5
18D71
330
18C7A
100
AcDbEntity
  8
部品1
100
AcDbLine
 10
2746.970589276556
 20
3172.494269174611
 30
0.0
 11
2752.970589276556
 21
3172.494269174611
 31
0.0
  0
LINE
  5
18D72
330
18C7A
100
AcDbEntity
  8
部品1
100
AcDbLine
 10
2746.970589276556
 20
3172.494269174611
 30
0.0
 11
2746.970589276556
 21
3154.494269174611
 31
0.0
  0
LINE
  5
18D73
330
18C7A
100
AcDbEntity
  8
部品1
100
AcDbLine
 10
2769.470589276556
 20
2702.494269174615
 30
0.0
 11
2794.470589276556
 21
2702.494269174615
 31
0.0
  0
LINE
  5
18D74
330
18C7A
100
AcDbEntity
  8
部品1
 48
50.0
100
AcDbLine
 10
2794.470589276556
 20
3154.494269174615
 30
0.0
 11
2794.470589276556
 21
2702.494269174615
 31
0.0
  0
LINE
  5
18D75
330
18C7A
100
AcDbEntity
  8
部品1
 48
50.0
100
AcDbLine
 10
2769.470589276554
 20
3154.494269174618
 30
0.0
 11
2769.470589276556
 21
2702.494269174615
 31
0.0
  0
LINE
  5
18D76
330
18C7A
100
AcDbEntity
  8
部品1
 48
50.0
100
AcDbLine
 10
2795.470589276556
 20
3152.494269174607
 30
0.0
 11
2795.470589276556
 21
2702.494269174615
 31
0.0
  0
LINE
  5
18D77
330
18C7A
100
AcDbEntity
  8
部品1
 48
50.0
100
AcDbLine
 10
2767.470589276556
 20
3152.494269174611
 30
0.0
 11
2767.470589276556
 21
2702.494269174615
 31
0.0
  0
LINE
  5
18D78
330
18C7A
100
AcDbEntity
  8
破線
 48
10.0
100
AcDbLine
 10
2176.97058927653
 20
1448.994269174509
 30
0.0
 11
2176.97058927653
 21
2702.494269174588
 31
0.0
  0
LINE
  5
18D79
330
18C7A
100
AcDbEntity
  8
破線
 48
10.0
100
AcDbLine
 10
2126.970589276534
 20
1448.994269174505
 30
0.0
 11
2126.970589276531
 21
2702.494269174586
 31
0.0
  0
LINE
  5
18D7A
330
18C7A
100
AcDbEntity
  8
部品1
100
AcDbLine
 10
2794.470589276556
 20
3154.494269174622
 30
0.0
 11
3858.970589276556
 21
3154.494269174604
 31
0.0
  0
LINE
  5
18D7B
330
18C7A
100
AcDbEntity
  8
細線
 48
50.0
100
AcDbLine
 10
3858.470589276556
 20
2702.494269174608
 30
0.0
 11
2795.470589276556
 21
3152.494269174607
 31
0.0
  0
LINE
  5
18D7C
330
18C7A
100
AcDbEntity
  8
部品1
100
AcDbLine
 10
2795.470589276555
 20
2702.494269174615
 30
0.0
 11
3858.470589276556
 21
2702.494269174608
 31
0.0
  0
LINE
  5
18D7D
330
18C7A
100
AcDbEntity
  8
部品1
100
AcDbLine
 10
2795.470589276556
 20
3152.494269174611
 30
0.0
 11
3858.470589276556
 21
3152.494269174604
 31
0.0
  0
LINE
  5
18D7E
330
18C7A
100
AcDbEntity
  8
細線
 48
50.0
100
AcDbLine
 10
3858.470589276556
 20
3152.494269174604
 30
0.0
 11
2795.470589276555
 21
2702.494269174615
 31
0.0
  0
DIMENSION
  5
18D7F
330
18C7A
100
AcDbEntity
  8
寸法
100
AcDbDimension
  2
*D10
 10
3801.234916278101
 20
2488.887829538937
 30
0.0
 11
3318.360544398907
 21
2488.887829538937
 31
0.0
 12
-3742.925985830444
 22
-6453.628869860112
 32
0.0
 70
   128
 71
     5
 42
1063.000000000012
  3
INABA_S40G
100
AcDbAlignedDimension
 13
2795.470589276555
 23
2702.494269174615
 33
0.0
 14
3858.470589276567
 24
2702.494269174608
 34
0.0
100
AcDbRotatedDimension
1001
ACAD
1000
DSTYLE
1002
{
1002
}
  0
LINE
  5
18D80
330
18C7A
100
AcDbEntity
  8
破線
 48
10.0
100
AcDbLine
 10
3806.970589276556
 20
1472.494269174594
 30
0.0
 11
3009.47058927653
 21
1472.494269174523
 31
0.0
  0
DIMENSION
  5
18D81
330
18C7A
100
AcDbEntity
  8
寸法
100
AcDbDimension
  2
*D9
 10
4534.396935010941
 20
1392.494269174596
 30
0.0
 11
4534.39693501094
 21
1084.008987800356
 31
0.0
 12
-3742.925985830444
 22
-6453.628869860112
 32
0.0
 70
   128
 71
     5
 42
54.99999999999636
  3
INABA_S40G
100
AcDbAlignedDimension
 13
3886.970589276531
 23
1447.494269174593
 33
0.0
 14
3886.970589276531
 24
1392.494269174596
 34
0.0
 50
90.0
100
AcDbRotatedDimension
1001
ACAD
1000
DSTYLE
1002
{
1002
}
  0
LINE
  5
18D82
330
18C7A
100
AcDbEntity
  8
部品1
100
AcDbLine
 10
471.9705892765196
 20
3182.494269174477
 30
0.0
 11
471.9705892765232
 21
3154.494269174477
 31
0.0
  0
LINE
  5
18D83
330
18C7A
100
AcDbEntity
  8
部品1
100
AcDbLine
 10
471.9705892765559
 20
3182.494269174509
 30
0.0
 11
471.9705892765559
 21
3154.494269174509
 31
0.0
  0
LINE
  5
18D84
330
18C7A
100
AcDbEntity
  8
部品1
100
AcDbLine
 10
444.9705892765232
 20
3127.49426917448
 30
0.0
 11
416.9705892765232
 21
3127.49426917448
 31
0.0
  0
LINE
  5
18D85
330
18C7A
100
AcDbEntity
  8
部品1
100
AcDbLine
 10
444.9705892765305
 20
2707.49426917448
 30
0.0
 11
416.9705892765305
 21
2707.49426917448
 31
0.0
  0
LINE
  5
18D86
330
18C7A
100
AcDbEntity
  8
部品1
 48
50.0
100
AcDbLine
 10
445.4705892765542
 20
3152.494269174506
 30
0.0
 11
445.4705892765559
 21
2702.494269174505
 31
0.0
  0
LINE
  5
18D87
330
18C7A
100
AcDbEntity
  8
部品1
 48
50.0
100
AcDbLine
 10
473.470589276545
 20
1448.994269174573
 30
0.0
 11
444.970589276545
 21
1420.494269174574
 31
0.0
  0
LINE
  5
18D88
330
18C7A
100
AcDbEntity
  8
部品1
100
AcDbLine
 10
471.9705892765232
 20
1392.494269174465
 30
0.0
 11
416.9705892765486
 21
1392.494269174465
 31
0.0
  0
LINE
  5
18D89
330
18C7A
100
AcDbEntity
  8
部品1
100
AcDbLine
 10
444.9705892765305
 20
1447.494269174429
 30
0.0
 11
416.9705892765469
 21
1447.494269174429
 31
0.0
  0
LINE
  5
18D8A
330
18C7A
100
AcDbEntity
  8
部品1
100
AcDbLine
 10
444.9705892765305
 20
1447.494269174465
 30
0.0
 11
416.9705892765469
 21
1447.494269174465
 31
0.0
  0
LINE
  5
18D8B
330
18C7A
100
AcDbEntity
  8
部品1
100
AcDbLine
 10
444.9705892765469
 20
1447.49426917448
 30
0.0
 11
416.9705892765469
 21
1447.49426917448
 31
0.0
  0
LINE
  5
18D8C
330
18C7A
100
AcDbEntity
  8
部品1
100
AcDbLine
 10
416.9705892765469
 20
1447.494269174429
 30
0.0
 11
416.9705892765486
 21
1392.494269174433
 31
0.0
  0
LINE
  5
18D8D
330
18C7A
100
AcDbEntity
  8
部品1
100
AcDbLine
 10
416.9705892765196
 20
3182.494269174477
 30
0.0
 11
416.9705892765486
 21
1392.494269174465
 31
0.0
  0
LINE
  5
18D8E
330
18C7A
100
AcDbEntity
  8
部品1
100
AcDbLine
 10
444.9705892765305
 20
1420.494269174556
 30
0.0
 11
444.9705892765559
 21
3154.494269174509
 31
0.0
  0
LINE
  5
18D8F
330
18C7A
100
AcDbEntity
  8
部品1
100
AcDbLine
 10
473.4705892765323
 20
2702.494269174608
 30
0.0
 11
473.470589276545
 21
1448.994269174571
 31
0.0
  0
LINE
  5
18D90
330
18C7A
100
AcDbEntity
  8
破線
 48
10.0
100
AcDbLine
 10
496.9705892765305
 20
2702.494269174608
 30
0.0
 11
496.9705892765451
 21
1472.494269174476
 31
0.0
  0
DIMENSION
  5
18D91
330
18C7A
100
AcDbEntity
  8
寸法
100
AcDbDimension
  2
*D8
 10
3886.970589276531
 20
410.7433333855515
 30
0.0
 11
2168.197775309287
 21
410.7433333855515
 31
0.0
 12
-3742.925985830444
 22
-6453.628869860112
 32
0.0
 70
   128
 71
     5
 42
3469.999999999982
  3
INABA_S40G
100
AcDbAlignedDimension
 13
416.9705892765486
 23
1392.494269174433
 33
0.0
 14
3886.970589276531
 24
1392.49426917456
 34
0.0
100
AcDbRotatedDimension
1001
ACAD
1000
DSTYLE
1002
{
1070
   341
1005
0
1002
}
  0
LINE
  5
18D92
330
18C7A
100
AcDbEntity
  8
部品1
100
AcDbLine
 10
444.9705892765559
 20
3154.494269174624
 30
0.0
 11
1509.470589276487
 21
3154.494269174626
 31
0.0
  0
LINE
  5
18D93
330
18C7A
100
AcDbEntity
  8
部品1
100
AcDbLine
 10
3886.970589276531
 20
1392.494269174596
 30
0.0
 11
3411.970589276556
 21
1392.494269174582
 31
0.0
  0
LINE
  5
18D94
330
18C7A
100
AcDbEntity
  8
部品1
100
AcDbLine
 10
416.9705892765559
 20
3182.494269174509
 30
0.0
 11
3886.970589276556
 21
3182.494269174604
 31
0.0
  0
LINE
  5
18D95
330
18C7A
100
AcDbEntity
  8
部品1
100
AcDbLine
 10
445.4705892765559
 20
2702.494269174509
 30
0.0
 11
1508.470589276487
 21
2702.494269174558
 31
0.0
  0
LINE
  5
18D96
330
18C7A
100
AcDbEntity
  8
細線
 48
50.0
100
AcDbLine
 10
2767.470589276556
 20
3152.494269174611
 30
0.0
 11
1536.470589276487
 21
2702.494269174558
 31
0.0
  0
LINE
  5
18D97
330
18C7A
100
AcDbEntity
  8
部品1
100
AcDbLine
 10
445.4705892765542
 20
3152.494269174509
 30
0.0
 11
1508.470589276485
 21
3152.494269174558
 31
0.0
  0
LINE
  5
18D98
330
18C7A
100
AcDbEntity
  8
細線
 48
50.0
100
AcDbLine
 10
2767.470589276554
 20
2702.494269174615
 30
0.0
 11
1536.470589276485
 21
3152.494269174558
 31
0.0
  0
LINE
  5
18D99
330
18C7A
100
AcDbEntity
  8
破線
 48
10.0
100
AcDbLine
 10
2126.970589276534
 20
1472.494269174502
 30
0.0
 11
1344.47058927653
 21
1472.494269174473
 31
0.0
  0
LINE
  5
18D9A
330
18C7A
100
AcDbEntity
  8
部品1
100
AcDbLine
 10
3830.470589276556
 20
1448.994269174596
 30
0.0
 11
473.4705892764487
 21
1448.994269174476
 31
0.0
  0
DIMENSION
  5
18D9B
330
18C7A
100
AcDbEntity
  8
寸法
100
AcDbDimension
  2
*D7
 10
471.970589276555
 20
3698.302488799491
 30
0.0
 11
108.4853079022819
 21
3698.302488799491
 31
0.0
 12
-3742.925985830444
 22
-6453.628869860112
 32
0.0
 70
   128
 71
     5
 42
55.00000000003456
  3
INABA_S40G
100
AcDbAlignedDimension
 13
416.9705892765205
 23
3182.494269174509
 33
0.0
 14
471.970589276555
 24
3182.494269174509
 34
0.0
100
AcDbRotatedDimension
1001
ACAD
1000
DSTYLE
1002
{
1002
}
  0
DIMENSION
  5
18D9C
330
18C7A
100
AcDbEntity
  8
寸法
100
AcDbDimension
  2
*D6
 10
4534.396935010967
 20
3127.494269174607
 30
0.0
 11
4534.396935010965
 21
3490.979550548844
 31
0.0
 12
-3742.925985830444
 22
-6453.628869860112
 32
0.0
 70
   128
 71
     5
 42
54.99999999999636
  3
INABA_S40G
100
AcDbAlignedDimension
 13
3886.970589276556
 23
3182.494269174604
 33
0.0
 14
3886.970589276556
 24
3127.494269174607
 34
0.0
 50
90.0
100
AcDbRotatedDimension
1001
ACAD
1000
DSTYLE
1002
{
1002
}
  0
DIMENSION
  5
18D9D
330
18C7A
100
AcDbEntity
  8
寸法
100
AcDbDimension
  2
*D5
 10
3886.970589276556
 20
3698.302488799589
 30
0.0
 11
4195.455870650794
 21
3698.302488799589
 31
0.0
 12
-3742.925985830444
 22
-6453.628869860112
 32
0.0
 70
   128
 71
     5
 42
55.0
  3
INABA_S40G
100
AcDbAlignedDimension
 13
3831.970589276556
 23
3182.494269174604
 33
0.0
 14
3886.970589276556
 24
3182.494269174604
 34
0.0
100
AcDbRotatedDimension
1001
ACAD
1000
DSTYLE
1002
{
1002
}
  0
DIMENSION
  5
18D9E
330
18C7A
100
AcDbEntity
  8
寸法
100
AcDbDimension
  2
*D4
 10
3831.970589276556
 20
3698.302488799607
 30
0.0
 11
2151.970589276555
 21
3698.302488799607
 31
0.0
 12
-3742.925985830444
 22
-6453.628869860112
 32
0.0
 70
   128
  1
8X420=<>
 71
     5
 42
3360.000000000001
  3
INABA_S40G
100
AcDbAlignedDimension
 13
471.970589276555
 23
3182.494269174509
 33
0.0
 14
3831.970589276556
 24
3182.494269174604
 34
0.0
100
AcDbRotatedDimension
1001
ACAD
1000
DSTYLE
1002
{
1002
}
  0
DIMENSION
  5
18D9F
330
18C7A
100
AcDbEntity
  8
寸法
100
AcDbDimension
  2
*D3
 10
4899.503876750603
 20
1392.494269174596
 30
0.0
 11
4899.503876750601
 21
2287.4942691746
 31
0.0
 12
-3742.925985830444
 22
-6453.628869860112
 32
0.0
 70
   128
 71
     5
 42
1790.000000000007
  3
INABA_S40G
100
AcDbAlignedDimension
 13
3886.970589276556
 23
3182.494269174604
 33
0.0
 14
3886.970589276531
 24
1392.494269174596
 34
0.0
 50
90.0
100
AcDbRotatedDimension
1001
ACAD
1000
DSTYLE
1002
{
1002
}
  0
ENDBLK
  5
18DA1
330
18C7A
100
AcDbEntity
  8
0
 48
50.0
100
AcDbBlockEnd
  0
BLOCK
  5
1C4CB
330
1C4CA
100
AcDbEntity
  8
0
 48
50.0
100
AcDbBlockBegin
  2
_NONE
 70
     0
 10
0.0
 20
0.0
 30
0.0
  3
_NONE
  1

  0
CIRCLE
  5
1C4CC
330
1C4CA
100
AcDbEntity
  8
0
  6
ByBlock
 62
     0
 48
50.0
100
AcDbCircle
 10
0.0
 20
0.0
 30
0.0
 40
0.25
  0
ENDBLK
  5
1C4CD
330
1C4CA
100
AcDbEntity
  8
0
 48
50.0
100
AcDbBlockEnd
  0
BLOCK
  5
256AC
330
256A2
100
AcDbEntity
  8
0
 48
50.0
100
AcDbBlockBegin
  2
*D19
 70
     1
 10
0.0
 20
0.0
 30
0.0
  3
*D19
  1

  0
LINE
  5
25D9F
330
256A2
100
AcDbEntity
  8
寸法
 62
     0
 48
50.0
370
    -2
100
AcDbLine
 10
8950.599999999999
 20
7456.907777930204
 30
0.0
 11
8950.599999999999
 21
8798.817543578532
 31
0.0
  0
LINE
  5
25DA0
330
256A2
100
AcDbEntity
  8
寸法
 62
     0
 48
50.0
370
    -2
100
AcDbLine
 10
8223.600000000001
 20
7456.907777930204
 30
0.0
 11
8223.600000000001
 21
8798.817543578532
 31
0.0
  0
LINE
  5
25DA1
330
256A2
100
AcDbEntity
  8
寸法
 62
     0
 48
50.0
370
    -2
100
AcDbLine
 10
8950.599999999999
 20
8738.817543578532
 30
0.0
 11
8223.600000000001
 21
8738.817543578532
 31
0.0
  0
INSERT
  5
25DA2
330
256A2
100
AcDbEntity
  8
寸法
 62
     0
 48
50.0
370
    -2
100
AcDbBlockReference
  2
_DOTSMALL
 10
8950.599999999999
 20
8738.817543578532
 30
0.0
 41
100.0
 42
100.0
 43
100.0
  0
INSERT
  5
25DA3
330
256A2
100
AcDbEntity
  8
寸法
 62
     0
 48
50.0
370
    -2
100
AcDbBlockReference
  2
_DOTSMALL
 10
8223.600000000001
 20
8738.817543578532
 30
0.0
 41
100.0
 42
100.0
 43
100.0
 50
180.0
  0
MTEXT
  5
25DA4
330
256A2
100
AcDbEntity
  8
寸法
 62
     7
 48
50.0
100
AcDbMText
 10
8587.100000000001
 20
8838.829354602154
 30
0.0
 40
120.0
 41
0.0
 71
     5
 72
     1
  1
\A1;727
  7
STYLE1
 73
     1
 44
1.0
1001
ACAD
1000
MTEXTBEGIN
1070
    73
1070
     1
1070
    44
1040
1.0
1070
    74
1070
     0
1000
MTEXTEND
  0
POINT
  5
25DA5
330
256A2
100
AcDbEntity
  8
DEFPOINTS
 62
     0
 48
50.0
100
AcDbPoint
 10
8950.599999999999
 20
7436.907777930205
 30
0.0
  0
POINT
  5
25DA6
330
256A2
100
AcDbEntity
  8
DEFPOINTS
 62
     0
 48
50.0
100
AcDbPoint
 10
8223.600000000001
 20
7436.907777930205
 30
0.0
  0
POINT
  5
25DA7
330
256A2
100
AcDbEntity
  8
DEFPOINTS
 62
     0
 48
50.0
100
AcDbPoint
 10
8223.600000000001
 20
8738.817543578532
 30
0.0
  0
ENDBLK
  5
256AD
330
256A2
100
AcDbEntity
  8
0
 48
50.0
100
AcDbBlockEnd
  0
BLOCK
  5
256B7
330
256AE
100
AcDbEntity
  8
0
 48
50.0
100
AcDbBlockBegin
  2
*D20
 70
     1
 10
0.0
 20
0.0
 30
0.0
  3
*D20
  1

  0
LINE
  5
25E80
330
256AE
100
AcDbEntity
  8
寸法
 62
     0
 48
50.0
370
    -2
100
AcDbLine
 10
6693.6
 20
8231.907777930205
 30
0.0
 11
6693.6
 21
9230.128099989126
 31
0.0
  0
LINE
  5
25E81
330
256AE
100
AcDbEntity
  8
寸法
 62
     0
 48
50.0
370
    -2
100
AcDbLine
 10
9753.6
 20
8231.907777930205
 30
0.0
 11
9753.6
 21
9230.128099989126
 31
0.0
  0
LINE
  5
25E82
330
256AE
100
AcDbEntity
  8
寸法
 62
     0
 48
50.0
370
    -2
100
AcDbLine
 10
6693.6
 20
9170.128099989126
 30
0.0
 11
9753.6
 21
9170.128099989126
 31
0.0
  0
INSERT
  5
25E83
330
256AE
100
AcDbEntity
  8
寸法
 62
     0
 48
50.0
370
    -2
100
AcDbBlockReference
  2
_DOTSMALL
 10
6693.6
 20
9170.128099989126
 30
0.0
 41
100.0
 42
100.0
 43
100.0
 50
180.0
  0
INSERT
  5
25E84
330
256AE
100
AcDbEntity
  8
寸法
 62
     0
 48
50.0
370
    -2
100
AcDbBlockReference
  2
_DOTSMALL
 10
9753.6
 20
9170.128099989126
 30
0.0
 41
100.0
 42
100.0
 43
100.0
  0
MTEXT
  5
25E85
330
256AE
100
AcDbEntity
  8
寸法
 62
     7
 48
50.0
100
AcDbMText
 10
8223.600000000001
 20
9270.128099989127
 30
0.0
 40
120.0
 41
0.0
 71
     5
 72
     1
  1
\A1;3060
  7
STYLE1
 73
     1
 44
1.0
1001
ACAD
1000
MTEXTBEGIN
1070
    73
1070
     1
1070
    44
1040
1.0
1070
    74
1070
     0
1000
MTEXTEND
  0
POINT
  5
25E86
330
256AE
100
AcDbEntity
  8
DEFPOINTS
 62
     0
 48
50.0
100
AcDbPoint
 10
6693.6
 20
8211.907777930205
 30
0.0
  0
POINT
  5
25E87
330
256AE
100
AcDbEntity
  8
DEFPOINTS
 62
     0
 48
50.0
100
AcDbPoint
 10
9753.6
 20
8211.907777930205
 30
0.0
  0
POINT
  5
25E88
330
256AE
100
AcDbEntity
  8
DEFPOINTS
 62
     0
 48
50.0
100
AcDbPoint
 10
9753.6
 20
9170.128099989126
 30
0.0
  0
ENDBLK
  5
256B8
330
256AE
100
AcDbEntity
  8
0
 48
50.0
100
AcDbBlockEnd
  0
BLOCK
  5
256C2
330
256B9
100
AcDbEntity
  8
0
 48
50.0
100
AcDbBlockBegin
  2
*D21
 70
     1
 10
0.0
 20
0.0
 30
0.0
  3
*D21
  1

  0
LINE
  5
25E77
330
256B9
100
AcDbEntity
  8
寸法
 62
     0
 48
50.0
370
    -2
100
AcDbLine
 10
9630.600000000001
 20
8158.907777930204
 30
0.0
 11
9630.600000000001
 21
9017.667404472287
 31
0.0
  0
LINE
  5
25E78
330
256B9
100
AcDbEntity
  8
寸法
 62
     0
 48
50.0
370
    -2
100
AcDbLine
 10
6816.600000000001
 20
8158.907777930204
 30
0.0
 11
6816.600000000001
 21
9017.667404472287
 31
0.0
  0
LINE
  5
25E79
330
256B9
100
AcDbEntity
  8
寸法
 62
     0
 48
50.0
370
    -2
100
AcDbLine
 10
9630.600000000001
 20
8957.667404472287
 30
0.0
 11
6816.600000000001
 21
8957.667404472287
 31
0.0
  0
INSERT
  5
25E7A
330
256B9
100
AcDbEntity
  8
寸法
 62
     0
 48
50.0
370
    -2
100
AcDbBlockReference
  2
_DOTSMALL
 10
9630.600000000001
 20
8957.667404472287
 30
0.0
 41
100.0
 42
100.0
 43
100.0
  0
INSERT
  5
25E7B
330
256B9
100
AcDbEntity
  8
寸法
 62
     0
 48
50.0
370
    -2
100
AcDbBlockReference
  2
_DOTSMALL
 10
6816.600000000001
 20
8957.667404472287
 30
0.0
 41
100.0
 42
100.0
 43
100.0
 50
180.0
  0
MTEXT
  5
25E7C
330
256B9
100
AcDbEntity
  8
寸法
 62
     7
 48
50.0
100
AcDbMText
 10
8223.600000000001
 20
9057.679215495909
 30
0.0
 40
120.0
 41
0.0
 71
     5
 72
     1
  1
\A1;2814
  7
STYLE1
 73
     1
 44
1.0
1001
ACAD
1000
MTEXTBEGIN
1070
    73
1070
     1
1070
    44
1040
1.0
1070
    74
1070
     0
1000
MTEXTEND
  0
POINT
  5
25E7D
330
256B9
100
AcDbEntity
  8
DEFPOINTS
 62
     0
 48
50.0
100
AcDbPoint
 10
9630.600000000001
 20
8138.907777930205
 30
0.0
  0
POINT
  5
25E7E
330
256B9
100
AcDbEntity
  8
DEFPOINTS
 62
     0
 48
50.0
100
AcDbPoint
 10
6816.600000000001
 20
8138.907777930205
 30
0.0
  0
POINT
  5
25E7F
330
256B9
100
AcDbEntity
  8
DEFPOINTS
 62
     0
 48
50.0
100
AcDbPoint
 10
6816.600000000001
 20
8957.667404472287
 30
0.0
  0
ENDBLK
  5
256C3
330
256B9
100
AcDbEntity
  8
0
 48
50.0
100
AcDbBlockEnd
  0
BLOCK
  5
256CF
330
256C4
100
AcDbEntity
  8
0
 48
50.0
100
AcDbBlockBegin
  2
*D22
 70
     1
 10
0.0
 20
0.0
 30
0.0
  3
*D22
  1

  0
LINE
  5
26DC4
330
256C4
100
AcDbEntity
  8
寸法
 62
     0
 48
50.0
370
    -2
100
AcDbLine
 10
6943.6
 20
8091.907777930208
 30
0.0
 11
7200.307249876098
 21
8091.907777930208
 31
0.0
  0
LINE
  5
26DC5
330
256C4
100
AcDbEntity
  8
寸法
 62
     0
 48
50.0
370
    -2
100
AcDbLine
 10
6943.6
 20
7981.9077779302
 30
0.0
 11
7200.307249876098
 21
7981.9077779302
 31
0.0
  0
LINE
  5
26DC6
330
256C4
100
AcDbEntity
  8
寸法
 62
     0
 48
50.0
370
    -2
100
AcDbLine
 10
7140.307249876099
 20
8091.907777930208
 30
0.0
 11
7140.307249876099
 21
7981.9077779302
 31
0.0
  0
LINE
  5
26DC7
330
256C4
100
AcDbEntity
  8
寸法
 62
     0
 48
50.0
370
    -2
100
AcDbLine
 10
7140.307249876099
 20
7981.9077779302
 30
0.0
 11
7140.307249876099
 21
7517.8014787176
 31
0.0
  0
INSERT
  5
26DC8
330
256C4
100
AcDbEntity
  8
寸法
 62
     0
 48
50.0
370
    -2
100
AcDbBlockReference
  2
_DOTSMALL
 10
7140.307249876099
 20
8091.907777930208
 30
0.0
 41
100.0
 42
100.0
 43
100.0
 50
90.0
  0
INSERT
  5
26DC9
330
256C4
100
AcDbEntity
  8
寸法
 62
     0
 48
50.0
370
    -2
100
AcDbBlockReference
  2
_DOTSMALL
 10
7140.307249876099
 20
7981.9077779302
 30
0.0
 41
100.0
 42
100.0
 43
100.0
 50
270.0
  0
MTEXT
  5
26DCA
330
256C4
100
AcDbEntity
  8
寸法
 62
     7
 48
50.0
100
AcDbMText
 10
7040.307249876097
 20
7641.848722812088
 30
0.0
 40
120.0
 41
0.0
 71
     5
 72
     1
  1
\A1;110
  7
STYLE1
 11
0.0000000000000001
 21
1.0
 31
0.0
 73
     1
 44
1.0
1001
ACAD
1000
MTEXTBEGIN
1070
    73
1070
     1
1070
    44
1040
1.0
1070
    74
1070
     0
1000
MTEXTEND
  0
POINT
  5
26DCB
330
256C4
100
AcDbEntity
  8
DEFPOINTS
 62
     0
 48
50.0
100
AcDbPoint
 10
6923.6
 20
8091.907777930208
 30
0.0
  0
POINT
  5
26DCC
330
256C4
100
AcDbEntity
  8
DEFPOINTS
 62
     0
 48
50.0
100
AcDbPoint
 10
6923.6
 20
7981.9077779302
 30
0.0
  0
POINT
  5
26DCD
330
256C4
100
AcDbEntity
  8
DEFPOINTS
 62
     0
 48
50.0
100
AcDbPoint
 10
7140.307249876099
 20
7981.9077779302
 30
0.0
  0
ENDBLK
  5
256D0
330
256C4
100
AcDbEntity
  8
0
 48
50.0
100
AcDbBlockEnd
  0
BLOCK
  5
256DA
330
256D1
100
AcDbEntity
  8
0
 48
50.0
100
AcDbBlockBegin
  2
*D23
 70
     1
 10
0.0
 20
0.0
 30
0.0
  3
*D23
  1

  0
LINE
  5
25E64
330
256D1
100
AcDbEntity
  8
寸法
 62
     0
 48
50.0
370
    -2
100
AcDbLine
 10
7496.6
 20
7456.907777930204
 30
0.0
 11
7496.6
 21
8798.817543578532
 31
0.0
  0
LINE
  5
25E65
330
256D1
100
AcDbEntity
  8
寸法
 62
     0
 48
50.0
370
    -2
100
AcDbLine
 10
6693.6
 20
8231.907777930205
 30
0.0
 11
6693.6
 21
8798.817543578532
 31
0.0
  0
LINE
  5
25E66
330
256D1
100
AcDbEntity
  8
寸法
 62
     0
 48
50.0
370
    -2
100
AcDbLine
 10
7496.6
 20
8738.817543578532
 30
0.0
 11
6693.6
 21
8738.817543578532
 31
0.0
  0
INSERT
  5
25E67
330
256D1
100
AcDbEntity
  8
寸法
 62
     0
 48
50.0
370
    -2
100
AcDbBlockReference
  2
_DOTSMALL
 10
7496.6
 20
8738.817543578532
 30
0.0
 41
100.0
 42
100.0
 43
100.0
  0
INSERT
  5
25E68
330
256D1
100
AcDbEntity
  8
寸法
 62
     0
 48
50.0
370
    -2
100
AcDbBlockReference
  2
_DOTSMALL
 10
6693.6
 20
8738.817543578532
 30
0.0
 41
100.0
 42
100.0
 43
100.0
 50
180.0
  0
MTEXT
  5
25E69
330
256D1
100
AcDbEntity
  8
寸法
 62
     7
 48
50.0
100
AcDbMText
 10
7095.100000000001
 20
8838.817543578533
 30
0.0
 40
120.0
 41
0.0
 71
     5
 72
     1
  1
\A1;803
  7
STYLE1
 73
     1
 44
1.0
1001
ACAD
1000
MTEXTBEGIN
1070
    73
1070
     1
1070
    44
1040
1.0
1070
    74
1070
     0
1000
MTEXTEND
  0
POINT
  5
25E6A
330
256D1
100
AcDbEntity
  8
DEFPOINTS
 62
     0
 48
50.0
100
AcDbPoint
 10
7496.6
 20
7436.907777930205
 30
0.0
  0
POINT
  5
25E6B
330
256D1
100
AcDbEntity
  8
DEFPOINTS
 62
     0
 48
50.0
100
AcDbPoint
 10
6693.6
 20
8211.907777930205
 30
0.0
  0
POINT
  5
25E6C
330
256D1
100
AcDbEntity
  8
DEFPOINTS
 62
     0
 48
50.0
100
AcDbPoint
 10
6693.6
 20
8738.817543578532
 30
0.0
  0
ENDBLK
  5
256DB
330
256D1
100
AcDbEntity
  8
0
 48
50.0
100
AcDbBlockEnd
  0
BLOCK
  5
256E6
330
256DC
100
AcDbEntity
  8
0
 48
50.0
100
AcDbBlockBegin
  2
*D24
 70
     1
 10
0.0
 20
0.0
 30
0.0
  3
*D24
  1

  0
LINE
  5
25E5B
330
256DC
100
AcDbEntity
  8
寸法
 62
     0
 48
50.0
370
    -2
100
AcDbLine
 10
8223.600000000001
 20
7456.907777930204
 30
0.0
 11
8223.600000000001
 21
8798.817543578532
 31
0.0
  0
LINE
  5
25E5C
330
256DC
100
AcDbEntity
  8
寸法
 62
     0
 48
50.0
370
    -2
100
AcDbLine
 10
7496.6
 20
7456.907777930204
 30
0.0
 11
7496.6
 21
8798.817543578532
 31
0.0
  0
LINE
  5
25E5D
330
256DC
100
AcDbEntity
  8
寸法
 62
     0
 48
50.0
370
    -2
100
AcDbLine
 10
8223.600000000001
 20
8738.817543578532
 30
0.0
 11
7496.6
 21
8738.817543578532
 31
0.0
  0
INSERT
  5
25E5E
330
256DC
100
AcDbEntity
  8
寸法
 62
     0
 48
50.0
370
    -2
100
AcDbBlockReference
  2
_DOTSMALL
 10
8223.600000000001
 20
8738.817543578532
 30
0.0
 41
100.0
 42
100.0
 43
100.0
  0
INSERT
  5
25E5F
330
256DC
100
AcDbEntity
  8
寸法
 62
     0
 48
50.0
370
    -2
100
AcDbBlockReference
  2
_DOTSMALL
 10
7496.6
 20
8738.817543578532
 30
0.0
 41
100.0
 42
100.0
 43
100.0
 50
180.0
  0
MTEXT
  5
25E60
330
256DC
100
AcDbEntity
  8
寸法
 62
     7
 48
50.0
100
AcDbMText
 10
7860.1
 20
8838.829354602154
 30
0.0
 40
120.0
 41
0.0
 71
     5
 72
     1
  1
\A1;727
  7
STYLE1
 73
     1
 44
1.0
1001
ACAD
1000
MTEXTBEGIN
1070
    73
1070
     1
1070
    44
1040
1.0
1070
    74
1070
     0
1000
MTEXTEND
  0
POINT
  5
25E61
330
256DC
100
AcDbEntity
  8
DEFPOINTS
 62
     0
 48
50.0
100
AcDbPoint
 10
8223.600000000001
 20
7436.907777930205
 30
0.0
  0
POINT
  5
25E62
330
256DC
100
AcDbEntity
  8
DEFPOINTS
 62
     0
 48
50.0
100
AcDbPoint
 10
7496.6
 20
7436.907777930205
 30
0.0
  0
POINT
  5
25E63
330
256DC
100
AcDbEntity
  8
DEFPOINTS
 62
     0
 48
50.0
100
AcDbPoint
 10
7496.6
 20
8738.817543578532
 30
0.0
  0
ENDBLK
  5
256E7
330
256DC
100
AcDbEntity
  8
0
 48
50.0
100
AcDbBlockEnd
  0
BLOCK
  5
256F2
330
256E8
100
AcDbEntity
  8
0
 48
50.0
100
AcDbBlockBegin
  2
*D25
 70
     1
 10
0.0
 20
0.0
 30
0.0
  3
*D25
  1

  0
LINE
  5
25E52
330
256E8
100
AcDbEntity
  8
寸法
 62
     0
 48
50.0
370
    -2
100
AcDbLine
 10
6746.6
 20
8088.907777930204
 30
0.0
 11
5523.056296436549
 21
8088.907777930206
 31
0.0
  0
LINE
  5
25E53
330
256E8
100
AcDbEntity
  8
寸法
 62
     0
 48
50.0
370
    -2
100
AcDbLine
 10
6746.600000000007
 20
5694.907777930204
 30
0.0
 11
5523.056296436548
 21
5694.907777930205
 31
0.0
  0
LINE
  5
25E54
330
256E8
100
AcDbEntity
  8
寸法
 62
     0
 48
50.0
370
    -2
100
AcDbLine
 10
5583.056296436549
 20
8088.907777930206
 30
0.0
 11
5583.056296436549
 21
5694.907777930205
 31
0.0
  0
INSERT
  5
25E55
330
256E8
100
AcDbEntity
  8
寸法
 62
     0
 48
50.0
370
    -2
100
AcDbBlockReference
  2
_DOTSMALL
 10
5583.056296436549
 20
8088.907777930206
 30
0.0
 41
100.0
 42
100.0
 43
100.0
 50
90.0
  0
INSERT
  5
25E56
330
256E8
100
AcDbEntity
  8
寸法
 62
     0
 48
50.0
370
    -2
100
AcDbBlockReference
  2
_DOTSMALL
 10
5583.056296436549
 20
5694.907777930205
 30
0.0
 41
100.0
 42
100.0
 43
100.0
 50
270.0
  0
MTEXT
  5
25E57
330
256E8
100
AcDbEntity
  8
寸法
 62
     7
 48
50.0
100
AcDbMText
 10
5483.044485412925
 20
6926.907777930202
 30
0.0
 40
120.0
 41
0.0
 71
     5
 72
     1
  1
\A1;2394
  7
STYLE1
 11
0.0000000000000001
 21
1.0
 31
0.0
 73
     1
 44
1.0
1001
ACAD
1000
MTEXTBEGIN
1070
    73
1070
     1
1070
    44
1040
1.0
1070
    74
1070
     0
1000
MTEXTEND
  0
POINT
  5
25E58
330
256E8
100
AcDbEntity
  8
DEFPOINTS
 62
     0
 48
50.0
100
AcDbPoint
 10
6766.600000000001
 20
8088.907777930204
 30
0.0
  0
POINT
  5
25E59
330
256E8
100
AcDbEntity
  8
DEFPOINTS
 62
     0
 48
50.0
100
AcDbPoint
 10
6766.600000000008
 20
5694.907777930204
 30
0.0
  0
POINT
  5
25E5A
330
256E8
100
AcDbEntity
  8
DEFPOINTS
 62
     0
 48
50.0
100
AcDbPoint
 10
5583.056296436549
 20
5694.907777930205
 30
0.0
  0
ENDBLK
  5
256F3
330
256E8
100
AcDbEntity
  8
0
 48
50.0
100
AcDbBlockEnd
  0
BLOCK
  5
256FD
330
256F4
100
AcDbEntity
  8
0
 48
50.0
100
AcDbBlockBegin
  2
*D26
 70
     1
 10
0.0
 20
0.0
 30
0.0
  3
*D26
  1

  0
LINE
  5
25E49
330
256F4
100
AcDbEntity
  8
寸法
 62
     0
 48
50.0
370
    -2
100
AcDbLine
 10
6673.6
 20
5571.907777930204
 30
0.0
 11
5271.11319971715
 21
5571.907777930205
 31
0.0
  0
LINE
  5
25E4A
330
256F4
100
AcDbEntity
  8
寸法
 62
     0
 48
50.0
370
    -2
100
AcDbLine
 10
6673.6
 20
8211.907777930205
 30
0.0
 11
5271.11319971715
 21
8211.907777930205
 31
0.0
  0
LINE
  5
25E4B
330
256F4
100
AcDbEntity
  8
寸法
 62
     0
 48
50.0
370
    -2
100
AcDbLine
 10
5331.11319971715
 20
5571.907777930205
 30
0.0
 11
5331.113199717151
 21
8211.907777930205
 31
0.0
  0
INSERT
  5
25E4C
330
256F4
100
AcDbEntity
  8
寸法
 62
     0
 48
50.0
370
    -2
100
AcDbBlockReference
  2
_DOTSMALL
 10
5331.11319971715
 20
5571.907777930205
 30
0.0
 41
100.0
 42
100.0
 43
100.0
 50
270.0
  0
INSERT
  5
25E4D
330
256F4
100
AcDbEntity
  8
寸法
 62
     0
 48
50.0
370
    -2
100
AcDbBlockReference
  2
_DOTSMALL
 10
5331.113199717151
 20
8211.907777930205
 30
0.0
 41
100.0
 42
100.0
 43
100.0
 50
90.0
  0
MTEXT
  5
25E4E
330
256F4
100
AcDbEntity
  8
寸法
 62
     7
 48
50.0
100
AcDbMText
 10
5231.101388693527
 20
6856.907777930207
 30
0.0
 40
120.0
 41
0.0
 71
     5
 72
     1
  1
\A1;2640
  7
STYLE1
 11
0.0000000000000001
 21
1.0
 31
0.0
 73
     1
 44
1.0
1001
ACAD
1000
MTEXTBEGIN
1070
    73
1070
     1
1070
    44
1040
1.0
1070
    74
1070
     0
1000
MTEXTEND
  0
POINT
  5
25E4F
330
256F4
100
AcDbEntity
  8
DEFPOINTS
 62
     0
 48
50.0
100
AcDbPoint
 10
6693.6
 20
5571.907777930204
 30
0.0
  0
POINT
  5
25E50
330
256F4
100
AcDbEntity
  8
DEFPOINTS
 62
     0
 48
50.0
100
AcDbPoint
 10
6693.6
 20
8211.907777930205
 30
0.0
  0
POINT
  5
25E51
330
256F4
100
AcDbEntity
  8
DEFPOINTS
 62
     0
 48
50.0
100
AcDbPoint
 10
5331.113199717151
 20
8211.907777930205
 30
0.0
  0
ENDBLK
  5
256FE
330
256F4
100
AcDbEntity
  8
0
 48
50.0
100
AcDbBlockEnd
  0
BLOCK
  5
25722
330
25717
100
AcDbEntity
  8
0
 48
50.0
100
AcDbBlockBegin
  2
*D27
 70
     1
 10
0.0
 20
0.0
 30
0.0
  3
*D27
  1

  0
LINE
  5
25E2B
330
25717
100
AcDbEntity
  8
寸法
 62
     0
 48
50.0
370
    -2
100
AcDbLine
 10
6746.600000000007
 20
5694.907777930204
 30
0.0
 11
5523.056296436548
 21
5694.907777930205
 31
0.0
  0
LINE
  5
25E2C
330
25717
100
AcDbEntity
  8
寸法
 62
     0
 48
50.0
370
    -2
100
AcDbLine
 10
6673.6
 20
5571.907777930204
 30
0.0
 11
5523.056296436548
 21
5571.907777930205
 31
0.0
  0
LINE
  5
25E2D
330
25717
100
AcDbEntity
  8
寸法
 62
     0
 48
50.0
370
    -2
100
AcDbLine
 10
5583.056296436549
 20
5694.907777930205
 30
0.0
 11
5583.056296436549
 21
5571.907777930205
 31
0.0
  0
LINE
  5
25E2E
330
25717
100
AcDbEntity
  8
寸法
 62
     0
 48
50.0
370
    -2
100
AcDbLine
 10
5583.056296436549
 20
5571.907777930205
 30
0.0
 11
5583.056296436549
 21
5160.315894838166
 31
0.0
  0
INSERT
  5
25E2F
330
25717
100
AcDbEntity
  8
寸法
 62
     0
 48
50.0
370
    -2
100
AcDbBlockReference
  2
_DOTSMALL
 10
5583.056296436549
 20
5694.907777930205
 30
0.0
 41
100.0
 42
100.0
 43
100.0
 50
90.0
  0
INSERT
  5
25E30
330
25717
100
AcDbEntity
  8
寸法
 62
     0
 48
50.0
370
    -2
100
AcDbBlockReference
  2
_DOTSMALL
 10
5583.056296436549
 20
5571.907777930205
 30
0.0
 41
100.0
 42
100.0
 43
100.0
 50
270.0
  0
MTEXT
  5
25E31
330
25717
100
AcDbEntity
  8
寸法
 62
     7
 48
50.0
100
AcDbMText
 10
5483.044485412925
 20
5298.801176212406
 30
0.0
 40
120.0
 41
0.0
 71
     5
 72
     1
  1
\A1;123
  7
STYLE1
 11
0.0000000000000001
 21
1.0
 31
0.0
 73
     1
 44
1.0
1001
ACAD
1000
MTEXTBEGIN
1070
    73
1070
     1
1070
    44
1040
1.0
1070
    74
1070
     0
1000
MTEXTEND
  0
POINT
  5
25E32
330
25717
100
AcDbEntity
  8
DEFPOINTS
 62
     0
 48
50.0
100
AcDbPoint
 10
6766.600000000008
 20
5694.907777930204
 30
0.0
  0
POINT
  5
25E33
330
25717
100
AcDbEntity
  8
DEFPOINTS
 62
     0
 48
50.0
100
AcDbPoint
 10
6693.6
 20
5571.907777930204
 30
0.0
  0
POINT
  5
25E34
330
25717
100
AcDbEntity
  8
DEFPOINTS
 62
     0
 48
50.0
100
AcDbPoint
 10
5583.056296436549
 20
5571.907777930205
 30
0.0
  0
ENDBLK
  5
25723
330
25717
100
AcDbEntity
  8
0
 48
50.0
100
AcDbBlockEnd
  0
BLOCK
  5
25753
330
25748
100
AcDbEntity
  8
0
 48
50.0
100
AcDbBlockBegin
  2
*D28
 70
     1
 10
0.0
 20
0.0
 30
0.0
  3
*D28
  1

  0
LINE
  5
25E02
330
25748
100
AcDbEntity
  8
寸法
 62
     0
 48
50.0
370
    -2
100
AcDbLine
 10
6673.6
 20
8211.907777930205
 30
0.0
 11
5523.056296436548
 21
8211.907777930205
 31
0.0
  0
LINE
  5
25E03
330
25748
100
AcDbEntity
  8
寸法
 62
     0
 48
50.0
370
    -2
100
AcDbLine
 10
6746.6
 20
8088.907777930204
 30
0.0
 11
5523.056296436548
 21
8088.907777930206
 31
0.0
  0
LINE
  5
25E04
330
25748
100
AcDbEntity
  8
寸法
 62
     0
 48
50.0
370
    -2
100
AcDbLine
 10
5583.056296436549
 20
8088.907777930206
 30
0.0
 11
5583.056296436549
 21
8211.907777930205
 31
0.0
  0
LINE
  5
25E05
330
25748
100
AcDbEntity
  8
寸法
 62
     0
 48
50.0
370
    -2
100
AcDbLine
 10
5583.056296436549
 20
8211.907777930205
 30
0.0
 11
5583.056296436549
 21
8663.499661022239
 31
0.0
  0
INSERT
  5
25E06
330
25748
100
AcDbEntity
  8
寸法
 62
     0
 48
50.0
370
    -2
100
AcDbBlockReference
  2
_DOTSMALL
 10
5583.056296436549
 20
8088.907777930206
 30
0.0
 41
100.0
 42
100.0
 43
100.0
 50
270.0
  0
INSERT
  5
25E07
330
25748
100
AcDbEntity
  8
寸法
 62
     0
 48
50.0
370
    -2
100
AcDbBlockReference
  2
_DOTSMALL
 10
5583.056296436549
 20
8211.907777930205
 30
0.0
 41
100.0
 42
100.0
 43
100.0
 50
90.0
  0
MTEXT
  5
25E08
330
25748
100
AcDbEntity
  8
寸法
 62
     7
 48
50.0
100
AcDbMText
 10
5483.044485412925
 20
8525.014379648004
 30
0.0
 40
120.0
 41
0.0
 71
     5
 72
     1
  1
\A1;123
  7
STYLE1
 11
0.0000000000000001
 21
1.0
 31
0.0
 73
     1
 44
1.0
1001
ACAD
1000
MTEXTBEGIN
1070
    73
1070
     1
1070
    44
1040
1.0
1070
    74
1070
     0
1000
MTEXTEND
  0
POINT
  5
25E09
330
25748
100
AcDbEntity
  8
DEFPOINTS
 62
     0
 48
50.0
100
AcDbPoint
 10
6693.6
 20
8211.907777930205
 30
0.0
  0
POINT
  5
25E0A
330
25748
100
AcDbEntity
  8
DEFPOINTS
 62
     0
 48
50.0
100
AcDbPoint
 10
6766.600000000001
 20
8088.907777930204
 30
0.0
  0
POINT
  5
25E0B
330
25748
100
AcDbEntity
  8
DEFPOINTS
 62
     0
 48
50.0
100
AcDbPoint
 10
5583.056296436549
 20
8088.907777930206
 30
0.0
  0
ENDBLK
  5
25754
330
25748
100
AcDbEntity
  8
0
 48
50.0
100
AcDbBlockEnd
  0
BLOCK
  5
25760
330
25755
100
AcDbEntity
  8
0
 48
50.0
100
AcDbBlockBegin
  2
*D29
 70
     1
 10
0.0
 20
0.0
 30
0.0
  3
*D29
  1

  0
LINE
  5
25DF8
330
25755
100
AcDbEntity
  8
寸法
 62
     0
 48
50.0
370
    -2
100
AcDbLine
 10
6816.600000000001
 20
8158.907777930204
 30
0.0
 11
6816.600000000001
 21
9017.667404472287
 31
0.0
  0
LINE
  5
25DF9
330
25755
100
AcDbEntity
  8
寸法
 62
     0
 48
50.0
370
    -2
100
AcDbLine
 10
6693.6
 20
8231.907777930205
 30
0.0
 11
6693.6
 21
9017.667404472287
 31
0.0
  0
LINE
  5
25DFA
330
25755
100
AcDbEntity
  8
寸法
 62
     0
 48
50.0
370
    -2
100
AcDbLine
 10
6816.600000000001
 20
8957.667404472287
 30
0.0
 11
6693.6
 21
8957.667404472287
 31
0.0
  0
LINE
  5
25DFB
330
25755
100
AcDbEntity
  8
寸法
 62
     0
 48
50.0
370
    -2
100
AcDbLine
 10
6693.6
 20
8957.667404472287
 30
0.0
 11
6282.008116907963
 21
8957.667404472287
 31
0.0
  0
INSERT
  5
25DFC
330
25755
100
AcDbEntity
  8
寸法
 62
     0
 48
50.0
370
    -2
100
AcDbBlockReference
  2
_DOTSMALL
 10
6816.600000000001
 20
8957.667404472287
 30
0.0
 41
100.0
 42
100.0
 43
100.0
  0
INSERT
  5
25DFD
330
25755
100
AcDbEntity
  8
寸法
 62
     0
 48
50.0
370
    -2
100
AcDbBlockReference
  2
_DOTSMALL
 10
6693.6
 20
8957.667404472287
 30
0.0
 41
100.0
 42
100.0
 43
100.0
 50
180.0
  0
MTEXT
  5
25DFE
330
25755
100
AcDbEntity
  8
寸法
 62
     7
 48
50.0
100
AcDbMText
 10
6420.493398282203
 20
9057.679215495909
 30
0.0
 40
120.0
 41
0.0
 71
     5
 72
     1
  1
\A1;123
  7
STYLE1
 73
     1
 44
1.0
1001
ACAD
1000
MTEXTBEGIN
1070
    73
1070
     1
1070
    44
1040
1.0
1070
    74
1070
     0
1000
MTEXTEND
  0
POINT
  5
25DFF
330
25755
100
AcDbEntity
  8
DEFPOINTS
 62
     0
 48
50.0
100
AcDbPoint
 10
6816.600000000001
 20
8138.907777930205
 30
0.0
  0
POINT
  5
25E00
330
25755
100
AcDbEntity
  8
DEFPOINTS
 62
     0
 48
50.0
100
AcDbPoint
 10
6693.6
 20
8211.907777930205
 30
0.0
  0
POINT
  5
25E01
330
25755
100
AcDbEntity
  8
DEFPOINTS
 62
     0
 48
50.0
100
AcDbPoint
 10
6693.6
 20
8957.667404472287
 30
0.0
  0
ENDBLK
  5
25761
330
25755
100
AcDbEntity
  8
0
 48
50.0
100
AcDbBlockEnd
  0
BLOCK
  5
25786
330
2577B
100
AcDbEntity
  8
0
 48
50.0
100
AcDbBlockBegin
  2
*D30
 70
     1
 10
0.0
 20
0.0
 30
0.0
  3
*D30
  1

  0
LINE
  5
26DBA
330
2577B
100
AcDbEntity
  8
寸法
 62
     0
 48
50.0
370
    -2
100
AcDbLine
 10
6943.6
 20
8091.907777930204
 30
0.0
 11
7200.307249876098
 21
8091.907777930204
 31
0.0
  0
LINE
  5
26DBB
330
2577B
100
AcDbEntity
  8
寸法
 62
     0
 48
50.0
370
    -2
100
AcDbLine
 10
6943.6
 20
8211.907777930205
 30
0.0
 11
7200.307249876098
 21
8211.907777930205
 31
0.0
  0
LINE
  5
26DBC
330
2577B
100
AcDbEntity
  8
寸法
 62
     0
 48
50.0
370
    -2
100
AcDbLine
 10
7140.307249876099
 20
8091.907777930204
 30
0.0
 11
7140.307249876099
 21
8211.907777930205
 31
0.0
  0
LINE
  5
26DBD
330
2577B
100
AcDbEntity
  8
寸法
 62
     0
 48
50.0
370
    -2
100
AcDbLine
 10
7140.307249876099
 20
8211.907777930205
 30
0.0
 11
7140.307249876099
 21
8626.038565297577
 31
0.0
  0
INSERT
  5
26DBE
330
2577B
100
AcDbEntity
  8
寸法
 62
     0
 48
50.0
370
    -2
100
AcDbBlockReference
  2
_DOTSMALL
 10
7140.307249876099
 20
8091.907777930204
 30
0.0
 41
100.0
 42
100.0
 43
100.0
 50
270.0
  0
INSERT
  5
26DBF
330
2577B
100
AcDbEntity
  8
寸法
 62
     0
 48
50.0
370
    -2
100
AcDbBlockReference
  2
_DOTSMALL
 10
7140.307249876099
 20
8211.907777930205
 30
0.0
 41
100.0
 42
100.0
 43
100.0
 50
90.0
  0
MTEXT
  5
26DC0
330
2577B
100
AcDbEntity
  8
寸法
 62
     7
 48
50.0
100
AcDbMText
 10
7040.295438852476
 20
8489.99132120309
 30
0.0
 40
120.0
 41
0.0
 71
     5
 72
     1
  1
\A1;120
  7
STYLE1
 11
0.0000000000000001
 21
1.0
 31
0.0
 73
     1
 44
1.0
1001
ACAD
1000
MTEXTBEGIN
1070
    73
1070
     1
1070
    44
1040
1.0
1070
    74
1070
     0
1000
MTEXTEND
  0
POINT
  5
26DC1
330
2577B
100
AcDbEntity
  8
DEFPOINTS
 62
     0
 48
50.0
100
AcDbPoint
 10
6923.6
 20
8091.907777930204
 30
0.0
  0
POINT
  5
26DC2
330
2577B
100
AcDbEntity
  8
DEFPOINTS
 62
     0
 48
50.0
100
AcDbPoint
 10
6923.6
 20
8211.907777930205
 30
0.0
  0
POINT
  5
26DC3
330
2577B
100
AcDbEntity
  8
DEFPOINTS
 62
     0
 48
50.0
100
AcDbPoint
 10
7140.307249876099
 20
8211.907777930205
 30
0.0
  0
ENDBLK
  5
25787
330
2577B
100
AcDbEntity
  8
0
 48
50.0
100
AcDbBlockEnd
  0
BLOCK
  5
2579E
330
25795
100
AcDbEntity
  8
0
 48
50.0
100
AcDbBlockBegin
  2
*D31
 70
     1
 10
0.0
 20
0.0
 30
0.0
  3
*D31
  1

  0
LINE
  5
25DCF
330
25795
100
AcDbEntity
  8
寸法
 62
     0
 48
50.0
370
    -2
100
AcDbLine
 10
7376.6
 20
7336.907777930204
 30
0.0
 11
5802.694058666917
 21
7336.907777930206
 31
0.0
  0
LINE
  5
25DD0
330
25795
100
AcDbEntity
  8
寸法
 62
     0
 48
50.0
370
    -2
100
AcDbLine
 10
6673.600000000002
 20
8211.907777930205
 30
0.0
 11
5802.694058666917
 21
8211.907777930205
 31
0.0
  0
LINE
  5
25DD1
330
25795
100
AcDbEntity
  8
寸法
 62
     0
 48
50.0
370
    -2
100
AcDbLine
 10
5862.694058666917
 20
7336.907777930206
 30
0.0
 11
5862.694058666917
 21
8211.907777930205
 31
0.0
  0
INSERT
  5
25DD2
330
25795
100
AcDbEntity
  8
寸法
 62
     0
 48
50.0
370
    -2
100
AcDbBlockReference
  2
_DOTSMALL
 10
5862.694058666917
 20
7336.907777930206
 30
0.0
 41
100.0
 42
100.0
 43
100.0
 50
270.0
  0
INSERT
  5
25DD3
330
25795
100
AcDbEntity
  8
寸法
 62
     0
 48
50.0
370
    -2
100
AcDbBlockReference
  2
_DOTSMALL
 10
5862.694058666917
 20
8211.907777930205
 30
0.0
 41
100.0
 42
100.0
 43
100.0
 50
90.0
  0
MTEXT
  5
25DD4
330
25795
100
AcDbEntity
  8
寸法
 62
     7
 48
50.0
100
AcDbMText
 10
5762.694058666916
 20
7774.407777930206
 30
0.0
 40
120.0
 41
0.0
 71
     5
 72
     1
  1
\A1;875
  7
STYLE1
 11
0.0000000000000001
 21
1.0
 31
0.0
 73
     1
 44
1.0
1001
ACAD
1000
MTEXTBEGIN
1070
    73
1070
     1
1070
    44
1040
1.0
1070
    74
1070
     0
1000
MTEXTEND
  0
POINT
  5
25DD5
330
25795
100
AcDbEntity
  8
DEFPOINTS
 62
     0
 48
50.0
100
AcDbPoint
 10
7396.600000000001
 20
7336.907777930204
 30
0.0
  0
POINT
  5
25DD6
330
25795
100
AcDbEntity
  8
DEFPOINTS
 62
     0
 48
50.0
100
AcDbPoint
 10
6693.600000000002
 20
8211.907777930205
 30
0.0
  0
POINT
  5
25DD7
330
25795
100
AcDbEntity
  8
DEFPOINTS
 62
     0
 48
50.0
100
AcDbPoint
 10
5862.694058666917
 20
8211.907777930205
 30
0.0
  0
ENDBLK
  5
2579F
330
25795
100
AcDbEntity
  8
0
 48
50.0
100
AcDbBlockEnd
  0
BLOCK
  5
257B7
330
257AD
100
AcDbEntity
  8
0
 48
50.0
100
AcDbBlockBegin
  2
*D32
 70
     1
 10
0.0
 20
0.0
 30
0.0
  3
*D32
  1

  0
LINE
  5
25D82
330
257AD
100
AcDbEntity
  8
寸法
 62
     0
 48
50.0
370
    -2
100
AcDbLine
 10
9753.6
 20
8231.907777930205
 30
0.0
 11
9753.6
 21
8798.817543578532
 31
0.0
  0
LINE
  5
25D83
330
257AD
100
AcDbEntity
  8
寸法
 62
     0
 48
50.0
370
    -2
100
AcDbLine
 10
8950.599999999999
 20
7456.907777930204
 30
0.0
 11
8950.599999999999
 21
8798.817543578532
 31
0.0
  0
LINE
  5
25D84
330
257AD
100
AcDbEntity
  8
寸法
 62
     0
 48
50.0
370
    -2
100
AcDbLine
 10
9753.6
 20
8738.817543578532
 30
0.0
 11
8950.599999999999
 21
8738.817543578532
 31
0.0
  0
INSERT
  5
25D85
330
257AD
100
AcDbEntity
  8
寸法
 62
     0
 48
50.0
370
    -2
100
AcDbBlockReference
  2
_DOTSMALL
 10
9753.6
 20
8738.817543578532
 30
0.0
 41
100.0
 42
100.0
 43
100.0
  0
INSERT
  5
25D86
330
257AD
100
AcDbEntity
  8
寸法
 62
     0
 48
50.0
370
    -2
100
AcDbBlockReference
  2
_DOTSMALL
 10
8950.599999999999
 20
8738.817543578532
 30
0.0
 41
100.0
 42
100.0
 43
100.0
 50
180.0
  0
MTEXT
  5
25D87
330
257AD
100
AcDbEntity
  8
寸法
 62
     7
 48
50.0
100
AcDbMText
 10
9324.518522006279
 20
8838.817543578533
 30
0.0
 40
120.0
 41
0.0
 71
     5
 72
     1
  1
\A1;803
  7
STYLE1
 73
     1
 44
1.0
1001
ACAD
1000
MTEXTBEGIN
1070
    73
1070
     1
1070
    44
1040
1.0
1070
    74
1070
     0
1000
MTEXTEND
  0
POINT
  5
25D88
330
257AD
100
AcDbEntity
  8
DEFPOINTS
 62
     0
 48
50.0
100
AcDbPoint
 10
9753.6
 20
8211.907777930205
 30
0.0
  0
POINT
  5
25D89
330
257AD
100
AcDbEntity
  8
DEFPOINTS
 62
     0
 48
50.0
100
AcDbPoint
 10
8950.599999999999
 20
7436.907777930205
 30
0.0
  0
POINT
  5
25D8A
330
257AD
100
AcDbEntity
  8
DEFPOINTS
 62
     0
 48
50.0
100
AcDbPoint
 10
8950.599999999999
 20
8738.817543578532
 30
0.0
  0
ENDBLK
  5
257B8
330
257AD
100
AcDbEntity
  8
0
 48
50.0
100
AcDbBlockEnd
  0
BLOCK
  5
257C3
330
257B9
100
AcDbEntity
  8
0
 48
50.0
100
AcDbBlockBegin
  2
*D33
 70
     1
 10
0.0
 20
0.0
 30
0.0
  3
*D33
  1

  0
LINE
  5
25DC6
330
257B9
100
AcDbEntity
  8
寸法
 62
     0
 48
50.0
370
    -2
100
AcDbLine
 10
7376.6
 20
7336.907777930204
 30
0.0
 11
5802.694058666917
 21
7336.907777930206
 31
0.0
  0
LINE
  5
25DC7
330
257B9
100
AcDbEntity
  8
寸法
 62
     0
 48
50.0
370
    -2
100
AcDbLine
 10
7376.6
 20
6446.907777930204
 30
0.0
 11
5802.694058666917
 21
6446.907777930205
 31
0.0
  0
LINE
  5
25DC8
330
257B9
100
AcDbEntity
  8
寸法
 62
     0
 48
50.0
370
    -2
100
AcDbLine
 10
5862.694058666917
 20
7336.907777930206
 30
0.0
 11
5862.694058666917
 21
6446.907777930205
 31
0.0
  0
INSERT
  5
25DC9
330
257B9
100
AcDbEntity
  8
寸法
 62
     0
 48
50.0
370
    -2
100
AcDbBlockReference
  2
_DOTSMALL
 10
5862.694058666917
 20
7336.907777930206
 30
0.0
 41
100.0
 42
100.0
 43
100.0
 50
90.0
  0
INSERT
  5
25DCA
330
257B9
100
AcDbEntity
  8
寸法
 62
     0
 48
50.0
370
    -2
100
AcDbBlockReference
  2
_DOTSMALL
 10
5862.694058666917
 20
6446.907777930205
 30
0.0
 41
100.0
 42
100.0
 43
100.0
 50
270.0
  0
MTEXT
  5
25DCB
330
257B9
100
AcDbEntity
  8
寸法
 62
     7
 48
50.0
100
AcDbMText
 10
5762.694058666915
 20
6891.907777930206
 30
0.0
 40
120.0
 41
0.0
 71
     5
 72
     1
  1
\A1;890
  7
STYLE1
 11
0.0000000000000001
 21
1.0
 31
0.0
 73
     1
 44
1.0
1001
ACAD
1000
MTEXTBEGIN
1070
    73
1070
     1
1070
    44
1040
1.0
1070
    74
1070
     0
1000
MTEXTEND
  0
POINT
  5
25DCC
330
257B9
100
AcDbEntity
  8
DEFPOINTS
 62
     0
 48
50.0
100
AcDbPoint
 10
7396.600000000001
 20
7336.907777930204
 30
0.0
  0
POINT
  5
25DCD
330
257B9
100
AcDbEntity
  8
DEFPOINTS
 62
     0
 48
50.0
100
AcDbPoint
 10
7396.600000000001
 20
6446.907777930204
 30
0.0
  0
POINT
  5
25DCE
330
257B9
100
AcDbEntity
  8
DEFPOINTS
 62
     0
 48
50.0
100
AcDbPoint
 10
5862.694058666917
 20
6446.907777930205
 30
0.0
  0
ENDBLK
  5
257C4
330
257B9
100
AcDbEntity
  8
0
 48
50.0
100
AcDbBlockEnd
  0
BLOCK
  5
257CF
330
257C5
100
AcDbEntity
  8
0
 48
50.0
100
AcDbBlockBegin
  2
*D34
 70
     1
 10
0.0
 20
0.0
 30
0.0
  3
*D34
  1

  0
LINE
  5
25DBD
330
257C5
100
AcDbEntity
  8
寸法
 62
     0
 48
50.0
370
    -2
100
AcDbLine
 10
6673.6
 20
5571.907777930213
 30
0.0
 11
5802.694058666916
 21
5571.907777930213
 31
0.0
  0
LINE
  5
25DBE
330
257C5
100
AcDbEntity
  8
寸法
 62
     0
 48
50.0
370
    -2
100
AcDbLine
 10
7376.6
 20
6446.907777930204
 30
0.0
 11
5802.694058666917
 21
6446.907777930205
 31
0.0
  0
LINE
  5
25DBF
330
257C5
100
AcDbEntity
  8
寸法
 62
     0
 48
50.0
370
    -2
100
AcDbLine
 10
5862.694058666916
 20
5571.907777930213
 30
0.0
 11
5862.694058666917
 21
6446.907777930205
 31
0.0
  0
INSERT
  5
25DC0
330
257C5
100
AcDbEntity
  8
寸法
 62
     0
 48
50.0
370
    -2
100
AcDbBlockReference
  2
_DOTSMALL
 10
5862.694058666916
 20
5571.907777930213
 30
0.0
 41
100.0
 42
100.0
 43
100.0
 50
270.0
  0
INSERT
  5
25DC1
330
257C5
100
AcDbEntity
  8
寸法
 62
     0
 48
50.0
370
    -2
100
AcDbBlockReference
  2
_DOTSMALL
 10
5862.694058666917
 20
6446.907777930205
 30
0.0
 41
100.0
 42
100.0
 43
100.0
 50
90.0
  0
MTEXT
  5
25DC2
330
257C5
100
AcDbEntity
  8
寸法
 62
     7
 48
50.0
100
AcDbMText
 10
5762.694058666915
 20
6086.120553595381
 30
0.0
 40
120.0
 41
0.0
 71
     5
 72
     1
  1
\A1;875
  7
STYLE1
 11
0.0000000000000001
 21
1.0
 31
0.0
 73
     1
 44
1.0
1001
ACAD
1000
MTEXTBEGIN
1070
    73
1070
     1
1070
    44
1040
1.0
1070
    74
1070
     0
1000
MTEXTEND
  0
POINT
  5
25DC3
330
257C5
100
AcDbEntity
  8
DEFPOINTS
 62
     0
 48
50.0
100
AcDbPoint
 10
6693.6
 20
5571.907777930213
 30
0.0
  0
POINT
  5
25DC4
330
257C5
100
AcDbEntity
  8
DEFPOINTS
 62
     0
 48
50.0
100
AcDbPoint
 10
7396.600000000001
 20
6446.907777930204
 30
0.0
  0
POINT
  5
25DC5
330
257C5
100
AcDbEntity
  8
DEFPOINTS
 62
     0
 48
50.0
100
AcDbPoint
 10
5862.694058666917
 20
6446.907777930205
 30
0.0
  0
ENDBLK
  5
257D0
330
257C5
100
AcDbEntity
  8
0
 48
50.0
100
AcDbBlockEnd
  0
BLOCK
  5
257DC
330
257D1
100
AcDbEntity
  8
0
 48
50.0
100
AcDbBlockBegin
  2
*D35
 70
     1
 10
0.0
 20
0.0
 30
0.0
  3
*D35
  1

  0
LINE
  5
25DB3
330
257D1
100
AcDbEntity
  8
寸法
 62
     0
 48
50.0
370
    -2
100
AcDbLine
 10
9753.6
 20
8231.907777930205
 30
0.0
 11
9753.6
 21
9017.667404472287
 31
0.0
  0
LINE
  5
25DB4
330
257D1
100
AcDbEntity
  8
寸法
 62
     0
 48
50.0
370
    -2
100
AcDbLine
 10
9630.600000000001
 20
8158.907777930204
 30
0.0
 11
9630.600000000001
 21
9017.667404472287
 31
0.0
  0
LINE
  5
25DB5
330
257D1
100
AcDbEntity
  8
寸法
 62
     0
 48
50.0
370
    -2
100
AcDbLine
 10
9630.600000000001
 20
8957.667404472287
 30
0.0
 11
9753.6
 21
8957.667404472287
 31
0.0
  0
LINE
  5
25DB6
330
257D1
100
AcDbEntity
  8
寸法
 62
     0
 48
50.0
370
    -2
100
AcDbLine
 10
9753.6
 20
8957.667404472287
 30
0.0
 11
10165.19188309203
 21
8957.667404472287
 31
0.0
  0
INSERT
  5
25DB7
330
257D1
100
AcDbEntity
  8
寸法
 62
     0
 48
50.0
370
    -2
100
AcDbBlockReference
  2
_DOTSMALL
 10
9630.600000000001
 20
8957.667404472287
 30
0.0
 41
100.0
 42
100.0
 43
100.0
 50
180.0
  0
INSERT
  5
25DB8
330
257D1
100
AcDbEntity
  8
寸法
 62
     0
 48
50.0
370
    -2
100
AcDbBlockReference
  2
_DOTSMALL
 10
9753.6
 20
8957.667404472287
 30
0.0
 41
100.0
 42
100.0
 43
100.0
  0
MTEXT
  5
25DB9
330
257D1
100
AcDbEntity
  8
寸法
 62
     7
 48
50.0
100
AcDbMText
 10
10026.7066017178
 20
9057.679215495909
 30
0.0
 40
120.0
 41
0.0
 71
     5
 72
     1
  1
\A1;123
  7
STYLE1
 73
     1
 44
1.0
1001
ACAD
1000
MTEXTBEGIN
1070
    73
1070
     1
1070
    44
1040
1.0
1070
    74
1070
     0
1000
MTEXTEND
  0
POINT
  5
25DBA
330
257D1
100
AcDbEntity
  8
DEFPOINTS
 62
     0
 48
50.0
100
AcDbPoint
 10
9753.6
 20
8211.907777930205
 30
0.0
  0
POINT
  5
25DBB
330
257D1
100
AcDbEntity
  8
DEFPOINTS
 62
     0
 48
50.0
100
AcDbPoint
 10
9630.600000000001
 20
8138.907777930205
 30
0.0
  0
POINT
  5
25DBC
330
257D1
100
AcDbEntity
  8
DEFPOINTS
 62
     0
 48
50.0
100
AcDbPoint
 10
9630.600000000001
 20
8957.667404472287
 30
0.0
  0
ENDBLK
  5
257DD
330
257D1
100
AcDbEntity
  8
0
 48
50.0
100
AcDbBlockEnd
  0
BLOCK
  5
2620A
330
261FF
100
AcDbEntity
  8
0
 48
50.0
100
AcDbBlockBegin
  2
*D36
 70
     1
 10
0.0
 20
0.0
 30
0.0
  3
*D36
  1

  0
LINE
  5
27492
330
261FF
100
AcDbEntity
  8
寸法
 62
     0
 48
50.0
370
    -2
100
AcDbLine
 10
9633.600000000001
 20
7961.907777930204
 30
0.0
 11
9633.600000000001
 21
7694.199110429832
 31
0.0
  0
LINE
  5
27493
330
261FF
100
AcDbEntity
  8
寸法
 62
     0
 48
50.0
370
    -2
100
AcDbLine
 10
9523.6
 20
7961.907777930204
 30
0.0
 11
9523.6
 21
7694.199110429832
 31
0.0
  0
LINE
  5
27494
330
261FF
100
AcDbEntity
  8
寸法
 62
     0
 48
50.0
370
    -2
100
AcDbLine
 10
9633.600000000001
 20
7754.199110429832
 30
0.0
 11
9523.6
 21
7754.199110429832
 31
0.0
  0
LINE
  5
27495
330
261FF
100
AcDbEntity
  8
寸法
 62
     0
 48
50.0
370
    -2
100
AcDbLine
 10
9523.6
 20
7754.199110429832
 30
0.0
 11
9129.493700787401
 21
7754.199110429832
 31
0.0
  0
INSERT
  5
27496
330
261FF
100
AcDbEntity
  8
寸法
 62
     0
 48
50.0
370
    -2
100
AcDbBlockReference
  2
_DOTSMALL
 10
9633.600000000001
 20
7754.199110429832
 30
0.0
 41
100.0
 42
100.0
 43
100.0
  0
INSERT
  5
27497
330
261FF
100
AcDbEntity
  8
寸法
 62
     0
 48
50.0
370
    -2
100
AcDbBlockReference
  2
_DOTSMALL
 10
9523.6
 20
7754.199110429832
 30
0.0
 41
100.0
 42
100.0
 43
100.0
 50
180.0
  0
MTEXT
  5
27498
330
261FF
100
AcDbEntity
  8
寸法
 62
     7
 48
50.0
100
AcDbMText
 10
9253.540944881889
 20
7854.199110429831
 30
0.0
 40
120.0
 41
0.0
 71
     5
 72
     1
  1
\A1;110
  7
STYLE1
 73
     1
 44
1.0
1001
ACAD
1000
MTEXTBEGIN
1070
    73
1070
     1
1070
    44
1040
1.0
1070
    74
1070
     0
1000
MTEXTEND
  0
POINT
  5
27499
330
261FF
100
AcDbEntity
  8
DEFPOINTS
 62
     0
 48
50.0
100
AcDbPoint
 10
9633.600000000001
 20
7981.907777930205
 30
0.0
  0
POINT
  5
2749A
330
261FF
100
AcDbEntity
  8
DEFPOINTS
 62
     0
 48
50.0
100
AcDbPoint
 10
9523.6
 20
7981.907777930205
 30
0.0
  0
POINT
  5
2749B
330
261FF
100
AcDbEntity
  8
DEFPOINTS
 62
     0
 48
50.0
100
AcDbPoint
 10
9523.6
 20
7754.199110429832
 30
0.0
  0
ENDBLK
  5
2620B
330
261FF
100
AcDbEntity
  8
0
 48
50.0
100
AcDbBlockEnd
  0
BLOCK
  5
26217
330
2620C
100
AcDbEntity
  8
0
 48
50.0
100
AcDbBlockBegin
  2
*D37
 70
     1
 10
0.0
 20
0.0
 30
0.0
  3
*D37
  1

  0
LINE
  5
26DB0
330
2620C
100
AcDbEntity
  8
寸法
 62
     0
 48
50.0
370
    -2
100
AcDbLine
 10
9753.6
 20
7961.907777930206
 30
0.0
 11
9753.6
 21
7694.199110429832
 31
0.0
  0
LINE
  5
26DB1
330
2620C
100
AcDbEntity
  8
寸法
 62
     0
 48
50.0
370
    -2
100
AcDbLine
 10
9633.600000000001
 20
7961.907777930204
 30
0.0
 11
9633.600000000001
 21
7694.199110429832
 31
0.0
  0
LINE
  5
26DB2
330
2620C
100
AcDbEntity
  8
寸法
 62
     0
 48
50.0
370
    -2
100
AcDbLine
 10
9633.600000000001
 20
7754.199110429832
 30
0.0
 11
9753.6
 21
7754.199110429832
 31
0.0
  0
LINE
  5
26DB3
330
2620C
100
AcDbEntity
  8
寸法
 62
     0
 48
50.0
370
    -2
100
AcDbLine
 10
9753.6
 20
7754.199110429832
 30
0.0
 11
10159.7062992126
 21
7754.199110429832
 31
0.0
  0
INSERT
  5
26DB4
330
2620C
100
AcDbEntity
  8
寸法
 62
     0
 48
50.0
370
    -2
100
AcDbBlockReference
  2
_DOTSMALL
 10
9633.600000000001
 20
7754.199110429832
 30
0.0
 41
100.0
 42
100.0
 43
100.0
 50
180.0
  0
INSERT
  5
26DB5
330
2620C
100
AcDbEntity
  8
寸法
 62
     0
 48
50.0
370
    -2
100
AcDbBlockReference
  2
_DOTSMALL
 10
9753.6
 20
7754.199110429832
 30
0.0
 41
100.0
 42
100.0
 43
100.0
  0
MTEXT
  5
26DB6
330
2620C
100
AcDbEntity
  8
寸法
 62
     7
 48
50.0
100
AcDbMText
 10
10023.65905511811
 20
7854.210921453454
 30
0.0
 40
120.0
 41
0.0
 71
     5
 72
     1
  1
\A1;120
  7
STYLE1
 73
     1
 44
1.0
1001
ACAD
1000
MTEXTBEGIN
1070
    73
1070
     1
1070
    44
1040
1.0
1070
    74
1070
     0
1000
MTEXTEND
  0
POINT
  5
26DB7
330
2620C
100
AcDbEntity
  8
DEFPOINTS
 62
     0
 48
50.0
100
AcDbPoint
 10
9753.6
 20
7981.907777930207
 30
0.0
  0
POINT
  5
26DB8
330
2620C
100
AcDbEntity
  8
DEFPOINTS
 62
     0
 48
50.0
100
AcDbPoint
 10
9633.600000000001
 20
7981.907777930205
 30
0.0
  0
POINT
  5
26DB9
330
2620C
100
AcDbEntity
  8
DEFPOINTS
 62
     0
 48
50.0
100
AcDbPoint
 10
9633.600000000001
 20
7754.199110429832
 30
0.0
  0
ENDBLK
  5
26218
330
2620C
100
AcDbEntity
  8
0
 48
50.0
100
AcDbBlockEnd
  0
BLOCK
  5
26584
330
26579
100
AcDbEntity
  8
0
 48
50.0
100
AcDbBlockBegin
  2
*D38
 70
     1
 10
0.0
 20
0.0
 30
0.0
  3
*D38
  1

  0
LINE
  5
26DD8
330
26579
100
AcDbEntity
  8
寸法
 62
     0
 48
50.0
370
    -2
100
AcDbLine
 10
6943.600000000002
 20
5691.907777930211
 30
0.0
 11
7102.197085004765
 21
5691.907777930211
 31
0.0
  0
LINE
  5
26DD9
330
26579
100
AcDbEntity
  8
寸法
 62
     0
 48
50.0
370
    -2
100
AcDbLine
 10
6943.6
 20
5571.90777793016
 30
0.0
 11
7102.197085004765
 21
5571.90777793016
 31
0.0
  0
LINE
  5
26DDA
330
26579
100
AcDbEntity
  8
寸法
 62
     0
 48
50.0
370
    -2
100
AcDbLine
 10
7042.197085004764
 20
5691.907777930211
 30
0.0
 11
7042.197085004764
 21
5571.90777793016
 31
0.0
  0
LINE
  5
26DDB
330
26579
100
AcDbEntity
  8
寸法
 62
     0
 48
50.0
370
    -2
100
AcDbLine
 10
7042.197085004764
 20
5571.90777793016
 30
0.0
 11
7042.197085004764
 21
5165.80147871756
 31
0.0
  0
INSERT
  5
26DDC
330
26579
100
AcDbEntity
  8
寸法
 62
     0
 48
50.0
370
    -2
100
AcDbBlockReference
  2
_DOTSMALL
 10
7042.197085004764
 20
5691.907777930211
 30
0.0
 41
100.0
 42
100.0
 43
100.0
 50
90.0
  0
INSERT
  5
26DDD
330
26579
100
AcDbEntity
  8
寸法
 62
     0
 48
50.0
370
    -2
100
AcDbBlockReference
  2
_DOTSMALL
 10
7042.197085004764
 20
5571.90777793016
 30
0.0
 41
100.0
 42
100.0
 43
100.0
 50
270.0
  0
MTEXT
  5
26DDE
330
26579
100
AcDbEntity
  8
寸法
 62
     7
 48
50.0
100
AcDbMText
 10
6942.185273981142
 20
5301.848722812049
 30
0.0
 40
120.0
 41
0.0
 71
     5
 72
     1
  1
\A1;120
  7
STYLE1
 11
0.0000000000000001
 21
1.0
 31
0.0
 73
     1
 44
1.0
1001
ACAD
1000
MTEXTBEGIN
1070
    73
1070
     1
1070
    44
1040
1.0
1070
    74
1070
     0
1000
MTEXTEND
  0
POINT
  5
26DDF
330
26579
100
AcDbEntity
  8
DEFPOINTS
 62
     0
 48
50.0
100
AcDbPoint
 10
6923.600000000002
 20
5691.907777930211
 30
0.0
  0
POINT
  5
26DE0
330
26579
100
AcDbEntity
  8
DEFPOINTS
 62
     0
 48
50.0
100
AcDbPoint
 10
6923.6
 20
5571.90777793016
 30
0.0
  0
POINT
  5
26DE1
330
26579
100
AcDbEntity
  8
DEFPOINTS
 62
     0
 48
50.0
100
AcDbPoint
 10
7042.197085004764
 20
5571.90777793016
 30
0.0
  0
ENDBLK
  5
26585
330
26579
100
AcDbEntity
  8
0
 48
50.0
100
AcDbBlockEnd
  0
BLOCK
  5
26591
330
26586
100
AcDbEntity
  8
0
 48
50.0
100
AcDbBlockBegin
  2
*D39
 70
     1
 10
0.0
 20
0.0
 30
0.0
  3
*D39
  1

  0
LINE
  5
26DCE
330
26586
100
AcDbEntity
  8
寸法
 62
     0
 48
50.0
370
    -2
100
AcDbLine
 10
6943.600000000002
 20
5691.907777930207
 30
0.0
 11
7102.197085004765
 21
5691.907777930207
 31
0.0
  0
LINE
  5
26DCF
330
26586
100
AcDbEntity
  8
寸法
 62
     0
 48
50.0
370
    -2
100
AcDbLine
 10
6943.6
 20
5801.907777930163
 30
0.0
 11
7102.197085004765
 21
5801.907777930163
 31
0.0
  0
LINE
  5
26DD0
330
26586
100
AcDbEntity
  8
寸法
 62
     0
 48
50.0
370
    -2
100
AcDbLine
 10
7042.197085004764
 20
5691.907777930207
 30
0.0
 11
7042.197085004764
 21
5801.907777930163
 31
0.0
  0
LINE
  5
26DD1
330
26586
100
AcDbEntity
  8
寸法
 62
     0
 48
50.0
370
    -2
100
AcDbLine
 10
7042.197085004764
 20
5801.907777930163
 30
0.0
 11
7042.197085004765
 21
6162.00226611914
 31
0.0
  0
INSERT
  5
26DD2
330
26586
100
AcDbEntity
  8
寸法
 62
     0
 48
50.0
370
    -2
100
AcDbBlockReference
  2
_DOTSMALL
 10
7042.197085004764
 20
5691.907777930207
 30
0.0
 41
100.0
 42
100.0
 43
100.0
 50
270.0
  0
INSERT
  5
26DD3
330
26586
100
AcDbEntity
  8
寸法
 62
     0
 48
50.0
370
    -2
100
AcDbBlockReference
  2
_DOTSMALL
 10
7042.197085004764
 20
5801.907777930163
 30
0.0
 41
100.0
 42
100.0
 43
100.0
 50
90.0
  0
MTEXT
  5
26DD4
330
26586
100
AcDbEntity
  8
寸法
 62
     7
 48
50.0
100
AcDbMText
 10
6942.197085004764
 20
6037.955022024654
 30
0.0
 40
120.0
 41
0.0
 71
     5
 72
     1
  1
\A1;110
  7
STYLE1
 11
0.0000000000000001
 21
1.0
 31
0.0
 73
     1
 44
1.0
1001
ACAD
1000
MTEXTBEGIN
1070
    73
1070
     1
1070
    44
1040
1.0
1070
    74
1070
     0
1000
MTEXTEND
  0
POINT
  5
26DD5
330
26586
100
AcDbEntity
  8
DEFPOINTS
 62
     0
 48
50.0
100
AcDbPoint
 10
6923.600000000002
 20
5691.907777930207
 30
0.0
  0
POINT
  5
26DD6
330
26586
100
AcDbEntity
  8
DEFPOINTS
 62
     0
 48
50.0
100
AcDbPoint
 10
6923.6
 20
5801.907777930163
 30
0.0
  0
POINT
  5
26DD7
330
26586
100
AcDbEntity
  8
DEFPOINTS
 62
     0
 48
50.0
100
AcDbPoint
 10
7042.197085004764
 20
5801.907777930163
 30
0.0
  0
ENDBLK
  5
26592
330
26586
100
AcDbEntity
  8
0
 48
50.0
100
AcDbBlockEnd
  0
BLOCK
  5
2659D
330
26593
100
AcDbEntity
  8
0
 48
50.0
100
AcDbBlockBegin
  2
*D40
 70
     1
 10
0.0
 20
0.0
 30
0.0
  3
*D40
  1

  0
LINE
  5
267CB
330
26593
100
AcDbEntity
  8
寸法
 62
     0
 48
50.0
370
    -2
100
AcDbLine
 10
9301.600000000002
 20
5476.907777930161
 30
0.0
 11
9301.600000000002
 21
4884.687091109451
 31
0.0
  0
LINE
  5
267CC
330
26593
100
AcDbEntity
  8
寸法
 62
     0
 48
50.0
370
    -2
100
AcDbLine
 10
7146.600000000001
 20
5476.907777930193
 30
0.0
 11
7146.600000000001
 21
4884.687091109451
 31
0.0
  0
LINE
  5
267CD
330
26593
100
AcDbEntity
  8
寸法
 62
     0
 48
50.0
370
    -2
100
AcDbLine
 10
9301.600000000002
 20
4944.687091109451
 30
0.0
 11
7146.600000000001
 21
4944.687091109451
 31
0.0
  0
INSERT
  5
267CE
330
26593
100
AcDbEntity
  8
寸法
 62
     0
 48
50.0
370
    -2
100
AcDbBlockReference
  2
_DOTSMALL
 10
9301.600000000002
 20
4944.687091109451
 30
0.0
 41
100.0
 42
100.0
 43
100.0
  0
INSERT
  5
267CF
330
26593
100
AcDbEntity
  8
寸法
 62
     0
 48
50.0
370
    -2
100
AcDbBlockReference
  2
_DOTSMALL
 10
7146.600000000001
 20
4944.687091109451
 30
0.0
 41
100.0
 42
100.0
 43
100.0
 50
180.0
  0
MTEXT
  5
267D0
330
26593
100
AcDbEntity
  8
寸法
 62
     7
 48
50.0
100
AcDbMText
 10
8224.100000000003
 20
5044.698902133073
 30
0.0
 40
120.0
 41
0.0
 71
     5
 72
     1
  1
\A1;扉の幅 2155
  7
STYLE1
 73
     1
 44
1.0
1001
ACAD
1000
MTEXTBEGIN
1070
    73
1070
     1
1070
    44
1040
1.0
1070
    74
1070
     0
1000
MTEXTEND
  0
POINT
  5
267D1
330
26593
100
AcDbEntity
  8
DEFPOINTS
 62
     0
 48
50.0
100
AcDbPoint
 10
9301.600000000002
 20
5496.907777930161
 30
0.0
  0
POINT
  5
267D2
330
26593
100
AcDbEntity
  8
DEFPOINTS
 62
     0
 48
50.0
100
AcDbPoint
 10
7146.600000000001
 20
5496.907777930193
 30
0.0
  0
POINT
  5
267D3
330
26593
100
AcDbEntity
  8
DEFPOINTS
 62
     0
 48
50.0
100
AcDbPoint
 10
7146.600000000001
 20
4944.687091109451
 30
0.0
  0
ENDBLK
  5
2659E
330
26593
100
AcDbEntity
  8
0
 48
50.0
100
AcDbBlockEnd
  0
BLOCK
  5
265AA
330
2659F
100
AcDbEntity
  8
0
 48
50.0
100
AcDbBlockBegin
  2
*D41
 70
     1
 10
0.0
 20
0.0
 30
0.0
  3
*D41
  1

  0
LINE
  5
26DEC
330
2659F
100
AcDbEntity
  8
寸法
 62
     0
 48
50.0
370
    -2
100
AcDbLine
 10
7166.599999999964
 20
5496.907777930188
 30
0.0
 11
7475.743526793876
 21
5496.907777930188
 31
0.0
  0
LINE
  5
26DED
330
2659F
100
AcDbEntity
  8
寸法
 62
     0
 48
50.0
370
    -2
100
AcDbLine
 10
7062.197085004765
 20
5691.907777930207
 30
0.0
 11
7475.743526793876
 21
5691.907777930207
 31
0.0
  0
LINE
  5
26DEE
330
2659F
100
AcDbEntity
  8
寸法
 62
     0
 48
50.0
370
    -2
100
AcDbLine
 10
7415.743526793875
 20
5691.907777930207
 30
0.0
 11
7415.743526793875
 21
5496.907777930188
 31
0.0
  0
LINE
  5
26DEF
330
2659F
100
AcDbEntity
  8
寸法
 62
     0
 48
50.0
370
    -2
100
AcDbLine
 10
7415.743526793875
 20
5496.907777930188
 30
0.0
 11
7415.743526793875
 21
5119.517895522397
 31
0.0
  0
INSERT
  5
26DF0
330
2659F
100
AcDbEntity
  8
寸法
 62
     0
 48
50.0
370
    -2
100
AcDbBlockReference
  2
_DOTSMALL
 10
7415.743526793875
 20
5691.907777930207
 30
0.0
 41
100.0
 42
100.0
 43
100.0
 50
90.0
  0
INSERT
  5
26DF1
330
2659F
100
AcDbEntity
  8
寸法
 62
     0
 48
50.0
370
    -2
100
AcDbBlockReference
  2
_DOTSMALL
 10
7415.743526793875
 20
5496.907777930188
 30
0.0
 41
100.0
 42
100.0
 43
100.0
 50
270.0
  0
MTEXT
  5
26DF2
330
2659F
100
AcDbEntity
  8
寸法
 62
     7
 48
50.0
100
AcDbMText
 10
7315.743526793875
 20
5258.212836726295
 30
0.0
 40
120.0
 41
0.0
 71
     5
 72
     1
  1
\A1;195
  7
STYLE1
 11
0.0000000000000001
 21
1.0
 31
0.0
 73
     1
 44
1.0
1001
ACAD
1000
MTEXTBEGIN
1070
    73
1070
     1
1070
    44
1040
1.0
1070
    74
1070
     0
1000
MTEXTEND
  0
POINT
  5
26DF3
330
2659F
100
AcDbEntity
  8
DEFPOINTS
 62
     0
 48
50.0
100
AcDbPoint
 10
7146.599999999963
 20
5496.907777930188
 30
0.0
  0
POINT
  5
26DF4
330
2659F
100
AcDbEntity
  8
DEFPOINTS
 62
     0
 48
50.0
100
AcDbPoint
 10
7042.197085004764
 20
5691.907777930207
 30
0.0
  0
POINT
  5
26DF5
330
2659F
100
AcDbEntity
  8
DEFPOINTS
 62
     0
 48
50.0
100
AcDbPoint
 10
7415.743526793875
 20
5691.907777930207
 30
0.0
  0
ENDBLK
  5
265AB
330
2659F
100
AcDbEntity
  8
0
 48
50.0
100
AcDbBlockEnd
  0
BLOCK
  5
266B6
330
266AA
100
AcDbEntity
  8
0
 48
50.0
100
AcDbBlockBegin
  2
*D42
 70
     1
 10
0.0
 20
0.0
 30
0.0
  3
*D42
  1

  0
LINE
  5
26808
330
266AA
100
AcDbEntity
  8
寸法
 62
     0
 48
50.0
370
    -2
100
AcDbLine
 10
7126.599999999964
 20
5496.907777930188
 30
0.0
 11
6092.129227237224
 21
5496.907777930189
 31
0.0
  0
LINE
  5
26809
330
266AA
100
AcDbEntity
  8
寸法
 62
     0
 48
50.0
370
    -2
100
AcDbLine
 10
6673.6
 20
5571.907777930158
 30
0.0
 11
6092.129227237224
 21
5571.907777930158
 31
0.0
  0
LINE
  5
2680A
330
266AA
100
AcDbEntity
  8
寸法
 62
     0
 48
50.0
370
    -2
100
AcDbLine
 10
6152.129227237224
 20
5571.907777930158
 30
0.0
 11
6152.129227237224
 21
5671.907777930158
 31
0.0
  0
LINE
  5
2680B
330
266AA
100
AcDbEntity
  8
寸法
 62
     0
 48
50.0
370
    -2
100
AcDbLine
 10
6152.129227237224
 20
5496.907777930188
 30
0.0
 11
6152.129227237224
 21
4629.937215181711
 31
0.0
  0
LINE
  5
2680C
330
266AA
100
AcDbEntity
  8
寸法
 62
     0
 48
50.0
370
    -2
100
AcDbLine
 10
6152.129227237224
 20
5571.907777930158
 30
0.0
 11
6152.129227237224
 21
5496.907777930188
 31
0.0
  0
INSERT
  5
2680D
330
266AA
100
AcDbEntity
  8
寸法
 62
     0
 48
50.0
370
    -2
100
AcDbBlockReference
  2
_DOTSMALL
 10
6152.129227237224
 20
5571.907777930158
 30
0.0
 41
100.0
 42
100.0
 43
100.0
 50
270.0
  0
INSERT
  5
2680E
330
266AA
100
AcDbEntity
  8
寸法
 62
     0
 48
50.0
370
    -2
100
AcDbBlockReference
  2
_DOTSMALL
 10
6152.129227237224
 20
5496.907777930188
 30
0.0
 41
100.0
 42
100.0
 43
100.0
 50
90.0
  0
MTEXT
  5
2680F
330
266AA
100
AcDbEntity
  8
寸法
 62
     7
 48
50.0
100
AcDbMText
 10
6052.129227237223
 20
4963.422496555952
 30
0.0
 40
120.0
 41
0.0
 71
     5
 72
     1
  1
\A1;扉の出75
  7
STYLE1
 11
0.0000000000000001
 21
1.0
 31
0.0
 73
     1
 44
1.0
1001
ACAD
1000
MTEXTBEGIN
1070
    73
1070
     1
1070
    44
1040
1.0
1070
    74
1070
     0
1000
MTEXTEND
  0
POINT
  5
26810
330
266AA
100
AcDbEntity
  8
DEFPOINTS
 62
     0
 48
50.0
100
AcDbPoint
 10
7146.599999999963
 20
5496.907777930188
 30
0.0
  0
POINT
  5
26811
330
266AA
100
AcDbEntity
  8
DEFPOINTS
 62
     0
 48
50.0
100
AcDbPoint
 10
6693.6
 20
5571.907777930158
 30
0.0
  0
POINT
  5
26812
330
266AA
100
AcDbEntity
  8
DEFPOINTS
 62
     0
 48
50.0
100
AcDbPoint
 10
6152.129227237224
 20
5571.907777930158
 30
0.0
  0
ENDBLK
  5
266B7
330
266AA
100
AcDbEntity
  8
0
 48
50.0
100
AcDbBlockEnd
  0
BLOCK
  5
266C2
330
266B8
100
AcDbEntity
  8
0
 48
50.0
100
AcDbBlockBegin
  2
*D43
 70
     1
 10
0.0
 20
0.0
 30
0.0
  3
*D43
  1

  0
LINE
  5
267D4
330
266B8
100
AcDbEntity
  8
寸法
 62
     0
 48
50.0
370
    -2
100
AcDbLine
 10
7146.600000000001
 20
5476.907777930147
 30
0.0
 11
7146.600000000001
 21
4884.687091109451
 31
0.0
  0
LINE
  5
267D5
330
266B8
100
AcDbEntity
  8
寸法
 62
     0
 48
50.0
370
    -2
100
AcDbLine
 10
6693.6
 20
5551.907777930158
 30
0.0
 11
6693.6
 21
4884.687091109451
 31
0.0
  0
LINE
  5
267D6
330
266B8
100
AcDbEntity
  8
寸法
 62
     0
 48
50.0
370
    -2
100
AcDbLine
 10
7146.600000000001
 20
4944.687091109451
 30
0.0
 11
6693.6
 21
4944.687091109451
 31
0.0
  0
INSERT
  5
267D7
330
266B8
100
AcDbEntity
  8
寸法
 62
     0
 48
50.0
370
    -2
100
AcDbBlockReference
  2
_DOTSMALL
 10
7146.600000000001
 20
4944.687091109451
 30
0.0
 41
100.0
 42
100.0
 43
100.0
  0
INSERT
  5
267D8
330
266B8
100
AcDbEntity
  8
寸法
 62
     0
 48
50.0
370
    -2
100
AcDbBlockReference
  2
_DOTSMALL
 10
6693.6
 20
4944.687091109451
 30
0.0
 41
100.0
 42
100.0
 43
100.0
 50
180.0
  0
MTEXT
  5
267D9
330
266B8
100
AcDbEntity
  8
寸法
 62
     7
 48
50.0
100
AcDbMText
 10
6916.400741355807
 20
5044.687091109452
 30
0.0
 40
120.0
 41
0.0
 71
     5
 72
     1
  1
\A1;453
  7
STYLE1
 73
     1
 44
1.0
1001
ACAD
1000
MTEXTBEGIN
1070
    73
1070
     1
1070
    44
1040
1.0
1070
    74
1070
     0
1000
MTEXTEND
  0
POINT
  5
267DA
330
266B8
100
AcDbEntity
  8
DEFPOINTS
 62
     0
 48
50.0
100
AcDbPoint
 10
7146.600000000001
 20
5496.907777930147
 30
0.0
  0
POINT
  5
267DB
330
266B8
100
AcDbEntity
  8
DEFPOINTS
 62
     0
 48
50.0
100
AcDbPoint
 10
6693.6
 20
5571.907777930158
 30
0.0
  0
POINT
  5
267DC
330
266B8
100
AcDbEntity
  8
DEFPOINTS
 62
     0
 48
50.0
100
AcDbPoint
 10
6693.6
 20
4944.687091109451
 30
0.0
  0
ENDBLK
  5
266C3
330
266B8
100
AcDbEntity
  8
0
 48
50.0
100
AcDbBlockEnd
  0
BLOCK
  5
26AFE
330
26AF2
100
AcDbEntity
  8
0
 48
50.0
100
AcDbBlockBegin
  2
*D44
 70
     1
 10
0.0
 20
0.0
 30
0.0
  3
*D44
  1

  0
LINE
  5
26CC4
330
26AF2
100
AcDbEntity
  8
寸法
 62
     0
 48
50.0
370
    -2
100
AcDbLine
 10
5563.05629643655
 20
5526.295673787299
 30
0.0
 11
5271.113199717151
 21
5526.295673787299
 31
0.0
  0
LINE
  5
26CC5
330
26AF2
100
AcDbEntity
  8
寸法
 62
     0
 48
50.0
370
    -2
100
AcDbLine
 10
6673.6
 20
5571.907777930158
 30
0.0
 11
5271.113199717151
 21
5571.907777930158
 31
0.0
  0
LINE
  5
26CC6
330
26AF2
100
AcDbEntity
  8
寸法
 62
     0
 48
50.0
370
    -2
100
AcDbLine
 10
5331.113199717151
 20
5571.907777930158
 30
0.0
 11
5331.113199717151
 21
5671.907777930158
 31
0.0
  0
LINE
  5
26CC7
330
26AF2
100
AcDbEntity
  8
寸法
 62
     0
 48
50.0
370
    -2
100
AcDbLine
 10
5331.113199717151
 20
5526.295673787299
 30
0.0
 11
5331.113199717151
 21
5193.94643138238
 31
0.0
  0
LINE
  5
26CC8
330
26AF2
100
AcDbEntity
  8
寸法
 62
     0
 48
50.0
370
    -2
100
AcDbLine
 10
5331.113199717151
 20
5571.907777930158
 30
0.0
 11
5331.113199717151
 21
5526.295673787299
 31
0.0
  0
INSERT
  5
26CC9
330
26AF2
100
AcDbEntity
  8
寸法
 62
     0
 48
50.0
370
    -2
100
AcDbBlockReference
  2
_DOTSMALL
 10
5331.113199717151
 20
5571.907777930158
 30
0.0
 41
100.0
 42
100.0
 43
100.0
 50
270.0
  0
INSERT
  5
26CCA
330
26AF2
100
AcDbEntity
  8
寸法
 62
     0
 48
50.0
370
    -2
100
AcDbBlockReference
  2
_DOTSMALL
 10
5331.113199717151
 20
5526.295673787299
 30
0.0
 41
100.0
 42
100.0
 43
100.0
 50
90.0
  0
MTEXT
  5
26CCB
330
26AF2
100
AcDbEntity
  8
寸法
 62
     7
 48
50.0
100
AcDbMText
 10
5231.11319971715
 20
5260.121052584839
 30
0.0
 40
120.0
 41
0.0
 71
     5
 72
     1
  1
\A1;a
  7
STYLE1
 11
0.0000000000000001
 21
1.0
 31
0.0
 73
     1
 44
1.0
1001
ACAD
1000
MTEXTBEGIN
1070
    73
1070
     1
1070
    44
1040
1.0
1070
    74
1070
     0
1000
MTEXTEND
  0
POINT
  5
26CCC
330
26AF2
100
AcDbEntity
  8
DEFPOINTS
 62
     0
 48
50.0
100
AcDbPoint
 10
5583.056296436549
 20
5526.295673787299
 30
0.0
  0
POINT
  5
26CCD
330
26AF2
100
AcDbEntity
  8
DEFPOINTS
 62
     0
 48
50.0
100
AcDbPoint
 10
6693.6
 20
5571.907777930158
 30
0.0
  0
POINT
  5
26CCE
330
26AF2
100
AcDbEntity
  8
DEFPOINTS
 62
     0
 48
50.0
100
AcDbPoint
 10
5331.113199717151
 20
5571.907777930158
 30
0.0
  0
ENDBLK
  5
26AFF
330
26AF2
100
AcDbEntity
  8
0
 48
50.0
100
AcDbBlockEnd
  0
BLOCK
  5
26B0C
330
26B00
100
AcDbEntity
  8
0
 48
50.0
100
AcDbBlockBegin
  2
*D45
 70
     1
 10
0.0
 20
0.0
 30
0.0
  3
*D45
  1

  0
LINE
  5
26C8D
330
26B00
100
AcDbEntity
  8
寸法
 62
     0
 48
50.0
370
    -2
100
AcDbLine
 10
6693.6
 20
8231.907777930207
 30
0.0
 11
6693.6
 21
9230.128099989126
 31
0.0
  0
LINE
  5
26C8E
330
26B00
100
AcDbEntity
  8
寸法
 62
     0
 48
50.0
370
    -2
100
AcDbLine
 10
6638.600000000012
 20
8977.66740447229
 30
0.0
 11
6638.600000000012
 21
9230.128099989126
 31
0.0
  0
LINE
  5
26C8F
330
26B00
100
AcDbEntity
  8
寸法
 62
     0
 48
50.0
370
    -2
100
AcDbLine
 10
6693.6
 20
9170.128099989126
 30
0.0
 11
6793.600000000001
 21
9170.128099989126
 31
0.0
  0
LINE
  5
26C90
330
26B00
100
AcDbEntity
  8
寸法
 62
     0
 48
50.0
370
    -2
100
AcDbLine
 10
6638.600000000012
 20
9170.128099989126
 30
0.0
 11
6538.600000000013
 21
9170.128099989126
 31
0.0
  0
LINE
  5
26C91
330
26B00
100
AcDbEntity
  8
寸法
 62
     0
 48
50.0
370
    -2
100
AcDbLine
 10
6693.6
 20
9170.128099989126
 30
0.0
 11
6638.600000000012
 21
9170.128099989126
 31
0.0
  0
INSERT
  5
26C92
330
26B00
100
AcDbEntity
  8
寸法
 62
     0
 48
50.0
370
    -2
100
AcDbBlockReference
  2
_DOTSMALL
 10
6693.6
 20
9170.128099989126
 30
0.0
 41
100.0
 42
100.0
 43
100.0
 50
180.0
  0
INSERT
  5
26C93
330
26B00
100
AcDbEntity
  8
寸法
 62
     0
 48
50.0
370
    -2
100
AcDbBlockReference
  2
_DOTSMALL
 10
6638.600000000012
 20
9170.128099989126
 30
0.0
 41
100.0
 42
100.0
 43
100.0
  0
MTEXT
  5
26C94
330
26B00
100
AcDbEntity
  8
寸法
 62
     7
 48
50.0
100
AcDbMText
 10
6666.100000000006
 20
9270.128099989127
 30
0.0
 40
120.0
 41
0.0
 71
     5
 72
     1
  1
\A1;b
  7
STYLE1
 73
     1
 44
1.0
1001
ACAD
1000
MTEXTBEGIN
1070
    73
1070
     1
1070
    44
1040
1.0
1070
    74
1070
     0
1000
MTEXTEND
  0
POINT
  5
26C95
330
26B00
100
AcDbEntity
  8
DEFPOINTS
 62
     0
 48
50.0
100
AcDbPoint
 10
6693.6
 20
8211.907777930205
 30
0.0
  0
POINT
  5
26C96
330
26B00
100
AcDbEntity
  8
DEFPOINTS
 62
     0
 48
50.0
100
AcDbPoint
 10
6638.600000000012
 20
8957.667404472289
 30
0.0
  0
POINT
  5
26C97
330
26B00
100
AcDbEntity
  8
DEFPOINTS
 62
     0
 48
50.0
100
AcDbPoint
 10
6638.600000000012
 20
9170.128099989126
 30
0.0
  0
ENDBLK
  5
26B0D
330
26B00
100
AcDbEntity
  8
0
 48
50.0
100
AcDbBlockEnd
  0
BLOCK
  5
26B1A
330
26B0E
100
AcDbEntity
  8
0
 48
50.0
100
AcDbBlockBegin
  2
*D46
 70
     1
 10
0.0
 20
0.0
 30
0.0
  3
*D46
  1

  0
LINE
  5
26C98
330
26B0E
100
AcDbEntity
  8
寸法
 62
     0
 48
50.0
370
    -2
100
AcDbLine
 10
9828.600000000003
 20
8977.66740447229
 30
0.0
 11
9828.600000000003
 21
9230.128099989126
 31
0.0
  0
LINE
  5
26C99
330
26B0E
100
AcDbEntity
  8
寸法
 62
     0
 48
50.0
370
    -2
100
AcDbLine
 10
9753.6
 20
8231.907777930207
 30
0.0
 11
9753.6
 21
9230.128099989126
 31
0.0
  0
LINE
  5
26C9A
330
26B0E
100
AcDbEntity
  8
寸法
 62
     0
 48
50.0
370
    -2
100
AcDbLine
 10
9828.600000000003
 20
9170.128099989126
 30
0.0
 11
9928.600000000002
 21
9170.128099989126
 31
0.0
  0
LINE
  5
26C9B
330
26B0E
100
AcDbEntity
  8
寸法
 62
     0
 48
50.0
370
    -2
100
AcDbLine
 10
9753.6
 20
9170.128099989126
 30
0.0
 11
9653.6
 21
9170.128099989126
 31
0.0
  0
LINE
  5
26C9C
330
26B0E
100
AcDbEntity
  8
寸法
 62
     0
 48
50.0
370
    -2
100
AcDbLine
 10
9828.600000000003
 20
9170.128099989126
 30
0.0
 11
9753.6
 21
9170.128099989126
 31
0.0
  0
INSERT
  5
26C9D
330
26B0E
100
AcDbEntity
  8
寸法
 62
     0
 48
50.0
370
    -2
100
AcDbBlockReference
  2
_DOTSMALL
 10
9828.600000000003
 20
9170.128099989126
 30
0.0
 41
100.0
 42
100.0
 43
100.0
 50
180.0
  0
INSERT
  5
26C9E
330
26B0E
100
AcDbEntity
  8
寸法
 62
     0
 48
50.0
370
    -2
100
AcDbBlockReference
  2
_DOTSMALL
 10
9753.6
 20
9170.128099989126
 30
0.0
 41
100.0
 42
100.0
 43
100.0
  0
MTEXT
  5
26C9F
330
26B0E
100
AcDbEntity
  8
寸法
 62
     7
 48
50.0
100
AcDbMText
 10
9791.100000000003
 20
9270.128099989127
 30
0.0
 40
120.0
 41
0.0
 71
     5
 72
     1
  1
\A1;c
  7
STYLE1
 73
     1
 44
1.0
1001
ACAD
1000
MTEXTBEGIN
1070
    73
1070
     1
1070
    44
1040
1.0
1070
    74
1070
     0
1000
MTEXTEND
  0
POINT
  5
26CA0
330
26B0E
100
AcDbEntity
  8
DEFPOINTS
 62
     0
 48
50.0
100
AcDbPoint
 10
9828.600000000003
 20
8957.667404472289
 30
0.0
  0
POINT
  5
26CA1
330
26B0E
100
AcDbEntity
  8
DEFPOINTS
 62
     0
 48
50.0
100
AcDbPoint
 10
9753.6
 20
8211.907777930205
 30
0.0
  0
POINT
  5
26CA2
330
26B0E
100
AcDbEntity
  8
DEFPOINTS
 62
     0
 48
50.0
100
AcDbPoint
 10
9753.6
 20
9170.128099989126
 30
0.0
  0
ENDBLK
  5
26B1B
330
26B0E
100
AcDbEntity
  8
0
 48
50.0
100
AcDbBlockEnd
  0
BLOCK
  5
26B28
330
26B1C
100
AcDbEntity
  8
0
 48
50.0
100
AcDbBlockBegin
  2
*D47
 70
     1
 10
0.0
 20
0.0
 30
0.0
  3
*D47
  1

  0
LINE
  5
26CAE
330
26B1C
100
AcDbEntity
  8
寸法
 62
     0
 48
50.0
370
    -2
100
AcDbLine
 10
6673.6
 20
8211.907777930205
 30
0.0
 11
5271.11319971715
 21
8211.907777930205
 31
0.0
  0
LINE
  5
26CAF
330
26B1C
100
AcDbEntity
  8
寸法
 62
     0
 48
50.0
370
    -2
100
AcDbLine
 10
5563.056296436548
 20
8257.519882073109
 30
0.0
 11
5271.11319971715
 21
8257.519882073109
 31
0.0
  0
LINE
  5
26CB0
330
26B1C
100
AcDbEntity
  8
寸法
 62
     0
 48
50.0
370
    -2
100
AcDbLine
 10
5331.113199717151
 20
8211.907777930205
 30
0.0
 11
5331.113199717151
 21
8111.907777930206
 31
0.0
  0
LINE
  5
26CB1
330
26B1C
100
AcDbEntity
  8
寸法
 62
     0
 48
50.0
370
    -2
100
AcDbLine
 10
5331.113199717151
 20
8257.519882073109
 30
0.0
 11
5331.113199717151
 21
8594.869124478027
 31
0.0
  0
LINE
  5
26CB2
330
26B1C
100
AcDbEntity
  8
寸法
 62
     0
 48
50.0
370
    -2
100
AcDbLine
 10
5331.113199717151
 20
8211.907777930205
 30
0.0
 11
5331.113199717151
 21
8257.519882073109
 31
0.0
  0
INSERT
  5
26CB3
330
26B1C
100
AcDbEntity
  8
寸法
 62
     0
 48
50.0
370
    -2
100
AcDbBlockReference
  2
_DOTSMALL
 10
5331.113199717151
 20
8211.907777930205
 30
0.0
 41
100.0
 42
100.0
 43
100.0
 50
90.0
  0
INSERT
  5
26CB4
330
26B1C
100
AcDbEntity
  8
寸法
 62
     0
 48
50.0
370
    -2
100
AcDbBlockReference
  2
_DOTSMALL
 10
5331.113199717151
 20
8257.519882073109
 30
0.0
 41
100.0
 42
100.0
 43
100.0
 50
270.0
  0
MTEXT
  5
26CB5
330
26B1C
100
AcDbEntity
  8
寸法
 62
     7
 48
50.0
100
AcDbMText
 10
5231.11319971715
 20
8528.694503275568
 30
0.0
 40
120.0
 41
0.0
 71
     5
 72
     1
  1
\A1;a
  7
STYLE1
 11
0.0000000000000001
 21
1.0
 31
0.0
 73
     1
 44
1.0
1001
ACAD
1000
MTEXTBEGIN
1070
    73
1070
     1
1070
    44
1040
1.0
1070
    74
1070
     0
1000
MTEXTEND
  0
POINT
  5
26CB6
330
26B1C
100
AcDbEntity
  8
DEFPOINTS
 62
     0
 48
50.0
100
AcDbPoint
 10
6693.6
 20
8211.907777930205
 30
0.0
  0
POINT
  5
26CB7
330
26B1C
100
AcDbEntity
  8
DEFPOINTS
 62
     0
 48
50.0
100
AcDbPoint
 10
5583.056296436549
 20
8257.519882073109
 30
0.0
  0
POINT
  5
26CB8
330
26B1C
100
AcDbEntity
  8
DEFPOINTS
 62
     0
 48
50.0
100
AcDbPoint
 10
5331.113199717151
 20
8257.519882073109
 30
0.0
  0
ENDBLK
  5
26B29
330
26B1C
100
AcDbEntity
  8
0
 48
50.0
100
AcDbBlockEnd
  0
BLOCK
  5
27763
330
27759
100
AcDbEntity
  8
0
 48
50.0
100
AcDbBlockBegin
  2
*D60
 70
     1
 10
0.0
 20
0.0
 30
0.0
  3
*D60
  1

  0
LINE
  5
277A6
330
27759
100
AcDbEntity
  8
寸法
 62
     0
 48
50.0
370
    -2
100
AcDbLine
 10
8438.172805204157
 20
2126.466043724018
 30
0.0
 11
8980.041404972999
 21
2126.466043724018
 31
0.0
  0
LINE
  5
277A7
330
27759
100
AcDbEntity
  8
寸法
 62
     0
 48
50.0
370
    -2
100
AcDbLine
 10
8438.172805204157
 20
1802.466043724017
 30
0.0
 11
8980.041404972999
 21
1802.466043724017
 31
0.0
  0
LINE
  5
277A8
330
27759
100
AcDbEntity
  8
寸法
 62
     0
 48
50.0
370
    -2
100
AcDbLine
 10
8920.041404972998
 20
2126.466043724018
 30
0.0
 11
8920.041404972998
 21
1802.466043724017
 31
0.0
  0
INSERT
  5
277A9
330
27759
100
AcDbEntity
  8
寸法
 62
     0
 48
50.0
370
    -2
100
AcDbBlockReference
  2
_DOTSMALL
 10
8920.041404972998
 20
2126.466043724018
 30
0.0
 41
100.0
 42
100.0
 43
100.0
 50
90.0
  0
INSERT
  5
277AA
330
27759
100
AcDbEntity
  8
寸法
 62
     0
 48
50.0
370
    -2
100
AcDbBlockReference
  2
_DOTSMALL
 10
8920.041404972998
 20
1802.466043724017
 30
0.0
 41
100.0
 42
100.0
 43
100.0
 50
270.0
  0
MTEXT
  5
277AB
330
27759
100
AcDbEntity
  8
寸法
 62
     7
 48
50.0
100
AcDbMText
 10
8820.041404972998
 20
1964.466043724019
 30
0.0
 40
120.0
 41
0.0
 71
     5
 72
     1
  1
\A1;180
  7
STYLE1
 11
0.0000000000000001
 21
1.0
 31
0.0
 73
     1
 44
1.0
1001
ACAD
1000
MTEXTBEGIN
1070
    73
1070
     1
1070
    44
1040
1.0
1070
    74
1070
     0
1000
MTEXTEND
  0
POINT
  5
277AC
330
27759
100
AcDbEntity
  8
DEFPOINTS
 62
     0
 48
50.0
100
AcDbPoint
 10
8418.172805204156
 20
2126.466043724018
 30
0.0
  0
POINT
  5
277AD
330
27759
100
AcDbEntity
  8
DEFPOINTS
 62
     0
 48
50.0
100
AcDbPoint
 10
8418.172805204156
 20
1802.466043724017
 30
0.0
  0
POINT
  5
277AE
330
27759
100
AcDbEntity
  8
DEFPOINTS
 62
     0
 48
50.0
100
AcDbPoint
 10
8920.041404972998
 20
1802.466043724017
 30
0.0
  0
ENDBLK
  5
27764
330
27759
100
AcDbEntity
  8
0
 48
50.0
100
AcDbBlockEnd
  0
BLOCK
  5
27774
330
27765
100
AcDbEntity
  8
0
 48
50.0
100
AcDbBlockBegin
  2
*D61
 70
     1
 10
0.0
 20
0.0
 30
0.0
  3
*D61
  1

  0
LINE
  5
277AF
330
27765
100
AcDbEntity
  8
寸法
 62
     0
 48
50.0
370
    -2
100
AcDbLine
 10
8250.972805204158
 20
2179.226043724019
 30
0.0
 11
8980.041404972999
 21
2179.226043724019
 31
0.0
  0
LINE
  5
277B0
330
27765
100
AcDbEntity
  8
寸法
 62
     0
 48
50.0
370
    -2
100
AcDbLine
 10
8438.172805204157
 20
2126.466043724018
 30
0.0
 11
8980.041404972999
 21
2126.466043724018
 31
0.0
  0
LINE
  5
277B1
330
27765
100
AcDbEntity
  8
寸法
 62
     0
 48
50.0
370
    -2
100
AcDbLine
 10
8920.041404972998
 20
2179.226043724019
 30
0.0
 11
8920.041404972998
 21
2279.226043724019
 31
0.0
  0
LINE
  5
277B2
330
27765
100
AcDbEntity
  8
寸法
 62
     0
 48
50.0
370
    -2
100
AcDbLine
 10
8920.041404972998
 20
2126.466043724018
 30
0.0
 11
8920.041404972998
 21
2026.466043724018
 31
0.0
  0
LINE
  5
277B3
330
27765
100
AcDbEntity
  8
寸法
 62
     0
 48
50.0
370
    -2
100
AcDbLine
 10
8920.041404972998
 20
2152.846043724019
 30
0.0
 11
9196.096071092027
 21
2141.342086119805
 31
0.0
  0
LINE
  5
277B4
330
27765
100
AcDbEntity
  8
寸法
 62
     0
 48
50.0
370
    -2
100
AcDbLine
 10
9196.096071092027
 20
2141.342086119805
 30
0.0
 11
9196.096071092027
 21
1609.324279276839
 31
0.0
  0
MTEXT
  5
277B5
330
27765
100
AcDbEntity
  8
寸法
 62
     7
 48
50.0
100
AcDbMText
 10
9096.084260068405
 20
1875.333182698324
 30
0.0
 40
120.0
 41
0.0
 71
     5
 72
     1
  1
\A1;20～25
  7
STYLE1
 11
0.0000000000000001
 21
1.0
 31
0.0
 73
     1
 44
1.0
1001
ACAD
1000
MTEXTBEGIN
1070
    73
1070
     1
1070
    44
1040
1.0
1070
    74
1070
     0
1000
MTEXTEND
  0
LINE
  5
277B6
330
27765
100
AcDbEntity
  8
寸法
 62
     0
 48
50.0
370
    -2
100
AcDbLine
 10
8920.041404972998
 20
2179.226043724019
 30
0.0
 11
8920.041404972998
 21
2126.466043724018
 31
0.0
  0
LINE
  5
277B7
330
27765
100
AcDbEntity
  8
寸法
 62
     0
 48
50.0
370
    -2
100
AcDbLine
 10
8920.041404972998
 20
2179.226043724019
 30
0.0
 11
8920.041404972998
 21
2126.466043724018
 31
0.0
  0
INSERT
  5
277B8
330
27765
100
AcDbEntity
  8
寸法
 62
     0
 48
50.0
370
    -2
100
AcDbBlockReference
  2
_DOTSMALL
 10
8920.041404972998
 20
2179.226043724019
 30
0.0
 41
100.0
 42
100.0
 43
100.0
 50
270.0
  0
INSERT
  5
277B9
330
27765
100
AcDbEntity
  8
寸法
 62
     0
 48
50.0
370
    -2
100
AcDbBlockReference
  2
_DOTSMALL
 10
8920.041404972998
 20
2126.466043724018
 30
0.0
 41
100.0
 42
100.0
 43
100.0
 50
90.0
  0
POINT
  5
277BA
330
27765
100
AcDbEntity
  8
DEFPOINTS
 62
     0
 48
50.0
100
AcDbPoint
 10
8230.972805204158
 20
2179.226043724019
 30
0.0
  0
POINT
  5
277BB
330
27765
100
AcDbEntity
  8
DEFPOINTS
 62
     0
 48
50.0
100
AcDbPoint
 10
8418.172805204156
 20
2126.466043724018
 30
0.0
  0
POINT
  5
277BC
330
27765
100
AcDbEntity
  8
DEFPOINTS
 62
     0
 48
50.0
100
AcDbPoint
 10
8920.041404972998
 20
2126.466043724018
 30
0.0
  0
ENDBLK
  5
27775
330
27765
100
AcDbEntity
  8
0
 48
50.0
100
AcDbBlockEnd
  0
BLOCK
  5
27780
330
27776
100
AcDbEntity
  8
0
 48
50.0
100
AcDbBlockBegin
  2
*D62
 70
     1
 10
0.0
 20
0.0
 30
0.0
  3
*D62
  1

  0
LINE
  5
277BD
330
27776
100
AcDbEntity
  8
寸法
 62
     0
 48
50.0
370
    -2
100
AcDbLine
 10
6156.133492026962
 20
1582.466043724018
 30
0.0
 11
5973.713178294502
 21
1582.466043724018
 31
0.0
  0
LINE
  5
277BE
330
27776
100
AcDbEntity
  8
寸法
 62
     0
 48
50.0
370
    -2
100
AcDbLine
 10
6076.133492026965
 20
1342.466043724018
 30
0.0
 11
5973.713178294502
 21
1342.466043724018
 31
0.0
  0
LINE
  5
277BF
330
27776
100
AcDbEntity
  8
寸法
 62
     0
 48
50.0
370
    -2
100
AcDbLine
 10
6033.713178294503
 20
1582.466043724018
 30
0.0
 11
6033.713178294503
 21
1342.466043724018
 31
0.0
  0
MTEXT
  5
277C0
330
27776
100
AcDbEntity
  8
寸法
 62
     7
 48
50.0
100
AcDbMText
 10
5933.713178294503
 20
1462.466043724018
 30
0.0
 40
120.0
 41
0.0
 71
     5
 72
     1
  1
\A1;150
  7
STYLE1
 11
0.0000000000000001
 21
1.0
 31
0.0
 73
     1
 44
1.0
1001
ACAD
1000
MTEXTBEGIN
1070
    73
1070
     1
1070
    44
1040
1.0
1070
    74
1070
     0
1000
MTEXTEND
  0
INSERT
  5
277C1
330
27776
100
AcDbEntity
  8
寸法
 62
     0
 48
50.0
370
    -2
100
AcDbBlockReference
  2
_DOTSMALL
 10
6033.713178294503
 20
1582.466043724018
 30
0.0
 41
100.0
 42
100.0
 43
100.0
 50
90.0
  0
INSERT
  5
277C2
330
27776
100
AcDbEntity
  8
寸法
 62
     0
 48
50.0
370
    -2
100
AcDbBlockReference
  2
_DOTSMALL
 10
6033.713178294503
 20
1342.466043724018
 30
0.0
 41
100.0
 42
100.0
 43
100.0
 50
270.0
  0
POINT
  5
277C3
330
27776
100
AcDbEntity
  8
DEFPOINTS
 62
     0
 48
50.0
100
AcDbPoint
 10
6176.133492026962
 20
1582.466043724018
 30
0.0
  0
POINT
  5
277C4
330
27776
100
AcDbEntity
  8
DEFPOINTS
 62
     0
 48
50.0
100
AcDbPoint
 10
6096.133492026965
 20
1342.466043724018
 30
0.0
  0
POINT
  5
277C5
330
27776
100
AcDbEntity
  8
DEFPOINTS
 62
     0
 48
50.0
100
AcDbPoint
 10
6033.713178294503
 20
1342.466043724018
 30
0.0
  0
ENDBLK
  5
27781
330
27776
100
AcDbEntity
  8
0
 48
50.0
100
AcDbBlockEnd
  0
BLOCK
  5
2778C
330
27782
100
AcDbEntity
  8
0
 48
50.0
100
AcDbBlockBegin
  2
*D63
 70
     1
 10
0.0
 20
0.0
 30
0.0
  3
*D63
  1

  0
LINE
  5
277C6
330
27782
100
AcDbEntity
  8
寸法
 62
     0
 48
50.0
370
    -2
100
AcDbLine
 10
6284.133492026962
 20
2126.466043724018
 30
0.0
 11
5509.096253465222
 21
2126.466043724018
 31
0.0
  0
LINE
  5
277C7
330
27782
100
AcDbEntity
  8
寸法
 62
     0
 48
50.0
370
    -2
100
AcDbLine
 10
6076.133492026965
 20
1342.466043724018
 30
0.0
 11
5509.09625346522
 21
1342.466043724018
 31
0.0
  0
LINE
  5
277C8
330
27782
100
AcDbEntity
  8
寸法
 62
     0
 48
50.0
370
    -2
100
AcDbLine
 10
5569.096253465222
 20
2126.466043724018
 30
0.0
 11
5569.096253465221
 21
1342.466043724018
 31
0.0
  0
MTEXT
  5
277C9
330
27782
100
AcDbEntity
  8
寸法
 62
     7
 48
50.0
100
AcDbMText
 10
5469.096253465221
 20
1714.006193380019
 30
0.0
 40
120.0
 41
0.0
 71
     5
 72
     1
  1
\A1;540
  7
STYLE1
 11
0.0000000000000001
 21
1.0
 31
0.0
 73
     1
 44
1.0
1001
ACAD
1000
MTEXTBEGIN
1070
    73
1070
     1
1070
    44
1040
1.0
1070
    74
1070
     0
1000
MTEXTEND
  0
INSERT
  5
277CA
330
27782
100
AcDbEntity
  8
寸法
 62
     0
 48
50.0
370
    -2
100
AcDbBlockReference
  2
_DOTSMALL
 10
5569.096253465222
 20
2126.466043724018
 30
0.0
 41
100.0
 42
100.0
 43
100.0
 50
90.0
  0
INSERT
  5
277CB
330
27782
100
AcDbEntity
  8
寸法
 62
     0
 48
50.0
370
    -2
100
AcDbBlockReference
  2
_DOTSMALL
 10
5569.096253465221
 20
1342.466043724018
 30
0.0
 41
100.0
 42
100.0
 43
100.0
 50
270.0
  0
POINT
  5
277CC
330
27782
100
AcDbEntity
  8
DEFPOINTS
 62
     0
 48
50.0
100
AcDbPoint
 10
6304.133492026962
 20
2126.466043724018
 30
0.0
  0
POINT
  5
277CD
330
27782
100
AcDbEntity
  8
DEFPOINTS
 62
     0
 48
50.0
100
AcDbPoint
 10
6096.133492026965
 20
1342.466043724018
 30
0.0
  0
POINT
  5
277CE
330
27782
100
AcDbEntity
  8
DEFPOINTS
 62
     0
 48
50.0
100
AcDbPoint
 10
5569.096253465221
 20
1342.466043724018
 30
0.0
  0
ENDBLK
  5
2778D
330
27782
100
AcDbEntity
  8
0
 48
50.0
100
AcDbBlockEnd
  0
BLOCK
  5
27798
330
2778E
100
AcDbEntity
  8
0
 48
50.0
100
AcDbBlockBegin
  2
*D64
 70
     1
 10
0.0
 20
0.0
 30
0.0
  3
*D64
  1

  0
LINE
  5
277CF
330
2778E
100
AcDbEntity
  8
寸法
 62
     0
 48
50.0
370
    -2
100
AcDbLine
 10
6176.133492026962
 20
1194.466043724018
 30
0.0
 11
6176.133492026962
 21
744.036405718858
 31
0.0
  0
LINE
  5
277D0
330
2778E
100
AcDbEntity
  8
寸法
 62
     0
 48
50.0
370
    -2
100
AcDbLine
 10
6624.133492026962
 20
1194.466043724018
 30
0.0
 11
6624.133492026962
 21
744.036405718858
 31
0.0
  0
LINE
  5
277D1
330
2778E
100
AcDbEntity
  8
寸法
 62
     0
 48
50.0
370
    -2
100
AcDbLine
 10
6176.133492026962
 20
804.0364057188581
 30
0.0
 11
6624.133492026962
 21
804.0364057188581
 31
0.0
  0
MTEXT
  5
277D2
330
2778E
100
AcDbEntity
  8
寸法
 62
     7
 48
50.0
100
AcDbMText
 10
6380.036733348738
 20
904.0364057188581
 30
0.0
 40
120.0
 41
0.0
 71
     5
 72
     1
  1
\A1;300
  7
STYLE1
 73
     1
 44
1.0
1001
ACAD
1000
MTEXTBEGIN
1070
    73
1070
     1
1070
    44
1040
1.0
1070
    74
1070
     0
1000
MTEXTEND
  0
INSERT
  5
277D3
330
2778E
100
AcDbEntity
  8
寸法
 62
     0
 48
50.0
370
    -2
100
AcDbBlockReference
  2
_DOTSMALL
 10
6176.133492026962
 20
804.0364057188581
 30
0.0
 41
100.0
 42
100.0
 43
100.0
 50
180.0
  0
INSERT
  5
277D4
330
2778E
100
AcDbEntity
  8
寸法
 62
     0
 48
50.0
370
    -2
100
AcDbBlockReference
  2
_DOTSMALL
 10
6624.133492026962
 20
804.0364057188581
 30
0.0
 41
100.0
 42
100.0
 43
100.0
  0
POINT
  5
277D5
330
2778E
100
AcDbEntity
  8
DEFPOINTS
 62
     0
 48
50.0
100
AcDbPoint
 10
6176.133492026962
 20
1214.466043724018
 30
0.0
  0
POINT
  5
277D6
330
2778E
100
AcDbEntity
  8
DEFPOINTS
 62
     0
 48
50.0
100
AcDbPoint
 10
6624.133492026962
 20
1214.466043724018
 30
0.0
  0
POINT
  5
277D7
330
2778E
100
AcDbEntity
  8
DEFPOINTS
 62
     0
 48
50.0
100
AcDbPoint
 10
6624.133492026962
 20
804.0364057188581
 30
0.0
  0
ENDBLK
  5
27799
330
2778E
100
AcDbEntity
  8
0
 48
50.0
100
AcDbBlockEnd
  0
BLOCK
  5
277A4
330
2779A
100
AcDbEntity
  8
0
 48
50.0
100
AcDbBlockBegin
  2
*D65
 70
     1
 10
0.0
 20
0.0
 30
0.0
  3
*D65
  1

  0
LINE
  5
277D8
330
2779A
100
AcDbEntity
  8
寸法
 62
     0
 48
50.0
370
    -2
100
AcDbLine
 10
6496.133492026962
 20
2146.466043724018
 30
0.0
 11
6496.133492026962
 21
2506.466043724018
 31
0.0
  0
LINE
  5
277D9
330
2779A
100
AcDbEntity
  8
寸法
 62
     0
 48
50.0
370
    -2
100
AcDbLine
 10
6304.133492026962
 20
2146.466043724018
 30
0.0
 11
6304.133492026962
 21
2506.466043724018
 31
0.0
  0
LINE
  5
277DA
330
2779A
100
AcDbEntity
  8
寸法
 62
     0
 48
50.0
370
    -2
100
AcDbLine
 10
6496.133492026962
 20
2446.466043724019
 30
0.0
 11
6304.133492026962
 21
2446.466043724019
 31
0.0
  0
MTEXT
  5
277DB
330
2779A
100
AcDbEntity
  8
寸法
 62
     7
 48
50.0
100
AcDbMText
 10
6411.359822372159
 20
2746.145662664021
 30
0.0
 40
120.0
 41
0.0
 71
     5
 72
     1
  1
\A1;120\P195
  7
STYLE1
 73
     1
 44
1.0
1001
ACAD
1000
MTEXTBEGIN
1070
    73
1070
     1
1070
    44
1040
1.0
1070
    74
1070
     0
1000
MTEXTEND
  0
INSERT
  5
277DC
330
2779A
100
AcDbEntity
  8
寸法
 62
     0
 48
50.0
370
    -2
100
AcDbBlockReference
  2
_DOTSMALL
 10
6496.133492026962
 20
2446.466043724019
 30
0.0
 41
100.0
 42
100.0
 43
100.0
  0
INSERT
  5
277DD
330
2779A
100
AcDbEntity
  8
寸法
 62
     0
 48
50.0
370
    -2
100
AcDbBlockReference
  2
_DOTSMALL
 10
6304.133492026962
 20
2446.466043724019
 30
0.0
 41
100.0
 42
100.0
 43
100.0
 50
180.0
  0
POINT
  5
277DE
330
2779A
100
AcDbEntity
  8
DEFPOINTS
 62
     0
 48
50.0
100
AcDbPoint
 10
6496.133492026962
 20
2126.466043724018
 30
0.0
  0
POINT
  5
277DF
330
2779A
100
AcDbEntity
  8
DEFPOINTS
 62
     0
 48
50.0
100
AcDbPoint
 10
6304.133492026962
 20
2126.466043724018
 30
0.0
  0
POINT
  5
277E0
330
2779A
100
AcDbEntity
  8
DEFPOINTS
 62
     0
 48
50.0
100
AcDbPoint
 10
6304.133492026962
 20
2446.466043724019
 30
0.0
  0
ENDBLK
  5
277A5
330
2779A
100
AcDbEntity
  8
0
 48
50.0
100
AcDbBlockEnd
  0
ENDSEC
  0
SECTION
  2
ENTITIES
  0
MTEXT
  5
763F
330
747D
100
AcDbEntity
  8
0
100
AcDbMText
 10
302.846345836809
 20
280.1983726409901
 30
0.0
 40
3.5
 41
5.323721266742722
 71
     1
 72
     5
  1

  7
MSMINCHO
 73
     1
 44
1.0
1001
ACAD
1000
MTEXTBEGIN
1070
    73
1070
     1
1070
    44
1040
1.0
1070
    74
1070
     0
1000
MTEXTEND
  0
LINE
  5
10B57
330
747D
100
AcDbEntity
  8
補助
  6
PHANTOM
 62
   230
 48
50.0
100
AcDbLine
 10
139.9999999999995
 20
11409.6
 30
0.0
 11
16307.2
 21
11409.6
 31
0.0
  0
LINE
  5
10B59
330
747D
100
AcDbEntity
  8
仕様書枠
  6
Continuous
 48
50.0
100
AcDbLine
 10
13107.2
 20
1200.0
 30
0.0
 11
13107.2
 21
-0.0000000000000729
 31
0.0
  0
LINE
  5
10B5D
330
747D
100
AcDbEntity
  8
仕様書枠
 48
50.0
100
AcDbLine
 10
140.0
 20
0.0
 30
0.0
 11
16307.2
 21
-0.0000000000000909
 31
0.0
  0
LINE
  5
10B5E
330
747D
100
AcDbEntity
  8
補助
  6
PHANTOM
 62
   230
 48
50.0
100
AcDbLine
 10
16307.2
 20
11409.6
 30
0.0
 11
16307.2
 21
1200.0
 31
0.0
  0
LINE
  5
10B6C
330
747D
100
AcDbEntity
  8
仕様書枠
 48
50.0
100
AcDbLine
 10
13107.2
 20
1200.0
 30
0.0
 11
16307.2
 21
1200.0
 31
0.0
  0
TEXT
  5
10B73
330
747D
100
AcDbEntity
  8
文字
 62
     7
 48
50.0
100
AcDbText
 10
13162.9790565769
 20
895.0906074299405
 30
0.0
 40
200.0
  1
基 礎 図
  7
STYLE2
100
AcDbText
  0
LINE
  5
10B7B
330
747D
100
AcDbEntity
  8
仕様書枠
 48
50.0
100
AcDbLine
 10
13107.2
 20
800.0
 30
0.0
 11
14251.2
 21
800.0
 31
0.0
  0
LINE
  5
10B88
330
747D
100
AcDbEntity
  8
仕様書枠
  6
Continuous
 48
50.0
100
AcDbLine
 10
14251.2
 20
1200.0
 30
0.0
 11
14251.2
 21
800.0
 31
0.0
  0
LINE
  5
16462
330
747D
100
AcDbEntity
  8
仕様書枠
 48
50.0
100
AcDbLine
 10
16307.2
 20
1200.0
 30
0.0
 11
16307.2
 21
-0.0000000000000909
 31
0.0
  0
LINE
  5
1903B
330
747D
100
AcDbEntity
  8
補助
  6
PHANTOM
 62
   230
 48
50.0
100
AcDbLine
 10
140.0
 20
0.0
 30
0.0
 11
139.9999999999995
 21
11409.6
 31
0.0
  0
TEXT
  5
1C7A1
330
747D
100
AcDbEntity
  8
文字
 62
     7
 48
50.0
100
AcDbText
 10
13188.16259899338
 20
79.80631269190417
 30
0.0
 40
80.0
  1
※布基礎には換気口を設けてください。
  7
STYLE2
100
AcDbText
  0
TEXT
  5
1C7E7
330
747D
100
AcDbEntity
  8
文字
 62
     7
 48
50.0
100
AcDbText
 10
13188.16259899338
 20
246.7109242801889
 30
0.0
 40
80.0
  1
※寒冷地等は地域の実情に合わせた基礎にして下さい。
  7
STYLE2
100
AcDbText
  0
TEXT
  5
1C7E8
330
747D
100
AcDbEntity
  8
文字
 62
     7
 48
50.0
100
AcDbText
 10
14372.78745508789
 20
499.5983841039506
 30
0.0
 40
160.0
  1
ＮＸＮ－８０ＳＢ/ＨＢ
  7
STYLE2
100
AcDbText
  0
TEXT
  5
1C7E9
330
747D
100
AcDbEntity
  8
文字
 62
     7
 48
50.0
100
AcDbText
 10
14641.2525855784
 20
871.1744590657927
 30
0.0
 40
100.0
  1
～一般型・多雪地型～
  7
STYLE2
100
AcDbText
  0
TEXT
  5
1C7EC
330
747D
100
AcDbEntity
  8
文字
 62
     7
 48
50.0
100
AcDbText
 10
14524.131837222
 20
1031.557706291229
 30
0.0
 40
100.0
  1
      　    <縮尺> S=1/40
  7
STYLE2
100
AcDbText
  0
TEXT
  5
1C7ED
330
747D
100
AcDbEntity
  8
文字
 62
     7
 48
50.0
100
AcDbText
 10
13201.43669998441
 20
477.2740661031257
 30
0.0
 40
160.0
  1
機種名
  7
STYLE2
100
AcDbText
  0
LINE
  5
1C7EF
330
747D
100
AcDbEntity
  8
文字
 62
     7
 48
50.0
100
AcDbLine
 10
13187.2
 20
400.0
 30
0.0
 11
16227.2
 21
400.0
 31
0.0
  0
LINE
  5
2561E
102
{ACAD_REACTORS
330
26D8D
102
}
330
747D
100
AcDbEntity
  8
部品1
 48
50.0
100
AcDbLine
 10
9301.6
 20
5496.907777930208
 30
0.0
 11
7146.600000000001
 21
5496.907777930193
 31
0.0
  0
DIMENSION
  5
2561F
330
747D
100
AcDbEntity
  8
寸法
 48
50.0
100
AcDbDimension
  2
*D19
 10
8223.600000000001
 20
8738.817543578532
 30
0.0
 11
8587.100000000001
 21
8838.829354602154
 31
0.0
 70
    32
 71
     5
 42
727.0
  3
INABA_S40G
100
AcDbAlignedDimension
 13
8950.599999999999
 23
7436.907777930205
 33
0.0
 14
8223.600000000001
 24
7436.907777930205
 34
0.0
100
AcDbRotatedDimension
1001
ACAD
1000
DSTYLE
1002
{
1070
   174
1070
     0
1070
   272
1070
     1
1070
   341
1005
0
1002
}
  0
LINE
  5
25623
102
{ACAD_REACTORS
330
26D49
102
}
330
747D
100
AcDbEntity
  8
部品1
 48
50.0
100
AcDbLine
 10
9753.6
 20
8211.907777930205
 30
0.0
 11
6693.6
 21
8211.907777930205
 31
0.0
  0
DIMENSION
  5
25624
330
747D
100
AcDbEntity
  8
寸法
 48
50.0
100
AcDbDimension
  2
*D20
 10
9753.6
 20
9170.128099989126
 30
0.0
 11
8223.600000000001
 21
9270.128099989127
 31
0.0
 70
    32
 71
     5
 42
3060.0
  3
INABA_S40G
100
AcDbAlignedDimension
 13
6693.6
 23
8211.907777930205
 33
0.0
 14
9753.6
 24
8211.907777930205
 34
0.0
100
AcDbRotatedDimension
1001
ACAD
1000
DSTYLE
1002
{
1070
   174
1070
     0
1070
   272
1070
     1
1070
   341
1005
0
1002
}
  0
DIMENSION
  5
25628
330
747D
100
AcDbEntity
  8
寸法
 48
50.0
100
AcDbDimension
  2
*D21
 10
6816.600000000001
 20
8957.667404472287
 30
0.0
 11
8223.600000000001
 21
9057.679215495909
 31
0.0
 70
    32
 71
     5
 42
2814.0
  3
INABA_S40G
100
AcDbAlignedDimension
 13
9630.600000000001
 23
8138.907777930205
 33
0.0
 14
6816.600000000001
 24
8138.907777930205
 34
0.0
100
AcDbRotatedDimension
1001
ACAD
1000
DSTYLE
1002
{
1070
   174
1070
     0
1070
   272
1070
     1
1070
   341
1005
0
1002
}
  0
DIMENSION
  5
25629
330
747D
100
AcDbEntity
  8
寸法
 48
50.0
100
AcDbDimension
  2
*D22
 10
7140.307249876099
 20
7981.9077779302
 30
0.0
 11
7140.307249876098
 21
7641.848722812088
 31
0.0
 70
   160
 71
     5
 42
110.0000000000072
  3
INABA_S40G
100
AcDbAlignedDimension
 13
6923.6
 23
8091.907777930208
 33
0.0
 14
6923.6
 24
7981.9077779302
 34
0.0
 50
90.0
100
AcDbRotatedDimension
1001
ACAD
1000
DSTYLE
1002
{
1070
   174
1070
     0
1070
   272
1070
     1
1070
   341
1005
0
1002
}
  0
DIMENSION
  5
2562A
330
747D
100
AcDbEntity
  8
寸法
 48
50.0
100
AcDbDimension
  2
*D23
 10
6693.6
 20
8738.817543578532
 30
0.0
 11
7095.100000000001
 21
8838.817543578533
 31
0.0
 70
    32
 71
     5
 42
803.0
  3
INABA_S40G
100
AcDbAlignedDimension
 13
7496.6
 23
7436.907777930205
 33
0.0
 14
6693.6
 24
8211.907777930205
 34
0.0
100
AcDbRotatedDimension
1001
ACAD
1000
DSTYLE
1002
{
1070
   174
1070
     0
1070
   272
1070
     1
1070
   341
1005
0
1002
}
  0
DIMENSION
  5
2562B
330
747D
100
AcDbEntity
  8
寸法
 48
50.0
100
AcDbDimension
  2
*D24
 10
7496.6
 20
8738.817543578532
 30
0.0
 11
7860.1
 21
8838.829354602154
 31
0.0
 70
    32
 71
     5
 42
727.0
  3
INABA_S40G
100
AcDbAlignedDimension
 13
8223.600000000001
 23
7436.907777930205
 33
0.0
 14
7496.6
 24
7436.907777930205
 34
0.0
100
AcDbRotatedDimension
1001
ACAD
1000
DSTYLE
1002
{
1070
   174
1070
     0
1070
   272
1070
     1
1070
   341
1005
0
1002
}
  0
DIMENSION
  5
2562C
330
747D
100
AcDbEntity
  8
寸法
 48
50.0
100
AcDbDimension
  2
*D25
 10
5583.056296436549
 20
5694.907777930205
 30
0.0
 11
5583.056296436547
 21
6926.907777930202
 31
0.0
 70
   160
 71
     5
 42
2394.0
  3
INABA_S40G
100
AcDbAlignedDimension
 13
6766.600000000001
 23
8088.907777930204
 33
0.0
 14
6766.600000000008
 24
5694.907777930204
 34
0.0
 50
90.0
100
AcDbRotatedDimension
1001
ACAD
1000
DSTYLE
1002
{
1070
   174
1070
     0
1070
   272
1070
     1
1070
   341
1005
0
1002
}
  0
LINE
  5
2562F
102
{ACAD_REACTORS
330
26DAF
102
}
330
747D
100
AcDbEntity
  8
部品1
 48
50.0
100
AcDbLine
 10
6693.6
 20
5571.907777930204
 30
0.0
 11
6693.6
 21
8211.907777930205
 31
0.0
  0
DIMENSION
  5
25630
330
747D
100
AcDbEntity
  8
寸法
 48
50.0
100
AcDbDimension
  2
*D26
 10
5331.113199717151
 20
8211.907777930205
 30
0.0
 11
5331.113199717148
 21
6856.907777930207
 31
0.0
 70
   160
 71
     5
 42
2640.0
  3
INABA_S40G
100
AcDbAlignedDimension
 13
6693.6
 23
5571.907777930204
 33
0.0
 14
6693.6
 24
8211.907777930205
 34
0.0
 50
90.0
100
AcDbRotatedDimension
1001
ACAD
1000
DSTYLE
1002
{
1070
   174
1070
     0
1070
   272
1070
     1
1070
   341
1005
0
1002
}
  0
DIMENSION
  5
25633
330
747D
100
AcDbEntity
  8
寸法
 48
50.0
100
AcDbDimension
  2
*D27
 10
5583.056296436549
 20
5571.907777930205
 30
0.0
 11
5583.056296436547
 21
5298.801176212406
 31
0.0
 70
   160
 71
     5
 42
123.0
  3
INABA_S40G
100
AcDbAlignedDimension
 13
6766.600000000008
 23
5694.907777930204
 33
0.0
 14
6693.6
 24
5571.907777930204
 34
0.0
 50
90.0
100
AcDbRotatedDimension
1001
ACAD
1000
DSTYLE
1002
{
1070
   174
1070
     0
1070
   272
1070
     1
1070
   341
1005
0
1002
}
  0
LINE
  5
25636
102
{ACAD_REACTORS
330
26DAF
102
}
330
747D
100
AcDbEntity
  8
部品1
 48
50.0
100
AcDbLine
 10
6813.6
 20
6991.907777930212
 30
0.0
 11
6693.6
 21
6991.907777930212
 31
0.0
  0
LINE
  5
25637
102
{ACAD_REACTORS
330
26DAF
102
}
330
747D
100
AcDbEntity
  8
部品1
 48
50.0
100
AcDbLine
 10
6813.6
 20
6791.907777930211
 30
0.0
 11
6693.6
 21
6791.907777930211
 31
0.0
  0
LINE
  5
25639
330
747D
100
AcDbEntity
  8
部品1
 48
50.0
100
AcDbLine
 10
6693.6
 20
5571.907777930204
 30
0.0
 11
7146.600000000001
 21
5571.907777930204
 31
0.0
  0
LINE
  5
2563E
330
747D
100
AcDbEntity
  8
センター
 48
2.0
100
AcDbLine
 10
6816.600000000008
 20
5744.907777930205
 30
0.0
 11
6816.600000000008
 21
5644.907777930204
 31
0.0
  0
LINE
  5
2563F
330
747D
100
AcDbEntity
  8
部品1
 48
50.0
100
AcDbLine
 10
6923.600000000002
 20
5691.907777930207
 30
0.0
 11
6923.6
 21
5801.907777930208
 31
0.0
  0
LINE
  5
25640
330
747D
100
AcDbEntity
  8
センター
 48
2.0
100
AcDbLine
 10
6766.600000000008
 20
5694.907777930204
 30
0.0
 11
6866.600000000008
 21
5694.907777930204
 31
0.0
  0
CIRCLE
  5
25641
330
747D
100
AcDbEntity
  8
部品1
 48
50.0
100
AcDbCircle
 10
6816.600000000008
 20
5694.907777930204
 30
0.0
 40
35.0
  0
LINE
  5
25642
330
747D
100
AcDbEntity
  8
部品1
 48
50.0
100
AcDbLine
 10
6923.6
 20
5801.907777930208
 30
0.0
 11
6813.6
 21
5801.907777930205
 31
0.0
  0
LINE
  5
25643
330
747D
100
AcDbEntity
  8
部品1
 48
50.0
100
AcDbLine
 10
7146.600000000001
 20
5496.90777793021
 30
0.0
 11
7146.600000000001
 21
5571.907777930193
 31
0.0
  0
LINE
  5
25644
330
747D
100
AcDbEntity
  8
センター
 48
2.0
100
AcDbLine
 10
7446.6
 20
6446.907777930204
 30
0.0
 11
7546.600000000001
 21
6446.907777930204
 31
0.0
  0
LINE
  5
25645
330
747D
100
AcDbEntity
  8
センター
 48
2.0
100
AcDbLine
 10
7496.6
 20
6496.907777930204
 30
0.0
 11
7496.6
 21
6396.907777930205
 31
0.0
  0
LINE
  5
25648
102
{ACAD_REACTORS
330
26D8D
102
}
330
747D
100
AcDbEntity
  8
部品1
 48
50.0
100
AcDbLine
 10
8123.600000000015
 20
5496.907777930212
 30
0.0
 11
8123.600000000019
 21
5691.907777930213
 31
0.0
  0
LINE
  5
25649
102
{ACAD_REACTORS
330
26D8D
102
}
330
747D
100
AcDbEntity
  8
部品1
 48
50.0
100
AcDbLine
 10
8323.600000000014
 20
5496.907777930213
 30
0.0
 11
8323.60000000002
 21
5691.907777930214
 31
0.0
  0
LINE
  5
2564F
330
747D
100
AcDbEntity
  8
センター
 48
2.0
100
AcDbLine
 10
8173.6
 20
6446.907777930204
 30
0.0
 11
8273.6
 21
6446.907777930204
 31
0.0
  0
LINE
  5
25651
330
747D
100
AcDbEntity
  8
センター
 48
2.0
100
AcDbLine
 10
8223.600000000001
 20
6496.907777930204
 30
0.0
 11
8223.600000000001
 21
6396.907777930205
 31
0.0
  0
LINE
  5
25654
330
747D
100
AcDbEntity
  8
センター
 48
2.0
100
AcDbLine
 10
7446.6
 20
7336.907777930204
 30
0.0
 11
7546.600000000001
 21
7336.907777930204
 31
0.0
  0
LINE
  5
25655
330
747D
100
AcDbEntity
  8
センター
 48
2.0
100
AcDbLine
 10
7496.6
 20
7386.907777930204
 30
0.0
 11
7496.6
 21
7286.907777930204
 31
0.0
  0
LINE
  5
2565B
330
747D
100
AcDbEntity
  8
センター
 48
2.0
100
AcDbLine
 10
8223.600000000001
 20
7386.907777930204
 30
0.0
 11
8223.600000000001
 21
7286.907777930204
 31
0.0
  0
LINE
  5
2565C
330
747D
100
AcDbEntity
  8
センター
 48
2.0
100
AcDbLine
 10
8173.6
 20
7336.907777930204
 30
0.0
 11
8273.6
 21
7336.907777930204
 31
0.0
  0
DIMENSION
  5
2565E
330
747D
100
AcDbEntity
  8
寸法
 48
50.0
100
AcDbDimension
  2
*D28
 10
5583.056296436549
 20
8088.907777930206
 30
0.0
 11
5583.056296436547
 21
8525.014379648004
 31
0.0
 70
   160
 71
     5
 42
123.0
  3
INABA_S40G
100
AcDbAlignedDimension
 13
6693.6
 23
8211.907777930205
 33
0.0
 14
6766.600000000001
 24
8088.907777930204
 34
0.0
 50
90.0
100
AcDbRotatedDimension
1001
ACAD
1000
DSTYLE
1002
{
1070
   174
1070
     0
1070
   272
1070
     1
1070
   341
1005
0
1002
}
  0
LINE
  5
2565F
330
747D
100
AcDbEntity
  8
部品1
 48
50.0
100
AcDbLine
 10
7092.928907166847
 20
8211.9077779302
 30
0.0
 11
6693.6
 21
8211.907777930205
 31
0.0
  0
DIMENSION
  5
25660
330
747D
100
AcDbEntity
  8
寸法
 48
50.0
100
AcDbDimension
  2
*D29
 10
6693.6
 20
8957.667404472287
 30
0.0
 11
6420.493398282203
 21
8957.667404472287
 31
0.0
 70
   160
 71
     5
 42
123.0
  3
INABA_S40G
100
AcDbAlignedDimension
 13
6816.600000000001
 23
8138.907777930205
 33
0.0
 14
6693.6
 24
8211.907777930205
 34
0.0
100
AcDbRotatedDimension
1001
ACAD
1000
DSTYLE
1002
{
1070
   174
1070
     0
1070
   272
1070
     1
1070
   341
1005
0
1002
}
  0
DIMENSION
  5
25663
330
747D
100
AcDbEntity
  8
寸法
 48
50.0
100
AcDbDimension
  2
*D30
 10
7140.307249876099
 20
8211.907777930205
 30
0.0
 11
7140.307249876098
 21
8489.99132120309
 31
0.0
 70
   160
 71
     5
 42
120.0
  3
INABA_S40G
100
AcDbAlignedDimension
 13
6923.6
 23
8091.907777930204
 33
0.0
 14
6923.6
 24
8211.907777930205
 34
0.0
 50
90.0
100
AcDbRotatedDimension
1001
ACAD
1000
DSTYLE
1002
{
1070
   174
1070
     0
1070
   272
1070
     1
1070
   341
1005
0
1002
}
  0
LINE
  5
25664
330
747D
100
AcDbEntity
  8
センター
 48
2.0
100
AcDbLine
 10
6816.600000000001
 20
8138.907777930205
 30
0.0
 11
6816.600000000001
 21
8038.907777930203
 31
0.0
  0
LINE
  5
25665
330
747D
100
AcDbEntity
  8
部品1
 48
50.0
100
AcDbLine
 10
6923.6
 20
7981.9077779302
 30
0.0
 11
6923.600000000002
 21
8091.907777930204
 31
0.0
  0
CIRCLE
  5
25666
330
747D
100
AcDbEntity
  8
部品1
 48
50.0
100
AcDbCircle
 10
6816.600000000001
 20
8088.907777930204
 30
0.0
 40
35.0
  0
LINE
  5
25667
330
747D
100
AcDbEntity
  8
部品1
 48
50.0
100
AcDbLine
 10
6923.6
 20
7981.9077779302
 30
0.0
 11
6813.6
 21
7981.907777930205
 31
0.0
  0
LINE
  5
25668
330
747D
100
AcDbEntity
  8
センター
 48
2.0
100
AcDbLine
 10
6766.600000000001
 20
8088.907777930204
 30
0.0
 11
6866.600000000001
 21
8088.907777930204
 31
0.0
  0
LINE
  5
2566A
102
{ACAD_REACTORS
330
26D49
102
}
330
747D
100
AcDbEntity
  8
部品1
 48
50.0
100
AcDbLine
 10
8123.599999999999
 20
8091.907777930204
 30
0.0
 11
8123.600000000001
 21
8211.907777930203
 31
0.0
  0
LINE
  5
2566B
102
{ACAD_REACTORS
330
26D49
102
}
330
747D
100
AcDbEntity
  8
部品1
 48
50.0
100
AcDbLine
 10
8323.6
 20
8091.907777930204
 30
0.0
 11
8323.6
 21
8211.907777930203
 31
0.0
  0
LINE
  5
2566F
102
{ACAD_REACTORS
330
26D6B
102
}
330
747D
100
AcDbEntity
  8
部品1
 48
50.0
100
AcDbLine
 10
9753.6
 20
5571.907777930222
 30
0.0
 11
9753.6
 21
8211.907777930205
 31
0.0
  0
DIMENSION
  5
25670
330
747D
100
AcDbEntity
  8
寸法
 48
50.0
100
AcDbDimension
  2
*D31
 10
5862.694058666917
 20
8211.907777930205
 30
0.0
 11
5762.694058666916
 21
7774.407777930206
 31
0.0
 70
    32
 71
     5
 42
875.0
  3
INABA_S40G
100
AcDbAlignedDimension
 13
7396.600000000001
 23
7336.907777930204
 33
0.0
 14
6693.600000000002
 24
8211.907777930205
 34
0.0
 50
90.0
100
AcDbRotatedDimension
1001
ACAD
1000
DSTYLE
1002
{
1070
   174
1070
     0
1070
   272
1070
     1
1070
   341
1005
0
1002
}
  0
DIMENSION
  5
25672
330
747D
100
AcDbEntity
  8
寸法
 48
50.0
100
AcDbDimension
  2
*D32
 10
8950.599999999999
 20
8738.817543578532
 30
0.0
 11
9324.518522006279
 21
8738.817543578532
 31
0.0
 70
   160
 71
     5
 42
803.0
  3
INABA_S40G
100
AcDbAlignedDimension
 13
9753.6
 23
8211.907777930205
 33
0.0
 14
8950.599999999999
 24
7436.907777930205
 34
0.0
100
AcDbRotatedDimension
1001
ACAD
1000
DSTYLE
1002
{
1070
   174
1070
     0
1070
   272
1070
     1
1070
   341
1005
0
1002
}
  0
DIMENSION
  5
25673
330
747D
100
AcDbEntity
  8
寸法
 48
50.0
100
AcDbDimension
  2
*D33
 10
5862.694058666917
 20
6446.907777930205
 30
0.0
 11
5762.694058666915
 21
6891.907777930206
 31
0.0
 70
    32
 71
     5
 42
890.0
  3
INABA_S40G
100
AcDbAlignedDimension
 13
7396.600000000001
 23
7336.907777930204
 33
0.0
 14
7396.600000000001
 24
6446.907777930204
 34
0.0
 50
90.0
100
AcDbRotatedDimension
1001
ACAD
1000
DSTYLE
1002
{
1070
   174
1070
     0
1070
   272
1070
     1
1070
   341
1005
0
1002
}
  0
DIMENSION
  5
25675
330
747D
100
AcDbEntity
  8
寸法
 48
50.0
100
AcDbDimension
  2
*D34
 10
5862.694058666917
 20
6446.907777930205
 30
0.0
 11
5862.694058666915
 21
6086.120553595381
 31
0.0
 70
   160
 71
     5
 42
874.9999999999918
  3
INABA_S40G
100
AcDbAlignedDimension
 13
6693.6
 23
5571.907777930213
 33
0.0
 14
7396.600000000001
 24
6446.907777930204
 34
0.0
 50
90.0
100
AcDbRotatedDimension
1001
ACAD
1000
DSTYLE
1002
{
1070
   174
1070
     0
1070
   272
1070
     1
1070
   341
1005
0
1002
}
  0
LINE
  5
25678
330
747D
100
AcDbEntity
  8
センター
 48
2.0
100
AcDbLine
 10
8900.6
 20
6446.907777930204
 30
0.0
 11
9000.6
 21
6446.907777930204
 31
0.0
  0
LINE
  5
2567A
330
747D
100
AcDbEntity
  8
センター
 48
2.0
100
AcDbLine
 10
8950.599999999999
 20
6496.907777930204
 30
0.0
 11
8950.599999999999
 21
6396.907777930205
 31
0.0
  0
LINE
  5
2567D
330
747D
100
AcDbEntity
  8
部品1
 48
50.0
100
AcDbLine
 10
9753.6
 20
5571.907777930222
 30
0.0
 11
9301.6
 21
5571.907777930222
 31
0.0
  0
CIRCLE
  5
2567E
330
747D
100
AcDbEntity
  8
部品1
 48
50.0
100
AcDbCircle
 10
9630.600000000008
 20
5694.907777930204
 30
0.0
 40
35.0
  0
LINE
  5
2567F
330
747D
100
AcDbEntity
  8
部品1
 48
50.0
100
AcDbLine
 10
9633.600000000001
 20
5801.907777930222
 30
0.0
 11
9523.6
 21
5801.907777930222
 31
0.0
  0
LINE
  5
25680
330
747D
100
AcDbEntity
  8
センター
 48
2.0
100
AcDbLine
 10
9580.600000000009
 20
5694.907777930204
 30
0.0
 11
9680.600000000008
 21
5694.907777930204
 31
0.0
  0
LINE
  5
25681
330
747D
100
AcDbEntity
  8
部品1
 48
50.0
100
AcDbLine
 10
9523.6
 20
5691.90777793022
 30
0.0
 11
9523.6
 21
5801.907777930222
 31
0.0
  0
LINE
  5
25682
330
747D
100
AcDbEntity
  8
部品1
 48
50.0
100
AcDbLine
 10
9301.6
 20
5496.90777793021
 30
0.0
 11
9301.6
 21
5571.907777930206
 31
0.0
  0
LINE
  5
25683
330
747D
100
AcDbEntity
  8
センター
 48
2.0
100
AcDbLine
 10
9630.600000000008
 20
5744.907777930205
 30
0.0
 11
9630.600000000008
 21
5644.907777930204
 31
0.0
  0
LINE
  5
25687
330
747D
100
AcDbEntity
  8
センター
 48
2.0
100
AcDbLine
 10
8900.6
 20
7336.907777930204
 30
0.0
 11
9000.6
 21
7336.907777930204
 31
0.0
  0
LINE
  5
25689
330
747D
100
AcDbEntity
  8
センター
 48
2.0
100
AcDbLine
 10
8950.599999999999
 20
7386.907777930204
 30
0.0
 11
8950.599999999999
 21
7286.907777930204
 31
0.0
  0
LINE
  5
2568D
102
{ACAD_REACTORS
330
26D6B
102
}
330
747D
100
AcDbEntity
  8
部品1
 48
50.0
100
AcDbLine
 10
9753.6
 20
6791.907777930211
 30
0.0
 11
9633.600000000001
 21
6791.907777930212
 31
0.0
  0
LINE
  5
2568E
102
{ACAD_REACTORS
330
26D6B
102
}
330
747D
100
AcDbEntity
  8
部品1
 48
50.0
100
AcDbLine
 10
9753.6
 20
6991.907777930212
 30
0.0
 11
9633.600000000001
 21
6991.907777930213
 31
0.0
  0
DIMENSION
  5
2568F
330
747D
100
AcDbEntity
  8
寸法
 48
50.0
100
AcDbDimension
  2
*D35
 10
9630.600000000001
 20
8957.667404472287
 30
0.0
 11
10026.7066017178
 21
8957.667404472287
 31
0.0
 70
   160
 71
     5
 42
123.0
  3
INABA_S40G
100
AcDbAlignedDimension
 13
9753.6
 23
8211.907777930205
 33
0.0
 14
9630.600000000001
 24
8138.907777930205
 34
0.0
100
AcDbRotatedDimension
1001
ACAD
1000
DSTYLE
1002
{
1070
   174
1070
     0
1070
   272
1070
     1
1070
   341
1005
0
1002
}
  0
CIRCLE
  5
25691
330
747D
100
AcDbEntity
  8
部品1
 48
50.0
100
AcDbCircle
 10
9630.600000000001
 20
8088.907777930204
 30
0.0
 40
35.0
  0
LINE
  5
25692
330
747D
100
AcDbEntity
  8
部品1
 48
50.0
100
AcDbLine
 10
9633.600000000001
 20
7981.907777930205
 30
0.0
 11
9523.6
 21
7981.907777930205
 31
0.0
  0
LINE
  5
25693
330
747D
100
AcDbEntity
  8
センター
 48
2.0
100
AcDbLine
 10
9580.600000000002
 20
8088.907777930204
 30
0.0
 11
9680.600000000001
 21
8088.907777930204
 31
0.0
  0
LINE
  5
25694
330
747D
100
AcDbEntity
  8
部品1
 48
50.0
100
AcDbLine
 10
9523.6
 20
7981.907777930205
 30
0.0
 11
9523.6
 21
8091.907777930204
 31
0.0
  0
LINE
  5
25695
330
747D
100
AcDbEntity
  8
センター
 48
2.0
100
AcDbLine
 10
9630.600000000001
 20
8138.907777930205
 30
0.0
 11
9630.600000000001
 21
8038.907777930203
 31
0.0
  0
LWPOLYLINE
  5
25BF9
330
747D
100
AcDbEntity
  8
寸法
 48
50.0
100
AcDbPolyline
 90
        3
 70
     0
 43
0.0
 10
8876.472283077131
 20
7056.406706519227
 10
8837.809206570421
 20
6908.696615746681
 10
8573.504249640459
 20
6908.696615746679
1001
ACAD
1000
DSTYLE
1002
{
1070
   341
1005
0
1070
   343
1005
0
1070
   344
1005
0
1002
}
  0
MTEXT
  5
25BFA
330
747D
100
AcDbEntity
  8
部品1
 62
     7
 48
50.0
100
AcDbMText
 10
8741.362297620367
 20
6999.486312794392
 30
0.0
 40
120.0
 41
0.0
 71
     6
 72
     1
  1
CB
  7
STYLE1
 73
     1
 44
1.0
1001
ACAD
1000
MTEXTBEGIN
1070
    73
1070
     1
1070
    44
1040
1.0
1070
    74
1070
     0
1000
MTEXTEND
  0
SOLID
  5
25BFB
330
747D
100
AcDbEntity
  8
寸法
 48
50.0
100
AcDbTrace
 10
8856.317929497267
 20
7061.682103144645
 30
0.0
 11
8908.124662829639
 21
7177.332827998431
 31
0.0
 12
8896.626636657
 22
7051.13130989381
 32
0.0
 13
8896.626636657
 23
7051.13130989381
 33
0.0
1001
ACAD
1000
DSTYLE
1002
{
1070
   341
1005
0
1070
   343
1005
0
1070
   344
1005
0
1002
}
  0
LEADER
  5
25C67
330
747D
100
AcDbEntity
  8
寸法
 48
50.0
100
AcDbLeader
  3
INABA_S50G
 73
     0
 74
     0
 75
     1
 40
120.0
 41
994.3492424049171
 76
     3
 10
9630.680085757006
 20
8088.921501126412
 30
0.0
 10
9804.645988304972
 20
8377.880272274154
 30
0.0
 10
9929.645988304972
 20
8377.880272274154
 30
0.0
340
25C68
1001
ACAD
1000
DSTYLE
1002
{
1070
   341
1005
0
1070
    40
1040
1.0
1070
   343
1005
0
1070
   344
1005
0
1002
}
  0
MTEXT
  5
25C68
102
{ACAD_REACTORS
330
25C67
102
}
330
747D
100
AcDbEntity
  8
部品1
 62
     7
 48
50.0
100
AcDbMText
 10
10948.99523070989
 20
8462.880272274155
 30
0.0
 40
120.0
 41
0.0
 71
     6
 72
     1
  1
アンカーボルト
  7
STYLE1
 73
     1
 44
1.0
1001
ACAD
1000
MTEXTBEGIN
1070
    73
1070
     1
1070
    44
1040
1.0
1070
    74
1070
     0
1000
MTEXTEND
  0
LEADER
  5
25C69
330
747D
100
AcDbEntity
  8
寸法
 48
50.0
100
AcDbLeader
  3
INABA_S50G
 73
     0
 74
     0
 75
     1
 40
120.0
 41
720.0000000000001
 76
     3
 10
9753.695499614996
 20
6927.665324718879
 30
0.0
 10
9910.46907400128
 20
6666.651411151047
 30
0.0
 10
10035.46907400128
 20
6666.651411151047
 30
0.0
340
25C6A
1001
ACAD
1000
DSTYLE
1002
{
1070
   341
1005
0
1070
    40
1040
1.0
1070
   343
1005
0
1070
   344
1005
0
1002
}
  0
MTEXT
  5
25C6A
102
{ACAD_REACTORS
330
25C69
102
}
330
747D
100
AcDbEntity
  8
部品1
 62
     7
 48
50.0
100
AcDbMText
 10
10780.46907400128
 20
6751.651411151046
 30
0.0
 40
120.0
 41
0.0
 71
     6
 72
     1
  1
\A1;床下換気口
  7
STYLE1
 73
     1
 44
1.0
1001
ACAD
1000
MTEXTBEGIN
1070
    73
1070
     1
1070
    44
1040
1.0
1070
    74
1070
     0
1000
MTEXTEND
  0
DIMENSION
  5
26097
330
747D
100
AcDbEntity
  8
寸法
 48
50.0
100
AcDbDimension
  2
*D36
 10
9523.6
 20
7754.199110429832
 30
0.0
 11
9253.540944881889
 21
7754.199110429832
 31
0.0
 70
   160
 71
     5
 42
110.0
  3
INABA_S40G
100
AcDbAlignedDimension
 13
9633.600000000001
 23
7981.907777930205
 33
0.0
 14
9523.6
 24
7981.907777930205
 34
0.0
100
AcDbRotatedDimension
1001
ACAD
1000
DSTYLE
1002
{
1070
   174
1070
     0
1070
   272
1070
     1
1070
   341
1005
0
1002
}
  0
DIMENSION
  5
26098
330
747D
100
AcDbEntity
  8
寸法
 48
50.0
100
AcDbDimension
  2
*D37
 10
9633.600000000001
 20
7754.199110429832
 30
0.0
 11
10023.65905511811
 21
7754.199110429832
 31
0.0
 70
   160
 71
     5
 42
120.0
  3
INABA_S40G
100
AcDbAlignedDimension
 13
9753.6
 23
7981.907777930207
 33
0.0
 14
9633.600000000001
 24
7981.907777930205
 34
0.0
100
AcDbRotatedDimension
1001
ACAD
1000
DSTYLE
1002
{
1070
   174
1070
     0
1070
   272
1070
     1
1070
   341
1005
0
1002
}
  0
LINE
  5
2650E
330
747D
100
AcDbEntity
  8
寸法
 48
50.0
100
AcDbLine
 10
7440.341458265277
 20
4595.961862207704
 30
0.0
 11
10191.15778665414
 21
4595.961862207704
 31
0.0
210
0.0
220
0.0
230
-1.0
1001
ACAD
1000
DSTYLE
1002
{
1070
   341
1005
0
1070
    40
1040
1.0
1070
   343
1005
0
1070
   344
1005
0
1002
}
  0
LINE
  5
2650F
330
747D
100
AcDbEntity
  8
寸法
 48
50.0
100
AcDbLine
 10
7718.10383822487
 20
5496.907777930177
 30
0.0
 11
7440.341458265277
 21
4595.961862207704
 31
0.0
210
0.0
220
0.0
230
-1.0
1001
ACAD
1000
DSTYLE
1002
{
1070
   341
1005
0
1070
    40
1040
1.0
1070
   343
1005
0
1070
   344
1005
0
1002
}
  0
DIMENSION
  5
26510
330
747D
100
AcDbEntity
  8
寸法
 48
50.0
100
AcDbDimension
  2
*D38
 10
7042.197085004764
 20
5571.90777793016
 30
0.0
 11
7042.197085004764
 21
5301.848722812049
 31
0.0
 70
   160
 71
     5
 42
120.0000000000518
  3
INABA_S40G
100
AcDbAlignedDimension
 13
6923.600000000002
 23
5691.907777930211
 33
0.0
 14
6923.6
 24
5571.90777793016
 34
0.0
 50
90.0
100
AcDbRotatedDimension
1001
ACAD
1000
DSTYLE
1002
{
1070
   174
1070
     0
1070
   272
1070
     1
1070
   341
1005
0
1002
}
  0
DIMENSION
  5
26511
330
747D
100
AcDbEntity
  8
寸法
 48
50.0
100
AcDbDimension
  2
*D39
 10
7042.197085004764
 20
5801.907777930163
 30
0.0
 11
7042.197085004764
 21
6037.955022024654
 31
0.0
 70
   160
 71
     5
 42
109.9999999999554
  3
INABA_S40G
100
AcDbAlignedDimension
 13
6923.600000000002
 23
5691.907777930207
 33
0.0
 14
6923.6
 24
5801.907777930163
 34
0.0
 50
90.0
100
AcDbRotatedDimension
1001
ACAD
1000
DSTYLE
1002
{
1070
   174
1070
     0
1070
   272
1070
     1
1070
   341
1005
0
1002
}
  0
DIMENSION
  5
26512
330
747D
100
AcDbEntity
  8
寸法
 48
50.0
100
AcDbDimension
  2
*D40
 10
7146.600000000001
 20
4944.687091109451
 30
0.0
 11
8224.100000000003
 21
5044.698902133073
 31
0.0
 70
    32
  1
扉の幅 <>
 71
     5
 42
2155.000000000002
  3
INABA_S40G
100
AcDbAlignedDimension
 13
9301.600000000002
 23
5496.907777930161
 33
0.0
 14
7146.600000000001
 24
5496.907777930193
 34
0.0
100
AcDbRotatedDimension
1001
ACAD
1000
DSTYLE
1002
{
1070
   341
1005
0
1002
}
  0
TEXT
  5
26513
330
747D
100
AcDbEntity
  8
寸法
 62
     7
100
AcDbText
 10
7566.813330072307
 20
4627.172996572442
 30
0.0
 40
120.0
  1
扉位置 (2155x75)
  7
STYLE1
100
AcDbText
  0
SOLID
  5
26514
330
747D
100
AcDbEntity
  8
寸法
 48
50.0
100
AcDbTrace
 10
-7701.194632554882
 20
5371.31674902529
 30
0.0
 11
-7718.10383822487
 21
5496.907777930177
 31
0.0
 12
-7661.376418081406
 22
5383.5895199942
 32
0.0
 13
-7661.376418081406
 23
5383.5895199942
 33
0.0
210
0.0
220
0.0
230
-1.0
1001
ACAD
1000
DSTYLE
1002
{
1070
   341
1005
0
1070
    40
1040
1.0
1070
   343
1005
0
1070
   344
1005
0
1002
}
  0
TEXT
  5
26515
330
747D
100
AcDbEntity
  8
寸法
 62
     7
100
AcDbText
 10
7566.813330072307
 20
4455.569233689116
 30
0.0
 40
120.0
  1
扉の位置に合わせた基礎形状として下さい。
  7
STYLE1
100
AcDbText
  0
DIMENSION
  5
26516
330
747D
100
AcDbEntity
  8
寸法
 48
50.0
100
AcDbDimension
  2
*D41
 10
7415.743526793875
 20
5691.907777930207
 30
0.0
 11
7415.743526793875
 21
5258.212836726295
 31
0.0
 70
   160
 71
     5
 42
195.00000000002
  3
INABA_S40G
100
AcDbAlignedDimension
 13
7146.599999999963
 23
5496.907777930188
 33
0.0
 14
7042.197085004764
 24
5691.907777930207
 34
0.0
 50
270.0
100
AcDbRotatedDimension
1001
ACAD
1000
DSTYLE
1002
{
1070
   341
1005
0
1002
}
  0
DIMENSION
  5
26573
330
747D
100
AcDbEntity
  8
寸法
 48
50.0
100
AcDbDimension
  2
*D42
 10
6152.129227237224
 20
5571.907777930158
 30
0.0
 11
6152.129227237223
 21
4963.422496555952
 31
0.0
 70
   160
  1
扉の出<>
 71
     5
 42
74.99999999996998
  3
INABA_S40G
100
AcDbAlignedDimension
 13
7146.599999999963
 23
5496.907777930188
 33
0.0
 14
6693.6
 24
5571.907777930158
 34
0.0
 50
90.0
100
AcDbRotatedDimension
1001
ACAD
1000
DSTYLE
1002
{
1070
   174
1070
     0
1070
   272
1070
     1
1070
   341
1005
0
1002
}
  0
DIMENSION
  5
26574
330
747D
100
AcDbEntity
  8
寸法
 48
50.0
100
AcDbDimension
  2
*D43
 10
6693.6
 20
4944.687091109451
 30
0.0
 11
6916.400741355807
 21
4944.687091109451
 31
0.0
 70
   160
 71
     5
 42
453.0
  3
INABA_S40G
100
AcDbAlignedDimension
 13
7146.600000000001
 23
5496.907777930147
 33
0.0
 14
6693.6
 24
5571.907777930158
 34
0.0
100
AcDbRotatedDimension
1001
ACAD
1000
DSTYLE
1002
{
1070
   174
1070
     0
1070
   272
1070
     1
1070
   341
1005
0
1002
}
  0
DIMENSION
  5
269D9
330
747D
100
AcDbEntity
  8
寸法
 48
50.0
100
AcDbDimension
  2
*D44
 10
5331.113199717151
 20
5571.907777930158
 30
0.0
 11
5331.113199717151
 21
5260.121052584839
 31
0.0
 70
   160
  1
a
 71
     5
 42
45.61210414286051
  3
INABA_S40G
100
AcDbAlignedDimension
 13
5583.056296436549
 23
5526.295673787299
 33
0.0
 14
6693.6
 24
5571.907777930158
 34
0.0
 50
90.0
100
AcDbRotatedDimension
1001
ACAD
1000
DSTYLE
1002
{
1070
   341
1005
0
1002
}
  0
LINE
  5
269DA
330
747D
100
AcDbEntity
  8
想像線
 48
10.0
100
AcDbLine
 10
6638.600000000022
 20
8257.519882073108
 30
0.0
 11
6638.600000000022
 21
7619.531102267455
 31
0.0
  0
LINE
  5
269DB
330
747D
100
AcDbEntity
  8
想像線
 48
10.0
100
AcDbLine
 10
6638.600000000022
 20
8257.519882073111
 30
0.0
 11
9828.600000000013
 21
8257.519882073108
 31
0.0
  0
DIMENSION
  5
269DC
330
747D
100
AcDbEntity
  8
寸法
 48
50.0
100
AcDbDimension
  2
*D45
 10
6638.600000000012
 20
9170.128099989126
 30
0.0
 11
6666.100000000006
 21
9270.128099989127
 31
0.0
 70
    32
  1
b
 71
     5
 42
54.99999999998817
  3
INABA_S40G
100
AcDbAlignedDimension
 13
6693.6
 23
8211.907777930205
 33
0.0
 14
6638.600000000012
 24
8957.667404472289
 34
0.0
100
AcDbRotatedDimension
1001
ACAD
1000
DSTYLE
1002
{
1070
   341
1005
0
1002
}
  0
DIMENSION
  5
269DD
330
747D
100
AcDbEntity
  8
寸法
 48
50.0
100
AcDbDimension
  2
*D46
 10
9753.6
 20
9170.128099989126
 30
0.0
 11
9791.100000000003
 21
9270.128099989127
 31
0.0
 70
    32
  1
c
 71
     5
 42
75.00000000000182
  3
INABA_S40G
100
AcDbAlignedDimension
 13
9828.600000000003
 23
8957.667404472289
 33
0.0
 14
9753.6
 24
8211.907777930205
 34
0.0
100
AcDbRotatedDimension
1001
ACAD
1000
DSTYLE
1002
{
1070
   341
1005
0
1002
}
  0
TEXT
  5
269DE
330
747D
100
AcDbEntity
  8
部品1
 48
50.0
100
AcDbText
 10
10127.33442845753
 20
7234.710182168406
 30
0.0
 40
80.0
  1
(a=45,b=55,c=75)
  7
STYLE1
100
AcDbText
  0
TEXT
  5
269DF
330
747D
100
AcDbEntity
  8
部品1
 48
50.0
100
AcDbText
 10
9968.75541970323
 20
7341.555403037161
 30
0.0
 40
80.0
  1
※a,b,cは屋根の出幅です。
  7
STYLE1
100
AcDbText
  0
MTEXT
  5
269E0
102
{ACAD_REACTORS
330
269E1
102
}
330
747D
100
AcDbEntity
  8
部品1
 62
     7
 48
50.0
100
AcDbMText
 10
10766.54261569183
 20
7520.866089970235
 30
0.0
 40
120.0
 41
0.0
 71
     6
 72
     1
  1
\A1;屋根の外寸
  7
STYLE1
 73
     1
 44
1.0
1001
ACAD
1000
MTEXTBEGIN
1070
    73
1070
     1
1070
    44
1040
1.0
1070
    74
1070
     0
1000
MTEXTEND
  0
LEADER
  5
269E1
330
747D
100
AcDbEntity
  8
寸法
 48
50.0
100
AcDbLeader
  3
INABA_S50G
 73
     0
 74
     0
 75
     1
 40
120.0
 41
672.0
 76
     3
 10
9828.602603499795
 20
7694.755433433811
 30
0.0
 10
9944.542615691837
 20
7435.866089970236
 30
0.0
 10
10069.54261569183
 20
7435.866089970236
 30
0.0
340
269E0
1001
ACAD
1000
DSTYLE
1002
{
1070
   341
1005
0
1070
    40
1040
1.0
1070
   343
1005
0
1070
   344
1005
0
1002
}
  0
DIMENSION
  5
269E2
330
747D
100
AcDbEntity
  8
寸法
 48
50.0
100
AcDbDimension
  2
*D47
 10
5331.113199717151
 20
8257.519882073109
 30
0.0
 11
5331.11319971715
 21
8528.694503275568
 31
0.0
 70
   160
  1
a
 71
     5
 42
45.61210414290508
  3
INABA_S40G
100
AcDbAlignedDimension
 13
6693.6
 23
8211.907777930205
 33
0.0
 14
5583.056296436549
 24
8257.519882073109
 34
0.0
 50
90.0
100
AcDbRotatedDimension
1001
ACAD
1000
DSTYLE
1002
{
1070
   341
1005
0
1002
}
  0
LINE
  5
269E3
330
747D
100
AcDbEntity
  8
想像線
 48
10.0
100
AcDbLine
 10
9828.600000000013
 20
8257.519882073108
 30
0.0
 11
9828.600000000013
 21
7619.531102267455
 31
0.0
  0
LINE
  5
26CE5
330
747D
100
AcDbEntity
  8
部品1
 48
50.0
100
AcDbLine
 10
7591.599999999996
 20
7141.907777930204
 30
0.0
 11
7401.599999999994
 21
7141.907777930204
 31
0.0
  0
LINE
  5
26CE6
330
747D
100
AcDbEntity
  8
部品1
 48
50.0
100
AcDbLine
 10
7401.599999999994
 20
7141.907777930204
 30
0.0
 11
7401.599999999994
 21
7531.907777930205
 31
0.0
  0
LINE
  5
26CE7
330
747D
100
AcDbEntity
  8
部品1
 48
50.0
100
AcDbLine
 10
7591.599999999996
 20
7141.907777930204
 30
0.0
 11
7591.599999999996
 21
7531.907777930205
 31
0.0
  0
LINE
  5
26CE8
330
747D
100
AcDbEntity
  8
部品1
 48
50.0
100
AcDbLine
 10
7591.599999999996
 20
7531.907777930205
 30
0.0
 11
7401.599999999994
 21
7531.907777930205
 31
0.0
  0
LINE
  5
26CED
330
747D
100
AcDbEntity
  8
部品1
 48
50.0
100
AcDbLine
 10
7591.599999999996
 20
6641.907777930204
 30
0.0
 11
7401.599999999994
 21
6641.907777930204
 31
0.0
  0
LINE
  5
26CEE
330
747D
100
AcDbEntity
  8
部品1
 48
50.0
100
AcDbLine
 10
7591.599999999996
 20
6251.907777930204
 30
0.0
 11
7591.599999999996
 21
6641.907777930204
 31
0.0
  0
LINE
  5
26CEF
330
747D
100
AcDbEntity
  8
部品1
 48
50.0
100
AcDbLine
 10
7591.599999999996
 20
6251.907777930204
 30
0.0
 11
7401.599999999994
 21
6251.907777930204
 31
0.0
  0
LINE
  5
26CF0
330
747D
100
AcDbEntity
  8
部品1
 48
50.0
100
AcDbLine
 10
7401.599999999994
 20
6251.907777930204
 30
0.0
 11
7401.599999999994
 21
6641.907777930204
 31
0.0
  0
LINE
  5
26CF1
330
747D
100
AcDbEntity
  8
部品1
 48
50.0
100
AcDbLine
 10
8318.599999999994
 20
7531.907777930205
 30
0.0
 11
8128.599999999995
 21
7531.907777930205
 31
0.0
  0
LINE
  5
26CF2
330
747D
100
AcDbEntity
  8
部品1
 48
50.0
100
AcDbLine
 10
8318.599999999994
 20
7141.907777930206
 30
0.0
 11
8318.599999999994
 21
7531.907777930205
 31
0.0
  0
LINE
  5
26CF3
330
747D
100
AcDbEntity
  8
部品1
 48
50.0
100
AcDbLine
 10
8128.599999999995
 20
7141.907777930206
 30
0.0
 11
8128.599999999995
 21
7531.907777930205
 31
0.0
  0
LINE
  5
26CF4
330
747D
100
AcDbEntity
  8
部品1
 48
50.0
100
AcDbLine
 10
8318.599999999994
 20
7141.907777930206
 30
0.0
 11
8128.599999999995
 21
7141.907777930206
 31
0.0
  0
LINE
  5
26CF5
330
747D
100
AcDbEntity
  8
部品1
 48
50.0
100
AcDbLine
 10
8128.599999999995
 20
6251.907777930205
 30
0.0
 11
8128.599999999995
 21
6641.907777930206
 31
0.0
  0
LINE
  5
26CF6
330
747D
100
AcDbEntity
  8
部品1
 48
50.0
100
AcDbLine
 10
8318.599999999994
 20
6251.907777930205
 30
0.0
 11
8128.599999999995
 21
6251.907777930205
 31
0.0
  0
LINE
  5
26CF7
330
747D
100
AcDbEntity
  8
部品1
 48
50.0
100
AcDbLine
 10
8318.599999999994
 20
6251.907777930205
 30
0.0
 11
8318.599999999994
 21
6641.907777930206
 31
0.0
  0
LINE
  5
26CF8
330
747D
100
AcDbEntity
  8
部品1
 48
50.0
100
AcDbLine
 10
8318.599999999994
 20
6641.907777930206
 30
0.0
 11
8128.599999999995
 21
6641.907777930206
 31
0.0
  0
LINE
  5
26CF9
330
747D
100
AcDbEntity
  8
部品1
 48
50.0
100
AcDbLine
 10
8855.599999999995
 20
7141.907777930206
 30
0.0
 11
8855.599999999995
 21
7531.907777930206
 31
0.0
  0
LINE
  5
26CFA
330
747D
100
AcDbEntity
  8
部品1
 48
50.0
100
AcDbLine
 10
9045.599999999994
 20
7531.907777930206
 30
0.0
 11
8855.599999999995
 21
7531.907777930206
 31
0.0
  0
LINE
  5
26CFB
330
747D
100
AcDbEntity
  8
部品1
 48
50.0
100
AcDbLine
 10
9045.599999999994
 20
7141.907777930206
 30
0.0
 11
9045.599999999994
 21
7531.907777930206
 31
0.0
  0
LINE
  5
26CFC
330
747D
100
AcDbEntity
  8
部品1
 48
50.0
100
AcDbLine
 10
9045.599999999994
 20
7141.907777930206
 30
0.0
 11
8855.599999999995
 21
7141.907777930206
 31
0.0
  0
LINE
  5
26CFD
330
747D
100
AcDbEntity
  8
部品1
 48
50.0
100
AcDbLine
 10
9045.599999999994
 20
6641.907777930206
 30
0.0
 11
8855.599999999995
 21
6641.907777930206
 31
0.0
  0
LINE
  5
26CFE
330
747D
100
AcDbEntity
  8
部品1
 48
50.0
100
AcDbLine
 10
8855.599999999995
 20
6251.907777930206
 30
0.0
 11
8855.599999999995
 21
6641.907777930206
 31
0.0
  0
LINE
  5
26CFF
330
747D
100
AcDbEntity
  8
部品1
 48
50.0
100
AcDbLine
 10
9045.599999999994
 20
6251.907777930206
 30
0.0
 11
8855.599999999995
 21
6251.907777930206
 31
0.0
  0
LINE
  5
26D00
330
747D
100
AcDbEntity
  8
部品1
 48
50.0
100
AcDbLine
 10
9045.599999999994
 20
6251.907777930206
 30
0.0
 11
9045.599999999994
 21
6641.907777930206
 31
0.0
  0
LINE
  5
26D23
102
{ACAD_REACTORS
330
26D49
102
}
330
747D
100
AcDbEntity
  8
部品1
 48
50.0
100
AcDbLine
 10
9523.6
 20
8091.907777930204
 30
0.0
 11
6923.6
 21
8091.907777930204
 31
0.0
  0
LINE
  5
26D24
102
{ACAD_REACTORS
330
26DAF
102
}
330
747D
100
AcDbEntity
  8
部品1
 48
50.0
100
AcDbLine
 10
6813.6
 20
5801.907777930204
 30
0.0
 11
6813.6
 21
7981.9077779302
 31
0.0
  0
LINE
  5
26D25
102
{ACAD_REACTORS
330
26D8D
102
}
330
747D
100
AcDbEntity
  8
部品1
 48
50.0
100
AcDbLine
 10
9523.6
 20
5691.907777930219
 30
0.0
 11
6923.6
 21
5691.907777930207
 31
0.0
  0
LINE
  5
26D26
102
{ACAD_REACTORS
330
26D6B
102
}
330
747D
100
AcDbEntity
  8
部品1
 48
50.0
100
AcDbLine
 10
9633.600000000001
 20
5801.907777930226
 30
0.0
 11
9633.600000000001
 21
7981.907777930205
 31
0.0
  0
HATCH
  5
26D49
330
747D
100
AcDbEntity
  8
細線
 48
50.0
100
AcDbHatch
 10
0.0
 20
0.0
 30
0.0
210
0.0
220
0.0
230
1.0
  2
LINE
 70
     0
 71
     1
 91
        1
 92
        7
 72
     0
 73
     1
 93
        4
 10
8323.6
 20
8211.907777930205
 10
8123.600000000001
 20
8211.907777930205
 10
8123.599999999997
 20
8091.907777930204
 10
8323.6
 20
8091.907777930204
 97
        4
330
25623
330
2566A
330
26D23
330
2566B
 75
     0
 76
     1
 52
45.0
 41
10.0
 77
     0
 78
     1
 53
45.0
 43
0.0
 44
0.0
 45
-22.45064030267288
 46
22.45064030267288
 79
     0
 47
4.217911524693678
 98
        1
 10
8275.693916904995
 20
8148.147907705254
  0
HATCH
  5
26D6B
330
747D
100
AcDbEntity
  8
細線
 48
50.0
100
AcDbHatch
 10
0.0
 20
0.0
 30
0.0
210
0.0
220
0.0
230
1.0
  2
LINE
 70
     0
 71
     1
 91
        1
 92
        7
 72
     0
 73
     1
 93
        4
 10
9753.599999999998
 20
6991.907777930212
 10
9633.600000000001
 20
6991.907777930212
 10
9633.600000000001
 20
6791.907777930212
 10
9753.600000000004
 20
6791.907777930211
 97
        4
330
2568E
330
26D26
330
2568D
330
2566F
 75
     0
 76
     1
 52
45.0
 41
10.0
 77
     0
 78
     1
 53
45.0
 43
0.0
 44
0.0
 45
-22.45064030267288
 46
22.45064030267288
 79
     0
 47
4.217911524693678
 98
        1
 10
9697.889803757767
 20
6903.863983883638
  0
HATCH
  5
26D8D
330
747D
100
AcDbEntity
  8
細線
 48
50.0
100
AcDbHatch
 10
0.0
 20
0.0
 30
0.0
210
0.0
220
0.0
230
1.0
  2
LINE
 70
     0
 71
     1
 91
        1
 92
        7
 72
     0
 73
     1
 93
        4
 10
8323.60000000002
 20
5691.907777930214
 10
8123.600000000019
 20
5691.907777930213
 10
8123.600000000015
 20
5496.907777930199
 10
8323.600000000014
 20
5496.907777930202
 97
        4
330
26D25
330
25648
330
2561E
330
25649
 75
     0
 76
     1
 52
45.0
 41
10.0
 77
     0
 78
     1
 53
45.0
 43
0.0
 44
0.0
 45
-22.45064030267288
 46
22.45064030267288
 79
     0
 47
4.217911524693678
 98
        1
 10
8233.492292058327
 20
5592.093504752425
  0
HATCH
  5
26DAF
330
747D
100
AcDbEntity
  8
細線
 48
50.0
100
AcDbHatch
 10
0.0
 20
0.0
 30
0.0
210
0.0
220
0.0
230
1.0
  2
LINE
 70
     0
 71
     1
 91
        1
 92
        7
 72
     0
 73
     1
 93
        4
 10
6813.6
 20
6991.907777930212
 10
6693.6
 20
6991.907777930212
 10
6693.599999999999
 20
6791.907777930211
 10
6813.6
 20
6791.907777930211
 97
        4
330
25636
330
2562F
330
25637
330
26D24
 75
     0
 76
     1
 52
45.0
 41
10.0
 77
     0
 78
     1
 53
45.0
 43
0.0
 44
0.0
 45
-22.45064030267288
 46
22.45064030267288
 79
     0
 47
4.217911524693678
 98
        1
 10
6807.076223737357
 20
6870.120706228838
  0
LINE
  5
27623
330
747D
100
AcDbEntity
  8
部品1
100
AcDbLine
 10
11304.45023860395
 20
3447.437663500863
 30
0.0
 11
5233.465053217697
 21
3447.437663500863
 31
0.0
  0
LINE
  5
27624
330
747D
100
AcDbEntity
  8
部品1
100
AcDbLine
 10
11304.45023860395
 20
3207.437663500861
 30
0.0
 11
5233.465053217702
 21
3207.437663500862
 31
0.0
  0
LINE
  5
27625
330
747D
100
AcDbEntity
  8
部品1
100
AcDbLine
 10
5233.465053217702
 20
483.1306939162159
 30
0.0
 11
11304.45023860395
 21
483.1306939162159
 31
0.0
  0
LEADER
  5
27626
330
747D
100
AcDbEntity
  8
寸法
 48
50.0
100
AcDbLeader
  3
INABA_S50G
 73
     0
 74
     0
 75
     1
 40
102.2727272727273
 41
680.0000000000001
 76
     3
 10
8241.572805204155
 20
2525.341324833161
 30
0.0
 10
8275.926776317515
 20
2935.794135939702
 30
0.0
 10
8400.926776317515
 20
2935.794135939702
 30
0.0
340
27627
1001
ACAD
1000
DSTYLE
1002
{
1070
   341
1005
0
1070
    40
1040
1.0
1070
   343
1005
0
1070
   344
1005
0
1002
}
  0
MTEXT
  5
27627
102
{ACAD_REACTORS
330
27626
102
}
330
747D
100
AcDbEntity
  8
部品1
 62
     7
 48
50.0
100
AcDbMText
 10
8425.926776317515
 20
3011.930499576066
 30
0.0
 40
80.0
 41
0.8
 71
     4
 72
     1
  1
\A1;ナット(市販品)
  7
STYLE2
 73
     1
 44
1.0
1001
ACAD
1000
MTEXTBEGIN
1070
    73
1070
     1
1070
    44
1040
1.0
1070
    74
1070
     0
1000
MTEXTEND
  0
LEADER
  5
27628
330
747D
100
AcDbEntity
  8
寸法
 48
50.0
100
AcDbLeader
  3
INABA_S50G
 73
     0
 74
     0
 75
     1
 40
102.2727272727273
 41
906.8181818181818
 76
     3
 10
8265.572805204156
 20
2395.589332168298
 30
0.0
 10
8307.444395572995
 20
2750.825053174914
 30
0.0
 10
8432.444395572995
 20
2750.825053174914
 30
0.0
340
27629
1001
ACAD
1000
DSTYLE
1002
{
1070
   341
1005
0
1070
    40
1040
1.0
1070
   343
1005
0
1070
   344
1005
0
1002
}
  0
MTEXT
  5
27629
102
{ACAD_REACTORS
330
27628
102
}
330
747D
100
AcDbEntity
  8
部品1
 62
     7
 48
50.0
100
AcDbMText
 10
8457.444395572995
 20
2826.961416811279
 30
0.0
 40
80.0
 41
0.8
 71
     4
 72
     1
  1
\A1;ワッシャー(市販品)
  7
STYLE2
 73
     1
 44
1.0
1001
ACAD
1000
MTEXTBEGIN
1070
    73
1070
     1
1070
    44
1040
1.0
1070
    74
1070
     0
1000
MTEXTEND
  0
LWPOLYLINE
  5
2762A
330
747D
100
AcDbEntity
  8
部品1
 48
50.0
100
AcDbPolyline
 90
        2
 70
     0
 43
8.0
 10
8418.172805204156
 20
1886.466043724019
 10
8711.87526860354
 20
1886.466043724019
  0
TEXT
  5
2762B
330
747D
100
AcDbEntity
  8
部品1
 48
50.0
100
AcDbText
 10
8422.526389488586
 20
2482.344724486218
 30
0.0
 40
80.0
  1
基礎ボルト(市販品)
  7
STYLE2
100
AcDbText
  0
DIMENSION
  5
2762C
330
747D
100
AcDbEntity
  8
寸法
 48
50.0
100
AcDbDimension
  2
*D60
 10
8920.041404972998
 20
1802.466043724017
 30
0.0
 11
8820.041404972998
 21
1964.466043724019
 31
0.0
 70
    32
  1
180
 71
     5
 42
324.0000000000009
  3
INABA_S40G
100
AcDbAlignedDimension
 13
8418.172805204156
 23
2126.466043724018
 33
0.0
 14
8418.172805204156
 24
1802.466043724017
 34
0.0
 50
90.0
100
AcDbRotatedDimension
1001
ACAD
1000
DSTYLE
1002
{
1070
   174
1070
     0
1070
   272
1070
     1
1070
   279
1070
     1
1070
   288
1070
     0
1070
   341
1005
0
1002
}
  0
DIMENSION
  5
2762D
330
747D
100
AcDbEntity
  8
寸法
 48
50.0
100
AcDbDimension
  2
*D61
 10
8920.041404972998
 20
2126.466043724018
 30
0.0
 11
9196.096071092027
 21
2101.342086119807
 31
0.0
 70
   160
  1
20～25
 71
     5
 42
52.76000000000113
  3
INABA_S40G
100
AcDbAlignedDimension
 13
8230.972805204158
 23
2179.226043724019
 33
0.0
 14
8418.172805204156
 24
2126.466043724018
 34
0.0
 50
90.0
100
AcDbRotatedDimension
1001
ACAD
1000
DSTYLE
1002
{
1070
   174
1070
     0
1070
   272
1070
     1
1070
   279
1070
     1
1070
   288
1070
     0
1070
   341
1005
0
1002
}
  0
MTEXT
  5
2762E
102
{ACAD_REACTORS
330
2762F
102
}
330
747D
100
AcDbEntity
  8
部品1
 62
     7
 48
50.0
100
AcDbMText
 10
8427.117267623474
 20
2390.849369877248
 30
0.0
 40
80.0
 41
0.8
 71
     4
 72
     1
  1
M10X160
  7
STYLE2
 73
     1
 44
1.0
1001
ACAD
1000
MTEXTBEGIN
1070
    73
1070
     1
1070
    44
1040
1.0
1070
    74
1070
     0
1000
MTEXTEND
  0
LEADER
  5
2762F
330
747D
100
AcDbEntity
  8
寸法
 48
50.0
100
AcDbLeader
  3
INABA_S50G
 73
     0
 74
     0
 75
     1
 40
80.0
 41
435.0
 76
     3
 10
8234.572805204157
 20
2175.626043724019
 30
0.0
 10
8277.117267623474
 20
2325.849369877248
 30
0.0
 10
8402.117267623474
 20
2325.849369877248
 30
0.0
340
2762E
1001
ACAD
1000
DSTYLE
1002
{
1070
   341
1005
0
1070
    40
1040
1.0
1070
   343
1005
0
1070
   344
1005
0
1002
}
  0
LINE
  5
27630
330
747D
100
AcDbEntity
  8
部品1
100
AcDbLine
 10
5233.465053217699
 20
3447.437663500863
 30
0.0
 11
5233.465053217702
 21
483.1306939162159
 31
0.0
  0
LEADER
  5
27631
330
747D
100
AcDbEntity
  8
寸法
 48
50.0
100
AcDbLeader
  3
INABA_S50G
 73
     0
 75
     1
 40
113.1818181818182
 41
608.6363636363635
 76
     3
 10
8194.309555342206
 20
2075.981717082297
 30
0.0
 10
8060.505726650859
 20
2927.360799438775
 30
0.0
 10
7935.505726650859
 20
2927.360799438775
 30
0.0
340
27632
1001
ACAD
1000
DSTYLE
1002
{
1070
   341
1005
0
1070
    40
1040
1.0
1070
   343
1005
0
1070
   344
1005
0
1002
}
  0
MTEXT
  5
27632
102
{ACAD_REACTORS
330
27631
102
}
330
747D
100
AcDbEntity
  8
寸法
 62
     7
 48
50.0
100
AcDbMText
 10
7910.50572665086
 20
3008.951708529684
 30
0.0
 40
80.0
 41
0.8
 71
     6
 72
     1
  1
\A1;φ70スリーブ
  7
STYLE2
 73
     1
 44
1.0
1001
ACAD
1000
MTEXTBEGIN
1070
    73
1070
     1
1070
    44
1040
1.0
1070
    74
1070
     0
1000
MTEXTEND
  0
LWPOLYLINE
  5
27633
330
747D
100
AcDbEntity
  8
部品1
 48
50.0
100
AcDbPolyline
 90
        2
 70
     0
 43
8.0
 10
5889.993590194006
 20
1886.466043724019
 10
6304.133492026962
 20
1886.466043724019
  0
TEXT
  5
27634
330
747D
100
AcDbEntity
  8
部品1
 48
50.0
100
AcDbText
 10
5889.993590194006
 20
1897.705036007273
 30
0.0
 40
80.0
  1
▽G.L
  7
STYLE2
100
AcDbText
  0
DIMENSION
  5
27635
330
747D
100
AcDbEntity
  8
寸法
 48
50.0
100
AcDbDimension
  2
*D62
 10
6033.713178294503
 20
1342.466043724018
 30
0.0
 11
6033.713178294503
 21
1462.466043724018
 31
0.0
 70
   160
  1
150
 71
     5
 42
240.0
  3
INABA_S40G
100
AcDbAlignedDimension
 13
6176.133492026962
 23
1582.466043724018
 33
0.0
 14
6096.133492026965
 24
1342.466043724018
 34
0.0
 50
90.0
100
AcDbRotatedDimension
1001
ACAD
1000
DSTYLE
1002
{
1070
   174
1070
     0
1070
   272
1070
     1
1070
   279
1070
     1
1070
   288
1070
     0
1070
   341
1005
0
1002
}
  0
LEADER
  5
27636
330
747D
100
AcDbEntity
  8
寸法
 48
50.0
100
AcDbLeader
  3
INABA_S50G
 71
     0
 73
     0
 75
     1
 40
100.0
 41
225.0
 76
     3
 10
6272.036444379105
 20
1462.466043724018
 30
0.0
 10
6150.198465831768
 20
1198.943350105582
 30
0.0
 10
6025.198465831768
 20
1198.943350105582
 30
0.0
1001
ACAD
1000
DSTYLE
1002
{
1070
    40
1040
1.0
1070
   272
1070
     1
1070
   279
1070
     1
1070
   341
1005
0
1002
}
  0
LEADER
  5
27637
330
747D
100
AcDbEntity
  8
寸法
 48
50.0
100
AcDbLeader
  3
INABA_S50G
 71
     0
 73
     0
 75
     1
 40
100.0
 41
222.7272727272727
 76
     3
 10
6400.133492026961
 20
1462.466043724018
 30
0.0
 10
6178.321193389202
 20
1018.627197566138
 30
0.0
 10
6053.321193389202
 20
1018.627197566138
 30
0.0
1001
ACAD
1000
DSTYLE
1002
{
1070
    40
1040
1.0
1070
   272
1070
     1
1070
   279
1070
     1
1070
   341
1005
0
1002
}
  0
MTEXT
  5
27638
102
{ACAD_REACTORS
330
27639
102
}
330
747D
100
AcDbEntity
  8
寸法
 62
     7
 48
50.0
100
AcDbMText
 10
6214.883437804157
 20
1727.766646541475
 30
0.0
 40
80.0
 41
0.8
 71
     6
 72
     1
  1
\A1;D10@300
  7
STYLE2
 73
     1
 44
1.0
1001
ACAD
1000
MTEXTBEGIN
1070
    73
1070
     1
1070
    44
1040
1.0
1070
    74
1070
     0
1000
MTEXTEND
  0
LEADER
  5
27639
330
747D
100
AcDbEntity
  8
寸法
 48
50.0
100
AcDbLeader
  3
INABA_S50G
 71
     0
 73
     0
 75
     1
 40
100.0
 41
540.3409090909091
 76
     3
 10
6408.133492026962
 20
1884.593258421141
 30
0.0
 10
6350.151255498264
 20
1663.122929880336
 30
0.0
 10
6225.151255498264
 20
1663.122929880336
 30
0.0
213
-9.732182305893367
223
-4.643716661138569
233
0.0
1001
ACAD
1000
DSTYLE
1002
{
1070
    40
1040
1.0
1070
   272
1070
     1
1070
   279
1070
     1
1070
   341
1005
0
1002
}
  0
LEADER
  5
2763A
330
747D
100
AcDbEntity
  8
寸法
 48
50.0
100
AcDbLeader
  3
INABA_S50G
 71
     0
 73
     0
 75
     1
 40
130.1136363636363
 41
651.1363636363636
 76
     3
 10
6384.133492026962
 20
2126.466043724018
 30
0.0
 10
6271.708911862946
 20
2266.936809180606
 30
0.0
 10
6146.708911862946
 20
2266.936809180606
 30
0.0
1001
ACAD
1000
DSTYLE
1002
{
1070
    40
1040
1.0
1070
   272
1070
     1
1070
   279
1070
     1
1070
   341
1005
0
1002
}
  0
MTEXT
  5
2763B
102
{ACAD_REACTORS
330
2763A
102
}
330
747D
100
AcDbEntity
  8
寸法
 62
     7
 48
50.0
100
AcDbMText
 10
6084.035012543689
 20
2338.982263726061
 30
0.0
 40
80.0
 41
0.8
 71
     6
 72
     1
  1
\A1;金コテ押エ
  7
STYLE2
 73
     1
 44
1.0
1001
ACAD
1000
MTEXTBEGIN
1070
    73
1070
     1
1070
    44
1040
1.0
1070
    74
1070
     0
1000
MTEXTEND
  0
DIMENSION
  5
2763C
330
747D
100
AcDbEntity
  8
寸法
 48
50.0
100
AcDbDimension
  2
*D63
 10
5569.096253465221
 20
1342.466043724018
 30
0.0
 11
5569.096253465222
 21
1714.006193380019
 31
0.0
 70
   160
  1
540
 71
     5
 42
784.0
  3
INABA_S40G
100
AcDbAlignedDimension
 13
6304.133492026962
 23
2126.466043724018
 33
0.0
 14
6096.133492026965
 24
1342.466043724018
 34
0.0
 50
90.0
100
AcDbRotatedDimension
1001
ACAD
1000
DSTYLE
1002
{
1070
   174
1070
     0
1070
   272
1070
     1
1070
   279
1070
     1
1070
   288
1070
     0
1070
   341
1005
0
1002
}
  0
MTEXT
  5
2763D
102
{ACAD_REACTORS
330
27637
102
}
330
747D
100
AcDbEntity
  8
寸法
 62
     7
 48
50.0
100
AcDbMText
 10
6033.321193389202
 20
1078.627197566138
 30
0.0
 40
80.0
 41
0.8
 71
     6
 72
     1
  1
D13
  7
STYLE2
 73
     1
 44
1.0
1001
ACAD
1000
MTEXTBEGIN
1070
    73
1070
     1
1070
    44
1040
1.0
1070
    74
1070
     0
1000
MTEXTEND
  0
MTEXT
  5
2763E
102
{ACAD_REACTORS
330
27636
102
}
330
747D
100
AcDbEntity
  8
寸法
 62
     7
 48
50.0
100
AcDbMText
 10
6005.198465831767
 20
1258.943350105582
 30
0.0
 40
80.0
 41
0.8
 71
     6
 72
     1
  1
D10
  7
STYLE2
 73
     1
 44
1.0
1001
ACAD
1000
MTEXTBEGIN
1070
    73
1070
     1
1070
    44
1040
1.0
1070
    74
1070
     0
1000
MTEXTEND
  0
DIMENSION
  5
2763F
330
747D
100
AcDbEntity
  8
寸法
 48
50.0
100
AcDbDimension
  2
*D64
 10
6624.133492026962
 20
804.0364057188581
 30
0.0
 11
6380.036733348738
 21
804.0364057188581
 31
0.0
 70
   160
  1
300
 71
     5
 42
448.0
  3
INABA_S40G
100
AcDbAlignedDimension
 13
6176.133492026962
 23
1214.466043724018
 33
0.0
 14
6624.133492026962
 24
1214.466043724018
 34
0.0
100
AcDbRotatedDimension
1001
ACAD
1000
DSTYLE
1002
{
1070
   174
1070
     0
1070
   272
1070
     1
1070
   279
1070
     1
1070
   288
1070
     0
1070
   341
1005
0
1002
}
  0
MTEXT
  5
27640
102
{ACAD_REACTORS
330
27641
102
}
330
747D
100
AcDbEntity
  8
寸法
 62
     7
 48
50.0
100
AcDbMText
 10
7937.148732859218
 20
2648.26743662217
 30
0.0
 40
80.0
 41
0.8
 71
     6
 72
     1
  1
アンカープレート Ｕ
  7
STYLE2
 73
     1
 44
1.0
1001
ACAD
1000
MTEXTBEGIN
1070
    73
1070
     1
1070
    44
1040
1.0
1070
    74
1070
     0
1000
MTEXTEND
  0
LEADER
  5
27641
330
747D
100
AcDbEntity
  8
寸法
 48
50.0
100
AcDbLeader
  3
INABA_S50G
 73
     0
 75
     1
 40
106.3636363636363
 41
920.0
 76
     3
 10
8135.572805204155
 20
2196.026043724019
 30
0.0
 10
8087.148732859217
 20
2570.085618440352
 30
0.0
 10
7962.148732859218
 20
2570.085618440352
 30
0.0
340
27640
1001
ACAD
1000
DSTYLE
1002
{
1070
   341
1005
0
1070
    40
1040
1.0
1070
   343
1005
0
1070
   344
1005
0
1002
}
  0
LINE
  5
27642
330
747D
100
AcDbEntity
  8
細線
 48
50.0
100
AcDbLine
 10
6424.133492026962
 20
1964.838936391848
 30
0.0
 11
6496.133492026963
 21
2036.838936391848
 31
0.0
  0
ARC
  5
27643
330
747D
100
AcDbEntity
  8
部品1
 48
50.0
100
AcDbCircle
 10
6400.133492026963
 20
1986.720473118264
 30
0.0
 40
24.0
100
AcDbArc
 50
0.0
 51
180.0
  0
CIRCLE
  5
27644
330
747D
100
AcDbEntity
  8
部品1
 48
50.0
100
AcDbCircle
 10
6400.133492026963
 20
1986.720473118264
 30
0.0
 40
8.0
  0
LINE
  5
27645
330
747D
100
AcDbEntity
  8
部品1
 48
50.0
100
AcDbLine
 10
6304.133492026963
 20
1582.466043724018
 30
0.0
 11
6304.133492026963
 21
2126.466043724018
 31
0.0
  0
LINE
  5
27646
330
747D
100
AcDbEntity
  8
部品1
 48
50.0
100
AcDbLine
 10
6496.133492026963
 20
2126.466043724018
 30
0.0
 11
6496.133492026963
 21
1582.466043724018
 31
0.0
  0
MTEXT
  5
27647
102
{ACAD_REACTORS
330
2764C
102
}
330
747D
100
AcDbEntity
  8
寸法
 62
     7
 48
50.0
100
AcDbMText
 10
6579.019429054357
 20
1987.733605022946
 30
0.0
 40
80.0
 41
0.8
 71
     4
 72
     1
  1
D13
  7
STYLE2
 73
     1
 44
1.0
1001
ACAD
1000
MTEXTBEGIN
1070
    73
1070
     1
1070
    44
1040
1.0
1070
    74
1070
     0
1000
MTEXTEND
  0
LEADER
  5
27648
330
747D
100
AcDbEntity
  8
寸法
 48
50.0
100
AcDbLeader
  3
INABA_S50G
 71
     0
 73
     0
 74
     0
 75
     1
 40
100.0
 41
225.0
 76
     3
 10
6528.036444379106
 20
1462.466043724018
 30
0.0
 10
6582.461151833647
 20
1367.068974781046
 30
0.0
 10
6707.461151833647
 20
1367.068974781046
 30
0.0
1001
ACAD
1000
DSTYLE
1002
{
1070
    40
1040
1.0
1070
   272
1070
     1
1070
   279
1070
     1
1070
   341
1005
0
1002
}
  0
LEADER
  5
27649
330
747D
100
AcDbEntity
  8
寸法
 48
50.0
100
AcDbLeader
  3
INABA_S50G
 71
     0
 73
     0
 74
     0
 75
     1
 40
100.0
 41
540.3409090909091
 76
     3
 10
6474.078661040137
 20
1445.725513310493
 30
0.0
 10
6592.871947888212
 20
1104.094695315595
 30
0.0
 10
6717.871947888212
 20
1104.094695315595
 30
0.0
213
0.0
223
-1.022262676269383
233
0.0
1001
ACAD
1000
DSTYLE
1002
{
1070
    40
1040
1.0
1070
   272
1070
     1
1070
   279
1070
     1
1070
   341
1005
0
1002
}
  0
MTEXT
  5
2764A
102
{ACAD_REACTORS
330
27648
102
}
330
747D
100
AcDbEntity
  8
寸法
 62
     7
 48
50.0
100
AcDbMText
 10
6727.461151833647
 20
1427.068974781045
 30
0.0
 40
80.0
 41
0.8
 71
     4
 72
     1
  1
D10
  7
STYLE2
 73
     1
 44
1.0
1001
ACAD
1000
MTEXTBEGIN
1070
    73
1070
     1
1070
    44
1040
1.0
1070
    74
1070
     0
1000
MTEXTEND
  0
LWPOLYLINE
  5
2764B
330
747D
100
AcDbEntity
  8
部品1
 48
50.0
100
AcDbPolyline
 90
        2
 70
     0
 43
8.0
 10
6496.133492026962
 20
1886.466043724019
 10
6910.27339385992
 20
1886.466043724019
  0
LEADER
  5
2764C
330
747D
100
AcDbEntity
  8
寸法
 48
50.0
100
AcDbLeader
  3
INABA_S50G
 71
     0
 73
     0
 74
     0
 75
     1
 40
100.0
 41
222.7272727272727
 76
     3
 10
6400.133492026961
 20
1986.720473118264
 30
0.0
 10
6434.019429054356
 20
1927.733605022946
 30
0.0
 10
6559.019429054356
 20
1927.733605022946
 30
0.0
1001
ACAD
1000
DSTYLE
1002
{
1070
    40
1040
1.0
1070
   272
1070
     1
1070
   279
1070
     1
1070
   341
1005
0
1002
}
  0
LINE
  5
2764D
330
747D
100
AcDbEntity
  8
細線
 48
50.0
100
AcDbLine
 10
6176.133492026956
 20
1501.312789486189
 30
0.0
 11
6257.286746264791
 21
1582.466043724018
 31
0.0
  0
LINE
  5
2764E
330
747D
100
AcDbEntity
  8
細線
 48
50.0
100
AcDbLine
 10
6383.999339504367
 20
1520.59325842114
 30
0.0
 11
6408.133492026968
 21
1544.727410943739
 31
0.0
  0
LINE
  5
2764F
330
747D
100
AcDbEntity
  8
細線
 48
50.0
100
AcDbLine
 10
6290.931356444035
 20
1454.466043724018
 30
0.0
 11
6408.133492026962
 21
1571.668179306944
 31
0.0
  0
LINE
  5
27650
330
747D
100
AcDbEntity
  8
部品1
 48
50.0
100
AcDbLine
 10
6176.133492026963
 20
1342.466043724018
 30
0.0
 11
6176.133492026963
 21
1582.466043724018
 31
0.0
  0
LINE
  5
27651
330
747D
100
AcDbEntity
  8
細線
 48
50.0
100
AcDbLine
 10
6533.398271712906
 20
1454.466043724018
 30
0.0
 11
6624.133492026962
 21
1545.201264038077
 31
0.0
  0
LINE
  5
27652
330
747D
100
AcDbEntity
  8
細線
 48
50.0
100
AcDbLine
 10
6506.45750334969
 20
1454.466043724018
 30
0.0
 11
6624.133492026962
 21
1572.142032401284
 31
0.0
  0
LINE
  5
27653
330
747D
100
AcDbEntity
  8
部品1
 48
50.0
100
AcDbLine
 10
6624.133492026962
 20
1582.466043724018
 30
0.0
 11
6624.133492026962
 21
1342.466043724018
 31
0.0
  0
LINE
  5
27654
330
747D
100
AcDbEntity
  8
部品1
 48
50.0
100
AcDbLine
 10
6424.133492026967
 20
1462.466043724018
 30
0.0
 11
6424.133492026962
 21
1986.720473118264
 31
0.0
  0
LINE
  5
27655
330
747D
100
AcDbEntity
  8
部品1
 48
50.0
100
AcDbLine
 10
6408.133492026968
 20
1462.466043724018
 30
0.0
 11
6408.133492026955
 21
1986.720473118264
 31
0.0
  0
LINE
  5
27656
330
747D
100
AcDbEntity
  8
細線
 48
50.0
100
AcDbLine
 10
6392.133492026963
 20
1501.78664258053
 30
0.0
 11
6408.133492026968
 21
1517.78664258053
 31
0.0
  0
LINE
  5
27657
330
747D
100
AcDbEntity
  8
細線
 48
50.0
100
AcDbLine
 10
6381.316331522977
 20
1214.466043724018
 30
0.0
 11
6415.61382815416
 21
1342.466043724018
 31
0.0
  0
LINE
  5
27658
330
747D
100
AcDbEntity
  8
部品1
 48
50.0
100
AcDbLine
 10
6704.133492026966
 20
1214.466043724018
 30
0.0
 11
6096.133492026964
 21
1214.466043724018
 31
0.0
  0
LINE
  5
27659
330
747D
100
AcDbEntity
  8
部品1
 48
50.0
100
AcDbLine
 10
6232.133492026963
 20
1438.466043724018
 30
0.0
 11
6568.133492026963
 21
1438.466043724018
 31
0.0
  0
LINE
  5
2765A
330
747D
100
AcDbEntity
  8
部品1
 48
50.0
100
AcDbLine
 10
6232.133492026963
 20
1454.466043724018
 30
0.0
 11
6568.133492026963
 21
1454.466043724018
 31
0.0
  0
LINE
  5
2765B
330
747D
100
AcDbEntity
  8
部品1
 48
50.0
100
AcDbLine
 10
6704.133492026966
 20
1342.466043724018
 30
0.0
 11
6096.133492026964
 21
1342.466043724018
 31
0.0
  0
CIRCLE
  5
2765C
330
747D
100
AcDbEntity
  8
部品1
 48
50.0
100
AcDbCircle
 10
6400.133492026963
 20
1462.466043724018
 30
0.0
 40
8.0
  0
LINE
  5
2765D
330
747D
100
AcDbEntity
  8
細線
 48
50.0
100
AcDbLine
 10
6394.457503349696
 20
1342.466043724018
 30
0.0
 11
6490.457503349695
 21
1438.466043724018
 31
0.0
  0
LINE
  5
2765E
330
747D
100
AcDbEntity
  8
細線
 48
50.0
100
AcDbLine
 10
6223.540241628479
 20
1214.466043724018
 30
0.0
 11
6257.837738259662
 21
1342.466043724018
 31
0.0
  0
LINE
  5
2765F
330
747D
100
AcDbEntity
  8
細線
 48
50.0
100
AcDbLine
 10
6302.428286575724
 20
1214.466043724016
 30
0.0
 11
6336.725783206907
 21
1342.466043724016
 31
0.0
  0
LINE
  5
27660
330
747D
100
AcDbEntity
  8
細線
 48
50.0
100
AcDbLine
 10
6144.652196681221
 20
1214.466043724016
 30
0.0
 11
6178.949693312404
 21
1342.466043724016
 31
0.0
  0
LINE
  5
27661
330
747D
100
AcDbEntity
  8
部品1
 48
50.0
100
AcDbLine
 10
6096.133492026964
 20
1214.466043724018
 30
0.0
 11
6096.133492026964
 21
1342.466043724018
 31
0.0
  0
LINE
  5
27662
330
747D
100
AcDbEntity
  8
細線
 48
50.0
100
AcDbLine
 10
6229.971022246825
 20
1238.466043724018
 30
0.0
 11
6236.401802865173
 21
1214.466043724018
 31
0.0
  0
LINE
  5
27663
330
747D
100
AcDbEntity
  8
細線
 48
50.0
100
AcDbLine
 10
6151.082977299574
 20
1238.466043724018
 30
0.0
 11
6157.51375791792
 21
1214.466043724018
 31
0.0
  0
LINE
  5
27664
330
747D
100
AcDbEntity
  8
細線
 48
50.0
100
AcDbLine
 10
6387.74711214133
 20
1238.466043724018
 30
0.0
 11
6394.177892759676
 21
1214.466043724018
 31
0.0
  0
LINE
  5
27665
330
747D
100
AcDbEntity
  8
細線
 48
50.0
100
AcDbLine
 10
6308.859067194077
 20
1238.466043724018
 30
0.0
 11
6315.289847812423
 21
1214.466043724018
 31
0.0
  0
LINE
  5
27666
330
747D
100
AcDbEntity
  8
細線
 48
50.0
100
AcDbLine
 10
6205.872124807246
 20
1342.466043724018
 30
0.0
 11
6301.872124807246
 21
1438.466043724018
 31
0.0
  0
LINE
  5
27667
330
747D
100
AcDbEntity
  8
細線
 48
50.0
100
AcDbLine
 10
6178.931356444035
 20
1342.466043724018
 30
0.0
 11
6274.931356444035
 21
1438.466043724018
 31
0.0
  0
LINE
  5
27668
330
747D
100
AcDbEntity
  8
部品1
 48
50.0
100
AcDbLine
 10
6232.133492026963
 20
1454.466043724018
 30
0.0
 11
6232.133492026963
 21
1438.466043724018
 31
0.0
  0
LINE
  5
27669
330
747D
100
AcDbEntity
  8
細線
 48
50.0
100
AcDbLine
 10
6172.518912694063
 20
1318.466043724018
 30
0.0
 11
6166.088132075715
 21
1342.466043724018
 31
0.0
  0
LINE
  5
2766A
330
747D
100
AcDbEntity
  8
細線
 48
50.0
100
AcDbLine
 10
6096.133492026963
 20
1327.805964689798
 30
0.0
 11
6100.061648365159
 21
1342.466043724018
 31
0.0
  0
LINE
  5
2766B
330
747D
100
AcDbEntity
  8
部品1
 48
50.0
100
AcDbLine
 10
6392.133492026963
 20
1520.59325842114
 30
0.0
 11
6376.133492026963
 21
1520.59325842114
 31
0.0
  0
CIRCLE
  5
2766C
330
747D
100
AcDbEntity
  8
部品1
 48
50.0
100
AcDbCircle
 10
6272.133492026963
 20
1462.466043724018
 30
0.0
 40
8.0
  0
LINE
  5
2766D
330
747D
100
AcDbEntity
  8
細線
 48
50.0
100
AcDbLine
 10
6344.812893170452
 20
1454.466043724018
 30
0.0
 11
6376.133492026963
 21
1485.786642580529
 31
0.0
  0
ARC
  5
2766E
330
747D
100
AcDbEntity
  8
部品1
 48
50.0
100
AcDbCircle
 10
6400.133492026963
 20
1462.466043724018
 30
0.0
 40
24.0
100
AcDbArc
 50
180.0
 51
199.4712206345112
  0
LINE
  5
2766F
330
747D
100
AcDbEntity
  8
細線
 48
50.0
100
AcDbLine
 10
6251.406957641314
 20
1318.466043724018
 30
0.0
 11
6244.976177022968
 21
1342.466043724018
 31
0.0
  0
LINE
  5
27670
330
747D
100
AcDbEntity
  8
細線
 48
50.0
100
AcDbLine
 10
6330.295002588567
 20
1318.466043724018
 30
0.0
 11
6323.864221970221
 21
1342.466043724018
 31
0.0
  0
LINE
  5
27671
330
747D
100
AcDbEntity
  8
細線
 48
50.0
100
AcDbLine
 10
6232.812893170451
 20
1342.466043724018
 30
0.0
 11
6328.812893170451
 21
1438.466043724018
 31
0.0
  0
LINE
  5
27672
330
747D
100
AcDbEntity
  8
部品1
 48
50.0
100
AcDbLine
 10
6376.133492026963
 20
1520.59325842114
 30
0.0
 11
6376.133492026963
 21
1462.466043724018
 31
0.0
  0
LINE
  5
27673
330
747D
100
AcDbEntity
  8
細線
 48
50.0
100
AcDbLine
 10
6317.872124807246
 20
1454.466043724018
 30
0.0
 11
6376.133492026963
 21
1512.727410943736
 31
0.0
  0
LINE
  5
27674
330
747D
100
AcDbEntity
  8
部品1
 48
50.0
100
AcDbLine
 10
6392.133492026963
 20
1520.59325842114
 30
0.0
 11
6392.133492026963
 21
1462.466043724018
 31
0.0
  0
LINE
  5
27675
330
747D
100
AcDbEntity
  8
部品1
 48
50.0
100
AcDbLine
 10
6704.133492026966
 20
1342.466043724018
 30
0.0
 11
6704.133492026966
 21
1214.466043724018
 31
0.0
  0
LINE
  5
27676
330
747D
100
AcDbEntity
  8
細線
 48
50.0
100
AcDbLine
 10
6617.980466364716
 20
1214.466043724018
 30
0.0
 11
6652.277962995902
 21
1342.466043724016
 31
0.0
  0
LINE
  5
27677
330
747D
100
AcDbEntity
  8
細線
 48
50.0
100
AcDbLine
 10
6460.204376470222
 20
1214.466043724018
 30
0.0
 11
6494.501873101409
 21
1342.466043724016
 31
0.0
  0
LINE
  5
27678
330
747D
100
AcDbEntity
  8
細線
 48
50.0
100
AcDbLine
 10
6539.092421417471
 20
1214.466043724016
 30
0.0
 11
6573.389918048656
 21
1342.466043724016
 31
0.0
  0
LINE
  5
27679
330
747D
100
AcDbEntity
  8
細線
 48
50.0
100
AcDbLine
 10
6545.523202035821
 20
1238.466043724018
 30
0.0
 11
6551.953982654168
 21
1214.466043724018
 31
0.0
  0
LINE
  5
2767A
330
747D
100
AcDbEntity
  8
細線
 48
50.0
100
AcDbLine
 10
6466.635157088575
 20
1238.466043724018
 30
0.0
 11
6473.065937706921
 21
1214.466043724018
 31
0.0
  0
LINE
  5
2767B
330
747D
100
AcDbEntity
  8
細線
 48
50.0
100
AcDbLine
 10
6624.411246983068
 20
1238.466043724018
 30
0.0
 11
6630.842027601416
 21
1214.466043724018
 31
0.0
  0
LINE
  5
2767C
330
747D
100
AcDbEntity
  8
細線
 48
50.0
100
AcDbLine
 10
6703.299291930315
 20
1238.466043724018
 30
0.0
 11
6704.133492026963
 21
1235.352766579653
 31
0.0
  0
LINE
  5
2767D
330
747D
100
AcDbEntity
  8
細線
 48
50.0
100
AcDbLine
 10
6696.868511311966
 20
1214.466043724016
 30
0.0
 11
6704.133492026963
 21
1241.579320868406
 31
0.0
  0
LINE
  5
2767E
330
747D
100
AcDbEntity
  8
細線
 48
50.0
100
AcDbLine
 10
6560.33904007611
 20
1454.466043724018
 30
0.0
 11
6624.133492026962
 21
1518.260495674869
 31
0.0
  0
CIRCLE
  5
2767F
330
747D
100
AcDbEntity
  8
部品1
 48
50.0
100
AcDbCircle
 10
6528.133492026963
 20
1462.466043724018
 30
0.0
 40
8.0
  0
ARC
  5
27680
330
747D
100
AcDbEntity
  8
部品1
 48
50.0
100
AcDbCircle
 10
6400.133492026963
 20
1462.466043724018
 30
0.0
 40
24.0
100
AcDbArc
 50
340.5287793654888
 51
0.0
  0
LINE
  5
27681
330
747D
100
AcDbEntity
  8
細線
 48
50.0
100
AcDbLine
 10
6409.183047535819
 20
1318.466043724018
 30
0.0
 11
6402.752266917471
 21
1342.466043724018
 31
0.0
  0
LINE
  5
27682
330
747D
100
AcDbEntity
  8
細線
 48
50.0
100
AcDbLine
 10
6488.071092483065
 20
1318.466043724018
 30
0.0
 11
6481.640311864719
 21
1342.466043724018
 31
0.0
  0
LINE
  5
27683
330
747D
100
AcDbEntity
  8
細線
 48
50.0
100
AcDbLine
 10
6421.398271712907
 20
1342.466043724018
 30
0.0
 11
6517.398271712906
 21
1438.466043724018
 31
0.0
  0
LINE
  5
27684
330
747D
100
AcDbEntity
  8
細線
 48
50.0
100
AcDbLine
 10
6448.33904007611
 20
1342.466043724018
 30
0.0
 11
6544.339927921247
 21
1438.466931569157
 31
0.0
  0
LINE
  5
27685
330
747D
100
AcDbEntity
  8
部品1
 48
50.0
100
AcDbLine
 10
6568.133492026963
 20
1454.466043724018
 30
0.0
 11
6568.133492026963
 21
1438.466043724018
 31
0.0
  0
LINE
  5
27686
330
747D
100
AcDbEntity
  8
細線
 48
50.0
100
AcDbLine
 10
6645.847182377557
 20
1318.466043724018
 30
0.0
 11
6639.416401759209
 21
1342.466043724018
 31
0.0
  0
LINE
  5
27687
330
747D
100
AcDbEntity
  8
細線
 48
50.0
100
AcDbLine
 10
6609.983650255355
 20
1342.466043724018
 30
0.0
 11
6624.133492026962
 21
1356.615885495625
 31
0.0
  0
LINE
  5
27688
330
747D
100
AcDbEntity
  8
細線
 48
50.0
100
AcDbLine
 10
6566.959137430309
 20
1318.466043724018
 30
0.0
 11
6560.528356811964
 21
1342.466043724018
 31
0.0
  0
LINE
  5
27689
330
747D
100
AcDbEntity
  8
細線
 48
50.0
100
AcDbLine
 10
6304.133492026963
 20
1656.253557849396
 30
0.0
 11
6408.133492026968
 21
1760.253557849399
 31
0.0
  0
LINE
  5
2768A
330
747D
100
AcDbEntity
  8
細線
 48
50.0
100
AcDbLine
 10
6304.133492026963
 20
1683.194326212604
 30
0.0
 11
6408.133492026962
 21
1787.194326212604
 31
0.0
  0
LINE
  5
2768B
330
747D
100
AcDbEntity
  8
細線
 48
50.0
100
AcDbLine
 10
6304.133492026963
 20
1629.312789486189
 30
0.0
 11
6408.133492026968
 21
1733.312789486189
 31
0.0
  0
LINE
  5
2768C
330
747D
100
AcDbEntity
  8
細線
 48
50.0
100
AcDbLine
 10
6392.133492026963
 20
1932.838936391848
 30
0.0
 11
6408.133492026962
 21
1948.838936391848
 31
0.0
  0
LINE
  5
2768D
330
747D
100
AcDbEntity
  8
細線
 48
50.0
100
AcDbLine
 10
6392.133492026963
 20
1959.779704755056
 30
0.0
 11
6408.133492026962
 21
1975.779704755056
 31
0.0
  0
LINE
  5
2768E
330
747D
100
AcDbEntity
  8
部品1
 48
50.0
100
AcDbLine
 10
6176.133492026963
 20
1582.466043724018
 30
0.0
 11
6304.133492026963
 21
1582.466043724018
 31
0.0
  0
LINE
  5
2768F
330
747D
100
AcDbEntity
  8
細線
 48
50.0
100
AcDbLine
 10
6176.133492026956
 20
1528.253557849393
 30
0.0
 11
6230.345977901587
 21
1582.466043724018
 31
0.0
  0
LINE
  5
27690
330
747D
100
AcDbEntity
  8
細線
 48
50.0
100
AcDbLine
 10
6176.133492026956
 20
1555.194326212604
 30
0.0
 11
6203.405209538377
 21
1582.466043724018
 31
0.0
  0
LINE
  5
27691
330
747D
100
AcDbEntity
  8
部品1
 48
50.0
100
AcDbLine
 10
6392.133492026963
 20
1928.59325842114
 30
0.0
 11
6376.133492026963
 21
1928.593258421144
 31
0.0
  0
LINE
  5
27692
330
747D
100
AcDbEntity
  8
細線
 48
50.0
100
AcDbLine
 10
6304.133492026963
 20
1844.838936391848
 30
0.0
 11
6387.887814056257
 21
1928.59325842114
 31
0.0
  0
LINE
  5
27693
330
747D
100
AcDbEntity
  8
細線
 48
50.0
100
AcDbLine
 10
6304.133492026963
 20
1871.779704755056
 30
0.0
 11
6376.133492026963
 21
1943.779704755056
 31
0.0
  0
LINE
  5
27694
330
747D
100
AcDbEntity
  8
部品1
 48
50.0
100
AcDbLine
 10
6376.133492026963
 20
1928.593258421144
 30
0.0
 11
6376.133492026963
 21
1986.720473118264
 31
0.0
  0
LINE
  5
27695
330
747D
100
AcDbEntity
  8
細線
 48
50.0
100
AcDbLine
 10
6304.133492026963
 20
1898.720473118263
 30
0.0
 11
6376.133492026963
 21
1970.720473118264
 31
0.0
  0
LINE
  5
27696
330
747D
100
AcDbEntity
  8
部品1
 48
50.0
100
AcDbLine
 10
6392.133492026963
 20
1928.59325842114
 30
0.0
 11
6392.133492026963
 21
1986.720473118264
 31
0.0
  0
LINE
  5
27697
330
747D
100
AcDbEntity
  8
細線
 48
50.0
100
AcDbLine
 10
6424.133492026967
 20
1749.312789486189
 30
0.0
 11
6496.133492026955
 21
1821.312789486189
 31
0.0
  0
LINE
  5
27698
330
747D
100
AcDbEntity
  8
部品1
 48
50.0
100
AcDbLine
 10
6496.133492026963
 20
1582.466043724018
 30
0.0
 11
6624.133492026962
 21
1582.466043724018
 31
0.0
  0
LINE
  5
27699
330
747D
100
AcDbEntity
  8
細線
 48
50.0
100
AcDbLine
 10
6424.133492026967
 20
1560.727410943739
 30
0.0
 11
6496.133492026955
 21
1632.727410943734
 31
0.0
  0
LINE
  5
2769A
330
747D
100
AcDbEntity
  8
細線
 48
50.0
100
AcDbLine
 10
6424.133492026967
 20
1587.668179306947
 30
0.0
 11
6496.133492026955
 21
1659.668179306944
 31
0.0
  0
LINE
  5
2769B
330
747D
100
AcDbEntity
  8
細線
 48
50.0
100
AcDbLine
 10
6424.133492026967
 20
1533.78664258053
 30
0.0
 11
6496.133492026955
 21
1605.78664258053
 31
0.0
  0
LINE
  5
2769C
330
747D
100
AcDbEntity
  8
細線
 48
50.0
100
AcDbLine
 10
6424.133492026962
 20
1803.194326212604
 30
0.0
 11
6496.133492026963
 21
1875.194326212604
 31
0.0
  0
LINE
  5
2769D
330
747D
100
AcDbEntity
  8
細線
 48
50.0
100
AcDbLine
 10
6424.133492026967
 20
1776.253557849399
 30
0.0
 11
6496.133492026955
 21
1848.253557849393
 31
0.0
  0
MTEXT
  5
2769E
102
{ACAD_REACTORS
330
27649
102
}
330
747D
100
AcDbEntity
  8
寸法
 62
     7
 48
50.0
100
AcDbMText
 10
6737.871947888213
 20
1165.116957991865
 30
0.0
 40
80.0
 41
0.8
 71
     4
 72
     1
  1
\A1;D10@300
  7
STYLE2
 73
     1
 44
1.0
1001
ACAD
1000
MTEXTBEGIN
1070
    73
1070
     1
1070
    44
1040
1.0
1070
    74
1070
     0
1000
MTEXTEND
  0
DIMENSION
  5
2769F
330
747D
100
AcDbEntity
  8
寸法
 48
50.0
100
AcDbDimension
  2
*D65
 10
6304.133492026962
 20
2446.466043724019
 30
0.0
 11
6411.359822372159
 21
2546.133851640398
 31
0.0
 70
   160
  1
120\P195
 71
     5
 42
192.0
  3
INABA_S40G
100
AcDbAlignedDimension
 13
6496.133492026962
 23
2126.466043724018
 33
0.0
 14
6304.133492026962
 24
2126.466043724018
 34
0.0
100
AcDbRotatedDimension
1001
ACAD
1000
DSTYLE
1002
{
1070
   174
1070
     0
1070
   272
1070
     1
1070
   279
1070
     1
1070
   288
1070
     0
1070
   341
1005
0
1002
}
  0
LINE
  5
276A0
330
747D
100
AcDbEntity
  8
部品1
 48
50.0
100
AcDbLine
 10
6304.133492026963
 20
2126.466043724018
 30
0.0
 11
6496.133492026963
 21
2126.466043724018
 31
0.0
  0
LINE
  5
276A1
330
747D
100
AcDbEntity
  8
細線
 48
50.0
100
AcDbLine
 10
6304.133492026963
 20
2087.305851660716
 30
0.0
 11
6343.293684090267
 21
2126.466043724018
 31
0.0
  0
LINE
  5
276A2
330
747D
100
AcDbEntity
  8
細線
 48
50.0
100
AcDbLine
 10
6304.133492026963
 20
2060.365083297508
 30
0.0
 11
6370.234452453472
 21
2126.466043724018
 31
0.0
  0
LINE
  5
276A3
330
747D
100
AcDbEntity
  8
細線
 48
50.0
100
AcDbLine
 10
6304.133492026963
 20
2114.246620023923
 30
0.0
 11
6316.352915727058
 21
2126.466043724018
 31
0.0
  0
LINE
  5
276A4
330
747D
100
AcDbEntity
  8
細線
 48
50.0
100
AcDbLine
 10
6423.686199292949
 20
1991.33241202104
 30
0.0
 11
6496.133492026963
 21
2063.779704755056
 31
0.0
  0
LINE
  5
276A5
330
747D
100
AcDbEntity
  8
細線
 48
50.0
100
AcDbLine
 10
6412.625914529432
 20
2007.212895620734
 30
0.0
 11
6496.133492026963
 21
2090.720473118264
 31
0.0
  0
LINE
  5
276A6
330
747D
100
AcDbEntity
  8
細線
 48
50.0
100
AcDbLine
 10
8288.572805204159
 20
1967.594326212606
 30
0.0
 11
8418.172805204156
 21
2097.194326212605
 31
0.0
  0
LINE
  5
276A7
330
747D
100
AcDbEntity
  8
部品1
100
AcDbLine
 10
8418.172805204156
 20
1582.466043724018
 30
0.0
 11
8418.172805204156
 21
2126.466043724018
 31
0.0
  0
LINE
  5
276A8
330
747D
100
AcDbEntity
  8
部品1
 48
50.0
100
AcDbLine
 10
8004.172805204156
 20
1582.466043724018
 30
0.0
 11
8004.172805204156
 21
2126.466043724018
 31
0.0
  0
LINE
  5
276A9
330
747D
100
AcDbEntity
  8
細線
 48
50.0
100
AcDbLine
 10
8004.172805204156
 20
1898.720473118263
 30
0.0
 11
8162.572805204156
 21
2057.120473118261
 31
0.0
  0
LINE
  5
276AA
330
747D
100
AcDbEntity
  8
細線
 48
50.0
100
AcDbLine
 10
8004.172805204156
 20
1871.779704755056
 30
0.0
 11
8162.572805204156
 21
2030.179704755054
 31
0.0
  0
LINE
  5
276AB
330
747D
100
AcDbEntity
  8
細線
 48
50.0
100
AcDbLine
 10
8004.172805204156
 20
1844.838936391848
 30
0.0
 11
8162.572805204153
 21
2003.238936391841
 31
0.0
  0
TEXT
  5
276AC
330
747D
100
AcDbEntity
  8
部品1
 48
50.0
100
AcDbText
 10
7590.032903371201
 20
1897.705036007273
 30
0.0
 40
80.0
  1
▽G.L
  7
STYLE2
100
AcDbText
  0
LINE
  5
276AD
330
747D
100
AcDbEntity
  8
部品1
100
AcDbLine
 10
8234.572805204157
 20
1901.466043724018
 30
0.0
 11
8234.572805204152
 21
2175.626043724019
 31
0.0
  0
LINE
  5
276AE
330
747D
100
AcDbEntity
  8
部品1
100
AcDbLine
 10
8216.572805204156
 20
1901.466043724018
 30
0.0
 11
8216.572805204153
 21
2175.626043724019
 31
0.0
  0
LINE
  5
276AF
330
747D
100
AcDbEntity
  8
細線
 48
50.0
100
AcDbLine
 10
8288.572805204159
 20
1913.712789486177
 30
0.0
 11
8418.172805204156
 21
2043.312789486168
 31
0.0
  0
LINE
  5
276B0
330
747D
100
AcDbEntity
  8
細線
 48
50.0
100
AcDbLine
 10
8288.572805204159
 20
1940.653557849389
 30
0.0
 11
8418.172805204156
 21
2070.253557849386
 31
0.0
  0
LINE
  5
276B1
330
747D
100
AcDbEntity
  8
部品1
100
AcDbLine
 10
8288.572805204156
 20
1802.466043724018
 30
0.0
 11
8288.572805204156
 21
2126.466043724018
 31
0.0
  0
LINE
  5
276B2
330
747D
100
AcDbEntity
  8
部品1
100
AcDbLine
 10
8162.572805204151
 20
1802.466043724018
 30
0.0
 11
8162.572805204156
 21
2126.466043724018
 31
0.0
  0
LINE
  5
276B3
330
747D
100
AcDbEntity
  8
細線
 48
50.0
100
AcDbLine
 10
8004.172805204156
 20
1656.253557849396
 30
0.0
 11
8162.572805204147
 21
1814.653557849385
 31
0.0
  0
LINE
  5
276B4
330
747D
100
AcDbEntity
  8
細線
 48
50.0
100
AcDbLine
 10
8004.172805204156
 20
1629.312789486189
 30
0.0
 11
8177.326059441993
 21
1802.466043724016
 31
0.0
  0
LINE
  5
276B5
330
747D
100
AcDbEntity
  8
細線
 48
50.0
100
AcDbLine
 10
8004.172805204156
 20
1683.194326212604
 30
0.0
 11
8162.572805204147
 21
1841.594326212599
 31
0.0
  0
LINE
  5
276B6
330
747D
100
AcDbEntity
  8
細線
 48
50.0
100
AcDbLine
 10
7932.852206347646
 20
1342.466043724018
 30
0.0
 11
8418.172805204156
 21
1827.786642580526
 31
0.0
  0
LINE
  5
276B7
330
747D
100
AcDbEntity
  8
細線
 48
50.0
100
AcDbLine
 10
7905.91143798444
 20
1342.466043724018
 30
0.0
 11
8418.172805204157
 21
1854.727410943732
 31
0.0
  0
LINE
  5
276B8
330
747D
100
AcDbEntity
  8
細線
 48
50.0
100
AcDbLine
 10
7878.970669621231
 20
1342.466043724018
 30
0.0
 11
8418.172805204156
 21
1881.668179306944
 31
0.0
  0
LINE
  5
276B9
330
747D
100
AcDbEntity
  8
部品1
 48
50.0
100
AcDbLine
 10
8626.172805204157
 20
1342.466043724018
 30
0.0
 11
7796.172805204157
 21
1342.466043724018
 31
0.0
  0
LINE
  5
276BA
330
747D
100
AcDbEntity
  8
部品1
 48
50.0
100
AcDbLine
 10
8626.172805204157
 20
1214.466043724018
 30
0.0
 11
7796.172805204157
 21
1214.466043724018
 31
0.0
  0
LINE
  5
276BB
330
747D
100
AcDbEntity
  8
細線
 48
50.0
100
AcDbLine
 10
7876.17280520415
 20
1501.312789486189
 30
0.0
 11
7957.326059441985
 21
1582.466043724018
 31
0.0
  0
LINE
  5
276BC
330
747D
100
AcDbEntity
  8
部品1
 48
50.0
100
AcDbLine
 10
7876.172805204156
 20
1342.466043724018
 30
0.0
 11
7876.172805204156
 21
1582.466043724018
 31
0.0
  0
LINE
  5
276BD
330
747D
100
AcDbEntity
  8
細線
 48
50.0
100
AcDbLine
 10
7923.579554805674
 20
1214.466043724018
 30
0.0
 11
7957.877051436856
 21
1342.466043724018
 31
0.0
  0
LINE
  5
276BE
330
747D
100
AcDbEntity
  8
部品1
 48
50.0
100
AcDbLine
 10
7796.172805204157
 20
1214.466043724018
 30
0.0
 11
7796.172805204157
 21
1342.466043724018
 31
0.0
  0
LINE
  5
276BF
330
747D
100
AcDbEntity
  8
細線
 48
50.0
100
AcDbLine
 10
7844.691509858414
 20
1214.466043724016
 30
0.0
 11
7878.989006489598
 21
1342.466043724016
 31
0.0
  0
LINE
  5
276C0
330
747D
100
AcDbEntity
  8
細線
 48
50.0
100
AcDbLine
 10
8002.46759975292
 20
1214.466043724016
 30
0.0
 11
8036.765096384099
 21
1342.466043724016
 31
0.0
  0
LINE
  5
276C1
330
747D
100
AcDbEntity
  8
細線
 48
50.0
100
AcDbLine
 10
7851.122290476768
 20
1238.466043724018
 30
0.0
 11
7857.553071095114
 21
1214.466043724018
 31
0.0
  0
LINE
  5
276C2
330
747D
100
AcDbEntity
  8
細線
 48
50.0
100
AcDbLine
 10
8008.898380371272
 20
1238.466043724018
 30
0.0
 11
8015.329160989619
 21
1214.466043724018
 31
0.0
  0
LINE
  5
276C3
330
747D
100
AcDbEntity
  8
細線
 48
50.0
100
AcDbLine
 10
7930.010335424021
 20
1238.466043724018
 30
0.0
 11
7936.441116042366
 21
1214.466043724018
 31
0.0
  0
LINE
  5
276C4
330
747D
100
AcDbEntity
  8
細線
 48
50.0
100
AcDbLine
 10
7796.172805204157
 20
1327.805964689798
 30
0.0
 11
7800.100961542351
 21
1342.466043724018
 31
0.0
  0
LINE
  5
276C5
330
747D
100
AcDbEntity
  8
細線
 48
50.0
100
AcDbLine
 10
7872.558225871256
 20
1318.466043724018
 30
0.0
 11
7866.127445252911
 21
1342.466043724018
 31
0.0
  0
LINE
  5
276C6
330
747D
100
AcDbEntity
  8
細線
 48
50.0
100
AcDbLine
 10
8030.334315765761
 20
1318.466043724018
 30
0.0
 11
8023.903535147415
 21
1342.466043724018
 31
0.0
  0
LINE
  5
276C7
330
747D
100
AcDbEntity
  8
細線
 48
50.0
100
AcDbLine
 10
7951.446270818509
 20
1318.466043724018
 30
0.0
 11
7945.015490200162
 21
1342.466043724018
 31
0.0
  0
LWPOLYLINE
  5
276C8
330
747D
100
AcDbEntity
  8
部品1
 48
50.0
100
AcDbPolyline
 90
        2
 70
     0
 43
8.0
 10
7590.032903371201
 20
1886.466043724019
 10
8004.172805204156
 20
1886.466043724019
  0
LINE
  5
276C9
330
747D
100
AcDbEntity
  8
細線
 48
50.0
100
AcDbLine
 10
7876.17280520415
 20
1528.253557849393
 30
0.0
 11
7930.385291078781
 21
1582.466043724018
 31
0.0
  0
LINE
  5
276CA
330
747D
100
AcDbEntity
  8
部品1
 48
50.0
100
AcDbLine
 10
7876.172805204156
 20
1582.466043724018
 30
0.0
 11
8004.172805204156
 21
1582.466043724018
 31
0.0
  0
LINE
  5
276CB
330
747D
100
AcDbEntity
  8
細線
 48
50.0
100
AcDbLine
 10
7876.17280520415
 20
1555.194326212604
 30
0.0
 11
7903.44452271557
 21
1582.466043724018
 31
0.0
  0
LINE
  5
276CC
330
747D
100
AcDbEntity
  8
細線
 48
50.0
100
AcDbLine
 10
8121.437584890101
 20
1342.466043724018
 30
0.0
 11
8418.172805204156
 21
1639.201264038071
 31
0.0
  0
LINE
  5
276CD
330
747D
100
AcDbEntity
  8
細線
 48
50.0
100
AcDbLine
 10
8148.378353253304
 20
1342.466043724018
 30
0.0
 11
8418.172805204156
 21
1612.260495674875
 31
0.0
  0
LINE
  5
276CE
330
747D
100
AcDbEntity
  8
細線
 48
50.0
100
AcDbLine
 10
8094.496816526891
 20
1342.466043724018
 30
0.0
 11
8418.172805204156
 21
1666.142032401284
 31
0.0
  0
LINE
  5
276CF
330
747D
100
AcDbEntity
  8
細線
 48
50.0
100
AcDbLine
 10
8310.022963432549
 20
1342.466043724018
 30
0.0
 11
8546.172805204156
 21
1578.615885495626
 31
0.0
  0
LINE
  5
276D0
330
747D
100
AcDbEntity
  8
細線
 48
50.0
100
AcDbLine
 10
8336.96373179576
 20
1342.466043724018
 30
0.0
 11
8546.172805204156
 21
1551.675117132411
 31
0.0
  0
LINE
  5
276D1
330
747D
100
AcDbEntity
  8
部品1
 48
50.0
100
AcDbLine
 10
8546.172805204156
 20
1582.466043724018
 30
0.0
 11
8546.172805204156
 21
1342.466043724018
 31
0.0
  0
LINE
  5
276D2
330
747D
100
AcDbEntity
  8
細線
 48
50.0
100
AcDbLine
 10
8363.904500158966
 20
1342.466043724018
 30
0.0
 11
8546.172805204156
 21
1524.734348769214
 31
0.0
  0
LINE
  5
276D3
330
747D
100
AcDbEntity
  8
細線
 48
50.0
100
AcDbLine
 10
8239.131734594666
 20
1214.466043724016
 30
0.0
 11
8273.429231225847
 21
1342.466043724016
 31
0.0
  0
LINE
  5
276D4
330
747D
100
AcDbEntity
  8
細線
 48
50.0
100
AcDbLine
 10
8081.355644700172
 20
1214.466043724018
 30
0.0
 11
8115.653141331353
 21
1342.466043724018
 31
0.0
  0
LINE
  5
276D5
330
747D
100
AcDbEntity
  8
細線
 48
50.0
100
AcDbLine
 10
8160.243689647417
 20
1214.466043724018
 30
0.0
 11
8194.541186278604
 21
1342.466043724016
 31
0.0
  0
LINE
  5
276D6
330
747D
100
AcDbEntity
  8
細線
 48
50.0
100
AcDbLine
 10
8318.019779541907
 20
1214.466043724018
 30
0.0
 11
8352.317276173094
 21
1342.466043724016
 31
0.0
  0
LINE
  5
276D7
330
747D
100
AcDbEntity
  8
細線
 48
50.0
100
AcDbLine
 10
8166.674470265771
 20
1238.466043724018
 30
0.0
 11
8173.105250884118
 21
1214.466043724018
 31
0.0
  0
LINE
  5
276D8
330
747D
100
AcDbEntity
  8
細線
 48
50.0
100
AcDbLine
 10
8087.786425318524
 20
1238.466043724018
 30
0.0
 11
8094.217205936871
 21
1214.466043724018
 31
0.0
  0
LINE
  5
276D9
330
747D
100
AcDbEntity
  8
細線
 48
50.0
100
AcDbLine
 10
8324.450560160261
 20
1238.466043724018
 30
0.0
 11
8330.881340778608
 21
1214.466043724018
 31
0.0
  0
LINE
  5
276DA
330
747D
100
AcDbEntity
  8
細線
 48
50.0
100
AcDbLine
 10
8245.562515213016
 20
1238.466043724018
 30
0.0
 11
8251.993295831361
 21
1214.466043724018
 31
0.0
  0
LINE
  5
276DB
330
747D
100
AcDbEntity
  8
細線
 48
50.0
100
AcDbLine
 10
8188.110405660259
 20
1318.466043724018
 30
0.0
 11
8181.679625041912
 21
1342.466043724018
 31
0.0
  0
LINE
  5
276DC
330
747D
100
AcDbEntity
  8
細線
 48
50.0
100
AcDbLine
 10
8109.222360713012
 20
1318.466043724018
 30
0.0
 11
8102.791580094665
 21
1342.466043724018
 31
0.0
  0
LINE
  5
276DD
330
747D
100
AcDbEntity
  8
細線
 48
50.0
100
AcDbLine
 10
8266.998450607506
 20
1318.466043724018
 30
0.0
 11
8260.567669989159
 21
1342.466043724018
 31
0.0
  0
LINE
  5
276DE
330
747D
100
AcDbEntity
  8
細線
 48
50.0
100
AcDbLine
 10
8345.886495554751
 20
1318.466043724018
 30
0.0
 11
8339.455714936404
 21
1342.466043724018
 31
0.0
  0
LINE
  5
276DF
330
747D
100
AcDbEntity
  8
部品1
 48
50.0
100
AcDbLine
 10
8626.172805204157
 20
1342.466043724018
 30
0.0
 11
8626.172805204157
 21
1214.466043724018
 31
0.0
  0
LINE
  5
276E0
330
747D
100
AcDbEntity
  8
細線
 48
50.0
100
AcDbLine
 10
8554.683914383652
 20
1214.466043724016
 30
0.0
 11
8588.981411014836
 21
1342.466043724015
 31
0.0
  0
LINE
  5
276E1
330
747D
100
AcDbEntity
  8
細線
 48
50.0
100
AcDbLine
 10
8396.907824489158
 20
1214.466043724016
 30
0.0
 11
8431.20532112033
 21
1342.466043724018
 31
0.0
  0
LINE
  5
276E2
330
747D
100
AcDbEntity
  8
細線
 48
50.0
100
AcDbLine
 10
8475.795869436407
 20
1214.466043724015
 30
0.0
 11
8510.093366067591
 21
1342.466043724015
 31
0.0
  0
LINE
  5
276E3
330
747D
100
AcDbEntity
  8
細線
 48
50.0
100
AcDbLine
 10
8403.338605107506
 20
1238.466043724018
 30
0.0
 11
8409.769385725864
 21
1214.466043724018
 31
0.0
  0
LINE
  5
276E4
330
747D
100
AcDbEntity
  8
細線
 48
50.0
100
AcDbLine
 10
8482.226650054755
 20
1238.466043724016
 30
0.0
 11
8488.657430673102
 21
1214.466043724016
 31
0.0
  0
LINE
  5
276E5
330
747D
100
AcDbEntity
  8
細線
 48
50.0
100
AcDbLine
 10
8561.114695002002
 20
1238.466043724016
 30
0.0
 11
8567.545475620351
 21
1214.466043724016
 31
0.0
  0
LINE
  5
276E6
330
747D
100
AcDbEntity
  8
細線
 48
50.0
100
AcDbLine
 10
8424.774540501989
 20
1318.466043724018
 30
0.0
 11
8418.343759883644
 21
1342.466043724018
 31
0.0
  0
LINE
  5
276E7
330
747D
100
AcDbEntity
  8
細線
 48
50.0
100
AcDbLine
 10
8503.662585449246
 20
1318.466043724016
 30
0.0
 11
8497.231804830899
 21
1342.466043724016
 31
0.0
  0
LINE
  5
276E8
330
747D
100
AcDbEntity
  8
細線
 48
50.0
100
AcDbLine
 10
8582.55063039649
 20
1318.466043724016
 30
0.0
 11
8576.119849778145
 21
1342.466043724016
 31
0.0
  0
LINE
  5
276E9
330
747D
100
AcDbEntity
  8
部品1
100
AcDbLine
 10
8288.572805204156
 20
1802.466043724016
 30
0.0
 11
8162.572805204151
 21
1802.466043724016
 31
0.0
  0
LINE
  5
276EA
330
747D
100
AcDbEntity
  8
部品1
100
AcDbLine
 10
8270.572805204157
 20
1883.466043724018
 30
0.0
 11
8270.572805204157
 21
1901.466043724018
 31
0.0
  0
ARC
  5
276EB
330
747D
100
AcDbEntity
  8
部品1
100
AcDbCircle
 10
8234.572805204157
 20
1901.466043724018
 30
0.0
 40
18.0
100
AcDbArc
 50
180.0
 51
270.0
  0
LINE
  5
276EC
330
747D
100
AcDbEntity
  8
部品1
100
AcDbLine
 10
8234.572805204157
 20
1883.466043724018
 30
0.0
 11
8270.572805204157
 21
1883.466043724018
 31
0.0
  0
LINE
  5
276ED
330
747D
100
AcDbEntity
  8
部品1
100
AcDbLine
 10
8234.572805204157
 20
1901.466043724018
 30
0.0
 11
8270.572805204157
 21
1901.466043724018
 31
0.0
  0
LINE
  5
276EE
330
747D
100
AcDbEntity
  8
部品1
 48
50.0
100
AcDbLine
 10
8418.172805204156
 20
1582.466043724018
 30
0.0
 11
8546.172805204156
 21
1582.466043724018
 31
0.0
  0
LINE
  5
276EF
330
747D
100
AcDbEntity
  8
部品1
100
AcDbLine
 10
8023.972805204158
 20
2216.466043724018
 30
0.0
 11
8061.772805204157
 21
2216.466043724018
 31
0.0
  0
LINE
  5
276F0
330
747D
100
AcDbEntity
  8
細線
 48
50.0
100
AcDbLine
 10
8004.172805204156
 20
2087.305851660716
 30
0.0
 11
8043.332997267462
 21
2126.466043724018
 31
0.0
  0
LINE
  5
276F1
330
747D
100
AcDbEntity
  8
細線
 48
50.0
100
AcDbLine
 10
8004.172805204156
 20
2060.365083297508
 30
0.0
 11
8070.273765630666
 21
2126.466043724018
 31
0.0
  0
LINE
  5
276F2
330
747D
100
AcDbEntity
  8
部品1
 48
50.0
100
AcDbLine
 10
8004.172805204156
 20
2126.466043724018
 30
0.0
 11
8418.172805204157
 21
2126.466043724018
 31
0.0
  0
TEXT
  5
276F3
330
747D
100
AcDbEntity
  8
部品1
 48
50.0
100
AcDbText
 10
7577.726708624665
 20
2457.026564824494
 30
0.0
 40
80.0
  1
※(別売)
  7
STYLE2
100
AcDbText
  0
LINE
  5
276F4
330
747D
100
AcDbEntity
  8
部品1
100
AcDbLine
 10
8021.272805204157
 20
2205.666043724018
 30
0.0
 11
8021.272805204157
 21
2213.766043724018
 31
0.0
  0
ARC
  5
276F5
330
747D
100
AcDbEntity
  8
部品1
100
AcDbCircle
 10
8023.972805204158
 20
2213.766043724018
 30
0.0
 40
2.7
100
AcDbArc
 50
90.0
 51
180.0
  0
ARC
  5
276F6
330
747D
100
AcDbEntity
  8
部品1
100
AcDbCircle
 10
8013.172805204156
 20
2200.857947426726
 30
0.0
 40
2.7
100
AcDbArc
 50
104.0362434679067
 51
180.0
  0
LINE
  5
276F7
330
747D
100
AcDbEntity
  8
部品1
100
AcDbLine
 10
8012.517959016557
 20
2203.477332177118
 30
0.0
 11
8021.272805204157
 21
2205.666043724018
 31
0.0
  0
ARC
  5
276F8
330
747D
100
AcDbEntity
  8
部品1
100
AcDbCircle
 10
8013.172805204156
 20
2138.726043724018
 30
0.0
 40
2.7
100
AcDbArc
 50
180.0
 51
270.0
  0
LINE
  5
276F9
330
747D
100
AcDbEntity
  8
細線
 48
50.0
100
AcDbLine
 10
8004.172805204156
 20
2114.246620023923
 30
0.0
 11
8016.392228904251
 21
2126.466043724018
 31
0.0
  0
LINE
  5
276FA
330
747D
100
AcDbEntity
  8
部品1
100
AcDbLine
 10
8013.172805204156
 20
2136.026043724019
 30
0.0
 11
8024.872805204152
 21
2136.026043724019
 31
0.0
  0
LINE
  5
276FB
330
747D
100
AcDbEntity
  8
部品1
100
AcDbLine
 10
8010.472805204157
 20
2138.726043724018
 30
0.0
 11
8010.472805204157
 21
2200.857947426726
 31
0.0
  0
LINE
  5
276FC
330
747D
100
AcDbEntity
  8
部品1
100
AcDbLine
 10
8169.132805204149
 20
2136.026043724019
 30
0.0
 11
8370.472805204149
 21
2136.026043724019
 31
0.0
  0
LINE
  5
276FD
330
747D
100
AcDbEntity
  8
部品1
100
AcDbLine
 10
8061.772805204157
 20
2216.466043724018
 30
0.0
 11
8061.772805204157
 21
2224.566043724019
 31
0.0
  0
LINE
  5
276FE
330
747D
100
AcDbEntity
  8
部品1
100
AcDbLine
 10
8112.172805204156
 20
2235.366043724015
 30
0.0
 11
8112.172805204156
 21
2184.066043724019
 31
0.0
  0
LINE
  5
276FF
330
747D
100
AcDbEntity
  8
部品1
100
AcDbLine
 10
8135.572805204155
 20
2196.026043724019
 30
0.0
 11
8163.732805204155
 21
2196.026043724019
 31
0.0
  0
ARC
  5
27700
330
747D
100
AcDbEntity
  8
部品1
100
AcDbCircle
 10
8135.572805204155
 20
2193.326043724019
 30
0.0
 40
2.7
100
AcDbArc
 50
90.0
 51
180.0
  0
ARC
  5
27701
330
747D
100
AcDbEntity
  8
部品1
100
AcDbCircle
 10
8163.732805204155
 20
2193.326043724019
 30
0.0
 40
2.7
100
AcDbArc
 50
0.0
 51
90.0
  0
LINE
  5
27702
330
747D
100
AcDbEntity
  8
部品1
100
AcDbLine
 10
8154.472805204157
 20
2181.366043724018
 30
0.0
 11
8154.472805204157
 21
2138.726043724018
 31
0.0
  0
LINE
  5
27703
330
747D
100
AcDbEntity
  8
部品1
100
AcDbLine
 10
8140.072805204155
 20
2136.026043724019
 30
0.0
 11
8151.772805204156
 21
2136.026043724019
 31
0.0
  0
ARC
  5
27704
330
747D
100
AcDbEntity
  8
部品1
100
AcDbCircle
 10
8169.132805204149
 20
2138.726043724018
 30
0.0
 40
2.7
100
AcDbArc
 50
180.0
 51
270.0
  0
ARC
  5
27705
330
747D
100
AcDbEntity
  8
部品1
100
AcDbCircle
 10
8151.772805204156
 20
2138.726043724018
 30
0.0
 40
2.7
100
AcDbArc
 50
270.0
 51
0.0
  0
LINE
  5
27706
330
747D
100
AcDbEntity
  8
部品1
100
AcDbLine
 10
8112.172805204156
 20
2184.066043724019
 30
0.0
 11
8151.772805204156
 21
2184.066043724019
 31
0.0
  0
ARC
  5
27707
330
747D
100
AcDbEntity
  8
部品1
100
AcDbCircle
 10
8151.772805204156
 20
2181.366043724018
 30
0.0
 40
2.7
100
AcDbArc
 50
0.0
 51
90.0
  0
LINE
  5
27708
330
747D
100
AcDbEntity
  8
部品1
100
AcDbLine
 10
8166.432805204157
 20
2193.326043724019
 30
0.0
 11
8166.432805204152
 21
2138.726043724018
 31
0.0
  0
LINE
  5
27709
330
747D
100
AcDbEntity
  8
部品1
100
AcDbLine
 10
8132.872805204156
 20
2193.326043724019
 30
0.0
 11
8132.872805204156
 21
2176.226043724018
 31
0.0
  0
LINE
  5
2770A
330
747D
100
AcDbEntity
  8
細線
100
AcDbLine
 10
8230.972805204158
 20
2136.026043724019
 30
0.0
 11
8230.972805204158
 21
2179.226043724018
 31
0.0
  0
LINE
  5
2770B
330
747D
100
AcDbEntity
  8
細線
100
AcDbLine
 10
8220.172805204159
 20
2136.026043724019
 30
0.0
 11
8220.172805204155
 21
2179.226043724018
 31
0.0
  0
LINE
  5
2770C
330
747D
100
AcDbEntity
  8
部品1
100
AcDbLine
 10
8216.572805204156
 20
2175.626043724019
 30
0.0
 11
8234.572805204157
 21
2175.626043724019
 31
0.0
  0
LINE
  5
2770D
330
747D
100
AcDbEntity
  8
部品1
100
AcDbLine
 10
8220.172805204155
 20
2179.226043724018
 30
0.0
 11
8230.972805204158
 21
2179.226043724018
 31
0.0
  0
ELLIPSE
  5
2770E
330
747D
100
AcDbEntity
  8
部品1
 48
50.0
100
AcDbEllipse
 10
8225.572805204157
 20
2395.589332168291
 30
0.0
 11
40.0
 21
0.0
 31
0.0
210
0.0
220
0.0
230
1.0
 40
0.4
 41
0.0
 42
6.283185307179586
  0
ELLIPSE
  5
2770F
330
747D
100
AcDbEntity
  8
部品1
 48
50.0
100
AcDbEllipse
 10
8225.572805204157
 20
2385.989332168291
 30
0.0
 11
40.0
 21
0.0
 31
0.0
210
0.0
220
0.0
230
1.0
 40
0.4
 41
3.141592653589793
 42
6.283185307179586
  0
LINE
  5
27710
330
747D
100
AcDbEntity
  8
部品1
 48
50.0
100
AcDbLine
 10
8185.572805204156
 20
2395.589332168291
 30
0.0
 11
8185.572805204156
 21
2385.989332168291
 31
0.0
  0
ARC
  5
27711
330
747D
100
AcDbEntity
  8
部品1
100
AcDbCircle
 10
8109.472805204157
 20
2235.366043724015
 30
0.0
 40
2.7
100
AcDbArc
 50
0.0
 51
90.0
  0
ARC
  5
27712
330
747D
100
AcDbEntity
  8
部品1
100
AcDbCircle
 10
8067.172805204156
 20
2235.366043724018
 30
0.0
 40
2.7
100
AcDbArc
 50
90.0
 51
180.0
  0
LINE
  5
27713
330
747D
100
AcDbEntity
  8
部品1
100
AcDbLine
 10
8064.472805204157
 20
2227.266043724018
 30
0.0
 11
8064.472805204157
 21
2227.266043724018
 31
0.0
  0
LINE
  5
27714
330
747D
100
AcDbEntity
  8
部品1
100
AcDbLine
 10
8064.472805204157
 20
2227.266043724018
 30
0.0
 11
8064.472805204157
 21
2235.366043724018
 31
0.0
  0
LINE
  5
27715
330
747D
100
AcDbEntity
  8
部品1
100
AcDbLine
 10
8067.172805204156
 20
2238.066043724018
 30
0.0
 11
8109.472805204157
 21
2238.066043724015
 31
0.0
  0
ARC
  5
27716
330
747D
100
AcDbEntity
  8
部品1
100
AcDbCircle
 10
8064.472805204157
 20
2224.566043724019
 30
0.0
 40
2.7
100
AcDbArc
 50
90.0
 51
180.0
  0
ELLIPSE
  5
27717
330
747D
100
AcDbEntity
  8
部品1
 48
50.0
100
AcDbEllipse
 10
8225.572805204157
 20
2395.589332168291
 30
0.0
 11
18.4
 21
0.0
 31
0.0
210
0.0
220
0.0
230
1.0
 40
0.3478260869565217
 41
0.0
 42
6.283185307179586
  0
LINE
  5
27718
330
747D
100
AcDbEntity
  8
部品1
 48
50.0
100
AcDbLine
 10
8265.572805204156
 20
2385.989332168291
 30
0.0
 11
8265.572805204156
 21
2395.589332168291
 31
0.0
  0
LINE
  5
27719
330
747D
100
AcDbEntity
  8
部品1
 48
50.0
100
AcDbLine
 10
8193.572805204155
 20
2517.341324833161
 30
0.0
 11
8209.572805204157
 21
2509.341324833161
 31
0.0
  0
LINE
  5
2771A
330
747D
100
AcDbEntity
  8
部品1
 48
50.0
100
AcDbLine
 10
8193.572805204155
 20
2485.341324833161
 30
0.0
 11
8209.572805204157
 21
2477.341324833161
 31
0.0
  0
LINE
  5
2771B
330
747D
100
AcDbEntity
  8
部品1
 48
50.0
100
AcDbLine
 10
8193.572805204155
 20
2517.341324833161
 30
0.0
 11
8209.572805204157
 21
2525.341324833161
 31
0.0
  0
LINE
  5
2771C
330
747D
100
AcDbEntity
  8
部品1
 48
50.0
100
AcDbLine
 10
8193.572805204155
 20
2485.341324833161
 30
0.0
 11
8193.572805204155
 21
2517.341324833161
 31
0.0
  0
LINE
  5
2771D
330
747D
100
AcDbEntity
  8
部品1
 48
50.0
100
AcDbLine
 10
8209.572805204157
 20
2525.341324833161
 30
0.0
 11
8241.572805204155
 21
2525.341324833161
 31
0.0
  0
ELLIPSE
  5
2771E
330
747D
100
AcDbEntity
  8
細線
 48
50.0
100
AcDbEllipse
 10
8225.572805204157
 20
2517.341324833161
 30
0.0
 11
14.76670786606846
 21
0.0
 31
0.0
210
0.0
220
0.0
230
1.0
 40
0.2071254069489396
 41
0.0
 42
6.283185307179586
  0
LINE
  5
2771F
330
747D
100
AcDbEntity
  8
部品1
 48
50.0
100
AcDbLine
 10
8209.572805204157
 20
2477.341324833161
 30
0.0
 11
8241.572805204155
 21
2477.341324833161
 31
0.0
  0
LINE
  5
27720
330
747D
100
AcDbEntity
  8
部品1
 48
50.0
100
AcDbLine
 10
8241.572805204155
 20
2477.341324833161
 30
0.0
 11
8257.572805204155
 21
2485.341324833161
 31
0.0
  0
LINE
  5
27721
330
747D
100
AcDbEntity
  8
部品1
 48
50.0
100
AcDbLine
 10
8209.572805204157
 20
2509.341324833161
 30
0.0
 11
8241.572805204155
 21
2509.341324833161
 31
0.0
  0
LINE
  5
27722
330
747D
100
AcDbEntity
  8
部品1
 48
50.0
100
AcDbLine
 10
8241.572805204155
 20
2509.341324833161
 30
0.0
 11
8257.572805204155
 21
2517.341324833161
 31
0.0
  0
LINE
  5
27723
330
747D
100
AcDbEntity
  8
細線
 48
50.0
100
AcDbLine
 10
8241.572805204155
 20
2477.341324833161
 30
0.0
 11
8241.572805204155
 21
2509.341324833161
 31
0.0
  0
LINE
  5
27724
330
747D
100
AcDbEntity
  8
部品1
 48
50.0
100
AcDbLine
 10
8257.572805204155
 20
2485.341324833161
 30
0.0
 11
8257.572805204155
 21
2517.341324833161
 31
0.0
  0
LINE
  5
27725
330
747D
100
AcDbEntity
  8
細線
 48
50.0
100
AcDbLine
 10
8209.572805204157
 20
2477.341324833161
 30
0.0
 11
8209.572805204157
 21
2509.341324833161
 31
0.0
  0
LINE
  5
27726
330
747D
100
AcDbEntity
  8
部品1
 48
50.0
100
AcDbLine
 10
8241.572805204155
 20
2525.341324833161
 30
0.0
 11
8257.572805204155
 21
2517.341324833161
 31
0.0
  0
TEXT
  5
27727
330
747D
100
AcDbEntity
  8
部品1
100
AcDbText
 10
7926.345054396086
 20
3267.885731549436
 30
0.0
 40
120.0
  1
基礎詳細
  7
STYLE2
100
AcDbText
  0
LINE
  5
27728
330
747D
100
AcDbEntity
  8
部品1
100
AcDbLine
 10
11304.45023860394
 20
483.1306939162159
 30
0.0
 11
11304.45023860395
 21
3447.437663500863
 31
0.0
  0
LINE
  5
27729
330
747D
100
AcDbEntity
  8
細線
100
AcDbLine
 10
10312.3420711837
 20
1886.466043724018
 30
0.0
 11
10117.70873750691
 21
2081.099377400801
 31
0.0
  0
LINE
  5
2772A
330
747D
100
AcDbEntity
  8
部品1
100
AcDbLine
 10
10117.70873750691
 20
2126.466043724018
 30
0.0
 11
10597.70873750691
 21
2126.466043724018
 31
0.0
  0
LINE
  5
2772B
330
747D
100
AcDbEntity
  8
細線
 48
50.0
100
AcDbLine
 10
10251.77962195017
 20
1666.767128070668
 30
0.0
 11
10286.07711858136
 21
1794.767128070667
 31
0.0
  0
LINE
  5
2772C
330
747D
100
AcDbEntity
  8
部品1
100
AcDbLine
 10
9997.708737506913
 20
1666.767128070664
 30
0.0
 11
10717.70873750691
 21
1666.767128070668
 31
0.0
  0
LINE
  5
2772D
330
747D
100
AcDbEntity
  8
部品1
100
AcDbLine
 10
9997.708737506913
 20
1794.767128070668
 30
0.0
 11
10717.70873750691
 21
1794.767128070671
 31
0.0
  0
LINE
  5
2772E
330
747D
100
AcDbEntity
  8
細線
100
AcDbLine
 10
10178.62738300015
 20
1794.767128070668
 30
0.0
 11
10270.3262986535
 21
1886.466043724018
 31
0.0
  0
LWPOLYLINE
  5
2772F
330
747D
100
AcDbEntity
  8
部品1
 48
50.0
100
AcDbPolyline
 90
        2
 70
     0
 43
12.0
 10
9733.097475406525
 20
1886.466043724018
 10
10934.18977853815
 20
1886.466043724018
  0
LINE
  5
27730
330
747D
100
AcDbEntity
  8
細線
100
AcDbLine
 10
10261.43038293826
 20
1886.466043724018
 30
0.0
 11
10117.70873750691
 21
2030.187689155371
 31
0.0
  0
TEXT
  5
27731
330
747D
100
AcDbEntity
  8
部品1
 48
50.0
100
AcDbText
 10
9353.590650748412
 20
1619.666303086709
 30
0.0
 40
80.0
  1
ボルトの出
 50
90.0
  7
STYLE2
100
AcDbText
  0
LINE
  5
27732
330
747D
100
AcDbEntity
  8
部品1
100
AcDbLine
 10
10117.70873750691
 20
1886.466043724018
 30
0.0
 11
10117.70873750691
 21
2126.466043724018
 31
0.0
  0
LINE
  5
27733
330
747D
100
AcDbEntity
  8
細線
 48
50.0
100
AcDbLine
 10
10094.00353205567
 20
1666.767128070667
 30
0.0
 11
10128.30102868685
 21
1794.767128070667
 31
0.0
  0
LINE
  5
27734
330
747D
100
AcDbEntity
  8
細線
 48
50.0
100
AcDbLine
 10
10172.89157700292
 20
1666.767128070668
 30
0.0
 11
10207.18907363411
 21
1794.767128070668
 31
0.0
  0
LINE
  5
27735
330
747D
100
AcDbEntity
  8
細線
 48
50.0
100
AcDbLine
 10
10015.11548710842
 20
1666.767128070668
 30
0.0
 11
10049.41298373961
 21
1794.767128070668
 31
0.0
  0
LINE
  5
27736
330
747D
100
AcDbEntity
  8
部品1
100
AcDbLine
 10
9997.708737506913
 20
1666.767128070664
 30
0.0
 11
9997.708737506913
 21
1886.466043724018
 31
0.0
  0
LINE
  5
27737
330
747D
100
AcDbEntity
  8
細線
 48
50.0
100
AcDbLine
 10
10100.43431267402
 20
1690.767128070668
 30
0.0
 11
10106.86509329237
 21
1666.767128070668
 31
0.0
  0
LINE
  5
27738
330
747D
100
AcDbEntity
  8
細線
 48
50.0
100
AcDbLine
 10
10021.54626772677
 20
1690.767128070668
 30
0.0
 11
10027.97704834512
 21
1666.767128070668
 31
0.0
  0
LINE
  5
27739
330
747D
100
AcDbEntity
  8
細線
 48
50.0
100
AcDbLine
 10
10179.32235762127
 20
1690.767128070668
 30
0.0
 11
10185.75313823962
 21
1666.767128070668
 31
0.0
  0
LINE
  5
2773A
330
747D
100
AcDbEntity
  8
細線
 48
50.0
100
AcDbLine
 10
10258.21040256852
 20
1690.767128070668
 30
0.0
 11
10264.64118318687
 21
1666.767128070668
 31
0.0
  0
LINE
  5
2773B
330
747D
100
AcDbEntity
  8
細線
 48
50.0
100
AcDbLine
 10
10042.98220312126
 20
1770.767128070668
 30
0.0
 11
10036.55142250291
 21
1794.767128070668
 31
0.0
  0
LINE
  5
2773C
330
747D
100
AcDbEntity
  8
細線
 48
50.0
100
AcDbLine
 10
10200.75829301576
 20
1770.767128070668
 30
0.0
 11
10194.32751239742
 21
1794.767128070668
 31
0.0
  0
LINE
  5
2773D
330
747D
100
AcDbEntity
  8
細線
 48
50.0
100
AcDbLine
 10
10121.87024806851
 20
1770.767128070668
 30
0.0
 11
10115.43946745016
 21
1794.767128070668
 31
0.0
  0
LINE
  5
2773E
330
747D
100
AcDbEntity
  8
細線
100
AcDbLine
 10
10110.74513200624
 20
1794.767128070668
 30
0.0
 11
10202.44404765959
 21
1886.466043724018
 31
0.0
  0
LINE
  5
2773F
330
747D
100
AcDbEntity
  8
細線
100
AcDbLine
 10
10144.6862575032
 20
1794.767128070668
 30
0.0
 11
10236.38517315654
 21
1886.466043724018
 31
0.0
  0
LINE
  5
27740
330
747D
100
AcDbEntity
  8
細線
100
AcDbLine
 10
10532.9593869139
 20
1886.466043724018
 30
0.0
 11
10292.9593869139
 21
2126.466043724018
 31
0.0
  0
LINE
  5
27741
330
747D
100
AcDbEntity
  8
細線
100
AcDbLine
 10
10583.87107515933
 20
1886.46604372402
 30
0.0
 11
10343.87107515933
 21
2126.466043724018
 31
0.0
  0
LINE
  5
27742
330
747D
100
AcDbEntity
  8
部品1
100
AcDbLine
 10
10597.70873750691
 20
2126.466043724018
 30
0.0
 11
10597.70873750691
 21
1886.466043724018
 31
0.0
  0
LINE
  5
27743
330
747D
100
AcDbEntity
  8
細線
 48
50.0
100
AcDbLine
 10
10567.33180173916
 20
1666.767128070665
 30
0.0
 11
10601.62929837034
 21
1794.767128070665
 31
0.0
  0
LINE
  5
27744
330
747D
100
AcDbEntity
  8
細線
100
AcDbLine
 10
10538.62738300015
 20
1794.76712807067
 30
0.0
 11
10630.3262986535
 21
1886.466043724018
 31
0.0
  0
LINE
  5
27745
330
747D
100
AcDbEntity
  8
細線
 48
50.0
100
AcDbLine
 10
10488.44375679191
 20
1666.767128070667
 30
0.0
 11
10522.74125342308
 21
1794.767128070668
 31
0.0
  0
LINE
  5
27746
330
747D
100
AcDbEntity
  8
細線
 48
50.0
100
AcDbLine
 10
10330.66766689742
 20
1666.767128070667
 30
0.0
 11
10364.9651635286
 21
1794.767128070667
 31
0.0
  0
LINE
  5
27747
330
747D
100
AcDbEntity
  8
細線
 48
50.0
100
AcDbLine
 10
10409.55571184466
 20
1666.767128070668
 30
0.0
 11
10443.85320847585
 21
1794.767128070667
 31
0.0
  0
LINE
  5
27748
330
747D
100
AcDbEntity
  8
細線
 48
50.0
100
AcDbLine
 10
10415.98649246301
 20
1690.767128070668
 30
0.0
 11
10422.41727308136
 21
1666.767128070668
 31
0.0
  0
LINE
  5
27749
330
747D
100
AcDbEntity
  8
細線
 48
50.0
100
AcDbLine
 10
10337.09844751577
 20
1690.767128070668
 30
0.0
 11
10343.52922813412
 21
1666.767128070668
 31
0.0
  0
LINE
  5
2774A
330
747D
100
AcDbEntity
  8
細線
 48
50.0
100
AcDbLine
 10
10494.87453741026
 20
1690.767128070668
 30
0.0
 11
10501.30531802862
 21
1666.767128070668
 31
0.0
  0
LINE
  5
2774B
330
747D
100
AcDbEntity
  8
細線
 48
50.0
100
AcDbLine
 10
10573.76258235751
 20
1690.767128070667
 30
0.0
 11
10580.19336297586
 21
1666.767128070667
 31
0.0
  0
LINE
  5
2774C
330
747D
100
AcDbEntity
  8
細線
 48
50.0
100
AcDbLine
 10
10437.4224278575
 20
1770.767128070668
 30
0.0
 11
10430.99164723916
 21
1794.767128070668
 31
0.0
  0
LINE
  5
2774D
330
747D
100
AcDbEntity
  8
細線
 48
50.0
100
AcDbLine
 10
10358.53438291026
 20
1770.767128070668
 30
0.0
 11
10352.10360229191
 21
1794.767128070668
 31
0.0
  0
LINE
  5
2774E
330
747D
100
AcDbEntity
  8
細線
 48
50.0
100
AcDbLine
 10
10279.64633796301
 20
1770.767128070668
 30
0.0
 11
10273.21555734466
 21
1794.767128070668
 31
0.0
  0
LINE
  5
2774F
330
747D
100
AcDbEntity
  8
細線
100
AcDbLine
 10
10504.6862575032
 20
1794.76712807067
 30
0.0
 11
10596.38517315654
 21
1886.466043724018
 31
0.0
  0
LINE
  5
27750
330
747D
100
AcDbEntity
  8
細線
 48
50.0
100
AcDbLine
 10
10516.31047280474
 20
1770.767128070668
 30
0.0
 11
10509.8796921864
 21
1794.767128070668
 31
0.0
  0
LINE
  5
27751
330
747D
100
AcDbEntity
  8
細線
100
AcDbLine
 10
10470.74513200624
 20
1794.76712807067
 30
0.0
 11
10562.44404765959
 21
1886.466043724018
 31
0.0
  0
LINE
  5
27752
330
747D
100
AcDbEntity
  8
細線
 48
50.0
100
AcDbLine
 10
10595.198517752
 20
1770.767128070667
 30
0.0
 11
10588.76773713365
 21
1794.767128070667
 31
0.0
  0
LINE
  5
27753
330
747D
100
AcDbEntity
  8
細線
 48
50.0
100
AcDbLine
 10
10646.2198466864
 20
1666.767128070667
 30
0.0
 11
10680.51734331759
 21
1794.767128070665
 31
0.0
  0
LINE
  5
27754
330
747D
100
AcDbEntity
  8
部品1
100
AcDbLine
 10
10717.70873750691
 20
1886.466043724018
 30
0.0
 11
10717.70873750691
 21
1666.767128070668
 31
0.0
  0
LINE
  5
27755
330
747D
100
AcDbEntity
  8
細線
 48
50.0
100
AcDbLine
 10
10652.65062730475
 20
1690.767128070667
 30
0.0
 11
10659.0814079231
 21
1666.767128070667
 31
0.0
  0
LINE
  5
27756
330
747D
100
AcDbEntity
  8
細線
 48
50.0
100
AcDbLine
 10
10674.08656269924
 20
1770.767128070667
 30
0.0
 11
10667.6557820809
 21
1794.767128070667
 31
0.0
  0
LEADER
  5
27757
330
747D
100
AcDbEntity
  8
寸法
 48
50.0
100
AcDbLeader
  3
INABA_S50G
 73
     0
 74
     0
 75
     1
 40
120.0
 41
185.591883092037
 76
     3
 10
10528.43314912284
 20
2126.466043724018
 30
0.0
 10
10561.57135575648
 20
2298.612364405156
 30
0.0
 10
10686.57135575648
 20
2298.612364405156
 30
0.0
340
27758
1001
ACAD
1000
DSTYLE
1002
{
1070
    40
1040
1.0
1002
}
  0
MTEXT
  5
27758
102
{ACAD_REACTORS
330
27757
102
}
330
747D
100
AcDbEntity
  8
寸法
 62
     7
 48
50.0
100
AcDbMText
 10
10711.57135575648
 20
2383.612364405156
 30
0.0
 40
120.0
 41
0.8
 71
     4
 72
     1
  1
\A1;C.B
  7
STYLE1
 73
     1
 44
1.0
1001
ACAD
1000
MTEXTBEGIN
1070
    73
1070
     1
1070
    44
1040
1.0
1070
    74
1070
     0
1000
MTEXTEND
  0
ENDSEC
  0
SECTION
  2
OBJECTS
  0
DICTIONARY
  5
7471
330
0
100
AcDbDictionary
281
     1
  3
ACAD_COLOR
350
173D2
  3
ACAD_GROUP
350
7472
  3
ACAD_LAYOUT
350
173D3
  3
ACAD_MATERIAL
350
173D1
  3
ACAD_MLINESTYLE
350
7473
  3
ACAD_PLOTSETTINGS
350
173D4
  3
ACAD_PLOTSTYLENAME
350
173CF
  3
ACDBHEADERROUNDTRIPXREC
350
277EF
  3
AcDbVariableDictionary
350
277EB
  3
CONTENTDICTIONARY
350
E71C
  3
DRAWINGVARIABLESDICT
350
F3B9
  0
DICTIONARY
  5
1758F
330
7467
100
AcDbDictionary
280
     1
281
     1
  3
ACAD_LAYERSTATES
360
17590
  0
DICTIONARY
  5
173D2
102
{ACAD_REACTORS
330
7471
102
}
330
7471
100
AcDbDictionary
281
     1
  0
DICTIONARY
  5
7472
102
{ACAD_REACTORS
330
7471
102
}
330
7471
100
AcDbDictionary
281
     1
  3
*A1
350
1D2A9
  0
DICTIONARY
  5
173D3
102
{ACAD_REACTORS
330
7471
102
}
330
7471
100
AcDbDictionary
281
     1
  3
Model
350
173D5
  3
レイアウト1
350
173D6
  0
DICTIONARY
  5
173D1
102
{ACAD_REACTORS
330
7471
102
}
330
7471
100
AcDbDictionary
281
     1
  0
DICTIONARY
  5
7473
102
{ACAD_REACTORS
330
7471
102
}
330
7471
100
AcDbDictionary
281
     1
  3
STANDARD
350
7480
  0
DICTIONARY
  5
173D4
102
{ACAD_REACTORS
330
7471
102
}
330
7471
100
AcDbDictionary
281
     1
  0
ACDBDICTIONARYWDFLT
  5
173CF
102
{ACAD_REACTORS
330
7471
102
}
330
7471
100
AcDbDictionary
281
     1
  3
Normal
350
173D0
100
AcDbDictionaryWithDefault
340
173D0
  0
DICTIONARY
  5
277EF
102
{ACAD_REACTORS
330
7471
102
}
330
7471
100
AcDbDictionary
281
     1
  3
COLORDICT
350
277F1
  3
MATERIALDICT
350
277F0
  0
DICTIONARY
  5
277EB
102
{ACAD_REACTORS
330
7471
102
}
330
7471
100
AcDbDictionary
281
     1
  3
DIMASSOC
350
277EC
  3
PROJECTNAME
350
277ED
  0
DICTIONARY
  5
E71C
102
{ACAD_REACTORS
330
7471
102
}
330
7471
100
AcDbDictionary
281
     1
  0
DICTIONARY
  5
F3B9
102
{ACAD_REACTORS
330
7471
102
}
330
7471
100
AcDbDictionary
281
     1
1001
DRAWINGVARIABLESXDATA
1000
POLARMODE
1000
1
  0
DICTIONARY
  5
17590
102
{ACAD_REACTORS
330
1758F
102
}
330
1758F
100
AcDbDictionary
281
     1
  0
GROUP
  5
1D2A9
102
{ACAD_REACTORS
330
7472
102
}
330
7472
100
AcDbGroup
300

 70
     1
 71
     1
  0
LAYOUT
  5
173D5
102
{ACAD_XDICTIONARY
360
277F2
102
}
102
{ACAD_REACTORS
330
173D3
102
}
330
173D3
100
AcDbPlotSettings
  1

  2
クセロPDFよこ.pc3
  4
A3
  6

 40
3.174999952316284
 41
3.174999952316284
 42
3.17498779296875
 43
3.17498779296875
 44
419.9466552734374
 45
296.9259948730469
 46
0.0
 47
0.0
 48
0.0
 49
0.0
140
0.0
141
0.0
142
1.0
143
40.0
 70
 11952
 72
     1
 73
     0
 74
     2
  7
ACA3.ctb
 75
    24
147
0.025
148
0.0
149
0.0
100
AcDbLayout
  1
Model
 70
     1
 71
     0
 10
0.0
 20
0.0
 11
12.0
 21
9.0
 12
0.0
 22
0.0
 32
0.0
 14
0.0
 24
0.0
 34
0.0
 15
0.0
 25
0.0
 35
0.0
146
0.0
 13
0.0
 23
0.0
 33
0.0
 16
1.0
 26
0.0
 36
0.0
 17
0.0
 27
1.0
 37
0.0
 76
     0
330
747D
  0
LAYOUT
  5
173D6
102
{ACAD_XDICTIONARY
360
277F4
102
}
102
{ACAD_REACTORS
330
173D3
102
}
330
173D3
100
AcDbPlotSettings
  1

  2
Microsoft Office Document Image Writer
  4

  6

 40
0.0
 41
0.0
 42
0.0
 43
0.0
 44
0.0
 45
0.0
 46
0.0
 47
0.0
 48
0.0
 49
0.0
140
0.0
141
0.0
142
1.0
143
1.0
 70
   688
 72
     0
 73
     0
 74
     5
  7
ACA3.ctb
 75
    16
147
1.0
148
0.0
149
0.0
100
AcDbLayout
  1
レイアウト1
 70
     0
 71
     1
 10
0.0
 20
0.0
 11
420.0
 21
297.0
 12
0.0
 22
0.0
 32
0.0
 14
1.000000000000000E+20
 24
1.000000000000000E+20
 34
1.000000000000000E+20
 15
-1.000000000000000E+20
 25
-1.000000000000000E+20
 35
-1.000000000000000E+20
146
0.0
 13
0.0
 23
0.0
 33
0.0
 16
1.0
 26
0.0
 36
0.0
 17
0.0
 27
1.0
 37
0.0
 76
     0
330
747A
  0
MLINESTYLE
  5
7480
102
{ACAD_REACTORS
330
7473
102
}
330
7473
100
AcDbMlineStyle
  2
STANDARD
 70
     0
  3

 62
     0
 51
90.0
 52
90.0
 71
     2
 49
0.5
 62
   256
  6
BYLAYER
 49
-0.5
 62
   256
  6
BYLAYER
  0
ACDBPLACEHOLDER
  5
173D0
102
{ACAD_REACTORS
330
173CF
102
}
330
173CF
  0
XRECORD
  5
277F1
102
{ACAD_REACTORS
330
277EF
102
}
330
277EF
100
AcDbXrecord
280
     1
340
173D2
  0
XRECORD
  5
277F0
102
{ACAD_REACTORS
330
277EF
102
}
330
277EF
100
AcDbXrecord
280
     1
340
173D1
  0
DICTIONARYVAR
  5
277EC
102
{ACAD_REACTORS
330
277EB
102
}
330
277EB
100
DictionaryVariables
280
     0
  1
1
  0
DICTIONARYVAR
  5
277ED
102
{ACAD_REACTORS
330
277EB
102
}
330
277EB
100
DictionaryVariables
280
     0
  1

  0
DICTIONARY
  5
277F2
330
173D5
100
AcDbDictionary
280
     1
281
     1
  3
ACAD_XREC_ROUNDTRIP
360
277F3
  0
DICTIONARY
  5
277F4
330
173D6
100
AcDbDictionary
280
     1
281
     1
  3
ACAD_XREC_ROUNDTRIP
360
277F5
  0
XRECORD
  5
277F3
102
{ACAD_REACTORS
330
277F2
102
}
330
277F2
100
AcDbXrecord
280
     1
102
SHADEPLOT
 70
     0
102
SHADEPLOTRESLEVEL
 70
     2
102
SHADEPLOTCUSTOMDPI
 70
   150
  0
XRECORD
  5
277F5
102
{ACAD_REACTORS
330
277F4
102
}
330
277F4
100
AcDbXrecord
280
     1
102
SHADEPLOT
 70
     0
102
SHADEPLOTRESLEVEL
 70
     2
102
SHADEPLOTCUSTOMDPI
 70
   300
  0
ENDSEC
  0
EOF
