  0
SECTION
  2
HEADER
  9
$ACADVER
  1
AC1015
  9
$ACADMAINTVER
 70
    20
  9
$DWGCODEPAGE
  3
ANSI_932
  9
$INSBASE
 10
0.0
 20
0.0
 30
0.0
  9
$EXTMIN
 10
139.9999999999995
 20
-0.0000000000000909
 30
0.0
  9
$EXTMAX
 10
16307.2
 20
11409.6
 30
0.0
  9
$LIMMIN
 10
0.0
 20
0.0
  9
$LIMMAX
 10
16800.0
 20
11880.0
  9
$ORTHOMODE
 70
     0
  9
$REGENMODE
 70
     1
  9
$FILLMODE
 70
     1
  9
$QTEXTMODE
 70
     0
  9
$MIRRTEXT
 70
     1
  9
$LTSCALE
 40
20.0
  9
$ATTMODE
 70
     1
  9
$TEXTSIZE
 40
4.0
  9
$TRACEWID
 40
1.0
  9
$TEXTSTYLE
  7
STYLE1
  9
$CLAYER
  8
細線
  9
$CELTYPE
  6
BYLAYER
  9
$CECOLOR
 62
   256
  9
$CELTSCALE
 40
50.0
  9
$DISPSILH
 70
     0
  9
$DIMSCALE
 40
40.0
  9
$DIMASZ
 40
2.5
  9
$DIMEXO
 40
0.5
  9
$DIMDLI
 40
7.0
  9
$DIMRND
 40
0.0
  9
$DIMDLE
 40
0.0
  9
$DIMEXE
 40
1.5
  9
$DIMTP
 40
0.0
  9
$DIMTM
 40
0.0
  9
$DIMTXT
 40
3.0
  9
$DIMCEN
 40
0.0
  9
$DIMTSZ
 40
0.0
  9
$DIMTOL
 70
     0
  9
$DIMLIM
 70
     0
  9
$DIMTIH
 70
     0
  9
$DIMTOH
 70
     0
  9
$DIMSE1
 70
     0
  9
$DIMSE2
 70
     0
  9
$DIMTAD
 70
     3
  9
$DIMZIN
 70
     8
  9
$DIMBLK
  1

  9
$DIMASO
 70
     1
  9
$DIMSHO
 70
     1
  9
$DIMPOST
  1

  9
$DIMAPOST
  1

  9
$DIMALT
 70
     0
  9
$DIMALTD
 70
     2
  9
$DIMALTF
 40
0.0394
  9
$DIMLFAC
 40
1.0
  9
$DIMTOFL
 70
     1
  9
$DIMTVP
 40
0.0
  9
$DIMTIX
 70
     1
  9
$DIMSOXD
 70
     0
  9
$DIMSAH
 70
     1
  9
$DIMBLK1
  1
DOTSMALL
  9
$DIMBLK2
  1
DOTSMALL
  9
$DIMSTYLE
  2
INABA_S40G
  9
$DIMCLRD
 70
     0
  9
$DIMCLRE
 70
     0
  9
$DIMCLRT
 70
     7
  9
$DIMTFAC
 40
1.0
  9
$DIMGAP
 40
1.0
  9
$DIMJUST
 70
     0
  9
$DIMSD1
 70
     0
  9
$DIMSD2
 70
     0
  9
$DIMTOLJ
 70
     1
  9
$DIMTZIN
 70
     0
  9
$DIMALTZ
 70
     0
  9
$DIMALTTZ
 70
     0
  9
$DIMUPT
 70
     0
  9
$DIMDEC
 70
     1
  9
$DIMTDEC
 70
     4
  9
$DIMALTU
 70
     2
  9
$DIMALTTD
 70
     2
  9
$DIMTXSTY
  7
STYLE1
  9
$DIMAUNIT
 70
     0
  9
$DIMADEC
 70
     0
  9
$DIMALTRND
 40
0.0
  9
$DIMAZIN
 70
     0
  9
$DIMDSEP
 70
    46
  9
$DIMATFIT
 70
     3
  9
$DIMFRAC
 70
     0
  9
$DIMLDRBLK
  1

  9
$DIMLUNIT
 70
     2
  9
$DIMLWD
 70
    -2
  9
$DIMLWE
 70
    -2
  9
$DIMTMOVE
 70
     0
  9
$LUNITS
 70
     2
  9
$LUPREC
 70
     1
  9
$SKETCHINC
 40
1.0
  9
$FILLETRAD
 40
3.0
  9
$AUNITS
 70
     0
  9
$AUPREC
 70
     0
  9
$MENU
  1
acad
  9
$ELEVATION
 40
0.0
  9
$PELEVATION
 40
0.0
  9
$THICKNESS
 40
0.0
  9
$LIMCHECK
 70
     0
  9
$CHAMFERA
 40
0.0
  9
$CHAMFERB
 40
0.0
  9
$CHAMFERC
 40
0.0
  9
$CHAMFERD
 40
0.0
  9
$SKPOLY
 70
     0
  9
$TDCREATE
 40
2451368.612993866
  9
$TDUCREATE
 40
2451368.237993866
  9
$TDUPDATE
 40
2455826.641371702
  9
$TDUUPDATE
 40
2455826.266371701
  9
$TDINDWG
 40
0.8266669676
  9
$TDUSRTIMER
 40
0.8266669676
  9
$USRTIMER
 70
     1
  9
$ANGBASE
 50
0.0
  9
$ANGDIR
 70
     0
  9
$PDMODE
 70
     3
  9
$PDSIZE
 40
2.0
  9
$PLINEWID
 40
0.0
  9
$SPLFRAME
 70
     0
  9
$SPLINETYPE
 70
     6
  9
$SPLINESEGS
 70
     8
  9
$HANDSEED
  5
26CA6
  9
$SURFTAB1
 70
     6
  9
$SURFTAB2
 70
     6
  9
$SURFTYPE
 70
     6
  9
$SURFU
 70
     6
  9
$SURFV
 70
     6
  9
$UCSBASE
  2

  9
$UCSNAME
  2

  9
$UCSORG
 10
0.0
 20
0.0
 30
0.0
  9
$UCSXDIR
 10
1.0
 20
0.0
 30
0.0
  9
$UCSYDIR
 10
0.0
 20
1.0
 30
0.0
  9
$UCSORTHOREF
  2

  9
$UCSORTHOVIEW
 70
     0
  9
$UCSORGTOP
 10
0.0
 20
0.0
 30
0.0
  9
$UCSORGBOTTOM
 10
0.0
 20
0.0
 30
0.0
  9
$UCSORGLEFT
 10
0.0
 20
0.0
 30
0.0
  9
$UCSORGRIGHT
 10
0.0
 20
0.0
 30
0.0
  9
$UCSORGFRONT
 10
0.0
 20
0.0
 30
0.0
  9
$UCSORGBACK
 10
0.0
 20
0.0
 30
0.0
  9
$PUCSBASE
  2

  9
$PUCSNAME
  2

  9
$PUCSORG
 10
0.0
 20
0.0
 30
0.0
  9
$PUCSXDIR
 10
1.0
 20
0.0
 30
0.0
  9
$PUCSYDIR
 10
0.0
 20
1.0
 30
0.0
  9
$PUCSORTHOREF
  2

  9
$PUCSORTHOVIEW
 70
     0
  9
$PUCSORGTOP
 10
0.0
 20
0.0
 30
0.0
  9
$PUCSORGBOTTOM
 10
0.0
 20
0.0
 30
0.0
  9
$PUCSORGLEFT
 10
0.0
 20
0.0
 30
0.0
  9
$PUCSORGRIGHT
 10
0.0
 20
0.0
 30
0.0
  9
$PUCSORGFRONT
 10
0.0
 20
0.0
 30
0.0
  9
$PUCSORGBACK
 10
0.0
 20
0.0
 30
0.0
  9
$USERI1
 70
     0
  9
$USERI2
 70
     0
  9
$USERI3
 70
     0
  9
$USERI4
 70
     0
  9
$USERI5
 70
     0
  9
$USERR1
 40
0.0
  9
$USERR2
 40
0.0
  9
$USERR3
 40
0.0
  9
$USERR4
 40
0.0
  9
$USERR5
 40
0.0
  9
$WORLDVIEW
 70
     1
  9
$SHADEDGE
 70
     3
  9
$SHADEDIF
 70
    70
  9
$TILEMODE
 70
     1
  9
$MAXACTVP
 70
    16
  9
$PINSBASE
 10
0.0
 20
0.0
 30
0.0
  9
$PLIMCHECK
 70
     0
  9
$PEXTMIN
 10
1.000000000000000E+20
 20
1.000000000000000E+20
 30
1.000000000000000E+20
  9
$PEXTMAX
 10
-1.000000000000000E+20
 20
-1.000000000000000E+20
 30
-1.000000000000000E+20
  9
$PLIMMIN
 10
0.0
 20
0.0
  9
$PLIMMAX
 10
420.0
 20
297.0
  9
$UNITMODE
 70
     0
  9
$VISRETAIN
 70
     0
  9
$PLINEGEN
 70
     0
  9
$PSLTSCALE
 70
     0
  9
$TREEDEPTH
 70
  3020
  9
$CMLSTYLE
  2
STANDARD
  9
$CMLJUST
 70
     0
  9
$CMLSCALE
 40
1.0
  9
$PROXYGRAPHICS
 70
     1
  9
$MEASUREMENT
 70
     1
  9
$CELWEIGHT
370
    -1
  9
$ENDCAPS
280
     0
  9
$JOINSTYLE
280
     0
  9
$LWDISPLAY
290
     0
  9
$INSUNITS
 70
     0
  9
$HYPERLINKBASE
  1

  9
$STYLESHEET
  1

  9
$XEDIT
290
     1
  9
$CEPSNTYPE
380
     0
  9
$PSTYLEMODE
290
     1
  9
$FINGERPRINTGUID
  2
{5EAC461A-2277-4BF8-9AB0-99C43BB394F0}
  9
$VERSIONGUID
  2
{E8A3AA47-5188-4BA7-B0A1-48CFEF03162F}
  9
$EXTNAMES
290
     1
  9
$PSVPSCALE
 40
0.0
  9
$OLESTARTUP
290
     0
  0
ENDSEC
  0
SECTION
  2
CLASSES
  0
CLASS
  1
ACDBDICTIONARYWDFLT
  2
AcDbDictionaryWithDefault
  3
ObjectDBX Classes
 90
        0
280
     0
281
     0
  0
CLASS
  1
DICTIONARYVAR
  2
AcDbDictionaryVar
  3
ObjectDBX Classes
 90
        0
280
     0
281
     0
  0
CLASS
  1
ACDBPLACEHOLDER
  2
AcDbPlaceHolder
  3
ObjectDBX Classes
 90
        0
280
     0
281
     0
  0
CLASS
  1
LAYOUT
  2
AcDbLayout
  3
ObjectDBX Classes
 90
        0
280
     0
281
     0
  0
ENDSEC
  0
SECTION
  2
TABLES
  0
TABLE
  2
VPORT
  5
746D
330
0
100
AcDbSymbolTable
 70
     2
  0
VPORT
  5
26C9E
330
746D
100
AcDbSymbolTableRecord
100
AcDbViewportTableRecord
  2
*Active
 70
     0
 10
0.0
 20
0.0
 11
1.0
 21
1.0
 12
8223.761025238502
 22
5855.51892110829
 13
0.0
 23
0.0
 14
10.0
 24
10.0
 15
10.0
 25
10.0
 16
0.0
 26
0.0
 36
1.0
 17
0.0
 27
0.0
 37
0.0
 40
11801.05715611403
 41
1.522222222222222
 42
50.0
 43
0.0
 44
0.0
 50
0.0
 51
0.0
 71
     0
 72
     0
 73
     1
 74
     0
 75
     0
 76
     0
 77
     0
 78
     0
281
     0
 65
     1
110
0.0
120
0.0
130
0.0
111
1.0
121
0.0
131
0.0
112
0.0
122
1.0
132
0.0
 79
     0
146
0.0
  0
ENDTAB
  0
TABLE
  2
LTYPE
  5
746A
330
0
100
AcDbSymbolTable
 70
     5
  0
LTYPE
  5
7477
330
746A
100
AcDbSymbolTableRecord
100
AcDbLinetypeTableRecord
  2
BYBLOCK
 70
     0
  3

 72
    65
 73
     0
 40
0.0
  0
LTYPE
  5
7478
330
746A
100
AcDbSymbolTableRecord
100
AcDbLinetypeTableRecord
  2
BYLAYER
 70
     0
  3

 72
    65
 73
     0
 40
0.0
  0
LTYPE
  5
7479
330
746A
100
AcDbSymbolTableRecord
100
AcDbLinetypeTableRecord
  2
CONTINUOUS
 70
     0
  3
Solid line
 72
    65
 73
     0
 40
0.0
  0
LTYPE
  5
7816
330
746A
100
AcDbSymbolTableRecord
100
AcDbLinetypeTableRecord
  2
CENTER
 70
     0
  3
____ _ ____ _ ____ _ ____ _ ____ _ ____ _ ____ 
 72
    65
 73
     4
 40
2.0
 49
1.25
 74
     0
 49
-0.25
 74
     0
 49
0.25
 74
     0
 49
-0.25
 74
     0
  0
LTYPE
  5
781A
330
746A
100
AcDbSymbolTableRecord
100
AcDbLinetypeTableRecord
  2
HIDDEN
 70
     0
  3
__ __ __ __ __ __ __ __ __ __ __ __ __ __ __ __
 72
    65
 73
     2
 40
0.375
 49
0.25
 74
     0
 49
-0.125
 74
     0
  0
LTYPE
  5
781B
330
746A
100
AcDbSymbolTableRecord
100
AcDbLinetypeTableRecord
  2
PHANTOM
 70
     0
  3
______  __  __  ______  __  __  ______  __  __ 
 72
    65
 73
     6
 40
2.5
 49
1.25
 74
     0
 49
-0.25
 74
     0
 49
0.25
 74
     0
 49
-0.25
 74
     0
 49
0.25
 74
     0
 49
-0.25
 74
     0
  0
LTYPE
  5
12CC3
330
746A
100
AcDbSymbolTableRecord
100
AcDbLinetypeTableRecord
  2
HIDDENX2
 70
     0
  3
Hidden (2x) ____ ____ ____ ____ ____ ____ ____
 72
    65
 73
     2
 40
19.05
 49
12.7
 74
     0
 49
-6.349999999999999
 74
     0
  0
ENDTAB
  0
TABLE
  2
LAYER
  5
7467
102
{ACAD_XDICTIONARY
360
1758F
102
}
330
0
100
AcDbSymbolTable
 70
    12
  0
LAYER
  5
7474
330
7467
100
AcDbSymbolTableRecord
100
AcDbLayerTableRecord
  2
0
 70
     0
 62
     7
  6
CONTINUOUS
370
    -3
390
173D0
  0
LAYER
  5
DEB2
330
7467
100
AcDbSymbolTableRecord
100
AcDbLayerTableRecord
  2
センター
 70
     0
 62
     3
  6
CENTER
370
    -3
390
173D0
  0
LAYER
  5
DEB3
330
7467
100
AcDbSymbolTableRecord
100
AcDbLayerTableRecord
  2
寸法
 70
     0
 62
     4
  6
CONTINUOUS
370
    -3
390
173D0
  0
LAYER
  5
DEB4
330
7467
100
AcDbSymbolTableRecord
100
AcDbLayerTableRecord
  2
部品1
 70
     0
 62
     7
  6
CONTINUOUS
370
    -3
390
173D0
  0
LAYER
  5
DEB5
330
7467
100
AcDbSymbolTableRecord
100
AcDbLayerTableRecord
  2
補助
 70
     0
 62
    -1
  6
CONTINUOUS
370
    -3
390
173D0
  0
LAYER
  5
DEB6
330
7467
100
AcDbSymbolTableRecord
100
AcDbLayerTableRecord
  2
文字
 70
     0
 62
     7
  6
CONTINUOUS
370
    -3
390
173D0
  0
LAYER
  5
F255
330
7467
100
AcDbSymbolTableRecord
100
AcDbLayerTableRecord
  2
DEFPOINTS
 70
     0
 62
     7
  6
CONTINUOUS
290
     0
370
    -3
390
173D0
  0
LAYER
  5
10B54
330
7467
100
AcDbSymbolTableRecord
100
AcDbLayerTableRecord
  2
仕様書枠
 70
     0
 62
   230
  6
CONTINUOUS
370
    -3
390
173D0
  0
LAYER
  5
11729
330
7467
100
AcDbSymbolTableRecord
100
AcDbLayerTableRecord
  2
Ｇ．Ｌ
 70
     0
 62
    30
  6
CONTINUOUS
370
    -3
390
173D0
  0
LAYER
  5
1173F
330
7467
100
AcDbSymbolTableRecord
100
AcDbLayerTableRecord
  2
細線
 70
     0
 62
     5
  6
CONTINUOUS
370
    -3
390
173D0
  0
LAYER
  5
12CC4
330
7467
100
AcDbSymbolTableRecord
100
AcDbLayerTableRecord
  2
想像線
 70
     0
 62
     6
  6
PHANTOM
370
    -3
390
173D0
  0
LAYER
  5
142E2
330
7467
100
AcDbSymbolTableRecord
100
AcDbLayerTableRecord
  2
破線
 70
     0
 62
     2
  6
HIDDEN
370
    -3
390
173D0
  0
ENDTAB
  0
TABLE
  2
STYLE
  5
7468
330
0
100
AcDbSymbolTable
 70
     7
  0
STYLE
  5
7475
330
7468
100
AcDbSymbolTableRecord
100
AcDbTextStyleTableRecord
  2
STANDARD
 70
     0
 40
0.0
 41
1.0
 50
0.0
 71
     0
 42
4.0
  3
txt
  4
C:\AutoCAD LT\bigfont.shx
  0
STYLE
  5
763C
330
7468
100
AcDbSymbolTableRecord
100
AcDbTextStyleTableRecord
  2
MSMINCHO
 70
     0
 40
0.0
 41
1.0
 50
0.0
 71
     0
 42
1.199999999999999
  3
C:\AutoCAD LT\msminch2.TTF
  4

  0
STYLE
  5
F706
330
7468
100
AcDbSymbolTableRecord
100
AcDbTextStyleTableRecord
  2
STYLE1
 70
     0
 40
0.0
 41
1.0
 50
0.0
 71
     0
 42
4.0
  3
isocp.shx
  4
bigfont.shx
  0
STYLE
  5
103BF
330
7468
100
AcDbSymbolTableRecord
100
AcDbTextStyleTableRecord
  2
STYLE2
 70
     0
 40
0.0
 41
1.0
 50
0.0
 71
     0
 42
100.0
  3
MS PGothic.ttf
  4

1001
ACAD
1000
MS PGothic
1071
    32818
  0
STYLE
  5
10BAA
330
7468
100
AcDbSymbolTableRecord
100
AcDbTextStyleTableRecord
  2
STYLE3
 70
     0
 40
0.0
 41
1.0
 50
0.0
 71
     0
 42
100.0
  3

  4

1001
ACAD
1000
DFPGothic-EB
1071
    32818
  0
STYLE
  5
11A15
330
7468
100
AcDbSymbolTableRecord
100
AcDbTextStyleTableRecord
  2
MSGOTHIC
 70
     0
 40
0.0
 41
1.0
 50
0.0
 71
     0
 42
3.5
  3
msgothi2.ttf
  4

  0
STYLE
  5
13E96
330
7468
100
AcDbSymbolTableRecord
100
AcDbTextStyleTableRecord
  2
MSPゴシック
 70
     0
 40
0.0
 41
1.0
 50
0.0
 71
     0
 42
4.0
  3
MS PGothic.ttf
  4

1001
ACAD
1000
MS PGothic
1071
    32818
  0
ENDTAB
  0
TABLE
  2
VIEW
  5
746B
330
0
100
AcDbSymbolTable
 70
     0
  0
ENDTAB
  0
TABLE
  2
UCS
  5
746C
330
0
100
AcDbSymbolTable
 70
     0
  0
ENDTAB
  0
TABLE
  2
APPID
  5
746E
330
0
100
AcDbSymbolTable
 70
     6
  0
APPID
  5
7476
330
746E
100
AcDbSymbolTableRecord
100
AcDbRegAppTableRecord
  2
ACAD
 70
     0
  0
APPID
  5
DEA9
330
746E
100
AcDbSymbolTableRecord
100
AcDbRegAppTableRecord
  2
CONTENTBLOCKICON
 70
     0
  0
APPID
  5
DEAA
330
746E
100
AcDbSymbolTableRecord
100
AcDbRegAppTableRecord
  2
CONTENTBLOCKDESCRIPTION
 70
     0
  0
APPID
  5
E71D
330
746E
100
AcDbSymbolTableRecord
100
AcDbRegAppTableRecord
  2
CONTENTTABDATA
 70
     0
  0
APPID
  5
E71E
330
746E
100
AcDbSymbolTableRecord
100
AcDbRegAppTableRecord
  2
CONTENTCURRENTTAB
 70
     0
  0
APPID
  5
F3BA
330
746E
100
AcDbSymbolTableRecord
100
AcDbRegAppTableRecord
  2
DRAWINGVARIABLESXDATA
 70
     0
  0
ENDTAB
  0
TABLE
  2
DIMSTYLE
  5
746F
330
0
100
AcDbSymbolTable
 70
     6
100
AcDbDimStyleTable
 71
     1
340
F71F
  0
DIMSTYLE
105
7484
330
746F
100
AcDbSymbolTableRecord
100
AcDbDimStyleTableRecord
  2
JIS
 70
     0
 41
2.5
 42
1.0
 43
7.0
 44
1.0
 73
     0
 74
     0
 77
     1
 78
     8
140
2.5
141
0.0
143
0.0394
147
0.0
172
     1
174
     1
175
     1
340
7475
  0
DIMSTYLE
105
F236
330
746F
100
AcDbSymbolTableRecord
100
AcDbDimStyleTableRecord
  2
INABA_S40
 70
     0
 40
40.0
 41
2.5
 42
0.5
 43
7.0
 44
1.5
 73
     0
 74
     0
 77
     3
 78
     8
140
3.0
141
0.0
143
0.0394
147
1.0
172
     1
173
     1
174
     1
175
     1
178
     7
289
     0
340
7475
341
DEAC
343
DEAC
344
DEAC
  0
DIMSTYLE
105
F71F
102
{ACAD_REACTORS
330
25690
330
2568F
330
25672
330
25663
330
25661
330
2562B
330
2562A
330
25628
330
25624
330
2561F
330
25662
330
25660
330
2565E
330
25635
330
25633
330
25630
330
2562C
330
25675
330
25673
330
25670
330
25629
330
26097
330
26098
330
26510
330
26511
330
26512
330
26516
330
26573
330
26574
330
26AD1
330
26AD2
330
26ADA
330
26AE1
330
26AE4
330
26B44
102
}
330
746F
100
AcDbSymbolTableRecord
100
AcDbDimStyleTableRecord
  2
INABA_S40G
 70
     0
 40
40.0
 41
2.5
 42
0.5
 43
7.0
 44
1.5
 73
     0
 74
     0
 77
     3
 78
     8
140
3.0
141
0.0
143
0.0394
147
1.0
172
     1
173
     1
174
     1
178
     7
271
     1
340
F706
341
F770
343
F770
344
F770
  0
DIMSTYLE
105
142E3
330
746F
100
AcDbSymbolTableRecord
100
AcDbDimStyleTableRecord
  2
INABA_S1
 70
     0
 40
0.0
 41
2.5
 42
0.5
 43
7.0
 44
1.5
 73
     0
 74
     0
 77
     3
 78
     8
140
3.0
141
0.0
143
0.0394
146
0.5
147
0.5
172
     1
173
     1
176
   256
177
   256
178
     7
271
     2
272
     2
284
     8
288
     1
340
7475
341
DEAC
343
DEAC
344
DEAC
  0
DIMSTYLE
105
14463
330
746F
100
AcDbSymbolTableRecord
100
AcDbDimStyleTableRecord
  2
INABA_S30G
 70
     0
 40
30.0
 41
2.5
 42
0.5
 43
7.0
 44
1.5
 73
     0
 74
     0
 77
     3
 78
     8
140
3.0
141
0.0
143
0.0394
147
1.0
172
     1
173
     1
174
     1
175
     1
178
     7
271
     1
340
F706
341
F770
343
F770
344
F770
  0
DIMSTYLE
105
1758E
330
746F
100
AcDbSymbolTableRecord
100
AcDbDimStyleTableRecord
  2
INABA_S50G
 70
     0
 41
125.0
 42
25.0
 43
7.0
 44
75.0
 73
     0
 74
     0
 77
     3
 78
     8
140
150.0
141
0.0
143
0.0394
147
25.0
172
     1
173
     1
174
     1
175
     1
178
     7
271
     1
340
F706
341
F770
343
F770
344
F770
  0
ENDTAB
  0
TABLE
  2
BLOCK_RECORD
  5
7466
330
0
100
AcDbSymbolTable
 70
    54
  0
BLOCK_RECORD
  5
747D
330
7466
100
AcDbSymbolTableRecord
100
AcDbBlockTableRecord
  2
*MODEL_SPACE
340
173D5
  0
BLOCK_RECORD
  5
747A
330
7466
100
AcDbSymbolTableRecord
100
AcDbBlockTableRecord
  2
*PAPER_SPACE
340
173D6
  0
BLOCK_RECORD
  5
DEAC
330
7466
100
AcDbSymbolTableRecord
100
AcDbBlockTableRecord
  2
_OPEN
340
0
  0
BLOCK_RECORD
  5
F770
330
7466
100
AcDbSymbolTableRecord
100
AcDbBlockTableRecord
  2
_DOTSMALL
340
0
102
{BLKREFS
331
18C65
331
18C66
331
18C59
331
18C5A
331
18C4D
331
18C4E
331
18C41
331
18C42
331
18C35
331
18C36
331
18C29
331
18C2A
331
18C1D
331
18C1E
331
18C0F
331
18C10
331
18C03
331
18C04
331
18BF5
331
18BF6
331
18BE7
331
18BE8
331
18BD9
331
18BDA
331
18BCD
331
18BCE
331
25D85
331
25D86
331
25DA2
331
25DA3
331
25DAD
331
25DAE
331
25DB7
331
25DB8
331
25DC0
331
25DC1
331
25DC9
331
25DCA
331
25DD2
331
25DD3
331
25DF2
331
25DF3
331
25DFC
331
25DFD
331
25E06
331
25E07
331
25E2F
331
25E30
331
25E4C
331
25E4D
331
25E55
331
25E56
331
25E5E
331
25E5F
331
25E67
331
25E68
331
25E7A
331
25E7B
331
25E83
331
25E84
331
25EB0
331
25EB1
331
25EC6
331
25EC7
331
267CE
331
267CF
331
267D7
331
267D8
331
2680D
331
2680E
331
26877
331
26878
331
26881
331
26882
331
2688B
331
2688C
331
26895
331
26896
331
2689F
331
268A0
331
268A9
331
268AA
331
268B3
331
268B4
331
26C4E
331
26C4F
331
26C5D
331
26C5E
331
26C66
331
26C67
331
26C6F
331
26C70
331
26C78
331
26C79
331
26C81
331
26C82
102
}
  0
BLOCK_RECORD
  5
164B4
330
7466
100
AcDbSymbolTableRecord
100
AcDbBlockTableRecord
  2
_DOT
340
0
102
{BLKREFS
331
18C73
331
18C74
102
}
  0
BLOCK_RECORD
  5
18BC8
330
7466
100
AcDbSymbolTableRecord
100
AcDbBlockTableRecord
  2
*D3
340
0
  0
BLOCK_RECORD
  5
18BD4
330
7466
100
AcDbSymbolTableRecord
100
AcDbBlockTableRecord
  2
*D4
340
0
  0
BLOCK_RECORD
  5
18BE0
330
7466
100
AcDbSymbolTableRecord
100
AcDbBlockTableRecord
  2
*D5
340
0
  0
BLOCK_RECORD
  5
18BEE
330
7466
100
AcDbSymbolTableRecord
100
AcDbBlockTableRecord
  2
*D6
340
0
  0
BLOCK_RECORD
  5
18BFC
330
7466
100
AcDbSymbolTableRecord
100
AcDbBlockTableRecord
  2
*D7
340
0
  0
BLOCK_RECORD
  5
18C0A
330
7466
100
AcDbSymbolTableRecord
100
AcDbBlockTableRecord
  2
*D8
340
0
  0
BLOCK_RECORD
  5
18C16
330
7466
100
AcDbSymbolTableRecord
100
AcDbBlockTableRecord
  2
*D9
340
0
  0
BLOCK_RECORD
  5
18C24
330
7466
100
AcDbSymbolTableRecord
100
AcDbBlockTableRecord
  2
*D10
340
0
  0
BLOCK_RECORD
  5
18C30
330
7466
100
AcDbSymbolTableRecord
100
AcDbBlockTableRecord
  2
*D11
340
0
  0
BLOCK_RECORD
  5
18C3C
330
7466
100
AcDbSymbolTableRecord
100
AcDbBlockTableRecord
  2
*D12
340
0
  0
BLOCK_RECORD
  5
18C48
330
7466
100
AcDbSymbolTableRecord
100
AcDbBlockTableRecord
  2
*D13
340
0
  0
BLOCK_RECORD
  5
18C54
330
7466
100
AcDbSymbolTableRecord
100
AcDbBlockTableRecord
  2
*D14
340
0
  0
BLOCK_RECORD
  5
18C60
330
7466
100
AcDbSymbolTableRecord
100
AcDbBlockTableRecord
  2
*D15
340
0
  0
BLOCK_RECORD
  5
18C6C
330
7466
100
AcDbSymbolTableRecord
100
AcDbBlockTableRecord
  2
*D16
340
0
  0
BLOCK_RECORD
  5
18C7A
330
7466
100
AcDbSymbolTableRecord
100
AcDbBlockTableRecord
  2
A$C3B1A506B
340
0
  0
BLOCK_RECORD
  5
1C4CA
330
7466
100
AcDbSymbolTableRecord
100
AcDbBlockTableRecord
  2
_NONE
340
0
  0
BLOCK_RECORD
  5
256A2
330
7466
100
AcDbSymbolTableRecord
100
AcDbBlockTableRecord
  2
*D19
340
0
  0
BLOCK_RECORD
  5
256AE
330
7466
100
AcDbSymbolTableRecord
100
AcDbBlockTableRecord
  2
*D20
340
0
  0
BLOCK_RECORD
  5
256B9
330
7466
100
AcDbSymbolTableRecord
100
AcDbBlockTableRecord
  2
*D21
340
0
  0
BLOCK_RECORD
  5
256C4
330
7466
100
AcDbSymbolTableRecord
100
AcDbBlockTableRecord
  2
*D22
340
0
  0
BLOCK_RECORD
  5
256D1
330
7466
100
AcDbSymbolTableRecord
100
AcDbBlockTableRecord
  2
*D23
340
0
  0
BLOCK_RECORD
  5
256DC
330
7466
100
AcDbSymbolTableRecord
100
AcDbBlockTableRecord
  2
*D24
340
0
  0
BLOCK_RECORD
  5
256E8
330
7466
100
AcDbSymbolTableRecord
100
AcDbBlockTableRecord
  2
*D25
340
0
  0
BLOCK_RECORD
  5
256F4
330
7466
100
AcDbSymbolTableRecord
100
AcDbBlockTableRecord
  2
*D26
340
0
  0
BLOCK_RECORD
  5
25717
330
7466
100
AcDbSymbolTableRecord
100
AcDbBlockTableRecord
  2
*D27
340
0
  0
BLOCK_RECORD
  5
25731
330
7466
100
AcDbSymbolTableRecord
100
AcDbBlockTableRecord
  2
*D28
340
0
  0
BLOCK_RECORD
  5
25748
330
7466
100
AcDbSymbolTableRecord
100
AcDbBlockTableRecord
  2
*D29
340
0
  0
BLOCK_RECORD
  5
25755
330
7466
100
AcDbSymbolTableRecord
100
AcDbBlockTableRecord
  2
*D30
340
0
  0
BLOCK_RECORD
  5
25762
330
7466
100
AcDbSymbolTableRecord
100
AcDbBlockTableRecord
  2
*D31
340
0
  0
BLOCK_RECORD
  5
2576F
330
7466
100
AcDbSymbolTableRecord
100
AcDbBlockTableRecord
  2
*D32
340
0
  0
BLOCK_RECORD
  5
2577B
330
7466
100
AcDbSymbolTableRecord
100
AcDbBlockTableRecord
  2
*D33
340
0
  0
BLOCK_RECORD
  5
25795
330
7466
100
AcDbSymbolTableRecord
100
AcDbBlockTableRecord
  2
*D34
340
0
  0
BLOCK_RECORD
  5
257AD
330
7466
100
AcDbSymbolTableRecord
100
AcDbBlockTableRecord
  2
*D35
340
0
  0
BLOCK_RECORD
  5
257B9
330
7466
100
AcDbSymbolTableRecord
100
AcDbBlockTableRecord
  2
*D36
340
0
  0
BLOCK_RECORD
  5
257C5
330
7466
100
AcDbSymbolTableRecord
100
AcDbBlockTableRecord
  2
*D37
340
0
  0
BLOCK_RECORD
  5
257D1
330
7466
100
AcDbSymbolTableRecord
100
AcDbBlockTableRecord
  2
*D38
340
0
  0
BLOCK_RECORD
  5
257DE
330
7466
100
AcDbSymbolTableRecord
100
AcDbBlockTableRecord
  2
*D39
340
0
  0
BLOCK_RECORD
  5
261FF
330
7466
100
AcDbSymbolTableRecord
100
AcDbBlockTableRecord
  2
*D40
340
0
  0
BLOCK_RECORD
  5
2620C
330
7466
100
AcDbSymbolTableRecord
100
AcDbBlockTableRecord
  2
*D41
340
0
  0
BLOCK_RECORD
  5
26579
330
7466
100
AcDbSymbolTableRecord
100
AcDbBlockTableRecord
  2
*D42
340
0
  0
BLOCK_RECORD
  5
26586
330
7466
100
AcDbSymbolTableRecord
100
AcDbBlockTableRecord
  2
*D43
340
0
  0
BLOCK_RECORD
  5
26593
330
7466
100
AcDbSymbolTableRecord
100
AcDbBlockTableRecord
  2
*D44
340
0
  0
BLOCK_RECORD
  5
2659F
330
7466
100
AcDbSymbolTableRecord
100
AcDbBlockTableRecord
  2
*D45
340
0
  0
BLOCK_RECORD
  5
266AA
330
7466
100
AcDbSymbolTableRecord
100
AcDbBlockTableRecord
  2
*D46
340
0
  0
BLOCK_RECORD
  5
266B8
330
7466
100
AcDbSymbolTableRecord
100
AcDbBlockTableRecord
  2
*D47
340
0
  0
BLOCK_RECORD
  5
26BFE
330
7466
100
AcDbSymbolTableRecord
100
AcDbBlockTableRecord
  2
*D48
340
0
  0
BLOCK_RECORD
  5
26C0A
330
7466
100
AcDbSymbolTableRecord
100
AcDbBlockTableRecord
  2
*D49
340
0
  0
BLOCK_RECORD
  5
26C1B
330
7466
100
AcDbSymbolTableRecord
100
AcDbBlockTableRecord
  2
*D50
340
0
  0
BLOCK_RECORD
  5
26C27
330
7466
100
AcDbSymbolTableRecord
100
AcDbBlockTableRecord
  2
*D51
340
0
  0
BLOCK_RECORD
  5
26C33
330
7466
100
AcDbSymbolTableRecord
100
AcDbBlockTableRecord
  2
*D52
340
0
  0
BLOCK_RECORD
  5
26C3F
330
7466
100
AcDbSymbolTableRecord
100
AcDbBlockTableRecord
  2
*D53
340
0
  0
ENDTAB
  0
ENDSEC
  0
SECTION
  2
BLOCKS
  0
BLOCK
  5
7489
330
747D
100
AcDbEntity
  8
0
100
AcDbBlockBegin
  2
*MODEL_SPACE
 70
     0
 10
0.0
 20
0.0
 30
0.0
  3
*MODEL_SPACE
  1

  0
ENDBLK
  5
748A
330
747D
100
AcDbEntity
  8
0
100
AcDbBlockEnd
  0
BLOCK
  5
7487
330
747A
100
AcDbEntity
 67
     1
  8
0
100
AcDbBlockBegin
  2
*PAPER_SPACE
 70
     0
 10
0.0
 20
0.0
 30
0.0
  3
*PAPER_SPACE
  1

  0
ENDBLK
  5
7488
330
747A
100
AcDbEntity
 67
     1
  8
0
100
AcDbBlockEnd
  0
BLOCK
  5
DEAD
330
DEAC
100
AcDbEntity
  8
0
100
AcDbBlockBegin
  2
_OPEN
 70
     0
 10
0.0
 20
0.0
 30
0.0
  3
_OPEN
  1

  0
LINE
  5
DEAE
330
DEAC
100
AcDbEntity
  8
0
  6
ByBlock
 62
     0
100
AcDbLine
 10
-1.0
 20
0.1666666666666666
 30
0.0
 11
0.0
 21
0.0
 31
0.0
  0
LINE
  5
DEAF
330
DEAC
100
AcDbEntity
  8
0
  6
ByBlock
 62
     0
100
AcDbLine
 10
0.0
 20
0.0
 30
0.0
 11
-1.0
 21
-0.1666666666666666
 31
0.0
  0
LINE
  5
DEB0
330
DEAC
100
AcDbEntity
  8
0
  6
ByBlock
 62
     0
100
AcDbLine
 10
0.0
 20
0.0
 30
0.0
 11
-1.0
 21
0.0
 31
0.0
  0
ENDBLK
  5
DEB1
330
DEAC
100
AcDbEntity
  8
0
100
AcDbBlockEnd
  0
BLOCK
  5
F771
330
F770
100
AcDbEntity
  8
0
 48
50.0
100
AcDbBlockBegin
  2
_DOTSMALL
 70
     0
 10
0.0
 20
0.0
 30
0.0
  3
_DOTSMALL
  1

  0
LWPOLYLINE
  5
F772
330
F770
100
AcDbEntity
  8
0
  6
ByBlock
 62
     0
 48
50.0
100
AcDbPolyline
 90
        2
 70
     1
 43
0.5
 10
-0.0625
 20
0.0
 42
1.0
 10
0.0625
 20
0.0
 42
1.0
  0
ENDBLK
  5
F776
330
F770
100
AcDbEntity
  8
0
 48
50.0
100
AcDbBlockEnd
  0
BLOCK
  5
164BA
330
164B4
100
AcDbEntity
  8
0
 48
50.0
100
AcDbBlockBegin
  2
_DOT
 70
     0
 10
0.0
 20
0.0
 30
0.0
  3
_DOT
  1

  0
LWPOLYLINE
  5
164B5
330
164B4
100
AcDbEntity
  8
0
  6
ByBlock
 62
     0
 48
50.0
100
AcDbPolyline
 90
        2
 70
     1
 43
0.5
 10
-0.25
 20
0.0
 42
1.0
 10
0.25
 20
0.0
 42
1.0
  0
LINE
  5
164B9
330
164B4
100
AcDbEntity
  8
0
  6
ByBlock
 62
     0
 48
50.0
100
AcDbLine
 10
-0.5
 20
0.0
 30
0.0
 11
-1.0
 21
0.0
 31
0.0
  0
ENDBLK
  5
164BB
330
164B4
100
AcDbEntity
  8
0
 48
50.0
100
AcDbBlockEnd
  0
BLOCK
  5
18BC9
330
18BC8
100
AcDbEntity
  8
0
 48
50.0
100
AcDbBlockBegin
  2
*D3
 70
     1
 10
0.0
 20
0.0
 30
0.0
  3
*D3
  1

  0
LINE
  5
18BCA
330
18BC8
100
AcDbEntity
  8
寸法
 62
     0
 48
50.0
370
    -2
100
AcDbLine
 10
7649.896575106999
 20
9636.123139034717
 30
0.0
 11
8702.429862581047
 21
9636.123139034717
 31
0.0
  0
LINE
  5
18BCB
330
18BC8
100
AcDbEntity
  8
寸法
 62
     0
 48
50.0
370
    -2
100
AcDbLine
 10
7649.896575106973
 20
7846.123139034709
 30
0.0
 11
8702.429862581047
 21
7846.123139034709
 31
0.0
  0
LINE
  5
18BCC
330
18BC8
100
AcDbEntity
  8
寸法
 62
     0
 48
50.0
370
    -2
100
AcDbLine
 10
8642.429862581046
 20
9636.123139034717
 30
0.0
 11
8642.429862581046
 21
7846.123139034709
 31
0.0
  0
INSERT
  5
18BCD
330
18BC8
100
AcDbEntity
  8
寸法
 62
     0
 48
50.0
370
    -2
100
AcDbBlockReference
  2
_DOTSMALL
 10
8642.429862581046
 20
9636.123139034717
 30
0.0
 41
100.0
 42
100.0
 43
100.0
 50
90.0
  0
INSERT
  5
18BCE
330
18BC8
100
AcDbEntity
  8
寸法
 62
     0
 48
50.0
370
    -2
100
AcDbBlockReference
  2
_DOTSMALL
 10
8642.429862581046
 20
7846.123139034709
 30
0.0
 41
100.0
 42
100.0
 43
100.0
 50
270.0
  0
MTEXT
  5
18BCF
330
18BC8
100
AcDbEntity
  8
寸法
 62
     7
 48
50.0
100
AcDbMText
 10
8542.429862581045
 20
8741.123139034712
 30
0.0
 40
120.0
 41
0.0
 71
     5
 72
     1
  1
\A1;1790
  7
STYLE1
 11
0.0000000000000001
 21
1.0
 31
0.0
 73
     1
 44
1.0
1001
ACAD
1000
MTEXTBEGIN
1070
    73
1070
     1
1070
    44
1040
1.0
1070
    74
1070
     0
1000
MTEXTEND
  0
POINT
  5
18BD0
330
18BC8
100
AcDbEntity
  8
DEFPOINTS
 62
     0
 48
50.0
100
AcDbPoint
 10
7629.896575106998
 20
9636.123139034717
 30
0.0
  0
POINT
  5
18BD1
330
18BC8
100
AcDbEntity
  8
DEFPOINTS
 62
     0
 48
50.0
100
AcDbPoint
 10
7629.896575106974
 20
7846.123139034709
 30
0.0
  0
POINT
  5
18BD2
330
18BC8
100
AcDbEntity
  8
DEFPOINTS
 62
     0
 48
50.0
100
AcDbPoint
 10
8642.429862581046
 20
7846.123139034709
 30
0.0
  0
ENDBLK
  5
18BD3
330
18BC8
100
AcDbEntity
  8
0
 48
50.0
100
AcDbBlockEnd
  0
BLOCK
  5
18BD5
330
18BD4
100
AcDbEntity
  8
0
 48
50.0
100
AcDbBlockBegin
  2
*D4
 70
     1
 10
0.0
 20
0.0
 30
0.0
  3
*D4
  1

  0
LINE
  5
18BD6
330
18BD4
100
AcDbEntity
  8
寸法
 62
     0
 48
50.0
370
    -2
100
AcDbLine
 10
4214.896575106998
 20
9656.123139034622
 30
0.0
 11
4214.896575106998
 21
10211.93135865972
 31
0.0
  0
LINE
  5
18BD7
330
18BD4
100
AcDbEntity
  8
寸法
 62
     0
 48
50.0
370
    -2
100
AcDbLine
 10
7574.896575106999
 20
9656.123139034718
 30
0.0
 11
7574.896575106999
 21
10211.93135865972
 31
0.0
  0
LINE
  5
18BD8
330
18BD4
100
AcDbEntity
  8
寸法
 62
     0
 48
50.0
370
    -2
100
AcDbLine
 10
4214.896575106998
 20
10151.93135865972
 30
0.0
 11
7574.896575106999
 21
10151.93135865972
 31
0.0
  0
INSERT
  5
18BD9
330
18BD4
100
AcDbEntity
  8
寸法
 62
     0
 48
50.0
370
    -2
100
AcDbBlockReference
  2
_DOTSMALL
 10
4214.896575106998
 20
10151.93135865972
 30
0.0
 41
100.0
 42
100.0
 43
100.0
 50
180.0
  0
INSERT
  5
18BDA
330
18BD4
100
AcDbEntity
  8
寸法
 62
     0
 48
50.0
370
    -2
100
AcDbBlockReference
  2
_DOTSMALL
 10
7574.896575106999
 20
10151.93135865972
 30
0.0
 41
100.0
 42
100.0
 43
100.0
  0
MTEXT
  5
18BDB
330
18BD4
100
AcDbEntity
  8
寸法
 62
     7
 48
50.0
100
AcDbMText
 10
5894.896575106997
 20
10251.94316968334
 30
0.0
 40
120.0
 41
0.0
 71
     5
 72
     1
  1
\A1;8X420=3360
  7
STYLE1
 73
     1
 44
1.0
1001
ACAD
1000
MTEXTBEGIN
1070
    73
1070
     1
1070
    44
1040
1.0
1070
    74
1070
     0
1000
MTEXTEND
  0
POINT
  5
18BDC
330
18BD4
100
AcDbEntity
  8
DEFPOINTS
 62
     0
 48
50.0
100
AcDbPoint
 10
4214.896575106998
 20
9636.123139034623
 30
0.0
  0
POINT
  5
18BDD
330
18BD4
100
AcDbEntity
  8
DEFPOINTS
 62
     0
 48
50.0
100
AcDbPoint
 10
7574.896575106999
 20
9636.123139034717
 30
0.0
  0
POINT
  5
18BDE
330
18BD4
100
AcDbEntity
  8
DEFPOINTS
 62
     0
 48
50.0
100
AcDbPoint
 10
7574.896575106999
 20
10151.93135865972
 30
0.0
  0
ENDBLK
  5
18BDF
330
18BD4
100
AcDbEntity
  8
0
 48
50.0
100
AcDbBlockEnd
  0
BLOCK
  5
18BE1
330
18BE0
100
AcDbEntity
  8
0
 48
50.0
100
AcDbBlockBegin
  2
*D5
 70
     1
 10
0.0
 20
0.0
 30
0.0
  3
*D5
  1

  0
LINE
  5
18BE2
330
18BE0
100
AcDbEntity
  8
寸法
 62
     0
 48
50.0
370
    -2
100
AcDbLine
 10
7574.896575106999
 20
9656.123139034718
 30
0.0
 11
7574.896575106999
 21
10211.9313586597
 31
0.0
  0
LINE
  5
18BE3
330
18BE0
100
AcDbEntity
  8
寸法
 62
     0
 48
50.0
370
    -2
100
AcDbLine
 10
7629.896575106998
 20
9656.123139034718
 30
0.0
 11
7629.896575106998
 21
10211.9313586597
 31
0.0
  0
LINE
  5
18BE4
330
18BE0
100
AcDbEntity
  8
寸法
 62
     0
 48
50.0
370
    -2
100
AcDbLine
 10
7574.896575106999
 20
10151.9313586597
 30
0.0
 11
7474.896575106999
 21
10151.9313586597
 31
0.0
  0
LINE
  5
18BE5
330
18BE0
100
AcDbEntity
  8
寸法
 62
     0
 48
50.0
370
    -2
100
AcDbLine
 10
7629.896575106998
 20
10151.9313586597
 30
0.0
 11
8046.867137855477
 21
10151.9313586597
 31
0.0
  0
LINE
  5
18BE6
330
18BE0
100
AcDbEntity
  8
寸法
 62
     0
 48
50.0
370
    -2
100
AcDbLine
 10
7574.896575106999
 20
10151.9313586597
 30
0.0
 11
7629.896575106998
 21
10151.9313586597
 31
0.0
  0
INSERT
  5
18BE7
330
18BE0
100
AcDbEntity
  8
寸法
 62
     0
 48
50.0
370
    -2
100
AcDbBlockReference
  2
_DOTSMALL
 10
7574.896575106999
 20
10151.9313586597
 30
0.0
 41
100.0
 42
100.0
 43
100.0
  0
INSERT
  5
18BE8
330
18BE0
100
AcDbEntity
  8
寸法
 62
     0
 48
50.0
370
    -2
100
AcDbBlockReference
  2
_DOTSMALL
 10
7629.896575106998
 20
10151.9313586597
 30
0.0
 41
100.0
 42
100.0
 43
100.0
 50
180.0
  0
MTEXT
  5
18BE9
330
18BE0
100
AcDbEntity
  8
寸法
 62
     7
 48
50.0
100
AcDbMText
 10
7938.381856481237
 20
10251.9313586597
 30
0.0
 40
120.0
 41
0.0
 71
     5
 72
     1
  1
\A1;55
  7
STYLE1
 73
     1
 44
1.0
1001
ACAD
1000
MTEXTBEGIN
1070
    73
1070
     1
1070
    44
1040
1.0
1070
    74
1070
     0
1000
MTEXTEND
  0
POINT
  5
18BEA
330
18BE0
100
AcDbEntity
  8
DEFPOINTS
 62
     0
 48
50.0
100
AcDbPoint
 10
7574.896575106999
 20
9636.123139034717
 30
0.0
  0
POINT
  5
18BEB
330
18BE0
100
AcDbEntity
  8
DEFPOINTS
 62
     0
 48
50.0
100
AcDbPoint
 10
7629.896575106998
 20
9636.123139034717
 30
0.0
  0
POINT
  5
18BEC
330
18BE0
100
AcDbEntity
  8
DEFPOINTS
 62
     0
 48
50.0
100
AcDbPoint
 10
7629.896575106998
 20
10151.9313586597
 30
0.0
  0
ENDBLK
  5
18BED
330
18BE0
100
AcDbEntity
  8
0
 48
50.0
100
AcDbBlockEnd
  0
BLOCK
  5
18BEF
330
18BEE
100
AcDbEntity
  8
0
 48
50.0
100
AcDbBlockBegin
  2
*D6
 70
     1
 10
0.0
 20
0.0
 30
0.0
  3
*D6
  1

  0
LINE
  5
18BF0
330
18BEE
100
AcDbEntity
  8
寸法
 62
     0
 48
50.0
370
    -2
100
AcDbLine
 10
7649.896575106999
 20
9636.123139034717
 30
0.0
 11
8337.32292084141
 21
9636.123139034717
 31
0.0
  0
LINE
  5
18BF1
330
18BEE
100
AcDbEntity
  8
寸法
 62
     0
 48
50.0
370
    -2
100
AcDbLine
 10
7649.896575106999
 20
9581.123139034721
 30
0.0
 11
8337.32292084141
 21
9581.123139034721
 31
0.0
  0
LINE
  5
18BF2
330
18BEE
100
AcDbEntity
  8
寸法
 62
     0
 48
50.0
370
    -2
100
AcDbLine
 10
8277.322920841411
 20
9581.123139034721
 30
0.0
 11
8277.322920841411
 21
9481.123139034719
 31
0.0
  0
LINE
  5
18BF3
330
18BEE
100
AcDbEntity
  8
寸法
 62
     0
 48
50.0
370
    -2
100
AcDbLine
 10
8277.322920841411
 20
9636.123139034717
 30
0.0
 11
8277.322920841411
 21
10053.09370178319
 31
0.0
  0
LINE
  5
18BF4
330
18BEE
100
AcDbEntity
  8
寸法
 62
     0
 48
50.0
370
    -2
100
AcDbLine
 10
8277.322920841411
 20
9581.123139034721
 30
0.0
 11
8277.322920841411
 21
9636.123139034717
 31
0.0
  0
INSERT
  5
18BF5
330
18BEE
100
AcDbEntity
  8
寸法
 62
     0
 48
50.0
370
    -2
100
AcDbBlockReference
  2
_DOTSMALL
 10
8277.322920841411
 20
9581.123139034721
 30
0.0
 41
100.0
 42
100.0
 43
100.0
 50
90.0
  0
INSERT
  5
18BF6
330
18BEE
100
AcDbEntity
  8
寸法
 62
     0
 48
50.0
370
    -2
100
AcDbBlockReference
  2
_DOTSMALL
 10
8277.322920841411
 20
9636.123139034717
 30
0.0
 41
100.0
 42
100.0
 43
100.0
 50
270.0
  0
MTEXT
  5
18BF7
330
18BEE
100
AcDbEntity
  8
寸法
 62
     7
 48
50.0
100
AcDbMText
 10
8177.32292084141
 20
9944.608420408957
 30
0.0
 40
120.0
 41
0.0
 71
     5
 72
     1
  1
\A1;55
  7
STYLE1
 11
0.0000000000000001
 21
1.0
 31
0.0
 73
     1
 44
1.0
1001
ACAD
1000
MTEXTBEGIN
1070
    73
1070
     1
1070
    44
1040
1.0
1070
    74
1070
     0
1000
MTEXTEND
  0
POINT
  5
18BF8
330
18BEE
100
AcDbEntity
  8
DEFPOINTS
 62
     0
 48
50.0
100
AcDbPoint
 10
7629.896575106998
 20
9636.123139034717
 30
0.0
  0
POINT
  5
18BF9
330
18BEE
100
AcDbEntity
  8
DEFPOINTS
 62
     0
 48
50.0
100
AcDbPoint
 10
7629.896575106998
 20
9581.123139034721
 30
0.0
  0
POINT
  5
18BFA
330
18BEE
100
AcDbEntity
  8
DEFPOINTS
 62
     0
 48
50.0
100
AcDbPoint
 10
8277.322920841411
 20
9581.123139034721
 30
0.0
  0
ENDBLK
  5
18BFB
330
18BEE
100
AcDbEntity
  8
0
 48
50.0
100
AcDbBlockEnd
  0
BLOCK
  5
18BFD
330
18BFC
100
AcDbEntity
  8
0
 48
50.0
100
AcDbBlockBegin
  2
*D7
 70
     1
 10
0.0
 20
0.0
 30
0.0
  3
*D7
  1

  0
LINE
  5
18BFE
330
18BFC
100
AcDbEntity
  8
寸法
 62
     0
 48
50.0
370
    -2
100
AcDbLine
 10
4159.896575106963
 20
9656.123139034622
 30
0.0
 11
4159.896575106963
 21
10211.9313586596
 31
0.0
  0
LINE
  5
18BFF
330
18BFC
100
AcDbEntity
  8
寸法
 62
     0
 48
50.0
370
    -2
100
AcDbLine
 10
4214.896575106998
 20
9656.123139034622
 30
0.0
 11
4214.896575106998
 21
10211.9313586596
 31
0.0
  0
LINE
  5
18C00
330
18BFC
100
AcDbEntity
  8
寸法
 62
     0
 48
50.0
370
    -2
100
AcDbLine
 10
4214.896575106998
 20
10151.9313586596
 30
0.0
 11
4314.896575106998
 21
10151.9313586596
 31
0.0
  0
LINE
  5
18C01
330
18BFC
100
AcDbEntity
  8
寸法
 62
     0
 48
50.0
370
    -2
100
AcDbLine
 10
4159.896575106963
 20
10151.9313586596
 30
0.0
 11
3742.926012358486
 21
10151.9313586596
 31
0.0
  0
LINE
  5
18C02
330
18BFC
100
AcDbEntity
  8
寸法
 62
     0
 48
50.0
370
    -2
100
AcDbLine
 10
4214.896575106998
 20
10151.9313586596
 30
0.0
 11
4159.896575106963
 21
10151.9313586596
 31
0.0
  0
INSERT
  5
18C03
330
18BFC
100
AcDbEntity
  8
寸法
 62
     0
 48
50.0
370
    -2
100
AcDbBlockReference
  2
_DOTSMALL
 10
4214.896575106998
 20
10151.9313586596
 30
0.0
 41
100.0
 42
100.0
 43
100.0
 50
180.0
  0
INSERT
  5
18C04
330
18BFC
100
AcDbEntity
  8
寸法
 62
     0
 48
50.0
370
    -2
100
AcDbBlockReference
  2
_DOTSMALL
 10
4159.896575106963
 20
10151.9313586596
 30
0.0
 41
100.0
 42
100.0
 43
100.0
  0
MTEXT
  5
18C05
330
18BFC
100
AcDbEntity
  8
寸法
 62
     7
 48
50.0
100
AcDbMText
 10
3851.411293732725
 20
10251.9313586596
 30
0.0
 40
120.0
 41
0.0
 71
     5
 72
     1
  1
\A1;55
  7
STYLE1
 73
     1
 44
1.0
1001
ACAD
1000
MTEXTBEGIN
1070
    73
1070
     1
1070
    44
1040
1.0
1070
    74
1070
     0
1000
MTEXTEND
  0
POINT
  5
18C06
330
18BFC
100
AcDbEntity
  8
DEFPOINTS
 62
     0
 48
50.0
100
AcDbPoint
 10
4159.896575106963
 20
9636.123139034623
 30
0.0
  0
POINT
  5
18C07
330
18BFC
100
AcDbEntity
  8
DEFPOINTS
 62
     0
 48
50.0
100
AcDbPoint
 10
4214.896575106998
 20
9636.123139034623
 30
0.0
  0
POINT
  5
18C08
330
18BFC
100
AcDbEntity
  8
DEFPOINTS
 62
     0
 48
50.0
100
AcDbPoint
 10
4214.896575106998
 20
10151.9313586596
 30
0.0
  0
ENDBLK
  5
18C09
330
18BFC
100
AcDbEntity
  8
0
 48
50.0
100
AcDbBlockEnd
  0
BLOCK
  5
18C0B
330
18C0A
100
AcDbEntity
  8
0
 48
50.0
100
AcDbBlockBegin
  2
*D8
 70
     1
 10
0.0
 20
0.0
 30
0.0
  3
*D8
  1

  0
LINE
  5
18C0C
330
18C0A
100
AcDbEntity
  8
寸法
 62
     0
 48
50.0
370
    -2
100
AcDbLine
 10
4159.896575106992
 20
7826.123139034546
 30
0.0
 11
4159.896575106992
 21
6804.372203245664
 31
0.0
  0
LINE
  5
18C0D
330
18C0A
100
AcDbEntity
  8
寸法
 62
     0
 48
50.0
370
    -2
100
AcDbLine
 10
7629.896575106974
 20
7826.123139034674
 30
0.0
 11
7629.896575106974
 21
6804.372203245664
 31
0.0
  0
LINE
  5
18C0E
330
18C0A
100
AcDbEntity
  8
寸法
 62
     0
 48
50.0
370
    -2
100
AcDbLine
 10
4159.896575106992
 20
6864.372203245665
 30
0.0
 11
7629.896575106974
 21
6864.372203245665
 31
0.0
  0
INSERT
  5
18C0F
330
18C0A
100
AcDbEntity
  8
寸法
 62
     0
 48
50.0
370
    -2
100
AcDbBlockReference
  2
_DOTSMALL
 10
4159.896575106992
 20
6864.372203245665
 30
0.0
 41
100.0
 42
100.0
 43
100.0
 50
180.0
  0
INSERT
  5
18C10
330
18C0A
100
AcDbEntity
  8
寸法
 62
     0
 48
50.0
370
    -2
100
AcDbBlockReference
  2
_DOTSMALL
 10
7629.896575106974
 20
6864.372203245665
 30
0.0
 41
100.0
 42
100.0
 43
100.0
  0
MTEXT
  5
18C11
330
18C0A
100
AcDbEntity
  8
寸法
 62
     7
 48
50.0
100
AcDbMText
 10
5911.12376113973
 20
6964.372203245665
 30
0.0
 40
120.0
 41
0.0
 71
     5
 72
     1
  1
\A1;3470
  7
STYLE1
 73
     1
 44
1.0
1001
ACAD
1000
MTEXTBEGIN
1070
    73
1070
     1
1070
    44
1040
1.0
1070
    74
1070
     0
1000
MTEXTEND
  0
POINT
  5
18C12
330
18C0A
100
AcDbEntity
  8
DEFPOINTS
 62
     0
 48
50.0
100
AcDbPoint
 10
4159.896575106992
 20
7846.123139034546
 30
0.0
  0
POINT
  5
18C13
330
18C0A
100
AcDbEntity
  8
DEFPOINTS
 62
     0
 48
50.0
100
AcDbPoint
 10
7629.896575106974
 20
7846.123139034673
 30
0.0
  0
POINT
  5
18C14
330
18C0A
100
AcDbEntity
  8
DEFPOINTS
 62
     0
 48
50.0
100
AcDbPoint
 10
7629.896575106974
 20
6864.372203245665
 30
0.0
  0
ENDBLK
  5
18C15
330
18C0A
100
AcDbEntity
  8
0
 48
50.0
100
AcDbBlockEnd
  0
BLOCK
  5
18C17
330
18C16
100
AcDbEntity
  8
0
 48
50.0
100
AcDbBlockBegin
  2
*D9
 70
     1
 10
0.0
 20
0.0
 30
0.0
  3
*D9
  1

  0
LINE
  5
18C18
330
18C16
100
AcDbEntity
  8
寸法
 62
     0
 48
50.0
370
    -2
100
AcDbLine
 10
7649.896575106973
 20
7901.123139034706
 30
0.0
 11
8337.322920841385
 21
7901.123139034706
 31
0.0
  0
LINE
  5
18C19
330
18C16
100
AcDbEntity
  8
寸法
 62
     0
 48
50.0
370
    -2
100
AcDbLine
 10
7649.896575106973
 20
7846.123139034709
 30
0.0
 11
8337.322920841385
 21
7846.123139034709
 31
0.0
  0
LINE
  5
18C1A
330
18C16
100
AcDbEntity
  8
寸法
 62
     0
 48
50.0
370
    -2
100
AcDbLine
 10
8277.322920841385
 20
7901.123139034706
 30
0.0
 11
8277.322920841385
 21
8001.123139034707
 31
0.0
  0
LINE
  5
18C1B
330
18C16
100
AcDbEntity
  8
寸法
 62
     0
 48
50.0
370
    -2
100
AcDbLine
 10
8277.322920841385
 20
7846.123139034709
 30
0.0
 11
8277.322920841385
 21
7429.152576286229
 31
0.0
  0
LINE
  5
18C1C
330
18C16
100
AcDbEntity
  8
寸法
 62
     0
 48
50.0
370
    -2
100
AcDbLine
 10
8277.322920841385
 20
7901.123139034706
 30
0.0
 11
8277.322920841385
 21
7846.123139034709
 31
0.0
  0
INSERT
  5
18C1D
330
18C16
100
AcDbEntity
  8
寸法
 62
     0
 48
50.0
370
    -2
100
AcDbBlockReference
  2
_DOTSMALL
 10
8277.322920841385
 20
7901.123139034706
 30
0.0
 41
100.0
 42
100.0
 43
100.0
 50
270.0
  0
INSERT
  5
18C1E
330
18C16
100
AcDbEntity
  8
寸法
 62
     0
 48
50.0
370
    -2
100
AcDbBlockReference
  2
_DOTSMALL
 10
8277.322920841385
 20
7846.123139034709
 30
0.0
 41
100.0
 42
100.0
 43
100.0
 50
90.0
  0
MTEXT
  5
18C1F
330
18C16
100
AcDbEntity
  8
寸法
 62
     7
 48
50.0
100
AcDbMText
 10
8177.322920841383
 20
7537.637857660469
 30
0.0
 40
120.0
 41
0.0
 71
     5
 72
     1
  1
\A1;55
  7
STYLE1
 11
0.0000000000000001
 21
1.0
 31
0.0
 73
     1
 44
1.0
1001
ACAD
1000
MTEXTBEGIN
1070
    73
1070
     1
1070
    44
1040
1.0
1070
    74
1070
     0
1000
MTEXTEND
  0
POINT
  5
18C20
330
18C16
100
AcDbEntity
  8
DEFPOINTS
 62
     0
 48
50.0
100
AcDbPoint
 10
7629.896575106974
 20
7901.123139034706
 30
0.0
  0
POINT
  5
18C21
330
18C16
100
AcDbEntity
  8
DEFPOINTS
 62
     0
 48
50.0
100
AcDbPoint
 10
7629.896575106974
 20
7846.123139034709
 30
0.0
  0
POINT
  5
18C22
330
18C16
100
AcDbEntity
  8
DEFPOINTS
 62
     0
 48
50.0
100
AcDbPoint
 10
8277.322920841385
 20
7846.123139034709
 30
0.0
  0
ENDBLK
  5
18C23
330
18C16
100
AcDbEntity
  8
0
 48
50.0
100
AcDbBlockEnd
  0
BLOCK
  5
18C25
330
18C24
100
AcDbEntity
  8
0
 48
50.0
100
AcDbBlockBegin
  2
*D10
 70
     1
 10
0.0
 20
0.0
 30
0.0
  3
*D10
  1

  0
LINE
  5
18C26
330
18C24
100
AcDbEntity
  8
寸法
 62
     0
 48
50.0
370
    -2
100
AcDbLine
 10
6533.037591258376
 20
9136.123139034728
 30
0.0
 11
6465.083950562664
 21
8882.516699399049
 31
0.0
  0
LINE
  5
18C27
330
18C24
100
AcDbEntity
  8
寸法
 62
     0
 48
50.0
370
    -2
100
AcDbLine
 10
7596.037591258388
 20
9136.123139034721
 30
0.0
 11
7528.083950562677
 21
8882.516699399049
 31
0.0
  0
LINE
  5
18C28
330
18C24
100
AcDbEntity
  8
寸法
 62
     0
 48
50.0
370
    -2
100
AcDbLine
 10
6481.160902108531
 20
8942.51669939905
 30
0.0
 11
7544.160902108544
 21
8942.51669939905
 31
0.0
  0
INSERT
  5
18C29
330
18C24
100
AcDbEntity
  8
寸法
 62
     0
 48
50.0
370
    -2
100
AcDbBlockReference
  2
_DOTSMALL
 10
6481.160902108531
 20
8942.51669939905
 30
0.0
 41
100.0
 42
100.0
 43
100.0
 50
180.0
  0
INSERT
  5
18C2A
330
18C24
100
AcDbEntity
  8
寸法
 62
     0
 48
50.0
370
    -2
100
AcDbBlockReference
  2
_DOTSMALL
 10
7544.160902108544
 20
8942.51669939905
 30
0.0
 41
100.0
 42
100.0
 43
100.0
  0
MTEXT
  5
18C2B
330
18C24
100
AcDbEntity
  8
寸法
 62
     7
 48
50.0
100
AcDbMText
 10
7061.28653022935
 20
9042.516699399049
 30
0.0
 40
120.0
 41
0.0
 71
     5
 72
     1
  1
\A1;1063
  7
STYLE1
 73
     1
 44
1.0
1001
ACAD
1000
MTEXTBEGIN
1070
    73
1070
     1
1070
    44
1040
1.0
1070
    74
1070
     0
1000
MTEXTEND
  0
POINT
  5
18C2C
330
18C24
100
AcDbEntity
  8
DEFPOINTS
 62
     0
 48
50.0
100
AcDbPoint
 10
6538.396575106998
 20
9156.123139034727
 30
0.0
  0
POINT
  5
18C2D
330
18C24
100
AcDbEntity
  8
DEFPOINTS
 62
     0
 48
50.0
100
AcDbPoint
 10
7601.39657510701
 20
9156.12313903472
 30
0.0
  0
POINT
  5
18C2E
330
18C24
100
AcDbEntity
  8
DEFPOINTS
 62
     0
 48
50.0
100
AcDbPoint
 10
7544.160902108544
 20
8942.51669939905
 30
0.0
  0
ENDBLK
  5
18C2F
330
18C24
100
AcDbEntity
  8
0
 48
50.0
100
AcDbBlockEnd
  0
BLOCK
  5
18C31
330
18C30
100
AcDbEntity
  8
0
 48
50.0
100
AcDbBlockBegin
  2
*D11
 70
     1
 10
0.0
 20
0.0
 30
0.0
  3
*D11
  1

  0
LINE
  5
18C32
330
18C30
100
AcDbEntity
  8
寸法
 62
     0
 48
50.0
370
    -2
100
AcDbLine
 10
7621.396575106999
 20
9600.764155186094
 30
0.0
 11
8016.754300969024
 21
9494.828371819961
 31
0.0
  0
LINE
  5
18C33
330
18C30
100
AcDbEntity
  8
寸法
 62
     0
 48
50.0
370
    -2
100
AcDbLine
 10
7621.396575106999
 20
9150.764155186099
 30
0.0
 11
8016.754300969024
 21
9044.828371819964
 31
0.0
  0
LINE
  5
18C34
330
18C30
100
AcDbEntity
  8
寸法
 62
     0
 48
50.0
370
    -2
100
AcDbLine
 10
7956.754300969024
 20
9510.905323365827
 30
0.0
 11
7956.754300969024
 21
9060.90532336583
 31
0.0
  0
INSERT
  5
18C35
330
18C30
100
AcDbEntity
  8
寸法
 62
     0
 48
50.0
370
    -2
100
AcDbBlockReference
  2
_DOTSMALL
 10
7956.754300969024
 20
9510.905323365827
 30
0.0
 41
100.0
 42
100.0
 43
100.0
 50
90.0
  0
INSERT
  5
18C36
330
18C30
100
AcDbEntity
  8
寸法
 62
     0
 48
50.0
370
    -2
100
AcDbBlockReference
  2
_DOTSMALL
 10
7956.754300969024
 20
9060.90532336583
 30
0.0
 41
100.0
 42
100.0
 43
100.0
 50
270.0
  0
MTEXT
  5
18C37
330
18C30
100
AcDbEntity
  8
寸法
 62
     7
 48
50.0
100
AcDbMText
 10
7856.754300969022
 20
9285.905323365829
 30
0.0
 40
120.0
 41
0.0
 71
     5
 72
     1
  1
\A1;450
  7
STYLE1
 11
0.0000000000000001
 21
1.0
 31
0.0
 73
     1
 44
1.0
1001
ACAD
1000
MTEXTBEGIN
1070
    73
1070
     1
1070
    44
1040
1.0
1070
    74
1070
     0
1000
MTEXTEND
  0
POINT
  5
18C38
330
18C30
100
AcDbEntity
  8
DEFPOINTS
 62
     0
 48
50.0
100
AcDbPoint
 10
7601.396575106999
 20
9606.123139034718
 30
0.0
  0
POINT
  5
18C39
330
18C30
100
AcDbEntity
  8
DEFPOINTS
 62
     0
 48
50.0
100
AcDbPoint
 10
7601.396575106999
 20
9156.12313903472
 30
0.0
  0
POINT
  5
18C3A
330
18C30
100
AcDbEntity
  8
DEFPOINTS
 62
     0
 48
50.0
100
AcDbPoint
 10
7956.754300969024
 20
9060.90532336583
 30
0.0
  0
ENDBLK
  5
18C3B
330
18C30
100
AcDbEntity
  8
0
 48
50.0
100
AcDbBlockEnd
  0
BLOCK
  5
18C3D
330
18C3C
100
AcDbEntity
  8
0
 48
50.0
100
AcDbBlockBegin
  2
*D12
 70
     1
 10
0.0
 20
0.0
 30
0.0
  3
*D12
  1

  0
LINE
  5
18C3E
330
18C3C
100
AcDbEntity
  8
寸法
 62
     0
 48
50.0
370
    -2
100
AcDbLine
 10
7649.896575106999
 20
9581.123139034721
 30
0.0
 11
8337.32292084141
 21
9581.123139034721
 31
0.0
  0
LINE
  5
18C3F
330
18C3C
100
AcDbEntity
  8
寸法
 62
     0
 48
50.0
370
    -2
100
AcDbLine
 10
7649.896575106973
 20
7901.123139034706
 30
0.0
 11
8337.32292084141
 21
7901.123139034706
 31
0.0
  0
LINE
  5
18C40
330
18C3C
100
AcDbEntity
  8
寸法
 62
     0
 48
50.0
370
    -2
100
AcDbLine
 10
8277.322920841411
 20
9581.123139034721
 30
0.0
 11
8277.322920841411
 21
7901.123139034706
 31
0.0
  0
INSERT
  5
18C41
330
18C3C
100
AcDbEntity
  8
寸法
 62
     0
 48
50.0
370
    -2
100
AcDbBlockReference
  2
_DOTSMALL
 10
8277.322920841411
 20
9581.123139034721
 30
0.0
 41
100.0
 42
100.0
 43
100.0
 50
90.0
  0
INSERT
  5
18C42
330
18C3C
100
AcDbEntity
  8
寸法
 62
     0
 48
50.0
370
    -2
100
AcDbBlockReference
  2
_DOTSMALL
 10
8277.322920841411
 20
7901.123139034706
 30
0.0
 41
100.0
 42
100.0
 43
100.0
 50
270.0
  0
MTEXT
  5
18C43
330
18C3C
100
AcDbEntity
  8
寸法
 62
     7
 48
50.0
100
AcDbMText
 10
8177.311109817788
 20
8741.123139034712
 30
0.0
 40
120.0
 41
0.0
 71
     5
 72
     1
  1
\A1;4X420=1680
  7
STYLE1
 11
0.0000000000000001
 21
1.0
 31
0.0
 73
     1
 44
1.0
1001
ACAD
1000
MTEXTBEGIN
1070
    73
1070
     1
1070
    44
1040
1.0
1070
    74
1070
     0
1000
MTEXTEND
  0
POINT
  5
18C44
330
18C3C
100
AcDbEntity
  8
DEFPOINTS
 62
     0
 48
50.0
100
AcDbPoint
 10
7629.896575106998
 20
9581.123139034721
 30
0.0
  0
POINT
  5
18C45
330
18C3C
100
AcDbEntity
  8
DEFPOINTS
 62
     0
 48
50.0
100
AcDbPoint
 10
7629.896575106974
 20
7901.123139034706
 30
0.0
  0
POINT
  5
18C46
330
18C3C
100
AcDbEntity
  8
DEFPOINTS
 62
     0
 48
50.0
100
AcDbPoint
 10
8277.322920841411
 20
7901.123139034706
 30
0.0
  0
ENDBLK
  5
18C47
330
18C3C
100
AcDbEntity
  8
0
 48
50.0
100
AcDbBlockEnd
  0
BLOCK
  5
18C49
330
18C48
100
AcDbEntity
  8
0
 48
50.0
100
AcDbBlockBegin
  2
*D13
 70
     1
 10
0.0
 20
0.0
 30
0.0
  3
*D13
  1

  0
LINE
  5
18C4A
330
18C48
100
AcDbEntity
  8
寸法
 62
     0
 48
50.0
370
    -2
100
AcDbLine
 10
4183.037591258377
 20
9136.123139034619
 30
0.0
 11
4115.083950562663
 21
8882.516699398941
 31
0.0
  0
LINE
  5
18C4B
330
18C48
100
AcDbEntity
  8
寸法
 62
     0
 48
50.0
370
    -2
100
AcDbLine
 10
5246.037591258307
 20
9136.123139034671
 30
0.0
 11
5178.08395056258
 21
8882.516699398941
 31
0.0
  0
LINE
  5
18C4C
330
18C48
100
AcDbEntity
  8
寸法
 62
     0
 48
50.0
370
    -2
100
AcDbLine
 10
4131.160902108532
 20
8942.516699398941
 30
0.0
 11
5194.160902108448
 21
8942.516699398941
 31
0.0
  0
INSERT
  5
18C4D
330
18C48
100
AcDbEntity
  8
寸法
 62
     0
 48
50.0
370
    -2
100
AcDbBlockReference
  2
_DOTSMALL
 10
4131.160902108532
 20
8942.516699398941
 30
0.0
 41
100.0
 42
100.0
 43
100.0
 50
180.0
  0
INSERT
  5
18C4E
330
18C48
100
AcDbEntity
  8
寸法
 62
     0
 48
50.0
370
    -2
100
AcDbBlockReference
  2
_DOTSMALL
 10
5194.160902108448
 20
8942.516699398941
 30
0.0
 41
100.0
 42
100.0
 43
100.0
  0
MTEXT
  5
18C4F
330
18C48
100
AcDbEntity
  8
寸法
 62
     7
 48
50.0
100
AcDbMText
 10
4658.986452655306
 20
9042.516699398941
 30
0.0
 40
120.0
 41
0.0
 71
     5
 72
     1
  1
\A1;1063
  7
STYLE1
 73
     1
 44
1.0
1001
ACAD
1000
MTEXTBEGIN
1070
    73
1070
     1
1070
    44
1040
1.0
1070
    74
1070
     0
1000
MTEXTEND
  0
POINT
  5
18C50
330
18C48
100
AcDbEntity
  8
DEFPOINTS
 62
     0
 48
50.0
100
AcDbPoint
 10
4188.396575106999
 20
9156.123139034617
 30
0.0
  0
POINT
  5
18C51
330
18C48
100
AcDbEntity
  8
DEFPOINTS
 62
     0
 48
50.0
100
AcDbPoint
 10
5251.396575106929
 20
9156.123139034672
 30
0.0
  0
POINT
  5
18C52
330
18C48
100
AcDbEntity
  8
DEFPOINTS
 62
     0
 48
50.0
100
AcDbPoint
 10
5194.160902108448
 20
8942.516699398941
 30
0.0
  0
ENDBLK
  5
18C53
330
18C48
100
AcDbEntity
  8
0
 48
50.0
100
AcDbBlockEnd
  0
BLOCK
  5
18C55
330
18C54
100
AcDbEntity
  8
0
 48
50.0
100
AcDbBlockBegin
  2
*D14
 70
     1
 10
0.0
 20
0.0
 30
0.0
  3
*D14
  1

  0
LINE
  5
18C56
330
18C54
100
AcDbEntity
  8
寸法
 62
     0
 48
50.0
370
    -2
100
AcDbLine
 10
5274.037591258307
 20
9136.123139034669
 30
0.0
 11
5206.08395056258
 21
8882.516699398941
 31
0.0
  0
LINE
  5
18C57
330
18C54
100
AcDbEntity
  8
寸法
 62
     0
 48
50.0
370
    -2
100
AcDbLine
 10
6505.037591258377
 20
9136.123139034662
 30
0.0
 11
6437.083950562653
 21
8882.516699398941
 31
0.0
  0
LINE
  5
18C58
330
18C54
100
AcDbEntity
  8
寸法
 62
     0
 48
50.0
370
    -2
100
AcDbLine
 10
5222.160902108448
 20
8942.516699398941
 30
0.0
 11
6453.16090210852
 21
8942.516699398941
 31
0.0
  0
INSERT
  5
18C59
330
18C54
100
AcDbEntity
  8
寸法
 62
     0
 48
50.0
370
    -2
100
AcDbBlockReference
  2
_DOTSMALL
 10
5222.160902108448
 20
8942.516699398941
 30
0.0
 41
100.0
 42
100.0
 43
100.0
 50
180.0
  0
INSERT
  5
18C5A
330
18C54
100
AcDbEntity
  8
寸法
 62
     0
 48
50.0
370
    -2
100
AcDbBlockReference
  2
_DOTSMALL
 10
6453.16090210852
 20
8942.516699398941
 30
0.0
 41
100.0
 42
100.0
 43
100.0
  0
MTEXT
  5
18C5B
330
18C54
100
AcDbEntity
  8
寸法
 62
     7
 48
50.0
100
AcDbMText
 10
6081.244808320626
 20
9042.528510422561
 30
0.0
 40
120.0
 41
0.0
 71
     5
 72
     1
  1
\A1;1231
  7
STYLE1
 73
     1
 44
1.0
1001
ACAD
1000
MTEXTBEGIN
1070
    73
1070
     1
1070
    44
1040
1.0
1070
    74
1070
     0
1000
MTEXTEND
  0
POINT
  5
18C5C
330
18C54
100
AcDbEntity
  8
DEFPOINTS
 62
     0
 48
50.0
100
AcDbPoint
 10
5279.396575106929
 20
9156.123139034669
 30
0.0
  0
POINT
  5
18C5D
330
18C54
100
AcDbEntity
  8
DEFPOINTS
 62
     0
 48
50.0
100
AcDbPoint
 10
6510.396575106999
 20
9156.123139034662
 30
0.0
  0
POINT
  5
18C5E
330
18C54
100
AcDbEntity
  8
DEFPOINTS
 62
     0
 48
50.0
100
AcDbPoint
 10
6453.16090210852
 20
8942.516699398941
 30
0.0
  0
ENDBLK
  5
18C5F
330
18C54
100
AcDbEntity
  8
0
 48
50.0
100
AcDbBlockEnd
  0
BLOCK
  5
18C61
330
18C60
100
AcDbEntity
  8
0
 48
50.0
100
AcDbBlockBegin
  2
*D15
 70
     1
 10
0.0
 20
0.0
 30
0.0
  3
*D15
  1

  0
LINE
  5
18C62
330
18C60
100
AcDbEntity
  8
寸法
 62
     0
 48
50.0
370
    -2
100
AcDbLine
 10
5065.896575106966
 20
7749.123139034579
 30
0.0
 11
5065.896575106966
 21
7099.952920982538
 31
0.0
  0
LINE
  5
18C63
330
18C60
100
AcDbEntity
  8
寸法
 62
     0
 48
50.0
370
    -2
100
AcDbLine
 10
6331.896575106966
 20
7749.123139034579
 30
0.0
 11
6331.896575106966
 21
7099.952920982538
 31
0.0
  0
LINE
  5
18C64
330
18C60
100
AcDbEntity
  8
寸法
 62
     0
 48
50.0
370
    -2
100
AcDbLine
 10
5065.896575106966
 20
7159.952920982537
 30
0.0
 11
6331.896575106966
 21
7159.952920982537
 31
0.0
  0
INSERT
  5
18C65
330
18C60
100
AcDbEntity
  8
寸法
 62
     0
 48
50.0
370
    -2
100
AcDbBlockReference
  2
_DOTSMALL
 10
5065.896575106966
 20
7159.952920982537
 30
0.0
 41
100.0
 42
100.0
 43
100.0
 50
180.0
  0
INSERT
  5
18C66
330
18C60
100
AcDbEntity
  8
寸法
 62
     0
 48
50.0
370
    -2
100
AcDbBlockReference
  2
_DOTSMALL
 10
6331.896575106966
 20
7159.952920982537
 30
0.0
 41
100.0
 42
100.0
 43
100.0
  0
MTEXT
  5
18C67
330
18C60
100
AcDbEntity
  8
寸法
 62
     7
 48
50.0
100
AcDbMText
 10
5711.986008735934
 20
7359.964732006159
 30
0.0
 40
120.0
 41
0.0
 71
     5
 72
     1
  1
\A1;有効開口部間口\P1266
  7
STYLE1
 73
     1
 44
1.0
1001
ACAD
1000
MTEXTBEGIN
1070
    73
1070
     1
1070
    44
1040
1.0
1070
    74
1070
     0
1000
MTEXTEND
  0
POINT
  5
18C68
330
18C60
100
AcDbEntity
  8
DEFPOINTS
 62
     0
 48
50.0
100
AcDbPoint
 10
5065.896575106966
 20
7769.123139034579
 30
0.0
  0
POINT
  5
18C69
330
18C60
100
AcDbEntity
  8
DEFPOINTS
 62
     0
 48
50.0
100
AcDbPoint
 10
6331.896575106966
 20
7769.123139034579
 30
0.0
  0
POINT
  5
18C6A
330
18C60
100
AcDbEntity
  8
DEFPOINTS
 62
     0
 48
50.0
100
AcDbPoint
 10
6331.896575106966
 20
7159.952920982537
 30
0.0
  0
ENDBLK
  5
18C6B
330
18C60
100
AcDbEntity
  8
0
 48
50.0
100
AcDbBlockEnd
  0
BLOCK
  5
18C6D
330
18C6C
100
AcDbEntity
  8
0
 48
50.0
100
AcDbBlockBegin
  2
*D16
 70
     1
 10
0.0
 20
0.0
 30
0.0
  3
*D16
  1

  0
LINE
  5
18C6E
330
18C6C
100
AcDbEntity
  8
寸法
 62
     0
 48
50.0
370
    -2
100
AcDbLine
 10
7200.896575106966
 20
7846.123139034578
 30
0.0
 11
7457.192158500191
 21
7846.123139034578
 31
0.0
  0
LINE
  5
18C6F
330
18C6C
100
AcDbEntity
  8
寸法
 62
     0
 48
50.0
370
    -2
100
AcDbLine
 10
7199.896575106966
 20
7769.123139034579
 30
0.0
 11
7457.192158500191
 21
7769.123139034579
 31
0.0
  0
LINE
  5
18C70
330
18C6C
100
AcDbEntity
  8
寸法
 62
     0
 48
50.0
370
    -2
100
AcDbLine
 10
7417.192158500192
 20
7866.123139034579
 30
0.0
 11
7417.192158500192
 21
7886.123139034578
 31
0.0
  0
LINE
  5
18C71
330
18C6C
100
AcDbEntity
  8
寸法
 62
     0
 48
50.0
370
    -2
100
AcDbLine
 10
7417.192158500192
 20
7749.123139034579
 30
0.0
 11
7417.192158500192
 21
7533.123139034573
 31
0.0
  0
LINE
  5
18C72
330
18C6C
100
AcDbEntity
  8
寸法
 62
     0
 48
50.0
370
    -2
100
AcDbLine
 10
7417.192158500192
 20
7846.123139034578
 30
0.0
 11
7417.192158500192
 21
7769.123139034579
 31
0.0
  0
INSERT
  5
18C73
330
18C6C
100
AcDbEntity
  8
寸法
 62
     0
 48
50.0
370
    -2
100
AcDbBlockReference
  2
_DOT
 10
7417.192158500192
 20
7846.123139034578
 30
0.0
 41
20.0
 42
20.0
 43
20.0
 50
270.0
  0
INSERT
  5
18C74
330
18C6C
100
AcDbEntity
  8
寸法
 62
     0
 48
50.0
370
    -2
100
AcDbBlockReference
  2
_DOT
 10
7417.192158500192
 20
7769.123139034579
 30
0.0
 41
20.0
 42
20.0
 43
20.0
 50
90.0
  0
MTEXT
  5
18C75
330
18C6C
100
AcDbEntity
  8
寸法
 62
     7
 48
50.0
100
AcDbMText
 10
7325.192158500191
 20
7631.123139034575
 30
0.0
 40
120.0
 41
0.0
 71
     5
 72
     1
  1
\A1;77
  7
STYLE1
 11
0.0000000000000001
 21
1.0
 31
0.0
 73
     1
 44
1.0
1001
ACAD
1000
MTEXTBEGIN
1070
    73
1070
     1
1070
    44
1040
1.0
1070
    74
1070
     0
1000
MTEXTEND
  0
POINT
  5
18C76
330
18C6C
100
AcDbEntity
  8
DEFPOINTS
 62
     0
 48
50.0
100
AcDbPoint
 10
7180.896575106967
 20
7846.123139034578
 30
0.0
  0
POINT
  5
18C77
330
18C6C
100
AcDbEntity
  8
DEFPOINTS
 62
     0
 48
50.0
100
AcDbPoint
 10
7179.896575106965
 20
7769.123139034579
 30
0.0
  0
POINT
  5
18C78
330
18C6C
100
AcDbEntity
  8
DEFPOINTS
 62
     0
 48
50.0
100
AcDbPoint
 10
7417.192158500192
 20
7769.123139034579
 30
0.0
  0
ENDBLK
  5
18C79
330
18C6C
100
AcDbEntity
  8
0
 48
50.0
100
AcDbBlockEnd
  0
BLOCK
  5
18DA0
330
18C7A
100
AcDbEntity
  8
0
 48
50.0
100
AcDbBlockBegin
  2
A$C3B1A506B
 70
     0
 10
0.0
 20
0.0
 30
0.0
  3
A$C3B1A506B
  1

  0
MTEXT
  5
18C7B
330
18C7A
100
AcDbEntity
  8
寸法
 62
     7
 48
50.0
100
AcDbMText
 10
3342.250386887194
 20
2778.329429134012
 30
0.0
 40
96.0
 41
0.0
 71
     5
 72
     1
  1
棚 2段
  7
STYLE1
 73
     1
 44
1.0
1001
ACAD
1000
MTEXTBEGIN
1070
    73
1070
     1
1070
    44
1040
1.0
1070
    74
1070
     0
1000
MTEXTEND
  0
MTEXT
  5
18C7C
330
18C7A
100
AcDbEntity
  8
寸法
 62
     7
 48
50.0
100
AcDbMText
 10
2167.25038688716
 20
2778.329429133986
 30
0.0
 40
96.0
 41
0.0
 71
     5
 72
     1
  1
棚 2段
  7
STYLE1
 73
     1
 44
1.0
1001
ACAD
1000
MTEXTBEGIN
1070
    73
1070
     1
1070
    44
1040
1.0
1070
    74
1070
     0
1000
MTEXTEND
  0
MTEXT
  5
18C7D
330
18C7A
100
AcDbEntity
  8
寸法
 62
     7
 48
50.0
100
AcDbMText
 10
992.2503868871608
 20
2778.329429133935
 30
0.0
 40
96.0
 41
0.0
 71
     5
 72
     1
  1
棚 2段
  7
STYLE1
 73
     1
 44
1.0
1001
ACAD
1000
MTEXTBEGIN
1070
    73
1070
     1
1070
    44
1040
1.0
1070
    74
1070
     0
1000
MTEXTEND
  0
LINE
  5
18C7E
330
18C7A
100
AcDbEntity
  8
細線
 48
50.0
100
AcDbLine
 10
2771.970589276527
 20
1368.994384123192
 30
0.0
 11
3398.970589276523
 21
1368.994384123192
 31
0.0
  0
LINE
  5
18C7F
330
18C7A
100
AcDbEntity
  8
細線
 48
50.0
100
AcDbLine
 10
2117.970593930113
 20
1335.285615569113
 30
0.0
 11
3398.970589276523
 21
1335.285615569113
 31
0.0
  0
LINE
  5
18C80
330
18C7A
100
AcDbEntity
  8
細線
 48
50.0
100
AcDbLine
 10
2076.970593930115
 20
1364.690523565368
 30
0.0
 11
1322.970589276523
 21
1364.690523565367
 31
0.0
  0
LINE
  5
18C81
330
18C7A
100
AcDbEntity
  8
細線
100
AcDbLine
 10
3170.720579860066
 20
1388.494284088199
 30
0.0
 11
3173.052119381877
 21
1393.494286728162
 31
0.0
  0
LINE
  5
18C82
330
18C7A
100
AcDbEntity
  8
細線
100
AcDbLine
 10
3240.720589276525
 20
1388.494269174465
 30
0.0
 11
3238.389042800336
 21
1393.494286728144
 31
0.0
  0
LINE
  5
18C83
330
18C7A
100
AcDbEntity
  8
細線
100
AcDbLine
 10
3238.389042800336
 20
1393.494286728144
 30
0.0
 11
3173.052119381862
 21
1393.494286728133
 31
0.0
  0
LINE
  5
18C84
330
18C7A
100
AcDbEntity
  8
細線
100
AcDbLine
 10
3098.389042800336
 20
1393.494286728144
 30
0.0
 11
3033.052119381862
 21
1393.494286728133
 31
0.0
  0
LINE
  5
18C85
330
18C7A
100
AcDbEntity
  8
細線
100
AcDbLine
 10
3100.720589276523
 20
1388.494269174465
 30
0.0
 11
3098.389042800336
 21
1393.494286728144
 31
0.0
  0
LINE
  5
18C86
330
18C7A
100
AcDbEntity
  8
細線
100
AcDbLine
 10
3030.720579860066
 20
1388.494284088199
 30
0.0
 11
3033.052119381875
 21
1393.494286728162
 31
0.0
  0
LINE
  5
18C87
330
18C7A
100
AcDbEntity
  8
細線
100
AcDbLine
 10
2890.720589276525
 20
1388.494269174465
 30
0.0
 11
2893.052128798336
 21
1393.494271814428
 31
0.0
  0
LINE
  5
18C88
330
18C7A
100
AcDbEntity
  8
細線
100
AcDbLine
 10
2960.720598692984
 20
1388.494254260731
 30
0.0
 11
2958.389052216793
 21
1393.49427181441
 31
0.0
  0
LINE
  5
18C89
330
18C7A
100
AcDbEntity
  8
細線
100
AcDbLine
 10
2958.389052216795
 20
1393.49427181441
 30
0.0
 11
2893.052128798321
 21
1393.494271814399
 31
0.0
  0
LINE
  5
18C8A
330
18C7A
100
AcDbEntity
  8
細線
100
AcDbLine
 10
2667.139038146739
 20
1359.494298590735
 30
0.0
 11
2601.802114728263
 21
1359.494298590724
 31
0.0
  0
LINE
  5
18C8B
330
18C7A
100
AcDbEntity
  8
細線
100
AcDbLine
 10
2669.470584622926
 20
1354.494281037055
 30
0.0
 11
2667.139038146737
 21
1359.494298590735
 31
0.0
  0
LINE
  5
18C8C
330
18C7A
100
AcDbEntity
  8
細線
100
AcDbLine
 10
2599.470575206469
 20
1354.49429595079
 30
0.0
 11
2601.802114728278
 21
1359.494298590752
 31
0.0
  0
LINE
  5
18C8D
330
18C7A
100
AcDbEntity
  8
細線
 48
50.0
100
AcDbLine
 10
2440.853968524536
 20
1372.765132327548
 30
0.0
 11
2446.609486107205
 21
1354.494281037057
 31
0.0
  0
LINE
  5
18C8E
330
18C7A
100
AcDbEntity
  8
細線
 48
50.0
100
AcDbLine
 10
2429.925520044106
 20
1372.765132327546
 30
0.0
 11
2440.853968524536
 21
1372.765132327548
 31
0.0
  0
ARC
  5
18C8F
330
18C7A
100
AcDbEntity
  8
細線
 48
50.0
100
AcDbCircle
 10
2424.471163986787
 20
1374.265132327546
 30
0.0
 40
5.0
100
AcDbArc
 50
204.6243183520723
 51
335.3756816479278
  0
ARC
  5
18C90
330
18C7A
100
AcDbEntity
  8
細線
 48
50.0
100
AcDbCircle
 10
2429.925520044106
 20
1371.765132327546
 30
0.0
 40
1.0
100
AcDbArc
 50
90.0
 51
155.3756816479277
  0
ARC
  5
18C91
330
18C7A
100
AcDbEntity
  8
細線
 48
50.0
100
AcDbCircle
 10
2419.016807929469
 20
1371.765132327546
 30
0.0
 40
1.0
100
AcDbArc
 50
24.62431835207225
 51
90.0
  0
LINE
  5
18C92
330
18C7A
100
AcDbEntity
  8
細線
 48
50.0
100
AcDbLine
 10
2408.088359449037
 20
1372.765132327548
 30
0.0
 11
2419.016807929469
 21
1372.765132327546
 31
0.0
  0
LINE
  5
18C93
330
18C7A
100
AcDbEntity
  8
細線
 48
50.0
100
AcDbLine
 10
2402.33284186637
 20
1354.494281037054
 30
0.0
 11
2408.088359449037
 21
1372.765132327548
 31
0.0
  0
LINE
  5
18C94
330
18C7A
100
AcDbEntity
  8
細線
100
AcDbLine
 10
2458.070304175992
 20
1354.494278397076
 30
0.0
 11
2460.401843697802
 21
1359.494281037039
 31
0.0
  0
LINE
  5
18C95
330
18C7A
100
AcDbEntity
  8
細線
100
AcDbLine
 10
2528.070313592451
 20
1354.494263483342
 30
0.0
 11
2525.738767116262
 21
1359.494281037021
 31
0.0
  0
LINE
  5
18C96
330
18C7A
100
AcDbEntity
  8
細線
100
AcDbLine
 10
2525.738767116262
 20
1359.494281037021
 30
0.0
 11
2460.40184369779
 21
1359.49428103701
 31
0.0
  0
LINE
  5
18C97
330
18C7A
100
AcDbEntity
  8
細線
100
AcDbLine
 10
2387.139046332155
 20
1359.494281037021
 30
0.0
 11
2321.80212291368
 21
1359.49428103701
 31
0.0
  0
LINE
  5
18C98
330
18C7A
100
AcDbEntity
  8
細線
100
AcDbLine
 10
2389.470592808342
 20
1354.494263483342
 30
0.0
 11
2387.139046332153
 21
1359.494281037021
 31
0.0
  0
LINE
  5
18C99
330
18C7A
100
AcDbEntity
  8
細線
100
AcDbLine
 10
2319.470584622926
 20
1354.494281037054
 30
0.0
 11
2321.802122913694
 21
1359.494281037039
 31
0.0
  0
LINE
  5
18C9A
330
18C7A
100
AcDbEntity
  8
細線
100
AcDbLine
 10
2179.47061994182
 20
1354.494289224422
 30
0.0
 11
2181.802158232587
 21
1359.494289224407
 31
0.0
  0
LINE
  5
18C9B
330
18C7A
100
AcDbEntity
  8
細線
100
AcDbLine
 10
2249.470628127236
 20
1354.49427167071
 30
0.0
 11
2247.139081651047
 21
1359.494289224389
 31
0.0
  0
LINE
  5
18C9C
330
18C7A
100
AcDbEntity
  8
細線
100
AcDbLine
 10
2247.139081651047
 20
1359.494289224389
 30
0.0
 11
2181.802158232573
 21
1359.494289224378
 31
0.0
  0
LINE
  5
18C9D
330
18C7A
100
AcDbEntity
  8
細線
100
AcDbLine
 10
1807.970585744697
 20
1320.494460905133
 30
0.0
 11
1810.302124035464
 21
1325.494460905118
 31
0.0
  0
LINE
  5
18C9E
330
18C7A
100
AcDbEntity
  8
細線
100
AcDbLine
 10
1877.970593930113
 20
1320.494443351421
 30
0.0
 11
1875.639047453926
 21
1325.4944609051
 31
0.0
  0
LINE
  5
18C9F
330
18C7A
100
AcDbEntity
  8
細線
100
AcDbLine
 10
1875.639047453926
 20
1325.4944609051
 30
0.0
 11
1810.302124035452
 21
1325.494460905089
 31
0.0
  0
LINE
  5
18CA0
330
18C7A
100
AcDbEntity
  8
細線
100
AcDbLine
 10
2015.639047453926
 20
1325.4944609051
 30
0.0
 11
1950.302124035452
 21
1325.494460905089
 31
0.0
  0
LINE
  5
18CA1
330
18C7A
100
AcDbEntity
  8
細線
100
AcDbLine
 10
2017.970593930113
 20
1320.494443351421
 30
0.0
 11
2015.639047453924
 21
1325.4944609051
 31
0.0
  0
LINE
  5
18CA2
330
18C7A
100
AcDbEntity
  8
細線
100
AcDbLine
 10
1947.970585744697
 20
1320.494460905133
 30
0.0
 11
1950.302124035465
 21
1325.494460905118
 31
0.0
  0
LINE
  5
18CA3
330
18C7A
100
AcDbEntity
  8
細線
100
AcDbLine
 10
1735.639047453926
 20
1325.494460905098
 30
0.0
 11
1670.302124035454
 21
1325.494460905087
 31
0.0
  0
LINE
  5
18CA4
330
18C7A
100
AcDbEntity
  8
細線
100
AcDbLine
 10
1737.970593930113
 20
1320.494443351419
 30
0.0
 11
1735.639047453926
 21
1325.494460905098
 31
0.0
  0
LINE
  5
18CA5
330
18C7A
100
AcDbEntity
  8
細線
100
AcDbLine
 10
1667.970585744697
 20
1320.494460905131
 30
0.0
 11
1670.302124035465
 21
1325.494460905116
 31
0.0
  0
LINE
  5
18CA6
330
18C7A
100
AcDbEntity
  8
細線
100
AcDbLine
 10
1527.970593930113
 20
1320.494460905133
 30
0.0
 11
1530.302132220881
 21
1325.494460905118
 31
0.0
  0
LINE
  5
18CA7
330
18C7A
100
AcDbEntity
  8
細線
100
AcDbLine
 10
1597.970602115529
 20
1320.494443351421
 30
0.0
 11
1595.639055639342
 21
1325.4944609051
 31
0.0
  0
LINE
  5
18CA8
330
18C7A
100
AcDbEntity
  8
細線
100
AcDbLine
 10
1595.639055639342
 20
1325.4944609051
 30
0.0
 11
1530.302132220869
 21
1325.494460905089
 31
0.0
  0
ARC
  5
18CA9
330
18C7A
100
AcDbEntity
  8
部品1
 48
0.01
100
AcDbCircle
 10
1483.470482677778
 20
1319.493338720063
 30
0.0
 40
0.5
100
AcDbArc
 50
270.0
 51
0.0
  0
LINE
  5
18CAA
330
18C7A
100
AcDbEntity
  8
部品1
 48
0.01
100
AcDbLine
 10
1483.970482677778
 20
1320.493338720063
 30
0.0
 11
1483.970482677778
 21
1319.493338720063
 31
0.0
  0
LINE
  5
18CAB
330
18C7A
100
AcDbEntity
  8
部品1
 48
0.01
100
AcDbLine
 10
1483.970482677778
 20
1320.493338720063
 30
0.0
 11
1483.970482677778
 21
1319.493338720063
 31
0.0
  0
LINE
  5
18CAC
330
18C7A
100
AcDbEntity
  8
部品1
 48
0.01
100
AcDbLine
 10
1483.470482677778
 20
1318.993338720063
 30
0.0
 11
1476.857977247713
 21
1318.993338720062
 31
0.0
  0
ARC
  5
18CAD
330
18C7A
100
AcDbEntity
  8
部品1
100
AcDbCircle
 10
1476.926326800494
 20
1319.993338720062
 30
0.0
 40
1.0
100
AcDbArc
 50
160.5287793655865
 51
270.0
  0
ARC
  5
18CAE
330
18C7A
100
AcDbEntity
  8
部品1
100
AcDbCircle
 10
1451.470482677778
 20
1328.993338720062
 30
0.0
 40
26.0
100
AcDbArc
 50
340.5287793655865
 51
0.0
  0
LINE
  5
18CAF
330
18C7A
100
AcDbEntity
  8
部品1
100
AcDbLine
 10
1477.470482677778
 20
1328.993338720062
 30
0.0
 11
1477.470482677778
 21
1333.993338720061
 31
0.0
  0
ARC
  5
18CB0
330
18C7A
100
AcDbEntity
  8
部品1
 48
0.01
100
AcDbCircle
 10
1475.470482677778
 20
1333.993338720061
 30
0.0
 40
2.0
100
AcDbArc
 50
0.0
 51
90.0
  0
ARC
  5
18CB1
330
18C7A
100
AcDbEntity
  8
部品1
100
AcDbCircle
 10
1473.862091052968
 20
1332.993338720062
 30
0.0
 40
3.0
100
AcDbArc
 50
90.0
 51
141.6069559808035
  0
LINE
  5
18CB2
330
18C7A
100
AcDbEntity
  8
部品1
 48
0.01
100
AcDbLine
 10
1475.470482677778
 20
1335.993338720062
 30
0.0
 11
1473.862091052968
 21
1335.993338720062
 31
0.0
  0
ARC
  5
18CB3
330
18C7A
100
AcDbEntity
  8
部品1
100
AcDbCircle
 10
1455.399768463507
 20
1332.293338720065
 30
0.0
 40
3.0
100
AcDbArc
 50
254.0576313943215
 51
270.0
  0
ARC
  5
18CB4
330
18C7A
100
AcDbEntity
  8
部品1
100
AcDbCircle
 10
1462.541196892049
 20
1332.293338720065
 30
0.0
 40
3.0
100
AcDbArc
 50
270.0
 51
285.9423686056786
  0
LINE
  5
18CB5
330
18C7A
100
AcDbEntity
  8
部品1
100
AcDbLine
 10
1462.541196892049
 20
1329.293338720064
 30
0.0
 11
1455.399768463507
 21
1329.293338720064
 31
0.0
  0
ARC
  5
18CB6
330
18C7A
100
AcDbEntity
  8
部品1
100
AcDbCircle
 10
1458.970482677778
 20
1344.793338720065
 30
0.0
 40
16.0
100
AcDbArc
 50
285.9423686056786
 51
321.6069559808035
  0
LINE
  5
18CB7
330
18C7A
100
AcDbEntity
  8
部品1
 48
0.01
100
AcDbLine
 10
1442.470482677778
 20
1335.993338720062
 30
0.0
 11
1444.078874302588
 21
1335.993338720062
 31
0.0
  0
ARC
  5
18CB8
330
18C7A
100
AcDbEntity
  8
部品1
100
AcDbCircle
 10
1444.078874302588
 20
1332.993338720062
 30
0.0
 40
3.0
100
AcDbArc
 50
38.39304401919648
 51
90.0
  0
ARC
  5
18CB9
330
18C7A
100
AcDbEntity
  8
部品1
100
AcDbCircle
 10
1458.970482677778
 20
1344.793338720065
 30
0.0
 40
16.0
100
AcDbArc
 50
218.3930440191965
 51
254.0576313943215
  0
LINE
  5
18CBA
330
18C7A
100
AcDbEntity
  8
部品1
100
AcDbLine
 10
1440.470482677778
 20
1328.993338720062
 30
0.0
 11
1440.470482677778
 21
1333.993338720061
 31
0.0
  0
ARC
  5
18CBB
330
18C7A
100
AcDbEntity
  8
部品1
 48
0.01
100
AcDbCircle
 10
1442.470482677778
 20
1333.993338720061
 30
0.0
 40
2.0
100
AcDbArc
 50
90.0
 51
180.0
  0
ARC
  5
18CBC
330
18C7A
100
AcDbEntity
  8
部品1
100
AcDbCircle
 10
1466.470482677778
 20
1328.993338720062
 30
0.0
 40
26.0
100
AcDbArc
 50
180.0
 51
199.4712206344134
  0
ARC
  5
18CBD
330
18C7A
100
AcDbEntity
  8
部品1
 48
0.01
100
AcDbCircle
 10
1434.470482677778
 20
1319.493338720063
 30
0.0
 40
0.5
100
AcDbArc
 50
180.0
 51
270.0
  0
LINE
  5
18CBE
330
18C7A
100
AcDbEntity
  8
部品1
 48
0.01
100
AcDbLine
 10
1434.470482677778
 20
1318.993338720063
 30
0.0
 11
1441.014638555061
 21
1318.993338720062
 31
0.0
  0
LINE
  5
18CBF
330
18C7A
100
AcDbEntity
  8
部品1
 48
0.01
100
AcDbLine
 10
1433.970482677778
 20
1320.493338720063
 30
0.0
 11
1433.970482677778
 21
1319.493338720063
 31
0.0
  0
ARC
  5
18CC0
330
18C7A
100
AcDbEntity
  8
部品1
100
AcDbCircle
 10
1441.014638555061
 20
1319.993338720062
 30
0.0
 40
1.0
100
AcDbArc
 50
270.0
 51
19.47122063441346
  0
LINE
  5
18CC1
330
18C7A
100
AcDbEntity
  8
細線
100
AcDbLine
 10
1479.470482677785
 20
1338.493338720065
 30
0.0
 11
1438.470482677785
 21
1338.493338720058
 31
0.0
  0
LINE
  5
18CC2
330
18C7A
100
AcDbEntity
  8
細線
100
AcDbLine
 10
1438.470482677785
 20
1338.493338720058
 30
0.0
 11
1438.470482677785
 21
1320.49333872004
 31
0.0
  0
LINE
  5
18CC3
330
18C7A
100
AcDbEntity
  8
細線
100
AcDbLine
 10
1479.470482677785
 20
1338.493338720065
 30
0.0
 11
1479.470482677785
 21
1320.49333872004
 31
0.0
  0
LINE
  5
18CC4
330
18C7A
100
AcDbEntity
  8
細線
100
AcDbLine
 10
1322.970589276523
 20
1324.494269174465
 30
0.0
 11
1322.970589276523
 21
1320.494269174513
 31
0.0
  0
LINE
  5
18CC5
330
18C7A
100
AcDbEntity
  8
寸法
 48
50.0
100
AcDbLine
 10
1746.17359555837
 20
1170.531020743327
 30
0.0
 11
1694.767587648266
 21
1170.531020743327
 31
0.0
  0
LINE
  5
18CC6
330
18C7A
100
AcDbEntity
  8
寸法
 48
50.0
100
AcDbLine
 10
1694.767587648266
 20
1170.531020743327
 30
0.0
 11
1694.767587648266
 21
1201.841179395494
 31
0.0
  0
LINE
  5
18CC7
330
18C7A
100
AcDbEntity
  8
寸法
 48
50.0
100
AcDbLine
 10
1694.767587648266
 20
1201.841179395494
 30
0.0
 11
1665.006255656843
 21
1201.841179395494
 31
0.0
  0
LINE
  5
18CC8
330
18C7A
100
AcDbEntity
  8
寸法
 48
50.0
100
AcDbLine
 10
1665.006255656843
 20
1201.841179395494
 30
0.0
 11
1720.470591603318
 21
1239.420630324105
 31
0.0
  0
LINE
  5
18CC9
330
18C7A
100
AcDbEntity
  8
寸法
 48
50.0
100
AcDbLine
 10
1775.934927549793
 20
1201.841179395494
 30
0.0
 11
1720.470591603318
 21
1239.420630324105
 31
0.0
  0
LINE
  5
18CCA
330
18C7A
100
AcDbEntity
  8
寸法
 48
50.0
100
AcDbLine
 10
1746.17359555837
 20
1201.841179395494
 30
0.0
 11
1775.934927549793
 21
1201.841179395494
 31
0.0
  0
LINE
  5
18CCB
330
18C7A
100
AcDbEntity
  8
寸法
 48
50.0
100
AcDbLine
 10
1746.17359555837
 20
1170.531020743327
 30
0.0
 11
1746.17359555837
 21
1201.841179395494
 31
0.0
  0
LINE
  5
18CCC
330
18C7A
100
AcDbEntity
  8
寸法
 48
50.0
100
AcDbLine
 10
1694.767587648266
 20
1170.531020743327
 30
0.0
 11
1746.17359555837
 21
1170.531020743327
 31
0.0
  0
LINE
  5
18CCD
330
18C7A
100
AcDbEntity
  8
寸法
 48
50.0
100
AcDbLine
 10
2025.339129835225
 20
1227.676611498152
 30
0.0
 11
2025.339129835225
 21
1174.01297691636
 31
0.0
  0
LINE
  5
18CCE
330
18C7A
100
AcDbEntity
  8
寸法
 48
50.0
100
AcDbLine
 10
2114.623348430647
 20
1203.752977228664
 30
0.0
 11
2025.339129835225
 21
1227.676611498152
 31
0.0
  0
LINE
  5
18CCF
330
18C7A
100
AcDbEntity
  8
寸法
 48
50.0
100
AcDbLine
 10
1895.471408254923
 20
1203.752977228664
 30
0.0
 11
2114.623348430647
 21
1203.752977228664
 31
0.0
  0
DIMENSION
  5
18CD0
330
18C7A
100
AcDbEntity
  8
寸法
 48
50.0
100
AcDbDimension
  2
*D15
 10
2588.970589276523
 20
706.3240511224249
 30
0.0
 11
1969.060022905491
 21
706.3240511224249
 31
0.0
 12
-3742.925985830444
 22
-6453.628869860112
 32
0.0
 70
   128
  1
有効開口部間口\P<>
 71
     5
 42
1266.0
  3
INABA_S40G
100
AcDbAlignedDimension
 13
1322.970589276523
 23
1315.494269174465
 33
0.0
 14
2588.970589276523
 24
1315.494269174465
 34
0.0
100
AcDbRotatedDimension
1001
ACAD
1000
DSTYLE
1002
{
1070
   341
1005
0
1002
}
  0
LINE
  5
18CD1
330
18C7A
100
AcDbEntity
  8
部品1
100
AcDbLine
 10
3409.970589276524
 20
1392.494269174465
 30
0.0
 11
3437.970589276523
 21
1392.494269174465
 31
0.0
  0
DIMENSION
  5
18CD2
330
18C7A
100
AcDbEntity
  8
寸法
100
AcDbDimension
  2
*D16
 10
3674.266172669749
 20
1315.494269174465
 30
0.0
 11
3674.266172669748
 21
1177.494269174462
 31
0.0
 12
-3742.925985830444
 22
-6453.628869860112
 32
0.0
 70
   128
 71
     5
 42
77.0
  3
INABA_S40
100
AcDbAlignedDimension
 13
3437.970589276523
 23
1392.494269174465
 33
0.0
 14
3436.970589276523
 24
1315.494269174465
 34
0.0
 50
90.0
100
AcDbRotatedDimension
1001
ACAD
1000
DSTYLE
1002
{
1070
    41
1040
0.5
1070
    44
1040
1.0
1070
   147
1040
0.8
1070
   271
1070
     2
1070
   272
1070
     2
1070
   289
1070
     3
1070
   340
1005
F706
1070
   343
1005
164B4
1070
   344
1005
164B4
1002
}
  0
LINE
  5
18CD3
330
18C7A
100
AcDbEntity
  8
部品1
100
AcDbLine
 10
3437.970589276523
 20
1315.494269174465
 30
0.0
 11
3437.970589276523
 21
1392.494269174465
 31
0.0
  0
LINE
  5
18CD4
330
18C7A
100
AcDbEntity
  8
部品1
100
AcDbLine
 10
3398.970589276523
 20
1388.494269174465
 30
0.0
 11
3409.970589276524
 21
1388.494269174465
 31
0.0
  0
LINE
  5
18CD5
330
18C7A
100
AcDbEntity
  8
部品1
100
AcDbLine
 10
3407.970589276523
 20
1324.494269174465
 30
0.0
 11
3407.970589276523
 21
1315.494269174465
 31
0.0
  0
LINE
  5
18CD6
330
18C7A
100
AcDbEntity
  8
部品1
100
AcDbLine
 10
3398.970589276523
 20
1324.494269174465
 30
0.0
 11
3407.970589276523
 21
1324.494269174465
 31
0.0
  0
LINE
  5
18CD7
330
18C7A
100
AcDbEntity
  8
部品1
100
AcDbLine
 10
3398.970589276523
 20
1388.494269174465
 30
0.0
 11
3398.970589276523
 21
1324.494269174465
 31
0.0
  0
LINE
  5
18CD8
330
18C7A
100
AcDbEntity
  8
部品1
100
AcDbLine
 10
3409.970589276524
 20
1419.494269174465
 30
0.0
 11
3409.970589276524
 21
1388.494269174465
 31
0.0
  0
LINE
  5
18CD9
330
18C7A
100
AcDbEntity
  8
部品1
100
AcDbLine
 10
1322.970589276523
 20
1388.494269174465
 30
0.0
 11
1311.970589276523
 21
1388.494269174465
 31
0.0
  0
LINE
  5
18CDA
330
18C7A
100
AcDbEntity
  8
部品1
100
AcDbLine
 10
1283.970589276523
 20
1392.494269174465
 30
0.0
 11
1311.970589276523
 21
1392.494269174465
 31
0.0
  0
LINE
  5
18CDB
330
18C7A
100
AcDbEntity
  8
部品1
100
AcDbLine
 10
1313.970589276523
 20
1324.494269174465
 30
0.0
 11
1313.970589276523
 21
1315.494269174465
 31
0.0
  0
LINE
  5
18CDC
330
18C7A
100
AcDbEntity
  8
部品1
100
AcDbLine
 10
1322.970589276523
 20
1324.494269174465
 30
0.0
 11
1313.970589276523
 21
1324.494269174465
 31
0.0
  0
LINE
  5
18CDD
330
18C7A
100
AcDbEntity
  8
部品1
100
AcDbLine
 10
1313.970589276523
 20
1315.494269174465
 30
0.0
 11
1283.970589276523
 21
1315.494269174465
 31
0.0
  0
LINE
  5
18CDE
330
18C7A
100
AcDbEntity
  8
部品1
100
AcDbLine
 10
1283.970589276523
 20
1315.494269174465
 30
0.0
 11
1283.970589276523
 21
1392.494269174465
 31
0.0
  0
LINE
  5
18CDF
330
18C7A
100
AcDbEntity
  8
部品1
100
AcDbLine
 10
1322.970589276523
 20
1388.494269174465
 30
0.0
 11
1322.970589276523
 21
1324.494269174465
 31
0.0
  0
LINE
  5
18CE0
330
18C7A
100
AcDbEntity
  8
部品1
100
AcDbLine
 10
1311.970589276523
 20
1419.494269174462
 30
0.0
 11
1311.970589276523
 21
1388.494269174465
 31
0.0
  0
LINE
  5
18CE1
330
18C7A
100
AcDbEntity
  8
部品1
100
AcDbLine
 10
1311.970589276523
 20
1419.494269174462
 30
0.0
 11
3409.970589276524
 21
1419.494269174465
 31
0.0
  0
LINE
  5
18CE2
330
18C7A
100
AcDbEntity
  8
部品1
100
AcDbLine
 10
3407.970589276523
 20
1315.494269174465
 30
0.0
 11
3437.970589276523
 21
1315.494269174465
 31
0.0
  0
LINE
  5
18CE3
330
18C7A
100
AcDbEntity
  8
部品1
100
AcDbLine
 10
1313.970589276523
 20
1315.494269174465
 30
0.0
 11
3410.970589276523
 21
1315.494269174465
 31
0.0
  0
LINE
  5
18CE4
330
18C7A
100
AcDbEntity
  8
細線
  6
Continuous
 62
     5
100
AcDbLine
 10
2689.970589276527
 20
1354.494269174462
 30
0.0
 11
2689.970589276527
 21
1354.494269174462
 31
0.0
  0
LINE
  5
18CE5
330
18C7A
100
AcDbEntity
  8
細線
  6
Continuous
 62
     5
100
AcDbLine
 10
2682.470589276527
 20
1354.494269174462
 30
0.0
 11
2682.470589276527
 21
1354.494269174462
 31
0.0
  0
LINE
  5
18CE6
330
18C7A
100
AcDbEntity
  8
細線
  6
Continuous
 62
     5
100
AcDbLine
 10
2676.470589276527
 20
1354.494269174462
 30
0.0
 11
2676.470589276527
 21
1354.494269174462
 31
0.0
  0
LINE
  5
18CE7
330
18C7A
100
AcDbEntity
  8
細線
  6
Continuous
 62
     5
100
AcDbLine
 10
2743.970589276527
 20
1373.494269174462
 30
0.0
 11
2743.970589276527
 21
1373.494269174462
 31
0.0
  0
LINE
  5
18CE8
330
18C7A
100
AcDbEntity
  8
細線
 48
50.0
100
AcDbLine
 10
1336.970593930116
 20
1341.094443351418
 30
0.0
 11
1336.970593930113
 21
1349.490593759059
 31
0.0
  0
LINE
  5
18CE9
330
18C7A
100
AcDbEntity
  8
細線
 48
50.0
100
AcDbLine
 10
1336.970593930113
 20
1349.490593759059
 30
0.0
 11
1322.970589276523
 21
1349.490593759057
 31
0.0
  0
LINE
  5
18CEA
330
18C7A
100
AcDbEntity
  8
細線
 48
50.0
100
AcDbLine
 10
2087.970593930113
 20
1337.644443351419
 30
0.0
 11
2087.970593930113
 21
1342.494443351421
 31
0.0
  0
LINE
  5
18CEB
330
18C7A
100
AcDbEntity
  8
細線
 48
50.0
100
AcDbLine
 10
2087.970593930113
 20
1342.494443351421
 30
0.0
 11
2102.970593930113
 21
1342.494443351421
 31
0.0
  0
LINE
  5
18CEC
330
18C7A
100
AcDbEntity
  8
細線
 48
50.0
100
AcDbLine
 10
2102.970593930113
 20
1342.494443351421
 30
0.0
 11
2102.970593930115
 21
1349.494443351419
 31
0.0
  0
LINE
  5
18CED
330
18C7A
100
AcDbEntity
  8
細線
 48
50.0
100
AcDbLine
 10
2102.970593930115
 20
1349.494443351419
 30
0.0
 11
2117.970593930113
 21
1349.494443351419
 31
0.0
  0
LINE
  5
18CEE
330
18C7A
100
AcDbEntity
  8
細線
 48
50.0
100
AcDbLine
 10
2117.970593930113
 20
1349.494443351419
 30
0.0
 11
2117.970593930113
 21
1320.494443351421
 31
0.0
  0
LINE
  5
18CEF
330
18C7A
100
AcDbEntity
  8
細線
 48
50.0
100
AcDbLine
 10
1313.970589276523
 20
1320.491777694889
 30
0.0
 11
1527.970593930113
 21
1320.494460905133
 31
0.0
  0
LINE
  5
18CF0
330
18C7A
100
AcDbEntity
  8
細線
 48
50.0
100
AcDbLine
 10
2017.970593930113
 20
1320.494443351421
 30
0.0
 11
2117.970593930113
 21
1320.494443351421
 31
0.0
  0
LINE
  5
18CF1
330
18C7A
100
AcDbEntity
  8
細線
 48
50.0
100
AcDbLine
 10
1737.970593930113
 20
1320.494443351419
 30
0.0
 11
1807.970593930113
 21
1320.494443351423
 31
0.0
  0
LINE
  5
18CF2
330
18C7A
100
AcDbEntity
  8
細線
 48
50.0
100
AcDbLine
 10
1750.832558942642
 20
1320.494443351419
 30
0.0
 11
1756.588076525309
 21
1338.765294641913
 31
0.0
  0
LINE
  5
18CF3
330
18C7A
100
AcDbEntity
  8
細線
 48
50.0
100
AcDbLine
 10
1756.588076525309
 20
1338.765294641913
 30
0.0
 11
1767.516525005743
 21
1338.765294641911
 31
0.0
  0
ARC
  5
18CF4
330
18C7A
100
AcDbEntity
  8
細線
 48
50.0
100
AcDbCircle
 10
1767.516525005743
 20
1337.765294641911
 30
0.0
 40
1.0
100
AcDbArc
 50
24.62431835207225
 51
90.0
  0
ARC
  5
18CF5
330
18C7A
100
AcDbEntity
  8
細線
 48
50.0
100
AcDbCircle
 10
1778.425237120377
 20
1337.765294641911
 30
0.0
 40
1.0
100
AcDbArc
 50
90.0
 51
155.3756816479277
  0
ARC
  5
18CF6
330
18C7A
100
AcDbEntity
  8
細線
 48
50.0
100
AcDbCircle
 10
1772.970881063058
 20
1340.265294641911
 30
0.0
 40
5.0
100
AcDbArc
 50
204.6243183520723
 51
335.3756816479278
  0
LINE
  5
18CF7
330
18C7A
100
AcDbEntity
  8
細線
 48
50.0
100
AcDbLine
 10
1778.425237120377
 20
1338.765294641911
 30
0.0
 11
1789.35368560081
 21
1338.765294641913
 31
0.0
  0
LINE
  5
18CF8
330
18C7A
100
AcDbEntity
  8
細線
 48
50.0
100
AcDbLine
 10
1789.35368560081
 20
1338.765294641913
 30
0.0
 11
1795.109203183478
 21
1320.494443351423
 31
0.0
  0
LINE
  5
18CF9
330
18C7A
100
AcDbEntity
  8
細線
 48
50.0
100
AcDbLine
 10
2087.970593930113
 20
1341.094443351419
 30
0.0
 11
1336.970593930116
 21
1341.094443351418
 31
0.0
  0
LINE
  5
18CFA
330
18C7A
100
AcDbEntity
  8
細線
 48
50.0
100
AcDbLine
 10
1947.970593930113
 20
1320.494443351421
 30
0.0
 11
1877.970593930113
 21
1320.494443351421
 31
0.0
  0
LINE
  5
18CFB
330
18C7A
100
AcDbEntity
  8
細線
100
AcDbLine
 10
1667.970593930113
 20
1320.494443351421
 30
0.0
 11
1597.970602115529
 21
1320.494443351421
 31
0.0
  0
LINE
  5
18CFC
330
18C7A
100
AcDbEntity
  8
細線
 48
50.0
100
AcDbLine
 10
2741.970584622936
 20
1375.094487209288
 30
0.0
 11
2106.970593930113
 21
1375.094487209284
 31
0.0
  0
LINE
  5
18CFD
330
18C7A
100
AcDbEntity
  8
細線
 48
50.0
100
AcDbLine
 10
2106.970593930113
 20
1371.990637616925
 30
0.0
 11
2106.970593930113
 21
1376.490637616925
 31
0.0
  0
LINE
  5
18CFE
330
18C7A
100
AcDbEntity
  8
細線
 48
50.0
100
AcDbLine
 10
2106.970593930113
 20
1376.490637616925
 30
0.0
 11
2091.970593930113
 21
1376.490637616925
 31
0.0
  0
LINE
  5
18CFF
330
18C7A
100
AcDbEntity
  8
細線
 48
50.0
100
AcDbLine
 10
2091.970593930113
 20
1376.490637616925
 30
0.0
 11
2091.970593930113
 21
1383.490637616927
 31
0.0
  0
LINE
  5
18D00
330
18C7A
100
AcDbEntity
  8
細線
 48
50.0
100
AcDbLine
 10
2091.970593930113
 20
1383.490637616927
 30
0.0
 11
2076.970593930115
 21
1383.490637616924
 31
0.0
  0
LINE
  5
18D01
330
18C7A
100
AcDbEntity
  8
細線
 48
50.0
100
AcDbLine
 10
2076.970593930115
 20
1383.490637616924
 30
0.0
 11
2076.970593930115
 21
1345.890409513813
 31
0.0
  0
LINE
  5
18D02
330
18C7A
100
AcDbEntity
  8
細線
 48
50.0
100
AcDbLine
 10
2076.970593930115
 20
1345.890409513813
 30
0.0
 11
2096.970601231289
 21
1345.890451063353
 31
0.0
  0
LINE
  5
18D03
330
18C7A
100
AcDbEntity
  8
細線
 48
50.0
100
AcDbLine
 10
2096.970556362348
 20
1354.493912699161
 30
0.0
 11
2096.970601231289
 21
1345.890451063353
 31
0.0
  0
LINE
  5
18D04
330
18C7A
100
AcDbEntity
  8
細線
 48
50.0
100
AcDbLine
 10
2741.970584622936
 20
1371.644487209287
 30
0.0
 11
2741.970584622936
 21
1376.494487209284
 31
0.0
  0
LINE
  5
18D05
330
18C7A
100
AcDbEntity
  8
細線
 48
50.0
100
AcDbLine
 10
2741.970584622936
 20
1376.494487209284
 30
0.0
 11
2756.970584622934
 21
1376.494487209285
 31
0.0
  0
LINE
  5
18D06
330
18C7A
100
AcDbEntity
  8
細線
 48
50.0
100
AcDbLine
 10
2756.970584622934
 20
1376.494487209285
 30
0.0
 11
2756.970596256909
 21
1383.494487209331
 31
0.0
  0
LINE
  5
18D07
330
18C7A
100
AcDbEntity
  8
細線
 48
50.0
100
AcDbLine
 10
2756.970596256909
 20
1383.494487209331
 30
0.0
 11
2771.970594427439
 21
1383.494487209329
 31
0.0
  0
LINE
  5
18D08
330
18C7A
100
AcDbEntity
  8
細線
 48
50.0
100
AcDbLine
 10
2771.970594427439
 20
1383.494487209329
 30
0.0
 11
2771.970584125617
 21
1354.494281037055
 31
0.0
  0
LINE
  5
18D09
330
18C7A
100
AcDbEntity
  8
細線
 48
50.0
100
AcDbLine
 10
2458.070304175992
 20
1354.494278397076
 30
0.0
 11
2389.470863838818
 21
1354.494283787084
 31
0.0
  0
LINE
  5
18D0A
330
18C7A
100
AcDbEntity
  8
細線
 48
50.0
100
AcDbLine
 10
2096.970556362348
 20
1354.493912699161
 30
0.0
 11
2108.203245717057
 21
1354.494095652309
 31
0.0
  0
ARC
  5
18D0B
330
18C7A
100
AcDbEntity
  8
細線
 48
50.0
100
AcDbCircle
 10
2114.785538024393
 20
1353.294259565922
 30
0.0
 40
1.8
100
AcDbArc
 50
270.0006665777295
 51
345.000555481349
  0
LINE
  5
18D0C
330
18C7A
100
AcDbEntity
  8
細線
 48
50.0
100
AcDbLine
 10
2116.771971470473
 20
1353.753100023201
 30
0.0
 11
2116.524209028273
 21
1352.828402141094
 31
0.0
  0
LINE
  5
18D0D
330
18C7A
100
AcDbEntity
  8
細線
 48
50.0
100
AcDbLine
 10
2114.785558965548
 20
1351.494259566043
 30
0.0
 11
2111.155631546781
 21
1351.494217335563
 31
0.0
  0
ARC
  5
18D0E
330
18C7A
100
AcDbEntity
  8
細線
 48
50.0
100
AcDbCircle
 10
2111.155610605627
 20
1353.29421733544
 30
0.0
 40
1.8
100
AcDbArc
 50
195.0010443049965
 51
270.0006665777295
  0
LINE
  5
18D0F
330
18C7A
100
AcDbEntity
  8
細線
 48
50.0
100
AcDbLine
 10
2109.169183113368
 20
1353.752932303007
 30
0.0
 11
2109.416952609882
 21
1352.828311364425
 31
0.0
  0
ARC
  5
18D10
330
18C7A
100
AcDbEntity
  8
細線
 48
50.0
100
AcDbCircle
 10
2108.203262004622
 20
1353.494095652444
 30
0.0
 40
1.0
100
AcDbArc
 50
15.00104430499651
 51
90.00093320877969
  0
LINE
  5
18D11
330
18C7A
100
AcDbEntity
  8
細線
 48
50.0
100
AcDbLine
 10
2117.737892825577
 20
1354.494290342714
 30
0.0
 11
2118.679652976481
 21
1354.494296916564
 31
0.0
  0
ARC
  5
18D12
330
18C7A
100
AcDbEntity
  8
細線
 48
50.0
100
AcDbCircle
 10
2117.737899805961
 20
1353.49429034274
 30
0.0
 40
1.0
100
AcDbArc
 50
90.0003999466794
 51
165.000555481349
  0
LINE
  5
18D13
330
18C7A
100
AcDbEntity
  8
細線
 48
50.0
100
AcDbLine
 10
2669.470584622926
 20
1354.494281037055
 30
0.0
 11
2771.970584125617
 21
1354.494281037055
 31
0.0
  0
LINE
  5
18D14
330
18C7A
100
AcDbEntity
  8
細線
 48
50.0
100
AcDbLine
 10
2179.47061994182
 20
1354.494289224422
 30
0.0
 11
2118.370558714898
 21
1354.494296916564
 31
0.0
  0
LINE
  5
18D15
330
18C7A
100
AcDbEntity
  8
細線
 48
50.0
100
AcDbLine
 10
2599.470584622926
 20
1354.494281037057
 30
0.0
 11
2529.470584622926
 21
1354.494281037055
 31
0.0
  0
LINE
  5
18D16
330
18C7A
100
AcDbEntity
  8
細線
 48
50.0
100
AcDbLine
 10
2319.470584622926
 20
1354.494281037054
 30
0.0
 11
2249.470567335051
 21
1354.494281037057
 31
0.0
  0
ARC
  5
18D17
330
18C7A
100
AcDbEntity
  8
細線
 48
50.0
100
AcDbCircle
 10
2756.170589276533
 20
1387.694269174466
 30
0.0
 40
0.8
100
AcDbArc
 50
359.9997333689499
 51
89.99986668437072
  0
ARC
  5
18D18
330
18C7A
100
AcDbEntity
  8
細線
 48
50.0
100
AcDbCircle
 10
2763.770596101631
 20
1387.694280343081
 30
0.0
 40
0.8
100
AcDbArc
 50
90.00014387753465
 51
179.9997333689498
  0
LINE
  5
18D19
330
18C7A
100
AcDbEntity
  8
細線
 48
50.0
100
AcDbLine
 10
2756.170591137969
 20
1388.494269174465
 30
0.0
 11
2750.970589276525
 21
1388.494269174465
 31
0.0
  0
ARC
  5
18D1A
330
18C7A
100
AcDbEntity
  8
細線
 48
50.0
100
AcDbCircle
 10
2757.670589276524
 20
1386.194269174464
 30
0.0
 40
0.7
100
AcDbArc
 50
180.0
 51
270.0
  0
ARC
  5
18D1B
330
18C7A
100
AcDbEntity
  8
細線
 48
50.0
100
AcDbCircle
 10
2762.270589276524
 20
1386.194269174464
 30
0.0
 40
0.7
100
AcDbArc
 50
270.0
 51
0.0
  0
LINE
  5
18D1C
330
18C7A
100
AcDbEntity
  8
細線
 48
50.0
100
AcDbLine
 10
2762.970589276525
 20
1386.194269174464
 30
0.0
 11
2762.970596101639
 21
1387.694284065954
 31
0.0
  0
LINE
  5
18D1D
330
18C7A
100
AcDbEntity
  8
細線
 48
50.0
100
AcDbLine
 10
2757.670589276524
 20
1385.494269174465
 30
0.0
 11
2762.270589276524
 21
1385.494269174465
 31
0.0
  0
LINE
  5
18D1E
330
18C7A
100
AcDbEntity
  8
細線
 48
50.0
100
AcDbLine
 10
2756.970589276525
 20
1387.694269174466
 30
0.0
 11
2756.970589276525
 21
1386.194269174464
 31
0.0
  0
LINE
  5
18D1F
330
18C7A
100
AcDbEntity
  8
細線
 48
50.0
100
AcDbLine
 10
3382.570589276527
 20
1418.494269174465
 30
0.0
 11
2745.970589276525
 21
1418.494269174463
 31
0.0
  0
LINE
  5
18D20
330
18C7A
100
AcDbEntity
  8
細線
 48
50.0
100
AcDbLine
 10
3408.470589276525
 20
1413.494269174467
 30
0.0
 11
3392.570589276527
 21
1413.494269174465
 31
0.0
  0
LINE
  5
18D21
330
18C7A
100
AcDbEntity
  8
細線
 48
50.0
100
AcDbLine
 10
3392.570589276526
 20
1413.494269174465
 30
0.0
 11
3382.570589276527
 21
1418.494269174465
 31
0.0
  0
LINE
  5
18D22
330
18C7A
100
AcDbEntity
  8
細線
100
AcDbLine
 10
2993.470589276525
 20
1388.494269174465
 30
0.0
 11
2993.470589276525
 21
1417.794269174464
 31
0.0
  0
LINE
  5
18D23
330
18C7A
100
AcDbEntity
  8
細線
100
AcDbLine
 10
2993.470589276525
 20
1417.794269174464
 30
0.0
 11
3013.470589276525
 21
1417.794269174464
 31
0.0
  0
LINE
  5
18D24
330
18C7A
100
AcDbEntity
  8
細線
100
AcDbLine
 10
3013.470589276525
 20
1388.494269174465
 30
0.0
 11
3013.470589276525
 21
1417.794269174464
 31
0.0
  0
LINE
  5
18D25
330
18C7A
100
AcDbEntity
  8
細線
100
AcDbLine
 10
3170.720589276524
 20
1388.494269174465
 30
0.0
 11
3100.720589276523
 21
1388.494269174465
 31
0.0
  0
LINE
  5
18D26
330
18C7A
100
AcDbEntity
  8
細線
 48
50.0
100
AcDbLine
 10
2890.720589276525
 20
1388.494269174465
 30
0.0
 11
2763.766368849365
 21
1388.494269174465
 31
0.0
  0
LINE
  5
18D27
330
18C7A
100
AcDbEntity
  8
細線
100
AcDbLine
 10
3030.720589276525
 20
1388.494269174465
 30
0.0
 11
2960.720589276525
 21
1388.494269174465
 31
0.0
  0
LINE
  5
18D28
330
18C7A
100
AcDbEntity
  8
細線
 48
50.0
100
AcDbLine
 10
2750.970589276525
 20
1380.494269174465
 30
0.0
 11
2750.970589276525
 21
1388.494269174465
 31
0.0
  0
LINE
  5
18D29
330
18C7A
100
AcDbEntity
  8
細線
 48
50.0
100
AcDbLine
 10
2730.970589276524
 20
1380.494269174467
 30
0.0
 11
2750.970589276525
 21
1380.494269174465
 31
0.0
  0
LINE
  5
18D2A
330
18C7A
100
AcDbEntity
  8
細線
 48
50.0
100
AcDbLine
 10
2745.970589276525
 20
1418.494269174465
 30
0.0
 11
2745.970589276525
 21
1413.494269174465
 31
0.0
  0
LINE
  5
18D2B
330
18C7A
100
AcDbEntity
  8
細線
 48
50.0
100
AcDbLine
 10
2730.970589276525
 20
1418.494269174463
 30
0.0
 11
2745.970589276525
 21
1418.494269174465
 31
0.0
  0
LINE
  5
18D2C
330
18C7A
100
AcDbEntity
  8
細線
 48
50.0
100
AcDbLine
 10
2730.970589276524
 20
1380.494269174467
 30
0.0
 11
2730.970589276525
 21
1418.494269174463
 31
0.0
  0
LINE
  5
18D2D
330
18C7A
100
AcDbEntity
  8
細線
100
AcDbLine
 10
3398.970589276523
 20
1388.494269174465
 30
0.0
 11
3240.720589276525
 21
1388.494269174465
 31
0.0
  0
LINE
  5
18D2E
330
18C7A
100
AcDbEntity
  8
細線
 48
50.0
100
AcDbLine
 10
3408.470589276525
 20
1413.494269174467
 30
0.0
 11
3408.470589276524
 21
1388.494269174465
 31
0.0
  0
TEXT
  5
18D2F
330
18C7A
100
AcDbEntity
  8
部品1
100
AcDbText
 10
1860.154865991392
 20
46.99880823813145
 30
0.0
 40
135.0
  1
平面図
  7
STYLE2
100
AcDbText
  0
LWPOLYLINE
  5
18D30
330
18C7A
100
AcDbEntity
  8
部品1
100
AcDbPolyline
 90
        4
 70
     1
 43
0.0
 10
1770.23525616235
 20
239.8923374566548
 10
1770.23525616235
 20
0.0000159111223184
 10
2533.705922390791
 20
0.0000159111223184
 10
2533.705922390791
 20
239.8923374566548
  0
LINE
  5
18D31
330
18C7A
100
AcDbEntity
  8
部品1
100
AcDbLine
 10
1534.470589276487
 20
3154.494269174626
 30
0.0
 11
2769.470589276552
 21
3154.494269174626
 31
0.0
  0
LINE
  5
18D32
330
18C7A
100
AcDbEntity
  8
部品1
 48
50.0
100
AcDbLine
 10
1311.970589276523
 20
1420.494269174462
 30
0.0
 11
3411.970589276523
 21
1420.494269174465
 31
0.0
  0
LINE
  5
18D33
330
18C7A
100
AcDbEntity
  8
部品1
 48
50.0
100
AcDbLine
 10
471.9705892765232
 20
1392.494269174465
 30
0.0
 11
1311.970589276523
 21
1392.494269174465
 31
0.0
  0
DIMENSION
  5
18D34
330
18C7A
100
AcDbEntity
  8
寸法
100
AcDbDimension
  2
*D14
 10
2710.234916278077
 20
2488.887829538828
 30
0.0
 11
2338.318822490183
 21
2488.887829538828
 31
0.0
 12
-3742.925985830444
 22
-6453.628869860112
 32
0.0
 70
   128
 71
     5
 42
1231.00000000007
  3
INABA_S40G
100
AcDbAlignedDimension
 13
1536.470589276486
 23
2702.494269174557
 33
0.0
 14
2767.470589276556
 24
2702.494269174549
 34
0.0
100
AcDbRotatedDimension
1001
ACAD
1000
DSTYLE
1002
{
1002
}
  0
LINE
  5
18D35
330
18C7A
100
AcDbEntity
  8
部品1
100
AcDbLine
 10
1536.470589276487
 20
2702.494269174557
 30
0.0
 11
2767.470589276554
 21
2702.494269174615
 31
0.0
  0
LINE
  5
18D36
330
18C7A
100
AcDbEntity
  8
部品1
100
AcDbLine
 10
1536.470589276487
 20
3152.494269174557
 30
0.0
 11
2767.470589276556
 21
3152.494269174615
 31
0.0
  0
LINE
  5
18D37
330
18C7A
100
AcDbEntity
  8
細線
 48
50.0
100
AcDbLine
 10
1508.470589276487
 20
3152.494269174558
 30
0.0
 11
445.4705892765559
 21
2702.494269174509
 31
0.0
  0
LINE
  5
18D38
330
18C7A
100
AcDbEntity
  8
細線
 48
50.0
100
AcDbLine
 10
1508.470589276487
 20
2702.494269174558
 30
0.0
 11
445.4705892765542
 21
3152.494269174509
 31
0.0
  0
LINE
  5
18D39
330
18C7A
100
AcDbEntity
  8
部品1
100
AcDbLine
 10
1556.970589276487
 20
3172.494269174611
 30
0.0
 11
1556.970589276487
 21
3154.494269174611
 31
0.0
  0
LINE
  5
18D3A
330
18C7A
100
AcDbEntity
  8
部品1
100
AcDbLine
 10
1556.970589276487
 20
3172.494269174611
 30
0.0
 11
1550.970589276487
 21
3172.494269174611
 31
0.0
  0
LINE
  5
18D3B
330
18C7A
100
AcDbEntity
  8
部品1
100
AcDbLine
 10
1534.470589276487
 20
3146.494269174608
 30
0.0
 11
1509.470589276487
 21
3146.494269174611
 31
0.0
  0
LINE
  5
18D3C
330
18C7A
100
AcDbEntity
  8
部品1
100
AcDbLine
 10
1486.970589276487
 20
3172.494269174611
 30
0.0
 11
1486.970589276487
 21
3154.494269174611
 31
0.0
  0
LINE
  5
18D3D
330
18C7A
100
AcDbEntity
  8
部品1
100
AcDbLine
 10
1492.970589276487
 20
3172.494269174611
 30
0.0
 11
1486.970589276487
 21
3172.494269174611
 31
0.0
  0
LINE
  5
18D3E
330
18C7A
100
AcDbEntity
  8
部品1
100
AcDbLine
 10
1534.470589276487
 20
2702.494269174615
 30
0.0
 11
1509.470589276487
 21
2702.494269174615
 31
0.0
  0
LINE
  5
18D3F
330
18C7A
100
AcDbEntity
  8
部品1
 48
50.0
100
AcDbLine
 10
1536.470589276487
 20
3152.494269174611
 30
0.0
 11
1536.470589276487
 21
2702.494269174615
 31
0.0
  0
LINE
  5
18D40
330
18C7A
100
AcDbEntity
  8
部品1
 48
50.0
100
AcDbLine
 10
1508.470589276487
 20
3152.494269174607
 30
0.0
 11
1508.470589276487
 21
2702.494269174615
 31
0.0
  0
LINE
  5
18D41
330
18C7A
100
AcDbEntity
  8
部品1
 48
50.0
100
AcDbLine
 10
1534.470589276487
 20
3154.494269174618
 30
0.0
 11
1534.470589276487
 21
2702.494269174615
 31
0.0
  0
LINE
  5
18D42
330
18C7A
100
AcDbEntity
  8
部品1
 48
50.0
100
AcDbLine
 10
1509.470589276487
 20
3154.494269174615
 30
0.0
 11
1509.470589276487
 21
2702.494269174615
 31
0.0
  0
LINE
  5
18D43
330
18C7A
100
AcDbEntity
  8
部品1
100
AcDbLine
 10
3411.970589276556
 20
1392.494269174582
 30
0.0
 11
3411.970589276556
 21
1420.494269174596
 31
0.0
  0
LINE
  5
18D44
330
18C7A
100
AcDbEntity
  8
部品1
100
AcDbLine
 10
1311.970589276523
 20
1392.494269174596
 30
0.0
 11
1311.970589276523
 21
1420.494269174596
 31
0.0
  0
LINE
  5
18D45
330
18C7A
100
AcDbEntity
  8
部品1
100
AcDbLine
 10
891.9705892765232
 20
1392.494269174596
 30
0.0
 11
891.9705892765232
 21
1420.494269174596
 31
0.0
  0
LINE
  5
18D46
330
18C7A
100
AcDbEntity
  8
部品1
100
AcDbLine
 10
3411.97058927652
 20
3182.494269174477
 30
0.0
 11
3411.970589276523
 21
3154.494269174477
 31
0.0
  0
LINE
  5
18D47
330
18C7A
100
AcDbEntity
  8
部品1
100
AcDbLine
 10
2571.97058927652
 20
3182.494269174477
 30
0.0
 11
2571.970589276523
 21
3154.494269174477
 31
0.0
  0
LINE
  5
18D48
330
18C7A
100
AcDbEntity
  8
部品1
100
AcDbLine
 10
2991.97058927652
 20
3182.494269174477
 30
0.0
 11
2991.970589276523
 21
3154.494269174477
 31
0.0
  0
LINE
  5
18D49
330
18C7A
100
AcDbEntity
  8
部品1
100
AcDbLine
 10
2151.970589276519
 20
3182.494269174477
 30
0.0
 11
2151.970589276523
 21
3154.494269174477
 31
0.0
  0
LINE
  5
18D4A
330
18C7A
100
AcDbEntity
  8
部品1
100
AcDbLine
 10
1731.970589276519
 20
3182.494269174477
 30
0.0
 11
1731.970589276523
 21
3154.494269174477
 31
0.0
  0
LINE
  5
18D4B
330
18C7A
100
AcDbEntity
  8
部品1
100
AcDbLine
 10
1311.970589276519
 20
3182.494269174477
 30
0.0
 11
1311.970589276523
 21
3154.494269174477
 31
0.0
  0
LINE
  5
18D4C
330
18C7A
100
AcDbEntity
  8
部品1
100
AcDbLine
 10
891.9705892765195
 20
3182.494269174477
 30
0.0
 11
891.9705892765232
 21
3154.494269174477
 31
0.0
  0
LINE
  5
18D4D
330
18C7A
100
AcDbEntity
  8
部品1
100
AcDbLine
 10
471.9705892765232
 20
1392.494269174596
 30
0.0
 11
471.9705892765232
 21
1420.494269174596
 31
0.0
  0
LINE
  5
18D4E
330
18C7A
100
AcDbEntity
  8
部品1
100
AcDbLine
 10
444.9705892765305
 20
1420.494269174558
 30
0.0
 11
3858.970589276556
 21
1420.494269174596
 31
0.0
  0
LINE
  5
18D4F
330
18C7A
100
AcDbEntity
  8
部品1
100
AcDbLine
 10
3831.970589276556
 20
1392.494269174596
 30
0.0
 11
3831.970589276556
 21
1420.494269174596
 31
0.0
  0
LINE
  5
18D50
330
18C7A
100
AcDbEntity
  8
部品1
100
AcDbLine
 10
3858.970589276556
 20
1447.494269174593
 30
0.0
 11
3886.970589276556
 21
1447.494269174593
 31
0.0
  0
LINE
  5
18D51
330
18C7A
100
AcDbEntity
  8
部品1
100
AcDbLine
 10
3858.970589276556
 20
1867.494269174607
 30
0.0
 11
3886.970589276556
 21
1867.494269174607
 31
0.0
  0
LINE
  5
18D52
330
18C7A
100
AcDbEntity
  8
部品1
100
AcDbLine
 10
444.9705892765305
 20
1867.49426917448
 30
0.0
 11
416.9705892765305
 21
1867.49426917448
 31
0.0
  0
LINE
  5
18D53
330
18C7A
100
AcDbEntity
  8
部品1
100
AcDbLine
 10
3830.470589276541
 20
1867.49426917458
 30
0.0
 11
473.4705892765396
 21
1867.49426917448
 31
0.0
  0
LINE
  5
18D54
330
18C7A
100
AcDbEntity
  8
部品1
100
AcDbLine
 10
3830.470589276541
 20
2287.49426917458
 30
0.0
 11
473.4705892765396
 21
2287.49426917448
 31
0.0
  0
LINE
  5
18D55
330
18C7A
100
AcDbEntity
  8
部品1
100
AcDbLine
 10
444.9705892765305
 20
2287.49426917448
 30
0.0
 11
416.9705892765305
 21
2287.49426917448
 31
0.0
  0
LINE
  5
18D56
330
18C7A
100
AcDbEntity
  8
部品1
100
AcDbLine
 10
3858.970589276556
 20
2287.494269174608
 30
0.0
 11
3886.970589276556
 21
2287.494269174608
 31
0.0
  0
LINE
  5
18D57
330
18C7A
100
AcDbEntity
  8
部品1
 48
50.0
100
AcDbLine
 10
2151.970589276551
 20
2702.494269174586
 30
0.0
 11
2151.970589276581
 21
1448.994269174494
 31
0.0
  0
LINE
  5
18D58
330
18C7A
100
AcDbEntity
  8
破線
 48
10.0
100
AcDbLine
 10
2959.470589276535
 20
1472.494269174522
 30
0.0
 11
2176.970589276532
 21
1472.494269174505
 31
0.0
  0
LINE
  5
18D59
330
18C7A
100
AcDbEntity
  8
破線
 48
10.0
100
AcDbLine
 10
3009.47058927653
 20
1448.994269174509
 30
0.0
 11
3009.47058927653
 21
2702.494269174615
 31
0.0
  0
LINE
  5
18D5A
330
18C7A
100
AcDbEntity
  8
破線
 48
10.0
100
AcDbLine
 10
2959.470589276535
 20
1448.994269174505
 30
0.0
 11
2959.470589276531
 21
2702.494269174615
 31
0.0
  0
LINE
  5
18D5B
330
18C7A
100
AcDbEntity
  8
破線
 48
10.0
100
AcDbLine
 10
1344.47058927653
 20
1448.994269174509
 30
0.0
 11
1344.47058927653
 21
2702.494269174615
 31
0.0
  0
LINE
  5
18D5C
330
18C7A
100
AcDbEntity
  8
破線
 48
10.0
100
AcDbLine
 10
1294.470589276534
 20
1448.994269174505
 30
0.0
 11
1294.47058927653
 21
2702.494269174615
 31
0.0
  0
DIMENSION
  5
18D5D
330
18C7A
100
AcDbEntity
  8
寸法
100
AcDbDimension
  2
*D13
 10
1451.234916278005
 20
2488.887829538828
 30
0.0
 11
916.0604668248634
 21
2488.887829538828
 31
0.0
 12
-3742.925985830444
 22
-6453.628869860112
 32
0.0
 70
   128
 71
     5
 42
1062.99999999993
  3
INABA_S40G
100
AcDbAlignedDimension
 13
445.4705892765559
 23
2702.494269174505
 33
0.0
 14
1508.470589276486
 24
2702.494269174558
 34
0.0
100
AcDbRotatedDimension
1001
ACAD
1000
DSTYLE
1002
{
1002
}
  0
LINE
  5
18D5E
330
18C7A
100
AcDbEntity
  8
破線
 48
10.0
100
AcDbLine
 10
1294.470589276534
 20
1472.494269174469
 30
0.0
 11
496.9705892765414
 21
1472.494269174476
 31
0.0
  0
LINE
  5
18D5F
330
18C7A
100
AcDbEntity
  8
部品1
100
AcDbLine
 10
3831.970589276556
 20
3182.494269174604
 30
0.0
 11
3831.970589276556
 21
3154.494269174604
 31
0.0
  0
LINE
  5
18D60
330
18C7A
100
AcDbEntity
  8
部品1
100
AcDbLine
 10
3831.970589276556
 20
3182.494269174626
 30
0.0
 11
3831.970589276556
 21
3154.494269174626
 31
0.0
  0
LINE
  5
18D61
330
18C7A
100
AcDbEntity
  8
部品1
100
AcDbLine
 10
3858.970589276556
 20
3127.494269174607
 30
0.0
 11
3886.970589276556
 21
3127.494269174607
 31
0.0
  0
LINE
  5
18D62
330
18C7A
100
AcDbEntity
  8
部品1
100
AcDbLine
 10
3858.970589276556
 20
2707.494269174608
 30
0.0
 11
3886.970589276556
 21
2707.494269174608
 31
0.0
  0
LINE
  5
18D63
330
18C7A
100
AcDbEntity
  8
部品1
100
AcDbLine
 10
3858.470589276556
 20
3152.494269174604
 30
0.0
 11
3858.470589276556
 21
2702.494269174608
 31
0.0
  0
LINE
  5
18D64
330
18C7A
100
AcDbEntity
  8
部品1
100
AcDbLine
 10
3886.970589276533
 20
1447.494269174593
 30
0.0
 11
3886.970589276531
 21
1392.494269174596
 31
0.0
  0
LINE
  5
18D65
330
18C7A
100
AcDbEntity
  8
部品1
 48
50.0
100
AcDbLine
 10
3830.470589276556
 20
1448.994269174596
 30
0.0
 11
3858.970589276554
 21
1420.494269174596
 31
0.0
  0
LINE
  5
18D66
330
18C7A
100
AcDbEntity
  8
部品1
100
AcDbLine
 10
3886.970589276531
 20
1392.494269174596
 30
0.0
 11
3835.970589276531
 21
1392.494269174596
 31
0.0
  0
LINE
  5
18D67
330
18C7A
100
AcDbEntity
  8
部品1
100
AcDbLine
 10
3858.970589276533
 20
1447.494269174593
 30
0.0
 11
3886.970589276531
 21
1447.494269174593
 31
0.0
  0
LINE
  5
18D68
330
18C7A
100
AcDbEntity
  8
部品1
100
AcDbLine
 10
3886.970589276556
 20
3182.494269174604
 30
0.0
 11
3886.970589276531
 21
1392.494269174596
 31
0.0
  0
DIMENSION
  5
18D69
330
18C7A
100
AcDbEntity
  8
寸法
100
AcDbDimension
  2
*D12
 10
4534.396935010967
 20
1447.494269174593
 30
0.0
 11
4534.396935010965
 21
2287.4942691746
 31
0.0
 12
-3742.925985830444
 22
-6453.628869860112
 32
0.0
 70
   128
  1
4X420=<>
 71
     5
 42
1680.000000000014
  3
INABA_S40G
100
AcDbAlignedDimension
 13
3886.970589276556
 23
3127.494269174607
 33
0.0
 14
3886.970589276531
 24
1447.494269174593
 34
0.0
 50
90.0
100
AcDbRotatedDimension
1001
ACAD
1000
DSTYLE
1002
{
1002
}
  0
LINE
  5
18D6A
330
18C7A
100
AcDbEntity
  8
部品1
100
AcDbLine
 10
3858.970589276556
 20
3154.494269174604
 30
0.0
 11
3858.970589276534
 21
1420.494269174596
 31
0.0
  0
DIMENSION
  5
18D6B
330
18C7A
100
AcDbEntity
  8
寸法
100
AcDbDimension
  2
*D11
 10
4213.82831513858
 20
2607.276453505718
 30
0.0
 11
4113.828315138579
 21
2832.276453505718
 31
0.0
 12
-3742.925985830444
 22
-6453.628869860112
 32
0.0
 71
     5
 42
449.9999999999963
  3
INABA_S40G
100
AcDbAlignedDimension
 13
3858.470589276556
 23
3152.494269174604
 33
0.0
 14
3858.470589276556
 24
2702.494269174608
 34
0.0
 50
90.0
100
AcDbRotatedDimension
1001
ACAD
1000
DSTYLE
1002
{
1002
}
  0
LINE
  5
18D6C
330
18C7A
100
AcDbEntity
  8
部品1
100
AcDbLine
 10
3830.470589276547
 20
2702.494269174608
 30
0.0
 11
3830.470589276556
 21
1448.994269174596
 31
0.0
  0
LINE
  5
18D6D
330
18C7A
100
AcDbEntity
  8
破線
 48
10.0
100
AcDbLine
 10
3806.970589276549
 20
2702.494269174608
 30
0.0
 11
3806.970589276558
 21
1472.494269174593
 31
0.0
  0
LINE
  5
18D6E
330
18C7A
100
AcDbEntity
  8
部品1
100
AcDbLine
 10
2769.470589276556
 20
3146.494269174608
 30
0.0
 11
2794.470589276556
 21
3146.494269174611
 31
0.0
  0
LINE
  5
18D6F
330
18C7A
100
AcDbEntity
  8
部品1
100
AcDbLine
 10
2810.970589276556
 20
3172.494269174611
 30
0.0
 11
2816.970589276556
 21
3172.494269174611
 31
0.0
  0
LINE
  5
18D70
330
18C7A
100
AcDbEntity
  8
部品1
100
AcDbLine
 10
2816.970589276556
 20
3172.494269174611
 30
0.0
 11
2816.970589276556
 21
3154.494269174611
 31
0.0
  0
LINE
  5
18D71
330
18C7A
100
AcDbEntity
  8
部品1
100
AcDbLine
 10
2746.970589276556
 20
3172.494269174611
 30
0.0
 11
2752.970589276556
 21
3172.494269174611
 31
0.0
  0
LINE
  5
18D72
330
18C7A
100
AcDbEntity
  8
部品1
100
AcDbLine
 10
2746.970589276556
 20
3172.494269174611
 30
0.0
 11
2746.970589276556
 21
3154.494269174611
 31
0.0
  0
LINE
  5
18D73
330
18C7A
100
AcDbEntity
  8
部品1
100
AcDbLine
 10
2769.470589276556
 20
2702.494269174615
 30
0.0
 11
2794.470589276556
 21
2702.494269174615
 31
0.0
  0
LINE
  5
18D74
330
18C7A
100
AcDbEntity
  8
部品1
 48
50.0
100
AcDbLine
 10
2794.470589276556
 20
3154.494269174615
 30
0.0
 11
2794.470589276556
 21
2702.494269174615
 31
0.0
  0
LINE
  5
18D75
330
18C7A
100
AcDbEntity
  8
部品1
 48
50.0
100
AcDbLine
 10
2769.470589276554
 20
3154.494269174618
 30
0.0
 11
2769.470589276556
 21
2702.494269174615
 31
0.0
  0
LINE
  5
18D76
330
18C7A
100
AcDbEntity
  8
部品1
 48
50.0
100
AcDbLine
 10
2795.470589276556
 20
3152.494269174607
 30
0.0
 11
2795.470589276556
 21
2702.494269174615
 31
0.0
  0
LINE
  5
18D77
330
18C7A
100
AcDbEntity
  8
部品1
 48
50.0
100
AcDbLine
 10
2767.470589276556
 20
3152.494269174611
 30
0.0
 11
2767.470589276556
 21
2702.494269174615
 31
0.0
  0
LINE
  5
18D78
330
18C7A
100
AcDbEntity
  8
破線
 48
10.0
100
AcDbLine
 10
2176.97058927653
 20
1448.994269174509
 30
0.0
 11
2176.97058927653
 21
2702.494269174588
 31
0.0
  0
LINE
  5
18D79
330
18C7A
100
AcDbEntity
  8
破線
 48
10.0
100
AcDbLine
 10
2126.970589276534
 20
1448.994269174505
 30
0.0
 11
2126.970589276531
 21
2702.494269174586
 31
0.0
  0
LINE
  5
18D7A
330
18C7A
100
AcDbEntity
  8
部品1
100
AcDbLine
 10
2794.470589276556
 20
3154.494269174622
 30
0.0
 11
3858.970589276556
 21
3154.494269174604
 31
0.0
  0
LINE
  5
18D7B
330
18C7A
100
AcDbEntity
  8
細線
 48
50.0
100
AcDbLine
 10
3858.470589276556
 20
2702.494269174608
 30
0.0
 11
2795.470589276556
 21
3152.494269174607
 31
0.0
  0
LINE
  5
18D7C
330
18C7A
100
AcDbEntity
  8
部品1
100
AcDbLine
 10
2795.470589276555
 20
2702.494269174615
 30
0.0
 11
3858.470589276556
 21
2702.494269174608
 31
0.0
  0
LINE
  5
18D7D
330
18C7A
100
AcDbEntity
  8
部品1
100
AcDbLine
 10
2795.470589276556
 20
3152.494269174611
 30
0.0
 11
3858.470589276556
 21
3152.494269174604
 31
0.0
  0
LINE
  5
18D7E
330
18C7A
100
AcDbEntity
  8
細線
 48
50.0
100
AcDbLine
 10
3858.470589276556
 20
3152.494269174604
 30
0.0
 11
2795.470589276555
 21
2702.494269174615
 31
0.0
  0
DIMENSION
  5
18D7F
330
18C7A
100
AcDbEntity
  8
寸法
100
AcDbDimension
  2
*D10
 10
3801.234916278101
 20
2488.887829538937
 30
0.0
 11
3318.360544398907
 21
2488.887829538937
 31
0.0
 12
-3742.925985830444
 22
-6453.628869860112
 32
0.0
 70
   128
 71
     5
 42
1063.000000000012
  3
INABA_S40G
100
AcDbAlignedDimension
 13
2795.470589276555
 23
2702.494269174615
 33
0.0
 14
3858.470589276567
 24
2702.494269174608
 34
0.0
100
AcDbRotatedDimension
1001
ACAD
1000
DSTYLE
1002
{
1002
}
  0
LINE
  5
18D80
330
18C7A
100
AcDbEntity
  8
破線
 48
10.0
100
AcDbLine
 10
3806.970589276556
 20
1472.494269174594
 30
0.0
 11
3009.47058927653
 21
1472.494269174523
 31
0.0
  0
DIMENSION
  5
18D81
330
18C7A
100
AcDbEntity
  8
寸法
100
AcDbDimension
  2
*D9
 10
4534.396935010941
 20
1392.494269174596
 30
0.0
 11
4534.39693501094
 21
1084.008987800356
 31
0.0
 12
-3742.925985830444
 22
-6453.628869860112
 32
0.0
 70
   128
 71
     5
 42
54.99999999999636
  3
INABA_S40G
100
AcDbAlignedDimension
 13
3886.970589276531
 23
1447.494269174593
 33
0.0
 14
3886.970589276531
 24
1392.494269174596
 34
0.0
 50
90.0
100
AcDbRotatedDimension
1001
ACAD
1000
DSTYLE
1002
{
1002
}
  0
LINE
  5
18D82
330
18C7A
100
AcDbEntity
  8
部品1
100
AcDbLine
 10
471.9705892765196
 20
3182.494269174477
 30
0.0
 11
471.9705892765232
 21
3154.494269174477
 31
0.0
  0
LINE
  5
18D83
330
18C7A
100
AcDbEntity
  8
部品1
100
AcDbLine
 10
471.9705892765559
 20
3182.494269174509
 30
0.0
 11
471.9705892765559
 21
3154.494269174509
 31
0.0
  0
LINE
  5
18D84
330
18C7A
100
AcDbEntity
  8
部品1
100
AcDbLine
 10
444.9705892765232
 20
3127.49426917448
 30
0.0
 11
416.9705892765232
 21
3127.49426917448
 31
0.0
  0
LINE
  5
18D85
330
18C7A
100
AcDbEntity
  8
部品1
100
AcDbLine
 10
444.9705892765305
 20
2707.49426917448
 30
0.0
 11
416.9705892765305
 21
2707.49426917448
 31
0.0
  0
LINE
  5
18D86
330
18C7A
100
AcDbEntity
  8
部品1
 48
50.0
100
AcDbLine
 10
445.4705892765542
 20
3152.494269174506
 30
0.0
 11
445.4705892765559
 21
2702.494269174505
 31
0.0
  0
LINE
  5
18D87
330
18C7A
100
AcDbEntity
  8
部品1
 48
50.0
100
AcDbLine
 10
473.470589276545
 20
1448.994269174573
 30
0.0
 11
444.970589276545
 21
1420.494269174574
 31
0.0
  0
LINE
  5
18D88
330
18C7A
100
AcDbEntity
  8
部品1
100
AcDbLine
 10
471.9705892765232
 20
1392.494269174465
 30
0.0
 11
416.9705892765486
 21
1392.494269174465
 31
0.0
  0
LINE
  5
18D89
330
18C7A
100
AcDbEntity
  8
部品1
100
AcDbLine
 10
444.9705892765305
 20
1447.494269174429
 30
0.0
 11
416.9705892765469
 21
1447.494269174429
 31
0.0
  0
LINE
  5
18D8A
330
18C7A
100
AcDbEntity
  8
部品1
100
AcDbLine
 10
444.9705892765305
 20
1447.494269174465
 30
0.0
 11
416.9705892765469
 21
1447.494269174465
 31
0.0
  0
LINE
  5
18D8B
330
18C7A
100
AcDbEntity
  8
部品1
100
AcDbLine
 10
444.9705892765469
 20
1447.49426917448
 30
0.0
 11
416.9705892765469
 21
1447.49426917448
 31
0.0
  0
LINE
  5
18D8C
330
18C7A
100
AcDbEntity
  8
部品1
100
AcDbLine
 10
416.9705892765469
 20
1447.494269174429
 30
0.0
 11
416.9705892765486
 21
1392.494269174433
 31
0.0
  0
LINE
  5
18D8D
330
18C7A
100
AcDbEntity
  8
部品1
100
AcDbLine
 10
416.9705892765196
 20
3182.494269174477
 30
0.0
 11
416.9705892765486
 21
1392.494269174465
 31
0.0
  0
LINE
  5
18D8E
330
18C7A
100
AcDbEntity
  8
部品1
100
AcDbLine
 10
444.9705892765305
 20
1420.494269174556
 30
0.0
 11
444.9705892765559
 21
3154.494269174509
 31
0.0
  0
LINE
  5
18D8F
330
18C7A
100
AcDbEntity
  8
部品1
100
AcDbLine
 10
473.4705892765323
 20
2702.494269174608
 30
0.0
 11
473.470589276545
 21
1448.994269174571
 31
0.0
  0
LINE
  5
18D90
330
18C7A
100
AcDbEntity
  8
破線
 48
10.0
100
AcDbLine
 10
496.9705892765305
 20
2702.494269174608
 30
0.0
 11
496.9705892765451
 21
1472.494269174476
 31
0.0
  0
DIMENSION
  5
18D91
330
18C7A
100
AcDbEntity
  8
寸法
100
AcDbDimension
  2
*D8
 10
3886.970589276531
 20
410.7433333855515
 30
0.0
 11
2168.197775309287
 21
410.7433333855515
 31
0.0
 12
-3742.925985830444
 22
-6453.628869860112
 32
0.0
 70
   128
 71
     5
 42
3469.999999999982
  3
INABA_S40G
100
AcDbAlignedDimension
 13
416.9705892765486
 23
1392.494269174433
 33
0.0
 14
3886.970589276531
 24
1392.49426917456
 34
0.0
100
AcDbRotatedDimension
1001
ACAD
1000
DSTYLE
1002
{
1070
   341
1005
0
1002
}
  0
LINE
  5
18D92
330
18C7A
100
AcDbEntity
  8
部品1
100
AcDbLine
 10
444.9705892765559
 20
3154.494269174624
 30
0.0
 11
1509.470589276487
 21
3154.494269174626
 31
0.0
  0
LINE
  5
18D93
330
18C7A
100
AcDbEntity
  8
部品1
100
AcDbLine
 10
3886.970589276531
 20
1392.494269174596
 30
0.0
 11
3411.970589276556
 21
1392.494269174582
 31
0.0
  0
LINE
  5
18D94
330
18C7A
100
AcDbEntity
  8
部品1
100
AcDbLine
 10
416.9705892765559
 20
3182.494269174509
 30
0.0
 11
3886.970589276556
 21
3182.494269174604
 31
0.0
  0
LINE
  5
18D95
330
18C7A
100
AcDbEntity
  8
部品1
100
AcDbLine
 10
445.4705892765559
 20
2702.494269174509
 30
0.0
 11
1508.470589276487
 21
2702.494269174558
 31
0.0
  0
LINE
  5
18D96
330
18C7A
100
AcDbEntity
  8
細線
 48
50.0
100
AcDbLine
 10
2767.470589276556
 20
3152.494269174611
 30
0.0
 11
1536.470589276487
 21
2702.494269174558
 31
0.0
  0
LINE
  5
18D97
330
18C7A
100
AcDbEntity
  8
部品1
100
AcDbLine
 10
445.4705892765542
 20
3152.494269174509
 30
0.0
 11
1508.470589276485
 21
3152.494269174558
 31
0.0
  0
LINE
  5
18D98
330
18C7A
100
AcDbEntity
  8
細線
 48
50.0
100
AcDbLine
 10
2767.470589276554
 20
2702.494269174615
 30
0.0
 11
1536.470589276485
 21
3152.494269174558
 31
0.0
  0
LINE
  5
18D99
330
18C7A
100
AcDbEntity
  8
破線
 48
10.0
100
AcDbLine
 10
2126.970589276534
 20
1472.494269174502
 30
0.0
 11
1344.47058927653
 21
1472.494269174473
 31
0.0
  0
LINE
  5
18D9A
330
18C7A
100
AcDbEntity
  8
部品1
100
AcDbLine
 10
3830.470589276556
 20
1448.994269174596
 30
0.0
 11
473.4705892764487
 21
1448.994269174476
 31
0.0
  0
DIMENSION
  5
18D9B
330
18C7A
100
AcDbEntity
  8
寸法
100
AcDbDimension
  2
*D7
 10
471.970589276555
 20
3698.302488799491
 30
0.0
 11
108.4853079022819
 21
3698.302488799491
 31
0.0
 12
-3742.925985830444
 22
-6453.628869860112
 32
0.0
 70
   128
 71
     5
 42
55.00000000003456
  3
INABA_S40G
100
AcDbAlignedDimension
 13
416.9705892765205
 23
3182.494269174509
 33
0.0
 14
471.970589276555
 24
3182.494269174509
 34
0.0
100
AcDbRotatedDimension
1001
ACAD
1000
DSTYLE
1002
{
1002
}
  0
DIMENSION
  5
18D9C
330
18C7A
100
AcDbEntity
  8
寸法
100
AcDbDimension
  2
*D6
 10
4534.396935010967
 20
3127.494269174607
 30
0.0
 11
4534.396935010965
 21
3490.979550548844
 31
0.0
 12
-3742.925985830444
 22
-6453.628869860112
 32
0.0
 70
   128
 71
     5
 42
54.99999999999636
  3
INABA_S40G
100
AcDbAlignedDimension
 13
3886.970589276556
 23
3182.494269174604
 33
0.0
 14
3886.970589276556
 24
3127.494269174607
 34
0.0
 50
90.0
100
AcDbRotatedDimension
1001
ACAD
1000
DSTYLE
1002
{
1002
}
  0
DIMENSION
  5
18D9D
330
18C7A
100
AcDbEntity
  8
寸法
100
AcDbDimension
  2
*D5
 10
3886.970589276556
 20
3698.302488799589
 30
0.0
 11
4195.455870650794
 21
3698.302488799589
 31
0.0
 12
-3742.925985830444
 22
-6453.628869860112
 32
0.0
 70
   128
 71
     5
 42
55.0
  3
INABA_S40G
100
AcDbAlignedDimension
 13
3831.970589276556
 23
3182.494269174604
 33
0.0
 14
3886.970589276556
 24
3182.494269174604
 34
0.0
100
AcDbRotatedDimension
1001
ACAD
1000
DSTYLE
1002
{
1002
}
  0
DIMENSION
  5
18D9E
330
18C7A
100
AcDbEntity
  8
寸法
100
AcDbDimension
  2
*D4
 10
3831.970589276556
 20
3698.302488799607
 30
0.0
 11
2151.970589276555
 21
3698.302488799607
 31
0.0
 12
-3742.925985830444
 22
-6453.628869860112
 32
0.0
 70
   128
  1
8X420=<>
 71
     5
 42
3360.000000000001
  3
INABA_S40G
100
AcDbAlignedDimension
 13
471.970589276555
 23
3182.494269174509
 33
0.0
 14
3831.970589276556
 24
3182.494269174604
 34
0.0
100
AcDbRotatedDimension
1001
ACAD
1000
DSTYLE
1002
{
1002
}
  0
DIMENSION
  5
18D9F
330
18C7A
100
AcDbEntity
  8
寸法
100
AcDbDimension
  2
*D3
 10
4899.503876750603
 20
1392.494269174596
 30
0.0
 11
4899.503876750601
 21
2287.4942691746
 31
0.0
 12
-3742.925985830444
 22
-6453.628869860112
 32
0.0
 70
   128
 71
     5
 42
1790.000000000007
  3
INABA_S40G
100
AcDbAlignedDimension
 13
3886.970589276556
 23
3182.494269174604
 33
0.0
 14
3886.970589276531
 24
1392.494269174596
 34
0.0
 50
90.0
100
AcDbRotatedDimension
1001
ACAD
1000
DSTYLE
1002
{
1002
}
  0
ENDBLK
  5
18DA1
330
18C7A
100
AcDbEntity
  8
0
 48
50.0
100
AcDbBlockEnd
  0
BLOCK
  5
1C4CB
330
1C4CA
100
AcDbEntity
  8
0
 48
50.0
100
AcDbBlockBegin
  2
_NONE
 70
     0
 10
0.0
 20
0.0
 30
0.0
  3
_NONE
  1

  0
CIRCLE
  5
1C4CC
330
1C4CA
100
AcDbEntity
  8
0
  6
ByBlock
 62
     0
 48
50.0
100
AcDbCircle
 10
0.0
 20
0.0
 30
0.0
 40
0.25
  0
ENDBLK
  5
1C4CD
330
1C4CA
100
AcDbEntity
  8
0
 48
50.0
100
AcDbBlockEnd
  0
BLOCK
  5
256AC
330
256A2
100
AcDbEntity
  8
0
 48
50.0
100
AcDbBlockBegin
  2
*D19
 70
     1
 10
0.0
 20
0.0
 30
0.0
  3
*D19
  1

  0
LINE
  5
25D9F
330
256A2
100
AcDbEntity
  8
寸法
 62
     0
 48
50.0
370
    -2
100
AcDbLine
 10
8950.599999999999
 20
7456.907777930204
 30
0.0
 11
8950.599999999999
 21
8798.817543578532
 31
0.0
  0
LINE
  5
25DA0
330
256A2
100
AcDbEntity
  8
寸法
 62
     0
 48
50.0
370
    -2
100
AcDbLine
 10
8223.600000000001
 20
7456.907777930204
 30
0.0
 11
8223.600000000001
 21
8798.817543578532
 31
0.0
  0
LINE
  5
25DA1
330
256A2
100
AcDbEntity
  8
寸法
 62
     0
 48
50.0
370
    -2
100
AcDbLine
 10
8950.599999999999
 20
8738.817543578532
 30
0.0
 11
8223.600000000001
 21
8738.817543578532
 31
0.0
  0
INSERT
  5
25DA2
330
256A2
100
AcDbEntity
  8
寸法
 62
     0
 48
50.0
370
    -2
100
AcDbBlockReference
  2
_DOTSMALL
 10
8950.599999999999
 20
8738.817543578532
 30
0.0
 41
100.0
 42
100.0
 43
100.0
  0
INSERT
  5
25DA3
330
256A2
100
AcDbEntity
  8
寸法
 62
     0
 48
50.0
370
    -2
100
AcDbBlockReference
  2
_DOTSMALL
 10
8223.600000000001
 20
8738.817543578532
 30
0.0
 41
100.0
 42
100.0
 43
100.0
 50
180.0
  0
MTEXT
  5
25DA4
330
256A2
100
AcDbEntity
  8
寸法
 62
     7
 48
50.0
100
AcDbMText
 10
8587.100000000001
 20
8838.829354602154
 30
0.0
 40
120.0
 41
0.0
 71
     5
 72
     1
  1
\A1;727
  7
STYLE1
 73
     1
 44
1.0
1001
ACAD
1000
MTEXTBEGIN
1070
    73
1070
     1
1070
    44
1040
1.0
1070
    74
1070
     0
1000
MTEXTEND
  0
POINT
  5
25DA5
330
256A2
100
AcDbEntity
  8
DEFPOINTS
 62
     0
 48
50.0
100
AcDbPoint
 10
8950.599999999999
 20
7436.907777930205
 30
0.0
  0
POINT
  5
25DA6
330
256A2
100
AcDbEntity
  8
DEFPOINTS
 62
     0
 48
50.0
100
AcDbPoint
 10
8223.600000000001
 20
7436.907777930205
 30
0.0
  0
POINT
  5
25DA7
330
256A2
100
AcDbEntity
  8
DEFPOINTS
 62
     0
 48
50.0
100
AcDbPoint
 10
8223.600000000001
 20
8738.817543578532
 30
0.0
  0
ENDBLK
  5
256AD
330
256A2
100
AcDbEntity
  8
0
 48
50.0
100
AcDbBlockEnd
  0
BLOCK
  5
256B7
330
256AE
100
AcDbEntity
  8
0
 48
50.0
100
AcDbBlockBegin
  2
*D20
 70
     1
 10
0.0
 20
0.0
 30
0.0
  3
*D20
  1

  0
LINE
  5
25E80
330
256AE
100
AcDbEntity
  8
寸法
 62
     0
 48
50.0
370
    -2
100
AcDbLine
 10
6693.6
 20
8231.907777930205
 30
0.0
 11
6693.6
 21
9230.128099989126
 31
0.0
  0
LINE
  5
25E81
330
256AE
100
AcDbEntity
  8
寸法
 62
     0
 48
50.0
370
    -2
100
AcDbLine
 10
9753.6
 20
8231.907777930205
 30
0.0
 11
9753.6
 21
9230.128099989126
 31
0.0
  0
LINE
  5
25E82
330
256AE
100
AcDbEntity
  8
寸法
 62
     0
 48
50.0
370
    -2
100
AcDbLine
 10
6693.6
 20
9170.128099989126
 30
0.0
 11
9753.6
 21
9170.128099989126
 31
0.0
  0
INSERT
  5
25E83
330
256AE
100
AcDbEntity
  8
寸法
 62
     0
 48
50.0
370
    -2
100
AcDbBlockReference
  2
_DOTSMALL
 10
6693.6
 20
9170.128099989126
 30
0.0
 41
100.0
 42
100.0
 43
100.0
 50
180.0
  0
INSERT
  5
25E84
330
256AE
100
AcDbEntity
  8
寸法
 62
     0
 48
50.0
370
    -2
100
AcDbBlockReference
  2
_DOTSMALL
 10
9753.6
 20
9170.128099989126
 30
0.0
 41
100.0
 42
100.0
 43
100.0
  0
MTEXT
  5
25E85
330
256AE
100
AcDbEntity
  8
寸法
 62
     7
 48
50.0
100
AcDbMText
 10
8223.600000000001
 20
9270.128099989127
 30
0.0
 40
120.0
 41
0.0
 71
     5
 72
     1
  1
\A1;3060
  7
STYLE1
 73
     1
 44
1.0
1001
ACAD
1000
MTEXTBEGIN
1070
    73
1070
     1
1070
    44
1040
1.0
1070
    74
1070
     0
1000
MTEXTEND
  0
POINT
  5
25E86
330
256AE
100
AcDbEntity
  8
DEFPOINTS
 62
     0
 48
50.0
100
AcDbPoint
 10
6693.6
 20
8211.907777930205
 30
0.0
  0
POINT
  5
25E87
330
256AE
100
AcDbEntity
  8
DEFPOINTS
 62
     0
 48
50.0
100
AcDbPoint
 10
9753.6
 20
8211.907777930205
 30
0.0
  0
POINT
  5
25E88
330
256AE
100
AcDbEntity
  8
DEFPOINTS
 62
     0
 48
50.0
100
AcDbPoint
 10
9753.6
 20
9170.128099989126
 30
0.0
  0
ENDBLK
  5
256B8
330
256AE
100
AcDbEntity
  8
0
 48
50.0
100
AcDbBlockEnd
  0
BLOCK
  5
256C2
330
256B9
100
AcDbEntity
  8
0
 48
50.0
100
AcDbBlockBegin
  2
*D21
 70
     1
 10
0.0
 20
0.0
 30
0.0
  3
*D21
  1

  0
LINE
  5
25E77
330
256B9
100
AcDbEntity
  8
寸法
 62
     0
 48
50.0
370
    -2
100
AcDbLine
 10
9630.600000000001
 20
8158.907777930204
 30
0.0
 11
9630.600000000001
 21
9017.667404472287
 31
0.0
  0
LINE
  5
25E78
330
256B9
100
AcDbEntity
  8
寸法
 62
     0
 48
50.0
370
    -2
100
AcDbLine
 10
6816.600000000001
 20
8158.907777930204
 30
0.0
 11
6816.600000000001
 21
9017.667404472287
 31
0.0
  0
LINE
  5
25E79
330
256B9
100
AcDbEntity
  8
寸法
 62
     0
 48
50.0
370
    -2
100
AcDbLine
 10
9630.600000000001
 20
8957.667404472287
 30
0.0
 11
6816.600000000001
 21
8957.667404472287
 31
0.0
  0
INSERT
  5
25E7A
330
256B9
100
AcDbEntity
  8
寸法
 62
     0
 48
50.0
370
    -2
100
AcDbBlockReference
  2
_DOTSMALL
 10
9630.600000000001
 20
8957.667404472287
 30
0.0
 41
100.0
 42
100.0
 43
100.0
  0
INSERT
  5
25E7B
330
256B9
100
AcDbEntity
  8
寸法
 62
     0
 48
50.0
370
    -2
100
AcDbBlockReference
  2
_DOTSMALL
 10
6816.600000000001
 20
8957.667404472287
 30
0.0
 41
100.0
 42
100.0
 43
100.0
 50
180.0
  0
MTEXT
  5
25E7C
330
256B9
100
AcDbEntity
  8
寸法
 62
     7
 48
50.0
100
AcDbMText
 10
8223.600000000001
 20
9057.679215495909
 30
0.0
 40
120.0
 41
0.0
 71
     5
 72
     1
  1
\A1;2814
  7
STYLE1
 73
     1
 44
1.0
1001
ACAD
1000
MTEXTBEGIN
1070
    73
1070
     1
1070
    44
1040
1.0
1070
    74
1070
     0
1000
MTEXTEND
  0
POINT
  5
25E7D
330
256B9
100
AcDbEntity
  8
DEFPOINTS
 62
     0
 48
50.0
100
AcDbPoint
 10
9630.600000000001
 20
8138.907777930205
 30
0.0
  0
POINT
  5
25E7E
330
256B9
100
AcDbEntity
  8
DEFPOINTS
 62
     0
 48
50.0
100
AcDbPoint
 10
6816.600000000001
 20
8138.907777930205
 30
0.0
  0
POINT
  5
25E7F
330
256B9
100
AcDbEntity
  8
DEFPOINTS
 62
     0
 48
50.0
100
AcDbPoint
 10
6816.600000000001
 20
8957.667404472287
 30
0.0
  0
ENDBLK
  5
256C3
330
256B9
100
AcDbEntity
  8
0
 48
50.0
100
AcDbBlockEnd
  0
BLOCK
  5
256CF
330
256C4
100
AcDbEntity
  8
0
 48
50.0
100
AcDbBlockBegin
  2
*D22
 70
     1
 10
0.0
 20
0.0
 30
0.0
  3
*D22
  1

  0
LINE
  5
26891
330
256C4
100
AcDbEntity
  8
寸法
 62
     0
 48
50.0
370
    -2
100
AcDbLine
 10
6943.600000000002
 20
8091.907777930208
 30
0.0
 11
7200.307249876098
 21
8091.907777930208
 31
0.0
  0
LINE
  5
26892
330
256C4
100
AcDbEntity
  8
寸法
 62
     0
 48
50.0
370
    -2
100
AcDbLine
 10
6943.6
 20
7981.9077779302
 30
0.0
 11
7200.307249876098
 21
7981.9077779302
 31
0.0
  0
LINE
  5
26893
330
256C4
100
AcDbEntity
  8
寸法
 62
     0
 48
50.0
370
    -2
100
AcDbLine
 10
7140.307249876099
 20
8091.907777930208
 30
0.0
 11
7140.307249876099
 21
7981.9077779302
 31
0.0
  0
LINE
  5
26894
330
256C4
100
AcDbEntity
  8
寸法
 62
     0
 48
50.0
370
    -2
100
AcDbLine
 10
7140.307249876099
 20
7981.9077779302
 30
0.0
 11
7140.307249876099
 21
7517.8014787176
 31
0.0
  0
INSERT
  5
26895
330
256C4
100
AcDbEntity
  8
寸法
 62
     0
 48
50.0
370
    -2
100
AcDbBlockReference
  2
_DOTSMALL
 10
7140.307249876099
 20
8091.907777930208
 30
0.0
 41
100.0
 42
100.0
 43
100.0
 50
90.0
  0
INSERT
  5
26896
330
256C4
100
AcDbEntity
  8
寸法
 62
     0
 48
50.0
370
    -2
100
AcDbBlockReference
  2
_DOTSMALL
 10
7140.307249876099
 20
7981.9077779302
 30
0.0
 41
100.0
 42
100.0
 43
100.0
 50
270.0
  0
MTEXT
  5
26897
330
256C4
100
AcDbEntity
  8
寸法
 62
     7
 48
50.0
100
AcDbMText
 10
7040.307249876097
 20
7641.848722812088
 30
0.0
 40
120.0
 41
0.0
 71
     5
 72
     1
  1
\A1;110
  7
STYLE1
 11
0.0000000000000001
 21
1.0
 31
0.0
 73
     1
 44
1.0
1001
ACAD
1000
MTEXTBEGIN
1070
    73
1070
     1
1070
    44
1040
1.0
1070
    74
1070
     0
1000
MTEXTEND
  0
POINT
  5
26898
330
256C4
100
AcDbEntity
  8
DEFPOINTS
 62
     0
 48
50.0
100
AcDbPoint
 10
6923.600000000002
 20
8091.907777930208
 30
0.0
  0
POINT
  5
26899
330
256C4
100
AcDbEntity
  8
DEFPOINTS
 62
     0
 48
50.0
100
AcDbPoint
 10
6923.6
 20
7981.9077779302
 30
0.0
  0
POINT
  5
2689A
330
256C4
100
AcDbEntity
  8
DEFPOINTS
 62
     0
 48
50.0
100
AcDbPoint
 10
7140.307249876099
 20
7981.9077779302
 30
0.0
  0
ENDBLK
  5
256D0
330
256C4
100
AcDbEntity
  8
0
 48
50.0
100
AcDbBlockEnd
  0
BLOCK
  5
256DA
330
256D1
100
AcDbEntity
  8
0
 48
50.0
100
AcDbBlockBegin
  2
*D23
 70
     1
 10
0.0
 20
0.0
 30
0.0
  3
*D23
  1

  0
LINE
  5
25E64
330
256D1
100
AcDbEntity
  8
寸法
 62
     0
 48
50.0
370
    -2
100
AcDbLine
 10
7496.6
 20
7456.907777930204
 30
0.0
 11
7496.6
 21
8798.817543578532
 31
0.0
  0
LINE
  5
25E65
330
256D1
100
AcDbEntity
  8
寸法
 62
     0
 48
50.0
370
    -2
100
AcDbLine
 10
6693.6
 20
8231.907777930205
 30
0.0
 11
6693.6
 21
8798.817543578532
 31
0.0
  0
LINE
  5
25E66
330
256D1
100
AcDbEntity
  8
寸法
 62
     0
 48
50.0
370
    -2
100
AcDbLine
 10
7496.6
 20
8738.817543578532
 30
0.0
 11
6693.6
 21
8738.817543578532
 31
0.0
  0
INSERT
  5
25E67
330
256D1
100
AcDbEntity
  8
寸法
 62
     0
 48
50.0
370
    -2
100
AcDbBlockReference
  2
_DOTSMALL
 10
7496.6
 20
8738.817543578532
 30
0.0
 41
100.0
 42
100.0
 43
100.0
  0
INSERT
  5
25E68
330
256D1
100
AcDbEntity
  8
寸法
 62
     0
 48
50.0
370
    -2
100
AcDbBlockReference
  2
_DOTSMALL
 10
6693.6
 20
8738.817543578532
 30
0.0
 41
100.0
 42
100.0
 43
100.0
 50
180.0
  0
MTEXT
  5
25E69
330
256D1
100
AcDbEntity
  8
寸法
 62
     7
 48
50.0
100
AcDbMText
 10
7095.100000000001
 20
8838.817543578533
 30
0.0
 40
120.0
 41
0.0
 71
     5
 72
     1
  1
\A1;803
  7
STYLE1
 73
     1
 44
1.0
1001
ACAD
1000
MTEXTBEGIN
1070
    73
1070
     1
1070
    44
1040
1.0
1070
    74
1070
     0
1000
MTEXTEND
  0
POINT
  5
25E6A
330
256D1
100
AcDbEntity
  8
DEFPOINTS
 62
     0
 48
50.0
100
AcDbPoint
 10
7496.6
 20
7436.907777930205
 30
0.0
  0
POINT
  5
25E6B
330
256D1
100
AcDbEntity
  8
DEFPOINTS
 62
     0
 48
50.0
100
AcDbPoint
 10
6693.6
 20
8211.907777930205
 30
0.0
  0
POINT
  5
25E6C
330
256D1
100
AcDbEntity
  8
DEFPOINTS
 62
     0
 48
50.0
100
AcDbPoint
 10
6693.6
 20
8738.817543578532
 30
0.0
  0
ENDBLK
  5
256DB
330
256D1
100
AcDbEntity
  8
0
 48
50.0
100
AcDbBlockEnd
  0
BLOCK
  5
256E6
330
256DC
100
AcDbEntity
  8
0
 48
50.0
100
AcDbBlockBegin
  2
*D24
 70
     1
 10
0.0
 20
0.0
 30
0.0
  3
*D24
  1

  0
LINE
  5
25E5B
330
256DC
100
AcDbEntity
  8
寸法
 62
     0
 48
50.0
370
    -2
100
AcDbLine
 10
8223.600000000001
 20
7456.907777930204
 30
0.0
 11
8223.600000000001
 21
8798.817543578532
 31
0.0
  0
LINE
  5
25E5C
330
256DC
100
AcDbEntity
  8
寸法
 62
     0
 48
50.0
370
    -2
100
AcDbLine
 10
7496.6
 20
7456.907777930204
 30
0.0
 11
7496.6
 21
8798.817543578532
 31
0.0
  0
LINE
  5
25E5D
330
256DC
100
AcDbEntity
  8
寸法
 62
     0
 48
50.0
370
    -2
100
AcDbLine
 10
8223.600000000001
 20
8738.817543578532
 30
0.0
 11
7496.6
 21
8738.817543578532
 31
0.0
  0
INSERT
  5
25E5E
330
256DC
100
AcDbEntity
  8
寸法
 62
     0
 48
50.0
370
    -2
100
AcDbBlockReference
  2
_DOTSMALL
 10
8223.600000000001
 20
8738.817543578532
 30
0.0
 41
100.0
 42
100.0
 43
100.0
  0
INSERT
  5
25E5F
330
256DC
100
AcDbEntity
  8
寸法
 62
     0
 48
50.0
370
    -2
100
AcDbBlockReference
  2
_DOTSMALL
 10
7496.6
 20
8738.817543578532
 30
0.0
 41
100.0
 42
100.0
 43
100.0
 50
180.0
  0
MTEXT
  5
25E60
330
256DC
100
AcDbEntity
  8
寸法
 62
     7
 48
50.0
100
AcDbMText
 10
7860.1
 20
8838.829354602154
 30
0.0
 40
120.0
 41
0.0
 71
     5
 72
     1
  1
\A1;727
  7
STYLE1
 73
     1
 44
1.0
1001
ACAD
1000
MTEXTBEGIN
1070
    73
1070
     1
1070
    44
1040
1.0
1070
    74
1070
     0
1000
MTEXTEND
  0
POINT
  5
25E61
330
256DC
100
AcDbEntity
  8
DEFPOINTS
 62
     0
 48
50.0
100
AcDbPoint
 10
8223.600000000001
 20
7436.907777930205
 30
0.0
  0
POINT
  5
25E62
330
256DC
100
AcDbEntity
  8
DEFPOINTS
 62
     0
 48
50.0
100
AcDbPoint
 10
7496.6
 20
7436.907777930205
 30
0.0
  0
POINT
  5
25E63
330
256DC
100
AcDbEntity
  8
DEFPOINTS
 62
     0
 48
50.0
100
AcDbPoint
 10
7496.6
 20
8738.817543578532
 30
0.0
  0
ENDBLK
  5
256E7
330
256DC
100
AcDbEntity
  8
0
 48
50.0
100
AcDbBlockEnd
  0
BLOCK
  5
256F2
330
256E8
100
AcDbEntity
  8
0
 48
50.0
100
AcDbBlockBegin
  2
*D25
 70
     1
 10
0.0
 20
0.0
 30
0.0
  3
*D25
  1

  0
LINE
  5
25E52
330
256E8
100
AcDbEntity
  8
寸法
 62
     0
 48
50.0
370
    -2
100
AcDbLine
 10
6746.6
 20
8088.907777930204
 30
0.0
 11
5523.056296436549
 21
8088.907777930206
 31
0.0
  0
LINE
  5
25E53
330
256E8
100
AcDbEntity
  8
寸法
 62
     0
 48
50.0
370
    -2
100
AcDbLine
 10
6746.600000000007
 20
5694.907777930204
 30
0.0
 11
5523.056296436548
 21
5694.907777930205
 31
0.0
  0
LINE
  5
25E54
330
256E8
100
AcDbEntity
  8
寸法
 62
     0
 48
50.0
370
    -2
100
AcDbLine
 10
5583.056296436549
 20
8088.907777930206
 30
0.0
 11
5583.056296436549
 21
5694.907777930205
 31
0.0
  0
INSERT
  5
25E55
330
256E8
100
AcDbEntity
  8
寸法
 62
     0
 48
50.0
370
    -2
100
AcDbBlockReference
  2
_DOTSMALL
 10
5583.056296436549
 20
8088.907777930206
 30
0.0
 41
100.0
 42
100.0
 43
100.0
 50
90.0
  0
INSERT
  5
25E56
330
256E8
100
AcDbEntity
  8
寸法
 62
     0
 48
50.0
370
    -2
100
AcDbBlockReference
  2
_DOTSMALL
 10
5583.056296436549
 20
5694.907777930205
 30
0.0
 41
100.0
 42
100.0
 43
100.0
 50
270.0
  0
MTEXT
  5
25E57
330
256E8
100
AcDbEntity
  8
寸法
 62
     7
 48
50.0
100
AcDbMText
 10
5483.044485412925
 20
6926.907777930202
 30
0.0
 40
120.0
 41
0.0
 71
     5
 72
     1
  1
\A1;2394
  7
STYLE1
 11
0.0000000000000001
 21
1.0
 31
0.0
 73
     1
 44
1.0
1001
ACAD
1000
MTEXTBEGIN
1070
    73
1070
     1
1070
    44
1040
1.0
1070
    74
1070
     0
1000
MTEXTEND
  0
POINT
  5
25E58
330
256E8
100
AcDbEntity
  8
DEFPOINTS
 62
     0
 48
50.0
100
AcDbPoint
 10
6766.600000000001
 20
8088.907777930204
 30
0.0
  0
POINT
  5
25E59
330
256E8
100
AcDbEntity
  8
DEFPOINTS
 62
     0
 48
50.0
100
AcDbPoint
 10
6766.600000000008
 20
5694.907777930204
 30
0.0
  0
POINT
  5
25E5A
330
256E8
100
AcDbEntity
  8
DEFPOINTS
 62
     0
 48
50.0
100
AcDbPoint
 10
5583.056296436549
 20
5694.907777930205
 30
0.0
  0
ENDBLK
  5
256F3
330
256E8
100
AcDbEntity
  8
0
 48
50.0
100
AcDbBlockEnd
  0
BLOCK
  5
256FD
330
256F4
100
AcDbEntity
  8
0
 48
50.0
100
AcDbBlockBegin
  2
*D26
 70
     1
 10
0.0
 20
0.0
 30
0.0
  3
*D26
  1

  0
LINE
  5
25E49
330
256F4
100
AcDbEntity
  8
寸法
 62
     0
 48
50.0
370
    -2
100
AcDbLine
 10
6673.6
 20
5571.907777930204
 30
0.0
 11
5271.11319971715
 21
5571.907777930205
 31
0.0
  0
LINE
  5
25E4A
330
256F4
100
AcDbEntity
  8
寸法
 62
     0
 48
50.0
370
    -2
100
AcDbLine
 10
6673.6
 20
8211.907777930205
 30
0.0
 11
5271.11319971715
 21
8211.907777930205
 31
0.0
  0
LINE
  5
25E4B
330
256F4
100
AcDbEntity
  8
寸法
 62
     0
 48
50.0
370
    -2
100
AcDbLine
 10
5331.11319971715
 20
5571.907777930205
 30
0.0
 11
5331.113199717151
 21
8211.907777930205
 31
0.0
  0
INSERT
  5
25E4C
330
256F4
100
AcDbEntity
  8
寸法
 62
     0
 48
50.0
370
    -2
100
AcDbBlockReference
  2
_DOTSMALL
 10
5331.11319971715
 20
5571.907777930205
 30
0.0
 41
100.0
 42
100.0
 43
100.0
 50
270.0
  0
INSERT
  5
25E4D
330
256F4
100
AcDbEntity
  8
寸法
 62
     0
 48
50.0
370
    -2
100
AcDbBlockReference
  2
_DOTSMALL
 10
5331.113199717151
 20
8211.907777930205
 30
0.0
 41
100.0
 42
100.0
 43
100.0
 50
90.0
  0
MTEXT
  5
25E4E
330
256F4
100
AcDbEntity
  8
寸法
 62
     7
 48
50.0
100
AcDbMText
 10
5231.101388693527
 20
6856.907777930207
 30
0.0
 40
120.0
 41
0.0
 71
     5
 72
     1
  1
\A1;2640
  7
STYLE1
 11
0.0000000000000001
 21
1.0
 31
0.0
 73
     1
 44
1.0
1001
ACAD
1000
MTEXTBEGIN
1070
    73
1070
     1
1070
    44
1040
1.0
1070
    74
1070
     0
1000
MTEXTEND
  0
POINT
  5
25E4F
330
256F4
100
AcDbEntity
  8
DEFPOINTS
 62
     0
 48
50.0
100
AcDbPoint
 10
6693.6
 20
5571.907777930204
 30
0.0
  0
POINT
  5
25E50
330
256F4
100
AcDbEntity
  8
DEFPOINTS
 62
     0
 48
50.0
100
AcDbPoint
 10
6693.6
 20
8211.907777930205
 30
0.0
  0
POINT
  5
25E51
330
256F4
100
AcDbEntity
  8
DEFPOINTS
 62
     0
 48
50.0
100
AcDbPoint
 10
5331.113199717151
 20
8211.907777930205
 30
0.0
  0
ENDBLK
  5
256FE
330
256F4
100
AcDbEntity
  8
0
 48
50.0
100
AcDbBlockEnd
  0
BLOCK
  5
25722
330
25717
100
AcDbEntity
  8
0
 48
50.0
100
AcDbBlockBegin
  2
*D27
 70
     1
 10
0.0
 20
0.0
 30
0.0
  3
*D27
  1

  0
LINE
  5
25E2B
330
25717
100
AcDbEntity
  8
寸法
 62
     0
 48
50.0
370
    -2
100
AcDbLine
 10
6746.600000000007
 20
5694.907777930204
 30
0.0
 11
5523.056296436548
 21
5694.907777930205
 31
0.0
  0
LINE
  5
25E2C
330
25717
100
AcDbEntity
  8
寸法
 62
     0
 48
50.0
370
    -2
100
AcDbLine
 10
6673.6
 20
5571.907777930204
 30
0.0
 11
5523.056296436548
 21
5571.907777930205
 31
0.0
  0
LINE
  5
25E2D
330
25717
100
AcDbEntity
  8
寸法
 62
     0
 48
50.0
370
    -2
100
AcDbLine
 10
5583.056296436549
 20
5694.907777930205
 30
0.0
 11
5583.056296436549
 21
5571.907777930205
 31
0.0
  0
LINE
  5
25E2E
330
25717
100
AcDbEntity
  8
寸法
 62
     0
 48
50.0
370
    -2
100
AcDbLine
 10
5583.056296436549
 20
5571.907777930205
 30
0.0
 11
5583.056296436549
 21
5160.315894838166
 31
0.0
  0
INSERT
  5
25E2F
330
25717
100
AcDbEntity
  8
寸法
 62
     0
 48
50.0
370
    -2
100
AcDbBlockReference
  2
_DOTSMALL
 10
5583.056296436549
 20
5694.907777930205
 30
0.0
 41
100.0
 42
100.0
 43
100.0
 50
90.0
  0
INSERT
  5
25E30
330
25717
100
AcDbEntity
  8
寸法
 62
     0
 48
50.0
370
    -2
100
AcDbBlockReference
  2
_DOTSMALL
 10
5583.056296436549
 20
5571.907777930205
 30
0.0
 41
100.0
 42
100.0
 43
100.0
 50
270.0
  0
MTEXT
  5
25E31
330
25717
100
AcDbEntity
  8
寸法
 62
     7
 48
50.0
100
AcDbMText
 10
5483.044485412925
 20
5298.801176212406
 30
0.0
 40
120.0
 41
0.0
 71
     5
 72
     1
  1
\A1;123
  7
STYLE1
 11
0.0000000000000001
 21
1.0
 31
0.0
 73
     1
 44
1.0
1001
ACAD
1000
MTEXTBEGIN
1070
    73
1070
     1
1070
    44
1040
1.0
1070
    74
1070
     0
1000
MTEXTEND
  0
POINT
  5
25E32
330
25717
100
AcDbEntity
  8
DEFPOINTS
 62
     0
 48
50.0
100
AcDbPoint
 10
6766.600000000008
 20
5694.907777930204
 30
0.0
  0
POINT
  5
25E33
330
25717
100
AcDbEntity
  8
DEFPOINTS
 62
     0
 48
50.0
100
AcDbPoint
 10
6693.6
 20
5571.907777930204
 30
0.0
  0
POINT
  5
25E34
330
25717
100
AcDbEntity
  8
DEFPOINTS
 62
     0
 48
50.0
100
AcDbPoint
 10
5583.056296436549
 20
5571.907777930205
 30
0.0
  0
ENDBLK
  5
25723
330
25717
100
AcDbEntity
  8
0
 48
50.0
100
AcDbBlockEnd
  0
BLOCK
  5
25739
330
25731
100
AcDbEntity
  8
0
 48
50.0
100
AcDbBlockBegin
  2
*D28
 70
     1
 10
0.0
 20
0.0
 30
0.0
  3
*D28
  1

  0
LINE
  5
25EC1
330
25731
100
AcDbEntity
  8
寸法
 62
     0
 48
50.0
370
    -2
100
AcDbLine
 10
5563.056296436548
 20
5496.907777930211
 30
0.0
 11
5271.113199717151
 21
5496.907777930211
 31
0.0
  0
LINE
  5
25EC2
330
25731
100
AcDbEntity
  8
寸法
 62
     0
 48
50.0
370
    -2
100
AcDbLine
 10
6673.6
 20
5571.907777930204
 30
0.0
 11
5271.113199717151
 21
5571.907777930205
 31
0.0
  0
LINE
  5
25EC3
330
25731
100
AcDbEntity
  8
寸法
 62
     0
 48
50.0
370
    -2
100
AcDbLine
 10
5331.113199717151
 20
5496.907777930211
 30
0.0
 11
5331.113199717151
 21
5396.90777793021
 31
0.0
  0
LINE
  5
25EC4
330
25731
100
AcDbEntity
  8
寸法
 62
     0
 48
50.0
370
    -2
100
AcDbLine
 10
5331.113199717151
 20
5571.907777930205
 30
0.0
 11
5331.113199717151
 21
5671.907777930205
 31
0.0
  0
LINE
  5
25EC5
330
25731
100
AcDbEntity
  8
寸法
 62
     0
 48
50.0
370
    -2
100
AcDbLine
 10
5331.113199717151
 20
5496.907777930211
 30
0.0
 11
5331.113199717151
 21
5571.907777930205
 31
0.0
  0
INSERT
  5
25EC6
330
25731
100
AcDbEntity
  8
寸法
 62
     0
 48
50.0
370
    -2
100
AcDbBlockReference
  2
_DOTSMALL
 10
5331.113199717151
 20
5496.907777930211
 30
0.0
 41
100.0
 42
100.0
 43
100.0
 50
90.0
  0
INSERT
  5
25EC7
330
25731
100
AcDbEntity
  8
寸法
 62
     0
 48
50.0
370
    -2
100
AcDbBlockReference
  2
_DOTSMALL
 10
5331.113199717151
 20
5571.907777930205
 30
0.0
 41
100.0
 42
100.0
 43
100.0
 50
270.0
  0
MTEXT
  5
25EC8
330
25731
100
AcDbEntity
  8
寸法
 62
     7
 48
50.0
100
AcDbMText
 10
5231.11319971715
 20
5534.407777930208
 30
0.0
 40
120.0
 41
0.0
 71
     5
 72
     1
  1
\A1;c
  7
STYLE1
 11
0.0000000000000001
 21
1.0
 31
0.0
 73
     1
 44
1.0
1001
ACAD
1000
MTEXTBEGIN
1070
    73
1070
     1
1070
    44
1040
1.0
1070
    74
1070
     0
1000
MTEXTEND
  0
POINT
  5
25EC9
330
25731
100
AcDbEntity
  8
DEFPOINTS
 62
     0
 48
50.0
100
AcDbPoint
 10
5583.056296436549
 20
5496.907777930211
 30
0.0
  0
POINT
  5
25ECA
330
25731
100
AcDbEntity
  8
DEFPOINTS
 62
     0
 48
50.0
100
AcDbPoint
 10
6693.6
 20
5571.907777930204
 30
0.0
  0
POINT
  5
25ECB
330
25731
100
AcDbEntity
  8
DEFPOINTS
 62
     0
 48
50.0
100
AcDbPoint
 10
5331.113199717151
 20
5571.907777930205
 30
0.0
  0
ENDBLK
  5
2573A
330
25731
100
AcDbEntity
  8
0
 48
50.0
100
AcDbBlockEnd
  0
BLOCK
  5
25753
330
25748
100
AcDbEntity
  8
0
 48
50.0
100
AcDbBlockBegin
  2
*D29
 70
     1
 10
0.0
 20
0.0
 30
0.0
  3
*D29
  1

  0
LINE
  5
25E02
330
25748
100
AcDbEntity
  8
寸法
 62
     0
 48
50.0
370
    -2
100
AcDbLine
 10
6673.6
 20
8211.907777930205
 30
0.0
 11
5523.056296436548
 21
8211.907777930205
 31
0.0
  0
LINE
  5
25E03
330
25748
100
AcDbEntity
  8
寸法
 62
     0
 48
50.0
370
    -2
100
AcDbLine
 10
6746.6
 20
8088.907777930204
 30
0.0
 11
5523.056296436548
 21
8088.907777930206
 31
0.0
  0
LINE
  5
25E04
330
25748
100
AcDbEntity
  8
寸法
 62
     0
 48
50.0
370
    -2
100
AcDbLine
 10
5583.056296436549
 20
8088.907777930206
 30
0.0
 11
5583.056296436549
 21
8211.907777930205
 31
0.0
  0
LINE
  5
25E05
330
25748
100
AcDbEntity
  8
寸法
 62
     0
 48
50.0
370
    -2
100
AcDbLine
 10
5583.056296436549
 20
8211.907777930205
 30
0.0
 11
5583.056296436549
 21
8663.499661022239
 31
0.0
  0
INSERT
  5
25E06
330
25748
100
AcDbEntity
  8
寸法
 62
     0
 48
50.0
370
    -2
100
AcDbBlockReference
  2
_DOTSMALL
 10
5583.056296436549
 20
8088.907777930206
 30
0.0
 41
100.0
 42
100.0
 43
100.0
 50
270.0
  0
INSERT
  5
25E07
330
25748
100
AcDbEntity
  8
寸法
 62
     0
 48
50.0
370
    -2
100
AcDbBlockReference
  2
_DOTSMALL
 10
5583.056296436549
 20
8211.907777930205
 30
0.0
 41
100.0
 42
100.0
 43
100.0
 50
90.0
  0
MTEXT
  5
25E08
330
25748
100
AcDbEntity
  8
寸法
 62
     7
 48
50.0
100
AcDbMText
 10
5483.044485412925
 20
8525.014379648004
 30
0.0
 40
120.0
 41
0.0
 71
     5
 72
     1
  1
\A1;123
  7
STYLE1
 11
0.0000000000000001
 21
1.0
 31
0.0
 73
     1
 44
1.0
1001
ACAD
1000
MTEXTBEGIN
1070
    73
1070
     1
1070
    44
1040
1.0
1070
    74
1070
     0
1000
MTEXTEND
  0
POINT
  5
25E09
330
25748
100
AcDbEntity
  8
DEFPOINTS
 62
     0
 48
50.0
100
AcDbPoint
 10
6693.6
 20
8211.907777930205
 30
0.0
  0
POINT
  5
25E0A
330
25748
100
AcDbEntity
  8
DEFPOINTS
 62
     0
 48
50.0
100
AcDbPoint
 10
6766.600000000001
 20
8088.907777930204
 30
0.0
  0
POINT
  5
25E0B
330
25748
100
AcDbEntity
  8
DEFPOINTS
 62
     0
 48
50.0
100
AcDbPoint
 10
5583.056296436549
 20
8088.907777930206
 30
0.0
  0
ENDBLK
  5
25754
330
25748
100
AcDbEntity
  8
0
 48
50.0
100
AcDbBlockEnd
  0
BLOCK
  5
25760
330
25755
100
AcDbEntity
  8
0
 48
50.0
100
AcDbBlockBegin
  2
*D30
 70
     1
 10
0.0
 20
0.0
 30
0.0
  3
*D30
  1

  0
LINE
  5
25DF8
330
25755
100
AcDbEntity
  8
寸法
 62
     0
 48
50.0
370
    -2
100
AcDbLine
 10
6816.600000000001
 20
8158.907777930204
 30
0.0
 11
6816.600000000001
 21
9017.667404472287
 31
0.0
  0
LINE
  5
25DF9
330
25755
100
AcDbEntity
  8
寸法
 62
     0
 48
50.0
370
    -2
100
AcDbLine
 10
6693.6
 20
8231.907777930205
 30
0.0
 11
6693.6
 21
9017.667404472287
 31
0.0
  0
LINE
  5
25DFA
330
25755
100
AcDbEntity
  8
寸法
 62
     0
 48
50.0
370
    -2
100
AcDbLine
 10
6816.600000000001
 20
8957.667404472287
 30
0.0
 11
6693.6
 21
8957.667404472287
 31
0.0
  0
LINE
  5
25DFB
330
25755
100
AcDbEntity
  8
寸法
 62
     0
 48
50.0
370
    -2
100
AcDbLine
 10
6693.6
 20
8957.667404472287
 30
0.0
 11
6282.008116907963
 21
8957.667404472287
 31
0.0
  0
INSERT
  5
25DFC
330
25755
100
AcDbEntity
  8
寸法
 62
     0
 48
50.0
370
    -2
100
AcDbBlockReference
  2
_DOTSMALL
 10
6816.600000000001
 20
8957.667404472287
 30
0.0
 41
100.0
 42
100.0
 43
100.0
  0
INSERT
  5
25DFD
330
25755
100
AcDbEntity
  8
寸法
 62
     0
 48
50.0
370
    -2
100
AcDbBlockReference
  2
_DOTSMALL
 10
6693.6
 20
8957.667404472287
 30
0.0
 41
100.0
 42
100.0
 43
100.0
 50
180.0
  0
MTEXT
  5
25DFE
330
25755
100
AcDbEntity
  8
寸法
 62
     7
 48
50.0
100
AcDbMText
 10
6420.493398282203
 20
9057.679215495909
 30
0.0
 40
120.0
 41
0.0
 71
     5
 72
     1
  1
\A1;123
  7
STYLE1
 73
     1
 44
1.0
1001
ACAD
1000
MTEXTBEGIN
1070
    73
1070
     1
1070
    44
1040
1.0
1070
    74
1070
     0
1000
MTEXTEND
  0
POINT
  5
25DFF
330
25755
100
AcDbEntity
  8
DEFPOINTS
 62
     0
 48
50.0
100
AcDbPoint
 10
6816.600000000001
 20
8138.907777930205
 30
0.0
  0
POINT
  5
25E00
330
25755
100
AcDbEntity
  8
DEFPOINTS
 62
     0
 48
50.0
100
AcDbPoint
 10
6693.6
 20
8211.907777930205
 30
0.0
  0
POINT
  5
25E01
330
25755
100
AcDbEntity
  8
DEFPOINTS
 62
     0
 48
50.0
100
AcDbPoint
 10
6693.6
 20
8957.667404472287
 30
0.0
  0
ENDBLK
  5
25761
330
25755
100
AcDbEntity
  8
0
 48
50.0
100
AcDbBlockEnd
  0
BLOCK
  5
2576D
330
25762
100
AcDbEntity
  8
0
 48
50.0
100
AcDbBlockBegin
  2
*D31
 70
     1
 10
0.0
 20
0.0
 30
0.0
  3
*D31
  1

  0
LINE
  5
25DED
330
25762
100
AcDbEntity
  8
寸法
 62
     0
 48
50.0
370
    -2
100
AcDbLine
 10
6643.600000000001
 20
8977.667404472283
 30
0.0
 11
6643.600000000001
 21
9230.128099989126
 31
0.0
  0
LINE
  5
25DEE
330
25762
100
AcDbEntity
  8
寸法
 62
     0
 48
50.0
370
    -2
100
AcDbLine
 10
6693.6
 20
8231.907777930205
 30
0.0
 11
6693.6
 21
9230.128099989126
 31
0.0
  0
LINE
  5
25DEF
330
25762
100
AcDbEntity
  8
寸法
 62
     0
 48
50.0
370
    -2
100
AcDbLine
 10
6693.6
 20
9170.128099989126
 30
0.0
 11
6793.600000000001
 21
9170.128099989126
 31
0.0
  0
LINE
  5
25DF0
330
25762
100
AcDbEntity
  8
寸法
 62
     0
 48
50.0
370
    -2
100
AcDbLine
 10
6643.600000000001
 20
9170.128099989126
 30
0.0
 11
6311.250757595082
 21
9170.128099989126
 31
0.0
  0
LINE
  5
25DF1
330
25762
100
AcDbEntity
  8
寸法
 62
     0
 48
50.0
370
    -2
100
AcDbLine
 10
6693.6
 20
9170.128099989126
 30
0.0
 11
6643.600000000001
 21
9170.128099989126
 31
0.0
  0
INSERT
  5
25DF2
330
25762
100
AcDbEntity
  8
寸法
 62
     0
 48
50.0
370
    -2
100
AcDbBlockReference
  2
_DOTSMALL
 10
6693.6
 20
9170.128099989126
 30
0.0
 41
100.0
 42
100.0
 43
100.0
 50
180.0
  0
INSERT
  5
25DF3
330
25762
100
AcDbEntity
  8
寸法
 62
     0
 48
50.0
370
    -2
100
AcDbBlockReference
  2
_DOTSMALL
 10
6643.600000000001
 20
9170.128099989126
 30
0.0
 41
100.0
 42
100.0
 43
100.0
  0
MTEXT
  5
25DF4
330
25762
100
AcDbEntity
  8
寸法
 62
     7
 48
50.0
100
AcDbMText
 10
6377.425378797541
 20
9270.128099989127
 30
0.0
 40
120.0
 41
0.0
 71
     5
 72
     1
  1
\A1;a
  7
STYLE1
 73
     1
 44
1.0
1001
ACAD
1000
MTEXTBEGIN
1070
    73
1070
     1
1070
    44
1040
1.0
1070
    74
1070
     0
1000
MTEXTEND
  0
POINT
  5
25DF5
330
25762
100
AcDbEntity
  8
DEFPOINTS
 62
     0
 48
50.0
100
AcDbPoint
 10
6643.600000000001
 20
8957.667404472283
 30
0.0
  0
POINT
  5
25DF6
330
25762
100
AcDbEntity
  8
DEFPOINTS
 62
     0
 48
50.0
100
AcDbPoint
 10
6693.6
 20
8211.907777930205
 30
0.0
  0
POINT
  5
25DF7
330
25762
100
AcDbEntity
  8
DEFPOINTS
 62
     0
 48
50.0
100
AcDbPoint
 10
6693.6
 20
9170.128099989126
 30
0.0
  0
ENDBLK
  5
2576E
330
25762
100
AcDbEntity
  8
0
 48
50.0
100
AcDbBlockEnd
  0
BLOCK
  5
25779
330
2576F
100
AcDbEntity
  8
0
 48
50.0
100
AcDbBlockBegin
  2
*D32
 70
     1
 10
0.0
 20
0.0
 30
0.0
  3
*D32
  1

  0
LINE
  5
25EAB
330
2576F
100
AcDbEntity
  8
寸法
 62
     0
 48
50.0
370
    -2
100
AcDbLine
 10
6673.6
 20
8211.907777930205
 30
0.0
 11
5271.113199717151
 21
8211.907777930205
 31
0.0
  0
LINE
  5
25EAC
330
2576F
100
AcDbEntity
  8
寸法
 62
     0
 48
50.0
370
    -2
100
AcDbLine
 10
5563.056296436548
 20
8266.907777930205
 30
0.0
 11
5271.113199717151
 21
8266.907777930205
 31
0.0
  0
LINE
  5
25EAD
330
2576F
100
AcDbEntity
  8
寸法
 62
     0
 48
50.0
370
    -2
100
AcDbLine
 10
5331.113199717151
 20
8211.907777930205
 30
0.0
 11
5331.113199717151
 21
8111.907777930206
 31
0.0
  0
LINE
  5
25EAE
330
2576F
100
AcDbEntity
  8
寸法
 62
     0
 48
50.0
370
    -2
100
AcDbLine
 10
5331.113199717151
 20
8266.907777930205
 30
0.0
 11
5331.113199717151
 21
8366.907777930205
 31
0.0
  0
LINE
  5
25EAF
330
2576F
100
AcDbEntity
  8
寸法
 62
     0
 48
50.0
370
    -2
100
AcDbLine
 10
5331.113199717151
 20
8211.907777930205
 30
0.0
 11
5331.113199717151
 21
8266.907777930205
 31
0.0
  0
INSERT
  5
25EB0
330
2576F
100
AcDbEntity
  8
寸法
 62
     0
 48
50.0
370
    -2
100
AcDbBlockReference
  2
_DOTSMALL
 10
5331.113199717151
 20
8211.907777930205
 30
0.0
 41
100.0
 42
100.0
 43
100.0
 50
90.0
  0
INSERT
  5
25EB1
330
2576F
100
AcDbEntity
  8
寸法
 62
     0
 48
50.0
370
    -2
100
AcDbBlockReference
  2
_DOTSMALL
 10
5331.113199717151
 20
8266.907777930205
 30
0.0
 41
100.0
 42
100.0
 43
100.0
 50
270.0
  0
MTEXT
  5
25EB2
330
2576F
100
AcDbEntity
  8
寸法
 62
     7
 48
50.0
100
AcDbMText
 10
5231.11319971715
 20
8239.407777930207
 30
0.0
 40
120.0
 41
0.0
 71
     5
 72
     1
  1
\A1;b
  7
STYLE1
 11
0.0000000000000001
 21
1.0
 31
0.0
 73
     1
 44
1.0
1001
ACAD
1000
MTEXTBEGIN
1070
    73
1070
     1
1070
    44
1040
1.0
1070
    74
1070
     0
1000
MTEXTEND
  0
POINT
  5
25EB3
330
2576F
100
AcDbEntity
  8
DEFPOINTS
 62
     0
 48
50.0
100
AcDbPoint
 10
6693.6
 20
8211.907777930205
 30
0.0
  0
POINT
  5
25EB4
330
2576F
100
AcDbEntity
  8
DEFPOINTS
 62
     0
 48
50.0
100
AcDbPoint
 10
5583.056296436549
 20
8266.907777930205
 30
0.0
  0
POINT
  5
25EB5
330
2576F
100
AcDbEntity
  8
DEFPOINTS
 62
     0
 48
50.0
100
AcDbPoint
 10
5331.113199717151
 20
8266.907777930205
 30
0.0
  0
ENDBLK
  5
2577A
330
2576F
100
AcDbEntity
  8
0
 48
50.0
100
AcDbBlockEnd
  0
BLOCK
  5
25786
330
2577B
100
AcDbEntity
  8
0
 48
50.0
100
AcDbBlockBegin
  2
*D33
 70
     1
 10
0.0
 20
0.0
 30
0.0
  3
*D33
  1

  0
LINE
  5
26887
330
2577B
100
AcDbEntity
  8
寸法
 62
     0
 48
50.0
370
    -2
100
AcDbLine
 10
6943.600000000002
 20
8091.907777930204
 30
0.0
 11
7200.307249876098
 21
8091.907777930204
 31
0.0
  0
LINE
  5
26888
330
2577B
100
AcDbEntity
  8
寸法
 62
     0
 48
50.0
370
    -2
100
AcDbLine
 10
6943.6
 20
8211.907777930205
 30
0.0
 11
7200.307249876098
 21
8211.907777930205
 31
0.0
  0
LINE
  5
26889
330
2577B
100
AcDbEntity
  8
寸法
 62
     0
 48
50.0
370
    -2
100
AcDbLine
 10
7140.307249876099
 20
8091.907777930204
 30
0.0
 11
7140.307249876099
 21
8211.907777930205
 31
0.0
  0
LINE
  5
2688A
330
2577B
100
AcDbEntity
  8
寸法
 62
     0
 48
50.0
370
    -2
100
AcDbLine
 10
7140.307249876099
 20
8211.907777930205
 30
0.0
 11
7140.307249876099
 21
8626.038565297577
 31
0.0
  0
INSERT
  5
2688B
330
2577B
100
AcDbEntity
  8
寸法
 62
     0
 48
50.0
370
    -2
100
AcDbBlockReference
  2
_DOTSMALL
 10
7140.307249876099
 20
8091.907777930204
 30
0.0
 41
100.0
 42
100.0
 43
100.0
 50
270.0
  0
INSERT
  5
2688C
330
2577B
100
AcDbEntity
  8
寸法
 62
     0
 48
50.0
370
    -2
100
AcDbBlockReference
  2
_DOTSMALL
 10
7140.307249876099
 20
8211.907777930205
 30
0.0
 41
100.0
 42
100.0
 43
100.0
 50
90.0
  0
MTEXT
  5
2688D
330
2577B
100
AcDbEntity
  8
寸法
 62
     7
 48
50.0
100
AcDbMText
 10
7040.295438852476
 20
8489.99132120309
 30
0.0
 40
120.0
 41
0.0
 71
     5
 72
     1
  1
\A1;120
  7
STYLE1
 11
0.0000000000000001
 21
1.0
 31
0.0
 73
     1
 44
1.0
1001
ACAD
1000
MTEXTBEGIN
1070
    73
1070
     1
1070
    44
1040
1.0
1070
    74
1070
     0
1000
MTEXTEND
  0
POINT
  5
2688E
330
2577B
100
AcDbEntity
  8
DEFPOINTS
 62
     0
 48
50.0
100
AcDbPoint
 10
6923.600000000002
 20
8091.907777930204
 30
0.0
  0
POINT
  5
2688F
330
2577B
100
AcDbEntity
  8
DEFPOINTS
 62
     0
 48
50.0
100
AcDbPoint
 10
6923.6
 20
8211.907777930205
 30
0.0
  0
POINT
  5
26890
330
2577B
100
AcDbEntity
  8
DEFPOINTS
 62
     0
 48
50.0
100
AcDbPoint
 10
7140.307249876099
 20
8211.907777930205
 30
0.0
  0
ENDBLK
  5
25787
330
2577B
100
AcDbEntity
  8
0
 48
50.0
100
AcDbBlockEnd
  0
BLOCK
  5
2579E
330
25795
100
AcDbEntity
  8
0
 48
50.0
100
AcDbBlockBegin
  2
*D34
 70
     1
 10
0.0
 20
0.0
 30
0.0
  3
*D34
  1

  0
LINE
  5
25DCF
330
25795
100
AcDbEntity
  8
寸法
 62
     0
 48
50.0
370
    -2
100
AcDbLine
 10
7376.6
 20
7336.907777930204
 30
0.0
 11
5802.694058666917
 21
7336.907777930206
 31
0.0
  0
LINE
  5
25DD0
330
25795
100
AcDbEntity
  8
寸法
 62
     0
 48
50.0
370
    -2
100
AcDbLine
 10
6673.600000000002
 20
8211.907777930205
 30
0.0
 11
5802.694058666917
 21
8211.907777930205
 31
0.0
  0
LINE
  5
25DD1
330
25795
100
AcDbEntity
  8
寸法
 62
     0
 48
50.0
370
    -2
100
AcDbLine
 10
5862.694058666917
 20
7336.907777930206
 30
0.0
 11
5862.694058666917
 21
8211.907777930205
 31
0.0
  0
INSERT
  5
25DD2
330
25795
100
AcDbEntity
  8
寸法
 62
     0
 48
50.0
370
    -2
100
AcDbBlockReference
  2
_DOTSMALL
 10
5862.694058666917
 20
7336.907777930206
 30
0.0
 41
100.0
 42
100.0
 43
100.0
 50
270.0
  0
INSERT
  5
25DD3
330
25795
100
AcDbEntity
  8
寸法
 62
     0
 48
50.0
370
    -2
100
AcDbBlockReference
  2
_DOTSMALL
 10
5862.694058666917
 20
8211.907777930205
 30
0.0
 41
100.0
 42
100.0
 43
100.0
 50
90.0
  0
MTEXT
  5
25DD4
330
25795
100
AcDbEntity
  8
寸法
 62
     7
 48
50.0
100
AcDbMText
 10
5762.694058666916
 20
7774.407777930206
 30
0.0
 40
120.0
 41
0.0
 71
     5
 72
     1
  1
\A1;875
  7
STYLE1
 11
0.0000000000000001
 21
1.0
 31
0.0
 73
     1
 44
1.0
1001
ACAD
1000
MTEXTBEGIN
1070
    73
1070
     1
1070
    44
1040
1.0
1070
    74
1070
     0
1000
MTEXTEND
  0
POINT
  5
25DD5
330
25795
100
AcDbEntity
  8
DEFPOINTS
 62
     0
 48
50.0
100
AcDbPoint
 10
7396.600000000001
 20
7336.907777930204
 30
0.0
  0
POINT
  5
25DD6
330
25795
100
AcDbEntity
  8
DEFPOINTS
 62
     0
 48
50.0
100
AcDbPoint
 10
6693.600000000002
 20
8211.907777930205
 30
0.0
  0
POINT
  5
25DD7
330
25795
100
AcDbEntity
  8
DEFPOINTS
 62
     0
 48
50.0
100
AcDbPoint
 10
5862.694058666917
 20
8211.907777930205
 30
0.0
  0
ENDBLK
  5
2579F
330
25795
100
AcDbEntity
  8
0
 48
50.0
100
AcDbBlockEnd
  0
BLOCK
  5
257B7
330
257AD
100
AcDbEntity
  8
0
 48
50.0
100
AcDbBlockBegin
  2
*D35
 70
     1
 10
0.0
 20
0.0
 30
0.0
  3
*D35
  1

  0
LINE
  5
25D82
330
257AD
100
AcDbEntity
  8
寸法
 62
     0
 48
50.0
370
    -2
100
AcDbLine
 10
9753.6
 20
8231.907777930205
 30
0.0
 11
9753.6
 21
8798.817543578532
 31
0.0
  0
LINE
  5
25D83
330
257AD
100
AcDbEntity
  8
寸法
 62
     0
 48
50.0
370
    -2
100
AcDbLine
 10
8950.599999999999
 20
7456.907777930204
 30
0.0
 11
8950.599999999999
 21
8798.817543578532
 31
0.0
  0
LINE
  5
25D84
330
257AD
100
AcDbEntity
  8
寸法
 62
     0
 48
50.0
370
    -2
100
AcDbLine
 10
9753.6
 20
8738.817543578532
 30
0.0
 11
8950.599999999999
 21
8738.817543578532
 31
0.0
  0
INSERT
  5
25D85
330
257AD
100
AcDbEntity
  8
寸法
 62
     0
 48
50.0
370
    -2
100
AcDbBlockReference
  2
_DOTSMALL
 10
9753.6
 20
8738.817543578532
 30
0.0
 41
100.0
 42
100.0
 43
100.0
  0
INSERT
  5
25D86
330
257AD
100
AcDbEntity
  8
寸法
 62
     0
 48
50.0
370
    -2
100
AcDbBlockReference
  2
_DOTSMALL
 10
8950.599999999999
 20
8738.817543578532
 30
0.0
 41
100.0
 42
100.0
 43
100.0
 50
180.0
  0
MTEXT
  5
25D87
330
257AD
100
AcDbEntity
  8
寸法
 62
     7
 48
50.0
100
AcDbMText
 10
9324.518522006279
 20
8838.817543578533
 30
0.0
 40
120.0
 41
0.0
 71
     5
 72
     1
  1
\A1;803
  7
STYLE1
 73
     1
 44
1.0
1001
ACAD
1000
MTEXTBEGIN
1070
    73
1070
     1
1070
    44
1040
1.0
1070
    74
1070
     0
1000
MTEXTEND
  0
POINT
  5
25D88
330
257AD
100
AcDbEntity
  8
DEFPOINTS
 62
     0
 48
50.0
100
AcDbPoint
 10
9753.6
 20
8211.907777930205
 30
0.0
  0
POINT
  5
25D89
330
257AD
100
AcDbEntity
  8
DEFPOINTS
 62
     0
 48
50.0
100
AcDbPoint
 10
8950.599999999999
 20
7436.907777930205
 30
0.0
  0
POINT
  5
25D8A
330
257AD
100
AcDbEntity
  8
DEFPOINTS
 62
     0
 48
50.0
100
AcDbPoint
 10
8950.599999999999
 20
8738.817543578532
 30
0.0
  0
ENDBLK
  5
257B8
330
257AD
100
AcDbEntity
  8
0
 48
50.0
100
AcDbBlockEnd
  0
BLOCK
  5
257C3
330
257B9
100
AcDbEntity
  8
0
 48
50.0
100
AcDbBlockBegin
  2
*D36
 70
     1
 10
0.0
 20
0.0
 30
0.0
  3
*D36
  1

  0
LINE
  5
25DC6
330
257B9
100
AcDbEntity
  8
寸法
 62
     0
 48
50.0
370
    -2
100
AcDbLine
 10
7376.6
 20
7336.907777930204
 30
0.0
 11
5802.694058666917
 21
7336.907777930206
 31
0.0
  0
LINE
  5
25DC7
330
257B9
100
AcDbEntity
  8
寸法
 62
     0
 48
50.0
370
    -2
100
AcDbLine
 10
7376.6
 20
6446.907777930204
 30
0.0
 11
5802.694058666917
 21
6446.907777930205
 31
0.0
  0
LINE
  5
25DC8
330
257B9
100
AcDbEntity
  8
寸法
 62
     0
 48
50.0
370
    -2
100
AcDbLine
 10
5862.694058666917
 20
7336.907777930206
 30
0.0
 11
5862.694058666917
 21
6446.907777930205
 31
0.0
  0
INSERT
  5
25DC9
330
257B9
100
AcDbEntity
  8
寸法
 62
     0
 48
50.0
370
    -2
100
AcDbBlockReference
  2
_DOTSMALL
 10
5862.694058666917
 20
7336.907777930206
 30
0.0
 41
100.0
 42
100.0
 43
100.0
 50
90.0
  0
INSERT
  5
25DCA
330
257B9
100
AcDbEntity
  8
寸法
 62
     0
 48
50.0
370
    -2
100
AcDbBlockReference
  2
_DOTSMALL
 10
5862.694058666917
 20
6446.907777930205
 30
0.0
 41
100.0
 42
100.0
 43
100.0
 50
270.0
  0
MTEXT
  5
25DCB
330
257B9
100
AcDbEntity
  8
寸法
 62
     7
 48
50.0
100
AcDbMText
 10
5762.694058666915
 20
6891.907777930206
 30
0.0
 40
120.0
 41
0.0
 71
     5
 72
     1
  1
\A1;890
  7
STYLE1
 11
0.0000000000000001
 21
1.0
 31
0.0
 73
     1
 44
1.0
1001
ACAD
1000
MTEXTBEGIN
1070
    73
1070
     1
1070
    44
1040
1.0
1070
    74
1070
     0
1000
MTEXTEND
  0
POINT
  5
25DCC
330
257B9
100
AcDbEntity
  8
DEFPOINTS
 62
     0
 48
50.0
100
AcDbPoint
 10
7396.600000000001
 20
7336.907777930204
 30
0.0
  0
POINT
  5
25DCD
330
257B9
100
AcDbEntity
  8
DEFPOINTS
 62
     0
 48
50.0
100
AcDbPoint
 10
7396.600000000001
 20
6446.907777930204
 30
0.0
  0
POINT
  5
25DCE
330
257B9
100
AcDbEntity
  8
DEFPOINTS
 62
     0
 48
50.0
100
AcDbPoint
 10
5862.694058666917
 20
6446.907777930205
 30
0.0
  0
ENDBLK
  5
257C4
330
257B9
100
AcDbEntity
  8
0
 48
50.0
100
AcDbBlockEnd
  0
BLOCK
  5
257CF
330
257C5
100
AcDbEntity
  8
0
 48
50.0
100
AcDbBlockBegin
  2
*D37
 70
     1
 10
0.0
 20
0.0
 30
0.0
  3
*D37
  1

  0
LINE
  5
25DBD
330
257C5
100
AcDbEntity
  8
寸法
 62
     0
 48
50.0
370
    -2
100
AcDbLine
 10
6673.6
 20
5571.907777930213
 30
0.0
 11
5802.694058666916
 21
5571.907777930213
 31
0.0
  0
LINE
  5
25DBE
330
257C5
100
AcDbEntity
  8
寸法
 62
     0
 48
50.0
370
    -2
100
AcDbLine
 10
7376.6
 20
6446.907777930204
 30
0.0
 11
5802.694058666917
 21
6446.907777930205
 31
0.0
  0
LINE
  5
25DBF
330
257C5
100
AcDbEntity
  8
寸法
 62
     0
 48
50.0
370
    -2
100
AcDbLine
 10
5862.694058666916
 20
5571.907777930213
 30
0.0
 11
5862.694058666917
 21
6446.907777930205
 31
0.0
  0
INSERT
  5
25DC0
330
257C5
100
AcDbEntity
  8
寸法
 62
     0
 48
50.0
370
    -2
100
AcDbBlockReference
  2
_DOTSMALL
 10
5862.694058666916
 20
5571.907777930213
 30
0.0
 41
100.0
 42
100.0
 43
100.0
 50
270.0
  0
INSERT
  5
25DC1
330
257C5
100
AcDbEntity
  8
寸法
 62
     0
 48
50.0
370
    -2
100
AcDbBlockReference
  2
_DOTSMALL
 10
5862.694058666917
 20
6446.907777930205
 30
0.0
 41
100.0
 42
100.0
 43
100.0
 50
90.0
  0
MTEXT
  5
25DC2
330
257C5
100
AcDbEntity
  8
寸法
 62
     7
 48
50.0
100
AcDbMText
 10
5762.694058666915
 20
6086.120553595381
 30
0.0
 40
120.0
 41
0.0
 71
     5
 72
     1
  1
\A1;875
  7
STYLE1
 11
0.0000000000000001
 21
1.0
 31
0.0
 73
     1
 44
1.0
1001
ACAD
1000
MTEXTBEGIN
1070
    73
1070
     1
1070
    44
1040
1.0
1070
    74
1070
     0
1000
MTEXTEND
  0
POINT
  5
25DC3
330
257C5
100
AcDbEntity
  8
DEFPOINTS
 62
     0
 48
50.0
100
AcDbPoint
 10
6693.6
 20
5571.907777930213
 30
0.0
  0
POINT
  5
25DC4
330
257C5
100
AcDbEntity
  8
DEFPOINTS
 62
     0
 48
50.0
100
AcDbPoint
 10
7396.600000000001
 20
6446.907777930204
 30
0.0
  0
POINT
  5
25DC5
330
257C5
100
AcDbEntity
  8
DEFPOINTS
 62
     0
 48
50.0
100
AcDbPoint
 10
5862.694058666917
 20
6446.907777930205
 30
0.0
  0
ENDBLK
  5
257D0
330
257C5
100
AcDbEntity
  8
0
 48
50.0
100
AcDbBlockEnd
  0
BLOCK
  5
257DC
330
257D1
100
AcDbEntity
  8
0
 48
50.0
100
AcDbBlockBegin
  2
*D38
 70
     1
 10
0.0
 20
0.0
 30
0.0
  3
*D38
  1

  0
LINE
  5
25DB3
330
257D1
100
AcDbEntity
  8
寸法
 62
     0
 48
50.0
370
    -2
100
AcDbLine
 10
9753.6
 20
8231.907777930205
 30
0.0
 11
9753.6
 21
9017.667404472287
 31
0.0
  0
LINE
  5
25DB4
330
257D1
100
AcDbEntity
  8
寸法
 62
     0
 48
50.0
370
    -2
100
AcDbLine
 10
9630.600000000001
 20
8158.907777930204
 30
0.0
 11
9630.600000000001
 21
9017.667404472287
 31
0.0
  0
LINE
  5
25DB5
330
257D1
100
AcDbEntity
  8
寸法
 62
     0
 48
50.0
370
    -2
100
AcDbLine
 10
9630.600000000001
 20
8957.667404472287
 30
0.0
 11
9753.6
 21
8957.667404472287
 31
0.0
  0
LINE
  5
25DB6
330
257D1
100
AcDbEntity
  8
寸法
 62
     0
 48
50.0
370
    -2
100
AcDbLine
 10
9753.6
 20
8957.667404472287
 30
0.0
 11
10165.19188309203
 21
8957.667404472287
 31
0.0
  0
INSERT
  5
25DB7
330
257D1
100
AcDbEntity
  8
寸法
 62
     0
 48
50.0
370
    -2
100
AcDbBlockReference
  2
_DOTSMALL
 10
9630.600000000001
 20
8957.667404472287
 30
0.0
 41
100.0
 42
100.0
 43
100.0
 50
180.0
  0
INSERT
  5
25DB8
330
257D1
100
AcDbEntity
  8
寸法
 62
     0
 48
50.0
370
    -2
100
AcDbBlockReference
  2
_DOTSMALL
 10
9753.6
 20
8957.667404472287
 30
0.0
 41
100.0
 42
100.0
 43
100.0
  0
MTEXT
  5
25DB9
330
257D1
100
AcDbEntity
  8
寸法
 62
     7
 48
50.0
100
AcDbMText
 10
10026.7066017178
 20
9057.679215495909
 30
0.0
 40
120.0
 41
0.0
 71
     5
 72
     1
  1
\A1;123
  7
STYLE1
 73
     1
 44
1.0
1001
ACAD
1000
MTEXTBEGIN
1070
    73
1070
     1
1070
    44
1040
1.0
1070
    74
1070
     0
1000
MTEXTEND
  0
POINT
  5
25DBA
330
257D1
100
AcDbEntity
  8
DEFPOINTS
 62
     0
 48
50.0
100
AcDbPoint
 10
9753.6
 20
8211.907777930205
 30
0.0
  0
POINT
  5
25DBB
330
257D1
100
AcDbEntity
  8
DEFPOINTS
 62
     0
 48
50.0
100
AcDbPoint
 10
9630.600000000001
 20
8138.907777930205
 30
0.0
  0
POINT
  5
25DBC
330
257D1
100
AcDbEntity
  8
DEFPOINTS
 62
     0
 48
50.0
100
AcDbPoint
 10
9630.600000000001
 20
8957.667404472287
 30
0.0
  0
ENDBLK
  5
257DD
330
257D1
100
AcDbEntity
  8
0
 48
50.0
100
AcDbBlockEnd
  0
BLOCK
  5
257E9
330
257DE
100
AcDbEntity
  8
0
 48
50.0
100
AcDbBlockBegin
  2
*D39
 70
     1
 10
0.0
 20
0.0
 30
0.0
  3
*D39
  1

  0
LINE
  5
25DA8
330
257DE
100
AcDbEntity
  8
寸法
 62
     0
 48
50.0
370
    -2
100
AcDbLine
 10
9753.6
 20
8231.907777930205
 30
0.0
 11
9753.6
 21
9230.128099989126
 31
0.0
  0
LINE
  5
25DA9
330
257DE
100
AcDbEntity
  8
寸法
 62
     0
 48
50.0
370
    -2
100
AcDbLine
 10
9803.600000000001
 20
8977.66740447229
 30
0.0
 11
9803.600000000001
 21
9230.128099989126
 31
0.0
  0
LINE
  5
25DAA
330
257DE
100
AcDbEntity
  8
寸法
 62
     0
 48
50.0
370
    -2
100
AcDbLine
 10
9753.6
 20
9170.128099989126
 30
0.0
 11
9653.6
 21
9170.128099989126
 31
0.0
  0
LINE
  5
25DAB
330
257DE
100
AcDbEntity
  8
寸法
 62
     0
 48
50.0
370
    -2
100
AcDbLine
 10
9803.600000000001
 20
9170.128099989126
 30
0.0
 11
10135.94924240492
 21
9170.128099989126
 31
0.0
  0
LINE
  5
25DAC
330
257DE
100
AcDbEntity
  8
寸法
 62
     0
 48
50.0
370
    -2
100
AcDbLine
 10
9753.6
 20
9170.128099989126
 30
0.0
 11
9803.600000000001
 21
9170.128099989126
 31
0.0
  0
INSERT
  5
25DAD
330
257DE
100
AcDbEntity
  8
寸法
 62
     0
 48
50.0
370
    -2
100
AcDbBlockReference
  2
_DOTSMALL
 10
9753.6
 20
9170.128099989126
 30
0.0
 41
100.0
 42
100.0
 43
100.0
  0
INSERT
  5
25DAE
330
257DE
100
AcDbEntity
  8
寸法
 62
     0
 48
50.0
370
    -2
100
AcDbBlockReference
  2
_DOTSMALL
 10
9803.600000000001
 20
9170.128099989126
 30
0.0
 41
100.0
 42
100.0
 43
100.0
 50
180.0
  0
MTEXT
  5
25DAF
330
257DE
100
AcDbEntity
  8
寸法
 62
     7
 48
50.0
100
AcDbMText
 10
10069.77462120246
 20
9270.128099989127
 30
0.0
 40
120.0
 41
0.0
 71
     5
 72
     1
  1
\A1;a
  7
STYLE1
 73
     1
 44
1.0
1001
ACAD
1000
MTEXTBEGIN
1070
    73
1070
     1
1070
    44
1040
1.0
1070
    74
1070
     0
1000
MTEXTEND
  0
POINT
  5
25DB0
330
257DE
100
AcDbEntity
  8
DEFPOINTS
 62
     0
 48
50.0
100
AcDbPoint
 10
9753.6
 20
8211.907777930205
 30
0.0
  0
POINT
  5
25DB1
330
257DE
100
AcDbEntity
  8
DEFPOINTS
 62
     0
 48
50.0
100
AcDbPoint
 10
9803.600000000001
 20
8957.667404472292
 30
0.0
  0
POINT
  5
25DB2
330
257DE
100
AcDbEntity
  8
DEFPOINTS
 62
     0
 48
50.0
100
AcDbPoint
 10
9803.600000000001
 20
9170.128099989126
 30
0.0
  0
ENDBLK
  5
257EA
330
257DE
100
AcDbEntity
  8
0
 48
50.0
100
AcDbBlockEnd
  0
BLOCK
  5
2620A
330
261FF
100
AcDbEntity
  8
0
 48
50.0
100
AcDbBlockBegin
  2
*D40
 70
     1
 10
0.0
 20
0.0
 30
0.0
  3
*D40
  1

  0
LINE
  5
2687D
330
261FF
100
AcDbEntity
  8
寸法
 62
     0
 48
50.0
370
    -2
100
AcDbLine
 10
9633.600000000001
 20
7961.907777930204
 30
0.0
 11
9633.600000000001
 21
7694.199110429832
 31
0.0
  0
LINE
  5
2687E
330
261FF
100
AcDbEntity
  8
寸法
 62
     0
 48
50.0
370
    -2
100
AcDbLine
 10
9523.6
 20
7961.907777930204
 30
0.0
 11
9523.6
 21
7694.199110429832
 31
0.0
  0
LINE
  5
2687F
330
261FF
100
AcDbEntity
  8
寸法
 62
     0
 48
50.0
370
    -2
100
AcDbLine
 10
9633.600000000001
 20
7754.199110429832
 30
0.0
 11
9523.6
 21
7754.199110429832
 31
0.0
  0
LINE
  5
26880
330
261FF
100
AcDbEntity
  8
寸法
 62
     0
 48
50.0
370
    -2
100
AcDbLine
 10
9523.6
 20
7754.199110429832
 30
0.0
 11
9129.493700787401
 21
7754.199110429832
 31
0.0
  0
INSERT
  5
26881
330
261FF
100
AcDbEntity
  8
寸法
 62
     0
 48
50.0
370
    -2
100
AcDbBlockReference
  2
_DOTSMALL
 10
9633.600000000001
 20
7754.199110429832
 30
0.0
 41
100.0
 42
100.0
 43
100.0
  0
INSERT
  5
26882
330
261FF
100
AcDbEntity
  8
寸法
 62
     0
 48
50.0
370
    -2
100
AcDbBlockReference
  2
_DOTSMALL
 10
9523.6
 20
7754.199110429832
 30
0.0
 41
100.0
 42
100.0
 43
100.0
 50
180.0
  0
MTEXT
  5
26883
330
261FF
100
AcDbEntity
  8
寸法
 62
     7
 48
50.0
100
AcDbMText
 10
9253.540944881889
 20
7854.199110429831
 30
0.0
 40
120.0
 41
0.0
 71
     5
 72
     1
  1
\A1;110
  7
STYLE1
 73
     1
 44
1.0
1001
ACAD
1000
MTEXTBEGIN
1070
    73
1070
     1
1070
    44
1040
1.0
1070
    74
1070
     0
1000
MTEXTEND
  0
POINT
  5
26884
330
261FF
100
AcDbEntity
  8
DEFPOINTS
 62
     0
 48
50.0
100
AcDbPoint
 10
9633.600000000001
 20
7981.907777930205
 30
0.0
  0
POINT
  5
26885
330
261FF
100
AcDbEntity
  8
DEFPOINTS
 62
     0
 48
50.0
100
AcDbPoint
 10
9523.6
 20
7981.907777930205
 30
0.0
  0
POINT
  5
26886
330
261FF
100
AcDbEntity
  8
DEFPOINTS
 62
     0
 48
50.0
100
AcDbPoint
 10
9523.6
 20
7754.199110429832
 30
0.0
  0
ENDBLK
  5
2620B
330
261FF
100
AcDbEntity
  8
0
 48
50.0
100
AcDbBlockEnd
  0
BLOCK
  5
26217
330
2620C
100
AcDbEntity
  8
0
 48
50.0
100
AcDbBlockBegin
  2
*D41
 70
     1
 10
0.0
 20
0.0
 30
0.0
  3
*D41
  1

  0
LINE
  5
26873
330
2620C
100
AcDbEntity
  8
寸法
 62
     0
 48
50.0
370
    -2
100
AcDbLine
 10
9753.6
 20
7961.907777930206
 30
0.0
 11
9753.6
 21
7694.199110429832
 31
0.0
  0
LINE
  5
26874
330
2620C
100
AcDbEntity
  8
寸法
 62
     0
 48
50.0
370
    -2
100
AcDbLine
 10
9633.600000000001
 20
7961.907777930204
 30
0.0
 11
9633.600000000001
 21
7694.199110429832
 31
0.0
  0
LINE
  5
26875
330
2620C
100
AcDbEntity
  8
寸法
 62
     0
 48
50.0
370
    -2
100
AcDbLine
 10
9633.600000000001
 20
7754.199110429832
 30
0.0
 11
9753.6
 21
7754.199110429832
 31
0.0
  0
LINE
  5
26876
330
2620C
100
AcDbEntity
  8
寸法
 62
     0
 48
50.0
370
    -2
100
AcDbLine
 10
9753.6
 20
7754.199110429832
 30
0.0
 11
10159.7062992126
 21
7754.199110429832
 31
0.0
  0
INSERT
  5
26877
330
2620C
100
AcDbEntity
  8
寸法
 62
     0
 48
50.0
370
    -2
100
AcDbBlockReference
  2
_DOTSMALL
 10
9633.600000000001
 20
7754.199110429832
 30
0.0
 41
100.0
 42
100.0
 43
100.0
 50
180.0
  0
INSERT
  5
26878
330
2620C
100
AcDbEntity
  8
寸法
 62
     0
 48
50.0
370
    -2
100
AcDbBlockReference
  2
_DOTSMALL
 10
9753.6
 20
7754.199110429832
 30
0.0
 41
100.0
 42
100.0
 43
100.0
  0
MTEXT
  5
26879
330
2620C
100
AcDbEntity
  8
寸法
 62
     7
 48
50.0
100
AcDbMText
 10
10023.65905511811
 20
7854.210921453454
 30
0.0
 40
120.0
 41
0.0
 71
     5
 72
     1
  1
\A1;120
  7
STYLE1
 73
     1
 44
1.0
1001
ACAD
1000
MTEXTBEGIN
1070
    73
1070
     1
1070
    44
1040
1.0
1070
    74
1070
     0
1000
MTEXTEND
  0
POINT
  5
2687A
330
2620C
100
AcDbEntity
  8
DEFPOINTS
 62
     0
 48
50.0
100
AcDbPoint
 10
9753.6
 20
7981.907777930207
 30
0.0
  0
POINT
  5
2687B
330
2620C
100
AcDbEntity
  8
DEFPOINTS
 62
     0
 48
50.0
100
AcDbPoint
 10
9633.600000000001
 20
7981.907777930205
 30
0.0
  0
POINT
  5
2687C
330
2620C
100
AcDbEntity
  8
DEFPOINTS
 62
     0
 48
50.0
100
AcDbPoint
 10
9633.600000000001
 20
7754.199110429832
 30
0.0
  0
ENDBLK
  5
26218
330
2620C
100
AcDbEntity
  8
0
 48
50.0
100
AcDbBlockEnd
  0
BLOCK
  5
26584
330
26579
100
AcDbEntity
  8
0
 48
50.0
100
AcDbBlockBegin
  2
*D42
 70
     1
 10
0.0
 20
0.0
 30
0.0
  3
*D42
  1

  0
LINE
  5
268A5
330
26579
100
AcDbEntity
  8
寸法
 62
     0
 48
50.0
370
    -2
100
AcDbLine
 10
6943.6
 20
5691.907777930211
 30
0.0
 11
7102.197085004765
 21
5691.907777930211
 31
0.0
  0
LINE
  5
268A6
330
26579
100
AcDbEntity
  8
寸法
 62
     0
 48
50.0
370
    -2
100
AcDbLine
 10
6943.6
 20
5571.90777793016
 30
0.0
 11
7102.197085004765
 21
5571.90777793016
 31
0.0
  0
LINE
  5
268A7
330
26579
100
AcDbEntity
  8
寸法
 62
     0
 48
50.0
370
    -2
100
AcDbLine
 10
7042.197085004764
 20
5691.907777930211
 30
0.0
 11
7042.197085004764
 21
5571.90777793016
 31
0.0
  0
LINE
  5
268A8
330
26579
100
AcDbEntity
  8
寸法
 62
     0
 48
50.0
370
    -2
100
AcDbLine
 10
7042.197085004764
 20
5571.90777793016
 30
0.0
 11
7042.197085004764
 21
5165.80147871756
 31
0.0
  0
INSERT
  5
268A9
330
26579
100
AcDbEntity
  8
寸法
 62
     0
 48
50.0
370
    -2
100
AcDbBlockReference
  2
_DOTSMALL
 10
7042.197085004764
 20
5691.907777930211
 30
0.0
 41
100.0
 42
100.0
 43
100.0
 50
90.0
  0
INSERT
  5
268AA
330
26579
100
AcDbEntity
  8
寸法
 62
     0
 48
50.0
370
    -2
100
AcDbBlockReference
  2
_DOTSMALL
 10
7042.197085004764
 20
5571.90777793016
 30
0.0
 41
100.0
 42
100.0
 43
100.0
 50
270.0
  0
MTEXT
  5
268AB
330
26579
100
AcDbEntity
  8
寸法
 62
     7
 48
50.0
100
AcDbMText
 10
6942.185273981142
 20
5301.848722812049
 30
0.0
 40
120.0
 41
0.0
 71
     5
 72
     1
  1
\A1;120
  7
STYLE1
 11
0.0000000000000001
 21
1.0
 31
0.0
 73
     1
 44
1.0
1001
ACAD
1000
MTEXTBEGIN
1070
    73
1070
     1
1070
    44
1040
1.0
1070
    74
1070
     0
1000
MTEXTEND
  0
POINT
  5
268AC
330
26579
100
AcDbEntity
  8
DEFPOINTS
 62
     0
 48
50.0
100
AcDbPoint
 10
6923.6
 20
5691.907777930211
 30
0.0
  0
POINT
  5
268AD
330
26579
100
AcDbEntity
  8
DEFPOINTS
 62
     0
 48
50.0
100
AcDbPoint
 10
6923.6
 20
5571.90777793016
 30
0.0
  0
POINT
  5
268AE
330
26579
100
AcDbEntity
  8
DEFPOINTS
 62
     0
 48
50.0
100
AcDbPoint
 10
7042.197085004764
 20
5571.90777793016
 30
0.0
  0
ENDBLK
  5
26585
330
26579
100
AcDbEntity
  8
0
 48
50.0
100
AcDbBlockEnd
  0
BLOCK
  5
26591
330
26586
100
AcDbEntity
  8
0
 48
50.0
100
AcDbBlockBegin
  2
*D43
 70
     1
 10
0.0
 20
0.0
 30
0.0
  3
*D43
  1

  0
LINE
  5
2689B
330
26586
100
AcDbEntity
  8
寸法
 62
     0
 48
50.0
370
    -2
100
AcDbLine
 10
6943.6
 20
5691.907777930207
 30
0.0
 11
7102.197085004765
 21
5691.907777930207
 31
0.0
  0
LINE
  5
2689C
330
26586
100
AcDbEntity
  8
寸法
 62
     0
 48
50.0
370
    -2
100
AcDbLine
 10
6943.6
 20
5801.907777930163
 30
0.0
 11
7102.197085004765
 21
5801.907777930163
 31
0.0
  0
LINE
  5
2689D
330
26586
100
AcDbEntity
  8
寸法
 62
     0
 48
50.0
370
    -2
100
AcDbLine
 10
7042.197085004764
 20
5691.907777930207
 30
0.0
 11
7042.197085004764
 21
5801.907777930163
 31
0.0
  0
LINE
  5
2689E
330
26586
100
AcDbEntity
  8
寸法
 62
     0
 48
50.0
370
    -2
100
AcDbLine
 10
7042.197085004764
 20
5801.907777930163
 30
0.0
 11
7042.197085004765
 21
6162.00226611914
 31
0.0
  0
INSERT
  5
2689F
330
26586
100
AcDbEntity
  8
寸法
 62
     0
 48
50.0
370
    -2
100
AcDbBlockReference
  2
_DOTSMALL
 10
7042.197085004764
 20
5691.907777930207
 30
0.0
 41
100.0
 42
100.0
 43
100.0
 50
270.0
  0
INSERT
  5
268A0
330
26586
100
AcDbEntity
  8
寸法
 62
     0
 48
50.0
370
    -2
100
AcDbBlockReference
  2
_DOTSMALL
 10
7042.197085004764
 20
5801.907777930163
 30
0.0
 41
100.0
 42
100.0
 43
100.0
 50
90.0
  0
MTEXT
  5
268A1
330
26586
100
AcDbEntity
  8
寸法
 62
     7
 48
50.0
100
AcDbMText
 10
6942.197085004764
 20
6037.955022024654
 30
0.0
 40
120.0
 41
0.0
 71
     5
 72
     1
  1
\A1;110
  7
STYLE1
 11
0.0000000000000001
 21
1.0
 31
0.0
 73
     1
 44
1.0
1001
ACAD
1000
MTEXTBEGIN
1070
    73
1070
     1
1070
    44
1040
1.0
1070
    74
1070
     0
1000
MTEXTEND
  0
POINT
  5
268A2
330
26586
100
AcDbEntity
  8
DEFPOINTS
 62
     0
 48
50.0
100
AcDbPoint
 10
6923.6
 20
5691.907777930207
 30
0.0
  0
POINT
  5
268A3
330
26586
100
AcDbEntity
  8
DEFPOINTS
 62
     0
 48
50.0
100
AcDbPoint
 10
6923.6
 20
5801.907777930163
 30
0.0
  0
POINT
  5
268A4
330
26586
100
AcDbEntity
  8
DEFPOINTS
 62
     0
 48
50.0
100
AcDbPoint
 10
7042.197085004764
 20
5801.907777930163
 30
0.0
  0
ENDBLK
  5
26592
330
26586
100
AcDbEntity
  8
0
 48
50.0
100
AcDbBlockEnd
  0
BLOCK
  5
2659D
330
26593
100
AcDbEntity
  8
0
 48
50.0
100
AcDbBlockBegin
  2
*D44
 70
     1
 10
0.0
 20
0.0
 30
0.0
  3
*D44
  1

  0
LINE
  5
267CB
330
26593
100
AcDbEntity
  8
寸法
 62
     0
 48
50.0
370
    -2
100
AcDbLine
 10
9301.600000000002
 20
5476.907777930161
 30
0.0
 11
9301.600000000002
 21
4884.687091109451
 31
0.0
  0
LINE
  5
267CC
330
26593
100
AcDbEntity
  8
寸法
 62
     0
 48
50.0
370
    -2
100
AcDbLine
 10
7146.600000000001
 20
5476.907777930193
 30
0.0
 11
7146.600000000001
 21
4884.687091109451
 31
0.0
  0
LINE
  5
267CD
330
26593
100
AcDbEntity
  8
寸法
 62
     0
 48
50.0
370
    -2
100
AcDbLine
 10
9301.600000000002
 20
4944.687091109451
 30
0.0
 11
7146.600000000001
 21
4944.687091109451
 31
0.0
  0
INSERT
  5
267CE
330
26593
100
AcDbEntity
  8
寸法
 62
     0
 48
50.0
370
    -2
100
AcDbBlockReference
  2
_DOTSMALL
 10
9301.600000000002
 20
4944.687091109451
 30
0.0
 41
100.0
 42
100.0
 43
100.0
  0
INSERT
  5
267CF
330
26593
100
AcDbEntity
  8
寸法
 62
     0
 48
50.0
370
    -2
100
AcDbBlockReference
  2
_DOTSMALL
 10
7146.600000000001
 20
4944.687091109451
 30
0.0
 41
100.0
 42
100.0
 43
100.0
 50
180.0
  0
MTEXT
  5
267D0
330
26593
100
AcDbEntity
  8
寸法
 62
     7
 48
50.0
100
AcDbMText
 10
8224.100000000003
 20
5044.698902133073
 30
0.0
 40
120.0
 41
0.0
 71
     5
 72
     1
  1
\A1;扉の幅 2155
  7
STYLE1
 73
     1
 44
1.0
1001
ACAD
1000
MTEXTBEGIN
1070
    73
1070
     1
1070
    44
1040
1.0
1070
    74
1070
     0
1000
MTEXTEND
  0
POINT
  5
267D1
330
26593
100
AcDbEntity
  8
DEFPOINTS
 62
     0
 48
50.0
100
AcDbPoint
 10
9301.600000000002
 20
5496.907777930161
 30
0.0
  0
POINT
  5
267D2
330
26593
100
AcDbEntity
  8
DEFPOINTS
 62
     0
 48
50.0
100
AcDbPoint
 10
7146.600000000001
 20
5496.907777930193
 30
0.0
  0
POINT
  5
267D3
330
26593
100
AcDbEntity
  8
DEFPOINTS
 62
     0
 48
50.0
100
AcDbPoint
 10
7146.600000000001
 20
4944.687091109451
 30
0.0
  0
ENDBLK
  5
2659E
330
26593
100
AcDbEntity
  8
0
 48
50.0
100
AcDbBlockEnd
  0
BLOCK
  5
265AA
330
2659F
100
AcDbEntity
  8
0
 48
50.0
100
AcDbBlockBegin
  2
*D45
 70
     1
 10
0.0
 20
0.0
 30
0.0
  3
*D45
  1

  0
LINE
  5
268AF
330
2659F
100
AcDbEntity
  8
寸法
 62
     0
 48
50.0
370
    -2
100
AcDbLine
 10
7166.599999999964
 20
5496.907777930188
 30
0.0
 11
7475.743526793876
 21
5496.907777930188
 31
0.0
  0
LINE
  5
268B0
330
2659F
100
AcDbEntity
  8
寸法
 62
     0
 48
50.0
370
    -2
100
AcDbLine
 10
7166.599999999964
 20
5691.907777930208
 30
0.0
 11
7475.743526793876
 21
5691.907777930208
 31
0.0
  0
LINE
  5
268B1
330
2659F
100
AcDbEntity
  8
寸法
 62
     0
 48
50.0
370
    -2
100
AcDbLine
 10
7415.743526793875
 20
5691.907777930208
 30
0.0
 11
7415.743526793875
 21
5496.907777930188
 31
0.0
  0
LINE
  5
268B2
330
2659F
100
AcDbEntity
  8
寸法
 62
     0
 48
50.0
370
    -2
100
AcDbLine
 10
7415.743526793875
 20
5496.907777930188
 30
0.0
 11
7415.743526793875
 21
5119.517895522397
 31
0.0
  0
INSERT
  5
268B3
330
2659F
100
AcDbEntity
  8
寸法
 62
     0
 48
50.0
370
    -2
100
AcDbBlockReference
  2
_DOTSMALL
 10
7415.743526793875
 20
5691.907777930208
 30
0.0
 41
100.0
 42
100.0
 43
100.0
 50
90.0
  0
INSERT
  5
268B4
330
2659F
100
AcDbEntity
  8
寸法
 62
     0
 48
50.0
370
    -2
100
AcDbBlockReference
  2
_DOTSMALL
 10
7415.743526793875
 20
5496.907777930188
 30
0.0
 41
100.0
 42
100.0
 43
100.0
 50
270.0
  0
MTEXT
  5
268B5
330
2659F
100
AcDbEntity
  8
寸法
 62
     7
 48
50.0
100
AcDbMText
 10
7315.743526793875
 20
5258.212836726295
 30
0.0
 40
120.0
 41
0.0
 71
     5
 72
     1
  1
\A1;195
  7
STYLE1
 11
0.0000000000000001
 21
1.0
 31
0.0
 73
     1
 44
1.0
1001
ACAD
1000
MTEXTBEGIN
1070
    73
1070
     1
1070
    44
1040
1.0
1070
    74
1070
     0
1000
MTEXTEND
  0
POINT
  5
268B6
330
2659F
100
AcDbEntity
  8
DEFPOINTS
 62
     0
 48
50.0
100
AcDbPoint
 10
7146.599999999963
 20
5496.907777930188
 30
0.0
  0
POINT
  5
268B7
330
2659F
100
AcDbEntity
  8
DEFPOINTS
 62
     0
 48
50.0
100
AcDbPoint
 10
7146.599999999963
 20
5691.907777930208
 30
0.0
  0
POINT
  5
268B8
330
2659F
100
AcDbEntity
  8
DEFPOINTS
 62
     0
 48
50.0
100
AcDbPoint
 10
7415.743526793875
 20
5691.907777930208
 30
0.0
  0
ENDBLK
  5
265AB
330
2659F
100
AcDbEntity
  8
0
 48
50.0
100
AcDbBlockEnd
  0
BLOCK
  5
266B6
330
266AA
100
AcDbEntity
  8
0
 48
50.0
100
AcDbBlockBegin
  2
*D46
 70
     1
 10
0.0
 20
0.0
 30
0.0
  3
*D46
  1

  0
LINE
  5
26808
330
266AA
100
AcDbEntity
  8
寸法
 62
     0
 48
50.0
370
    -2
100
AcDbLine
 10
7126.599999999964
 20
5496.907777930188
 30
0.0
 11
6092.129227237224
 21
5496.907777930189
 31
0.0
  0
LINE
  5
26809
330
266AA
100
AcDbEntity
  8
寸法
 62
     0
 48
50.0
370
    -2
100
AcDbLine
 10
6673.6
 20
5571.907777930158
 30
0.0
 11
6092.129227237224
 21
5571.907777930158
 31
0.0
  0
LINE
  5
2680A
330
266AA
100
AcDbEntity
  8
寸法
 62
     0
 48
50.0
370
    -2
100
AcDbLine
 10
6152.129227237224
 20
5571.907777930158
 30
0.0
 11
6152.129227237224
 21
5671.907777930158
 31
0.0
  0
LINE
  5
2680B
330
266AA
100
AcDbEntity
  8
寸法
 62
     0
 48
50.0
370
    -2
100
AcDbLine
 10
6152.129227237224
 20
5496.907777930188
 30
0.0
 11
6152.129227237224
 21
4629.937215181711
 31
0.0
  0
LINE
  5
2680C
330
266AA
100
AcDbEntity
  8
寸法
 62
     0
 48
50.0
370
    -2
100
AcDbLine
 10
6152.129227237224
 20
5571.907777930158
 30
0.0
 11
6152.129227237224
 21
5496.907777930188
 31
0.0
  0
INSERT
  5
2680D
330
266AA
100
AcDbEntity
  8
寸法
 62
     0
 48
50.0
370
    -2
100
AcDbBlockReference
  2
_DOTSMALL
 10
6152.129227237224
 20
5571.907777930158
 30
0.0
 41
100.0
 42
100.0
 43
100.0
 50
270.0
  0
INSERT
  5
2680E
330
266AA
100
AcDbEntity
  8
寸法
 62
     0
 48
50.0
370
    -2
100
AcDbBlockReference
  2
_DOTSMALL
 10
6152.129227237224
 20
5496.907777930188
 30
0.0
 41
100.0
 42
100.0
 43
100.0
 50
90.0
  0
MTEXT
  5
2680F
330
266AA
100
AcDbEntity
  8
寸法
 62
     7
 48
50.0
100
AcDbMText
 10
6052.129227237223
 20
4963.422496555952
 30
0.0
 40
120.0
 41
0.0
 71
     5
 72
     1
  1
\A1;扉の出75
  7
STYLE1
 11
0.0000000000000001
 21
1.0
 31
0.0
 73
     1
 44
1.0
1001
ACAD
1000
MTEXTBEGIN
1070
    73
1070
     1
1070
    44
1040
1.0
1070
    74
1070
     0
1000
MTEXTEND
  0
POINT
  5
26810
330
266AA
100
AcDbEntity
  8
DEFPOINTS
 62
     0
 48
50.0
100
AcDbPoint
 10
7146.599999999963
 20
5496.907777930188
 30
0.0
  0
POINT
  5
26811
330
266AA
100
AcDbEntity
  8
DEFPOINTS
 62
     0
 48
50.0
100
AcDbPoint
 10
6693.6
 20
5571.907777930158
 30
0.0
  0
POINT
  5
26812
330
266AA
100
AcDbEntity
  8
DEFPOINTS
 62
     0
 48
50.0
100
AcDbPoint
 10
6152.129227237224
 20
5571.907777930158
 30
0.0
  0
ENDBLK
  5
266B7
330
266AA
100
AcDbEntity
  8
0
 48
50.0
100
AcDbBlockEnd
  0
BLOCK
  5
266C2
330
266B8
100
AcDbEntity
  8
0
 48
50.0
100
AcDbBlockBegin
  2
*D47
 70
     1
 10
0.0
 20
0.0
 30
0.0
  3
*D47
  1

  0
LINE
  5
267D4
330
266B8
100
AcDbEntity
  8
寸法
 62
     0
 48
50.0
370
    -2
100
AcDbLine
 10
7146.600000000001
 20
5476.907777930147
 30
0.0
 11
7146.600000000001
 21
4884.687091109451
 31
0.0
  0
LINE
  5
267D5
330
266B8
100
AcDbEntity
  8
寸法
 62
     0
 48
50.0
370
    -2
100
AcDbLine
 10
6693.6
 20
5551.907777930158
 30
0.0
 11
6693.6
 21
4884.687091109451
 31
0.0
  0
LINE
  5
267D6
330
266B8
100
AcDbEntity
  8
寸法
 62
     0
 48
50.0
370
    -2
100
AcDbLine
 10
7146.600000000001
 20
4944.687091109451
 30
0.0
 11
6693.6
 21
4944.687091109451
 31
0.0
  0
INSERT
  5
267D7
330
266B8
100
AcDbEntity
  8
寸法
 62
     0
 48
50.0
370
    -2
100
AcDbBlockReference
  2
_DOTSMALL
 10
7146.600000000001
 20
4944.687091109451
 30
0.0
 41
100.0
 42
100.0
 43
100.0
  0
INSERT
  5
267D8
330
266B8
100
AcDbEntity
  8
寸法
 62
     0
 48
50.0
370
    -2
100
AcDbBlockReference
  2
_DOTSMALL
 10
6693.6
 20
4944.687091109451
 30
0.0
 41
100.0
 42
100.0
 43
100.0
 50
180.0
  0
MTEXT
  5
267D9
330
266B8
100
AcDbEntity
  8
寸法
 62
     7
 48
50.0
100
AcDbMText
 10
6916.400741355807
 20
5044.687091109452
 30
0.0
 40
120.0
 41
0.0
 71
     5
 72
     1
  1
\A1;453
  7
STYLE1
 73
     1
 44
1.0
1001
ACAD
1000
MTEXTBEGIN
1070
    73
1070
     1
1070
    44
1040
1.0
1070
    74
1070
     0
1000
MTEXTEND
  0
POINT
  5
267DA
330
266B8
100
AcDbEntity
  8
DEFPOINTS
 62
     0
 48
50.0
100
AcDbPoint
 10
7146.600000000001
 20
5496.907777930147
 30
0.0
  0
POINT
  5
267DB
330
266B8
100
AcDbEntity
  8
DEFPOINTS
 62
     0
 48
50.0
100
AcDbPoint
 10
6693.6
 20
5571.907777930158
 30
0.0
  0
POINT
  5
267DC
330
266B8
100
AcDbEntity
  8
DEFPOINTS
 62
     0
 48
50.0
100
AcDbPoint
 10
6693.6
 20
4944.687091109451
 30
0.0
  0
ENDBLK
  5
266C3
330
266B8
100
AcDbEntity
  8
0
 48
50.0
100
AcDbBlockEnd
  0
BLOCK
  5
26C08
330
26BFE
100
AcDbEntity
  8
0
 48
50.0
100
AcDbBlockBegin
  2
*D48
 70
     1
 10
0.0
 20
0.0
 30
0.0
  3
*D48
  1

  0
LINE
  5
26C4B
330
26BFE
100
AcDbEntity
  8
寸法
 62
     0
 48
50.0
370
    -2
100
AcDbLine
 10
8078.69292435763
 20
2014.898294998415
 30
0.0
 11
8620.56152412647
 21
2014.898294998415
 31
0.0
  0
LINE
  5
26C4C
330
26BFE
100
AcDbEntity
  8
寸法
 62
     0
 48
50.0
370
    -2
100
AcDbLine
 10
8078.69292435763
 20
1690.898294998414
 30
0.0
 11
8620.56152412647
 21
1690.898294998414
 31
0.0
  0
LINE
  5
26C4D
330
26BFE
100
AcDbEntity
  8
寸法
 62
     0
 48
50.0
370
    -2
100
AcDbLine
 10
8560.561524126471
 20
2014.898294998415
 30
0.0
 11
8560.561524126471
 21
1690.898294998414
 31
0.0
  0
INSERT
  5
26C4E
330
26BFE
100
AcDbEntity
  8
寸法
 62
     0
 48
50.0
370
    -2
100
AcDbBlockReference
  2
_DOTSMALL
 10
8560.561524126471
 20
2014.898294998415
 30
0.0
 41
100.0
 42
100.0
 43
100.0
 50
90.0
  0
INSERT
  5
26C4F
330
26BFE
100
AcDbEntity
  8
寸法
 62
     0
 48
50.0
370
    -2
100
AcDbBlockReference
  2
_DOTSMALL
 10
8560.561524126471
 20
1690.898294998414
 30
0.0
 41
100.0
 42
100.0
 43
100.0
 50
270.0
  0
MTEXT
  5
26C50
330
26BFE
100
AcDbEntity
  8
寸法
 62
     7
 48
50.0
100
AcDbMText
 10
8460.561524126472
 20
1852.898294998416
 30
0.0
 40
120.0
 41
0.0
 71
     5
 72
     1
  1
\A1;180
  7
STYLE1
 11
0.0000000000000001
 21
1.0
 31
0.0
 73
     1
 44
1.0
1001
ACAD
1000
MTEXTBEGIN
1070
    73
1070
     1
1070
    44
1040
1.0
1070
    74
1070
     0
1000
MTEXTEND
  0
POINT
  5
26C51
330
26BFE
100
AcDbEntity
  8
DEFPOINTS
 62
     0
 48
50.0
100
AcDbPoint
 10
8058.692924357629
 20
2014.898294998415
 30
0.0
  0
POINT
  5
26C52
330
26BFE
100
AcDbEntity
  8
DEFPOINTS
 62
     0
 48
50.0
100
AcDbPoint
 10
8058.692924357629
 20
1690.898294998414
 30
0.0
  0
POINT
  5
26C53
330
26BFE
100
AcDbEntity
  8
DEFPOINTS
 62
     0
 48
50.0
100
AcDbPoint
 10
8560.561524126471
 20
1690.898294998414
 30
0.0
  0
ENDBLK
  5
26C09
330
26BFE
100
AcDbEntity
  8
0
 48
50.0
100
AcDbBlockEnd
  0
BLOCK
  5
26C19
330
26C0A
100
AcDbEntity
  8
0
 48
50.0
100
AcDbBlockBegin
  2
*D49
 70
     1
 10
0.0
 20
0.0
 30
0.0
  3
*D49
  1

  0
LINE
  5
26C54
330
26C0A
100
AcDbEntity
  8
寸法
 62
     0
 48
50.0
370
    -2
100
AcDbLine
 10
7891.492924357629
 20
2067.658294998416
 30
0.0
 11
8620.56152412647
 21
2067.658294998416
 31
0.0
  0
LINE
  5
26C55
330
26C0A
100
AcDbEntity
  8
寸法
 62
     0
 48
50.0
370
    -2
100
AcDbLine
 10
8078.69292435763
 20
2014.898294998415
 30
0.0
 11
8620.56152412647
 21
2014.898294998415
 31
0.0
  0
LINE
  5
26C56
330
26C0A
100
AcDbEntity
  8
寸法
 62
     0
 48
50.0
370
    -2
100
AcDbLine
 10
8560.561524126471
 20
2067.658294998416
 30
0.0
 11
8560.561524126471
 21
2167.658294998416
 31
0.0
  0
LINE
  5
26C57
330
26C0A
100
AcDbEntity
  8
寸法
 62
     0
 48
50.0
370
    -2
100
AcDbLine
 10
8560.561524126471
 20
2014.898294998415
 30
0.0
 11
8560.561524126471
 21
1914.898294998415
 31
0.0
  0
LINE
  5
26C58
330
26C0A
100
AcDbEntity
  8
寸法
 62
     0
 48
50.0
370
    -2
100
AcDbLine
 10
8560.561524126471
 20
2041.278294998415
 30
0.0
 11
8836.616190245498
 21
2029.774337394202
 31
0.0
  0
LINE
  5
26C59
330
26C0A
100
AcDbEntity
  8
寸法
 62
     0
 48
50.0
370
    -2
100
AcDbLine
 10
8836.616190245498
 20
2029.774337394202
 30
0.0
 11
8836.616190245498
 21
1497.756530551236
 31
0.0
  0
MTEXT
  5
26C5A
330
26C0A
100
AcDbEntity
  8
寸法
 62
     7
 48
50.0
100
AcDbMText
 10
8736.604379221878
 20
1763.76543397272
 30
0.0
 40
120.0
 41
0.0
 71
     5
 72
     1
  1
\A1;20～25
  7
STYLE1
 11
0.0000000000000001
 21
1.0
 31
0.0
 73
     1
 44
1.0
1001
ACAD
1000
MTEXTBEGIN
1070
    73
1070
     1
1070
    44
1040
1.0
1070
    74
1070
     0
1000
MTEXTEND
  0
LINE
  5
26C5B
330
26C0A
100
AcDbEntity
  8
寸法
 62
     0
 48
50.0
370
    -2
100
AcDbLine
 10
8560.561524126471
 20
2067.658294998416
 30
0.0
 11
8560.561524126471
 21
2014.898294998415
 31
0.0
  0
LINE
  5
26C5C
330
26C0A
100
AcDbEntity
  8
寸法
 62
     0
 48
50.0
370
    -2
100
AcDbLine
 10
8560.561524126471
 20
2067.658294998416
 30
0.0
 11
8560.561524126471
 21
2014.898294998415
 31
0.0
  0
INSERT
  5
26C5D
330
26C0A
100
AcDbEntity
  8
寸法
 62
     0
 48
50.0
370
    -2
100
AcDbBlockReference
  2
_DOTSMALL
 10
8560.561524126471
 20
2067.658294998416
 30
0.0
 41
100.0
 42
100.0
 43
100.0
 50
270.0
  0
INSERT
  5
26C5E
330
26C0A
100
AcDbEntity
  8
寸法
 62
     0
 48
50.0
370
    -2
100
AcDbBlockReference
  2
_DOTSMALL
 10
8560.561524126471
 20
2014.898294998415
 30
0.0
 41
100.0
 42
100.0
 43
100.0
 50
90.0
  0
POINT
  5
26C5F
330
26C0A
100
AcDbEntity
  8
DEFPOINTS
 62
     0
 48
50.0
100
AcDbPoint
 10
7871.492924357629
 20
2067.658294998416
 30
0.0
  0
POINT
  5
26C60
330
26C0A
100
AcDbEntity
  8
DEFPOINTS
 62
     0
 48
50.0
100
AcDbPoint
 10
8058.692924357629
 20
2014.898294998415
 30
0.0
  0
POINT
  5
26C61
330
26C0A
100
AcDbEntity
  8
DEFPOINTS
 62
     0
 48
50.0
100
AcDbPoint
 10
8560.561524126471
 20
2014.898294998415
 30
0.0
  0
ENDBLK
  5
26C1A
330
26C0A
100
AcDbEntity
  8
0
 48
50.0
100
AcDbBlockEnd
  0
BLOCK
  5
26C25
330
26C1B
100
AcDbEntity
  8
0
 48
50.0
100
AcDbBlockBegin
  2
*D50
 70
     1
 10
0.0
 20
0.0
 30
0.0
  3
*D50
  1

  0
LINE
  5
26C62
330
26C1B
100
AcDbEntity
  8
寸法
 62
     0
 48
50.0
370
    -2
100
AcDbLine
 10
5796.653611180435
 20
1470.898294998415
 30
0.0
 11
5614.233297447975
 21
1470.898294998415
 31
0.0
  0
LINE
  5
26C63
330
26C1B
100
AcDbEntity
  8
寸法
 62
     0
 48
50.0
370
    -2
100
AcDbLine
 10
5716.653611180438
 20
1230.898294998415
 30
0.0
 11
5614.233297447975
 21
1230.898294998415
 31
0.0
  0
LINE
  5
26C64
330
26C1B
100
AcDbEntity
  8
寸法
 62
     0
 48
50.0
370
    -2
100
AcDbLine
 10
5674.233297447975
 20
1470.898294998415
 30
0.0
 11
5674.233297447975
 21
1230.898294998415
 31
0.0
  0
MTEXT
  5
26C65
330
26C1B
100
AcDbEntity
  8
寸法
 62
     7
 48
50.0
100
AcDbMText
 10
5574.233297447975
 20
1350.898294998415
 30
0.0
 40
120.0
 41
0.0
 71
     5
 72
     1
  1
\A1;150
  7
STYLE1
 11
0.0000000000000001
 21
1.0
 31
0.0
 73
     1
 44
1.0
1001
ACAD
1000
MTEXTBEGIN
1070
    73
1070
     1
1070
    44
1040
1.0
1070
    74
1070
     0
1000
MTEXTEND
  0
INSERT
  5
26C66
330
26C1B
100
AcDbEntity
  8
寸法
 62
     0
 48
50.0
370
    -2
100
AcDbBlockReference
  2
_DOTSMALL
 10
5674.233297447975
 20
1470.898294998415
 30
0.0
 41
100.0
 42
100.0
 43
100.0
 50
90.0
  0
INSERT
  5
26C67
330
26C1B
100
AcDbEntity
  8
寸法
 62
     0
 48
50.0
370
    -2
100
AcDbBlockReference
  2
_DOTSMALL
 10
5674.233297447975
 20
1230.898294998415
 30
0.0
 41
100.0
 42
100.0
 43
100.0
 50
270.0
  0
POINT
  5
26C68
330
26C1B
100
AcDbEntity
  8
DEFPOINTS
 62
     0
 48
50.0
100
AcDbPoint
 10
5816.653611180434
 20
1470.898294998415
 30
0.0
  0
POINT
  5
26C69
330
26C1B
100
AcDbEntity
  8
DEFPOINTS
 62
     0
 48
50.0
100
AcDbPoint
 10
5736.653611180438
 20
1230.898294998415
 30
0.0
  0
POINT
  5
26C6A
330
26C1B
100
AcDbEntity
  8
DEFPOINTS
 62
     0
 48
50.0
100
AcDbPoint
 10
5674.233297447975
 20
1230.898294998415
 30
0.0
  0
ENDBLK
  5
26C26
330
26C1B
100
AcDbEntity
  8
0
 48
50.0
100
AcDbBlockEnd
  0
BLOCK
  5
26C31
330
26C27
100
AcDbEntity
  8
0
 48
50.0
100
AcDbBlockBegin
  2
*D51
 70
     1
 10
0.0
 20
0.0
 30
0.0
  3
*D51
  1

  0
LINE
  5
26C6B
330
26C27
100
AcDbEntity
  8
寸法
 62
     0
 48
50.0
370
    -2
100
AcDbLine
 10
5924.653611180435
 20
2014.898294998415
 30
0.0
 11
5149.616372618694
 21
2014.898294998415
 31
0.0
  0
LINE
  5
26C6C
330
26C27
100
AcDbEntity
  8
寸法
 62
     0
 48
50.0
370
    -2
100
AcDbLine
 10
5716.653611180438
 20
1230.898294998415
 30
0.0
 11
5149.616372618694
 21
1230.898294998415
 31
0.0
  0
LINE
  5
26C6D
330
26C27
100
AcDbEntity
  8
寸法
 62
     0
 48
50.0
370
    -2
100
AcDbLine
 10
5209.616372618693
 20
2014.898294998415
 30
0.0
 11
5209.616372618693
 21
1230.898294998415
 31
0.0
  0
MTEXT
  5
26C6E
330
26C27
100
AcDbEntity
  8
寸法
 62
     7
 48
50.0
100
AcDbMText
 10
5109.616372618694
 20
1602.438444654415
 30
0.0
 40
120.0
 41
0.0
 71
     5
 72
     1
  1
\A1;540
  7
STYLE1
 11
0.0000000000000001
 21
1.0
 31
0.0
 73
     1
 44
1.0
1001
ACAD
1000
MTEXTBEGIN
1070
    73
1070
     1
1070
    44
1040
1.0
1070
    74
1070
     0
1000
MTEXTEND
  0
INSERT
  5
26C6F
330
26C27
100
AcDbEntity
  8
寸法
 62
     0
 48
50.0
370
    -2
100
AcDbBlockReference
  2
_DOTSMALL
 10
5209.616372618693
 20
2014.898294998415
 30
0.0
 41
100.0
 42
100.0
 43
100.0
 50
90.0
  0
INSERT
  5
26C70
330
26C27
100
AcDbEntity
  8
寸法
 62
     0
 48
50.0
370
    -2
100
AcDbBlockReference
  2
_DOTSMALL
 10
5209.616372618693
 20
1230.898294998415
 30
0.0
 41
100.0
 42
100.0
 43
100.0
 50
270.0
  0
POINT
  5
26C71
330
26C27
100
AcDbEntity
  8
DEFPOINTS
 62
     0
 48
50.0
100
AcDbPoint
 10
5944.653611180434
 20
2014.898294998415
 30
0.0
  0
POINT
  5
26C72
330
26C27
100
AcDbEntity
  8
DEFPOINTS
 62
     0
 48
50.0
100
AcDbPoint
 10
5736.653611180438
 20
1230.898294998415
 30
0.0
  0
POINT
  5
26C73
330
26C27
100
AcDbEntity
  8
DEFPOINTS
 62
     0
 48
50.0
100
AcDbPoint
 10
5209.616372618693
 20
1230.898294998415
 30
0.0
  0
ENDBLK
  5
26C32
330
26C27
100
AcDbEntity
  8
0
 48
50.0
100
AcDbBlockEnd
  0
BLOCK
  5
26C3D
330
26C33
100
AcDbEntity
  8
0
 48
50.0
100
AcDbBlockBegin
  2
*D52
 70
     1
 10
0.0
 20
0.0
 30
0.0
  3
*D52
  1

  0
LINE
  5
26C74
330
26C33
100
AcDbEntity
  8
寸法
 62
     0
 48
50.0
370
    -2
100
AcDbLine
 10
5816.653611180434
 20
1082.898294998415
 30
0.0
 11
5816.653611180434
 21
632.4686569932546
 31
0.0
  0
LINE
  5
26C75
330
26C33
100
AcDbEntity
  8
寸法
 62
     0
 48
50.0
370
    -2
100
AcDbLine
 10
6264.653611180435
 20
1082.898294998415
 30
0.0
 11
6264.653611180435
 21
632.4686569932546
 31
0.0
  0
LINE
  5
26C76
330
26C33
100
AcDbEntity
  8
寸法
 62
     0
 48
50.0
370
    -2
100
AcDbLine
 10
5816.653611180434
 20
692.4686569932546
 30
0.0
 11
6264.653611180435
 21
692.4686569932546
 31
0.0
  0
MTEXT
  5
26C77
330
26C33
100
AcDbEntity
  8
寸法
 62
     7
 48
50.0
100
AcDbMText
 10
6020.556852502211
 20
792.4686569932546
 30
0.0
 40
120.0
 41
0.0
 71
     5
 72
     1
  1
\A1;300
  7
STYLE1
 73
     1
 44
1.0
1001
ACAD
1000
MTEXTBEGIN
1070
    73
1070
     1
1070
    44
1040
1.0
1070
    74
1070
     0
1000
MTEXTEND
  0
INSERT
  5
26C78
330
26C33
100
AcDbEntity
  8
寸法
 62
     0
 48
50.0
370
    -2
100
AcDbBlockReference
  2
_DOTSMALL
 10
5816.653611180434
 20
692.4686569932546
 30
0.0
 41
100.0
 42
100.0
 43
100.0
 50
180.0
  0
INSERT
  5
26C79
330
26C33
100
AcDbEntity
  8
寸法
 62
     0
 48
50.0
370
    -2
100
AcDbBlockReference
  2
_DOTSMALL
 10
6264.653611180435
 20
692.4686569932546
 30
0.0
 41
100.0
 42
100.0
 43
100.0
  0
POINT
  5
26C7A
330
26C33
100
AcDbEntity
  8
DEFPOINTS
 62
     0
 48
50.0
100
AcDbPoint
 10
5816.653611180434
 20
1102.898294998414
 30
0.0
  0
POINT
  5
26C7B
330
26C33
100
AcDbEntity
  8
DEFPOINTS
 62
     0
 48
50.0
100
AcDbPoint
 10
6264.653611180435
 20
1102.898294998414
 30
0.0
  0
POINT
  5
26C7C
330
26C33
100
AcDbEntity
  8
DEFPOINTS
 62
     0
 48
50.0
100
AcDbPoint
 10
6264.653611180435
 20
692.4686569932546
 30
0.0
  0
ENDBLK
  5
26C3E
330
26C33
100
AcDbEntity
  8
0
 48
50.0
100
AcDbBlockEnd
  0
BLOCK
  5
26C49
330
26C3F
100
AcDbEntity
  8
0
 48
50.0
100
AcDbBlockBegin
  2
*D53
 70
     1
 10
0.0
 20
0.0
 30
0.0
  3
*D53
  1

  0
LINE
  5
26C7D
330
26C3F
100
AcDbEntity
  8
寸法
 62
     0
 48
50.0
370
    -2
100
AcDbLine
 10
6136.653611180435
 20
2034.898294998415
 30
0.0
 11
6136.653611180435
 21
2394.898294998415
 31
0.0
  0
LINE
  5
26C7E
330
26C3F
100
AcDbEntity
  8
寸法
 62
     0
 48
50.0
370
    -2
100
AcDbLine
 10
5944.653611180434
 20
2034.898294998415
 30
0.0
 11
5944.653611180434
 21
2394.898294998415
 31
0.0
  0
LINE
  5
26C7F
330
26C3F
100
AcDbEntity
  8
寸法
 62
     0
 48
50.0
370
    -2
100
AcDbLine
 10
6136.653611180435
 20
2334.898294998415
 30
0.0
 11
5944.653611180434
 21
2334.898294998415
 31
0.0
  0
MTEXT
  5
26C80
330
26C3F
100
AcDbEntity
  8
寸法
 62
     7
 48
50.0
100
AcDbMText
 10
6051.879941525632
 20
2634.577913938418
 30
0.0
 40
120.0
 41
0.0
 71
     5
 72
     1
  1
\A1;120\P195
  7
STYLE1
 73
     1
 44
1.0
1001
ACAD
1000
MTEXTBEGIN
1070
    73
1070
     1
1070
    44
1040
1.0
1070
    74
1070
     0
1000
MTEXTEND
  0
INSERT
  5
26C81
330
26C3F
100
AcDbEntity
  8
寸法
 62
     0
 48
50.0
370
    -2
100
AcDbBlockReference
  2
_DOTSMALL
 10
6136.653611180435
 20
2334.898294998415
 30
0.0
 41
100.0
 42
100.0
 43
100.0
  0
INSERT
  5
26C82
330
26C3F
100
AcDbEntity
  8
寸法
 62
     0
 48
50.0
370
    -2
100
AcDbBlockReference
  2
_DOTSMALL
 10
5944.653611180434
 20
2334.898294998415
 30
0.0
 41
100.0
 42
100.0
 43
100.0
 50
180.0
  0
POINT
  5
26C83
330
26C3F
100
AcDbEntity
  8
DEFPOINTS
 62
     0
 48
50.0
100
AcDbPoint
 10
6136.653611180435
 20
2014.898294998415
 30
0.0
  0
POINT
  5
26C84
330
26C3F
100
AcDbEntity
  8
DEFPOINTS
 62
     0
 48
50.0
100
AcDbPoint
 10
5944.653611180434
 20
2014.898294998415
 30
0.0
  0
POINT
  5
26C85
330
26C3F
100
AcDbEntity
  8
DEFPOINTS
 62
     0
 48
50.0
100
AcDbPoint
 10
5944.653611180434
 20
2334.898294998415
 30
0.0
  0
ENDBLK
  5
26C4A
330
26C3F
100
AcDbEntity
  8
0
 48
50.0
100
AcDbBlockEnd
  0
ENDSEC
  0
SECTION
  2
ENTITIES
  0
MTEXT
  5
763F
330
747D
100
AcDbEntity
  8
0
100
AcDbMText
 10
302.846345836809
 20
280.1983726409901
 30
0.0
 40
3.5
 41
5.323721266742722
 71
     1
 72
     5
  1

  7
MSMINCHO
 73
     1
 44
1.0
1001
ACAD
1000
MTEXTBEGIN
1070
    73
1070
     1
1070
    44
1040
1.0
1070
    74
1070
     0
1000
MTEXTEND
  0
LINE
  5
10B57
330
747D
100
AcDbEntity
  8
補助
  6
PHANTOM
 62
   230
 48
50.0
100
AcDbLine
 10
139.9999999999995
 20
11409.6
 30
0.0
 11
16307.2
 21
11409.6
 31
0.0
  0
LINE
  5
10B59
330
747D
100
AcDbEntity
  8
仕様書枠
  6
Continuous
 48
50.0
100
AcDbLine
 10
13107.2
 20
1200.0
 30
0.0
 11
13107.2
 21
-0.0000000000000729
 31
0.0
  0
LINE
  5
10B5D
330
747D
100
AcDbEntity
  8
仕様書枠
 48
50.0
100
AcDbLine
 10
140.0
 20
0.0
 30
0.0
 11
16307.2
 21
-0.0000000000000909
 31
0.0
  0
LINE
  5
10B5E
330
747D
100
AcDbEntity
  8
補助
  6
PHANTOM
 62
   230
 48
50.0
100
AcDbLine
 10
16307.2
 20
11409.6
 30
0.0
 11
16307.2
 21
1200.0
 31
0.0
  0
LINE
  5
10B6C
330
747D
100
AcDbEntity
  8
仕様書枠
 48
50.0
100
AcDbLine
 10
13107.2
 20
1200.0
 30
0.0
 11
16307.2
 21
1200.0
 31
0.0
  0
TEXT
  5
10B73
330
747D
100
AcDbEntity
  8
文字
 62
     7
 48
50.0
100
AcDbText
 10
13162.9790565769
 20
895.0906074299405
 30
0.0
 40
200.0
  1
基 礎 図
  7
STYLE2
100
AcDbText
  0
LINE
  5
10B7B
330
747D
100
AcDbEntity
  8
仕様書枠
 48
50.0
100
AcDbLine
 10
13107.2
 20
800.0
 30
0.0
 11
14251.2
 21
800.0
 31
0.0
  0
LINE
  5
10B88
330
747D
100
AcDbEntity
  8
仕様書枠
  6
Continuous
 48
50.0
100
AcDbLine
 10
14251.2
 20
1200.0
 30
0.0
 11
14251.2
 21
800.0
 31
0.0
  0
LINE
  5
16462
330
747D
100
AcDbEntity
  8
仕様書枠
 48
50.0
100
AcDbLine
 10
16307.2
 20
1200.0
 30
0.0
 11
16307.2
 21
-0.0000000000000909
 31
0.0
  0
LINE
  5
1903B
330
747D
100
AcDbEntity
  8
補助
  6
PHANTOM
 62
   230
 48
50.0
100
AcDbLine
 10
140.0
 20
0.0
 30
0.0
 11
139.9999999999995
 21
11409.6
 31
0.0
  0
TEXT
  5
1C7A1
330
747D
100
AcDbEntity
  8
文字
 62
     7
 48
50.0
100
AcDbText
 10
13188.16259899338
 20
79.80631269190417
 30
0.0
 40
80.0
  1
※布基礎には換気口を設けてください。
  7
STYLE2
100
AcDbText
  0
TEXT
  5
1C7E7
330
747D
100
AcDbEntity
  8
文字
 62
     7
 48
50.0
100
AcDbText
 10
13188.16259899338
 20
246.7109242801889
 30
0.0
 40
80.0
  1
※寒冷地等は地域の実情に合わせた基礎にして下さい。
  7
STYLE2
100
AcDbText
  0
TEXT
  5
1C7E8
330
747D
100
AcDbEntity
  8
文字
 62
     7
 48
50.0
100
AcDbText
 10
14416.41134068145
 20
499.5983841039506
 30
0.0
 40
160.0
  1
ＮＸＮ－８０ＳＡ/ＨＡ
  7
STYLE2
100
AcDbText
  0
TEXT
  5
1C7E9
330
747D
100
AcDbEntity
  8
文字
 62
     7
 48
50.0
100
AcDbText
 10
14641.2525855784
 20
871.1744590657927
 30
0.0
 40
100.0
  1
～一般型・多雪地型～
  7
STYLE2
100
AcDbText
  0
TEXT
  5
1C7EC
330
747D
100
AcDbEntity
  8
文字
 62
     7
 48
50.0
100
AcDbText
 10
14524.131837222
 20
1031.557706291229
 30
0.0
 40
100.0
  1
　    <縮尺> S=1/40
  7
STYLE2
100
AcDbText
  0
TEXT
  5
1C7ED
330
747D
100
AcDbEntity
  8
文字
 62
     7
 48
50.0
100
AcDbText
 10
13201.43669998441
 20
477.2740661031257
 30
0.0
 40
160.0
  1
機種名
  7
STYLE2
100
AcDbText
  0
LINE
  5
1C7EF
330
747D
100
AcDbEntity
  8
文字
 62
     7
 48
50.0
100
AcDbLine
 10
13187.2
 20
400.0
 30
0.0
 11
16227.2
 21
400.0
 31
0.0
  0
LINE
  5
2561E
102
{ACAD_REACTORS
330
2691E
102
}
330
747D
100
AcDbEntity
  8
部品1
 48
50.0
100
AcDbLine
 10
9301.6
 20
5496.907777930208
 30
0.0
 11
7146.600000000001
 21
5496.907777930193
 31
0.0
  0
DIMENSION
  5
2561F
330
747D
100
AcDbEntity
  8
寸法
 48
50.0
100
AcDbDimension
  2
*D19
 10
8223.600000000001
 20
8738.817543578532
 30
0.0
 11
8587.100000000001
 21
8838.829354602154
 31
0.0
 70
    32
 71
     5
 42
727.0
  3
INABA_S40G
100
AcDbAlignedDimension
 13
8950.599999999999
 23
7436.907777930205
 33
0.0
 14
8223.600000000001
 24
7436.907777930205
 34
0.0
100
AcDbRotatedDimension
1001
ACAD
1000
DSTYLE
1002
{
1070
   174
1070
     0
1070
   272
1070
     1
1070
   341
1005
0
1002
}
  0
LINE
  5
25623
102
{ACAD_REACTORS
330
268DA
102
}
330
747D
100
AcDbEntity
  8
部品1
 48
50.0
100
AcDbLine
 10
9753.6
 20
8211.907777930205
 30
0.0
 11
6693.6
 21
8211.907777930205
 31
0.0
  0
DIMENSION
  5
25624
330
747D
100
AcDbEntity
  8
寸法
 48
50.0
100
AcDbDimension
  2
*D20
 10
9753.6
 20
9170.128099989126
 30
0.0
 11
8223.600000000001
 21
9270.128099989127
 31
0.0
 70
    32
 71
     5
 42
3060.0
  3
INABA_S40G
100
AcDbAlignedDimension
 13
6693.6
 23
8211.907777930205
 33
0.0
 14
9753.6
 24
8211.907777930205
 34
0.0
100
AcDbRotatedDimension
1001
ACAD
1000
DSTYLE
1002
{
1070
   174
1070
     0
1070
   272
1070
     1
1070
   341
1005
0
1002
}
  0
DIMENSION
  5
25628
330
747D
100
AcDbEntity
  8
寸法
 48
50.0
100
AcDbDimension
  2
*D21
 10
6816.600000000001
 20
8957.667404472287
 30
0.0
 11
8223.600000000001
 21
9057.679215495909
 31
0.0
 70
    32
 71
     5
 42
2814.0
  3
INABA_S40G
100
AcDbAlignedDimension
 13
9630.600000000001
 23
8138.907777930205
 33
0.0
 14
6816.600000000001
 24
8138.907777930205
 34
0.0
100
AcDbRotatedDimension
1001
ACAD
1000
DSTYLE
1002
{
1070
   174
1070
     0
1070
   272
1070
     1
1070
   341
1005
0
1002
}
  0
DIMENSION
  5
25629
330
747D
100
AcDbEntity
  8
寸法
 48
50.0
100
AcDbDimension
  2
*D22
 10
7140.307249876099
 20
7981.9077779302
 30
0.0
 11
7140.307249876098
 21
7641.848722812088
 31
0.0
 70
   160
 71
     5
 42
110.0000000000072
  3
INABA_S40G
100
AcDbAlignedDimension
 13
6923.600000000002
 23
8091.907777930208
 33
0.0
 14
6923.6
 24
7981.9077779302
 34
0.0
 50
90.0
100
AcDbRotatedDimension
1001
ACAD
1000
DSTYLE
1002
{
1070
   174
1070
     0
1070
   272
1070
     1
1070
   341
1005
0
1002
}
  0
DIMENSION
  5
2562A
330
747D
100
AcDbEntity
  8
寸法
 48
50.0
100
AcDbDimension
  2
*D23
 10
6693.6
 20
8738.817543578532
 30
0.0
 11
7095.100000000001
 21
8838.817543578533
 31
0.0
 70
    32
 71
     5
 42
803.0
  3
INABA_S40G
100
AcDbAlignedDimension
 13
7496.6
 23
7436.907777930205
 33
0.0
 14
6693.6
 24
8211.907777930205
 34
0.0
100
AcDbRotatedDimension
1001
ACAD
1000
DSTYLE
1002
{
1070
   174
1070
     0
1070
   272
1070
     1
1070
   341
1005
0
1002
}
  0
DIMENSION
  5
2562B
330
747D
100
AcDbEntity
  8
寸法
 48
50.0
100
AcDbDimension
  2
*D24
 10
7496.6
 20
8738.817543578532
 30
0.0
 11
7860.1
 21
8838.829354602154
 31
0.0
 70
    32
 71
     5
 42
727.0
  3
INABA_S40G
100
AcDbAlignedDimension
 13
8223.600000000001
 23
7436.907777930205
 33
0.0
 14
7496.6
 24
7436.907777930205
 34
0.0
100
AcDbRotatedDimension
1001
ACAD
1000
DSTYLE
1002
{
1070
   174
1070
     0
1070
   272
1070
     1
1070
   341
1005
0
1002
}
  0
DIMENSION
  5
2562C
330
747D
100
AcDbEntity
  8
寸法
 48
50.0
100
AcDbDimension
  2
*D25
 10
5583.056296436549
 20
5694.907777930205
 30
0.0
 11
5583.056296436547
 21
6926.907777930202
 31
0.0
 70
   160
 71
     5
 42
2394.0
  3
INABA_S40G
100
AcDbAlignedDimension
 13
6766.600000000001
 23
8088.907777930204
 33
0.0
 14
6766.600000000008
 24
5694.907777930204
 34
0.0
 50
90.0
100
AcDbRotatedDimension
1001
ACAD
1000
DSTYLE
1002
{
1070
   174
1070
     0
1070
   272
1070
     1
1070
   341
1005
0
1002
}
  0
LINE
  5
2562F
102
{ACAD_REACTORS
330
268FC
102
}
330
747D
100
AcDbEntity
  8
部品1
 48
50.0
100
AcDbLine
 10
6693.6
 20
5571.907777930204
 30
0.0
 11
6693.6
 21
8211.907777930205
 31
0.0
  0
DIMENSION
  5
25630
330
747D
100
AcDbEntity
  8
寸法
 48
50.0
100
AcDbDimension
  2
*D26
 10
5331.113199717151
 20
8211.907777930205
 30
0.0
 11
5331.113199717148
 21
6856.907777930207
 31
0.0
 70
   160
 71
     5
 42
2640.0
  3
INABA_S40G
100
AcDbAlignedDimension
 13
6693.6
 23
5571.907777930204
 33
0.0
 14
6693.6
 24
8211.907777930205
 34
0.0
 50
90.0
100
AcDbRotatedDimension
1001
ACAD
1000
DSTYLE
1002
{
1070
   174
1070
     0
1070
   272
1070
     1
1070
   341
1005
0
1002
}
  0
DIMENSION
  5
25633
330
747D
100
AcDbEntity
  8
寸法
 48
50.0
100
AcDbDimension
  2
*D27
 10
5583.056296436549
 20
5571.907777930205
 30
0.0
 11
5583.056296436547
 21
5298.801176212406
 31
0.0
 70
   160
 71
     5
 42
123.0
  3
INABA_S40G
100
AcDbAlignedDimension
 13
6766.600000000008
 23
5694.907777930204
 33
0.0
 14
6693.6
 24
5571.907777930204
 34
0.0
 50
90.0
100
AcDbRotatedDimension
1001
ACAD
1000
DSTYLE
1002
{
1070
   174
1070
     0
1070
   272
1070
     1
1070
   341
1005
0
1002
}
  0
DIMENSION
  5
25635
330
747D
100
AcDbEntity
  8
寸法
 48
50.0
100
AcDbDimension
  2
*D28
 10
5331.113199717151
 20
5571.907777930205
 30
0.0
 11
5331.113199717151
 21
5534.407777930208
 31
0.0
 70
   160
  1
c
 71
     5
 42
74.99999999999454
  3
INABA_S40G
100
AcDbAlignedDimension
 13
5583.056296436549
 23
5496.907777930211
 33
0.0
 14
6693.6
 24
5571.907777930204
 34
0.0
 50
90.0
100
AcDbRotatedDimension
1001
ACAD
1000
DSTYLE
1002
{
1070
   174
1070
     0
1070
   272
1070
     1
1070
   341
1005
0
1002
}
  0
LINE
  5
25636
102
{ACAD_REACTORS
330
268FC
102
}
330
747D
100
AcDbEntity
  8
部品1
 48
50.0
100
AcDbLine
 10
6813.6
 20
6991.907777930212
 30
0.0
 11
6693.6
 21
6991.907777930212
 31
0.0
  0
LINE
  5
25637
102
{ACAD_REACTORS
330
268FC
102
}
330
747D
100
AcDbEntity
  8
部品1
 48
50.0
100
AcDbLine
 10
6813.6
 20
6791.907777930211
 30
0.0
 11
6693.6
 21
6791.907777930211
 31
0.0
  0
LINE
  5
25639
330
747D
100
AcDbEntity
  8
部品1
 48
50.0
100
AcDbLine
 10
6693.6
 20
5571.907777930204
 30
0.0
 11
7146.600000000001
 21
5571.907777930204
 31
0.0
  0
LINE
  5
2563E
330
747D
100
AcDbEntity
  8
センター
 48
2.0
100
AcDbLine
 10
6816.600000000008
 20
5744.907777930205
 30
0.0
 11
6816.600000000008
 21
5644.907777930204
 31
0.0
  0
LINE
  5
2563F
330
747D
100
AcDbEntity
  8
部品1
 48
50.0
100
AcDbLine
 10
6923.600000000002
 20
5691.907777930207
 30
0.0
 11
6923.6
 21
5801.907777930208
 31
0.0
  0
LINE
  5
25640
330
747D
100
AcDbEntity
  8
センター
 48
2.0
100
AcDbLine
 10
6766.600000000008
 20
5694.907777930204
 30
0.0
 11
6866.600000000008
 21
5694.907777930204
 31
0.0
  0
CIRCLE
  5
25641
330
747D
100
AcDbEntity
  8
部品1
 48
50.0
100
AcDbCircle
 10
6816.600000000008
 20
5694.907777930204
 30
0.0
 40
35.0
  0
LINE
  5
25642
330
747D
100
AcDbEntity
  8
部品1
 48
50.0
100
AcDbLine
 10
6923.6
 20
5801.907777930208
 30
0.0
 11
6813.6
 21
5801.907777930205
 31
0.0
  0
LINE
  5
25643
330
747D
100
AcDbEntity
  8
部品1
 48
50.0
100
AcDbLine
 10
7146.600000000001
 20
5496.90777793021
 30
0.0
 11
7146.600000000001
 21
5571.907777930193
 31
0.0
  0
LINE
  5
25644
330
747D
100
AcDbEntity
  8
センター
 48
2.0
100
AcDbLine
 10
7446.6
 20
6446.907777930204
 30
0.0
 11
7546.600000000001
 21
6446.907777930204
 31
0.0
  0
LINE
  5
25645
330
747D
100
AcDbEntity
  8
センター
 48
2.0
100
AcDbLine
 10
7496.6
 20
6496.907777930204
 30
0.0
 11
7496.6
 21
6396.907777930205
 31
0.0
  0
LINE
  5
25648
102
{ACAD_REACTORS
330
2691E
102
}
330
747D
100
AcDbEntity
  8
部品1
 48
50.0
100
AcDbLine
 10
8123.600000000015
 20
5496.907777930212
 30
0.0
 11
8123.600000000019
 21
5691.907777930213
 31
0.0
  0
LINE
  5
25649
102
{ACAD_REACTORS
330
2691E
102
}
330
747D
100
AcDbEntity
  8
部品1
 48
50.0
100
AcDbLine
 10
8323.600000000014
 20
5496.907777930213
 30
0.0
 11
8323.60000000002
 21
5691.907777930214
 31
0.0
  0
LINE
  5
2564F
330
747D
100
AcDbEntity
  8
センター
 48
2.0
100
AcDbLine
 10
8173.6
 20
6446.907777930204
 30
0.0
 11
8273.6
 21
6446.907777930204
 31
0.0
  0
LINE
  5
25651
330
747D
100
AcDbEntity
  8
センター
 48
2.0
100
AcDbLine
 10
8223.600000000001
 20
6496.907777930204
 30
0.0
 11
8223.600000000001
 21
6396.907777930205
 31
0.0
  0
LINE
  5
25654
330
747D
100
AcDbEntity
  8
センター
 48
2.0
100
AcDbLine
 10
7446.6
 20
7336.907777930204
 30
0.0
 11
7546.600000000001
 21
7336.907777930204
 31
0.0
  0
LINE
  5
25655
330
747D
100
AcDbEntity
  8
センター
 48
2.0
100
AcDbLine
 10
7496.6
 20
7386.907777930204
 30
0.0
 11
7496.6
 21
7286.907777930204
 31
0.0
  0
LINE
  5
2565B
330
747D
100
AcDbEntity
  8
センター
 48
2.0
100
AcDbLine
 10
8223.600000000001
 20
7386.907777930204
 30
0.0
 11
8223.600000000001
 21
7286.907777930204
 31
0.0
  0
LINE
  5
2565C
330
747D
100
AcDbEntity
  8
センター
 48
2.0
100
AcDbLine
 10
8173.6
 20
7336.907777930204
 30
0.0
 11
8273.6
 21
7336.907777930204
 31
0.0
  0
DIMENSION
  5
2565E
330
747D
100
AcDbEntity
  8
寸法
 48
50.0
100
AcDbDimension
  2
*D29
 10
5583.056296436549
 20
8088.907777930206
 30
0.0
 11
5583.056296436547
 21
8525.014379648004
 31
0.0
 70
   160
 71
     5
 42
123.0
  3
INABA_S40G
100
AcDbAlignedDimension
 13
6693.6
 23
8211.907777930205
 33
0.0
 14
6766.600000000001
 24
8088.907777930204
 34
0.0
 50
90.0
100
AcDbRotatedDimension
1001
ACAD
1000
DSTYLE
1002
{
1070
   174
1070
     0
1070
   272
1070
     1
1070
   341
1005
0
1002
}
  0
LINE
  5
2565F
330
747D
100
AcDbEntity
  8
部品1
 48
50.0
100
AcDbLine
 10
7092.928907166847
 20
8211.9077779302
 30
0.0
 11
6693.6
 21
8211.907777930205
 31
0.0
  0
DIMENSION
  5
25660
330
747D
100
AcDbEntity
  8
寸法
 48
50.0
100
AcDbDimension
  2
*D30
 10
6693.6
 20
8957.667404472287
 30
0.0
 11
6420.493398282203
 21
8957.667404472287
 31
0.0
 70
   160
 71
     5
 42
123.0
  3
INABA_S40G
100
AcDbAlignedDimension
 13
6816.600000000001
 23
8138.907777930205
 33
0.0
 14
6693.6
 24
8211.907777930205
 34
0.0
100
AcDbRotatedDimension
1001
ACAD
1000
DSTYLE
1002
{
1070
   174
1070
     0
1070
   272
1070
     1
1070
   341
1005
0
1002
}
  0
DIMENSION
  5
25661
330
747D
100
AcDbEntity
  8
寸法
 48
50.0
100
AcDbDimension
  2
*D31
 10
6693.6
 20
9170.128099989126
 30
0.0
 11
6377.425378797541
 21
9170.128099989126
 31
0.0
 70
   160
  1
a
 71
     5
 42
50.0
  3
INABA_S40G
100
AcDbAlignedDimension
 13
6643.600000000001
 23
8957.667404472283
 33
0.0
 14
6693.6
 24
8211.907777930205
 34
0.0
100
AcDbRotatedDimension
1001
ACAD
1000
DSTYLE
1002
{
1070
   174
1070
     0
1070
   272
1070
     1
1070
   341
1005
0
1002
}
  0
DIMENSION
  5
25662
330
747D
100
AcDbEntity
  8
寸法
 48
50.0
100
AcDbDimension
  2
*D32
 10
5331.113199717151
 20
8266.907777930205
 30
0.0
 11
5331.113199717151
 21
8239.407777930207
 31
0.0
 70
   160
  1
b
 71
     5
 42
55.0
  3
INABA_S40G
100
AcDbAlignedDimension
 13
6693.6
 23
8211.907777930205
 33
0.0
 14
5583.056296436549
 24
8266.907777930205
 34
0.0
 50
90.0
100
AcDbRotatedDimension
1001
ACAD
1000
DSTYLE
1002
{
1070
   174
1070
     0
1070
   272
1070
     1
1070
   341
1005
0
1002
}
  0
DIMENSION
  5
25663
330
747D
100
AcDbEntity
  8
寸法
 48
50.0
100
AcDbDimension
  2
*D33
 10
7140.307249876099
 20
8211.907777930205
 30
0.0
 11
7140.307249876098
 21
8489.99132120309
 31
0.0
 70
   160
 71
     5
 42
120.0
  3
INABA_S40G
100
AcDbAlignedDimension
 13
6923.600000000002
 23
8091.907777930204
 33
0.0
 14
6923.6
 24
8211.907777930205
 34
0.0
 50
90.0
100
AcDbRotatedDimension
1001
ACAD
1000
DSTYLE
1002
{
1070
   174
1070
     0
1070
   272
1070
     1
1070
   341
1005
0
1002
}
  0
LINE
  5
25664
330
747D
100
AcDbEntity
  8
センター
 48
2.0
100
AcDbLine
 10
6816.600000000001
 20
8138.907777930205
 30
0.0
 11
6816.600000000001
 21
8038.907777930203
 31
0.0
  0
LINE
  5
25665
330
747D
100
AcDbEntity
  8
部品1
 48
50.0
100
AcDbLine
 10
6923.6
 20
7981.9077779302
 30
0.0
 11
6923.600000000002
 21
8091.907777930204
 31
0.0
  0
CIRCLE
  5
25666
330
747D
100
AcDbEntity
  8
部品1
 48
50.0
100
AcDbCircle
 10
6816.600000000001
 20
8088.907777930204
 30
0.0
 40
35.0
  0
LINE
  5
25667
330
747D
100
AcDbEntity
  8
部品1
 48
50.0
100
AcDbLine
 10
6923.6
 20
7981.9077779302
 30
0.0
 11
6813.6
 21
7981.907777930205
 31
0.0
  0
LINE
  5
25668
330
747D
100
AcDbEntity
  8
センター
 48
2.0
100
AcDbLine
 10
6766.600000000001
 20
8088.907777930204
 30
0.0
 11
6866.600000000001
 21
8088.907777930204
 31
0.0
  0
LINE
  5
2566A
102
{ACAD_REACTORS
330
268DA
102
}
330
747D
100
AcDbEntity
  8
部品1
 48
50.0
100
AcDbLine
 10
8123.599999999999
 20
8091.907777930204
 30
0.0
 11
8123.600000000001
 21
8211.907777930203
 31
0.0
  0
LINE
  5
2566B
102
{ACAD_REACTORS
330
268DA
102
}
330
747D
100
AcDbEntity
  8
部品1
 48
50.0
100
AcDbLine
 10
8323.6
 20
8091.907777930204
 30
0.0
 11
8323.6
 21
8211.907777930203
 31
0.0
  0
LINE
  5
2566E
330
747D
100
AcDbEntity
  8
想像線
 48
10.0
100
AcDbLine
 10
9803.600000000001
 20
8266.907777930205
 30
0.0
 11
9803.600000000006
 21
5496.90777793021
 31
0.0
  0
LINE
  5
2566F
102
{ACAD_REACTORS
330
26940
102
}
330
747D
100
AcDbEntity
  8
部品1
 48
50.0
100
AcDbLine
 10
9753.6
 20
5571.907777930222
 30
0.0
 11
9753.6
 21
8211.907777930205
 31
0.0
  0
DIMENSION
  5
25670
330
747D
100
AcDbEntity
  8
寸法
 48
50.0
100
AcDbDimension
  2
*D34
 10
5862.694058666917
 20
8211.907777930205
 30
0.0
 11
5762.694058666916
 21
7774.407777930206
 31
0.0
 70
    32
 71
     5
 42
875.0
  3
INABA_S40G
100
AcDbAlignedDimension
 13
7396.600000000001
 23
7336.907777930204
 33
0.0
 14
6693.600000000002
 24
8211.907777930205
 34
0.0
 50
90.0
100
AcDbRotatedDimension
1001
ACAD
1000
DSTYLE
1002
{
1070
   174
1070
     0
1070
   272
1070
     1
1070
   341
1005
0
1002
}
  0
DIMENSION
  5
25672
330
747D
100
AcDbEntity
  8
寸法
 48
50.0
100
AcDbDimension
  2
*D35
 10
8950.599999999999
 20
8738.817543578532
 30
0.0
 11
9324.518522006279
 21
8738.817543578532
 31
0.0
 70
   160
 71
     5
 42
803.0
  3
INABA_S40G
100
AcDbAlignedDimension
 13
9753.6
 23
8211.907777930205
 33
0.0
 14
8950.599999999999
 24
7436.907777930205
 34
0.0
100
AcDbRotatedDimension
1001
ACAD
1000
DSTYLE
1002
{
1070
   174
1070
     0
1070
   272
1070
     1
1070
   341
1005
0
1002
}
  0
DIMENSION
  5
25673
330
747D
100
AcDbEntity
  8
寸法
 48
50.0
100
AcDbDimension
  2
*D36
 10
5862.694058666917
 20
6446.907777930205
 30
0.0
 11
5762.694058666915
 21
6891.907777930206
 31
0.0
 70
    32
 71
     5
 42
890.0
  3
INABA_S40G
100
AcDbAlignedDimension
 13
7396.600000000001
 23
7336.907777930204
 33
0.0
 14
7396.600000000001
 24
6446.907777930204
 34
0.0
 50
90.0
100
AcDbRotatedDimension
1001
ACAD
1000
DSTYLE
1002
{
1070
   174
1070
     0
1070
   272
1070
     1
1070
   341
1005
0
1002
}
  0
DIMENSION
  5
25675
330
747D
100
AcDbEntity
  8
寸法
 48
50.0
100
AcDbDimension
  2
*D37
 10
5862.694058666917
 20
6446.907777930205
 30
0.0
 11
5862.694058666915
 21
6086.120553595381
 31
0.0
 70
   160
 71
     5
 42
874.9999999999918
  3
INABA_S40G
100
AcDbAlignedDimension
 13
6693.6
 23
5571.907777930213
 33
0.0
 14
7396.600000000001
 24
6446.907777930204
 34
0.0
 50
90.0
100
AcDbRotatedDimension
1001
ACAD
1000
DSTYLE
1002
{
1070
   174
1070
     0
1070
   272
1070
     1
1070
   341
1005
0
1002
}
  0
LINE
  5
25678
330
747D
100
AcDbEntity
  8
センター
 48
2.0
100
AcDbLine
 10
8900.6
 20
6446.907777930204
 30
0.0
 11
9000.6
 21
6446.907777930204
 31
0.0
  0
LINE
  5
2567A
330
747D
100
AcDbEntity
  8
センター
 48
2.0
100
AcDbLine
 10
8950.599999999999
 20
6496.907777930204
 30
0.0
 11
8950.599999999999
 21
6396.907777930205
 31
0.0
  0
LINE
  5
2567D
330
747D
100
AcDbEntity
  8
部品1
 48
50.0
100
AcDbLine
 10
9753.6
 20
5571.907777930222
 30
0.0
 11
9301.6
 21
5571.907777930222
 31
0.0
  0
CIRCLE
  5
2567E
330
747D
100
AcDbEntity
  8
部品1
 48
50.0
100
AcDbCircle
 10
9630.600000000008
 20
5694.907777930204
 30
0.0
 40
35.0
  0
LINE
  5
2567F
330
747D
100
AcDbEntity
  8
部品1
 48
50.0
100
AcDbLine
 10
9633.600000000001
 20
5801.907777930222
 30
0.0
 11
9523.6
 21
5801.907777930222
 31
0.0
  0
LINE
  5
25680
330
747D
100
AcDbEntity
  8
センター
 48
2.0
100
AcDbLine
 10
9580.600000000009
 20
5694.907777930204
 30
0.0
 11
9680.600000000008
 21
5694.907777930204
 31
0.0
  0
LINE
  5
25681
330
747D
100
AcDbEntity
  8
部品1
 48
50.0
100
AcDbLine
 10
9523.6
 20
5691.90777793022
 30
0.0
 11
9523.6
 21
5801.907777930222
 31
0.0
  0
LINE
  5
25682
330
747D
100
AcDbEntity
  8
部品1
 48
50.0
100
AcDbLine
 10
9301.6
 20
5496.90777793021
 30
0.0
 11
9301.6
 21
5571.907777930206
 31
0.0
  0
LINE
  5
25683
330
747D
100
AcDbEntity
  8
センター
 48
2.0
100
AcDbLine
 10
9630.600000000008
 20
5744.907777930205
 30
0.0
 11
9630.600000000008
 21
5644.907777930204
 31
0.0
  0
LINE
  5
25687
330
747D
100
AcDbEntity
  8
センター
 48
2.0
100
AcDbLine
 10
8900.6
 20
7336.907777930204
 30
0.0
 11
9000.6
 21
7336.907777930204
 31
0.0
  0
LINE
  5
25689
330
747D
100
AcDbEntity
  8
センター
 48
2.0
100
AcDbLine
 10
8950.599999999999
 20
7386.907777930204
 30
0.0
 11
8950.599999999999
 21
7286.907777930204
 31
0.0
  0
LINE
  5
2568D
102
{ACAD_REACTORS
330
26940
102
}
330
747D
100
AcDbEntity
  8
部品1
 48
50.0
100
AcDbLine
 10
9753.6
 20
6791.907777930211
 30
0.0
 11
9633.600000000001
 21
6791.907777930212
 31
0.0
  0
LINE
  5
2568E
102
{ACAD_REACTORS
330
26940
102
}
330
747D
100
AcDbEntity
  8
部品1
 48
50.0
100
AcDbLine
 10
9753.6
 20
6991.907777930212
 30
0.0
 11
9633.600000000001
 21
6991.907777930213
 31
0.0
  0
DIMENSION
  5
2568F
330
747D
100
AcDbEntity
  8
寸法
 48
50.0
100
AcDbDimension
  2
*D38
 10
9630.600000000001
 20
8957.667404472287
 30
0.0
 11
10026.7066017178
 21
8957.667404472287
 31
0.0
 70
   160
 71
     5
 42
123.0
  3
INABA_S40G
100
AcDbAlignedDimension
 13
9753.6
 23
8211.907777930205
 33
0.0
 14
9630.600000000001
 24
8138.907777930205
 34
0.0
100
AcDbRotatedDimension
1001
ACAD
1000
DSTYLE
1002
{
1070
   174
1070
     0
1070
   272
1070
     1
1070
   341
1005
0
1002
}
  0
DIMENSION
  5
25690
330
747D
100
AcDbEntity
  8
寸法
 48
50.0
100
AcDbDimension
  2
*D39
 10
9803.600000000001
 20
9170.128099989126
 30
0.0
 11
10069.77462120246
 21
9170.128099989126
 31
0.0
 70
   160
  1
a
 71
     5
 42
50.0
  3
INABA_S40G
100
AcDbAlignedDimension
 13
9753.6
 23
8211.907777930205
 33
0.0
 14
9803.600000000001
 24
8957.667404472292
 34
0.0
100
AcDbRotatedDimension
1001
ACAD
1000
DSTYLE
1002
{
1070
   174
1070
     0
1070
   272
1070
     1
1070
   341
1005
0
1002
}
  0
CIRCLE
  5
25691
330
747D
100
AcDbEntity
  8
部品1
 48
50.0
100
AcDbCircle
 10
9630.600000000001
 20
8088.907777930204
 30
0.0
 40
35.0
  0
LINE
  5
25692
330
747D
100
AcDbEntity
  8
部品1
 48
50.0
100
AcDbLine
 10
9633.600000000001
 20
7981.907777930205
 30
0.0
 11
9523.6
 21
7981.907777930205
 31
0.0
  0
LINE
  5
25693
330
747D
100
AcDbEntity
  8
センター
 48
2.0
100
AcDbLine
 10
9580.600000000002
 20
8088.907777930204
 30
0.0
 11
9680.600000000001
 21
8088.907777930204
 31
0.0
  0
LINE
  5
25694
330
747D
100
AcDbEntity
  8
部品1
 48
50.0
100
AcDbLine
 10
9523.6
 20
7981.907777930205
 30
0.0
 11
9523.6
 21
8091.907777930204
 31
0.0
  0
LINE
  5
25695
330
747D
100
AcDbEntity
  8
センター
 48
2.0
100
AcDbLine
 10
9630.600000000001
 20
8138.907777930205
 30
0.0
 11
9630.600000000001
 21
8038.907777930203
 31
0.0
  0
LWPOLYLINE
  5
25BF9
330
747D
100
AcDbEntity
  8
寸法
 48
50.0
100
AcDbPolyline
 90
        3
 70
     0
 43
0.0
 10
8853.815243846915
 20
7045.574708908574
 10
8815.152167340206
 20
6897.864618136027
 10
8550.847210410244
 20
6897.864618136026
1001
ACAD
1000
DSTYLE
1002
{
1070
   341
1005
0
1070
   343
1005
0
1070
   344
1005
0
1002
}
  0
MTEXT
  5
25BFA
330
747D
100
AcDbEntity
  8
部品1
 62
     7
 48
50.0
100
AcDbMText
 10
8718.705258390153
 20
6988.654315183737
 30
0.0
 40
120.0
 41
0.0
 71
     6
 72
     1
  1
CB
  7
STYLE1
 73
     1
 44
1.0
1001
ACAD
1000
MTEXTBEGIN
1070
    73
1070
     1
1070
    44
1040
1.0
1070
    74
1070
     0
1000
MTEXTEND
  0
SOLID
  5
25BFB
330
747D
100
AcDbEntity
  8
寸法
 48
50.0
100
AcDbTrace
 10
8833.660890267053
 20
7050.850105533992
 30
0.0
 11
8885.467623599422
 21
7166.500830387779
 31
0.0
 12
8873.969597426786
 22
7040.299312283157
 32
0.0
 13
8873.969597426786
 23
7040.299312283157
 33
0.0
1001
ACAD
1000
DSTYLE
1002
{
1070
   341
1005
0
1070
   343
1005
0
1070
   344
1005
0
1002
}
  0
LEADER
  5
25C67
330
747D
100
AcDbEntity
  8
寸法
 48
50.0
100
AcDbLeader
  3
INABA_S50G
 73
     0
 74
     0
 75
     1
 40
120.0
 41
994.3492424049171
 76
     3
 10
9630.680085757006
 20
8088.921501126412
 30
0.0
 10
9804.645988304972
 20
8377.880272274154
 30
0.0
 10
9929.645988304972
 20
8377.880272274154
 30
0.0
340
25C68
1001
ACAD
1000
DSTYLE
1002
{
1070
   341
1005
0
1070
    40
1040
1.0
1070
   343
1005
0
1070
   344
1005
0
1002
}
  0
MTEXT
  5
25C68
102
{ACAD_REACTORS
330
25C67
102
}
330
747D
100
AcDbEntity
  8
部品1
 62
     7
 48
50.0
100
AcDbMText
 10
10948.99523070989
 20
8462.880272274155
 30
0.0
 40
120.0
 41
0.0
 71
     6
 72
     1
  1
アンカーボルト
  7
STYLE1
 73
     1
 44
1.0
1001
ACAD
1000
MTEXTBEGIN
1070
    73
1070
     1
1070
    44
1040
1.0
1070
    74
1070
     0
1000
MTEXTEND
  0
LEADER
  5
25C69
330
747D
100
AcDbEntity
  8
寸法
 48
50.0
100
AcDbLeader
  3
INABA_S50G
 73
     0
 74
     0
 75
     1
 40
120.0
 41
720.0000000000001
 76
     3
 10
9753.695499614996
 20
6927.665324718879
 30
0.0
 10
9910.46907400128
 20
6666.651411151047
 30
0.0
 10
10035.46907400128
 20
6666.651411151047
 30
0.0
340
25C6A
1001
ACAD
1000
DSTYLE
1002
{
1070
   341
1005
0
1070
    40
1040
1.0
1070
   343
1005
0
1070
   344
1005
0
1002
}
  0
MTEXT
  5
25C6A
102
{ACAD_REACTORS
330
25C69
102
}
330
747D
100
AcDbEntity
  8
部品1
 62
     7
 48
50.0
100
AcDbMText
 10
10780.46907400128
 20
6751.651411151046
 30
0.0
 40
120.0
 41
0.0
 71
     6
 72
     1
  1
\A1;床下換気口
  7
STYLE1
 73
     1
 44
1.0
1001
ACAD
1000
MTEXTBEGIN
1070
    73
1070
     1
1070
    44
1040
1.0
1070
    74
1070
     0
1000
MTEXTEND
  0
LEADER
  5
25C6B
330
747D
100
AcDbEntity
  8
寸法
 48
50.0
100
AcDbLeader
  3
INABA_S50G
 73
     0
 74
     0
 75
     1
 40
120.0
 41
672.0
 76
     3
 10
9803.698313503433
 20
5800.332001126492
 30
0.0
 10
9919.638325695474
 20
5541.442657662916
 30
0.0
 10
10044.63832569547
 20
5541.442657662916
 30
0.0
340
25C6C
1001
ACAD
1000
DSTYLE
1002
{
1070
   341
1005
0
1070
    40
1040
1.0
1070
   343
1005
0
1070
   344
1005
0
1002
}
  0
MTEXT
  5
25C6C
102
{ACAD_REACTORS
330
25C6B
102
}
330
747D
100
AcDbEntity
  8
部品1
 62
     7
 48
50.0
100
AcDbMText
 10
10741.63832569547
 20
5626.442657662916
 30
0.0
 40
120.0
 41
0.0
 71
     6
 72
     1
  1
\A1;屋根の外寸
  7
STYLE1
 73
     1
 44
1.0
1001
ACAD
1000
MTEXTBEGIN
1070
    73
1070
     1
1070
    44
1040
1.0
1070
    74
1070
     0
1000
MTEXTEND
  0
TEXT
  5
25C6D
330
747D
100
AcDbEntity
  8
部品1
 48
50.0
100
AcDbText
 10
9943.851129706867
 20
5447.131970729842
 30
0.0
 40
80.0
  1
※a,b,cは屋根の出幅です。
  7
STYLE1
100
AcDbText
  0
TEXT
  5
25C6E
330
747D
100
AcDbEntity
  8
部品1
 48
50.0
100
AcDbText
 10
10102.43013846117
 20
5340.286749861086
 30
0.0
 40
80.0
  1
(a=45,b=55,c=75)
  7
STYLE1
100
AcDbText
  0
DIMENSION
  5
26097
330
747D
100
AcDbEntity
  8
寸法
 48
50.0
100
AcDbDimension
  2
*D40
 10
9523.6
 20
7754.199110429832
 30
0.0
 11
9253.540944881889
 21
7754.199110429832
 31
0.0
 70
   160
 71
     5
 42
110.0
  3
INABA_S40G
100
AcDbAlignedDimension
 13
9633.600000000001
 23
7981.907777930205
 33
0.0
 14
9523.6
 24
7981.907777930205
 34
0.0
100
AcDbRotatedDimension
1001
ACAD
1000
DSTYLE
1002
{
1070
   174
1070
     0
1070
   272
1070
     1
1070
   341
1005
0
1002
}
  0
DIMENSION
  5
26098
330
747D
100
AcDbEntity
  8
寸法
 48
50.0
100
AcDbDimension
  2
*D41
 10
9633.600000000001
 20
7754.199110429832
 30
0.0
 11
10023.65905511811
 21
7754.199110429832
 31
0.0
 70
   160
 71
     5
 42
120.0
  3
INABA_S40G
100
AcDbAlignedDimension
 13
9753.6
 23
7981.907777930207
 33
0.0
 14
9633.600000000001
 24
7981.907777930205
 34
0.0
100
AcDbRotatedDimension
1001
ACAD
1000
DSTYLE
1002
{
1070
   174
1070
     0
1070
   272
1070
     1
1070
   341
1005
0
1002
}
  0
LINE
  5
2650E
330
747D
100
AcDbEntity
  8
寸法
 48
50.0
100
AcDbLine
 10
7440.341458265277
 20
4595.961862207704
 30
0.0
 11
10191.15778665414
 21
4595.961862207704
 31
0.0
210
0.0
220
0.0
230
-1.0
1001
ACAD
1000
DSTYLE
1002
{
1070
   341
1005
0
1070
    40
1040
1.0
1070
   343
1005
0
1070
   344
1005
0
1002
}
  0
LINE
  5
2650F
330
747D
100
AcDbEntity
  8
寸法
 48
50.0
100
AcDbLine
 10
7718.10383822487
 20
5496.907777930177
 30
0.0
 11
7440.341458265277
 21
4595.961862207704
 31
0.0
210
0.0
220
0.0
230
-1.0
1001
ACAD
1000
DSTYLE
1002
{
1070
   341
1005
0
1070
    40
1040
1.0
1070
   343
1005
0
1070
   344
1005
0
1002
}
  0
DIMENSION
  5
26510
330
747D
100
AcDbEntity
  8
寸法
 48
50.0
100
AcDbDimension
  2
*D42
 10
7042.197085004764
 20
5571.90777793016
 30
0.0
 11
7042.197085004764
 21
5301.848722812049
 31
0.0
 70
   160
 71
     5
 42
120.0000000000518
  3
INABA_S40G
100
AcDbAlignedDimension
 13
6923.6
 23
5691.907777930211
 33
0.0
 14
6923.6
 24
5571.90777793016
 34
0.0
 50
90.0
100
AcDbRotatedDimension
1001
ACAD
1000
DSTYLE
1002
{
1070
   174
1070
     0
1070
   272
1070
     1
1070
   341
1005
0
1002
}
  0
DIMENSION
  5
26511
330
747D
100
AcDbEntity
  8
寸法
 48
50.0
100
AcDbDimension
  2
*D43
 10
7042.197085004764
 20
5801.907777930163
 30
0.0
 11
7042.197085004764
 21
6037.955022024654
 31
0.0
 70
   160
 71
     5
 42
109.9999999999554
  3
INABA_S40G
100
AcDbAlignedDimension
 13
6923.6
 23
5691.907777930207
 33
0.0
 14
6923.6
 24
5801.907777930163
 34
0.0
 50
90.0
100
AcDbRotatedDimension
1001
ACAD
1000
DSTYLE
1002
{
1070
   174
1070
     0
1070
   272
1070
     1
1070
   341
1005
0
1002
}
  0
DIMENSION
  5
26512
330
747D
100
AcDbEntity
  8
寸法
 48
50.0
100
AcDbDimension
  2
*D44
 10
7146.600000000001
 20
4944.687091109451
 30
0.0
 11
8224.100000000003
 21
5044.698902133073
 31
0.0
 70
    32
  1
扉の幅 <>
 71
     5
 42
2155.000000000002
  3
INABA_S40G
100
AcDbAlignedDimension
 13
9301.600000000002
 23
5496.907777930161
 33
0.0
 14
7146.600000000001
 24
5496.907777930193
 34
0.0
100
AcDbRotatedDimension
1001
ACAD
1000
DSTYLE
1002
{
1070
   341
1005
0
1002
}
  0
TEXT
  5
26513
330
747D
100
AcDbEntity
  8
寸法
 62
     7
100
AcDbText
 10
7566.813330072307
 20
4627.172996572442
 30
0.0
 40
120.0
  1
扉位置 (2155x75)
  7
STYLE1
100
AcDbText
  0
SOLID
  5
26514
330
747D
100
AcDbEntity
  8
寸法
 48
50.0
100
AcDbTrace
 10
-7701.194632554882
 20
5371.31674902529
 30
0.0
 11
-7718.10383822487
 21
5496.907777930177
 31
0.0
 12
-7661.376418081406
 22
5383.5895199942
 32
0.0
 13
-7661.376418081406
 23
5383.5895199942
 33
0.0
210
0.0
220
0.0
230
-1.0
1001
ACAD
1000
DSTYLE
1002
{
1070
   341
1005
0
1070
    40
1040
1.0
1070
   343
1005
0
1070
   344
1005
0
1002
}
  0
TEXT
  5
26515
330
747D
100
AcDbEntity
  8
寸法
 62
     7
100
AcDbText
 10
7566.813330072307
 20
4455.569233689116
 30
0.0
 40
120.0
  1
扉の位置に合わせた基礎形状として下さい。
  7
STYLE1
100
AcDbText
  0
DIMENSION
  5
26516
330
747D
100
AcDbEntity
  8
寸法
 48
50.0
100
AcDbDimension
  2
*D45
 10
7415.743526793875
 20
5691.907777930208
 30
0.0
 11
7415.743526793875
 21
5258.212836726295
 31
0.0
 70
   160
 71
     5
 42
195.0000000000209
  3
INABA_S40G
100
AcDbAlignedDimension
 13
7146.599999999963
 23
5496.907777930188
 33
0.0
 14
7146.599999999963
 24
5691.907777930208
 34
0.0
 50
270.0
100
AcDbRotatedDimension
1001
ACAD
1000
DSTYLE
1002
{
1070
   341
1005
0
1002
}
  0
LINE
  5
26517
330
747D
100
AcDbEntity
  8
想像線
 48
10.0
100
AcDbLine
 10
9007.790201497059
 20
8266.907777930205
 30
0.0
 11
9803.600000000001
 21
8266.907777930205
 31
0.0
  0
DIMENSION
  5
26573
330
747D
100
AcDbEntity
  8
寸法
 48
50.0
100
AcDbDimension
  2
*D46
 10
6152.129227237224
 20
5571.907777930158
 30
0.0
 11
6152.129227237223
 21
4963.422496555952
 31
0.0
 70
   160
  1
扉の出<>
 71
     5
 42
74.99999999996998
  3
INABA_S40G
100
AcDbAlignedDimension
 13
7146.599999999963
 23
5496.907777930188
 33
0.0
 14
6693.6
 24
5571.907777930158
 34
0.0
 50
90.0
100
AcDbRotatedDimension
1001
ACAD
1000
DSTYLE
1002
{
1070
   174
1070
     0
1070
   272
1070
     1
1070
   341
1005
0
1002
}
  0
DIMENSION
  5
26574
330
747D
100
AcDbEntity
  8
寸法
 48
50.0
100
AcDbDimension
  2
*D47
 10
6693.6
 20
4944.687091109451
 30
0.0
 11
6916.400741355807
 21
4944.687091109451
 31
0.0
 70
   160
 71
     5
 42
453.0
  3
INABA_S40G
100
AcDbAlignedDimension
 13
7146.600000000001
 23
5496.907777930147
 33
0.0
 14
6693.6
 24
5571.907777930158
 34
0.0
100
AcDbRotatedDimension
1001
ACAD
1000
DSTYLE
1002
{
1070
   174
1070
     0
1070
   272
1070
     1
1070
   341
1005
0
1002
}
  0
LINE
  5
267FC
330
747D
100
AcDbEntity
  8
想像線
 48
10.0
100
AcDbLine
 10
9007.790201497064
 20
5496.90777793021
 30
0.0
 11
9803.600000000006
 21
5496.90777793021
 31
0.0
  0
LINE
  5
26825
330
747D
100
AcDbEntity
  8
部品1
 48
50.0
100
AcDbLine
 10
7596.600000000001
 20
7536.907777930204
 30
0.0
 11
7396.600000000001
 21
7536.907777930204
 31
0.0
  0
LINE
  5
26826
330
747D
100
AcDbEntity
  8
部品1
 48
50.0
100
AcDbLine
 10
7596.600000000001
 20
7136.907777930204
 30
0.0
 11
7396.600000000001
 21
7136.907777930204
 31
0.0
  0
LINE
  5
26827
330
747D
100
AcDbEntity
  8
部品1
 48
50.0
100
AcDbLine
 10
7396.600000000001
 20
7136.907777930204
 30
0.0
 11
7396.600000000001
 21
7536.907777930204
 31
0.0
  0
LINE
  5
26828
330
747D
100
AcDbEntity
  8
部品1
 48
50.0
100
AcDbLine
 10
7596.600000000001
 20
7136.907777930204
 30
0.0
 11
7596.600000000001
 21
7536.907777930204
 31
0.0
  0
LINE
  5
26831
330
747D
100
AcDbEntity
  8
部品1
 48
50.0
100
AcDbLine
 10
8323.6
 20
7536.907777930204
 30
0.0
 11
8123.600000000001
 21
7536.907777930204
 31
0.0
  0
LINE
  5
26832
330
747D
100
AcDbEntity
  8
部品1
 48
50.0
100
AcDbLine
 10
8323.6
 20
7136.907777930204
 30
0.0
 11
8123.600000000001
 21
7136.907777930204
 31
0.0
  0
LINE
  5
26833
330
747D
100
AcDbEntity
  8
部品1
 48
50.0
100
AcDbLine
 10
8123.600000000001
 20
7136.907777930204
 30
0.0
 11
8123.600000000001
 21
7536.907777930204
 31
0.0
  0
LINE
  5
26834
330
747D
100
AcDbEntity
  8
部品1
 48
50.0
100
AcDbLine
 10
8323.6
 20
7136.907777930204
 30
0.0
 11
8323.6
 21
7536.907777930204
 31
0.0
  0
LINE
  5
2683D
330
747D
100
AcDbEntity
  8
部品1
 48
50.0
100
AcDbLine
 10
9050.600000000001
 20
7536.907777930204
 30
0.0
 11
8850.6
 21
7536.907777930204
 31
0.0
  0
LINE
  5
2683E
330
747D
100
AcDbEntity
  8
部品1
 48
50.0
100
AcDbLine
 10
9050.600000000001
 20
7136.907777930204
 30
0.0
 11
8850.6
 21
7136.907777930204
 31
0.0
  0
LINE
  5
2683F
330
747D
100
AcDbEntity
  8
部品1
 48
50.0
100
AcDbLine
 10
8850.6
 20
7136.907777930204
 30
0.0
 11
8850.6
 21
7536.907777930204
 31
0.0
  0
LINE
  5
26840
330
747D
100
AcDbEntity
  8
部品1
 48
50.0
100
AcDbLine
 10
9050.600000000001
 20
7136.907777930204
 30
0.0
 11
9050.600000000001
 21
7536.907777930204
 31
0.0
  0
LINE
  5
26849
330
747D
100
AcDbEntity
  8
部品1
 48
50.0
100
AcDbLine
 10
7596.600000000001
 20
6646.907777930204
 30
0.0
 11
7396.600000000001
 21
6646.907777930204
 31
0.0
  0
LINE
  5
2684A
330
747D
100
AcDbEntity
  8
部品1
 48
50.0
100
AcDbLine
 10
7596.600000000001
 20
6246.907777930204
 30
0.0
 11
7396.600000000001
 21
6246.907777930204
 31
0.0
  0
LINE
  5
2684B
330
747D
100
AcDbEntity
  8
部品1
 48
50.0
100
AcDbLine
 10
7396.600000000001
 20
6246.907777930204
 30
0.0
 11
7396.600000000001
 21
6646.907777930204
 31
0.0
  0
LINE
  5
2684C
330
747D
100
AcDbEntity
  8
部品1
 48
50.0
100
AcDbLine
 10
7596.600000000001
 20
6246.907777930204
 30
0.0
 11
7596.600000000001
 21
6646.907777930204
 31
0.0
  0
LINE
  5
26855
330
747D
100
AcDbEntity
  8
部品1
 48
50.0
100
AcDbLine
 10
8323.6
 20
6646.907777930204
 30
0.0
 11
8123.600000000001
 21
6646.907777930204
 31
0.0
  0
LINE
  5
26856
330
747D
100
AcDbEntity
  8
部品1
 48
50.0
100
AcDbLine
 10
8323.6
 20
6246.907777930204
 30
0.0
 11
8123.600000000001
 21
6246.907777930204
 31
0.0
  0
LINE
  5
26857
330
747D
100
AcDbEntity
  8
部品1
 48
50.0
100
AcDbLine
 10
8123.600000000001
 20
6246.907777930204
 30
0.0
 11
8123.600000000001
 21
6646.907777930204
 31
0.0
  0
LINE
  5
26858
330
747D
100
AcDbEntity
  8
部品1
 48
50.0
100
AcDbLine
 10
8323.6
 20
6246.907777930204
 30
0.0
 11
8323.6
 21
6646.907777930204
 31
0.0
  0
LINE
  5
26861
330
747D
100
AcDbEntity
  8
部品1
 48
50.0
100
AcDbLine
 10
9050.600000000001
 20
6646.907777930204
 30
0.0
 11
8850.6
 21
6646.907777930204
 31
0.0
  0
LINE
  5
26862
330
747D
100
AcDbEntity
  8
部品1
 48
50.0
100
AcDbLine
 10
9050.600000000001
 20
6246.907777930204
 30
0.0
 11
8850.6
 21
6246.907777930204
 31
0.0
  0
LINE
  5
26863
330
747D
100
AcDbEntity
  8
部品1
 48
50.0
100
AcDbLine
 10
8850.6
 20
6246.907777930204
 30
0.0
 11
8850.6
 21
6646.907777930204
 31
0.0
  0
LINE
  5
26864
330
747D
100
AcDbEntity
  8
部品1
 48
50.0
100
AcDbLine
 10
9050.600000000001
 20
6246.907777930204
 30
0.0
 11
9050.600000000001
 21
6646.907777930204
 31
0.0
  0
LINE
  5
2686F
102
{ACAD_REACTORS
330
26940
102
}
330
747D
100
AcDbEntity
  8
部品1
 48
50.0
100
AcDbLine
 10
9633.600000000001
 20
5801.907777930226
 30
0.0
 11
9633.600000000001
 21
7981.907777930205
 31
0.0
  0
LINE
  5
26870
102
{ACAD_REACTORS
330
268DA
102
}
330
747D
100
AcDbEntity
  8
部品1
 48
50.0
100
AcDbLine
 10
9523.6
 20
8091.907777930204
 30
0.0
 11
6923.6
 21
8091.907777930204
 31
0.0
  0
LINE
  5
26871
102
{ACAD_REACTORS
330
268FC
102
}
330
747D
100
AcDbEntity
  8
部品1
 48
50.0
100
AcDbLine
 10
6813.6
 20
5801.907777930204
 30
0.0
 11
6813.6
 21
7981.9077779302
 31
0.0
  0
LINE
  5
26872
102
{ACAD_REACTORS
330
2691E
102
}
330
747D
100
AcDbEntity
  8
部品1
 48
50.0
100
AcDbLine
 10
9523.6
 20
5691.907777930219
 30
0.0
 11
6923.6
 21
5691.907777930207
 31
0.0
  0
HATCH
  5
268DA
330
747D
100
AcDbEntity
  8
細線
 48
50.0
100
AcDbHatch
 10
0.0
 20
0.0
 30
0.0
210
0.0
220
0.0
230
1.0
  2
LINE
 70
     0
 71
     1
 91
        1
 92
        7
 72
     0
 73
     1
 93
        4
 10
8323.600000000002
 20
8211.907777930205
 10
8123.600000000001
 20
8211.907777930205
 10
8123.599999999997
 20
8091.907777930204
 10
8323.6
 20
8091.907777930204
 97
        4
330
25623
330
2566A
330
26870
330
2566B
 75
     0
 76
     1
 52
45.0
 41
10.0
 77
     0
 78
     1
 53
45.0
 43
0.0
 44
0.0
 45
-22.45064030267288
 46
22.45064030267288
 79
     0
 47
6.22550120744011
 98
        1
 10
8276.787203884195
 20
8167.663203698463
  0
HATCH
  5
268FC
330
747D
100
AcDbEntity
  8
細線
 48
50.0
100
AcDbHatch
 10
0.0
 20
0.0
 30
0.0
210
0.0
220
0.0
230
1.0
  2
LINE
 70
     0
 71
     1
 91
        1
 92
        7
 72
     0
 73
     1
 93
        4
 10
6813.6
 20
6991.907777930212
 10
6693.599999999999
 20
6991.907777930213
 10
6693.6
 20
6791.907777930211
 10
6813.6
 20
6791.907777930211
 97
        4
330
25636
330
2562F
330
25637
330
26871
 75
     0
 76
     1
 52
45.0
 41
10.0
 77
     0
 78
     1
 53
45.0
 43
0.0
 44
0.0
 45
-22.45064030267288
 46
22.45064030267288
 79
     0
 47
6.22550120744011
 98
        1
 10
6769.514173331896
 20
6885.209952893624
  0
HATCH
  5
2691E
330
747D
100
AcDbEntity
  8
細線
 48
50.0
100
AcDbHatch
 10
0.0
 20
0.0
 30
0.0
210
0.0
220
0.0
230
1.0
  2
LINE
 70
     0
 71
     1
 91
        1
 92
        7
 72
     0
 73
     1
 93
        4
 10
8323.600000000018
 20
5691.907777930214
 10
8123.600000000021
 20
5691.907777930213
 10
8123.600000000015
 20
5496.907777930199
 10
8323.600000000014
 20
5496.9077779302
 97
        4
330
26872
330
25648
330
2561E
330
25649
 75
     0
 76
     1
 52
45.0
 41
10.0
 77
     0
 78
     1
 53
45.0
 43
0.0
 44
0.0
 45
-22.45064030267288
 46
22.45064030267288
 79
     0
 47
6.22550120744011
 98
        1
 10
8226.959968062599
 20
5559.178171370211
  0
HATCH
  5
26940
330
747D
100
AcDbEntity
  8
細線
 48
50.0
100
AcDbHatch
 10
0.0
 20
0.0
 30
0.0
210
0.0
220
0.0
230
1.0
  2
LINE
 70
     0
 71
     1
 91
        1
 92
        7
 72
     0
 73
     1
 93
        4
 10
9753.600000000004
 20
6991.907777930212
 10
9633.600000000003
 20
6991.907777930213
 10
9633.600000000001
 20
6791.907777930211
 10
9753.600000000004
 20
6791.907777930211
 97
        4
330
2568E
330
2686F
330
2568D
330
2566F
 75
     0
 76
     1
 52
45.0
 41
10.0
 77
     0
 78
     1
 53
45.0
 43
0.0
 44
0.0
 45
-22.45064030267288
 46
22.45064030267288
 79
     0
 47
6.22550120744011
 98
        1
 10
9703.090993287421
 20
6922.562954260815
  0
LINE
  5
26AC8
330
747D
100
AcDbEntity
  8
部品1
100
AcDbLine
 10
10944.97035775742
 20
3335.86991477526
 30
0.0
 11
4873.98517237117
 21
3335.869914775259
 31
0.0
  0
LINE
  5
26AC9
330
747D
100
AcDbEntity
  8
部品1
100
AcDbLine
 10
10944.97035775742
 20
3095.869914775257
 30
0.0
 11
4873.985172371174
 21
3095.869914775259
 31
0.0
  0
LINE
  5
26ACA
330
747D
100
AcDbEntity
  8
部品1
100
AcDbLine
 10
4873.985172371175
 20
371.5629451906125
 30
0.0
 11
10944.97035775742
 21
371.5629451906125
 31
0.0
  0
LEADER
  5
26ACB
330
747D
100
AcDbEntity
  8
寸法
 48
50.0
100
AcDbLeader
  3
INABA_S50G
 73
     0
 74
     0
 75
     1
 40
102.2727272727273
 41
680.0000000000001
 76
     3
 10
7882.092924357628
 20
2413.773576107558
 30
0.0
 10
7916.446895470986
 20
2824.226387214098
 30
0.0
 10
8041.446895470986
 20
2824.226387214098
 30
0.0
340
26ACC
1001
ACAD
1000
DSTYLE
1002
{
1070
   341
1005
0
1070
    40
1040
1.0
1070
   343
1005
0
1070
   344
1005
0
1002
}
  0
MTEXT
  5
26ACC
102
{ACAD_REACTORS
330
26ACB
102
}
330
747D
100
AcDbEntity
  8
部品1
 62
     7
 48
50.0
100
AcDbMText
 10
8066.446895470987
 20
2900.362750850463
 30
0.0
 40
80.0
 41
0.8
 71
     4
 72
     1
  1
\A1;ナット(市販品)
  7
STYLE2
 73
     1
 44
1.0
1001
ACAD
1000
MTEXTBEGIN
1070
    73
1070
     1
1070
    44
1040
1.0
1070
    74
1070
     0
1000
MTEXTEND
  0
LEADER
  5
26ACD
330
747D
100
AcDbEntity
  8
寸法
 48
50.0
100
AcDbLeader
  3
INABA_S50G
 73
     0
 74
     0
 75
     1
 40
102.2727272727273
 41
906.8181818181818
 76
     3
 10
7906.092924357628
 20
2284.021583442695
 30
0.0
 10
7947.964514726468
 20
2639.257304449311
 30
0.0
 10
8072.964514726468
 20
2639.257304449311
 30
0.0
340
26ACE
1001
ACAD
1000
DSTYLE
1002
{
1070
   341
1005
0
1070
    40
1040
1.0
1070
   343
1005
0
1070
   344
1005
0
1002
}
  0
MTEXT
  5
26ACE
102
{ACAD_REACTORS
330
26ACD
102
}
330
747D
100
AcDbEntity
  8
部品1
 62
     7
 48
50.0
100
AcDbMText
 10
8097.964514726468
 20
2715.393668085675
 30
0.0
 40
80.0
 41
0.8
 71
     4
 72
     1
  1
\A1;ワッシャー(市販品)
  7
STYLE2
 73
     1
 44
1.0
1001
ACAD
1000
MTEXTBEGIN
1070
    73
1070
     1
1070
    44
1040
1.0
1070
    74
1070
     0
1000
MTEXTEND
  0
LWPOLYLINE
  5
26ACF
330
747D
100
AcDbEntity
  8
部品1
 48
50.0
100
AcDbPolyline
 90
        2
 70
     0
 43
8.0
 10
8058.692924357629
 20
1774.898294998416
 10
8352.395387757013
 20
1774.898294998416
  0
TEXT
  5
26AD0
330
747D
100
AcDbEntity
  8
部品1
 48
50.0
100
AcDbText
 10
8063.046508642058
 20
2370.776975760615
 30
0.0
 40
80.0
  1
基礎ボルト(市販品)
  7
STYLE2
100
AcDbText
  0
DIMENSION
  5
26AD1
330
747D
100
AcDbEntity
  8
寸法
 48
50.0
100
AcDbDimension
  2
*D48
 10
8560.561524126471
 20
1690.898294998414
 30
0.0
 11
8460.561524126472
 21
1852.898294998416
 31
0.0
 70
    32
  1
180
 71
     5
 42
324.0000000000009
  3
INABA_S40G
100
AcDbAlignedDimension
 13
8058.692924357629
 23
2014.898294998415
 33
0.0
 14
8058.692924357629
 24
1690.898294998414
 34
0.0
 50
90.0
100
AcDbRotatedDimension
1001
ACAD
1000
DSTYLE
1002
{
1070
   174
1070
     0
1070
   272
1070
     1
1070
   279
1070
     1
1070
   288
1070
     0
1070
   341
1005
0
1002
}
  0
DIMENSION
  5
26AD2
330
747D
100
AcDbEntity
  8
寸法
 48
50.0
100
AcDbDimension
  2
*D49
 10
8560.561524126471
 20
2014.898294998415
 30
0.0
 11
8836.616190245498
 21
1989.774337394203
 31
0.0
 70
   160
  1
20～25
 71
     5
 42
52.76000000000113
  3
INABA_S40G
100
AcDbAlignedDimension
 13
7871.492924357629
 23
2067.658294998416
 33
0.0
 14
8058.692924357629
 24
2014.898294998415
 34
0.0
 50
90.0
100
AcDbRotatedDimension
1001
ACAD
1000
DSTYLE
1002
{
1070
   174
1070
     0
1070
   272
1070
     1
1070
   279
1070
     1
1070
   288
1070
     0
1070
   341
1005
0
1002
}
  0
MTEXT
  5
26AD3
102
{ACAD_REACTORS
330
26AD4
102
}
330
747D
100
AcDbEntity
  8
部品1
 62
     7
 48
50.0
100
AcDbMText
 10
8067.637386776947
 20
2279.281621151645
 30
0.0
 40
80.0
 41
0.8
 71
     4
 72
     1
  1
M10X160
  7
STYLE2
 73
     1
 44
1.0
1001
ACAD
1000
MTEXTBEGIN
1070
    73
1070
     1
1070
    44
1040
1.0
1070
    74
1070
     0
1000
MTEXTEND
  0
LEADER
  5
26AD4
330
747D
100
AcDbEntity
  8
寸法
 48
50.0
100
AcDbLeader
  3
INABA_S50G
 73
     0
 74
     0
 75
     1
 40
80.0
 41
435.0
 76
     3
 10
7875.092924357628
 20
2064.058294998416
 30
0.0
 10
7917.637386776947
 20
2214.281621151645
 30
0.0
 10
8042.637386776947
 20
2214.281621151645
 30
0.0
340
26AD3
1001
ACAD
1000
DSTYLE
1002
{
1070
   341
1005
0
1070
    40
1040
1.0
1070
   343
1005
0
1070
   344
1005
0
1002
}
  0
LINE
  5
26AD5
330
747D
100
AcDbEntity
  8
部品1
100
AcDbLine
 10
4873.985172371171
 20
3335.86991477526
 30
0.0
 11
4873.985172371174
 21
371.5629451906125
 31
0.0
  0
LEADER
  5
26AD6
330
747D
100
AcDbEntity
  8
寸法
 48
50.0
100
AcDbLeader
  3
INABA_S50G
 73
     0
 75
     1
 40
113.1818181818182
 41
608.6363636363635
 76
     3
 10
7834.829674495678
 20
1964.413968356694
 30
0.0
 10
7701.025845804332
 20
2815.793050713172
 30
0.0
 10
7576.025845804332
 20
2815.793050713172
 30
0.0
340
26AD7
1001
ACAD
1000
DSTYLE
1002
{
1070
   341
1005
0
1070
    40
1040
1.0
1070
   343
1005
0
1070
   344
1005
0
1002
}
  0
MTEXT
  5
26AD7
102
{ACAD_REACTORS
330
26AD6
102
}
330
747D
100
AcDbEntity
  8
寸法
 62
     7
 48
50.0
100
AcDbMText
 10
7551.025845804332
 20
2897.383959804081
 30
0.0
 40
80.0
 41
0.8
 71
     6
 72
     1
  1
\A1;φ70スリーブ
  7
STYLE2
 73
     1
 44
1.0
1001
ACAD
1000
MTEXTBEGIN
1070
    73
1070
     1
1070
    44
1040
1.0
1070
    74
1070
     0
1000
MTEXTEND
  0
LWPOLYLINE
  5
26AD8
330
747D
100
AcDbEntity
  8
部品1
 48
50.0
100
AcDbPolyline
 90
        2
 70
     0
 43
8.0
 10
5530.513709347477
 20
1774.898294998416
 10
5944.653611180434
 20
1774.898294998416
  0
TEXT
  5
26AD9
330
747D
100
AcDbEntity
  8
部品1
 48
50.0
100
AcDbText
 10
5530.513709347477
 20
1786.13728728167
 30
0.0
 40
80.0
  1
▽G.L
  7
STYLE2
100
AcDbText
  0
DIMENSION
  5
26ADA
330
747D
100
AcDbEntity
  8
寸法
 48
50.0
100
AcDbDimension
  2
*D50
 10
5674.233297447975
 20
1230.898294998415
 30
0.0
 11
5674.233297447975
 21
1350.898294998415
 31
0.0
 70
   160
  1
150
 71
     5
 42
240.0
  3
INABA_S40G
100
AcDbAlignedDimension
 13
5816.653611180434
 23
1470.898294998415
 33
0.0
 14
5736.653611180438
 24
1230.898294998415
 34
0.0
 50
90.0
100
AcDbRotatedDimension
1001
ACAD
1000
DSTYLE
1002
{
1070
   174
1070
     0
1070
   272
1070
     1
1070
   279
1070
     1
1070
   288
1070
     0
1070
   341
1005
0
1002
}
  0
LEADER
  5
26ADB
330
747D
100
AcDbEntity
  8
寸法
 48
50.0
100
AcDbLeader
  3
INABA_S50G
 71
     0
 73
     0
 75
     1
 40
100.0
 41
225.0
 76
     3
 10
5912.556563532578
 20
1350.898294998415
 30
0.0
 10
5790.71858498524
 20
1087.375601379978
 30
0.0
 10
5665.71858498524
 20
1087.375601379978
 30
0.0
1001
ACAD
1000
DSTYLE
1002
{
1070
    40
1040
1.0
1070
   272
1070
     1
1070
   279
1070
     1
1070
   341
1005
0
1002
}
  0
LEADER
  5
26ADC
330
747D
100
AcDbEntity
  8
寸法
 48
50.0
100
AcDbLeader
  3
INABA_S50G
 71
     0
 73
     0
 75
     1
 40
100.0
 41
222.7272727272727
 76
     3
 10
6040.653611180434
 20
1350.898294998415
 30
0.0
 10
5818.841312542675
 20
907.0594488405349
 30
0.0
 10
5693.841312542675
 20
907.0594488405349
 30
0.0
1001
ACAD
1000
DSTYLE
1002
{
1070
    40
1040
1.0
1070
   272
1070
     1
1070
   279
1070
     1
1070
   341
1005
0
1002
}
  0
MTEXT
  5
26ADD
102
{ACAD_REACTORS
330
26ADE
102
}
330
747D
100
AcDbEntity
  8
寸法
 62
     7
 48
50.0
100
AcDbMText
 10
5855.40355695763
 20
1616.198897815871
 30
0.0
 40
80.0
 41
0.8
 71
     6
 72
     1
  1
\A1;D10@300
  7
STYLE2
 73
     1
 44
1.0
1001
ACAD
1000
MTEXTBEGIN
1070
    73
1070
     1
1070
    44
1040
1.0
1070
    74
1070
     0
1000
MTEXTEND
  0
LEADER
  5
26ADE
330
747D
100
AcDbEntity
  8
寸法
 48
50.0
100
AcDbLeader
  3
INABA_S50G
 71
     0
 73
     0
 75
     1
 40
100.0
 41
540.3409090909091
 76
     3
 10
6048.653611180434
 20
1773.025509695538
 30
0.0
 10
5990.671374651736
 20
1551.555181154733
 30
0.0
 10
5865.671374651736
 20
1551.555181154733
 30
0.0
213
-9.732182305893367
223
-4.643716661138569
233
0.0
1001
ACAD
1000
DSTYLE
1002
{
1070
    40
1040
1.0
1070
   272
1070
     1
1070
   279
1070
     1
1070
   341
1005
0
1002
}
  0
LEADER
  5
26ADF
330
747D
100
AcDbEntity
  8
寸法
 48
50.0
100
AcDbLeader
  3
INABA_S50G
 71
     0
 73
     0
 75
     1
 40
130.1136363636363
 41
651.1363636363636
 76
     3
 10
6024.653611180434
 20
2014.898294998415
 30
0.0
 10
5912.229031016418
 20
2155.369060455003
 30
0.0
 10
5787.229031016418
 20
2155.369060455003
 30
0.0
1001
ACAD
1000
DSTYLE
1002
{
1070
    40
1040
1.0
1070
   272
1070
     1
1070
   279
1070
     1
1070
   341
1005
0
1002
}
  0
MTEXT
  5
26AE0
102
{ACAD_REACTORS
330
26ADF
102
}
330
747D
100
AcDbEntity
  8
寸法
 62
     7
 48
50.0
100
AcDbMText
 10
5724.555131697162
 20
2227.414515000457
 30
0.0
 40
80.0
 41
0.8
 71
     6
 72
     1
  1
\A1;金コテ押エ
  7
STYLE2
 73
     1
 44
1.0
1001
ACAD
1000
MTEXTBEGIN
1070
    73
1070
     1
1070
    44
1040
1.0
1070
    74
1070
     0
1000
MTEXTEND
  0
DIMENSION
  5
26AE1
330
747D
100
AcDbEntity
  8
寸法
 48
50.0
100
AcDbDimension
  2
*D51
 10
5209.616372618693
 20
1230.898294998415
 30
0.0
 11
5209.616372618694
 21
1602.438444654415
 31
0.0
 70
   160
  1
540
 71
     5
 42
784.0
  3
INABA_S40G
100
AcDbAlignedDimension
 13
5944.653611180434
 23
2014.898294998415
 33
0.0
 14
5736.653611180438
 24
1230.898294998415
 34
0.0
 50
90.0
100
AcDbRotatedDimension
1001
ACAD
1000
DSTYLE
1002
{
1070
   174
1070
     0
1070
   272
1070
     1
1070
   279
1070
     1
1070
   288
1070
     0
1070
   341
1005
0
1002
}
  0
MTEXT
  5
26AE2
102
{ACAD_REACTORS
330
26ADC
102
}
330
747D
100
AcDbEntity
  8
寸法
 62
     7
 48
50.0
100
AcDbMText
 10
5673.841312542675
 20
967.0594488405349
 30
0.0
 40
80.0
 41
0.8
 71
     6
 72
     1
  1
D13
  7
STYLE2
 73
     1
 44
1.0
1001
ACAD
1000
MTEXTBEGIN
1070
    73
1070
     1
1070
    44
1040
1.0
1070
    74
1070
     0
1000
MTEXTEND
  0
MTEXT
  5
26AE3
102
{ACAD_REACTORS
330
26ADB
102
}
330
747D
100
AcDbEntity
  8
寸法
 62
     7
 48
50.0
100
AcDbMText
 10
5645.718584985241
 20
1147.375601379978
 30
0.0
 40
80.0
 41
0.8
 71
     6
 72
     1
  1
D10
  7
STYLE2
 73
     1
 44
1.0
1001
ACAD
1000
MTEXTBEGIN
1070
    73
1070
     1
1070
    44
1040
1.0
1070
    74
1070
     0
1000
MTEXTEND
  0
DIMENSION
  5
26AE4
330
747D
100
AcDbEntity
  8
寸法
 48
50.0
100
AcDbDimension
  2
*D52
 10
6264.653611180435
 20
692.4686569932546
 30
0.0
 11
6020.556852502211
 21
692.4686569932546
 31
0.0
 70
   160
  1
300
 71
     5
 42
448.0
  3
INABA_S40G
100
AcDbAlignedDimension
 13
5816.653611180434
 23
1102.898294998414
 33
0.0
 14
6264.653611180435
 24
1102.898294998414
 34
0.0
100
AcDbRotatedDimension
1001
ACAD
1000
DSTYLE
1002
{
1070
   174
1070
     0
1070
   272
1070
     1
1070
   279
1070
     1
1070
   288
1070
     0
1070
   341
1005
0
1002
}
  0
MTEXT
  5
26AE5
102
{ACAD_REACTORS
330
26AE6
102
}
330
747D
100
AcDbEntity
  8
寸法
 62
     7
 48
50.0
100
AcDbMText
 10
7577.668852012689
 20
2536.699687896567
 30
0.0
 40
80.0
 41
0.8
 71
     6
 72
     1
  1
アンカープレート {\fArial|b0|i0|c0|p32;U}
  7
STYLE2
 73
     1
 44
1.0
1001
ACAD
1000
MTEXTBEGIN
1070
    73
1070
     1
1070
    44
1040
1.0
1070
    74
1070
     0
1000
MTEXTEND
  0
LEADER
  5
26AE6
330
747D
100
AcDbEntity
  8
寸法
 48
50.0
100
AcDbLeader
  3
INABA_S50G
 73
     0
 75
     1
 40
106.3636363636363
 41
903.5235024184547
 76
     3
 10
7776.092924357628
 20
2084.458294998416
 30
0.0
 10
7727.66885201269
 20
2458.517869714748
 30
0.0
 10
7602.66885201269
 20
2458.517869714748
 30
0.0
340
26AE5
1001
ACAD
1000
DSTYLE
1002
{
1070
   341
1005
0
1070
    40
1040
1.0
1070
   343
1005
0
1070
   344
1005
0
1002
}
  0
LINE
  5
26AE7
330
747D
100
AcDbEntity
  8
細線
 48
50.0
100
AcDbLine
 10
6064.653611180435
 20
1853.271187666245
 30
0.0
 11
6136.653611180435
 21
1925.271187666245
 31
0.0
  0
ARC
  5
26AE8
330
747D
100
AcDbEntity
  8
部品1
 48
50.0
100
AcDbCircle
 10
6040.653611180435
 20
1875.15272439266
 30
0.0
 40
24.0
100
AcDbArc
 50
0.0
 51
180.0
  0
CIRCLE
  5
26AE9
330
747D
100
AcDbEntity
  8
部品1
 48
50.0
100
AcDbCircle
 10
6040.653611180435
 20
1875.15272439266
 30
0.0
 40
8.0
  0
LINE
  5
26AEA
330
747D
100
AcDbEntity
  8
部品1
 48
50.0
100
AcDbLine
 10
5944.653611180435
 20
1470.898294998415
 30
0.0
 11
5944.653611180435
 21
2014.898294998415
 31
0.0
  0
LINE
  5
26AEB
330
747D
100
AcDbEntity
  8
部品1
 48
50.0
100
AcDbLine
 10
6136.653611180435
 20
2014.898294998415
 30
0.0
 11
6136.653611180435
 21
1470.898294998415
 31
0.0
  0
MTEXT
  5
26AEC
102
{ACAD_REACTORS
330
26AF1
102
}
330
747D
100
AcDbEntity
  8
寸法
 62
     7
 48
50.0
100
AcDbMText
 10
6219.53954820783
 20
1876.165856297342
 30
0.0
 40
80.0
 41
0.8
 71
     4
 72
     1
  1
D13
  7
STYLE2
 73
     1
 44
1.0
1001
ACAD
1000
MTEXTBEGIN
1070
    73
1070
     1
1070
    44
1040
1.0
1070
    74
1070
     0
1000
MTEXTEND
  0
LEADER
  5
26AED
330
747D
100
AcDbEntity
  8
寸法
 48
50.0
100
AcDbLeader
  3
INABA_S50G
 71
     0
 73
     0
 74
     0
 75
     1
 40
100.0
 41
225.0
 76
     3
 10
6168.556563532577
 20
1350.898294998415
 30
0.0
 10
6222.981270987119
 20
1255.501226055442
 30
0.0
 10
6347.981270987119
 20
1255.501226055442
 30
0.0
1001
ACAD
1000
DSTYLE
1002
{
1070
    40
1040
1.0
1070
   272
1070
     1
1070
   279
1070
     1
1070
   341
1005
0
1002
}
  0
LEADER
  5
26AEE
330
747D
100
AcDbEntity
  8
寸法
 48
50.0
100
AcDbLeader
  3
INABA_S50G
 71
     0
 73
     0
 74
     0
 75
     1
 40
100.0
 41
540.3409090909091
 76
     3
 10
6114.598780193609
 20
1334.157764584889
 30
0.0
 10
6233.392067041686
 20
992.5269465899919
 30
0.0
 10
6358.392067041686
 20
992.5269465899919
 30
0.0
213
0.0
223
-1.022262676269383
233
0.0
1001
ACAD
1000
DSTYLE
1002
{
1070
    40
1040
1.0
1070
   272
1070
     1
1070
   279
1070
     1
1070
   341
1005
0
1002
}
  0
MTEXT
  5
26AEF
102
{ACAD_REACTORS
330
26AED
102
}
330
747D
100
AcDbEntity
  8
寸法
 62
     7
 48
50.0
100
AcDbMText
 10
6367.981270987119
 20
1315.501226055442
 30
0.0
 40
80.0
 41
0.8
 71
     4
 72
     1
  1
D10
  7
STYLE2
 73
     1
 44
1.0
1001
ACAD
1000
MTEXTBEGIN
1070
    73
1070
     1
1070
    44
1040
1.0
1070
    74
1070
     0
1000
MTEXTEND
  0
LWPOLYLINE
  5
26AF0
330
747D
100
AcDbEntity
  8
部品1
 48
50.0
100
AcDbPolyline
 90
        2
 70
     0
 43
8.0
 10
6136.653611180435
 20
1774.898294998416
 10
6550.793513013392
 20
1774.898294998416
  0
LEADER
  5
26AF1
330
747D
100
AcDbEntity
  8
寸法
 48
50.0
100
AcDbLeader
  3
INABA_S50G
 71
     0
 73
     0
 74
     0
 75
     1
 40
100.0
 41
222.7272727272727
 76
     3
 10
6040.653611180434
 20
1875.15272439266
 30
0.0
 10
6074.539548207829
 20
1816.165856297342
 30
0.0
 10
6199.539548207829
 20
1816.165856297342
 30
0.0
1001
ACAD
1000
DSTYLE
1002
{
1070
    40
1040
1.0
1070
   272
1070
     1
1070
   279
1070
     1
1070
   341
1005
0
1002
}
  0
LINE
  5
26AF2
330
747D
100
AcDbEntity
  8
細線
 48
50.0
100
AcDbLine
 10
5816.653611180428
 20
1389.745040760586
 30
0.0
 11
5897.806865418264
 21
1470.898294998415
 31
0.0
  0
LINE
  5
26AF3
330
747D
100
AcDbEntity
  8
細線
 48
50.0
100
AcDbLine
 10
6024.519458657839
 20
1409.025509695537
 30
0.0
 11
6048.653611180441
 21
1433.159662218136
 31
0.0
  0
LINE
  5
26AF4
330
747D
100
AcDbEntity
  8
細線
 48
50.0
100
AcDbLine
 10
5931.451475597508
 20
1342.898294998415
 30
0.0
 11
6048.653611180435
 21
1460.10043058134
 31
0.0
  0
LINE
  5
26AF5
330
747D
100
AcDbEntity
  8
部品1
 48
50.0
100
AcDbLine
 10
5816.653611180435
 20
1230.898294998415
 30
0.0
 11
5816.653611180435
 21
1470.898294998415
 31
0.0
  0
LINE
  5
26AF6
330
747D
100
AcDbEntity
  8
細線
 48
50.0
100
AcDbLine
 10
6173.918390866379
 20
1342.898294998415
 30
0.0
 11
6264.653611180435
 21
1433.633515312474
 31
0.0
  0
LINE
  5
26AF7
330
747D
100
AcDbEntity
  8
細線
 48
50.0
100
AcDbLine
 10
6146.977622503163
 20
1342.898294998415
 30
0.0
 11
6264.653611180435
 21
1460.574283675681
 31
0.0
  0
LINE
  5
26AF8
330
747D
100
AcDbEntity
  8
部品1
 48
50.0
100
AcDbLine
 10
6264.653611180435
 20
1470.898294998415
 30
0.0
 11
6264.653611180435
 21
1230.898294998415
 31
0.0
  0
LINE
  5
26AF9
330
747D
100
AcDbEntity
  8
部品1
 48
50.0
100
AcDbLine
 10
6064.653611180441
 20
1350.898294998415
 30
0.0
 11
6064.653611180435
 21
1875.15272439266
 31
0.0
  0
LINE
  5
26AFA
330
747D
100
AcDbEntity
  8
部品1
 48
50.0
100
AcDbLine
 10
6048.653611180441
 20
1350.898294998415
 30
0.0
 11
6048.653611180428
 21
1875.15272439266
 31
0.0
  0
LINE
  5
26AFB
330
747D
100
AcDbEntity
  8
細線
 48
50.0
100
AcDbLine
 10
6032.653611180435
 20
1390.218893854926
 30
0.0
 11
6048.653611180441
 21
1406.218893854926
 31
0.0
  0
LINE
  5
26AFC
330
747D
100
AcDbEntity
  8
細線
 48
50.0
100
AcDbLine
 10
6021.836450676449
 20
1102.898294998414
 30
0.0
 11
6056.133947307632
 21
1230.898294998415
 31
0.0
  0
LINE
  5
26AFD
330
747D
100
AcDbEntity
  8
部品1
 48
50.0
100
AcDbLine
 10
6344.653611180439
 20
1102.898294998414
 30
0.0
 11
5736.653611180437
 21
1102.898294998414
 31
0.0
  0
LINE
  5
26AFE
330
747D
100
AcDbEntity
  8
部品1
 48
50.0
100
AcDbLine
 10
5872.653611180435
 20
1326.898294998415
 30
0.0
 11
6208.653611180436
 21
1326.898294998415
 31
0.0
  0
LINE
  5
26AFF
330
747D
100
AcDbEntity
  8
部品1
 48
50.0
100
AcDbLine
 10
5872.653611180435
 20
1342.898294998415
 30
0.0
 11
6208.653611180436
 21
1342.898294998415
 31
0.0
  0
LINE
  5
26B00
330
747D
100
AcDbEntity
  8
部品1
 48
50.0
100
AcDbLine
 10
6344.653611180439
 20
1230.898294998415
 30
0.0
 11
5736.653611180437
 21
1230.898294998415
 31
0.0
  0
CIRCLE
  5
26B01
330
747D
100
AcDbEntity
  8
部品1
 48
50.0
100
AcDbCircle
 10
6040.653611180435
 20
1350.898294998415
 30
0.0
 40
8.0
  0
LINE
  5
26B02
330
747D
100
AcDbEntity
  8
細線
 48
50.0
100
AcDbLine
 10
6034.977622503168
 20
1230.898294998415
 30
0.0
 11
6130.977622503168
 21
1326.898294998415
 31
0.0
  0
LINE
  5
26B03
330
747D
100
AcDbEntity
  8
細線
 48
50.0
100
AcDbLine
 10
5864.060360781952
 20
1102.898294998414
 30
0.0
 11
5898.357857413135
 21
1230.898294998415
 31
0.0
  0
LINE
  5
26B04
330
747D
100
AcDbEntity
  8
細線
 48
50.0
100
AcDbLine
 10
5942.948405729197
 20
1102.898294998413
 30
0.0
 11
5977.24590236038
 21
1230.898294998413
 31
0.0
  0
LINE
  5
26B05
330
747D
100
AcDbEntity
  8
細線
 48
50.0
100
AcDbLine
 10
5785.172315834693
 20
1102.898294998413
 30
0.0
 11
5819.469812465876
 21
1230.898294998413
 31
0.0
  0
LINE
  5
26B06
330
747D
100
AcDbEntity
  8
部品1
 48
50.0
100
AcDbLine
 10
5736.653611180437
 20
1102.898294998414
 30
0.0
 11
5736.653611180437
 21
1230.898294998415
 31
0.0
  0
LINE
  5
26B07
330
747D
100
AcDbEntity
  8
細線
 48
50.0
100
AcDbLine
 10
5870.491141400297
 20
1126.898294998414
 30
0.0
 11
5876.921922018645
 21
1102.898294998414
 31
0.0
  0
LINE
  5
26B08
330
747D
100
AcDbEntity
  8
細線
 48
50.0
100
AcDbLine
 10
5791.603096453046
 20
1126.898294998414
 30
0.0
 11
5798.033877071393
 21
1102.898294998414
 31
0.0
  0
LINE
  5
26B09
330
747D
100
AcDbEntity
  8
細線
 48
50.0
100
AcDbLine
 10
6028.267231294802
 20
1126.898294998414
 30
0.0
 11
6034.698011913149
 21
1102.898294998414
 31
0.0
  0
LINE
  5
26B0A
330
747D
100
AcDbEntity
  8
細線
 48
50.0
100
AcDbLine
 10
5949.37918634755
 20
1126.898294998414
 30
0.0
 11
5955.809966965896
 21
1102.898294998414
 31
0.0
  0
LINE
  5
26B0B
330
747D
100
AcDbEntity
  8
細線
 48
50.0
100
AcDbLine
 10
5846.392243960718
 20
1230.898294998415
 30
0.0
 11
5942.392243960719
 21
1326.898294998415
 31
0.0
  0
LINE
  5
26B0C
330
747D
100
AcDbEntity
  8
細線
 48
50.0
100
AcDbLine
 10
5819.451475597507
 20
1230.898294998415
 30
0.0
 11
5915.451475597508
 21
1326.898294998415
 31
0.0
  0
LINE
  5
26B0D
330
747D
100
AcDbEntity
  8
部品1
 48
50.0
100
AcDbLine
 10
5872.653611180435
 20
1342.898294998415
 30
0.0
 11
5872.653611180435
 21
1326.898294998415
 31
0.0
  0
LINE
  5
26B0E
330
747D
100
AcDbEntity
  8
細線
 48
50.0
100
AcDbLine
 10
5813.039031847536
 20
1206.898294998415
 30
0.0
 11
5806.608251229188
 21
1230.898294998415
 31
0.0
  0
LINE
  5
26B0F
330
747D
100
AcDbEntity
  8
細線
 48
50.0
100
AcDbLine
 10
5736.653611180435
 20
1216.238215964195
 30
0.0
 11
5740.581767518631
 21
1230.898294998415
 31
0.0
  0
LINE
  5
26B10
330
747D
100
AcDbEntity
  8
部品1
 48
50.0
100
AcDbLine
 10
6032.653611180435
 20
1409.025509695537
 30
0.0
 11
6016.653611180435
 21
1409.025509695537
 31
0.0
  0
CIRCLE
  5
26B11
330
747D
100
AcDbEntity
  8
部品1
 48
50.0
100
AcDbCircle
 10
5912.653611180435
 20
1350.898294998415
 30
0.0
 40
8.0
  0
LINE
  5
26B12
330
747D
100
AcDbEntity
  8
細線
 48
50.0
100
AcDbLine
 10
5985.333012323923
 20
1342.898294998415
 30
0.0
 11
6016.653611180435
 21
1374.218893854926
 31
0.0
  0
ARC
  5
26B13
330
747D
100
AcDbEntity
  8
部品1
 48
50.0
100
AcDbCircle
 10
6040.653611180435
 20
1350.898294998415
 30
0.0
 40
24.0
100
AcDbArc
 50
180.0
 51
199.4712206344866
  0
LINE
  5
26B14
330
747D
100
AcDbEntity
  8
細線
 48
50.0
100
AcDbLine
 10
5891.927076794786
 20
1206.898294998415
 30
0.0
 11
5885.496296176441
 21
1230.898294998415
 31
0.0
  0
LINE
  5
26B15
330
747D
100
AcDbEntity
  8
細線
 48
50.0
100
AcDbLine
 10
5970.815121742039
 20
1206.898294998415
 30
0.0
 11
5964.384341123693
 21
1230.898294998415
 31
0.0
  0
LINE
  5
26B16
330
747D
100
AcDbEntity
  8
細線
 48
50.0
100
AcDbLine
 10
5873.333012323924
 20
1230.898294998415
 30
0.0
 11
5969.333012323924
 21
1326.898294998415
 31
0.0
  0
LINE
  5
26B17
330
747D
100
AcDbEntity
  8
部品1
 48
50.0
100
AcDbLine
 10
6016.653611180435
 20
1409.025509695537
 30
0.0
 11
6016.653611180435
 21
1350.898294998415
 31
0.0
  0
LINE
  5
26B18
330
747D
100
AcDbEntity
  8
細線
 48
50.0
100
AcDbLine
 10
5958.392243960719
 20
1342.898294998415
 30
0.0
 11
6016.653611180435
 21
1401.159662218133
 31
0.0
  0
LINE
  5
26B19
330
747D
100
AcDbEntity
  8
部品1
 48
50.0
100
AcDbLine
 10
6032.653611180435
 20
1409.025509695537
 30
0.0
 11
6032.653611180435
 21
1350.898294998415
 31
0.0
  0
LINE
  5
26B1A
330
747D
100
AcDbEntity
  8
部品1
 48
50.0
100
AcDbLine
 10
6344.653611180439
 20
1230.898294998415
 30
0.0
 11
6344.653611180439
 21
1102.898294998414
 31
0.0
  0
LINE
  5
26B1B
330
747D
100
AcDbEntity
  8
細線
 48
50.0
100
AcDbLine
 10
6258.500585518189
 20
1102.898294998414
 30
0.0
 11
6292.798082149374
 21
1230.898294998413
 31
0.0
  0
LINE
  5
26B1C
330
747D
100
AcDbEntity
  8
細線
 48
50.0
100
AcDbLine
 10
6100.724495623694
 20
1102.898294998414
 30
0.0
 11
6135.021992254881
 21
1230.898294998413
 31
0.0
  0
LINE
  5
26B1D
330
747D
100
AcDbEntity
  8
細線
 48
50.0
100
AcDbLine
 10
6179.612540570944
 20
1102.898294998413
 30
0.0
 11
6213.910037202129
 21
1230.898294998413
 31
0.0
  0
LINE
  5
26B1E
330
747D
100
AcDbEntity
  8
細線
 48
50.0
100
AcDbLine
 10
6186.043321189293
 20
1126.898294998414
 30
0.0
 11
6192.474101807641
 21
1102.898294998414
 31
0.0
  0
LINE
  5
26B1F
330
747D
100
AcDbEntity
  8
細線
 48
50.0
100
AcDbLine
 10
6107.155276242048
 20
1126.898294998414
 30
0.0
 11
6113.586056860394
 21
1102.898294998414
 31
0.0
  0
LINE
  5
26B20
330
747D
100
AcDbEntity
  8
細線
 48
50.0
100
AcDbLine
 10
6264.93136613654
 20
1126.898294998414
 30
0.0
 11
6271.362146754889
 21
1102.898294998414
 31
0.0
  0
LINE
  5
26B21
330
747D
100
AcDbEntity
  8
細線
 48
50.0
100
AcDbLine
 10
6343.819411083788
 20
1126.898294998414
 30
0.0
 11
6344.653611180436
 21
1123.78501785405
 31
0.0
  0
LINE
  5
26B22
330
747D
100
AcDbEntity
  8
細線
 48
50.0
100
AcDbLine
 10
6337.388630465438
 20
1102.898294998413
 30
0.0
 11
6344.653611180436
 21
1130.011572142803
 31
0.0
  0
LINE
  5
26B23
330
747D
100
AcDbEntity
  8
細線
 48
50.0
100
AcDbLine
 10
6200.859159229583
 20
1342.898294998415
 30
0.0
 11
6264.653611180435
 21
1406.692746949266
 31
0.0
  0
CIRCLE
  5
26B24
330
747D
100
AcDbEntity
  8
部品1
 48
50.0
100
AcDbCircle
 10
6168.653611180435
 20
1350.898294998415
 30
0.0
 40
8.0
  0
ARC
  5
26B25
330
747D
100
AcDbEntity
  8
部品1
 48
50.0
100
AcDbCircle
 10
6040.653611180435
 20
1350.898294998415
 30
0.0
 40
24.0
100
AcDbArc
 50
340.5287793655134
 51
0.0
  0
LINE
  5
26B26
330
747D
100
AcDbEntity
  8
細線
 48
50.0
100
AcDbLine
 10
6049.703166689291
 20
1206.898294998415
 30
0.0
 11
6043.272386070944
 21
1230.898294998415
 31
0.0
  0
LINE
  5
26B27
330
747D
100
AcDbEntity
  8
細線
 48
50.0
100
AcDbLine
 10
6128.591211636537
 20
1206.898294998415
 30
0.0
 11
6122.16043101819
 21
1230.898294998415
 31
0.0
  0
LINE
  5
26B28
330
747D
100
AcDbEntity
  8
細線
 48
50.0
100
AcDbLine
 10
6061.918390866379
 20
1230.898294998415
 30
0.0
 11
6157.918390866379
 21
1326.898294998415
 31
0.0
  0
LINE
  5
26B29
330
747D
100
AcDbEntity
  8
細線
 48
50.0
100
AcDbLine
 10
6088.859159229582
 20
1230.898294998415
 30
0.0
 11
6184.86004707472
 21
1326.899182843553
 31
0.0
  0
LINE
  5
26B2A
330
747D
100
AcDbEntity
  8
部品1
 48
50.0
100
AcDbLine
 10
6208.653611180436
 20
1342.898294998415
 30
0.0
 11
6208.653611180436
 21
1326.898294998415
 31
0.0
  0
LINE
  5
26B2B
330
747D
100
AcDbEntity
  8
細線
 48
50.0
100
AcDbLine
 10
6286.367301531029
 20
1206.898294998415
 30
0.0
 11
6279.936520912682
 21
1230.898294998415
 31
0.0
  0
LINE
  5
26B2C
330
747D
100
AcDbEntity
  8
細線
 48
50.0
100
AcDbLine
 10
6250.503769408829
 20
1230.898294998415
 30
0.0
 11
6264.653611180435
 21
1245.048136770021
 31
0.0
  0
LINE
  5
26B2D
330
747D
100
AcDbEntity
  8
細線
 48
50.0
100
AcDbLine
 10
6207.479256583782
 20
1206.898294998415
 30
0.0
 11
6201.048475965436
 21
1230.898294998415
 31
0.0
  0
LINE
  5
26B2E
330
747D
100
AcDbEntity
  8
細線
 48
50.0
100
AcDbLine
 10
5944.653611180435
 20
1544.685809123793
 30
0.0
 11
6048.653611180441
 21
1648.685809123795
 31
0.0
  0
LINE
  5
26B2F
330
747D
100
AcDbEntity
  8
細線
 48
50.0
100
AcDbLine
 10
5944.653611180435
 20
1571.626577487001
 30
0.0
 11
6048.653611180435
 21
1675.626577487001
 31
0.0
  0
LINE
  5
26B30
330
747D
100
AcDbEntity
  8
細線
 48
50.0
100
AcDbLine
 10
5944.653611180435
 20
1517.745040760585
 30
0.0
 11
6048.653611180441
 21
1621.745040760585
 31
0.0
  0
LINE
  5
26B31
330
747D
100
AcDbEntity
  8
細線
 48
50.0
100
AcDbLine
 10
6032.653611180435
 20
1821.271187666245
 30
0.0
 11
6048.653611180435
 21
1837.271187666245
 31
0.0
  0
LINE
  5
26B32
330
747D
100
AcDbEntity
  8
細線
 48
50.0
100
AcDbLine
 10
6032.653611180435
 20
1848.211956029452
 30
0.0
 11
6048.653611180435
 21
1864.211956029452
 31
0.0
  0
LINE
  5
26B33
330
747D
100
AcDbEntity
  8
部品1
 48
50.0
100
AcDbLine
 10
5816.653611180435
 20
1470.898294998415
 30
0.0
 11
5944.653611180435
 21
1470.898294998415
 31
0.0
  0
LINE
  5
26B34
330
747D
100
AcDbEntity
  8
細線
 48
50.0
100
AcDbLine
 10
5816.653611180428
 20
1416.68580912379
 30
0.0
 11
5870.86609705506
 21
1470.898294998415
 31
0.0
  0
LINE
  5
26B35
330
747D
100
AcDbEntity
  8
細線
 48
50.0
100
AcDbLine
 10
5816.653611180428
 20
1443.626577487001
 30
0.0
 11
5843.925328691849
 21
1470.898294998415
 31
0.0
  0
LINE
  5
26B36
330
747D
100
AcDbEntity
  8
部品1
 48
50.0
100
AcDbLine
 10
6032.653611180435
 20
1817.025509695537
 30
0.0
 11
6016.653611180435
 21
1817.025509695541
 31
0.0
  0
LINE
  5
26B37
330
747D
100
AcDbEntity
  8
細線
 48
50.0
100
AcDbLine
 10
5944.653611180435
 20
1733.271187666245
 30
0.0
 11
6028.407933209729
 21
1817.025509695537
 31
0.0
  0
LINE
  5
26B38
330
747D
100
AcDbEntity
  8
細線
 48
50.0
100
AcDbLine
 10
5944.653611180435
 20
1760.211956029452
 30
0.0
 11
6016.653611180435
 21
1832.211956029452
 31
0.0
  0
LINE
  5
26B39
330
747D
100
AcDbEntity
  8
部品1
 48
50.0
100
AcDbLine
 10
6016.653611180435
 20
1817.025509695541
 30
0.0
 11
6016.653611180435
 21
1875.15272439266
 31
0.0
  0
LINE
  5
26B3A
330
747D
100
AcDbEntity
  8
細線
 48
50.0
100
AcDbLine
 10
5944.653611180435
 20
1787.15272439266
 30
0.0
 11
6016.653611180435
 21
1859.15272439266
 31
0.0
  0
LINE
  5
26B3B
330
747D
100
AcDbEntity
  8
部品1
 48
50.0
100
AcDbLine
 10
6032.653611180435
 20
1817.025509695537
 30
0.0
 11
6032.653611180435
 21
1875.15272439266
 31
0.0
  0
LINE
  5
26B3C
330
747D
100
AcDbEntity
  8
細線
 48
50.0
100
AcDbLine
 10
6064.653611180441
 20
1637.745040760585
 30
0.0
 11
6136.653611180427
 21
1709.745040760586
 31
0.0
  0
LINE
  5
26B3D
330
747D
100
AcDbEntity
  8
部品1
 48
50.0
100
AcDbLine
 10
6136.653611180435
 20
1470.898294998415
 30
0.0
 11
6264.653611180435
 21
1470.898294998415
 31
0.0
  0
LINE
  5
26B3E
330
747D
100
AcDbEntity
  8
細線
 48
50.0
100
AcDbLine
 10
6064.653611180441
 20
1449.159662218136
 30
0.0
 11
6136.653611180427
 21
1521.15966221813
 31
0.0
  0
LINE
  5
26B3F
330
747D
100
AcDbEntity
  8
細線
 48
50.0
100
AcDbLine
 10
6064.653611180441
 20
1476.100430581344
 30
0.0
 11
6136.653611180427
 21
1548.10043058134
 31
0.0
  0
LINE
  5
26B40
330
747D
100
AcDbEntity
  8
細線
 48
50.0
100
AcDbLine
 10
6064.653611180441
 20
1422.218893854926
 30
0.0
 11
6136.653611180427
 21
1494.218893854926
 31
0.0
  0
LINE
  5
26B41
330
747D
100
AcDbEntity
  8
細線
 48
50.0
100
AcDbLine
 10
6064.653611180435
 20
1691.626577487001
 30
0.0
 11
6136.653611180435
 21
1763.626577487
 31
0.0
  0
LINE
  5
26B42
330
747D
100
AcDbEntity
  8
細線
 48
50.0
100
AcDbLine
 10
6064.653611180441
 20
1664.685809123795
 30
0.0
 11
6136.653611180427
 21
1736.68580912379
 31
0.0
  0
MTEXT
  5
26B43
102
{ACAD_REACTORS
330
26AEE
102
}
330
747D
100
AcDbEntity
  8
寸法
 62
     7
 48
50.0
100
AcDbMText
 10
6378.392067041685
 20
1053.549209266261
 30
0.0
 40
80.0
 41
0.8
 71
     4
 72
     1
  1
\A1;D10@300
  7
STYLE2
 73
     1
 44
1.0
1001
ACAD
1000
MTEXTBEGIN
1070
    73
1070
     1
1070
    44
1040
1.0
1070
    74
1070
     0
1000
MTEXTEND
  0
DIMENSION
  5
26B44
330
747D
100
AcDbEntity
  8
寸法
 48
50.0
100
AcDbDimension
  2
*D53
 10
5944.653611180434
 20
2334.898294998415
 30
0.0
 11
6051.879941525632
 21
2434.566102914795
 31
0.0
 70
   160
  1
120\P195
 71
     5
 42
192.0
  3
INABA_S40G
100
AcDbAlignedDimension
 13
6136.653611180435
 23
2014.898294998415
 33
0.0
 14
5944.653611180434
 24
2014.898294998415
 34
0.0
100
AcDbRotatedDimension
1001
ACAD
1000
DSTYLE
1002
{
1070
   174
1070
     0
1070
   272
1070
     1
1070
   279
1070
     1
1070
   288
1070
     0
1070
   341
1005
0
1002
}
  0
LINE
  5
26B45
330
747D
100
AcDbEntity
  8
部品1
 48
50.0
100
AcDbLine
 10
5944.653611180435
 20
2014.898294998415
 30
0.0
 11
6136.653611180435
 21
2014.898294998415
 31
0.0
  0
LINE
  5
26B46
330
747D
100
AcDbEntity
  8
細線
 48
50.0
100
AcDbLine
 10
5944.653611180435
 20
1975.738102935112
 30
0.0
 11
5983.813803243739
 21
2014.898294998415
 31
0.0
  0
LINE
  5
26B47
330
747D
100
AcDbEntity
  8
細線
 48
50.0
100
AcDbLine
 10
5944.653611180435
 20
1948.797334571905
 30
0.0
 11
6010.754571606945
 21
2014.898294998415
 31
0.0
  0
LINE
  5
26B48
330
747D
100
AcDbEntity
  8
細線
 48
50.0
100
AcDbLine
 10
5944.653611180435
 20
2002.67887129832
 30
0.0
 11
5956.87303488053
 21
2014.898294998415
 31
0.0
  0
LINE
  5
26B49
330
747D
100
AcDbEntity
  8
細線
 48
50.0
100
AcDbLine
 10
6064.206318446421
 20
1879.764663295436
 30
0.0
 11
6136.653611180435
 21
1952.211956029452
 31
0.0
  0
LINE
  5
26B4A
330
747D
100
AcDbEntity
  8
細線
 48
50.0
100
AcDbLine
 10
6053.146033682905
 20
1895.645146895131
 30
0.0
 11
6136.653611180435
 21
1979.15272439266
 31
0.0
  0
LINE
  5
26B4B
330
747D
100
AcDbEntity
  8
細線
 48
50.0
100
AcDbLine
 10
7929.09292435763
 20
1856.026577487003
 30
0.0
 11
8058.692924357629
 21
1985.626577487002
 31
0.0
  0
LINE
  5
26B4C
330
747D
100
AcDbEntity
  8
部品1
100
AcDbLine
 10
8058.692924357627
 20
1470.898294998415
 30
0.0
 11
8058.692924357629
 21
2014.898294998415
 31
0.0
  0
LINE
  5
26B4D
330
747D
100
AcDbEntity
  8
部品1
 48
50.0
100
AcDbLine
 10
7644.692924357629
 20
1470.898294998415
 30
0.0
 11
7644.692924357629
 21
2014.898294998415
 31
0.0
  0
LINE
  5
26B4E
330
747D
100
AcDbEntity
  8
細線
 48
50.0
100
AcDbLine
 10
7644.692924357629
 20
1787.15272439266
 30
0.0
 11
7803.092924357628
 21
1945.552724392657
 31
0.0
  0
LINE
  5
26B4F
330
747D
100
AcDbEntity
  8
細線
 48
50.0
100
AcDbLine
 10
7644.692924357629
 20
1760.211956029452
 30
0.0
 11
7803.092924357628
 21
1918.61195602945
 31
0.0
  0
LINE
  5
26B50
330
747D
100
AcDbEntity
  8
細線
 48
50.0
100
AcDbLine
 10
7644.692924357629
 20
1733.271187666245
 30
0.0
 11
7803.092924357625
 21
1891.671187666237
 31
0.0
  0
TEXT
  5
26B51
330
747D
100
AcDbEntity
  8
部品1
 48
50.0
100
AcDbText
 10
7230.553022524673
 20
1786.13728728167
 30
0.0
 40
80.0
  1
▽G.L
  7
STYLE2
100
AcDbText
  0
LINE
  5
26B52
330
747D
100
AcDbEntity
  8
部品1
100
AcDbLine
 10
7875.092924357628
 20
1789.898294998415
 30
0.0
 11
7875.092924357625
 21
2064.058294998416
 31
0.0
  0
LINE
  5
26B53
330
747D
100
AcDbEntity
  8
部品1
100
AcDbLine
 10
7857.092924357629
 20
1789.898294998415
 30
0.0
 11
7857.092924357624
 21
2064.058294998416
 31
0.0
  0
LINE
  5
26B54
330
747D
100
AcDbEntity
  8
細線
 48
50.0
100
AcDbLine
 10
7929.09292435763
 20
1802.145040760573
 30
0.0
 11
8058.692924357629
 21
1931.745040760565
 31
0.0
  0
LINE
  5
26B55
330
747D
100
AcDbEntity
  8
細線
 48
50.0
100
AcDbLine
 10
7929.09292435763
 20
1829.085809123786
 30
0.0
 11
8058.692924357629
 21
1958.685809123783
 31
0.0
  0
LINE
  5
26B56
330
747D
100
AcDbEntity
  8
部品1
100
AcDbLine
 10
7929.092924357629
 20
1690.898294998414
 30
0.0
 11
7929.092924357629
 21
2014.898294998415
 31
0.0
  0
LINE
  5
26B57
330
747D
100
AcDbEntity
  8
部品1
100
AcDbLine
 10
7803.092924357622
 20
1690.898294998414
 30
0.0
 11
7803.092924357628
 21
2014.898294998415
 31
0.0
  0
LINE
  5
26B58
330
747D
100
AcDbEntity
  8
細線
 48
50.0
100
AcDbLine
 10
7644.692924357629
 20
1544.685809123793
 30
0.0
 11
7803.092924357621
 21
1703.085809123781
 31
0.0
  0
LINE
  5
26B59
330
747D
100
AcDbEntity
  8
細線
 48
50.0
100
AcDbLine
 10
7644.692924357629
 20
1517.745040760585
 30
0.0
 11
7817.846178595464
 21
1690.898294998413
 31
0.0
  0
LINE
  5
26B5A
330
747D
100
AcDbEntity
  8
細線
 48
50.0
100
AcDbLine
 10
7644.692924357629
 20
1571.626577487001
 30
0.0
 11
7803.092924357621
 21
1730.026577486996
 31
0.0
  0
LINE
  5
26B5B
330
747D
100
AcDbEntity
  8
細線
 48
50.0
100
AcDbLine
 10
7573.372325501117
 20
1230.898294998415
 30
0.0
 11
8058.692924357629
 21
1716.218893854922
 31
0.0
  0
LINE
  5
26B5C
330
747D
100
AcDbEntity
  8
細線
 48
50.0
100
AcDbLine
 10
7546.431557137911
 20
1230.898294998415
 30
0.0
 11
8058.692924357631
 21
1743.159662218129
 31
0.0
  0
LINE
  5
26B5D
330
747D
100
AcDbEntity
  8
細線
 48
50.0
100
AcDbLine
 10
7519.490788774703
 20
1230.898294998415
 30
0.0
 11
8058.692924357627
 21
1770.10043058134
 31
0.0
  0
LINE
  5
26B5E
330
747D
100
AcDbEntity
  8
部品1
 48
50.0
100
AcDbLine
 10
8266.692924357631
 20
1230.898294998415
 30
0.0
 11
7436.692924357631
 21
1230.898294998415
 31
0.0
  0
LINE
  5
26B5F
330
747D
100
AcDbEntity
  8
部品1
 48
50.0
100
AcDbLine
 10
8266.692924357631
 20
1102.898294998414
 30
0.0
 11
7436.692924357631
 21
1102.898294998414
 31
0.0
  0
LINE
  5
26B60
330
747D
100
AcDbEntity
  8
細線
 48
50.0
100
AcDbLine
 10
7516.692924357624
 20
1389.745040760586
 30
0.0
 11
7597.846178595457
 21
1470.898294998415
 31
0.0
  0
LINE
  5
26B61
330
747D
100
AcDbEntity
  8
部品1
 48
50.0
100
AcDbLine
 10
7516.692924357629
 20
1230.898294998415
 30
0.0
 11
7516.692924357629
 21
1470.898294998415
 31
0.0
  0
LINE
  5
26B62
330
747D
100
AcDbEntity
  8
細線
 48
50.0
100
AcDbLine
 10
7564.099673959147
 20
1102.898294998414
 30
0.0
 11
7598.397170590327
 21
1230.898294998415
 31
0.0
  0
LINE
  5
26B63
330
747D
100
AcDbEntity
  8
部品1
 48
50.0
100
AcDbLine
 10
7436.692924357631
 20
1102.898294998414
 30
0.0
 11
7436.692924357631
 21
1230.898294998415
 31
0.0
  0
LINE
  5
26B64
330
747D
100
AcDbEntity
  8
細線
 48
50.0
100
AcDbLine
 10
7485.211629011887
 20
1102.898294998413
 30
0.0
 11
7519.509125643072
 21
1230.898294998413
 31
0.0
  0
LINE
  5
26B65
330
747D
100
AcDbEntity
  8
細線
 48
50.0
100
AcDbLine
 10
7642.987718906391
 20
1102.898294998413
 30
0.0
 11
7677.285215537573
 21
1230.898294998413
 31
0.0
  0
LINE
  5
26B66
330
747D
100
AcDbEntity
  8
細線
 48
50.0
100
AcDbLine
 10
7491.642409630241
 20
1126.898294998414
 30
0.0
 11
7498.073190248586
 21
1102.898294998414
 31
0.0
  0
LINE
  5
26B67
330
747D
100
AcDbEntity
  8
細線
 48
50.0
100
AcDbLine
 10
7649.418499524745
 20
1126.898294998414
 30
0.0
 11
7655.849280143091
 21
1102.898294998414
 31
0.0
  0
LINE
  5
26B68
330
747D
100
AcDbEntity
  8
細線
 48
50.0
100
AcDbLine
 10
7570.530454577492
 20
1126.898294998414
 30
0.0
 11
7576.961235195838
 21
1102.898294998414
 31
0.0
  0
LINE
  5
26B69
330
747D
100
AcDbEntity
  8
細線
 48
50.0
100
AcDbLine
 10
7436.692924357629
 20
1216.238215964195
 30
0.0
 11
7440.621080695824
 21
1230.898294998415
 31
0.0
  0
LINE
  5
26B6A
330
747D
100
AcDbEntity
  8
細線
 48
50.0
100
AcDbLine
 10
7513.078345024729
 20
1206.898294998415
 30
0.0
 11
7506.647564406383
 21
1230.898294998415
 31
0.0
  0
LINE
  5
26B6B
330
747D
100
AcDbEntity
  8
細線
 48
50.0
100
AcDbLine
 10
7670.854434919235
 20
1206.898294998415
 30
0.0
 11
7664.423654300887
 21
1230.898294998415
 31
0.0
  0
LINE
  5
26B6C
330
747D
100
AcDbEntity
  8
細線
 48
50.0
100
AcDbLine
 10
7591.966389971982
 20
1206.898294998415
 30
0.0
 11
7585.535609353636
 21
1230.898294998415
 31
0.0
  0
LWPOLYLINE
  5
26B6D
330
747D
100
AcDbEntity
  8
部品1
 48
50.0
100
AcDbPolyline
 90
        2
 70
     0
 43
8.0
 10
7230.553022524673
 20
1774.898294998416
 10
7644.692924357629
 20
1774.898294998416
  0
LINE
  5
26B6E
330
747D
100
AcDbEntity
  8
細線
 48
50.0
100
AcDbLine
 10
7516.692924357624
 20
1416.68580912379
 30
0.0
 11
7570.905410232254
 21
1470.898294998415
 31
0.0
  0
LINE
  5
26B6F
330
747D
100
AcDbEntity
  8
部品1
 48
50.0
100
AcDbLine
 10
7516.692924357629
 20
1470.898294998415
 30
0.0
 11
7644.692924357629
 21
1470.898294998415
 31
0.0
  0
LINE
  5
26B70
330
747D
100
AcDbEntity
  8
細線
 48
50.0
100
AcDbLine
 10
7516.692924357624
 20
1443.626577487001
 30
0.0
 11
7543.964641869043
 21
1470.898294998415
 31
0.0
  0
LINE
  5
26B71
330
747D
100
AcDbEntity
  8
細線
 48
50.0
100
AcDbLine
 10
7761.957704043573
 20
1230.898294998415
 30
0.0
 11
8058.692924357629
 21
1527.633515312467
 31
0.0
  0
LINE
  5
26B72
330
747D
100
AcDbEntity
  8
細線
 48
50.0
100
AcDbLine
 10
7788.898472406778
 20
1230.898294998415
 30
0.0
 11
8058.692924357629
 21
1500.692746949272
 31
0.0
  0
LINE
  5
26B73
330
747D
100
AcDbEntity
  8
細線
 48
50.0
100
AcDbLine
 10
7735.016935680363
 20
1230.898294998415
 30
0.0
 11
8058.692924357627
 21
1554.574283675681
 31
0.0
  0
LINE
  5
26B74
330
747D
100
AcDbEntity
  8
細線
 48
50.0
100
AcDbLine
 10
7950.543082586022
 20
1230.898294998415
 30
0.0
 11
8186.692924357627
 21
1467.048136770023
 31
0.0
  0
LINE
  5
26B75
330
747D
100
AcDbEntity
  8
細線
 48
50.0
100
AcDbLine
 10
7977.483850949233
 20
1230.898294998415
 30
0.0
 11
8186.692924357627
 21
1440.107368406808
 31
0.0
  0
LINE
  5
26B76
330
747D
100
AcDbEntity
  8
部品1
 48
50.0
100
AcDbLine
 10
8186.692924357627
 20
1470.898294998415
 30
0.0
 11
8186.692924357627
 21
1230.898294998415
 31
0.0
  0
LINE
  5
26B77
330
747D
100
AcDbEntity
  8
細線
 48
50.0
100
AcDbLine
 10
8004.424619312437
 20
1230.898294998415
 30
0.0
 11
8186.692924357627
 21
1413.16660004361
 31
0.0
  0
LINE
  5
26B78
330
747D
100
AcDbEntity
  8
細線
 48
50.0
100
AcDbLine
 10
7879.651853748139
 20
1102.898294998413
 30
0.0
 11
7913.94935037932
 21
1230.898294998413
 31
0.0
  0
LINE
  5
26B79
330
747D
100
AcDbEntity
  8
細線
 48
50.0
100
AcDbLine
 10
7721.875763853645
 20
1102.898294998414
 30
0.0
 11
7756.173260484826
 21
1230.898294998415
 31
0.0
  0
LINE
  5
26B7A
330
747D
100
AcDbEntity
  8
細線
 48
50.0
100
AcDbLine
 10
7800.763808800891
 20
1102.898294998414
 30
0.0
 11
7835.061305432074
 21
1230.898294998413
 31
0.0
  0
LINE
  5
26B7B
330
747D
100
AcDbEntity
  8
細線
 48
50.0
100
AcDbLine
 10
7958.539898695381
 20
1102.898294998414
 30
0.0
 11
7992.837395326567
 21
1230.898294998413
 31
0.0
  0
LINE
  5
26B7C
330
747D
100
AcDbEntity
  8
細線
 48
50.0
100
AcDbLine
 10
7807.194589419244
 20
1126.898294998414
 30
0.0
 11
7813.625370037589
 21
1102.898294998414
 31
0.0
  0
LINE
  5
26B7D
330
747D
100
AcDbEntity
  8
細線
 48
50.0
100
AcDbLine
 10
7728.306544471997
 20
1126.898294998414
 30
0.0
 11
7734.737325090344
 21
1102.898294998414
 31
0.0
  0
LINE
  5
26B7E
330
747D
100
AcDbEntity
  8
細線
 48
50.0
100
AcDbLine
 10
7964.970679313734
 20
1126.898294998414
 30
0.0
 11
7971.401459932081
 21
1102.898294998414
 31
0.0
  0
LINE
  5
26B7F
330
747D
100
AcDbEntity
  8
細線
 48
50.0
100
AcDbLine
 10
7886.082634366488
 20
1126.898294998414
 30
0.0
 11
7892.513414984835
 21
1102.898294998414
 31
0.0
  0
LINE
  5
26B80
330
747D
100
AcDbEntity
  8
細線
 48
50.0
100
AcDbLine
 10
7828.630524813732
 20
1206.898294998415
 30
0.0
 11
7822.199744195384
 21
1230.898294998415
 31
0.0
  0
LINE
  5
26B81
330
747D
100
AcDbEntity
  8
細線
 48
50.0
100
AcDbLine
 10
7749.742479866485
 20
1206.898294998415
 30
0.0
 11
7743.311699248137
 21
1230.898294998415
 31
0.0
  0
LINE
  5
26B82
330
747D
100
AcDbEntity
  8
細線
 48
50.0
100
AcDbLine
 10
7907.518569760978
 20
1206.898294998415
 30
0.0
 11
7901.087789142632
 21
1230.898294998415
 31
0.0
  0
LINE
  5
26B83
330
747D
100
AcDbEntity
  8
細線
 48
50.0
100
AcDbLine
 10
7986.406614708222
 20
1206.898294998415
 30
0.0
 11
7979.975834089877
 21
1230.898294998415
 31
0.0
  0
LINE
  5
26B84
330
747D
100
AcDbEntity
  8
部品1
 48
50.0
100
AcDbLine
 10
8266.692924357631
 20
1230.898294998415
 30
0.0
 11
8266.692924357631
 21
1102.898294998414
 31
0.0
  0
LINE
  5
26B85
330
747D
100
AcDbEntity
  8
細線
 48
50.0
100
AcDbLine
 10
8195.204033537123
 20
1102.898294998413
 30
0.0
 11
8229.50153016831
 21
1230.898294998412
 31
0.0
  0
LINE
  5
26B86
330
747D
100
AcDbEntity
  8
細線
 48
50.0
100
AcDbLine
 10
8037.427943642629
 20
1102.898294998413
 30
0.0
 11
8071.725440273803
 21
1230.898294998415
 31
0.0
  0
LINE
  5
26B87
330
747D
100
AcDbEntity
  8
細線
 48
50.0
100
AcDbLine
 10
8116.31598858988
 20
1102.898294998412
 30
0.0
 11
8150.613485221063
 21
1230.898294998412
 31
0.0
  0
LINE
  5
26B88
330
747D
100
AcDbEntity
  8
細線
 48
50.0
100
AcDbLine
 10
8043.85872426098
 20
1126.898294998414
 30
0.0
 11
8050.289504879335
 21
1102.898294998414
 31
0.0
  0
LINE
  5
26B89
330
747D
100
AcDbEntity
  8
細線
 48
50.0
100
AcDbLine
 10
8122.746769208228
 20
1126.898294998413
 30
0.0
 11
8129.177549826575
 21
1102.898294998413
 31
0.0
  0
LINE
  5
26B8A
330
747D
100
AcDbEntity
  8
細線
 48
50.0
100
AcDbLine
 10
8201.634814155474
 20
1126.898294998413
 30
0.0
 11
8208.065594773824
 21
1102.898294998413
 31
0.0
  0
LINE
  5
26B8B
330
747D
100
AcDbEntity
  8
細線
 48
50.0
100
AcDbLine
 10
8065.294659655462
 20
1206.898294998415
 30
0.0
 11
8058.863879037115
 21
1230.898294998415
 31
0.0
  0
LINE
  5
26B8C
330
747D
100
AcDbEntity
  8
細線
 48
50.0
100
AcDbLine
 10
8144.182704602718
 20
1206.898294998413
 30
0.0
 11
8137.751923984373
 21
1230.898294998413
 31
0.0
  0
LINE
  5
26B8D
330
747D
100
AcDbEntity
  8
細線
 48
50.0
100
AcDbLine
 10
8223.070749549963
 20
1206.898294998413
 30
0.0
 11
8216.639968931616
 21
1230.898294998413
 31
0.0
  0
LINE
  5
26B8E
330
747D
100
AcDbEntity
  8
部品1
100
AcDbLine
 10
7929.092924357629
 20
1690.898294998413
 30
0.0
 11
7803.092924357622
 21
1690.898294998413
 31
0.0
  0
LINE
  5
26B8F
330
747D
100
AcDbEntity
  8
部品1
100
AcDbLine
 10
7911.092924357628
 20
1771.898294998415
 30
0.0
 11
7911.092924357628
 21
1789.898294998415
 31
0.0
  0
ARC
  5
26B90
330
747D
100
AcDbEntity
  8
部品1
100
AcDbCircle
 10
7875.092924357628
 20
1789.898294998415
 30
0.0
 40
18.0
100
AcDbArc
 50
180.0
 51
270.0
  0
LINE
  5
26B91
330
747D
100
AcDbEntity
  8
部品1
100
AcDbLine
 10
7875.092924357628
 20
1771.898294998415
 30
0.0
 11
7911.092924357628
 21
1771.898294998415
 31
0.0
  0
LINE
  5
26B92
330
747D
100
AcDbEntity
  8
部品1
100
AcDbLine
 10
7875.092924357628
 20
1789.898294998415
 30
0.0
 11
7911.092924357628
 21
1789.898294998415
 31
0.0
  0
LINE
  5
26B93
330
747D
100
AcDbEntity
  8
部品1
 48
50.0
100
AcDbLine
 10
8058.692924357629
 20
1470.898294998415
 30
0.0
 11
8186.692924357627
 21
1470.898294998415
 31
0.0
  0
LINE
  5
26B94
330
747D
100
AcDbEntity
  8
部品1
100
AcDbLine
 10
7664.49292435763
 20
2104.898294998415
 30
0.0
 11
7702.292924357628
 21
2104.898294998415
 31
0.0
  0
LINE
  5
26B95
330
747D
100
AcDbEntity
  8
細線
 48
50.0
100
AcDbLine
 10
7644.692924357629
 20
1975.738102935112
 30
0.0
 11
7683.853116420934
 21
2014.898294998415
 31
0.0
  0
LINE
  5
26B96
330
747D
100
AcDbEntity
  8
細線
 48
50.0
100
AcDbLine
 10
7644.692924357629
 20
1948.797334571905
 30
0.0
 11
7710.793884784139
 21
2014.898294998415
 31
0.0
  0
LINE
  5
26B97
330
747D
100
AcDbEntity
  8
部品1
 48
50.0
100
AcDbLine
 10
7644.692924357629
 20
2014.898294998415
 30
0.0
 11
8058.692924357631
 21
2014.898294998415
 31
0.0
  0
TEXT
  5
26B98
330
747D
100
AcDbEntity
  8
部品1
 48
50.0
100
AcDbText
 10
7218.246827778137
 20
2345.45881609889
 30
0.0
 40
80.0
  1
※(別売)
  7
STYLE2
100
AcDbText
  0
LINE
  5
26B99
330
747D
100
AcDbEntity
  8
部品1
100
AcDbLine
 10
7661.79292435763
 20
2094.098294998415
 30
0.0
 11
7661.79292435763
 21
2102.198294998415
 31
0.0
  0
ARC
  5
26B9A
330
747D
100
AcDbEntity
  8
部品1
100
AcDbCircle
 10
7664.49292435763
 20
2102.198294998415
 30
0.0
 40
2.7
100
AcDbArc
 50
90.0
 51
180.0
  0
ARC
  5
26B9B
330
747D
100
AcDbEntity
  8
部品1
100
AcDbCircle
 10
7653.692924357629
 20
2089.290198701123
 30
0.0
 40
2.7
100
AcDbArc
 50
104.0362434679067
 51
180.0
  0
LINE
  5
26B9C
330
747D
100
AcDbEntity
  8
部品1
100
AcDbLine
 10
7653.03807817003
 20
2091.909583451515
 30
0.0
 11
7661.79292435763
 21
2094.098294998415
 31
0.0
  0
ARC
  5
26B9D
330
747D
100
AcDbEntity
  8
部品1
100
AcDbCircle
 10
7653.692924357629
 20
2027.158294998415
 30
0.0
 40
2.7
100
AcDbArc
 50
180.0
 51
270.0
  0
LINE
  5
26B9E
330
747D
100
AcDbEntity
  8
細線
 48
50.0
100
AcDbLine
 10
7644.692924357629
 20
2002.67887129832
 30
0.0
 11
7656.912348057723
 21
2014.898294998415
 31
0.0
  0
LINE
  5
26B9F
330
747D
100
AcDbEntity
  8
部品1
100
AcDbLine
 10
7653.692924357629
 20
2024.458294998416
 30
0.0
 11
7665.392924357624
 21
2024.458294998416
 31
0.0
  0
LINE
  5
26BA0
330
747D
100
AcDbEntity
  8
部品1
100
AcDbLine
 10
7650.99292435763
 20
2027.158294998415
 30
0.0
 11
7650.99292435763
 21
2089.290198701123
 31
0.0
  0
LINE
  5
26BA1
330
747D
100
AcDbEntity
  8
部品1
100
AcDbLine
 10
7809.652924357623
 20
2024.458294998416
 30
0.0
 11
8010.992924357623
 21
2024.458294998416
 31
0.0
  0
LINE
  5
26BA2
330
747D
100
AcDbEntity
  8
部品1
100
AcDbLine
 10
7702.292924357628
 20
2104.898294998415
 30
0.0
 11
7702.292924357628
 21
2112.998294998415
 31
0.0
  0
LINE
  5
26BA3
330
747D
100
AcDbEntity
  8
部品1
100
AcDbLine
 10
7752.692924357629
 20
2123.798294998412
 30
0.0
 11
7752.692924357629
 21
2072.498294998415
 31
0.0
  0
LINE
  5
26BA4
330
747D
100
AcDbEntity
  8
部品1
100
AcDbLine
 10
7776.092924357628
 20
2084.458294998415
 30
0.0
 11
7804.252924357628
 21
2084.458294998415
 31
0.0
  0
ARC
  5
26BA5
330
747D
100
AcDbEntity
  8
部品1
100
AcDbCircle
 10
7776.092924357628
 20
2081.758294998415
 30
0.0
 40
2.7
100
AcDbArc
 50
90.0
 51
180.0
  0
ARC
  5
26BA6
330
747D
100
AcDbEntity
  8
部品1
100
AcDbCircle
 10
7804.252924357628
 20
2081.758294998415
 30
0.0
 40
2.7
100
AcDbArc
 50
0.0
 51
90.0
  0
LINE
  5
26BA7
330
747D
100
AcDbEntity
  8
部品1
100
AcDbLine
 10
7794.992924357631
 20
2069.798294998415
 30
0.0
 11
7794.992924357631
 21
2027.158294998415
 31
0.0
  0
LINE
  5
26BA8
330
747D
100
AcDbEntity
  8
部品1
100
AcDbLine
 10
7780.592924357629
 20
2024.458294998416
 30
0.0
 11
7792.292924357629
 21
2024.458294998416
 31
0.0
  0
ARC
  5
26BA9
330
747D
100
AcDbEntity
  8
部品1
100
AcDbCircle
 10
7809.652924357623
 20
2027.158294998415
 30
0.0
 40
2.7
100
AcDbArc
 50
180.0
 51
270.0
  0
ARC
  5
26BAA
330
747D
100
AcDbEntity
  8
部品1
100
AcDbCircle
 10
7792.292924357629
 20
2027.158294998415
 30
0.0
 40
2.7
100
AcDbArc
 50
270.0
 51
0.0
  0
LINE
  5
26BAB
330
747D
100
AcDbEntity
  8
部品1
100
AcDbLine
 10
7752.692924357629
 20
2072.498294998415
 30
0.0
 11
7792.292924357629
 21
2072.498294998415
 31
0.0
  0
ARC
  5
26BAC
330
747D
100
AcDbEntity
  8
部品1
100
AcDbCircle
 10
7792.292924357629
 20
2069.798294998415
 30
0.0
 40
2.7
100
AcDbArc
 50
0.0
 51
90.0
  0
LINE
  5
26BAD
330
747D
100
AcDbEntity
  8
部品1
100
AcDbLine
 10
7806.95292435763
 20
2081.758294998415
 30
0.0
 11
7806.952924357625
 21
2027.158294998415
 31
0.0
  0
LINE
  5
26BAE
330
747D
100
AcDbEntity
  8
部品1
100
AcDbLine
 10
7773.392924357628
 20
2081.758294998415
 30
0.0
 11
7773.392924357628
 21
2064.658294998415
 31
0.0
  0
LINE
  5
26BAF
330
747D
100
AcDbEntity
  8
細線
100
AcDbLine
 10
7871.492924357629
 20
2024.458294998416
 30
0.0
 11
7871.492924357629
 21
2067.658294998415
 31
0.0
  0
LINE
  5
26BB0
330
747D
100
AcDbEntity
  8
細線
100
AcDbLine
 10
7860.69292435763
 20
2024.458294998416
 30
0.0
 11
7860.692924357628
 21
2067.658294998415
 31
0.0
  0
LINE
  5
26BB1
330
747D
100
AcDbEntity
  8
部品1
100
AcDbLine
 10
7857.092924357629
 20
2064.058294998416
 30
0.0
 11
7875.092924357628
 21
2064.058294998416
 31
0.0
  0
LINE
  5
26BB2
330
747D
100
AcDbEntity
  8
部品1
100
AcDbLine
 10
7860.692924357628
 20
2067.658294998415
 30
0.0
 11
7871.492924357629
 21
2067.658294998415
 31
0.0
  0
ELLIPSE
  5
26BB3
330
747D
100
AcDbEntity
  8
部品1
 48
50.0
100
AcDbEllipse
 10
7866.092924357629
 20
2284.021583442687
 30
0.0
 11
40.0
 21
0.0
 31
0.0
210
0.0
220
0.0
230
1.0
 40
0.4
 41
0.0
 42
6.283185307179586
  0
ELLIPSE
  5
26BB4
330
747D
100
AcDbEntity
  8
部品1
 48
50.0
100
AcDbEllipse
 10
7866.092924357629
 20
2274.421583442688
 30
0.0
 11
40.0
 21
0.0
 31
0.0
210
0.0
220
0.0
230
1.0
 40
0.4
 41
3.141592653589793
 42
6.283185307179586
  0
LINE
  5
26BB5
330
747D
100
AcDbEntity
  8
部品1
 48
50.0
100
AcDbLine
 10
7826.092924357628
 20
2284.021583442687
 30
0.0
 11
7826.092924357628
 21
2274.421583442687
 31
0.0
  0
ARC
  5
26BB6
330
747D
100
AcDbEntity
  8
部品1
100
AcDbCircle
 10
7749.992924357631
 20
2123.798294998412
 30
0.0
 40
2.7
100
AcDbArc
 50
0.0
 51
90.0
  0
ARC
  5
26BB7
330
747D
100
AcDbEntity
  8
部品1
100
AcDbCircle
 10
7707.692924357629
 20
2123.798294998414
 30
0.0
 40
2.7
100
AcDbArc
 50
90.0
 51
180.0
  0
LINE
  5
26BB8
330
747D
100
AcDbEntity
  8
部品1
100
AcDbLine
 10
7704.99292435763
 20
2115.698294998415
 30
0.0
 11
7704.99292435763
 21
2115.698294998415
 31
0.0
  0
LINE
  5
26BB9
330
747D
100
AcDbEntity
  8
部品1
100
AcDbLine
 10
7704.99292435763
 20
2115.698294998415
 30
0.0
 11
7704.99292435763
 21
2123.798294998414
 31
0.0
  0
LINE
  5
26BBA
330
747D
100
AcDbEntity
  8
部品1
100
AcDbLine
 10
7707.692924357629
 20
2126.498294998415
 30
0.0
 11
7749.992924357631
 21
2126.498294998412
 31
0.0
  0
ARC
  5
26BBB
330
747D
100
AcDbEntity
  8
部品1
100
AcDbCircle
 10
7704.99292435763
 20
2112.998294998415
 30
0.0
 40
2.7
100
AcDbArc
 50
90.0
 51
180.0
  0
ELLIPSE
  5
26BBC
330
747D
100
AcDbEntity
  8
部品1
 48
50.0
100
AcDbEllipse
 10
7866.092924357629
 20
2284.021583442687
 30
0.0
 11
18.4
 21
0.0
 31
0.0
210
0.0
220
0.0
230
1.0
 40
0.3478260869565217
 41
0.0
 42
6.283185307179586
  0
LINE
  5
26BBD
330
747D
100
AcDbEntity
  8
部品1
 48
50.0
100
AcDbLine
 10
7906.092924357628
 20
2274.421583442687
 30
0.0
 11
7906.092924357628
 21
2284.021583442687
 31
0.0
  0
LINE
  5
26BBE
330
747D
100
AcDbEntity
  8
部品1
 48
50.0
100
AcDbLine
 10
7834.092924357628
 20
2405.773576107558
 30
0.0
 11
7850.092924357628
 21
2397.773576107558
 31
0.0
  0
LINE
  5
26BBF
330
747D
100
AcDbEntity
  8
部品1
 48
50.0
100
AcDbLine
 10
7834.092924357628
 20
2373.773576107558
 30
0.0
 11
7850.092924357628
 21
2365.773576107558
 31
0.0
  0
LINE
  5
26BC0
330
747D
100
AcDbEntity
  8
部品1
 48
50.0
100
AcDbLine
 10
7834.092924357628
 20
2405.773576107558
 30
0.0
 11
7850.092924357628
 21
2413.773576107558
 31
0.0
  0
LINE
  5
26BC1
330
747D
100
AcDbEntity
  8
部品1
 48
50.0
100
AcDbLine
 10
7834.092924357628
 20
2373.773576107558
 30
0.0
 11
7834.092924357628
 21
2405.773576107558
 31
0.0
  0
LINE
  5
26BC2
330
747D
100
AcDbEntity
  8
部品1
 48
50.0
100
AcDbLine
 10
7850.092924357628
 20
2413.773576107558
 30
0.0
 11
7882.092924357628
 21
2413.773576107558
 31
0.0
  0
ELLIPSE
  5
26BC3
330
747D
100
AcDbEntity
  8
細線
 48
50.0
100
AcDbEllipse
 10
7866.092924357629
 20
2405.773576107558
 30
0.0
 11
14.76670786606846
 21
0.0
 31
0.0
210
0.0
220
0.0
230
1.0
 40
0.2071254069489396
 41
0.0
 42
6.283185307179586
  0
LINE
  5
26BC4
330
747D
100
AcDbEntity
  8
部品1
 48
50.0
100
AcDbLine
 10
7850.092924357628
 20
2365.773576107558
 30
0.0
 11
7882.092924357628
 21
2365.773576107558
 31
0.0
  0
LINE
  5
26BC5
330
747D
100
AcDbEntity
  8
部品1
 48
50.0
100
AcDbLine
 10
7882.092924357628
 20
2365.773576107558
 30
0.0
 11
7898.092924357628
 21
2373.773576107558
 31
0.0
  0
LINE
  5
26BC6
330
747D
100
AcDbEntity
  8
部品1
 48
50.0
100
AcDbLine
 10
7850.092924357628
 20
2397.773576107558
 30
0.0
 11
7882.092924357628
 21
2397.773576107558
 31
0.0
  0
LINE
  5
26BC7
330
747D
100
AcDbEntity
  8
部品1
 48
50.0
100
AcDbLine
 10
7882.092924357628
 20
2397.773576107558
 30
0.0
 11
7898.092924357628
 21
2405.773576107558
 31
0.0
  0
LINE
  5
26BC8
330
747D
100
AcDbEntity
  8
細線
 48
50.0
100
AcDbLine
 10
7882.092924357628
 20
2365.773576107558
 30
0.0
 11
7882.092924357628
 21
2397.773576107558
 31
0.0
  0
LINE
  5
26BC9
330
747D
100
AcDbEntity
  8
部品1
 48
50.0
100
AcDbLine
 10
7898.092924357628
 20
2373.773576107558
 30
0.0
 11
7898.092924357628
 21
2405.773576107558
 31
0.0
  0
LINE
  5
26BCA
330
747D
100
AcDbEntity
  8
細線
 48
50.0
100
AcDbLine
 10
7850.092924357628
 20
2365.773576107558
 30
0.0
 11
7850.092924357628
 21
2397.773576107558
 31
0.0
  0
LINE
  5
26BCB
330
747D
100
AcDbEntity
  8
部品1
 48
50.0
100
AcDbLine
 10
7882.092924357628
 20
2413.773576107558
 30
0.0
 11
7898.092924357628
 21
2405.773576107558
 31
0.0
  0
TEXT
  5
26BCC
330
747D
100
AcDbEntity
  8
部品1
100
AcDbText
 10
7566.865173549558
 20
3156.317982823832
 30
0.0
 40
120.0
  1
基礎詳細
  7
STYLE2
100
AcDbText
  0
LINE
  5
26BCD
330
747D
100
AcDbEntity
  8
部品1
100
AcDbLine
 10
10944.97035775742
 20
371.5629451906125
 30
0.0
 11
10944.97035775742
 21
3335.86991477526
 31
0.0
  0
LINE
  5
26BCE
330
747D
100
AcDbEntity
  8
細線
100
AcDbLine
 10
9952.862190337171
 20
1774.898294998414
 30
0.0
 11
9758.228856660387
 21
1969.531628675198
 31
0.0
  0
LINE
  5
26BCF
330
747D
100
AcDbEntity
  8
部品1
100
AcDbLine
 10
9758.228856660387
 20
2014.898294998415
 30
0.0
 11
10238.22885666038
 21
2014.898294998415
 31
0.0
  0
LINE
  5
26BD0
330
747D
100
AcDbEntity
  8
細線
 48
50.0
100
AcDbLine
 10
9892.299741103645
 20
1555.199379345064
 30
0.0
 11
9926.597237734831
 21
1683.199379345064
 31
0.0
  0
LINE
  5
26BD1
330
747D
100
AcDbEntity
  8
部品1
100
AcDbLine
 10
9638.228856660386
 20
1555.199379345061
 30
0.0
 11
10358.22885666038
 21
1555.199379345064
 31
0.0
  0
LINE
  5
26BD2
330
747D
100
AcDbEntity
  8
部品1
100
AcDbLine
 10
9638.228856660386
 20
1683.199379345064
 30
0.0
 11
10358.22885666038
 21
1683.199379345067
 31
0.0
  0
LINE
  5
26BD3
330
747D
100
AcDbEntity
  8
細線
100
AcDbLine
 10
9819.147502153628
 20
1683.199379345064
 30
0.0
 11
9910.846417806974
 21
1774.898294998414
 31
0.0
  0
LWPOLYLINE
  5
26BD4
330
747D
100
AcDbEntity
  8
部品1
 48
50.0
100
AcDbPolyline
 90
        2
 70
     0
 43
12.0
 10
9373.617594559997
 20
1774.898294998414
 10
10574.70989769162
 20
1774.898294998414
  0
LINE
  5
26BD5
330
747D
100
AcDbEntity
  8
細線
100
AcDbLine
 10
9901.950502091739
 20
1774.898294998414
 30
0.0
 11
9758.228856660387
 21
1918.619940429768
 31
0.0
  0
TEXT
  5
26BD6
330
747D
100
AcDbEntity
  8
部品1
 48
50.0
100
AcDbText
 10
8994.110769901883
 20
1508.098554361106
 30
0.0
 40
80.0
  1
ボルトの出
 50
90.0
  7
STYLE2
100
AcDbText
  0
LINE
  5
26BD7
330
747D
100
AcDbEntity
  8
部品1
100
AcDbLine
 10
9758.228856660387
 20
1774.898294998414
 30
0.0
 11
9758.228856660387
 21
2014.898294998415
 31
0.0
  0
LINE
  5
26BD8
330
747D
100
AcDbEntity
  8
細線
 48
50.0
100
AcDbLine
 10
9734.523651209148
 20
1555.199379345063
 30
0.0
 11
9768.821147840329
 21
1683.199379345064
 31
0.0
  0
LINE
  5
26BD9
330
747D
100
AcDbEntity
  8
細線
 48
50.0
100
AcDbLine
 10
9813.411696156396
 20
1555.199379345064
 30
0.0
 11
9847.709192787581
 21
1683.199379345064
 31
0.0
  0
LINE
  5
26BDA
330
747D
100
AcDbEntity
  8
細線
 48
50.0
100
AcDbLine
 10
9655.635606261899
 20
1555.199379345064
 30
0.0
 11
9689.933102893084
 21
1683.199379345064
 31
0.0
  0
LINE
  5
26BDB
330
747D
100
AcDbEntity
  8
部品1
100
AcDbLine
 10
9638.228856660386
 20
1555.199379345061
 30
0.0
 11
9638.228856660386
 21
1774.898294998414
 31
0.0
  0
LINE
  5
26BDC
330
747D
100
AcDbEntity
  8
細線
 48
50.0
100
AcDbLine
 10
9740.954431827496
 20
1579.199379345064
 30
0.0
 11
9747.385212445847
 21
1555.199379345064
 31
0.0
  0
LINE
  5
26BDD
330
747D
100
AcDbEntity
  8
細線
 48
50.0
100
AcDbLine
 10
9662.066386880248
 20
1579.199379345064
 30
0.0
 11
9668.497167498594
 21
1555.199379345064
 31
0.0
  0
LINE
  5
26BDE
330
747D
100
AcDbEntity
  8
細線
 48
50.0
100
AcDbLine
 10
9819.84247677475
 20
1579.199379345064
 30
0.0
 11
9826.273257393097
 21
1555.199379345064
 31
0.0
  0
LINE
  5
26BDF
330
747D
100
AcDbEntity
  8
細線
 48
50.0
100
AcDbLine
 10
9898.730521721995
 20
1579.199379345064
 30
0.0
 11
9905.161302340346
 21
1555.199379345064
 31
0.0
  0
LINE
  5
26BE0
330
747D
100
AcDbEntity
  8
細線
 48
50.0
100
AcDbLine
 10
9683.502322274737
 20
1659.199379345064
 30
0.0
 11
9677.071541656388
 21
1683.199379345064
 31
0.0
  0
LINE
  5
26BE1
330
747D
100
AcDbEntity
  8
細線
 48
50.0
100
AcDbLine
 10
9841.278412169238
 20
1659.199379345064
 30
0.0
 11
9834.847631550893
 21
1683.199379345064
 31
0.0
  0
LINE
  5
26BE2
330
747D
100
AcDbEntity
  8
細線
 48
50.0
100
AcDbLine
 10
9762.390367221986
 20
1659.199379345064
 30
0.0
 11
9755.959586603641
 21
1683.199379345064
 31
0.0
  0
LINE
  5
26BE3
330
747D
100
AcDbEntity
  8
細線
100
AcDbLine
 10
9751.265251159715
 20
1683.199379345064
 30
0.0
 11
9842.964166813064
 21
1774.898294998414
 31
0.0
  0
LINE
  5
26BE4
330
747D
100
AcDbEntity
  8
細線
100
AcDbLine
 10
9785.206376656672
 20
1683.199379345064
 30
0.0
 11
9876.905292310018
 21
1774.898294998414
 31
0.0
  0
LINE
  5
26BE5
330
747D
100
AcDbEntity
  8
細線
100
AcDbLine
 10
10173.47950606737
 20
1774.898294998414
 30
0.0
 11
9933.479506067376
 21
2014.898294998415
 31
0.0
  0
LINE
  5
26BE6
330
747D
100
AcDbEntity
  8
細線
100
AcDbLine
 10
10224.3911943128
 20
1774.898294998416
 30
0.0
 11
9984.391194312808
 21
2014.898294998415
 31
0.0
  0
LINE
  5
26BE7
330
747D
100
AcDbEntity
  8
部品1
100
AcDbLine
 10
10238.22885666038
 20
2014.898294998415
 30
0.0
 11
10238.22885666038
 21
1774.898294998414
 31
0.0
  0
LINE
  5
26BE8
330
747D
100
AcDbEntity
  8
細線
 48
50.0
100
AcDbLine
 10
10207.85192089263
 20
1555.199379345062
 30
0.0
 11
10242.14941752382
 21
1683.199379345062
 31
0.0
  0
LINE
  5
26BE9
330
747D
100
AcDbEntity
  8
細線
100
AcDbLine
 10
10179.14750215363
 20
1683.199379345066
 30
0.0
 11
10270.84641780697
 21
1774.898294998414
 31
0.0
  0
LINE
  5
26BEA
330
747D
100
AcDbEntity
  8
細線
 48
50.0
100
AcDbLine
 10
10128.96387594538
 20
1555.199379345063
 30
0.0
 11
10163.26137257656
 21
1683.199379345064
 31
0.0
  0
LINE
  5
26BEB
330
747D
100
AcDbEntity
  8
細線
 48
50.0
100
AcDbLine
 10
9971.187786050894
 20
1555.199379345063
 30
0.0
 11
10005.48528268207
 21
1683.199379345064
 31
0.0
  0
LINE
  5
26BEC
330
747D
100
AcDbEntity
  8
細線
 48
50.0
100
AcDbLine
 10
10050.07583099813
 20
1555.199379345064
 30
0.0
 11
10084.37332762932
 21
1683.199379345064
 31
0.0
  0
LINE
  5
26BED
330
747D
100
AcDbEntity
  8
細線
 48
50.0
100
AcDbLine
 10
10056.50661161649
 20
1579.199379345064
 30
0.0
 11
10062.93739223483
 21
1555.199379345064
 31
0.0
  0
LINE
  5
26BEE
330
747D
100
AcDbEntity
  8
細線
 48
50.0
100
AcDbLine
 10
9977.618566669244
 20
1579.199379345064
 30
0.0
 11
9984.049347287589
 21
1555.199379345064
 31
0.0
  0
LINE
  5
26BEF
330
747D
100
AcDbEntity
  8
細線
 48
50.0
100
AcDbLine
 10
10135.39465656373
 20
1579.199379345064
 30
0.0
 11
10141.82543718209
 21
1555.199379345064
 31
0.0
  0
LINE
  5
26BF0
330
747D
100
AcDbEntity
  8
細線
 48
50.0
100
AcDbLine
 10
10214.28270151098
 20
1579.199379345064
 30
0.0
 11
10220.71348212933
 21
1555.199379345063
 31
0.0
  0
LINE
  5
26BF1
330
747D
100
AcDbEntity
  8
細線
 48
50.0
100
AcDbLine
 10
10077.94254701098
 20
1659.199379345064
 30
0.0
 11
10071.51176639263
 21
1683.199379345064
 31
0.0
  0
LINE
  5
26BF2
330
747D
100
AcDbEntity
  8
細線
 48
50.0
100
AcDbLine
 10
9999.054502063733
 20
1659.199379345064
 30
0.0
 11
9992.623721445387
 21
1683.199379345064
 31
0.0
  0
LINE
  5
26BF3
330
747D
100
AcDbEntity
  8
細線
 48
50.0
100
AcDbLine
 10
9920.166457116485
 20
1659.199379345064
 30
0.0
 11
9913.735676498138
 21
1683.199379345064
 31
0.0
  0
LINE
  5
26BF4
330
747D
100
AcDbEntity
  8
細線
100
AcDbLine
 10
10145.20637665667
 20
1683.199379345066
 30
0.0
 11
10236.90529231001
 21
1774.898294998414
 31
0.0
  0
LINE
  5
26BF5
330
747D
100
AcDbEntity
  8
細線
 48
50.0
100
AcDbLine
 10
10156.83059195821
 20
1659.199379345064
 30
0.0
 11
10150.39981133987
 21
1683.199379345064
 31
0.0
  0
LINE
  5
26BF6
330
747D
100
AcDbEntity
  8
細線
100
AcDbLine
 10
10111.26525115972
 20
1683.199379345066
 30
0.0
 11
10202.96416681306
 21
1774.898294998414
 31
0.0
  0
LINE
  5
26BF7
330
747D
100
AcDbEntity
  8
細線
 48
50.0
100
AcDbLine
 10
10235.71863690547
 20
1659.199379345064
 30
0.0
 11
10229.28785628712
 21
1683.199379345064
 31
0.0
  0
LINE
  5
26BF8
330
747D
100
AcDbEntity
  8
細線
 48
50.0
100
AcDbLine
 10
10286.73996583988
 20
1555.199379345063
 30
0.0
 11
10321.03746247106
 21
1683.199379345062
 31
0.0
  0
LINE
  5
26BF9
330
747D
100
AcDbEntity
  8
部品1
100
AcDbLine
 10
10358.22885666038
 20
1774.898294998414
 30
0.0
 11
10358.22885666039
 21
1555.199379345064
 31
0.0
  0
LINE
  5
26BFA
330
747D
100
AcDbEntity
  8
細線
 48
50.0
100
AcDbLine
 10
10293.17074645823
 20
1579.199379345064
 30
0.0
 11
10299.60152707658
 21
1555.199379345063
 31
0.0
  0
LINE
  5
26BFB
330
747D
100
AcDbEntity
  8
細線
 48
50.0
100
AcDbLine
 10
10314.60668185272
 20
1659.199379345064
 30
0.0
 11
10308.17590123437
 21
1683.199379345064
 31
0.0
  0
LEADER
  5
26BFC
330
747D
100
AcDbEntity
  8
寸法
 48
50.0
100
AcDbLeader
  3
INABA_S50G
 73
     0
 74
     0
 75
     1
 40
120.0
 41
185.591883092037
 76
     3
 10
10168.95326827631
 20
2014.898294998415
 30
0.0
 10
10202.09147490995
 20
2187.044615679552
 30
0.0
 10
10327.09147490995
 20
2187.044615679552
 30
0.0
340
26BFD
1001
ACAD
1000
DSTYLE
1002
{
1070
    40
1040
1.0
1002
}
  0
MTEXT
  5
26BFD
102
{ACAD_REACTORS
330
26BFC
102
}
330
747D
100
AcDbEntity
  8
寸法
 62
     7
 48
50.0
100
AcDbMText
 10
10352.09147490995
 20
2272.044615679552
 30
0.0
 40
120.0
 41
0.8
 71
     4
 72
     1
  1
\A1;C.B
  7
STYLE1
 73
     1
 44
1.0
1001
ACAD
1000
MTEXTBEGIN
1070
    73
1070
     1
1070
    44
1040
1.0
1070
    74
1070
     0
1000
MTEXTEND
  0
ENDSEC
  0
SECTION
  2
OBJECTS
  0
DICTIONARY
  5
7471
330
0
100
AcDbDictionary
281
     1
  3
ACAD_COLOR
350
173D2
  3
ACAD_GROUP
350
7472
  3
ACAD_LAYOUT
350
173D3
  3
ACAD_MATERIAL
350
173D1
  3
ACAD_MLINESTYLE
350
7473
  3
ACAD_PLOTSETTINGS
350
173D4
  3
ACAD_PLOTSTYLENAME
350
173CF
  3
ACDBHEADERROUNDTRIPXREC
350
26C9F
  3
AcDbVariableDictionary
350
26C9B
  3
CONTENTDICTIONARY
350
E71C
  3
DRAWINGVARIABLESDICT
350
F3B9
  0
DICTIONARY
  5
1758F
330
7467
100
AcDbDictionary
280
     1
281
     1
  3
ACAD_LAYERSTATES
360
17590
  0
DICTIONARY
  5
173D2
102
{ACAD_REACTORS
330
7471
102
}
330
7471
100
AcDbDictionary
281
     1
  0
DICTIONARY
  5
7472
102
{ACAD_REACTORS
330
7471
102
}
330
7471
100
AcDbDictionary
281
     1
  3
*A1
350
1D2A9
  0
DICTIONARY
  5
173D3
102
{ACAD_REACTORS
330
7471
102
}
330
7471
100
AcDbDictionary
281
     1
  3
Model
350
173D5
  3
レイアウト1
350
173D6
  0
DICTIONARY
  5
173D1
102
{ACAD_REACTORS
330
7471
102
}
330
7471
100
AcDbDictionary
281
     1
  0
DICTIONARY
  5
7473
102
{ACAD_REACTORS
330
7471
102
}
330
7471
100
AcDbDictionary
281
     1
  3
STANDARD
350
7480
  0
DICTIONARY
  5
173D4
102
{ACAD_REACTORS
330
7471
102
}
330
7471
100
AcDbDictionary
281
     1
  0
ACDBDICTIONARYWDFLT
  5
173CF
102
{ACAD_REACTORS
330
7471
102
}
330
7471
100
AcDbDictionary
281
     1
  3
Normal
350
173D0
100
AcDbDictionaryWithDefault
340
173D0
  0
DICTIONARY
  5
26C9F
102
{ACAD_REACTORS
330
7471
102
}
330
7471
100
AcDbDictionary
281
     1
  3
COLORDICT
350
26CA1
  3
MATERIALDICT
350
26CA0
  0
DICTIONARY
  5
26C9B
102
{ACAD_REACTORS
330
7471
102
}
330
7471
100
AcDbDictionary
281
     1
  3
DIMASSOC
350
26C9C
  3
PROJECTNAME
350
26C9D
  0
DICTIONARY
  5
E71C
102
{ACAD_REACTORS
330
7471
102
}
330
7471
100
AcDbDictionary
281
     1
  0
DICTIONARY
  5
F3B9
102
{ACAD_REACTORS
330
7471
102
}
330
7471
100
AcDbDictionary
281
     1
1001
DRAWINGVARIABLESXDATA
1000
POLARMODE
1000
1
  0
DICTIONARY
  5
17590
102
{ACAD_REACTORS
330
1758F
102
}
330
1758F
100
AcDbDictionary
281
     1
  0
GROUP
  5
1D2A9
102
{ACAD_REACTORS
330
7472
102
}
330
7472
100
AcDbGroup
300

 70
     1
 71
     1
  0
LAYOUT
  5
173D5
102
{ACAD_XDICTIONARY
360
26CA2
102
}
102
{ACAD_REACTORS
330
173D3
102
}
330
173D3
100
AcDbPlotSettings
  1

  2
Microsoft Office Document Image Writer
  4

  6

 40
0.0
 41
0.0
 42
0.0
 43
0.0
 44
0.0
 45
0.0
 46
0.0
 47
0.0
 48
0.0
 49
0.0
140
0.0
141
0.0
142
1.0
143
1.0
 70
  1712
 72
     0
 73
     0
 74
     0
  7

 75
     0
147
1.0
148
0.0
149
0.0
100
AcDbLayout
  1
Model
 70
     1
 71
     0
 10
0.0
 20
0.0
 11
12.0
 21
9.0
 12
0.0
 22
0.0
 32
0.0
 14
0.0
 24
0.0
 34
0.0
 15
0.0
 25
0.0
 35
0.0
146
0.0
 13
0.0
 23
0.0
 33
0.0
 16
1.0
 26
0.0
 36
0.0
 17
0.0
 27
1.0
 37
0.0
 76
     0
330
747D
  0
LAYOUT
  5
173D6
102
{ACAD_XDICTIONARY
360
26CA4
102
}
102
{ACAD_REACTORS
330
173D3
102
}
330
173D3
100
AcDbPlotSettings
  1

  2
Microsoft Office Document Image Writer
  4

  6

 40
0.0
 41
0.0
 42
0.0
 43
0.0
 44
0.0
 45
0.0
 46
0.0
 47
0.0
 48
0.0
 49
0.0
140
0.0
141
0.0
142
1.0
143
1.0
 70
   688
 72
     0
 73
     0
 74
     5
  7

 75
    16
147
1.0
148
0.0
149
0.0
100
AcDbLayout
  1
レイアウト1
 70
     0
 71
     1
 10
0.0
 20
0.0
 11
420.0
 21
297.0
 12
0.0
 22
0.0
 32
0.0
 14
1.000000000000000E+20
 24
1.000000000000000E+20
 34
1.000000000000000E+20
 15
-1.000000000000000E+20
 25
-1.000000000000000E+20
 35
-1.000000000000000E+20
146
0.0
 13
0.0
 23
0.0
 33
0.0
 16
1.0
 26
0.0
 36
0.0
 17
0.0
 27
1.0
 37
0.0
 76
     0
330
747A
  0
MLINESTYLE
  5
7480
102
{ACAD_REACTORS
330
7473
102
}
330
7473
100
AcDbMlineStyle
  2
STANDARD
 70
     0
  3

 62
     0
 51
90.0
 52
90.0
 71
     2
 49
0.5
 62
   256
  6
BYLAYER
 49
-0.5
 62
   256
  6
BYLAYER
  0
ACDBPLACEHOLDER
  5
173D0
102
{ACAD_REACTORS
330
173CF
102
}
330
173CF
  0
XRECORD
  5
26CA1
102
{ACAD_REACTORS
330
26C9F
102
}
330
26C9F
100
AcDbXrecord
280
     1
340
173D2
  0
XRECORD
  5
26CA0
102
{ACAD_REACTORS
330
26C9F
102
}
330
26C9F
100
AcDbXrecord
280
     1
340
173D1
  0
DICTIONARYVAR
  5
26C9C
102
{ACAD_REACTORS
330
26C9B
102
}
330
26C9B
100
DictionaryVariables
280
     0
  1
1
  0
DICTIONARYVAR
  5
26C9D
102
{ACAD_REACTORS
330
26C9B
102
}
330
26C9B
100
DictionaryVariables
280
     0
  1

  0
DICTIONARY
  5
26CA2
330
173D5
100
AcDbDictionary
280
     1
281
     1
  3
ACAD_XREC_ROUNDTRIP
360
26CA3
  0
DICTIONARY
  5
26CA4
330
173D6
100
AcDbDictionary
280
     1
281
     1
  3
ACAD_XREC_ROUNDTRIP
360
26CA5
  0
XRECORD
  5
26CA3
102
{ACAD_REACTORS
330
26CA2
102
}
330
26CA2
100
AcDbXrecord
280
     1
102
SHADEPLOT
 70
     0
102
SHADEPLOTRESLEVEL
 70
     2
102
SHADEPLOTCUSTOMDPI
 70
   300
  0
XRECORD
  5
26CA5
102
{ACAD_REACTORS
330
26CA4
102
}
330
26CA4
100
AcDbXrecord
280
     1
102
SHADEPLOT
 70
     0
102
SHADEPLOTRESLEVEL
 70
     2
102
SHADEPLOTCUSTOMDPI
 70
   300
  0
ENDSEC
  0
EOF
