  0
SECTION
  2
HEADER
  9
$ACADVER
  1
AC1015
  9
$ACADMAINTVER
 70
    20
  9
$DWGCODEPAGE
  3
ANSI_932
  9
$INSBASE
 10
0.0
 20
0.0
 30
0.0
  9
$EXTMIN
 10
139.196816621341
 20
-0.5436960005536094
 30
-0.0000000000000058
  9
$EXTMAX
 10
16308.32523385566
 20
11409.94830329749
 30
0.0000000000000104
  9
$LIMMIN
 10
0.0
 20
0.0
  9
$LIMMAX
 10
16800.0
 20
11880.0
  9
$ORTHOMODE
 70
     0
  9
$REGENMODE
 70
     1
  9
$FILLMODE
 70
     1
  9
$QTEXTMODE
 70
     0
  9
$MIRRTEXT
 70
     1
  9
$LTSCALE
 40
20.0
  9
$ATTMODE
 70
     1
  9
$TEXTSIZE
 40
4.0
  9
$TRACEWID
 40
1.0
  9
$TEXTSTYLE
  7
STYLE1
  9
$CLAYER
  8
細線
  9
$CELTYPE
  6
BYLAYER
  9
$CECOLOR
 62
   256
  9
$CELTSCALE
 40
50.0
  9
$DISPSILH
 70
     0
  9
$DIMSCALE
 40
40.0
  9
$DIMASZ
 40
2.5
  9
$DIMEXO
 40
0.5
  9
$DIMDLI
 40
7.0
  9
$DIMRND
 40
0.0
  9
$DIMDLE
 40
0.0
  9
$DIMEXE
 40
1.5
  9
$DIMTP
 40
0.0
  9
$DIMTM
 40
0.0
  9
$DIMTXT
 40
3.0
  9
$DIMCEN
 40
0.0
  9
$DIMTSZ
 40
0.0
  9
$DIMTOL
 70
     0
  9
$DIMLIM
 70
     0
  9
$DIMTIH
 70
     0
  9
$DIMTOH
 70
     0
  9
$DIMSE1
 70
     0
  9
$DIMSE2
 70
     0
  9
$DIMTAD
 70
     3
  9
$DIMZIN
 70
     8
  9
$DIMBLK
  1

  9
$DIMASO
 70
     1
  9
$DIMSHO
 70
     1
  9
$DIMPOST
  1

  9
$DIMAPOST
  1

  9
$DIMALT
 70
     0
  9
$DIMALTD
 70
     2
  9
$DIMALTF
 40
0.0394
  9
$DIMLFAC
 40
1.0
  9
$DIMTOFL
 70
     1
  9
$DIMTVP
 40
0.0
  9
$DIMTIX
 70
     1
  9
$DIMSOXD
 70
     0
  9
$DIMSAH
 70
     1
  9
$DIMBLK1
  1
DOTSMALL
  9
$DIMBLK2
  1
DOTSMALL
  9
$DIMSTYLE
  2
INABA_S40G
  9
$DIMCLRD
 70
     0
  9
$DIMCLRE
 70
     0
  9
$DIMCLRT
 70
     7
  9
$DIMTFAC
 40
1.0
  9
$DIMGAP
 40
1.0
  9
$DIMJUST
 70
     0
  9
$DIMSD1
 70
     0
  9
$DIMSD2
 70
     0
  9
$DIMTOLJ
 70
     1
  9
$DIMTZIN
 70
     0
  9
$DIMALTZ
 70
     0
  9
$DIMALTTZ
 70
     0
  9
$DIMUPT
 70
     0
  9
$DIMDEC
 70
     1
  9
$DIMTDEC
 70
     4
  9
$DIMALTU
 70
     2
  9
$DIMALTTD
 70
     2
  9
$DIMTXSTY
  7
STYLE1
  9
$DIMAUNIT
 70
     0
  9
$DIMADEC
 70
     0
  9
$DIMALTRND
 40
0.0
  9
$DIMAZIN
 70
     0
  9
$DIMDSEP
 70
    46
  9
$DIMATFIT
 70
     3
  9
$DIMFRAC
 70
     0
  9
$DIMLDRBLK
  1

  9
$DIMLUNIT
 70
     2
  9
$DIMLWD
 70
    -2
  9
$DIMLWE
 70
    -2
  9
$DIMTMOVE
 70
     0
  9
$LUNITS
 70
     2
  9
$LUPREC
 70
     1
  9
$SKETCHINC
 40
1.0
  9
$FILLETRAD
 40
3.0
  9
$AUNITS
 70
     0
  9
$AUPREC
 70
     0
  9
$MENU
  1
acad
  9
$ELEVATION
 40
0.0
  9
$PELEVATION
 40
0.0
  9
$THICKNESS
 40
0.0
  9
$LIMCHECK
 70
     0
  9
$CHAMFERA
 40
0.0
  9
$CHAMFERB
 40
0.0
  9
$CHAMFERC
 40
0.0
  9
$CHAMFERD
 40
0.0
  9
$SKPOLY
 70
     0
  9
$TDCREATE
 40
2451368.612993866
  9
$TDUCREATE
 40
2451368.237993866
  9
$TDUPDATE
 40
2455999.579517859
  9
$TDUUPDATE
 40
2455999.204517858
  9
$TDINDWG
 40
0.6832726157
  9
$TDUSRTIMER
 40
0.6832726157
  9
$USRTIMER
 70
     1
  9
$ANGBASE
 50
0.0
  9
$ANGDIR
 70
     0
  9
$PDMODE
 70
     3
  9
$PDSIZE
 40
2.0
  9
$PLINEWID
 40
0.0
  9
$SPLFRAME
 70
     0
  9
$SPLINETYPE
 70
     6
  9
$SPLINESEGS
 70
     8
  9
$HANDSEED
  5
1F49E
  9
$SURFTAB1
 70
     6
  9
$SURFTAB2
 70
     6
  9
$SURFTYPE
 70
     6
  9
$SURFU
 70
     6
  9
$SURFV
 70
     6
  9
$UCSBASE
  2

  9
$UCSNAME
  2

  9
$UCSORG
 10
0.0
 20
0.0
 30
0.0
  9
$UCSXDIR
 10
1.0
 20
0.0
 30
0.0
  9
$UCSYDIR
 10
0.0
 20
1.0
 30
0.0
  9
$UCSORTHOREF
  2

  9
$UCSORTHOVIEW
 70
     0
  9
$UCSORGTOP
 10
0.0
 20
0.0
 30
0.0
  9
$UCSORGBOTTOM
 10
0.0
 20
0.0
 30
0.0
  9
$UCSORGLEFT
 10
0.0
 20
0.0
 30
0.0
  9
$UCSORGRIGHT
 10
0.0
 20
0.0
 30
0.0
  9
$UCSORGFRONT
 10
0.0
 20
0.0
 30
0.0
  9
$UCSORGBACK
 10
0.0
 20
0.0
 30
0.0
  9
$PUCSBASE
  2

  9
$PUCSNAME
  2

  9
$PUCSORG
 10
0.0
 20
0.0
 30
0.0
  9
$PUCSXDIR
 10
1.0
 20
0.0
 30
0.0
  9
$PUCSYDIR
 10
0.0
 20
1.0
 30
0.0
  9
$PUCSORTHOREF
  2

  9
$PUCSORTHOVIEW
 70
     0
  9
$PUCSORGTOP
 10
0.0
 20
0.0
 30
0.0
  9
$PUCSORGBOTTOM
 10
0.0
 20
0.0
 30
0.0
  9
$PUCSORGLEFT
 10
0.0
 20
0.0
 30
0.0
  9
$PUCSORGRIGHT
 10
0.0
 20
0.0
 30
0.0
  9
$PUCSORGFRONT
 10
0.0
 20
0.0
 30
0.0
  9
$PUCSORGBACK
 10
0.0
 20
0.0
 30
0.0
  9
$USERI1
 70
     0
  9
$USERI2
 70
     0
  9
$USERI3
 70
     0
  9
$USERI4
 70
     0
  9
$USERI5
 70
     0
  9
$USERR1
 40
0.0
  9
$USERR2
 40
0.0
  9
$USERR3
 40
0.0
  9
$USERR4
 40
0.0
  9
$USERR5
 40
0.0
  9
$WORLDVIEW
 70
     1
  9
$SHADEDGE
 70
     3
  9
$SHADEDIF
 70
    70
  9
$TILEMODE
 70
     1
  9
$MAXACTVP
 70
    16
  9
$PINSBASE
 10
0.0
 20
0.0
 30
0.0
  9
$PLIMCHECK
 70
     0
  9
$PEXTMIN
 10
1.000000000000000E+20
 20
1.000000000000000E+20
 30
1.000000000000000E+20
  9
$PEXTMAX
 10
-1.000000000000000E+20
 20
-1.000000000000000E+20
 30
-1.000000000000000E+20
  9
$PLIMMIN
 10
0.0
 20
0.0
  9
$PLIMMAX
 10
420.0
 20
297.0
  9
$UNITMODE
 70
     0
  9
$VISRETAIN
 70
     0
  9
$PLINEGEN
 70
     0
  9
$PSLTSCALE
 70
     0
  9
$TREEDEPTH
 70
  3020
  9
$CMLSTYLE
  2
STANDARD
  9
$CMLJUST
 70
     0
  9
$CMLSCALE
 40
1.0
  9
$PROXYGRAPHICS
 70
     1
  9
$MEASUREMENT
 70
     1
  9
$CELWEIGHT
370
    -1
  9
$ENDCAPS
280
     0
  9
$JOINSTYLE
280
     0
  9
$LWDISPLAY
290
     0
  9
$INSUNITS
 70
     0
  9
$HYPERLINKBASE
  1

  9
$STYLESHEET
  1
inaba.ctb
  9
$XEDIT
290
     1
  9
$CEPSNTYPE
380
     0
  9
$PSTYLEMODE
290
     1
  9
$FINGERPRINTGUID
  2
{5EAC461A-2277-4BF8-9AB0-99C43BB394F0}
  9
$VERSIONGUID
  2
{B96199C1-1709-43CC-9F4F-680672C24BFE}
  9
$EXTNAMES
290
     1
  9
$PSVPSCALE
 40
0.0
  9
$OLESTARTUP
290
     0
  0
ENDSEC
  0
SECTION
  2
CLASSES
  0
CLASS
  1
ACDBDICTIONARYWDFLT
  2
AcDbDictionaryWithDefault
  3
ObjectDBX Classes
 90
        0
280
     0
281
     0
  0
CLASS
  1
DICTIONARYVAR
  2
AcDbDictionaryVar
  3
ObjectDBX Classes
 90
        0
280
     0
281
     0
  0
CLASS
  1
ACDBPLACEHOLDER
  2
AcDbPlaceHolder
  3
ObjectDBX Classes
 90
        0
280
     0
281
     0
  0
CLASS
  1
LAYOUT
  2
AcDbLayout
  3
ObjectDBX Classes
 90
        0
280
     0
281
     0
  0
ENDSEC
  0
SECTION
  2
TABLES
  0
TABLE
  2
VPORT
  5
746D
330
0
100
AcDbSymbolTable
 70
     4
  0
VPORT
  5
1F496
330
746D
100
AcDbSymbolTableRecord
100
AcDbViewportTableRecord
  2
*Active
 70
     0
 10
0.0
 20
0.0
 11
1.0
 21
1.0
 12
8223.761025238502
 22
5704.702303648471
 13
0.0
 23
0.0
 14
10.0
 24
10.0
 15
10.0
 25
10.0
 16
0.0
 26
0.0
 36
1.0
 17
0.0
 27
0.0
 37
0.0
 40
11497.92871959918
 41
1.576726342710997
 42
50.0
 43
0.0
 44
0.0
 50
0.0
 51
0.0
 71
     0
 72
     0
 73
     1
 74
     0
 75
     0
 76
     0
 77
     0
 78
     0
281
     0
 65
     1
110
0.0
120
0.0
130
0.0
111
1.0
121
0.0
131
0.0
112
0.0
122
1.0
132
0.0
 79
     0
146
0.0
  0
ENDTAB
  0
TABLE
  2
LTYPE
  5
746A
330
0
100
AcDbSymbolTable
 70
     3
  0
LTYPE
  5
7477
330
746A
100
AcDbSymbolTableRecord
100
AcDbLinetypeTableRecord
  2
BYBLOCK
 70
     0
  3

 72
    65
 73
     0
 40
0.0
  0
LTYPE
  5
7478
330
746A
100
AcDbSymbolTableRecord
100
AcDbLinetypeTableRecord
  2
BYLAYER
 70
     0
  3

 72
    65
 73
     0
 40
0.0
  0
LTYPE
  5
7479
330
746A
100
AcDbSymbolTableRecord
100
AcDbLinetypeTableRecord
  2
CONTINUOUS
 70
     0
  3
Solid line
 72
    65
 73
     0
 40
0.0
  0
LTYPE
  5
7816
330
746A
100
AcDbSymbolTableRecord
100
AcDbLinetypeTableRecord
  2
CENTER
 70
     0
  3
____ _ ____ _ ____ _ ____ _ ____ _ ____ _ ____ 
 72
    65
 73
     4
 40
2.0
 49
1.25
 74
     0
 49
-0.25
 74
     0
 49
0.25
 74
     0
 49
-0.25
 74
     0
  0
LTYPE
  5
781B
330
746A
100
AcDbSymbolTableRecord
100
AcDbLinetypeTableRecord
  2
PHANTOM
 70
     0
  3
______  __  __  ______  __  __  ______  __  __ 
 72
    65
 73
     6
 40
2.5
 49
1.25
 74
     0
 49
-0.25
 74
     0
 49
0.25
 74
     0
 49
-0.25
 74
     0
 49
0.25
 74
     0
 49
-0.25
 74
     0
  0
ENDTAB
  0
TABLE
  2
LAYER
  5
7467
102
{ACAD_XDICTIONARY
360
1758F
102
}
330
0
100
AcDbSymbolTable
 70
    10
  0
LAYER
  5
7474
330
7467
100
AcDbSymbolTableRecord
100
AcDbLayerTableRecord
  2
0
 70
     0
 62
     7
  6
CONTINUOUS
370
    -3
390
173D0
  0
LAYER
  5
DEB2
330
7467
100
AcDbSymbolTableRecord
100
AcDbLayerTableRecord
  2
センター
 70
     0
 62
     3
  6
CENTER
370
    -3
390
173D0
  0
LAYER
  5
DEB3
330
7467
100
AcDbSymbolTableRecord
100
AcDbLayerTableRecord
  2
寸法
 70
     0
 62
     4
  6
CONTINUOUS
370
    -3
390
173D0
  0
LAYER
  5
DEB4
330
7467
100
AcDbSymbolTableRecord
100
AcDbLayerTableRecord
  2
部品1
 70
     0
 62
     7
  6
CONTINUOUS
370
    -3
390
173D0
  0
LAYER
  5
DEB5
330
7467
100
AcDbSymbolTableRecord
100
AcDbLayerTableRecord
  2
補助
 70
     0
 62
    -1
  6
CONTINUOUS
370
    -3
390
173D0
  0
LAYER
  5
DEB6
330
7467
100
AcDbSymbolTableRecord
100
AcDbLayerTableRecord
  2
文字
 70
     0
 62
     7
  6
CONTINUOUS
370
    -3
390
173D0
  0
LAYER
  5
F255
330
7467
100
AcDbSymbolTableRecord
100
AcDbLayerTableRecord
  2
DEFPOINTS
 70
     0
 62
     7
  6
CONTINUOUS
290
     0
370
    -3
390
173D0
  0
LAYER
  5
10B54
330
7467
100
AcDbSymbolTableRecord
100
AcDbLayerTableRecord
  2
仕様書枠
 70
     0
 62
   230
  6
CONTINUOUS
370
    -3
390
173D0
  0
LAYER
  5
1173F
330
7467
100
AcDbSymbolTableRecord
100
AcDbLayerTableRecord
  2
細線
 70
     0
 62
     5
  6
CONTINUOUS
370
    -3
390
173D0
  0
LAYER
  5
12CC4
330
7467
100
AcDbSymbolTableRecord
100
AcDbLayerTableRecord
  2
想像線
 70
     0
 62
     6
  6
PHANTOM
370
    -3
390
173D0
  0
ENDTAB
  0
TABLE
  2
STYLE
  5
7468
330
0
100
AcDbSymbolTable
 70
     4
  0
STYLE
  5
7475
330
7468
100
AcDbSymbolTableRecord
100
AcDbTextStyleTableRecord
  2
STANDARD
 70
     0
 40
0.0
 41
1.0
 50
0.0
 71
     0
 42
4.0
  3
txt
  4
C:\AutoCAD LT\bigfont.shx
  0
STYLE
  5
763C
330
7468
100
AcDbSymbolTableRecord
100
AcDbTextStyleTableRecord
  2
MSMINCHO
 70
     0
 40
0.0
 41
1.0
 50
0.0
 71
     0
 42
1.199999999999999
  3
C:\AutoCAD LT\msminch2.TTF
  4

  0
STYLE
  5
F706
330
7468
100
AcDbSymbolTableRecord
100
AcDbTextStyleTableRecord
  2
STYLE1
 70
     0
 40
0.0
 41
1.0
 50
0.0
 71
     0
 42
4.0
  3
isocp.shx
  4
bigfont.shx
  0
STYLE
  5
103BF
330
7468
100
AcDbSymbolTableRecord
100
AcDbTextStyleTableRecord
  2
STYLE2
 70
     0
 40
0.0
 41
1.0
 50
0.0
 71
     0
 42
100.0
  3
MS PGothic.ttf
  4

1001
ACAD
1000
MS PGothic
1071
    32818
  0
ENDTAB
  0
TABLE
  2
VIEW
  5
746B
330
0
100
AcDbSymbolTable
 70
     0
  0
ENDTAB
  0
TABLE
  2
UCS
  5
746C
330
0
100
AcDbSymbolTable
 70
     0
  0
ENDTAB
  0
TABLE
  2
APPID
  5
746E
330
0
100
AcDbSymbolTable
 70
     6
  0
APPID
  5
7476
330
746E
100
AcDbSymbolTableRecord
100
AcDbRegAppTableRecord
  2
ACAD
 70
     0
  0
APPID
  5
DEA9
330
746E
100
AcDbSymbolTableRecord
100
AcDbRegAppTableRecord
  2
CONTENTBLOCKICON
 70
     0
  0
APPID
  5
DEAA
330
746E
100
AcDbSymbolTableRecord
100
AcDbRegAppTableRecord
  2
CONTENTBLOCKDESCRIPTION
 70
     0
  0
APPID
  5
E71D
330
746E
100
AcDbSymbolTableRecord
100
AcDbRegAppTableRecord
  2
CONTENTTABDATA
 70
     0
  0
APPID
  5
E71E
330
746E
100
AcDbSymbolTableRecord
100
AcDbRegAppTableRecord
  2
CONTENTCURRENTTAB
 70
     0
  0
APPID
  5
F3BA
330
746E
100
AcDbSymbolTableRecord
100
AcDbRegAppTableRecord
  2
DRAWINGVARIABLESXDATA
 70
     0
  0
ENDTAB
  0
TABLE
  2
DIMSTYLE
  5
746F
330
0
100
AcDbSymbolTable
 70
     1
100
AcDbDimStyleTable
 71
     1
340
F71F
  0
DIMSTYLE
105
F71F
102
{ACAD_REACTORS
330
1F1DA
330
1F141
330
1F13B
330
1F139
330
1F124
330
1F0E2
330
1F0E1
330
1F0E0
330
1F0D3
330
1F0D2
330
1F0CF
330
1F0CE
330
1F0CC
330
1F0CB
330
1F0C8
330
1F0C5
330
1F0C3
330
1F0C2
330
1F0BF
330
1EF09
330
1E234
330
1E22A
330
1E228
330
1E1E0
330
1DACA
330
1DAC9
330
1DAC8
330
1DAC7
330
1D333
330
1D304
330
1D2D6
330
1AC2C
330
1AC27
330
1ABE6
330
1A9AF
330
1A9AE
330
1A9AD
330
1A99F
330
1A8F9
330
1A8F2
330
1A8F1
330
1A8ED
330
1A8E4
330
1A8E3
330
1A8E2
330
1A8E1
330
1A8DF
330
1A8DE
330
1A8DC
330
1A8DA
330
1A8D8
330
1A8D7
102
}
330
746F
100
AcDbSymbolTableRecord
100
AcDbDimStyleTableRecord
  2
INABA_S40G
 70
     0
 40
40.0
 41
2.5
 42
0.5
 43
7.0
 44
1.5
 73
     0
 74
     0
 77
     3
 78
     8
140
3.0
141
0.0
143
0.0394
147
1.0
172
     1
173
     1
174
     1
178
     7
271
     1
340
F706
341
F770
343
F770
344
F770
  0
ENDTAB
  0
TABLE
  2
BLOCK_RECORD
  5
7466
330
0
100
AcDbSymbolTable
 70
    36
  0
BLOCK_RECORD
  5
747D
330
7466
100
AcDbSymbolTableRecord
100
AcDbBlockTableRecord
  2
*MODEL_SPACE
340
173D5
  0
BLOCK_RECORD
  5
747A
330
7466
100
AcDbSymbolTableRecord
100
AcDbBlockTableRecord
  2
*PAPER_SPACE
340
173D6
  0
BLOCK_RECORD
  5
F770
330
7466
100
AcDbSymbolTableRecord
100
AcDbBlockTableRecord
  2
_DOTSMALL
340
0
102
{BLKREFS
331
1F2FA
331
1F2FB
331
1F303
331
1F304
331
1F30C
331
1F30D
331
1F315
331
1F316
331
1F31E
331
1F31F
331
1F327
331
1F328
331
1F330
331
1F331
331
1F33B
331
1F33C
331
1F346
331
1F347
331
1F351
331
1F352
331
1F35C
331
1F35D
331
1F366
331
1F367
331
1F36F
331
1F370
331
1F379
331
1F37A
331
1F384
331
1F385
331
1F38E
331
1F38F
331
1F398
331
1F399
331
1F3A1
331
1F3A2
331
1F3AA
331
1F3AB
331
1F3B3
331
1F3B4
331
1F3BD
331
1F3BE
331
1F3C7
331
1F3C8
331
1F3D0
331
1F3D1
331
1F3D9
331
1F3DA
331
1F3E3
331
1F3E4
331
1F3EC
331
1F3ED
331
1F3F5
331
1F3F6
331
1F3FE
331
1F3FF
331
1F407
331
1F408
331
1F410
331
1F411
331
1F41A
331
1F41B
331
1F424
331
1F425
331
1F42E
331
1F42F
331
1F437
331
1F438
331
1F441
331
1F442
102
}
  0
BLOCK_RECORD
  5
1B3B7
330
7466
100
AcDbSymbolTableRecord
100
AcDbBlockTableRecord
  2
*D1
340
0
  0
BLOCK_RECORD
  5
1B3DC
330
7466
100
AcDbSymbolTableRecord
100
AcDbBlockTableRecord
  2
*D2
340
0
  0
BLOCK_RECORD
  5
1B3E8
330
7466
100
AcDbSymbolTableRecord
100
AcDbBlockTableRecord
  2
*D3
340
0
  0
BLOCK_RECORD
  5
1B3F3
330
7466
100
AcDbSymbolTableRecord
100
AcDbBlockTableRecord
  2
*D4
340
0
  0
BLOCK_RECORD
  5
1B432
330
7466
100
AcDbSymbolTableRecord
100
AcDbBlockTableRecord
  2
*D5
340
0
  0
BLOCK_RECORD
  5
1B43F
330
7466
100
AcDbSymbolTableRecord
100
AcDbBlockTableRecord
  2
*D6
340
0
  0
BLOCK_RECORD
  5
1B44B
330
7466
100
AcDbSymbolTableRecord
100
AcDbBlockTableRecord
  2
*D7
340
0
  0
BLOCK_RECORD
  5
1B462
330
7466
100
AcDbSymbolTableRecord
100
AcDbBlockTableRecord
  2
*D8
340
0
  0
BLOCK_RECORD
  5
1B47C
330
7466
100
AcDbSymbolTableRecord
100
AcDbBlockTableRecord
  2
*D9
340
0
  0
BLOCK_RECORD
  5
1B489
330
7466
100
AcDbSymbolTableRecord
100
AcDbBlockTableRecord
  2
*D10
340
0
  0
BLOCK_RECORD
  5
1B494
330
7466
100
AcDbSymbolTableRecord
100
AcDbBlockTableRecord
  2
*D11
340
0
  0
BLOCK_RECORD
  5
1B4A0
330
7466
100
AcDbSymbolTableRecord
100
AcDbBlockTableRecord
  2
*D12
340
0
  0
BLOCK_RECORD
  5
1B4AB
330
7466
100
AcDbSymbolTableRecord
100
AcDbBlockTableRecord
  2
*D13
340
0
  0
BLOCK_RECORD
  5
1B4B6
330
7466
100
AcDbSymbolTableRecord
100
AcDbBlockTableRecord
  2
*D14
340
0
  0
BLOCK_RECORD
  5
1B4E7
330
7466
100
AcDbSymbolTableRecord
100
AcDbBlockTableRecord
  2
*D15
340
0
  0
BLOCK_RECORD
  5
1B4F4
330
7466
100
AcDbSymbolTableRecord
100
AcDbBlockTableRecord
  2
*D16
340
0
  0
BLOCK_RECORD
  5
1B4FF
330
7466
100
AcDbSymbolTableRecord
100
AcDbBlockTableRecord
  2
*D17
340
0
  0
BLOCK_RECORD
  5
1B50B
330
7466
100
AcDbSymbolTableRecord
100
AcDbBlockTableRecord
  2
*D18
340
0
  0
BLOCK_RECORD
  5
1B52E
330
7466
100
AcDbSymbolTableRecord
100
AcDbBlockTableRecord
  2
*D19
340
0
  0
BLOCK_RECORD
  5
1D305
330
7466
100
AcDbSymbolTableRecord
100
AcDbBlockTableRecord
  2
*D20
340
0
  0
BLOCK_RECORD
  5
1DACB
330
7466
100
AcDbSymbolTableRecord
100
AcDbBlockTableRecord
  2
*D21
340
0
  0
BLOCK_RECORD
  5
1DAD7
330
7466
100
AcDbSymbolTableRecord
100
AcDbBlockTableRecord
  2
*D22
340
0
  0
BLOCK_RECORD
  5
1DAE5
330
7466
100
AcDbSymbolTableRecord
100
AcDbBlockTableRecord
  2
*D23
340
0
  0
BLOCK_RECORD
  5
1DAF2
330
7466
100
AcDbSymbolTableRecord
100
AcDbBlockTableRecord
  2
*D24
340
0
  0
BLOCK_RECORD
  5
1E253
330
7466
100
AcDbSymbolTableRecord
100
AcDbBlockTableRecord
  2
*D25
340
0
  0
BLOCK_RECORD
  5
1E2DD
330
7466
100
AcDbSymbolTableRecord
100
AcDbBlockTableRecord
  2
*D26
340
0
  0
BLOCK_RECORD
  5
1E2F8
330
7466
100
AcDbSymbolTableRecord
100
AcDbBlockTableRecord
  2
*D27
340
0
  0
BLOCK_RECORD
  5
1E320
330
7466
100
AcDbSymbolTableRecord
100
AcDbBlockTableRecord
  2
*D28
340
0
  0
BLOCK_RECORD
  5
1EF0A
330
7466
100
AcDbSymbolTableRecord
100
AcDbBlockTableRecord
  2
*D29
340
0
  0
BLOCK_RECORD
  5
1F1EA
330
7466
100
AcDbSymbolTableRecord
100
AcDbBlockTableRecord
  2
*D30
340
0
  0
BLOCK_RECORD
  5
1F1F6
330
7466
100
AcDbSymbolTableRecord
100
AcDbBlockTableRecord
  2
*D31
340
0
  0
BLOCK_RECORD
  5
1F202
330
7466
100
AcDbSymbolTableRecord
100
AcDbBlockTableRecord
  2
*D32
340
0
  0
BLOCK_RECORD
  5
1F20E
330
7466
100
AcDbSymbolTableRecord
100
AcDbBlockTableRecord
  2
*D33
340
0
  0
BLOCK_RECORD
  5
1F21A
330
7466
100
AcDbSymbolTableRecord
100
AcDbBlockTableRecord
  2
*D34
340
0
  0
BLOCK_RECORD
  5
1F225
330
7466
100
AcDbSymbolTableRecord
100
AcDbBlockTableRecord
  2
*D35
340
0
  0
ENDTAB
  0
ENDSEC
  0
SECTION
  2
BLOCKS
  0
BLOCK
  5
7489
330
747D
100
AcDbEntity
  8
0
100
AcDbBlockBegin
  2
*MODEL_SPACE
 70
     0
 10
0.0
 20
0.0
 30
0.0
  3
*MODEL_SPACE
  1

  0
ENDBLK
  5
748A
330
747D
100
AcDbEntity
  8
0
100
AcDbBlockEnd
  0
BLOCK
  5
7487
330
747A
100
AcDbEntity
 67
     1
  8
0
100
AcDbBlockBegin
  2
*PAPER_SPACE
 70
     0
 10
0.0
 20
0.0
 30
0.0
  3
*PAPER_SPACE
  1

  0
ENDBLK
  5
7488
330
747A
100
AcDbEntity
 67
     1
  8
0
100
AcDbBlockEnd
  0
BLOCK
  5
F771
330
F770
100
AcDbEntity
  8
0
 48
50.0
100
AcDbBlockBegin
  2
_DOTSMALL
 70
     0
 10
0.0
 20
0.0
 30
0.0
  3
_DOTSMALL
  1

  0
LWPOLYLINE
  5
F772
330
F770
100
AcDbEntity
  8
0
  6
ByBlock
 62
     0
 48
50.0
100
AcDbPolyline
 90
        2
 70
     1
 43
0.5
 10
-0.0625
 20
0.0
 42
1.0
 10
0.0625
 20
0.0
 42
1.0
  0
ENDBLK
  5
F776
330
F770
100
AcDbEntity
  8
0
 48
50.0
100
AcDbBlockEnd
  0
BLOCK
  5
1B3C2
330
1B3B7
100
AcDbEntity
  8
0
 48
50.0
100
AcDbBlockBegin
  2
*D1
 70
     1
 10
0.0
 20
0.0
 30
0.0
  3
*D1
  1

  0
LINE
  5
1F3B9
330
1B3B7
100
AcDbEntity
  8
寸法
 62
     0
 48
50.0
370
    -2
100
AcDbLine
 10
9963.600000000001
 20
7713.526486605964
 30
0.0
 11
9963.600000000001
 21
7656.533222567134
 31
0.0
  0
LINE
  5
1F3BA
330
1B3B7
100
AcDbEntity
  8
寸法
 62
     0
 48
50.0
370
    -2
100
AcDbLine
 10
9843.600000000002
 20
7753.28844381417
 30
0.0
 11
9843.600000000002
 21
7656.533222567134
 31
0.0
  0
LINE
  5
1F3BB
330
1B3B7
100
AcDbEntity
  8
寸法
 62
     0
 48
50.0
370
    -2
100
AcDbLine
 10
9843.600000000002
 20
7716.533222567133
 30
0.0
 11
9963.600000000001
 21
7716.533222567133
 31
0.0
  0
LINE
  5
1F3BC
330
1B3B7
100
AcDbEntity
  8
寸法
 62
     0
 48
50.0
370
    -2
100
AcDbLine
 10
9963.600000000001
 20
7716.533222567133
 30
0.0
 11
10369.7062992126
 21
7716.533222567133
 31
0.0
  0
INSERT
  5
1F3BD
330
1B3B7
100
AcDbEntity
  8
寸法
 62
     0
 48
50.0
370
    -2
100
AcDbBlockReference
  2
_DOTSMALL
 10
9843.600000000002
 20
7716.533222567133
 30
0.0
 41
100.0
 42
100.0
 43
100.0
 50
180.0
  0
INSERT
  5
1F3BE
330
1B3B7
100
AcDbEntity
  8
寸法
 62
     0
 48
50.0
370
    -2
100
AcDbBlockReference
  2
_DOTSMALL
 10
9963.600000000001
 20
7716.533222567133
 30
0.0
 41
100.0
 42
100.0
 43
100.0
  0
MTEXT
  5
1F3BF
330
1B3B7
100
AcDbEntity
  8
寸法
 62
     7
 48
50.0
100
AcDbMText
 10
10233.65905511811
 20
7816.545033590755
 30
0.0
 40
120.0
 41
0.0
 71
     5
 72
     1
  1
\A1;120
  7
STYLE1
 73
     1
 44
1.0
1001
ACAD
1000
MTEXTBEGIN
1070
    73
1070
     1
1070
    44
1040
1.0
1070
    74
1070
     0
1000
MTEXTEND
  0
POINT
  5
1F3C0
330
1B3B7
100
AcDbEntity
  8
DEFPOINTS
 62
     0
 48
50.0
100
AcDbPoint
 10
9963.600000000001
 20
7733.526486605964
 30
0.0
  0
POINT
  5
1F3C1
330
1B3B7
100
AcDbEntity
  8
DEFPOINTS
 62
     0
 48
50.0
100
AcDbPoint
 10
9843.600000000002
 20
7773.28844381417
 30
0.0
  0
POINT
  5
1F3C2
330
1B3B7
100
AcDbEntity
  8
DEFPOINTS
 62
     0
 48
50.0
100
AcDbPoint
 10
9843.600000000002
 20
7716.533222567133
 30
0.0
  0
ENDBLK
  5
1B3C3
330
1B3B7
100
AcDbEntity
  8
0
 48
50.0
100
AcDbBlockEnd
  0
BLOCK
  5
1B3E6
330
1B3DC
100
AcDbEntity
  8
0
 48
50.0
100
AcDbBlockBegin
  2
*D2
 70
     1
 10
0.0
 20
0.0
 30
0.0
  3
*D2
  1

  0
LINE
  5
1F3B0
330
1B3DC
100
AcDbEntity
  8
寸法
 62
     0
 48
50.0
370
    -2
100
AcDbLine
 10
7271.600000000001
 20
6689.241890067508
 30
0.0
 11
7105.692155807084
 21
6689.241890067508
 31
0.0
  0
LINE
  5
1F3B1
330
1B3DC
100
AcDbEntity
  8
寸法
 62
     0
 48
50.0
370
    -2
100
AcDbLine
 10
7271.600000000001
 20
7439.241890067508
 30
0.0
 11
7105.692155807084
 21
7439.241890067508
 31
0.0
  0
LINE
  5
1F3B2
330
1B3DC
100
AcDbEntity
  8
寸法
 62
     0
 48
50.0
370
    -2
100
AcDbLine
 10
7165.692155807083
 20
6689.241890067508
 30
0.0
 11
7165.692155807083
 21
7439.241890067508
 31
0.0
  0
INSERT
  5
1F3B3
330
1B3DC
100
AcDbEntity
  8
寸法
 62
     0
 48
50.0
370
    -2
100
AcDbBlockReference
  2
_DOTSMALL
 10
7165.692155807083
 20
6689.241890067508
 30
0.0
 41
100.0
 42
100.0
 43
100.0
 50
270.0
  0
INSERT
  5
1F3B4
330
1B3DC
100
AcDbEntity
  8
寸法
 62
     0
 48
50.0
370
    -2
100
AcDbBlockReference
  2
_DOTSMALL
 10
7165.692155807083
 20
7439.241890067508
 30
0.0
 41
100.0
 42
100.0
 43
100.0
 50
90.0
  0
MTEXT
  5
1F3B5
330
1B3DC
100
AcDbEntity
  8
寸法
 62
     7
 48
50.0
100
AcDbMText
 10
7065.692155807082
 20
7064.24189006751
 30
0.0
 40
120.0
 41
0.0
 71
     5
 72
     1
  1
\A1;750
  7
STYLE1
 11
0.0000000000000001
 21
1.0
 31
0.0
 73
     1
 44
1.0
1001
ACAD
1000
MTEXTBEGIN
1070
    73
1070
     1
1070
    44
1040
1.0
1070
    74
1070
     0
1000
MTEXTEND
  0
POINT
  5
1F3B6
330
1B3DC
100
AcDbEntity
  8
DEFPOINTS
 62
     0
 48
50.0
100
AcDbPoint
 10
7291.600000000001
 20
6689.241890067508
 30
0.0
  0
POINT
  5
1F3B7
330
1B3DC
100
AcDbEntity
  8
DEFPOINTS
 62
     0
 48
50.0
100
AcDbPoint
 10
7291.600000000001
 20
7439.241890067508
 30
0.0
  0
POINT
  5
1F3B8
330
1B3DC
100
AcDbEntity
  8
DEFPOINTS
 62
     0
 48
50.0
100
AcDbPoint
 10
7165.692155807083
 20
7439.241890067508
 30
0.0
  0
ENDBLK
  5
1B3E7
330
1B3DC
100
AcDbEntity
  8
0
 48
50.0
100
AcDbBlockEnd
  0
BLOCK
  5
1B3F1
330
1B3E8
100
AcDbEntity
  8
0
 48
50.0
100
AcDbBlockBegin
  2
*D3
 70
     1
 10
0.0
 20
0.0
 30
0.0
  3
*D3
  1

  0
LINE
  5
1F3A7
330
1B3E8
100
AcDbEntity
  8
寸法
 62
     0
 48
50.0
370
    -2
100
AcDbLine
 10
7271.600000000001
 20
7439.241890067508
 30
0.0
 11
7105.692155807084
 21
7439.241890067508
 31
0.0
  0
LINE
  5
1F3A8
330
1B3E8
100
AcDbEntity
  8
寸法
 62
     0
 48
50.0
370
    -2
100
AcDbLine
 10
6894.600000000001
 20
8174.241890067508
 30
0.0
 11
7225.692155807085
 21
8174.241890067508
 31
0.0
  0
LINE
  5
1F3A9
330
1B3E8
100
AcDbEntity
  8
寸法
 62
     0
 48
50.0
370
    -2
100
AcDbLine
 10
7165.692155807083
 20
7439.241890067508
 30
0.0
 11
7165.692155807083
 21
8174.241890067508
 31
0.0
  0
INSERT
  5
1F3AA
330
1B3E8
100
AcDbEntity
  8
寸法
 62
     0
 48
50.0
370
    -2
100
AcDbBlockReference
  2
_DOTSMALL
 10
7165.692155807083
 20
7439.241890067508
 30
0.0
 41
100.0
 42
100.0
 43
100.0
 50
270.0
  0
INSERT
  5
1F3AB
330
1B3E8
100
AcDbEntity
  8
寸法
 62
     0
 48
50.0
370
    -2
100
AcDbBlockReference
  2
_DOTSMALL
 10
7165.692155807083
 20
8174.241890067508
 30
0.0
 41
100.0
 42
100.0
 43
100.0
 50
90.0
  0
MTEXT
  5
1F3AC
330
1B3E8
100
AcDbEntity
  8
寸法
 62
     7
 48
50.0
100
AcDbMText
 10
7065.692155807083
 20
7806.234068666043
 30
0.0
 40
120.0
 41
0.0
 71
     5
 72
     1
  1
\A1;735
  7
STYLE1
 11
0.0000000000000001
 21
1.0
 31
0.0
 73
     1
 44
1.0
1001
ACAD
1000
MTEXTBEGIN
1070
    73
1070
     1
1070
    44
1040
1.0
1070
    74
1070
     0
1000
MTEXTEND
  0
POINT
  5
1F3AD
330
1B3E8
100
AcDbEntity
  8
DEFPOINTS
 62
     0
 48
50.0
100
AcDbPoint
 10
7291.600000000001
 20
7439.241890067508
 30
0.0
  0
POINT
  5
1F3AE
330
1B3E8
100
AcDbEntity
  8
DEFPOINTS
 62
     0
 48
50.0
100
AcDbPoint
 10
6874.6
 20
8174.241890067508
 30
0.0
  0
POINT
  5
1F3AF
330
1B3E8
100
AcDbEntity
  8
DEFPOINTS
 62
     0
 48
50.0
100
AcDbPoint
 10
7165.692155807083
 20
8174.241890067508
 30
0.0
  0
ENDBLK
  5
1B3F2
330
1B3E8
100
AcDbEntity
  8
0
 48
50.0
100
AcDbBlockEnd
  0
BLOCK
  5
1B3FD
330
1B3F3
100
AcDbEntity
  8
0
 48
50.0
100
AcDbBlockBegin
  2
*D4
 70
     1
 10
0.0
 20
0.0
 30
0.0
  3
*D4
  1

  0
LINE
  5
1F39E
330
1B3F3
100
AcDbEntity
  8
寸法
 62
     0
 48
50.0
370
    -2
100
AcDbLine
 10
6990.488508201206
 20
5954.241890067517
 30
0.0
 11
7225.692155807083
 21
5954.241890067517
 31
0.0
  0
LINE
  5
1F39F
330
1B3F3
100
AcDbEntity
  8
寸法
 62
     0
 48
50.0
370
    -2
100
AcDbLine
 10
7271.600000000001
 20
6689.241890067508
 30
0.0
 11
7105.692155807084
 21
6689.241890067508
 31
0.0
  0
LINE
  5
1F3A0
330
1B3F3
100
AcDbEntity
  8
寸法
 62
     0
 48
50.0
370
    -2
100
AcDbLine
 10
7165.692155807083
 20
5954.241890067517
 30
0.0
 11
7165.692155807083
 21
6689.241890067508
 31
0.0
  0
INSERT
  5
1F3A1
330
1B3F3
100
AcDbEntity
  8
寸法
 62
     0
 48
50.0
370
    -2
100
AcDbBlockReference
  2
_DOTSMALL
 10
7165.692155807083
 20
5954.241890067517
 30
0.0
 41
100.0
 42
100.0
 43
100.0
 50
270.0
  0
INSERT
  5
1F3A2
330
1B3F3
100
AcDbEntity
  8
寸法
 62
     0
 48
50.0
370
    -2
100
AcDbBlockReference
  2
_DOTSMALL
 10
7165.692155807083
 20
6689.241890067508
 30
0.0
 41
100.0
 42
100.0
 43
100.0
 50
90.0
  0
MTEXT
  5
1F3A3
330
1B3F3
100
AcDbEntity
  8
寸法
 62
     7
 48
50.0
100
AcDbMText
 10
7065.692155807082
 20
6321.741890067514
 30
0.0
 40
120.0
 41
0.0
 71
     5
 72
     1
  1
\A1;735
  7
STYLE1
 11
0.0000000000000001
 21
1.0
 31
0.0
 73
     1
 44
1.0
1001
ACAD
1000
MTEXTBEGIN
1070
    73
1070
     1
1070
    44
1040
1.0
1070
    74
1070
     0
1000
MTEXTEND
  0
POINT
  5
1F3A4
330
1B3F3
100
AcDbEntity
  8
DEFPOINTS
 62
     0
 48
50.0
100
AcDbPoint
 10
6970.488508201206
 20
5954.241890067517
 30
0.0
  0
POINT
  5
1F3A5
330
1B3F3
100
AcDbEntity
  8
DEFPOINTS
 62
     0
 48
50.0
100
AcDbPoint
 10
7291.600000000001
 20
6689.241890067508
 30
0.0
  0
POINT
  5
1F3A6
330
1B3F3
100
AcDbEntity
  8
DEFPOINTS
 62
     0
 48
50.0
100
AcDbPoint
 10
7165.692155807083
 20
6689.241890067508
 30
0.0
  0
ENDBLK
  5
1B3FE
330
1B3F3
100
AcDbEntity
  8
0
 48
50.0
100
AcDbBlockEnd
  0
BLOCK
  5
1B43D
330
1B432
100
AcDbEntity
  8
0
 48
50.0
100
AcDbBlockBegin
  2
*D5
 70
     1
 10
0.0
 20
0.0
 30
0.0
  3
*D5
  1

  0
LINE
  5
1F43D
330
1B432
100
AcDbEntity
  8
寸法
 62
     0
 48
50.0
370
    -2
100
AcDbLine
 10
9963.600000000001
 20
8194.241890067507
 30
0.0
 11
9963.600000000001
 21
8980.001516609592
 31
0.0
  0
LINE
  5
1F43E
330
1B432
100
AcDbEntity
  8
寸法
 62
     0
 48
50.0
370
    -2
100
AcDbLine
 10
9840.600000000002
 20
8121.241890067507
 30
0.0
 11
9840.600000000002
 21
8980.001516609592
 31
0.0
  0
LINE
  5
1F43F
330
1B432
100
AcDbEntity
  8
寸法
 62
     0
 48
50.0
370
    -2
100
AcDbLine
 10
9840.600000000002
 20
8920.001516609591
 30
0.0
 11
9963.600000000001
 21
8920.001516609591
 31
0.0
  0
LINE
  5
1F440
330
1B432
100
AcDbEntity
  8
寸法
 62
     0
 48
50.0
370
    -2
100
AcDbLine
 10
9963.600000000001
 20
8920.001516609591
 30
0.0
 11
10375.19188309203
 21
8920.001516609591
 31
0.0
  0
INSERT
  5
1F441
330
1B432
100
AcDbEntity
  8
寸法
 62
     0
 48
50.0
370
    -2
100
AcDbBlockReference
  2
_DOTSMALL
 10
9840.600000000002
 20
8920.001516609591
 30
0.0
 41
100.0
 42
100.0
 43
100.0
 50
180.0
  0
INSERT
  5
1F442
330
1B432
100
AcDbEntity
  8
寸法
 62
     0
 48
50.0
370
    -2
100
AcDbBlockReference
  2
_DOTSMALL
 10
9963.600000000001
 20
8920.001516609591
 30
0.0
 41
100.0
 42
100.0
 43
100.0
  0
MTEXT
  5
1F443
330
1B432
100
AcDbEntity
  8
寸法
 62
     7
 48
50.0
100
AcDbMText
 10
10236.7066017178
 20
9020.013327633213
 30
0.0
 40
120.0
 41
0.0
 71
     5
 72
     1
  1
\A1;123
  7
STYLE1
 73
     1
 44
1.0
1001
ACAD
1000
MTEXTBEGIN
1070
    73
1070
     1
1070
    44
1040
1.0
1070
    74
1070
     0
1000
MTEXTEND
  0
POINT
  5
1F444
330
1B432
100
AcDbEntity
  8
DEFPOINTS
 62
     0
 48
50.0
100
AcDbPoint
 10
9963.600000000001
 20
8174.241890067508
 30
0.0
  0
POINT
  5
1F445
330
1B432
100
AcDbEntity
  8
DEFPOINTS
 62
     0
 48
50.0
100
AcDbPoint
 10
9840.600000000002
 20
8101.241890067507
 30
0.0
  0
POINT
  5
1F446
330
1B432
100
AcDbEntity
  8
DEFPOINTS
 62
     0
 48
50.0
100
AcDbPoint
 10
9840.600000000002
 20
8920.001516609591
 30
0.0
  0
ENDBLK
  5
1B43E
330
1B432
100
AcDbEntity
  8
0
 48
50.0
100
AcDbBlockEnd
  0
BLOCK
  5
1B449
330
1B43F
100
AcDbEntity
  8
0
 48
50.0
100
AcDbBlockBegin
  2
*D6
 70
     1
 10
0.0
 20
0.0
 30
0.0
  3
*D6
  1

  0
LINE
  5
1F434
330
1B43F
100
AcDbEntity
  8
寸法
 62
     0
 48
50.0
370
    -2
100
AcDbLine
 10
9963.600000000001
 20
8194.241890067507
 30
0.0
 11
9963.600000000001
 21
8761.151655715835
 31
0.0
  0
LINE
  5
1F435
330
1B43F
100
AcDbEntity
  8
寸法
 62
     0
 48
50.0
370
    -2
100
AcDbLine
 10
9055.600000000001
 20
7659.241890067507
 30
0.0
 11
9055.600000000001
 21
8761.151655715835
 31
0.0
  0
LINE
  5
1F436
330
1B43F
100
AcDbEntity
  8
寸法
 62
     0
 48
50.0
370
    -2
100
AcDbLine
 10
9963.600000000001
 20
8701.151655715836
 30
0.0
 11
9055.600000000001
 21
8701.151655715836
 31
0.0
  0
INSERT
  5
1F437
330
1B43F
100
AcDbEntity
  8
寸法
 62
     0
 48
50.0
370
    -2
100
AcDbBlockReference
  2
_DOTSMALL
 10
9963.600000000001
 20
8701.151655715836
 30
0.0
 41
100.0
 42
100.0
 43
100.0
  0
INSERT
  5
1F438
330
1B43F
100
AcDbEntity
  8
寸法
 62
     0
 48
50.0
370
    -2
100
AcDbBlockReference
  2
_DOTSMALL
 10
9055.600000000001
 20
8701.151655715836
 30
0.0
 41
100.0
 42
100.0
 43
100.0
 50
180.0
  0
MTEXT
  5
1F439
330
1B43F
100
AcDbEntity
  8
寸法
 62
     7
 48
50.0
100
AcDbMText
 10
9534.51852200628
 20
8801.151655715836
 30
0.0
 40
120.0
 41
0.0
 71
     5
 72
     1
  1
\A1;908
  7
STYLE1
 73
     1
 44
1.0
1001
ACAD
1000
MTEXTBEGIN
1070
    73
1070
     1
1070
    44
1040
1.0
1070
    74
1070
     0
1000
MTEXTEND
  0
POINT
  5
1F43A
330
1B43F
100
AcDbEntity
  8
DEFPOINTS
 62
     0
 48
50.0
100
AcDbPoint
 10
9963.600000000001
 20
8174.241890067508
 30
0.0
  0
POINT
  5
1F43B
330
1B43F
100
AcDbEntity
  8
DEFPOINTS
 62
     0
 48
50.0
100
AcDbPoint
 10
9055.600000000001
 20
7639.241890067508
 30
0.0
  0
POINT
  5
1F43C
330
1B43F
100
AcDbEntity
  8
DEFPOINTS
 62
     0
 48
50.0
100
AcDbPoint
 10
9055.600000000001
 20
8701.151655715836
 30
0.0
  0
ENDBLK
  5
1B44A
330
1B43F
100
AcDbEntity
  8
0
 48
50.0
100
AcDbBlockEnd
  0
BLOCK
  5
1B456
330
1B44B
100
AcDbEntity
  8
0
 48
50.0
100
AcDbBlockBegin
  2
*D7
 70
     1
 10
0.0
 20
0.0
 30
0.0
  3
*D7
  1

  0
LINE
  5
1F42A
330
1B44B
100
AcDbEntity
  8
寸法
 62
     0
 48
50.0
370
    -2
100
AcDbLine
 10
6733.6
 20
8054.241890067507
 30
0.0
 11
6990.307249876099
 21
8054.241890067507
 31
0.0
  0
LINE
  5
1F42B
330
1B44B
100
AcDbEntity
  8
寸法
 62
     0
 48
50.0
370
    -2
100
AcDbLine
 10
6733.6
 20
8174.241890067506
 30
0.0
 11
6990.307249876099
 21
8174.241890067506
 31
0.0
  0
LINE
  5
1F42C
330
1B44B
100
AcDbEntity
  8
寸法
 62
     0
 48
50.0
370
    -2
100
AcDbLine
 10
6930.307249876098
 20
8054.241890067507
 30
0.0
 11
6930.307249876098
 21
8174.241890067506
 31
0.0
  0
LINE
  5
1F42D
330
1B44B
100
AcDbEntity
  8
寸法
 62
     0
 48
50.0
370
    -2
100
AcDbLine
 10
6930.307249876098
 20
8174.241890067506
 30
0.0
 11
6930.307249876098
 21
8588.372677434881
 31
0.0
  0
INSERT
  5
1F42E
330
1B44B
100
AcDbEntity
  8
寸法
 62
     0
 48
50.0
370
    -2
100
AcDbBlockReference
  2
_DOTSMALL
 10
6930.307249876098
 20
8054.241890067507
 30
0.0
 41
100.0
 42
100.0
 43
100.0
 50
270.0
  0
INSERT
  5
1F42F
330
1B44B
100
AcDbEntity
  8
寸法
 62
     0
 48
50.0
370
    -2
100
AcDbBlockReference
  2
_DOTSMALL
 10
6930.307249876098
 20
8174.241890067506
 30
0.0
 41
100.0
 42
100.0
 43
100.0
 50
90.0
  0
MTEXT
  5
1F430
330
1B44B
100
AcDbEntity
  8
寸法
 62
     7
 48
50.0
100
AcDbMText
 10
6830.295438852475
 20
8452.325433340392
 30
0.0
 40
120.0
 41
0.0
 71
     5
 72
     1
  1
\A1;120
  7
STYLE1
 11
0.0000000000000001
 21
1.0
 31
0.0
 73
     1
 44
1.0
1001
ACAD
1000
MTEXTBEGIN
1070
    73
1070
     1
1070
    44
1040
1.0
1070
    74
1070
     0
1000
MTEXTEND
  0
POINT
  5
1F431
330
1B44B
100
AcDbEntity
  8
DEFPOINTS
 62
     0
 48
50.0
100
AcDbPoint
 10
6713.600000000001
 20
8054.241890067507
 30
0.0
  0
POINT
  5
1F432
330
1B44B
100
AcDbEntity
  8
DEFPOINTS
 62
     0
 48
50.0
100
AcDbPoint
 10
6713.600000000001
 20
8174.241890067506
 30
0.0
  0
POINT
  5
1F433
330
1B44B
100
AcDbEntity
  8
DEFPOINTS
 62
     0
 48
50.0
100
AcDbPoint
 10
6930.307249876098
 20
8174.241890067506
 30
0.0
  0
ENDBLK
  5
1B457
330
1B44B
100
AcDbEntity
  8
0
 48
50.0
100
AcDbBlockEnd
  0
BLOCK
  5
1B46D
330
1B462
100
AcDbEntity
  8
0
 48
50.0
100
AcDbBlockBegin
  2
*D8
 70
     1
 10
0.0
 20
0.0
 30
0.0
  3
*D8
  1

  0
LINE
  5
1F420
330
1B462
100
AcDbEntity
  8
寸法
 62
     0
 48
50.0
370
    -2
100
AcDbLine
 10
6463.600000000001
 20
8174.241890067508
 30
0.0
 11
5927.657733986179
 21
8174.241890067509
 31
0.0
  0
LINE
  5
1F421
330
1B462
100
AcDbEntity
  8
寸法
 62
     0
 48
50.0
370
    -2
100
AcDbLine
 10
6536.599999999999
 20
8051.241890067506
 30
0.0
 11
5927.657733986179
 21
8051.241890067508
 31
0.0
  0
LINE
  5
1F422
330
1B462
100
AcDbEntity
  8
寸法
 62
     0
 48
50.0
370
    -2
100
AcDbLine
 10
5987.657733986178
 20
8051.241890067508
 30
0.0
 11
5987.657733986178
 21
8174.241890067509
 31
0.0
  0
LINE
  5
1F423
330
1B462
100
AcDbEntity
  8
寸法
 62
     0
 48
50.0
370
    -2
100
AcDbLine
 10
5987.657733986178
 20
8174.241890067509
 30
0.0
 11
5987.657733986178
 21
8585.833773159542
 31
0.0
  0
INSERT
  5
1F424
330
1B462
100
AcDbEntity
  8
寸法
 62
     0
 48
50.0
370
    -2
100
AcDbBlockReference
  2
_DOTSMALL
 10
5987.657733986178
 20
8051.241890067508
 30
0.0
 41
100.0
 42
100.0
 43
100.0
 50
270.0
  0
INSERT
  5
1F425
330
1B462
100
AcDbEntity
  8
寸法
 62
     0
 48
50.0
370
    -2
100
AcDbBlockReference
  2
_DOTSMALL
 10
5987.657733986178
 20
8174.241890067509
 30
0.0
 41
100.0
 42
100.0
 43
100.0
 50
90.0
  0
MTEXT
  5
1F426
330
1B462
100
AcDbEntity
  8
寸法
 62
     7
 48
50.0
100
AcDbMText
 10
5887.645922962556
 20
8447.348491785305
 30
0.0
 40
120.0
 41
0.0
 71
     5
 72
     1
  1
\A1;123
  7
STYLE1
 11
0.0000000000000001
 21
1.0
 31
0.0
 73
     1
 44
1.0
1001
ACAD
1000
MTEXTBEGIN
1070
    73
1070
     1
1070
    44
1040
1.0
1070
    74
1070
     0
1000
MTEXTEND
  0
POINT
  5
1F427
330
1B462
100
AcDbEntity
  8
DEFPOINTS
 62
     0
 48
50.0
100
AcDbPoint
 10
6483.6
 20
8174.241890067508
 30
0.0
  0
POINT
  5
1F428
330
1B462
100
AcDbEntity
  8
DEFPOINTS
 62
     0
 48
50.0
100
AcDbPoint
 10
6556.6
 20
8051.241890067506
 30
0.0
  0
POINT
  5
1F429
330
1B462
100
AcDbEntity
  8
DEFPOINTS
 62
     0
 48
50.0
100
AcDbPoint
 10
5987.657733986178
 20
8051.241890067508
 30
0.0
  0
ENDBLK
  5
1B46E
330
1B462
100
AcDbEntity
  8
0
 48
50.0
100
AcDbBlockEnd
  0
BLOCK
  5
1B487
330
1B47C
100
AcDbEntity
  8
0
 48
50.0
100
AcDbBlockBegin
  2
*D9
 70
     1
 10
0.0
 20
0.0
 30
0.0
  3
*D9
  1

  0
LINE
  5
1F416
330
1B47C
100
AcDbEntity
  8
寸法
 62
     0
 48
50.0
370
    -2
100
AcDbLine
 10
6606.6
 20
8121.241890067507
 30
0.0
 11
6606.6
 21
8980.001516609592
 31
0.0
  0
LINE
  5
1F417
330
1B47C
100
AcDbEntity
  8
寸法
 62
     0
 48
50.0
370
    -2
100
AcDbLine
 10
6483.6
 20
8194.241890067507
 30
0.0
 11
6483.6
 21
8980.001516609592
 31
0.0
  0
LINE
  5
1F418
330
1B47C
100
AcDbEntity
  8
寸法
 62
     0
 48
50.0
370
    -2
100
AcDbLine
 10
6606.6
 20
8920.001516609591
 30
0.0
 11
6483.6
 21
8920.001516609591
 31
0.0
  0
LINE
  5
1F419
330
1B47C
100
AcDbEntity
  8
寸法
 62
     0
 48
50.0
370
    -2
100
AcDbLine
 10
6483.6
 20
8920.001516609591
 30
0.0
 11
6072.008116907963
 21
8920.001516609591
 31
0.0
  0
INSERT
  5
1F41A
330
1B47C
100
AcDbEntity
  8
寸法
 62
     0
 48
50.0
370
    -2
100
AcDbBlockReference
  2
_DOTSMALL
 10
6606.6
 20
8920.001516609591
 30
0.0
 41
100.0
 42
100.0
 43
100.0
  0
INSERT
  5
1F41B
330
1B47C
100
AcDbEntity
  8
寸法
 62
     0
 48
50.0
370
    -2
100
AcDbBlockReference
  2
_DOTSMALL
 10
6483.6
 20
8920.001516609591
 30
0.0
 41
100.0
 42
100.0
 43
100.0
 50
180.0
  0
MTEXT
  5
1F41C
330
1B47C
100
AcDbEntity
  8
寸法
 62
     7
 48
50.0
100
AcDbMText
 10
6210.493398282203
 20
9020.013327633213
 30
0.0
 40
120.0
 41
0.0
 71
     5
 72
     1
  1
\A1;123
  7
STYLE1
 73
     1
 44
1.0
1001
ACAD
1000
MTEXTBEGIN
1070
    73
1070
     1
1070
    44
1040
1.0
1070
    74
1070
     0
1000
MTEXTEND
  0
POINT
  5
1F41D
330
1B47C
100
AcDbEntity
  8
DEFPOINTS
 62
     0
 48
50.0
100
AcDbPoint
 10
6606.6
 20
8101.241890067507
 30
0.0
  0
POINT
  5
1F41E
330
1B47C
100
AcDbEntity
  8
DEFPOINTS
 62
     0
 48
50.0
100
AcDbPoint
 10
6483.6
 20
8174.241890067508
 30
0.0
  0
POINT
  5
1F41F
330
1B47C
100
AcDbEntity
  8
DEFPOINTS
 62
     0
 48
50.0
100
AcDbPoint
 10
6483.6
 20
8920.001516609591
 30
0.0
  0
ENDBLK
  5
1B488
330
1B47C
100
AcDbEntity
  8
0
 48
50.0
100
AcDbBlockEnd
  0
BLOCK
  5
1B492
330
1B489
100
AcDbEntity
  8
0
 48
50.0
100
AcDbBlockBegin
  2
*D10
 70
     1
 10
0.0
 20
0.0
 30
0.0
  3
*D10
  1

  0
LINE
  5
1F40D
330
1B489
100
AcDbEntity
  8
寸法
 62
     0
 48
50.0
370
    -2
100
AcDbLine
 10
7391.600000000001
 20
7659.241890067507
 30
0.0
 11
7391.600000000001
 21
8761.151655715835
 31
0.0
  0
LINE
  5
1F40E
330
1B489
100
AcDbEntity
  8
寸法
 62
     0
 48
50.0
370
    -2
100
AcDbLine
 10
6483.6
 20
8194.241890067507
 30
0.0
 11
6483.6
 21
8761.151655715835
 31
0.0
  0
LINE
  5
1F40F
330
1B489
100
AcDbEntity
  8
寸法
 62
     0
 48
50.0
370
    -2
100
AcDbLine
 10
7391.600000000001
 20
8701.151655715836
 30
0.0
 11
6483.6
 21
8701.151655715836
 31
0.0
  0
INSERT
  5
1F410
330
1B489
100
AcDbEntity
  8
寸法
 62
     0
 48
50.0
370
    -2
100
AcDbBlockReference
  2
_DOTSMALL
 10
7391.600000000001
 20
8701.151655715836
 30
0.0
 41
100.0
 42
100.0
 43
100.0
  0
INSERT
  5
1F411
330
1B489
100
AcDbEntity
  8
寸法
 62
     0
 48
50.0
370
    -2
100
AcDbBlockReference
  2
_DOTSMALL
 10
6483.6
 20
8701.151655715836
 30
0.0
 41
100.0
 42
100.0
 43
100.0
 50
180.0
  0
MTEXT
  5
1F412
330
1B489
100
AcDbEntity
  8
寸法
 62
     7
 48
50.0
100
AcDbMText
 10
6937.6
 20
8801.151655715836
 30
0.0
 40
120.0
 41
0.0
 71
     5
 72
     1
  1
\A1;908
  7
STYLE1
 73
     1
 44
1.0
1001
ACAD
1000
MTEXTBEGIN
1070
    73
1070
     1
1070
    44
1040
1.0
1070
    74
1070
     0
1000
MTEXTEND
  0
POINT
  5
1F413
330
1B489
100
AcDbEntity
  8
DEFPOINTS
 62
     0
 48
50.0
100
AcDbPoint
 10
7391.600000000001
 20
7639.241890067508
 30
0.0
  0
POINT
  5
1F414
330
1B489
100
AcDbEntity
  8
DEFPOINTS
 62
     0
 48
50.0
100
AcDbPoint
 10
6483.6
 20
8174.241890067508
 30
0.0
  0
POINT
  5
1F415
330
1B489
100
AcDbEntity
  8
DEFPOINTS
 62
     0
 48
50.0
100
AcDbPoint
 10
6483.6
 20
8701.151655715836
 30
0.0
  0
ENDBLK
  5
1B493
330
1B489
100
AcDbEntity
  8
0
 48
50.0
100
AcDbBlockEnd
  0
BLOCK
  5
1B49E
330
1B494
100
AcDbEntity
  8
0
 48
50.0
100
AcDbBlockBegin
  2
*D11
 70
     1
 10
0.0
 20
0.0
 30
0.0
  3
*D11
  1

  0
LINE
  5
1F404
330
1B494
100
AcDbEntity
  8
寸法
 62
     0
 48
50.0
370
    -2
100
AcDbLine
 10
8223.600000000001
 20
7659.241890067507
 30
0.0
 11
8223.600000000001
 21
8761.151655715835
 31
0.0
  0
LINE
  5
1F405
330
1B494
100
AcDbEntity
  8
寸法
 62
     0
 48
50.0
370
    -2
100
AcDbLine
 10
7391.600000000001
 20
7659.241890067507
 30
0.0
 11
7391.600000000001
 21
8761.151655715835
 31
0.0
  0
LINE
  5
1F406
330
1B494
100
AcDbEntity
  8
寸法
 62
     0
 48
50.0
370
    -2
100
AcDbLine
 10
8223.600000000001
 20
8701.151655715836
 30
0.0
 11
7391.600000000001
 21
8701.151655715836
 31
0.0
  0
INSERT
  5
1F407
330
1B494
100
AcDbEntity
  8
寸法
 62
     0
 48
50.0
370
    -2
100
AcDbBlockReference
  2
_DOTSMALL
 10
8223.600000000001
 20
8701.151655715836
 30
0.0
 41
100.0
 42
100.0
 43
100.0
  0
INSERT
  5
1F408
330
1B494
100
AcDbEntity
  8
寸法
 62
     0
 48
50.0
370
    -2
100
AcDbBlockReference
  2
_DOTSMALL
 10
7391.600000000001
 20
8701.151655715836
 30
0.0
 41
100.0
 42
100.0
 43
100.0
 50
180.0
  0
MTEXT
  5
1F409
330
1B494
100
AcDbEntity
  8
寸法
 62
     7
 48
50.0
100
AcDbMText
 10
7807.6
 20
8801.163466739458
 30
0.0
 40
120.0
 41
0.0
 71
     5
 72
     1
  1
\A1;832
  7
STYLE1
 73
     1
 44
1.0
1001
ACAD
1000
MTEXTBEGIN
1070
    73
1070
     1
1070
    44
1040
1.0
1070
    74
1070
     0
1000
MTEXTEND
  0
POINT
  5
1F40A
330
1B494
100
AcDbEntity
  8
DEFPOINTS
 62
     0
 48
50.0
100
AcDbPoint
 10
8223.600000000001
 20
7639.241890067508
 30
0.0
  0
POINT
  5
1F40B
330
1B494
100
AcDbEntity
  8
DEFPOINTS
 62
     0
 48
50.0
100
AcDbPoint
 10
7391.600000000001
 20
7639.241890067508
 30
0.0
  0
POINT
  5
1F40C
330
1B494
100
AcDbEntity
  8
DEFPOINTS
 62
     0
 48
50.0
100
AcDbPoint
 10
7391.600000000001
 20
8701.151655715836
 30
0.0
  0
ENDBLK
  5
1B49F
330
1B494
100
AcDbEntity
  8
0
 48
50.0
100
AcDbBlockEnd
  0
BLOCK
  5
1B4A9
330
1B4A0
100
AcDbEntity
  8
0
 48
50.0
100
AcDbBlockBegin
  2
*D12
 70
     1
 10
0.0
 20
0.0
 30
0.0
  3
*D12
  1

  0
LINE
  5
1F3FB
330
1B4A0
100
AcDbEntity
  8
寸法
 62
     0
 48
50.0
370
    -2
100
AcDbLine
 10
6483.6
 20
8194.241890067507
 30
0.0
 11
6483.6
 21
9192.462212126427
 31
0.0
  0
LINE
  5
1F3FC
330
1B4A0
100
AcDbEntity
  8
寸法
 62
     0
 48
50.0
370
    -2
100
AcDbLine
 10
9963.600000000001
 20
8194.241890067507
 30
0.0
 11
9963.600000000001
 21
9192.462212126427
 31
0.0
  0
LINE
  5
1F3FD
330
1B4A0
100
AcDbEntity
  8
寸法
 62
     0
 48
50.0
370
    -2
100
AcDbLine
 10
6483.6
 20
9132.462212126426
 30
0.0
 11
9963.600000000001
 21
9132.462212126426
 31
0.0
  0
INSERT
  5
1F3FE
330
1B4A0
100
AcDbEntity
  8
寸法
 62
     0
 48
50.0
370
    -2
100
AcDbBlockReference
  2
_DOTSMALL
 10
6483.6
 20
9132.462212126426
 30
0.0
 41
100.0
 42
100.0
 43
100.0
 50
180.0
  0
INSERT
  5
1F3FF
330
1B4A0
100
AcDbEntity
  8
寸法
 62
     0
 48
50.0
370
    -2
100
AcDbBlockReference
  2
_DOTSMALL
 10
9963.600000000001
 20
9132.462212126426
 30
0.0
 41
100.0
 42
100.0
 43
100.0
  0
MTEXT
  5
1F400
330
1B4A0
100
AcDbEntity
  8
寸法
 62
     7
 48
50.0
100
AcDbMText
 10
8223.600000000001
 20
9232.462212126426
 30
0.0
 40
120.0
 41
0.0
 71
     5
 72
     1
  1
\A1;3480
  7
STYLE1
 73
     1
 44
1.0
1001
ACAD
1000
MTEXTBEGIN
1070
    73
1070
     1
1070
    44
1040
1.0
1070
    74
1070
     0
1000
MTEXTEND
  0
POINT
  5
1F401
330
1B4A0
100
AcDbEntity
  8
DEFPOINTS
 62
     0
 48
50.0
100
AcDbPoint
 10
6483.6
 20
8174.241890067508
 30
0.0
  0
POINT
  5
1F402
330
1B4A0
100
AcDbEntity
  8
DEFPOINTS
 62
     0
 48
50.0
100
AcDbPoint
 10
9963.600000000001
 20
8174.241890067508
 30
0.0
  0
POINT
  5
1F403
330
1B4A0
100
AcDbEntity
  8
DEFPOINTS
 62
     0
 48
50.0
100
AcDbPoint
 10
9963.600000000001
 20
9132.462212126426
 30
0.0
  0
ENDBLK
  5
1B4AA
330
1B4A0
100
AcDbEntity
  8
0
 48
50.0
100
AcDbBlockEnd
  0
BLOCK
  5
1B4B4
330
1B4AB
100
AcDbEntity
  8
0
 48
50.0
100
AcDbBlockBegin
  2
*D13
 70
     1
 10
0.0
 20
0.0
 30
0.0
  3
*D13
  1

  0
LINE
  5
1F3F2
330
1B4AB
100
AcDbEntity
  8
寸法
 62
     0
 48
50.0
370
    -2
100
AcDbLine
 10
9840.600000000002
 20
8121.241890067507
 30
0.0
 11
9840.600000000002
 21
8980.001516609592
 31
0.0
  0
LINE
  5
1F3F3
330
1B4AB
100
AcDbEntity
  8
寸法
 62
     0
 48
50.0
370
    -2
100
AcDbLine
 10
6606.6
 20
8121.241890067507
 30
0.0
 11
6606.6
 21
8980.001516609592
 31
0.0
  0
LINE
  5
1F3F4
330
1B4AB
100
AcDbEntity
  8
寸法
 62
     0
 48
50.0
370
    -2
100
AcDbLine
 10
9840.600000000002
 20
8920.001516609591
 30
0.0
 11
6606.6
 21
8920.001516609591
 31
0.0
  0
INSERT
  5
1F3F5
330
1B4AB
100
AcDbEntity
  8
寸法
 62
     0
 48
50.0
370
    -2
100
AcDbBlockReference
  2
_DOTSMALL
 10
9840.600000000002
 20
8920.001516609591
 30
0.0
 41
100.0
 42
100.0
 43
100.0
  0
INSERT
  5
1F3F6
330
1B4AB
100
AcDbEntity
  8
寸法
 62
     0
 48
50.0
370
    -2
100
AcDbBlockReference
  2
_DOTSMALL
 10
6606.6
 20
8920.001516609591
 30
0.0
 41
100.0
 42
100.0
 43
100.0
 50
180.0
  0
MTEXT
  5
1F3F7
330
1B4AB
100
AcDbEntity
  8
寸法
 62
     7
 48
50.0
100
AcDbMText
 10
8223.600000000001
 20
9020.013327633213
 30
0.0
 40
120.0
 41
0.0
 71
     5
 72
     1
  1
\A1;3234
  7
STYLE1
 73
     1
 44
1.0
1001
ACAD
1000
MTEXTBEGIN
1070
    73
1070
     1
1070
    44
1040
1.0
1070
    74
1070
     0
1000
MTEXTEND
  0
POINT
  5
1F3F8
330
1B4AB
100
AcDbEntity
  8
DEFPOINTS
 62
     0
 48
50.0
100
AcDbPoint
 10
9840.600000000002
 20
8101.241890067507
 30
0.0
  0
POINT
  5
1F3F9
330
1B4AB
100
AcDbEntity
  8
DEFPOINTS
 62
     0
 48
50.0
100
AcDbPoint
 10
6606.6
 20
8101.241890067507
 30
0.0
  0
POINT
  5
1F3FA
330
1B4AB
100
AcDbEntity
  8
DEFPOINTS
 62
     0
 48
50.0
100
AcDbPoint
 10
6606.6
 20
8920.001516609591
 30
0.0
  0
ENDBLK
  5
1B4B5
330
1B4AB
100
AcDbEntity
  8
0
 48
50.0
100
AcDbBlockEnd
  0
BLOCK
  5
1B4C0
330
1B4B6
100
AcDbEntity
  8
0
 48
50.0
100
AcDbBlockBegin
  2
*D14
 70
     1
 10
0.0
 20
0.0
 30
0.0
  3
*D14
  1

  0
LINE
  5
1F3E9
330
1B4B6
100
AcDbEntity
  8
寸法
 62
     0
 48
50.0
370
    -2
100
AcDbLine
 10
9055.600000000001
 20
7659.241890067507
 30
0.0
 11
9055.600000000001
 21
8761.151655715835
 31
0.0
  0
LINE
  5
1F3EA
330
1B4B6
100
AcDbEntity
  8
寸法
 62
     0
 48
50.0
370
    -2
100
AcDbLine
 10
8223.600000000001
 20
7659.241890067507
 30
0.0
 11
8223.600000000001
 21
8761.151655715835
 31
0.0
  0
LINE
  5
1F3EB
330
1B4B6
100
AcDbEntity
  8
寸法
 62
     0
 48
50.0
370
    -2
100
AcDbLine
 10
9055.600000000001
 20
8701.151655715836
 30
0.0
 11
8223.600000000001
 21
8701.151655715836
 31
0.0
  0
INSERT
  5
1F3EC
330
1B4B6
100
AcDbEntity
  8
寸法
 62
     0
 48
50.0
370
    -2
100
AcDbBlockReference
  2
_DOTSMALL
 10
9055.600000000001
 20
8701.151655715836
 30
0.0
 41
100.0
 42
100.0
 43
100.0
  0
INSERT
  5
1F3ED
330
1B4B6
100
AcDbEntity
  8
寸法
 62
     0
 48
50.0
370
    -2
100
AcDbBlockReference
  2
_DOTSMALL
 10
8223.600000000001
 20
8701.151655715836
 30
0.0
 41
100.0
 42
100.0
 43
100.0
 50
180.0
  0
MTEXT
  5
1F3EE
330
1B4B6
100
AcDbEntity
  8
寸法
 62
     7
 48
50.0
100
AcDbMText
 10
8639.599999999999
 20
8801.163466739458
 30
0.0
 40
120.0
 41
0.0
 71
     5
 72
     1
  1
\A1;832
  7
STYLE1
 73
     1
 44
1.0
1001
ACAD
1000
MTEXTBEGIN
1070
    73
1070
     1
1070
    44
1040
1.0
1070
    74
1070
     0
1000
MTEXTEND
  0
POINT
  5
1F3EF
330
1B4B6
100
AcDbEntity
  8
DEFPOINTS
 62
     0
 48
50.0
100
AcDbPoint
 10
9055.600000000001
 20
7639.241890067508
 30
0.0
  0
POINT
  5
1F3F0
330
1B4B6
100
AcDbEntity
  8
DEFPOINTS
 62
     0
 48
50.0
100
AcDbPoint
 10
8223.600000000001
 20
7639.241890067508
 30
0.0
  0
POINT
  5
1F3F1
330
1B4B6
100
AcDbEntity
  8
DEFPOINTS
 62
     0
 48
50.0
100
AcDbPoint
 10
8223.600000000001
 20
8701.151655715836
 30
0.0
  0
ENDBLK
  5
1B4C1
330
1B4B6
100
AcDbEntity
  8
0
 48
50.0
100
AcDbBlockEnd
  0
BLOCK
  5
1B4F2
330
1B4E7
100
AcDbEntity
  8
0
 48
50.0
100
AcDbBlockBegin
  2
*D15
 70
     1
 10
0.0
 20
0.0
 30
0.0
  3
*D15
  1

  0
LINE
  5
1F3DF
330
1B4E7
100
AcDbEntity
  8
寸法
 62
     0
 48
50.0
370
    -2
100
AcDbLine
 10
6536.600000000007
 20
6077.241890067509
 30
0.0
 11
5927.657733986179
 21
6077.241890067511
 31
0.0
  0
LINE
  5
1F3E0
330
1B4E7
100
AcDbEntity
  8
寸法
 62
     0
 48
50.0
370
    -2
100
AcDbLine
 10
6463.600000000001
 20
5954.241890067507
 30
0.0
 11
5927.657733986179
 21
5954.241890067509
 31
0.0
  0
LINE
  5
1F3E1
330
1B4E7
100
AcDbEntity
  8
寸法
 62
     0
 48
50.0
370
    -2
100
AcDbLine
 10
5987.657733986178
 20
6077.241890067511
 30
0.0
 11
5987.657733986178
 21
5954.241890067509
 31
0.0
  0
LINE
  5
1F3E2
330
1B4E7
100
AcDbEntity
  8
寸法
 62
     0
 48
50.0
370
    -2
100
AcDbLine
 10
5987.657733986178
 20
5954.241890067509
 30
0.0
 11
5987.657733986178
 21
5480.225659850676
 31
0.0
  0
INSERT
  5
1F3E3
330
1B4E7
100
AcDbEntity
  8
寸法
 62
     0
 48
50.0
370
    -2
100
AcDbBlockReference
  2
_DOTSMALL
 10
5987.657733986178
 20
6077.241890067511
 30
0.0
 41
100.0
 42
100.0
 43
100.0
 50
90.0
  0
INSERT
  5
1F3E4
330
1B4E7
100
AcDbEntity
  8
寸法
 62
     0
 48
50.0
370
    -2
100
AcDbBlockReference
  2
_DOTSMALL
 10
5987.657733986178
 20
5954.241890067509
 30
0.0
 41
100.0
 42
100.0
 43
100.0
 50
270.0
  0
MTEXT
  5
1F3E5
330
1B4E7
100
AcDbEntity
  8
寸法
 62
     7
 48
50.0
100
AcDbMText
 10
5887.645922962556
 20
5618.710941224915
 30
0.0
 40
120.0
 41
0.0
 71
     5
 72
     1
  1
\A1;123
  7
STYLE1
 11
0.0000000000000001
 21
1.0
 31
0.0
 73
     1
 44
1.0
1001
ACAD
1000
MTEXTBEGIN
1070
    73
1070
     1
1070
    44
1040
1.0
1070
    74
1070
     0
1000
MTEXTEND
  0
POINT
  5
1F3E6
330
1B4E7
100
AcDbEntity
  8
DEFPOINTS
 62
     0
 48
50.0
100
AcDbPoint
 10
6556.600000000007
 20
6077.241890067509
 30
0.0
  0
POINT
  5
1F3E7
330
1B4E7
100
AcDbEntity
  8
DEFPOINTS
 62
     0
 48
50.0
100
AcDbPoint
 10
6483.6
 20
5954.241890067507
 30
0.0
  0
POINT
  5
1F3E8
330
1B4E7
100
AcDbEntity
  8
DEFPOINTS
 62
     0
 48
50.0
100
AcDbPoint
 10
5987.657733986178
 20
5954.241890067509
 30
0.0
  0
ENDBLK
  5
1B4F3
330
1B4E7
100
AcDbEntity
  8
0
 48
50.0
100
AcDbBlockEnd
  0
BLOCK
  5
1B4FD
330
1B4F4
100
AcDbEntity
  8
0
 48
50.0
100
AcDbBlockBegin
  2
*D16
 70
     1
 10
0.0
 20
0.0
 30
0.0
  3
*D16
  1

  0
LINE
  5
1F3D6
330
1B4F4
100
AcDbEntity
  8
寸法
 62
     0
 48
50.0
370
    -2
100
AcDbLine
 10
6463.600000000001
 20
8174.241890067508
 30
0.0
 11
5682.164931848212
 21
8174.241890067509
 31
0.0
  0
LINE
  5
1F3D7
330
1B4F4
100
AcDbEntity
  8
寸法
 62
     0
 48
50.0
370
    -2
100
AcDbLine
 10
6463.600000000001
 20
5954.241890067507
 30
0.0
 11
5682.164931848211
 21
5954.241890067509
 31
0.0
  0
LINE
  5
1F3D8
330
1B4F4
100
AcDbEntity
  8
寸法
 62
     0
 48
50.0
370
    -2
100
AcDbLine
 10
5742.164931848211
 20
8174.241890067509
 30
0.0
 11
5742.16493184821
 21
5954.241890067509
 31
0.0
  0
INSERT
  5
1F3D9
330
1B4F4
100
AcDbEntity
  8
寸法
 62
     0
 48
50.0
370
    -2
100
AcDbBlockReference
  2
_DOTSMALL
 10
5742.164931848211
 20
8174.241890067509
 30
0.0
 41
100.0
 42
100.0
 43
100.0
 50
90.0
  0
INSERT
  5
1F3DA
330
1B4F4
100
AcDbEntity
  8
寸法
 62
     0
 48
50.0
370
    -2
100
AcDbBlockReference
  2
_DOTSMALL
 10
5742.16493184821
 20
5954.241890067509
 30
0.0
 41
100.0
 42
100.0
 43
100.0
 50
270.0
  0
MTEXT
  5
1F3DB
330
1B4F4
100
AcDbEntity
  8
寸法
 62
     7
 48
50.0
100
AcDbMText
 10
5642.153120824588
 20
7064.24189006751
 30
0.0
 40
120.0
 41
0.0
 71
     5
 72
     1
  1
\A1;2220
  7
STYLE1
 11
0.0000000000000001
 21
1.0
 31
0.0
 73
     1
 44
1.0
1001
ACAD
1000
MTEXTBEGIN
1070
    73
1070
     1
1070
    44
1040
1.0
1070
    74
1070
     0
1000
MTEXTEND
  0
POINT
  5
1F3DC
330
1B4F4
100
AcDbEntity
  8
DEFPOINTS
 62
     0
 48
50.0
100
AcDbPoint
 10
6483.6
 20
8174.241890067508
 30
0.0
  0
POINT
  5
1F3DD
330
1B4F4
100
AcDbEntity
  8
DEFPOINTS
 62
     0
 48
50.0
100
AcDbPoint
 10
6483.6
 20
5954.241890067507
 30
0.0
  0
POINT
  5
1F3DE
330
1B4F4
100
AcDbEntity
  8
DEFPOINTS
 62
     0
 48
50.0
100
AcDbPoint
 10
5742.16493184821
 20
5954.241890067509
 30
0.0
  0
ENDBLK
  5
1B4FE
330
1B4F4
100
AcDbEntity
  8
0
 48
50.0
100
AcDbBlockEnd
  0
BLOCK
  5
1B509
330
1B4FF
100
AcDbEntity
  8
0
 48
50.0
100
AcDbBlockBegin
  2
*D17
 70
     1
 10
0.0
 20
0.0
 30
0.0
  3
*D17
  1

  0
LINE
  5
1F3CD
330
1B4FF
100
AcDbEntity
  8
寸法
 62
     0
 48
50.0
370
    -2
100
AcDbLine
 10
6536.599999999999
 20
8051.241890067506
 30
0.0
 11
5927.657733986179
 21
8051.241890067508
 31
0.0
  0
LINE
  5
1F3CE
330
1B4FF
100
AcDbEntity
  8
寸法
 62
     0
 48
50.0
370
    -2
100
AcDbLine
 10
6536.600000000007
 20
6077.241890067509
 30
0.0
 11
5927.657733986178
 21
6077.241890067511
 31
0.0
  0
LINE
  5
1F3CF
330
1B4FF
100
AcDbEntity
  8
寸法
 62
     0
 48
50.0
370
    -2
100
AcDbLine
 10
5987.657733986178
 20
8051.241890067508
 30
0.0
 11
5987.657733986178
 21
6077.241890067511
 31
0.0
  0
INSERT
  5
1F3D0
330
1B4FF
100
AcDbEntity
  8
寸法
 62
     0
 48
50.0
370
    -2
100
AcDbBlockReference
  2
_DOTSMALL
 10
5987.657733986178
 20
8051.241890067508
 30
0.0
 41
100.0
 42
100.0
 43
100.0
 50
90.0
  0
INSERT
  5
1F3D1
330
1B4FF
100
AcDbEntity
  8
寸法
 62
     0
 48
50.0
370
    -2
100
AcDbBlockReference
  2
_DOTSMALL
 10
5987.657733986178
 20
6077.241890067511
 30
0.0
 41
100.0
 42
100.0
 43
100.0
 50
270.0
  0
MTEXT
  5
1F3D2
330
1B4FF
100
AcDbEntity
  8
寸法
 62
     7
 48
50.0
100
AcDbMText
 10
5887.657733986177
 20
7064.241890067511
 30
0.0
 40
120.0
 41
0.0
 71
     5
 72
     1
  1
\A1;1974
  7
STYLE1
 11
0.0000000000000001
 21
1.0
 31
0.0
 73
     1
 44
1.0
1001
ACAD
1000
MTEXTBEGIN
1070
    73
1070
     1
1070
    44
1040
1.0
1070
    74
1070
     0
1000
MTEXTEND
  0
POINT
  5
1F3D3
330
1B4FF
100
AcDbEntity
  8
DEFPOINTS
 62
     0
 48
50.0
100
AcDbPoint
 10
6556.6
 20
8051.241890067506
 30
0.0
  0
POINT
  5
1F3D4
330
1B4FF
100
AcDbEntity
  8
DEFPOINTS
 62
     0
 48
50.0
100
AcDbPoint
 10
6556.600000000007
 20
6077.241890067509
 30
0.0
  0
POINT
  5
1F3D5
330
1B4FF
100
AcDbEntity
  8
DEFPOINTS
 62
     0
 48
50.0
100
AcDbPoint
 10
5987.657733986178
 20
6077.241890067511
 30
0.0
  0
ENDBLK
  5
1B50A
330
1B4FF
100
AcDbEntity
  8
0
 48
50.0
100
AcDbBlockEnd
  0
BLOCK
  5
1B516
330
1B50B
100
AcDbEntity
  8
0
 48
50.0
100
AcDbBlockBegin
  2
*D18
 70
     1
 10
0.0
 20
0.0
 30
0.0
  3
*D18
  1

  0
LINE
  5
1F3C3
330
1B50B
100
AcDbEntity
  8
寸法
 62
     0
 48
50.0
370
    -2
100
AcDbLine
 10
6733.6
 20
8054.241890067507
 30
0.0
 11
6990.307249876099
 21
8054.241890067507
 31
0.0
  0
LINE
  5
1F3C4
330
1B50B
100
AcDbEntity
  8
寸法
 62
     0
 48
50.0
370
    -2
100
AcDbLine
 10
6733.6
 20
7944.241890067504
 30
0.0
 11
6990.307249876099
 21
7944.241890067504
 31
0.0
  0
LINE
  5
1F3C5
330
1B50B
100
AcDbEntity
  8
寸法
 62
     0
 48
50.0
370
    -2
100
AcDbLine
 10
6930.307249876098
 20
8054.241890067507
 30
0.0
 11
6930.307249876098
 21
7944.241890067504
 31
0.0
  0
LINE
  5
1F3C6
330
1B50B
100
AcDbEntity
  8
寸法
 62
     0
 48
50.0
370
    -2
100
AcDbLine
 10
6930.307249876098
 20
7944.241890067504
 30
0.0
 11
6930.307249876098
 21
7480.135590854904
 31
0.0
  0
INSERT
  5
1F3C7
330
1B50B
100
AcDbEntity
  8
寸法
 62
     0
 48
50.0
370
    -2
100
AcDbBlockReference
  2
_DOTSMALL
 10
6930.307249876098
 20
8054.241890067507
 30
0.0
 41
100.0
 42
100.0
 43
100.0
 50
90.0
  0
INSERT
  5
1F3C8
330
1B50B
100
AcDbEntity
  8
寸法
 62
     0
 48
50.0
370
    -2
100
AcDbBlockReference
  2
_DOTSMALL
 10
6930.307249876098
 20
7944.241890067504
 30
0.0
 41
100.0
 42
100.0
 43
100.0
 50
270.0
  0
MTEXT
  5
1F3C9
330
1B50B
100
AcDbEntity
  8
寸法
 62
     7
 48
50.0
100
AcDbMText
 10
6830.307249876098
 20
7604.182834949394
 30
0.0
 40
120.0
 41
0.0
 71
     5
 72
     1
  1
\A1;110
  7
STYLE1
 11
0.0000000000000001
 21
1.0
 31
0.0
 73
     1
 44
1.0
1001
ACAD
1000
MTEXTBEGIN
1070
    73
1070
     1
1070
    44
1040
1.0
1070
    74
1070
     0
1000
MTEXTEND
  0
POINT
  5
1F3CA
330
1B50B
100
AcDbEntity
  8
DEFPOINTS
 62
     0
 48
50.0
100
AcDbPoint
 10
6713.600000000001
 20
8054.241890067507
 30
0.0
  0
POINT
  5
1F3CB
330
1B50B
100
AcDbEntity
  8
DEFPOINTS
 62
     0
 48
50.0
100
AcDbPoint
 10
6713.600000000001
 20
7944.241890067504
 30
0.0
  0
POINT
  5
1F3CC
330
1B50B
100
AcDbEntity
  8
DEFPOINTS
 62
     0
 48
50.0
100
AcDbPoint
 10
6930.307249876098
 20
7944.241890067504
 30
0.0
  0
ENDBLK
  5
1B517
330
1B50B
100
AcDbEntity
  8
0
 48
50.0
100
AcDbBlockEnd
  0
BLOCK
  5
1B539
330
1B52E
100
AcDbEntity
  8
0
 48
50.0
100
AcDbBlockBegin
  2
*D19
 70
     1
 10
0.0
 20
0.0
 30
0.0
  3
*D19
  1

  0
LINE
  5
1F394
330
1B52E
100
AcDbEntity
  8
寸法
 62
     0
 48
50.0
370
    -2
100
AcDbLine
 10
9843.600000000002
 20
7753.28844381417
 30
0.0
 11
9843.600000000002
 21
7656.533222567134
 31
0.0
  0
LINE
  5
1F395
330
1B52E
100
AcDbEntity
  8
寸法
 62
     0
 48
50.0
370
    -2
100
AcDbLine
 10
9733.600000000002
 20
7924.241890067506
 30
0.0
 11
9733.600000000002
 21
7656.533222567134
 31
0.0
  0
LINE
  5
1F396
330
1B52E
100
AcDbEntity
  8
寸法
 62
     0
 48
50.0
370
    -2
100
AcDbLine
 10
9843.600000000002
 20
7716.533222567133
 30
0.0
 11
9733.600000000002
 21
7716.533222567133
 31
0.0
  0
LINE
  5
1F397
330
1B52E
100
AcDbEntity
  8
寸法
 62
     0
 48
50.0
370
    -2
100
AcDbLine
 10
9733.600000000002
 20
7716.533222567133
 30
0.0
 11
9339.493700787402
 21
7716.533222567133
 31
0.0
  0
INSERT
  5
1F398
330
1B52E
100
AcDbEntity
  8
寸法
 62
     0
 48
50.0
370
    -2
100
AcDbBlockReference
  2
_DOTSMALL
 10
9843.600000000002
 20
7716.533222567133
 30
0.0
 41
100.0
 42
100.0
 43
100.0
  0
INSERT
  5
1F399
330
1B52E
100
AcDbEntity
  8
寸法
 62
     0
 48
50.0
370
    -2
100
AcDbBlockReference
  2
_DOTSMALL
 10
9733.600000000002
 20
7716.533222567133
 30
0.0
 41
100.0
 42
100.0
 43
100.0
 50
180.0
  0
MTEXT
  5
1F39A
330
1B52E
100
AcDbEntity
  8
寸法
 62
     7
 48
50.0
100
AcDbMText
 10
9463.54094488189
 20
7816.533222567134
 30
0.0
 40
120.0
 41
0.0
 71
     5
 72
     1
  1
\A1;110
  7
STYLE1
 73
     1
 44
1.0
1001
ACAD
1000
MTEXTBEGIN
1070
    73
1070
     1
1070
    44
1040
1.0
1070
    74
1070
     0
1000
MTEXTEND
  0
POINT
  5
1F39B
330
1B52E
100
AcDbEntity
  8
DEFPOINTS
 62
     0
 48
50.0
100
AcDbPoint
 10
9843.600000000002
 20
7773.28844381417
 30
0.0
  0
POINT
  5
1F39C
330
1B52E
100
AcDbEntity
  8
DEFPOINTS
 62
     0
 48
50.0
100
AcDbPoint
 10
9733.600000000002
 20
7944.241890067506
 30
0.0
  0
POINT
  5
1F39D
330
1B52E
100
AcDbEntity
  8
DEFPOINTS
 62
     0
 48
50.0
100
AcDbPoint
 10
9733.600000000002
 20
7716.533222567133
 30
0.0
  0
ENDBLK
  5
1B53A
330
1B52E
100
AcDbEntity
  8
0
 48
50.0
100
AcDbBlockEnd
  0
BLOCK
  5
1D311
330
1D305
100
AcDbEntity
  8
0
 48
50.0
100
AcDbBlockBegin
  2
*D20
 70
     1
 10
0.0
 20
0.0
 30
0.0
  3
*D20
  1

  0
LINE
  5
1F38A
330
1D305
100
AcDbEntity
  8
寸法
 62
     0
 48
50.0
370
    -2
100
AcDbLine
 10
7486.429285830261
 20
5879.241890067509
 30
0.0
 11
7758.845461842206
 21
5879.241890067509
 31
0.0
  0
LINE
  5
1F38B
330
1D305
100
AcDbEntity
  8
寸法
 62
     0
 48
50.0
370
    -2
100
AcDbLine
 10
7483.135752441159
 20
6074.241890067514
 30
0.0
 11
7758.845461842206
 21
6074.241890067514
 31
0.0
  0
LINE
  5
1F38C
330
1D305
100
AcDbEntity
  8
寸法
 62
     0
 48
50.0
370
    -2
100
AcDbLine
 10
7698.845461842207
 20
6074.241890067514
 30
0.0
 11
7698.845461842207
 21
5879.241890067509
 31
0.0
  0
LINE
  5
1F38D
330
1D305
100
AcDbEntity
  8
寸法
 62
     0
 48
50.0
370
    -2
100
AcDbLine
 10
7698.845461842207
 20
5879.241890067509
 30
0.0
 11
7698.845461842207
 21
5501.852007659719
 31
0.0
  0
INSERT
  5
1F38E
330
1D305
100
AcDbEntity
  8
寸法
 62
     0
 48
50.0
370
    -2
100
AcDbBlockReference
  2
_DOTSMALL
 10
7698.845461842207
 20
6074.241890067514
 30
0.0
 41
100.0
 42
100.0
 43
100.0
 50
90.0
  0
INSERT
  5
1F38F
330
1D305
100
AcDbEntity
  8
寸法
 62
     0
 48
50.0
370
    -2
100
AcDbBlockReference
  2
_DOTSMALL
 10
7698.845461842207
 20
5879.241890067509
 30
0.0
 41
100.0
 42
100.0
 43
100.0
 50
270.0
  0
MTEXT
  5
1F390
330
1D305
100
AcDbEntity
  8
寸法
 62
     7
 48
50.0
100
AcDbMText
 10
7598.845461842206
 20
5640.546948863615
 30
0.0
 40
120.0
 41
0.0
 71
     5
 72
     1
  1
\A1;195
  7
STYLE1
 11
0.0000000000000001
 21
1.0
 31
0.0
 73
     1
 44
1.0
1001
ACAD
1000
MTEXTBEGIN
1070
    73
1070
     1
1070
    44
1040
1.0
1070
    74
1070
     0
1000
MTEXTEND
  0
POINT
  5
1F391
330
1D305
100
AcDbEntity
  8
DEFPOINTS
 62
     0
 48
50.0
100
AcDbPoint
 10
7466.42928583026
 20
5879.241890067509
 30
0.0
  0
POINT
  5
1F392
330
1D305
100
AcDbEntity
  8
DEFPOINTS
 62
     0
 48
50.0
100
AcDbPoint
 10
7463.135752441158
 20
6074.241890067514
 30
0.0
  0
POINT
  5
1F393
330
1D305
100
AcDbEntity
  8
DEFPOINTS
 62
     0
 48
50.0
100
AcDbPoint
 10
7698.845461842207
 20
6074.241890067514
 30
0.0
  0
ENDBLK
  5
1D312
330
1D305
100
AcDbEntity
  8
0
 48
50.0
100
AcDbBlockEnd
  0
BLOCK
  5
1DAD5
330
1DACB
100
AcDbEntity
  8
0
 48
50.0
100
AcDbBlockBegin
  2
*D21
 70
     1
 10
0.0
 20
0.0
 30
0.0
  3
*D21
  1

  0
LINE
  5
1F36C
330
1DACB
100
AcDbEntity
  8
寸法
 62
     0
 48
50.0
370
    -2
100
AcDbLine
 10
7356.6
 20
5859.241890067526
 30
0.0
 11
7356.6
 21
5104.377586643398
 31
0.0
  0
LINE
  5
1F36D
330
1DACB
100
AcDbEntity
  8
寸法
 62
     0
 48
50.0
370
    -2
100
AcDbLine
 10
6483.6
 20
5934.241890067507
 30
0.0
 11
6483.6
 21
5104.377586643398
 31
0.0
  0
LINE
  5
1F36E
330
1DACB
100
AcDbEntity
  8
寸法
 62
     0
 48
50.0
370
    -2
100
AcDbLine
 10
7356.6
 20
5164.377586643396
 30
0.0
 11
6483.6
 21
5164.377586643396
 31
0.0
  0
INSERT
  5
1F36F
330
1DACB
100
AcDbEntity
  8
寸法
 62
     0
 48
50.0
370
    -2
100
AcDbBlockReference
  2
_DOTSMALL
 10
7356.6
 20
5164.377586643396
 30
0.0
 41
100.0
 42
100.0
 43
100.0
  0
INSERT
  5
1F370
330
1DACB
100
AcDbEntity
  8
寸法
 62
     0
 48
50.0
370
    -2
100
AcDbBlockReference
  2
_DOTSMALL
 10
6483.6
 20
5164.377586643396
 30
0.0
 41
100.0
 42
100.0
 43
100.0
 50
180.0
  0
MTEXT
  5
1F371
330
1DACB
100
AcDbEntity
  8
寸法
 62
     7
 48
50.0
100
AcDbMText
 10
6920.100000000001
 20
5264.377586643397
 30
0.0
 40
120.0
 41
0.0
 71
     5
 72
     1
  1
\A1;873
  7
STYLE1
 73
     1
 44
1.0
1001
ACAD
1000
MTEXTBEGIN
1070
    73
1070
     1
1070
    44
1040
1.0
1070
    74
1070
     0
1000
MTEXTEND
  0
POINT
  5
1F372
330
1DACB
100
AcDbEntity
  8
DEFPOINTS
 62
     0
 48
50.0
100
AcDbPoint
 10
7356.6
 20
5879.241890067525
 30
0.0
  0
POINT
  5
1F373
330
1DACB
100
AcDbEntity
  8
DEFPOINTS
 62
     0
 48
50.0
100
AcDbPoint
 10
6483.6
 20
5954.241890067507
 30
0.0
  0
POINT
  5
1F374
330
1DACB
100
AcDbEntity
  8
DEFPOINTS
 62
     0
 48
50.0
100
AcDbPoint
 10
6483.6
 20
5164.377586643396
 30
0.0
  0
ENDBLK
  5
1DAD6
330
1DACB
100
AcDbEntity
  8
0
 48
50.0
100
AcDbBlockEnd
  0
BLOCK
  5
1DAE3
330
1DAD7
100
AcDbEntity
  8
0
 48
50.0
100
AcDbBlockBegin
  2
*D22
 70
     1
 10
0.0
 20
0.0
 30
0.0
  3
*D22
  1

  0
LINE
  5
1F37F
330
1DAD7
100
AcDbEntity
  8
寸法
 62
     0
 48
50.0
370
    -2
100
AcDbLine
 10
9531.6
 20
5879.241890067524
 30
0.0
 11
9838.202780124335
 21
5879.241890067524
 31
0.0
  0
LINE
  5
1F380
330
1DAD7
100
AcDbEntity
  8
寸法
 62
     0
 48
50.0
370
    -2
100
AcDbLine
 10
9531.600000000002
 20
5954.241890067525
 30
0.0
 11
9838.202780124335
 21
5954.241890067525
 31
0.0
  0
LINE
  5
1F381
330
1DAD7
100
AcDbEntity
  8
寸法
 62
     0
 48
50.0
370
    -2
100
AcDbLine
 10
9778.202780124335
 20
5954.241890067525
 30
0.0
 11
9778.202780124335
 21
6054.241890067525
 31
0.0
  0
LINE
  5
1F382
330
1DAD7
100
AcDbEntity
  8
寸法
 62
     0
 48
50.0
370
    -2
100
AcDbLine
 10
9778.202780124335
 20
5879.241890067524
 30
0.0
 11
9778.202780124335
 21
5012.271327319047
 31
0.0
  0
LINE
  5
1F383
330
1DAD7
100
AcDbEntity
  8
寸法
 62
     0
 48
50.0
370
    -2
100
AcDbLine
 10
9778.202780124335
 20
5954.241890067525
 30
0.0
 11
9778.202780124335
 21
5879.241890067524
 31
0.0
  0
INSERT
  5
1F384
330
1DAD7
100
AcDbEntity
  8
寸法
 62
     0
 48
50.0
370
    -2
100
AcDbBlockReference
  2
_DOTSMALL
 10
9778.202780124335
 20
5954.241890067525
 30
0.0
 41
100.0
 42
100.0
 43
100.0
 50
270.0
  0
INSERT
  5
1F385
330
1DAD7
100
AcDbEntity
  8
寸法
 62
     0
 48
50.0
370
    -2
100
AcDbBlockReference
  2
_DOTSMALL
 10
9778.202780124335
 20
5879.241890067524
 30
0.0
 41
100.0
 42
100.0
 43
100.0
 50
90.0
  0
MTEXT
  5
1F386
330
1DAD7
100
AcDbEntity
  8
寸法
 62
     7
 48
50.0
100
AcDbMText
 10
9678.202780124333
 20
5345.756608693285
 30
0.0
 40
120.0
 41
0.0
 71
     5
 72
     1
  1
\A1;扉の出75
  7
STYLE1
 11
0.0000000000000001
 21
1.0
 31
0.0
 73
     1
 44
1.0
1001
ACAD
1000
MTEXTBEGIN
1070
    73
1070
     1
1070
    44
1040
1.0
1070
    74
1070
     0
1000
MTEXTEND
  0
POINT
  5
1F387
330
1DAD7
100
AcDbEntity
  8
DEFPOINTS
 62
     0
 48
50.0
100
AcDbPoint
 10
9511.599999999999
 20
5879.241890067524
 30
0.0
  0
POINT
  5
1F388
330
1DAD7
100
AcDbEntity
  8
DEFPOINTS
 62
     0
 48
50.0
100
AcDbPoint
 10
9511.600000000003
 20
5954.241890067525
 30
0.0
  0
POINT
  5
1F389
330
1DAD7
100
AcDbEntity
  8
DEFPOINTS
 62
     0
 48
50.0
100
AcDbPoint
 10
9778.202780124335
 20
5954.241890067525
 30
0.0
  0
ENDBLK
  5
1DAE4
330
1DAD7
100
AcDbEntity
  8
0
 48
50.0
100
AcDbBlockEnd
  0
BLOCK
  5
1DAF0
330
1DAE5
100
AcDbEntity
  8
0
 48
50.0
100
AcDbBlockBegin
  2
*D23
 70
     1
 10
0.0
 20
0.0
 30
0.0
  3
*D23
  1

  0
LINE
  5
1F362
330
1DAE5
100
AcDbEntity
  8
寸法
 62
     0
 48
50.0
370
    -2
100
AcDbLine
 10
6733.6
 20
6074.241890067511
 30
0.0
 11
6990.307249876098
 21
6074.241890067511
 31
0.0
  0
LINE
  5
1F363
330
1DAE5
100
AcDbEntity
  8
寸法
 62
     0
 48
50.0
370
    -2
100
AcDbLine
 10
6733.6
 20
6184.241890067511
 30
0.0
 11
6990.307249876099
 21
6184.241890067511
 31
0.0
  0
LINE
  5
1F364
330
1DAE5
100
AcDbEntity
  8
寸法
 62
     0
 48
50.0
370
    -2
100
AcDbLine
 10
6930.307249876098
 20
6074.241890067511
 30
0.0
 11
6930.307249876098
 21
6184.241890067511
 31
0.0
  0
LINE
  5
1F365
330
1DAE5
100
AcDbEntity
  8
寸法
 62
     0
 48
50.0
370
    -2
100
AcDbLine
 10
6930.307249876098
 20
6184.241890067511
 30
0.0
 11
6930.307249876098
 21
6578.348189280122
 31
0.0
  0
INSERT
  5
1F366
330
1DAE5
100
AcDbEntity
  8
寸法
 62
     0
 48
50.0
370
    -2
100
AcDbBlockReference
  2
_DOTSMALL
 10
6930.307249876098
 20
6074.241890067511
 30
0.0
 41
100.0
 42
100.0
 43
100.0
 50
270.0
  0
INSERT
  5
1F367
330
1DAE5
100
AcDbEntity
  8
寸法
 62
     0
 48
50.0
370
    -2
100
AcDbBlockReference
  2
_DOTSMALL
 10
6930.307249876098
 20
6184.241890067511
 30
0.0
 41
100.0
 42
100.0
 43
100.0
 50
90.0
  0
MTEXT
  5
1F368
330
1DAE5
100
AcDbEntity
  8
寸法
 62
     7
 48
50.0
100
AcDbMText
 10
6830.307249876097
 20
6454.300945185636
 30
0.0
 40
120.0
 41
0.0
 71
     5
 72
     1
  1
\A1;110
  7
STYLE1
 11
0.0000000000000001
 21
1.0
 31
0.0
 73
     1
 44
1.0
1001
ACAD
1000
MTEXTBEGIN
1070
    73
1070
     1
1070
    44
1040
1.0
1070
    74
1070
     0
1000
MTEXTEND
  0
POINT
  5
1F369
330
1DAE5
100
AcDbEntity
  8
DEFPOINTS
 62
     0
 48
50.0
100
AcDbPoint
 10
6713.600000000001
 20
6074.241890067511
 30
0.0
  0
POINT
  5
1F36A
330
1DAE5
100
AcDbEntity
  8
DEFPOINTS
 62
     0
 48
50.0
100
AcDbPoint
 10
6713.600000000001
 20
6184.241890067511
 30
0.0
  0
POINT
  5
1F36B
330
1DAE5
100
AcDbEntity
  8
DEFPOINTS
 62
     0
 48
50.0
100
AcDbPoint
 10
6930.307249876098
 20
6184.241890067511
 30
0.0
  0
ENDBLK
  5
1DAF1
330
1DAE5
100
AcDbEntity
  8
0
 48
50.0
100
AcDbBlockEnd
  0
BLOCK
  5
1DAFD
330
1DAF2
100
AcDbEntity
  8
0
 48
50.0
100
AcDbBlockBegin
  2
*D24
 70
     1
 10
0.0
 20
0.0
 30
0.0
  3
*D24
  1

  0
LINE
  5
1F375
330
1DAF2
100
AcDbEntity
  8
寸法
 62
     0
 48
50.0
370
    -2
100
AcDbLine
 10
6805.419180988154
 20
5954.24189006752
 30
0.0
 11
6990.307249876099
 21
5954.24189006752
 31
0.0
  0
LINE
  5
1F376
330
1DAF2
100
AcDbEntity
  8
寸法
 62
     0
 48
50.0
370
    -2
100
AcDbLine
 10
6733.6
 20
6074.241890067497
 30
0.0
 11
6990.307249876099
 21
6074.241890067497
 31
0.0
  0
LINE
  5
1F377
330
1DAF2
100
AcDbEntity
  8
寸法
 62
     0
 48
50.0
370
    -2
100
AcDbLine
 10
6930.307249876098
 20
6074.241890067497
 30
0.0
 11
6930.307249876098
 21
5954.24189006752
 31
0.0
  0
LINE
  5
1F378
330
1DAF2
100
AcDbEntity
  8
寸法
 62
     0
 48
50.0
370
    -2
100
AcDbLine
 10
6930.307249876098
 20
5954.24189006752
 30
0.0
 11
6930.307249876098
 21
5481.906341005063
 31
0.0
  0
INSERT
  5
1F379
330
1DAF2
100
AcDbEntity
  8
寸法
 62
     0
 48
50.0
370
    -2
100
AcDbBlockReference
  2
_DOTSMALL
 10
6930.307249876098
 20
6074.241890067497
 30
0.0
 41
100.0
 42
100.0
 43
100.0
 50
90.0
  0
INSERT
  5
1F37A
330
1DAF2
100
AcDbEntity
  8
寸法
 62
     0
 48
50.0
370
    -2
100
AcDbBlockReference
  2
_DOTSMALL
 10
6930.307249876098
 20
5954.24189006752
 30
0.0
 41
100.0
 42
100.0
 43
100.0
 50
270.0
  0
MTEXT
  5
1F37B
330
1DAF2
100
AcDbEntity
  8
寸法
 62
     7
 48
50.0
100
AcDbMText
 10
6830.295438852475
 20
5617.953585099552
 30
0.0
 40
120.0
 41
0.0
 71
     5
 72
     1
  1
\A1;120
  7
STYLE1
 11
0.0000000000000001
 21
1.0
 31
0.0
 73
     1
 44
1.0
1001
ACAD
1000
MTEXTBEGIN
1070
    73
1070
     1
1070
    44
1040
1.0
1070
    74
1070
     0
1000
MTEXTEND
  0
POINT
  5
1F37C
330
1DAF2
100
AcDbEntity
  8
DEFPOINTS
 62
     0
 48
50.0
100
AcDbPoint
 10
6785.419180988154
 20
5954.24189006752
 30
0.0
  0
POINT
  5
1F37D
330
1DAF2
100
AcDbEntity
  8
DEFPOINTS
 62
     0
 48
50.0
100
AcDbPoint
 10
6713.600000000001
 20
6074.241890067497
 30
0.0
  0
POINT
  5
1F37E
330
1DAF2
100
AcDbEntity
  8
DEFPOINTS
 62
     0
 48
50.0
100
AcDbPoint
 10
6930.307249876098
 20
6074.241890067497
 30
0.0
  0
ENDBLK
  5
1DAFE
330
1DAF2
100
AcDbEntity
  8
0
 48
50.0
100
AcDbBlockEnd
  0
BLOCK
  5
1E25F
330
1E253
100
AcDbEntity
  8
0
 48
50.0
100
AcDbBlockBegin
  2
*D25
 70
     1
 10
0.0
 20
0.0
 30
0.0
  3
*D25
  1

  0
LINE
  5
1F357
330
1E253
100
AcDbEntity
  8
寸法
 62
     0
 48
50.0
370
    -2
100
AcDbLine
 10
9963.600000000001
 20
8194.241890067507
 30
0.0
 11
9963.600000000001
 21
9192.462212126427
 31
0.0
  0
LINE
  5
1F358
330
1E253
100
AcDbEntity
  8
寸法
 62
     0
 48
50.0
370
    -2
100
AcDbLine
 10
10008.6
 20
8940.001516609589
 30
0.0
 11
10008.6
 21
9192.462212126427
 31
0.0
  0
LINE
  5
1F359
330
1E253
100
AcDbEntity
  8
寸法
 62
     0
 48
50.0
370
    -2
100
AcDbLine
 10
9963.600000000001
 20
9132.462212126426
 30
0.0
 11
9863.600000000001
 21
9132.462212126426
 31
0.0
  0
LINE
  5
1F35A
330
1E253
100
AcDbEntity
  8
寸法
 62
     0
 48
50.0
370
    -2
100
AcDbLine
 10
10008.6
 20
9132.462212126426
 30
0.0
 11
10345.94924240492
 21
9132.462212126426
 31
0.0
  0
LINE
  5
1F35B
330
1E253
100
AcDbEntity
  8
寸法
 62
     0
 48
50.0
370
    -2
100
AcDbLine
 10
9963.600000000001
 20
9132.462212126426
 30
0.0
 11
10008.6
 21
9132.462212126426
 31
0.0
  0
INSERT
  5
1F35C
330
1E253
100
AcDbEntity
  8
寸法
 62
     0
 48
50.0
370
    -2
100
AcDbBlockReference
  2
_DOTSMALL
 10
9963.600000000001
 20
9132.462212126426
 30
0.0
 41
100.0
 42
100.0
 43
100.0
  0
INSERT
  5
1F35D
330
1E253
100
AcDbEntity
  8
寸法
 62
     0
 48
50.0
370
    -2
100
AcDbBlockReference
  2
_DOTSMALL
 10
10008.6
 20
9132.462212126426
 30
0.0
 41
100.0
 42
100.0
 43
100.0
 50
180.0
  0
MTEXT
  5
1F35E
330
1E253
100
AcDbEntity
  8
寸法
 62
     7
 48
50.0
100
AcDbMText
 10
10279.77462120246
 20
9232.462212126426
 30
0.0
 40
120.0
 41
0.0
 71
     5
 72
     1
  1
\A1;a
  7
STYLE1
 73
     1
 44
1.0
1001
ACAD
1000
MTEXTBEGIN
1070
    73
1070
     1
1070
    44
1040
1.0
1070
    74
1070
     0
1000
MTEXTEND
  0
POINT
  5
1F35F
330
1E253
100
AcDbEntity
  8
DEFPOINTS
 62
     0
 48
50.0
100
AcDbPoint
 10
9963.600000000001
 20
8174.241890067506
 30
0.0
  0
POINT
  5
1F360
330
1E253
100
AcDbEntity
  8
DEFPOINTS
 62
     0
 48
50.0
100
AcDbPoint
 10
10008.6
 20
8920.001516609589
 30
0.0
  0
POINT
  5
1F361
330
1E253
100
AcDbEntity
  8
DEFPOINTS
 62
     0
 48
50.0
100
AcDbPoint
 10
10008.6
 20
9132.462212126426
 30
0.0
  0
ENDBLK
  5
1E260
330
1E253
100
AcDbEntity
  8
0
 48
50.0
100
AcDbBlockEnd
  0
BLOCK
  5
1E2E9
330
1E2DD
100
AcDbEntity
  8
0
 48
50.0
100
AcDbBlockBegin
  2
*D26
 70
     1
 10
0.0
 20
0.0
 30
0.0
  3
*D26
  1

  0
LINE
  5
1F34C
330
1E2DD
100
AcDbEntity
  8
寸法
 62
     0
 48
50.0
370
    -2
100
AcDbLine
 10
5967.657733986179
 20
8249.241890067512
 30
0.0
 11
5682.164931848213
 21
8249.241890067512
 31
0.0
  0
LINE
  5
1F34D
330
1E2DD
100
AcDbEntity
  8
寸法
 62
     0
 48
50.0
370
    -2
100
AcDbLine
 10
6463.600000000001
 20
8174.241890067508
 30
0.0
 11
5682.164931848213
 21
8174.241890067509
 31
0.0
  0
LINE
  5
1F34E
330
1E2DD
100
AcDbEntity
  8
寸法
 62
     0
 48
50.0
370
    -2
100
AcDbLine
 10
5742.164931848212
 20
8249.241890067512
 30
0.0
 11
5742.164931848212
 21
8349.241890067512
 31
0.0
  0
LINE
  5
1F34F
330
1E2DD
100
AcDbEntity
  8
寸法
 62
     0
 48
50.0
370
    -2
100
AcDbLine
 10
5742.164931848212
 20
8174.241890067509
 30
0.0
 11
5742.164931848212
 21
8074.24189006751
 31
0.0
  0
LINE
  5
1F350
330
1E2DD
100
AcDbEntity
  8
寸法
 62
     0
 48
50.0
370
    -2
100
AcDbLine
 10
5742.164931848212
 20
8249.241890067512
 30
0.0
 11
5742.164931848212
 21
8174.241890067509
 31
0.0
  0
INSERT
  5
1F351
330
1E2DD
100
AcDbEntity
  8
寸法
 62
     0
 48
50.0
370
    -2
100
AcDbBlockReference
  2
_DOTSMALL
 10
5742.164931848212
 20
8249.241890067512
 30
0.0
 41
100.0
 42
100.0
 43
100.0
 50
270.0
  0
INSERT
  5
1F352
330
1E2DD
100
AcDbEntity
  8
寸法
 62
     0
 48
50.0
370
    -2
100
AcDbBlockReference
  2
_DOTSMALL
 10
5742.164931848212
 20
8174.241890067509
 30
0.0
 41
100.0
 42
100.0
 43
100.0
 50
90.0
  0
MTEXT
  5
1F353
330
1E2DD
100
AcDbEntity
  8
寸法
 62
     7
 48
50.0
100
AcDbMText
 10
5642.164931848212
 20
8211.741890067512
 30
0.0
 40
120.0
 41
0.0
 71
     5
 72
     1
  1
\A1;c
  7
STYLE1
 11
0.0000000000000001
 21
1.0
 31
0.0
 73
     1
 44
1.0
1001
ACAD
1000
MTEXTBEGIN
1070
    73
1070
     1
1070
    44
1040
1.0
1070
    74
1070
     0
1000
MTEXTEND
  0
POINT
  5
1F354
330
1E2DD
100
AcDbEntity
  8
DEFPOINTS
 62
     0
 48
50.0
100
AcDbPoint
 10
5987.657733986178
 20
8249.241890067512
 30
0.0
  0
POINT
  5
1F355
330
1E2DD
100
AcDbEntity
  8
DEFPOINTS
 62
     0
 48
50.0
100
AcDbPoint
 10
6483.6
 20
8174.241890067508
 30
0.0
  0
POINT
  5
1F356
330
1E2DD
100
AcDbEntity
  8
DEFPOINTS
 62
     0
 48
50.0
100
AcDbPoint
 10
5742.164931848212
 20
8174.241890067509
 30
0.0
  0
ENDBLK
  5
1E2EA
330
1E2DD
100
AcDbEntity
  8
0
 48
50.0
100
AcDbBlockEnd
  0
BLOCK
  5
1E304
330
1E2F8
100
AcDbEntity
  8
0
 48
50.0
100
AcDbBlockBegin
  2
*D27
 70
     1
 10
0.0
 20
0.0
 30
0.0
  3
*D27
  1

  0
LINE
  5
1F341
330
1E2F8
100
AcDbEntity
  8
寸法
 62
     0
 48
50.0
370
    -2
100
AcDbLine
 10
6438.6
 20
8940.001516609589
 30
0.0
 11
6438.6
 21
9192.462212126427
 31
0.0
  0
LINE
  5
1F342
330
1E2F8
100
AcDbEntity
  8
寸法
 62
     0
 48
50.0
370
    -2
100
AcDbLine
 10
6483.6
 20
8194.241890067507
 30
0.0
 11
6483.6
 21
9192.462212126427
 31
0.0
  0
LINE
  5
1F343
330
1E2F8
100
AcDbEntity
  8
寸法
 62
     0
 48
50.0
370
    -2
100
AcDbLine
 10
6483.6
 20
9132.462212126426
 30
0.0
 11
6583.6
 21
9132.462212126426
 31
0.0
  0
LINE
  5
1F344
330
1E2F8
100
AcDbEntity
  8
寸法
 62
     0
 48
50.0
370
    -2
100
AcDbLine
 10
6438.6
 20
9132.462212126426
 30
0.0
 11
6101.250757595083
 21
9132.462212126426
 31
0.0
  0
LINE
  5
1F345
330
1E2F8
100
AcDbEntity
  8
寸法
 62
     0
 48
50.0
370
    -2
100
AcDbLine
 10
6483.6
 20
9132.462212126426
 30
0.0
 11
6438.6
 21
9132.462212126426
 31
0.0
  0
INSERT
  5
1F346
330
1E2F8
100
AcDbEntity
  8
寸法
 62
     0
 48
50.0
370
    -2
100
AcDbBlockReference
  2
_DOTSMALL
 10
6483.6
 20
9132.462212126426
 30
0.0
 41
100.0
 42
100.0
 43
100.0
 50
180.0
  0
INSERT
  5
1F347
330
1E2F8
100
AcDbEntity
  8
寸法
 62
     0
 48
50.0
370
    -2
100
AcDbBlockReference
  2
_DOTSMALL
 10
6438.6
 20
9132.462212126426
 30
0.0
 41
100.0
 42
100.0
 43
100.0
  0
MTEXT
  5
1F348
330
1E2F8
100
AcDbEntity
  8
寸法
 62
     7
 48
50.0
100
AcDbMText
 10
6167.425378797542
 20
9232.462212126426
 30
0.0
 40
120.0
 41
0.0
 71
     5
 72
     1
  1
\A1;a
  7
STYLE1
 73
     1
 44
1.0
1001
ACAD
1000
MTEXTBEGIN
1070
    73
1070
     1
1070
    44
1040
1.0
1070
    74
1070
     0
1000
MTEXTEND
  0
POINT
  5
1F349
330
1E2F8
100
AcDbEntity
  8
DEFPOINTS
 62
     0
 48
50.0
100
AcDbPoint
 10
6438.6
 20
8920.001516609589
 30
0.0
  0
POINT
  5
1F34A
330
1E2F8
100
AcDbEntity
  8
DEFPOINTS
 62
     0
 48
50.0
100
AcDbPoint
 10
6483.6
 20
8174.241890067506
 30
0.0
  0
POINT
  5
1F34B
330
1E2F8
100
AcDbEntity
  8
DEFPOINTS
 62
     0
 48
50.0
100
AcDbPoint
 10
6483.6
 20
9132.462212126426
 30
0.0
  0
ENDBLK
  5
1E305
330
1E2F8
100
AcDbEntity
  8
0
 48
50.0
100
AcDbBlockEnd
  0
BLOCK
  5
1E32C
330
1E320
100
AcDbEntity
  8
0
 48
50.0
100
AcDbBlockBegin
  2
*D28
 70
     1
 10
0.0
 20
0.0
 30
0.0
  3
*D28
  1

  0
LINE
  5
1F336
330
1E320
100
AcDbEntity
  8
寸法
 62
     0
 48
50.0
370
    -2
100
AcDbLine
 10
6470.05029458143
 20
5954.241890067509
 30
0.0
 11
5682.164931848211
 21
5954.24189006751
 31
0.0
  0
LINE
  5
1F337
330
1E320
100
AcDbEntity
  8
寸法
 62
     0
 48
50.0
370
    -2
100
AcDbLine
 10
5967.657733986179
 20
5899.24189006752
 30
0.0
 11
5682.164931848211
 21
5899.24189006752
 31
0.0
  0
LINE
  5
1F338
330
1E320
100
AcDbEntity
  8
寸法
 62
     0
 48
50.0
370
    -2
100
AcDbLine
 10
5742.16493184821
 20
5954.24189006751
 30
0.0
 11
5742.16493184821
 21
6054.241890067509
 31
0.0
  0
LINE
  5
1F339
330
1E320
100
AcDbEntity
  8
寸法
 62
     0
 48
50.0
370
    -2
100
AcDbLine
 10
5742.16493184821
 20
5899.24189006752
 30
0.0
 11
5742.16493184821
 21
5799.24189006752
 31
0.0
  0
LINE
  5
1F33A
330
1E320
100
AcDbEntity
  8
寸法
 62
     0
 48
50.0
370
    -2
100
AcDbLine
 10
5742.16493184821
 20
5954.24189006751
 30
0.0
 11
5742.16493184821
 21
5899.24189006752
 31
0.0
  0
INSERT
  5
1F33B
330
1E320
100
AcDbEntity
  8
寸法
 62
     0
 48
50.0
370
    -2
100
AcDbBlockReference
  2
_DOTSMALL
 10
5742.16493184821
 20
5954.24189006751
 30
0.0
 41
100.0
 42
100.0
 43
100.0
 50
270.0
  0
INSERT
  5
1F33C
330
1E320
100
AcDbEntity
  8
寸法
 62
     0
 48
50.0
370
    -2
100
AcDbBlockReference
  2
_DOTSMALL
 10
5742.16493184821
 20
5899.24189006752
 30
0.0
 41
100.0
 42
100.0
 43
100.0
 50
90.0
  0
MTEXT
  5
1F33D
330
1E320
100
AcDbEntity
  8
寸法
 62
     7
 48
50.0
100
AcDbMText
 10
5642.16493184821
 20
5926.741890067516
 30
0.0
 40
120.0
 41
0.0
 71
     5
 72
     1
  1
\A1;b
  7
STYLE1
 11
0.0000000000000001
 21
1.0
 31
0.0
 73
     1
 44
1.0
1001
ACAD
1000
MTEXTBEGIN
1070
    73
1070
     1
1070
    44
1040
1.0
1070
    74
1070
     0
1000
MTEXTEND
  0
POINT
  5
1F33E
330
1E320
100
AcDbEntity
  8
DEFPOINTS
 62
     0
 48
50.0
100
AcDbPoint
 10
6490.050294581431
 20
5954.241890067509
 30
0.0
  0
POINT
  5
1F33F
330
1E320
100
AcDbEntity
  8
DEFPOINTS
 62
     0
 48
50.0
100
AcDbPoint
 10
5987.657733986178
 20
5899.24189006752
 30
0.0
  0
POINT
  5
1F340
330
1E320
100
AcDbEntity
  8
DEFPOINTS
 62
     0
 48
50.0
100
AcDbPoint
 10
5742.16493184821
 20
5899.24189006752
 30
0.0
  0
ENDBLK
  5
1E32D
330
1E320
100
AcDbEntity
  8
0
 48
50.0
100
AcDbBlockEnd
  0
BLOCK
  5
1EF14
330
1EF0A
100
AcDbEntity
  8
0
 48
50.0
100
AcDbBlockBegin
  2
*D29
 70
     1
 10
0.0
 20
0.0
 30
0.0
  3
*D29
  1

  0
LINE
  5
1F32D
330
1EF0A
100
AcDbEntity
  8
寸法
 62
     0
 48
50.0
370
    -2
100
AcDbLine
 10
9511.599999999999
 20
5859.241890067524
 30
0.0
 11
9511.599999999999
 21
5104.377586643398
 31
0.0
  0
LINE
  5
1F32E
330
1EF0A
100
AcDbEntity
  8
寸法
 62
     0
 48
50.0
370
    -2
100
AcDbLine
 10
7356.6
 20
5859.241890067509
 30
0.0
 11
7356.6
 21
5104.377586643398
 31
0.0
  0
LINE
  5
1F32F
330
1EF0A
100
AcDbEntity
  8
寸法
 62
     0
 48
50.0
370
    -2
100
AcDbLine
 10
9511.599999999999
 20
5164.377586643396
 30
0.0
 11
7356.6
 21
5164.377586643396
 31
0.0
  0
INSERT
  5
1F330
330
1EF0A
100
AcDbEntity
  8
寸法
 62
     0
 48
50.0
370
    -2
100
AcDbBlockReference
  2
_DOTSMALL
 10
9511.599999999999
 20
5164.377586643396
 30
0.0
 41
100.0
 42
100.0
 43
100.0
  0
INSERT
  5
1F331
330
1EF0A
100
AcDbEntity
  8
寸法
 62
     0
 48
50.0
370
    -2
100
AcDbBlockReference
  2
_DOTSMALL
 10
7356.6
 20
5164.377586643396
 30
0.0
 41
100.0
 42
100.0
 43
100.0
 50
180.0
  0
MTEXT
  5
1F332
330
1EF0A
100
AcDbEntity
  8
寸法
 62
     7
 48
50.0
100
AcDbMText
 10
8434.1
 20
5264.389397667019
 30
0.0
 40
120.0
 41
0.0
 71
     5
 72
     1
  1
\A1;扉の幅 2155
  7
STYLE1
 73
     1
 44
1.0
1001
ACAD
1000
MTEXTBEGIN
1070
    73
1070
     1
1070
    44
1040
1.0
1070
    74
1070
     0
1000
MTEXTEND
  0
POINT
  5
1F333
330
1EF0A
100
AcDbEntity
  8
DEFPOINTS
 62
     0
 48
50.0
100
AcDbPoint
 10
9511.599999999999
 20
5879.241890067524
 30
0.0
  0
POINT
  5
1F334
330
1EF0A
100
AcDbEntity
  8
DEFPOINTS
 62
     0
 48
50.0
100
AcDbPoint
 10
7356.6
 20
5879.241890067509
 30
0.0
  0
POINT
  5
1F335
330
1EF0A
100
AcDbEntity
  8
DEFPOINTS
 62
     0
 48
50.0
100
AcDbPoint
 10
7356.6
 20
5164.377586643396
 30
0.0
  0
ENDBLK
  5
1EF15
330
1EF0A
100
AcDbEntity
  8
0
 48
50.0
100
AcDbBlockEnd
  0
BLOCK
  5
1F1F4
330
1F1EA
100
AcDbEntity
  8
0
 48
50.0
100
AcDbBlockBegin
  2
*D30
 70
     1
 10
0.0
 20
0.0
 30
0.0
  3
*D30
  1

  0
LINE
  5
1F324
330
1F1EA
100
AcDbEntity
  8
寸法
 62
     0
 48
50.0
370
    -2
100
AcDbLine
 10
5428.299524005463
 20
2074.108121899092
 30
0.0
 11
5428.299524005463
 21
2638.692881794567
 31
0.0
  0
LINE
  5
1F325
330
1F1EA
100
AcDbEntity
  8
寸法
 62
     0
 48
50.0
370
    -2
100
AcDbLine
 10
5188.299524005463
 20
2074.108121899092
 30
0.0
 11
5188.299524005463
 21
2638.692881794567
 31
0.0
  0
LINE
  5
1F326
330
1F1EA
100
AcDbEntity
  8
寸法
 62
     0
 48
50.0
370
    -2
100
AcDbLine
 10
5428.299524005463
 20
2578.692881794567
 30
0.0
 11
5188.299524005463
 21
2578.692881794567
 31
0.0
  0
INSERT
  5
1F327
330
1F1EA
100
AcDbEntity
  8
寸法
 62
     0
 48
50.0
370
    -2
100
AcDbBlockReference
  2
_DOTSMALL
 10
5428.299524005463
 20
2578.692881794567
 30
0.0
 41
100.0
 42
100.0
 43
100.0
  0
INSERT
  5
1F328
330
1F1EA
100
AcDbEntity
  8
寸法
 62
     0
 48
50.0
370
    -2
100
AcDbBlockReference
  2
_DOTSMALL
 10
5188.299524005463
 20
2578.692881794567
 30
0.0
 41
100.0
 42
100.0
 43
100.0
 50
180.0
  0
MTEXT
  5
1F329
330
1F1EA
100
AcDbEntity
  8
寸法
 62
     7
 48
50.0
100
AcDbMText
 10
5308.299524005463
 20
2784.733694359371
 30
0.0
 40
120.0
 41
0.0
 71
     5
 72
     1
  1
\A1;120\P(195)
  7
STYLE1
 73
     1
 44
1.0
1001
ACAD
1000
MTEXTBEGIN
1070
    73
1070
     1
1070
    44
1040
1.0
1070
    74
1070
     0
1000
MTEXTEND
  0
POINT
  5
1F32A
330
1F1EA
100
AcDbEntity
  8
DEFPOINTS
 62
     0
 48
50.0
100
AcDbPoint
 10
5428.299524005463
 20
2054.108121899092
 30
0.0
  0
POINT
  5
1F32B
330
1F1EA
100
AcDbEntity
  8
DEFPOINTS
 62
     0
 48
50.0
100
AcDbPoint
 10
5188.299524005463
 20
2054.108121899092
 30
0.0
  0
POINT
  5
1F32C
330
1F1EA
100
AcDbEntity
  8
DEFPOINTS
 62
     0
 48
50.0
100
AcDbPoint
 10
5188.299524005463
 20
2578.692881794567
 30
0.0
  0
ENDBLK
  5
1F1F5
330
1F1EA
100
AcDbEntity
  8
0
 48
50.0
100
AcDbBlockEnd
  0
BLOCK
  5
1F200
330
1F1F6
100
AcDbEntity
  8
0
 48
50.0
100
AcDbBlockBegin
  2
*D31
 70
     1
 10
0.0
 20
0.0
 30
0.0
  3
*D31
  1

  0
LINE
  5
1F31B
330
1F1F6
100
AcDbEntity
  8
寸法
 62
     0
 48
50.0
370
    -2
100
AcDbLine
 10
5008.299524005463
 20
1374.10812189909
 30
0.0
 11
4790.274131839889
 21
1374.10812189909
 31
0.0
  0
LINE
  5
1F31C
330
1F1F6
100
AcDbEntity
  8
寸法
 62
     0
 48
50.0
370
    -2
100
AcDbLine
 10
4908.299524005467
 20
1074.10812189909
 30
0.0
 11
4790.274131839889
 21
1074.10812189909
 31
0.0
  0
LINE
  5
1F31D
330
1F1F6
100
AcDbEntity
  8
寸法
 62
     0
 48
50.0
370
    -2
100
AcDbLine
 10
4850.274131839889
 20
1374.10812189909
 30
0.0
 11
4850.274131839889
 21
1074.10812189909
 31
0.0
  0
INSERT
  5
1F31E
330
1F1F6
100
AcDbEntity
  8
寸法
 62
     0
 48
50.0
370
    -2
100
AcDbBlockReference
  2
_DOTSMALL
 10
4850.274131839889
 20
1374.10812189909
 30
0.0
 41
100.0
 42
100.0
 43
100.0
 50
90.0
  0
INSERT
  5
1F31F
330
1F1F6
100
AcDbEntity
  8
寸法
 62
     0
 48
50.0
370
    -2
100
AcDbBlockReference
  2
_DOTSMALL
 10
4850.274131839889
 20
1074.10812189909
 30
0.0
 41
100.0
 42
100.0
 43
100.0
 50
270.0
  0
MTEXT
  5
1F320
330
1F1F6
100
AcDbEntity
  8
寸法
 62
     7
 48
50.0
100
AcDbMText
 10
4750.27413183989
 20
1224.10812189909
 30
0.0
 40
120.0
 41
0.0
 71
     5
 72
     1
  1
\A1;150
  7
STYLE1
 11
0.0000000000000001
 21
1.0
 31
0.0
 73
     1
 44
1.0
1001
ACAD
1000
MTEXTBEGIN
1070
    73
1070
     1
1070
    44
1040
1.0
1070
    74
1070
     0
1000
MTEXTEND
  0
POINT
  5
1F321
330
1F1F6
100
AcDbEntity
  8
DEFPOINTS
 62
     0
 48
50.0
100
AcDbPoint
 10
5028.299524005463
 20
1374.10812189909
 30
0.0
  0
POINT
  5
1F322
330
1F1F6
100
AcDbEntity
  8
DEFPOINTS
 62
     0
 48
50.0
100
AcDbPoint
 10
4928.299524005468
 20
1074.10812189909
 30
0.0
  0
POINT
  5
1F323
330
1F1F6
100
AcDbEntity
  8
DEFPOINTS
 62
     0
 48
50.0
100
AcDbPoint
 10
4850.274131839889
 20
1074.10812189909
 30
0.0
  0
ENDBLK
  5
1F201
330
1F1F6
100
AcDbEntity
  8
0
 48
50.0
100
AcDbBlockEnd
  0
BLOCK
  5
1F20C
330
1F202
100
AcDbEntity
  8
0
 48
50.0
100
AcDbBlockBegin
  2
*D32
 70
     1
 10
0.0
 20
0.0
 30
0.0
  3
*D32
  1

  0
LINE
  5
1F312
330
1F202
100
AcDbEntity
  8
寸法
 62
     0
 48
50.0
370
    -2
100
AcDbLine
 10
5168.299524005464
 20
2054.108121899092
 30
0.0
 11
4367.6545859694
 21
2054.108121899092
 31
0.0
  0
LINE
  5
1F313
330
1F202
100
AcDbEntity
  8
寸法
 62
     0
 48
50.0
370
    -2
100
AcDbLine
 10
4908.299524005467
 20
1074.10812189909
 30
0.0
 11
4367.6545859694
 21
1074.10812189909
 31
0.0
  0
LINE
  5
1F314
330
1F202
100
AcDbEntity
  8
寸法
 62
     0
 48
50.0
370
    -2
100
AcDbLine
 10
4427.6545859694
 20
2054.108121899092
 30
0.0
 11
4427.654585969399
 21
1074.10812189909
 31
0.0
  0
INSERT
  5
1F315
330
1F202
100
AcDbEntity
  8
寸法
 62
     0
 48
50.0
370
    -2
100
AcDbBlockReference
  2
_DOTSMALL
 10
4427.6545859694
 20
2054.108121899092
 30
0.0
 41
100.0
 42
100.0
 43
100.0
 50
90.0
  0
INSERT
  5
1F316
330
1F202
100
AcDbEntity
  8
寸法
 62
     0
 48
50.0
370
    -2
100
AcDbBlockReference
  2
_DOTSMALL
 10
4427.654585969399
 20
1074.10812189909
 30
0.0
 41
100.0
 42
100.0
 43
100.0
 50
270.0
  0
MTEXT
  5
1F317
330
1F202
100
AcDbEntity
  8
寸法
 62
     7
 48
50.0
100
AcDbMText
 10
4327.6545859694
 20
1564.108121899091
 30
0.0
 40
120.0
 41
0.0
 71
     5
 72
     1
  1
\A1;540
  7
STYLE1
 11
0.0000000000000001
 21
1.0
 31
0.0
 73
     1
 44
1.0
1001
ACAD
1000
MTEXTBEGIN
1070
    73
1070
     1
1070
    44
1040
1.0
1070
    74
1070
     0
1000
MTEXTEND
  0
POINT
  5
1F318
330
1F202
100
AcDbEntity
  8
DEFPOINTS
 62
     0
 48
50.0
100
AcDbPoint
 10
5188.299524005463
 20
2054.108121899092
 30
0.0
  0
POINT
  5
1F319
330
1F202
100
AcDbEntity
  8
DEFPOINTS
 62
     0
 48
50.0
100
AcDbPoint
 10
4928.299524005468
 20
1074.10812189909
 30
0.0
  0
POINT
  5
1F31A
330
1F202
100
AcDbEntity
  8
DEFPOINTS
 62
     0
 48
50.0
100
AcDbPoint
 10
4427.654585969399
 20
1074.10812189909
 30
0.0
  0
ENDBLK
  5
1F20D
330
1F202
100
AcDbEntity
  8
0
 48
50.0
100
AcDbBlockEnd
  0
BLOCK
  5
1F218
330
1F20E
100
AcDbEntity
  8
0
 48
50.0
100
AcDbBlockBegin
  2
*D33
 70
     1
 10
0.0
 20
0.0
 30
0.0
  3
*D33
  1

  0
LINE
  5
1F309
330
1F20E
100
AcDbEntity
  8
寸法
 62
     0
 48
50.0
370
    -2
100
AcDbLine
 10
5028.299524005463
 20
894.1081218990902
 30
0.0
 11
5028.299524005463
 21
555.1560154431572
 31
0.0
  0
LINE
  5
1F30A
330
1F20E
100
AcDbEntity
  8
寸法
 62
     0
 48
50.0
370
    -2
100
AcDbLine
 10
5588.299524005464
 20
894.1081218990902
 30
0.0
 11
5588.299524005464
 21
555.1560154431572
 31
0.0
  0
LINE
  5
1F30B
330
1F20E
100
AcDbEntity
  8
寸法
 62
     0
 48
50.0
370
    -2
100
AcDbLine
 10
5028.299524005463
 20
615.1560154431572
 30
0.0
 11
5588.299524005464
 21
615.1560154431572
 31
0.0
  0
INSERT
  5
1F30C
330
1F20E
100
AcDbEntity
  8
寸法
 62
     0
 48
50.0
370
    -2
100
AcDbBlockReference
  2
_DOTSMALL
 10
5028.299524005463
 20
615.1560154431572
 30
0.0
 41
100.0
 42
100.0
 43
100.0
 50
180.0
  0
INSERT
  5
1F30D
330
1F20E
100
AcDbEntity
  8
寸法
 62
     0
 48
50.0
370
    -2
100
AcDbBlockReference
  2
_DOTSMALL
 10
5588.299524005464
 20
615.1560154431572
 30
0.0
 41
100.0
 42
100.0
 43
100.0
  0
MTEXT
  5
1F30E
330
1F20E
100
AcDbEntity
  8
寸法
 62
     7
 48
50.0
100
AcDbMText
 10
5308.299524005463
 20
715.1560154431572
 30
0.0
 40
120.0
 41
0.0
 71
     5
 72
     1
  1
\A1;300
  7
STYLE1
 73
     1
 44
1.0
1001
ACAD
1000
MTEXTBEGIN
1070
    73
1070
     1
1070
    44
1040
1.0
1070
    74
1070
     0
1000
MTEXTEND
  0
POINT
  5
1F30F
330
1F20E
100
AcDbEntity
  8
DEFPOINTS
 62
     0
 48
50.0
100
AcDbPoint
 10
5028.299524005463
 20
914.1081218990903
 30
0.0
  0
POINT
  5
1F310
330
1F20E
100
AcDbEntity
  8
DEFPOINTS
 62
     0
 48
50.0
100
AcDbPoint
 10
5588.299524005464
 20
914.1081218990903
 30
0.0
  0
POINT
  5
1F311
330
1F20E
100
AcDbEntity
  8
DEFPOINTS
 62
     0
 48
50.0
100
AcDbPoint
 10
5588.299524005464
 20
615.1560154431572
 30
0.0
  0
ENDBLK
  5
1F219
330
1F20E
100
AcDbEntity
  8
0
 48
50.0
100
AcDbBlockEnd
  0
BLOCK
  5
1F223
330
1F21A
100
AcDbEntity
  8
0
 48
50.0
100
AcDbBlockBegin
  2
*D34
 70
     1
 10
0.0
 20
0.0
 30
0.0
  3
*D34
  1

  0
LINE
  5
1F300
330
1F21A
100
AcDbEntity
  8
寸法
 62
     0
 48
50.0
370
    -2
100
AcDbLine
 10
7850.848665476957
 20
2054.108121899092
 30
0.0
 11
8518.184415188013
 21
2054.108121899092
 31
0.0
  0
LINE
  5
1F301
330
1F21A
100
AcDbEntity
  8
寸法
 62
     0
 48
50.0
370
    -2
100
AcDbLine
 10
7850.848665476957
 20
1649.108121899089
 30
0.0
 11
8518.184415188013
 21
1649.108121899089
 31
0.0
  0
LINE
  5
1F302
330
1F21A
100
AcDbEntity
  8
寸法
 62
     0
 48
50.0
370
    -2
100
AcDbLine
 10
8458.184415188013
 20
2054.108121899092
 30
0.0
 11
8458.184415188013
 21
1649.108121899089
 31
0.0
  0
INSERT
  5
1F303
330
1F21A
100
AcDbEntity
  8
寸法
 62
     0
 48
50.0
370
    -2
100
AcDbBlockReference
  2
_DOTSMALL
 10
8458.184415188013
 20
2054.108121899092
 30
0.0
 41
100.0
 42
100.0
 43
100.0
 50
90.0
  0
INSERT
  5
1F304
330
1F21A
100
AcDbEntity
  8
寸法
 62
     0
 48
50.0
370
    -2
100
AcDbBlockReference
  2
_DOTSMALL
 10
8458.184415188013
 20
1649.108121899089
 30
0.0
 41
100.0
 42
100.0
 43
100.0
 50
270.0
  0
MTEXT
  5
1F305
330
1F21A
100
AcDbEntity
  8
寸法
 62
     7
 48
50.0
100
AcDbMText
 10
8358.184415188011
 20
1851.608121899092
 30
0.0
 40
120.0
 41
0.0
 71
     5
 72
     1
  1
\A1;180
  7
STYLE1
 11
0.0000000000000001
 21
1.0
 31
0.0
 73
     1
 44
1.0
1001
ACAD
1000
MTEXTBEGIN
1070
    73
1070
     1
1070
    44
1040
1.0
1070
    74
1070
     0
1000
MTEXTEND
  0
POINT
  5
1F306
330
1F21A
100
AcDbEntity
  8
DEFPOINTS
 62
     0
 48
50.0
100
AcDbPoint
 10
7830.848665476956
 20
2054.108121899092
 30
0.0
  0
POINT
  5
1F307
330
1F21A
100
AcDbEntity
  8
DEFPOINTS
 62
     0
 48
50.0
100
AcDbPoint
 10
7830.848665476956
 20
1649.108121899089
 30
0.0
  0
POINT
  5
1F308
330
1F21A
100
AcDbEntity
  8
DEFPOINTS
 62
     0
 48
50.0
100
AcDbPoint
 10
8458.184415188013
 20
1649.108121899089
 30
0.0
  0
ENDBLK
  5
1F224
330
1F21A
100
AcDbEntity
  8
0
 48
50.0
100
AcDbBlockEnd
  0
BLOCK
  5
1F231
330
1F225
100
AcDbEntity
  8
0
 48
50.0
100
AcDbBlockBegin
  2
*D35
 70
     1
 10
0.0
 20
0.0
 30
0.0
  3
*D35
  1

  0
LINE
  5
1F2F5
330
1F225
100
AcDbEntity
  8
寸法
 62
     0
 48
50.0
370
    -2
100
AcDbLine
 10
7616.848665476957
 20
2120.058121899091
 30
0.0
 11
8863.252747836796
 21
2120.058121899091
 31
0.0
  0
LINE
  5
1F2F6
330
1F225
100
AcDbEntity
  8
寸法
 62
     0
 48
50.0
370
    -2
100
AcDbLine
 10
7850.848665476957
 20
2054.108121899092
 30
0.0
 11
8863.252747836796
 21
2054.108121899092
 31
0.0
  0
LINE
  5
1F2F7
330
1F225
100
AcDbEntity
  8
寸法
 62
     0
 48
50.0
370
    -2
100
AcDbLine
 10
8803.252747836795
 20
2120.058121899091
 30
0.0
 11
8803.252747836795
 21
2220.058121899092
 31
0.0
  0
LINE
  5
1F2F8
330
1F225
100
AcDbEntity
  8
寸法
 62
     0
 48
50.0
370
    -2
100
AcDbLine
 10
8803.252747836795
 20
2054.108121899092
 30
0.0
 11
8803.252747836795
 21
1322.090315056126
 31
0.0
  0
LINE
  5
1F2F9
330
1F225
100
AcDbEntity
  8
寸法
 62
     0
 48
50.0
370
    -2
100
AcDbLine
 10
8803.252747836795
 20
2120.058121899091
 30
0.0
 11
8803.252747836795
 21
2054.108121899092
 31
0.0
  0
INSERT
  5
1F2FA
330
1F225
100
AcDbEntity
  8
寸法
 62
     0
 48
50.0
370
    -2
100
AcDbBlockReference
  2
_DOTSMALL
 10
8803.252747836795
 20
2120.058121899091
 30
0.0
 41
100.0
 42
100.0
 43
100.0
 50
270.0
  0
INSERT
  5
1F2FB
330
1F225
100
AcDbEntity
  8
寸法
 62
     0
 48
50.0
370
    -2
100
AcDbBlockReference
  2
_DOTSMALL
 10
8803.252747836795
 20
2054.108121899092
 30
0.0
 41
100.0
 42
100.0
 43
100.0
 50
90.0
  0
MTEXT
  5
1F2FC
330
1F225
100
AcDbEntity
  8
寸法
 62
     7
 48
50.0
100
AcDbMText
 10
8703.240936813173
 20
1588.09921847761
 30
0.0
 40
120.0
 41
0.0
 71
     5
 72
     1
  1
\A1;20～25
  7
STYLE1
 11
0.0000000000000001
 21
1.0
 31
0.0
 73
     1
 44
1.0
1001
ACAD
1000
MTEXTBEGIN
1070
    73
1070
     1
1070
    44
1040
1.0
1070
    74
1070
     0
1000
MTEXTEND
  0
POINT
  5
1F2FD
330
1F225
100
AcDbEntity
  8
DEFPOINTS
 62
     0
 48
50.0
100
AcDbPoint
 10
7596.848665476956
 20
2120.058121899091
 30
0.0
  0
POINT
  5
1F2FE
330
1F225
100
AcDbEntity
  8
DEFPOINTS
 62
     0
 48
50.0
100
AcDbPoint
 10
7830.848665476956
 20
2054.108121899092
 30
0.0
  0
POINT
  5
1F2FF
330
1F225
100
AcDbEntity
  8
DEFPOINTS
 62
     0
 48
50.0
100
AcDbPoint
 10
8803.252747836795
 20
2054.108121899092
 30
0.0
  0
ENDBLK
  5
1F232
330
1F225
100
AcDbEntity
  8
0
 48
50.0
100
AcDbBlockEnd
  0
ENDSEC
  0
SECTION
  2
ENTITIES
  0
MTEXT
  5
763F
330
747D
100
AcDbEntity
  8
0
100
AcDbMText
 10
302.846345836809
 20
280.1983726409901
 30
0.0
 40
3.5
 41
5.323721266742722
 71
     1
 72
     5
  1

  7
MSMINCHO
 73
     1
 44
1.0
1001
ACAD
1000
MTEXTBEGIN
1070
    73
1070
     1
1070
    44
1040
1.0
1070
    74
1070
     0
1000
MTEXTEND
  0
LINE
  5
10B57
330
747D
100
AcDbEntity
  8
補助
  6
PHANTOM
 62
   230
 48
50.0
100
AcDbLine
 10
139.9999999999995
 20
11409.6
 30
0.0
 11
16307.2
 21
11409.6
 31
0.0
  0
LINE
  5
10B59
330
747D
100
AcDbEntity
  8
仕様書枠
  6
Continuous
 48
50.0
100
AcDbLine
 10
13107.2
 20
1200.0
 30
0.0
 11
13107.2
 21
-0.0000000000000729
 31
0.0
  0
LINE
  5
10B5D
330
747D
100
AcDbEntity
  8
仕様書枠
 48
50.0
100
AcDbLine
 10
140.0
 20
0.0
 30
0.0
 11
16307.2
 21
-0.0000000000000909
 31
0.0
  0
LINE
  5
10B5E
330
747D
100
AcDbEntity
  8
補助
  6
PHANTOM
 62
   230
 48
50.0
100
AcDbLine
 10
16307.2
 20
11409.6
 30
0.0
 11
16307.2
 21
1200.0
 31
0.0
  0
LINE
  5
10B6C
330
747D
100
AcDbEntity
  8
仕様書枠
 48
50.0
100
AcDbLine
 10
13107.2
 20
1200.0
 30
0.0
 11
16307.2
 21
1200.0
 31
0.0
  0
TEXT
  5
10B73
330
747D
100
AcDbEntity
  8
文字
 62
     7
 48
50.0
100
AcDbText
 10
13162.9790565769
 20
895.0906074299405
 30
0.0
 40
200.0
  1
基 礎 図
  7
STYLE2
100
AcDbText
  0
LINE
  5
10B7B
330
747D
100
AcDbEntity
  8
仕様書枠
 48
50.0
100
AcDbLine
 10
13107.2
 20
800.0
 30
0.0
 11
14251.2
 21
800.0
 31
0.0
  0
LINE
  5
10B88
330
747D
100
AcDbEntity
  8
仕様書枠
  6
Continuous
 48
50.0
100
AcDbLine
 10
14251.2
 20
1200.0
 30
0.0
 11
14251.2
 21
800.0
 31
0.0
  0
LINE
  5
16462
330
747D
100
AcDbEntity
  8
仕様書枠
 48
50.0
100
AcDbLine
 10
16307.2
 20
1200.0
 30
0.0
 11
16307.2
 21
-0.0000000000000909
 31
0.0
  0
LINE
  5
1903B
330
747D
100
AcDbEntity
  8
補助
  6
PHANTOM
 62
   230
 48
50.0
100
AcDbLine
 10
140.0
 20
0.0
 30
0.0
 11
139.9999999999995
 21
11409.6
 31
0.0
  0
DIMENSION
  5
1A8D7
330
747D
100
AcDbEntity
  8
寸法
 48
50.0
100
AcDbDimension
  2
*D5
 10
9840.600000000002
 20
8920.001516609591
 30
0.0
 11
10236.7066017178
 21
8920.001516609591
 31
0.0
 70
   160
 71
     5
 42
123.0
  3
INABA_S40G
100
AcDbAlignedDimension
 13
9963.600000000001
 23
8174.241890067508
 33
0.0
 14
9840.600000000002
 24
8101.241890067507
 34
0.0
100
AcDbRotatedDimension
1001
ACAD
1000
DSTYLE
1002
{
1070
   341
1005
0
1002
}
  0
DIMENSION
  5
1A8D8
330
747D
100
AcDbEntity
  8
寸法
 48
50.0
100
AcDbDimension
  2
*D6
 10
9055.600000000001
 20
8701.151655715836
 30
0.0
 11
9534.51852200628
 21
8701.151655715836
 31
0.0
 70
   160
 71
     5
 42
908.0
  3
INABA_S40G
100
AcDbAlignedDimension
 13
9963.600000000001
 23
8174.241890067508
 33
0.0
 14
9055.600000000001
 24
7639.241890067508
 34
0.0
100
AcDbRotatedDimension
1001
ACAD
1000
DSTYLE
1002
{
1070
   341
1005
0
1002
}
  0
DIMENSION
  5
1A8DA
330
747D
100
AcDbEntity
  8
寸法
 48
50.0
100
AcDbDimension
  2
*D7
 10
6930.307249876098
 20
8174.241890067506
 30
0.0
 11
6930.307249876098
 21
8452.325433340392
 31
0.0
 70
   160
 71
     5
 42
120.0
  3
INABA_S40G
100
AcDbAlignedDimension
 13
6713.600000000001
 23
8054.241890067507
 33
0.0
 14
6713.600000000001
 24
8174.241890067506
 34
0.0
 50
90.0
100
AcDbRotatedDimension
1001
ACAD
1000
DSTYLE
1002
{
1070
   341
1005
0
1002
}
  0
DIMENSION
  5
1A8DC
330
747D
100
AcDbEntity
  8
寸法
 48
50.0
100
AcDbDimension
  2
*D8
 10
5987.657733986178
 20
8051.241890067508
 30
0.0
 11
5987.657733986178
 21
8447.348491785305
 31
0.0
 70
   160
 71
     5
 42
123.0
  3
INABA_S40G
100
AcDbAlignedDimension
 13
6483.6
 23
8174.241890067508
 33
0.0
 14
6556.6
 24
8051.241890067506
 34
0.0
 50
90.0
100
AcDbRotatedDimension
1001
ACAD
1000
DSTYLE
1002
{
1070
   341
1005
0
1002
}
  0
DIMENSION
  5
1A8DE
330
747D
100
AcDbEntity
  8
寸法
 48
50.0
100
AcDbDimension
  2
*D9
 10
6483.6
 20
8920.001516609591
 30
0.0
 11
6210.493398282203
 21
8920.001516609591
 31
0.0
 70
   160
 71
     5
 42
123.0
  3
INABA_S40G
100
AcDbAlignedDimension
 13
6606.6
 23
8101.241890067507
 33
0.0
 14
6483.6
 24
8174.241890067508
 34
0.0
100
AcDbRotatedDimension
1001
ACAD
1000
DSTYLE
1002
{
1070
   341
1005
0
1002
}
  0
DIMENSION
  5
1A8DF
330
747D
100
AcDbEntity
  8
寸法
 48
50.0
100
AcDbDimension
  2
*D10
 10
6483.6
 20
8701.151655715836
 30
0.0
 11
6937.6
 21
8801.151655715836
 31
0.0
 70
    32
 71
     5
 42
908.0
  3
INABA_S40G
100
AcDbAlignedDimension
 13
7391.600000000001
 23
7639.241890067508
 33
0.0
 14
6483.6
 24
8174.241890067508
 34
0.0
100
AcDbRotatedDimension
1001
ACAD
1000
DSTYLE
1002
{
1070
   341
1005
0
1002
}
  0
DIMENSION
  5
1A8E1
330
747D
100
AcDbEntity
  8
寸法
 48
50.0
100
AcDbDimension
  2
*D11
 10
7391.600000000001
 20
8701.151655715836
 30
0.0
 11
7807.6
 21
8801.163466739458
 31
0.0
 70
    32
 71
     5
 42
832.0
  3
INABA_S40G
100
AcDbAlignedDimension
 13
8223.600000000001
 23
7639.241890067508
 33
0.0
 14
7391.600000000001
 24
7639.241890067508
 34
0.0
100
AcDbRotatedDimension
1001
ACAD
1000
DSTYLE
1002
{
1070
   341
1005
0
1002
}
  0
DIMENSION
  5
1A8E2
330
747D
100
AcDbEntity
  8
寸法
 48
50.0
100
AcDbDimension
  2
*D12
 10
9963.600000000001
 20
9132.462212126426
 30
0.0
 11
8223.600000000001
 21
9232.462212126426
 31
0.0
 70
    32
 71
     5
 42
3480.0
  3
INABA_S40G
100
AcDbAlignedDimension
 13
6483.6
 23
8174.241890067508
 33
0.0
 14
9963.600000000001
 24
8174.241890067508
 34
0.0
100
AcDbRotatedDimension
1001
ACAD
1000
DSTYLE
1002
{
1070
   341
1005
0
1002
}
  0
DIMENSION
  5
1A8E3
330
747D
100
AcDbEntity
  8
寸法
 48
50.0
100
AcDbDimension
  2
*D13
 10
6606.6
 20
8920.001516609591
 30
0.0
 11
8223.600000000001
 21
9020.013327633213
 31
0.0
 70
    32
 71
     5
 42
3234.0
  3
INABA_S40G
100
AcDbAlignedDimension
 13
9840.600000000002
 23
8101.241890067507
 33
0.0
 14
6606.6
 24
8101.241890067507
 34
0.0
100
AcDbRotatedDimension
1001
ACAD
1000
DSTYLE
1002
{
1070
   341
1005
0
1002
}
  0
DIMENSION
  5
1A8E4
330
747D
100
AcDbEntity
  8
寸法
 48
50.0
100
AcDbDimension
  2
*D14
 10
8223.600000000001
 20
8701.151655715836
 30
0.0
 11
8639.599999999999
 21
8801.163466739458
 31
0.0
 70
    32
 71
     5
 42
832.0
  3
INABA_S40G
100
AcDbAlignedDimension
 13
9055.600000000001
 23
7639.241890067508
 33
0.0
 14
8223.600000000001
 24
7639.241890067508
 34
0.0
100
AcDbRotatedDimension
1001
ACAD
1000
DSTYLE
1002
{
1070
   341
1005
0
1002
}
  0
LINE
  5
1A8E6
330
747D
100
AcDbEntity
  8
部品1
 48
50.0
100
AcDbLine
 10
7356.6
 20
5954.24189006751
 30
0.0
 11
6483.6
 21
5954.241890067507
 31
0.0
  0
LINE
  5
1A8E9
330
747D
100
AcDbEntity
  8
部品1
 48
50.0
100
AcDbLine
 10
9963.600000000001
 20
8174.241890067508
 30
0.0
 11
6483.6
 21
8174.241890067508
 31
0.0
  0
LINE
  5
1A8EA
330
747D
100
AcDbEntity
  8
部品1
 48
50.0
100
AcDbLine
 10
9733.600000000002
 20
6074.241890067524
 30
0.0
 11
6713.600000000001
 21
6074.241890067511
 31
0.0
  0
LINE
  5
1A8EB
330
747D
100
AcDbEntity
  8
部品1
 48
50.0
100
AcDbLine
 10
9733.600000000002
 20
8054.241890067507
 30
0.0
 11
6713.600000000001
 21
8054.241890067507
 31
0.0
  0
DIMENSION
  5
1A8ED
330
747D
100
AcDbEntity
  8
寸法
 48
50.0
100
AcDbDimension
  2
*D15
 10
5987.657733986178
 20
5954.241890067509
 30
0.0
 11
5987.657733986178
 21
5618.710941224915
 31
0.0
 70
   160
 71
     5
 42
123.0000000000018
  3
INABA_S40G
100
AcDbAlignedDimension
 13
6556.600000000007
 23
6077.241890067509
 33
0.0
 14
6483.6
 24
5954.241890067507
 34
0.0
 50
90.0
100
AcDbRotatedDimension
1001
ACAD
1000
DSTYLE
1002
{
1070
   341
1005
0
1002
}
  0
LINE
  5
1A8EF
330
747D
100
AcDbEntity
  8
部品1
 48
50.0
100
AcDbLine
 10
6483.6
 20
5954.241890067507
 30
0.0
 11
6483.6
 21
8174.241890067508
 31
0.0
  0
LINE
  5
1A8F0
330
747D
100
AcDbEntity
  8
部品1
 48
50.0
100
AcDbLine
 10
6603.6
 20
6184.241890067509
 30
0.0
 11
6603.6
 21
7944.241890067504
 31
0.0
  0
DIMENSION
  5
1A8F1
330
747D
100
AcDbEntity
  8
寸法
 48
50.0
100
AcDbDimension
  2
*D16
 10
5742.16493184821
 20
5954.241890067509
 30
0.0
 11
5642.153120824588
 21
7064.24189006751
 31
0.0
 70
    32
 71
     5
 42
2220.0
  3
INABA_S40G
100
AcDbAlignedDimension
 13
6483.6
 23
8174.241890067508
 33
0.0
 14
6483.6
 24
5954.241890067507
 34
0.0
 50
90.0
100
AcDbRotatedDimension
1001
ACAD
1000
DSTYLE
1002
{
1070
   341
1005
0
1002
}
  0
DIMENSION
  5
1A8F2
330
747D
100
AcDbEntity
  8
寸法
 48
50.0
100
AcDbDimension
  2
*D17
 10
5987.657733986178
 20
6077.241890067511
 30
0.0
 11
5887.657733986177
 21
7064.241890067511
 31
0.0
 70
    32
 71
     5
 42
1973.999999999998
  3
INABA_S40G
100
AcDbAlignedDimension
 13
6556.6
 23
8051.241890067506
 33
0.0
 14
6556.600000000007
 24
6077.241890067509
 34
0.0
 50
90.0
100
AcDbRotatedDimension
1001
ACAD
1000
DSTYLE
1002
{
1070
   341
1005
0
1002
}
  0
LINE
  5
1A8F3
330
747D
100
AcDbEntity
  8
部品1
 48
50.0
100
AcDbLine
 10
6713.600000000001
 20
6184.241890067511
 30
0.0
 11
6603.6
 21
6184.241890067509
 31
0.0
  0
CIRCLE
  5
1A8F4
330
747D
100
AcDbEntity
  8
部品1
 48
50.0
100
AcDbCircle
 10
6606.600000000007
 20
6077.241890067509
 30
0.0
 40
35.0
  0
LINE
  5
1A8F5
330
747D
100
AcDbEntity
  8
センター
 48
2.0
100
AcDbLine
 10
6556.600000000007
 20
6077.241890067509
 30
0.0
 11
6656.600000000008
 21
6077.241890067509
 31
0.0
  0
LINE
  5
1A8F6
330
747D
100
AcDbEntity
  8
センター
 48
2.0
100
AcDbLine
 10
6606.600000000007
 20
6127.241890067509
 30
0.0
 11
6606.600000000007
 21
6027.241890067509
 31
0.0
  0
LINE
  5
1A8F7
330
747D
100
AcDbEntity
  8
部品1
 48
50.0
100
AcDbLine
 10
6713.599999999999
 20
6074.241890067511
 30
0.0
 11
6713.600000000001
 21
6184.241890067511
 31
0.0
  0
LINE
  5
1A8F8
330
747D
100
AcDbEntity
  8
部品1
 48
50.0
100
AcDbLine
 10
6603.6
 20
6964.241890067507
 30
0.0
 11
6483.6
 21
6964.241890067508
 31
0.0
  0
DIMENSION
  5
1A8F9
330
747D
100
AcDbEntity
  8
寸法
 48
50.0
100
AcDbDimension
  2
*D18
 10
6930.307249876098
 20
7944.241890067504
 30
0.0
 11
6930.307249876098
 21
7604.182834949394
 31
0.0
 70
   160
 71
     5
 42
110.0000000000036
  3
INABA_S40G
100
AcDbAlignedDimension
 13
6713.600000000001
 23
8054.241890067507
 33
0.0
 14
6713.600000000001
 24
7944.241890067504
 34
0.0
 50
90.0
100
AcDbRotatedDimension
1001
ACAD
1000
DSTYLE
1002
{
1070
   341
1005
0
1002
}
  0
LINE
  5
1A8FA
330
747D
100
AcDbEntity
  8
部品1
 48
50.0
100
AcDbLine
 10
6603.6
 20
7164.241890067508
 30
0.0
 11
6483.6
 21
7164.241890067508
 31
0.0
  0
LINE
  5
1A8FB
330
747D
100
AcDbEntity
  8
部品1
 48
50.0
100
AcDbLine
 10
6882.928907166848
 20
8174.241890067504
 30
0.0
 11
6483.6
 21
8174.241890067508
 31
0.0
  0
LINE
  5
1A8FC
330
747D
100
AcDbEntity
  8
部品1
 48
50.0
100
AcDbLine
 10
6713.600000000001
 20
7944.241890067504
 30
0.0
 11
6603.6
 21
7944.241890067508
 31
0.0
  0
CIRCLE
  5
1A8FD
330
747D
100
AcDbEntity
  8
部品1
 48
50.0
100
AcDbCircle
 10
6606.6
 20
8051.241890067506
 30
0.0
 40
35.0
  0
LINE
  5
1A8FE
330
747D
100
AcDbEntity
  8
センター
 48
2.0
100
AcDbLine
 10
6556.6
 20
8051.241890067506
 30
0.0
 11
6656.6
 21
8051.241890067506
 31
0.0
  0
LINE
  5
1A8FF
330
747D
100
AcDbEntity
  8
センター
 48
2.0
100
AcDbLine
 10
6606.6
 20
8101.241890067507
 30
0.0
 11
6606.6
 21
8001.241890067507
 31
0.0
  0
LINE
  5
1A900
330
747D
100
AcDbEntity
  8
部品1
 48
50.0
100
AcDbLine
 10
6713.600000000001
 20
7944.241890067504
 30
0.0
 11
6713.599999999999
 21
8054.241890067507
 31
0.0
  0
DIMENSION
  5
1A99F
330
747D
100
AcDbEntity
  8
寸法
 48
50.0
100
AcDbDimension
  2
*D1
 10
9843.600000000002
 20
7716.533222567133
 30
0.0
 11
10233.65905511811
 21
7716.533222567133
 31
0.0
 70
   160
 71
     5
 42
119.9999999999981
  3
INABA_S40G
100
AcDbAlignedDimension
 13
9963.600000000001
 23
7733.526486605964
 33
0.0
 14
9843.600000000002
 24
7773.28844381417
 34
0.0
100
AcDbRotatedDimension
1001
ACAD
1000
DSTYLE
1002
{
1070
   341
1005
0
1002
}
  0
LINE
  5
1A9A0
330
747D
100
AcDbEntity
  8
部品1
 48
50.0
100
AcDbLine
 10
8323.600000000022
 20
5879.241890067516
 30
0.0
 11
8323.600000000022
 21
6074.241890067518
 31
0.0
  0
LINE
  5
1A9A4
330
747D
100
AcDbEntity
  8
部品1
 48
50.0
100
AcDbLine
 10
8123.600000000022
 20
5879.241890067514
 30
0.0
 11
8123.600000000022
 21
6074.241890067515
 31
0.0
  0
LINE
  5
1A9A7
330
747D
100
AcDbEntity
  8
部品1
 48
50.0
100
AcDbLine
 10
9511.599999999999
 20
5879.241890067525
 30
0.0
 11
9511.599999999999
 21
5954.241890067522
 31
0.0
  0
LINE
  5
1A9A9
330
747D
100
AcDbEntity
  8
部品1
 48
50.0
100
AcDbLine
 10
7356.6
 20
5879.241890067525
 30
0.0
 11
7356.6
 21
5954.24189006751
 31
0.0
  0
LINE
  5
1A9AB
330
747D
100
AcDbEntity
  8
部品1
 48
50.0
100
AcDbLine
 10
9511.599999999999
 20
5879.241890067524
 30
0.0
 11
7356.6
 21
5879.241890067509
 31
0.0
  0
DIMENSION
  5
1A9AD
330
747D
100
AcDbEntity
  8
寸法
 48
50.0
100
AcDbDimension
  2
*D2
 10
7165.692155807083
 20
7439.241890067508
 30
0.0
 11
7065.692155807082
 21
7064.24189006751
 31
0.0
 70
    32
 71
     5
 42
750.0
  3
INABA_S40G
100
AcDbAlignedDimension
 13
7291.600000000001
 23
6689.241890067508
 33
0.0
 14
7291.600000000001
 24
7439.241890067508
 34
0.0
 50
90.0
100
AcDbRotatedDimension
1001
ACAD
1000
DSTYLE
1002
{
1070
   341
1005
0
1002
}
  0
DIMENSION
  5
1A9AE
330
747D
100
AcDbEntity
  8
寸法
 48
50.0
100
AcDbDimension
  2
*D3
 10
7165.692155807083
 20
8174.241890067508
 30
0.0
 11
7165.692155807083
 21
7806.234068666043
 31
0.0
 70
   160
 71
     5
 42
735.0
  3
INABA_S40G
100
AcDbAlignedDimension
 13
7291.600000000001
 23
7439.241890067508
 33
0.0
 14
6874.6
 24
8174.241890067508
 34
0.0
 50
90.0
100
AcDbRotatedDimension
1001
ACAD
1000
DSTYLE
1002
{
1070
   341
1005
0
1002
}
  0
DIMENSION
  5
1A9AF
330
747D
100
AcDbEntity
  8
寸法
 48
50.0
100
AcDbDimension
  2
*D4
 10
7165.692155807083
 20
6689.241890067508
 30
0.0
 11
7065.692155807082
 21
6321.741890067514
 31
0.0
 70
    32
 71
     5
 42
734.9999999999909
  3
INABA_S40G
100
AcDbAlignedDimension
 13
6970.488508201206
 23
5954.241890067517
 33
0.0
 14
7291.600000000001
 24
6689.241890067508
 34
0.0
 50
90.0
100
AcDbRotatedDimension
1001
ACAD
1000
DSTYLE
1002
{
1070
   341
1005
0
1002
}
  0
LINE
  5
1AA52
330
747D
100
AcDbEntity
  8
部品1
 48
50.0
100
AcDbLine
 10
7491.600000000001
 20
6889.241890067508
 30
0.0
 11
7291.600000000001
 21
6889.241890067508
 31
0.0
  0
LINE
  5
1AA53
330
747D
100
AcDbEntity
  8
部品1
 48
50.0
100
AcDbLine
 10
7491.600000000001
 20
6489.241890067505
 30
0.0
 11
7291.600000000001
 21
6489.241890067505
 31
0.0
  0
LINE
  5
1AA54
330
747D
100
AcDbEntity
  8
部品1
 48
50.0
100
AcDbLine
 10
7291.600000000001
 20
6489.241890067508
 30
0.0
 11
7291.600000000001
 21
6889.241890067508
 31
0.0
  0
LINE
  5
1AA55
330
747D
100
AcDbEntity
  8
センター
 48
2.0
100
AcDbLine
 10
7391.600000000001
 20
6739.241890067508
 30
0.0
 11
7391.600000000001
 21
6639.241890067508
 31
0.0
  0
LINE
  5
1AA56
330
747D
100
AcDbEntity
  8
センター
 48
2.0
100
AcDbLine
 10
7341.600000000001
 20
6689.241890067508
 30
0.0
 11
7441.600000000001
 21
6689.241890067508
 31
0.0
  0
LINE
  5
1AA57
330
747D
100
AcDbEntity
  8
部品1
 48
50.0
100
AcDbLine
 10
7491.600000000001
 20
6489.241890067505
 30
0.0
 11
7491.600000000001
 21
6889.241890067508
 31
0.0
  0
LINE
  5
1AAB9
330
747D
100
AcDbEntity
  8
部品1
 48
50.0
100
AcDbLine
 10
8323.6
 20
6889.241890067508
 30
0.0
 11
8123.600000000001
 21
6889.241890067508
 31
0.0
  0
LINE
  5
1AABA
330
747D
100
AcDbEntity
  8
部品1
 48
50.0
100
AcDbLine
 10
8323.6
 20
6489.241890067505
 30
0.0
 11
8123.600000000001
 21
6489.241890067505
 31
0.0
  0
LINE
  5
1AABB
330
747D
100
AcDbEntity
  8
センター
 48
2.0
100
AcDbLine
 10
8173.6
 20
6689.241890067508
 30
0.0
 11
8273.6
 21
6689.241890067508
 31
0.0
  0
LINE
  5
1AABC
330
747D
100
AcDbEntity
  8
部品1
 48
50.0
100
AcDbLine
 10
8123.600000000001
 20
6489.241890067508
 30
0.0
 11
8123.600000000001
 21
6889.241890067508
 31
0.0
  0
LINE
  5
1AABD
330
747D
100
AcDbEntity
  8
センター
 48
2.0
100
AcDbLine
 10
8223.600000000001
 20
6739.241890067508
 30
0.0
 11
8223.600000000001
 21
6639.241890067508
 31
0.0
  0
LINE
  5
1AABE
330
747D
100
AcDbEntity
  8
部品1
 48
50.0
100
AcDbLine
 10
8323.6
 20
6489.241890067505
 30
0.0
 11
8323.6
 21
6889.241890067508
 31
0.0
  0
LINE
  5
1AABF
330
747D
100
AcDbEntity
  8
部品1
 48
50.0
100
AcDbLine
 10
7491.600000000001
 20
7239.241890067505
 30
0.0
 11
7491.600000000001
 21
7639.241890067508
 31
0.0
  0
LINE
  5
1AAC0
330
747D
100
AcDbEntity
  8
部品1
 48
50.0
100
AcDbLine
 10
7291.600000000001
 20
7239.241890067508
 30
0.0
 11
7291.600000000001
 21
7639.241890067508
 31
0.0
  0
LINE
  5
1AAC1
330
747D
100
AcDbEntity
  8
部品1
 48
50.0
100
AcDbLine
 10
7491.600000000001
 20
7239.241890067505
 30
0.0
 11
7291.600000000001
 21
7239.241890067505
 31
0.0
  0
LINE
  5
1AAC2
330
747D
100
AcDbEntity
  8
センター
 48
2.0
100
AcDbLine
 10
7391.600000000001
 20
7489.241890067508
 30
0.0
 11
7391.600000000001
 21
7389.241890067508
 31
0.0
  0
LINE
  5
1AAC3
330
747D
100
AcDbEntity
  8
センター
 48
2.0
100
AcDbLine
 10
7341.600000000001
 20
7439.241890067508
 30
0.0
 11
7441.600000000001
 21
7439.241890067508
 31
0.0
  0
LINE
  5
1AAC4
330
747D
100
AcDbEntity
  8
部品1
 48
50.0
100
AcDbLine
 10
7491.600000000001
 20
7639.241890067508
 30
0.0
 11
7291.600000000001
 21
7639.241890067508
 31
0.0
  0
LINE
  5
1AAC5
330
747D
100
AcDbEntity
  8
部品1
 48
50.0
100
AcDbLine
 10
8123.600000000001
 20
7239.241890067508
 30
0.0
 11
8123.600000000001
 21
7639.241890067508
 31
0.0
  0
LINE
  5
1AAC6
330
747D
100
AcDbEntity
  8
部品1
 48
50.0
100
AcDbLine
 10
8323.6
 20
7239.241890067505
 30
0.0
 11
8323.6
 21
7639.241890067508
 31
0.0
  0
LINE
  5
1AAC7
330
747D
100
AcDbEntity
  8
センター
 48
2.0
100
AcDbLine
 10
8173.6
 20
7439.241890067508
 30
0.0
 11
8273.6
 21
7439.241890067508
 31
0.0
  0
LINE
  5
1AAC8
330
747D
100
AcDbEntity
  8
部品1
 48
50.0
100
AcDbLine
 10
8323.6
 20
7239.241890067505
 30
0.0
 11
8123.600000000001
 21
7239.241890067505
 31
0.0
  0
LINE
  5
1AAC9
330
747D
100
AcDbEntity
  8
センター
 48
2.0
100
AcDbLine
 10
8223.600000000001
 20
7489.241890067508
 30
0.0
 11
8223.600000000001
 21
7389.241890067508
 31
0.0
  0
LINE
  5
1AACB
330
747D
100
AcDbEntity
  8
部品1
 48
50.0
100
AcDbLine
 10
8323.6
 20
7639.241890067508
 30
0.0
 11
8123.600000000001
 21
7639.241890067508
 31
0.0
  0
LINE
  5
1AACC
330
747D
100
AcDbEntity
  8
部品1
 48
50.0
100
AcDbLine
 10
8123.599999999999
 20
8054.241890067507
 30
0.0
 11
8123.600000000001
 21
8174.241890067508
 31
0.0
  0
LINE
  5
1AACD
330
747D
100
AcDbEntity
  8
部品1
 48
50.0
100
AcDbLine
 10
8323.6
 20
8054.241890067507
 30
0.0
 11
8323.6
 21
8174.241890067508
 31
0.0
  0
LINE
  5
1AACF
330
747D
100
AcDbEntity
  8
部品1
 48
50.0
100
AcDbLine
 10
9963.600000000001
 20
5954.241890067526
 30
0.0
 11
9963.600000000001
 21
8174.241890067508
 31
0.0
  0
LINE
  5
1AAD0
330
747D
100
AcDbEntity
  8
部品1
 48
50.0
100
AcDbLine
 10
9843.600000000002
 20
6184.241890067528
 30
0.0
 11
9843.600000000002
 21
7944.241890067508
 31
0.0
  0
LINE
  5
1ABD4
330
747D
100
AcDbEntity
  8
部品1
 48
50.0
100
AcDbLine
 10
9155.600000000001
 20
6889.241890067508
 30
0.0
 11
8955.600000000002
 21
6889.241890067508
 31
0.0
  0
LINE
  5
1ABD5
330
747D
100
AcDbEntity
  8
部品1
 48
50.0
100
AcDbLine
 10
9155.600000000001
 20
6489.241890067505
 30
0.0
 11
8955.600000000002
 21
6489.241890067505
 31
0.0
  0
LINE
  5
1ABD6
330
747D
100
AcDbEntity
  8
センター
 48
2.0
100
AcDbLine
 10
9005.600000000001
 20
6689.241890067508
 30
0.0
 11
9105.6
 21
6689.241890067508
 31
0.0
  0
LINE
  5
1ABD7
330
747D
100
AcDbEntity
  8
部品1
 48
50.0
100
AcDbLine
 10
8955.600000000002
 20
6489.241890067508
 30
0.0
 11
8955.600000000002
 21
6889.241890067508
 31
0.0
  0
LINE
  5
1ABD8
330
747D
100
AcDbEntity
  8
センター
 48
2.0
100
AcDbLine
 10
9055.600000000001
 20
6739.241890067508
 30
0.0
 11
9055.600000000001
 21
6639.241890067508
 31
0.0
  0
LINE
  5
1ABD9
330
747D
100
AcDbEntity
  8
部品1
 48
50.0
100
AcDbLine
 10
9155.600000000001
 20
6489.241890067505
 30
0.0
 11
9155.600000000001
 21
6889.241890067508
 31
0.0
  0
LINE
  5
1ABDA
330
747D
100
AcDbEntity
  8
部品1
 48
50.0
100
AcDbLine
 10
9963.600000000001
 20
5954.241890067526
 30
0.0
 11
9511.599999999999
 21
5954.24189006752
 31
0.0
  0
LINE
  5
1ABDB
330
747D
100
AcDbEntity
  8
部品1
 48
50.0
100
AcDbLine
 10
9733.600000000002
 20
6054.241890067523
 30
0.0
 11
9733.600000000002
 21
6184.241890067525
 31
0.0
  0
LINE
  5
1ABE1
330
747D
100
AcDbEntity
  8
センター
 48
2.0
100
AcDbLine
 10
9840.600000000009
 20
6127.241890067509
 30
0.0
 11
9840.600000000009
 21
6027.241890067509
 31
0.0
  0
CIRCLE
  5
1ABE2
330
747D
100
AcDbEntity
  8
部品1
 48
50.0
100
AcDbCircle
 10
9840.600000000009
 20
6077.241890067509
 30
0.0
 40
35.0
  0
LINE
  5
1ABE3
330
747D
100
AcDbEntity
  8
センター
 48
2.0
100
AcDbLine
 10
9790.600000000008
 20
6077.241890067509
 30
0.0
 11
9890.600000000008
 21
6077.241890067509
 31
0.0
  0
LINE
  5
1ABE4
330
747D
100
AcDbEntity
  8
部品1
 48
50.0
100
AcDbLine
 10
9843.6
 20
6184.241890067525
 30
0.0
 11
9733.600000000002
 21
6184.241890067525
 31
0.0
  0
LINE
  5
1ABE5
330
747D
100
AcDbEntity
  8
部品1
 48
50.0
100
AcDbLine
 10
9963.600000000001
 20
6964.241890067508
 30
0.0
 11
9843.600000000002
 21
6964.241890067508
 31
0.0
  0
DIMENSION
  5
1ABE6
330
747D
100
AcDbEntity
  8
寸法
 48
50.0
100
AcDbDimension
  2
*D19
 10
9733.600000000002
 20
7716.533222567133
 30
0.0
 11
9463.54094488189
 21
7716.533222567133
 31
0.0
 70
   160
 71
     5
 42
110.0000000000018
  3
INABA_S40G
100
AcDbAlignedDimension
 13
9843.600000000002
 23
7773.28844381417
 33
0.0
 14
9733.600000000002
 24
7944.241890067506
 34
0.0
100
AcDbRotatedDimension
1001
ACAD
1000
DSTYLE
1002
{
1070
   341
1005
0
1002
}
  0
LINE
  5
1ABE7
330
747D
100
AcDbEntity
  8
部品1
 48
50.0
100
AcDbLine
 10
8955.600000000002
 20
7239.241890067508
 30
0.0
 11
8955.600000000002
 21
7639.241890067508
 31
0.0
  0
LINE
  5
1ABE8
330
747D
100
AcDbEntity
  8
部品1
 48
50.0
100
AcDbLine
 10
9155.600000000001
 20
7239.241890067505
 30
0.0
 11
9155.600000000001
 21
7639.241890067508
 31
0.0
  0
LINE
  5
1ABE9
330
747D
100
AcDbEntity
  8
センター
 48
2.0
100
AcDbLine
 10
9005.600000000001
 20
7439.241890067508
 30
0.0
 11
9105.6
 21
7439.241890067508
 31
0.0
  0
LINE
  5
1ABEA
330
747D
100
AcDbEntity
  8
部品1
 48
50.0
100
AcDbLine
 10
9155.600000000001
 20
7239.241890067505
 30
0.0
 11
8955.600000000002
 21
7239.241890067505
 31
0.0
  0
LINE
  5
1ABEB
330
747D
100
AcDbEntity
  8
センター
 48
2.0
100
AcDbLine
 10
9055.600000000001
 20
7489.241890067508
 30
0.0
 11
9055.600000000001
 21
7389.241890067508
 31
0.0
  0
LINE
  5
1ABEC
330
747D
100
AcDbEntity
  8
部品1
 48
50.0
100
AcDbLine
 10
9155.600000000001
 20
7639.241890067508
 30
0.0
 11
8955.600000000002
 21
7639.241890067508
 31
0.0
  0
LINE
  5
1ABED
330
747D
100
AcDbEntity
  8
部品1
 48
50.0
100
AcDbLine
 10
9963.600000000001
 20
7164.241890067508
 30
0.0
 11
9843.600000000002
 21
7164.241890067508
 31
0.0
  0
LINE
  5
1ABEE
330
747D
100
AcDbEntity
  8
部品1
 48
50.0
100
AcDbLine
 10
9843.6
 20
7944.241890067508
 30
0.0
 11
9733.600000000002
 21
7944.241890067506
 31
0.0
  0
LINE
  5
1ABEF
330
747D
100
AcDbEntity
  8
センター
 48
2.0
100
AcDbLine
 10
9840.600000000002
 20
8101.241890067507
 30
0.0
 11
9840.600000000002
 21
8001.241890067507
 31
0.0
  0
LINE
  5
1ABF0
330
747D
100
AcDbEntity
  8
部品1
 48
50.0
100
AcDbLine
 10
9733.600000000002
 20
7944.241890067506
 30
0.0
 11
9733.600000000002
 21
8054.241890067507
 31
0.0
  0
CIRCLE
  5
1ABF1
330
747D
100
AcDbEntity
  8
部品1
 48
50.0
100
AcDbCircle
 10
9840.600000000002
 20
8051.241890067506
 30
0.0
 40
35.0
  0
LINE
  5
1ABF2
330
747D
100
AcDbEntity
  8
センター
 48
2.0
100
AcDbLine
 10
9790.600000000001
 20
8051.241890067506
 30
0.0
 11
9890.6
 21
8051.241890067506
 31
0.0
  0
LEADER
  5
1AC27
330
747D
100
AcDbEntity
  8
寸法
 48
50.0
100
AcDbLeader
  3
INABA_S40G
 73
     0
 74
     0
 75
     1
 40
120.0
 41
720.0000000000001
 76
     3
 10
9963.695499614992
 20
7058.993251490315
 30
0.0
 10
10130.46907400128
 20
6782.979337922482
 30
0.0
 10
10230.46907400128
 20
6782.979337922482
 30
0.0
340
1AC28
1001
ACAD
1000
DSTYLE
1002
{
1070
   341
1005
0
1002
}
  0
MTEXT
  5
1AC28
102
{ACAD_REACTORS
330
1AC27
102
}
330
747D
100
AcDbEntity
  8
部品1
 62
     7
 48
50.0
100
AcDbMText
 10
10990.46907400128
 20
6882.979337922482
 30
0.0
 40
120.0
 41
0.0
 71
     6
 72
     1
  1
\A1;床下換気口
  7
STYLE1
 73
     1
 44
1.0
1001
ACAD
1000
MTEXTBEGIN
1070
    73
1070
     1
1070
    44
1040
1.0
1070
    74
1070
     0
1000
MTEXTEND
  0
TEXT
  5
1AC29
330
747D
100
AcDbEntity
  8
部品1
 48
50.0
100
AcDbText
 10
10307.43013846117
 20
5747.620861998402
 30
0.0
 40
80.0
  1
(a=45,b=55,c=75)
  7
STYLE1
100
AcDbText
  0
TEXT
  5
1AC2A
330
747D
100
AcDbEntity
  8
部品1
 48
50.0
100
AcDbText
 10
10148.85112970687
 20
5854.466082867157
 30
0.0
 40
80.0
  1
※a,b,cは屋根の出幅です。
  7
STYLE1
100
AcDbText
  0
MTEXT
  5
1AC2B
102
{ACAD_REACTORS
330
1AC2C
102
}
330
747D
100
AcDbEntity
  8
部品1
 62
     7
 48
50.0
100
AcDbMText
 10
10946.63832569548
 20
6033.776769800232
 30
0.0
 40
120.0
 41
0.0
 71
     6
 72
     1
  1
\A1;屋根の外寸
  7
STYLE1
 73
     1
 44
1.0
1001
ACAD
1000
MTEXTBEGIN
1070
    73
1070
     1
1070
    44
1040
1.0
1070
    74
1070
     0
1000
MTEXTEND
  0
LEADER
  5
1AC2C
330
747D
100
AcDbEntity
  8
寸法
 48
50.0
100
AcDbLeader
  3
INABA_S40G
 73
     0
 74
     0
 75
     1
 40
120.0
 41
672.0
 76
     3
 10
10008.69831350344
 20
6207.666113263807
 30
0.0
 10
10134.63832569548
 20
5933.776769800232
 30
0.0
 10
10234.63832569548
 20
5933.776769800232
 30
0.0
340
1AC2B
1001
ACAD
1000
DSTYLE
1002
{
1070
   341
1005
0
1002
}
  0
TEXT
  5
1C7A1
330
747D
100
AcDbEntity
  8
文字
 62
     7
 48
50.0
100
AcDbText
 10
13188.16259899338
 20
79.80631269190417
 30
0.0
 40
80.0
  1
※布基礎には換気口を設けてください。
  7
STYLE2
100
AcDbText
  0
TEXT
  5
1C7E7
330
747D
100
AcDbEntity
  8
文字
 62
     7
 48
50.0
100
AcDbText
 10
13188.16259899338
 20
246.7109242801889
 30
0.0
 40
80.0
  1
※寒冷地等は地域の実情に合わせた基礎にして下さい。
  7
STYLE2
100
AcDbText
  0
TEXT
  5
1C7E8
330
747D
100
AcDbEntity
  8
文字
 62
     7
 48
50.0
100
AcDbText
 10
14382.62774163991
 20
499.5983841039506
 30
0.0
 40
160.0
  1
ＮＸＮ－７７S・Ｈ
  7
STYLE2
100
AcDbText
  0
TEXT
  5
1C7E9
330
747D
100
AcDbEntity
  8
文字
 62
     7
 48
50.0
100
AcDbText
 10
14895.94936112101
 20
871.1744590657927
 30
0.0
 40
100.0
  1
～一般型～
  7
STYLE2
100
AcDbText
  0
TEXT
  5
1C7EC
330
747D
100
AcDbEntity
  8
文字
 62
     7
 48
50.0
100
AcDbText
 10
14524.131837222
 20
1031.557706291229
 30
0.0
 40
100.0
  1
      <縮尺> S=1/40
  7
STYLE2
100
AcDbText
  0
TEXT
  5
1C7ED
330
747D
100
AcDbEntity
  8
文字
 62
     7
 48
50.0
100
AcDbText
 10
13201.43669998441
 20
477.2740661031257
 30
0.0
 40
160.0
  1
機種名
  7
STYLE2
100
AcDbText
  0
LINE
  5
1C7EF
330
747D
100
AcDbEntity
  8
文字
 62
     7
 48
50.0
100
AcDbLine
 10
13187.2
 20
400.0
 30
0.0
 11
16227.2
 21
400.0
 31
0.0
  0
LINE
  5
1D2D1
330
747D
100
AcDbEntity
  8
想像線
 48
10.0
100
AcDbLine
 10
10008.6
 20
5899.24189006752
 30
0.0
 11
10008.6
 21
8249.241890067507
 31
0.0
  0
LINE
  5
1D2D2
330
747D
100
AcDbEntity
  8
想像線
 48
10.0
100
AcDbLine
 10
9859.797826072353
 20
5899.241890067518
 30
0.0
 11
10008.6
 21
5899.24189006752
 31
0.0
  0
LINE
  5
1D2D3
330
747D
100
AcDbEntity
  8
想像線
 48
10.0
100
AcDbLine
 10
9223.396395634482
 20
8249.241890067507
 30
0.0
 11
10008.6
 21
8249.241890067507
 31
0.0
  0
MTEXT
  5
1D2D5
102
{ACAD_REACTORS
330
1D2D6
102
}
330
747D
100
AcDbEntity
  8
部品1
 62
     7
 48
50.0
100
AcDbMText
 10
11158.99523070988
 20
8502.36592256928
 30
0.0
 40
120.0
 41
0.0
 71
     6
 72
     1
  1
アンカーボルト
  7
STYLE1
 73
     1
 44
1.0
1001
ACAD
1000
MTEXTBEGIN
1070
    73
1070
     1
1070
    44
1040
1.0
1070
    74
1070
     0
1000
MTEXTEND
  0
LEADER
  5
1D2D6
330
747D
100
AcDbEntity
  8
寸法
 48
50.0
100
AcDbLeader
  3
INABA_S40G
 73
     0
 74
     0
 75
     1
 40
120.0
 41
994.3492424049171
 76
     3
 10
9840.680085756996
 20
8051.449734426215
 30
0.0
 10
10024.64598830496
 20
8402.365922569279
 30
0.0
 10
10124.64598830496
 20
8402.365922569279
 30
0.0
340
1D2D5
1001
ACAD
1000
DSTYLE
1002
{
1070
   341
1005
0
1002
}
  0
DIMENSION
  5
1D304
330
747D
100
AcDbEntity
  8
寸法
 48
50.0
100
AcDbDimension
  2
*D20
 10
7698.845461842207
 20
6074.241890067514
 30
0.0
 11
7698.845461842205
 21
5640.546948863615
 31
0.0
 70
   160
 71
     5
 42
195.0000000000045
  3
INABA_S40G
100
AcDbAlignedDimension
 13
7466.42928583026
 23
5879.241890067509
 33
0.0
 14
7463.135752441158
 24
6074.241890067514
 34
0.0
 50
90.0
100
AcDbRotatedDimension
1001
ACAD
1000
DSTYLE
1002
{
1070
   341
1005
0
1002
}
  0
MTEXT
  5
1D332
102
{ACAD_REACTORS
330
1D333
102
}
330
747D
100
AcDbEntity
  8
部品1
 62
     7
 48
50.0
100
AcDbMText
 10
8673.7272174199
 20
7101.252653803978
 30
0.0
 40
120.0
 41
0.0
 71
     6
 72
     1
  1
CB
  7
STYLE1
 73
     1
 44
1.0
1001
ACAD
1000
MTEXTBEGIN
1070
    73
1070
     1
1070
    44
1040
1.0
1070
    74
1070
     0
1000
MTEXTEND
  0
LEADER
  5
1D333
330
747D
100
AcDbEntity
  8
寸法
 48
50.0
100
AcDbLeader
  3
INABA_S40G
 73
     0
 74
     0
 75
     1
 40
120.0
 41
149.591883092037
 76
     3
 10
8246.85253146522
 20
7277.26656737181
 30
0.0
 10
8384.135334327863
 20
7001.252653803978
 30
0.0
 10
8484.135334327865
 20
7001.252653803978
 30
0.0
340
1D332
1001
ACAD
1000
DSTYLE
1002
{
1070
   341
1005
0
1002
}
  0
DIMENSION
  5
1DAC7
330
747D
100
AcDbEntity
  8
寸法
 48
50.0
100
AcDbDimension
  2
*D22
 10
9778.202780124335
 20
5954.241890067525
 30
0.0
 11
9778.202780124333
 21
5345.756608693285
 31
0.0
 70
   160
  1
扉の出<>
 71
     5
 42
75.00000000000091
  3
INABA_S40G
100
AcDbAlignedDimension
 13
9511.599999999999
 23
5879.241890067524
 33
0.0
 14
9511.600000000003
 24
5954.241890067525
 34
0.0
 50
90.0
100
AcDbRotatedDimension
1001
ACAD
1000
DSTYLE
1002
{
1070
   341
1005
0
1002
}
  0
DIMENSION
  5
1DAC8
330
747D
100
AcDbEntity
  8
寸法
 48
50.0
100
AcDbDimension
  2
*D24
 10
6930.307249876098
 20
6074.241890067497
 30
0.0
 11
6930.307249876098
 21
5617.953585099552
 31
0.0
 70
   160
 71
     5
 42
119.9999999999763
  3
INABA_S40G
100
AcDbAlignedDimension
 13
6785.419180988154
 23
5954.24189006752
 33
0.0
 14
6713.600000000001
 24
6074.241890067497
 34
0.0
 50
90.0
100
AcDbRotatedDimension
1001
ACAD
1000
DSTYLE
1002
{
1070
   341
1005
0
1002
}
  0
DIMENSION
  5
1DAC9
330
747D
100
AcDbEntity
  8
寸法
 48
50.0
100
AcDbDimension
  2
*D21
 10
6483.6
 20
5164.377586643396
 30
0.0
 11
6920.100000000001
 21
5264.377586643397
 31
0.0
 70
    32
 71
     5
 42
873.0
  3
INABA_S40G
100
AcDbAlignedDimension
 13
7356.6
 23
5879.241890067525
 33
0.0
 14
6483.6
 24
5954.241890067507
 34
0.0
100
AcDbRotatedDimension
1001
ACAD
1000
DSTYLE
1002
{
1070
   341
1005
0
1002
}
  0
DIMENSION
  5
1DACA
330
747D
100
AcDbEntity
  8
寸法
 48
50.0
100
AcDbDimension
  2
*D23
 10
6930.307249876098
 20
6184.241890067511
 30
0.0
 11
6930.307249876097
 21
6454.300945185636
 31
0.0
 70
   160
 71
     5
 42
110.0
  3
INABA_S40G
100
AcDbAlignedDimension
 13
6713.600000000001
 23
6074.241890067511
 33
0.0
 14
6713.600000000001
 24
6184.241890067511
 34
0.0
 50
90.0
100
AcDbRotatedDimension
1001
ACAD
1000
DSTYLE
1002
{
1070
   341
1005
0
1002
}
  0
DIMENSION
  5
1E1E0
330
747D
100
AcDbEntity
  8
寸法
 48
50.0
100
AcDbDimension
  2
*D25
 10
10008.6
 20
9132.462212126426
 30
0.0
 11
10279.77462120246
 21
9132.462212126426
 31
0.0
 70
   160
  1
a
 71
     5
 42
45.0
  3
INABA_S40G
100
AcDbAlignedDimension
 13
9963.600000000001
 23
8174.241890067506
 33
0.0
 14
10008.6
 24
8920.001516609589
 34
0.0
100
AcDbRotatedDimension
1001
ACAD
1000
DSTYLE
1002
{
1070
   341
1005
0
1002
}
  0
DIMENSION
  5
1E228
330
747D
100
AcDbEntity
  8
寸法
 48
50.0
100
AcDbDimension
  2
*D26
 10
5742.164931848212
 20
8174.241890067509
 30
0.0
 11
5642.164931848212
 21
8211.741890067512
 31
0.0
 70
    32
  1
c
 71
     5
 42
75.00000000000364
  3
INABA_S40G
100
AcDbAlignedDimension
 13
5987.657733986178
 23
8249.241890067512
 33
0.0
 14
6483.6
 24
8174.241890067508
 34
0.0
 50
90.0
100
AcDbRotatedDimension
1001
ACAD
1000
DSTYLE
1002
{
1070
   341
1005
0
1002
}
  0
DIMENSION
  5
1E22A
330
747D
100
AcDbEntity
  8
寸法
 48
50.0
100
AcDbDimension
  2
*D27
 10
6483.6
 20
9132.462212126426
 30
0.0
 11
6167.425378797542
 21
9132.462212126426
 31
0.0
 70
   160
  1
a
 71
     5
 42
44.99999999999909
  3
INABA_S40G
100
AcDbAlignedDimension
 13
6438.6
 23
8920.001516609589
 33
0.0
 14
6483.6
 24
8174.241890067506
 34
0.0
100
AcDbRotatedDimension
1001
ACAD
1000
DSTYLE
1002
{
1070
   341
1005
0
1002
}
  0
DIMENSION
  5
1E234
330
747D
100
AcDbEntity
  8
寸法
 48
50.0
100
AcDbDimension
  2
*D28
 10
5742.16493184821
 20
5899.24189006752
 30
0.0
 11
5642.16493184821
 21
5926.741890067516
 31
0.0
 70
    32
  1
b
 71
     5
 42
54.99999999998909
  3
INABA_S40G
100
AcDbAlignedDimension
 13
6490.050294581431
 23
5954.241890067509
 33
0.0
 14
5987.657733986178
 24
5899.24189006752
 34
0.0
 50
90.0
100
AcDbRotatedDimension
1001
ACAD
1000
DSTYLE
1002
{
1070
   341
1005
0
1002
}
  0
TEXT
  5
1EBB9
102
{ACAD_REACTORS
330
1EEE0
102
}
330
747D
100
AcDbEntity
  8
寸法
 62
     7
100
AcDbText
 10
7740.750754363533
 20
4623.809614669305
 30
0.0
 40
120.0
  1
扉の位置に合わせた基礎形状として下さい。
  7
STYLE1
100
AcDbText
  0
LWPOLYLINE
  5
1EBBA
102
{ACAD_REACTORS
330
1EEE0
102
}
330
747D
100
AcDbEntity
  8
寸法
 48
50.0
100
AcDbPolyline
 90
        3
 70
     0
 43
0.0
 10
-7965.145259673153
 20
5879.241890067513
 10
-7624.134795170779
 20
4773.14543000431
 10
-10438.19920810242
 20
4773.14543000431
210
0.0
220
0.0
230
-1.0
1001
ACAD
1000
DSTYLE
1002
{
1070
   341
1005
0
1070
    40
1040
1.0
1070
   343
1005
0
1070
   344
1005
0
1002
}
  0
SOLID
  5
1EBBB
102
{ACAD_REACTORS
330
1EEE0
102
}
330
747D
100
AcDbEntity
  8
寸法
 48
50.0
100
AcDbTrace
 10
-7948.236054003165
 20
5753.650861162626
 30
0.0
 11
-7965.145259673153
 21
5879.241890067513
 31
0.0
 12
-7908.417839529687
 22
5765.923632131535
 32
0.0
 13
-7908.417839529687
 23
5765.923632131535
 33
0.0
210
0.0
220
0.0
230
-1.0
1001
ACAD
1000
DSTYLE
1002
{
1070
   341
1005
0
1070
    40
1040
1.0
1070
   343
1005
0
1070
   344
1005
0
1002
}
  0
TEXT
  5
1EBBC
102
{ACAD_REACTORS
330
1EEE0
102
}
330
747D
100
AcDbEntity
  8
寸法
 62
     7
100
AcDbText
 10
7740.750754363533
 20
4795.41337755263
 30
0.0
 40
120.0
  1
扉位置 (2155x75)
  7
STYLE1
100
AcDbText
  0
DIMENSION
  5
1EF09
330
747D
100
AcDbEntity
  8
寸法
 48
50.0
100
AcDbDimension
  2
*D29
 10
7356.6
 20
5164.377586643396
 30
0.0
 11
8434.1
 21
5264.389397667019
 31
0.0
 70
    32
  1
扉の幅 <>
 71
     5
 42
2155.0
  3
INABA_S40G
100
AcDbAlignedDimension
 13
9511.599999999999
 23
5879.241890067524
 33
0.0
 14
7356.6
 24
5879.241890067509
 34
0.0
100
AcDbRotatedDimension
1001
ACAD
1000
DSTYLE
1002
{
1070
   341
1005
0
1002
}
  0
LINE
  5
1F0B5
330
747D
100
AcDbEntity
  8
細線
100
AcDbLine
 10
9868.754267828554
 20
1754.108121899091
 30
0.0
 11
9625.462600732575
 21
1997.39978899507
 31
0.0
  0
LINE
  5
1F0B6
330
747D
100
AcDbEntity
  8
細線
100
AcDbLine
 10
9805.114657521762
 20
1754.108121899091
 30
0.0
 11
9625.462600732575
 21
1933.760178688281
 31
0.0
  0
LINE
  5
1F0B7
330
747D
100
AcDbEntity
  8
部品1
100
AcDbLine
 10
9625.462600732575
 20
2054.108121899092
 30
0.0
 11
10225.46260073257
 21
2054.108121899092
 31
0.0
  0
LINE
  5
1F0B8
330
747D
100
AcDbEntity
  8
細線
100
AcDbLine
 10
9616.758093856734
 20
1639.484477332403
 30
0.0
 11
9731.381738423424
 21
1754.10812189909
 31
0.0
  0
LWPOLYLINE
  5
1F0B9
330
747D
100
AcDbEntity
  8
部品1
 48
50.0
100
AcDbPolyline
 90
        2
 70
     0
 43
15.0
 10
9144.698523107091
 20
1754.108121899091
 10
10646.06390202162
 20
1754.108121899091
  0
LINE
  5
1F0BA
330
747D
100
AcDbEntity
  8
部品1
100
AcDbLine
 10
9475.462600732575
 20
1639.484477332403
 30
0.0
 11
10375.46260073257
 21
1639.484477332407
 31
0.0
  0
LINE
  5
1F0BB
330
747D
100
AcDbEntity
  8
部品1
100
AcDbLine
 10
9475.462600732575
 20
1479.484477332399
 30
0.0
 11
10375.46260073257
 21
1479.484477332403
 31
0.0
  0
LINE
  5
1F0BC
330
747D
100
AcDbEntity
  8
部品1
100
AcDbLine
 10
4069.49883245368
 20
446.2531472654591
 30
0.0
 11
10965.97352855171
 21
446.2531472654591
 31
0.0
  0
LINE
  5
1F0BD
330
747D
100
AcDbEntity
  8
部品1
100
AcDbLine
 10
10965.97352855171
 20
3405.322646620147
 30
0.0
 11
4069.49883245368
 21
3405.322646620147
 31
0.0
  0
LINE
  5
1F0BE
330
747D
100
AcDbEntity
  8
部品1
100
AcDbLine
 10
10965.97352855171
 20
3705.322646620148
 30
0.0
 11
4069.49883245368
 21
3705.322646620146
 31
0.0
  0
LEADER
  5
1F0BF
330
747D
100
AcDbEntity
  8
寸法
 48
50.0
100
AcDbLeader
  3
INABA_S40G
 73
     0
 75
     1
 40
141.4772727272727
 41
760.7954545454546
 76
     3
 10
7551.019603149518
 20
1991.00271359694
 30
0.0
 10
7336.264817285336
 20
3046.476566542537
 30
0.0
 10
7236.264817285335
 20
3046.476566542537
 30
0.0
340
1F0C0
1001
ACAD
1000
DSTYLE
1002
{
1070
   341
1005
0
1002
}
  0
MTEXT
  5
1F0C0
102
{ACAD_REACTORS
330
1F0BF
102
}
330
747D
100
AcDbEntity
  8
寸法
 62
     7
 48
50.0
100
AcDbMText
 10
7196.264817285335
 20
3157.215202906174
 30
0.0
 40
100.0
 41
1.0
 71
     6
 72
     1
  1
\A1;φ70スリーブ
  7
STYLE2
 73
     1
 44
1.0
1001
ACAD
1000
MTEXTBEGIN
1070
    73
1070
     1
1070
    44
1040
1.0
1070
    74
1070
     0
1000
MTEXTEND
  0
LINE
  5
1F0C1
330
747D
100
AcDbEntity
  8
部品1
100
AcDbLine
 10
4069.498832453684
 20
3705.322646620146
 30
0.0
 11
4069.498832453684
 21
446.2531472654591
 31
0.0
  0
DIMENSION
  5
1F0C2
330
747D
100
AcDbEntity
  8
寸法
 48
50.0
100
AcDbDimension
  2
*D30
 10
5188.299524005463
 20
2578.692881794567
 30
0.0
 11
5308.299524005463
 21
2578.692881794567
 31
0.0
 70
   160
  1
120\P(195)
 71
     5
 42
240.0
  3
INABA_S40G
100
AcDbAlignedDimension
 13
5428.299524005463
 23
2054.108121899092
 33
0.0
 14
5188.299524005463
 24
2054.108121899092
 34
0.0
100
AcDbRotatedDimension
1001
ACAD
1000
DSTYLE
1002
{
1070
   341
1005
0
1002
}
  0
LEADER
  5
1F0C3
330
747D
100
AcDbEntity
  8
寸法
 48
50.0
100
AcDbLeader
  3
INABA_S40G
 73
     0
 74
     0
 75
     1
 40
127.8409090909091
 41
1133.522727272727
 76
     3
 10
7640.098665476957
 20
2390.512232454442
 30
0.0
 10
7739.938153438008
 20
2825.806883712712
 30
0.0
 10
7839.938153438009
 20
2825.806883712712
 30
0.0
340
1F0C4
1001
ACAD
1000
DSTYLE
1002
{
1070
   341
1005
0
1002
}
  0
MTEXT
  5
1F0C4
102
{ACAD_REACTORS
330
1F0C3
102
}
330
747D
100
AcDbEntity
  8
部品1
 62
     7
 48
50.0
100
AcDbMText
 10
7879.938153438009
 20
2929.727338258167
 30
0.0
 40
100.0
 41
1.0
 71
     4
 72
     1
  1
\A1;ワッシャー(市販品)
  7
STYLE2
 73
     1
 44
1.0
1001
ACAD
1000
MTEXTBEGIN
1070
    73
1070
     1
1070
    44
1040
1.0
1070
    74
1070
     0
1000
MTEXTEND
  0
LEADER
  5
1F0C5
330
747D
100
AcDbEntity
  8
寸法
 48
50.0
100
AcDbLeader
  3
INABA_S40G
 73
     0
 74
     0
 75
     1
 40
127.8409090909091
 41
850.0
 76
     3
 10
7610.098665476957
 20
2552.70222328552
 30
0.0
 10
7700.541129368653
 20
3057.018237168697
 30
0.0
 10
7800.541129368653
 20
3057.018237168697
 30
0.0
340
1F0C6
1001
ACAD
1000
DSTYLE
1002
{
1070
   341
1005
0
1002
}
  0
MTEXT
  5
1F0C6
102
{ACAD_REACTORS
330
1F0C5
102
}
330
747D
100
AcDbEntity
  8
部品1
 62
     7
 48
50.0
100
AcDbMText
 10
7840.541129368654
 20
3160.938691714151
 30
0.0
 40
100.0
 41
1.0
 71
     4
 72
     1
  1
\A1;ナット(市販品)
  7
STYLE2
 73
     1
 44
1.0
1001
ACAD
1000
MTEXTBEGIN
1070
    73
1070
     1
1070
    44
1040
1.0
1070
    74
1070
     0
1000
MTEXTEND
  0
MTEXT
  5
1F0C7
102
{ACAD_REACTORS
330
1F0C8
102
}
330
747D
100
AcDbEntity
  8
寸法
 62
     7
 48
50.0
100
AcDbMText
 10
7229.568575045783
 20
2706.35986302178
 30
0.0
 40
100.0
 41
1.0
 71
     6
 72
     1
  1
アンカープレート {\fArial|b0|i0|c0|p32;U}
  7
STYLE2
 73
     1
 44
1.0
1001
ACAD
1000
MTEXTBEGIN
1070
    73
1070
     1
1070
    44
1040
1.0
1070
    74
1070
     0
1000
MTEXTEND
  0
LEADER
  5
1F0C8
330
747D
100
AcDbEntity
  8
寸法
 48
50.0
100
AcDbLeader
  3
INABA_S40G
 73
     0
 75
     1
 40
132.9545454545455
 41
1129.404378023068
 76
     3
 10
7477.598665476957
 20
2141.058121899092
 30
0.0
 10
7369.568575045784
 20
2599.882590294507
 30
0.0
 10
7269.568575045784
 20
2599.882590294507
 30
0.0
340
1F0C7
1001
ACAD
1000
DSTYLE
1002
{
1070
   341
1005
0
1002
}
  0
TEXT
  5
1F0C9
330
747D
100
AcDbEntity
  8
部品1
 48
50.0
100
AcDbText
 10
4670.624646714268
 20
1768.15686225316
 30
0.0
 40
100.0
  1
▽G.L
  7
STYLE2
100
AcDbText
  0
LWPOLYLINE
  5
1F0CA
330
747D
100
AcDbEntity
  8
部品1
 48
50.0
100
AcDbPolyline
 90
        2
 70
     0
 43
10.0
 10
4670.624646714268
 20
1754.108121899093
 10
5188.299524005463
 20
1754.108121899093
  0
DIMENSION
  5
1F0CB
330
747D
100
AcDbEntity
  8
寸法
 48
50.0
100
AcDbDimension
  2
*D31
 10
4850.274131839889
 20
1074.10812189909
 30
0.0
 11
4850.274131839889
 21
1224.10812189909
 31
0.0
 70
   160
  1
150
 71
     5
 42
300.0
  3
INABA_S40G
100
AcDbAlignedDimension
 13
5028.299524005463
 23
1374.10812189909
 33
0.0
 14
4928.299524005468
 24
1074.10812189909
 34
0.0
 50
90.0
100
AcDbRotatedDimension
1001
ACAD
1000
DSTYLE
1002
{
1070
   341
1005
0
1002
}
  0
DIMENSION
  5
1F0CC
330
747D
100
AcDbEntity
  8
寸法
 48
50.0
100
AcDbDimension
  2
*D32
 10
4427.654585969399
 20
1074.10812189909
 30
0.0
 11
4427.654585969399
 21
1564.108121899091
 31
0.0
 70
   160
  1
540
 71
     5
 42
980.0000000000016
  3
INABA_S40G
100
AcDbAlignedDimension
 13
5188.299524005463
 23
2054.108121899092
 33
0.0
 14
4928.299524005468
 24
1074.10812189909
 34
0.0
 50
90.0
100
AcDbRotatedDimension
1001
ACAD
1000
DSTYLE
1002
{
1070
   341
1005
0
1002
}
  0
MTEXT
  5
1F0CD
102
{ACAD_REACTORS
330
1F0CE
102
}
330
747D
100
AcDbEntity
  8
寸法
 62
     7
 48
50.0
100
AcDbMText
 10
5104.381524087182
 20
2319.753396901644
 30
0.0
 40
100.0
 41
1.0
 71
     6
 72
     1
  1
\A1;金コテ押エ
  7
STYLE2
 73
     1
 44
1.0
1001
ACAD
1000
MTEXTBEGIN
1070
    73
1070
     1
1070
    44
1040
1.0
1070
    74
1070
     0
1000
MTEXTEND
  0
LEADER
  5
1F0CE
330
747D
100
AcDbEntity
  8
寸法
 48
50.0
100
AcDbLeader
  3
INABA_S40G
 71
     0
 73
     0
 75
     1
 40
130.1136363636363
 41
651.1363636363636
 76
     3
 10
5288.299524005464
 20
2054.108121899092
 30
0.0
 10
5229.381524087182
 20
2229.696578719826
 30
0.0
 10
5129.381524087182
 20
2229.696578719826
 30
0.0
1001
ACAD
1000
DSTYLE
1002
{
1070
   341
1005
0
1002
}
  0
LEADER
  5
1F0CF
330
747D
100
AcDbEntity
  8
寸法
 48
50.0
100
AcDbLeader
  3
INABA_S40G
 71
     0
 73
     0
 75
     1
 40
100.0
 41
540.3409090909091
 76
     3
 10
5318.299524005464
 20
1751.767140270494
 30
0.0
 10
5189.571728344592
 20
1474.92922959449
 30
0.0
 10
5089.571728344592
 20
1474.92922959449
 30
0.0
213
-12.16522788236671
223
-5.804645826423211
233
0.0
1001
ACAD
1000
DSTYLE
1002
{
1070
   341
1005
0
1002
}
  0
MTEXT
  5
1F0D0
102
{ACAD_REACTORS
330
1F0CF
102
}
330
747D
100
AcDbEntity
  8
寸法
 62
     7
 48
50.0
100
AcDbMText
 10
5076.736956226958
 20
1555.733875420911
 30
0.0
 40
100.0
 41
1.0
 71
     6
 72
     1
  1
\A1;D10@300
  7
STYLE2
 73
     1
 44
1.0
1001
ACAD
1000
MTEXTBEGIN
1070
    73
1070
     1
1070
    44
1040
1.0
1070
    74
1070
     0
1000
MTEXTEND
  0
MTEXT
  5
1F0D1
102
{ACAD_REACTORS
330
1F0D2
102
}
330
747D
100
AcDbEntity
  8
寸法
 62
     7
 48
50.0
100
AcDbMText
 10
4849.784150708265
 20
744.3095642017415
 30
0.0
 40
100.0
 41
1.0
 71
     6
 72
     1
  1
D13
  7
STYLE2
 73
     1
 44
1.0
1001
ACAD
1000
MTEXTBEGIN
1070
    73
1070
     1
1070
    44
1040
1.0
1070
    74
1070
     0
1000
MTEXTEND
  0
LEADER
  5
1F0D2
330
747D
100
AcDbEntity
  8
寸法
 48
50.0
100
AcDbLeader
  3
INABA_S40G
 71
     0
 73
     0
 75
     1
 40
100.0
 41
222.7272727272727
 76
     3
 10
5308.299524005463
 20
1224.10812189909
 30
0.0
 10
4974.784150708265
 20
669.3095642017415
 30
0.0
 10
4874.784150708265
 20
669.3095642017415
 30
0.0
1001
ACAD
1000
DSTYLE
1002
{
1070
   341
1005
0
1002
}
  0
LEADER
  5
1F0D3
330
747D
100
AcDbEntity
  8
寸法
 48
50.0
100
AcDbLeader
  3
INABA_S40G
 71
     0
 73
     0
 75
     1
 40
100.0
 41
225.0
 76
     3
 10
5148.178214445643
 20
1224.10812189909
 30
0.0
 10
4939.630741261471
 20
894.7047548760457
 30
0.0
 10
4839.63074126147
 20
894.7047548760457
 30
0.0
1001
ACAD
1000
DSTYLE
1002
{
1070
   341
1005
0
1002
}
  0
MTEXT
  5
1F0D4
102
{ACAD_REACTORS
330
1F0D3
102
}
330
747D
100
AcDbEntity
  8
寸法
 62
     7
 48
50.0
100
AcDbMText
 10
4814.630741261471
 20
969.7047548760457
 30
0.0
 40
100.0
 41
1.0
 71
     6
 72
     1
  1
D10
  7
STYLE2
 73
     1
 44
1.0
1001
ACAD
1000
MTEXTBEGIN
1070
    73
1070
     1
1070
    44
1040
1.0
1070
    74
1070
     0
1000
MTEXTEND
  0
LINE
  5
1F0D5
330
747D
100
AcDbEntity
  8
部品1
 48
50.0
100
AcDbLine
 10
5428.299524005464
 20
2054.108121899092
 30
0.0
 11
5428.299524005464
 21
1374.10812189909
 31
0.0
  0
LINE
  5
1F0D6
330
747D
100
AcDbEntity
  8
細線
 48
50.0
100
AcDbLine
 10
5188.299524005464
 20
1432.666554101804
 30
0.0
 11
5318.299524005471
 21
1562.666554101804
 31
0.0
  0
LINE
  5
1F0D7
330
747D
100
AcDbEntity
  8
細線
 48
50.0
100
AcDbLine
 10
5188.299524005464
 20
1500.018475009823
 30
0.0
 11
5318.299524005464
 21
1630.018475009823
 31
0.0
  0
LINE
  5
1F0D8
330
747D
100
AcDbEntity
  8
細線
 48
50.0
100
AcDbLine
 10
5188.299524005464
 20
1466.342514555813
 30
0.0
 11
5318.299524005471
 21
1596.342514555817
 31
0.0
  0
LINE
  5
1F0D9
330
747D
100
AcDbEntity
  8
部品1
 48
50.0
100
AcDbLine
 10
5188.299524005464
 20
1374.10812189909
 30
0.0
 11
5188.299524005464
 21
2054.108121899092
 31
0.0
  0
LINE
  5
1F0DA
330
747D
100
AcDbEntity
  8
部品1
 48
50.0
100
AcDbLine
 10
5318.299524005471
 20
1224.10812189909
 30
0.0
 11
5318.299524005457
 21
1879.426158641897
 31
0.0
  0
LINE
  5
1F0DB
330
747D
100
AcDbEntity
  8
部品1
 48
50.0
100
AcDbLine
 10
5338.299524005472
 20
1224.10812189909
 30
0.0
 11
5338.299524005464
 21
1879.426158641897
 31
0.0
  0
LINE
  5
1F0DC
330
747D
100
AcDbEntity
  8
部品1
 48
50.0
100
AcDbLine
 10
5428.299524005464
 20
1374.10812189909
 30
0.0
 11
5588.299524005464
 21
1374.10812189909
 31
0.0
  0
LINE
  5
1F0DD
330
747D
100
AcDbEntity
  8
細線
 48
50.0
100
AcDbLine
 10
5474.880498612894
 20
1214.10812189909
 30
0.0
 11
5588.299524005464
 21
1327.527147291665
 31
0.0
  0
LINE
  5
1F0DE
330
747D
100
AcDbEntity
  8
細線
 48
50.0
100
AcDbLine
 10
5508.5564590669
 20
1214.10812189909
 30
0.0
 11
5588.299524005464
 21
1293.851186837655
 31
0.0
  0
LINE
  5
1F0DF
330
747D
100
AcDbEntity
  8
細線
 48
50.0
100
AcDbLine
 10
5441.204538158874
 20
1214.10812189909
 30
0.0
 11
5588.299524005464
 21
1361.203107745673
 31
0.0
  0
LEADER
  5
1F0E0
330
747D
100
AcDbEntity
  8
寸法
 48
50.0
100
AcDbLeader
  3
INABA_S40G
 71
     0
 73
     0
 74
     0
 75
     1
 40
100.0
 41
225.0
 76
     3
 10
5468.178214445643
 20
1224.10812189909
 30
0.0
 10
5592.45909876382
 20
1104.861785720375
 30
0.0
 10
5692.45909876382
 20
1104.861785720375
 30
0.0
1001
ACAD
1000
DSTYLE
1002
{
1070
   341
1005
0
1002
}
  0
DIMENSION
  5
1F0E1
330
747D
100
AcDbEntity
  8
寸法
 48
50.0
100
AcDbDimension
  2
*D33
 10
5588.299524005464
 20
615.1560154431572
 30
0.0
 11
5308.299524005463
 21
615.1560154431572
 31
0.0
 70
   160
  1
300
 71
     5
 42
560.0000000000009
  3
INABA_S40G
100
AcDbAlignedDimension
 13
5028.299524005463
 23
914.1081218990903
 33
0.0
 14
5588.299524005464
 24
914.1081218990903
 34
0.0
100
AcDbRotatedDimension
1001
ACAD
1000
DSTYLE
1002
{
1070
   341
1005
0
1002
}
  0
LEADER
  5
1F0E2
330
747D
100
AcDbEntity
  8
寸法
 48
50.0
100
AcDbLeader
  3
INABA_S40G
 71
     0
 73
     0
 74
     0
 75
     1
 40
100.0
 41
540.3409090909091
 76
     3
 10
5400.730985271931
 20
1203.182458882184
 30
0.0
 10
5605.472593832028
 20
776.143936388562
 30
0.0
 10
5705.472593832028
 20
776.143936388562
 30
0.0
213
0.0
223
-1.277828345336728
233
0.0
1001
ACAD
1000
DSTYLE
1002
{
1070
   341
1005
0
1002
}
  0
LINE
  5
1F0E3
330
747D
100
AcDbEntity
  8
部品1
 48
50.0
100
AcDbLine
 10
5688.299524005469
 20
1074.10812189909
 30
0.0
 11
4928.299524005468
 21
1074.10812189909
 31
0.0
  0
LINE
  5
1F0E4
330
747D
100
AcDbEntity
  8
部品1
 48
50.0
100
AcDbLine
 10
5688.299524005469
 20
914.1081218990903
 30
0.0
 11
4928.299524005468
 21
914.1081218990903
 31
0.0
  0
LINE
  5
1F0E5
330
747D
100
AcDbEntity
  8
細線
 48
50.0
100
AcDbLine
 10
5481.998185743601
 20
914.1081218990894
 30
0.0
 11
5524.87005653258
 21
1074.108121899089
 31
0.0
  0
LINE
  5
1F0E6
330
747D
100
AcDbEntity
  8
細線
 48
50.0
100
AcDbLine
 10
5284.778073375482
 20
914.1081218990903
 30
0.0
 11
5327.649944164461
 21
1074.10812189909
 31
0.0
  0
LINE
  5
1F0E7
330
747D
100
AcDbEntity
  8
部品1
 48
50.0
100
AcDbLine
 10
4928.299524005468
 20
914.1081218990903
 30
0.0
 11
4928.299524005468
 21
1074.10812189909
 31
0.0
  0
LINE
  5
1F0E8
330
747D
100
AcDbEntity
  8
細線
 48
50.0
100
AcDbLine
 10
4988.947904823287
 20
914.1081218990894
 30
0.0
 11
5031.819775612266
 21
1074.108121899089
 31
0.0
  0
LINE
  5
1F0E9
330
747D
100
AcDbEntity
  8
細線
 48
50.0
100
AcDbLine
 10
5186.168017191418
 20
914.1081218990894
 30
0.0
 11
5229.039887980396
 21
1074.108121899089
 31
0.0
  0
LINE
  5
1F0EA
330
747D
100
AcDbEntity
  8
細線
 48
50.0
100
AcDbLine
 10
5087.55796100736
 20
914.1081218990903
 30
0.0
 11
5130.429831796338
 21
1074.10812189909
 31
0.0
  0
LINE
  5
1F0EB
330
747D
100
AcDbEntity
  8
細線
 48
50.0
100
AcDbLine
 10
5383.38812955954
 20
914.1081218990903
 30
0.0
 11
5426.260000348523
 21
1074.108121899089
 31
0.0
  0
LINE
  5
1F0EC
330
747D
100
AcDbEntity
  8
細線
 48
50.0
100
AcDbLine
 10
5095.596436780294
 20
944.1081218990902
 30
0.0
 11
5103.634912553227
 21
914.1081218990903
 31
0.0
  0
LINE
  5
1F0ED
330
747D
100
AcDbEntity
  8
細線
 48
50.0
100
AcDbLine
 10
4996.986380596229
 20
944.1081218990902
 30
0.0
 11
5005.024856369162
 21
914.1081218990903
 31
0.0
  0
LINE
  5
1F0EE
330
747D
100
AcDbEntity
  8
細線
 48
50.0
100
AcDbLine
 10
5292.816549148423
 20
944.1081218990902
 30
0.0
 11
5300.855024921357
 21
914.1081218990903
 31
0.0
  0
LINE
  5
1F0EF
330
747D
100
AcDbEntity
  8
細線
 48
50.0
100
AcDbLine
 10
5194.206492964358
 20
944.1081218990902
 30
0.0
 11
5202.244968737292
 21
914.1081218990903
 31
0.0
  0
LINE
  5
1F0F0
330
747D
100
AcDbEntity
  8
細線
 48
50.0
100
AcDbLine
 10
5490.036661516539
 20
944.1081218990902
 30
0.0
 11
5498.075137289472
 21
914.1081218990903
 31
0.0
  0
LINE
  5
1F0F1
330
747D
100
AcDbEntity
  8
細線
 48
50.0
100
AcDbLine
 10
5391.426605332481
 20
944.1081218990902
 30
0.0
 11
5399.465081105415
 21
914.1081218990903
 31
0.0
  0
LINE
  5
1F0F2
330
747D
100
AcDbEntity
  8
部品1
 48
50.0
100
AcDbLine
 10
5028.299524005465
 20
1374.10812189909
 30
0.0
 11
5188.299524005464
 21
1374.10812189909
 31
0.0
  0
LINE
  5
1F0F3
330
747D
100
AcDbEntity
  8
細線
 48
50.0
100
AcDbLine
 10
5031.796854526806
 20
1074.10812189909
 30
0.0
 11
5151.796854526807
 21
1194.10812189909
 31
0.0
  0
LINE
  5
1F0F4
330
747D
100
AcDbEntity
  8
細線
 48
50.0
100
AcDbLine
 10
5065.47281498082
 20
1074.10812189909
 30
0.0
 11
5185.472814980819
 21
1194.10812189909
 31
0.0
  0
CIRCLE
  5
1F0F5
330
747D
100
AcDbEntity
  8
部品1
 48
50.0
100
AcDbCircle
 10
5148.299524005464
 20
1224.10812189909
 30
0.0
 40
10.0
  0
LINE
  5
1F0F6
330
747D
100
AcDbEntity
  8
細線
 48
50.0
100
AcDbLine
 10
5099.148775434826
 20
1074.10812189909
 30
0.0
 11
5219.148775434826
 21
1194.10812189909
 31
0.0
  0
LINE
  5
1F0F7
330
747D
100
AcDbEntity
  8
部品1
 48
50.0
100
AcDbLine
 10
5098.299524005464
 20
1214.10812189909
 30
0.0
 11
5518.299524005464
 21
1214.10812189909
 31
0.0
  0
LINE
  5
1F0F8
330
747D
100
AcDbEntity
  8
部品1
 48
50.0
100
AcDbLine
 10
5098.299524005464
 20
1194.10812189909
 30
0.0
 11
5518.299524005464
 21
1194.10812189909
 31
0.0
  0
LINE
  5
1F0F9
330
747D
100
AcDbEntity
  8
部品1
 48
50.0
100
AcDbLine
 10
5028.299524005465
 20
1074.10812189909
 30
0.0
 11
5028.299524005465
 21
1374.10812189909
 31
0.0
  0
LINE
  5
1F0FA
330
747D
100
AcDbEntity
  8
細線
 48
50.0
100
AcDbLine
 10
4928.299524005464
 20
1055.783023106315
 30
0.0
 11
4933.209719428209
 21
1074.10812189909
 31
0.0
  0
LINE
  5
1F0FB
330
747D
100
AcDbEntity
  8
細線
 48
50.0
100
AcDbLine
 10
5023.78129983934
 20
1044.108121899091
 30
0.0
 11
5015.742824066407
 21
1074.10812189909
 31
0.0
  0
LINE
  5
1F0FC
330
747D
100
AcDbEntity
  8
細線
 48
50.0
100
AcDbLine
 10
5122.391356023405
 20
1044.108121899091
 30
0.0
 11
5114.352880250471
 21
1074.10812189909
 31
0.0
  0
LINE
  5
1F0FD
330
747D
100
AcDbEntity
  8
部品1
 48
50.0
100
AcDbLine
 10
5098.299524005464
 20
1214.10812189909
 30
0.0
 11
5098.299524005464
 21
1194.10812189909
 31
0.0
  0
LINE
  5
1F0FE
330
747D
100
AcDbEntity
  8
細線
 48
50.0
100
AcDbLine
 10
5028.299524005457
 20
1272.666554101804
 30
0.0
 11
5129.741091802751
 21
1374.10812189909
 31
0.0
  0
LINE
  5
1F0FF
330
747D
100
AcDbEntity
  8
細線
 48
50.0
100
AcDbLine
 10
5028.299524005457
 20
1340.018475009823
 30
0.0
 11
5062.389170894732
 21
1374.10812189909
 31
0.0
  0
LINE
  5
1F100
330
747D
100
AcDbEntity
  8
細線
 48
50.0
100
AcDbLine
 10
5028.299524005457
 20
1306.34251455581
 30
0.0
 11
5096.065131348745
 21
1374.10812189909
 31
0.0
  0
LINE
  5
1F101
330
747D
100
AcDbEntity
  8
部品1
 48
50.0
100
AcDbLine
 10
5298.299524005464
 20
1296.767140270494
 30
0.0
 11
5298.299524005464
 21
1224.10812189909
 31
0.0
  0
LINE
  5
1F102
330
747D
100
AcDbEntity
  8
細線
 48
50.0
100
AcDbLine
 10
5205.47281498082
 20
1214.10812189909
 30
0.0
 11
5278.299524005465
 21
1286.934830923739
 31
0.0
  0
LINE
  5
1F103
330
747D
100
AcDbEntity
  8
部品1
 48
50.0
100
AcDbLine
 10
5278.299524005465
 20
1296.767140270494
 30
0.0
 11
5278.299524005465
 21
1224.10812189909
 31
0.0
  0
LINE
  5
1F104
330
747D
100
AcDbEntity
  8
細線
 48
50.0
100
AcDbLine
 10
5239.148775434825
 20
1214.10812189909
 30
0.0
 11
5278.299524005465
 21
1253.25887046973
 31
0.0
  0
LINE
  5
1F105
330
747D
100
AcDbEntity
  8
細線
 48
50.0
100
AcDbLine
 10
5171.796854526807
 20
1214.10812189909
 30
0.0
 11
5318.299524005464
 21
1360.610791377748
 31
0.0
  0
LINE
  5
1F106
330
747D
100
AcDbEntity
  8
細線
 48
50.0
100
AcDbLine
 10
5301.204538158881
 20
1074.10812189909
 30
0.0
 11
5421.204538158882
 21
1194.10812189909
 31
0.0
  0
LINE
  5
1F107
330
747D
100
AcDbEntity
  8
細線
 48
50.0
100
AcDbLine
 10
5334.880498612895
 20
1074.10812189909
 30
0.0
 11
5454.880498612894
 21
1194.10812189909
 31
0.0
  0
CIRCLE
  5
1F108
330
747D
100
AcDbEntity
  8
部品1
 48
50.0
100
AcDbCircle
 10
5308.299524005464
 20
1224.10812189909
 30
0.0
 40
10.0
  0
LINE
  5
1F109
330
747D
100
AcDbEntity
  8
細線
 48
50.0
100
AcDbLine
 10
5221.001412207471
 20
1044.108121899091
 30
0.0
 11
5212.962936434536
 21
1074.10812189909
 31
0.0
  0
ARC
  5
1F10A
330
747D
100
AcDbEntity
  8
部品1
 48
50.0
100
AcDbCircle
 10
5308.299524005464
 20
1224.10812189909
 30
0.0
 40
30.0
100
AcDbArc
 50
180.0
 51
199.4712206345291
  0
LINE
  5
1F10B
330
747D
100
AcDbEntity
  8
細線
 48
50.0
100
AcDbLine
 10
5319.611468391535
 20
1044.108121899091
 30
0.0
 11
5311.572992618601
 21
1074.10812189909
 31
0.0
  0
ARC
  5
1F10C
330
747D
100
AcDbEntity
  8
部品1
 48
50.0
100
AcDbCircle
 10
5308.299524005464
 20
1224.10812189909
 30
0.0
 40
30.0
100
AcDbArc
 50
340.5287793654709
 51
0.0
  0
LINE
  5
1F10D
330
747D
100
AcDbEntity
  8
細線
 48
50.0
100
AcDbLine
 10
5418.221524575592
 20
1044.108121899091
 30
0.0
 11
5410.183048802659
 21
1074.10812189909
 31
0.0
  0
CIRCLE
  5
1F10E
330
747D
100
AcDbEntity
  8
部品1
 48
50.0
100
AcDbCircle
 10
5468.299524005464
 20
1224.10812189909
 30
0.0
 40
10.0
  0
LINE
  5
1F10F
330
747D
100
AcDbEntity
  8
細線
 48
50.0
100
AcDbLine
 10
5516.831580759649
 20
1044.108121899091
 30
0.0
 11
5508.793104986716
 21
1074.10812189909
 31
0.0
  0
LINE
  5
1F110
330
747D
100
AcDbEntity
  8
部品1
 48
50.0
100
AcDbLine
 10
5518.299524005464
 20
1214.10812189909
 30
0.0
 11
5518.299524005464
 21
1194.10812189909
 31
0.0
  0
LINE
  5
1F111
330
747D
100
AcDbEntity
  8
細線
 48
50.0
100
AcDbLine
 10
5368.5564590669
 20
1074.10812189909
 30
0.0
 11
5488.557568873321
 21
1194.109231705515
 31
0.0
  0
LINE
  5
1F112
330
747D
100
AcDbEntity
  8
細線
 48
50.0
100
AcDbLine
 10
5338.299524005472
 20
1313.258870469729
 30
0.0
 11
5428.299524005456
 21
1403.25887046973
 31
0.0
  0
LINE
  5
1F113
330
747D
100
AcDbEntity
  8
細線
 48
50.0
100
AcDbLine
 10
5338.299524005472
 20
1380.610791377752
 30
0.0
 11
5428.299524005456
 21
1470.610791377749
 31
0.0
  0
LINE
  5
1F114
330
747D
100
AcDbEntity
  8
細線
 48
50.0
100
AcDbLine
 10
5338.299524005472
 20
1346.934830923743
 30
0.0
 11
5428.299524005456
 21
1436.934830923736
 31
0.0
  0
LINE
  5
1F115
330
747D
100
AcDbEntity
  8
細線
 48
50.0
100
AcDbLine
 10
5298.299524005464
 20
1273.258870469729
 30
0.0
 11
5318.299524005471
 21
1293.258870469729
 31
0.0
  0
LINE
  5
1F116
330
747D
100
AcDbEntity
  8
細線
 48
50.0
100
AcDbLine
 10
5288.13183335222
 20
1296.767140270494
 30
0.0
 11
5318.299524005471
 21
1326.934830923743
 31
0.0
  0
LINE
  5
1F117
330
747D
100
AcDbEntity
  8
部品1
 48
50.0
100
AcDbLine
 10
5298.299524005464
 20
1296.767140270494
 30
0.0
 11
5278.299524005465
 21
1296.767140270494
 31
0.0
  0
LINE
  5
1F118
330
747D
100
AcDbEntity
  8
細線
 48
50.0
100
AcDbLine
 10
5580.608241927656
 20
914.1081218990903
 30
0.0
 11
5623.480112716638
 21
1074.108121899089
 31
0.0
  0
LINE
  5
1F119
330
747D
100
AcDbEntity
  8
部品1
 48
50.0
100
AcDbLine
 10
5688.299524005469
 20
1074.10812189909
 30
0.0
 11
5688.299524005469
 21
914.1081218990903
 31
0.0
  0
MTEXT
  5
1F11A
102
{ACAD_REACTORS
330
1F0E2
102
}
330
747D
100
AcDbEntity
  8
寸法
 62
     7
 48
50.0
100
AcDbMText
 10
5730.472593832028
 20
852.4217647338991
 30
0.0
 40
100.0
 41
1.0
 71
     4
 72
     1
  1
\A1;D10@300
  7
STYLE2
 73
     1
 44
1.0
1001
ACAD
1000
MTEXTBEGIN
1070
    73
1070
     1
1070
    44
1040
1.0
1070
    74
1070
     0
1000
MTEXTEND
  0
LINE
  5
1F11B
330
747D
100
AcDbEntity
  8
細線
 48
50.0
100
AcDbLine
 10
5679.218298111718
 20
914.1081218990894
 30
0.0
 11
5688.299524005464
 21
947.9997183295763
 31
0.0
  0
LINE
  5
1F11C
330
747D
100
AcDbEntity
  8
細線
 48
50.0
100
AcDbLine
 10
5687.256773884654
 20
944.1081218990902
 30
0.0
 11
5688.299524005464
 21
940.2165254686352
 31
0.0
  0
LINE
  5
1F11D
330
747D
100
AcDbEntity
  8
細線
 48
50.0
100
AcDbLine
 10
5588.646717700596
 20
944.1081218990902
 30
0.0
 11
5596.685193473529
 21
914.1081218990903
 31
0.0
  0
LINE
  5
1F11E
330
747D
100
AcDbEntity
  8
部品1
 48
50.0
100
AcDbLine
 10
5588.299524005464
 20
1374.10812189909
 30
0.0
 11
5588.299524005464
 21
1074.10812189909
 31
0.0
  0
MTEXT
  5
1F11F
102
{ACAD_REACTORS
330
1F0E0
102
}
330
747D
100
AcDbEntity
  8
寸法
 62
     7
 48
50.0
100
AcDbMText
 10
5717.45909876382
 20
1179.861785720374
 30
0.0
 40
100.0
 41
1.0
 71
     4
 72
     1
  1
D10
  7
STYLE2
 73
     1
 44
1.0
1001
ACAD
1000
MTEXTBEGIN
1070
    73
1070
     1
1070
    44
1040
1.0
1070
    74
1070
     0
1000
MTEXTEND
  0
LINE
  5
1F120
330
747D
100
AcDbEntity
  8
細線
 48
50.0
100
AcDbLine
 10
5570.612221790955
 20
1074.10812189909
 30
0.0
 11
5588.299524005464
 21
1091.795424113599
 31
0.0
  0
LINE
  5
1F121
330
747D
100
AcDbEntity
  8
細線
 48
50.0
100
AcDbLine
 10
5615.441636943709
 20
1044.108121899091
 30
0.0
 11
5607.403161170775
 21
1074.10812189909
 31
0.0
  0
MTEXT
  5
1F122
102
{ACAD_REACTORS
330
1F124
102
}
330
747D
100
AcDbEntity
  8
寸法
 62
     7
 48
50.0
100
AcDbMText
 10
5531.906945289708
 20
1880.69257352275
 30
0.0
 40
100.0
 41
1.0
 71
     4
 72
     1
  1
D13
  7
STYLE2
 73
     1
 44
1.0
1001
ACAD
1000
MTEXTBEGIN
1070
    73
1070
     1
1070
    44
1040
1.0
1070
    74
1070
     0
1000
MTEXTEND
  0
LWPOLYLINE
  5
1F123
330
747D
100
AcDbEntity
  8
部品1
 48
50.0
100
AcDbPolyline
 90
        2
 70
     0
 43
10.0
 10
5428.299524005463
 20
1754.108121899093
 10
5945.974401296661
 20
1754.108121899093
  0
LEADER
  5
1F124
330
747D
100
AcDbEntity
  8
寸法
 48
50.0
100
AcDbLeader
  3
INABA_S40G
 71
     0
 73
     0
 74
     0
 75
     1
 40
100.0
 41
222.7272727272727
 76
     3
 10
5308.299524005463
 20
1879.426158641897
 30
0.0
 10
5406.906945289708
 20
1805.69257352275
 30
0.0
 10
5506.906945289707
 20
1805.69257352275
 30
0.0
1001
ACAD
1000
DSTYLE
1002
{
1070
   341
1005
0
1002
}
  0
LINE
  5
1F125
330
747D
100
AcDbEntity
  8
部品1
 48
50.0
100
AcDbLine
 10
5298.299524005464
 20
1806.767140270494
 30
0.0
 11
5298.299524005464
 21
1879.426158641897
 31
0.0
  0
LINE
  5
1F126
330
747D
100
AcDbEntity
  8
部品1
 48
50.0
100
AcDbLine
 10
5278.299524005465
 20
1806.767140270499
 30
0.0
 11
5278.299524005465
 21
1879.426158641897
 31
0.0
  0
LINE
  5
1F127
330
747D
100
AcDbEntity
  8
細線
 48
50.0
100
AcDbLine
 10
5298.299524005464
 20
1812.074237733879
 30
0.0
 11
5318.299524005464
 21
1832.07423773388
 31
0.0
  0
LINE
  5
1F128
330
747D
100
AcDbEntity
  8
細線
 48
50.0
100
AcDbLine
 10
5188.299524005464
 20
1769.426158641897
 30
0.0
 11
5278.299524005465
 21
1859.426158641898
 31
0.0
  0
LINE
  5
1F129
330
747D
100
AcDbEntity
  8
細線
 48
50.0
100
AcDbLine
 10
5188.299524005464
 20
1735.750198187888
 30
0.0
 11
5278.299524005465
 21
1825.750198187888
 31
0.0
  0
LINE
  5
1F12A
330
747D
100
AcDbEntity
  8
細線
 48
50.0
100
AcDbLine
 10
5338.299524005472
 20
1616.342514555817
 30
0.0
 11
5428.299524005456
 21
1706.34251455581
 31
0.0
  0
LINE
  5
1F12B
330
747D
100
AcDbEntity
  8
細線
 48
50.0
100
AcDbLine
 10
5338.299524005464
 20
1650.018475009822
 30
0.0
 11
5428.299524005464
 21
1740.018475009823
 31
0.0
  0
LINE
  5
1F12C
330
747D
100
AcDbEntity
  8
細線
 48
50.0
100
AcDbLine
 10
5338.299524005472
 20
1582.666554101805
 30
0.0
 11
5428.299524005456
 21
1672.666554101805
 31
0.0
  0
LINE
  5
1F12D
330
747D
100
AcDbEntity
  8
部品1
 48
50.0
100
AcDbLine
 10
5298.299524005464
 20
1806.767140270494
 30
0.0
 11
5278.299524005465
 21
1806.767140270499
 31
0.0
  0
LINE
  5
1F12E
330
747D
100
AcDbEntity
  8
細線
 48
50.0
100
AcDbLine
 10
5188.299524005464
 20
1702.07423773388
 30
0.0
 11
5292.992426542083
 21
1806.767140270494
 31
0.0
  0
LINE
  5
1F12F
330
747D
100
AcDbEntity
  8
部品1
 48
50.0
100
AcDbLine
 10
5188.299524005464
 20
2054.108121899092
 30
0.0
 11
5428.299524005464
 21
2054.108121899092
 31
0.0
  0
LINE
  5
1F130
330
747D
100
AcDbEntity
  8
細線
 48
50.0
100
AcDbLine
 10
5323.915052133552
 20
1905.041686769986
 30
0.0
 11
5428.299524005464
 21
2009.426158641898
 31
0.0
  0
LINE
  5
1F131
330
747D
100
AcDbEntity
  8
細線
 48
50.0
100
AcDbLine
 10
5337.740408087948
 20
1885.191082270369
 30
0.0
 11
5428.299524005464
 21
1975.750198187888
 31
0.0
  0
LINE
  5
1F132
330
747D
100
AcDbEntity
  8
細線
 48
50.0
100
AcDbLine
 10
5338.299524005464
 20
1852.074237733878
 30
0.0
 11
5428.299524005464
 21
1942.07423773388
 31
0.0
  0
LINE
  5
1F133
330
747D
100
AcDbEntity
  8
細線
 48
50.0
100
AcDbLine
 10
5298.299524005464
 20
1845.750198187889
 30
0.0
 11
5318.299524005464
 21
1865.750198187889
 31
0.0
  0
CIRCLE
  5
1F134
330
747D
100
AcDbEntity
  8
部品1
 48
50.0
100
AcDbCircle
 10
5308.299524005464
 20
1879.426158641897
 30
0.0
 40
10.0
  0
ARC
  5
1F135
330
747D
100
AcDbEntity
  8
部品1
 48
50.0
100
AcDbCircle
 10
5308.299524005464
 20
1879.426158641897
 30
0.0
 40
30.0
100
AcDbArc
 50
0.0
 51
180.0
  0
LINE
  5
1F136
330
747D
100
AcDbEntity
  8
細線
 48
50.0
100
AcDbLine
 10
5188.299524005464
 20
2038.833842273973
 30
0.0
 11
5203.573803630582
 21
2054.108121899092
 31
0.0
  0
LINE
  5
1F137
330
747D
100
AcDbEntity
  8
細線
 48
50.0
100
AcDbLine
 10
5188.299524005464
 20
1971.481921365954
 30
0.0
 11
5270.925724538602
 21
2054.108121899092
 31
0.0
  0
LINE
  5
1F138
330
747D
100
AcDbEntity
  8
細線
 48
50.0
100
AcDbLine
 10
5188.299524005464
 20
2005.157881819964
 30
0.0
 11
5237.249764084595
 21
2054.108121899092
 31
0.0
  0
LEADER
  5
1F139
330
747D
100
AcDbEntity
  8
寸法
 48
50.0
100
AcDbLeader
  3
INABA_S40G
 73
     0
 74
     0
 75
     1
 40
100.0
 41
543.75
 76
     3
 10
7601.348665476956
 20
2115.558121899091
 30
0.0
 10
7702.029243501105
 20
2294.587279590629
 30
0.0
 10
7802.029243501106
 20
2294.587279590629
 30
0.0
340
1F13A
1001
ACAD
1000
DSTYLE
1002
{
1070
   341
1005
0
1002
}
  0
MTEXT
  5
1F13A
102
{ACAD_REACTORS
330
1F139
102
}
330
747D
100
AcDbEntity
  8
部品1
 62
     7
 48
50.0
100
AcDbMText
 10
7842.029243501105
 20
2384.587279590629
 30
0.0
 40
100.0
 41
1.0
 71
     4
 72
     1
  1
M10X160
  7
STYLE2
 73
     1
 44
1.0
1001
ACAD
1000
MTEXTBEGIN
1070
    73
1070
     1
1070
    44
1040
1.0
1070
    74
1070
     0
1000
MTEXTEND
  0
DIMENSION
  5
1F13B
330
747D
100
AcDbEntity
  8
寸法
 48
50.0
100
AcDbDimension
  2
*D34
 10
8458.184415188013
 20
1649.108121899089
 30
0.0
 11
8358.184415188011
 21
1851.608121899092
 31
0.0
 70
    32
  1
180
 71
     5
 42
405.0000000000022
  3
INABA_S40G
100
AcDbAlignedDimension
 13
7830.848665476956
 23
2054.108121899092
 33
0.0
 14
7830.848665476956
 24
1649.108121899089
 34
0.0
 50
90.0
100
AcDbRotatedDimension
1001
ACAD
1000
DSTYLE
1002
{
1070
   341
1005
0
1002
}
  0
LWPOLYLINE
  5
1F13C
330
747D
100
AcDbEntity
  8
部品1
 48
50.0
100
AcDbPolyline
 90
        2
 70
     0
 43
10.0
 10
7830.848665476956
 20
1754.108121899093
 10
8197.976744726188
 20
1754.108121899093
  0
LINE
  5
1F13D
330
747D
100
AcDbEntity
  8
部品1
 48
50.0
100
AcDbLine
 10
8090.84866547696
 20
1074.10812189909
 30
0.0
 11
7053.34866547696
 21
1074.10812189909
 31
0.0
  0
LINE
  5
1F13E
330
747D
100
AcDbEntity
  8
細線
 48
50.0
100
AcDbLine
 10
8009.526027724266
 20
944.1081218990893
 30
0.0
 11
8017.564503497199
 21
914.1081218990894
 31
0.0
  0
LINE
  5
1F13F
330
747D
100
AcDbEntity
  8
部品1
 48
50.0
100
AcDbLine
 10
8090.84866547696
 20
914.1081218990903
 30
0.0
 11
7053.34866547696
 21
914.1081218990903
 31
0.0
  0
LINE
  5
1F140
330
747D
100
AcDbEntity
  8
細線
 48
50.0
100
AcDbLine
 10
8001.487551951324
 20
914.1081218990894
 30
0.0
 11
8044.359422740306
 21
1074.108121899087
 31
0.0
  0
DIMENSION
  5
1F141
330
747D
100
AcDbEntity
  8
寸法
 48
50.0
100
AcDbDimension
  2
*D35
 10
8803.252747836795
 20
2054.108121899092
 30
0.0
 11
8803.252747836795
 21
1588.09921847761
 31
0.0
 70
   160
  1
20～25
 71
     5
 42
65.94999999999981
  3
INABA_S40G
100
AcDbAlignedDimension
 13
7596.848665476956
 23
2120.058121899091
 33
0.0
 14
7830.848665476956
 24
2054.108121899092
 34
0.0
 50
90.0
100
AcDbRotatedDimension
1001
ACAD
1000
DSTYLE
1002
{
1070
   341
1005
0
1002
}
  0
TEXT
  5
1F142
330
747D
100
AcDbEntity
  8
部品1
 48
50.0
100
AcDbText
 10
7836.290645832493
 20
2498.956472851841
 30
0.0
 40
100.0
  1
基礎ボルト(市販品)
  7
STYLE2
100
AcDbText
  0
LINE
  5
1F143
330
747D
100
AcDbEntity
  8
細線
 48
50.0
100
AcDbLine
 10
7190.521956452311
 20
1074.10812189909
 30
0.0
 11
7830.848665476961
 21
1714.434830923734
 31
0.0
  0
LINE
  5
1F144
330
747D
100
AcDbEntity
  8
細線
 48
50.0
100
AcDbLine
 10
7224.197916906319
 20
1074.10812189909
 30
0.0
 11
7830.848665476956
 21
1680.758870469726
 31
0.0
  0
LINE
  5
1F145
330
747D
100
AcDbEntity
  8
細線
 48
50.0
100
AcDbLine
 10
7313.348665476957
 20
1500.018475009823
 30
0.0
 11
7511.348665476948
 21
1698.018475009816
 31
0.0
  0
LINE
  5
1F146
330
747D
100
AcDbEntity
  8
細線
 48
50.0
100
AcDbLine
 10
7313.348665476957
 20
1432.666554101804
 30
0.0
 11
7529.790233274251
 21
1649.108121899089
 31
0.0
  0
LINE
  5
1F147
330
747D
100
AcDbEntity
  8
細線
 48
50.0
100
AcDbLine
 10
7313.348665476957
 20
1466.342514555813
 30
0.0
 11
7511.348665476948
 21
1664.342514555799
 31
0.0
  0
LINE
  5
1F148
330
747D
100
AcDbEntity
  8
部品1
 48
50.0
100
AcDbLine
 10
7313.348665476957
 20
1374.10812189909
 30
0.0
 11
7313.348665476957
 21
2054.108121899092
 31
0.0
  0
LINE
  5
1F149
330
747D
100
AcDbEntity
  8
部品1
100
AcDbLine
 10
7830.848665476955
 20
1374.10812189909
 30
0.0
 11
7830.848665476956
 21
2054.108121899092
 31
0.0
  0
LINE
  5
1F14A
330
747D
100
AcDbEntity
  8
細線
 48
50.0
100
AcDbLine
 10
7156.845995998299
 20
1074.10812189909
 30
0.0
 11
7830.848665476955
 21
1748.110791377748
 31
0.0
  0
LINE
  5
1F14B
330
747D
100
AcDbEntity
  8
部品1
 48
50.0
100
AcDbLine
 10
7153.348665476958
 20
1374.10812189909
 30
0.0
 11
7313.348665476957
 21
1374.10812189909
 31
0.0
  0
LINE
  5
1F14C
330
747D
100
AcDbEntity
  8
細線
 48
50.0
100
AcDbLine
 10
7153.348665476949
 20
1272.666554101804
 30
0.0
 11
7254.790233274244
 21
1374.10812189909
 31
0.0
  0
LINE
  5
1F14D
330
747D
100
AcDbEntity
  8
細線
 48
50.0
100
AcDbLine
 10
7153.348665476949
 20
1306.34251455581
 30
0.0
 11
7221.114272820237
 21
1374.10812189909
 31
0.0
  0
LINE
  5
1F14E
330
747D
100
AcDbEntity
  8
細線
 48
50.0
100
AcDbLine
 10
7113.99704629478
 20
914.1081218990894
 30
0.0
 11
7156.868917083759
 21
1074.108121899089
 31
0.0
  0
LINE
  5
1F14F
330
747D
100
AcDbEntity
  8
部品1
 48
50.0
100
AcDbLine
 10
7053.34866547696
 20
914.1081218990903
 30
0.0
 11
7053.34866547696
 21
1074.10812189909
 31
0.0
  0
LINE
  5
1F150
330
747D
100
AcDbEntity
  8
細線
 48
50.0
100
AcDbLine
 10
7122.03552206772
 20
944.1081218990902
 30
0.0
 11
7130.073997840655
 21
914.1081218990903
 31
0.0
  0
LINE
  5
1F151
330
747D
100
AcDbEntity
  8
部品1
 48
50.0
100
AcDbLine
 10
7153.348665476958
 20
1074.10812189909
 30
0.0
 11
7153.348665476958
 21
1374.10812189909
 31
0.0
  0
LINE
  5
1F152
330
747D
100
AcDbEntity
  8
細線
 48
50.0
100
AcDbLine
 10
7148.830441310832
 20
1044.108121899091
 30
0.0
 11
7140.791965537899
 21
1074.10812189909
 31
0.0
  0
LINE
  5
1F153
330
747D
100
AcDbEntity
  8
細線
 48
50.0
100
AcDbLine
 10
7053.348665476957
 20
1055.783023106315
 30
0.0
 11
7058.258860899702
 21
1074.10812189909
 31
0.0
  0
LINE
  5
1F154
330
747D
100
AcDbEntity
  8
細線
 48
50.0
100
AcDbLine
 10
7153.348665476949
 20
1340.018475009823
 30
0.0
 11
7187.438312366224
 21
1374.10812189909
 31
0.0
  0
LINE
  5
1F155
330
747D
100
AcDbEntity
  8
細線
 48
50.0
100
AcDbLine
 10
7311.217158662909
 20
914.1081218990894
 30
0.0
 11
7354.089029451889
 21
1074.108121899089
 31
0.0
  0
LINE
  5
1F156
330
747D
100
AcDbEntity
  8
細線
 48
50.0
100
AcDbLine
 10
7212.607102478853
 20
914.1081218990903
 30
0.0
 11
7255.478973267831
 21
1074.10812189909
 31
0.0
  0
LINE
  5
1F157
330
747D
100
AcDbEntity
  8
細線
 48
50.0
100
AcDbLine
 10
7705.657383399146
 20
914.1081218990903
 30
0.0
 11
7748.529254188131
 21
1074.108121899089
 31
0.0
  0
LINE
  5
1F158
330
747D
100
AcDbEntity
  8
細線
 48
50.0
100
AcDbLine
 10
7508.437271031033
 20
914.1081218990903
 30
0.0
 11
7551.309141820015
 21
1074.108121899089
 31
0.0
  0
LINE
  5
1F159
330
747D
100
AcDbEntity
  8
細線
 48
50.0
100
AcDbLine
 10
7409.827214846974
 20
914.1081218990903
 30
0.0
 11
7452.699085635953
 21
1074.10812189909
 31
0.0
  0
LINE
  5
1F15A
330
747D
100
AcDbEntity
  8
細線
 48
50.0
100
AcDbLine
 10
7607.047327215093
 20
914.1081218990894
 30
0.0
 11
7649.919198004075
 21
1074.108121899089
 31
0.0
  0
LINE
  5
1F15B
330
747D
100
AcDbEntity
  8
細線
 48
50.0
100
AcDbLine
 10
7902.87749576727
 20
914.1081218990875
 30
0.0
 11
7945.749366556249
 21
1074.108121899087
 31
0.0
  0
LINE
  5
1F15C
330
747D
100
AcDbEntity
  8
細線
 48
50.0
100
AcDbLine
 10
7804.26743958321
 20
914.1081218990894
 30
0.0
 11
7847.139310372177
 21
1074.10812189909
 31
0.0
  0
LINE
  5
1F15D
330
747D
100
AcDbEntity
  8
細線
 48
50.0
100
AcDbLine
 10
7319.255634435851
 20
944.1081218990902
 30
0.0
 11
7327.294110208787
 21
914.1081218990903
 31
0.0
  0
LINE
  5
1F15E
330
747D
100
AcDbEntity
  8
細線
 48
50.0
100
AcDbLine
 10
7220.645578251787
 20
944.1081218990902
 30
0.0
 11
7228.68405402472
 21
914.1081218990903
 31
0.0
  0
LINE
  5
1F15F
330
747D
100
AcDbEntity
  8
細線
 48
50.0
100
AcDbLine
 10
7516.475746803974
 20
944.1081218990902
 30
0.0
 11
7524.514222576907
 21
914.1081218990903
 31
0.0
  0
LINE
  5
1F160
330
747D
100
AcDbEntity
  8
細線
 48
50.0
100
AcDbLine
 10
7417.865690619916
 20
944.1081218990902
 30
0.0
 11
7425.90416639285
 21
914.1081218990903
 31
0.0
  0
LINE
  5
1F161
330
747D
100
AcDbEntity
  8
細線
 48
50.0
100
AcDbLine
 10
7713.695859172088
 20
944.1081218990902
 30
0.0
 11
7721.734334945022
 21
914.1081218990903
 31
0.0
  0
LINE
  5
1F162
330
747D
100
AcDbEntity
  8
細線
 48
50.0
100
AcDbLine
 10
7615.08580298803
 20
944.1081218990902
 30
0.0
 11
7623.124278760965
 21
914.1081218990903
 31
0.0
  0
LINE
  5
1F163
330
747D
100
AcDbEntity
  8
細線
 48
50.0
100
AcDbLine
 10
7910.915971540207
 20
944.1081218990893
 30
0.0
 11
7918.95444731314
 21
914.1081218990894
 31
0.0
  0
LINE
  5
1F164
330
747D
100
AcDbEntity
  8
細線
 48
50.0
100
AcDbLine
 10
7812.305915356147
 20
944.1081218990902
 30
0.0
 11
7820.344391129094
 21
914.1081218990903
 31
0.0
  0
LINE
  5
1F165
330
747D
100
AcDbEntity
  8
細線
 48
50.0
100
AcDbLine
 10
7493.605600538393
 20
1074.10812189909
 30
0.0
 11
7830.848665476956
 21
1411.351186837662
 31
0.0
  0
LINE
  5
1F166
330
747D
100
AcDbEntity
  8
細線
 48
50.0
100
AcDbLine
 10
7459.929640084386
 20
1074.10812189909
 30
0.0
 11
7830.848665476956
 21
1445.027147291656
 31
0.0
  0
LINE
  5
1F167
330
747D
100
AcDbEntity
  8
細線
 48
50.0
100
AcDbLine
 10
7426.253679630374
 20
1074.10812189909
 30
0.0
 11
7830.848665476955
 21
1478.703107745674
 31
0.0
  0
LINE
  5
1F168
330
747D
100
AcDbEntity
  8
細線
 48
50.0
100
AcDbLine
 10
7346.050553678963
 20
1044.108121899091
 30
0.0
 11
7338.012077906029
 21
1074.10812189909
 31
0.0
  0
LINE
  5
1F169
330
747D
100
AcDbEntity
  8
細線
 48
50.0
100
AcDbLine
 10
7247.440497494898
 20
1044.108121899091
 30
0.0
 11
7239.402021721964
 21
1074.10812189909
 31
0.0
  0
LINE
  5
1F16A
330
747D
100
AcDbEntity
  8
細線
 48
50.0
100
AcDbLine
 10
7543.270666047085
 20
1044.108121899091
 30
0.0
 11
7535.232190274152
 21
1074.10812189909
 31
0.0
  0
LINE
  5
1F16B
330
747D
100
AcDbEntity
  8
細線
 48
50.0
100
AcDbLine
 10
7444.660609863027
 20
1044.108121899091
 30
0.0
 11
7436.622134090097
 21
1074.10812189909
 31
0.0
  0
LINE
  5
1F16C
330
747D
100
AcDbEntity
  8
部品1
 48
50.0
100
AcDbLine
 10
7990.848665476957
 20
1374.10812189909
 30
0.0
 11
7990.848665476957
 21
1074.10812189909
 31
0.0
  0
LINE
  5
1F16D
330
747D
100
AcDbEntity
  8
細線
 48
50.0
100
AcDbLine
 10
7763.013284170468
 20
1074.10812189909
 30
0.0
 11
7990.848665476957
 21
1301.943503205586
 31
0.0
  0
LINE
  5
1F16E
330
747D
100
AcDbEntity
  8
細線
 48
50.0
100
AcDbLine
 10
7729.337323716461
 20
1074.10812189909
 30
0.0
 11
7990.848665476957
 21
1335.619463659584
 31
0.0
  0
LINE
  5
1F16F
330
747D
100
AcDbEntity
  8
細線
 48
50.0
100
AcDbLine
 10
7695.661363262448
 20
1074.10812189909
 30
0.0
 11
7990.848665476957
 21
1369.2954241136
 31
0.0
  0
LINE
  5
1F170
330
747D
100
AcDbEntity
  8
細線
 48
50.0
100
AcDbLine
 10
7740.4907784152
 20
1044.108121899091
 30
0.0
 11
7732.452302642267
 21
1074.10812189909
 31
0.0
  0
LINE
  5
1F171
330
747D
100
AcDbEntity
  8
細線
 48
50.0
100
AcDbLine
 10
7641.880722231142
 20
1044.108121899091
 30
0.0
 11
7633.842246458211
 21
1074.10812189909
 31
0.0
  0
LINE
  5
1F172
330
747D
100
AcDbEntity
  8
細線
 48
50.0
100
AcDbLine
 10
7937.710890783318
 20
1044.108121899089
 30
0.0
 11
7929.672415010386
 21
1074.108121899089
 31
0.0
  0
LINE
  5
1F173
330
747D
100
AcDbEntity
  8
細線
 48
50.0
100
AcDbLine
 10
7839.100834599245
 20
1044.108121899091
 30
0.0
 11
7831.062358826314
 21
1074.10812189909
 31
0.0
  0
LINE
  5
1F174
330
747D
100
AcDbEntity
  8
部品1
 48
50.0
100
AcDbLine
 10
7830.848665476956
 20
1374.10812189909
 30
0.0
 11
7990.848665476957
 21
1374.10812189909
 31
0.0
  0
LWPOLYLINE
  5
1F175
330
747D
100
AcDbEntity
  8
部品1
 48
50.0
100
AcDbPolyline
 90
        2
 70
     0
 43
10.0
 10
6795.673788185762
 20
1754.108121899093
 10
7313.348665476957
 20
1754.108121899093
  0
TEXT
  5
1F176
330
747D
100
AcDbEntity
  8
部品1
 48
50.0
100
AcDbText
 10
6795.67378818576
 20
1768.15686225316
 30
0.0
 40
100.0
  1
▽G.L
  7
STYLE2
100
AcDbText
  0
LINE
  5
1F177
330
747D
100
AcDbEntity
  8
部品1
100
AcDbLine
 10
7578.848665476957
 20
1772.858121899091
 30
0.0
 11
7578.848665476953
 21
2115.558121899091
 31
0.0
  0
LINE
  5
1F178
330
747D
100
AcDbEntity
  8
部品1
100
AcDbLine
 10
7601.348665476956
 20
1772.858121899091
 30
0.0
 11
7601.348665476954
 21
2115.558121899091
 31
0.0
  0
LINE
  5
1F179
330
747D
100
AcDbEntity
  8
部品1
100
AcDbLine
 10
7516.173665476959
 20
2137.683121899093
 30
0.0
 11
7516.173665476952
 21
2069.433121899091
 31
0.0
  0
LINE
  5
1F17A
330
747D
100
AcDbEntity
  8
部品1
100
AcDbLine
 10
7501.223665476956
 20
2122.733121899091
 30
0.0
 11
7501.223665476956
 21
2069.433121899091
 31
0.0
  0
LINE
  5
1F17B
330
747D
100
AcDbEntity
  8
細線
100
AcDbLine
 10
7583.34866547696
 20
2066.058121899092
 30
0.0
 11
7583.348665476957
 21
2120.058121899091
 31
0.0
  0
LINE
  5
1F17C
330
747D
100
AcDbEntity
  8
細線
100
AcDbLine
 10
7596.848665476956
 20
2066.058121899092
 30
0.0
 11
7596.848665476956
 21
2120.058121899091
 31
0.0
  0
LINE
  5
1F17D
330
747D
100
AcDbEntity
  8
部品1
100
AcDbLine
 10
7321.223665476956
 20
2069.433121899091
 30
0.0
 11
7321.223665476956
 21
2147.098001527476
 31
0.0
  0
LINE
  5
1F17E
330
747D
100
AcDbEntity
  8
部品1
100
AcDbLine
 10
7601.348665476956
 20
1772.858121899091
 30
0.0
 11
7646.348665476956
 21
1772.858121899091
 31
0.0
  0
LINE
  5
1F17F
330
747D
100
AcDbEntity
  8
部品1
100
AcDbLine
 10
7601.348665476956
 20
1750.35812189909
 30
0.0
 11
7646.348665476956
 21
1750.35812189909
 31
0.0
  0
LINE
  5
1F180
330
747D
100
AcDbEntity
  8
部品1
100
AcDbLine
 10
7519.548665476951
 20
2066.058121899092
 30
0.0
 11
7771.223665476949
 21
2066.058121899092
 31
0.0
  0
LINE
  5
1F181
330
747D
100
AcDbEntity
  8
部品1
 48
50.0
100
AcDbLine
 10
7313.348665476957
 20
2054.108121899092
 30
0.0
 11
7830.848665476961
 21
2054.108121899092
 31
0.0
  0
LINE
  5
1F182
330
747D
100
AcDbEntity
  8
部品1
100
AcDbLine
 10
7668.848665476956
 20
1649.108121899089
 30
0.0
 11
7511.34866547695
 21
1649.108121899089
 31
0.0
  0
LINE
  5
1F183
330
747D
100
AcDbEntity
  8
細線
 48
50.0
100
AcDbLine
 10
7313.348665476957
 20
1735.750198187888
 30
0.0
 11
7511.348665476955
 21
1933.750198187885
 31
0.0
  0
LINE
  5
1F184
330
747D
100
AcDbEntity
  8
細線
 48
50.0
100
AcDbLine
 10
7313.348665476957
 20
1769.426158641897
 30
0.0
 11
7511.348665476955
 21
1967.426158641895
 31
0.0
  0
LINE
  5
1F185
330
747D
100
AcDbEntity
  8
部品1
100
AcDbLine
 10
7511.34866547695
 20
1649.10812189909
 30
0.0
 11
7511.348665476957
 21
2054.108121899092
 31
0.0
  0
LINE
  5
1F186
330
747D
100
AcDbEntity
  8
細線
 48
50.0
100
AcDbLine
 10
7313.348665476957
 20
1702.07423773388
 30
0.0
 11
7511.348665476953
 21
1900.074237733869
 31
0.0
  0
ARC
  5
1F187
330
747D
100
AcDbEntity
  8
部品1
100
AcDbCircle
 10
7601.348665476956
 20
1772.858121899091
 30
0.0
 40
22.5
100
AcDbArc
 50
180.0
 51
270.0
  0
LINE
  5
1F188
330
747D
100
AcDbEntity
  8
細線
 48
50.0
100
AcDbLine
 10
7313.348665476957
 20
1971.481921365954
 30
0.0
 11
7395.974866010094
 21
2054.108121899092
 31
0.0
  0
LINE
  5
1F189
330
747D
100
AcDbEntity
  8
細線
 48
50.0
100
AcDbLine
 10
7313.348665476957
 20
2005.157881819964
 30
0.0
 11
7362.298905556087
 21
2054.108121899092
 31
0.0
  0
LINE
  5
1F18A
330
747D
100
AcDbEntity
  8
部品1
100
AcDbLine
 10
7324.598665476957
 20
2066.058121899092
 30
0.0
 11
7339.223665476949
 21
2066.058121899092
 31
0.0
  0
LINE
  5
1F18B
330
747D
100
AcDbEntity
  8
細線
 48
50.0
100
AcDbLine
 10
7313.348665476957
 20
2038.833842273973
 30
0.0
 11
7328.622945102075
 21
2054.108121899092
 31
0.0
  0
ARC
  5
1F18C
330
747D
100
AcDbEntity
  8
部品1
100
AcDbCircle
 10
7324.598665476957
 20
2069.433121899091
 30
0.0
 40
3.375
100
AcDbArc
 50
180.0
 51
270.0
  0
ARC
  5
1F18D
330
747D
100
AcDbEntity
  8
部品1
100
AcDbCircle
 10
7497.848665476957
 20
2069.433121899091
 30
0.0
 40
3.375
100
AcDbArc
 50
270.0
 51
0.0
  0
ARC
  5
1F18E
330
747D
100
AcDbEntity
  8
部品1
100
AcDbCircle
 10
7519.548665476951
 20
2069.433121899091
 30
0.0
 40
3.375
100
AcDbArc
 50
180.0
 51
270.0
  0
LINE
  5
1F18F
330
747D
100
AcDbEntity
  8
部品1
100
AcDbLine
 10
7483.223665476957
 20
2066.058121899092
 30
0.0
 11
7497.848665476957
 21
2066.058121899092
 31
0.0
  0
LINE
  5
1F190
330
747D
100
AcDbEntity
  8
細線
 48
50.0
100
AcDbLine
 10
7668.848665476959
 20
1788.166554101788
 30
0.0
 11
7830.848665476956
 21
1950.166554101778
 31
0.0
  0
LINE
  5
1F191
330
747D
100
AcDbEntity
  8
部品1
100
AcDbLine
 10
7668.848665476956
 20
1649.10812189909
 30
0.0
 11
7668.848665476956
 21
2054.108121899092
 31
0.0
  0
LINE
  5
1F192
330
747D
100
AcDbEntity
  8
部品1
100
AcDbLine
 10
7646.348665476956
 20
1750.35812189909
 30
0.0
 11
7646.348665476956
 21
1772.858121899091
 31
0.0
  0
LINE
  5
1F193
330
747D
100
AcDbEntity
  8
細線
 48
50.0
100
AcDbLine
 10
7668.848665476959
 20
1821.842514555806
 30
0.0
 11
7830.848665476956
 21
1983.842514555801
 31
0.0
  0
LINE
  5
1F194
330
747D
100
AcDbEntity
  8
細線
 48
50.0
100
AcDbLine
 10
7668.848665476959
 20
1855.518475009827
 30
0.0
 11
7830.848665476956
 21
2017.518475009826
 31
0.0
  0
LINE
  5
1F195
330
747D
100
AcDbEntity
  8
部品1
 48
50.0
100
AcDbLine
 10
7570.098665476956
 20
2532.702223285519
 30
0.0
 11
7610.098665476957
 21
2532.702223285519
 31
0.0
  0
LINE
  5
1F196
330
747D
100
AcDbEntity
  8
部品1
 48
50.0
100
AcDbLine
 10
7570.098665476956
 20
2492.702223285519
 30
0.0
 11
7610.098665476957
 21
2492.702223285519
 31
0.0
  0
ELLIPSE
  5
1F197
330
747D
100
AcDbEntity
  8
細線
 48
50.0
100
AcDbEllipse
 10
7590.098665476957
 20
2542.702223285521
 30
0.0
 11
18.45838483258558
 21
0.0
 31
0.0
210
0.0
220
0.0
230
1.0
 40
0.2071254069489396
 41
0.0
 42
6.283185307179585
  0
LINE
  5
1F198
330
747D
100
AcDbEntity
  8
部品1
 48
50.0
100
AcDbLine
 10
7570.098665476956
 20
2552.702223285519
 30
0.0
 11
7610.098665476957
 21
2552.702223285519
 31
0.0
  0
ELLIPSE
  5
1F199
330
747D
100
AcDbEntity
  8
部品1
 48
50.0
100
AcDbEllipse
 10
7590.098665476957
 20
2378.512232454431
 30
0.0
 11
50.0
 21
0.0
 31
0.0
210
0.0
220
0.0
230
1.0
 40
0.4
 41
3.141592653589792
 42
6.283185307179585
  0
ELLIPSE
  5
1F19A
330
747D
100
AcDbEntity
  8
部品1
 48
50.0
100
AcDbEllipse
 10
7590.098665476957
 20
2390.512232454431
 30
0.0
 11
50.0
 21
0.0
 31
0.0
210
0.0
220
0.0
230
1.0
 40
0.4
 41
0.0
 42
6.283185307179585
  0
ELLIPSE
  5
1F19B
330
747D
100
AcDbEntity
  8
部品1
 48
50.0
100
AcDbEllipse
 10
7590.098665476957
 20
2390.512232454431
 30
0.0
 11
23.0
 21
0.0
 31
0.0
210
0.0
220
0.0
230
1.0
 40
0.3478260869565217
 41
0.0
 42
6.283185307179585
  0
LINE
  5
1F19C
330
747D
100
AcDbEntity
  8
部品1
100
AcDbLine
 10
7392.098665476956
 20
2193.608121899091
 30
0.0
 11
7444.973665476957
 21
2193.608121899087
 31
0.0
  0
LINE
  5
1F19D
330
747D
100
AcDbEntity
  8
部品1
100
AcDbLine
 10
7338.098665476957
 20
2166.608121899092
 30
0.0
 11
7385.348665476957
 21
2166.608121899092
 31
0.0
  0
LINE
  5
1F19E
330
747D
100
AcDbEntity
  8
部品1
100
AcDbLine
 10
7323.780107742457
 20
2150.372232465467
 30
0.0
 11
7334.723665476957
 21
2153.108121899092
 31
0.0
  0
ARC
  5
1F19F
330
747D
100
AcDbEntity
  8
部品1
100
AcDbCircle
 10
7324.598665476957
 20
2147.098001527476
 30
0.0
 40
3.375
100
AcDbArc
 50
104.0362434679067
 51
180.0
  0
ARC
  5
1F1A0
330
747D
100
AcDbEntity
  8
部品1
100
AcDbCircle
 10
7338.098665476957
 20
2163.233121899092
 30
0.0
 40
3.375
100
AcDbArc
 50
90.0
 51
180.0
  0
LINE
  5
1F1A1
330
747D
100
AcDbEntity
  8
部品1
100
AcDbLine
 10
7334.723665476957
 20
2153.108121899092
 30
0.0
 11
7334.723665476957
 21
2163.233121899092
 31
0.0
  0
ARC
  5
1F1A2
330
747D
100
AcDbEntity
  8
部品1
100
AcDbCircle
 10
7388.723665476956
 20
2176.733121899092
 30
0.0
 40
3.375
100
AcDbArc
 50
90.0
 51
180.0
  0
LINE
  5
1F1A3
330
747D
100
AcDbEntity
  8
部品1
100
AcDbLine
 10
7385.348665476957
 20
2166.608121899092
 30
0.0
 11
7385.348665476957
 21
2176.733121899092
 31
0.0
  0
LINE
  5
1F1A4
330
747D
100
AcDbEntity
  8
部品1
100
AcDbLine
 10
7388.723665476956
 20
2180.108121899092
 30
0.0
 11
7388.723665476956
 21
2190.233121899092
 31
0.0
  0
LINE
  5
1F1A5
330
747D
100
AcDbEntity
  8
部品1
100
AcDbLine
 10
7388.723665476956
 20
2180.108121899092
 30
0.0
 11
7388.723665476956
 21
2180.108121899092
 31
0.0
  0
ARC
  5
1F1A6
330
747D
100
AcDbEntity
  8
部品1
100
AcDbCircle
 10
7392.098665476956
 20
2190.233121899092
 30
0.0
 40
3.375
100
AcDbArc
 50
90.0
 51
180.0
  0
LINE
  5
1F1A7
330
747D
100
AcDbEntity
  8
部品1
100
AcDbLine
 10
7474.223665476957
 20
2137.683121899093
 30
0.0
 11
7474.223665476957
 21
2116.308121899091
 31
0.0
  0
ARC
  5
1F1A8
330
747D
100
AcDbEntity
  8
部品1
100
AcDbCircle
 10
7497.848665476957
 20
2122.733121899091
 30
0.0
 40
3.375
100
AcDbArc
 50
0.0
 51
90.0
  0
LINE
  5
1F1A9
330
747D
100
AcDbEntity
  8
部品1
100
AcDbLine
 10
7583.348665476957
 20
2120.058121899091
 30
0.0
 11
7596.848665476956
 21
2120.058121899091
 31
0.0
  0
LINE
  5
1F1AA
330
747D
100
AcDbEntity
  8
部品1
100
AcDbLine
 10
7578.848665476957
 20
2115.558121899091
 30
0.0
 11
7601.348665476956
 21
2115.558121899091
 31
0.0
  0
ARC
  5
1F1AB
330
747D
100
AcDbEntity
  8
部品1
100
AcDbCircle
 10
7512.79866547696
 20
2137.683121899093
 30
0.0
 40
3.375
100
AcDbArc
 50
0.0
 51
90.0
  0
ARC
  5
1F1AC
330
747D
100
AcDbEntity
  8
部品1
100
AcDbCircle
 10
7477.598665476957
 20
2137.683121899093
 30
0.0
 40
3.375
100
AcDbArc
 50
90.0
 51
180.0
  0
LINE
  5
1F1AD
330
747D
100
AcDbEntity
  8
部品1
100
AcDbLine
 10
7477.598665476957
 20
2141.058121899092
 30
0.0
 11
7512.79866547696
 21
2141.058121899092
 31
0.0
  0
LINE
  5
1F1AE
330
747D
100
AcDbEntity
  8
部品1
 48
50.0
100
AcDbLine
 10
7540.098665476957
 20
2390.512232454431
 30
0.0
 11
7540.098665476957
 21
2378.512232454431
 31
0.0
  0
LINE
  5
1F1AF
330
747D
100
AcDbEntity
  8
部品1
100
AcDbLine
 10
7448.348665476956
 20
2190.233121899088
 30
0.0
 11
7448.348665476956
 21
2126.108121899092
 31
0.0
  0
ARC
  5
1F1B0
330
747D
100
AcDbEntity
  8
部品1
100
AcDbCircle
 10
7444.973665476957
 20
2190.233121899088
 30
0.0
 40
3.375
100
AcDbArc
 50
0.0
 51
90.0
  0
LINE
  5
1F1B1
330
747D
100
AcDbEntity
  8
部品1
100
AcDbLine
 10
7448.348665476956
 20
2126.108121899092
 30
0.0
 11
7497.848665476957
 21
2126.108121899092
 31
0.0
  0
LINE
  5
1F1B2
330
747D
100
AcDbEntity
  8
部品1
 48
50.0
100
AcDbLine
 10
7550.098665476956
 20
2542.702223285521
 30
0.0
 11
7570.098665476956
 21
2552.702223285519
 31
0.0
  0
LINE
  5
1F1B3
330
747D
100
AcDbEntity
  8
部品1
 48
50.0
100
AcDbLine
 10
7550.098665476956
 20
2502.702223285519
 30
0.0
 11
7570.098665476956
 21
2492.702223285519
 31
0.0
  0
LINE
  5
1F1B4
330
747D
100
AcDbEntity
  8
部品1
 48
50.0
100
AcDbLine
 10
7550.098665476956
 20
2542.702223285521
 30
0.0
 11
7570.098665476956
 21
2532.702223285519
 31
0.0
  0
LINE
  5
1F1B5
330
747D
100
AcDbEntity
  8
部品1
 48
50.0
100
AcDbLine
 10
7550.098665476956
 20
2502.702223285519
 30
0.0
 11
7550.098665476956
 21
2542.702223285521
 31
0.0
  0
LINE
  5
1F1B6
330
747D
100
AcDbEntity
  8
細線
 48
50.0
100
AcDbLine
 10
7570.098665476956
 20
2492.702223285519
 30
0.0
 11
7570.098665476956
 21
2532.702223285519
 31
0.0
  0
LINE
  5
1F1B7
330
747D
100
AcDbEntity
  8
部品1
 48
50.0
100
AcDbLine
 10
7640.098665476957
 20
2378.512232454431
 30
0.0
 11
7640.098665476957
 21
2390.512232454431
 31
0.0
  0
LINE
  5
1F1B8
330
747D
100
AcDbEntity
  8
部品1
 48
50.0
100
AcDbLine
 10
7610.098665476957
 20
2552.702223285519
 30
0.0
 11
7630.098665476957
 21
2542.702223285521
 31
0.0
  0
LINE
  5
1F1B9
330
747D
100
AcDbEntity
  8
部品1
 48
50.0
100
AcDbLine
 10
7630.098665476957
 20
2502.702223285519
 30
0.0
 11
7630.098665476957
 21
2542.702223285521
 31
0.0
  0
LINE
  5
1F1BA
330
747D
100
AcDbEntity
  8
細線
 48
50.0
100
AcDbLine
 10
7610.098665476957
 20
2492.702223285519
 30
0.0
 11
7610.098665476957
 21
2532.702223285519
 31
0.0
  0
LINE
  5
1F1BB
330
747D
100
AcDbEntity
  8
部品1
 48
50.0
100
AcDbLine
 10
7610.098665476957
 20
2532.702223285519
 30
0.0
 11
7630.098665476957
 21
2542.702223285521
 31
0.0
  0
LINE
  5
1F1BC
330
747D
100
AcDbEntity
  8
部品1
 48
50.0
100
AcDbLine
 10
7610.098665476957
 20
2492.702223285519
 30
0.0
 11
7630.098665476957
 21
2502.702223285519
 31
0.0
  0
LINE
  5
1F1BD
330
747D
100
AcDbEntity
  8
細線
 48
50.0
100
AcDbLine
 10
9595.831093918524
 20
1479.484477332401
 30
0.0
 11
9638.702964707505
 21
1639.484477332401
 31
0.0
  0
TEXT
  5
1F1BE
330
747D
100
AcDbEntity
  8
部品1
 48
50.0
100
AcDbText
 10
9000.120972407273
 20
1420.608446102455
 30
0.0
 40
100.0
  1
ボルトの出
 50
90.0
  7
STYLE2
100
AcDbText
  0
LINE
  5
1F1BF
330
747D
100
AcDbEntity
  8
部品1
100
AcDbLine
 10
9475.462600732575
 20
1479.484477332399
 30
0.0
 11
9475.462600732575
 21
1754.108121899091
 31
0.0
  0
LINE
  5
1F1C0
330
747D
100
AcDbEntity
  8
細線
 48
50.0
100
AcDbLine
 10
9497.221037734462
 20
1479.484477332403
 30
0.0
 11
9540.092908523442
 21
1639.484477332403
 31
0.0
  0
LINE
  5
1F1C1
330
747D
100
AcDbEntity
  8
部品1
 48
50.0
100
AcDbLine
 10
8090.84866547696
 20
1074.10812189909
 30
0.0
 11
8090.84866547696
 21
914.1081218990903
 31
0.0
  0
LINE
  5
1F1C2
330
747D
100
AcDbEntity
  8
細線
 48
50.0
100
AcDbLine
 10
8036.320946967377
 20
1044.108121899089
 30
0.0
 11
8028.282471194446
 21
1074.108121899089
 31
0.0
  0
LINE
  5
1F1C3
330
747D
100
AcDbEntity
  8
細線
 48
50.0
100
AcDbLine
 10
9603.869569691461
 20
1509.484477332403
 30
0.0
 11
9611.908045464392
 21
1479.484477332403
 31
0.0
  0
LINE
  5
1F1C4
330
747D
100
AcDbEntity
  8
細線
 48
50.0
100
AcDbLine
 10
9505.259513507402
 20
1509.484477332403
 30
0.0
 11
9513.297989280331
 21
1479.484477332403
 31
0.0
  0
LINE
  5
1F1C5
330
747D
100
AcDbEntity
  8
部品1
100
AcDbLine
 10
9625.462600732575
 20
1754.108121899091
 30
0.0
 11
9625.462600732575
 21
2054.108121899092
 31
0.0
  0
LINE
  5
1F1C6
330
747D
100
AcDbEntity
  8
細線
 48
50.0
100
AcDbLine
 10
9532.054432750511
 20
1609.484477332403
 30
0.0
 11
9524.015956977574
 21
1639.484477332403
 31
0.0
  0
LINE
  5
1F1C7
330
747D
100
AcDbEntity
  8
細線
 48
50.0
100
AcDbLine
 10
9630.664488934574
 20
1609.484477332403
 30
0.0
 11
9622.626013161642
 21
1639.484477332403
 31
0.0
  0
TEXT
  5
1F1C8
330
747D
100
AcDbEntity
  8
部品1
100
AcDbText
 10
7075.427940970328
 20
3480.882731680862
 30
0.0
 40
150.0
  1
基礎詳細
  7
STYLE2
100
AcDbText
  0
LINE
  5
1F1C9
330
747D
100
AcDbEntity
  8
部品1
100
AcDbLine
 10
10965.97352855171
 20
446.253143872058
 30
0.0
 11
10965.97352855171
 21
3705.322646620148
 31
0.0
  0
LINE
  5
1F1CA
330
747D
100
AcDbEntity
  8
部品1
100
AcDbLine
 10
10375.46260073257
 20
1754.108121899091
 30
0.0
 11
10375.46260073257
 21
1479.484477332403
 31
0.0
  0
LINE
  5
1F1CB
330
747D
100
AcDbEntity
  8
細線
 48
50.0
100
AcDbLine
 10
10187.49143102288
 20
1479.484477332399
 30
0.0
 11
10230.36330181186
 21
1639.484477332399
 31
0.0
  0
LINE
  5
1F1CC
330
747D
100
AcDbEntity
  8
細線
 48
50.0
100
AcDbLine
 10
10286.10148720693
 20
1479.484477332401
 30
0.0
 11
10328.97335799592
 21
1639.484477332399
 31
0.0
  0
LINE
  5
1F1CD
330
747D
100
AcDbEntity
  8
細線
 48
50.0
100
AcDbLine
 10
9990.271318654762
 20
1479.484477332403
 30
0.0
 11
10033.14318944374
 21
1639.484477332401
 31
0.0
  0
LINE
  5
1F1CE
330
747D
100
AcDbEntity
  8
細線
 48
50.0
100
AcDbLine
 10
10088.88137483882
 20
1479.484477332401
 30
0.0
 11
10131.75324562779
 21
1639.484477332403
 31
0.0
  0
LINE
  5
1F1CF
330
747D
100
AcDbEntity
  8
細線
 48
50.0
100
AcDbLine
 10
9793.051206286643
 20
1479.484477332403
 30
0.0
 11
9835.923077075625
 21
1639.484477332401
 31
0.0
  0
LINE
  5
1F1D0
330
747D
100
AcDbEntity
  8
細線
 48
50.0
100
AcDbLine
 10
9694.441150102591
 20
1479.484477332403
 30
0.0
 11
9737.313020891562
 21
1639.484477332403
 31
0.0
  0
LINE
  5
1F1D1
330
747D
100
AcDbEntity
  8
細線
 48
50.0
100
AcDbLine
 10
9891.661262470703
 20
1479.484477332401
 30
0.0
 11
9934.533133259682
 21
1639.484477332401
 31
0.0
  0
LINE
  5
1F1D2
330
747D
100
AcDbEntity
  8
細線
 48
50.0
100
AcDbLine
 10
9801.089682059583
 20
1509.484477332403
 30
0.0
 11
9809.128157832525
 21
1479.484477332403
 31
0.0
  0
LINE
  5
1F1D3
330
747D
100
AcDbEntity
  8
細線
 48
50.0
100
AcDbLine
 10
9702.479625875533
 20
1509.484477332403
 30
0.0
 11
9710.518101648462
 21
1479.484477332403
 31
0.0
  0
LINE
  5
1F1D4
330
747D
100
AcDbEntity
  8
細線
 48
50.0
100
AcDbLine
 10
9998.309794427704
 20
1509.484477332403
 30
0.0
 11
10006.34827020063
 21
1479.484477332403
 31
0.0
  0
LINE
  5
1F1D5
330
747D
100
AcDbEntity
  8
細線
 48
50.0
100
AcDbLine
 10
9899.699738243642
 20
1509.484477332403
 30
0.0
 11
9907.738214016575
 21
1479.484477332403
 31
0.0
  0
LINE
  5
1F1D6
330
747D
100
AcDbEntity
  8
細線
 48
50.0
100
AcDbLine
 10
10195.52990679582
 20
1509.484477332401
 30
0.0
 11
10203.56838256875
 21
1479.484477332401
 31
0.0
  0
LINE
  5
1F1D7
330
747D
100
AcDbEntity
  8
細線
 48
50.0
100
AcDbLine
 10
10096.91985061176
 20
1509.484477332403
 30
0.0
 11
10104.9583263847
 21
1479.484477332403
 31
0.0
  0
LINE
  5
1F1D8
330
747D
100
AcDbEntity
  8
細線
 48
50.0
100
AcDbLine
 10
10294.13996297988
 20
1509.484477332401
 30
0.0
 11
10302.17843875281
 21
1479.484477332401
 31
0.0
  0
MTEXT
  5
1F1D9
102
{ACAD_REACTORS
330
1F1DA
102
}
330
747D
100
AcDbEntity
  8
寸法
 62
     7
 48
50.0
100
AcDbMText
 10
10367.79087354453
 20
2375.541022750514
 30
0.0
 40
150.0
 41
1.0
 71
     4
 72
     1
  1
\A1;C.B
  7
STYLE1
 73
     1
 44
1.0
1001
ACAD
1000
MTEXTBEGIN
1070
    73
1070
     1
1070
    44
1040
1.0
1070
    74
1070
     0
1000
MTEXTEND
  0
LEADER
  5
1F1DA
330
747D
100
AcDbEntity
  8
寸法
 48
50.0
100
AcDbLeader
  3
INABA_S40G
 73
     0
 74
     0
 75
     1
 40
150.0
 41
231.9898538650463
 76
     3
 10
10138.86811525247
 20
2054.108121899092
 30
0.0
 10
10227.79087354453
 20
2260.541022750514
 30
0.0
 10
10327.79087354453
 20
2260.541022750514
 30
0.0
340
1F1D9
1001
ACAD
1000
DSTYLE
1002
{
1070
   341
1005
0
1002
}
  0
LINE
  5
1F1DB
330
747D
100
AcDbEntity
  8
細線
100
AcDbLine
 10
10208.16552279809
 20
1754.108121899093
 30
0.0
 11
9908.165522798103
 21
2054.108121899092
 31
0.0
  0
LINE
  5
1F1DC
330
747D
100
AcDbEntity
  8
細線
100
AcDbLine
 10
10144.52591249131
 20
1754.108121899091
 30
0.0
 11
9844.525912491313
 21
2054.108121899092
 31
0.0
  0
LINE
  5
1F1DD
330
747D
100
AcDbEntity
  8
細線
 48
50.0
100
AcDbLine
 10
9729.274545118641
 20
1609.484477332403
 30
0.0
 11
9721.236069345703
 21
1639.484477332403
 31
0.0
  0
LINE
  5
1F1DE
330
747D
100
AcDbEntity
  8
細線
 48
50.0
100
AcDbLine
 10
9827.884601302692
 20
1609.484477332403
 30
0.0
 11
9819.846125529764
 21
1639.484477332403
 31
0.0
  0
LINE
  5
1F1DF
330
747D
100
AcDbEntity
  8
細線
100
AcDbLine
 10
9701.610907599123
 20
1639.484477332404
 30
0.0
 11
9816.234552165802
 21
1754.108121899091
 31
0.0
  0
LINE
  5
1F1E0
330
747D
100
AcDbEntity
  8
細線
100
AcDbLine
 10
9659.184500727933
 20
1639.484477332404
 30
0.0
 11
9773.808145294612
 21
1754.108121899091
 31
0.0
  0
LINE
  5
1F1E1
330
747D
100
AcDbEntity
  8
細線
 48
50.0
100
AcDbLine
 10
10025.10471367081
 20
1609.484477332403
 30
0.0
 11
10017.06623789788
 21
1639.484477332403
 31
0.0
  0
LINE
  5
1F1E2
330
747D
100
AcDbEntity
  8
細線
 48
50.0
100
AcDbLine
 10
9926.494657486752
 20
1609.484477332403
 30
0.0
 11
9918.456181713821
 21
1639.484477332403
 31
0.0
  0
LINE
  5
1F1E3
330
747D
100
AcDbEntity
  8
部品1
100
AcDbLine
 10
10225.46260073257
 20
2054.108121899092
 30
0.0
 11
10225.46260073257
 21
1754.108121899091
 31
0.0
  0
LINE
  5
1F1E4
330
747D
100
AcDbEntity
  8
細線
 48
50.0
100
AcDbLine
 10
10222.32482603893
 20
1609.484477332401
 30
0.0
 11
10214.28635026599
 21
1639.484477332401
 31
0.0
  0
LINE
  5
1F1E5
330
747D
100
AcDbEntity
  8
細線
 48
50.0
100
AcDbLine
 10
10123.71476985486
 20
1609.484477332403
 30
0.0
 11
10115.67629408192
 21
1639.484477332403
 31
0.0
  0
LINE
  5
1F1E6
330
747D
100
AcDbEntity
  8
細線
100
AcDbLine
 10
10151.61090759912
 20
1639.484477332405
 30
0.0
 11
10266.2345521658
 21
1754.108121899091
 31
0.0
  0
LINE
  5
1F1E7
330
747D
100
AcDbEntity
  8
細線
100
AcDbLine
 10
10066.75809385674
 20
1639.484477332405
 30
0.0
 11
10181.38173842342
 21
1754.108121899091
 31
0.0
  0
LINE
  5
1F1E8
330
747D
100
AcDbEntity
  8
細線
100
AcDbLine
 10
10109.18450072793
 20
1639.484477332405
 30
0.0
 11
10223.80814529461
 21
1754.108121899091
 31
0.0
  0
LINE
  5
1F1E9
330
747D
100
AcDbEntity
  8
細線
 48
50.0
100
AcDbLine
 10
10320.93488222299
 20
1609.484477332401
 30
0.0
 11
10312.89640645005
 21
1639.484477332401
 31
0.0
  0
HATCH
  5
1F28F
330
747D
100
AcDbEntity
  8
細線
 48
50.0
100
AcDbHatch
 10
0.0
 20
0.0
 30
0.0
210
0.0
220
0.0
230
1.0
  2
LINE
 70
     0
 71
     0
 91
        1
 92
        7
 72
     0
 73
     1
 93
        4
 10
8323.599999999998
 20
8174.241890067506
 10
8123.600000000001
 20
8174.241890067508
 10
8123.599999999999
 20
8054.241890067507
 10
8323.6
 20
8054.241890067505
 97
        0
 75
     0
 76
     1
 52
45.0
 41
10.0
 77
     0
 78
     1
 53
45.0
 43
0.0
 44
0.0
 45
-22.45064030267288
 46
22.45064030267288
 79
     0
 47
0.7763643030413859
 98
        1
 10
8197.896294971004
 20
8106.268357685419
  0
HATCH
  5
1F2A8
330
747D
100
AcDbEntity
  8
細線
 48
50.0
100
AcDbHatch
 10
0.0
 20
0.0
 30
0.0
210
0.0
220
0.0
230
1.0
  2
LINE
 70
     0
 71
     0
 91
        1
 92
        7
 72
     0
 73
     1
 93
        4
 10
9963.600000000001
 20
7164.241890067508
 10
9843.6
 20
7164.241890067507
 10
9843.6
 20
6964.241890067508
 10
9963.600000000001
 20
6964.241890067507
 97
        0
 75
     0
 76
     1
 52
45.0
 41
10.0
 77
     0
 78
     1
 53
45.0
 43
0.0
 44
0.0
 45
-22.45064030267288
 46
22.45064030267288
 79
     0
 47
1.078685074459911
 98
        1
 10
9904.330205192835
 20
7087.927614792846
  0
HATCH
  5
1F2CC
330
747D
100
AcDbEntity
  8
細線
 48
50.0
100
AcDbHatch
 10
0.0
 20
0.0
 30
0.0
210
0.0
220
0.0
230
1.0
  2
LINE
 70
     0
 71
     0
 91
        1
 92
        7
 72
     0
 73
     1
 93
        4
 10
8323.600000000022
 20
6074.241890067519
 10
8123.600000000022
 20
6074.241890067518
 10
8123.600000000022
 20
5879.241890067515
 10
8323.600000000025
 20
5879.241890067516
 97
        0
 75
     0
 76
     1
 52
45.0
 41
10.0
 77
     0
 78
     1
 53
45.0
 43
0.0
 44
0.0
 45
-22.45064030267288
 46
22.45064030267288
 79
     0
 47
1.03624940100333
 98
        1
 10
8217.321396999148
 20
6011.853580233765
  0
HATCH
  5
1F2D6
330
747D
100
AcDbEntity
  8
細線
 48
50.0
100
AcDbHatch
 10
0.0
 20
0.0
 30
0.0
210
0.0
220
0.0
230
1.0
  2
LINE
 70
     0
 71
     0
 91
        1
 92
        7
 72
     0
 73
     1
 93
        4
 10
6603.6
 20
7164.241890067508
 10
6483.6
 20
7164.241890067508
 10
6483.6
 20
6964.241890067508
 10
6603.6
 20
6964.241890067507
 97
        0
 75
     0
 76
     1
 52
45.0
 41
10.0
 77
     0
 78
     1
 53
45.0
 43
0.0
 44
0.0
 45
-22.45064030267288
 46
22.45064030267288
 79
     0
 47
1.592317356683574
 98
        1
 10
6566.423902401315
 20
7128.772803969638
  0
TEXT
  5
1F455
330
747D
100
AcDbEntity
  8
部品1
 48
50.0
100
AcDbText
 10
6764.550133172398
 20
2444.065888957144
 30
0.0
 40
100.0
  1
※(別売)
  7
STYLE2
100
AcDbText
  0
ENDSEC
  0
SECTION
  2
OBJECTS
  0
DICTIONARY
  5
7471
330
0
100
AcDbDictionary
281
     1
  3
ACAD_COLOR
350
173D2
  3
ACAD_GROUP
350
7472
  3
ACAD_LAYOUT
350
173D3
  3
ACAD_MATERIAL
350
173D1
  3
ACAD_MLINESTYLE
350
7473
  3
ACAD_PLOTSETTINGS
350
173D4
  3
ACAD_PLOTSTYLENAME
350
173CF
  3
ACDBHEADERROUNDTRIPXREC
350
1F497
  3
AcDbVariableDictionary
350
1F48B
  3
CONTENTDICTIONARY
350
E71C
  3
DRAWINGVARIABLESDICT
350
F3B9
  0
DICTIONARY
  5
1758F
330
7467
100
AcDbDictionary
280
     1
281
     1
  3
ACAD_LAYERSTATES
360
17590
  0
DICTIONARY
  5
173D2
102
{ACAD_REACTORS
330
7471
102
}
330
7471
100
AcDbDictionary
281
     1
  0
DICTIONARY
  5
7472
102
{ACAD_REACTORS
330
7471
102
}
330
7471
100
AcDbDictionary
281
     1
  3
*A1
350
1D2A9
  3
*A2
350
1EEE0
  0
DICTIONARY
  5
173D3
102
{ACAD_REACTORS
330
7471
102
}
330
7471
100
AcDbDictionary
281
     1
  3
Model
350
173D5
  3
レイアウト1
350
173D6
  0
DICTIONARY
  5
173D1
102
{ACAD_REACTORS
330
7471
102
}
330
7471
100
AcDbDictionary
281
     1
  0
DICTIONARY
  5
7473
102
{ACAD_REACTORS
330
7471
102
}
330
7471
100
AcDbDictionary
281
     1
  3
STANDARD
350
7480
  0
DICTIONARY
  5
173D4
102
{ACAD_REACTORS
330
7471
102
}
330
7471
100
AcDbDictionary
281
     1
  0
ACDBDICTIONARYWDFLT
  5
173CF
102
{ACAD_REACTORS
330
7471
102
}
330
7471
100
AcDbDictionary
281
     1
  3
Normal
350
173D0
100
AcDbDictionaryWithDefault
340
173D0
  0
DICTIONARY
  5
1F497
102
{ACAD_REACTORS
330
7471
102
}
330
7471
100
AcDbDictionary
281
     1
  3
COLORDICT
350
1F499
  3
MATERIALDICT
350
1F498
  0
DICTIONARY
  5
1F48B
102
{ACAD_REACTORS
330
7471
102
}
330
7471
100
AcDbDictionary
281
     1
  3
DIMASSOC
350
1F48C
  3
PROJECTNAME
350
1F48D
  0
DICTIONARY
  5
E71C
102
{ACAD_REACTORS
330
7471
102
}
330
7471
100
AcDbDictionary
281
     1
  0
DICTIONARY
  5
F3B9
102
{ACAD_REACTORS
330
7471
102
}
330
7471
100
AcDbDictionary
281
     1
1001
DRAWINGVARIABLESXDATA
1000
POLARMODE
1000
1
  0
DICTIONARY
  5
17590
102
{ACAD_REACTORS
330
1758F
102
}
330
1758F
100
AcDbDictionary
281
     1
  0
GROUP
  5
1D2A9
102
{ACAD_REACTORS
330
7472
102
}
330
7472
100
AcDbGroup
300

 70
     1
 71
     1
  0
GROUP
  5
1EEE0
102
{ACAD_REACTORS
330
7472
102
}
330
7472
100
AcDbGroup
300

 70
     1
 71
     1
340
1EBBB
340
1EBBA
340
1EBBC
340
1EBB9
  0
LAYOUT
  5
173D5
102
{ACAD_XDICTIONARY
360
1F49A
102
}
102
{ACAD_REACTORS
330
173D3
102
}
330
173D3
100
AcDbPlotSettings
  1

  2
クセロPDF
  4
A3
  6

 40
3.174999999999999
 41
3.174999999999999
 42
3.174987999999999
 43
3.174987999999999
 44
419.946655
 45
296.925995
 46
0.0
 47
0.0
 48
0.0
 49
0.0
140
0.0
141
0.0
142
1.0
143
40.88431155294937
 70
 11952
 72
     1
 73
     0
 74
     2
  7
inaba.ctb
 75
     0
147
0.0244592598484849
148
0.0
149
0.0
100
AcDbLayout
  1
Model
 70
     1
 71
     0
 10
0.0
 20
0.0
 11
12.0
 21
9.0
 12
0.0
 22
0.0
 32
0.0
 14
0.0
 24
0.0
 34
0.0
 15
0.0
 25
0.0
 35
0.0
146
0.0
 13
0.0
 23
0.0
 33
0.0
 16
1.0
 26
0.0
 36
0.0
 17
0.0
 27
1.0
 37
0.0
 76
     0
330
747D
  0
LAYOUT
  5
173D6
102
{ACAD_XDICTIONARY
360
1F49C
102
}
102
{ACAD_REACTORS
330
173D3
102
}
330
173D3
100
AcDbPlotSettings
  1

  2
Microsoft Office Document Image Writer
  4

  6

 40
0.0
 41
0.0
 42
0.0
 43
0.0
 44
0.0
 45
0.0
 46
0.0
 47
0.0
 48
0.0
 49
0.0
140
0.0
141
0.0
142
1.0
143
1.0
 70
   688
 72
     0
 73
     0
 74
     5
  7

 75
    16
147
1.0
148
0.0
149
0.0
100
AcDbLayout
  1
レイアウト1
 70
     0
 71
     1
 10
0.0
 20
0.0
 11
420.0
 21
297.0
 12
0.0
 22
0.0
 32
0.0
 14
1.000000000000000E+20
 24
1.000000000000000E+20
 34
1.000000000000000E+20
 15
-1.000000000000000E+20
 25
-1.000000000000000E+20
 35
-1.000000000000000E+20
146
0.0
 13
0.0
 23
0.0
 33
0.0
 16
1.0
 26
0.0
 36
0.0
 17
0.0
 27
1.0
 37
0.0
 76
     0
330
747A
  0
MLINESTYLE
  5
7480
102
{ACAD_REACTORS
330
7473
102
}
330
7473
100
AcDbMlineStyle
  2
STANDARD
 70
     0
  3

 62
     0
 51
90.0
 52
90.0
 71
     2
 49
0.5
 62
   256
  6
BYLAYER
 49
-0.5
 62
   256
  6
BYLAYER
  0
ACDBPLACEHOLDER
  5
173D0
102
{ACAD_REACTORS
330
173CF
102
}
330
173CF
  0
XRECORD
  5
1F499
102
{ACAD_REACTORS
330
1F497
102
}
330
1F497
100
AcDbXrecord
280
     1
340
173D2
  0
XRECORD
  5
1F498
102
{ACAD_REACTORS
330
1F497
102
}
330
1F497
100
AcDbXrecord
280
     1
340
173D1
  0
DICTIONARYVAR
  5
1F48C
102
{ACAD_REACTORS
330
1F48B
102
}
330
1F48B
100
DictionaryVariables
280
     0
  1
1
  0
DICTIONARYVAR
  5
1F48D
102
{ACAD_REACTORS
330
1F48B
102
}
330
1F48B
100
DictionaryVariables
280
     0
  1

  0
DICTIONARY
  5
1F49A
330
173D5
100
AcDbDictionary
280
     1
281
     1
  3
ACAD_XREC_ROUNDTRIP
360
1F49B
  0
DICTIONARY
  5
1F49C
330
173D6
100
AcDbDictionary
280
     1
281
     1
  3
ACAD_XREC_ROUNDTRIP
360
1F49D
  0
XRECORD
  5
1F49B
102
{ACAD_REACTORS
330
1F49A
102
}
330
1F49A
100
AcDbXrecord
280
     1
102
SHADEPLOT
 70
     1
102
SHADEPLOTRESLEVEL
 70
     2
102
SHADEPLOTCUSTOMDPI
 70
   300
  0
XRECORD
  5
1F49D
102
{ACAD_REACTORS
330
1F49C
102
}
330
1F49C
100
AcDbXrecord
280
     1
102
SHADEPLOT
 70
     0
102
SHADEPLOTRESLEVEL
 70
     2
102
SHADEPLOTCUSTOMDPI
 70
   300
  0
ENDSEC
  0
EOF
