  0
SECTION
  2
HEADER
  9
$ACADVER
  1
AC1015
  9
$ACADMAINTVER
 70
    20
  9
$DWGCODEPAGE
  3
ANSI_932
  9
$INSBASE
 10
0.0
 20
0.0
 30
0.0
  9
$EXTMIN
 10
139.9999999999995
 20
-0.0000000000000909
 30
0.0
  9
$EXTMAX
 10
16307.2
 20
11409.6
 30
0.0
  9
$LIMMIN
 10
0.0
 20
0.0
  9
$LIMMAX
 10
16800.0
 20
11880.0
  9
$ORTHOMODE
 70
     0
  9
$REGENMODE
 70
     1
  9
$FILLMODE
 70
     1
  9
$QTEXTMODE
 70
     0
  9
$MIRRTEXT
 70
     1
  9
$LTSCALE
 40
20.0
  9
$ATTMODE
 70
     1
  9
$TEXTSIZE
 40
4.0
  9
$TRACEWID
 40
1.0
  9
$TEXTSTYLE
  7
STYLE1
  9
$CLAYER
  8
細線
  9
$CELTYPE
  6
BYLAYER
  9
$CECOLOR
 62
   256
  9
$CELTSCALE
 40
50.0
  9
$DISPSILH
 70
     0
  9
$DIMSCALE
 40
40.0
  9
$DIMASZ
 40
2.5
  9
$DIMEXO
 40
0.5
  9
$DIMDLI
 40
7.0
  9
$DIMRND
 40
0.0
  9
$DIMDLE
 40
0.0
  9
$DIMEXE
 40
1.5
  9
$DIMTP
 40
0.0
  9
$DIMTM
 40
0.0
  9
$DIMTXT
 40
3.0
  9
$DIMCEN
 40
0.0
  9
$DIMTSZ
 40
0.0
  9
$DIMTOL
 70
     0
  9
$DIMLIM
 70
     0
  9
$DIMTIH
 70
     0
  9
$DIMTOH
 70
     0
  9
$DIMSE1
 70
     0
  9
$DIMSE2
 70
     0
  9
$DIMTAD
 70
     3
  9
$DIMZIN
 70
     8
  9
$DIMBLK
  1

  9
$DIMASO
 70
     1
  9
$DIMSHO
 70
     1
  9
$DIMPOST
  1

  9
$DIMAPOST
  1

  9
$DIMALT
 70
     0
  9
$DIMALTD
 70
     2
  9
$DIMALTF
 40
0.0394
  9
$DIMLFAC
 40
1.0
  9
$DIMTOFL
 70
     1
  9
$DIMTVP
 40
0.0
  9
$DIMTIX
 70
     1
  9
$DIMSOXD
 70
     0
  9
$DIMSAH
 70
     1
  9
$DIMBLK1
  1
DOTSMALL
  9
$DIMBLK2
  1
DOTSMALL
  9
$DIMSTYLE
  2
INABA_S40G
  9
$DIMCLRD
 70
     0
  9
$DIMCLRE
 70
     0
  9
$DIMCLRT
 70
     7
  9
$DIMTFAC
 40
1.0
  9
$DIMGAP
 40
1.0
  9
$DIMJUST
 70
     0
  9
$DIMSD1
 70
     0
  9
$DIMSD2
 70
     0
  9
$DIMTOLJ
 70
     1
  9
$DIMTZIN
 70
     0
  9
$DIMALTZ
 70
     0
  9
$DIMALTTZ
 70
     0
  9
$DIMUPT
 70
     0
  9
$DIMDEC
 70
     1
  9
$DIMTDEC
 70
     4
  9
$DIMALTU
 70
     2
  9
$DIMALTTD
 70
     2
  9
$DIMTXSTY
  7
STYLE1
  9
$DIMAUNIT
 70
     0
  9
$DIMADEC
 70
     0
  9
$DIMALTRND
 40
0.0
  9
$DIMAZIN
 70
     0
  9
$DIMDSEP
 70
    46
  9
$DIMATFIT
 70
     3
  9
$DIMFRAC
 70
     0
  9
$DIMLDRBLK
  1

  9
$DIMLUNIT
 70
     2
  9
$DIMLWD
 70
    -2
  9
$DIMLWE
 70
    -2
  9
$DIMTMOVE
 70
     0
  9
$LUNITS
 70
     2
  9
$LUPREC
 70
     1
  9
$SKETCHINC
 40
1.0
  9
$FILLETRAD
 40
3.0
  9
$AUNITS
 70
     0
  9
$AUPREC
 70
     0
  9
$MENU
  1
acad
  9
$ELEVATION
 40
0.0
  9
$PELEVATION
 40
0.0
  9
$THICKNESS
 40
0.0
  9
$LIMCHECK
 70
     0
  9
$CHAMFERA
 40
0.0
  9
$CHAMFERB
 40
0.0
  9
$CHAMFERC
 40
0.0
  9
$CHAMFERD
 40
0.0
  9
$SKPOLY
 70
     0
  9
$TDCREATE
 40
2451368.612993866
  9
$TDUCREATE
 40
2451368.237993866
  9
$TDUPDATE
 40
2455827.671401864
  9
$TDUUPDATE
 40
2455827.296401864
  9
$TDINDWG
 40
0.8304968866
  9
$TDUSRTIMER
 40
0.8304968866
  9
$USRTIMER
 70
     1
  9
$ANGBASE
 50
0.0
  9
$ANGDIR
 70
     0
  9
$PDMODE
 70
     3
  9
$PDSIZE
 40
2.0
  9
$PLINEWID
 40
0.0
  9
$SPLFRAME
 70
     0
  9
$SPLINETYPE
 70
     6
  9
$SPLINESEGS
 70
     8
  9
$HANDSEED
  5
26FCC
  9
$SURFTAB1
 70
     6
  9
$SURFTAB2
 70
     6
  9
$SURFTYPE
 70
     6
  9
$SURFU
 70
     6
  9
$SURFV
 70
     6
  9
$UCSBASE
  2

  9
$UCSNAME
  2

  9
$UCSORG
 10
0.0
 20
0.0
 30
0.0
  9
$UCSXDIR
 10
1.0
 20
0.0
 30
0.0
  9
$UCSYDIR
 10
0.0
 20
1.0
 30
0.0
  9
$UCSORTHOREF
  2

  9
$UCSORTHOVIEW
 70
     0
  9
$UCSORGTOP
 10
0.0
 20
0.0
 30
0.0
  9
$UCSORGBOTTOM
 10
0.0
 20
0.0
 30
0.0
  9
$UCSORGLEFT
 10
0.0
 20
0.0
 30
0.0
  9
$UCSORGRIGHT
 10
0.0
 20
0.0
 30
0.0
  9
$UCSORGFRONT
 10
0.0
 20
0.0
 30
0.0
  9
$UCSORGBACK
 10
0.0
 20
0.0
 30
0.0
  9
$PUCSBASE
  2

  9
$PUCSNAME
  2

  9
$PUCSORG
 10
0.0
 20
0.0
 30
0.0
  9
$PUCSXDIR
 10
1.0
 20
0.0
 30
0.0
  9
$PUCSYDIR
 10
0.0
 20
1.0
 30
0.0
  9
$PUCSORTHOREF
  2

  9
$PUCSORTHOVIEW
 70
     0
  9
$PUCSORGTOP
 10
0.0
 20
0.0
 30
0.0
  9
$PUCSORGBOTTOM
 10
0.0
 20
0.0
 30
0.0
  9
$PUCSORGLEFT
 10
0.0
 20
0.0
 30
0.0
  9
$PUCSORGRIGHT
 10
0.0
 20
0.0
 30
0.0
  9
$PUCSORGFRONT
 10
0.0
 20
0.0
 30
0.0
  9
$PUCSORGBACK
 10
0.0
 20
0.0
 30
0.0
  9
$USERI1
 70
     0
  9
$USERI2
 70
     0
  9
$USERI3
 70
     0
  9
$USERI4
 70
     0
  9
$USERI5
 70
     0
  9
$USERR1
 40
0.0
  9
$USERR2
 40
0.0
  9
$USERR3
 40
0.0
  9
$USERR4
 40
0.0
  9
$USERR5
 40
0.0
  9
$WORLDVIEW
 70
     1
  9
$SHADEDGE
 70
     3
  9
$SHADEDIF
 70
    70
  9
$TILEMODE
 70
     1
  9
$MAXACTVP
 70
    16
  9
$PINSBASE
 10
0.0
 20
0.0
 30
0.0
  9
$PLIMCHECK
 70
     0
  9
$PEXTMIN
 10
1.000000000000000E+20
 20
1.000000000000000E+20
 30
1.000000000000000E+20
  9
$PEXTMAX
 10
-1.000000000000000E+20
 20
-1.000000000000000E+20
 30
-1.000000000000000E+20
  9
$PLIMMIN
 10
0.0
 20
0.0
  9
$PLIMMAX
 10
420.0
 20
297.0
  9
$UNITMODE
 70
     0
  9
$VISRETAIN
 70
     0
  9
$PLINEGEN
 70
     0
  9
$PSLTSCALE
 70
     0
  9
$TREEDEPTH
 70
  3020
  9
$CMLSTYLE
  2
STANDARD
  9
$CMLJUST
 70
     0
  9
$CMLSCALE
 40
1.0
  9
$PROXYGRAPHICS
 70
     1
  9
$MEASUREMENT
 70
     1
  9
$CELWEIGHT
370
    -1
  9
$ENDCAPS
280
     0
  9
$JOINSTYLE
280
     0
  9
$LWDISPLAY
290
     0
  9
$INSUNITS
 70
     0
  9
$HYPERLINKBASE
  1

  9
$STYLESHEET
  1
ACA3.ctb
  9
$XEDIT
290
     1
  9
$CEPSNTYPE
380
     0
  9
$PSTYLEMODE
290
     1
  9
$FINGERPRINTGUID
  2
{5EAC461A-2277-4BF8-9AB0-99C43BB394F0}
  9
$VERSIONGUID
  2
{5C730E2F-8F78-485C-87FB-776C8E08E41E}
  9
$EXTNAMES
290
     1
  9
$PSVPSCALE
 40
0.0
  9
$OLESTARTUP
290
     0
  0
ENDSEC
  0
SECTION
  2
CLASSES
  0
CLASS
  1
ACDBDICTIONARYWDFLT
  2
AcDbDictionaryWithDefault
  3
ObjectDBX Classes
 90
        0
280
     0
281
     0
  0
CLASS
  1
DICTIONARYVAR
  2
AcDbDictionaryVar
  3
ObjectDBX Classes
 90
        0
280
     0
281
     0
  0
CLASS
  1
ACDBPLACEHOLDER
  2
AcDbPlaceHolder
  3
ObjectDBX Classes
 90
        0
280
     0
281
     0
  0
CLASS
  1
LAYOUT
  2
AcDbLayout
  3
ObjectDBX Classes
 90
        0
280
     0
281
     0
  0
ENDSEC
  0
SECTION
  2
TABLES
  0
TABLE
  2
VPORT
  5
746D
330
0
100
AcDbSymbolTable
 70
     2
  0
VPORT
  5
26FC4
330
746D
100
AcDbSymbolTableRecord
100
AcDbViewportTableRecord
  2
*Active
 70
     0
 10
0.0
 20
0.0
 11
1.0
 21
1.0
 12
8399.999999999998
 22
6549.946086030115
 13
0.0
 23
0.0
 14
10.0
 24
10.0
 15
10.0
 25
10.0
 16
0.0
 26
0.0
 36
1.0
 17
0.0
 27
0.0
 37
0.0
 40
13195.53355943939
 41
1.522222222222222
 42
50.0
 43
0.0
 44
0.0
 50
0.0
 51
0.0
 71
     0
 72
     0
 73
     1
 74
     0
 75
     0
 76
     0
 77
     0
 78
     0
281
     0
 65
     1
110
0.0
120
0.0
130
0.0
111
1.0
121
0.0
131
0.0
112
0.0
122
1.0
132
0.0
 79
     0
146
0.0
  0
ENDTAB
  0
TABLE
  2
LTYPE
  5
746A
330
0
100
AcDbSymbolTable
 70
     5
  0
LTYPE
  5
7477
330
746A
100
AcDbSymbolTableRecord
100
AcDbLinetypeTableRecord
  2
BYBLOCK
 70
     0
  3

 72
    65
 73
     0
 40
0.0
  0
LTYPE
  5
7478
330
746A
100
AcDbSymbolTableRecord
100
AcDbLinetypeTableRecord
  2
BYLAYER
 70
     0
  3

 72
    65
 73
     0
 40
0.0
  0
LTYPE
  5
7479
330
746A
100
AcDbSymbolTableRecord
100
AcDbLinetypeTableRecord
  2
CONTINUOUS
 70
     0
  3
Solid line
 72
    65
 73
     0
 40
0.0
  0
LTYPE
  5
7816
330
746A
100
AcDbSymbolTableRecord
100
AcDbLinetypeTableRecord
  2
CENTER
 70
     0
  3
____ _ ____ _ ____ _ ____ _ ____ _ ____ _ ____ 
 72
    65
 73
     4
 40
2.0
 49
1.25
 74
     0
 49
-0.25
 74
     0
 49
0.25
 74
     0
 49
-0.25
 74
     0
  0
LTYPE
  5
781A
330
746A
100
AcDbSymbolTableRecord
100
AcDbLinetypeTableRecord
  2
HIDDEN
 70
     0
  3
__ __ __ __ __ __ __ __ __ __ __ __ __ __ __ __
 72
    65
 73
     2
 40
0.375
 49
0.25
 74
     0
 49
-0.125
 74
     0
  0
LTYPE
  5
781B
330
746A
100
AcDbSymbolTableRecord
100
AcDbLinetypeTableRecord
  2
PHANTOM
 70
     0
  3
______  __  __  ______  __  __  ______  __  __ 
 72
    65
 73
     6
 40
2.5
 49
1.25
 74
     0
 49
-0.25
 74
     0
 49
0.25
 74
     0
 49
-0.25
 74
     0
 49
0.25
 74
     0
 49
-0.25
 74
     0
  0
LTYPE
  5
12CC3
330
746A
100
AcDbSymbolTableRecord
100
AcDbLinetypeTableRecord
  2
HIDDENX2
 70
     0
  3
Hidden (2x) ____ ____ ____ ____ ____ ____ ____
 72
    65
 73
     2
 40
19.05
 49
12.7
 74
     0
 49
-6.349999999999999
 74
     0
  0
ENDTAB
  0
TABLE
  2
LAYER
  5
7467
102
{ACAD_XDICTIONARY
360
1758F
102
}
330
0
100
AcDbSymbolTable
 70
    12
  0
LAYER
  5
7474
330
7467
100
AcDbSymbolTableRecord
100
AcDbLayerTableRecord
  2
0
 70
     0
 62
     7
  6
CONTINUOUS
370
    -3
390
173D0
  0
LAYER
  5
DEB2
330
7467
100
AcDbSymbolTableRecord
100
AcDbLayerTableRecord
  2
センター
 70
     0
 62
     3
  6
CENTER
370
    -3
390
173D0
  0
LAYER
  5
DEB3
330
7467
100
AcDbSymbolTableRecord
100
AcDbLayerTableRecord
  2
寸法
 70
     0
 62
     4
  6
CONTINUOUS
370
    -3
390
173D0
  0
LAYER
  5
DEB4
330
7467
100
AcDbSymbolTableRecord
100
AcDbLayerTableRecord
  2
部品1
 70
     0
 62
     7
  6
CONTINUOUS
370
    -3
390
173D0
  0
LAYER
  5
DEB5
330
7467
100
AcDbSymbolTableRecord
100
AcDbLayerTableRecord
  2
補助
 70
     0
 62
    -1
  6
CONTINUOUS
370
    -3
390
173D0
  0
LAYER
  5
DEB6
330
7467
100
AcDbSymbolTableRecord
100
AcDbLayerTableRecord
  2
文字
 70
     0
 62
     7
  6
CONTINUOUS
370
    -3
390
173D0
  0
LAYER
  5
F255
330
7467
100
AcDbSymbolTableRecord
100
AcDbLayerTableRecord
  2
DEFPOINTS
 70
     0
 62
     7
  6
CONTINUOUS
290
     0
370
    -3
390
173D0
  0
LAYER
  5
10B54
330
7467
100
AcDbSymbolTableRecord
100
AcDbLayerTableRecord
  2
仕様書枠
 70
     0
 62
   230
  6
CONTINUOUS
370
    -3
390
173D0
  0
LAYER
  5
11729
330
7467
100
AcDbSymbolTableRecord
100
AcDbLayerTableRecord
  2
Ｇ．Ｌ
 70
     0
 62
    30
  6
CONTINUOUS
370
    -3
390
173D0
  0
LAYER
  5
1173F
330
7467
100
AcDbSymbolTableRecord
100
AcDbLayerTableRecord
  2
細線
 70
     0
 62
     5
  6
CONTINUOUS
370
    -3
390
173D0
  0
LAYER
  5
12CC4
330
7467
100
AcDbSymbolTableRecord
100
AcDbLayerTableRecord
  2
想像線
 70
     0
 62
     6
  6
PHANTOM
370
    -3
390
173D0
  0
LAYER
  5
142E2
330
7467
100
AcDbSymbolTableRecord
100
AcDbLayerTableRecord
  2
破線
 70
     0
 62
     2
  6
HIDDEN
370
    -3
390
173D0
  0
ENDTAB
  0
TABLE
  2
STYLE
  5
7468
330
0
100
AcDbSymbolTable
 70
     7
  0
STYLE
  5
7475
330
7468
100
AcDbSymbolTableRecord
100
AcDbTextStyleTableRecord
  2
STANDARD
 70
     0
 40
0.0
 41
1.0
 50
0.0
 71
     0
 42
4.0
  3
txt
  4
C:\AutoCAD LT\bigfont.shx
  0
STYLE
  5
763C
330
7468
100
AcDbSymbolTableRecord
100
AcDbTextStyleTableRecord
  2
MSMINCHO
 70
     0
 40
0.0
 41
1.0
 50
0.0
 71
     0
 42
1.199999999999999
  3
C:\AutoCAD LT\msminch2.TTF
  4

  0
STYLE
  5
F706
330
7468
100
AcDbSymbolTableRecord
100
AcDbTextStyleTableRecord
  2
STYLE1
 70
     0
 40
0.0
 41
1.0
 50
0.0
 71
     0
 42
4.0
  3
isocp.shx
  4
bigfont.shx
  0
STYLE
  5
103BF
330
7468
100
AcDbSymbolTableRecord
100
AcDbTextStyleTableRecord
  2
STYLE2
 70
     0
 40
0.0
 41
1.0
 50
0.0
 71
     0
 42
100.0
  3
MS PGothic.ttf
  4

1001
ACAD
1000
MS PGothic
1071
    32818
  0
STYLE
  5
10BAA
330
7468
100
AcDbSymbolTableRecord
100
AcDbTextStyleTableRecord
  2
STYLE3
 70
     0
 40
0.0
 41
1.0
 50
0.0
 71
     0
 42
100.0
  3

  4

1001
ACAD
1000
DFPGothic-EB
1071
    32818
  0
STYLE
  5
11A15
330
7468
100
AcDbSymbolTableRecord
100
AcDbTextStyleTableRecord
  2
MSGOTHIC
 70
     0
 40
0.0
 41
1.0
 50
0.0
 71
     0
 42
3.5
  3
msgothi2.ttf
  4

  0
STYLE
  5
13E96
330
7468
100
AcDbSymbolTableRecord
100
AcDbTextStyleTableRecord
  2
MSPゴシック
 70
     0
 40
0.0
 41
1.0
 50
0.0
 71
     0
 42
4.0
  3
MS PGothic.ttf
  4

1001
ACAD
1000
MS PGothic
1071
    32818
  0
ENDTAB
  0
TABLE
  2
VIEW
  5
746B
330
0
100
AcDbSymbolTable
 70
     0
  0
ENDTAB
  0
TABLE
  2
UCS
  5
746C
330
0
100
AcDbSymbolTable
 70
     0
  0
ENDTAB
  0
TABLE
  2
APPID
  5
746E
330
0
100
AcDbSymbolTable
 70
     6
  0
APPID
  5
7476
330
746E
100
AcDbSymbolTableRecord
100
AcDbRegAppTableRecord
  2
ACAD
 70
     0
  0
APPID
  5
DEA9
330
746E
100
AcDbSymbolTableRecord
100
AcDbRegAppTableRecord
  2
CONTENTBLOCKICON
 70
     0
  0
APPID
  5
DEAA
330
746E
100
AcDbSymbolTableRecord
100
AcDbRegAppTableRecord
  2
CONTENTBLOCKDESCRIPTION
 70
     0
  0
APPID
  5
E71D
330
746E
100
AcDbSymbolTableRecord
100
AcDbRegAppTableRecord
  2
CONTENTTABDATA
 70
     0
  0
APPID
  5
E71E
330
746E
100
AcDbSymbolTableRecord
100
AcDbRegAppTableRecord
  2
CONTENTCURRENTTAB
 70
     0
  0
APPID
  5
F3BA
330
746E
100
AcDbSymbolTableRecord
100
AcDbRegAppTableRecord
  2
DRAWINGVARIABLESXDATA
 70
     0
  0
ENDTAB
  0
TABLE
  2
DIMSTYLE
  5
746F
330
0
100
AcDbSymbolTable
 70
     6
100
AcDbDimStyleTable
 71
     1
340
F71F
  0
DIMSTYLE
105
7484
330
746F
100
AcDbSymbolTableRecord
100
AcDbDimStyleTableRecord
  2
JIS
 70
     0
 41
2.5
 42
1.0
 43
7.0
 44
1.0
 73
     0
 74
     0
 77
     1
 78
     8
140
2.5
141
0.0
143
0.0394
147
0.0
172
     1
174
     1
175
     1
340
7475
  0
DIMSTYLE
105
F236
330
746F
100
AcDbSymbolTableRecord
100
AcDbDimStyleTableRecord
  2
INABA_S40
 70
     0
 40
40.0
 41
2.5
 42
0.5
 43
7.0
 44
1.5
 73
     0
 74
     0
 77
     3
 78
     8
140
3.0
141
0.0
143
0.0394
147
1.0
172
     1
173
     1
174
     1
175
     1
178
     7
289
     0
340
7475
341
DEAC
343
DEAC
344
DEAC
  0
DIMSTYLE
105
F71F
102
{ACAD_REACTORS
330
24EF5
330
24EF9
330
24EF7
330
24EF0
330
24EFC
330
24F52
330
24F3E
330
24F3D
330
24F0E
330
24EFB
330
24EF2
330
24EEE
330
25205
330
24F3F
330
24F21
330
24F16
330
24F0D
330
24F04
330
24F00
330
24EFF
330
25949
330
2594B
330
25D7E
330
25D83
330
261DB
330
261E0
330
261E1
330
261E4
330
26E02
330
26E03
330
26E0B
330
26E12
330
26E15
330
26E75
102
}
330
746F
100
AcDbSymbolTableRecord
100
AcDbDimStyleTableRecord
  2
INABA_S40G
 70
     0
 40
40.0
 41
2.5
 42
0.5
 43
7.0
 44
1.5
 73
     0
 74
     0
 77
     3
 78
     8
140
3.0
141
0.0
143
0.0394
147
1.0
172
     1
173
     1
174
     1
178
     7
271
     1
340
F706
341
F770
343
F770
344
F770
  0
DIMSTYLE
105
142E3
330
746F
100
AcDbSymbolTableRecord
100
AcDbDimStyleTableRecord
  2
INABA_S1
 70
     0
 40
0.0
 41
2.5
 42
0.5
 43
7.0
 44
1.5
 73
     0
 74
     0
 77
     3
 78
     8
140
3.0
141
0.0
143
0.0394
146
0.5
147
0.5
172
     1
173
     1
176
   256
177
   256
178
     7
271
     2
272
     2
284
     8
288
     1
340
7475
341
DEAC
343
DEAC
344
DEAC
  0
DIMSTYLE
105
14463
330
746F
100
AcDbSymbolTableRecord
100
AcDbDimStyleTableRecord
  2
INABA_S30G
 70
     0
 40
30.0
 41
2.5
 42
0.5
 43
7.0
 44
1.5
 73
     0
 74
     0
 77
     3
 78
     8
140
3.0
141
0.0
143
0.0394
147
1.0
172
     1
173
     1
174
     1
175
     1
178
     7
271
     1
340
F706
341
F770
343
F770
344
F770
  0
DIMSTYLE
105
1758E
330
746F
100
AcDbSymbolTableRecord
100
AcDbDimStyleTableRecord
  2
INABA_S50G
 70
     0
 41
125.0
 42
25.0
 43
7.0
 44
75.0
 73
     0
 74
     0
 77
     3
 78
     8
140
150.0
141
0.0
143
0.0394
147
25.0
172
     1
173
     1
174
     1
175
     1
178
     7
271
     1
340
F706
341
F770
343
F770
344
F770
  0
ENDTAB
  0
TABLE
  2
BLOCK_RECORD
  5
7466
330
0
100
AcDbSymbolTable
 70
    65
  0
BLOCK_RECORD
  5
747D
330
7466
100
AcDbSymbolTableRecord
100
AcDbBlockTableRecord
  2
*MODEL_SPACE
340
173D5
  0
BLOCK_RECORD
  5
747A
330
7466
100
AcDbSymbolTableRecord
100
AcDbBlockTableRecord
  2
*PAPER_SPACE
340
173D6
  0
BLOCK_RECORD
  5
DEAC
330
7466
100
AcDbSymbolTableRecord
100
AcDbBlockTableRecord
  2
_OPEN
340
0
  0
BLOCK_RECORD
  5
F770
330
7466
100
AcDbSymbolTableRecord
100
AcDbBlockTableRecord
  2
_DOTSMALL
340
0
102
{BLKREFS
331
18C65
331
18C66
331
18C59
331
18C5A
331
18C4D
331
18C4E
331
18C41
331
18C42
331
18C35
331
18C36
331
18C29
331
18C2A
331
18C1D
331
18C1E
331
18C0F
331
18C10
331
18C03
331
18C04
331
18BF5
331
18BF6
331
18BE7
331
18BE8
331
18BD9
331
18BDA
331
18BCD
331
18BCE
331
25655
331
25656
331
2565E
331
2565F
331
25669
331
2566A
331
25673
331
25674
331
25690
331
25691
331
25699
331
2569A
331
256A2
331
256A3
331
256AB
331
256AC
331
256BD
331
256BE
331
256C7
331
256C8
331
256D1
331
256D2
331
256F1
331
256F2
331
25704
331
25705
331
2572B
331
2572C
331
25734
331
25735
331
2573D
331
2573E
331
26015
331
26016
331
26473
331
26474
331
2647E
331
2647F
331
26494
331
26495
331
264AA
331
264AB
331
26811
331
26812
331
2681B
331
2681C
331
268E2
331
268E3
331
268EC
331
268ED
331
268F6
331
268F7
331
2690A
331
2690B
331
26C27
331
26C28
331
26C30
331
26C31
331
26C39
331
26C3A
331
26C42
331
26C43
331
26C50
331
26C51
331
26C58
331
26C59
331
26C6C
331
26C6D
331
26CAC
331
26CAD
331
26CA1
331
26CA2
331
26C90
331
26C91
331
26C84
331
26C85
331
26C78
331
26C79
331
26CB9
331
26CBA
331
26F7F
331
26F80
331
26F8E
331
26F8F
331
26F97
331
26F98
331
26FA0
331
26FA1
331
26FA9
331
26FAA
331
26FB2
331
26FB3
102
}
  0
BLOCK_RECORD
  5
164B4
330
7466
100
AcDbSymbolTableRecord
100
AcDbBlockTableRecord
  2
_DOT
340
0
102
{BLKREFS
331
18C73
331
18C74
102
}
  0
BLOCK_RECORD
  5
18BC8
330
7466
100
AcDbSymbolTableRecord
100
AcDbBlockTableRecord
  2
*D3
340
0
  0
BLOCK_RECORD
  5
18BD4
330
7466
100
AcDbSymbolTableRecord
100
AcDbBlockTableRecord
  2
*D4
340
0
  0
BLOCK_RECORD
  5
18BE0
330
7466
100
AcDbSymbolTableRecord
100
AcDbBlockTableRecord
  2
*D5
340
0
  0
BLOCK_RECORD
  5
18BEE
330
7466
100
AcDbSymbolTableRecord
100
AcDbBlockTableRecord
  2
*D6
340
0
  0
BLOCK_RECORD
  5
18BFC
330
7466
100
AcDbSymbolTableRecord
100
AcDbBlockTableRecord
  2
*D7
340
0
  0
BLOCK_RECORD
  5
18C0A
330
7466
100
AcDbSymbolTableRecord
100
AcDbBlockTableRecord
  2
*D8
340
0
  0
BLOCK_RECORD
  5
18C16
330
7466
100
AcDbSymbolTableRecord
100
AcDbBlockTableRecord
  2
*D9
340
0
  0
BLOCK_RECORD
  5
18C24
330
7466
100
AcDbSymbolTableRecord
100
AcDbBlockTableRecord
  2
*D10
340
0
  0
BLOCK_RECORD
  5
18C30
330
7466
100
AcDbSymbolTableRecord
100
AcDbBlockTableRecord
  2
*D11
340
0
  0
BLOCK_RECORD
  5
18C3C
330
7466
100
AcDbSymbolTableRecord
100
AcDbBlockTableRecord
  2
*D12
340
0
  0
BLOCK_RECORD
  5
18C48
330
7466
100
AcDbSymbolTableRecord
100
AcDbBlockTableRecord
  2
*D13
340
0
  0
BLOCK_RECORD
  5
18C54
330
7466
100
AcDbSymbolTableRecord
100
AcDbBlockTableRecord
  2
*D14
340
0
  0
BLOCK_RECORD
  5
18C60
330
7466
100
AcDbSymbolTableRecord
100
AcDbBlockTableRecord
  2
*D15
340
0
  0
BLOCK_RECORD
  5
18C6C
330
7466
100
AcDbSymbolTableRecord
100
AcDbBlockTableRecord
  2
*D16
340
0
  0
BLOCK_RECORD
  5
18C7A
330
7466
100
AcDbSymbolTableRecord
100
AcDbBlockTableRecord
  2
A$C3B1A506B
340
0
  0
BLOCK_RECORD
  5
1C4CA
330
7466
100
AcDbSymbolTableRecord
100
AcDbBlockTableRecord
  2
_NONE
340
0
  0
BLOCK_RECORD
  5
24F72
330
7466
100
AcDbSymbolTableRecord
100
AcDbBlockTableRecord
  2
*D19
340
0
  0
BLOCK_RECORD
  5
24F7D
330
7466
100
AcDbSymbolTableRecord
100
AcDbBlockTableRecord
  2
*D20
340
0
  0
BLOCK_RECORD
  5
24F89
330
7466
100
AcDbSymbolTableRecord
100
AcDbBlockTableRecord
  2
*D21
340
0
  0
BLOCK_RECORD
  5
24F94
330
7466
100
AcDbSymbolTableRecord
100
AcDbBlockTableRecord
  2
*D22
340
0
  0
BLOCK_RECORD
  5
24FA1
330
7466
100
AcDbSymbolTableRecord
100
AcDbBlockTableRecord
  2
*D23
340
0
  0
BLOCK_RECORD
  5
24FAE
330
7466
100
AcDbSymbolTableRecord
100
AcDbBlockTableRecord
  2
*D24
340
0
  0
BLOCK_RECORD
  5
24FBB
330
7466
100
AcDbSymbolTableRecord
100
AcDbBlockTableRecord
  2
*D25
340
0
  0
BLOCK_RECORD
  5
24FC6
330
7466
100
AcDbSymbolTableRecord
100
AcDbBlockTableRecord
  2
*D26
340
0
  0
BLOCK_RECORD
  5
24FD3
330
7466
100
AcDbSymbolTableRecord
100
AcDbBlockTableRecord
  2
*D27
340
0
  0
BLOCK_RECORD
  5
24FDF
330
7466
100
AcDbSymbolTableRecord
100
AcDbBlockTableRecord
  2
*D28
340
0
  0
BLOCK_RECORD
  5
24FEA
330
7466
100
AcDbSymbolTableRecord
100
AcDbBlockTableRecord
  2
*D29
340
0
  0
BLOCK_RECORD
  5
2500D
330
7466
100
AcDbSymbolTableRecord
100
AcDbBlockTableRecord
  2
*D30
340
0
  0
BLOCK_RECORD
  5
2501A
330
7466
100
AcDbSymbolTableRecord
100
AcDbBlockTableRecord
  2
*D31
340
0
  0
BLOCK_RECORD
  5
25027
330
7466
100
AcDbSymbolTableRecord
100
AcDbBlockTableRecord
  2
*D32
340
0
  0
BLOCK_RECORD
  5
2503F
330
7466
100
AcDbSymbolTableRecord
100
AcDbBlockTableRecord
  2
*D33
340
0
  0
BLOCK_RECORD
  5
25058
330
7466
100
AcDbSymbolTableRecord
100
AcDbBlockTableRecord
  2
*D34
340
0
  0
BLOCK_RECORD
  5
25064
330
7466
100
AcDbSymbolTableRecord
100
AcDbBlockTableRecord
  2
*D35
340
0
  0
BLOCK_RECORD
  5
25070
330
7466
100
AcDbSymbolTableRecord
100
AcDbBlockTableRecord
  2
*D36
340
0
  0
BLOCK_RECORD
  5
25095
330
7466
100
AcDbSymbolTableRecord
100
AcDbBlockTableRecord
  2
*D37
340
0
  0
BLOCK_RECORD
  5
25206
330
7466
100
AcDbSymbolTableRecord
100
AcDbBlockTableRecord
  2
*D38
340
0
  0
BLOCK_RECORD
  5
259A9
330
7466
100
AcDbSymbolTableRecord
100
AcDbBlockTableRecord
  2
*D39
340
0
  0
BLOCK_RECORD
  5
259B6
330
7466
100
AcDbSymbolTableRecord
100
AcDbBlockTableRecord
  2
*D40
340
0
  0
BLOCK_RECORD
  5
25DDF
330
7466
100
AcDbSymbolTableRecord
100
AcDbBlockTableRecord
  2
*D41
340
0
  0
BLOCK_RECORD
  5
25DEB
330
7466
100
AcDbSymbolTableRecord
100
AcDbBlockTableRecord
  2
*D42
340
0
  0
BLOCK_RECORD
  5
2623B
330
7466
100
AcDbSymbolTableRecord
100
AcDbBlockTableRecord
  2
*D43
340
0
  0
BLOCK_RECORD
  5
26249
330
7466
100
AcDbSymbolTableRecord
100
AcDbBlockTableRecord
  2
*D44
340
0
  0
BLOCK_RECORD
  5
26257
330
7466
100
AcDbSymbolTableRecord
100
AcDbBlockTableRecord
  2
*D45
340
0
  0
BLOCK_RECORD
  5
26265
330
7466
100
AcDbSymbolTableRecord
100
AcDbBlockTableRecord
  2
*D46
340
0
  0
BLOCK_RECORD
  5
26F2F
330
7466
100
AcDbSymbolTableRecord
100
AcDbBlockTableRecord
  2
*D59
340
0
  0
BLOCK_RECORD
  5
26F3B
330
7466
100
AcDbSymbolTableRecord
100
AcDbBlockTableRecord
  2
*D60
340
0
  0
BLOCK_RECORD
  5
26F4C
330
7466
100
AcDbSymbolTableRecord
100
AcDbBlockTableRecord
  2
*D61
340
0
  0
BLOCK_RECORD
  5
26F58
330
7466
100
AcDbSymbolTableRecord
100
AcDbBlockTableRecord
  2
*D62
340
0
  0
BLOCK_RECORD
  5
26F64
330
7466
100
AcDbSymbolTableRecord
100
AcDbBlockTableRecord
  2
*D63
340
0
  0
BLOCK_RECORD
  5
26F70
330
7466
100
AcDbSymbolTableRecord
100
AcDbBlockTableRecord
  2
*D64
340
0
  0
ENDTAB
  0
ENDSEC
  0
SECTION
  2
BLOCKS
  0
BLOCK
  5
7489
330
747D
100
AcDbEntity
  8
0
100
AcDbBlockBegin
  2
*MODEL_SPACE
 70
     0
 10
0.0
 20
0.0
 30
0.0
  3
*MODEL_SPACE
  1

  0
ENDBLK
  5
748A
330
747D
100
AcDbEntity
  8
0
100
AcDbBlockEnd
  0
BLOCK
  5
7487
330
747A
100
AcDbEntity
 67
     1
  8
0
100
AcDbBlockBegin
  2
*PAPER_SPACE
 70
     0
 10
0.0
 20
0.0
 30
0.0
  3
*PAPER_SPACE
  1

  0
ENDBLK
  5
7488
330
747A
100
AcDbEntity
 67
     1
  8
0
100
AcDbBlockEnd
  0
BLOCK
  5
DEAD
330
DEAC
100
AcDbEntity
  8
0
100
AcDbBlockBegin
  2
_OPEN
 70
     0
 10
0.0
 20
0.0
 30
0.0
  3
_OPEN
  1

  0
LINE
  5
DEAE
330
DEAC
100
AcDbEntity
  8
0
  6
ByBlock
 62
     0
100
AcDbLine
 10
-1.0
 20
0.1666666666666666
 30
0.0
 11
0.0
 21
0.0
 31
0.0
  0
LINE
  5
DEAF
330
DEAC
100
AcDbEntity
  8
0
  6
ByBlock
 62
     0
100
AcDbLine
 10
0.0
 20
0.0
 30
0.0
 11
-1.0
 21
-0.1666666666666666
 31
0.0
  0
LINE
  5
DEB0
330
DEAC
100
AcDbEntity
  8
0
  6
ByBlock
 62
     0
100
AcDbLine
 10
0.0
 20
0.0
 30
0.0
 11
-1.0
 21
0.0
 31
0.0
  0
ENDBLK
  5
DEB1
330
DEAC
100
AcDbEntity
  8
0
100
AcDbBlockEnd
  0
BLOCK
  5
F771
330
F770
100
AcDbEntity
  8
0
 48
50.0
100
AcDbBlockBegin
  2
_DOTSMALL
 70
     0
 10
0.0
 20
0.0
 30
0.0
  3
_DOTSMALL
  1

  0
LWPOLYLINE
  5
F772
330
F770
100
AcDbEntity
  8
0
  6
ByBlock
 62
     0
 48
50.0
100
AcDbPolyline
 90
        2
 70
     1
 43
0.5
 10
-0.0625
 20
0.0
 42
1.0
 10
0.0625
 20
0.0
 42
1.0
  0
ENDBLK
  5
F776
330
F770
100
AcDbEntity
  8
0
 48
50.0
100
AcDbBlockEnd
  0
BLOCK
  5
164BA
330
164B4
100
AcDbEntity
  8
0
 48
50.0
100
AcDbBlockBegin
  2
_DOT
 70
     0
 10
0.0
 20
0.0
 30
0.0
  3
_DOT
  1

  0
LWPOLYLINE
  5
164B5
330
164B4
100
AcDbEntity
  8
0
  6
ByBlock
 62
     0
 48
50.0
100
AcDbPolyline
 90
        2
 70
     1
 43
0.5
 10
-0.25
 20
0.0
 42
1.0
 10
0.25
 20
0.0
 42
1.0
  0
LINE
  5
164B9
330
164B4
100
AcDbEntity
  8
0
  6
ByBlock
 62
     0
 48
50.0
100
AcDbLine
 10
-0.5
 20
0.0
 30
0.0
 11
-1.0
 21
0.0
 31
0.0
  0
ENDBLK
  5
164BB
330
164B4
100
AcDbEntity
  8
0
 48
50.0
100
AcDbBlockEnd
  0
BLOCK
  5
18BC9
330
18BC8
100
AcDbEntity
  8
0
 48
50.0
100
AcDbBlockBegin
  2
*D3
 70
     1
 10
0.0
 20
0.0
 30
0.0
  3
*D3
  1

  0
LINE
  5
18BCA
330
18BC8
100
AcDbEntity
  8
寸法
 62
     0
 48
50.0
370
    -2
100
AcDbLine
 10
7649.896575106999
 20
9636.123139034717
 30
0.0
 11
8702.429862581047
 21
9636.123139034717
 31
0.0
  0
LINE
  5
18BCB
330
18BC8
100
AcDbEntity
  8
寸法
 62
     0
 48
50.0
370
    -2
100
AcDbLine
 10
7649.896575106973
 20
7846.123139034709
 30
0.0
 11
8702.429862581047
 21
7846.123139034709
 31
0.0
  0
LINE
  5
18BCC
330
18BC8
100
AcDbEntity
  8
寸法
 62
     0
 48
50.0
370
    -2
100
AcDbLine
 10
8642.429862581046
 20
9636.123139034717
 30
0.0
 11
8642.429862581046
 21
7846.123139034709
 31
0.0
  0
INSERT
  5
18BCD
330
18BC8
100
AcDbEntity
  8
寸法
 62
     0
 48
50.0
370
    -2
100
AcDbBlockReference
  2
_DOTSMALL
 10
8642.429862581046
 20
9636.123139034717
 30
0.0
 41
100.0
 42
100.0
 43
100.0
 50
90.0
  0
INSERT
  5
18BCE
330
18BC8
100
AcDbEntity
  8
寸法
 62
     0
 48
50.0
370
    -2
100
AcDbBlockReference
  2
_DOTSMALL
 10
8642.429862581046
 20
7846.123139034709
 30
0.0
 41
100.0
 42
100.0
 43
100.0
 50
270.0
  0
MTEXT
  5
18BCF
330
18BC8
100
AcDbEntity
  8
寸法
 62
     7
 48
50.0
100
AcDbMText
 10
8542.429862581045
 20
8741.123139034712
 30
0.0
 40
120.0
 41
0.0
 71
     5
 72
     1
  1
\A1;1790
  7
STYLE1
 11
0.0000000000000001
 21
1.0
 31
0.0
 73
     1
 44
1.0
1001
ACAD
1000
MTEXTBEGIN
1070
    73
1070
     1
1070
    44
1040
1.0
1070
    74
1070
     0
1000
MTEXTEND
  0
POINT
  5
18BD0
330
18BC8
100
AcDbEntity
  8
DEFPOINTS
 62
     0
 48
50.0
100
AcDbPoint
 10
7629.896575106998
 20
9636.123139034717
 30
0.0
  0
POINT
  5
18BD1
330
18BC8
100
AcDbEntity
  8
DEFPOINTS
 62
     0
 48
50.0
100
AcDbPoint
 10
7629.896575106974
 20
7846.123139034709
 30
0.0
  0
POINT
  5
18BD2
330
18BC8
100
AcDbEntity
  8
DEFPOINTS
 62
     0
 48
50.0
100
AcDbPoint
 10
8642.429862581046
 20
7846.123139034709
 30
0.0
  0
ENDBLK
  5
18BD3
330
18BC8
100
AcDbEntity
  8
0
 48
50.0
100
AcDbBlockEnd
  0
BLOCK
  5
18BD5
330
18BD4
100
AcDbEntity
  8
0
 48
50.0
100
AcDbBlockBegin
  2
*D4
 70
     1
 10
0.0
 20
0.0
 30
0.0
  3
*D4
  1

  0
LINE
  5
18BD6
330
18BD4
100
AcDbEntity
  8
寸法
 62
     0
 48
50.0
370
    -2
100
AcDbLine
 10
4214.896575106998
 20
9656.123139034622
 30
0.0
 11
4214.896575106998
 21
10211.93135865972
 31
0.0
  0
LINE
  5
18BD7
330
18BD4
100
AcDbEntity
  8
寸法
 62
     0
 48
50.0
370
    -2
100
AcDbLine
 10
7574.896575106999
 20
9656.123139034718
 30
0.0
 11
7574.896575106999
 21
10211.93135865972
 31
0.0
  0
LINE
  5
18BD8
330
18BD4
100
AcDbEntity
  8
寸法
 62
     0
 48
50.0
370
    -2
100
AcDbLine
 10
4214.896575106998
 20
10151.93135865972
 30
0.0
 11
7574.896575106999
 21
10151.93135865972
 31
0.0
  0
INSERT
  5
18BD9
330
18BD4
100
AcDbEntity
  8
寸法
 62
     0
 48
50.0
370
    -2
100
AcDbBlockReference
  2
_DOTSMALL
 10
4214.896575106998
 20
10151.93135865972
 30
0.0
 41
100.0
 42
100.0
 43
100.0
 50
180.0
  0
INSERT
  5
18BDA
330
18BD4
100
AcDbEntity
  8
寸法
 62
     0
 48
50.0
370
    -2
100
AcDbBlockReference
  2
_DOTSMALL
 10
7574.896575106999
 20
10151.93135865972
 30
0.0
 41
100.0
 42
100.0
 43
100.0
  0
MTEXT
  5
18BDB
330
18BD4
100
AcDbEntity
  8
寸法
 62
     7
 48
50.0
100
AcDbMText
 10
5894.896575106997
 20
10251.94316968334
 30
0.0
 40
120.0
 41
0.0
 71
     5
 72
     1
  1
\A1;8X420=3360
  7
STYLE1
 73
     1
 44
1.0
1001
ACAD
1000
MTEXTBEGIN
1070
    73
1070
     1
1070
    44
1040
1.0
1070
    74
1070
     0
1000
MTEXTEND
  0
POINT
  5
18BDC
330
18BD4
100
AcDbEntity
  8
DEFPOINTS
 62
     0
 48
50.0
100
AcDbPoint
 10
4214.896575106998
 20
9636.123139034623
 30
0.0
  0
POINT
  5
18BDD
330
18BD4
100
AcDbEntity
  8
DEFPOINTS
 62
     0
 48
50.0
100
AcDbPoint
 10
7574.896575106999
 20
9636.123139034717
 30
0.0
  0
POINT
  5
18BDE
330
18BD4
100
AcDbEntity
  8
DEFPOINTS
 62
     0
 48
50.0
100
AcDbPoint
 10
7574.896575106999
 20
10151.93135865972
 30
0.0
  0
ENDBLK
  5
18BDF
330
18BD4
100
AcDbEntity
  8
0
 48
50.0
100
AcDbBlockEnd
  0
BLOCK
  5
18BE1
330
18BE0
100
AcDbEntity
  8
0
 48
50.0
100
AcDbBlockBegin
  2
*D5
 70
     1
 10
0.0
 20
0.0
 30
0.0
  3
*D5
  1

  0
LINE
  5
18BE2
330
18BE0
100
AcDbEntity
  8
寸法
 62
     0
 48
50.0
370
    -2
100
AcDbLine
 10
7574.896575106999
 20
9656.123139034718
 30
0.0
 11
7574.896575106999
 21
10211.9313586597
 31
0.0
  0
LINE
  5
18BE3
330
18BE0
100
AcDbEntity
  8
寸法
 62
     0
 48
50.0
370
    -2
100
AcDbLine
 10
7629.896575106998
 20
9656.123139034718
 30
0.0
 11
7629.896575106998
 21
10211.9313586597
 31
0.0
  0
LINE
  5
18BE4
330
18BE0
100
AcDbEntity
  8
寸法
 62
     0
 48
50.0
370
    -2
100
AcDbLine
 10
7574.896575106999
 20
10151.9313586597
 30
0.0
 11
7474.896575106999
 21
10151.9313586597
 31
0.0
  0
LINE
  5
18BE5
330
18BE0
100
AcDbEntity
  8
寸法
 62
     0
 48
50.0
370
    -2
100
AcDbLine
 10
7629.896575106998
 20
10151.9313586597
 30
0.0
 11
8046.867137855477
 21
10151.9313586597
 31
0.0
  0
LINE
  5
18BE6
330
18BE0
100
AcDbEntity
  8
寸法
 62
     0
 48
50.0
370
    -2
100
AcDbLine
 10
7574.896575106999
 20
10151.9313586597
 30
0.0
 11
7629.896575106998
 21
10151.9313586597
 31
0.0
  0
INSERT
  5
18BE7
330
18BE0
100
AcDbEntity
  8
寸法
 62
     0
 48
50.0
370
    -2
100
AcDbBlockReference
  2
_DOTSMALL
 10
7574.896575106999
 20
10151.9313586597
 30
0.0
 41
100.0
 42
100.0
 43
100.0
  0
INSERT
  5
18BE8
330
18BE0
100
AcDbEntity
  8
寸法
 62
     0
 48
50.0
370
    -2
100
AcDbBlockReference
  2
_DOTSMALL
 10
7629.896575106998
 20
10151.9313586597
 30
0.0
 41
100.0
 42
100.0
 43
100.0
 50
180.0
  0
MTEXT
  5
18BE9
330
18BE0
100
AcDbEntity
  8
寸法
 62
     7
 48
50.0
100
AcDbMText
 10
7938.381856481237
 20
10251.9313586597
 30
0.0
 40
120.0
 41
0.0
 71
     5
 72
     1
  1
\A1;55
  7
STYLE1
 73
     1
 44
1.0
1001
ACAD
1000
MTEXTBEGIN
1070
    73
1070
     1
1070
    44
1040
1.0
1070
    74
1070
     0
1000
MTEXTEND
  0
POINT
  5
18BEA
330
18BE0
100
AcDbEntity
  8
DEFPOINTS
 62
     0
 48
50.0
100
AcDbPoint
 10
7574.896575106999
 20
9636.123139034717
 30
0.0
  0
POINT
  5
18BEB
330
18BE0
100
AcDbEntity
  8
DEFPOINTS
 62
     0
 48
50.0
100
AcDbPoint
 10
7629.896575106998
 20
9636.123139034717
 30
0.0
  0
POINT
  5
18BEC
330
18BE0
100
AcDbEntity
  8
DEFPOINTS
 62
     0
 48
50.0
100
AcDbPoint
 10
7629.896575106998
 20
10151.9313586597
 30
0.0
  0
ENDBLK
  5
18BED
330
18BE0
100
AcDbEntity
  8
0
 48
50.0
100
AcDbBlockEnd
  0
BLOCK
  5
18BEF
330
18BEE
100
AcDbEntity
  8
0
 48
50.0
100
AcDbBlockBegin
  2
*D6
 70
     1
 10
0.0
 20
0.0
 30
0.0
  3
*D6
  1

  0
LINE
  5
18BF0
330
18BEE
100
AcDbEntity
  8
寸法
 62
     0
 48
50.0
370
    -2
100
AcDbLine
 10
7649.896575106999
 20
9636.123139034717
 30
0.0
 11
8337.32292084141
 21
9636.123139034717
 31
0.0
  0
LINE
  5
18BF1
330
18BEE
100
AcDbEntity
  8
寸法
 62
     0
 48
50.0
370
    -2
100
AcDbLine
 10
7649.896575106999
 20
9581.123139034721
 30
0.0
 11
8337.32292084141
 21
9581.123139034721
 31
0.0
  0
LINE
  5
18BF2
330
18BEE
100
AcDbEntity
  8
寸法
 62
     0
 48
50.0
370
    -2
100
AcDbLine
 10
8277.322920841411
 20
9581.123139034721
 30
0.0
 11
8277.322920841411
 21
9481.123139034719
 31
0.0
  0
LINE
  5
18BF3
330
18BEE
100
AcDbEntity
  8
寸法
 62
     0
 48
50.0
370
    -2
100
AcDbLine
 10
8277.322920841411
 20
9636.123139034717
 30
0.0
 11
8277.322920841411
 21
10053.09370178319
 31
0.0
  0
LINE
  5
18BF4
330
18BEE
100
AcDbEntity
  8
寸法
 62
     0
 48
50.0
370
    -2
100
AcDbLine
 10
8277.322920841411
 20
9581.123139034721
 30
0.0
 11
8277.322920841411
 21
9636.123139034717
 31
0.0
  0
INSERT
  5
18BF5
330
18BEE
100
AcDbEntity
  8
寸法
 62
     0
 48
50.0
370
    -2
100
AcDbBlockReference
  2
_DOTSMALL
 10
8277.322920841411
 20
9581.123139034721
 30
0.0
 41
100.0
 42
100.0
 43
100.0
 50
90.0
  0
INSERT
  5
18BF6
330
18BEE
100
AcDbEntity
  8
寸法
 62
     0
 48
50.0
370
    -2
100
AcDbBlockReference
  2
_DOTSMALL
 10
8277.322920841411
 20
9636.123139034717
 30
0.0
 41
100.0
 42
100.0
 43
100.0
 50
270.0
  0
MTEXT
  5
18BF7
330
18BEE
100
AcDbEntity
  8
寸法
 62
     7
 48
50.0
100
AcDbMText
 10
8177.32292084141
 20
9944.608420408957
 30
0.0
 40
120.0
 41
0.0
 71
     5
 72
     1
  1
\A1;55
  7
STYLE1
 11
0.0000000000000001
 21
1.0
 31
0.0
 73
     1
 44
1.0
1001
ACAD
1000
MTEXTBEGIN
1070
    73
1070
     1
1070
    44
1040
1.0
1070
    74
1070
     0
1000
MTEXTEND
  0
POINT
  5
18BF8
330
18BEE
100
AcDbEntity
  8
DEFPOINTS
 62
     0
 48
50.0
100
AcDbPoint
 10
7629.896575106998
 20
9636.123139034717
 30
0.0
  0
POINT
  5
18BF9
330
18BEE
100
AcDbEntity
  8
DEFPOINTS
 62
     0
 48
50.0
100
AcDbPoint
 10
7629.896575106998
 20
9581.123139034721
 30
0.0
  0
POINT
  5
18BFA
330
18BEE
100
AcDbEntity
  8
DEFPOINTS
 62
     0
 48
50.0
100
AcDbPoint
 10
8277.322920841411
 20
9581.123139034721
 30
0.0
  0
ENDBLK
  5
18BFB
330
18BEE
100
AcDbEntity
  8
0
 48
50.0
100
AcDbBlockEnd
  0
BLOCK
  5
18BFD
330
18BFC
100
AcDbEntity
  8
0
 48
50.0
100
AcDbBlockBegin
  2
*D7
 70
     1
 10
0.0
 20
0.0
 30
0.0
  3
*D7
  1

  0
LINE
  5
18BFE
330
18BFC
100
AcDbEntity
  8
寸法
 62
     0
 48
50.0
370
    -2
100
AcDbLine
 10
4159.896575106963
 20
9656.123139034622
 30
0.0
 11
4159.896575106963
 21
10211.9313586596
 31
0.0
  0
LINE
  5
18BFF
330
18BFC
100
AcDbEntity
  8
寸法
 62
     0
 48
50.0
370
    -2
100
AcDbLine
 10
4214.896575106998
 20
9656.123139034622
 30
0.0
 11
4214.896575106998
 21
10211.9313586596
 31
0.0
  0
LINE
  5
18C00
330
18BFC
100
AcDbEntity
  8
寸法
 62
     0
 48
50.0
370
    -2
100
AcDbLine
 10
4214.896575106998
 20
10151.9313586596
 30
0.0
 11
4314.896575106998
 21
10151.9313586596
 31
0.0
  0
LINE
  5
18C01
330
18BFC
100
AcDbEntity
  8
寸法
 62
     0
 48
50.0
370
    -2
100
AcDbLine
 10
4159.896575106963
 20
10151.9313586596
 30
0.0
 11
3742.926012358486
 21
10151.9313586596
 31
0.0
  0
LINE
  5
18C02
330
18BFC
100
AcDbEntity
  8
寸法
 62
     0
 48
50.0
370
    -2
100
AcDbLine
 10
4214.896575106998
 20
10151.9313586596
 30
0.0
 11
4159.896575106963
 21
10151.9313586596
 31
0.0
  0
INSERT
  5
18C03
330
18BFC
100
AcDbEntity
  8
寸法
 62
     0
 48
50.0
370
    -2
100
AcDbBlockReference
  2
_DOTSMALL
 10
4214.896575106998
 20
10151.9313586596
 30
0.0
 41
100.0
 42
100.0
 43
100.0
 50
180.0
  0
INSERT
  5
18C04
330
18BFC
100
AcDbEntity
  8
寸法
 62
     0
 48
50.0
370
    -2
100
AcDbBlockReference
  2
_DOTSMALL
 10
4159.896575106963
 20
10151.9313586596
 30
0.0
 41
100.0
 42
100.0
 43
100.0
  0
MTEXT
  5
18C05
330
18BFC
100
AcDbEntity
  8
寸法
 62
     7
 48
50.0
100
AcDbMText
 10
3851.411293732725
 20
10251.9313586596
 30
0.0
 40
120.0
 41
0.0
 71
     5
 72
     1
  1
\A1;55
  7
STYLE1
 73
     1
 44
1.0
1001
ACAD
1000
MTEXTBEGIN
1070
    73
1070
     1
1070
    44
1040
1.0
1070
    74
1070
     0
1000
MTEXTEND
  0
POINT
  5
18C06
330
18BFC
100
AcDbEntity
  8
DEFPOINTS
 62
     0
 48
50.0
100
AcDbPoint
 10
4159.896575106963
 20
9636.123139034623
 30
0.0
  0
POINT
  5
18C07
330
18BFC
100
AcDbEntity
  8
DEFPOINTS
 62
     0
 48
50.0
100
AcDbPoint
 10
4214.896575106998
 20
9636.123139034623
 30
0.0
  0
POINT
  5
18C08
330
18BFC
100
AcDbEntity
  8
DEFPOINTS
 62
     0
 48
50.0
100
AcDbPoint
 10
4214.896575106998
 20
10151.9313586596
 30
0.0
  0
ENDBLK
  5
18C09
330
18BFC
100
AcDbEntity
  8
0
 48
50.0
100
AcDbBlockEnd
  0
BLOCK
  5
18C0B
330
18C0A
100
AcDbEntity
  8
0
 48
50.0
100
AcDbBlockBegin
  2
*D8
 70
     1
 10
0.0
 20
0.0
 30
0.0
  3
*D8
  1

  0
LINE
  5
18C0C
330
18C0A
100
AcDbEntity
  8
寸法
 62
     0
 48
50.0
370
    -2
100
AcDbLine
 10
4159.896575106992
 20
7826.123139034546
 30
0.0
 11
4159.896575106992
 21
6804.372203245664
 31
0.0
  0
LINE
  5
18C0D
330
18C0A
100
AcDbEntity
  8
寸法
 62
     0
 48
50.0
370
    -2
100
AcDbLine
 10
7629.896575106974
 20
7826.123139034674
 30
0.0
 11
7629.896575106974
 21
6804.372203245664
 31
0.0
  0
LINE
  5
18C0E
330
18C0A
100
AcDbEntity
  8
寸法
 62
     0
 48
50.0
370
    -2
100
AcDbLine
 10
4159.896575106992
 20
6864.372203245665
 30
0.0
 11
7629.896575106974
 21
6864.372203245665
 31
0.0
  0
INSERT
  5
18C0F
330
18C0A
100
AcDbEntity
  8
寸法
 62
     0
 48
50.0
370
    -2
100
AcDbBlockReference
  2
_DOTSMALL
 10
4159.896575106992
 20
6864.372203245665
 30
0.0
 41
100.0
 42
100.0
 43
100.0
 50
180.0
  0
INSERT
  5
18C10
330
18C0A
100
AcDbEntity
  8
寸法
 62
     0
 48
50.0
370
    -2
100
AcDbBlockReference
  2
_DOTSMALL
 10
7629.896575106974
 20
6864.372203245665
 30
0.0
 41
100.0
 42
100.0
 43
100.0
  0
MTEXT
  5
18C11
330
18C0A
100
AcDbEntity
  8
寸法
 62
     7
 48
50.0
100
AcDbMText
 10
5911.12376113973
 20
6964.372203245665
 30
0.0
 40
120.0
 41
0.0
 71
     5
 72
     1
  1
\A1;3470
  7
STYLE1
 73
     1
 44
1.0
1001
ACAD
1000
MTEXTBEGIN
1070
    73
1070
     1
1070
    44
1040
1.0
1070
    74
1070
     0
1000
MTEXTEND
  0
POINT
  5
18C12
330
18C0A
100
AcDbEntity
  8
DEFPOINTS
 62
     0
 48
50.0
100
AcDbPoint
 10
4159.896575106992
 20
7846.123139034546
 30
0.0
  0
POINT
  5
18C13
330
18C0A
100
AcDbEntity
  8
DEFPOINTS
 62
     0
 48
50.0
100
AcDbPoint
 10
7629.896575106974
 20
7846.123139034673
 30
0.0
  0
POINT
  5
18C14
330
18C0A
100
AcDbEntity
  8
DEFPOINTS
 62
     0
 48
50.0
100
AcDbPoint
 10
7629.896575106974
 20
6864.372203245665
 30
0.0
  0
ENDBLK
  5
18C15
330
18C0A
100
AcDbEntity
  8
0
 48
50.0
100
AcDbBlockEnd
  0
BLOCK
  5
18C17
330
18C16
100
AcDbEntity
  8
0
 48
50.0
100
AcDbBlockBegin
  2
*D9
 70
     1
 10
0.0
 20
0.0
 30
0.0
  3
*D9
  1

  0
LINE
  5
18C18
330
18C16
100
AcDbEntity
  8
寸法
 62
     0
 48
50.0
370
    -2
100
AcDbLine
 10
7649.896575106973
 20
7901.123139034706
 30
0.0
 11
8337.322920841385
 21
7901.123139034706
 31
0.0
  0
LINE
  5
18C19
330
18C16
100
AcDbEntity
  8
寸法
 62
     0
 48
50.0
370
    -2
100
AcDbLine
 10
7649.896575106973
 20
7846.123139034709
 30
0.0
 11
8337.322920841385
 21
7846.123139034709
 31
0.0
  0
LINE
  5
18C1A
330
18C16
100
AcDbEntity
  8
寸法
 62
     0
 48
50.0
370
    -2
100
AcDbLine
 10
8277.322920841385
 20
7901.123139034706
 30
0.0
 11
8277.322920841385
 21
8001.123139034707
 31
0.0
  0
LINE
  5
18C1B
330
18C16
100
AcDbEntity
  8
寸法
 62
     0
 48
50.0
370
    -2
100
AcDbLine
 10
8277.322920841385
 20
7846.123139034709
 30
0.0
 11
8277.322920841385
 21
7429.152576286229
 31
0.0
  0
LINE
  5
18C1C
330
18C16
100
AcDbEntity
  8
寸法
 62
     0
 48
50.0
370
    -2
100
AcDbLine
 10
8277.322920841385
 20
7901.123139034706
 30
0.0
 11
8277.322920841385
 21
7846.123139034709
 31
0.0
  0
INSERT
  5
18C1D
330
18C16
100
AcDbEntity
  8
寸法
 62
     0
 48
50.0
370
    -2
100
AcDbBlockReference
  2
_DOTSMALL
 10
8277.322920841385
 20
7901.123139034706
 30
0.0
 41
100.0
 42
100.0
 43
100.0
 50
270.0
  0
INSERT
  5
18C1E
330
18C16
100
AcDbEntity
  8
寸法
 62
     0
 48
50.0
370
    -2
100
AcDbBlockReference
  2
_DOTSMALL
 10
8277.322920841385
 20
7846.123139034709
 30
0.0
 41
100.0
 42
100.0
 43
100.0
 50
90.0
  0
MTEXT
  5
18C1F
330
18C16
100
AcDbEntity
  8
寸法
 62
     7
 48
50.0
100
AcDbMText
 10
8177.322920841383
 20
7537.637857660469
 30
0.0
 40
120.0
 41
0.0
 71
     5
 72
     1
  1
\A1;55
  7
STYLE1
 11
0.0000000000000001
 21
1.0
 31
0.0
 73
     1
 44
1.0
1001
ACAD
1000
MTEXTBEGIN
1070
    73
1070
     1
1070
    44
1040
1.0
1070
    74
1070
     0
1000
MTEXTEND
  0
POINT
  5
18C20
330
18C16
100
AcDbEntity
  8
DEFPOINTS
 62
     0
 48
50.0
100
AcDbPoint
 10
7629.896575106974
 20
7901.123139034706
 30
0.0
  0
POINT
  5
18C21
330
18C16
100
AcDbEntity
  8
DEFPOINTS
 62
     0
 48
50.0
100
AcDbPoint
 10
7629.896575106974
 20
7846.123139034709
 30
0.0
  0
POINT
  5
18C22
330
18C16
100
AcDbEntity
  8
DEFPOINTS
 62
     0
 48
50.0
100
AcDbPoint
 10
8277.322920841385
 20
7846.123139034709
 30
0.0
  0
ENDBLK
  5
18C23
330
18C16
100
AcDbEntity
  8
0
 48
50.0
100
AcDbBlockEnd
  0
BLOCK
  5
18C25
330
18C24
100
AcDbEntity
  8
0
 48
50.0
100
AcDbBlockBegin
  2
*D10
 70
     1
 10
0.0
 20
0.0
 30
0.0
  3
*D10
  1

  0
LINE
  5
18C26
330
18C24
100
AcDbEntity
  8
寸法
 62
     0
 48
50.0
370
    -2
100
AcDbLine
 10
6533.037591258376
 20
9136.123139034728
 30
0.0
 11
6465.083950562664
 21
8882.516699399049
 31
0.0
  0
LINE
  5
18C27
330
18C24
100
AcDbEntity
  8
寸法
 62
     0
 48
50.0
370
    -2
100
AcDbLine
 10
7596.037591258388
 20
9136.123139034721
 30
0.0
 11
7528.083950562677
 21
8882.516699399049
 31
0.0
  0
LINE
  5
18C28
330
18C24
100
AcDbEntity
  8
寸法
 62
     0
 48
50.0
370
    -2
100
AcDbLine
 10
6481.160902108531
 20
8942.51669939905
 30
0.0
 11
7544.160902108544
 21
8942.51669939905
 31
0.0
  0
INSERT
  5
18C29
330
18C24
100
AcDbEntity
  8
寸法
 62
     0
 48
50.0
370
    -2
100
AcDbBlockReference
  2
_DOTSMALL
 10
6481.160902108531
 20
8942.51669939905
 30
0.0
 41
100.0
 42
100.0
 43
100.0
 50
180.0
  0
INSERT
  5
18C2A
330
18C24
100
AcDbEntity
  8
寸法
 62
     0
 48
50.0
370
    -2
100
AcDbBlockReference
  2
_DOTSMALL
 10
7544.160902108544
 20
8942.51669939905
 30
0.0
 41
100.0
 42
100.0
 43
100.0
  0
MTEXT
  5
18C2B
330
18C24
100
AcDbEntity
  8
寸法
 62
     7
 48
50.0
100
AcDbMText
 10
7061.28653022935
 20
9042.516699399049
 30
0.0
 40
120.0
 41
0.0
 71
     5
 72
     1
  1
\A1;1063
  7
STYLE1
 73
     1
 44
1.0
1001
ACAD
1000
MTEXTBEGIN
1070
    73
1070
     1
1070
    44
1040
1.0
1070
    74
1070
     0
1000
MTEXTEND
  0
POINT
  5
18C2C
330
18C24
100
AcDbEntity
  8
DEFPOINTS
 62
     0
 48
50.0
100
AcDbPoint
 10
6538.396575106998
 20
9156.123139034727
 30
0.0
  0
POINT
  5
18C2D
330
18C24
100
AcDbEntity
  8
DEFPOINTS
 62
     0
 48
50.0
100
AcDbPoint
 10
7601.39657510701
 20
9156.12313903472
 30
0.0
  0
POINT
  5
18C2E
330
18C24
100
AcDbEntity
  8
DEFPOINTS
 62
     0
 48
50.0
100
AcDbPoint
 10
7544.160902108544
 20
8942.51669939905
 30
0.0
  0
ENDBLK
  5
18C2F
330
18C24
100
AcDbEntity
  8
0
 48
50.0
100
AcDbBlockEnd
  0
BLOCK
  5
18C31
330
18C30
100
AcDbEntity
  8
0
 48
50.0
100
AcDbBlockBegin
  2
*D11
 70
     1
 10
0.0
 20
0.0
 30
0.0
  3
*D11
  1

  0
LINE
  5
18C32
330
18C30
100
AcDbEntity
  8
寸法
 62
     0
 48
50.0
370
    -2
100
AcDbLine
 10
7621.396575106999
 20
9600.764155186094
 30
0.0
 11
8016.754300969024
 21
9494.828371819961
 31
0.0
  0
LINE
  5
18C33
330
18C30
100
AcDbEntity
  8
寸法
 62
     0
 48
50.0
370
    -2
100
AcDbLine
 10
7621.396575106999
 20
9150.764155186099
 30
0.0
 11
8016.754300969024
 21
9044.828371819964
 31
0.0
  0
LINE
  5
18C34
330
18C30
100
AcDbEntity
  8
寸法
 62
     0
 48
50.0
370
    -2
100
AcDbLine
 10
7956.754300969024
 20
9510.905323365827
 30
0.0
 11
7956.754300969024
 21
9060.90532336583
 31
0.0
  0
INSERT
  5
18C35
330
18C30
100
AcDbEntity
  8
寸法
 62
     0
 48
50.0
370
    -2
100
AcDbBlockReference
  2
_DOTSMALL
 10
7956.754300969024
 20
9510.905323365827
 30
0.0
 41
100.0
 42
100.0
 43
100.0
 50
90.0
  0
INSERT
  5
18C36
330
18C30
100
AcDbEntity
  8
寸法
 62
     0
 48
50.0
370
    -2
100
AcDbBlockReference
  2
_DOTSMALL
 10
7956.754300969024
 20
9060.90532336583
 30
0.0
 41
100.0
 42
100.0
 43
100.0
 50
270.0
  0
MTEXT
  5
18C37
330
18C30
100
AcDbEntity
  8
寸法
 62
     7
 48
50.0
100
AcDbMText
 10
7856.754300969022
 20
9285.905323365829
 30
0.0
 40
120.0
 41
0.0
 71
     5
 72
     1
  1
\A1;450
  7
STYLE1
 11
0.0000000000000001
 21
1.0
 31
0.0
 73
     1
 44
1.0
1001
ACAD
1000
MTEXTBEGIN
1070
    73
1070
     1
1070
    44
1040
1.0
1070
    74
1070
     0
1000
MTEXTEND
  0
POINT
  5
18C38
330
18C30
100
AcDbEntity
  8
DEFPOINTS
 62
     0
 48
50.0
100
AcDbPoint
 10
7601.396575106999
 20
9606.123139034718
 30
0.0
  0
POINT
  5
18C39
330
18C30
100
AcDbEntity
  8
DEFPOINTS
 62
     0
 48
50.0
100
AcDbPoint
 10
7601.396575106999
 20
9156.12313903472
 30
0.0
  0
POINT
  5
18C3A
330
18C30
100
AcDbEntity
  8
DEFPOINTS
 62
     0
 48
50.0
100
AcDbPoint
 10
7956.754300969024
 20
9060.90532336583
 30
0.0
  0
ENDBLK
  5
18C3B
330
18C30
100
AcDbEntity
  8
0
 48
50.0
100
AcDbBlockEnd
  0
BLOCK
  5
18C3D
330
18C3C
100
AcDbEntity
  8
0
 48
50.0
100
AcDbBlockBegin
  2
*D12
 70
     1
 10
0.0
 20
0.0
 30
0.0
  3
*D12
  1

  0
LINE
  5
18C3E
330
18C3C
100
AcDbEntity
  8
寸法
 62
     0
 48
50.0
370
    -2
100
AcDbLine
 10
7649.896575106999
 20
9581.123139034721
 30
0.0
 11
8337.32292084141
 21
9581.123139034721
 31
0.0
  0
LINE
  5
18C3F
330
18C3C
100
AcDbEntity
  8
寸法
 62
     0
 48
50.0
370
    -2
100
AcDbLine
 10
7649.896575106973
 20
7901.123139034706
 30
0.0
 11
8337.32292084141
 21
7901.123139034706
 31
0.0
  0
LINE
  5
18C40
330
18C3C
100
AcDbEntity
  8
寸法
 62
     0
 48
50.0
370
    -2
100
AcDbLine
 10
8277.322920841411
 20
9581.123139034721
 30
0.0
 11
8277.322920841411
 21
7901.123139034706
 31
0.0
  0
INSERT
  5
18C41
330
18C3C
100
AcDbEntity
  8
寸法
 62
     0
 48
50.0
370
    -2
100
AcDbBlockReference
  2
_DOTSMALL
 10
8277.322920841411
 20
9581.123139034721
 30
0.0
 41
100.0
 42
100.0
 43
100.0
 50
90.0
  0
INSERT
  5
18C42
330
18C3C
100
AcDbEntity
  8
寸法
 62
     0
 48
50.0
370
    -2
100
AcDbBlockReference
  2
_DOTSMALL
 10
8277.322920841411
 20
7901.123139034706
 30
0.0
 41
100.0
 42
100.0
 43
100.0
 50
270.0
  0
MTEXT
  5
18C43
330
18C3C
100
AcDbEntity
  8
寸法
 62
     7
 48
50.0
100
AcDbMText
 10
8177.311109817788
 20
8741.123139034712
 30
0.0
 40
120.0
 41
0.0
 71
     5
 72
     1
  1
\A1;4X420=1680
  7
STYLE1
 11
0.0000000000000001
 21
1.0
 31
0.0
 73
     1
 44
1.0
1001
ACAD
1000
MTEXTBEGIN
1070
    73
1070
     1
1070
    44
1040
1.0
1070
    74
1070
     0
1000
MTEXTEND
  0
POINT
  5
18C44
330
18C3C
100
AcDbEntity
  8
DEFPOINTS
 62
     0
 48
50.0
100
AcDbPoint
 10
7629.896575106998
 20
9581.123139034721
 30
0.0
  0
POINT
  5
18C45
330
18C3C
100
AcDbEntity
  8
DEFPOINTS
 62
     0
 48
50.0
100
AcDbPoint
 10
7629.896575106974
 20
7901.123139034706
 30
0.0
  0
POINT
  5
18C46
330
18C3C
100
AcDbEntity
  8
DEFPOINTS
 62
     0
 48
50.0
100
AcDbPoint
 10
8277.322920841411
 20
7901.123139034706
 30
0.0
  0
ENDBLK
  5
18C47
330
18C3C
100
AcDbEntity
  8
0
 48
50.0
100
AcDbBlockEnd
  0
BLOCK
  5
18C49
330
18C48
100
AcDbEntity
  8
0
 48
50.0
100
AcDbBlockBegin
  2
*D13
 70
     1
 10
0.0
 20
0.0
 30
0.0
  3
*D13
  1

  0
LINE
  5
18C4A
330
18C48
100
AcDbEntity
  8
寸法
 62
     0
 48
50.0
370
    -2
100
AcDbLine
 10
4183.037591258377
 20
9136.123139034619
 30
0.0
 11
4115.083950562663
 21
8882.516699398941
 31
0.0
  0
LINE
  5
18C4B
330
18C48
100
AcDbEntity
  8
寸法
 62
     0
 48
50.0
370
    -2
100
AcDbLine
 10
5246.037591258307
 20
9136.123139034671
 30
0.0
 11
5178.08395056258
 21
8882.516699398941
 31
0.0
  0
LINE
  5
18C4C
330
18C48
100
AcDbEntity
  8
寸法
 62
     0
 48
50.0
370
    -2
100
AcDbLine
 10
4131.160902108532
 20
8942.516699398941
 30
0.0
 11
5194.160902108448
 21
8942.516699398941
 31
0.0
  0
INSERT
  5
18C4D
330
18C48
100
AcDbEntity
  8
寸法
 62
     0
 48
50.0
370
    -2
100
AcDbBlockReference
  2
_DOTSMALL
 10
4131.160902108532
 20
8942.516699398941
 30
0.0
 41
100.0
 42
100.0
 43
100.0
 50
180.0
  0
INSERT
  5
18C4E
330
18C48
100
AcDbEntity
  8
寸法
 62
     0
 48
50.0
370
    -2
100
AcDbBlockReference
  2
_DOTSMALL
 10
5194.160902108448
 20
8942.516699398941
 30
0.0
 41
100.0
 42
100.0
 43
100.0
  0
MTEXT
  5
18C4F
330
18C48
100
AcDbEntity
  8
寸法
 62
     7
 48
50.0
100
AcDbMText
 10
4658.986452655306
 20
9042.516699398941
 30
0.0
 40
120.0
 41
0.0
 71
     5
 72
     1
  1
\A1;1063
  7
STYLE1
 73
     1
 44
1.0
1001
ACAD
1000
MTEXTBEGIN
1070
    73
1070
     1
1070
    44
1040
1.0
1070
    74
1070
     0
1000
MTEXTEND
  0
POINT
  5
18C50
330
18C48
100
AcDbEntity
  8
DEFPOINTS
 62
     0
 48
50.0
100
AcDbPoint
 10
4188.396575106999
 20
9156.123139034617
 30
0.0
  0
POINT
  5
18C51
330
18C48
100
AcDbEntity
  8
DEFPOINTS
 62
     0
 48
50.0
100
AcDbPoint
 10
5251.396575106929
 20
9156.123139034672
 30
0.0
  0
POINT
  5
18C52
330
18C48
100
AcDbEntity
  8
DEFPOINTS
 62
     0
 48
50.0
100
AcDbPoint
 10
5194.160902108448
 20
8942.516699398941
 30
0.0
  0
ENDBLK
  5
18C53
330
18C48
100
AcDbEntity
  8
0
 48
50.0
100
AcDbBlockEnd
  0
BLOCK
  5
18C55
330
18C54
100
AcDbEntity
  8
0
 48
50.0
100
AcDbBlockBegin
  2
*D14
 70
     1
 10
0.0
 20
0.0
 30
0.0
  3
*D14
  1

  0
LINE
  5
18C56
330
18C54
100
AcDbEntity
  8
寸法
 62
     0
 48
50.0
370
    -2
100
AcDbLine
 10
5274.037591258307
 20
9136.123139034669
 30
0.0
 11
5206.08395056258
 21
8882.516699398941
 31
0.0
  0
LINE
  5
18C57
330
18C54
100
AcDbEntity
  8
寸法
 62
     0
 48
50.0
370
    -2
100
AcDbLine
 10
6505.037591258377
 20
9136.123139034662
 30
0.0
 11
6437.083950562653
 21
8882.516699398941
 31
0.0
  0
LINE
  5
18C58
330
18C54
100
AcDbEntity
  8
寸法
 62
     0
 48
50.0
370
    -2
100
AcDbLine
 10
5222.160902108448
 20
8942.516699398941
 30
0.0
 11
6453.16090210852
 21
8942.516699398941
 31
0.0
  0
INSERT
  5
18C59
330
18C54
100
AcDbEntity
  8
寸法
 62
     0
 48
50.0
370
    -2
100
AcDbBlockReference
  2
_DOTSMALL
 10
5222.160902108448
 20
8942.516699398941
 30
0.0
 41
100.0
 42
100.0
 43
100.0
 50
180.0
  0
INSERT
  5
18C5A
330
18C54
100
AcDbEntity
  8
寸法
 62
     0
 48
50.0
370
    -2
100
AcDbBlockReference
  2
_DOTSMALL
 10
6453.16090210852
 20
8942.516699398941
 30
0.0
 41
100.0
 42
100.0
 43
100.0
  0
MTEXT
  5
18C5B
330
18C54
100
AcDbEntity
  8
寸法
 62
     7
 48
50.0
100
AcDbMText
 10
6081.244808320626
 20
9042.528510422561
 30
0.0
 40
120.0
 41
0.0
 71
     5
 72
     1
  1
\A1;1231
  7
STYLE1
 73
     1
 44
1.0
1001
ACAD
1000
MTEXTBEGIN
1070
    73
1070
     1
1070
    44
1040
1.0
1070
    74
1070
     0
1000
MTEXTEND
  0
POINT
  5
18C5C
330
18C54
100
AcDbEntity
  8
DEFPOINTS
 62
     0
 48
50.0
100
AcDbPoint
 10
5279.396575106929
 20
9156.123139034669
 30
0.0
  0
POINT
  5
18C5D
330
18C54
100
AcDbEntity
  8
DEFPOINTS
 62
     0
 48
50.0
100
AcDbPoint
 10
6510.396575106999
 20
9156.123139034662
 30
0.0
  0
POINT
  5
18C5E
330
18C54
100
AcDbEntity
  8
DEFPOINTS
 62
     0
 48
50.0
100
AcDbPoint
 10
6453.16090210852
 20
8942.516699398941
 30
0.0
  0
ENDBLK
  5
18C5F
330
18C54
100
AcDbEntity
  8
0
 48
50.0
100
AcDbBlockEnd
  0
BLOCK
  5
18C61
330
18C60
100
AcDbEntity
  8
0
 48
50.0
100
AcDbBlockBegin
  2
*D15
 70
     1
 10
0.0
 20
0.0
 30
0.0
  3
*D15
  1

  0
LINE
  5
18C62
330
18C60
100
AcDbEntity
  8
寸法
 62
     0
 48
50.0
370
    -2
100
AcDbLine
 10
5065.896575106966
 20
7749.123139034579
 30
0.0
 11
5065.896575106966
 21
7099.952920982538
 31
0.0
  0
LINE
  5
18C63
330
18C60
100
AcDbEntity
  8
寸法
 62
     0
 48
50.0
370
    -2
100
AcDbLine
 10
6331.896575106966
 20
7749.123139034579
 30
0.0
 11
6331.896575106966
 21
7099.952920982538
 31
0.0
  0
LINE
  5
18C64
330
18C60
100
AcDbEntity
  8
寸法
 62
     0
 48
50.0
370
    -2
100
AcDbLine
 10
5065.896575106966
 20
7159.952920982537
 30
0.0
 11
6331.896575106966
 21
7159.952920982537
 31
0.0
  0
INSERT
  5
18C65
330
18C60
100
AcDbEntity
  8
寸法
 62
     0
 48
50.0
370
    -2
100
AcDbBlockReference
  2
_DOTSMALL
 10
5065.896575106966
 20
7159.952920982537
 30
0.0
 41
100.0
 42
100.0
 43
100.0
 50
180.0
  0
INSERT
  5
18C66
330
18C60
100
AcDbEntity
  8
寸法
 62
     0
 48
50.0
370
    -2
100
AcDbBlockReference
  2
_DOTSMALL
 10
6331.896575106966
 20
7159.952920982537
 30
0.0
 41
100.0
 42
100.0
 43
100.0
  0
MTEXT
  5
18C67
330
18C60
100
AcDbEntity
  8
寸法
 62
     7
 48
50.0
100
AcDbMText
 10
5711.986008735934
 20
7359.964732006159
 30
0.0
 40
120.0
 41
0.0
 71
     5
 72
     1
  1
\A1;有効開口部間口\P1266
  7
STYLE1
 73
     1
 44
1.0
1001
ACAD
1000
MTEXTBEGIN
1070
    73
1070
     1
1070
    44
1040
1.0
1070
    74
1070
     0
1000
MTEXTEND
  0
POINT
  5
18C68
330
18C60
100
AcDbEntity
  8
DEFPOINTS
 62
     0
 48
50.0
100
AcDbPoint
 10
5065.896575106966
 20
7769.123139034579
 30
0.0
  0
POINT
  5
18C69
330
18C60
100
AcDbEntity
  8
DEFPOINTS
 62
     0
 48
50.0
100
AcDbPoint
 10
6331.896575106966
 20
7769.123139034579
 30
0.0
  0
POINT
  5
18C6A
330
18C60
100
AcDbEntity
  8
DEFPOINTS
 62
     0
 48
50.0
100
AcDbPoint
 10
6331.896575106966
 20
7159.952920982537
 30
0.0
  0
ENDBLK
  5
18C6B
330
18C60
100
AcDbEntity
  8
0
 48
50.0
100
AcDbBlockEnd
  0
BLOCK
  5
18C6D
330
18C6C
100
AcDbEntity
  8
0
 48
50.0
100
AcDbBlockBegin
  2
*D16
 70
     1
 10
0.0
 20
0.0
 30
0.0
  3
*D16
  1

  0
LINE
  5
18C6E
330
18C6C
100
AcDbEntity
  8
寸法
 62
     0
 48
50.0
370
    -2
100
AcDbLine
 10
7200.896575106966
 20
7846.123139034578
 30
0.0
 11
7457.192158500191
 21
7846.123139034578
 31
0.0
  0
LINE
  5
18C6F
330
18C6C
100
AcDbEntity
  8
寸法
 62
     0
 48
50.0
370
    -2
100
AcDbLine
 10
7199.896575106966
 20
7769.123139034579
 30
0.0
 11
7457.192158500191
 21
7769.123139034579
 31
0.0
  0
LINE
  5
18C70
330
18C6C
100
AcDbEntity
  8
寸法
 62
     0
 48
50.0
370
    -2
100
AcDbLine
 10
7417.192158500192
 20
7866.123139034579
 30
0.0
 11
7417.192158500192
 21
7886.123139034578
 31
0.0
  0
LINE
  5
18C71
330
18C6C
100
AcDbEntity
  8
寸法
 62
     0
 48
50.0
370
    -2
100
AcDbLine
 10
7417.192158500192
 20
7749.123139034579
 30
0.0
 11
7417.192158500192
 21
7533.123139034573
 31
0.0
  0
LINE
  5
18C72
330
18C6C
100
AcDbEntity
  8
寸法
 62
     0
 48
50.0
370
    -2
100
AcDbLine
 10
7417.192158500192
 20
7846.123139034578
 30
0.0
 11
7417.192158500192
 21
7769.123139034579
 31
0.0
  0
INSERT
  5
18C73
330
18C6C
100
AcDbEntity
  8
寸法
 62
     0
 48
50.0
370
    -2
100
AcDbBlockReference
  2
_DOT
 10
7417.192158500192
 20
7846.123139034578
 30
0.0
 41
20.0
 42
20.0
 43
20.0
 50
270.0
  0
INSERT
  5
18C74
330
18C6C
100
AcDbEntity
  8
寸法
 62
     0
 48
50.0
370
    -2
100
AcDbBlockReference
  2
_DOT
 10
7417.192158500192
 20
7769.123139034579
 30
0.0
 41
20.0
 42
20.0
 43
20.0
 50
90.0
  0
MTEXT
  5
18C75
330
18C6C
100
AcDbEntity
  8
寸法
 62
     7
 48
50.0
100
AcDbMText
 10
7325.192158500191
 20
7631.123139034575
 30
0.0
 40
120.0
 41
0.0
 71
     5
 72
     1
  1
\A1;77
  7
STYLE1
 11
0.0000000000000001
 21
1.0
 31
0.0
 73
     1
 44
1.0
1001
ACAD
1000
MTEXTBEGIN
1070
    73
1070
     1
1070
    44
1040
1.0
1070
    74
1070
     0
1000
MTEXTEND
  0
POINT
  5
18C76
330
18C6C
100
AcDbEntity
  8
DEFPOINTS
 62
     0
 48
50.0
100
AcDbPoint
 10
7180.896575106967
 20
7846.123139034578
 30
0.0
  0
POINT
  5
18C77
330
18C6C
100
AcDbEntity
  8
DEFPOINTS
 62
     0
 48
50.0
100
AcDbPoint
 10
7179.896575106965
 20
7769.123139034579
 30
0.0
  0
POINT
  5
18C78
330
18C6C
100
AcDbEntity
  8
DEFPOINTS
 62
     0
 48
50.0
100
AcDbPoint
 10
7417.192158500192
 20
7769.123139034579
 30
0.0
  0
ENDBLK
  5
18C79
330
18C6C
100
AcDbEntity
  8
0
 48
50.0
100
AcDbBlockEnd
  0
BLOCK
  5
18DA0
330
18C7A
100
AcDbEntity
  8
0
 48
50.0
100
AcDbBlockBegin
  2
A$C3B1A506B
 70
     0
 10
0.0
 20
0.0
 30
0.0
  3
A$C3B1A506B
  1

  0
MTEXT
  5
18C7B
330
18C7A
100
AcDbEntity
  8
寸法
 62
     7
 48
50.0
100
AcDbMText
 10
3342.250386887194
 20
2778.329429134012
 30
0.0
 40
96.0
 41
0.0
 71
     5
 72
     1
  1
棚 2段
  7
STYLE1
 73
     1
 44
1.0
1001
ACAD
1000
MTEXTBEGIN
1070
    73
1070
     1
1070
    44
1040
1.0
1070
    74
1070
     0
1000
MTEXTEND
  0
MTEXT
  5
18C7C
330
18C7A
100
AcDbEntity
  8
寸法
 62
     7
 48
50.0
100
AcDbMText
 10
2167.25038688716
 20
2778.329429133986
 30
0.0
 40
96.0
 41
0.0
 71
     5
 72
     1
  1
棚 2段
  7
STYLE1
 73
     1
 44
1.0
1001
ACAD
1000
MTEXTBEGIN
1070
    73
1070
     1
1070
    44
1040
1.0
1070
    74
1070
     0
1000
MTEXTEND
  0
MTEXT
  5
18C7D
330
18C7A
100
AcDbEntity
  8
寸法
 62
     7
 48
50.0
100
AcDbMText
 10
992.2503868871608
 20
2778.329429133935
 30
0.0
 40
96.0
 41
0.0
 71
     5
 72
     1
  1
棚 2段
  7
STYLE1
 73
     1
 44
1.0
1001
ACAD
1000
MTEXTBEGIN
1070
    73
1070
     1
1070
    44
1040
1.0
1070
    74
1070
     0
1000
MTEXTEND
  0
LINE
  5
18C7E
330
18C7A
100
AcDbEntity
  8
細線
 48
50.0
100
AcDbLine
 10
2771.970589276527
 20
1368.994384123192
 30
0.0
 11
3398.970589276523
 21
1368.994384123192
 31
0.0
  0
LINE
  5
18C7F
330
18C7A
100
AcDbEntity
  8
細線
 48
50.0
100
AcDbLine
 10
2117.970593930113
 20
1335.285615569113
 30
0.0
 11
3398.970589276523
 21
1335.285615569113
 31
0.0
  0
LINE
  5
18C80
330
18C7A
100
AcDbEntity
  8
細線
 48
50.0
100
AcDbLine
 10
2076.970593930115
 20
1364.690523565368
 30
0.0
 11
1322.970589276523
 21
1364.690523565367
 31
0.0
  0
LINE
  5
18C81
330
18C7A
100
AcDbEntity
  8
細線
100
AcDbLine
 10
3170.720579860066
 20
1388.494284088199
 30
0.0
 11
3173.052119381877
 21
1393.494286728162
 31
0.0
  0
LINE
  5
18C82
330
18C7A
100
AcDbEntity
  8
細線
100
AcDbLine
 10
3240.720589276525
 20
1388.494269174465
 30
0.0
 11
3238.389042800336
 21
1393.494286728144
 31
0.0
  0
LINE
  5
18C83
330
18C7A
100
AcDbEntity
  8
細線
100
AcDbLine
 10
3238.389042800336
 20
1393.494286728144
 30
0.0
 11
3173.052119381862
 21
1393.494286728133
 31
0.0
  0
LINE
  5
18C84
330
18C7A
100
AcDbEntity
  8
細線
100
AcDbLine
 10
3098.389042800336
 20
1393.494286728144
 30
0.0
 11
3033.052119381862
 21
1393.494286728133
 31
0.0
  0
LINE
  5
18C85
330
18C7A
100
AcDbEntity
  8
細線
100
AcDbLine
 10
3100.720589276523
 20
1388.494269174465
 30
0.0
 11
3098.389042800336
 21
1393.494286728144
 31
0.0
  0
LINE
  5
18C86
330
18C7A
100
AcDbEntity
  8
細線
100
AcDbLine
 10
3030.720579860066
 20
1388.494284088199
 30
0.0
 11
3033.052119381875
 21
1393.494286728162
 31
0.0
  0
LINE
  5
18C87
330
18C7A
100
AcDbEntity
  8
細線
100
AcDbLine
 10
2890.720589276525
 20
1388.494269174465
 30
0.0
 11
2893.052128798336
 21
1393.494271814428
 31
0.0
  0
LINE
  5
18C88
330
18C7A
100
AcDbEntity
  8
細線
100
AcDbLine
 10
2960.720598692984
 20
1388.494254260731
 30
0.0
 11
2958.389052216793
 21
1393.49427181441
 31
0.0
  0
LINE
  5
18C89
330
18C7A
100
AcDbEntity
  8
細線
100
AcDbLine
 10
2958.389052216795
 20
1393.49427181441
 30
0.0
 11
2893.052128798321
 21
1393.494271814399
 31
0.0
  0
LINE
  5
18C8A
330
18C7A
100
AcDbEntity
  8
細線
100
AcDbLine
 10
2667.139038146739
 20
1359.494298590735
 30
0.0
 11
2601.802114728263
 21
1359.494298590724
 31
0.0
  0
LINE
  5
18C8B
330
18C7A
100
AcDbEntity
  8
細線
100
AcDbLine
 10
2669.470584622926
 20
1354.494281037055
 30
0.0
 11
2667.139038146737
 21
1359.494298590735
 31
0.0
  0
LINE
  5
18C8C
330
18C7A
100
AcDbEntity
  8
細線
100
AcDbLine
 10
2599.470575206469
 20
1354.49429595079
 30
0.0
 11
2601.802114728278
 21
1359.494298590752
 31
0.0
  0
LINE
  5
18C8D
330
18C7A
100
AcDbEntity
  8
細線
 48
50.0
100
AcDbLine
 10
2440.853968524536
 20
1372.765132327548
 30
0.0
 11
2446.609486107205
 21
1354.494281037057
 31
0.0
  0
LINE
  5
18C8E
330
18C7A
100
AcDbEntity
  8
細線
 48
50.0
100
AcDbLine
 10
2429.925520044106
 20
1372.765132327546
 30
0.0
 11
2440.853968524536
 21
1372.765132327548
 31
0.0
  0
ARC
  5
18C8F
330
18C7A
100
AcDbEntity
  8
細線
 48
50.0
100
AcDbCircle
 10
2424.471163986787
 20
1374.265132327546
 30
0.0
 40
5.0
100
AcDbArc
 50
204.6243183520723
 51
335.3756816479278
  0
ARC
  5
18C90
330
18C7A
100
AcDbEntity
  8
細線
 48
50.0
100
AcDbCircle
 10
2429.925520044106
 20
1371.765132327546
 30
0.0
 40
1.0
100
AcDbArc
 50
90.0
 51
155.3756816479277
  0
ARC
  5
18C91
330
18C7A
100
AcDbEntity
  8
細線
 48
50.0
100
AcDbCircle
 10
2419.016807929469
 20
1371.765132327546
 30
0.0
 40
1.0
100
AcDbArc
 50
24.62431835207225
 51
90.0
  0
LINE
  5
18C92
330
18C7A
100
AcDbEntity
  8
細線
 48
50.0
100
AcDbLine
 10
2408.088359449037
 20
1372.765132327548
 30
0.0
 11
2419.016807929469
 21
1372.765132327546
 31
0.0
  0
LINE
  5
18C93
330
18C7A
100
AcDbEntity
  8
細線
 48
50.0
100
AcDbLine
 10
2402.33284186637
 20
1354.494281037054
 30
0.0
 11
2408.088359449037
 21
1372.765132327548
 31
0.0
  0
LINE
  5
18C94
330
18C7A
100
AcDbEntity
  8
細線
100
AcDbLine
 10
2458.070304175992
 20
1354.494278397076
 30
0.0
 11
2460.401843697802
 21
1359.494281037039
 31
0.0
  0
LINE
  5
18C95
330
18C7A
100
AcDbEntity
  8
細線
100
AcDbLine
 10
2528.070313592451
 20
1354.494263483342
 30
0.0
 11
2525.738767116262
 21
1359.494281037021
 31
0.0
  0
LINE
  5
18C96
330
18C7A
100
AcDbEntity
  8
細線
100
AcDbLine
 10
2525.738767116262
 20
1359.494281037021
 30
0.0
 11
2460.40184369779
 21
1359.49428103701
 31
0.0
  0
LINE
  5
18C97
330
18C7A
100
AcDbEntity
  8
細線
100
AcDbLine
 10
2387.139046332155
 20
1359.494281037021
 30
0.0
 11
2321.80212291368
 21
1359.49428103701
 31
0.0
  0
LINE
  5
18C98
330
18C7A
100
AcDbEntity
  8
細線
100
AcDbLine
 10
2389.470592808342
 20
1354.494263483342
 30
0.0
 11
2387.139046332153
 21
1359.494281037021
 31
0.0
  0
LINE
  5
18C99
330
18C7A
100
AcDbEntity
  8
細線
100
AcDbLine
 10
2319.470584622926
 20
1354.494281037054
 30
0.0
 11
2321.802122913694
 21
1359.494281037039
 31
0.0
  0
LINE
  5
18C9A
330
18C7A
100
AcDbEntity
  8
細線
100
AcDbLine
 10
2179.47061994182
 20
1354.494289224422
 30
0.0
 11
2181.802158232587
 21
1359.494289224407
 31
0.0
  0
LINE
  5
18C9B
330
18C7A
100
AcDbEntity
  8
細線
100
AcDbLine
 10
2249.470628127236
 20
1354.49427167071
 30
0.0
 11
2247.139081651047
 21
1359.494289224389
 31
0.0
  0
LINE
  5
18C9C
330
18C7A
100
AcDbEntity
  8
細線
100
AcDbLine
 10
2247.139081651047
 20
1359.494289224389
 30
0.0
 11
2181.802158232573
 21
1359.494289224378
 31
0.0
  0
LINE
  5
18C9D
330
18C7A
100
AcDbEntity
  8
細線
100
AcDbLine
 10
1807.970585744697
 20
1320.494460905133
 30
0.0
 11
1810.302124035464
 21
1325.494460905118
 31
0.0
  0
LINE
  5
18C9E
330
18C7A
100
AcDbEntity
  8
細線
100
AcDbLine
 10
1877.970593930113
 20
1320.494443351421
 30
0.0
 11
1875.639047453926
 21
1325.4944609051
 31
0.0
  0
LINE
  5
18C9F
330
18C7A
100
AcDbEntity
  8
細線
100
AcDbLine
 10
1875.639047453926
 20
1325.4944609051
 30
0.0
 11
1810.302124035452
 21
1325.494460905089
 31
0.0
  0
LINE
  5
18CA0
330
18C7A
100
AcDbEntity
  8
細線
100
AcDbLine
 10
2015.639047453926
 20
1325.4944609051
 30
0.0
 11
1950.302124035452
 21
1325.494460905089
 31
0.0
  0
LINE
  5
18CA1
330
18C7A
100
AcDbEntity
  8
細線
100
AcDbLine
 10
2017.970593930113
 20
1320.494443351421
 30
0.0
 11
2015.639047453924
 21
1325.4944609051
 31
0.0
  0
LINE
  5
18CA2
330
18C7A
100
AcDbEntity
  8
細線
100
AcDbLine
 10
1947.970585744697
 20
1320.494460905133
 30
0.0
 11
1950.302124035465
 21
1325.494460905118
 31
0.0
  0
LINE
  5
18CA3
330
18C7A
100
AcDbEntity
  8
細線
100
AcDbLine
 10
1735.639047453926
 20
1325.494460905098
 30
0.0
 11
1670.302124035454
 21
1325.494460905087
 31
0.0
  0
LINE
  5
18CA4
330
18C7A
100
AcDbEntity
  8
細線
100
AcDbLine
 10
1737.970593930113
 20
1320.494443351419
 30
0.0
 11
1735.639047453926
 21
1325.494460905098
 31
0.0
  0
LINE
  5
18CA5
330
18C7A
100
AcDbEntity
  8
細線
100
AcDbLine
 10
1667.970585744697
 20
1320.494460905131
 30
0.0
 11
1670.302124035465
 21
1325.494460905116
 31
0.0
  0
LINE
  5
18CA6
330
18C7A
100
AcDbEntity
  8
細線
100
AcDbLine
 10
1527.970593930113
 20
1320.494460905133
 30
0.0
 11
1530.302132220881
 21
1325.494460905118
 31
0.0
  0
LINE
  5
18CA7
330
18C7A
100
AcDbEntity
  8
細線
100
AcDbLine
 10
1597.970602115529
 20
1320.494443351421
 30
0.0
 11
1595.639055639342
 21
1325.4944609051
 31
0.0
  0
LINE
  5
18CA8
330
18C7A
100
AcDbEntity
  8
細線
100
AcDbLine
 10
1595.639055639342
 20
1325.4944609051
 30
0.0
 11
1530.302132220869
 21
1325.494460905089
 31
0.0
  0
ARC
  5
18CA9
330
18C7A
100
AcDbEntity
  8
部品1
 48
0.01
100
AcDbCircle
 10
1483.470482677778
 20
1319.493338720063
 30
0.0
 40
0.5
100
AcDbArc
 50
270.0
 51
0.0
  0
LINE
  5
18CAA
330
18C7A
100
AcDbEntity
  8
部品1
 48
0.01
100
AcDbLine
 10
1483.970482677778
 20
1320.493338720063
 30
0.0
 11
1483.970482677778
 21
1319.493338720063
 31
0.0
  0
LINE
  5
18CAB
330
18C7A
100
AcDbEntity
  8
部品1
 48
0.01
100
AcDbLine
 10
1483.970482677778
 20
1320.493338720063
 30
0.0
 11
1483.970482677778
 21
1319.493338720063
 31
0.0
  0
LINE
  5
18CAC
330
18C7A
100
AcDbEntity
  8
部品1
 48
0.01
100
AcDbLine
 10
1483.470482677778
 20
1318.993338720063
 30
0.0
 11
1476.857977247713
 21
1318.993338720062
 31
0.0
  0
ARC
  5
18CAD
330
18C7A
100
AcDbEntity
  8
部品1
100
AcDbCircle
 10
1476.926326800494
 20
1319.993338720062
 30
0.0
 40
1.0
100
AcDbArc
 50
160.5287793655865
 51
270.0
  0
ARC
  5
18CAE
330
18C7A
100
AcDbEntity
  8
部品1
100
AcDbCircle
 10
1451.470482677778
 20
1328.993338720062
 30
0.0
 40
26.0
100
AcDbArc
 50
340.5287793655865
 51
0.0
  0
LINE
  5
18CAF
330
18C7A
100
AcDbEntity
  8
部品1
100
AcDbLine
 10
1477.470482677778
 20
1328.993338720062
 30
0.0
 11
1477.470482677778
 21
1333.993338720061
 31
0.0
  0
ARC
  5
18CB0
330
18C7A
100
AcDbEntity
  8
部品1
 48
0.01
100
AcDbCircle
 10
1475.470482677778
 20
1333.993338720061
 30
0.0
 40
2.0
100
AcDbArc
 50
0.0
 51
90.0
  0
ARC
  5
18CB1
330
18C7A
100
AcDbEntity
  8
部品1
100
AcDbCircle
 10
1473.862091052968
 20
1332.993338720062
 30
0.0
 40
3.0
100
AcDbArc
 50
90.0
 51
141.6069559808035
  0
LINE
  5
18CB2
330
18C7A
100
AcDbEntity
  8
部品1
 48
0.01
100
AcDbLine
 10
1475.470482677778
 20
1335.993338720062
 30
0.0
 11
1473.862091052968
 21
1335.993338720062
 31
0.0
  0
ARC
  5
18CB3
330
18C7A
100
AcDbEntity
  8
部品1
100
AcDbCircle
 10
1455.399768463507
 20
1332.293338720065
 30
0.0
 40
3.0
100
AcDbArc
 50
254.0576313943215
 51
270.0
  0
ARC
  5
18CB4
330
18C7A
100
AcDbEntity
  8
部品1
100
AcDbCircle
 10
1462.541196892049
 20
1332.293338720065
 30
0.0
 40
3.0
100
AcDbArc
 50
270.0
 51
285.9423686056786
  0
LINE
  5
18CB5
330
18C7A
100
AcDbEntity
  8
部品1
100
AcDbLine
 10
1462.541196892049
 20
1329.293338720064
 30
0.0
 11
1455.399768463507
 21
1329.293338720064
 31
0.0
  0
ARC
  5
18CB6
330
18C7A
100
AcDbEntity
  8
部品1
100
AcDbCircle
 10
1458.970482677778
 20
1344.793338720065
 30
0.0
 40
16.0
100
AcDbArc
 50
285.9423686056786
 51
321.6069559808035
  0
LINE
  5
18CB7
330
18C7A
100
AcDbEntity
  8
部品1
 48
0.01
100
AcDbLine
 10
1442.470482677778
 20
1335.993338720062
 30
0.0
 11
1444.078874302588
 21
1335.993338720062
 31
0.0
  0
ARC
  5
18CB8
330
18C7A
100
AcDbEntity
  8
部品1
100
AcDbCircle
 10
1444.078874302588
 20
1332.993338720062
 30
0.0
 40
3.0
100
AcDbArc
 50
38.39304401919648
 51
90.0
  0
ARC
  5
18CB9
330
18C7A
100
AcDbEntity
  8
部品1
100
AcDbCircle
 10
1458.970482677778
 20
1344.793338720065
 30
0.0
 40
16.0
100
AcDbArc
 50
218.3930440191965
 51
254.0576313943215
  0
LINE
  5
18CBA
330
18C7A
100
AcDbEntity
  8
部品1
100
AcDbLine
 10
1440.470482677778
 20
1328.993338720062
 30
0.0
 11
1440.470482677778
 21
1333.993338720061
 31
0.0
  0
ARC
  5
18CBB
330
18C7A
100
AcDbEntity
  8
部品1
 48
0.01
100
AcDbCircle
 10
1442.470482677778
 20
1333.993338720061
 30
0.0
 40
2.0
100
AcDbArc
 50
90.0
 51
180.0
  0
ARC
  5
18CBC
330
18C7A
100
AcDbEntity
  8
部品1
100
AcDbCircle
 10
1466.470482677778
 20
1328.993338720062
 30
0.0
 40
26.0
100
AcDbArc
 50
180.0
 51
199.4712206344134
  0
ARC
  5
18CBD
330
18C7A
100
AcDbEntity
  8
部品1
 48
0.01
100
AcDbCircle
 10
1434.470482677778
 20
1319.493338720063
 30
0.0
 40
0.5
100
AcDbArc
 50
180.0
 51
270.0
  0
LINE
  5
18CBE
330
18C7A
100
AcDbEntity
  8
部品1
 48
0.01
100
AcDbLine
 10
1434.470482677778
 20
1318.993338720063
 30
0.0
 11
1441.014638555061
 21
1318.993338720062
 31
0.0
  0
LINE
  5
18CBF
330
18C7A
100
AcDbEntity
  8
部品1
 48
0.01
100
AcDbLine
 10
1433.970482677778
 20
1320.493338720063
 30
0.0
 11
1433.970482677778
 21
1319.493338720063
 31
0.0
  0
ARC
  5
18CC0
330
18C7A
100
AcDbEntity
  8
部品1
100
AcDbCircle
 10
1441.014638555061
 20
1319.993338720062
 30
0.0
 40
1.0
100
AcDbArc
 50
270.0
 51
19.47122063441346
  0
LINE
  5
18CC1
330
18C7A
100
AcDbEntity
  8
細線
100
AcDbLine
 10
1479.470482677785
 20
1338.493338720065
 30
0.0
 11
1438.470482677785
 21
1338.493338720058
 31
0.0
  0
LINE
  5
18CC2
330
18C7A
100
AcDbEntity
  8
細線
100
AcDbLine
 10
1438.470482677785
 20
1338.493338720058
 30
0.0
 11
1438.470482677785
 21
1320.49333872004
 31
0.0
  0
LINE
  5
18CC3
330
18C7A
100
AcDbEntity
  8
細線
100
AcDbLine
 10
1479.470482677785
 20
1338.493338720065
 30
0.0
 11
1479.470482677785
 21
1320.49333872004
 31
0.0
  0
LINE
  5
18CC4
330
18C7A
100
AcDbEntity
  8
細線
100
AcDbLine
 10
1322.970589276523
 20
1324.494269174465
 30
0.0
 11
1322.970589276523
 21
1320.494269174513
 31
0.0
  0
LINE
  5
18CC5
330
18C7A
100
AcDbEntity
  8
寸法
 48
50.0
100
AcDbLine
 10
1746.17359555837
 20
1170.531020743327
 30
0.0
 11
1694.767587648266
 21
1170.531020743327
 31
0.0
  0
LINE
  5
18CC6
330
18C7A
100
AcDbEntity
  8
寸法
 48
50.0
100
AcDbLine
 10
1694.767587648266
 20
1170.531020743327
 30
0.0
 11
1694.767587648266
 21
1201.841179395494
 31
0.0
  0
LINE
  5
18CC7
330
18C7A
100
AcDbEntity
  8
寸法
 48
50.0
100
AcDbLine
 10
1694.767587648266
 20
1201.841179395494
 30
0.0
 11
1665.006255656843
 21
1201.841179395494
 31
0.0
  0
LINE
  5
18CC8
330
18C7A
100
AcDbEntity
  8
寸法
 48
50.0
100
AcDbLine
 10
1665.006255656843
 20
1201.841179395494
 30
0.0
 11
1720.470591603318
 21
1239.420630324105
 31
0.0
  0
LINE
  5
18CC9
330
18C7A
100
AcDbEntity
  8
寸法
 48
50.0
100
AcDbLine
 10
1775.934927549793
 20
1201.841179395494
 30
0.0
 11
1720.470591603318
 21
1239.420630324105
 31
0.0
  0
LINE
  5
18CCA
330
18C7A
100
AcDbEntity
  8
寸法
 48
50.0
100
AcDbLine
 10
1746.17359555837
 20
1201.841179395494
 30
0.0
 11
1775.934927549793
 21
1201.841179395494
 31
0.0
  0
LINE
  5
18CCB
330
18C7A
100
AcDbEntity
  8
寸法
 48
50.0
100
AcDbLine
 10
1746.17359555837
 20
1170.531020743327
 30
0.0
 11
1746.17359555837
 21
1201.841179395494
 31
0.0
  0
LINE
  5
18CCC
330
18C7A
100
AcDbEntity
  8
寸法
 48
50.0
100
AcDbLine
 10
1694.767587648266
 20
1170.531020743327
 30
0.0
 11
1746.17359555837
 21
1170.531020743327
 31
0.0
  0
LINE
  5
18CCD
330
18C7A
100
AcDbEntity
  8
寸法
 48
50.0
100
AcDbLine
 10
2025.339129835225
 20
1227.676611498152
 30
0.0
 11
2025.339129835225
 21
1174.01297691636
 31
0.0
  0
LINE
  5
18CCE
330
18C7A
100
AcDbEntity
  8
寸法
 48
50.0
100
AcDbLine
 10
2114.623348430647
 20
1203.752977228664
 30
0.0
 11
2025.339129835225
 21
1227.676611498152
 31
0.0
  0
LINE
  5
18CCF
330
18C7A
100
AcDbEntity
  8
寸法
 48
50.0
100
AcDbLine
 10
1895.471408254923
 20
1203.752977228664
 30
0.0
 11
2114.623348430647
 21
1203.752977228664
 31
0.0
  0
DIMENSION
  5
18CD0
330
18C7A
100
AcDbEntity
  8
寸法
 48
50.0
100
AcDbDimension
  2
*D15
 10
2588.970589276523
 20
706.3240511224249
 30
0.0
 11
1969.060022905491
 21
706.3240511224249
 31
0.0
 12
-3742.925985830444
 22
-6453.628869860112
 32
0.0
 70
   128
  1
有効開口部間口\P<>
 71
     5
 42
1266.0
  3
INABA_S40G
100
AcDbAlignedDimension
 13
1322.970589276523
 23
1315.494269174465
 33
0.0
 14
2588.970589276523
 24
1315.494269174465
 34
0.0
100
AcDbRotatedDimension
1001
ACAD
1000
DSTYLE
1002
{
1070
   341
1005
0
1002
}
  0
LINE
  5
18CD1
330
18C7A
100
AcDbEntity
  8
部品1
100
AcDbLine
 10
3409.970589276524
 20
1392.494269174465
 30
0.0
 11
3437.970589276523
 21
1392.494269174465
 31
0.0
  0
DIMENSION
  5
18CD2
330
18C7A
100
AcDbEntity
  8
寸法
100
AcDbDimension
  2
*D16
 10
3674.266172669749
 20
1315.494269174465
 30
0.0
 11
3674.266172669748
 21
1177.494269174462
 31
0.0
 12
-3742.925985830444
 22
-6453.628869860112
 32
0.0
 70
   128
 71
     5
 42
77.0
  3
INABA_S40
100
AcDbAlignedDimension
 13
3437.970589276523
 23
1392.494269174465
 33
0.0
 14
3436.970589276523
 24
1315.494269174465
 34
0.0
 50
90.0
100
AcDbRotatedDimension
1001
ACAD
1000
DSTYLE
1002
{
1070
    41
1040
0.5
1070
    44
1040
1.0
1070
   147
1040
0.8
1070
   271
1070
     2
1070
   272
1070
     2
1070
   289
1070
     3
1070
   340
1005
F706
1070
   343
1005
164B4
1070
   344
1005
164B4
1002
}
  0
LINE
  5
18CD3
330
18C7A
100
AcDbEntity
  8
部品1
100
AcDbLine
 10
3437.970589276523
 20
1315.494269174465
 30
0.0
 11
3437.970589276523
 21
1392.494269174465
 31
0.0
  0
LINE
  5
18CD4
330
18C7A
100
AcDbEntity
  8
部品1
100
AcDbLine
 10
3398.970589276523
 20
1388.494269174465
 30
0.0
 11
3409.970589276524
 21
1388.494269174465
 31
0.0
  0
LINE
  5
18CD5
330
18C7A
100
AcDbEntity
  8
部品1
100
AcDbLine
 10
3407.970589276523
 20
1324.494269174465
 30
0.0
 11
3407.970589276523
 21
1315.494269174465
 31
0.0
  0
LINE
  5
18CD6
330
18C7A
100
AcDbEntity
  8
部品1
100
AcDbLine
 10
3398.970589276523
 20
1324.494269174465
 30
0.0
 11
3407.970589276523
 21
1324.494269174465
 31
0.0
  0
LINE
  5
18CD7
330
18C7A
100
AcDbEntity
  8
部品1
100
AcDbLine
 10
3398.970589276523
 20
1388.494269174465
 30
0.0
 11
3398.970589276523
 21
1324.494269174465
 31
0.0
  0
LINE
  5
18CD8
330
18C7A
100
AcDbEntity
  8
部品1
100
AcDbLine
 10
3409.970589276524
 20
1419.494269174465
 30
0.0
 11
3409.970589276524
 21
1388.494269174465
 31
0.0
  0
LINE
  5
18CD9
330
18C7A
100
AcDbEntity
  8
部品1
100
AcDbLine
 10
1322.970589276523
 20
1388.494269174465
 30
0.0
 11
1311.970589276523
 21
1388.494269174465
 31
0.0
  0
LINE
  5
18CDA
330
18C7A
100
AcDbEntity
  8
部品1
100
AcDbLine
 10
1283.970589276523
 20
1392.494269174465
 30
0.0
 11
1311.970589276523
 21
1392.494269174465
 31
0.0
  0
LINE
  5
18CDB
330
18C7A
100
AcDbEntity
  8
部品1
100
AcDbLine
 10
1313.970589276523
 20
1324.494269174465
 30
0.0
 11
1313.970589276523
 21
1315.494269174465
 31
0.0
  0
LINE
  5
18CDC
330
18C7A
100
AcDbEntity
  8
部品1
100
AcDbLine
 10
1322.970589276523
 20
1324.494269174465
 30
0.0
 11
1313.970589276523
 21
1324.494269174465
 31
0.0
  0
LINE
  5
18CDD
330
18C7A
100
AcDbEntity
  8
部品1
100
AcDbLine
 10
1313.970589276523
 20
1315.494269174465
 30
0.0
 11
1283.970589276523
 21
1315.494269174465
 31
0.0
  0
LINE
  5
18CDE
330
18C7A
100
AcDbEntity
  8
部品1
100
AcDbLine
 10
1283.970589276523
 20
1315.494269174465
 30
0.0
 11
1283.970589276523
 21
1392.494269174465
 31
0.0
  0
LINE
  5
18CDF
330
18C7A
100
AcDbEntity
  8
部品1
100
AcDbLine
 10
1322.970589276523
 20
1388.494269174465
 30
0.0
 11
1322.970589276523
 21
1324.494269174465
 31
0.0
  0
LINE
  5
18CE0
330
18C7A
100
AcDbEntity
  8
部品1
100
AcDbLine
 10
1311.970589276523
 20
1419.494269174462
 30
0.0
 11
1311.970589276523
 21
1388.494269174465
 31
0.0
  0
LINE
  5
18CE1
330
18C7A
100
AcDbEntity
  8
部品1
100
AcDbLine
 10
1311.970589276523
 20
1419.494269174462
 30
0.0
 11
3409.970589276524
 21
1419.494269174465
 31
0.0
  0
LINE
  5
18CE2
330
18C7A
100
AcDbEntity
  8
部品1
100
AcDbLine
 10
3407.970589276523
 20
1315.494269174465
 30
0.0
 11
3437.970589276523
 21
1315.494269174465
 31
0.0
  0
LINE
  5
18CE3
330
18C7A
100
AcDbEntity
  8
部品1
100
AcDbLine
 10
1313.970589276523
 20
1315.494269174465
 30
0.0
 11
3410.970589276523
 21
1315.494269174465
 31
0.0
  0
LINE
  5
18CE4
330
18C7A
100
AcDbEntity
  8
細線
  6
Continuous
 62
     5
100
AcDbLine
 10
2689.970589276527
 20
1354.494269174462
 30
0.0
 11
2689.970589276527
 21
1354.494269174462
 31
0.0
  0
LINE
  5
18CE5
330
18C7A
100
AcDbEntity
  8
細線
  6
Continuous
 62
     5
100
AcDbLine
 10
2682.470589276527
 20
1354.494269174462
 30
0.0
 11
2682.470589276527
 21
1354.494269174462
 31
0.0
  0
LINE
  5
18CE6
330
18C7A
100
AcDbEntity
  8
細線
  6
Continuous
 62
     5
100
AcDbLine
 10
2676.470589276527
 20
1354.494269174462
 30
0.0
 11
2676.470589276527
 21
1354.494269174462
 31
0.0
  0
LINE
  5
18CE7
330
18C7A
100
AcDbEntity
  8
細線
  6
Continuous
 62
     5
100
AcDbLine
 10
2743.970589276527
 20
1373.494269174462
 30
0.0
 11
2743.970589276527
 21
1373.494269174462
 31
0.0
  0
LINE
  5
18CE8
330
18C7A
100
AcDbEntity
  8
細線
 48
50.0
100
AcDbLine
 10
1336.970593930116
 20
1341.094443351418
 30
0.0
 11
1336.970593930113
 21
1349.490593759059
 31
0.0
  0
LINE
  5
18CE9
330
18C7A
100
AcDbEntity
  8
細線
 48
50.0
100
AcDbLine
 10
1336.970593930113
 20
1349.490593759059
 30
0.0
 11
1322.970589276523
 21
1349.490593759057
 31
0.0
  0
LINE
  5
18CEA
330
18C7A
100
AcDbEntity
  8
細線
 48
50.0
100
AcDbLine
 10
2087.970593930113
 20
1337.644443351419
 30
0.0
 11
2087.970593930113
 21
1342.494443351421
 31
0.0
  0
LINE
  5
18CEB
330
18C7A
100
AcDbEntity
  8
細線
 48
50.0
100
AcDbLine
 10
2087.970593930113
 20
1342.494443351421
 30
0.0
 11
2102.970593930113
 21
1342.494443351421
 31
0.0
  0
LINE
  5
18CEC
330
18C7A
100
AcDbEntity
  8
細線
 48
50.0
100
AcDbLine
 10
2102.970593930113
 20
1342.494443351421
 30
0.0
 11
2102.970593930115
 21
1349.494443351419
 31
0.0
  0
LINE
  5
18CED
330
18C7A
100
AcDbEntity
  8
細線
 48
50.0
100
AcDbLine
 10
2102.970593930115
 20
1349.494443351419
 30
0.0
 11
2117.970593930113
 21
1349.494443351419
 31
0.0
  0
LINE
  5
18CEE
330
18C7A
100
AcDbEntity
  8
細線
 48
50.0
100
AcDbLine
 10
2117.970593930113
 20
1349.494443351419
 30
0.0
 11
2117.970593930113
 21
1320.494443351421
 31
0.0
  0
LINE
  5
18CEF
330
18C7A
100
AcDbEntity
  8
細線
 48
50.0
100
AcDbLine
 10
1313.970589276523
 20
1320.491777694889
 30
0.0
 11
1527.970593930113
 21
1320.494460905133
 31
0.0
  0
LINE
  5
18CF0
330
18C7A
100
AcDbEntity
  8
細線
 48
50.0
100
AcDbLine
 10
2017.970593930113
 20
1320.494443351421
 30
0.0
 11
2117.970593930113
 21
1320.494443351421
 31
0.0
  0
LINE
  5
18CF1
330
18C7A
100
AcDbEntity
  8
細線
 48
50.0
100
AcDbLine
 10
1737.970593930113
 20
1320.494443351419
 30
0.0
 11
1807.970593930113
 21
1320.494443351423
 31
0.0
  0
LINE
  5
18CF2
330
18C7A
100
AcDbEntity
  8
細線
 48
50.0
100
AcDbLine
 10
1750.832558942642
 20
1320.494443351419
 30
0.0
 11
1756.588076525309
 21
1338.765294641913
 31
0.0
  0
LINE
  5
18CF3
330
18C7A
100
AcDbEntity
  8
細線
 48
50.0
100
AcDbLine
 10
1756.588076525309
 20
1338.765294641913
 30
0.0
 11
1767.516525005743
 21
1338.765294641911
 31
0.0
  0
ARC
  5
18CF4
330
18C7A
100
AcDbEntity
  8
細線
 48
50.0
100
AcDbCircle
 10
1767.516525005743
 20
1337.765294641911
 30
0.0
 40
1.0
100
AcDbArc
 50
24.62431835207225
 51
90.0
  0
ARC
  5
18CF5
330
18C7A
100
AcDbEntity
  8
細線
 48
50.0
100
AcDbCircle
 10
1778.425237120377
 20
1337.765294641911
 30
0.0
 40
1.0
100
AcDbArc
 50
90.0
 51
155.3756816479277
  0
ARC
  5
18CF6
330
18C7A
100
AcDbEntity
  8
細線
 48
50.0
100
AcDbCircle
 10
1772.970881063058
 20
1340.265294641911
 30
0.0
 40
5.0
100
AcDbArc
 50
204.6243183520723
 51
335.3756816479278
  0
LINE
  5
18CF7
330
18C7A
100
AcDbEntity
  8
細線
 48
50.0
100
AcDbLine
 10
1778.425237120377
 20
1338.765294641911
 30
0.0
 11
1789.35368560081
 21
1338.765294641913
 31
0.0
  0
LINE
  5
18CF8
330
18C7A
100
AcDbEntity
  8
細線
 48
50.0
100
AcDbLine
 10
1789.35368560081
 20
1338.765294641913
 30
0.0
 11
1795.109203183478
 21
1320.494443351423
 31
0.0
  0
LINE
  5
18CF9
330
18C7A
100
AcDbEntity
  8
細線
 48
50.0
100
AcDbLine
 10
2087.970593930113
 20
1341.094443351419
 30
0.0
 11
1336.970593930116
 21
1341.094443351418
 31
0.0
  0
LINE
  5
18CFA
330
18C7A
100
AcDbEntity
  8
細線
 48
50.0
100
AcDbLine
 10
1947.970593930113
 20
1320.494443351421
 30
0.0
 11
1877.970593930113
 21
1320.494443351421
 31
0.0
  0
LINE
  5
18CFB
330
18C7A
100
AcDbEntity
  8
細線
100
AcDbLine
 10
1667.970593930113
 20
1320.494443351421
 30
0.0
 11
1597.970602115529
 21
1320.494443351421
 31
0.0
  0
LINE
  5
18CFC
330
18C7A
100
AcDbEntity
  8
細線
 48
50.0
100
AcDbLine
 10
2741.970584622936
 20
1375.094487209288
 30
0.0
 11
2106.970593930113
 21
1375.094487209284
 31
0.0
  0
LINE
  5
18CFD
330
18C7A
100
AcDbEntity
  8
細線
 48
50.0
100
AcDbLine
 10
2106.970593930113
 20
1371.990637616925
 30
0.0
 11
2106.970593930113
 21
1376.490637616925
 31
0.0
  0
LINE
  5
18CFE
330
18C7A
100
AcDbEntity
  8
細線
 48
50.0
100
AcDbLine
 10
2106.970593930113
 20
1376.490637616925
 30
0.0
 11
2091.970593930113
 21
1376.490637616925
 31
0.0
  0
LINE
  5
18CFF
330
18C7A
100
AcDbEntity
  8
細線
 48
50.0
100
AcDbLine
 10
2091.970593930113
 20
1376.490637616925
 30
0.0
 11
2091.970593930113
 21
1383.490637616927
 31
0.0
  0
LINE
  5
18D00
330
18C7A
100
AcDbEntity
  8
細線
 48
50.0
100
AcDbLine
 10
2091.970593930113
 20
1383.490637616927
 30
0.0
 11
2076.970593930115
 21
1383.490637616924
 31
0.0
  0
LINE
  5
18D01
330
18C7A
100
AcDbEntity
  8
細線
 48
50.0
100
AcDbLine
 10
2076.970593930115
 20
1383.490637616924
 30
0.0
 11
2076.970593930115
 21
1345.890409513813
 31
0.0
  0
LINE
  5
18D02
330
18C7A
100
AcDbEntity
  8
細線
 48
50.0
100
AcDbLine
 10
2076.970593930115
 20
1345.890409513813
 30
0.0
 11
2096.970601231289
 21
1345.890451063353
 31
0.0
  0
LINE
  5
18D03
330
18C7A
100
AcDbEntity
  8
細線
 48
50.0
100
AcDbLine
 10
2096.970556362348
 20
1354.493912699161
 30
0.0
 11
2096.970601231289
 21
1345.890451063353
 31
0.0
  0
LINE
  5
18D04
330
18C7A
100
AcDbEntity
  8
細線
 48
50.0
100
AcDbLine
 10
2741.970584622936
 20
1371.644487209287
 30
0.0
 11
2741.970584622936
 21
1376.494487209284
 31
0.0
  0
LINE
  5
18D05
330
18C7A
100
AcDbEntity
  8
細線
 48
50.0
100
AcDbLine
 10
2741.970584622936
 20
1376.494487209284
 30
0.0
 11
2756.970584622934
 21
1376.494487209285
 31
0.0
  0
LINE
  5
18D06
330
18C7A
100
AcDbEntity
  8
細線
 48
50.0
100
AcDbLine
 10
2756.970584622934
 20
1376.494487209285
 30
0.0
 11
2756.970596256909
 21
1383.494487209331
 31
0.0
  0
LINE
  5
18D07
330
18C7A
100
AcDbEntity
  8
細線
 48
50.0
100
AcDbLine
 10
2756.970596256909
 20
1383.494487209331
 30
0.0
 11
2771.970594427439
 21
1383.494487209329
 31
0.0
  0
LINE
  5
18D08
330
18C7A
100
AcDbEntity
  8
細線
 48
50.0
100
AcDbLine
 10
2771.970594427439
 20
1383.494487209329
 30
0.0
 11
2771.970584125617
 21
1354.494281037055
 31
0.0
  0
LINE
  5
18D09
330
18C7A
100
AcDbEntity
  8
細線
 48
50.0
100
AcDbLine
 10
2458.070304175992
 20
1354.494278397076
 30
0.0
 11
2389.470863838818
 21
1354.494283787084
 31
0.0
  0
LINE
  5
18D0A
330
18C7A
100
AcDbEntity
  8
細線
 48
50.0
100
AcDbLine
 10
2096.970556362348
 20
1354.493912699161
 30
0.0
 11
2108.203245717057
 21
1354.494095652309
 31
0.0
  0
ARC
  5
18D0B
330
18C7A
100
AcDbEntity
  8
細線
 48
50.0
100
AcDbCircle
 10
2114.785538024393
 20
1353.294259565922
 30
0.0
 40
1.8
100
AcDbArc
 50
270.0006665777295
 51
345.000555481349
  0
LINE
  5
18D0C
330
18C7A
100
AcDbEntity
  8
細線
 48
50.0
100
AcDbLine
 10
2116.771971470473
 20
1353.753100023201
 30
0.0
 11
2116.524209028273
 21
1352.828402141094
 31
0.0
  0
LINE
  5
18D0D
330
18C7A
100
AcDbEntity
  8
細線
 48
50.0
100
AcDbLine
 10
2114.785558965548
 20
1351.494259566043
 30
0.0
 11
2111.155631546781
 21
1351.494217335563
 31
0.0
  0
ARC
  5
18D0E
330
18C7A
100
AcDbEntity
  8
細線
 48
50.0
100
AcDbCircle
 10
2111.155610605627
 20
1353.29421733544
 30
0.0
 40
1.8
100
AcDbArc
 50
195.0010443049965
 51
270.0006665777295
  0
LINE
  5
18D0F
330
18C7A
100
AcDbEntity
  8
細線
 48
50.0
100
AcDbLine
 10
2109.169183113368
 20
1353.752932303007
 30
0.0
 11
2109.416952609882
 21
1352.828311364425
 31
0.0
  0
ARC
  5
18D10
330
18C7A
100
AcDbEntity
  8
細線
 48
50.0
100
AcDbCircle
 10
2108.203262004622
 20
1353.494095652444
 30
0.0
 40
1.0
100
AcDbArc
 50
15.00104430499651
 51
90.00093320877969
  0
LINE
  5
18D11
330
18C7A
100
AcDbEntity
  8
細線
 48
50.0
100
AcDbLine
 10
2117.737892825577
 20
1354.494290342714
 30
0.0
 11
2118.679652976481
 21
1354.494296916564
 31
0.0
  0
ARC
  5
18D12
330
18C7A
100
AcDbEntity
  8
細線
 48
50.0
100
AcDbCircle
 10
2117.737899805961
 20
1353.49429034274
 30
0.0
 40
1.0
100
AcDbArc
 50
90.0003999466794
 51
165.000555481349
  0
LINE
  5
18D13
330
18C7A
100
AcDbEntity
  8
細線
 48
50.0
100
AcDbLine
 10
2669.470584622926
 20
1354.494281037055
 30
0.0
 11
2771.970584125617
 21
1354.494281037055
 31
0.0
  0
LINE
  5
18D14
330
18C7A
100
AcDbEntity
  8
細線
 48
50.0
100
AcDbLine
 10
2179.47061994182
 20
1354.494289224422
 30
0.0
 11
2118.370558714898
 21
1354.494296916564
 31
0.0
  0
LINE
  5
18D15
330
18C7A
100
AcDbEntity
  8
細線
 48
50.0
100
AcDbLine
 10
2599.470584622926
 20
1354.494281037057
 30
0.0
 11
2529.470584622926
 21
1354.494281037055
 31
0.0
  0
LINE
  5
18D16
330
18C7A
100
AcDbEntity
  8
細線
 48
50.0
100
AcDbLine
 10
2319.470584622926
 20
1354.494281037054
 30
0.0
 11
2249.470567335051
 21
1354.494281037057
 31
0.0
  0
ARC
  5
18D17
330
18C7A
100
AcDbEntity
  8
細線
 48
50.0
100
AcDbCircle
 10
2756.170589276533
 20
1387.694269174466
 30
0.0
 40
0.8
100
AcDbArc
 50
359.9997333689499
 51
89.99986668437072
  0
ARC
  5
18D18
330
18C7A
100
AcDbEntity
  8
細線
 48
50.0
100
AcDbCircle
 10
2763.770596101631
 20
1387.694280343081
 30
0.0
 40
0.8
100
AcDbArc
 50
90.00014387753465
 51
179.9997333689498
  0
LINE
  5
18D19
330
18C7A
100
AcDbEntity
  8
細線
 48
50.0
100
AcDbLine
 10
2756.170591137969
 20
1388.494269174465
 30
0.0
 11
2750.970589276525
 21
1388.494269174465
 31
0.0
  0
ARC
  5
18D1A
330
18C7A
100
AcDbEntity
  8
細線
 48
50.0
100
AcDbCircle
 10
2757.670589276524
 20
1386.194269174464
 30
0.0
 40
0.7
100
AcDbArc
 50
180.0
 51
270.0
  0
ARC
  5
18D1B
330
18C7A
100
AcDbEntity
  8
細線
 48
50.0
100
AcDbCircle
 10
2762.270589276524
 20
1386.194269174464
 30
0.0
 40
0.7
100
AcDbArc
 50
270.0
 51
0.0
  0
LINE
  5
18D1C
330
18C7A
100
AcDbEntity
  8
細線
 48
50.0
100
AcDbLine
 10
2762.970589276525
 20
1386.194269174464
 30
0.0
 11
2762.970596101639
 21
1387.694284065954
 31
0.0
  0
LINE
  5
18D1D
330
18C7A
100
AcDbEntity
  8
細線
 48
50.0
100
AcDbLine
 10
2757.670589276524
 20
1385.494269174465
 30
0.0
 11
2762.270589276524
 21
1385.494269174465
 31
0.0
  0
LINE
  5
18D1E
330
18C7A
100
AcDbEntity
  8
細線
 48
50.0
100
AcDbLine
 10
2756.970589276525
 20
1387.694269174466
 30
0.0
 11
2756.970589276525
 21
1386.194269174464
 31
0.0
  0
LINE
  5
18D1F
330
18C7A
100
AcDbEntity
  8
細線
 48
50.0
100
AcDbLine
 10
3382.570589276527
 20
1418.494269174465
 30
0.0
 11
2745.970589276525
 21
1418.494269174463
 31
0.0
  0
LINE
  5
18D20
330
18C7A
100
AcDbEntity
  8
細線
 48
50.0
100
AcDbLine
 10
3408.470589276525
 20
1413.494269174467
 30
0.0
 11
3392.570589276527
 21
1413.494269174465
 31
0.0
  0
LINE
  5
18D21
330
18C7A
100
AcDbEntity
  8
細線
 48
50.0
100
AcDbLine
 10
3392.570589276526
 20
1413.494269174465
 30
0.0
 11
3382.570589276527
 21
1418.494269174465
 31
0.0
  0
LINE
  5
18D22
330
18C7A
100
AcDbEntity
  8
細線
100
AcDbLine
 10
2993.470589276525
 20
1388.494269174465
 30
0.0
 11
2993.470589276525
 21
1417.794269174464
 31
0.0
  0
LINE
  5
18D23
330
18C7A
100
AcDbEntity
  8
細線
100
AcDbLine
 10
2993.470589276525
 20
1417.794269174464
 30
0.0
 11
3013.470589276525
 21
1417.794269174464
 31
0.0
  0
LINE
  5
18D24
330
18C7A
100
AcDbEntity
  8
細線
100
AcDbLine
 10
3013.470589276525
 20
1388.494269174465
 30
0.0
 11
3013.470589276525
 21
1417.794269174464
 31
0.0
  0
LINE
  5
18D25
330
18C7A
100
AcDbEntity
  8
細線
100
AcDbLine
 10
3170.720589276524
 20
1388.494269174465
 30
0.0
 11
3100.720589276523
 21
1388.494269174465
 31
0.0
  0
LINE
  5
18D26
330
18C7A
100
AcDbEntity
  8
細線
 48
50.0
100
AcDbLine
 10
2890.720589276525
 20
1388.494269174465
 30
0.0
 11
2763.766368849365
 21
1388.494269174465
 31
0.0
  0
LINE
  5
18D27
330
18C7A
100
AcDbEntity
  8
細線
100
AcDbLine
 10
3030.720589276525
 20
1388.494269174465
 30
0.0
 11
2960.720589276525
 21
1388.494269174465
 31
0.0
  0
LINE
  5
18D28
330
18C7A
100
AcDbEntity
  8
細線
 48
50.0
100
AcDbLine
 10
2750.970589276525
 20
1380.494269174465
 30
0.0
 11
2750.970589276525
 21
1388.494269174465
 31
0.0
  0
LINE
  5
18D29
330
18C7A
100
AcDbEntity
  8
細線
 48
50.0
100
AcDbLine
 10
2730.970589276524
 20
1380.494269174467
 30
0.0
 11
2750.970589276525
 21
1380.494269174465
 31
0.0
  0
LINE
  5
18D2A
330
18C7A
100
AcDbEntity
  8
細線
 48
50.0
100
AcDbLine
 10
2745.970589276525
 20
1418.494269174465
 30
0.0
 11
2745.970589276525
 21
1413.494269174465
 31
0.0
  0
LINE
  5
18D2B
330
18C7A
100
AcDbEntity
  8
細線
 48
50.0
100
AcDbLine
 10
2730.970589276525
 20
1418.494269174463
 30
0.0
 11
2745.970589276525
 21
1418.494269174465
 31
0.0
  0
LINE
  5
18D2C
330
18C7A
100
AcDbEntity
  8
細線
 48
50.0
100
AcDbLine
 10
2730.970589276524
 20
1380.494269174467
 30
0.0
 11
2730.970589276525
 21
1418.494269174463
 31
0.0
  0
LINE
  5
18D2D
330
18C7A
100
AcDbEntity
  8
細線
100
AcDbLine
 10
3398.970589276523
 20
1388.494269174465
 30
0.0
 11
3240.720589276525
 21
1388.494269174465
 31
0.0
  0
LINE
  5
18D2E
330
18C7A
100
AcDbEntity
  8
細線
 48
50.0
100
AcDbLine
 10
3408.470589276525
 20
1413.494269174467
 30
0.0
 11
3408.470589276524
 21
1388.494269174465
 31
0.0
  0
TEXT
  5
18D2F
330
18C7A
100
AcDbEntity
  8
部品1
100
AcDbText
 10
1860.154865991392
 20
46.99880823813145
 30
0.0
 40
135.0
  1
平面図
  7
STYLE2
100
AcDbText
  0
LWPOLYLINE
  5
18D30
330
18C7A
100
AcDbEntity
  8
部品1
100
AcDbPolyline
 90
        4
 70
     1
 43
0.0
 10
1770.23525616235
 20
239.8923374566548
 10
1770.23525616235
 20
0.0000159111223184
 10
2533.705922390791
 20
0.0000159111223184
 10
2533.705922390791
 20
239.8923374566548
  0
LINE
  5
18D31
330
18C7A
100
AcDbEntity
  8
部品1
100
AcDbLine
 10
1534.470589276487
 20
3154.494269174626
 30
0.0
 11
2769.470589276552
 21
3154.494269174626
 31
0.0
  0
LINE
  5
18D32
330
18C7A
100
AcDbEntity
  8
部品1
 48
50.0
100
AcDbLine
 10
1311.970589276523
 20
1420.494269174462
 30
0.0
 11
3411.970589276523
 21
1420.494269174465
 31
0.0
  0
LINE
  5
18D33
330
18C7A
100
AcDbEntity
  8
部品1
 48
50.0
100
AcDbLine
 10
471.9705892765232
 20
1392.494269174465
 30
0.0
 11
1311.970589276523
 21
1392.494269174465
 31
0.0
  0
DIMENSION
  5
18D34
330
18C7A
100
AcDbEntity
  8
寸法
100
AcDbDimension
  2
*D14
 10
2710.234916278077
 20
2488.887829538828
 30
0.0
 11
2338.318822490183
 21
2488.887829538828
 31
0.0
 12
-3742.925985830444
 22
-6453.628869860112
 32
0.0
 70
   128
 71
     5
 42
1231.00000000007
  3
INABA_S40G
100
AcDbAlignedDimension
 13
1536.470589276486
 23
2702.494269174557
 33
0.0
 14
2767.470589276556
 24
2702.494269174549
 34
0.0
100
AcDbRotatedDimension
1001
ACAD
1000
DSTYLE
1002
{
1002
}
  0
LINE
  5
18D35
330
18C7A
100
AcDbEntity
  8
部品1
100
AcDbLine
 10
1536.470589276487
 20
2702.494269174557
 30
0.0
 11
2767.470589276554
 21
2702.494269174615
 31
0.0
  0
LINE
  5
18D36
330
18C7A
100
AcDbEntity
  8
部品1
100
AcDbLine
 10
1536.470589276487
 20
3152.494269174557
 30
0.0
 11
2767.470589276556
 21
3152.494269174615
 31
0.0
  0
LINE
  5
18D37
330
18C7A
100
AcDbEntity
  8
細線
 48
50.0
100
AcDbLine
 10
1508.470589276487
 20
3152.494269174558
 30
0.0
 11
445.4705892765559
 21
2702.494269174509
 31
0.0
  0
LINE
  5
18D38
330
18C7A
100
AcDbEntity
  8
細線
 48
50.0
100
AcDbLine
 10
1508.470589276487
 20
2702.494269174558
 30
0.0
 11
445.4705892765542
 21
3152.494269174509
 31
0.0
  0
LINE
  5
18D39
330
18C7A
100
AcDbEntity
  8
部品1
100
AcDbLine
 10
1556.970589276487
 20
3172.494269174611
 30
0.0
 11
1556.970589276487
 21
3154.494269174611
 31
0.0
  0
LINE
  5
18D3A
330
18C7A
100
AcDbEntity
  8
部品1
100
AcDbLine
 10
1556.970589276487
 20
3172.494269174611
 30
0.0
 11
1550.970589276487
 21
3172.494269174611
 31
0.0
  0
LINE
  5
18D3B
330
18C7A
100
AcDbEntity
  8
部品1
100
AcDbLine
 10
1534.470589276487
 20
3146.494269174608
 30
0.0
 11
1509.470589276487
 21
3146.494269174611
 31
0.0
  0
LINE
  5
18D3C
330
18C7A
100
AcDbEntity
  8
部品1
100
AcDbLine
 10
1486.970589276487
 20
3172.494269174611
 30
0.0
 11
1486.970589276487
 21
3154.494269174611
 31
0.0
  0
LINE
  5
18D3D
330
18C7A
100
AcDbEntity
  8
部品1
100
AcDbLine
 10
1492.970589276487
 20
3172.494269174611
 30
0.0
 11
1486.970589276487
 21
3172.494269174611
 31
0.0
  0
LINE
  5
18D3E
330
18C7A
100
AcDbEntity
  8
部品1
100
AcDbLine
 10
1534.470589276487
 20
2702.494269174615
 30
0.0
 11
1509.470589276487
 21
2702.494269174615
 31
0.0
  0
LINE
  5
18D3F
330
18C7A
100
AcDbEntity
  8
部品1
 48
50.0
100
AcDbLine
 10
1536.470589276487
 20
3152.494269174611
 30
0.0
 11
1536.470589276487
 21
2702.494269174615
 31
0.0
  0
LINE
  5
18D40
330
18C7A
100
AcDbEntity
  8
部品1
 48
50.0
100
AcDbLine
 10
1508.470589276487
 20
3152.494269174607
 30
0.0
 11
1508.470589276487
 21
2702.494269174615
 31
0.0
  0
LINE
  5
18D41
330
18C7A
100
AcDbEntity
  8
部品1
 48
50.0
100
AcDbLine
 10
1534.470589276487
 20
3154.494269174618
 30
0.0
 11
1534.470589276487
 21
2702.494269174615
 31
0.0
  0
LINE
  5
18D42
330
18C7A
100
AcDbEntity
  8
部品1
 48
50.0
100
AcDbLine
 10
1509.470589276487
 20
3154.494269174615
 30
0.0
 11
1509.470589276487
 21
2702.494269174615
 31
0.0
  0
LINE
  5
18D43
330
18C7A
100
AcDbEntity
  8
部品1
100
AcDbLine
 10
3411.970589276556
 20
1392.494269174582
 30
0.0
 11
3411.970589276556
 21
1420.494269174596
 31
0.0
  0
LINE
  5
18D44
330
18C7A
100
AcDbEntity
  8
部品1
100
AcDbLine
 10
1311.970589276523
 20
1392.494269174596
 30
0.0
 11
1311.970589276523
 21
1420.494269174596
 31
0.0
  0
LINE
  5
18D45
330
18C7A
100
AcDbEntity
  8
部品1
100
AcDbLine
 10
891.9705892765232
 20
1392.494269174596
 30
0.0
 11
891.9705892765232
 21
1420.494269174596
 31
0.0
  0
LINE
  5
18D46
330
18C7A
100
AcDbEntity
  8
部品1
100
AcDbLine
 10
3411.97058927652
 20
3182.494269174477
 30
0.0
 11
3411.970589276523
 21
3154.494269174477
 31
0.0
  0
LINE
  5
18D47
330
18C7A
100
AcDbEntity
  8
部品1
100
AcDbLine
 10
2571.97058927652
 20
3182.494269174477
 30
0.0
 11
2571.970589276523
 21
3154.494269174477
 31
0.0
  0
LINE
  5
18D48
330
18C7A
100
AcDbEntity
  8
部品1
100
AcDbLine
 10
2991.97058927652
 20
3182.494269174477
 30
0.0
 11
2991.970589276523
 21
3154.494269174477
 31
0.0
  0
LINE
  5
18D49
330
18C7A
100
AcDbEntity
  8
部品1
100
AcDbLine
 10
2151.970589276519
 20
3182.494269174477
 30
0.0
 11
2151.970589276523
 21
3154.494269174477
 31
0.0
  0
LINE
  5
18D4A
330
18C7A
100
AcDbEntity
  8
部品1
100
AcDbLine
 10
1731.970589276519
 20
3182.494269174477
 30
0.0
 11
1731.970589276523
 21
3154.494269174477
 31
0.0
  0
LINE
  5
18D4B
330
18C7A
100
AcDbEntity
  8
部品1
100
AcDbLine
 10
1311.970589276519
 20
3182.494269174477
 30
0.0
 11
1311.970589276523
 21
3154.494269174477
 31
0.0
  0
LINE
  5
18D4C
330
18C7A
100
AcDbEntity
  8
部品1
100
AcDbLine
 10
891.9705892765195
 20
3182.494269174477
 30
0.0
 11
891.9705892765232
 21
3154.494269174477
 31
0.0
  0
LINE
  5
18D4D
330
18C7A
100
AcDbEntity
  8
部品1
100
AcDbLine
 10
471.9705892765232
 20
1392.494269174596
 30
0.0
 11
471.9705892765232
 21
1420.494269174596
 31
0.0
  0
LINE
  5
18D4E
330
18C7A
100
AcDbEntity
  8
部品1
100
AcDbLine
 10
444.9705892765305
 20
1420.494269174558
 30
0.0
 11
3858.970589276556
 21
1420.494269174596
 31
0.0
  0
LINE
  5
18D4F
330
18C7A
100
AcDbEntity
  8
部品1
100
AcDbLine
 10
3831.970589276556
 20
1392.494269174596
 30
0.0
 11
3831.970589276556
 21
1420.494269174596
 31
0.0
  0
LINE
  5
18D50
330
18C7A
100
AcDbEntity
  8
部品1
100
AcDbLine
 10
3858.970589276556
 20
1447.494269174593
 30
0.0
 11
3886.970589276556
 21
1447.494269174593
 31
0.0
  0
LINE
  5
18D51
330
18C7A
100
AcDbEntity
  8
部品1
100
AcDbLine
 10
3858.970589276556
 20
1867.494269174607
 30
0.0
 11
3886.970589276556
 21
1867.494269174607
 31
0.0
  0
LINE
  5
18D52
330
18C7A
100
AcDbEntity
  8
部品1
100
AcDbLine
 10
444.9705892765305
 20
1867.49426917448
 30
0.0
 11
416.9705892765305
 21
1867.49426917448
 31
0.0
  0
LINE
  5
18D53
330
18C7A
100
AcDbEntity
  8
部品1
100
AcDbLine
 10
3830.470589276541
 20
1867.49426917458
 30
0.0
 11
473.4705892765396
 21
1867.49426917448
 31
0.0
  0
LINE
  5
18D54
330
18C7A
100
AcDbEntity
  8
部品1
100
AcDbLine
 10
3830.470589276541
 20
2287.49426917458
 30
0.0
 11
473.4705892765396
 21
2287.49426917448
 31
0.0
  0
LINE
  5
18D55
330
18C7A
100
AcDbEntity
  8
部品1
100
AcDbLine
 10
444.9705892765305
 20
2287.49426917448
 30
0.0
 11
416.9705892765305
 21
2287.49426917448
 31
0.0
  0
LINE
  5
18D56
330
18C7A
100
AcDbEntity
  8
部品1
100
AcDbLine
 10
3858.970589276556
 20
2287.494269174608
 30
0.0
 11
3886.970589276556
 21
2287.494269174608
 31
0.0
  0
LINE
  5
18D57
330
18C7A
100
AcDbEntity
  8
部品1
 48
50.0
100
AcDbLine
 10
2151.970589276551
 20
2702.494269174586
 30
0.0
 11
2151.970589276581
 21
1448.994269174494
 31
0.0
  0
LINE
  5
18D58
330
18C7A
100
AcDbEntity
  8
破線
 48
10.0
100
AcDbLine
 10
2959.470589276535
 20
1472.494269174522
 30
0.0
 11
2176.970589276532
 21
1472.494269174505
 31
0.0
  0
LINE
  5
18D59
330
18C7A
100
AcDbEntity
  8
破線
 48
10.0
100
AcDbLine
 10
3009.47058927653
 20
1448.994269174509
 30
0.0
 11
3009.47058927653
 21
2702.494269174615
 31
0.0
  0
LINE
  5
18D5A
330
18C7A
100
AcDbEntity
  8
破線
 48
10.0
100
AcDbLine
 10
2959.470589276535
 20
1448.994269174505
 30
0.0
 11
2959.470589276531
 21
2702.494269174615
 31
0.0
  0
LINE
  5
18D5B
330
18C7A
100
AcDbEntity
  8
破線
 48
10.0
100
AcDbLine
 10
1344.47058927653
 20
1448.994269174509
 30
0.0
 11
1344.47058927653
 21
2702.494269174615
 31
0.0
  0
LINE
  5
18D5C
330
18C7A
100
AcDbEntity
  8
破線
 48
10.0
100
AcDbLine
 10
1294.470589276534
 20
1448.994269174505
 30
0.0
 11
1294.47058927653
 21
2702.494269174615
 31
0.0
  0
DIMENSION
  5
18D5D
330
18C7A
100
AcDbEntity
  8
寸法
100
AcDbDimension
  2
*D13
 10
1451.234916278005
 20
2488.887829538828
 30
0.0
 11
916.0604668248634
 21
2488.887829538828
 31
0.0
 12
-3742.925985830444
 22
-6453.628869860112
 32
0.0
 70
   128
 71
     5
 42
1062.99999999993
  3
INABA_S40G
100
AcDbAlignedDimension
 13
445.4705892765559
 23
2702.494269174505
 33
0.0
 14
1508.470589276486
 24
2702.494269174558
 34
0.0
100
AcDbRotatedDimension
1001
ACAD
1000
DSTYLE
1002
{
1002
}
  0
LINE
  5
18D5E
330
18C7A
100
AcDbEntity
  8
破線
 48
10.0
100
AcDbLine
 10
1294.470589276534
 20
1472.494269174469
 30
0.0
 11
496.9705892765414
 21
1472.494269174476
 31
0.0
  0
LINE
  5
18D5F
330
18C7A
100
AcDbEntity
  8
部品1
100
AcDbLine
 10
3831.970589276556
 20
3182.494269174604
 30
0.0
 11
3831.970589276556
 21
3154.494269174604
 31
0.0
  0
LINE
  5
18D60
330
18C7A
100
AcDbEntity
  8
部品1
100
AcDbLine
 10
3831.970589276556
 20
3182.494269174626
 30
0.0
 11
3831.970589276556
 21
3154.494269174626
 31
0.0
  0
LINE
  5
18D61
330
18C7A
100
AcDbEntity
  8
部品1
100
AcDbLine
 10
3858.970589276556
 20
3127.494269174607
 30
0.0
 11
3886.970589276556
 21
3127.494269174607
 31
0.0
  0
LINE
  5
18D62
330
18C7A
100
AcDbEntity
  8
部品1
100
AcDbLine
 10
3858.970589276556
 20
2707.494269174608
 30
0.0
 11
3886.970589276556
 21
2707.494269174608
 31
0.0
  0
LINE
  5
18D63
330
18C7A
100
AcDbEntity
  8
部品1
100
AcDbLine
 10
3858.470589276556
 20
3152.494269174604
 30
0.0
 11
3858.470589276556
 21
2702.494269174608
 31
0.0
  0
LINE
  5
18D64
330
18C7A
100
AcDbEntity
  8
部品1
100
AcDbLine
 10
3886.970589276533
 20
1447.494269174593
 30
0.0
 11
3886.970589276531
 21
1392.494269174596
 31
0.0
  0
LINE
  5
18D65
330
18C7A
100
AcDbEntity
  8
部品1
 48
50.0
100
AcDbLine
 10
3830.470589276556
 20
1448.994269174596
 30
0.0
 11
3858.970589276554
 21
1420.494269174596
 31
0.0
  0
LINE
  5
18D66
330
18C7A
100
AcDbEntity
  8
部品1
100
AcDbLine
 10
3886.970589276531
 20
1392.494269174596
 30
0.0
 11
3835.970589276531
 21
1392.494269174596
 31
0.0
  0
LINE
  5
18D67
330
18C7A
100
AcDbEntity
  8
部品1
100
AcDbLine
 10
3858.970589276533
 20
1447.494269174593
 30
0.0
 11
3886.970589276531
 21
1447.494269174593
 31
0.0
  0
LINE
  5
18D68
330
18C7A
100
AcDbEntity
  8
部品1
100
AcDbLine
 10
3886.970589276556
 20
3182.494269174604
 30
0.0
 11
3886.970589276531
 21
1392.494269174596
 31
0.0
  0
DIMENSION
  5
18D69
330
18C7A
100
AcDbEntity
  8
寸法
100
AcDbDimension
  2
*D12
 10
4534.396935010967
 20
1447.494269174593
 30
0.0
 11
4534.396935010965
 21
2287.4942691746
 31
0.0
 12
-3742.925985830444
 22
-6453.628869860112
 32
0.0
 70
   128
  1
4X420=<>
 71
     5
 42
1680.000000000014
  3
INABA_S40G
100
AcDbAlignedDimension
 13
3886.970589276556
 23
3127.494269174607
 33
0.0
 14
3886.970589276531
 24
1447.494269174593
 34
0.0
 50
90.0
100
AcDbRotatedDimension
1001
ACAD
1000
DSTYLE
1002
{
1002
}
  0
LINE
  5
18D6A
330
18C7A
100
AcDbEntity
  8
部品1
100
AcDbLine
 10
3858.970589276556
 20
3154.494269174604
 30
0.0
 11
3858.970589276534
 21
1420.494269174596
 31
0.0
  0
DIMENSION
  5
18D6B
330
18C7A
100
AcDbEntity
  8
寸法
100
AcDbDimension
  2
*D11
 10
4213.82831513858
 20
2607.276453505718
 30
0.0
 11
4113.828315138579
 21
2832.276453505718
 31
0.0
 12
-3742.925985830444
 22
-6453.628869860112
 32
0.0
 71
     5
 42
449.9999999999963
  3
INABA_S40G
100
AcDbAlignedDimension
 13
3858.470589276556
 23
3152.494269174604
 33
0.0
 14
3858.470589276556
 24
2702.494269174608
 34
0.0
 50
90.0
100
AcDbRotatedDimension
1001
ACAD
1000
DSTYLE
1002
{
1002
}
  0
LINE
  5
18D6C
330
18C7A
100
AcDbEntity
  8
部品1
100
AcDbLine
 10
3830.470589276547
 20
2702.494269174608
 30
0.0
 11
3830.470589276556
 21
1448.994269174596
 31
0.0
  0
LINE
  5
18D6D
330
18C7A
100
AcDbEntity
  8
破線
 48
10.0
100
AcDbLine
 10
3806.970589276549
 20
2702.494269174608
 30
0.0
 11
3806.970589276558
 21
1472.494269174593
 31
0.0
  0
LINE
  5
18D6E
330
18C7A
100
AcDbEntity
  8
部品1
100
AcDbLine
 10
2769.470589276556
 20
3146.494269174608
 30
0.0
 11
2794.470589276556
 21
3146.494269174611
 31
0.0
  0
LINE
  5
18D6F
330
18C7A
100
AcDbEntity
  8
部品1
100
AcDbLine
 10
2810.970589276556
 20
3172.494269174611
 30
0.0
 11
2816.970589276556
 21
3172.494269174611
 31
0.0
  0
LINE
  5
18D70
330
18C7A
100
AcDbEntity
  8
部品1
100
AcDbLine
 10
2816.970589276556
 20
3172.494269174611
 30
0.0
 11
2816.970589276556
 21
3154.494269174611
 31
0.0
  0
LINE
  5
18D71
330
18C7A
100
AcDbEntity
  8
部品1
100
AcDbLine
 10
2746.970589276556
 20
3172.494269174611
 30
0.0
 11
2752.970589276556
 21
3172.494269174611
 31
0.0
  0
LINE
  5
18D72
330
18C7A
100
AcDbEntity
  8
部品1
100
AcDbLine
 10
2746.970589276556
 20
3172.494269174611
 30
0.0
 11
2746.970589276556
 21
3154.494269174611
 31
0.0
  0
LINE
  5
18D73
330
18C7A
100
AcDbEntity
  8
部品1
100
AcDbLine
 10
2769.470589276556
 20
2702.494269174615
 30
0.0
 11
2794.470589276556
 21
2702.494269174615
 31
0.0
  0
LINE
  5
18D74
330
18C7A
100
AcDbEntity
  8
部品1
 48
50.0
100
AcDbLine
 10
2794.470589276556
 20
3154.494269174615
 30
0.0
 11
2794.470589276556
 21
2702.494269174615
 31
0.0
  0
LINE
  5
18D75
330
18C7A
100
AcDbEntity
  8
部品1
 48
50.0
100
AcDbLine
 10
2769.470589276554
 20
3154.494269174618
 30
0.0
 11
2769.470589276556
 21
2702.494269174615
 31
0.0
  0
LINE
  5
18D76
330
18C7A
100
AcDbEntity
  8
部品1
 48
50.0
100
AcDbLine
 10
2795.470589276556
 20
3152.494269174607
 30
0.0
 11
2795.470589276556
 21
2702.494269174615
 31
0.0
  0
LINE
  5
18D77
330
18C7A
100
AcDbEntity
  8
部品1
 48
50.0
100
AcDbLine
 10
2767.470589276556
 20
3152.494269174611
 30
0.0
 11
2767.470589276556
 21
2702.494269174615
 31
0.0
  0
LINE
  5
18D78
330
18C7A
100
AcDbEntity
  8
破線
 48
10.0
100
AcDbLine
 10
2176.97058927653
 20
1448.994269174509
 30
0.0
 11
2176.97058927653
 21
2702.494269174588
 31
0.0
  0
LINE
  5
18D79
330
18C7A
100
AcDbEntity
  8
破線
 48
10.0
100
AcDbLine
 10
2126.970589276534
 20
1448.994269174505
 30
0.0
 11
2126.970589276531
 21
2702.494269174586
 31
0.0
  0
LINE
  5
18D7A
330
18C7A
100
AcDbEntity
  8
部品1
100
AcDbLine
 10
2794.470589276556
 20
3154.494269174622
 30
0.0
 11
3858.970589276556
 21
3154.494269174604
 31
0.0
  0
LINE
  5
18D7B
330
18C7A
100
AcDbEntity
  8
細線
 48
50.0
100
AcDbLine
 10
3858.470589276556
 20
2702.494269174608
 30
0.0
 11
2795.470589276556
 21
3152.494269174607
 31
0.0
  0
LINE
  5
18D7C
330
18C7A
100
AcDbEntity
  8
部品1
100
AcDbLine
 10
2795.470589276555
 20
2702.494269174615
 30
0.0
 11
3858.470589276556
 21
2702.494269174608
 31
0.0
  0
LINE
  5
18D7D
330
18C7A
100
AcDbEntity
  8
部品1
100
AcDbLine
 10
2795.470589276556
 20
3152.494269174611
 30
0.0
 11
3858.470589276556
 21
3152.494269174604
 31
0.0
  0
LINE
  5
18D7E
330
18C7A
100
AcDbEntity
  8
細線
 48
50.0
100
AcDbLine
 10
3858.470589276556
 20
3152.494269174604
 30
0.0
 11
2795.470589276555
 21
2702.494269174615
 31
0.0
  0
DIMENSION
  5
18D7F
330
18C7A
100
AcDbEntity
  8
寸法
100
AcDbDimension
  2
*D10
 10
3801.234916278101
 20
2488.887829538937
 30
0.0
 11
3318.360544398907
 21
2488.887829538937
 31
0.0
 12
-3742.925985830444
 22
-6453.628869860112
 32
0.0
 70
   128
 71
     5
 42
1063.000000000012
  3
INABA_S40G
100
AcDbAlignedDimension
 13
2795.470589276555
 23
2702.494269174615
 33
0.0
 14
3858.470589276567
 24
2702.494269174608
 34
0.0
100
AcDbRotatedDimension
1001
ACAD
1000
DSTYLE
1002
{
1002
}
  0
LINE
  5
18D80
330
18C7A
100
AcDbEntity
  8
破線
 48
10.0
100
AcDbLine
 10
3806.970589276556
 20
1472.494269174594
 30
0.0
 11
3009.47058927653
 21
1472.494269174523
 31
0.0
  0
DIMENSION
  5
18D81
330
18C7A
100
AcDbEntity
  8
寸法
100
AcDbDimension
  2
*D9
 10
4534.396935010941
 20
1392.494269174596
 30
0.0
 11
4534.39693501094
 21
1084.008987800356
 31
0.0
 12
-3742.925985830444
 22
-6453.628869860112
 32
0.0
 70
   128
 71
     5
 42
54.99999999999636
  3
INABA_S40G
100
AcDbAlignedDimension
 13
3886.970589276531
 23
1447.494269174593
 33
0.0
 14
3886.970589276531
 24
1392.494269174596
 34
0.0
 50
90.0
100
AcDbRotatedDimension
1001
ACAD
1000
DSTYLE
1002
{
1002
}
  0
LINE
  5
18D82
330
18C7A
100
AcDbEntity
  8
部品1
100
AcDbLine
 10
471.9705892765196
 20
3182.494269174477
 30
0.0
 11
471.9705892765232
 21
3154.494269174477
 31
0.0
  0
LINE
  5
18D83
330
18C7A
100
AcDbEntity
  8
部品1
100
AcDbLine
 10
471.9705892765559
 20
3182.494269174509
 30
0.0
 11
471.9705892765559
 21
3154.494269174509
 31
0.0
  0
LINE
  5
18D84
330
18C7A
100
AcDbEntity
  8
部品1
100
AcDbLine
 10
444.9705892765232
 20
3127.49426917448
 30
0.0
 11
416.9705892765232
 21
3127.49426917448
 31
0.0
  0
LINE
  5
18D85
330
18C7A
100
AcDbEntity
  8
部品1
100
AcDbLine
 10
444.9705892765305
 20
2707.49426917448
 30
0.0
 11
416.9705892765305
 21
2707.49426917448
 31
0.0
  0
LINE
  5
18D86
330
18C7A
100
AcDbEntity
  8
部品1
 48
50.0
100
AcDbLine
 10
445.4705892765542
 20
3152.494269174506
 30
0.0
 11
445.4705892765559
 21
2702.494269174505
 31
0.0
  0
LINE
  5
18D87
330
18C7A
100
AcDbEntity
  8
部品1
 48
50.0
100
AcDbLine
 10
473.470589276545
 20
1448.994269174573
 30
0.0
 11
444.970589276545
 21
1420.494269174574
 31
0.0
  0
LINE
  5
18D88
330
18C7A
100
AcDbEntity
  8
部品1
100
AcDbLine
 10
471.9705892765232
 20
1392.494269174465
 30
0.0
 11
416.9705892765486
 21
1392.494269174465
 31
0.0
  0
LINE
  5
18D89
330
18C7A
100
AcDbEntity
  8
部品1
100
AcDbLine
 10
444.9705892765305
 20
1447.494269174429
 30
0.0
 11
416.9705892765469
 21
1447.494269174429
 31
0.0
  0
LINE
  5
18D8A
330
18C7A
100
AcDbEntity
  8
部品1
100
AcDbLine
 10
444.9705892765305
 20
1447.494269174465
 30
0.0
 11
416.9705892765469
 21
1447.494269174465
 31
0.0
  0
LINE
  5
18D8B
330
18C7A
100
AcDbEntity
  8
部品1
100
AcDbLine
 10
444.9705892765469
 20
1447.49426917448
 30
0.0
 11
416.9705892765469
 21
1447.49426917448
 31
0.0
  0
LINE
  5
18D8C
330
18C7A
100
AcDbEntity
  8
部品1
100
AcDbLine
 10
416.9705892765469
 20
1447.494269174429
 30
0.0
 11
416.9705892765486
 21
1392.494269174433
 31
0.0
  0
LINE
  5
18D8D
330
18C7A
100
AcDbEntity
  8
部品1
100
AcDbLine
 10
416.9705892765196
 20
3182.494269174477
 30
0.0
 11
416.9705892765486
 21
1392.494269174465
 31
0.0
  0
LINE
  5
18D8E
330
18C7A
100
AcDbEntity
  8
部品1
100
AcDbLine
 10
444.9705892765305
 20
1420.494269174556
 30
0.0
 11
444.9705892765559
 21
3154.494269174509
 31
0.0
  0
LINE
  5
18D8F
330
18C7A
100
AcDbEntity
  8
部品1
100
AcDbLine
 10
473.4705892765323
 20
2702.494269174608
 30
0.0
 11
473.470589276545
 21
1448.994269174571
 31
0.0
  0
LINE
  5
18D90
330
18C7A
100
AcDbEntity
  8
破線
 48
10.0
100
AcDbLine
 10
496.9705892765305
 20
2702.494269174608
 30
0.0
 11
496.9705892765451
 21
1472.494269174476
 31
0.0
  0
DIMENSION
  5
18D91
330
18C7A
100
AcDbEntity
  8
寸法
100
AcDbDimension
  2
*D8
 10
3886.970589276531
 20
410.7433333855515
 30
0.0
 11
2168.197775309287
 21
410.7433333855515
 31
0.0
 12
-3742.925985830444
 22
-6453.628869860112
 32
0.0
 70
   128
 71
     5
 42
3469.999999999982
  3
INABA_S40G
100
AcDbAlignedDimension
 13
416.9705892765486
 23
1392.494269174433
 33
0.0
 14
3886.970589276531
 24
1392.49426917456
 34
0.0
100
AcDbRotatedDimension
1001
ACAD
1000
DSTYLE
1002
{
1070
   341
1005
0
1002
}
  0
LINE
  5
18D92
330
18C7A
100
AcDbEntity
  8
部品1
100
AcDbLine
 10
444.9705892765559
 20
3154.494269174624
 30
0.0
 11
1509.470589276487
 21
3154.494269174626
 31
0.0
  0
LINE
  5
18D93
330
18C7A
100
AcDbEntity
  8
部品1
100
AcDbLine
 10
3886.970589276531
 20
1392.494269174596
 30
0.0
 11
3411.970589276556
 21
1392.494269174582
 31
0.0
  0
LINE
  5
18D94
330
18C7A
100
AcDbEntity
  8
部品1
100
AcDbLine
 10
416.9705892765559
 20
3182.494269174509
 30
0.0
 11
3886.970589276556
 21
3182.494269174604
 31
0.0
  0
LINE
  5
18D95
330
18C7A
100
AcDbEntity
  8
部品1
100
AcDbLine
 10
445.4705892765559
 20
2702.494269174509
 30
0.0
 11
1508.470589276487
 21
2702.494269174558
 31
0.0
  0
LINE
  5
18D96
330
18C7A
100
AcDbEntity
  8
細線
 48
50.0
100
AcDbLine
 10
2767.470589276556
 20
3152.494269174611
 30
0.0
 11
1536.470589276487
 21
2702.494269174558
 31
0.0
  0
LINE
  5
18D97
330
18C7A
100
AcDbEntity
  8
部品1
100
AcDbLine
 10
445.4705892765542
 20
3152.494269174509
 30
0.0
 11
1508.470589276485
 21
3152.494269174558
 31
0.0
  0
LINE
  5
18D98
330
18C7A
100
AcDbEntity
  8
細線
 48
50.0
100
AcDbLine
 10
2767.470589276554
 20
2702.494269174615
 30
0.0
 11
1536.470589276485
 21
3152.494269174558
 31
0.0
  0
LINE
  5
18D99
330
18C7A
100
AcDbEntity
  8
破線
 48
10.0
100
AcDbLine
 10
2126.970589276534
 20
1472.494269174502
 30
0.0
 11
1344.47058927653
 21
1472.494269174473
 31
0.0
  0
LINE
  5
18D9A
330
18C7A
100
AcDbEntity
  8
部品1
100
AcDbLine
 10
3830.470589276556
 20
1448.994269174596
 30
0.0
 11
473.4705892764487
 21
1448.994269174476
 31
0.0
  0
DIMENSION
  5
18D9B
330
18C7A
100
AcDbEntity
  8
寸法
100
AcDbDimension
  2
*D7
 10
471.970589276555
 20
3698.302488799491
 30
0.0
 11
108.4853079022819
 21
3698.302488799491
 31
0.0
 12
-3742.925985830444
 22
-6453.628869860112
 32
0.0
 70
   128
 71
     5
 42
55.00000000003456
  3
INABA_S40G
100
AcDbAlignedDimension
 13
416.9705892765205
 23
3182.494269174509
 33
0.0
 14
471.970589276555
 24
3182.494269174509
 34
0.0
100
AcDbRotatedDimension
1001
ACAD
1000
DSTYLE
1002
{
1002
}
  0
DIMENSION
  5
18D9C
330
18C7A
100
AcDbEntity
  8
寸法
100
AcDbDimension
  2
*D6
 10
4534.396935010967
 20
3127.494269174607
 30
0.0
 11
4534.396935010965
 21
3490.979550548844
 31
0.0
 12
-3742.925985830444
 22
-6453.628869860112
 32
0.0
 70
   128
 71
     5
 42
54.99999999999636
  3
INABA_S40G
100
AcDbAlignedDimension
 13
3886.970589276556
 23
3182.494269174604
 33
0.0
 14
3886.970589276556
 24
3127.494269174607
 34
0.0
 50
90.0
100
AcDbRotatedDimension
1001
ACAD
1000
DSTYLE
1002
{
1002
}
  0
DIMENSION
  5
18D9D
330
18C7A
100
AcDbEntity
  8
寸法
100
AcDbDimension
  2
*D5
 10
3886.970589276556
 20
3698.302488799589
 30
0.0
 11
4195.455870650794
 21
3698.302488799589
 31
0.0
 12
-3742.925985830444
 22
-6453.628869860112
 32
0.0
 70
   128
 71
     5
 42
55.0
  3
INABA_S40G
100
AcDbAlignedDimension
 13
3831.970589276556
 23
3182.494269174604
 33
0.0
 14
3886.970589276556
 24
3182.494269174604
 34
0.0
100
AcDbRotatedDimension
1001
ACAD
1000
DSTYLE
1002
{
1002
}
  0
DIMENSION
  5
18D9E
330
18C7A
100
AcDbEntity
  8
寸法
100
AcDbDimension
  2
*D4
 10
3831.970589276556
 20
3698.302488799607
 30
0.0
 11
2151.970589276555
 21
3698.302488799607
 31
0.0
 12
-3742.925985830444
 22
-6453.628869860112
 32
0.0
 70
   128
  1
8X420=<>
 71
     5
 42
3360.000000000001
  3
INABA_S40G
100
AcDbAlignedDimension
 13
471.970589276555
 23
3182.494269174509
 33
0.0
 14
3831.970589276556
 24
3182.494269174604
 34
0.0
100
AcDbRotatedDimension
1001
ACAD
1000
DSTYLE
1002
{
1002
}
  0
DIMENSION
  5
18D9F
330
18C7A
100
AcDbEntity
  8
寸法
100
AcDbDimension
  2
*D3
 10
4899.503876750603
 20
1392.494269174596
 30
0.0
 11
4899.503876750601
 21
2287.4942691746
 31
0.0
 12
-3742.925985830444
 22
-6453.628869860112
 32
0.0
 70
   128
 71
     5
 42
1790.000000000007
  3
INABA_S40G
100
AcDbAlignedDimension
 13
3886.970589276556
 23
3182.494269174604
 33
0.0
 14
3886.970589276531
 24
1392.494269174596
 34
0.0
 50
90.0
100
AcDbRotatedDimension
1001
ACAD
1000
DSTYLE
1002
{
1002
}
  0
ENDBLK
  5
18DA1
330
18C7A
100
AcDbEntity
  8
0
 48
50.0
100
AcDbBlockEnd
  0
BLOCK
  5
1C4CB
330
1C4CA
100
AcDbEntity
  8
0
 48
50.0
100
AcDbBlockBegin
  2
_NONE
 70
     0
 10
0.0
 20
0.0
 30
0.0
  3
_NONE
  1

  0
CIRCLE
  5
1C4CC
330
1C4CA
100
AcDbEntity
  8
0
  6
ByBlock
 62
     0
 48
50.0
100
AcDbCircle
 10
0.0
 20
0.0
 30
0.0
 40
0.25
  0
ENDBLK
  5
1C4CD
330
1C4CA
100
AcDbEntity
  8
0
 48
50.0
100
AcDbBlockEnd
  0
BLOCK
  5
24F7B
330
24F72
100
AcDbEntity
  8
0
 48
50.0
100
AcDbBlockBegin
  2
*D19
 70
     1
 10
0.0
 20
0.0
 30
0.0
  3
*D19
  1

  0
LINE
  5
2573A
330
24F72
100
AcDbEntity
  8
寸法
 62
     0
 48
50.0
370
    -2
100
AcDbLine
 10
6903.6
 20
8196.907777930208
 30
0.0
 11
6903.6
 21
9195.12809998913
 31
0.0
  0
LINE
  5
2573B
330
24F72
100
AcDbEntity
  8
寸法
 62
     0
 48
50.0
370
    -2
100
AcDbLine
 10
9543.600000000001
 20
8196.907777930208
 30
0.0
 11
9543.600000000001
 21
9195.12809998913
 31
0.0
  0
LINE
  5
2573C
330
24F72
100
AcDbEntity
  8
寸法
 62
     0
 48
50.0
370
    -2
100
AcDbLine
 10
6903.6
 20
9135.128099989129
 30
0.0
 11
9543.600000000001
 21
9135.128099989129
 31
0.0
  0
INSERT
  5
2573D
330
24F72
100
AcDbEntity
  8
寸法
 62
     0
 48
50.0
370
    -2
100
AcDbBlockReference
  2
_DOTSMALL
 10
6903.6
 20
9135.128099989129
 30
0.0
 41
100.0
 42
100.0
 43
100.0
 50
180.0
  0
INSERT
  5
2573E
330
24F72
100
AcDbEntity
  8
寸法
 62
     0
 48
50.0
370
    -2
100
AcDbBlockReference
  2
_DOTSMALL
 10
9543.600000000001
 20
9135.128099989129
 30
0.0
 41
100.0
 42
100.0
 43
100.0
  0
MTEXT
  5
2573F
330
24F72
100
AcDbEntity
  8
寸法
 62
     7
 48
50.0
100
AcDbMText
 10
8223.600000000001
 20
9235.139911012751
 30
0.0
 40
120.0
 41
0.0
 71
     5
 72
     1
  1
\A1;2640
  7
STYLE1
 73
     1
 44
1.0
1001
ACAD
1000
MTEXTBEGIN
1070
    73
1070
     1
1070
    44
1040
1.0
1070
    74
1070
     0
1000
MTEXTEND
  0
POINT
  5
25740
330
24F72
100
AcDbEntity
  8
DEFPOINTS
 62
     0
 48
50.0
100
AcDbPoint
 10
6903.6
 20
8176.907777930209
 30
0.0
  0
POINT
  5
25741
330
24F72
100
AcDbEntity
  8
DEFPOINTS
 62
     0
 48
50.0
100
AcDbPoint
 10
9543.600000000001
 20
8176.907777930209
 30
0.0
  0
POINT
  5
25742
330
24F72
100
AcDbEntity
  8
DEFPOINTS
 62
     0
 48
50.0
100
AcDbPoint
 10
9543.600000000001
 20
9135.128099989129
 30
0.0
  0
ENDBLK
  5
24F7C
330
24F72
100
AcDbEntity
  8
0
 48
50.0
100
AcDbBlockEnd
  0
BLOCK
  5
24F87
330
24F7D
100
AcDbEntity
  8
0
 48
50.0
100
AcDbBlockBegin
  2
*D20
 70
     1
 10
0.0
 20
0.0
 30
0.0
  3
*D20
  1

  0
LINE
  5
25731
330
24F7D
100
AcDbEntity
  8
寸法
 62
     0
 48
50.0
370
    -2
100
AcDbLine
 10
7356.599999999964
 20
5441.907777930222
 30
0.0
 11
7356.599999999964
 21
4772.748662820254
 31
0.0
  0
LINE
  5
25732
330
24F7D
100
AcDbEntity
  8
寸法
 62
     0
 48
50.0
370
    -2
100
AcDbLine
 10
6903.599999999965
 20
5516.907777930204
 30
0.0
 11
6903.599999999965
 21
4772.748662820254
 31
0.0
  0
LINE
  5
25733
330
24F7D
100
AcDbEntity
  8
寸法
 62
     0
 48
50.0
370
    -2
100
AcDbLine
 10
7356.599999999964
 20
4832.748662820255
 30
0.0
 11
6903.599999999965
 21
4832.748662820255
 31
0.0
  0
INSERT
  5
25734
330
24F7D
100
AcDbEntity
  8
寸法
 62
     0
 48
50.0
370
    -2
100
AcDbBlockReference
  2
_DOTSMALL
 10
7356.599999999964
 20
4832.748662820255
 30
0.0
 41
100.0
 42
100.0
 43
100.0
  0
INSERT
  5
25735
330
24F7D
100
AcDbEntity
  8
寸法
 62
     0
 48
50.0
370
    -2
100
AcDbBlockReference
  2
_DOTSMALL
 10
6903.599999999965
 20
4832.748662820255
 30
0.0
 41
100.0
 42
100.0
 43
100.0
 50
180.0
  0
MTEXT
  5
25736
330
24F7D
100
AcDbEntity
  8
寸法
 62
     7
 48
50.0
100
AcDbMText
 10
7130.099999999965
 20
4932.748662820255
 30
0.0
 40
120.0
 41
0.0
 71
     5
 72
     1
  1
\A1;453
  7
STYLE1
 73
     1
 44
1.0
1001
ACAD
1000
MTEXTBEGIN
1070
    73
1070
     1
1070
    44
1040
1.0
1070
    74
1070
     0
1000
MTEXTEND
  0
POINT
  5
25737
330
24F7D
100
AcDbEntity
  8
DEFPOINTS
 62
     0
 48
50.0
100
AcDbPoint
 10
7356.599999999964
 20
5461.907777930222
 30
0.0
  0
POINT
  5
25738
330
24F7D
100
AcDbEntity
  8
DEFPOINTS
 62
     0
 48
50.0
100
AcDbPoint
 10
6903.599999999965
 20
5536.907777930204
 30
0.0
  0
POINT
  5
25739
330
24F7D
100
AcDbEntity
  8
DEFPOINTS
 62
     0
 48
50.0
100
AcDbPoint
 10
6903.599999999965
 20
4832.748662820255
 30
0.0
  0
ENDBLK
  5
24F88
330
24F7D
100
AcDbEntity
  8
0
 48
50.0
100
AcDbBlockEnd
  0
BLOCK
  5
24F92
330
24F89
100
AcDbEntity
  8
0
 48
50.0
100
AcDbBlockBegin
  2
*D21
 70
     1
 10
0.0
 20
0.0
 30
0.0
  3
*D21
  1

  0
LINE
  5
25728
330
24F89
100
AcDbEntity
  8
寸法
 62
     0
 48
50.0
370
    -2
100
AcDbLine
 10
9420.6
 20
8123.907777930208
 30
0.0
 11
9420.6
 21
8982.667404472293
 31
0.0
  0
LINE
  5
25729
330
24F89
100
AcDbEntity
  8
寸法
 62
     0
 48
50.0
370
    -2
100
AcDbLine
 10
7026.600000000001
 20
8123.907777930208
 30
0.0
 11
7026.600000000001
 21
8982.667404472293
 31
0.0
  0
LINE
  5
2572A
330
24F89
100
AcDbEntity
  8
寸法
 62
     0
 48
50.0
370
    -2
100
AcDbLine
 10
9420.6
 20
8922.66740447229
 30
0.0
 11
7026.600000000001
 21
8922.66740447229
 31
0.0
  0
INSERT
  5
2572B
330
24F89
100
AcDbEntity
  8
寸法
 62
     0
 48
50.0
370
    -2
100
AcDbBlockReference
  2
_DOTSMALL
 10
9420.6
 20
8922.66740447229
 30
0.0
 41
100.0
 42
100.0
 43
100.0
  0
INSERT
  5
2572C
330
24F89
100
AcDbEntity
  8
寸法
 62
     0
 48
50.0
370
    -2
100
AcDbBlockReference
  2
_DOTSMALL
 10
7026.600000000001
 20
8922.66740447229
 30
0.0
 41
100.0
 42
100.0
 43
100.0
 50
180.0
  0
MTEXT
  5
2572D
330
24F89
100
AcDbEntity
  8
寸法
 62
     7
 48
50.0
100
AcDbMText
 10
8223.600000000001
 20
9022.679215495912
 30
0.0
 40
120.0
 41
0.0
 71
     5
 72
     1
  1
\A1;2394
  7
STYLE1
 73
     1
 44
1.0
1001
ACAD
1000
MTEXTBEGIN
1070
    73
1070
     1
1070
    44
1040
1.0
1070
    74
1070
     0
1000
MTEXTEND
  0
POINT
  5
2572E
330
24F89
100
AcDbEntity
  8
DEFPOINTS
 62
     0
 48
50.0
100
AcDbPoint
 10
9420.6
 20
8103.907777930208
 30
0.0
  0
POINT
  5
2572F
330
24F89
100
AcDbEntity
  8
DEFPOINTS
 62
     0
 48
50.0
100
AcDbPoint
 10
7026.600000000001
 20
8103.907777930208
 30
0.0
  0
POINT
  5
25730
330
24F89
100
AcDbEntity
  8
DEFPOINTS
 62
     0
 48
50.0
100
AcDbPoint
 10
7026.600000000001
 20
8922.66740447229
 30
0.0
  0
ENDBLK
  5
24F93
330
24F89
100
AcDbEntity
  8
0
 48
50.0
100
AcDbBlockEnd
  0
BLOCK
  5
24F9F
330
24F94
100
AcDbEntity
  8
0
 48
50.0
100
AcDbBlockBegin
  2
*D22
 70
     1
 10
0.0
 20
0.0
 30
0.0
  3
*D22
  1

  0
LINE
  5
268E8
330
24F94
100
AcDbEntity
  8
寸法
 62
     0
 48
50.0
370
    -2
100
AcDbLine
 10
7153.6
 20
8056.907777930211
 30
0.0
 11
7410.307249876098
 21
8056.907777930211
 31
0.0
  0
LINE
  5
268E9
330
24F94
100
AcDbEntity
  8
寸法
 62
     0
 48
50.0
370
    -2
100
AcDbLine
 10
7153.6
 20
7946.907777930204
 30
0.0
 11
7410.307249876098
 21
7946.907777930204
 31
0.0
  0
LINE
  5
268EA
330
24F94
100
AcDbEntity
  8
寸法
 62
     0
 48
50.0
370
    -2
100
AcDbLine
 10
7350.307249876099
 20
8056.907777930211
 30
0.0
 11
7350.307249876099
 21
7946.907777930204
 31
0.0
  0
LINE
  5
268EB
330
24F94
100
AcDbEntity
  8
寸法
 62
     0
 48
50.0
370
    -2
100
AcDbLine
 10
7350.307249876099
 20
7946.907777930204
 30
0.0
 11
7350.307249876099
 21
7482.801478717603
 31
0.0
  0
INSERT
  5
268EC
330
24F94
100
AcDbEntity
  8
寸法
 62
     0
 48
50.0
370
    -2
100
AcDbBlockReference
  2
_DOTSMALL
 10
7350.307249876099
 20
8056.907777930211
 30
0.0
 41
100.0
 42
100.0
 43
100.0
 50
90.0
  0
INSERT
  5
268ED
330
24F94
100
AcDbEntity
  8
寸法
 62
     0
 48
50.0
370
    -2
100
AcDbBlockReference
  2
_DOTSMALL
 10
7350.307249876099
 20
7946.907777930204
 30
0.0
 41
100.0
 42
100.0
 43
100.0
 50
270.0
  0
MTEXT
  5
268EE
330
24F94
100
AcDbEntity
  8
寸法
 62
     7
 48
50.0
100
AcDbMText
 10
7250.307249876097
 20
7606.848722812093
 30
0.0
 40
120.0
 41
0.0
 71
     5
 72
     1
  1
\A1;110
  7
STYLE1
 11
0.0000000000000001
 21
1.0
 31
0.0
 73
     1
 44
1.0
1001
ACAD
1000
MTEXTBEGIN
1070
    73
1070
     1
1070
    44
1040
1.0
1070
    74
1070
     0
1000
MTEXTEND
  0
POINT
  5
268EF
330
24F94
100
AcDbEntity
  8
DEFPOINTS
 62
     0
 48
50.0
100
AcDbPoint
 10
7133.6
 20
8056.907777930211
 30
0.0
  0
POINT
  5
268F0
330
24F94
100
AcDbEntity
  8
DEFPOINTS
 62
     0
 48
50.0
100
AcDbPoint
 10
7133.6
 20
7946.907777930204
 30
0.0
  0
POINT
  5
268F1
330
24F94
100
AcDbEntity
  8
DEFPOINTS
 62
     0
 48
50.0
100
AcDbPoint
 10
7350.307249876099
 20
7946.907777930204
 30
0.0
  0
ENDBLK
  5
24FA0
330
24F94
100
AcDbEntity
  8
0
 48
50.0
100
AcDbBlockEnd
  0
BLOCK
  5
24FAC
330
24FA1
100
AcDbEntity
  8
0
 48
50.0
100
AcDbBlockBegin
  2
*D23
 70
     1
 10
0.0
 20
0.0
 30
0.0
  3
*D23
  1

  0
LINE
  5
26817
330
24FA1
100
AcDbEntity
  8
寸法
 62
     0
 48
50.0
370
    -2
100
AcDbLine
 10
7153.6
 20
5656.907777930212
 30
0.0
 11
7312.197085004765
 21
5656.907777930212
 31
0.0
  0
LINE
  5
26818
330
24FA1
100
AcDbEntity
  8
寸法
 62
     0
 48
50.0
370
    -2
100
AcDbLine
 10
7153.6
 20
5536.907777930208
 30
0.0
 11
7312.197085004765
 21
5536.907777930208
 31
0.0
  0
LINE
  5
26819
330
24FA1
100
AcDbEntity
  8
寸法
 62
     0
 48
50.0
370
    -2
100
AcDbLine
 10
7252.197085004765
 20
5656.907777930212
 30
0.0
 11
7252.197085004765
 21
5536.907777930208
 31
0.0
  0
LINE
  5
2681A
330
24FA1
100
AcDbEntity
  8
寸法
 62
     0
 48
50.0
370
    -2
100
AcDbLine
 10
7252.197085004765
 20
5536.907777930208
 30
0.0
 11
7252.197085004765
 21
5130.801478717608
 31
0.0
  0
INSERT
  5
2681B
330
24FA1
100
AcDbEntity
  8
寸法
 62
     0
 48
50.0
370
    -2
100
AcDbBlockReference
  2
_DOTSMALL
 10
7252.197085004765
 20
5656.907777930212
 30
0.0
 41
100.0
 42
100.0
 43
100.0
 50
90.0
  0
INSERT
  5
2681C
330
24FA1
100
AcDbEntity
  8
寸法
 62
     0
 48
50.0
370
    -2
100
AcDbBlockReference
  2
_DOTSMALL
 10
7252.197085004765
 20
5536.907777930208
 30
0.0
 41
100.0
 42
100.0
 43
100.0
 50
270.0
  0
MTEXT
  5
2681D
330
24FA1
100
AcDbEntity
  8
寸法
 62
     7
 48
50.0
100
AcDbMText
 10
7152.185273981142
 20
5266.848722812097
 30
0.0
 40
120.0
 41
0.0
 71
     5
 72
     1
  1
\A1;120
  7
STYLE1
 11
0.0000000000000001
 21
1.0
 31
0.0
 73
     1
 44
1.0
1001
ACAD
1000
MTEXTBEGIN
1070
    73
1070
     1
1070
    44
1040
1.0
1070
    74
1070
     0
1000
MTEXTEND
  0
POINT
  5
2681E
330
24FA1
100
AcDbEntity
  8
DEFPOINTS
 62
     0
 48
50.0
100
AcDbPoint
 10
7133.6
 20
5656.907777930212
 30
0.0
  0
POINT
  5
2681F
330
24FA1
100
AcDbEntity
  8
DEFPOINTS
 62
     0
 48
50.0
100
AcDbPoint
 10
7133.6
 20
5536.907777930208
 30
0.0
  0
POINT
  5
26820
330
24FA1
100
AcDbEntity
  8
DEFPOINTS
 62
     0
 48
50.0
100
AcDbPoint
 10
7252.197085004765
 20
5536.907777930208
 30
0.0
  0
ENDBLK
  5
24FAD
330
24FA1
100
AcDbEntity
  8
0
 48
50.0
100
AcDbBlockEnd
  0
BLOCK
  5
24FB9
330
24FAE
100
AcDbEntity
  8
0
 48
50.0
100
AcDbBlockBegin
  2
*D24
 70
     1
 10
0.0
 20
0.0
 30
0.0
  3
*D24
  1

  0
LINE
  5
2680D
330
24FAE
100
AcDbEntity
  8
寸法
 62
     0
 48
50.0
370
    -2
100
AcDbLine
 10
7153.6
 20
5656.907777930212
 30
0.0
 11
7312.197085004765
 21
5656.907777930212
 31
0.0
  0
LINE
  5
2680E
330
24FAE
100
AcDbEntity
  8
寸法
 62
     0
 48
50.0
370
    -2
100
AcDbLine
 10
7153.6
 20
5766.907777930211
 30
0.0
 11
7312.197085004765
 21
5766.907777930211
 31
0.0
  0
LINE
  5
2680F
330
24FAE
100
AcDbEntity
  8
寸法
 62
     0
 48
50.0
370
    -2
100
AcDbLine
 10
7252.197085004765
 20
5656.907777930212
 30
0.0
 11
7252.197085004765
 21
5766.907777930211
 31
0.0
  0
LINE
  5
26810
330
24FAE
100
AcDbEntity
  8
寸法
 62
     0
 48
50.0
370
    -2
100
AcDbLine
 10
7252.197085004765
 20
5766.907777930211
 30
0.0
 11
7252.197085004765
 21
6231.014077142809
 31
0.0
  0
INSERT
  5
26811
330
24FAE
100
AcDbEntity
  8
寸法
 62
     0
 48
50.0
370
    -2
100
AcDbBlockReference
  2
_DOTSMALL
 10
7252.197085004765
 20
5656.907777930212
 30
0.0
 41
100.0
 42
100.0
 43
100.0
 50
270.0
  0
INSERT
  5
26812
330
24FAE
100
AcDbEntity
  8
寸法
 62
     0
 48
50.0
370
    -2
100
AcDbBlockReference
  2
_DOTSMALL
 10
7252.197085004765
 20
5766.907777930211
 30
0.0
 41
100.0
 42
100.0
 43
100.0
 50
90.0
  0
MTEXT
  5
26813
330
24FAE
100
AcDbEntity
  8
寸法
 62
     7
 48
50.0
100
AcDbMText
 10
7152.197085004764
 20
6106.966833048324
 30
0.0
 40
120.0
 41
0.0
 71
     5
 72
     1
  1
\A1;110
  7
STYLE1
 11
0.0000000000000001
 21
1.0
 31
0.0
 73
     1
 44
1.0
1001
ACAD
1000
MTEXTBEGIN
1070
    73
1070
     1
1070
    44
1040
1.0
1070
    74
1070
     0
1000
MTEXTEND
  0
POINT
  5
26814
330
24FAE
100
AcDbEntity
  8
DEFPOINTS
 62
     0
 48
50.0
100
AcDbPoint
 10
7133.6
 20
5656.907777930212
 30
0.0
  0
POINT
  5
26815
330
24FAE
100
AcDbEntity
  8
DEFPOINTS
 62
     0
 48
50.0
100
AcDbPoint
 10
7133.6
 20
5766.907777930211
 30
0.0
  0
POINT
  5
26816
330
24FAE
100
AcDbEntity
  8
DEFPOINTS
 62
     0
 48
50.0
100
AcDbPoint
 10
7252.197085004765
 20
5766.907777930211
 30
0.0
  0
ENDBLK
  5
24FBA
330
24FAE
100
AcDbEntity
  8
0
 48
50.0
100
AcDbBlockEnd
  0
BLOCK
  5
24FC4
330
24FBB
100
AcDbEntity
  8
0
 48
50.0
100
AcDbBlockBegin
  2
*D25
 70
     1
 10
0.0
 20
0.0
 30
0.0
  3
*D25
  1

  0
LINE
  5
25701
330
24FBB
100
AcDbEntity
  8
寸法
 62
     0
 48
50.0
370
    -2
100
AcDbLine
 10
7808.6
 20
7521.907777930208
 30
0.0
 11
7808.6
 21
8763.817543578536
 31
0.0
  0
LINE
  5
25702
330
24FBB
100
AcDbEntity
  8
寸法
 62
     0
 48
50.0
370
    -2
100
AcDbLine
 10
6903.6
 20
8196.907777930208
 30
0.0
 11
6903.6
 21
8763.817543578536
 31
0.0
  0
LINE
  5
25703
330
24FBB
100
AcDbEntity
  8
寸法
 62
     0
 48
50.0
370
    -2
100
AcDbLine
 10
7808.6
 20
8703.817543578535
 30
0.0
 11
6903.6
 21
8703.817543578535
 31
0.0
  0
INSERT
  5
25704
330
24FBB
100
AcDbEntity
  8
寸法
 62
     0
 48
50.0
370
    -2
100
AcDbBlockReference
  2
_DOTSMALL
 10
7808.6
 20
8703.817543578535
 30
0.0
 41
100.0
 42
100.0
 43
100.0
  0
INSERT
  5
25705
330
24FBB
100
AcDbEntity
  8
寸法
 62
     0
 48
50.0
370
    -2
100
AcDbBlockReference
  2
_DOTSMALL
 10
6903.6
 20
8703.817543578535
 30
0.0
 41
100.0
 42
100.0
 43
100.0
 50
180.0
  0
MTEXT
  5
25706
330
24FBB
100
AcDbEntity
  8
寸法
 62
     7
 48
50.0
100
AcDbMText
 10
7356.100000000001
 20
8803.817543578537
 30
0.0
 40
120.0
 41
0.0
 71
     5
 72
     1
  1
\A1;905
  7
STYLE1
 73
     1
 44
1.0
1001
ACAD
1000
MTEXTBEGIN
1070
    73
1070
     1
1070
    44
1040
1.0
1070
    74
1070
     0
1000
MTEXTEND
  0
POINT
  5
25707
330
24FBB
100
AcDbEntity
  8
DEFPOINTS
 62
     0
 48
50.0
100
AcDbPoint
 10
7808.6
 20
7501.907777930208
 30
0.0
  0
POINT
  5
25708
330
24FBB
100
AcDbEntity
  8
DEFPOINTS
 62
     0
 48
50.0
100
AcDbPoint
 10
6903.6
 20
8176.907777930209
 30
0.0
  0
POINT
  5
25709
330
24FBB
100
AcDbEntity
  8
DEFPOINTS
 62
     0
 48
50.0
100
AcDbPoint
 10
6903.6
 20
8703.817543578535
 30
0.0
  0
ENDBLK
  5
24FC5
330
24FBB
100
AcDbEntity
  8
0
 48
50.0
100
AcDbBlockEnd
  0
BLOCK
  5
24FD1
330
24FC6
100
AcDbEntity
  8
0
 48
50.0
100
AcDbBlockBegin
  2
*D26
 70
     1
 10
0.0
 20
0.0
 30
0.0
  3
*D26
  1

  0
LINE
  5
268DE
330
24FC6
100
AcDbEntity
  8
寸法
 62
     0
 48
50.0
370
    -2
100
AcDbLine
 10
7153.6
 20
8056.907777930209
 30
0.0
 11
7410.307249876098
 21
8056.907777930209
 31
0.0
  0
LINE
  5
268DF
330
24FC6
100
AcDbEntity
  8
寸法
 62
     0
 48
50.0
370
    -2
100
AcDbLine
 10
7153.6
 20
8176.907777930209
 30
0.0
 11
7410.307249876098
 21
8176.907777930209
 31
0.0
  0
LINE
  5
268E0
330
24FC6
100
AcDbEntity
  8
寸法
 62
     0
 48
50.0
370
    -2
100
AcDbLine
 10
7350.307249876099
 20
8056.907777930209
 30
0.0
 11
7350.307249876099
 21
8176.907777930209
 31
0.0
  0
LINE
  5
268E1
330
24FC6
100
AcDbEntity
  8
寸法
 62
     0
 48
50.0
370
    -2
100
AcDbLine
 10
7350.307249876099
 20
8176.907777930209
 30
0.0
 11
7350.307249876099
 21
8591.03856529758
 31
0.0
  0
INSERT
  5
268E2
330
24FC6
100
AcDbEntity
  8
寸法
 62
     0
 48
50.0
370
    -2
100
AcDbBlockReference
  2
_DOTSMALL
 10
7350.307249876099
 20
8056.907777930209
 30
0.0
 41
100.0
 42
100.0
 43
100.0
 50
270.0
  0
INSERT
  5
268E3
330
24FC6
100
AcDbEntity
  8
寸法
 62
     0
 48
50.0
370
    -2
100
AcDbBlockReference
  2
_DOTSMALL
 10
7350.307249876099
 20
8176.907777930209
 30
0.0
 41
100.0
 42
100.0
 43
100.0
 50
90.0
  0
MTEXT
  5
268E4
330
24FC6
100
AcDbEntity
  8
寸法
 62
     7
 48
50.0
100
AcDbMText
 10
7250.295438852475
 20
8454.991321203094
 30
0.0
 40
120.0
 41
0.0
 71
     5
 72
     1
  1
\A1;120
  7
STYLE1
 11
0.0000000000000001
 21
1.0
 31
0.0
 73
     1
 44
1.0
1001
ACAD
1000
MTEXTBEGIN
1070
    73
1070
     1
1070
    44
1040
1.0
1070
    74
1070
     0
1000
MTEXTEND
  0
POINT
  5
268E5
330
24FC6
100
AcDbEntity
  8
DEFPOINTS
 62
     0
 48
50.0
100
AcDbPoint
 10
7133.6
 20
8056.907777930209
 30
0.0
  0
POINT
  5
268E6
330
24FC6
100
AcDbEntity
  8
DEFPOINTS
 62
     0
 48
50.0
100
AcDbPoint
 10
7133.6
 20
8176.907777930209
 30
0.0
  0
POINT
  5
268E7
330
24FC6
100
AcDbEntity
  8
DEFPOINTS
 62
     0
 48
50.0
100
AcDbPoint
 10
7350.307249876099
 20
8176.907777930209
 30
0.0
  0
ENDBLK
  5
24FD2
330
24FC6
100
AcDbEntity
  8
0
 48
50.0
100
AcDbBlockEnd
  0
BLOCK
  5
24FDD
330
24FD3
100
AcDbEntity
  8
0
 48
50.0
100
AcDbBlockBegin
  2
*D27
 70
     1
 10
0.0
 20
0.0
 30
0.0
  3
*D27
  1

  0
LINE
  5
2565B
330
24FD3
100
AcDbEntity
  8
寸法
 62
     0
 48
50.0
370
    -2
100
AcDbLine
 10
6956.6
 20
8053.907777930207
 30
0.0
 11
5795.002973219973
 21
8053.907777930209
 31
0.0
  0
LINE
  5
2565C
330
24FD3
100
AcDbEntity
  8
寸法
 62
     0
 48
50.0
370
    -2
100
AcDbLine
 10
6956.600000000007
 20
5659.907777930207
 30
0.0
 11
5795.002973219972
 21
5659.907777930209
 31
0.0
  0
LINE
  5
2565D
330
24FD3
100
AcDbEntity
  8
寸法
 62
     0
 48
50.0
370
    -2
100
AcDbLine
 10
5855.002973219973
 20
8053.907777930209
 30
0.0
 11
5855.002973219971
 21
5659.907777930209
 31
0.0
  0
INSERT
  5
2565E
330
24FD3
100
AcDbEntity
  8
寸法
 62
     0
 48
50.0
370
    -2
100
AcDbBlockReference
  2
_DOTSMALL
 10
5855.002973219973
 20
8053.907777930209
 30
0.0
 41
100.0
 42
100.0
 43
100.0
 50
90.0
  0
INSERT
  5
2565F
330
24FD3
100
AcDbEntity
  8
寸法
 62
     0
 48
50.0
370
    -2
100
AcDbBlockReference
  2
_DOTSMALL
 10
5855.002973219971
 20
5659.907777930209
 30
0.0
 41
100.0
 42
100.0
 43
100.0
 50
270.0
  0
MTEXT
  5
25660
330
24FD3
100
AcDbEntity
  8
寸法
 62
     7
 48
50.0
100
AcDbMText
 10
5754.99116219635
 20
6891.907777930206
 30
0.0
 40
120.0
 41
0.0
 71
     5
 72
     1
  1
\A1;2394
  7
STYLE1
 11
0.0000000000000001
 21
1.0
 31
0.0
 73
     1
 44
1.0
1001
ACAD
1000
MTEXTBEGIN
1070
    73
1070
     1
1070
    44
1040
1.0
1070
    74
1070
     0
1000
MTEXTEND
  0
POINT
  5
25661
330
24FD3
100
AcDbEntity
  8
DEFPOINTS
 62
     0
 48
50.0
100
AcDbPoint
 10
6976.600000000001
 20
8053.907777930207
 30
0.0
  0
POINT
  5
25662
330
24FD3
100
AcDbEntity
  8
DEFPOINTS
 62
     0
 48
50.0
100
AcDbPoint
 10
6976.600000000008
 20
5659.907777930207
 30
0.0
  0
POINT
  5
25663
330
24FD3
100
AcDbEntity
  8
DEFPOINTS
 62
     0
 48
50.0
100
AcDbPoint
 10
5855.002973219971
 20
5659.907777930209
 30
0.0
  0
ENDBLK
  5
24FDE
330
24FD3
100
AcDbEntity
  8
0
 48
50.0
100
AcDbBlockEnd
  0
BLOCK
  5
24FE8
330
24FDF
100
AcDbEntity
  8
0
 48
50.0
100
AcDbBlockBegin
  2
*D28
 70
     1
 10
0.0
 20
0.0
 30
0.0
  3
*D28
  1

  0
LINE
  5
25652
330
24FDF
100
AcDbEntity
  8
寸法
 62
     0
 48
50.0
370
    -2
100
AcDbLine
 10
6883.6
 20
5536.907777930208
 30
0.0
 11
5543.059876500573
 21
5536.907777930209
 31
0.0
  0
LINE
  5
25653
330
24FDF
100
AcDbEntity
  8
寸法
 62
     0
 48
50.0
370
    -2
100
AcDbLine
 10
6883.6
 20
8176.907777930209
 30
0.0
 11
5543.059876500574
 21
8176.907777930209
 31
0.0
  0
LINE
  5
25654
330
24FDF
100
AcDbEntity
  8
寸法
 62
     0
 48
50.0
370
    -2
100
AcDbLine
 10
5603.059876500573
 20
5536.907777930209
 30
0.0
 11
5603.059876500574
 21
8176.907777930209
 31
0.0
  0
INSERT
  5
25655
330
24FDF
100
AcDbEntity
  8
寸法
 62
     0
 48
50.0
370
    -2
100
AcDbBlockReference
  2
_DOTSMALL
 10
5603.059876500573
 20
5536.907777930209
 30
0.0
 41
100.0
 42
100.0
 43
100.0
 50
270.0
  0
INSERT
  5
25656
330
24FDF
100
AcDbEntity
  8
寸法
 62
     0
 48
50.0
370
    -2
100
AcDbBlockReference
  2
_DOTSMALL
 10
5603.059876500574
 20
8176.907777930209
 30
0.0
 41
100.0
 42
100.0
 43
100.0
 50
90.0
  0
MTEXT
  5
25657
330
24FDF
100
AcDbEntity
  8
寸法
 62
     7
 48
50.0
100
AcDbMText
 10
5503.048065476951
 20
6821.90777793021
 30
0.0
 40
120.0
 41
0.0
 71
     5
 72
     1
  1
\A1;2640
  7
STYLE1
 11
0.0000000000000001
 21
1.0
 31
0.0
 73
     1
 44
1.0
1001
ACAD
1000
MTEXTBEGIN
1070
    73
1070
     1
1070
    44
1040
1.0
1070
    74
1070
     0
1000
MTEXTEND
  0
POINT
  5
25658
330
24FDF
100
AcDbEntity
  8
DEFPOINTS
 62
     0
 48
50.0
100
AcDbPoint
 10
6903.6
 20
5536.907777930208
 30
0.0
  0
POINT
  5
25659
330
24FDF
100
AcDbEntity
  8
DEFPOINTS
 62
     0
 48
50.0
100
AcDbPoint
 10
6903.6
 20
8176.907777930209
 30
0.0
  0
POINT
  5
2565A
330
24FDF
100
AcDbEntity
  8
DEFPOINTS
 62
     0
 48
50.0
100
AcDbPoint
 10
5603.059876500574
 20
8176.907777930209
 30
0.0
  0
ENDBLK
  5
24FE9
330
24FDF
100
AcDbEntity
  8
0
 48
50.0
100
AcDbBlockEnd
  0
BLOCK
  5
24FF5
330
24FEA
100
AcDbEntity
  8
0
 48
50.0
100
AcDbBlockBegin
  2
*D29
 70
     1
 10
0.0
 20
0.0
 30
0.0
  3
*D29
  1

  0
LINE
  5
256ED
330
24FEA
100
AcDbEntity
  8
寸法
 62
     0
 48
50.0
370
    -2
100
AcDbLine
 10
6956.600000000007
 20
5659.907777930207
 30
0.0
 11
5795.002973219972
 21
5659.907777930209
 31
0.0
  0
LINE
  5
256EE
330
24FEA
100
AcDbEntity
  8
寸法
 62
     0
 48
50.0
370
    -2
100
AcDbLine
 10
6883.6
 20
5536.907777930208
 30
0.0
 11
5795.002973219972
 21
5536.907777930209
 31
0.0
  0
LINE
  5
256EF
330
24FEA
100
AcDbEntity
  8
寸法
 62
     0
 48
50.0
370
    -2
100
AcDbLine
 10
5855.002973219971
 20
5659.907777930209
 30
0.0
 11
5855.002973219971
 21
5536.907777930209
 31
0.0
  0
LINE
  5
256F0
330
24FEA
100
AcDbEntity
  8
寸法
 62
     0
 48
50.0
370
    -2
100
AcDbLine
 10
5855.002973219971
 20
5536.907777930209
 30
0.0
 11
5855.002973219971
 21
5125.31589483817
 31
0.0
  0
INSERT
  5
256F1
330
24FEA
100
AcDbEntity
  8
寸法
 62
     0
 48
50.0
370
    -2
100
AcDbBlockReference
  2
_DOTSMALL
 10
5855.002973219971
 20
5659.907777930209
 30
0.0
 41
100.0
 42
100.0
 43
100.0
 50
90.0
  0
INSERT
  5
256F2
330
24FEA
100
AcDbEntity
  8
寸法
 62
     0
 48
50.0
370
    -2
100
AcDbBlockReference
  2
_DOTSMALL
 10
5855.002973219971
 20
5536.907777930209
 30
0.0
 41
100.0
 42
100.0
 43
100.0
 50
270.0
  0
MTEXT
  5
256F3
330
24FEA
100
AcDbEntity
  8
寸法
 62
     7
 48
50.0
100
AcDbMText
 10
5754.99116219635
 20
5263.80117621241
 30
0.0
 40
120.0
 41
0.0
 71
     5
 72
     1
  1
\A1;123
  7
STYLE1
 11
0.0000000000000001
 21
1.0
 31
0.0
 73
     1
 44
1.0
1001
ACAD
1000
MTEXTBEGIN
1070
    73
1070
     1
1070
    44
1040
1.0
1070
    74
1070
     0
1000
MTEXTEND
  0
POINT
  5
256F4
330
24FEA
100
AcDbEntity
  8
DEFPOINTS
 62
     0
 48
50.0
100
AcDbPoint
 10
6976.600000000008
 20
5659.907777930207
 30
0.0
  0
POINT
  5
256F5
330
24FEA
100
AcDbEntity
  8
DEFPOINTS
 62
     0
 48
50.0
100
AcDbPoint
 10
6903.6
 20
5536.907777930208
 30
0.0
  0
POINT
  5
256F6
330
24FEA
100
AcDbEntity
  8
DEFPOINTS
 62
     0
 48
50.0
100
AcDbPoint
 10
5855.002973219971
 20
5536.907777930209
 30
0.0
  0
ENDBLK
  5
24FF6
330
24FEA
100
AcDbEntity
  8
0
 48
50.0
100
AcDbBlockEnd
  0
BLOCK
  5
25018
330
2500D
100
AcDbEntity
  8
0
 48
50.0
100
AcDbBlockBegin
  2
*D30
 70
     1
 10
0.0
 20
0.0
 30
0.0
  3
*D30
  1

  0
LINE
  5
256CD
330
2500D
100
AcDbEntity
  8
寸法
 62
     0
 48
50.0
370
    -2
100
AcDbLine
 10
6883.6
 20
8176.907777930209
 30
0.0
 11
5795.002973219972
 21
8176.907777930209
 31
0.0
  0
LINE
  5
256CE
330
2500D
100
AcDbEntity
  8
寸法
 62
     0
 48
50.0
370
    -2
100
AcDbLine
 10
6956.6
 20
8053.907777930207
 30
0.0
 11
5795.002973219972
 21
8053.907777930209
 31
0.0
  0
LINE
  5
256CF
330
2500D
100
AcDbEntity
  8
寸法
 62
     0
 48
50.0
370
    -2
100
AcDbLine
 10
5855.002973219971
 20
8053.907777930209
 30
0.0
 11
5855.002973219971
 21
8176.907777930209
 31
0.0
  0
LINE
  5
256D0
330
2500D
100
AcDbEntity
  8
寸法
 62
     0
 48
50.0
370
    -2
100
AcDbLine
 10
5855.002973219971
 20
8176.907777930209
 30
0.0
 11
5855.002973219971
 21
8628.499661022242
 31
0.0
  0
INSERT
  5
256D1
330
2500D
100
AcDbEntity
  8
寸法
 62
     0
 48
50.0
370
    -2
100
AcDbBlockReference
  2
_DOTSMALL
 10
5855.002973219971
 20
8053.907777930209
 30
0.0
 41
100.0
 42
100.0
 43
100.0
 50
270.0
  0
INSERT
  5
256D2
330
2500D
100
AcDbEntity
  8
寸法
 62
     0
 48
50.0
370
    -2
100
AcDbBlockReference
  2
_DOTSMALL
 10
5855.002973219971
 20
8176.907777930209
 30
0.0
 41
100.0
 42
100.0
 43
100.0
 50
90.0
  0
MTEXT
  5
256D3
330
2500D
100
AcDbEntity
  8
寸法
 62
     7
 48
50.0
100
AcDbMText
 10
5754.99116219635
 20
8490.014379648007
 30
0.0
 40
120.0
 41
0.0
 71
     5
 72
     1
  1
\A1;123
  7
STYLE1
 11
0.0000000000000001
 21
1.0
 31
0.0
 73
     1
 44
1.0
1001
ACAD
1000
MTEXTBEGIN
1070
    73
1070
     1
1070
    44
1040
1.0
1070
    74
1070
     0
1000
MTEXTEND
  0
POINT
  5
256D4
330
2500D
100
AcDbEntity
  8
DEFPOINTS
 62
     0
 48
50.0
100
AcDbPoint
 10
6903.6
 20
8176.907777930209
 30
0.0
  0
POINT
  5
256D5
330
2500D
100
AcDbEntity
  8
DEFPOINTS
 62
     0
 48
50.0
100
AcDbPoint
 10
6976.600000000001
 20
8053.907777930207
 30
0.0
  0
POINT
  5
256D6
330
2500D
100
AcDbEntity
  8
DEFPOINTS
 62
     0
 48
50.0
100
AcDbPoint
 10
5855.002973219971
 20
8053.907777930209
 30
0.0
  0
ENDBLK
  5
25019
330
2500D
100
AcDbEntity
  8
0
 48
50.0
100
AcDbBlockEnd
  0
BLOCK
  5
25025
330
2501A
100
AcDbEntity
  8
0
 48
50.0
100
AcDbBlockBegin
  2
*D31
 70
     1
 10
0.0
 20
0.0
 30
0.0
  3
*D31
  1

  0
LINE
  5
256C3
330
2501A
100
AcDbEntity
  8
寸法
 62
     0
 48
50.0
370
    -2
100
AcDbLine
 10
7026.600000000001
 20
8123.907777930208
 30
0.0
 11
7026.600000000001
 21
8982.667404472293
 31
0.0
  0
LINE
  5
256C4
330
2501A
100
AcDbEntity
  8
寸法
 62
     0
 48
50.0
370
    -2
100
AcDbLine
 10
6903.6
 20
8196.907777930208
 30
0.0
 11
6903.6
 21
8982.667404472293
 31
0.0
  0
LINE
  5
256C5
330
2501A
100
AcDbEntity
  8
寸法
 62
     0
 48
50.0
370
    -2
100
AcDbLine
 10
7026.600000000001
 20
8922.66740447229
 30
0.0
 11
6903.6
 21
8922.66740447229
 31
0.0
  0
LINE
  5
256C6
330
2501A
100
AcDbEntity
  8
寸法
 62
     0
 48
50.0
370
    -2
100
AcDbLine
 10
6903.6
 20
8922.66740447229
 30
0.0
 11
6492.008116907964
 21
8922.66740447229
 31
0.0
  0
INSERT
  5
256C7
330
2501A
100
AcDbEntity
  8
寸法
 62
     0
 48
50.0
370
    -2
100
AcDbBlockReference
  2
_DOTSMALL
 10
7026.600000000001
 20
8922.66740447229
 30
0.0
 41
100.0
 42
100.0
 43
100.0
  0
INSERT
  5
256C8
330
2501A
100
AcDbEntity
  8
寸法
 62
     0
 48
50.0
370
    -2
100
AcDbBlockReference
  2
_DOTSMALL
 10
6903.6
 20
8922.66740447229
 30
0.0
 41
100.0
 42
100.0
 43
100.0
 50
180.0
  0
MTEXT
  5
256C9
330
2501A
100
AcDbEntity
  8
寸法
 62
     7
 48
50.0
100
AcDbMText
 10
6630.493398282202
 20
9022.679215495912
 30
0.0
 40
120.0
 41
0.0
 71
     5
 72
     1
  1
\A1;123
  7
STYLE1
 73
     1
 44
1.0
1001
ACAD
1000
MTEXTBEGIN
1070
    73
1070
     1
1070
    44
1040
1.0
1070
    74
1070
     0
1000
MTEXTEND
  0
POINT
  5
256CA
330
2501A
100
AcDbEntity
  8
DEFPOINTS
 62
     0
 48
50.0
100
AcDbPoint
 10
7026.600000000001
 20
8103.907777930208
 30
0.0
  0
POINT
  5
256CB
330
2501A
100
AcDbEntity
  8
DEFPOINTS
 62
     0
 48
50.0
100
AcDbPoint
 10
6903.6
 20
8176.907777930209
 30
0.0
  0
POINT
  5
256CC
330
2501A
100
AcDbEntity
  8
DEFPOINTS
 62
     0
 48
50.0
100
AcDbPoint
 10
6903.6
 20
8922.66740447229
 30
0.0
  0
ENDBLK
  5
25026
330
2501A
100
AcDbEntity
  8
0
 48
50.0
100
AcDbBlockEnd
  0
BLOCK
  5
25031
330
25027
100
AcDbEntity
  8
0
 48
50.0
100
AcDbBlockBegin
  2
*D32
 70
     1
 10
0.0
 20
0.0
 30
0.0
  3
*D32
  1

  0
LINE
  5
256BA
330
25027
100
AcDbEntity
  8
寸法
 62
     0
 48
50.0
370
    -2
100
AcDbLine
 10
7688.600000000002
 20
7301.907777930208
 30
0.0
 11
6111.82307490516
 21
7301.907777930209
 31
0.0
  0
LINE
  5
256BB
330
25027
100
AcDbEntity
  8
寸法
 62
     0
 48
50.0
370
    -2
100
AcDbLine
 10
7688.600000000002
 20
6411.907777930207
 30
0.0
 11
6111.82307490516
 21
6411.907777930209
 31
0.0
  0
LINE
  5
256BC
330
25027
100
AcDbEntity
  8
寸法
 62
     0
 48
50.0
370
    -2
100
AcDbLine
 10
6171.82307490516
 20
7301.907777930208
 30
0.0
 11
6171.82307490516
 21
6411.907777930207
 31
0.0
  0
INSERT
  5
256BD
330
25027
100
AcDbEntity
  8
寸法
 62
     0
 48
50.0
370
    -2
100
AcDbBlockReference
  2
_DOTSMALL
 10
6171.82307490516
 20
7301.907777930208
 30
0.0
 41
100.0
 42
100.0
 43
100.0
 50
90.0
  0
INSERT
  5
256BE
330
25027
100
AcDbEntity
  8
寸法
 62
     0
 48
50.0
370
    -2
100
AcDbBlockReference
  2
_DOTSMALL
 10
6171.82307490516
 20
6411.907777930207
 30
0.0
 41
100.0
 42
100.0
 43
100.0
 50
270.0
  0
MTEXT
  5
256BF
330
25027
100
AcDbEntity
  8
寸法
 62
     7
 48
50.0
100
AcDbMText
 10
6071.823074905158
 20
6856.90777793021
 30
0.0
 40
120.0
 41
0.0
 71
     5
 72
     1
  1
\A1;890
  7
STYLE1
 11
0.0000000000000001
 21
1.0
 31
0.0
 73
     1
 44
1.0
1001
ACAD
1000
MTEXTBEGIN
1070
    73
1070
     1
1070
    44
1040
1.0
1070
    74
1070
     0
1000
MTEXTEND
  0
POINT
  5
256C0
330
25027
100
AcDbEntity
  8
DEFPOINTS
 62
     0
 48
50.0
100
AcDbPoint
 10
7708.600000000003
 20
7301.907777930208
 30
0.0
  0
POINT
  5
256C1
330
25027
100
AcDbEntity
  8
DEFPOINTS
 62
     0
 48
50.0
100
AcDbPoint
 10
7708.600000000003
 20
6411.907777930207
 30
0.0
  0
POINT
  5
256C2
330
25027
100
AcDbEntity
  8
DEFPOINTS
 62
     0
 48
50.0
100
AcDbPoint
 10
6171.82307490516
 20
6411.907777930207
 30
0.0
  0
ENDBLK
  5
25032
330
25027
100
AcDbEntity
  8
0
 48
50.0
100
AcDbBlockEnd
  0
BLOCK
  5
25049
330
2503F
100
AcDbEntity
  8
0
 48
50.0
100
AcDbBlockBegin
  2
*D33
 70
     1
 10
0.0
 20
0.0
 30
0.0
  3
*D33
  1

  0
LINE
  5
256A8
330
2503F
100
AcDbEntity
  8
寸法
 62
     0
 48
50.0
370
    -2
100
AcDbLine
 10
6883.599999999964
 20
5536.907777930215
 30
0.0
 11
6111.823074905159
 21
5536.907777930216
 31
0.0
  0
LINE
  5
256A9
330
2503F
100
AcDbEntity
  8
寸法
 62
     0
 48
50.0
370
    -2
100
AcDbLine
 10
7688.600000000002
 20
6411.907777930207
 30
0.0
 11
6111.82307490516
 21
6411.907777930209
 31
0.0
  0
LINE
  5
256AA
330
2503F
100
AcDbEntity
  8
寸法
 62
     0
 48
50.0
370
    -2
100
AcDbLine
 10
6171.823074905159
 20
5536.907777930215
 30
0.0
 11
6171.82307490516
 21
6411.907777930207
 31
0.0
  0
INSERT
  5
256AB
330
2503F
100
AcDbEntity
  8
寸法
 62
     0
 48
50.0
370
    -2
100
AcDbBlockReference
  2
_DOTSMALL
 10
6171.823074905159
 20
5536.907777930215
 30
0.0
 41
100.0
 42
100.0
 43
100.0
 50
270.0
  0
INSERT
  5
256AC
330
2503F
100
AcDbEntity
  8
寸法
 62
     0
 48
50.0
370
    -2
100
AcDbBlockReference
  2
_DOTSMALL
 10
6171.82307490516
 20
6411.907777930207
 30
0.0
 41
100.0
 42
100.0
 43
100.0
 50
90.0
  0
MTEXT
  5
256AD
330
2503F
100
AcDbEntity
  8
寸法
 62
     7
 48
50.0
100
AcDbMText
 10
6071.823074905158
 20
5974.407777930213
 30
0.0
 40
120.0
 41
0.0
 71
     5
 72
     1
  1
\A1;875
  7
STYLE1
 11
0.0000000000000001
 21
1.0
 31
0.0
 73
     1
 44
1.0
1001
ACAD
1000
MTEXTBEGIN
1070
    73
1070
     1
1070
    44
1040
1.0
1070
    74
1070
     0
1000
MTEXTEND
  0
POINT
  5
256AE
330
2503F
100
AcDbEntity
  8
DEFPOINTS
 62
     0
 48
50.0
100
AcDbPoint
 10
6903.599999999965
 20
5536.907777930215
 30
0.0
  0
POINT
  5
256AF
330
2503F
100
AcDbEntity
  8
DEFPOINTS
 62
     0
 48
50.0
100
AcDbPoint
 10
7708.600000000003
 20
6411.907777930207
 30
0.0
  0
POINT
  5
256B0
330
2503F
100
AcDbEntity
  8
DEFPOINTS
 62
     0
 48
50.0
100
AcDbPoint
 10
6171.82307490516
 20
6411.907777930207
 30
0.0
  0
ENDBLK
  5
2504A
330
2503F
100
AcDbEntity
  8
0
 48
50.0
100
AcDbBlockEnd
  0
BLOCK
  5
25062
330
25058
100
AcDbEntity
  8
0
 48
50.0
100
AcDbBlockBegin
  2
*D34
 70
     1
 10
0.0
 20
0.0
 30
0.0
  3
*D34
  1

  0
LINE
  5
2569F
330
25058
100
AcDbEntity
  8
寸法
 62
     0
 48
50.0
370
    -2
100
AcDbLine
 10
9543.600000000001
 20
8196.907777930208
 30
0.0
 11
9543.600000000001
 21
8763.817543578536
 31
0.0
  0
LINE
  5
256A0
330
25058
100
AcDbEntity
  8
寸法
 62
     0
 48
50.0
370
    -2
100
AcDbLine
 10
8638.600000000002
 20
7521.907777930208
 30
0.0
 11
8638.600000000002
 21
8763.817543578536
 31
0.0
  0
LINE
  5
256A1
330
25058
100
AcDbEntity
  8
寸法
 62
     0
 48
50.0
370
    -2
100
AcDbLine
 10
9543.600000000001
 20
8703.817543578535
 30
0.0
 11
8638.600000000002
 21
8703.817543578535
 31
0.0
  0
INSERT
  5
256A2
330
25058
100
AcDbEntity
  8
寸法
 62
     0
 48
50.0
370
    -2
100
AcDbBlockReference
  2
_DOTSMALL
 10
9543.600000000001
 20
8703.817543578535
 30
0.0
 41
100.0
 42
100.0
 43
100.0
  0
INSERT
  5
256A3
330
25058
100
AcDbEntity
  8
寸法
 62
     0
 48
50.0
370
    -2
100
AcDbBlockReference
  2
_DOTSMALL
 10
8638.600000000002
 20
8703.817543578535
 30
0.0
 41
100.0
 42
100.0
 43
100.0
 50
180.0
  0
MTEXT
  5
256A4
330
25058
100
AcDbEntity
  8
寸法
 62
     7
 48
50.0
100
AcDbMText
 10
9114.51852200628
 20
8803.817543578537
 30
0.0
 40
120.0
 41
0.0
 71
     5
 72
     1
  1
\A1;905
  7
STYLE1
 73
     1
 44
1.0
1001
ACAD
1000
MTEXTBEGIN
1070
    73
1070
     1
1070
    44
1040
1.0
1070
    74
1070
     0
1000
MTEXTEND
  0
POINT
  5
256A5
330
25058
100
AcDbEntity
  8
DEFPOINTS
 62
     0
 48
50.0
100
AcDbPoint
 10
9543.600000000001
 20
8176.907777930209
 30
0.0
  0
POINT
  5
256A6
330
25058
100
AcDbEntity
  8
DEFPOINTS
 62
     0
 48
50.0
100
AcDbPoint
 10
8638.600000000002
 20
7501.907777930208
 30
0.0
  0
POINT
  5
256A7
330
25058
100
AcDbEntity
  8
DEFPOINTS
 62
     0
 48
50.0
100
AcDbPoint
 10
8638.600000000002
 20
8703.817543578535
 30
0.0
  0
ENDBLK
  5
25063
330
25058
100
AcDbEntity
  8
0
 48
50.0
100
AcDbBlockEnd
  0
BLOCK
  5
2506E
330
25064
100
AcDbEntity
  8
0
 48
50.0
100
AcDbBlockBegin
  2
*D35
 70
     1
 10
0.0
 20
0.0
 30
0.0
  3
*D35
  1

  0
LINE
  5
25696
330
25064
100
AcDbEntity
  8
寸法
 62
     0
 48
50.0
370
    -2
100
AcDbLine
 10
8638.600000000002
 20
7521.907777930208
 30
0.0
 11
8638.600000000002
 21
8763.817543578536
 31
0.0
  0
LINE
  5
25697
330
25064
100
AcDbEntity
  8
寸法
 62
     0
 48
50.0
370
    -2
100
AcDbLine
 10
7808.6
 20
7521.907777930208
 30
0.0
 11
7808.6
 21
8763.817543578536
 31
0.0
  0
LINE
  5
25698
330
25064
100
AcDbEntity
  8
寸法
 62
     0
 48
50.0
370
    -2
100
AcDbLine
 10
8638.600000000002
 20
8703.817543578535
 30
0.0
 11
7808.6
 21
8703.817543578535
 31
0.0
  0
INSERT
  5
25699
330
25064
100
AcDbEntity
  8
寸法
 62
     0
 48
50.0
370
    -2
100
AcDbBlockReference
  2
_DOTSMALL
 10
8638.600000000002
 20
8703.817543578535
 30
0.0
 41
100.0
 42
100.0
 43
100.0
  0
INSERT
  5
2569A
330
25064
100
AcDbEntity
  8
寸法
 62
     0
 48
50.0
370
    -2
100
AcDbBlockReference
  2
_DOTSMALL
 10
7808.6
 20
8703.817543578535
 30
0.0
 41
100.0
 42
100.0
 43
100.0
 50
180.0
  0
MTEXT
  5
2569B
330
25064
100
AcDbEntity
  8
寸法
 62
     7
 48
50.0
100
AcDbMText
 10
8223.600000000001
 20
8803.817543578537
 30
0.0
 40
120.0
 41
0.0
 71
     5
 72
     1
  1
\A1;830
  7
STYLE1
 73
     1
 44
1.0
1001
ACAD
1000
MTEXTBEGIN
1070
    73
1070
     1
1070
    44
1040
1.0
1070
    74
1070
     0
1000
MTEXTEND
  0
POINT
  5
2569C
330
25064
100
AcDbEntity
  8
DEFPOINTS
 62
     0
 48
50.0
100
AcDbPoint
 10
8638.600000000002
 20
7501.907777930208
 30
0.0
  0
POINT
  5
2569D
330
25064
100
AcDbEntity
  8
DEFPOINTS
 62
     0
 48
50.0
100
AcDbPoint
 10
7808.6
 20
7501.907777930208
 30
0.0
  0
POINT
  5
2569E
330
25064
100
AcDbEntity
  8
DEFPOINTS
 62
     0
 48
50.0
100
AcDbPoint
 10
7808.6
 20
8703.817543578535
 30
0.0
  0
ENDBLK
  5
2506F
330
25064
100
AcDbEntity
  8
0
 48
50.0
100
AcDbBlockEnd
  0
BLOCK
  5
25079
330
25070
100
AcDbEntity
  8
0
 48
50.0
100
AcDbBlockBegin
  2
*D36
 70
     1
 10
0.0
 20
0.0
 30
0.0
  3
*D36
  1

  0
LINE
  5
2568D
330
25070
100
AcDbEntity
  8
寸法
 62
     0
 48
50.0
370
    -2
100
AcDbLine
 10
7688.600000000002
 20
7301.907777930208
 30
0.0
 11
6111.82307490516
 21
7301.907777930209
 31
0.0
  0
LINE
  5
2568E
330
25070
100
AcDbEntity
  8
寸法
 62
     0
 48
50.0
370
    -2
100
AcDbLine
 10
6883.6
 20
8176.907777930209
 30
0.0
 11
6111.82307490516
 21
8176.90777793021
 31
0.0
  0
LINE
  5
2568F
330
25070
100
AcDbEntity
  8
寸法
 62
     0
 48
50.0
370
    -2
100
AcDbLine
 10
6171.82307490516
 20
7301.907777930208
 30
0.0
 11
6171.82307490516
 21
8176.907777930209
 31
0.0
  0
INSERT
  5
25690
330
25070
100
AcDbEntity
  8
寸法
 62
     0
 48
50.0
370
    -2
100
AcDbBlockReference
  2
_DOTSMALL
 10
6171.82307490516
 20
7301.907777930208
 30
0.0
 41
100.0
 42
100.0
 43
100.0
 50
270.0
  0
INSERT
  5
25691
330
25070
100
AcDbEntity
  8
寸法
 62
     0
 48
50.0
370
    -2
100
AcDbBlockReference
  2
_DOTSMALL
 10
6171.82307490516
 20
8176.907777930209
 30
0.0
 41
100.0
 42
100.0
 43
100.0
 50
90.0
  0
MTEXT
  5
25692
330
25070
100
AcDbEntity
  8
寸法
 62
     7
 48
50.0
100
AcDbMText
 10
6071.823074905159
 20
7739.40777793021
 30
0.0
 40
120.0
 41
0.0
 71
     5
 72
     1
  1
\A1;875
  7
STYLE1
 11
0.0000000000000001
 21
1.0
 31
0.0
 73
     1
 44
1.0
1001
ACAD
1000
MTEXTBEGIN
1070
    73
1070
     1
1070
    44
1040
1.0
1070
    74
1070
     0
1000
MTEXTEND
  0
POINT
  5
25693
330
25070
100
AcDbEntity
  8
DEFPOINTS
 62
     0
 48
50.0
100
AcDbPoint
 10
7708.600000000003
 20
7301.907777930208
 30
0.0
  0
POINT
  5
25694
330
25070
100
AcDbEntity
  8
DEFPOINTS
 62
     0
 48
50.0
100
AcDbPoint
 10
6903.6
 20
8176.907777930209
 30
0.0
  0
POINT
  5
25695
330
25070
100
AcDbEntity
  8
DEFPOINTS
 62
     0
 48
50.0
100
AcDbPoint
 10
6171.82307490516
 20
8176.907777930209
 30
0.0
  0
ENDBLK
  5
2507A
330
25070
100
AcDbEntity
  8
0
 48
50.0
100
AcDbBlockEnd
  0
BLOCK
  5
250A0
330
25095
100
AcDbEntity
  8
0
 48
50.0
100
AcDbBlockBegin
  2
*D37
 70
     1
 10
0.0
 20
0.0
 30
0.0
  3
*D37
  1

  0
LINE
  5
2566F
330
25095
100
AcDbEntity
  8
寸法
 62
     0
 48
50.0
370
    -2
100
AcDbLine
 10
9543.600000000001
 20
8196.907777930208
 30
0.0
 11
9543.600000000001
 21
8982.667404472293
 31
0.0
  0
LINE
  5
25670
330
25095
100
AcDbEntity
  8
寸法
 62
     0
 48
50.0
370
    -2
100
AcDbLine
 10
9420.6
 20
8123.907777930208
 30
0.0
 11
9420.6
 21
8982.667404472293
 31
0.0
  0
LINE
  5
25671
330
25095
100
AcDbEntity
  8
寸法
 62
     0
 48
50.0
370
    -2
100
AcDbLine
 10
9420.6
 20
8922.66740447229
 30
0.0
 11
9543.600000000001
 21
8922.66740447229
 31
0.0
  0
LINE
  5
25672
330
25095
100
AcDbEntity
  8
寸法
 62
     0
 48
50.0
370
    -2
100
AcDbLine
 10
9543.600000000001
 20
8922.66740447229
 30
0.0
 11
9955.191883092037
 21
8922.66740447229
 31
0.0
  0
INSERT
  5
25673
330
25095
100
AcDbEntity
  8
寸法
 62
     0
 48
50.0
370
    -2
100
AcDbBlockReference
  2
_DOTSMALL
 10
9420.6
 20
8922.66740447229
 30
0.0
 41
100.0
 42
100.0
 43
100.0
 50
180.0
  0
INSERT
  5
25674
330
25095
100
AcDbEntity
  8
寸法
 62
     0
 48
50.0
370
    -2
100
AcDbBlockReference
  2
_DOTSMALL
 10
9543.600000000001
 20
8922.66740447229
 30
0.0
 41
100.0
 42
100.0
 43
100.0
  0
MTEXT
  5
25675
330
25095
100
AcDbEntity
  8
寸法
 62
     7
 48
50.0
100
AcDbMText
 10
9816.706601717799
 20
9022.679215495912
 30
0.0
 40
120.0
 41
0.0
 71
     5
 72
     1
  1
\A1;123
  7
STYLE1
 73
     1
 44
1.0
1001
ACAD
1000
MTEXTBEGIN
1070
    73
1070
     1
1070
    44
1040
1.0
1070
    74
1070
     0
1000
MTEXTEND
  0
POINT
  5
25676
330
25095
100
AcDbEntity
  8
DEFPOINTS
 62
     0
 48
50.0
100
AcDbPoint
 10
9543.600000000001
 20
8176.907777930209
 30
0.0
  0
POINT
  5
25677
330
25095
100
AcDbEntity
  8
DEFPOINTS
 62
     0
 48
50.0
100
AcDbPoint
 10
9420.6
 20
8103.907777930208
 30
0.0
  0
POINT
  5
25678
330
25095
100
AcDbEntity
  8
DEFPOINTS
 62
     0
 48
50.0
100
AcDbPoint
 10
9420.6
 20
8922.66740447229
 30
0.0
  0
ENDBLK
  5
250A1
330
25095
100
AcDbEntity
  8
0
 48
50.0
100
AcDbBlockEnd
  0
BLOCK
  5
25211
330
25206
100
AcDbEntity
  8
0
 48
50.0
100
AcDbBlockBegin
  2
*D38
 70
     1
 10
0.0
 20
0.0
 30
0.0
  3
*D38
  1

  0
LINE
  5
25664
330
25206
100
AcDbEntity
  8
寸法
 62
     0
 48
50.0
370
    -2
100
AcDbLine
 10
7336.599999999925
 20
5461.907777930225
 30
0.0
 11
6429.234728016389
 21
5461.907777930225
 31
0.0
  0
LINE
  5
25665
330
25206
100
AcDbEntity
  8
寸法
 62
     0
 48
50.0
370
    -2
100
AcDbLine
 10
6883.599999999964
 20
5536.907777930204
 30
0.0
 11
6429.234728016389
 21
5536.907777930204
 31
0.0
  0
LINE
  5
25666
330
25206
100
AcDbEntity
  8
寸法
 62
     0
 48
50.0
370
    -2
100
AcDbLine
 10
6489.234728016389
 20
5536.907777930204
 30
0.0
 11
6489.234728016389
 21
5636.907777930204
 31
0.0
  0
LINE
  5
25667
330
25206
100
AcDbEntity
  8
寸法
 62
     0
 48
50.0
370
    -2
100
AcDbLine
 10
6489.234728016389
 20
5461.907777930225
 30
0.0
 11
6489.234728016389
 21
4594.937215181746
 31
0.0
  0
LINE
  5
25668
330
25206
100
AcDbEntity
  8
寸法
 62
     0
 48
50.0
370
    -2
100
AcDbLine
 10
6489.234728016389
 20
5536.907777930204
 30
0.0
 11
6489.234728016389
 21
5461.907777930225
 31
0.0
  0
INSERT
  5
25669
330
25206
100
AcDbEntity
  8
寸法
 62
     0
 48
50.0
370
    -2
100
AcDbBlockReference
  2
_DOTSMALL
 10
6489.234728016389
 20
5536.907777930204
 30
0.0
 41
100.0
 42
100.0
 43
100.0
 50
270.0
  0
INSERT
  5
2566A
330
25206
100
AcDbEntity
  8
寸法
 62
     0
 48
50.0
370
    -2
100
AcDbBlockReference
  2
_DOTSMALL
 10
6489.234728016389
 20
5461.907777930225
 30
0.0
 41
100.0
 42
100.0
 43
100.0
 50
90.0
  0
MTEXT
  5
2566B
330
25206
100
AcDbEntity
  8
寸法
 62
     7
 48
50.0
100
AcDbMText
 10
6389.234728016389
 20
4928.422496555987
 30
0.0
 40
120.0
 41
0.0
 71
     5
 72
     1
  1
\A1;扉の出75
  7
STYLE1
 11
0.0000000000000001
 21
1.0
 31
0.0
 73
     1
 44
1.0
1001
ACAD
1000
MTEXTBEGIN
1070
    73
1070
     1
1070
    44
1040
1.0
1070
    74
1070
     0
1000
MTEXTEND
  0
POINT
  5
2566C
330
25206
100
AcDbEntity
  8
DEFPOINTS
 62
     0
 48
50.0
100
AcDbPoint
 10
7356.599999999923
 20
5461.907777930225
 30
0.0
  0
POINT
  5
2566D
330
25206
100
AcDbEntity
  8
DEFPOINTS
 62
     0
 48
50.0
100
AcDbPoint
 10
6903.599999999965
 20
5536.907777930204
 30
0.0
  0
POINT
  5
2566E
330
25206
100
AcDbEntity
  8
DEFPOINTS
 62
     0
 48
50.0
100
AcDbPoint
 10
6489.234728016389
 20
5536.907777930204
 30
0.0
  0
ENDBLK
  5
25212
330
25206
100
AcDbEntity
  8
0
 48
50.0
100
AcDbBlockEnd
  0
BLOCK
  5
259B4
330
259A9
100
AcDbEntity
  8
0
 48
50.0
100
AcDbBlockBegin
  2
*D39
 70
     1
 10
0.0
 20
0.0
 30
0.0
  3
*D39
  1

  0
LINE
  5
268F2
330
259A9
100
AcDbEntity
  8
寸法
 62
     0
 48
50.0
370
    -2
100
AcDbLine
 10
9543.600000000001
 20
7926.907777930209
 30
0.0
 11
9543.600000000001
 21
7659.199110429836
 31
0.0
  0
LINE
  5
268F3
330
259A9
100
AcDbEntity
  8
寸法
 62
     0
 48
50.0
370
    -2
100
AcDbLine
 10
9423.6
 20
7926.907777930209
 30
0.0
 11
9423.6
 21
7659.199110429836
 31
0.0
  0
LINE
  5
268F4
330
259A9
100
AcDbEntity
  8
寸法
 62
     0
 48
50.0
370
    -2
100
AcDbLine
 10
9423.6
 20
7719.199110429837
 30
0.0
 11
9543.600000000001
 21
7719.199110429837
 31
0.0
  0
LINE
  5
268F5
330
259A9
100
AcDbEntity
  8
寸法
 62
     0
 48
50.0
370
    -2
100
AcDbLine
 10
9543.600000000001
 20
7719.199110429837
 30
0.0
 11
9949.7062992126
 21
7719.199110429837
 31
0.0
  0
INSERT
  5
268F6
330
259A9
100
AcDbEntity
  8
寸法
 62
     0
 48
50.0
370
    -2
100
AcDbBlockReference
  2
_DOTSMALL
 10
9423.6
 20
7719.199110429837
 30
0.0
 41
100.0
 42
100.0
 43
100.0
 50
180.0
  0
INSERT
  5
268F7
330
259A9
100
AcDbEntity
  8
寸法
 62
     0
 48
50.0
370
    -2
100
AcDbBlockReference
  2
_DOTSMALL
 10
9543.600000000001
 20
7719.199110429837
 30
0.0
 41
100.0
 42
100.0
 43
100.0
  0
MTEXT
  5
268F8
330
259A9
100
AcDbEntity
  8
寸法
 62
     7
 48
50.0
100
AcDbMText
 10
9813.659055118112
 20
7819.210921453458
 30
0.0
 40
120.0
 41
0.0
 71
     5
 72
     1
  1
\A1;120
  7
STYLE1
 73
     1
 44
1.0
1001
ACAD
1000
MTEXTBEGIN
1070
    73
1070
     1
1070
    44
1040
1.0
1070
    74
1070
     0
1000
MTEXTEND
  0
POINT
  5
268F9
330
259A9
100
AcDbEntity
  8
DEFPOINTS
 62
     0
 48
50.0
100
AcDbPoint
 10
9543.600000000001
 20
7946.90777793021
 30
0.0
  0
POINT
  5
268FA
330
259A9
100
AcDbEntity
  8
DEFPOINTS
 62
     0
 48
50.0
100
AcDbPoint
 10
9423.6
 20
7946.907777930208
 30
0.0
  0
POINT
  5
268FB
330
259A9
100
AcDbEntity
  8
DEFPOINTS
 62
     0
 48
50.0
100
AcDbPoint
 10
9423.6
 20
7719.199110429837
 30
0.0
  0
ENDBLK
  5
259B5
330
259A9
100
AcDbEntity
  8
0
 48
50.0
100
AcDbBlockEnd
  0
BLOCK
  5
259C1
330
259B6
100
AcDbEntity
  8
0
 48
50.0
100
AcDbBlockBegin
  2
*D40
 70
     1
 10
0.0
 20
0.0
 30
0.0
  3
*D40
  1

  0
LINE
  5
26C68
330
259B6
100
AcDbEntity
  8
寸法
 62
     0
 48
50.0
370
    -2
100
AcDbLine
 10
9423.6
 20
7926.907777930209
 30
0.0
 11
9423.6
 21
7659.199110429836
 31
0.0
  0
LINE
  5
26C69
330
259B6
100
AcDbEntity
  8
寸法
 62
     0
 48
50.0
370
    -2
100
AcDbLine
 10
9313.6
 20
7926.907777930208
 30
0.0
 11
9313.6
 21
7659.199110429836
 31
0.0
  0
LINE
  5
26C6A
330
259B6
100
AcDbEntity
  8
寸法
 62
     0
 48
50.0
370
    -2
100
AcDbLine
 10
9423.6
 20
7719.199110429837
 30
0.0
 11
9313.6
 21
7719.199110429837
 31
0.0
  0
LINE
  5
26C6B
330
259B6
100
AcDbEntity
  8
寸法
 62
     0
 48
50.0
370
    -2
100
AcDbLine
 10
9313.6
 20
7719.199110429837
 30
0.0
 11
8919.493700787402
 21
7719.199110429837
 31
0.0
  0
INSERT
  5
26C6C
330
259B6
100
AcDbEntity
  8
寸法
 62
     0
 48
50.0
370
    -2
100
AcDbBlockReference
  2
_DOTSMALL
 10
9423.6
 20
7719.199110429837
 30
0.0
 41
100.0
 42
100.0
 43
100.0
  0
INSERT
  5
26C6D
330
259B6
100
AcDbEntity
  8
寸法
 62
     0
 48
50.0
370
    -2
100
AcDbBlockReference
  2
_DOTSMALL
 10
9313.6
 20
7719.199110429837
 30
0.0
 41
100.0
 42
100.0
 43
100.0
 50
180.0
  0
MTEXT
  5
26C6E
330
259B6
100
AcDbEntity
  8
寸法
 62
     7
 48
50.0
100
AcDbMText
 10
9043.54094488189
 20
7819.199110429837
 30
0.0
 40
120.0
 41
0.0
 71
     5
 72
     1
  1
\A1;110
  7
STYLE1
 73
     1
 44
1.0
1001
ACAD
1000
MTEXTBEGIN
1070
    73
1070
     1
1070
    44
1040
1.0
1070
    74
1070
     0
1000
MTEXTEND
  0
POINT
  5
26C6F
330
259B6
100
AcDbEntity
  8
DEFPOINTS
 62
     0
 48
50.0
100
AcDbPoint
 10
9423.6
 20
7946.907777930208
 30
0.0
  0
POINT
  5
26C70
330
259B6
100
AcDbEntity
  8
DEFPOINTS
 62
     0
 48
50.0
100
AcDbPoint
 10
9313.6
 20
7946.907777930208
 30
0.0
  0
POINT
  5
26C71
330
259B6
100
AcDbEntity
  8
DEFPOINTS
 62
     0
 48
50.0
100
AcDbPoint
 10
9313.6
 20
7719.199110429837
 30
0.0
  0
ENDBLK
  5
259C2
330
259B6
100
AcDbEntity
  8
0
 48
50.0
100
AcDbBlockEnd
  0
BLOCK
  5
25DE9
330
25DDF
100
AcDbEntity
  8
0
 48
50.0
100
AcDbBlockBegin
  2
*D41
 70
     1
 10
0.0
 20
0.0
 30
0.0
  3
*D41
  1

  0
LINE
  5
26012
330
25DDF
100
AcDbEntity
  8
寸法
 62
     0
 48
50.0
370
    -2
100
AcDbLine
 10
9543.599999999964
 20
5441.907777930239
 30
0.0
 11
9543.599999999964
 21
4772.748662820268
 31
0.0
  0
LINE
  5
26013
330
25DDF
100
AcDbEntity
  8
寸法
 62
     0
 48
50.0
370
    -2
100
AcDbLine
 10
7356.599999999964
 20
5441.907777930236
 30
0.0
 11
7356.599999999964
 21
4772.748662820268
 31
0.0
  0
LINE
  5
26014
330
25DDF
100
AcDbEntity
  8
寸法
 62
     0
 48
50.0
370
    -2
100
AcDbLine
 10
9543.599999999964
 20
4832.748662820268
 30
0.0
 11
7356.599999999964
 21
4832.748662820268
 31
0.0
  0
INSERT
  5
26015
330
25DDF
100
AcDbEntity
  8
寸法
 62
     0
 48
50.0
370
    -2
100
AcDbBlockReference
  2
_DOTSMALL
 10
9543.599999999964
 20
4832.748662820268
 30
0.0
 41
100.0
 42
100.0
 43
100.0
  0
INSERT
  5
26016
330
25DDF
100
AcDbEntity
  8
寸法
 62
     0
 48
50.0
370
    -2
100
AcDbBlockReference
  2
_DOTSMALL
 10
7356.599999999964
 20
4832.748662820268
 30
0.0
 41
100.0
 42
100.0
 43
100.0
 50
180.0
  0
MTEXT
  5
26017
330
25DDF
100
AcDbEntity
  8
寸法
 62
     7
 48
50.0
100
AcDbMText
 10
8450.099999999963
 20
4932.760473843891
 30
0.0
 40
120.0
 41
0.0
 71
     5
 72
     1
  1
\A1;扉の幅 2187
  7
STYLE1
 73
     1
 44
1.0
1001
ACAD
1000
MTEXTBEGIN
1070
    73
1070
     1
1070
    44
1040
1.0
1070
    74
1070
     0
1000
MTEXTEND
  0
POINT
  5
26018
330
25DDF
100
AcDbEntity
  8
DEFPOINTS
 62
     0
 48
50.0
100
AcDbPoint
 10
9543.599999999964
 20
5461.90777793024
 30
0.0
  0
POINT
  5
26019
330
25DDF
100
AcDbEntity
  8
DEFPOINTS
 62
     0
 48
50.0
100
AcDbPoint
 10
7356.599999999964
 20
5461.907777930235
 30
0.0
  0
POINT
  5
2601A
330
25DDF
100
AcDbEntity
  8
DEFPOINTS
 62
     0
 48
50.0
100
AcDbPoint
 10
7356.599999999964
 20
4832.748662820268
 30
0.0
  0
ENDBLK
  5
25DEA
330
25DDF
100
AcDbEntity
  8
0
 48
50.0
100
AcDbBlockEnd
  0
BLOCK
  5
25DF6
330
25DEB
100
AcDbEntity
  8
0
 48
50.0
100
AcDbBlockBegin
  2
*D42
 70
     1
 10
0.0
 20
0.0
 30
0.0
  3
*D42
  1

  0
LINE
  5
26906
330
25DEB
100
AcDbEntity
  8
寸法
 62
     0
 48
50.0
370
    -2
100
AcDbLine
 10
7376.599999999964
 20
5461.907777930235
 30
0.0
 11
7685.743526793875
 21
5461.907777930235
 31
0.0
  0
LINE
  5
26907
330
25DEB
100
AcDbEntity
  8
寸法
 62
     0
 48
50.0
370
    -2
100
AcDbLine
 10
7272.197085004766
 20
5656.907777930212
 30
0.0
 11
7685.743526793875
 21
5656.907777930212
 31
0.0
  0
LINE
  5
26908
330
25DEB
100
AcDbEntity
  8
寸法
 62
     0
 48
50.0
370
    -2
100
AcDbLine
 10
7625.743526793876
 20
5656.907777930212
 30
0.0
 11
7625.743526793876
 21
5461.907777930235
 31
0.0
  0
LINE
  5
26909
330
25DEB
100
AcDbEntity
  8
寸法
 62
     0
 48
50.0
370
    -2
100
AcDbLine
 10
7625.743526793876
 20
5461.907777930235
 30
0.0
 11
7625.743526793876
 21
5022.08567137201
 31
0.0
  0
INSERT
  5
2690A
330
25DEB
100
AcDbEntity
  8
寸法
 62
     0
 48
50.0
370
    -2
100
AcDbBlockReference
  2
_DOTSMALL
 10
7625.743526793876
 20
5656.907777930212
 30
0.0
 41
100.0
 42
100.0
 43
100.0
 50
90.0
  0
INSERT
  5
2690B
330
25DEB
100
AcDbEntity
  8
寸法
 62
     0
 48
50.0
370
    -2
100
AcDbBlockReference
  2
_DOTSMALL
 10
7625.743526793876
 20
5461.907777930235
 30
0.0
 41
100.0
 42
100.0
 43
100.0
 50
270.0
  0
MTEXT
  5
2690C
330
25DEB
100
AcDbEntity
  8
寸法
 62
     7
 48
50.0
100
AcDbMText
 10
7525.743526793874
 20
5160.780612575906
 30
0.0
 40
120.0
 41
0.0
 71
     5
 72
     1
  1
\A1;195
  7
STYLE1
 11
0.0000000000000001
 21
1.0
 31
0.0
 73
     1
 44
1.0
1001
ACAD
1000
MTEXTBEGIN
1070
    73
1070
     1
1070
    44
1040
1.0
1070
    74
1070
     0
1000
MTEXTEND
  0
POINT
  5
2690D
330
25DEB
100
AcDbEntity
  8
DEFPOINTS
 62
     0
 48
50.0
100
AcDbPoint
 10
7356.599999999964
 20
5461.907777930235
 30
0.0
  0
POINT
  5
2690E
330
25DEB
100
AcDbEntity
  8
DEFPOINTS
 62
     0
 48
50.0
100
AcDbPoint
 10
7252.197085004765
 20
5656.907777930212
 30
0.0
  0
POINT
  5
2690F
330
25DEB
100
AcDbEntity
  8
DEFPOINTS
 62
     0
 48
50.0
100
AcDbPoint
 10
7625.743526793876
 20
5656.907777930212
 30
0.0
  0
ENDBLK
  5
25DF7
330
25DEB
100
AcDbEntity
  8
0
 48
50.0
100
AcDbBlockEnd
  0
BLOCK
  5
26247
330
2623B
100
AcDbEntity
  8
0
 48
50.0
100
AcDbBlockBegin
  2
*D43
 70
     1
 10
0.0
 20
0.0
 30
0.0
  3
*D43
  1

  0
LINE
  5
2648F
330
2623B
100
AcDbEntity
  8
寸法
 62
     0
 48
50.0
370
    -2
100
AcDbLine
 10
6883.6
 20
8176.907777930209
 30
0.0
 11
5543.059876500575
 21
8176.907777930209
 31
0.0
  0
LINE
  5
26490
330
2623B
100
AcDbEntity
  8
寸法
 62
     0
 48
50.0
370
    -2
100
AcDbLine
 10
5835.002973219973
 20
8222.519882073113
 30
0.0
 11
5543.059876500575
 21
8222.519882073113
 31
0.0
  0
LINE
  5
26491
330
2623B
100
AcDbEntity
  8
寸法
 62
     0
 48
50.0
370
    -2
100
AcDbLine
 10
5603.059876500576
 20
8176.907777930209
 30
0.0
 11
5603.059876500576
 21
8076.907777930209
 31
0.0
  0
LINE
  5
26492
330
2623B
100
AcDbEntity
  8
寸法
 62
     0
 48
50.0
370
    -2
100
AcDbLine
 10
5603.059876500576
 20
8222.519882073113
 30
0.0
 11
5603.059876500576
 21
8559.86912447803
 31
0.0
  0
LINE
  5
26493
330
2623B
100
AcDbEntity
  8
寸法
 62
     0
 48
50.0
370
    -2
100
AcDbLine
 10
5603.059876500576
 20
8176.907777930209
 30
0.0
 11
5603.059876500576
 21
8222.519882073113
 31
0.0
  0
INSERT
  5
26494
330
2623B
100
AcDbEntity
  8
寸法
 62
     0
 48
50.0
370
    -2
100
AcDbBlockReference
  2
_DOTSMALL
 10
5603.059876500576
 20
8176.907777930209
 30
0.0
 41
100.0
 42
100.0
 43
100.0
 50
90.0
  0
INSERT
  5
26495
330
2623B
100
AcDbEntity
  8
寸法
 62
     0
 48
50.0
370
    -2
100
AcDbBlockReference
  2
_DOTSMALL
 10
5603.059876500576
 20
8222.519882073113
 30
0.0
 41
100.0
 42
100.0
 43
100.0
 50
270.0
  0
MTEXT
  5
26496
330
2623B
100
AcDbEntity
  8
寸法
 62
     7
 48
50.0
100
AcDbMText
 10
5503.059876500574
 20
8493.694503275571
 30
0.0
 40
120.0
 41
0.0
 71
     5
 72
     1
  1
\A1;a
  7
STYLE1
 11
0.0000000000000001
 21
1.0
 31
0.0
 73
     1
 44
1.0
1001
ACAD
1000
MTEXTBEGIN
1070
    73
1070
     1
1070
    44
1040
1.0
1070
    74
1070
     0
1000
MTEXTEND
  0
POINT
  5
26497
330
2623B
100
AcDbEntity
  8
DEFPOINTS
 62
     0
 48
50.0
100
AcDbPoint
 10
6903.6
 20
8176.907777930209
 30
0.0
  0
POINT
  5
26498
330
2623B
100
AcDbEntity
  8
DEFPOINTS
 62
     0
 48
50.0
100
AcDbPoint
 10
5855.002973219973
 20
8222.519882073113
 30
0.0
  0
POINT
  5
26499
330
2623B
100
AcDbEntity
  8
DEFPOINTS
 62
     0
 48
50.0
100
AcDbPoint
 10
5603.059876500576
 20
8222.519882073113
 30
0.0
  0
ENDBLK
  5
26248
330
2623B
100
AcDbEntity
  8
0
 48
50.0
100
AcDbBlockEnd
  0
BLOCK
  5
26255
330
26249
100
AcDbEntity
  8
0
 48
50.0
100
AcDbBlockBegin
  2
*D44
 70
     1
 10
0.0
 20
0.0
 30
0.0
  3
*D44
  1

  0
LINE
  5
2646E
330
26249
100
AcDbEntity
  8
寸法
 62
     0
 48
50.0
370
    -2
100
AcDbLine
 10
9618.600000000002
 20
8942.667404472294
 30
0.0
 11
9618.600000000002
 21
9195.12809998913
 31
0.0
  0
LINE
  5
2646F
330
26249
100
AcDbEntity
  8
寸法
 62
     0
 48
50.0
370
    -2
100
AcDbLine
 10
9543.600000000001
 20
8196.90777793021
 30
0.0
 11
9543.600000000001
 21
9195.12809998913
 31
0.0
  0
LINE
  5
26470
330
26249
100
AcDbEntity
  8
寸法
 62
     0
 48
50.0
370
    -2
100
AcDbLine
 10
9618.600000000002
 20
9135.128099989129
 30
0.0
 11
9718.600000000002
 21
9135.128099989129
 31
0.0
  0
LINE
  5
26471
330
26249
100
AcDbEntity
  8
寸法
 62
     0
 48
50.0
370
    -2
100
AcDbLine
 10
9543.600000000001
 20
9135.128099989129
 30
0.0
 11
9443.600000000001
 21
9135.128099989129
 31
0.0
  0
LINE
  5
26472
330
26249
100
AcDbEntity
  8
寸法
 62
     0
 48
50.0
370
    -2
100
AcDbLine
 10
9618.600000000002
 20
9135.128099989129
 30
0.0
 11
9543.600000000001
 21
9135.128099989129
 31
0.0
  0
INSERT
  5
26473
330
26249
100
AcDbEntity
  8
寸法
 62
     0
 48
50.0
370
    -2
100
AcDbBlockReference
  2
_DOTSMALL
 10
9618.600000000002
 20
9135.128099989129
 30
0.0
 41
100.0
 42
100.0
 43
100.0
 50
180.0
  0
INSERT
  5
26474
330
26249
100
AcDbEntity
  8
寸法
 62
     0
 48
50.0
370
    -2
100
AcDbBlockReference
  2
_DOTSMALL
 10
9543.600000000001
 20
9135.128099989129
 30
0.0
 41
100.0
 42
100.0
 43
100.0
  0
MTEXT
  5
26475
330
26249
100
AcDbEntity
  8
寸法
 62
     7
 48
50.0
100
AcDbMText
 10
9581.100000000002
 20
9235.128099989131
 30
0.0
 40
120.0
 41
0.0
 71
     5
 72
     1
  1
\A1;c
  7
STYLE1
 73
     1
 44
1.0
1001
ACAD
1000
MTEXTBEGIN
1070
    73
1070
     1
1070
    44
1040
1.0
1070
    74
1070
     0
1000
MTEXTEND
  0
POINT
  5
26476
330
26249
100
AcDbEntity
  8
DEFPOINTS
 62
     0
 48
50.0
100
AcDbPoint
 10
9618.600000000002
 20
8922.667404472292
 30
0.0
  0
POINT
  5
26477
330
26249
100
AcDbEntity
  8
DEFPOINTS
 62
     0
 48
50.0
100
AcDbPoint
 10
9543.600000000001
 20
8176.90777793021
 30
0.0
  0
POINT
  5
26478
330
26249
100
AcDbEntity
  8
DEFPOINTS
 62
     0
 48
50.0
100
AcDbPoint
 10
9543.600000000001
 20
9135.128099989129
 30
0.0
  0
ENDBLK
  5
26256
330
26249
100
AcDbEntity
  8
0
 48
50.0
100
AcDbBlockEnd
  0
BLOCK
  5
26263
330
26257
100
AcDbEntity
  8
0
 48
50.0
100
AcDbBlockBegin
  2
*D45
 70
     1
 10
0.0
 20
0.0
 30
0.0
  3
*D45
  1

  0
LINE
  5
26479
330
26257
100
AcDbEntity
  8
寸法
 62
     0
 48
50.0
370
    -2
100
AcDbLine
 10
6903.6
 20
8196.90777793021
 30
0.0
 11
6903.6
 21
9195.12809998913
 31
0.0
  0
LINE
  5
2647A
330
26257
100
AcDbEntity
  8
寸法
 62
     0
 48
50.0
370
    -2
100
AcDbLine
 10
6848.600000000011
 20
8942.667404472294
 30
0.0
 11
6848.600000000011
 21
9195.12809998913
 31
0.0
  0
LINE
  5
2647B
330
26257
100
AcDbEntity
  8
寸法
 62
     0
 48
50.0
370
    -2
100
AcDbLine
 10
6903.6
 20
9135.128099989129
 30
0.0
 11
7003.6
 21
9135.128099989129
 31
0.0
  0
LINE
  5
2647C
330
26257
100
AcDbEntity
  8
寸法
 62
     0
 48
50.0
370
    -2
100
AcDbLine
 10
6848.600000000011
 20
9135.128099989129
 30
0.0
 11
6748.600000000012
 21
9135.128099989129
 31
0.0
  0
LINE
  5
2647D
330
26257
100
AcDbEntity
  8
寸法
 62
     0
 48
50.0
370
    -2
100
AcDbLine
 10
6903.6
 20
9135.128099989129
 30
0.0
 11
6848.600000000011
 21
9135.128099989129
 31
0.0
  0
INSERT
  5
2647E
330
26257
100
AcDbEntity
  8
寸法
 62
     0
 48
50.0
370
    -2
100
AcDbBlockReference
  2
_DOTSMALL
 10
6903.6
 20
9135.128099989129
 30
0.0
 41
100.0
 42
100.0
 43
100.0
 50
180.0
  0
INSERT
  5
2647F
330
26257
100
AcDbEntity
  8
寸法
 62
     0
 48
50.0
370
    -2
100
AcDbBlockReference
  2
_DOTSMALL
 10
6848.600000000011
 20
9135.128099989129
 30
0.0
 41
100.0
 42
100.0
 43
100.0
  0
MTEXT
  5
26480
330
26257
100
AcDbEntity
  8
寸法
 62
     7
 48
50.0
100
AcDbMText
 10
6876.100000000007
 20
9235.128099989131
 30
0.0
 40
120.0
 41
0.0
 71
     5
 72
     1
  1
\A1;b
  7
STYLE1
 73
     1
 44
1.0
1001
ACAD
1000
MTEXTBEGIN
1070
    73
1070
     1
1070
    44
1040
1.0
1070
    74
1070
     0
1000
MTEXTEND
  0
POINT
  5
26481
330
26257
100
AcDbEntity
  8
DEFPOINTS
 62
     0
 48
50.0
100
AcDbPoint
 10
6903.6
 20
8176.90777793021
 30
0.0
  0
POINT
  5
26482
330
26257
100
AcDbEntity
  8
DEFPOINTS
 62
     0
 48
50.0
100
AcDbPoint
 10
6848.600000000011
 20
8922.667404472292
 30
0.0
  0
POINT
  5
26483
330
26257
100
AcDbEntity
  8
DEFPOINTS
 62
     0
 48
50.0
100
AcDbPoint
 10
6848.600000000011
 20
9135.128099989129
 30
0.0
  0
ENDBLK
  5
26264
330
26257
100
AcDbEntity
  8
0
 48
50.0
100
AcDbBlockEnd
  0
BLOCK
  5
26271
330
26265
100
AcDbEntity
  8
0
 48
50.0
100
AcDbBlockBegin
  2
*D46
 70
     1
 10
0.0
 20
0.0
 30
0.0
  3
*D46
  1

  0
LINE
  5
264A5
330
26265
100
AcDbEntity
  8
寸法
 62
     0
 48
50.0
370
    -2
100
AcDbLine
 10
5835.002973219973
 20
5491.295673787301
 30
0.0
 11
5543.059876500574
 21
5491.295673787301
 31
0.0
  0
LINE
  5
264A6
330
26265
100
AcDbEntity
  8
寸法
 62
     0
 48
50.0
370
    -2
100
AcDbLine
 10
6883.599999999964
 20
5536.907777930204
 30
0.0
 11
5543.059876500574
 21
5536.907777930205
 31
0.0
  0
LINE
  5
264A7
330
26265
100
AcDbEntity
  8
寸法
 62
     0
 48
50.0
370
    -2
100
AcDbLine
 10
5603.059876500574
 20
5536.907777930205
 30
0.0
 11
5603.059876500574
 21
5636.907777930205
 31
0.0
  0
LINE
  5
264A8
330
26265
100
AcDbEntity
  8
寸法
 62
     0
 48
50.0
370
    -2
100
AcDbLine
 10
5603.059876500574
 20
5491.295673787301
 30
0.0
 11
5603.059876500574
 21
5158.946431382383
 31
0.0
  0
LINE
  5
264A9
330
26265
100
AcDbEntity
  8
寸法
 62
     0
 48
50.0
370
    -2
100
AcDbLine
 10
5603.059876500574
 20
5536.907777930205
 30
0.0
 11
5603.059876500574
 21
5491.295673787301
 31
0.0
  0
INSERT
  5
264AA
330
26265
100
AcDbEntity
  8
寸法
 62
     0
 48
50.0
370
    -2
100
AcDbBlockReference
  2
_DOTSMALL
 10
5603.059876500574
 20
5536.907777930205
 30
0.0
 41
100.0
 42
100.0
 43
100.0
 50
270.0
  0
INSERT
  5
264AB
330
26265
100
AcDbEntity
  8
寸法
 62
     0
 48
50.0
370
    -2
100
AcDbBlockReference
  2
_DOTSMALL
 10
5603.059876500574
 20
5491.295673787301
 30
0.0
 41
100.0
 42
100.0
 43
100.0
 50
90.0
  0
MTEXT
  5
264AC
330
26265
100
AcDbEntity
  8
寸法
 62
     7
 48
50.0
100
AcDbMText
 10
5503.059876500573
 20
5225.121052584842
 30
0.0
 40
120.0
 41
0.0
 71
     5
 72
     1
  1
\A1;a
  7
STYLE1
 11
0.0000000000000001
 21
1.0
 31
0.0
 73
     1
 44
1.0
1001
ACAD
1000
MTEXTBEGIN
1070
    73
1070
     1
1070
    44
1040
1.0
1070
    74
1070
     0
1000
MTEXTEND
  0
POINT
  5
264AD
330
26265
100
AcDbEntity
  8
DEFPOINTS
 62
     0
 48
50.0
100
AcDbPoint
 10
5855.002973219973
 20
5491.295673787301
 30
0.0
  0
POINT
  5
264AE
330
26265
100
AcDbEntity
  8
DEFPOINTS
 62
     0
 48
50.0
100
AcDbPoint
 10
6903.599999999965
 20
5536.907777930204
 30
0.0
  0
POINT
  5
264AF
330
26265
100
AcDbEntity
  8
DEFPOINTS
 62
     0
 48
50.0
100
AcDbPoint
 10
5603.059876500574
 20
5536.907777930205
 30
0.0
  0
ENDBLK
  5
26272
330
26265
100
AcDbEntity
  8
0
 48
50.0
100
AcDbBlockEnd
  0
BLOCK
  5
26F39
330
26F2F
100
AcDbEntity
  8
0
 48
50.0
100
AcDbBlockBegin
  2
*D59
 70
     1
 10
0.0
 20
0.0
 30
0.0
  3
*D59
  1

  0
LINE
  5
26F7C
330
26F2F
100
AcDbEntity
  8
寸法
 62
     0
 48
50.0
370
    -2
100
AcDbLine
 10
8172.926280946251
 20
2019.830907949365
 30
0.0
 11
8714.794880715095
 21
2019.830907949364
 31
0.0
  0
LINE
  5
26F7D
330
26F2F
100
AcDbEntity
  8
寸法
 62
     0
 48
50.0
370
    -2
100
AcDbLine
 10
8172.926280946251
 20
1695.830907949364
 30
0.0
 11
8714.794880715095
 21
1695.830907949363
 31
0.0
  0
LINE
  5
26F7E
330
26F2F
100
AcDbEntity
  8
寸法
 62
     0
 48
50.0
370
    -2
100
AcDbLine
 10
8654.794880715092
 20
2019.830907949365
 30
0.0
 11
8654.794880715092
 21
1695.830907949364
 31
0.0
  0
INSERT
  5
26F7F
330
26F2F
100
AcDbEntity
  8
寸法
 62
     0
 48
50.0
370
    -2
100
AcDbBlockReference
  2
_DOTSMALL
 10
8654.794880715092
 20
2019.830907949365
 30
0.0
 41
100.0
 42
100.0
 43
100.0
 50
90.0
  0
INSERT
  5
26F80
330
26F2F
100
AcDbEntity
  8
寸法
 62
     0
 48
50.0
370
    -2
100
AcDbBlockReference
  2
_DOTSMALL
 10
8654.794880715092
 20
1695.830907949364
 30
0.0
 41
100.0
 42
100.0
 43
100.0
 50
270.0
  0
MTEXT
  5
26F81
330
26F2F
100
AcDbEntity
  8
寸法
 62
     7
 48
50.0
100
AcDbMText
 10
8554.794880715093
 20
1857.830907949366
 30
0.0
 40
120.0
 41
0.0
 71
     5
 72
     1
  1
\A1;180
  7
STYLE1
 11
0.0000000000000001
 21
1.0
 31
0.0
 73
     1
 44
1.0
1001
ACAD
1000
MTEXTBEGIN
1070
    73
1070
     1
1070
    44
1040
1.0
1070
    74
1070
     0
1000
MTEXTEND
  0
POINT
  5
26F82
330
26F2F
100
AcDbEntity
  8
DEFPOINTS
 62
     0
 48
50.0
100
AcDbPoint
 10
8152.926280946251
 20
2019.830907949365
 30
0.0
  0
POINT
  5
26F83
330
26F2F
100
AcDbEntity
  8
DEFPOINTS
 62
     0
 48
50.0
100
AcDbPoint
 10
8152.926280946251
 20
1695.830907949364
 30
0.0
  0
POINT
  5
26F84
330
26F2F
100
AcDbEntity
  8
DEFPOINTS
 62
     0
 48
50.0
100
AcDbPoint
 10
8654.794880715092
 20
1695.830907949364
 30
0.0
  0
ENDBLK
  5
26F3A
330
26F2F
100
AcDbEntity
  8
0
 48
50.0
100
AcDbBlockEnd
  0
BLOCK
  5
26F4A
330
26F3B
100
AcDbEntity
  8
0
 48
50.0
100
AcDbBlockBegin
  2
*D60
 70
     1
 10
0.0
 20
0.0
 30
0.0
  3
*D60
  1

  0
LINE
  5
26F85
330
26F3B
100
AcDbEntity
  8
寸法
 62
     0
 48
50.0
370
    -2
100
AcDbLine
 10
7985.726280946252
 20
2072.590907949366
 30
0.0
 11
8714.794880715095
 21
2072.590907949366
 31
0.0
  0
LINE
  5
26F86
330
26F3B
100
AcDbEntity
  8
寸法
 62
     0
 48
50.0
370
    -2
100
AcDbLine
 10
8172.926280946251
 20
2019.830907949365
 30
0.0
 11
8714.794880715095
 21
2019.830907949364
 31
0.0
  0
LINE
  5
26F87
330
26F3B
100
AcDbEntity
  8
寸法
 62
     0
 48
50.0
370
    -2
100
AcDbLine
 10
8654.794880715092
 20
2072.590907949366
 30
0.0
 11
8654.794880715092
 21
2172.590907949366
 31
0.0
  0
LINE
  5
26F88
330
26F3B
100
AcDbEntity
  8
寸法
 62
     0
 48
50.0
370
    -2
100
AcDbLine
 10
8654.794880715092
 20
2019.830907949365
 30
0.0
 11
8654.794880715092
 21
1919.830907949364
 31
0.0
  0
LINE
  5
26F89
330
26F3B
100
AcDbEntity
  8
寸法
 62
     0
 48
50.0
370
    -2
100
AcDbLine
 10
8654.794880715092
 20
2046.210907949365
 30
0.0
 11
8930.849546834121
 21
2034.706950345151
 31
0.0
  0
LINE
  5
26F8A
330
26F3B
100
AcDbEntity
  8
寸法
 62
     0
 48
50.0
370
    -2
100
AcDbLine
 10
8930.849546834121
 20
2034.706950345151
 30
0.0
 11
8930.849546834121
 21
1502.689143502186
 31
0.0
  0
MTEXT
  5
26F8B
330
26F3B
100
AcDbEntity
  8
寸法
 62
     7
 48
50.0
100
AcDbMText
 10
8830.837735810499
 20
1768.69804692367
 30
0.0
 40
120.0
 41
0.0
 71
     5
 72
     1
  1
\A1;20～25
  7
STYLE1
 11
0.0000000000000001
 21
1.0
 31
0.0
 73
     1
 44
1.0
1001
ACAD
1000
MTEXTBEGIN
1070
    73
1070
     1
1070
    44
1040
1.0
1070
    74
1070
     0
1000
MTEXTEND
  0
LINE
  5
26F8C
330
26F3B
100
AcDbEntity
  8
寸法
 62
     0
 48
50.0
370
    -2
100
AcDbLine
 10
8654.794880715092
 20
2072.590907949366
 30
0.0
 11
8654.794880715092
 21
2019.830907949365
 31
0.0
  0
LINE
  5
26F8D
330
26F3B
100
AcDbEntity
  8
寸法
 62
     0
 48
50.0
370
    -2
100
AcDbLine
 10
8654.794880715092
 20
2072.590907949366
 30
0.0
 11
8654.794880715092
 21
2019.830907949365
 31
0.0
  0
INSERT
  5
26F8E
330
26F3B
100
AcDbEntity
  8
寸法
 62
     0
 48
50.0
370
    -2
100
AcDbBlockReference
  2
_DOTSMALL
 10
8654.794880715092
 20
2072.590907949366
 30
0.0
 41
100.0
 42
100.0
 43
100.0
 50
270.0
  0
INSERT
  5
26F8F
330
26F3B
100
AcDbEntity
  8
寸法
 62
     0
 48
50.0
370
    -2
100
AcDbBlockReference
  2
_DOTSMALL
 10
8654.794880715092
 20
2019.830907949365
 30
0.0
 41
100.0
 42
100.0
 43
100.0
 50
90.0
  0
POINT
  5
26F90
330
26F3B
100
AcDbEntity
  8
DEFPOINTS
 62
     0
 48
50.0
100
AcDbPoint
 10
7965.726280946253
 20
2072.590907949366
 30
0.0
  0
POINT
  5
26F91
330
26F3B
100
AcDbEntity
  8
DEFPOINTS
 62
     0
 48
50.0
100
AcDbPoint
 10
8152.926280946251
 20
2019.830907949365
 30
0.0
  0
POINT
  5
26F92
330
26F3B
100
AcDbEntity
  8
DEFPOINTS
 62
     0
 48
50.0
100
AcDbPoint
 10
8654.794880715092
 20
2019.830907949365
 30
0.0
  0
ENDBLK
  5
26F4B
330
26F3B
100
AcDbEntity
  8
0
 48
50.0
100
AcDbBlockEnd
  0
BLOCK
  5
26F56
330
26F4C
100
AcDbEntity
  8
0
 48
50.0
100
AcDbBlockBegin
  2
*D61
 70
     1
 10
0.0
 20
0.0
 30
0.0
  3
*D61
  1

  0
LINE
  5
26F93
330
26F4C
100
AcDbEntity
  8
寸法
 62
     0
 48
50.0
370
    -2
100
AcDbLine
 10
5890.886967769056
 20
1475.830907949364
 30
0.0
 11
5708.466654036597
 21
1475.830907949364
 31
0.0
  0
LINE
  5
26F94
330
26F4C
100
AcDbEntity
  8
寸法
 62
     0
 48
50.0
370
    -2
100
AcDbLine
 10
5810.88696776906
 20
1235.830907949365
 30
0.0
 11
5708.466654036597
 21
1235.830907949365
 31
0.0
  0
LINE
  5
26F95
330
26F4C
100
AcDbEntity
  8
寸法
 62
     0
 48
50.0
370
    -2
100
AcDbLine
 10
5768.466654036597
 20
1475.830907949364
 30
0.0
 11
5768.466654036597
 21
1235.830907949365
 31
0.0
  0
MTEXT
  5
26F96
330
26F4C
100
AcDbEntity
  8
寸法
 62
     7
 48
50.0
100
AcDbMText
 10
5668.466654036597
 20
1355.830907949364
 30
0.0
 40
120.0
 41
0.0
 71
     5
 72
     1
  1
\A1;150
  7
STYLE1
 11
0.0000000000000001
 21
1.0
 31
0.0
 73
     1
 44
1.0
1001
ACAD
1000
MTEXTBEGIN
1070
    73
1070
     1
1070
    44
1040
1.0
1070
    74
1070
     0
1000
MTEXTEND
  0
INSERT
  5
26F97
330
26F4C
100
AcDbEntity
  8
寸法
 62
     0
 48
50.0
370
    -2
100
AcDbBlockReference
  2
_DOTSMALL
 10
5768.466654036597
 20
1475.830907949364
 30
0.0
 41
100.0
 42
100.0
 43
100.0
 50
90.0
  0
INSERT
  5
26F98
330
26F4C
100
AcDbEntity
  8
寸法
 62
     0
 48
50.0
370
    -2
100
AcDbBlockReference
  2
_DOTSMALL
 10
5768.466654036597
 20
1235.830907949365
 30
0.0
 41
100.0
 42
100.0
 43
100.0
 50
270.0
  0
POINT
  5
26F99
330
26F4C
100
AcDbEntity
  8
DEFPOINTS
 62
     0
 48
50.0
100
AcDbPoint
 10
5910.886967769056
 20
1475.830907949364
 30
0.0
  0
POINT
  5
26F9A
330
26F4C
100
AcDbEntity
  8
DEFPOINTS
 62
     0
 48
50.0
100
AcDbPoint
 10
5830.88696776906
 20
1235.830907949365
 30
0.0
  0
POINT
  5
26F9B
330
26F4C
100
AcDbEntity
  8
DEFPOINTS
 62
     0
 48
50.0
100
AcDbPoint
 10
5768.466654036597
 20
1235.830907949365
 30
0.0
  0
ENDBLK
  5
26F57
330
26F4C
100
AcDbEntity
  8
0
 48
50.0
100
AcDbBlockEnd
  0
BLOCK
  5
26F62
330
26F58
100
AcDbEntity
  8
0
 48
50.0
100
AcDbBlockBegin
  2
*D62
 70
     1
 10
0.0
 20
0.0
 30
0.0
  3
*D62
  1

  0
LINE
  5
26F9C
330
26F58
100
AcDbEntity
  8
寸法
 62
     0
 48
50.0
370
    -2
100
AcDbLine
 10
6018.886967769056
 20
2019.830907949365
 30
0.0
 11
5243.849729207315
 21
2019.830907949365
 31
0.0
  0
LINE
  5
26F9D
330
26F58
100
AcDbEntity
  8
寸法
 62
     0
 48
50.0
370
    -2
100
AcDbLine
 10
5810.88696776906
 20
1235.830907949365
 30
0.0
 11
5243.849729207315
 21
1235.830907949365
 31
0.0
  0
LINE
  5
26F9E
330
26F58
100
AcDbEntity
  8
寸法
 62
     0
 48
50.0
370
    -2
100
AcDbLine
 10
5303.849729207315
 20
2019.830907949365
 30
0.0
 11
5303.849729207315
 21
1235.830907949365
 31
0.0
  0
MTEXT
  5
26F9F
330
26F58
100
AcDbEntity
  8
寸法
 62
     7
 48
50.0
100
AcDbMText
 10
5203.849729207316
 20
1607.371057605365
 30
0.0
 40
120.0
 41
0.0
 71
     5
 72
     1
  1
\A1;540
  7
STYLE1
 11
0.0000000000000001
 21
1.0
 31
0.0
 73
     1
 44
1.0
1001
ACAD
1000
MTEXTBEGIN
1070
    73
1070
     1
1070
    44
1040
1.0
1070
    74
1070
     0
1000
MTEXTEND
  0
INSERT
  5
26FA0
330
26F58
100
AcDbEntity
  8
寸法
 62
     0
 48
50.0
370
    -2
100
AcDbBlockReference
  2
_DOTSMALL
 10
5303.849729207315
 20
2019.830907949365
 30
0.0
 41
100.0
 42
100.0
 43
100.0
 50
90.0
  0
INSERT
  5
26FA1
330
26F58
100
AcDbEntity
  8
寸法
 62
     0
 48
50.0
370
    -2
100
AcDbBlockReference
  2
_DOTSMALL
 10
5303.849729207315
 20
1235.830907949365
 30
0.0
 41
100.0
 42
100.0
 43
100.0
 50
270.0
  0
POINT
  5
26FA2
330
26F58
100
AcDbEntity
  8
DEFPOINTS
 62
     0
 48
50.0
100
AcDbPoint
 10
6038.886967769056
 20
2019.830907949365
 30
0.0
  0
POINT
  5
26FA3
330
26F58
100
AcDbEntity
  8
DEFPOINTS
 62
     0
 48
50.0
100
AcDbPoint
 10
5830.88696776906
 20
1235.830907949365
 30
0.0
  0
POINT
  5
26FA4
330
26F58
100
AcDbEntity
  8
DEFPOINTS
 62
     0
 48
50.0
100
AcDbPoint
 10
5303.849729207315
 20
1235.830907949365
 30
0.0
  0
ENDBLK
  5
26F63
330
26F58
100
AcDbEntity
  8
0
 48
50.0
100
AcDbBlockEnd
  0
BLOCK
  5
26F6E
330
26F64
100
AcDbEntity
  8
0
 48
50.0
100
AcDbBlockBegin
  2
*D63
 70
     1
 10
0.0
 20
0.0
 30
0.0
  3
*D63
  1

  0
LINE
  5
26FA5
330
26F64
100
AcDbEntity
  8
寸法
 62
     0
 48
50.0
370
    -2
100
AcDbLine
 10
5910.886967769056
 20
1087.830907949364
 30
0.0
 11
5910.886967769056
 21
637.4012699442046
 31
0.0
  0
LINE
  5
26FA6
330
26F64
100
AcDbEntity
  8
寸法
 62
     0
 48
50.0
370
    -2
100
AcDbLine
 10
6358.886967769056
 20
1087.830907949364
 30
0.0
 11
6358.886967769056
 21
637.4012699442046
 31
0.0
  0
LINE
  5
26FA7
330
26F64
100
AcDbEntity
  8
寸法
 62
     0
 48
50.0
370
    -2
100
AcDbLine
 10
5910.886967769056
 20
697.4012699442046
 30
0.0
 11
6358.886967769056
 21
697.4012699442046
 31
0.0
  0
MTEXT
  5
26FA8
330
26F64
100
AcDbEntity
  8
寸法
 62
     7
 48
50.0
100
AcDbMText
 10
6114.790209090833
 20
797.4012699442046
 30
0.0
 40
120.0
 41
0.0
 71
     5
 72
     1
  1
\A1;300
  7
STYLE1
 73
     1
 44
1.0
1001
ACAD
1000
MTEXTBEGIN
1070
    73
1070
     1
1070
    44
1040
1.0
1070
    74
1070
     0
1000
MTEXTEND
  0
INSERT
  5
26FA9
330
26F64
100
AcDbEntity
  8
寸法
 62
     0
 48
50.0
370
    -2
100
AcDbBlockReference
  2
_DOTSMALL
 10
5910.886967769056
 20
697.4012699442046
 30
0.0
 41
100.0
 42
100.0
 43
100.0
 50
180.0
  0
INSERT
  5
26FAA
330
26F64
100
AcDbEntity
  8
寸法
 62
     0
 48
50.0
370
    -2
100
AcDbBlockReference
  2
_DOTSMALL
 10
6358.886967769056
 20
697.4012699442046
 30
0.0
 41
100.0
 42
100.0
 43
100.0
  0
POINT
  5
26FAB
330
26F64
100
AcDbEntity
  8
DEFPOINTS
 62
     0
 48
50.0
100
AcDbPoint
 10
5910.886967769056
 20
1107.830907949365
 30
0.0
  0
POINT
  5
26FAC
330
26F64
100
AcDbEntity
  8
DEFPOINTS
 62
     0
 48
50.0
100
AcDbPoint
 10
6358.886967769056
 20
1107.830907949365
 30
0.0
  0
POINT
  5
26FAD
330
26F64
100
AcDbEntity
  8
DEFPOINTS
 62
     0
 48
50.0
100
AcDbPoint
 10
6358.886967769056
 20
697.4012699442046
 30
0.0
  0
ENDBLK
  5
26F6F
330
26F64
100
AcDbEntity
  8
0
 48
50.0
100
AcDbBlockEnd
  0
BLOCK
  5
26F7A
330
26F70
100
AcDbEntity
  8
0
 48
50.0
100
AcDbBlockBegin
  2
*D64
 70
     1
 10
0.0
 20
0.0
 30
0.0
  3
*D64
  1

  0
LINE
  5
26FAE
330
26F70
100
AcDbEntity
  8
寸法
 62
     0
 48
50.0
370
    -2
100
AcDbLine
 10
6230.886967769056
 20
2039.830907949365
 30
0.0
 11
6230.886967769056
 21
2399.830907949365
 31
0.0
  0
LINE
  5
26FAF
330
26F70
100
AcDbEntity
  8
寸法
 62
     0
 48
50.0
370
    -2
100
AcDbLine
 10
6038.886967769056
 20
2039.830907949365
 30
0.0
 11
6038.886967769056
 21
2399.830907949365
 31
0.0
  0
LINE
  5
26FB0
330
26F70
100
AcDbEntity
  8
寸法
 62
     0
 48
50.0
370
    -2
100
AcDbLine
 10
6230.886967769056
 20
2339.830907949365
 30
0.0
 11
6038.886967769056
 21
2339.830907949365
 31
0.0
  0
MTEXT
  5
26FB1
330
26F70
100
AcDbEntity
  8
寸法
 62
     7
 48
50.0
100
AcDbMText
 10
6146.113298114254
 20
2639.510526889367
 30
0.0
 40
120.0
 41
0.0
 71
     5
 72
     1
  1
\A1;120\P195
  7
STYLE1
 73
     1
 44
1.0
1001
ACAD
1000
MTEXTBEGIN
1070
    73
1070
     1
1070
    44
1040
1.0
1070
    74
1070
     0
1000
MTEXTEND
  0
INSERT
  5
26FB2
330
26F70
100
AcDbEntity
  8
寸法
 62
     0
 48
50.0
370
    -2
100
AcDbBlockReference
  2
_DOTSMALL
 10
6230.886967769056
 20
2339.830907949365
 30
0.0
 41
100.0
 42
100.0
 43
100.0
  0
INSERT
  5
26FB3
330
26F70
100
AcDbEntity
  8
寸法
 62
     0
 48
50.0
370
    -2
100
AcDbBlockReference
  2
_DOTSMALL
 10
6038.886967769056
 20
2339.830907949365
 30
0.0
 41
100.0
 42
100.0
 43
100.0
 50
180.0
  0
POINT
  5
26FB4
330
26F70
100
AcDbEntity
  8
DEFPOINTS
 62
     0
 48
50.0
100
AcDbPoint
 10
6230.886967769056
 20
2019.830907949365
 30
0.0
  0
POINT
  5
26FB5
330
26F70
100
AcDbEntity
  8
DEFPOINTS
 62
     0
 48
50.0
100
AcDbPoint
 10
6038.886967769056
 20
2019.830907949365
 30
0.0
  0
POINT
  5
26FB6
330
26F70
100
AcDbEntity
  8
DEFPOINTS
 62
     0
 48
50.0
100
AcDbPoint
 10
6038.886967769056
 20
2339.830907949365
 30
0.0
  0
ENDBLK
  5
26F7B
330
26F70
100
AcDbEntity
  8
0
 48
50.0
100
AcDbBlockEnd
  0
ENDSEC
  0
SECTION
  2
ENTITIES
  0
MTEXT
  5
763F
330
747D
100
AcDbEntity
  8
0
100
AcDbMText
 10
302.846345836809
 20
280.1983726409901
 30
0.0
 40
3.5
 41
5.323721266742722
 71
     1
 72
     5
  1

  7
MSMINCHO
 73
     1
 44
1.0
1001
ACAD
1000
MTEXTBEGIN
1070
    73
1070
     1
1070
    44
1040
1.0
1070
    74
1070
     0
1000
MTEXTEND
  0
LINE
  5
10B57
330
747D
100
AcDbEntity
  8
補助
  6
PHANTOM
 62
   230
 48
50.0
100
AcDbLine
 10
139.9999999999995
 20
11409.6
 30
0.0
 11
16307.2
 21
11409.6
 31
0.0
  0
LINE
  5
10B59
330
747D
100
AcDbEntity
  8
仕様書枠
  6
Continuous
 48
50.0
100
AcDbLine
 10
13107.2
 20
1200.0
 30
0.0
 11
13107.2
 21
-0.0000000000000729
 31
0.0
  0
LINE
  5
10B5D
330
747D
100
AcDbEntity
  8
仕様書枠
 48
50.0
100
AcDbLine
 10
140.0
 20
0.0
 30
0.0
 11
16307.2
 21
-0.0000000000000909
 31
0.0
  0
LINE
  5
10B5E
330
747D
100
AcDbEntity
  8
補助
  6
PHANTOM
 62
   230
 48
50.0
100
AcDbLine
 10
16307.2
 20
11409.6
 30
0.0
 11
16307.2
 21
1200.0
 31
0.0
  0
LINE
  5
10B6C
330
747D
100
AcDbEntity
  8
仕様書枠
 48
50.0
100
AcDbLine
 10
13107.2
 20
1200.0
 30
0.0
 11
16307.2
 21
1200.0
 31
0.0
  0
TEXT
  5
10B73
330
747D
100
AcDbEntity
  8
文字
 62
     7
 48
50.0
100
AcDbText
 10
13162.9790565769
 20
895.0906074299405
 30
0.0
 40
200.0
  1
基 礎 図
  7
STYLE2
100
AcDbText
  0
LINE
  5
10B7B
330
747D
100
AcDbEntity
  8
仕様書枠
 48
50.0
100
AcDbLine
 10
13107.2
 20
800.0
 30
0.0
 11
14251.2
 21
800.0
 31
0.0
  0
LINE
  5
10B88
330
747D
100
AcDbEntity
  8
仕様書枠
  6
Continuous
 48
50.0
100
AcDbLine
 10
14251.2
 20
1200.0
 30
0.0
 11
14251.2
 21
800.0
 31
0.0
  0
LINE
  5
16462
330
747D
100
AcDbEntity
  8
仕様書枠
 48
50.0
100
AcDbLine
 10
16307.2
 20
1200.0
 30
0.0
 11
16307.2
 21
-0.0000000000000909
 31
0.0
  0
LINE
  5
1903B
330
747D
100
AcDbEntity
  8
補助
  6
PHANTOM
 62
   230
 48
50.0
100
AcDbLine
 10
140.0
 20
0.0
 30
0.0
 11
139.9999999999995
 21
11409.6
 31
0.0
  0
TEXT
  5
1C7A1
330
747D
100
AcDbEntity
  8
文字
 62
     7
 48
50.0
100
AcDbText
 10
13188.16259899338
 20
79.80631269190417
 30
0.0
 40
80.0
  1
※布基礎には換気口を設けてください。
  7
STYLE2
100
AcDbText
  0
TEXT
  5
1C7E7
330
747D
100
AcDbEntity
  8
文字
 62
     7
 48
50.0
100
AcDbText
 10
13188.16259899338
 20
246.7109242801889
 30
0.0
 40
80.0
  1
※寒冷地等は地域の実情に合わせた基礎にして下さい。
  7
STYLE2
100
AcDbText
  0
TEXT
  5
1C7E8
330
747D
100
AcDbEntity
  8
文字
 62
     7
 48
50.0
100
AcDbText
 10
14405.7144701695
 20
499.5983841039506
 30
0.0
 40
160.0
  1
ＮＸＮ－７０ＳＢ/ＨＢ
  7
STYLE2
100
AcDbText
  0
TEXT
  5
1C7E9
330
747D
100
AcDbEntity
  8
文字
 62
     7
 48
50.0
100
AcDbText
 10
14641.2525855784
 20
871.1744590657927
 30
0.0
 40
100.0
  1
～一般型・多雪地型～
  7
STYLE2
100
AcDbText
  0
TEXT
  5
1C7EC
330
747D
100
AcDbEntity
  8
文字
 62
     7
 48
50.0
100
AcDbText
 10
14524.131837222
 20
1031.557706291229
 30
0.0
 40
100.0
  1
    　    <縮尺> S=1/40
  7
STYLE2
100
AcDbText
  0
TEXT
  5
1C7ED
330
747D
100
AcDbEntity
  8
文字
 62
     7
 48
50.0
100
AcDbText
 10
13201.43669998441
 20
477.2740661031257
 30
0.0
 40
160.0
  1
機種名
  7
STYLE2
100
AcDbText
  0
LINE
  5
1C7EF
330
747D
100
AcDbEntity
  8
文字
 62
     7
 48
50.0
100
AcDbLine
 10
13187.2
 20
400.0
 30
0.0
 11
16227.2
 21
400.0
 31
0.0
  0
DIMENSION
  5
24EEE
330
747D
100
AcDbEntity
  8
寸法
 48
50.0
100
AcDbDimension
  2
*D19
 10
9543.600000000001
 20
9135.128099989129
 30
0.0
 11
8223.600000000001
 21
9235.139911012751
 31
0.0
 70
    32
 71
     5
 42
2640.0
  3
INABA_S40G
100
AcDbAlignedDimension
 13
6903.6
 23
8176.907777930209
 33
0.0
 14
9543.600000000001
 24
8176.907777930209
 34
0.0
100
AcDbRotatedDimension
1001
ACAD
1000
DSTYLE
1002
{
1070
   174
1070
     0
1070
   272
1070
     1
1070
   341
1005
0
1002
}
  0
LINE
  5
24EEF
330
747D
100
AcDbEntity
  8
部品1
 48
50.0
100
AcDbLine
 10
6903.599999999965
 20
5536.907777930204
 30
0.0
 11
7356.599999999964
 21
5536.907777930204
 31
0.0
  0
DIMENSION
  5
24EF0
330
747D
100
AcDbEntity
  8
寸法
 48
50.0
100
AcDbDimension
  2
*D20
 10
6903.599999999965
 20
4832.748662820255
 30
0.0
 11
7130.099999999965
 21
4932.748662820255
 31
0.0
 70
    32
 71
     5
 42
453.0
  3
INABA_S40G
100
AcDbAlignedDimension
 13
7356.599999999964
 23
5461.907777930222
 33
0.0
 14
6903.599999999965
 24
5536.907777930204
 34
0.0
100
AcDbRotatedDimension
1001
ACAD
1000
DSTYLE
1002
{
1070
   174
1070
     0
1070
   272
1070
     1
1070
   341
1005
0
1002
}
  0
LINE
  5
24EF1
330
747D
100
AcDbEntity
  8
部品1
 48
50.0
100
AcDbLine
 10
7302.928907166848
 20
8176.907777930203
 30
0.0
 11
6903.6
 21
8176.907777930209
 31
0.0
  0
DIMENSION
  5
24EF2
330
747D
100
AcDbEntity
  8
寸法
 48
50.0
100
AcDbDimension
  2
*D21
 10
7026.600000000001
 20
8922.66740447229
 30
0.0
 11
8223.600000000001
 21
9022.679215495912
 31
0.0
 70
    32
 71
     5
 42
2394.0
  3
INABA_S40G
100
AcDbAlignedDimension
 13
9420.6
 23
8103.907777930208
 33
0.0
 14
7026.600000000001
 24
8103.907777930208
 34
0.0
100
AcDbRotatedDimension
1001
ACAD
1000
DSTYLE
1002
{
1070
   174
1070
     0
1070
   272
1070
     1
1070
   341
1005
0
1002
}
  0
LINE
  5
24EF3
102
{ACAD_REACTORS
330
26832
102
}
330
747D
100
AcDbEntity
  8
部品1
 48
50.0
100
AcDbLine
 10
9543.600000000001
 20
8176.907777930209
 30
0.0
 11
6903.6
 21
8176.907777930209
 31
0.0
  0
DIMENSION
  5
24EF5
330
747D
100
AcDbEntity
  8
寸法
 48
50.0
100
AcDbDimension
  2
*D22
 10
7350.307249876099
 20
7946.907777930204
 30
0.0
 11
7350.307249876097
 21
7606.848722812093
 31
0.0
 70
   160
 71
     5
 42
110.0000000000082
  3
INABA_S40G
100
AcDbAlignedDimension
 13
7133.6
 23
8056.907777930211
 33
0.0
 14
7133.6
 24
7946.907777930204
 34
0.0
 50
90.0
100
AcDbRotatedDimension
1001
ACAD
1000
DSTYLE
1002
{
1070
   174
1070
     0
1070
   272
1070
     1
1070
   341
1005
0
1002
}
  0
DIMENSION
  5
24EF7
330
747D
100
AcDbEntity
  8
寸法
 48
50.0
100
AcDbDimension
  2
*D23
 10
7252.197085004765
 20
5536.907777930208
 30
0.0
 11
7252.197085004763
 21
5266.848722812097
 31
0.0
 70
   160
 71
     5
 42
120.0000000000036
  3
INABA_S40G
100
AcDbAlignedDimension
 13
7133.6
 23
5656.907777930212
 33
0.0
 14
7133.6
 24
5536.907777930208
 34
0.0
 50
90.0
100
AcDbRotatedDimension
1001
ACAD
1000
DSTYLE
1002
{
1070
   174
1070
     0
1070
   272
1070
     1
1070
   341
1005
0
1002
}
  0
DIMENSION
  5
24EF9
330
747D
100
AcDbEntity
  8
寸法
 48
50.0
100
AcDbDimension
  2
*D24
 10
7252.197085004765
 20
5766.907777930211
 30
0.0
 11
7252.197085004763
 21
6106.966833048324
 31
0.0
 70
   160
 71
     5
 42
110.0
  3
INABA_S40G
100
AcDbAlignedDimension
 13
7133.6
 23
5656.907777930212
 33
0.0
 14
7133.6
 24
5766.907777930211
 34
0.0
 50
90.0
100
AcDbRotatedDimension
1001
ACAD
1000
DSTYLE
1002
{
1070
   174
1070
     0
1070
   272
1070
     1
1070
   341
1005
0
1002
}
  0
DIMENSION
  5
24EFB
330
747D
100
AcDbEntity
  8
寸法
 48
50.0
100
AcDbDimension
  2
*D25
 10
6903.6
 20
8703.817543578535
 30
0.0
 11
7356.100000000001
 21
8803.817543578537
 31
0.0
 70
    32
 71
     5
 42
905.0
  3
INABA_S40G
100
AcDbAlignedDimension
 13
7808.6
 23
7501.907777930208
 33
0.0
 14
6903.6
 24
8176.907777930209
 34
0.0
100
AcDbRotatedDimension
1001
ACAD
1000
DSTYLE
1002
{
1070
   174
1070
     0
1070
   272
1070
     1
1070
   341
1005
0
1002
}
  0
DIMENSION
  5
24EFC
330
747D
100
AcDbEntity
  8
寸法
 48
50.0
100
AcDbDimension
  2
*D26
 10
7350.307249876099
 20
8176.907777930209
 30
0.0
 11
7350.307249876097
 21
8454.991321203094
 31
0.0
 70
   160
 71
     5
 42
119.9999999999991
  3
INABA_S40G
100
AcDbAlignedDimension
 13
7133.6
 23
8056.907777930209
 33
0.0
 14
7133.6
 24
8176.907777930209
 34
0.0
 50
90.0
100
AcDbRotatedDimension
1001
ACAD
1000
DSTYLE
1002
{
1070
   174
1070
     0
1070
   272
1070
     1
1070
   341
1005
0
1002
}
  0
DIMENSION
  5
24EFF
330
747D
100
AcDbEntity
  8
寸法
 48
50.0
100
AcDbDimension
  2
*D27
 10
5855.002973219971
 20
5659.907777930209
 30
0.0
 11
5855.002973219971
 21
6891.907777930206
 31
0.0
 70
   160
 71
     5
 42
2394.0
  3
INABA_S40G
100
AcDbAlignedDimension
 13
6976.600000000001
 23
8053.907777930207
 33
0.0
 14
6976.600000000008
 24
5659.907777930207
 34
0.0
 50
90.0
100
AcDbRotatedDimension
1001
ACAD
1000
DSTYLE
1002
{
1070
   174
1070
     0
1070
   272
1070
     1
1070
   341
1005
0
1002
}
  0
DIMENSION
  5
24F00
330
747D
100
AcDbEntity
  8
寸法
 48
50.0
100
AcDbDimension
  2
*D28
 10
5603.059876500574
 20
8176.907777930209
 30
0.0
 11
5603.059876500573
 21
6821.90777793021
 31
0.0
 70
   160
 71
     5
 42
2640.0
  3
INABA_S40G
100
AcDbAlignedDimension
 13
6903.6
 23
5536.907777930208
 33
0.0
 14
6903.6
 24
8176.907777930209
 34
0.0
 50
90.0
100
AcDbRotatedDimension
1001
ACAD
1000
DSTYLE
1002
{
1070
   174
1070
     0
1070
   272
1070
     1
1070
   341
1005
0
1002
}
  0
LINE
  5
24F02
102
{ACAD_REACTORS
330
268B5
102
}
330
747D
100
AcDbEntity
  8
部品1
 48
50.0
100
AcDbLine
 10
6903.6
 20
5536.907777930208
 30
0.0
 11
6903.6
 21
8176.907777930209
 31
0.0
  0
LINE
  5
24F03
330
747D
100
AcDbEntity
  8
センター
 48
2.0
100
AcDbLine
 10
7026.600000000008
 20
5709.907777930208
 30
0.0
 11
7026.600000000008
 21
5609.907777930208
 31
0.0
  0
DIMENSION
  5
24F04
330
747D
100
AcDbEntity
  8
寸法
 48
50.0
100
AcDbDimension
  2
*D29
 10
5855.002973219971
 20
5536.907777930209
 30
0.0
 11
5855.002973219971
 21
5263.80117621241
 31
0.0
 70
   160
 71
     5
 42
123.0
  3
INABA_S40G
100
AcDbAlignedDimension
 13
6976.600000000008
 23
5659.907777930207
 33
0.0
 14
6903.6
 24
5536.907777930208
 34
0.0
 50
90.0
100
AcDbRotatedDimension
1001
ACAD
1000
DSTYLE
1002
{
1070
   174
1070
     0
1070
   272
1070
     1
1070
   341
1005
0
1002
}
  0
LINE
  5
24F06
330
747D
100
AcDbEntity
  8
センター
 48
2.0
100
AcDbLine
 10
6976.600000000008
 20
5659.907777930207
 30
0.0
 11
7076.600000000007
 21
5659.907777930207
 31
0.0
  0
CIRCLE
  5
24F07
330
747D
100
AcDbEntity
  8
部品1
 48
50.0
100
AcDbCircle
 10
7026.600000000008
 20
5659.907777930207
 30
0.0
 40
35.0
  0
LINE
  5
24F08
330
747D
100
AcDbEntity
  8
部品1
 48
50.0
100
AcDbLine
 10
7133.6
 20
5766.907777930211
 30
0.0
 11
7023.599999999999
 21
5766.907777930208
 31
0.0
  0
LINE
  5
24F09
330
747D
100
AcDbEntity
  8
部品1
 48
50.0
100
AcDbLine
 10
7133.6
 20
5656.907777930212
 30
0.0
 11
7133.6
 21
5766.907777930211
 31
0.0
  0
LINE
  5
24F0A
102
{ACAD_REACTORS
330
268B5
102
}
330
747D
100
AcDbEntity
  8
部品1
 48
50.0
100
AcDbLine
 10
7023.599999999999
 20
6756.907777930215
 30
0.0
 11
6903.6
 21
6756.907777930218
 31
0.0
  0
LINE
  5
24F0B
102
{ACAD_REACTORS
330
268B5
102
}
330
747D
100
AcDbEntity
  8
部品1
 48
50.0
100
AcDbLine
 10
7023.599999999999
 20
6956.907777930218
 30
0.0
 11
6903.6
 21
6956.907777930218
 31
0.0
  0
DIMENSION
  5
24F0D
330
747D
100
AcDbEntity
  8
寸法
 48
50.0
100
AcDbDimension
  2
*D30
 10
5855.002973219971
 20
8053.907777930209
 30
0.0
 11
5855.002973219971
 21
8490.014379648007
 31
0.0
 70
   160
 71
     5
 42
123.0
  3
INABA_S40G
100
AcDbAlignedDimension
 13
6903.6
 23
8176.907777930209
 33
0.0
 14
6976.600000000001
 24
8053.907777930207
 34
0.0
 50
90.0
100
AcDbRotatedDimension
1001
ACAD
1000
DSTYLE
1002
{
1070
   174
1070
     0
1070
   272
1070
     1
1070
   341
1005
0
1002
}
  0
DIMENSION
  5
24F0E
330
747D
100
AcDbEntity
  8
寸法
 48
50.0
100
AcDbDimension
  2
*D31
 10
6903.6
 20
8922.66740447229
 30
0.0
 11
6630.493398282202
 21
8922.66740447229
 31
0.0
 70
   160
 71
     5
 42
123.0
  3
INABA_S40G
100
AcDbAlignedDimension
 13
7026.600000000001
 23
8103.907777930208
 33
0.0
 14
6903.6
 24
8176.907777930209
 34
0.0
100
AcDbRotatedDimension
1001
ACAD
1000
DSTYLE
1002
{
1070
   174
1070
     0
1070
   272
1070
     1
1070
   341
1005
0
1002
}
  0
LINE
  5
24F0F
330
747D
100
AcDbEntity
  8
センター
 48
2.0
100
AcDbLine
 10
6976.600000000001
 20
8053.907777930207
 30
0.0
 11
7076.6
 21
8053.907777930207
 31
0.0
  0
CIRCLE
  5
24F10
330
747D
100
AcDbEntity
  8
部品1
 48
50.0
100
AcDbCircle
 10
7026.600000000001
 20
8053.907777930207
 30
0.0
 40
35.0
  0
LINE
  5
24F11
330
747D
100
AcDbEntity
  8
部品1
 48
50.0
100
AcDbLine
 10
7133.6
 20
7946.907777930204
 30
0.0
 11
7133.6
 21
8056.907777930209
 31
0.0
  0
LINE
  5
24F12
330
747D
100
AcDbEntity
  8
部品1
 48
50.0
100
AcDbLine
 10
7133.6
 20
7946.907777930204
 30
0.0
 11
7023.599999999999
 21
7946.907777930206
 31
0.0
  0
LINE
  5
24F13
330
747D
100
AcDbEntity
  8
センター
 48
2.0
100
AcDbLine
 10
7026.600000000001
 20
8103.907777930208
 30
0.0
 11
7026.600000000001
 21
8003.907777930207
 31
0.0
  0
DIMENSION
  5
24F16
330
747D
100
AcDbEntity
  8
寸法
 48
50.0
100
AcDbDimension
  2
*D32
 10
6171.82307490516
 20
6411.907777930207
 30
0.0
 11
6071.823074905158
 21
6856.90777793021
 31
0.0
 70
    32
 71
     5
 42
890.0
  3
INABA_S40G
100
AcDbAlignedDimension
 13
7708.600000000003
 23
7301.907777930208
 33
0.0
 14
7708.600000000003
 24
6411.907777930207
 34
0.0
 50
90.0
100
AcDbRotatedDimension
1001
ACAD
1000
DSTYLE
1002
{
1070
   174
1070
     0
1070
   272
1070
     1
1070
   341
1005
0
1002
}
  0
LINE
  5
24F18
102
{ACAD_REACTORS
330
2683F
102
}
330
747D
100
AcDbEntity
  8
部品1
 48
50.0
100
AcDbLine
 10
9543.600000000001
 20
5536.907777930226
 30
0.0
 11
9543.600000000001
 21
8176.907777930209
 31
0.0
  0
LINE
  5
24F1C
102
{ACAD_REACTORS
330
26882
102
}
330
747D
100
AcDbEntity
  8
部品1
 48
50.0
100
AcDbLine
 10
9543.599999999964
 20
5461.907777930225
 30
0.0
 11
7356.599999999964
 21
5461.907777930206
 31
0.0
  0
LINE
  5
24F1E
102
{ACAD_REACTORS
330
26882
102
}
330
747D
100
AcDbEntity
  8
部品1
 48
50.0
100
AcDbLine
 10
8323.600000000014
 20
5461.907777930218
 30
0.0
 11
8323.600000000018
 21
5656.907777930217
 31
0.0
  0
LINE
  5
24F1F
102
{ACAD_REACTORS
330
26882
102
}
330
747D
100
AcDbEntity
  8
部品1
 48
50.0
100
AcDbLine
 10
8123.600000000015
 20
5461.907777930218
 30
0.0
 11
8123.600000000021
 21
5656.907777930217
 31
0.0
  0
DIMENSION
  5
24F21
330
747D
100
AcDbEntity
  8
寸法
 48
50.0
100
AcDbDimension
  2
*D33
 10
6171.82307490516
 20
6411.907777930207
 30
0.0
 11
6071.823074905158
 21
5974.407777930213
 31
0.0
 70
    32
 71
     5
 42
874.9999999999927
  3
INABA_S40G
100
AcDbAlignedDimension
 13
6903.599999999965
 23
5536.907777930215
 33
0.0
 14
7708.600000000003
 24
6411.907777930207
 34
0.0
 50
90.0
100
AcDbRotatedDimension
1001
ACAD
1000
DSTYLE
1002
{
1070
   174
1070
     0
1070
   272
1070
     1
1070
   341
1005
0
1002
}
  0
LINE
  5
24F24
330
747D
100
AcDbEntity
  8
部品1
 48
50.0
100
AcDbLine
 10
7356.599999999964
 20
5461.907777930222
 30
0.0
 11
7356.599999999964
 21
5536.907777930206
 31
0.0
  0
LINE
  5
24F27
330
747D
100
AcDbEntity
  8
部品1
 48
50.0
100
AcDbLine
 10
7908.599999999999
 20
6211.907777930208
 30
0.0
 11
7908.599999999999
 21
6611.907777930207
 31
0.0
  0
LINE
  5
24F28
330
747D
100
AcDbEntity
  8
部品1
 48
50.0
100
AcDbLine
 10
7708.6
 20
6211.907777930208
 30
0.0
 11
7708.6
 21
6611.907777930207
 31
0.0
  0
LINE
  5
24F29
330
747D
100
AcDbEntity
  8
部品1
 48
50.0
100
AcDbLine
 10
7908.599999999999
 20
6211.907777930208
 30
0.0
 11
7708.6
 21
6211.907777930208
 31
0.0
  0
LINE
  5
24F2A
330
747D
100
AcDbEntity
  8
センター
 48
2.0
100
AcDbLine
 10
7758.6
 20
6411.907777930207
 30
0.0
 11
7858.6
 21
6411.907777930207
 31
0.0
  0
LINE
  5
24F2B
330
747D
100
AcDbEntity
  8
センター
 48
2.0
100
AcDbLine
 10
7808.6
 20
6461.907777930207
 30
0.0
 11
7808.6
 21
6361.907777930208
 31
0.0
  0
LINE
  5
24F2C
330
747D
100
AcDbEntity
  8
部品1
 48
50.0
100
AcDbLine
 10
7908.599999999999
 20
6611.907777930207
 30
0.0
 11
7708.6
 21
6611.907777930207
 31
0.0
  0
LINE
  5
24F2D
330
747D
100
AcDbEntity
  8
部品1
 48
50.0
100
AcDbLine
 10
8738.600000000001
 20
6211.907777930208
 30
0.0
 11
8738.600000000001
 21
6611.907777930207
 31
0.0
  0
LINE
  5
24F2E
330
747D
100
AcDbEntity
  8
部品1
 48
50.0
100
AcDbLine
 10
8538.6
 20
6211.907777930208
 30
0.0
 11
8538.6
 21
6611.907777930207
 31
0.0
  0
LINE
  5
24F2F
330
747D
100
AcDbEntity
  8
部品1
 48
50.0
100
AcDbLine
 10
8738.600000000001
 20
6211.907777930208
 30
0.0
 11
8538.6
 21
6211.907777930208
 31
0.0
  0
LINE
  5
24F30
330
747D
100
AcDbEntity
  8
センター
 48
2.0
100
AcDbLine
 10
8588.600000000001
 20
6411.907777930207
 30
0.0
 11
8688.6
 21
6411.907777930207
 31
0.0
  0
LINE
  5
24F31
330
747D
100
AcDbEntity
  8
センター
 48
2.0
100
AcDbLine
 10
8638.600000000002
 20
6461.907777930207
 30
0.0
 11
8638.600000000002
 21
6361.907777930208
 31
0.0
  0
LINE
  5
24F32
330
747D
100
AcDbEntity
  8
部品1
 48
50.0
100
AcDbLine
 10
8738.600000000001
 20
6611.907777930207
 30
0.0
 11
8538.6
 21
6611.907777930207
 31
0.0
  0
LINE
  5
24F33
330
747D
100
AcDbEntity
  8
センター
 48
2.0
100
AcDbLine
 10
9420.600000000007
 20
5709.907777930208
 30
0.0
 11
9420.600000000007
 21
5609.907777930208
 31
0.0
  0
LINE
  5
24F35
330
747D
100
AcDbEntity
  8
部品1
 48
50.0
100
AcDbLine
 10
9543.599999999964
 20
5461.907777930226
 30
0.0
 11
9543.599999999964
 21
5536.907777930222
 31
0.0
  0
LINE
  5
24F36
330
747D
100
AcDbEntity
  8
センター
 48
2.0
100
AcDbLine
 10
9370.600000000008
 20
5659.907777930207
 30
0.0
 11
9470.600000000008
 21
5659.907777930207
 31
0.0
  0
LINE
  5
24F37
330
747D
100
AcDbEntity
  8
部品1
 48
50.0
100
AcDbLine
 10
9423.6
 20
5766.907777930226
 30
0.0
 11
9313.6
 21
5766.907777930226
 31
0.0
  0
CIRCLE
  5
24F38
330
747D
100
AcDbEntity
  8
部品1
 48
50.0
100
AcDbCircle
 10
9420.600000000007
 20
5659.907777930207
 30
0.0
 40
35.0
  0
LINE
  5
24F39
330
747D
100
AcDbEntity
  8
部品1
 48
50.0
100
AcDbLine
 10
9313.6
 20
5656.907777930222
 30
0.0
 11
9313.6
 21
5766.907777930226
 31
0.0
  0
LINE
  5
24F3A
102
{ACAD_REACTORS
330
2683F
102
}
330
747D
100
AcDbEntity
  8
部品1
 48
50.0
100
AcDbLine
 10
9543.600000000001
 20
6756.907777930218
 30
0.0
 11
9423.6
 21
6756.907777930218
 31
0.0
  0
DIMENSION
  5
24F3D
330
747D
100
AcDbEntity
  8
寸法
 48
50.0
100
AcDbDimension
  2
*D34
 10
8638.600000000002
 20
8703.817543578535
 30
0.0
 11
9114.51852200628
 21
8703.817543578535
 31
0.0
 70
   160
 71
     5
 42
905.0
  3
INABA_S40G
100
AcDbAlignedDimension
 13
9543.600000000001
 23
8176.907777930209
 33
0.0
 14
8638.600000000002
 24
7501.907777930208
 34
0.0
100
AcDbRotatedDimension
1001
ACAD
1000
DSTYLE
1002
{
1070
   174
1070
     0
1070
   272
1070
     1
1070
   341
1005
0
1002
}
  0
DIMENSION
  5
24F3E
330
747D
100
AcDbEntity
  8
寸法
 48
50.0
100
AcDbDimension
  2
*D35
 10
7808.6
 20
8703.817543578535
 30
0.0
 11
8223.600000000001
 21
8803.817543578537
 31
0.0
 70
    32
 71
     5
 42
830.0
  3
INABA_S40G
100
AcDbAlignedDimension
 13
8638.600000000002
 23
7501.907777930208
 33
0.0
 14
7808.6
 24
7501.907777930208
 34
0.0
100
AcDbRotatedDimension
1001
ACAD
1000
DSTYLE
1002
{
1070
   174
1070
     0
1070
   272
1070
     1
1070
   341
1005
0
1002
}
  0
DIMENSION
  5
24F3F
330
747D
100
AcDbEntity
  8
寸法
 48
50.0
100
AcDbDimension
  2
*D36
 10
6171.82307490516
 20
8176.907777930209
 30
0.0
 11
6071.823074905159
 21
7739.40777793021
 31
0.0
 70
    32
 71
     5
 42
875.0000000000017
  3
INABA_S40G
100
AcDbAlignedDimension
 13
7708.600000000003
 23
7301.907777930208
 33
0.0
 14
6903.6
 24
8176.907777930209
 34
0.0
 50
90.0
100
AcDbRotatedDimension
1001
ACAD
1000
DSTYLE
1002
{
1070
   174
1070
     0
1070
   272
1070
     1
1070
   341
1005
0
1002
}
  0
LINE
  5
24F40
330
747D
100
AcDbEntity
  8
部品1
 48
50.0
100
AcDbLine
 10
7908.599999999999
 20
7101.907777930207
 30
0.0
 11
7908.599999999999
 21
7501.907777930208
 31
0.0
  0
LINE
  5
24F41
330
747D
100
AcDbEntity
  8
部品1
 48
50.0
100
AcDbLine
 10
7708.6
 20
7101.907777930207
 30
0.0
 11
7708.6
 21
7501.907777930208
 31
0.0
  0
LINE
  5
24F42
330
747D
100
AcDbEntity
  8
部品1
 48
50.0
100
AcDbLine
 10
7908.599999999999
 20
7101.907777930207
 30
0.0
 11
7708.6
 21
7101.907777930207
 31
0.0
  0
LINE
  5
24F43
330
747D
100
AcDbEntity
  8
センター
 48
2.0
100
AcDbLine
 10
7758.6
 20
7301.907777930208
 30
0.0
 11
7858.6
 21
7301.907777930208
 31
0.0
  0
LINE
  5
24F44
330
747D
100
AcDbEntity
  8
センター
 48
2.0
100
AcDbLine
 10
7808.6
 20
7351.907777930207
 30
0.0
 11
7808.6
 21
7251.907777930208
 31
0.0
  0
LINE
  5
24F45
330
747D
100
AcDbEntity
  8
部品1
 48
50.0
100
AcDbLine
 10
7908.599999999999
 20
7501.907777930208
 30
0.0
 11
7708.6
 21
7501.907777930208
 31
0.0
  0
LINE
  5
24F46
330
747D
100
AcDbEntity
  8
部品1
 48
50.0
100
AcDbLine
 10
8738.600000000001
 20
7101.907777930207
 30
0.0
 11
8738.600000000001
 21
7501.907777930208
 31
0.0
  0
LINE
  5
24F47
330
747D
100
AcDbEntity
  8
部品1
 48
50.0
100
AcDbLine
 10
8538.6
 20
7101.907777930207
 30
0.0
 11
8538.6
 21
7501.907777930208
 31
0.0
  0
LINE
  5
24F48
330
747D
100
AcDbEntity
  8
部品1
 48
50.0
100
AcDbLine
 10
8738.600000000001
 20
7101.907777930207
 30
0.0
 11
8538.6
 21
7101.907777930207
 31
0.0
  0
LINE
  5
24F49
330
747D
100
AcDbEntity
  8
センター
 48
2.0
100
AcDbLine
 10
8588.600000000001
 20
7301.907777930208
 30
0.0
 11
8688.6
 21
7301.907777930208
 31
0.0
  0
LINE
  5
24F4A
330
747D
100
AcDbEntity
  8
センター
 48
2.0
100
AcDbLine
 10
8638.600000000002
 20
7351.907777930207
 30
0.0
 11
8638.600000000002
 21
7251.907777930208
 31
0.0
  0
LINE
  5
24F4B
330
747D
100
AcDbEntity
  8
部品1
 48
50.0
100
AcDbLine
 10
8738.600000000001
 20
7501.907777930208
 30
0.0
 11
8538.6
 21
7501.907777930208
 31
0.0
  0
LINE
  5
24F4D
102
{ACAD_REACTORS
330
26832
102
}
330
747D
100
AcDbEntity
  8
部品1
 48
50.0
100
AcDbLine
 10
8123.600000000001
 20
8056.907777930209
 30
0.0
 11
8123.599999999999
 21
8222.519882073113
 31
0.0
  0
LINE
  5
24F4E
102
{ACAD_REACTORS
330
26832
102
}
330
747D
100
AcDbEntity
  8
部品1
 48
50.0
100
AcDbLine
 10
8323.599999999998
 20
8056.907777930208
 30
0.0
 11
8323.6
 21
8176.907777930209
 31
0.0
  0
LINE
  5
24F51
102
{ACAD_REACTORS
330
2683F
102
}
330
747D
100
AcDbEntity
  8
部品1
 48
50.0
100
AcDbLine
 10
9543.600000000001
 20
6956.907777930218
 30
0.0
 11
9423.6
 21
6956.907777930218
 31
0.0
  0
DIMENSION
  5
24F52
330
747D
100
AcDbEntity
  8
寸法
 48
50.0
100
AcDbDimension
  2
*D37
 10
9420.6
 20
8922.66740447229
 30
0.0
 11
9816.706601717799
 21
8922.66740447229
 31
0.0
 70
   160
 71
     5
 42
123.0
  3
INABA_S40G
100
AcDbAlignedDimension
 13
9543.600000000001
 23
8176.907777930209
 33
0.0
 14
9420.6
 24
8103.907777930208
 34
0.0
100
AcDbRotatedDimension
1001
ACAD
1000
DSTYLE
1002
{
1070
   174
1070
     0
1070
   272
1070
     1
1070
   341
1005
0
1002
}
  0
LINE
  5
24F53
330
747D
100
AcDbEntity
  8
センター
 48
2.0
100
AcDbLine
 10
9370.600000000001
 20
8053.907777930207
 30
0.0
 11
9470.600000000001
 21
8053.907777930207
 31
0.0
  0
LINE
  5
24F54
330
747D
100
AcDbEntity
  8
部品1
 48
50.0
100
AcDbLine
 10
9423.6
 20
7946.907777930208
 30
0.0
 11
9313.6
 21
7946.907777930208
 31
0.0
  0
LINE
  5
24F55
330
747D
100
AcDbEntity
  8
部品1
 48
50.0
100
AcDbLine
 10
9313.6
 20
7946.907777930208
 30
0.0
 11
9313.6
 21
8056.907777930208
 31
0.0
  0
CIRCLE
  5
24F56
330
747D
100
AcDbEntity
  8
部品1
 48
50.0
100
AcDbCircle
 10
9420.6
 20
8053.907777930207
 30
0.0
 40
35.0
  0
LINE
  5
24F57
330
747D
100
AcDbEntity
  8
センター
 48
2.0
100
AcDbLine
 10
9420.6
 20
8103.907777930208
 30
0.0
 11
9420.6
 21
8003.907777930207
 31
0.0
  0
DIMENSION
  5
25205
330
747D
100
AcDbEntity
  8
寸法
 48
50.0
100
AcDbDimension
  2
*D38
 10
6489.234728016389
 20
5536.907777930204
 30
0.0
 11
6489.234728016389
 21
4928.422496555987
 31
0.0
 70
   160
  1
扉の出<>
 71
     5
 42
74.99999999997999
  3
INABA_S40G
100
AcDbAlignedDimension
 13
7356.599999999923
 23
5461.907777930225
 33
0.0
 14
6903.599999999965
 24
5536.907777930204
 34
0.0
 50
90.0
100
AcDbRotatedDimension
1001
ACAD
1000
DSTYLE
1002
{
1070
   174
1070
     0
1070
   272
1070
     1
1070
   341
1005
0
1002
}
  0
MTEXT
  5
25540
102
{ACAD_REACTORS
330
25541
102
}
330
747D
100
AcDbEntity
  8
部品1
 62
     7
 48
50.0
100
AcDbMText
 10
10738.99523070989
 20
8427.880272274158
 30
0.0
 40
120.0
 41
0.0
 71
     6
 72
     1
  1
アンカーボルト
  7
STYLE1
 73
     1
 44
1.0
1001
ACAD
1000
MTEXTBEGIN
1070
    73
1070
     1
1070
    44
1040
1.0
1070
    74
1070
     0
1000
MTEXTEND
  0
LEADER
  5
25541
330
747D
100
AcDbEntity
  8
寸法
 48
50.0
100
AcDbLeader
  3
INABA_S50G
 73
     0
 74
     0
 75
     1
 40
120.0
 41
994.3492424049171
 76
     3
 10
9420.680085757009
 20
8053.921501126415
 30
0.0
 10
9594.645988304973
 20
8342.880272274157
 30
0.0
 10
9719.645988304973
 20
8342.880272274157
 30
0.0
340
25540
1001
ACAD
1000
DSTYLE
1002
{
1070
   341
1005
0
1070
    40
1040
1.0
1070
   343
1005
0
1070
   344
1005
0
1002
}
  0
MTEXT
  5
25542
102
{ACAD_REACTORS
330
25543
102
}
330
747D
100
AcDbEntity
  8
部品1
 62
     7
 48
50.0
100
AcDbMText
 10
10570.46907400128
 20
6716.651411151049
 30
0.0
 40
120.0
 41
0.0
 71
     6
 72
     1
  1
\A1;床下換気口
  7
STYLE1
 73
     1
 44
1.0
1001
ACAD
1000
MTEXTBEGIN
1070
    73
1070
     1
1070
    44
1040
1.0
1070
    74
1070
     0
1000
MTEXTEND
  0
LEADER
  5
25543
330
747D
100
AcDbEntity
  8
寸法
 48
50.0
100
AcDbLeader
  3
INABA_S50G
 73
     0
 74
     0
 75
     1
 40
120.0
 41
720.0000000000001
 76
     3
 10
9543.695499614996
 20
6892.665324718882
 30
0.0
 10
9700.469074001279
 20
6631.65141115105
 30
0.0
 10
9825.469074001279
 20
6631.65141115105
 30
0.0
340
25542
1001
ACAD
1000
DSTYLE
1002
{
1070
   341
1005
0
1070
    40
1040
1.0
1070
   343
1005
0
1070
   344
1005
0
1002
}
  0
LWPOLYLINE
  5
25939
330
747D
100
AcDbEntity
  8
寸法
 48
50.0
100
AcDbPolyline
 90
        3
 70
     0
 43
0.0
 10
8571.30121388956
 20
7028.22746208063
 10
8532.638137382852
 20
6880.517371308084
 10
8268.333180452888
 20
6880.517371308082
1001
ACAD
1000
DSTYLE
1002
{
1070
   341
1005
0
1070
   343
1005
0
1070
   344
1005
0
1002
}
  0
SOLID
  5
2593A
330
747D
100
AcDbEntity
  8
寸法
 48
50.0
100
AcDbTrace
 10
8551.146860309694
 20
7033.502858706047
 30
0.0
 11
8602.953593642068
 21
7149.153583559834
 31
0.0
 12
8591.455567469427
 22
7022.952065455213
 32
0.0
 13
8591.455567469427
 23
7022.952065455213
 33
0.0
1001
ACAD
1000
DSTYLE
1002
{
1070
   341
1005
0
1070
   343
1005
0
1070
   344
1005
0
1002
}
  0
MTEXT
  5
2593B
330
747D
100
AcDbEntity
  8
部品1
 62
     7
 48
50.0
100
AcDbMText
 10
8436.1912284328
 20
6971.307068355793
 30
0.0
 40
120.0
 41
0.0
 71
     6
 72
     1
  1
CB
  7
STYLE1
 73
     1
 44
1.0
1001
ACAD
1000
MTEXTBEGIN
1070
    73
1070
     1
1070
    44
1040
1.0
1070
    74
1070
     0
1000
MTEXTEND
  0
DIMENSION
  5
25949
330
747D
100
AcDbEntity
  8
寸法
 48
50.0
100
AcDbDimension
  2
*D39
 10
9423.6
 20
7719.199110429837
 30
0.0
 11
9813.659055118112
 21
7719.199110429837
 31
0.0
 70
   160
 71
     5
 42
120.0
  3
INABA_S40G
100
AcDbAlignedDimension
 13
9543.600000000001
 23
7946.90777793021
 33
0.0
 14
9423.6
 24
7946.907777930208
 34
0.0
100
AcDbRotatedDimension
1001
ACAD
1000
DSTYLE
1002
{
1070
   174
1070
     0
1070
   272
1070
     1
1070
   341
1005
0
1002
}
  0
DIMENSION
  5
2594B
330
747D
100
AcDbEntity
  8
寸法
 48
50.0
100
AcDbDimension
  2
*D40
 10
9313.6
 20
7719.199110429837
 30
0.0
 11
9043.54094488189
 21
7719.199110429837
 31
0.0
 70
   160
 71
     5
 42
110.0
  3
INABA_S40G
100
AcDbAlignedDimension
 13
9423.6
 23
7946.907777930208
 33
0.0
 14
9313.6
 24
7946.907777930208
 34
0.0
100
AcDbRotatedDimension
1001
ACAD
1000
DSTYLE
1002
{
1070
   174
1070
     0
1070
   272
1070
     1
1070
   341
1005
0
1002
}
  0
DIMENSION
  5
25D7E
330
747D
100
AcDbEntity
  8
寸法
 48
50.0
100
AcDbDimension
  2
*D41
 10
7356.599999999964
 20
4832.748662820268
 30
0.0
 11
8450.099999999963
 21
4932.760473843891
 31
0.0
 70
    32
  1
扉の幅 <>
 71
     5
 42
2187.0
  3
INABA_S40G
100
AcDbAlignedDimension
 13
9543.599999999964
 23
5461.90777793024
 33
0.0
 14
7356.599999999964
 24
5461.907777930235
 34
0.0
100
AcDbRotatedDimension
1001
ACAD
1000
DSTYLE
1002
{
1070
   341
1005
0
1002
}
  0
TEXT
  5
25D7F
330
747D
100
AcDbEntity
  8
寸法
 62
     7
100
AcDbText
 10
7703.709332915214
 20
4378.079265415337
 30
0.0
 40
120.0
  1
扉位置 (2187x75)
  7
STYLE1
100
AcDbText
  0
SOLID
  5
25D80
330
747D
100
AcDbEntity
  8
寸法
 48
50.0
100
AcDbTrace
 10
-7911.194632554845
 20
5336.316749025334
 30
0.0
 11
-7928.103838224834
 21
5461.907777930219
 31
0.0
 12
-7871.376418081368
 22
5348.589519994242
 32
0.0
 13
-7871.376418081368
 23
5348.589519994242
 33
0.0
210
0.0
220
0.0
230
-1.0
1001
ACAD
1000
DSTYLE
1002
{
1070
   341
1005
0
1070
    40
1040
1.0
1070
   343
1005
0
1070
   344
1005
0
1002
}
  0
LWPOLYLINE
  5
25D81
330
747D
100
AcDbEntity
  8
寸法
 48
50.0
100
AcDbPolyline
 90
        3
 70
     0
 43
0.0
 10
-7928.103838224834
 20
5461.907777930219
 10
-7587.09337372246
 20
4355.811317867018
 10
-10401.1577866541
 20
4355.811317867018
210
0.0
220
0.0
230
-1.0
1001
ACAD
1000
DSTYLE
1002
{
1070
   341
1005
0
1070
    40
1040
1.0
1070
   343
1005
0
1070
   344
1005
0
1002
}
  0
TEXT
  5
25D82
330
747D
100
AcDbEntity
  8
寸法
 62
     7
100
AcDbText
 10
7703.709332915214
 20
4206.475502532011
 30
0.0
 40
120.0
  1
扉の位置に合わせた基礎形状として下さい。
  7
STYLE1
100
AcDbText
  0
DIMENSION
  5
25D83
330
747D
100
AcDbEntity
  8
寸法
 48
50.0
100
AcDbDimension
  2
*D42
 10
7625.743526793876
 20
5656.907777930212
 30
0.0
 11
7625.743526793875
 21
5160.780612575906
 31
0.0
 70
   160
 71
     5
 42
194.9999999999754
  3
INABA_S40G
100
AcDbAlignedDimension
 13
7356.599999999964
 23
5461.907777930235
 33
0.0
 14
7252.197085004765
 24
5656.907777930212
 34
0.0
 50
270.0
100
AcDbRotatedDimension
1001
ACAD
1000
DSTYLE
1002
{
1070
   341
1005
0
1002
}
  0
LINE
  5
261DA
330
747D
100
AcDbEntity
  8
想像線
 48
10.0
100
AcDbLine
 10
9618.600000000014
 20
8222.519882073111
 30
0.0
 11
9618.600000000014
 21
7584.531102267458
 31
0.0
  0
DIMENSION
  5
261DB
330
747D
100
AcDbEntity
  8
寸法
 48
50.0
100
AcDbDimension
  2
*D43
 10
5603.059876500576
 20
8222.519882073113
 30
0.0
 11
5603.059876500574
 21
8493.694503275571
 31
0.0
 70
   160
  1
a
 71
     5
 42
45.61210414290508
  3
INABA_S40G
100
AcDbAlignedDimension
 13
6903.6
 23
8176.907777930209
 33
0.0
 14
5855.002973219973
 24
8222.519882073113
 34
0.0
 50
90.0
100
AcDbRotatedDimension
1001
ACAD
1000
DSTYLE
1002
{
1070
   341
1005
0
1002
}
  0
LEADER
  5
261DC
330
747D
100
AcDbEntity
  8
寸法
 48
50.0
100
AcDbLeader
  3
INABA_S50G
 73
     0
 74
     0
 75
     1
 40
120.0
 41
672.0
 76
     3
 10
9618.602603499796
 20
7659.755433433814
 30
0.0
 10
9734.542615691836
 20
7400.866089970239
 30
0.0
 10
9859.542615691836
 20
7400.866089970239
 30
0.0
340
261DD
1001
ACAD
1000
DSTYLE
1002
{
1070
   341
1005
0
1070
    40
1040
1.0
1070
   343
1005
0
1070
   344
1005
0
1002
}
  0
MTEXT
  5
261DD
102
{ACAD_REACTORS
330
261DC
102
}
330
747D
100
AcDbEntity
  8
部品1
 62
     7
 48
50.0
100
AcDbMText
 10
10556.54261569183
 20
7485.866089970238
 30
0.0
 40
120.0
 41
0.0
 71
     6
 72
     1
  1
\A1;屋根の外寸
  7
STYLE1
 73
     1
 44
1.0
1001
ACAD
1000
MTEXTBEGIN
1070
    73
1070
     1
1070
    44
1040
1.0
1070
    74
1070
     0
1000
MTEXTEND
  0
TEXT
  5
261DE
330
747D
100
AcDbEntity
  8
部品1
 48
50.0
100
AcDbText
 10
9758.755419703231
 20
7306.555403037164
 30
0.0
 40
80.0
  1
※a,b,cは屋根の出幅です。
  7
STYLE1
100
AcDbText
  0
TEXT
  5
261DF
330
747D
100
AcDbEntity
  8
部品1
 48
50.0
100
AcDbText
 10
9917.334428457532
 20
7199.710182168409
 30
0.0
 40
80.0
  1
(a=45,b=55,c=75)
  7
STYLE1
100
AcDbText
  0
DIMENSION
  5
261E0
330
747D
100
AcDbEntity
  8
寸法
 48
50.0
100
AcDbDimension
  2
*D44
 10
9543.600000000001
 20
9135.128099989129
 30
0.0
 11
9581.100000000002
 21
9235.128099989131
 31
0.0
 70
    32
  1
c
 71
     5
 42
75.00000000000182
  3
INABA_S40G
100
AcDbAlignedDimension
 13
9618.600000000002
 23
8922.667404472292
 33
0.0
 14
9543.600000000001
 24
8176.90777793021
 34
0.0
100
AcDbRotatedDimension
1001
ACAD
1000
DSTYLE
1002
{
1070
   341
1005
0
1002
}
  0
DIMENSION
  5
261E1
330
747D
100
AcDbEntity
  8
寸法
 48
50.0
100
AcDbDimension
  2
*D45
 10
6848.600000000011
 20
9135.128099989129
 30
0.0
 11
6876.100000000007
 21
9235.128099989131
 31
0.0
 70
    32
  1
b
 71
     5
 42
54.99999999998817
  3
INABA_S40G
100
AcDbAlignedDimension
 13
6903.6
 23
8176.90777793021
 33
0.0
 14
6848.600000000011
 24
8922.667404472292
 34
0.0
100
AcDbRotatedDimension
1001
ACAD
1000
DSTYLE
1002
{
1070
   341
1005
0
1002
}
  0
LINE
  5
261E2
330
747D
100
AcDbEntity
  8
想像線
 48
10.0
100
AcDbLine
 10
6848.600000000023
 20
8222.519882073115
 30
0.0
 11
9618.600000000014
 21
8222.519882073111
 31
0.0
  0
LINE
  5
261E3
330
747D
100
AcDbEntity
  8
想像線
 48
10.0
100
AcDbLine
 10
6848.600000000025
 20
8222.519882073111
 30
0.0
 11
6848.600000000025
 21
7584.531102267458
 31
0.0
  0
DIMENSION
  5
261E4
330
747D
100
AcDbEntity
  8
寸法
 48
50.0
100
AcDbDimension
  2
*D46
 10
5603.059876500574
 20
5536.907777930205
 30
0.0
 11
5603.059876500573
 21
5225.121052584842
 31
0.0
 70
   160
  1
a
 71
     5
 42
45.61210414290417
  3
INABA_S40G
100
AcDbAlignedDimension
 13
5855.002973219973
 23
5491.295673787301
 33
0.0
 14
6903.599999999965
 24
5536.907777930204
 34
0.0
 50
90.0
100
AcDbRotatedDimension
1001
ACAD
1000
DSTYLE
1002
{
1070
   341
1005
0
1002
}
  0
LINE
  5
26809
102
{ACAD_REACTORS
330
26832
102
}
330
747D
100
AcDbEntity
  8
部品1
 48
50.0
100
AcDbLine
 10
9313.6
 20
8056.907777930208
 30
0.0
 11
7133.6
 21
8056.907777930208
 31
0.0
  0
LINE
  5
2680A
102
{ACAD_REACTORS
330
268B5
102
}
330
747D
100
AcDbEntity
  8
部品1
 48
50.0
100
AcDbLine
 10
7023.6
 20
5766.907777930208
 30
0.0
 11
7023.6
 21
7946.907777930208
 31
0.0
  0
LINE
  5
2680B
102
{ACAD_REACTORS
330
2683F
102
}
330
747D
100
AcDbEntity
  8
部品1
 48
50.0
100
AcDbLine
 10
9423.6
 20
5766.90777793023
 30
0.0
 11
9423.6
 21
7946.907777930208
 31
0.0
  0
LINE
  5
2680C
102
{ACAD_REACTORS
330
26882
102
}
330
747D
100
AcDbEntity
  8
部品1
 48
50.0
100
AcDbLine
 10
9313.6
 20
5656.907777930222
 30
0.0
 11
7133.6
 21
5656.907777930212
 31
0.0
  0
HATCH
  5
26832
330
747D
100
AcDbEntity
  8
細線
 48
50.0
100
AcDbHatch
 10
0.0
 20
0.0
 30
0.0
210
0.0
220
0.0
230
1.0
  2
LINE
 70
     0
 71
     1
 91
        1
 92
        7
 72
     0
 73
     1
 93
        4
 10
8123.599999999999
 20
8176.907777930207
 10
8123.600000000001
 20
8056.907777930208
 10
8323.599999999998
 20
8056.907777930208
 10
8323.6
 20
8176.907777930209
 97
        4
330
24EF3
330
24F4D
330
26809
330
24F4E
 75
     0
 76
     1
 52
45.0
 41
10.0
 77
     0
 78
     1
 53
45.0
 43
0.0
 44
0.0
 45
-22.45064030267288
 46
22.45064030267288
 79
     0
 47
3.52606580005296
 98
        1
 10
8193.520386479454
 20
8119.077549739676
  0
HATCH
  5
2683F
330
747D
100
AcDbEntity
  8
細線
 48
50.0
100
AcDbHatch
 10
0.0
 20
0.0
 30
0.0
210
0.0
220
0.0
230
1.0
  2
LINE
 70
     0
 71
     1
 91
        1
 92
        7
 72
     0
 73
     1
 93
        4
 10
9543.600000000001
 20
6956.907777930218
 10
9423.6
 20
6956.907777930218
 10
9423.599999999998
 20
6756.907777930216
 10
9543.600000000001
 20
6756.907777930218
 97
        4
330
24F51
330
2680B
330
24F3A
330
24F18
 75
     0
 76
     1
 52
45.0
 41
10.0
 77
     0
 78
     1
 53
45.0
 43
0.0
 44
0.0
 45
-22.45064030267288
 46
22.45064030267288
 79
     0
 47
3.52606580005296
 98
        1
 10
9516.63354551667
 20
6840.353544824414
  0
HATCH
  5
26882
330
747D
100
AcDbEntity
  8
細線
 48
50.0
100
AcDbHatch
 10
0.0
 20
0.0
 30
0.0
210
0.0
220
0.0
230
1.0
  2
LINE
 70
     0
 71
     1
 91
        1
 92
        7
 72
     0
 73
     1
 93
        4
 10
8323.600000000018
 20
5656.907777930216
 10
8123.600000000017
 20
5656.907777930214
 10
8123.600000000015
 20
5461.907777930212
 10
8323.600000000014
 20
5461.907777930214
 97
        4
330
2680C
330
24F1F
330
24F1C
330
24F1E
 75
     0
 76
     1
 52
45.0
 41
10.0
 77
     0
 78
     1
 53
45.0
 43
0.0
 44
0.0
 45
-22.45064030267288
 46
22.45064030267288
 79
     0
 47
3.52606580005296
 98
        1
 10
8287.560746269576
 20
5588.037516914676
  0
HATCH
  5
268B5
330
747D
100
AcDbEntity
  8
細線
 48
50.0
100
AcDbHatch
 10
0.0
 20
0.0
 30
0.0
210
0.0
220
0.0
230
1.0
  2
LINE
 70
     0
 71
     1
 91
        1
 92
        7
 72
     0
 73
     1
 93
        4
 10
7023.6
 20
6956.907777930218
 10
6903.6
 20
6956.907777930218
 10
6903.6
 20
6756.907777930216
 10
7023.6
 20
6756.907777930216
 97
        4
330
24F0B
330
24F02
330
24F0A
330
2680A
 75
     0
 76
     1
 52
45.0
 41
10.0
 77
     0
 78
     1
 53
45.0
 43
0.0
 44
0.0
 45
-22.45064030267288
 46
22.45064030267288
 79
     0
 47
3.52606580005296
 98
        1
 10
6953.305638231795
 20
6861.641208731159
  0
LINE
  5
26DF9
330
747D
100
AcDbEntity
  8
部品1
100
AcDbLine
 10
11039.20371434605
 20
3340.80252772621
 30
0.0
 11
4968.218528959791
 21
3340.802527726209
 31
0.0
  0
LINE
  5
26DFA
330
747D
100
AcDbEntity
  8
部品1
100
AcDbLine
 10
11039.20371434604
 20
3100.802527726207
 30
0.0
 11
4968.218528959795
 21
3100.802527726208
 31
0.0
  0
LINE
  5
26DFB
330
747D
100
AcDbEntity
  8
部品1
100
AcDbLine
 10
4968.218528959797
 20
376.4955581415625
 30
0.0
 11
11039.20371434604
 21
376.4955581415625
 31
0.0
  0
LEADER
  5
26DFC
330
747D
100
AcDbEntity
  8
寸法
 48
50.0
100
AcDbLeader
  3
INABA_S50G
 73
     0
 74
     0
 75
     1
 40
102.2727272727273
 41
680.0000000000001
 76
     3
 10
7976.32628094625
 20
2418.706189058508
 30
0.0
 10
8010.680252059609
 20
2829.159000165049
 30
0.0
 10
8135.680252059609
 20
2829.159000165049
 30
0.0
340
26DFD
1001
ACAD
1000
DSTYLE
1002
{
1070
   341
1005
0
1070
    40
1040
1.0
1070
   343
1005
0
1070
   344
1005
0
1002
}
  0
MTEXT
  5
26DFD
102
{ACAD_REACTORS
330
26DFC
102
}
330
747D
100
AcDbEntity
  8
部品1
 62
     7
 48
50.0
100
AcDbMText
 10
8160.680252059609
 20
2905.295363801413
 30
0.0
 40
80.0
 41
0.8
 71
     4
 72
     1
  1
\A1;ナット(市販品)
  7
STYLE2
 73
     1
 44
1.0
1001
ACAD
1000
MTEXTBEGIN
1070
    73
1070
     1
1070
    44
1040
1.0
1070
    74
1070
     0
1000
MTEXTEND
  0
LEADER
  5
26DFE
330
747D
100
AcDbEntity
  8
寸法
 48
50.0
100
AcDbLeader
  3
INABA_S50G
 73
     0
 74
     0
 75
     1
 40
102.2727272727273
 41
906.8181818181818
 76
     3
 10
8000.32628094625
 20
2288.954196393644
 30
0.0
 10
8042.197871315089
 20
2644.189917400261
 30
0.0
 10
8167.197871315089
 20
2644.189917400261
 30
0.0
340
26DFF
1001
ACAD
1000
DSTYLE
1002
{
1070
   341
1005
0
1070
    40
1040
1.0
1070
   343
1005
0
1070
   344
1005
0
1002
}
  0
MTEXT
  5
26DFF
102
{ACAD_REACTORS
330
26DFE
102
}
330
747D
100
AcDbEntity
  8
部品1
 62
     7
 48
50.0
100
AcDbMText
 10
8192.197871315089
 20
2720.326281036625
 30
0.0
 40
80.0
 41
0.8
 71
     4
 72
     1
  1
\A1;ワッシャー(市販品)
  7
STYLE2
 73
     1
 44
1.0
1001
ACAD
1000
MTEXTBEGIN
1070
    73
1070
     1
1070
    44
1040
1.0
1070
    74
1070
     0
1000
MTEXTEND
  0
LWPOLYLINE
  5
26E00
330
747D
100
AcDbEntity
  8
部品1
 48
50.0
100
AcDbPolyline
 90
        2
 70
     0
 43
8.0
 10
8152.926280946251
 20
1779.830907949365
 10
8446.628744345636
 20
1779.830907949365
  0
TEXT
  5
26E01
330
747D
100
AcDbEntity
  8
部品1
 48
50.0
100
AcDbText
 10
8157.279865230679
 20
2375.709588711565
 30
0.0
 40
80.0
  1
基礎ボルト(市販品)
  7
STYLE2
100
AcDbText
  0
DIMENSION
  5
26E02
330
747D
100
AcDbEntity
  8
寸法
 48
50.0
100
AcDbDimension
  2
*D59
 10
8654.794880715092
 20
1695.830907949364
 30
0.0
 11
8554.794880715093
 21
1857.830907949366
 31
0.0
 70
    32
  1
180
 71
     5
 42
324.0000000000009
  3
INABA_S40G
100
AcDbAlignedDimension
 13
8152.926280946251
 23
2019.830907949365
 33
0.0
 14
8152.926280946251
 24
1695.830907949364
 34
0.0
 50
90.0
100
AcDbRotatedDimension
1001
ACAD
1000
DSTYLE
1002
{
1070
   174
1070
     0
1070
   272
1070
     1
1070
   279
1070
     1
1070
   288
1070
     0
1070
   341
1005
0
1002
}
  0
DIMENSION
  5
26E03
330
747D
100
AcDbEntity
  8
寸法
 48
50.0
100
AcDbDimension
  2
*D60
 10
8654.794880715092
 20
2019.830907949365
 30
0.0
 11
8930.849546834121
 21
1994.706950345153
 31
0.0
 70
   160
  1
20～25
 71
     5
 42
52.76000000000113
  3
INABA_S40G
100
AcDbAlignedDimension
 13
7965.726280946253
 23
2072.590907949366
 33
0.0
 14
8152.926280946251
 24
2019.830907949365
 34
0.0
 50
90.0
100
AcDbRotatedDimension
1001
ACAD
1000
DSTYLE
1002
{
1070
   174
1070
     0
1070
   272
1070
     1
1070
   279
1070
     1
1070
   288
1070
     0
1070
   341
1005
0
1002
}
  0
MTEXT
  5
26E04
102
{ACAD_REACTORS
330
26E05
102
}
330
747D
100
AcDbEntity
  8
部品1
 62
     7
 48
50.0
100
AcDbMText
 10
8161.870743365568
 20
2284.214234102595
 30
0.0
 40
80.0
 41
0.8
 71
     4
 72
     1
  1
M10X160
  7
STYLE2
 73
     1
 44
1.0
1001
ACAD
1000
MTEXTBEGIN
1070
    73
1070
     1
1070
    44
1040
1.0
1070
    74
1070
     0
1000
MTEXTEND
  0
LEADER
  5
26E05
330
747D
100
AcDbEntity
  8
寸法
 48
50.0
100
AcDbLeader
  3
INABA_S50G
 73
     0
 74
     0
 75
     1
 40
80.0
 41
435.0
 76
     3
 10
7969.326280946251
 20
2068.990907949366
 30
0.0
 10
8011.870743365568
 20
2219.214234102595
 30
0.0
 10
8136.870743365568
 20
2219.214234102595
 30
0.0
340
26E04
1001
ACAD
1000
DSTYLE
1002
{
1070
   341
1005
0
1070
    40
1040
1.0
1070
   343
1005
0
1070
   344
1005
0
1002
}
  0
LINE
  5
26E06
330
747D
100
AcDbEntity
  8
部品1
100
AcDbLine
 10
4968.218528959794
 20
3340.80252772621
 30
0.0
 11
4968.218528959795
 21
376.4955581415625
 31
0.0
  0
LEADER
  5
26E07
330
747D
100
AcDbEntity
  8
寸法
 48
50.0
100
AcDbLeader
  3
INABA_S50G
 73
     0
 75
     1
 40
113.1818181818182
 41
608.6363636363635
 76
     3
 10
7929.063031084301
 20
1969.346581307643
 30
0.0
 10
7795.259202392954
 20
2820.725663664122
 30
0.0
 10
7670.259202392954
 20
2820.725663664122
 30
0.0
340
26E08
1001
ACAD
1000
DSTYLE
1002
{
1070
   341
1005
0
1070
    40
1040
1.0
1070
   343
1005
0
1070
   344
1005
0
1002
}
  0
MTEXT
  5
26E08
102
{ACAD_REACTORS
330
26E07
102
}
330
747D
100
AcDbEntity
  8
寸法
 62
     7
 48
50.0
100
AcDbMText
 10
7645.259202392954
 20
2902.31657275503
 30
0.0
 40
80.0
 41
0.8
 71
     6
 72
     1
  1
\A1;φ70スリーブ
  7
STYLE2
 73
     1
 44
1.0
1001
ACAD
1000
MTEXTBEGIN
1070
    73
1070
     1
1070
    44
1040
1.0
1070
    74
1070
     0
1000
MTEXTEND
  0
LWPOLYLINE
  5
26E09
330
747D
100
AcDbEntity
  8
部品1
 48
50.0
100
AcDbPolyline
 90
        2
 70
     0
 43
8.0
 10
5624.7470659361
 20
1779.830907949365
 10
6038.886967769056
 20
1779.830907949365
  0
TEXT
  5
26E0A
330
747D
100
AcDbEntity
  8
部品1
 48
50.0
100
AcDbText
 10
5624.7470659361
 20
1791.06990023262
 30
0.0
 40
80.0
  1
▽G.L
  7
STYLE2
100
AcDbText
  0
DIMENSION
  5
26E0B
330
747D
100
AcDbEntity
  8
寸法
 48
50.0
100
AcDbDimension
  2
*D61
 10
5768.466654036597
 20
1235.830907949365
 30
0.0
 11
5768.466654036597
 21
1355.830907949364
 31
0.0
 70
   160
  1
150
 71
     5
 42
240.0
  3
INABA_S40G
100
AcDbAlignedDimension
 13
5910.886967769056
 23
1475.830907949364
 33
0.0
 14
5830.88696776906
 24
1235.830907949365
 34
0.0
 50
90.0
100
AcDbRotatedDimension
1001
ACAD
1000
DSTYLE
1002
{
1070
   174
1070
     0
1070
   272
1070
     1
1070
   279
1070
     1
1070
   288
1070
     0
1070
   341
1005
0
1002
}
  0
LEADER
  5
26E0C
330
747D
100
AcDbEntity
  8
寸法
 48
50.0
100
AcDbLeader
  3
INABA_S50G
 71
     0
 73
     0
 75
     1
 40
100.0
 41
225.0
 76
     3
 10
6006.7899201212
 20
1355.830907949364
 30
0.0
 10
5884.951941573863
 20
1092.308214330928
 30
0.0
 10
5759.951941573863
 20
1092.308214330928
 30
0.0
1001
ACAD
1000
DSTYLE
1002
{
1070
    40
1040
1.0
1070
   272
1070
     1
1070
   279
1070
     1
1070
   341
1005
0
1002
}
  0
LEADER
  5
26E0D
330
747D
100
AcDbEntity
  8
寸法
 48
50.0
100
AcDbLeader
  3
INABA_S50G
 71
     0
 73
     0
 75
     1
 40
100.0
 41
222.7272727272727
 76
     3
 10
6134.886967769056
 20
1355.830907949364
 30
0.0
 10
5913.074669131297
 20
911.992061791485
 30
0.0
 10
5788.074669131297
 20
911.992061791485
 30
0.0
1001
ACAD
1000
DSTYLE
1002
{
1070
    40
1040
1.0
1070
   272
1070
     1
1070
   279
1070
     1
1070
   341
1005
0
1002
}
  0
MTEXT
  5
26E0E
102
{ACAD_REACTORS
330
26E0F
102
}
330
747D
100
AcDbEntity
  8
寸法
 62
     7
 48
50.0
100
AcDbMText
 10
5949.636913546252
 20
1621.131510766822
 30
0.0
 40
80.0
 41
0.8
 71
     6
 72
     1
  1
\A1;D10@300
  7
STYLE2
 73
     1
 44
1.0
1001
ACAD
1000
MTEXTBEGIN
1070
    73
1070
     1
1070
    44
1040
1.0
1070
    74
1070
     0
1000
MTEXTEND
  0
LEADER
  5
26E0F
330
747D
100
AcDbEntity
  8
寸法
 48
50.0
100
AcDbLeader
  3
INABA_S50G
 71
     0
 73
     0
 75
     1
 40
100.0
 41
540.3409090909091
 76
     3
 10
6142.886967769056
 20
1777.958122646488
 30
0.0
 10
6084.904731240358
 20
1556.487794105683
 30
0.0
 10
5959.904731240358
 20
1556.487794105683
 30
0.0
213
-9.732182305893367
223
-4.643716661138569
233
0.0
1001
ACAD
1000
DSTYLE
1002
{
1070
    40
1040
1.0
1070
   272
1070
     1
1070
   279
1070
     1
1070
   341
1005
0
1002
}
  0
LEADER
  5
26E10
330
747D
100
AcDbEntity
  8
寸法
 48
50.0
100
AcDbLeader
  3
INABA_S50G
 71
     0
 73
     0
 75
     1
 40
130.1136363636363
 41
651.1363636363636
 76
     3
 10
6118.886967769056
 20
2019.830907949365
 30
0.0
 10
6006.46238760504
 20
2160.301673405953
 30
0.0
 10
5881.46238760504
 20
2160.301673405953
 30
0.0
1001
ACAD
1000
DSTYLE
1002
{
1070
    40
1040
1.0
1070
   272
1070
     1
1070
   279
1070
     1
1070
   341
1005
0
1002
}
  0
MTEXT
  5
26E11
102
{ACAD_REACTORS
330
26E10
102
}
330
747D
100
AcDbEntity
  8
寸法
 62
     7
 48
50.0
100
AcDbMText
 10
5818.788488285783
 20
2232.347127951407
 30
0.0
 40
80.0
 41
0.8
 71
     6
 72
     1
  1
\A1;金コテ押エ
  7
STYLE2
 73
     1
 44
1.0
1001
ACAD
1000
MTEXTBEGIN
1070
    73
1070
     1
1070
    44
1040
1.0
1070
    74
1070
     0
1000
MTEXTEND
  0
DIMENSION
  5
26E12
330
747D
100
AcDbEntity
  8
寸法
 48
50.0
100
AcDbDimension
  2
*D62
 10
5303.849729207315
 20
1235.830907949365
 30
0.0
 11
5303.849729207316
 21
1607.371057605365
 31
0.0
 70
   160
  1
540
 71
     5
 42
784.0
  3
INABA_S40G
100
AcDbAlignedDimension
 13
6038.886967769056
 23
2019.830907949365
 33
0.0
 14
5830.88696776906
 24
1235.830907949365
 34
0.0
 50
90.0
100
AcDbRotatedDimension
1001
ACAD
1000
DSTYLE
1002
{
1070
   174
1070
     0
1070
   272
1070
     1
1070
   279
1070
     1
1070
   288
1070
     0
1070
   341
1005
0
1002
}
  0
MTEXT
  5
26E13
102
{ACAD_REACTORS
330
26E0D
102
}
330
747D
100
AcDbEntity
  8
寸法
 62
     7
 48
50.0
100
AcDbMText
 10
5768.074669131297
 20
971.992061791485
 30
0.0
 40
80.0
 41
0.8
 71
     6
 72
     1
  1
D13
  7
STYLE2
 73
     1
 44
1.0
1001
ACAD
1000
MTEXTBEGIN
1070
    73
1070
     1
1070
    44
1040
1.0
1070
    74
1070
     0
1000
MTEXTEND
  0
MTEXT
  5
26E14
102
{ACAD_REACTORS
330
26E0C
102
}
330
747D
100
AcDbEntity
  8
寸法
 62
     7
 48
50.0
100
AcDbMText
 10
5739.951941573862
 20
1152.308214330928
 30
0.0
 40
80.0
 41
0.8
 71
     6
 72
     1
  1
D10
  7
STYLE2
 73
     1
 44
1.0
1001
ACAD
1000
MTEXTBEGIN
1070
    73
1070
     1
1070
    44
1040
1.0
1070
    74
1070
     0
1000
MTEXTEND
  0
DIMENSION
  5
26E15
330
747D
100
AcDbEntity
  8
寸法
 48
50.0
100
AcDbDimension
  2
*D63
 10
6358.886967769056
 20
697.4012699442046
 30
0.0
 11
6114.790209090833
 21
697.4012699442046
 31
0.0
 70
   160
  1
300
 71
     5
 42
448.0
  3
INABA_S40G
100
AcDbAlignedDimension
 13
5910.886967769056
 23
1107.830907949365
 33
0.0
 14
6358.886967769056
 24
1107.830907949365
 34
0.0
100
AcDbRotatedDimension
1001
ACAD
1000
DSTYLE
1002
{
1070
   174
1070
     0
1070
   272
1070
     1
1070
   279
1070
     1
1070
   288
1070
     0
1070
   341
1005
0
1002
}
  0
MTEXT
  5
26E16
102
{ACAD_REACTORS
330
26E17
102
}
330
747D
100
AcDbEntity
  8
寸法
 62
     7
 48
50.0
100
AcDbMText
 10
7671.902208601313
 20
2541.632300847517
 30
0.0
 40
80.0
 41
0.8
 71
     6
 72
     1
  1
アンカープレート Ｕ
  7
STYLE2
 73
     1
 44
1.0
1001
ACAD
1000
MTEXTBEGIN
1070
    73
1070
     1
1070
    44
1040
1.0
1070
    74
1070
     0
1000
MTEXTEND
  0
LEADER
  5
26E17
330
747D
100
AcDbEntity
  8
寸法
 48
50.0
100
AcDbLeader
  3
INABA_S50G
 73
     0
 75
     1
 40
106.3636363636363
 41
920.0
 76
     3
 10
7870.32628094625
 20
2089.390907949366
 30
0.0
 10
7821.902208601312
 20
2463.450482665698
 30
0.0
 10
7696.902208601312
 20
2463.450482665698
 30
0.0
340
26E16
1001
ACAD
1000
DSTYLE
1002
{
1070
   341
1005
0
1070
    40
1040
1.0
1070
   343
1005
0
1070
   344
1005
0
1002
}
  0
LINE
  5
26E18
330
747D
100
AcDbEntity
  8
細線
 48
50.0
100
AcDbLine
 10
6158.886967769057
 20
1858.203800617195
 30
0.0
 11
6230.886967769057
 21
1930.203800617195
 31
0.0
  0
ARC
  5
26E19
330
747D
100
AcDbEntity
  8
部品1
 48
50.0
100
AcDbCircle
 10
6134.886967769057
 20
1880.08533734361
 30
0.0
 40
24.0
100
AcDbArc
 50
0.0
 51
180.0
  0
CIRCLE
  5
26E1A
330
747D
100
AcDbEntity
  8
部品1
 48
50.0
100
AcDbCircle
 10
6134.886967769057
 20
1880.08533734361
 30
0.0
 40
8.0
  0
LINE
  5
26E1B
330
747D
100
AcDbEntity
  8
部品1
 48
50.0
100
AcDbLine
 10
6038.886967769057
 20
1475.830907949364
 30
0.0
 11
6038.886967769057
 21
2019.830907949365
 31
0.0
  0
LINE
  5
26E1C
330
747D
100
AcDbEntity
  8
部品1
 48
50.0
100
AcDbLine
 10
6230.886967769057
 20
2019.830907949365
 30
0.0
 11
6230.886967769057
 21
1475.830907949364
 31
0.0
  0
MTEXT
  5
26E1D
102
{ACAD_REACTORS
330
26E22
102
}
330
747D
100
AcDbEntity
  8
寸法
 62
     7
 48
50.0
100
AcDbMText
 10
6313.772904796451
 20
1881.098469248292
 30
0.0
 40
80.0
 41
0.8
 71
     4
 72
     1
  1
D13
  7
STYLE2
 73
     1
 44
1.0
1001
ACAD
1000
MTEXTBEGIN
1070
    73
1070
     1
1070
    44
1040
1.0
1070
    74
1070
     0
1000
MTEXTEND
  0
LEADER
  5
26E1E
330
747D
100
AcDbEntity
  8
寸法
 48
50.0
100
AcDbLeader
  3
INABA_S50G
 71
     0
 73
     0
 74
     0
 75
     1
 40
100.0
 41
225.0
 76
     3
 10
6262.7899201212
 20
1355.830907949364
 30
0.0
 10
6317.214627575741
 20
1260.433839006392
 30
0.0
 10
6442.214627575741
 20
1260.433839006392
 30
0.0
1001
ACAD
1000
DSTYLE
1002
{
1070
    40
1040
1.0
1070
   272
1070
     1
1070
   279
1070
     1
1070
   341
1005
0
1002
}
  0
LEADER
  5
26E1F
330
747D
100
AcDbEntity
  8
寸法
 48
50.0
100
AcDbLeader
  3
INABA_S50G
 71
     0
 73
     0
 74
     0
 75
     1
 40
100.0
 41
540.3409090909091
 76
     3
 10
6208.832136782231
 20
1339.090377535839
 30
0.0
 10
6327.625423630307
 20
997.4595595409418
 30
0.0
 10
6452.625423630307
 20
997.4595595409418
 30
0.0
213
0.0
223
-1.022262676269383
233
0.0
1001
ACAD
1000
DSTYLE
1002
{
1070
    40
1040
1.0
1070
   272
1070
     1
1070
   279
1070
     1
1070
   341
1005
0
1002
}
  0
MTEXT
  5
26E20
102
{ACAD_REACTORS
330
26E1E
102
}
330
747D
100
AcDbEntity
  8
寸法
 62
     7
 48
50.0
100
AcDbMText
 10
6462.214627575741
 20
1320.433839006392
 30
0.0
 40
80.0
 41
0.8
 71
     4
 72
     1
  1
D10
  7
STYLE2
 73
     1
 44
1.0
1001
ACAD
1000
MTEXTBEGIN
1070
    73
1070
     1
1070
    44
1040
1.0
1070
    74
1070
     0
1000
MTEXTEND
  0
LWPOLYLINE
  5
26E21
330
747D
100
AcDbEntity
  8
部品1
 48
50.0
100
AcDbPolyline
 90
        2
 70
     0
 43
8.0
 10
6230.886967769056
 20
1779.830907949365
 10
6645.026869602014
 20
1779.830907949365
  0
LEADER
  5
26E22
330
747D
100
AcDbEntity
  8
寸法
 48
50.0
100
AcDbLeader
  3
INABA_S50G
 71
     0
 73
     0
 74
     0
 75
     1
 40
100.0
 41
222.7272727272727
 76
     3
 10
6134.886967769056
 20
1880.08533734361
 30
0.0
 10
6168.772904796451
 20
1821.098469248292
 30
0.0
 10
6293.772904796451
 20
1821.098469248292
 30
0.0
1001
ACAD
1000
DSTYLE
1002
{
1070
    40
1040
1.0
1070
   272
1070
     1
1070
   279
1070
     1
1070
   341
1005
0
1002
}
  0
LINE
  5
26E23
330
747D
100
AcDbEntity
  8
細線
 48
50.0
100
AcDbLine
 10
5910.88696776905
 20
1394.677653711535
 30
0.0
 11
5992.040222006886
 21
1475.830907949364
 31
0.0
  0
LINE
  5
26E24
330
747D
100
AcDbEntity
  8
細線
 48
50.0
100
AcDbLine
 10
6118.752815246461
 20
1413.958122646487
 30
0.0
 11
6142.886967769062
 21
1438.092275169086
 31
0.0
  0
LINE
  5
26E25
330
747D
100
AcDbEntity
  8
細線
 48
50.0
100
AcDbLine
 10
6025.684832186129
 20
1347.830907949364
 30
0.0
 11
6142.886967769057
 21
1465.03304353229
 31
0.0
  0
LINE
  5
26E26
330
747D
100
AcDbEntity
  8
部品1
 48
50.0
100
AcDbLine
 10
5910.886967769057
 20
1235.830907949365
 30
0.0
 11
5910.886967769057
 21
1475.830907949364
 31
0.0
  0
LINE
  5
26E27
330
747D
100
AcDbEntity
  8
細線
 48
50.0
100
AcDbLine
 10
6268.151747455001
 20
1347.830907949364
 30
0.0
 11
6358.886967769057
 21
1438.566128263423
 31
0.0
  0
LINE
  5
26E28
330
747D
100
AcDbEntity
  8
細線
 48
50.0
100
AcDbLine
 10
6241.210979091785
 20
1347.830907949364
 30
0.0
 11
6358.886967769057
 21
1465.506896626631
 31
0.0
  0
LINE
  5
26E29
330
747D
100
AcDbEntity
  8
部品1
 48
50.0
100
AcDbLine
 10
6358.886967769057
 20
1475.830907949364
 30
0.0
 11
6358.886967769057
 21
1235.830907949365
 31
0.0
  0
LINE
  5
26E2A
330
747D
100
AcDbEntity
  8
部品1
 48
50.0
100
AcDbLine
 10
6158.886967769063
 20
1355.830907949364
 30
0.0
 11
6158.886967769057
 21
1880.08533734361
 31
0.0
  0
LINE
  5
26E2B
330
747D
100
AcDbEntity
  8
部品1
 48
50.0
100
AcDbLine
 10
6142.886967769062
 20
1355.830907949364
 30
0.0
 11
6142.88696776905
 21
1880.08533734361
 31
0.0
  0
LINE
  5
26E2C
330
747D
100
AcDbEntity
  8
細線
 48
50.0
100
AcDbLine
 10
6126.886967769057
 20
1395.151506805876
 30
0.0
 11
6142.886967769062
 21
1411.151506805876
 31
0.0
  0
LINE
  5
26E2D
330
747D
100
AcDbEntity
  8
細線
 48
50.0
100
AcDbLine
 10
6116.069807265071
 20
1107.830907949365
 30
0.0
 11
6150.367303896254
 21
1235.830907949365
 31
0.0
  0
LINE
  5
26E2E
330
747D
100
AcDbEntity
  8
部品1
 48
50.0
100
AcDbLine
 10
6438.886967769061
 20
1107.830907949365
 30
0.0
 11
5830.88696776906
 21
1107.830907949365
 31
0.0
  0
LINE
  5
26E2F
330
747D
100
AcDbEntity
  8
部品1
 48
50.0
100
AcDbLine
 10
5966.886967769057
 20
1331.830907949364
 30
0.0
 11
6302.886967769057
 21
1331.830907949364
 31
0.0
  0
LINE
  5
26E30
330
747D
100
AcDbEntity
  8
部品1
 48
50.0
100
AcDbLine
 10
5966.886967769057
 20
1347.830907949364
 30
0.0
 11
6302.886967769057
 21
1347.830907949364
 31
0.0
  0
LINE
  5
26E31
330
747D
100
AcDbEntity
  8
部品1
 48
50.0
100
AcDbLine
 10
6438.886967769061
 20
1235.830907949365
 30
0.0
 11
5830.88696776906
 21
1235.830907949365
 31
0.0
  0
CIRCLE
  5
26E32
330
747D
100
AcDbEntity
  8
部品1
 48
50.0
100
AcDbCircle
 10
6134.886967769057
 20
1355.830907949364
 30
0.0
 40
8.0
  0
LINE
  5
26E33
330
747D
100
AcDbEntity
  8
細線
 48
50.0
100
AcDbLine
 10
6129.210979091791
 20
1235.830907949365
 30
0.0
 11
6225.210979091791
 21
1331.830907949364
 31
0.0
  0
LINE
  5
26E34
330
747D
100
AcDbEntity
  8
細線
 48
50.0
100
AcDbLine
 10
5958.293717370573
 20
1107.830907949365
 30
0.0
 11
5992.591214001756
 21
1235.830907949365
 31
0.0
  0
LINE
  5
26E35
330
747D
100
AcDbEntity
  8
細線
 48
50.0
100
AcDbLine
 10
6037.181762317819
 20
1107.830907949363
 30
0.0
 11
6071.479258949001
 21
1235.830907949363
 31
0.0
  0
LINE
  5
26E36
330
747D
100
AcDbEntity
  8
細線
 48
50.0
100
AcDbLine
 10
5879.405672423315
 20
1107.830907949363
 30
0.0
 11
5913.703169054498
 21
1235.830907949363
 31
0.0
  0
LINE
  5
26E37
330
747D
100
AcDbEntity
  8
部品1
 48
50.0
100
AcDbLine
 10
5830.88696776906
 20
1107.830907949365
 30
0.0
 11
5830.88696776906
 21
1235.830907949365
 31
0.0
  0
LINE
  5
26E38
330
747D
100
AcDbEntity
  8
細線
 48
50.0
100
AcDbLine
 10
5964.724497988919
 20
1131.830907949364
 30
0.0
 11
5971.155278607267
 21
1107.830907949365
 31
0.0
  0
LINE
  5
26E39
330
747D
100
AcDbEntity
  8
細線
 48
50.0
100
AcDbLine
 10
5885.836453041669
 20
1131.830907949364
 30
0.0
 11
5892.267233660014
 21
1107.830907949365
 31
0.0
  0
LINE
  5
26E3A
330
747D
100
AcDbEntity
  8
細線
 48
50.0
100
AcDbLine
 10
6122.500587883425
 20
1131.830907949364
 30
0.0
 11
6128.931368501771
 21
1107.830907949365
 31
0.0
  0
LINE
  5
26E3B
330
747D
100
AcDbEntity
  8
細線
 48
50.0
100
AcDbLine
 10
6043.612542936172
 20
1131.830907949364
 30
0.0
 11
6050.043323554518
 21
1107.830907949365
 31
0.0
  0
LINE
  5
26E3C
330
747D
100
AcDbEntity
  8
細線
 48
50.0
100
AcDbLine
 10
5940.62560054934
 20
1235.830907949365
 30
0.0
 11
6036.62560054934
 21
1331.830907949364
 31
0.0
  0
LINE
  5
26E3D
330
747D
100
AcDbEntity
  8
細線
 48
50.0
100
AcDbLine
 10
5913.68483218613
 20
1235.830907949365
 30
0.0
 11
6009.68483218613
 21
1331.830907949364
 31
0.0
  0
LINE
  5
26E3E
330
747D
100
AcDbEntity
  8
部品1
 48
50.0
100
AcDbLine
 10
5966.886967769057
 20
1347.830907949364
 30
0.0
 11
5966.886967769057
 21
1331.830907949364
 31
0.0
  0
LINE
  5
26E3F
330
747D
100
AcDbEntity
  8
細線
 48
50.0
100
AcDbLine
 10
5907.272388436158
 20
1211.830907949364
 30
0.0
 11
5900.84160781781
 21
1235.830907949365
 31
0.0
  0
LINE
  5
26E40
330
747D
100
AcDbEntity
  8
細線
 48
50.0
100
AcDbLine
 10
5830.886967769057
 20
1221.170828915145
 30
0.0
 11
5834.815124107253
 21
1235.830907949365
 31
0.0
  0
LINE
  5
26E41
330
747D
100
AcDbEntity
  8
部品1
 48
50.0
100
AcDbLine
 10
6126.886967769057
 20
1413.958122646487
 30
0.0
 11
6110.886967769057
 21
1413.958122646487
 31
0.0
  0
CIRCLE
  5
26E42
330
747D
100
AcDbEntity
  8
部品1
 48
50.0
100
AcDbCircle
 10
6006.886967769057
 20
1355.830907949364
 30
0.0
 40
8.0
  0
LINE
  5
26E43
330
747D
100
AcDbEntity
  8
細線
 48
50.0
100
AcDbLine
 10
6079.566368912546
 20
1347.830907949364
 30
0.0
 11
6110.886967769057
 21
1379.151506805876
 31
0.0
  0
ARC
  5
26E44
330
747D
100
AcDbEntity
  8
部品1
 48
50.0
100
AcDbCircle
 10
6134.886967769057
 20
1355.830907949364
 30
0.0
 40
24.0
100
AcDbArc
 50
180.0
 51
199.4712206345112
  0
LINE
  5
26E45
330
747D
100
AcDbEntity
  8
細線
 48
50.0
100
AcDbLine
 10
5986.160433383409
 20
1211.830907949364
 30
0.0
 11
5979.729652765062
 21
1235.830907949365
 31
0.0
  0
LINE
  5
26E46
330
747D
100
AcDbEntity
  8
細線
 48
50.0
100
AcDbLine
 10
6065.048478330661
 20
1211.830907949364
 30
0.0
 11
6058.617697712315
 21
1235.830907949365
 31
0.0
  0
LINE
  5
26E47
330
747D
100
AcDbEntity
  8
細線
 48
50.0
100
AcDbLine
 10
5967.566368912546
 20
1235.830907949365
 30
0.0
 11
6063.566368912546
 21
1331.830907949364
 31
0.0
  0
LINE
  5
26E48
330
747D
100
AcDbEntity
  8
部品1
 48
50.0
100
AcDbLine
 10
6110.886967769057
 20
1413.958122646487
 30
0.0
 11
6110.886967769057
 21
1355.830907949364
 31
0.0
  0
LINE
  5
26E49
330
747D
100
AcDbEntity
  8
細線
 48
50.0
100
AcDbLine
 10
6052.62560054934
 20
1347.830907949364
 30
0.0
 11
6110.886967769057
 21
1406.092275169083
 31
0.0
  0
LINE
  5
26E4A
330
747D
100
AcDbEntity
  8
部品1
 48
50.0
100
AcDbLine
 10
6126.886967769057
 20
1413.958122646487
 30
0.0
 11
6126.886967769057
 21
1355.830907949364
 31
0.0
  0
LINE
  5
26E4B
330
747D
100
AcDbEntity
  8
部品1
 48
50.0
100
AcDbLine
 10
6438.886967769061
 20
1235.830907949365
 30
0.0
 11
6438.886967769061
 21
1107.830907949365
 31
0.0
  0
LINE
  5
26E4C
330
747D
100
AcDbEntity
  8
細線
 48
50.0
100
AcDbLine
 10
6352.733942106811
 20
1107.830907949365
 30
0.0
 11
6387.031438737995
 21
1235.830907949363
 31
0.0
  0
LINE
  5
26E4D
330
747D
100
AcDbEntity
  8
細線
 48
50.0
100
AcDbLine
 10
6194.957852212317
 20
1107.830907949365
 30
0.0
 11
6229.255348843503
 21
1235.830907949363
 31
0.0
  0
LINE
  5
26E4E
330
747D
100
AcDbEntity
  8
細線
 48
50.0
100
AcDbLine
 10
6273.845897159565
 20
1107.830907949363
 30
0.0
 11
6308.14339379075
 21
1235.830907949363
 31
0.0
  0
LINE
  5
26E4F
330
747D
100
AcDbEntity
  8
細線
 48
50.0
100
AcDbLine
 10
6280.276677777916
 20
1131.830907949364
 30
0.0
 11
6286.707458396263
 21
1107.830907949365
 31
0.0
  0
LINE
  5
26E50
330
747D
100
AcDbEntity
  8
細線
 48
50.0
100
AcDbLine
 10
6201.38863283067
 20
1131.830907949364
 30
0.0
 11
6207.819413449016
 21
1107.830907949365
 31
0.0
  0
LINE
  5
26E51
330
747D
100
AcDbEntity
  8
細線
 48
50.0
100
AcDbLine
 10
6359.164722725163
 20
1131.830907949364
 30
0.0
 11
6365.59550334351
 21
1107.830907949365
 31
0.0
  0
LINE
  5
26E52
330
747D
100
AcDbEntity
  8
細線
 48
50.0
100
AcDbLine
 10
6438.052767672409
 20
1131.830907949364
 30
0.0
 11
6438.886967769057
 21
1128.717630805
 31
0.0
  0
LINE
  5
26E53
330
747D
100
AcDbEntity
  8
細線
 48
50.0
100
AcDbLine
 10
6431.621987054061
 20
1107.830907949363
 30
0.0
 11
6438.886967769057
 21
1134.944185093753
 31
0.0
  0
LINE
  5
26E54
330
747D
100
AcDbEntity
  8
細線
 48
50.0
100
AcDbLine
 10
6295.092515818204
 20
1347.830907949364
 30
0.0
 11
6358.886967769057
 21
1411.625359900216
 31
0.0
  0
CIRCLE
  5
26E55
330
747D
100
AcDbEntity
  8
部品1
 48
50.0
100
AcDbCircle
 10
6262.886967769057
 20
1355.830907949364
 30
0.0
 40
8.0
  0
ARC
  5
26E56
330
747D
100
AcDbEntity
  8
部品1
 48
50.0
100
AcDbCircle
 10
6134.886967769057
 20
1355.830907949364
 30
0.0
 40
24.0
100
AcDbArc
 50
340.5287793654888
 51
0.0
  0
LINE
  5
26E57
330
747D
100
AcDbEntity
  8
細線
 48
50.0
100
AcDbLine
 10
6143.936523277914
 20
1211.830907949364
 30
0.0
 11
6137.505742659566
 21
1235.830907949365
 31
0.0
  0
LINE
  5
26E58
330
747D
100
AcDbEntity
  8
細線
 48
50.0
100
AcDbLine
 10
6222.824568225159
 20
1211.830907949364
 30
0.0
 11
6216.393787606813
 21
1235.830907949365
 31
0.0
  0
LINE
  5
26E59
330
747D
100
AcDbEntity
  8
細線
 48
50.0
100
AcDbLine
 10
6156.151747455001
 20
1235.830907949365
 30
0.0
 11
6252.151747455001
 21
1331.830907949364
 31
0.0
  0
LINE
  5
26E5A
330
747D
100
AcDbEntity
  8
細線
 48
50.0
100
AcDbLine
 10
6183.092515818205
 20
1235.830907949365
 30
0.0
 11
6279.093403663342
 21
1331.831795794504
 31
0.0
  0
LINE
  5
26E5B
330
747D
100
AcDbEntity
  8
部品1
 48
50.0
100
AcDbLine
 10
6302.886967769057
 20
1347.830907949364
 30
0.0
 11
6302.886967769057
 21
1331.830907949364
 31
0.0
  0
LINE
  5
26E5C
330
747D
100
AcDbEntity
  8
細線
 48
50.0
100
AcDbLine
 10
6380.600658119652
 20
1211.830907949364
 30
0.0
 11
6374.169877501304
 21
1235.830907949365
 31
0.0
  0
LINE
  5
26E5D
330
747D
100
AcDbEntity
  8
細線
 48
50.0
100
AcDbLine
 10
6344.73712599745
 20
1235.830907949365
 30
0.0
 11
6358.886967769057
 21
1249.980749720971
 31
0.0
  0
LINE
  5
26E5E
330
747D
100
AcDbEntity
  8
細線
 48
50.0
100
AcDbLine
 10
6301.712613172405
 20
1211.830907949364
 30
0.0
 11
6295.281832554058
 21
1235.830907949365
 31
0.0
  0
LINE
  5
26E5F
330
747D
100
AcDbEntity
  8
細線
 48
50.0
100
AcDbLine
 10
6038.886967769057
 20
1549.618422074743
 30
0.0
 11
6142.886967769062
 21
1653.618422074745
 31
0.0
  0
LINE
  5
26E60
330
747D
100
AcDbEntity
  8
細線
 48
50.0
100
AcDbLine
 10
6038.886967769057
 20
1576.559190437951
 30
0.0
 11
6142.886967769057
 21
1680.559190437951
 31
0.0
  0
LINE
  5
26E61
330
747D
100
AcDbEntity
  8
細線
 48
50.0
100
AcDbLine
 10
6038.886967769057
 20
1522.677653711535
 30
0.0
 11
6142.886967769062
 21
1626.677653711535
 31
0.0
  0
LINE
  5
26E62
330
747D
100
AcDbEntity
  8
細線
 48
50.0
100
AcDbLine
 10
6126.886967769057
 20
1826.203800617195
 30
0.0
 11
6142.886967769057
 21
1842.203800617195
 31
0.0
  0
LINE
  5
26E63
330
747D
100
AcDbEntity
  8
細線
 48
50.0
100
AcDbLine
 10
6126.886967769057
 20
1853.144568980402
 30
0.0
 11
6142.886967769057
 21
1869.144568980402
 31
0.0
  0
LINE
  5
26E64
330
747D
100
AcDbEntity
  8
部品1
 48
50.0
100
AcDbLine
 10
5910.886967769057
 20
1475.830907949364
 30
0.0
 11
6038.886967769057
 21
1475.830907949364
 31
0.0
  0
LINE
  5
26E65
330
747D
100
AcDbEntity
  8
細線
 48
50.0
100
AcDbLine
 10
5910.88696776905
 20
1421.61842207474
 30
0.0
 11
5965.099453643682
 21
1475.830907949364
 31
0.0
  0
LINE
  5
26E66
330
747D
100
AcDbEntity
  8
細線
 48
50.0
100
AcDbLine
 10
5910.88696776905
 20
1448.559190437951
 30
0.0
 11
5938.158685280471
 21
1475.830907949364
 31
0.0
  0
LINE
  5
26E67
330
747D
100
AcDbEntity
  8
部品1
 48
50.0
100
AcDbLine
 10
6126.886967769057
 20
1821.958122646487
 30
0.0
 11
6110.886967769057
 21
1821.95812264649
 31
0.0
  0
LINE
  5
26E68
330
747D
100
AcDbEntity
  8
細線
 48
50.0
100
AcDbLine
 10
6038.886967769057
 20
1738.203800617195
 30
0.0
 11
6122.641289798351
 21
1821.958122646487
 31
0.0
  0
LINE
  5
26E69
330
747D
100
AcDbEntity
  8
細線
 48
50.0
100
AcDbLine
 10
6038.886967769057
 20
1765.144568980402
 30
0.0
 11
6110.886967769057
 21
1837.144568980402
 31
0.0
  0
LINE
  5
26E6A
330
747D
100
AcDbEntity
  8
部品1
 48
50.0
100
AcDbLine
 10
6110.886967769057
 20
1821.95812264649
 30
0.0
 11
6110.886967769057
 21
1880.08533734361
 31
0.0
  0
LINE
  5
26E6B
330
747D
100
AcDbEntity
  8
細線
 48
50.0
100
AcDbLine
 10
6038.886967769057
 20
1792.08533734361
 30
0.0
 11
6110.886967769057
 21
1864.08533734361
 31
0.0
  0
LINE
  5
26E6C
330
747D
100
AcDbEntity
  8
部品1
 48
50.0
100
AcDbLine
 10
6126.886967769057
 20
1821.958122646487
 30
0.0
 11
6126.886967769057
 21
1880.08533734361
 31
0.0
  0
LINE
  5
26E6D
330
747D
100
AcDbEntity
  8
細線
 48
50.0
100
AcDbLine
 10
6158.886967769063
 20
1642.677653711535
 30
0.0
 11
6230.88696776905
 21
1714.677653711536
 31
0.0
  0
LINE
  5
26E6E
330
747D
100
AcDbEntity
  8
部品1
 48
50.0
100
AcDbLine
 10
6230.886967769057
 20
1475.830907949364
 30
0.0
 11
6358.886967769057
 21
1475.830907949364
 31
0.0
  0
LINE
  5
26E6F
330
747D
100
AcDbEntity
  8
細線
 48
50.0
100
AcDbLine
 10
6158.886967769063
 20
1454.092275169086
 30
0.0
 11
6230.88696776905
 21
1526.09227516908
 31
0.0
  0
LINE
  5
26E70
330
747D
100
AcDbEntity
  8
細線
 48
50.0
100
AcDbLine
 10
6158.886967769063
 20
1481.033043532294
 30
0.0
 11
6230.88696776905
 21
1553.03304353229
 31
0.0
  0
LINE
  5
26E71
330
747D
100
AcDbEntity
  8
細線
 48
50.0
100
AcDbLine
 10
6158.886967769063
 20
1427.151506805876
 30
0.0
 11
6230.88696776905
 21
1499.151506805876
 31
0.0
  0
LINE
  5
26E72
330
747D
100
AcDbEntity
  8
細線
 48
50.0
100
AcDbLine
 10
6158.886967769057
 20
1696.559190437951
 30
0.0
 11
6230.886967769057
 21
1768.55919043795
 31
0.0
  0
LINE
  5
26E73
330
747D
100
AcDbEntity
  8
細線
 48
50.0
100
AcDbLine
 10
6158.886967769063
 20
1669.618422074745
 30
0.0
 11
6230.88696776905
 21
1741.61842207474
 31
0.0
  0
MTEXT
  5
26E74
102
{ACAD_REACTORS
330
26E1F
102
}
330
747D
100
AcDbEntity
  8
寸法
 62
     7
 48
50.0
100
AcDbMText
 10
6472.625423630308
 20
1058.481822217211
 30
0.0
 40
80.0
 41
0.8
 71
     4
 72
     1
  1
\A1;D10@300
  7
STYLE2
 73
     1
 44
1.0
1001
ACAD
1000
MTEXTBEGIN
1070
    73
1070
     1
1070
    44
1040
1.0
1070
    74
1070
     0
1000
MTEXTEND
  0
DIMENSION
  5
26E75
330
747D
100
AcDbEntity
  8
寸法
 48
50.0
100
AcDbDimension
  2
*D64
 10
6038.886967769056
 20
2339.830907949365
 30
0.0
 11
6146.113298114254
 21
2439.498715865745
 31
0.0
 70
   160
  1
120\P195
 71
     5
 42
192.0
  3
INABA_S40G
100
AcDbAlignedDimension
 13
6230.886967769056
 23
2019.830907949365
 33
0.0
 14
6038.886967769056
 24
2019.830907949365
 34
0.0
100
AcDbRotatedDimension
1001
ACAD
1000
DSTYLE
1002
{
1070
   174
1070
     0
1070
   272
1070
     1
1070
   279
1070
     1
1070
   288
1070
     0
1070
   341
1005
0
1002
}
  0
LINE
  5
26E76
330
747D
100
AcDbEntity
  8
部品1
 48
50.0
100
AcDbLine
 10
6038.886967769057
 20
2019.830907949365
 30
0.0
 11
6230.886967769057
 21
2019.830907949365
 31
0.0
  0
LINE
  5
26E77
330
747D
100
AcDbEntity
  8
細線
 48
50.0
100
AcDbLine
 10
6038.886967769057
 20
1980.670715886063
 30
0.0
 11
6078.047159832362
 21
2019.830907949365
 31
0.0
  0
LINE
  5
26E78
330
747D
100
AcDbEntity
  8
細線
 48
50.0
100
AcDbLine
 10
6038.886967769057
 20
1953.729947522855
 30
0.0
 11
6104.987928195567
 21
2019.830907949365
 31
0.0
  0
LINE
  5
26E79
330
747D
100
AcDbEntity
  8
細線
 48
50.0
100
AcDbLine
 10
6038.886967769057
 20
2007.61148424927
 30
0.0
 11
6051.106391469152
 21
2019.830907949365
 31
0.0
  0
LINE
  5
26E7A
330
747D
100
AcDbEntity
  8
細線
 48
50.0
100
AcDbLine
 10
6158.439675035044
 20
1884.697276246386
 30
0.0
 11
6230.886967769057
 21
1957.144568980402
 31
0.0
  0
LINE
  5
26E7B
330
747D
100
AcDbEntity
  8
細線
 48
50.0
100
AcDbLine
 10
6147.379390271527
 20
1900.577759846081
 30
0.0
 11
6230.886967769057
 21
1984.08533734361
 31
0.0
  0
LINE
  5
26E7C
330
747D
100
AcDbEntity
  8
細線
 48
50.0
100
AcDbLine
 10
8023.326280946251
 20
1860.959190437953
 30
0.0
 11
8152.926280946251
 21
1990.559190437951
 31
0.0
  0
LINE
  5
26E7D
330
747D
100
AcDbEntity
  8
部品1
100
AcDbLine
 10
8152.92628094625
 20
1475.830907949364
 30
0.0
 11
8152.926280946251
 21
2019.830907949365
 31
0.0
  0
LINE
  5
26E7E
330
747D
100
AcDbEntity
  8
部品1
 48
50.0
100
AcDbLine
 10
7738.926280946251
 20
1475.830907949364
 30
0.0
 11
7738.926280946251
 21
2019.830907949365
 31
0.0
  0
LINE
  5
26E7F
330
747D
100
AcDbEntity
  8
細線
 48
50.0
100
AcDbLine
 10
7738.926280946251
 20
1792.08533734361
 30
0.0
 11
7897.326280946251
 21
1950.485337343607
 31
0.0
  0
LINE
  5
26E80
330
747D
100
AcDbEntity
  8
細線
 48
50.0
100
AcDbLine
 10
7738.926280946251
 20
1765.144568980402
 30
0.0
 11
7897.326280946251
 21
1923.5445689804
 31
0.0
  0
LINE
  5
26E81
330
747D
100
AcDbEntity
  8
細線
 48
50.0
100
AcDbLine
 10
7738.926280946251
 20
1738.203800617195
 30
0.0
 11
7897.326280946247
 21
1896.603800617187
 31
0.0
  0
TEXT
  5
26E82
330
747D
100
AcDbEntity
  8
部品1
 48
50.0
100
AcDbText
 10
7324.786379113295
 20
1791.06990023262
 30
0.0
 40
80.0
  1
▽G.L
  7
STYLE2
100
AcDbText
  0
LINE
  5
26E83
330
747D
100
AcDbEntity
  8
部品1
100
AcDbLine
 10
7969.326280946251
 20
1794.830907949364
 30
0.0
 11
7969.326280946247
 21
2068.990907949366
 31
0.0
  0
LINE
  5
26E84
330
747D
100
AcDbEntity
  8
部品1
100
AcDbLine
 10
7951.326280946251
 20
1794.830907949364
 30
0.0
 11
7951.326280946247
 21
2068.990907949366
 31
0.0
  0
LINE
  5
26E85
330
747D
100
AcDbEntity
  8
細線
 48
50.0
100
AcDbLine
 10
8023.326280946251
 20
1807.077653711523
 30
0.0
 11
8152.926280946251
 21
1936.677653711514
 31
0.0
  0
LINE
  5
26E86
330
747D
100
AcDbEntity
  8
細線
 48
50.0
100
AcDbLine
 10
8023.326280946251
 20
1834.018422074736
 30
0.0
 11
8152.926280946251
 21
1963.618422074732
 31
0.0
  0
LINE
  5
26E87
330
747D
100
AcDbEntity
  8
部品1
100
AcDbLine
 10
8023.32628094625
 20
1695.830907949365
 30
0.0
 11
8023.32628094625
 21
2019.830907949365
 31
0.0
  0
LINE
  5
26E88
330
747D
100
AcDbEntity
  8
部品1
100
AcDbLine
 10
7897.326280946245
 20
1695.830907949365
 30
0.0
 11
7897.326280946251
 21
2019.830907949365
 31
0.0
  0
LINE
  5
26E89
330
747D
100
AcDbEntity
  8
細線
 48
50.0
100
AcDbLine
 10
7738.926280946251
 20
1549.618422074743
 30
0.0
 11
7897.326280946242
 21
1708.018422074731
 31
0.0
  0
LINE
  5
26E8A
330
747D
100
AcDbEntity
  8
細線
 48
50.0
100
AcDbLine
 10
7738.926280946251
 20
1522.677653711535
 30
0.0
 11
7912.079535184087
 21
1695.830907949362
 31
0.0
  0
LINE
  5
26E8B
330
747D
100
AcDbEntity
  8
細線
 48
50.0
100
AcDbLine
 10
7738.926280946251
 20
1576.559190437951
 30
0.0
 11
7897.326280946242
 21
1734.959190437946
 31
0.0
  0
LINE
  5
26E8C
330
747D
100
AcDbEntity
  8
細線
 48
50.0
100
AcDbLine
 10
7667.60568208974
 20
1235.830907949365
 30
0.0
 11
8152.926280946251
 21
1721.151506805872
 31
0.0
  0
LINE
  5
26E8D
330
747D
100
AcDbEntity
  8
細線
 48
50.0
100
AcDbLine
 10
7640.664913726535
 20
1235.830907949365
 30
0.0
 11
8152.926280946251
 21
1748.092275169079
 31
0.0
  0
LINE
  5
26E8E
330
747D
100
AcDbEntity
  8
細線
 48
50.0
100
AcDbLine
 10
7613.724145363325
 20
1235.830907949365
 30
0.0
 11
8152.92628094625
 21
1775.03304353229
 31
0.0
  0
LINE
  5
26E8F
330
747D
100
AcDbEntity
  8
部品1
 48
50.0
100
AcDbLine
 10
8360.926280946252
 20
1235.830907949365
 30
0.0
 11
7530.926280946252
 21
1235.830907949365
 31
0.0
  0
LINE
  5
26E90
330
747D
100
AcDbEntity
  8
部品1
 48
50.0
100
AcDbLine
 10
8360.926280946252
 20
1107.830907949365
 30
0.0
 11
7530.926280946252
 21
1107.830907949365
 31
0.0
  0
LINE
  5
26E91
330
747D
100
AcDbEntity
  8
細線
 48
50.0
100
AcDbLine
 10
7610.926280946245
 20
1394.677653711535
 30
0.0
 11
7692.079535184079
 21
1475.830907949364
 31
0.0
  0
LINE
  5
26E92
330
747D
100
AcDbEntity
  8
部品1
 48
50.0
100
AcDbLine
 10
7610.926280946251
 20
1235.830907949365
 30
0.0
 11
7610.926280946251
 21
1475.830907949364
 31
0.0
  0
LINE
  5
26E93
330
747D
100
AcDbEntity
  8
細線
 48
50.0
100
AcDbLine
 10
7658.333030547769
 20
1107.830907949365
 30
0.0
 11
7692.63052717895
 21
1235.830907949365
 31
0.0
  0
LINE
  5
26E94
330
747D
100
AcDbEntity
  8
部品1
 48
50.0
100
AcDbLine
 10
7530.926280946252
 20
1107.830907949365
 30
0.0
 11
7530.926280946252
 21
1235.830907949365
 31
0.0
  0
LINE
  5
26E95
330
747D
100
AcDbEntity
  8
細線
 48
50.0
100
AcDbLine
 10
7579.444985600509
 20
1107.830907949363
 30
0.0
 11
7613.742482231693
 21
1235.830907949363
 31
0.0
  0
LINE
  5
26E96
330
747D
100
AcDbEntity
  8
細線
 48
50.0
100
AcDbLine
 10
7737.221075495014
 20
1107.830907949363
 30
0.0
 11
7771.518572126194
 21
1235.830907949363
 31
0.0
  0
LINE
  5
26E97
330
747D
100
AcDbEntity
  8
細線
 48
50.0
100
AcDbLine
 10
7585.875766218862
 20
1131.830907949364
 30
0.0
 11
7592.306546837209
 21
1107.830907949365
 31
0.0
  0
LINE
  5
26E98
330
747D
100
AcDbEntity
  8
細線
 48
50.0
100
AcDbLine
 10
7743.651856113366
 20
1131.830907949364
 30
0.0
 11
7750.082636731713
 21
1107.830907949365
 31
0.0
  0
LINE
  5
26E99
330
747D
100
AcDbEntity
  8
細線
 48
50.0
100
AcDbLine
 10
7664.763811166115
 20
1131.830907949364
 30
0.0
 11
7671.19459178446
 21
1107.830907949365
 31
0.0
  0
LINE
  5
26E9A
330
747D
100
AcDbEntity
  8
細線
 48
50.0
100
AcDbLine
 10
7530.926280946251
 20
1221.170828915145
 30
0.0
 11
7534.854437284446
 21
1235.830907949365
 31
0.0
  0
LINE
  5
26E9B
330
747D
100
AcDbEntity
  8
細線
 48
50.0
100
AcDbLine
 10
7607.311701613351
 20
1211.830907949364
 30
0.0
 11
7600.880920995006
 21
1235.830907949365
 31
0.0
  0
LINE
  5
26E9C
330
747D
100
AcDbEntity
  8
細線
 48
50.0
100
AcDbLine
 10
7765.087791507856
 20
1211.830907949364
 30
0.0
 11
7758.657010889509
 21
1235.830907949365
 31
0.0
  0
LINE
  5
26E9D
330
747D
100
AcDbEntity
  8
細線
 48
50.0
100
AcDbLine
 10
7686.199746560603
 20
1211.830907949364
 30
0.0
 11
7679.768965942257
 21
1235.830907949365
 31
0.0
  0
LWPOLYLINE
  5
26E9E
330
747D
100
AcDbEntity
  8
部品1
 48
50.0
100
AcDbPolyline
 90
        2
 70
     0
 43
8.0
 10
7324.786379113295
 20
1779.830907949365
 10
7738.926280946251
 20
1779.830907949365
  0
LINE
  5
26E9F
330
747D
100
AcDbEntity
  8
細線
 48
50.0
100
AcDbLine
 10
7610.926280946245
 20
1421.61842207474
 30
0.0
 11
7665.138766820875
 21
1475.830907949364
 31
0.0
  0
LINE
  5
26EA0
330
747D
100
AcDbEntity
  8
部品1
 48
50.0
100
AcDbLine
 10
7610.926280946251
 20
1475.830907949364
 30
0.0
 11
7738.926280946251
 21
1475.830907949364
 31
0.0
  0
LINE
  5
26EA1
330
747D
100
AcDbEntity
  8
細線
 48
50.0
100
AcDbLine
 10
7610.926280946245
 20
1448.559190437951
 30
0.0
 11
7638.197998457664
 21
1475.830907949364
 31
0.0
  0
LINE
  5
26EA2
330
747D
100
AcDbEntity
  8
細線
 48
50.0
100
AcDbLine
 10
7856.191060632195
 20
1235.830907949365
 30
0.0
 11
8152.926280946251
 21
1532.566128263417
 31
0.0
  0
LINE
  5
26EA3
330
747D
100
AcDbEntity
  8
細線
 48
50.0
100
AcDbLine
 10
7883.131828995399
 20
1235.830907949365
 30
0.0
 11
8152.926280946251
 21
1505.625359900222
 31
0.0
  0
LINE
  5
26EA4
330
747D
100
AcDbEntity
  8
細線
 48
50.0
100
AcDbLine
 10
7829.250292268986
 20
1235.830907949365
 30
0.0
 11
8152.92628094625
 21
1559.506896626631
 31
0.0
  0
LINE
  5
26EA5
330
747D
100
AcDbEntity
  8
細線
 48
50.0
100
AcDbLine
 10
8044.776439174645
 20
1235.830907949365
 30
0.0
 11
8280.92628094625
 21
1471.980749720973
 31
0.0
  0
LINE
  5
26EA6
330
747D
100
AcDbEntity
  8
細線
 48
50.0
100
AcDbLine
 10
8071.717207537856
 20
1235.830907949365
 30
0.0
 11
8280.92628094625
 21
1445.039981357758
 31
0.0
  0
LINE
  5
26EA7
330
747D
100
AcDbEntity
  8
部品1
 48
50.0
100
AcDbLine
 10
8280.92628094625
 20
1475.830907949364
 30
0.0
 11
8280.92628094625
 21
1235.830907949365
 31
0.0
  0
LINE
  5
26EA8
330
747D
100
AcDbEntity
  8
細線
 48
50.0
100
AcDbLine
 10
8098.65797590106
 20
1235.830907949365
 30
0.0
 11
8280.92628094625
 21
1418.099212994561
 31
0.0
  0
LINE
  5
26EA9
330
747D
100
AcDbEntity
  8
細線
 48
50.0
100
AcDbLine
 10
7973.88521033676
 20
1107.830907949363
 30
0.0
 11
8008.182706967941
 21
1235.830907949363
 31
0.0
  0
LINE
  5
26EAA
330
747D
100
AcDbEntity
  8
細線
 48
50.0
100
AcDbLine
 10
7816.109120442266
 20
1107.830907949365
 30
0.0
 11
7850.406617073447
 21
1235.830907949365
 31
0.0
  0
LINE
  5
26EAB
330
747D
100
AcDbEntity
  8
細線
 48
50.0
100
AcDbLine
 10
7894.997165389511
 20
1107.830907949365
 30
0.0
 11
7929.294662020696
 21
1235.830907949363
 31
0.0
  0
LINE
  5
26EAC
330
747D
100
AcDbEntity
  8
細線
 48
50.0
100
AcDbLine
 10
8052.773255284002
 20
1107.830907949365
 30
0.0
 11
8087.07075191519
 21
1235.830907949363
 31
0.0
  0
LINE
  5
26EAD
330
747D
100
AcDbEntity
  8
細線
 48
50.0
100
AcDbLine
 10
7901.427946007865
 20
1131.830907949364
 30
0.0
 11
7907.858726626212
 21
1107.830907949365
 31
0.0
  0
LINE
  5
26EAE
330
747D
100
AcDbEntity
  8
細線
 48
50.0
100
AcDbLine
 10
7822.539901060618
 20
1131.830907949364
 30
0.0
 11
7828.970681678966
 21
1107.830907949365
 31
0.0
  0
LINE
  5
26EAF
330
747D
100
AcDbEntity
  8
細線
 48
50.0
100
AcDbLine
 10
8059.204035902356
 20
1131.830907949364
 30
0.0
 11
8065.634816520702
 21
1107.830907949365
 31
0.0
  0
LINE
  5
26EB0
330
747D
100
AcDbEntity
  8
細線
 48
50.0
100
AcDbLine
 10
7980.315990955111
 20
1131.830907949364
 30
0.0
 11
7986.746771573456
 21
1107.830907949365
 31
0.0
  0
LINE
  5
26EB1
330
747D
100
AcDbEntity
  8
細線
 48
50.0
100
AcDbLine
 10
7922.863881402354
 20
1211.830907949364
 30
0.0
 11
7916.433100784006
 21
1235.830907949365
 31
0.0
  0
LINE
  5
26EB2
330
747D
100
AcDbEntity
  8
細線
 48
50.0
100
AcDbLine
 10
7843.975836455107
 20
1211.830907949364
 30
0.0
 11
7837.545055836759
 21
1235.830907949365
 31
0.0
  0
LINE
  5
26EB3
330
747D
100
AcDbEntity
  8
細線
 48
50.0
100
AcDbLine
 10
8001.7519263496
 20
1211.830907949364
 30
0.0
 11
7995.321145731253
 21
1235.830907949365
 31
0.0
  0
LINE
  5
26EB4
330
747D
100
AcDbEntity
  8
細線
 48
50.0
100
AcDbLine
 10
8080.639971296845
 20
1211.830907949364
 30
0.0
 11
8074.2091906785
 21
1235.830907949365
 31
0.0
  0
LINE
  5
26EB5
330
747D
100
AcDbEntity
  8
部品1
 48
50.0
100
AcDbLine
 10
8360.926280946252
 20
1235.830907949365
 30
0.0
 11
8360.926280946252
 21
1107.830907949365
 31
0.0
  0
LINE
  5
26EB6
330
747D
100
AcDbEntity
  8
細線
 48
50.0
100
AcDbLine
 10
8289.437390125746
 20
1107.830907949363
 30
0.0
 11
8323.73488675693
 21
1235.830907949362
 31
0.0
  0
LINE
  5
26EB7
330
747D
100
AcDbEntity
  8
細線
 48
50.0
100
AcDbLine
 10
8131.661300231252
 20
1107.830907949363
 30
0.0
 11
8165.958796862424
 21
1235.830907949365
 31
0.0
  0
LINE
  5
26EB8
330
747D
100
AcDbEntity
  8
細線
 48
50.0
100
AcDbLine
 10
8210.549345178501
 20
1107.830907949362
 30
0.0
 11
8244.846841809685
 21
1235.830907949362
 31
0.0
  0
LINE
  5
26EB9
330
747D
100
AcDbEntity
  8
細線
 48
50.0
100
AcDbLine
 10
8138.092080849601
 20
1131.830907949364
 30
0.0
 11
8144.522861467958
 21
1107.830907949365
 31
0.0
  0
LINE
  5
26EBA
330
747D
100
AcDbEntity
  8
細線
 48
50.0
100
AcDbLine
 10
8216.980125796849
 20
1131.830907949363
 30
0.0
 11
8223.410906415196
 21
1107.830907949363
 31
0.0
  0
LINE
  5
26EBB
330
747D
100
AcDbEntity
  8
細線
 48
50.0
100
AcDbLine
 10
8295.868170744096
 20
1131.830907949363
 30
0.0
 11
8302.298951362445
 21
1107.830907949363
 31
0.0
  0
LINE
  5
26EBC
330
747D
100
AcDbEntity
  8
細線
 48
50.0
100
AcDbLine
 10
8159.528016244083
 20
1211.830907949364
 30
0.0
 11
8153.097235625738
 21
1235.830907949365
 31
0.0
  0
LINE
  5
26EBD
330
747D
100
AcDbEntity
  8
細線
 48
50.0
100
AcDbLine
 10
8238.41606119134
 20
1211.830907949363
 30
0.0
 11
8231.985280572994
 21
1235.830907949363
 31
0.0
  0
LINE
  5
26EBE
330
747D
100
AcDbEntity
  8
細線
 48
50.0
100
AcDbLine
 10
8317.304106138584
 20
1211.830907949363
 30
0.0
 11
8310.873325520239
 21
1235.830907949363
 31
0.0
  0
LINE
  5
26EBF
330
747D
100
AcDbEntity
  8
部品1
100
AcDbLine
 10
8023.32628094625
 20
1695.830907949362
 30
0.0
 11
7897.326280946245
 21
1695.830907949362
 31
0.0
  0
LINE
  5
26EC0
330
747D
100
AcDbEntity
  8
部品1
100
AcDbLine
 10
8005.326280946251
 20
1776.830907949365
 30
0.0
 11
8005.326280946251
 21
1794.830907949364
 31
0.0
  0
ARC
  5
26EC1
330
747D
100
AcDbEntity
  8
部品1
100
AcDbCircle
 10
7969.326280946251
 20
1794.830907949364
 30
0.0
 40
18.0
100
AcDbArc
 50
180.0
 51
270.0
  0
LINE
  5
26EC2
330
747D
100
AcDbEntity
  8
部品1
100
AcDbLine
 10
7969.326280946251
 20
1776.830907949365
 30
0.0
 11
8005.326280946251
 21
1776.830907949365
 31
0.0
  0
LINE
  5
26EC3
330
747D
100
AcDbEntity
  8
部品1
100
AcDbLine
 10
7969.326280946251
 20
1794.830907949364
 30
0.0
 11
8005.326280946251
 21
1794.830907949364
 31
0.0
  0
LINE
  5
26EC4
330
747D
100
AcDbEntity
  8
部品1
 48
50.0
100
AcDbLine
 10
8152.926280946251
 20
1475.830907949364
 30
0.0
 11
8280.92628094625
 21
1475.830907949364
 31
0.0
  0
LINE
  5
26EC5
330
747D
100
AcDbEntity
  8
部品1
100
AcDbLine
 10
7758.726280946252
 20
2109.830907949365
 30
0.0
 11
7796.526280946252
 21
2109.830907949365
 31
0.0
  0
LINE
  5
26EC6
330
747D
100
AcDbEntity
  8
細線
 48
50.0
100
AcDbLine
 10
7738.926280946251
 20
1980.670715886063
 30
0.0
 11
7778.086473009556
 21
2019.830907949365
 31
0.0
  0
LINE
  5
26EC7
330
747D
100
AcDbEntity
  8
細線
 48
50.0
100
AcDbLine
 10
7738.926280946251
 20
1953.729947522855
 30
0.0
 11
7805.027241372761
 21
2019.830907949365
 31
0.0
  0
LINE
  5
26EC8
330
747D
100
AcDbEntity
  8
部品1
 48
50.0
100
AcDbLine
 10
7738.926280946251
 20
2019.830907949365
 30
0.0
 11
8152.926280946251
 21
2019.830907949365
 31
0.0
  0
TEXT
  5
26EC9
330
747D
100
AcDbEntity
  8
部品1
 48
50.0
100
AcDbText
 10
7312.480184366759
 20
2350.391429049841
 30
0.0
 40
80.0
  1
※(別売)
  7
STYLE2
100
AcDbText
  0
LINE
  5
26ECA
330
747D
100
AcDbEntity
  8
部品1
100
AcDbLine
 10
7756.026280946251
 20
2099.030907949364
 30
0.0
 11
7756.026280946251
 21
2107.130907949365
 31
0.0
  0
ARC
  5
26ECB
330
747D
100
AcDbEntity
  8
部品1
100
AcDbCircle
 10
7758.726280946252
 20
2107.130907949365
 30
0.0
 40
2.7
100
AcDbArc
 50
90.0
 51
180.0
  0
ARC
  5
26ECC
330
747D
100
AcDbEntity
  8
部品1
100
AcDbCircle
 10
7747.926280946251
 20
2094.222811652073
 30
0.0
 40
2.7
100
AcDbArc
 50
104.0362434679067
 51
180.0
  0
LINE
  5
26ECD
330
747D
100
AcDbEntity
  8
部品1
100
AcDbLine
 10
7747.271434758651
 20
2096.842196402465
 30
0.0
 11
7756.026280946251
 21
2099.030907949364
 31
0.0
  0
ARC
  5
26ECE
330
747D
100
AcDbEntity
  8
部品1
100
AcDbCircle
 10
7747.926280946251
 20
2032.090907949365
 30
0.0
 40
2.7
100
AcDbArc
 50
180.0
 51
270.0
  0
LINE
  5
26ECF
330
747D
100
AcDbEntity
  8
細線
 48
50.0
100
AcDbLine
 10
7738.926280946251
 20
2007.61148424927
 30
0.0
 11
7751.145704646346
 21
2019.830907949365
 31
0.0
  0
LINE
  5
26ED0
330
747D
100
AcDbEntity
  8
部品1
100
AcDbLine
 10
7747.926280946251
 20
2029.390907949365
 30
0.0
 11
7759.626280946246
 21
2029.390907949365
 31
0.0
  0
LINE
  5
26ED1
330
747D
100
AcDbEntity
  8
部品1
100
AcDbLine
 10
7745.226280946252
 20
2032.090907949365
 30
0.0
 11
7745.226280946252
 21
2094.222811652073
 31
0.0
  0
LINE
  5
26ED2
330
747D
100
AcDbEntity
  8
部品1
100
AcDbLine
 10
7903.886280946244
 20
2029.390907949365
 30
0.0
 11
8105.226280946245
 21
2029.390907949365
 31
0.0
  0
LINE
  5
26ED3
330
747D
100
AcDbEntity
  8
部品1
100
AcDbLine
 10
7796.526280946252
 20
2109.830907949365
 30
0.0
 11
7796.526280946252
 21
2117.930907949365
 31
0.0
  0
LINE
  5
26ED4
330
747D
100
AcDbEntity
  8
部品1
100
AcDbLine
 10
7846.92628094625
 20
2128.730907949362
 30
0.0
 11
7846.92628094625
 21
2077.430907949365
 31
0.0
  0
LINE
  5
26ED5
330
747D
100
AcDbEntity
  8
部品1
100
AcDbLine
 10
7870.32628094625
 20
2089.390907949365
 30
0.0
 11
7898.48628094625
 21
2089.390907949365
 31
0.0
  0
ARC
  5
26ED6
330
747D
100
AcDbEntity
  8
部品1
100
AcDbCircle
 10
7870.32628094625
 20
2086.690907949365
 30
0.0
 40
2.7
100
AcDbArc
 50
90.0
 51
180.0
  0
ARC
  5
26ED7
330
747D
100
AcDbEntity
  8
部品1
100
AcDbCircle
 10
7898.48628094625
 20
2086.690907949365
 30
0.0
 40
2.7
100
AcDbArc
 50
0.0
 51
90.0
  0
LINE
  5
26ED8
330
747D
100
AcDbEntity
  8
部品1
100
AcDbLine
 10
7889.226280946252
 20
2074.730907949364
 30
0.0
 11
7889.226280946252
 21
2032.090907949365
 31
0.0
  0
LINE
  5
26ED9
330
747D
100
AcDbEntity
  8
部品1
100
AcDbLine
 10
7874.82628094625
 20
2029.390907949365
 30
0.0
 11
7886.526280946251
 21
2029.390907949365
 31
0.0
  0
ARC
  5
26EDA
330
747D
100
AcDbEntity
  8
部品1
100
AcDbCircle
 10
7903.886280946244
 20
2032.090907949365
 30
0.0
 40
2.7
100
AcDbArc
 50
180.0
 51
270.0
  0
ARC
  5
26EDB
330
747D
100
AcDbEntity
  8
部品1
100
AcDbCircle
 10
7886.526280946251
 20
2032.090907949365
 30
0.0
 40
2.7
100
AcDbArc
 50
270.0
 51
0.0
  0
LINE
  5
26EDC
330
747D
100
AcDbEntity
  8
部品1
100
AcDbLine
 10
7846.92628094625
 20
2077.430907949365
 30
0.0
 11
7886.526280946251
 21
2077.430907949365
 31
0.0
  0
ARC
  5
26EDD
330
747D
100
AcDbEntity
  8
部品1
100
AcDbCircle
 10
7886.526280946251
 20
2074.730907949364
 30
0.0
 40
2.7
100
AcDbArc
 50
0.0
 51
90.0
  0
LINE
  5
26EDE
330
747D
100
AcDbEntity
  8
部品1
100
AcDbLine
 10
7901.186280946252
 20
2086.690907949365
 30
0.0
 11
7901.186280946247
 21
2032.090907949365
 31
0.0
  0
LINE
  5
26EDF
330
747D
100
AcDbEntity
  8
部品1
100
AcDbLine
 10
7867.62628094625
 20
2086.690907949365
 30
0.0
 11
7867.62628094625
 21
2069.590907949365
 31
0.0
  0
LINE
  5
26EE0
330
747D
100
AcDbEntity
  8
細線
100
AcDbLine
 10
7965.726280946253
 20
2029.390907949365
 30
0.0
 11
7965.726280946253
 21
2072.590907949365
 31
0.0
  0
LINE
  5
26EE1
330
747D
100
AcDbEntity
  8
細線
100
AcDbLine
 10
7954.926280946253
 20
2029.390907949365
 30
0.0
 11
7954.92628094625
 21
2072.590907949365
 31
0.0
  0
LINE
  5
26EE2
330
747D
100
AcDbEntity
  8
部品1
100
AcDbLine
 10
7951.326280946251
 20
2068.990907949366
 30
0.0
 11
7969.326280946251
 21
2068.990907949366
 31
0.0
  0
LINE
  5
26EE3
330
747D
100
AcDbEntity
  8
部品1
100
AcDbLine
 10
7954.92628094625
 20
2072.590907949365
 30
0.0
 11
7965.726280946253
 21
2072.590907949365
 31
0.0
  0
ELLIPSE
  5
26EE4
330
747D
100
AcDbEntity
  8
部品1
 48
50.0
100
AcDbEllipse
 10
7960.326280946251
 20
2288.954196393637
 30
0.0
 11
40.0
 21
0.0
 31
0.0
210
0.0
220
0.0
230
1.0
 40
0.4
 41
0.0
 42
6.283185307179586
  0
ELLIPSE
  5
26EE5
330
747D
100
AcDbEntity
  8
部品1
 48
50.0
100
AcDbEllipse
 10
7960.326280946251
 20
2279.354196393638
 30
0.0
 11
40.0
 21
0.0
 31
0.0
210
0.0
220
0.0
230
1.0
 40
0.4
 41
3.141592653589793
 42
6.283185307179586
  0
LINE
  5
26EE6
330
747D
100
AcDbEntity
  8
部品1
 48
50.0
100
AcDbLine
 10
7920.32628094625
 20
2288.954196393637
 30
0.0
 11
7920.32628094625
 21
2279.354196393637
 31
0.0
  0
ARC
  5
26EE7
330
747D
100
AcDbEntity
  8
部品1
100
AcDbCircle
 10
7844.226280946251
 20
2128.730907949362
 30
0.0
 40
2.7
100
AcDbArc
 50
0.0
 51
90.0
  0
ARC
  5
26EE8
330
747D
100
AcDbEntity
  8
部品1
100
AcDbCircle
 10
7801.926280946251
 20
2128.730907949364
 30
0.0
 40
2.7
100
AcDbArc
 50
90.0
 51
180.0
  0
LINE
  5
26EE9
330
747D
100
AcDbEntity
  8
部品1
100
AcDbLine
 10
7799.226280946252
 20
2120.630907949365
 30
0.0
 11
7799.226280946252
 21
2120.630907949365
 31
0.0
  0
LINE
  5
26EEA
330
747D
100
AcDbEntity
  8
部品1
100
AcDbLine
 10
7799.226280946252
 20
2120.630907949365
 30
0.0
 11
7799.226280946252
 21
2128.730907949364
 31
0.0
  0
LINE
  5
26EEB
330
747D
100
AcDbEntity
  8
部品1
100
AcDbLine
 10
7801.926280946251
 20
2131.430907949365
 30
0.0
 11
7844.226280946251
 21
2131.430907949361
 31
0.0
  0
ARC
  5
26EEC
330
747D
100
AcDbEntity
  8
部品1
100
AcDbCircle
 10
7799.226280946252
 20
2117.930907949365
 30
0.0
 40
2.7
100
AcDbArc
 50
90.0
 51
180.0
  0
ELLIPSE
  5
26EED
330
747D
100
AcDbEntity
  8
部品1
 48
50.0
100
AcDbEllipse
 10
7960.326280946251
 20
2288.954196393637
 30
0.0
 11
18.4
 21
0.0
 31
0.0
210
0.0
220
0.0
230
1.0
 40
0.3478260869565217
 41
0.0
 42
6.283185307179586
  0
LINE
  5
26EEE
330
747D
100
AcDbEntity
  8
部品1
 48
50.0
100
AcDbLine
 10
8000.32628094625
 20
2279.354196393637
 30
0.0
 11
8000.32628094625
 21
2288.954196393637
 31
0.0
  0
LINE
  5
26EEF
330
747D
100
AcDbEntity
  8
部品1
 48
50.0
100
AcDbLine
 10
7928.32628094625
 20
2410.706189058507
 30
0.0
 11
7944.326280946251
 21
2402.706189058508
 31
0.0
  0
LINE
  5
26EF0
330
747D
100
AcDbEntity
  8
部品1
 48
50.0
100
AcDbLine
 10
7928.32628094625
 20
2378.706189058508
 30
0.0
 11
7944.326280946251
 21
2370.706189058507
 31
0.0
  0
LINE
  5
26EF1
330
747D
100
AcDbEntity
  8
部品1
 48
50.0
100
AcDbLine
 10
7928.32628094625
 20
2410.706189058507
 30
0.0
 11
7944.326280946251
 21
2418.706189058508
 31
0.0
  0
LINE
  5
26EF2
330
747D
100
AcDbEntity
  8
部品1
 48
50.0
100
AcDbLine
 10
7928.32628094625
 20
2378.706189058508
 30
0.0
 11
7928.32628094625
 21
2410.706189058507
 31
0.0
  0
LINE
  5
26EF3
330
747D
100
AcDbEntity
  8
部品1
 48
50.0
100
AcDbLine
 10
7944.326280946251
 20
2418.706189058508
 30
0.0
 11
7976.32628094625
 21
2418.706189058508
 31
0.0
  0
ELLIPSE
  5
26EF4
330
747D
100
AcDbEntity
  8
細線
 48
50.0
100
AcDbEllipse
 10
7960.326280946251
 20
2410.706189058507
 30
0.0
 11
14.76670786606846
 21
0.0
 31
0.0
210
0.0
220
0.0
230
1.0
 40
0.2071254069489396
 41
0.0
 42
6.283185307179586
  0
LINE
  5
26EF5
330
747D
100
AcDbEntity
  8
部品1
 48
50.0
100
AcDbLine
 10
7944.326280946251
 20
2370.706189058507
 30
0.0
 11
7976.32628094625
 21
2370.706189058507
 31
0.0
  0
LINE
  5
26EF6
330
747D
100
AcDbEntity
  8
部品1
 48
50.0
100
AcDbLine
 10
7976.32628094625
 20
2370.706189058507
 30
0.0
 11
7992.32628094625
 21
2378.706189058508
 31
0.0
  0
LINE
  5
26EF7
330
747D
100
AcDbEntity
  8
部品1
 48
50.0
100
AcDbLine
 10
7944.326280946251
 20
2402.706189058508
 30
0.0
 11
7976.32628094625
 21
2402.706189058508
 31
0.0
  0
LINE
  5
26EF8
330
747D
100
AcDbEntity
  8
部品1
 48
50.0
100
AcDbLine
 10
7976.32628094625
 20
2402.706189058508
 30
0.0
 11
7992.32628094625
 21
2410.706189058507
 31
0.0
  0
LINE
  5
26EF9
330
747D
100
AcDbEntity
  8
細線
 48
50.0
100
AcDbLine
 10
7976.32628094625
 20
2370.706189058507
 30
0.0
 11
7976.32628094625
 21
2402.706189058508
 31
0.0
  0
LINE
  5
26EFA
330
747D
100
AcDbEntity
  8
部品1
 48
50.0
100
AcDbLine
 10
7992.32628094625
 20
2378.706189058508
 30
0.0
 11
7992.32628094625
 21
2410.706189058507
 31
0.0
  0
LINE
  5
26EFB
330
747D
100
AcDbEntity
  8
細線
 48
50.0
100
AcDbLine
 10
7944.326280946251
 20
2370.706189058507
 30
0.0
 11
7944.326280946251
 21
2402.706189058508
 31
0.0
  0
LINE
  5
26EFC
330
747D
100
AcDbEntity
  8
部品1
 48
50.0
100
AcDbLine
 10
7976.32628094625
 20
2418.706189058508
 30
0.0
 11
7992.32628094625
 21
2410.706189058507
 31
0.0
  0
TEXT
  5
26EFD
330
747D
100
AcDbEntity
  8
部品1
100
AcDbText
 10
7661.09853013818
 20
3161.250595774782
 30
0.0
 40
120.0
  1
基礎詳細
  7
STYLE2
100
AcDbText
  0
LINE
  5
26EFE
330
747D
100
AcDbEntity
  8
部品1
100
AcDbLine
 10
11039.20371434604
 20
376.4955581415625
 30
0.0
 11
11039.20371434605
 21
3340.80252772621
 31
0.0
  0
LINE
  5
26EFF
330
747D
100
AcDbEntity
  8
細線
100
AcDbLine
 10
10047.09554692579
 20
1779.830907949365
 30
0.0
 11
9852.462213249008
 21
1974.464241626147
 31
0.0
  0
LINE
  5
26F00
330
747D
100
AcDbEntity
  8
部品1
100
AcDbLine
 10
9852.462213249008
 20
2019.830907949365
 30
0.0
 11
10332.462213249
 21
2019.830907949365
 31
0.0
  0
LINE
  5
26F01
330
747D
100
AcDbEntity
  8
細線
 48
50.0
100
AcDbLine
 10
9986.533097692268
 20
1560.131992296015
 30
0.0
 11
10020.83059432345
 21
1688.131992296014
 31
0.0
  0
LINE
  5
26F02
330
747D
100
AcDbEntity
  8
部品1
100
AcDbLine
 10
9732.462213249007
 20
1560.131992296011
 30
0.0
 11
10452.462213249
 21
1560.131992296015
 31
0.0
  0
LINE
  5
26F03
330
747D
100
AcDbEntity
  8
部品1
100
AcDbLine
 10
9732.462213249007
 20
1688.131992296015
 30
0.0
 11
10452.462213249
 21
1688.131992296017
 31
0.0
  0
LINE
  5
26F04
330
747D
100
AcDbEntity
  8
細線
100
AcDbLine
 10
9913.38085874225
 20
1688.131992296015
 30
0.0
 11
10005.07977439559
 21
1779.830907949365
 31
0.0
  0
LWPOLYLINE
  5
26F05
330
747D
100
AcDbEntity
  8
部品1
 48
50.0
100
AcDbPolyline
 90
        2
 70
     0
 43
12.0
 10
9467.850951148619
 20
1779.830907949365
 10
10668.94325428024
 20
1779.830907949365
  0
LINE
  5
26F06
330
747D
100
AcDbEntity
  8
細線
100
AcDbLine
 10
9996.18385868036
 20
1779.830907949365
 30
0.0
 11
9852.462213249008
 21
1923.552553380718
 31
0.0
  0
TEXT
  5
26F07
330
747D
100
AcDbEntity
  8
部品1
 48
50.0
100
AcDbText
 10
9088.344126490504
 20
1513.031167312056
 30
0.0
 40
80.0
  1
ボルトの出
 50
90.0
  7
STYLE2
100
AcDbText
  0
LINE
  5
26F08
330
747D
100
AcDbEntity
  8
部品1
100
AcDbLine
 10
9852.462213249008
 20
1779.830907949365
 30
0.0
 11
9852.462213249008
 21
2019.830907949365
 31
0.0
  0
LINE
  5
26F09
330
747D
100
AcDbEntity
  8
細線
 48
50.0
100
AcDbLine
 10
9828.757007797769
 20
1560.131992296014
 30
0.0
 11
9863.054504428951
 21
1688.131992296014
 31
0.0
  0
LINE
  5
26F0A
330
747D
100
AcDbEntity
  8
細線
 48
50.0
100
AcDbLine
 10
9907.645052745017
 20
1560.131992296015
 30
0.0
 11
9941.942549376204
 21
1688.131992296015
 31
0.0
  0
LINE
  5
26F0B
330
747D
100
AcDbEntity
  8
細線
 48
50.0
100
AcDbLine
 10
9749.86896285052
 20
1560.131992296015
 30
0.0
 11
9784.166459481705
 21
1688.131992296015
 31
0.0
  0
LINE
  5
26F0C
330
747D
100
AcDbEntity
  8
部品1
100
AcDbLine
 10
9732.462213249007
 20
1560.131992296011
 30
0.0
 11
9732.462213249007
 21
1779.830907949365
 31
0.0
  0
LINE
  5
26F0D
330
747D
100
AcDbEntity
  8
細線
 48
50.0
100
AcDbLine
 10
9835.187788416119
 20
1584.131992296015
 30
0.0
 11
9841.618569034469
 21
1560.131992296015
 31
0.0
  0
LINE
  5
26F0E
330
747D
100
AcDbEntity
  8
細線
 48
50.0
100
AcDbLine
 10
9756.29974346887
 20
1584.131992296015
 30
0.0
 11
9762.730524087217
 21
1560.131992296015
 31
0.0
  0
LINE
  5
26F0F
330
747D
100
AcDbEntity
  8
細線
 48
50.0
100
AcDbLine
 10
9914.075833363371
 20
1584.131992296015
 30
0.0
 11
9920.506613981718
 21
1560.131992296015
 31
0.0
  0
LINE
  5
26F10
330
747D
100
AcDbEntity
  8
細線
 48
50.0
100
AcDbLine
 10
9992.963878310618
 20
1584.131992296015
 30
0.0
 11
9999.394658928967
 21
1560.131992296015
 31
0.0
  0
LINE
  5
26F11
330
747D
100
AcDbEntity
  8
細線
 48
50.0
100
AcDbLine
 10
9777.73567886336
 20
1664.131992296014
 30
0.0
 11
9771.304898245009
 21
1688.131992296015
 31
0.0
  0
LINE
  5
26F12
330
747D
100
AcDbEntity
  8
細線
 48
50.0
100
AcDbLine
 10
9935.511768757862
 20
1664.131992296014
 30
0.0
 11
9929.080988139515
 21
1688.131992296015
 31
0.0
  0
LINE
  5
26F13
330
747D
100
AcDbEntity
  8
細線
 48
50.0
100
AcDbLine
 10
9856.623723810608
 20
1664.131992296014
 30
0.0
 11
9850.192943192261
 21
1688.131992296015
 31
0.0
  0
LINE
  5
26F14
330
747D
100
AcDbEntity
  8
細線
100
AcDbLine
 10
9845.498607748337
 20
1688.131992296015
 30
0.0
 11
9937.197523401687
 21
1779.830907949365
 31
0.0
  0
LINE
  5
26F15
330
747D
100
AcDbEntity
  8
細線
100
AcDbLine
 10
9879.439733245295
 20
1688.131992296015
 30
0.0
 11
9971.138648898639
 21
1779.830907949365
 31
0.0
  0
LINE
  5
26F16
330
747D
100
AcDbEntity
  8
細線
100
AcDbLine
 10
10267.71286265599
 20
1779.830907949365
 30
0.0
 11
10027.71286265599
 21
2019.830907949365
 31
0.0
  0
LINE
  5
26F17
330
747D
100
AcDbEntity
  8
細線
100
AcDbLine
 10
10318.62455090142
 20
1779.830907949367
 30
0.0
 11
10078.62455090143
 21
2019.830907949365
 31
0.0
  0
LINE
  5
26F18
330
747D
100
AcDbEntity
  8
部品1
100
AcDbLine
 10
10332.462213249
 20
2019.830907949365
 30
0.0
 11
10332.462213249
 21
1779.830907949365
 31
0.0
  0
LINE
  5
26F19
330
747D
100
AcDbEntity
  8
細線
 48
50.0
100
AcDbLine
 10
10302.08527748125
 20
1560.131992296012
 30
0.0
 11
10336.38277411244
 21
1688.131992296012
 31
0.0
  0
LINE
  5
26F1A
330
747D
100
AcDbEntity
  8
細線
100
AcDbLine
 10
10273.38085874225
 20
1688.131992296017
 30
0.0
 11
10365.07977439559
 21
1779.830907949365
 31
0.0
  0
LINE
  5
26F1B
330
747D
100
AcDbEntity
  8
細線
 48
50.0
100
AcDbLine
 10
10223.197232534
 20
1560.131992296014
 30
0.0
 11
10257.49472916518
 21
1688.131992296015
 31
0.0
  0
LINE
  5
26F1C
330
747D
100
AcDbEntity
  8
細線
 48
50.0
100
AcDbLine
 10
10065.42114263951
 20
1560.131992296014
 30
0.0
 11
10099.7186392707
 21
1688.131992296014
 31
0.0
  0
LINE
  5
26F1D
330
747D
100
AcDbEntity
  8
細線
 48
50.0
100
AcDbLine
 10
10144.30918758675
 20
1560.131992296015
 30
0.0
 11
10178.60668421794
 21
1688.131992296014
 31
0.0
  0
LINE
  5
26F1E
330
747D
100
AcDbEntity
  8
細線
 48
50.0
100
AcDbLine
 10
10150.73996820511
 20
1584.131992296015
 30
0.0
 11
10157.17074882345
 21
1560.131992296015
 31
0.0
  0
LINE
  5
26F1F
330
747D
100
AcDbEntity
  8
細線
 48
50.0
100
AcDbLine
 10
10071.85192325786
 20
1584.131992296015
 30
0.0
 11
10078.28270387621
 21
1560.131992296015
 31
0.0
  0
LINE
  5
26F20
330
747D
100
AcDbEntity
  8
細線
 48
50.0
100
AcDbLine
 10
10229.62801315235
 20
1584.131992296015
 30
0.0
 11
10236.05879377071
 21
1560.131992296015
 31
0.0
  0
LINE
  5
26F21
330
747D
100
AcDbEntity
  8
細線
 48
50.0
100
AcDbLine
 10
10308.5160580996
 20
1584.131992296014
 30
0.0
 11
10314.94683871795
 21
1560.131992296014
 31
0.0
  0
LINE
  5
26F22
330
747D
100
AcDbEntity
  8
細線
 48
50.0
100
AcDbLine
 10
10172.1759035996
 20
1664.131992296014
 30
0.0
 11
10165.74512298125
 21
1688.131992296015
 31
0.0
  0
LINE
  5
26F23
330
747D
100
AcDbEntity
  8
細線
 48
50.0
100
AcDbLine
 10
10093.28785865235
 20
1664.131992296014
 30
0.0
 11
10086.85707803401
 21
1688.131992296015
 31
0.0
  0
LINE
  5
26F24
330
747D
100
AcDbEntity
  8
細線
 48
50.0
100
AcDbLine
 10
10014.3998137051
 20
1664.131992296014
 30
0.0
 11
10007.96903308676
 21
1688.131992296015
 31
0.0
  0
LINE
  5
26F25
330
747D
100
AcDbEntity
  8
細線
100
AcDbLine
 10
10239.43973324529
 20
1688.131992296017
 30
0.0
 11
10331.13864889864
 21
1779.830907949365
 31
0.0
  0
LINE
  5
26F26
330
747D
100
AcDbEntity
  8
細線
 48
50.0
100
AcDbLine
 10
10251.06394854684
 20
1664.131992296014
 30
0.0
 11
10244.63316792849
 21
1688.131992296015
 31
0.0
  0
LINE
  5
26F27
330
747D
100
AcDbEntity
  8
細線
100
AcDbLine
 10
10205.49860774834
 20
1688.131992296017
 30
0.0
 11
10297.19752340168
 21
1779.830907949365
 31
0.0
  0
LINE
  5
26F28
330
747D
100
AcDbEntity
  8
細線
 48
50.0
100
AcDbLine
 10
10329.95199349409
 20
1664.131992296014
 30
0.0
 11
10323.52121287575
 21
1688.131992296014
 31
0.0
  0
LINE
  5
26F29
330
747D
100
AcDbEntity
  8
細線
 48
50.0
100
AcDbLine
 10
10380.9733224285
 20
1560.131992296014
 30
0.0
 11
10415.27081905968
 21
1688.131992296012
 31
0.0
  0
LINE
  5
26F2A
330
747D
100
AcDbEntity
  8
部品1
100
AcDbLine
 10
10452.462213249
 20
1779.830907949365
 30
0.0
 11
10452.46221324901
 21
1560.131992296015
 31
0.0
  0
LINE
  5
26F2B
330
747D
100
AcDbEntity
  8
細線
 48
50.0
100
AcDbLine
 10
10387.40410304685
 20
1584.131992296014
 30
0.0
 11
10393.8348836652
 21
1560.131992296014
 31
0.0
  0
LINE
  5
26F2C
330
747D
100
AcDbEntity
  8
細線
 48
50.0
100
AcDbLine
 10
10408.84003844134
 20
1664.131992296014
 30
0.0
 11
10402.40925782299
 21
1688.131992296014
 31
0.0
  0
LEADER
  5
26F2D
330
747D
100
AcDbEntity
  8
寸法
 48
50.0
100
AcDbLeader
  3
INABA_S50G
 73
     0
 74
     0
 75
     1
 40
120.0
 41
185.591883092037
 76
     3
 10
10263.18662486493
 20
2019.830907949365
 30
0.0
 10
10296.32483149857
 20
2191.977228630503
 30
0.0
 10
10421.32483149857
 20
2191.977228630503
 30
0.0
340
26F2E
1001
ACAD
1000
DSTYLE
1002
{
1070
    40
1040
1.0
1002
}
  0
MTEXT
  5
26F2E
102
{ACAD_REACTORS
330
26F2D
102
}
330
747D
100
AcDbEntity
  8
寸法
 62
     7
 48
50.0
100
AcDbMText
 10
10446.32483149857
 20
2276.977228630503
 30
0.0
 40
120.0
 41
0.8
 71
     4
 72
     1
  1
\A1;C.B
  7
STYLE1
 73
     1
 44
1.0
1001
ACAD
1000
MTEXTBEGIN
1070
    73
1070
     1
1070
    44
1040
1.0
1070
    74
1070
     0
1000
MTEXTEND
  0
ENDSEC
  0
SECTION
  2
OBJECTS
  0
DICTIONARY
  5
7471
330
0
100
AcDbDictionary
281
     1
  3
ACAD_COLOR
350
173D2
  3
ACAD_GROUP
350
7472
  3
ACAD_LAYOUT
350
173D3
  3
ACAD_MATERIAL
350
173D1
  3
ACAD_MLINESTYLE
350
7473
  3
ACAD_PLOTSETTINGS
350
173D4
  3
ACAD_PLOTSTYLENAME
350
173CF
  3
ACDBHEADERROUNDTRIPXREC
350
26FC5
  3
AcDbVariableDictionary
350
26FC1
  3
CONTENTDICTIONARY
350
E71C
  3
DRAWINGVARIABLESDICT
350
F3B9
  0
DICTIONARY
  5
1758F
330
7467
100
AcDbDictionary
280
     1
281
     1
  3
ACAD_LAYERSTATES
360
17590
  0
DICTIONARY
  5
173D2
102
{ACAD_REACTORS
330
7471
102
}
330
7471
100
AcDbDictionary
281
     1
  0
DICTIONARY
  5
7472
102
{ACAD_REACTORS
330
7471
102
}
330
7471
100
AcDbDictionary
281
     1
  3
*A1
350
1D2A9
  0
DICTIONARY
  5
173D3
102
{ACAD_REACTORS
330
7471
102
}
330
7471
100
AcDbDictionary
281
     1
  3
Model
350
173D5
  3
レイアウト1
350
173D6
  0
DICTIONARY
  5
173D1
102
{ACAD_REACTORS
330
7471
102
}
330
7471
100
AcDbDictionary
281
     1
  0
DICTIONARY
  5
7473
102
{ACAD_REACTORS
330
7471
102
}
330
7471
100
AcDbDictionary
281
     1
  3
STANDARD
350
7480
  0
DICTIONARY
  5
173D4
102
{ACAD_REACTORS
330
7471
102
}
330
7471
100
AcDbDictionary
281
     1
  0
ACDBDICTIONARYWDFLT
  5
173CF
102
{ACAD_REACTORS
330
7471
102
}
330
7471
100
AcDbDictionary
281
     1
  3
Normal
350
173D0
100
AcDbDictionaryWithDefault
340
173D0
  0
DICTIONARY
  5
26FC5
102
{ACAD_REACTORS
330
7471
102
}
330
7471
100
AcDbDictionary
281
     1
  3
COLORDICT
350
26FC7
  3
MATERIALDICT
350
26FC6
  0
DICTIONARY
  5
26FC1
102
{ACAD_REACTORS
330
7471
102
}
330
7471
100
AcDbDictionary
281
     1
  3
DIMASSOC
350
26FC2
  3
PROJECTNAME
350
26FC3
  0
DICTIONARY
  5
E71C
102
{ACAD_REACTORS
330
7471
102
}
330
7471
100
AcDbDictionary
281
     1
  0
DICTIONARY
  5
F3B9
102
{ACAD_REACTORS
330
7471
102
}
330
7471
100
AcDbDictionary
281
     1
1001
DRAWINGVARIABLESXDATA
1000
POLARMODE
1000
1
  0
DICTIONARY
  5
17590
102
{ACAD_REACTORS
330
1758F
102
}
330
1758F
100
AcDbDictionary
281
     1
  0
GROUP
  5
1D2A9
102
{ACAD_REACTORS
330
7472
102
}
330
7472
100
AcDbGroup
300

 70
     1
 71
     1
  0
LAYOUT
  5
173D5
102
{ACAD_XDICTIONARY
360
26FC8
102
}
102
{ACAD_REACTORS
330
173D3
102
}
330
173D3
100
AcDbPlotSettings
  1

  2
クセロPDFよこ.pc3
  4
A3
  6

 40
3.174999952316284
 41
3.174999952316284
 42
3.17498779296875
 43
3.17498779296875
 44
419.9466552734374
 45
296.9259948730469
 46
0.0
 47
0.0
 48
0.0
 49
0.0
140
0.0
141
0.0
142
1.0
143
40.0
 70
 11952
 72
     1
 73
     0
 74
     2
  7
ACA3.ctb
 75
    24
147
0.025
148
0.0
149
0.0
100
AcDbLayout
  1
Model
 70
     1
 71
     0
 10
0.0
 20
0.0
 11
12.0
 21
9.0
 12
0.0
 22
0.0
 32
0.0
 14
0.0
 24
0.0
 34
0.0
 15
0.0
 25
0.0
 35
0.0
146
0.0
 13
0.0
 23
0.0
 33
0.0
 16
1.0
 26
0.0
 36
0.0
 17
0.0
 27
1.0
 37
0.0
 76
     0
330
747D
  0
LAYOUT
  5
173D6
102
{ACAD_XDICTIONARY
360
26FCA
102
}
102
{ACAD_REACTORS
330
173D3
102
}
330
173D3
100
AcDbPlotSettings
  1

  2
Microsoft Office Document Image Writer
  4

  6

 40
0.0
 41
0.0
 42
0.0
 43
0.0
 44
0.0
 45
0.0
 46
0.0
 47
0.0
 48
0.0
 49
0.0
140
0.0
141
0.0
142
1.0
143
1.0
 70
   688
 72
     0
 73
     0
 74
     5
  7
ACA3.ctb
 75
    16
147
1.0
148
0.0
149
0.0
100
AcDbLayout
  1
レイアウト1
 70
     0
 71
     1
 10
0.0
 20
0.0
 11
420.0
 21
297.0
 12
0.0
 22
0.0
 32
0.0
 14
1.000000000000000E+20
 24
1.000000000000000E+20
 34
1.000000000000000E+20
 15
-1.000000000000000E+20
 25
-1.000000000000000E+20
 35
-1.000000000000000E+20
146
0.0
 13
0.0
 23
0.0
 33
0.0
 16
1.0
 26
0.0
 36
0.0
 17
0.0
 27
1.0
 37
0.0
 76
     0
330
747A
  0
MLINESTYLE
  5
7480
102
{ACAD_REACTORS
330
7473
102
}
330
7473
100
AcDbMlineStyle
  2
STANDARD
 70
     0
  3

 62
     0
 51
90.0
 52
90.0
 71
     2
 49
0.5
 62
   256
  6
BYLAYER
 49
-0.5
 62
   256
  6
BYLAYER
  0
ACDBPLACEHOLDER
  5
173D0
102
{ACAD_REACTORS
330
173CF
102
}
330
173CF
  0
XRECORD
  5
26FC7
102
{ACAD_REACTORS
330
26FC5
102
}
330
26FC5
100
AcDbXrecord
280
     1
340
173D2
  0
XRECORD
  5
26FC6
102
{ACAD_REACTORS
330
26FC5
102
}
330
26FC5
100
AcDbXrecord
280
     1
340
173D1
  0
DICTIONARYVAR
  5
26FC2
102
{ACAD_REACTORS
330
26FC1
102
}
330
26FC1
100
DictionaryVariables
280
     0
  1
1
  0
DICTIONARYVAR
  5
26FC3
102
{ACAD_REACTORS
330
26FC1
102
}
330
26FC1
100
DictionaryVariables
280
     0
  1

  0
DICTIONARY
  5
26FC8
330
173D5
100
AcDbDictionary
280
     1
281
     1
  3
ACAD_XREC_ROUNDTRIP
360
26FC9
  0
DICTIONARY
  5
26FCA
330
173D6
100
AcDbDictionary
280
     1
281
     1
  3
ACAD_XREC_ROUNDTRIP
360
26FCB
  0
XRECORD
  5
26FC9
102
{ACAD_REACTORS
330
26FC8
102
}
330
26FC8
100
AcDbXrecord
280
     1
102
SHADEPLOT
 70
     0
102
SHADEPLOTRESLEVEL
 70
     2
102
SHADEPLOTCUSTOMDPI
 70
   150
  0
XRECORD
  5
26FCB
102
{ACAD_REACTORS
330
26FCA
102
}
330
26FCA
100
AcDbXrecord
280
     1
102
SHADEPLOT
 70
     0
102
SHADEPLOTRESLEVEL
 70
     2
102
SHADEPLOTCUSTOMDPI
 70
   300
  0
ENDSEC
  0
EOF
