  0
SECTION
  2
HEADER
  9
$ACADVER
  1
AC1015
  9
$ACADMAINTVER
 70
    20
  9
$DWGCODEPAGE
  3
ANSI_932
  9
$INSBASE
 10
0.0
 20
0.0
 30
0.0
  9
$EXTMIN
 10
139.9999999999995
 20
-0.0000000000000909
 30
0.0
  9
$EXTMAX
 10
16307.2
 20
11409.6
 30
0.0
  9
$LIMMIN
 10
0.0
 20
0.0
  9
$LIMMAX
 10
16800.0
 20
11880.0
  9
$ORTHOMODE
 70
     0
  9
$REGENMODE
 70
     1
  9
$FILLMODE
 70
     1
  9
$QTEXTMODE
 70
     0
  9
$MIRRTEXT
 70
     1
  9
$LTSCALE
 40
20.0
  9
$ATTMODE
 70
     1
  9
$TEXTSIZE
 40
4.0
  9
$TRACEWID
 40
1.0
  9
$TEXTSTYLE
  7
STYLE1
  9
$CLAYER
  8
細線
  9
$CELTYPE
  6
BYLAYER
  9
$CECOLOR
 62
   256
  9
$CELTSCALE
 40
50.0
  9
$DISPSILH
 70
     0
  9
$DIMSCALE
 40
40.0
  9
$DIMASZ
 40
2.5
  9
$DIMEXO
 40
0.5
  9
$DIMDLI
 40
7.0
  9
$DIMRND
 40
0.0
  9
$DIMDLE
 40
0.0
  9
$DIMEXE
 40
1.5
  9
$DIMTP
 40
0.0
  9
$DIMTM
 40
0.0
  9
$DIMTXT
 40
3.0
  9
$DIMCEN
 40
0.0
  9
$DIMTSZ
 40
0.0
  9
$DIMTOL
 70
     0
  9
$DIMLIM
 70
     0
  9
$DIMTIH
 70
     0
  9
$DIMTOH
 70
     0
  9
$DIMSE1
 70
     0
  9
$DIMSE2
 70
     0
  9
$DIMTAD
 70
     3
  9
$DIMZIN
 70
     8
  9
$DIMBLK
  1

  9
$DIMASO
 70
     1
  9
$DIMSHO
 70
     1
  9
$DIMPOST
  1

  9
$DIMAPOST
  1

  9
$DIMALT
 70
     0
  9
$DIMALTD
 70
     2
  9
$DIMALTF
 40
0.0394
  9
$DIMLFAC
 40
1.0
  9
$DIMTOFL
 70
     1
  9
$DIMTVP
 40
0.0
  9
$DIMTIX
 70
     1
  9
$DIMSOXD
 70
     0
  9
$DIMSAH
 70
     1
  9
$DIMBLK1
  1
DOTSMALL
  9
$DIMBLK2
  1
DOTSMALL
  9
$DIMSTYLE
  2
INABA_S40G
  9
$DIMCLRD
 70
     0
  9
$DIMCLRE
 70
     0
  9
$DIMCLRT
 70
     7
  9
$DIMTFAC
 40
1.0
  9
$DIMGAP
 40
1.0
  9
$DIMJUST
 70
     0
  9
$DIMSD1
 70
     0
  9
$DIMSD2
 70
     0
  9
$DIMTOLJ
 70
     1
  9
$DIMTZIN
 70
     0
  9
$DIMALTZ
 70
     0
  9
$DIMALTTZ
 70
     0
  9
$DIMUPT
 70
     0
  9
$DIMDEC
 70
     1
  9
$DIMTDEC
 70
     4
  9
$DIMALTU
 70
     2
  9
$DIMALTTD
 70
     2
  9
$DIMTXSTY
  7
STYLE1
  9
$DIMAUNIT
 70
     0
  9
$DIMADEC
 70
     0
  9
$DIMALTRND
 40
0.0
  9
$DIMAZIN
 70
     0
  9
$DIMDSEP
 70
    46
  9
$DIMATFIT
 70
     3
  9
$DIMFRAC
 70
     0
  9
$DIMLDRBLK
  1

  9
$DIMLUNIT
 70
     2
  9
$DIMLWD
 70
    -2
  9
$DIMLWE
 70
    -2
  9
$DIMTMOVE
 70
     0
  9
$LUNITS
 70
     2
  9
$LUPREC
 70
     1
  9
$SKETCHINC
 40
1.0
  9
$FILLETRAD
 40
3.0
  9
$AUNITS
 70
     0
  9
$AUPREC
 70
     0
  9
$MENU
  1
acad
  9
$ELEVATION
 40
0.0
  9
$PELEVATION
 40
0.0
  9
$THICKNESS
 40
0.0
  9
$LIMCHECK
 70
     0
  9
$CHAMFERA
 40
0.0
  9
$CHAMFERB
 40
0.0
  9
$CHAMFERC
 40
0.0
  9
$CHAMFERD
 40
0.0
  9
$SKPOLY
 70
     0
  9
$TDCREATE
 40
2451368.612993866
  9
$TDUCREATE
 40
2451368.237993866
  9
$TDUPDATE
 40
2455827.671370579
  9
$TDUUPDATE
 40
2455827.296370579
  9
$TDINDWG
 40
0.8237916204
  9
$TDUSRTIMER
 40
0.8237916204
  9
$USRTIMER
 70
     1
  9
$ANGBASE
 50
0.0
  9
$ANGDIR
 70
     0
  9
$PDMODE
 70
     3
  9
$PDSIZE
 40
2.0
  9
$PLINEWID
 40
0.0
  9
$SPLFRAME
 70
     0
  9
$SPLINETYPE
 70
     6
  9
$SPLINESEGS
 70
     8
  9
$HANDSEED
  5
26D54
  9
$SURFTAB1
 70
     6
  9
$SURFTAB2
 70
     6
  9
$SURFTYPE
 70
     6
  9
$SURFU
 70
     6
  9
$SURFV
 70
     6
  9
$UCSBASE
  2

  9
$UCSNAME
  2

  9
$UCSORG
 10
0.0
 20
0.0
 30
0.0
  9
$UCSXDIR
 10
1.0
 20
0.0
 30
0.0
  9
$UCSYDIR
 10
0.0
 20
1.0
 30
0.0
  9
$UCSORTHOREF
  2

  9
$UCSORTHOVIEW
 70
     0
  9
$UCSORGTOP
 10
0.0
 20
0.0
 30
0.0
  9
$UCSORGBOTTOM
 10
0.0
 20
0.0
 30
0.0
  9
$UCSORGLEFT
 10
0.0
 20
0.0
 30
0.0
  9
$UCSORGRIGHT
 10
0.0
 20
0.0
 30
0.0
  9
$UCSORGFRONT
 10
0.0
 20
0.0
 30
0.0
  9
$UCSORGBACK
 10
0.0
 20
0.0
 30
0.0
  9
$PUCSBASE
  2

  9
$PUCSNAME
  2

  9
$PUCSORG
 10
0.0
 20
0.0
 30
0.0
  9
$PUCSXDIR
 10
1.0
 20
0.0
 30
0.0
  9
$PUCSYDIR
 10
0.0
 20
1.0
 30
0.0
  9
$PUCSORTHOREF
  2

  9
$PUCSORTHOVIEW
 70
     0
  9
$PUCSORGTOP
 10
0.0
 20
0.0
 30
0.0
  9
$PUCSORGBOTTOM
 10
0.0
 20
0.0
 30
0.0
  9
$PUCSORGLEFT
 10
0.0
 20
0.0
 30
0.0
  9
$PUCSORGRIGHT
 10
0.0
 20
0.0
 30
0.0
  9
$PUCSORGFRONT
 10
0.0
 20
0.0
 30
0.0
  9
$PUCSORGBACK
 10
0.0
 20
0.0
 30
0.0
  9
$USERI1
 70
     0
  9
$USERI2
 70
     0
  9
$USERI3
 70
     0
  9
$USERI4
 70
     0
  9
$USERI5
 70
     0
  9
$USERR1
 40
0.0
  9
$USERR2
 40
0.0
  9
$USERR3
 40
0.0
  9
$USERR4
 40
0.0
  9
$USERR5
 40
0.0
  9
$WORLDVIEW
 70
     1
  9
$SHADEDGE
 70
     3
  9
$SHADEDIF
 70
    70
  9
$TILEMODE
 70
     1
  9
$MAXACTVP
 70
    16
  9
$PINSBASE
 10
0.0
 20
0.0
 30
0.0
  9
$PLIMCHECK
 70
     0
  9
$PEXTMIN
 10
1.000000000000000E+20
 20
1.000000000000000E+20
 30
1.000000000000000E+20
  9
$PEXTMAX
 10
-1.000000000000000E+20
 20
-1.000000000000000E+20
 30
-1.000000000000000E+20
  9
$PLIMMIN
 10
0.0
 20
0.0
  9
$PLIMMAX
 10
420.0
 20
297.0
  9
$UNITMODE
 70
     0
  9
$VISRETAIN
 70
     0
  9
$PLINEGEN
 70
     0
  9
$PSLTSCALE
 70
     0
  9
$TREEDEPTH
 70
  3020
  9
$CMLSTYLE
  2
STANDARD
  9
$CMLJUST
 70
     0
  9
$CMLSCALE
 40
1.0
  9
$PROXYGRAPHICS
 70
     1
  9
$MEASUREMENT
 70
     1
  9
$CELWEIGHT
370
    -1
  9
$ENDCAPS
280
     0
  9
$JOINSTYLE
280
     0
  9
$LWDISPLAY
290
     0
  9
$INSUNITS
 70
     0
  9
$HYPERLINKBASE
  1

  9
$STYLESHEET
  1
ACA3.ctb
  9
$XEDIT
290
     1
  9
$CEPSNTYPE
380
     0
  9
$PSTYLEMODE
290
     1
  9
$FINGERPRINTGUID
  2
{5EAC461A-2277-4BF8-9AB0-99C43BB394F0}
  9
$VERSIONGUID
  2
{FB1036D0-AAF1-46C5-B7E0-81FE6F784AC4}
  9
$EXTNAMES
290
     1
  9
$PSVPSCALE
 40
0.0
  9
$OLESTARTUP
290
     0
  0
ENDSEC
  0
SECTION
  2
CLASSES
  0
CLASS
  1
ACDBDICTIONARYWDFLT
  2
AcDbDictionaryWithDefault
  3
ObjectDBX Classes
 90
        0
280
     0
281
     0
  0
CLASS
  1
DICTIONARYVAR
  2
AcDbDictionaryVar
  3
ObjectDBX Classes
 90
        0
280
     0
281
     0
  0
CLASS
  1
ACDBPLACEHOLDER
  2
AcDbPlaceHolder
  3
ObjectDBX Classes
 90
        0
280
     0
281
     0
  0
CLASS
  1
LAYOUT
  2
AcDbLayout
  3
ObjectDBX Classes
 90
        0
280
     0
281
     0
  0
ENDSEC
  0
SECTION
  2
TABLES
  0
TABLE
  2
VPORT
  5
746D
330
0
100
AcDbSymbolTable
 70
     2
  0
VPORT
  5
26D4C
330
746D
100
AcDbSymbolTableRecord
100
AcDbViewportTableRecord
  2
*Active
 70
     0
 10
0.0
 20
0.0
 11
1.0
 21
1.0
 12
8400.0
 22
6549.78343810319
 13
0.0
 23
0.0
 14
10.0
 24
10.0
 15
10.0
 25
10.0
 16
0.0
 26
0.0
 36
1.0
 17
0.0
 27
0.0
 37
0.0
 40
13195.93622444292
 41
1.522222222222222
 42
50.0
 43
0.0
 44
0.0
 50
0.0
 51
0.0
 71
     0
 72
     0
 73
     1
 74
     0
 75
     0
 76
     0
 77
     0
 78
     0
281
     0
 65
     1
110
0.0
120
0.0
130
0.0
111
1.0
121
0.0
131
0.0
112
0.0
122
1.0
132
0.0
 79
     0
146
0.0
  0
ENDTAB
  0
TABLE
  2
LTYPE
  5
746A
330
0
100
AcDbSymbolTable
 70
     5
  0
LTYPE
  5
7477
330
746A
100
AcDbSymbolTableRecord
100
AcDbLinetypeTableRecord
  2
BYBLOCK
 70
     0
  3

 72
    65
 73
     0
 40
0.0
  0
LTYPE
  5
7478
330
746A
100
AcDbSymbolTableRecord
100
AcDbLinetypeTableRecord
  2
BYLAYER
 70
     0
  3

 72
    65
 73
     0
 40
0.0
  0
LTYPE
  5
7479
330
746A
100
AcDbSymbolTableRecord
100
AcDbLinetypeTableRecord
  2
CONTINUOUS
 70
     0
  3
Solid line
 72
    65
 73
     0
 40
0.0
  0
LTYPE
  5
7816
330
746A
100
AcDbSymbolTableRecord
100
AcDbLinetypeTableRecord
  2
CENTER
 70
     0
  3
____ _ ____ _ ____ _ ____ _ ____ _ ____ _ ____ 
 72
    65
 73
     4
 40
2.0
 49
1.25
 74
     0
 49
-0.25
 74
     0
 49
0.25
 74
     0
 49
-0.25
 74
     0
  0
LTYPE
  5
781A
330
746A
100
AcDbSymbolTableRecord
100
AcDbLinetypeTableRecord
  2
HIDDEN
 70
     0
  3
__ __ __ __ __ __ __ __ __ __ __ __ __ __ __ __
 72
    65
 73
     2
 40
0.375
 49
0.25
 74
     0
 49
-0.125
 74
     0
  0
LTYPE
  5
781B
330
746A
100
AcDbSymbolTableRecord
100
AcDbLinetypeTableRecord
  2
PHANTOM
 70
     0
  3
______  __  __  ______  __  __  ______  __  __ 
 72
    65
 73
     6
 40
2.5
 49
1.25
 74
     0
 49
-0.25
 74
     0
 49
0.25
 74
     0
 49
-0.25
 74
     0
 49
0.25
 74
     0
 49
-0.25
 74
     0
  0
LTYPE
  5
12CC3
330
746A
100
AcDbSymbolTableRecord
100
AcDbLinetypeTableRecord
  2
HIDDENX2
 70
     0
  3
Hidden (2x) ____ ____ ____ ____ ____ ____ ____
 72
    65
 73
     2
 40
19.05
 49
12.7
 74
     0
 49
-6.349999999999999
 74
     0
  0
ENDTAB
  0
TABLE
  2
LAYER
  5
7467
102
{ACAD_XDICTIONARY
360
1758F
102
}
330
0
100
AcDbSymbolTable
 70
    12
  0
LAYER
  5
7474
330
7467
100
AcDbSymbolTableRecord
100
AcDbLayerTableRecord
  2
0
 70
     0
 62
     7
  6
CONTINUOUS
370
    -3
390
173D0
  0
LAYER
  5
DEB2
330
7467
100
AcDbSymbolTableRecord
100
AcDbLayerTableRecord
  2
センター
 70
     0
 62
     3
  6
CENTER
370
    -3
390
173D0
  0
LAYER
  5
DEB3
330
7467
100
AcDbSymbolTableRecord
100
AcDbLayerTableRecord
  2
寸法
 70
     0
 62
     4
  6
CONTINUOUS
370
    -3
390
173D0
  0
LAYER
  5
DEB4
330
7467
100
AcDbSymbolTableRecord
100
AcDbLayerTableRecord
  2
部品1
 70
     0
 62
     7
  6
CONTINUOUS
370
    -3
390
173D0
  0
LAYER
  5
DEB5
330
7467
100
AcDbSymbolTableRecord
100
AcDbLayerTableRecord
  2
補助
 70
     0
 62
    -1
  6
CONTINUOUS
370
    -3
390
173D0
  0
LAYER
  5
DEB6
330
7467
100
AcDbSymbolTableRecord
100
AcDbLayerTableRecord
  2
文字
 70
     0
 62
     7
  6
CONTINUOUS
370
    -3
390
173D0
  0
LAYER
  5
F255
330
7467
100
AcDbSymbolTableRecord
100
AcDbLayerTableRecord
  2
DEFPOINTS
 70
     0
 62
     7
  6
CONTINUOUS
290
     0
370
    -3
390
173D0
  0
LAYER
  5
10B54
330
7467
100
AcDbSymbolTableRecord
100
AcDbLayerTableRecord
  2
仕様書枠
 70
     0
 62
   230
  6
CONTINUOUS
370
    -3
390
173D0
  0
LAYER
  5
11729
330
7467
100
AcDbSymbolTableRecord
100
AcDbLayerTableRecord
  2
Ｇ．Ｌ
 70
     0
 62
    30
  6
CONTINUOUS
370
    -3
390
173D0
  0
LAYER
  5
1173F
330
7467
100
AcDbSymbolTableRecord
100
AcDbLayerTableRecord
  2
細線
 70
     0
 62
     5
  6
CONTINUOUS
370
    -3
390
173D0
  0
LAYER
  5
12CC4
330
7467
100
AcDbSymbolTableRecord
100
AcDbLayerTableRecord
  2
想像線
 70
     0
 62
     6
  6
PHANTOM
370
    -3
390
173D0
  0
LAYER
  5
142E2
330
7467
100
AcDbSymbolTableRecord
100
AcDbLayerTableRecord
  2
破線
 70
     0
 62
     2
  6
HIDDEN
370
    -3
390
173D0
  0
ENDTAB
  0
TABLE
  2
STYLE
  5
7468
330
0
100
AcDbSymbolTable
 70
     7
  0
STYLE
  5
7475
330
7468
100
AcDbSymbolTableRecord
100
AcDbTextStyleTableRecord
  2
STANDARD
 70
     0
 40
0.0
 41
1.0
 50
0.0
 71
     0
 42
4.0
  3
txt
  4
C:\AutoCAD LT\bigfont.shx
  0
STYLE
  5
763C
330
7468
100
AcDbSymbolTableRecord
100
AcDbTextStyleTableRecord
  2
MSMINCHO
 70
     0
 40
0.0
 41
1.0
 50
0.0
 71
     0
 42
1.199999999999999
  3
C:\AutoCAD LT\msminch2.TTF
  4

  0
STYLE
  5
F706
330
7468
100
AcDbSymbolTableRecord
100
AcDbTextStyleTableRecord
  2
STYLE1
 70
     0
 40
0.0
 41
1.0
 50
0.0
 71
     0
 42
4.0
  3
isocp.shx
  4
bigfont.shx
  0
STYLE
  5
103BF
330
7468
100
AcDbSymbolTableRecord
100
AcDbTextStyleTableRecord
  2
STYLE2
 70
     0
 40
0.0
 41
1.0
 50
0.0
 71
     0
 42
100.0
  3
MS PGothic.ttf
  4

1001
ACAD
1000
MS PGothic
1071
    32818
  0
STYLE
  5
10BAA
330
7468
100
AcDbSymbolTableRecord
100
AcDbTextStyleTableRecord
  2
STYLE3
 70
     0
 40
0.0
 41
1.0
 50
0.0
 71
     0
 42
100.0
  3

  4

1001
ACAD
1000
DFPGothic-EB
1071
    32818
  0
STYLE
  5
11A15
330
7468
100
AcDbSymbolTableRecord
100
AcDbTextStyleTableRecord
  2
MSGOTHIC
 70
     0
 40
0.0
 41
1.0
 50
0.0
 71
     0
 42
3.5
  3
msgothi2.ttf
  4

  0
STYLE
  5
13E96
330
7468
100
AcDbSymbolTableRecord
100
AcDbTextStyleTableRecord
  2
MSPゴシック
 70
     0
 40
0.0
 41
1.0
 50
0.0
 71
     0
 42
4.0
  3
MS PGothic.ttf
  4

1001
ACAD
1000
MS PGothic
1071
    32818
  0
ENDTAB
  0
TABLE
  2
VIEW
  5
746B
330
0
100
AcDbSymbolTable
 70
     0
  0
ENDTAB
  0
TABLE
  2
UCS
  5
746C
330
0
100
AcDbSymbolTable
 70
     0
  0
ENDTAB
  0
TABLE
  2
APPID
  5
746E
330
0
100
AcDbSymbolTable
 70
     6
  0
APPID
  5
7476
330
746E
100
AcDbSymbolTableRecord
100
AcDbRegAppTableRecord
  2
ACAD
 70
     0
  0
APPID
  5
DEA9
330
746E
100
AcDbSymbolTableRecord
100
AcDbRegAppTableRecord
  2
CONTENTBLOCKICON
 70
     0
  0
APPID
  5
DEAA
330
746E
100
AcDbSymbolTableRecord
100
AcDbRegAppTableRecord
  2
CONTENTBLOCKDESCRIPTION
 70
     0
  0
APPID
  5
E71D
330
746E
100
AcDbSymbolTableRecord
100
AcDbRegAppTableRecord
  2
CONTENTTABDATA
 70
     0
  0
APPID
  5
E71E
330
746E
100
AcDbSymbolTableRecord
100
AcDbRegAppTableRecord
  2
CONTENTCURRENTTAB
 70
     0
  0
APPID
  5
F3BA
330
746E
100
AcDbSymbolTableRecord
100
AcDbRegAppTableRecord
  2
DRAWINGVARIABLESXDATA
 70
     0
  0
ENDTAB
  0
TABLE
  2
DIMSTYLE
  5
746F
330
0
100
AcDbSymbolTable
 70
     6
100
AcDbDimStyleTable
 71
     1
340
F71F
  0
DIMSTYLE
105
7484
330
746F
100
AcDbSymbolTableRecord
100
AcDbDimStyleTableRecord
  2
JIS
 70
     0
 41
2.5
 42
1.0
 43
7.0
 44
1.0
 73
     0
 74
     0
 77
     1
 78
     8
140
2.5
141
0.0
143
0.0394
147
0.0
172
     1
174
     1
175
     1
340
7475
  0
DIMSTYLE
105
F236
330
746F
100
AcDbSymbolTableRecord
100
AcDbDimStyleTableRecord
  2
INABA_S40
 70
     0
 40
40.0
 41
2.5
 42
0.5
 43
7.0
 44
1.5
 73
     0
 74
     0
 77
     3
 78
     8
140
3.0
141
0.0
143
0.0394
147
1.0
172
     1
173
     1
174
     1
175
     1
178
     7
289
     0
340
7475
341
DEAC
343
DEAC
344
DEAC
  0
DIMSTYLE
105
F71F
102
{ACAD_REACTORS
330
24BE8
330
24BD3
330
24BCB
330
24BBF
330
24BAD
330
24BA6
330
24BA5
330
24BA7
330
24C02
330
24BCD
330
24BC6
330
24BC0
330
24BBD
330
24BA8
330
24BA1
330
24BA0
330
24B99
330
25649
330
2564A
330
25AC2
330
25AC3
330
25AC4
330
25AC8
330
25B25
330
25B26
330
25F76
330
25F79
330
25F7A
330
25F7F
330
26B80
330
26B81
330
26B89
330
26B90
330
26B93
330
26BF3
102
}
330
746F
100
AcDbSymbolTableRecord
100
AcDbDimStyleTableRecord
  2
INABA_S40G
 70
     0
 40
40.0
 41
2.5
 42
0.5
 43
7.0
 44
1.5
 73
     0
 74
     0
 77
     3
 78
     8
140
3.0
141
0.0
143
0.0394
147
1.0
172
     1
173
     1
174
     1
178
     7
271
     1
340
F706
341
F770
343
F770
344
F770
  0
DIMSTYLE
105
142E3
330
746F
100
AcDbSymbolTableRecord
100
AcDbDimStyleTableRecord
  2
INABA_S1
 70
     0
 40
0.0
 41
2.5
 42
0.5
 43
7.0
 44
1.5
 73
     0
 74
     0
 77
     3
 78
     8
140
3.0
141
0.0
143
0.0394
146
0.5
147
0.5
172
     1
173
     1
176
   256
177
   256
178
     7
271
     2
272
     2
284
     8
288
     1
340
7475
341
DEAC
343
DEAC
344
DEAC
  0
DIMSTYLE
105
14463
330
746F
100
AcDbSymbolTableRecord
100
AcDbDimStyleTableRecord
  2
INABA_S30G
 70
     0
 40
30.0
 41
2.5
 42
0.5
 43
7.0
 44
1.5
 73
     0
 74
     0
 77
     3
 78
     8
140
3.0
141
0.0
143
0.0394
147
1.0
172
     1
173
     1
174
     1
175
     1
178
     7
271
     1
340
F706
341
F770
343
F770
344
F770
  0
DIMSTYLE
105
1758E
330
746F
100
AcDbSymbolTableRecord
100
AcDbDimStyleTableRecord
  2
INABA_S50G
 70
     0
 41
125.0
 42
25.0
 43
7.0
 44
75.0
 73
     0
 74
     0
 77
     3
 78
     8
140
150.0
141
0.0
143
0.0394
147
25.0
172
     1
173
     1
174
     1
175
     1
178
     7
271
     1
340
F706
341
F770
343
F770
344
F770
  0
ENDTAB
  0
TABLE
  2
BLOCK_RECORD
  5
7466
330
0
100
AcDbSymbolTable
 70
    54
  0
BLOCK_RECORD
  5
747D
330
7466
100
AcDbSymbolTableRecord
100
AcDbBlockTableRecord
  2
*MODEL_SPACE
340
173D5
  0
BLOCK_RECORD
  5
747A
330
7466
100
AcDbSymbolTableRecord
100
AcDbBlockTableRecord
  2
*PAPER_SPACE
340
173D6
  0
BLOCK_RECORD
  5
DEAC
330
7466
100
AcDbSymbolTableRecord
100
AcDbBlockTableRecord
  2
_OPEN
340
0
  0
BLOCK_RECORD
  5
F770
330
7466
100
AcDbSymbolTableRecord
100
AcDbBlockTableRecord
  2
_DOTSMALL
340
0
102
{BLKREFS
331
18C65
331
18C66
331
18C59
331
18C5A
331
18C4D
331
18C4E
331
18C41
331
18C42
331
18C35
331
18C36
331
18C29
331
18C2A
331
18C1D
331
18C1E
331
18C0F
331
18C10
331
18C03
331
18C04
331
18BF5
331
18BF6
331
18BE7
331
18BE8
331
18BD9
331
18BDA
331
18BCD
331
18BCE
331
2532E
331
2532F
331
25337
331
25338
331
2534C
331
2534D
331
25355
331
25356
331
25368
331
25369
331
25371
331
25372
331
25384
331
25385
331
253A2
331
253A3
331
253AC
331
253AD
331
253CC
331
253CD
331
253F3
331
253F4
331
25406
331
25407
331
2540F
331
25410
331
25418
331
25419
331
25421
331
25422
331
25D76
331
25D77
331
25D89
331
25D8A
331
25DA8
331
25DA9
331
2622F
331
26230
331
2623A
331
2623B
331
26250
331
26251
331
26266
331
26267
331
26310
331
26311
331
2631A
331
2631B
331
26324
331
26325
331
2632E
331
2632F
331
26338
331
26339
331
26342
331
26343
331
269EA
331
269EB
331
26CFD
331
26CFE
331
26D0C
331
26D0D
331
26D15
331
26D16
331
26D1E
331
26D1F
331
26D27
331
26D28
331
26D30
331
26D31
102
}
  0
BLOCK_RECORD
  5
164B4
330
7466
100
AcDbSymbolTableRecord
100
AcDbBlockTableRecord
  2
_DOT
340
0
102
{BLKREFS
331
18C73
331
18C74
102
}
  0
BLOCK_RECORD
  5
18BC8
330
7466
100
AcDbSymbolTableRecord
100
AcDbBlockTableRecord
  2
*D3
340
0
  0
BLOCK_RECORD
  5
18BD4
330
7466
100
AcDbSymbolTableRecord
100
AcDbBlockTableRecord
  2
*D4
340
0
  0
BLOCK_RECORD
  5
18BE0
330
7466
100
AcDbSymbolTableRecord
100
AcDbBlockTableRecord
  2
*D5
340
0
  0
BLOCK_RECORD
  5
18BEE
330
7466
100
AcDbSymbolTableRecord
100
AcDbBlockTableRecord
  2
*D6
340
0
  0
BLOCK_RECORD
  5
18BFC
330
7466
100
AcDbSymbolTableRecord
100
AcDbBlockTableRecord
  2
*D7
340
0
  0
BLOCK_RECORD
  5
18C0A
330
7466
100
AcDbSymbolTableRecord
100
AcDbBlockTableRecord
  2
*D8
340
0
  0
BLOCK_RECORD
  5
18C16
330
7466
100
AcDbSymbolTableRecord
100
AcDbBlockTableRecord
  2
*D9
340
0
  0
BLOCK_RECORD
  5
18C24
330
7466
100
AcDbSymbolTableRecord
100
AcDbBlockTableRecord
  2
*D10
340
0
  0
BLOCK_RECORD
  5
18C30
330
7466
100
AcDbSymbolTableRecord
100
AcDbBlockTableRecord
  2
*D11
340
0
  0
BLOCK_RECORD
  5
18C3C
330
7466
100
AcDbSymbolTableRecord
100
AcDbBlockTableRecord
  2
*D12
340
0
  0
BLOCK_RECORD
  5
18C48
330
7466
100
AcDbSymbolTableRecord
100
AcDbBlockTableRecord
  2
*D13
340
0
  0
BLOCK_RECORD
  5
18C54
330
7466
100
AcDbSymbolTableRecord
100
AcDbBlockTableRecord
  2
*D14
340
0
  0
BLOCK_RECORD
  5
18C60
330
7466
100
AcDbSymbolTableRecord
100
AcDbBlockTableRecord
  2
*D15
340
0
  0
BLOCK_RECORD
  5
18C6C
330
7466
100
AcDbSymbolTableRecord
100
AcDbBlockTableRecord
  2
*D16
340
0
  0
BLOCK_RECORD
  5
18C7A
330
7466
100
AcDbSymbolTableRecord
100
AcDbBlockTableRecord
  2
A$C3B1A506B
340
0
  0
BLOCK_RECORD
  5
1C4CA
330
7466
100
AcDbSymbolTableRecord
100
AcDbBlockTableRecord
  2
_NONE
340
0
  0
BLOCK_RECORD
  5
24C15
330
7466
100
AcDbSymbolTableRecord
100
AcDbBlockTableRecord
  2
*D19
340
0
  0
BLOCK_RECORD
  5
24C2E
330
7466
100
AcDbSymbolTableRecord
100
AcDbBlockTableRecord
  2
*D20
340
0
  0
BLOCK_RECORD
  5
24C39
330
7466
100
AcDbSymbolTableRecord
100
AcDbBlockTableRecord
  2
*D21
340
0
  0
BLOCK_RECORD
  5
24C44
330
7466
100
AcDbSymbolTableRecord
100
AcDbBlockTableRecord
  2
*D22
340
0
  0
BLOCK_RECORD
  5
24C4F
330
7466
100
AcDbSymbolTableRecord
100
AcDbBlockTableRecord
  2
*D23
340
0
  0
BLOCK_RECORD
  5
24C5B
330
7466
100
AcDbSymbolTableRecord
100
AcDbBlockTableRecord
  2
*D24
340
0
  0
BLOCK_RECORD
  5
24C68
330
7466
100
AcDbSymbolTableRecord
100
AcDbBlockTableRecord
  2
*D25
340
0
  0
BLOCK_RECORD
  5
24C95
330
7466
100
AcDbSymbolTableRecord
100
AcDbBlockTableRecord
  2
*D26
340
0
  0
BLOCK_RECORD
  5
24CBB
330
7466
100
AcDbSymbolTableRecord
100
AcDbBlockTableRecord
  2
*D27
340
0
  0
BLOCK_RECORD
  5
24CC8
330
7466
100
AcDbSymbolTableRecord
100
AcDbBlockTableRecord
  2
*D28
340
0
  0
BLOCK_RECORD
  5
24CD5
330
7466
100
AcDbSymbolTableRecord
100
AcDbBlockTableRecord
  2
*D29
340
0
  0
BLOCK_RECORD
  5
24CE2
330
7466
100
AcDbSymbolTableRecord
100
AcDbBlockTableRecord
  2
*D30
340
0
  0
BLOCK_RECORD
  5
24CFB
330
7466
100
AcDbSymbolTableRecord
100
AcDbBlockTableRecord
  2
*D31
340
0
  0
BLOCK_RECORD
  5
24D13
330
7466
100
AcDbSymbolTableRecord
100
AcDbBlockTableRecord
  2
*D32
340
0
  0
BLOCK_RECORD
  5
24D1F
330
7466
100
AcDbSymbolTableRecord
100
AcDbBlockTableRecord
  2
*D33
340
0
  0
BLOCK_RECORD
  5
24D38
330
7466
100
AcDbSymbolTableRecord
100
AcDbBlockTableRecord
  2
*D34
340
0
  0
BLOCK_RECORD
  5
24D44
330
7466
100
AcDbSymbolTableRecord
100
AcDbBlockTableRecord
  2
*D35
340
0
  0
BLOCK_RECORD
  5
256B4
330
7466
100
AcDbSymbolTableRecord
100
AcDbBlockTableRecord
  2
*D36
340
0
  0
BLOCK_RECORD
  5
256C1
330
7466
100
AcDbSymbolTableRecord
100
AcDbBlockTableRecord
  2
*D37
340
0
  0
BLOCK_RECORD
  5
25B2B
330
7466
100
AcDbSymbolTableRecord
100
AcDbBlockTableRecord
  2
*D38
340
0
  0
BLOCK_RECORD
  5
25B38
330
7466
100
AcDbSymbolTableRecord
100
AcDbBlockTableRecord
  2
*D39
340
0
  0
BLOCK_RECORD
  5
25B45
330
7466
100
AcDbSymbolTableRecord
100
AcDbBlockTableRecord
  2
*D40
340
0
  0
BLOCK_RECORD
  5
25B51
330
7466
100
AcDbSymbolTableRecord
100
AcDbBlockTableRecord
  2
*D41
340
0
  0
BLOCK_RECORD
  5
25C5C
330
7466
100
AcDbSymbolTableRecord
100
AcDbBlockTableRecord
  2
*D42
340
0
  0
BLOCK_RECORD
  5
25C6A
330
7466
100
AcDbSymbolTableRecord
100
AcDbBlockTableRecord
  2
*D43
340
0
  0
BLOCK_RECORD
  5
260CF
330
7466
100
AcDbSymbolTableRecord
100
AcDbBlockTableRecord
  2
*D44
340
0
  0
BLOCK_RECORD
  5
260DD
330
7466
100
AcDbSymbolTableRecord
100
AcDbBlockTableRecord
  2
*D45
340
0
  0
BLOCK_RECORD
  5
260EB
330
7466
100
AcDbSymbolTableRecord
100
AcDbBlockTableRecord
  2
*D46
340
0
  0
BLOCK_RECORD
  5
260F9
330
7466
100
AcDbSymbolTableRecord
100
AcDbBlockTableRecord
  2
*D47
340
0
  0
BLOCK_RECORD
  5
26CAD
330
7466
100
AcDbSymbolTableRecord
100
AcDbBlockTableRecord
  2
*D48
340
0
  0
BLOCK_RECORD
  5
26CB9
330
7466
100
AcDbSymbolTableRecord
100
AcDbBlockTableRecord
  2
*D49
340
0
  0
BLOCK_RECORD
  5
26CCA
330
7466
100
AcDbSymbolTableRecord
100
AcDbBlockTableRecord
  2
*D50
340
0
  0
BLOCK_RECORD
  5
26CD6
330
7466
100
AcDbSymbolTableRecord
100
AcDbBlockTableRecord
  2
*D51
340
0
  0
BLOCK_RECORD
  5
26CE2
330
7466
100
AcDbSymbolTableRecord
100
AcDbBlockTableRecord
  2
*D52
340
0
  0
BLOCK_RECORD
  5
26CEE
330
7466
100
AcDbSymbolTableRecord
100
AcDbBlockTableRecord
  2
*D53
340
0
  0
ENDTAB
  0
ENDSEC
  0
SECTION
  2
BLOCKS
  0
BLOCK
  5
7489
330
747D
100
AcDbEntity
  8
0
100
AcDbBlockBegin
  2
*MODEL_SPACE
 70
     0
 10
0.0
 20
0.0
 30
0.0
  3
*MODEL_SPACE
  1

  0
ENDBLK
  5
748A
330
747D
100
AcDbEntity
  8
0
100
AcDbBlockEnd
  0
BLOCK
  5
7487
330
747A
100
AcDbEntity
 67
     1
  8
0
100
AcDbBlockBegin
  2
*PAPER_SPACE
 70
     0
 10
0.0
 20
0.0
 30
0.0
  3
*PAPER_SPACE
  1

  0
ENDBLK
  5
7488
330
747A
100
AcDbEntity
 67
     1
  8
0
100
AcDbBlockEnd
  0
BLOCK
  5
DEAD
330
DEAC
100
AcDbEntity
  8
0
100
AcDbBlockBegin
  2
_OPEN
 70
     0
 10
0.0
 20
0.0
 30
0.0
  3
_OPEN
  1

  0
LINE
  5
DEAE
330
DEAC
100
AcDbEntity
  8
0
  6
ByBlock
 62
     0
100
AcDbLine
 10
-1.0
 20
0.1666666666666666
 30
0.0
 11
0.0
 21
0.0
 31
0.0
  0
LINE
  5
DEAF
330
DEAC
100
AcDbEntity
  8
0
  6
ByBlock
 62
     0
100
AcDbLine
 10
0.0
 20
0.0
 30
0.0
 11
-1.0
 21
-0.1666666666666666
 31
0.0
  0
LINE
  5
DEB0
330
DEAC
100
AcDbEntity
  8
0
  6
ByBlock
 62
     0
100
AcDbLine
 10
0.0
 20
0.0
 30
0.0
 11
-1.0
 21
0.0
 31
0.0
  0
ENDBLK
  5
DEB1
330
DEAC
100
AcDbEntity
  8
0
100
AcDbBlockEnd
  0
BLOCK
  5
F771
330
F770
100
AcDbEntity
  8
0
 48
50.0
100
AcDbBlockBegin
  2
_DOTSMALL
 70
     0
 10
0.0
 20
0.0
 30
0.0
  3
_DOTSMALL
  1

  0
LWPOLYLINE
  5
F772
330
F770
100
AcDbEntity
  8
0
  6
ByBlock
 62
     0
 48
50.0
100
AcDbPolyline
 90
        2
 70
     1
 43
0.5
 10
-0.0625
 20
0.0
 42
1.0
 10
0.0625
 20
0.0
 42
1.0
  0
ENDBLK
  5
F776
330
F770
100
AcDbEntity
  8
0
 48
50.0
100
AcDbBlockEnd
  0
BLOCK
  5
164BA
330
164B4
100
AcDbEntity
  8
0
 48
50.0
100
AcDbBlockBegin
  2
_DOT
 70
     0
 10
0.0
 20
0.0
 30
0.0
  3
_DOT
  1

  0
LWPOLYLINE
  5
164B5
330
164B4
100
AcDbEntity
  8
0
  6
ByBlock
 62
     0
 48
50.0
100
AcDbPolyline
 90
        2
 70
     1
 43
0.5
 10
-0.25
 20
0.0
 42
1.0
 10
0.25
 20
0.0
 42
1.0
  0
LINE
  5
164B9
330
164B4
100
AcDbEntity
  8
0
  6
ByBlock
 62
     0
 48
50.0
100
AcDbLine
 10
-0.5
 20
0.0
 30
0.0
 11
-1.0
 21
0.0
 31
0.0
  0
ENDBLK
  5
164BB
330
164B4
100
AcDbEntity
  8
0
 48
50.0
100
AcDbBlockEnd
  0
BLOCK
  5
18BC9
330
18BC8
100
AcDbEntity
  8
0
 48
50.0
100
AcDbBlockBegin
  2
*D3
 70
     1
 10
0.0
 20
0.0
 30
0.0
  3
*D3
  1

  0
LINE
  5
18BCA
330
18BC8
100
AcDbEntity
  8
寸法
 62
     0
 48
50.0
370
    -2
100
AcDbLine
 10
7649.896575106999
 20
9636.123139034717
 30
0.0
 11
8702.429862581047
 21
9636.123139034717
 31
0.0
  0
LINE
  5
18BCB
330
18BC8
100
AcDbEntity
  8
寸法
 62
     0
 48
50.0
370
    -2
100
AcDbLine
 10
7649.896575106973
 20
7846.123139034709
 30
0.0
 11
8702.429862581047
 21
7846.123139034709
 31
0.0
  0
LINE
  5
18BCC
330
18BC8
100
AcDbEntity
  8
寸法
 62
     0
 48
50.0
370
    -2
100
AcDbLine
 10
8642.429862581046
 20
9636.123139034717
 30
0.0
 11
8642.429862581046
 21
7846.123139034709
 31
0.0
  0
INSERT
  5
18BCD
330
18BC8
100
AcDbEntity
  8
寸法
 62
     0
 48
50.0
370
    -2
100
AcDbBlockReference
  2
_DOTSMALL
 10
8642.429862581046
 20
9636.123139034717
 30
0.0
 41
100.0
 42
100.0
 43
100.0
 50
90.0
  0
INSERT
  5
18BCE
330
18BC8
100
AcDbEntity
  8
寸法
 62
     0
 48
50.0
370
    -2
100
AcDbBlockReference
  2
_DOTSMALL
 10
8642.429862581046
 20
7846.123139034709
 30
0.0
 41
100.0
 42
100.0
 43
100.0
 50
270.0
  0
MTEXT
  5
18BCF
330
18BC8
100
AcDbEntity
  8
寸法
 62
     7
 48
50.0
100
AcDbMText
 10
8542.429862581045
 20
8741.123139034712
 30
0.0
 40
120.0
 41
0.0
 71
     5
 72
     1
  1
\A1;1790
  7
STYLE1
 11
0.0000000000000001
 21
1.0
 31
0.0
 73
     1
 44
1.0
1001
ACAD
1000
MTEXTBEGIN
1070
    73
1070
     1
1070
    44
1040
1.0
1070
    74
1070
     0
1000
MTEXTEND
  0
POINT
  5
18BD0
330
18BC8
100
AcDbEntity
  8
DEFPOINTS
 62
     0
 48
50.0
100
AcDbPoint
 10
7629.896575106998
 20
9636.123139034717
 30
0.0
  0
POINT
  5
18BD1
330
18BC8
100
AcDbEntity
  8
DEFPOINTS
 62
     0
 48
50.0
100
AcDbPoint
 10
7629.896575106974
 20
7846.123139034709
 30
0.0
  0
POINT
  5
18BD2
330
18BC8
100
AcDbEntity
  8
DEFPOINTS
 62
     0
 48
50.0
100
AcDbPoint
 10
8642.429862581046
 20
7846.123139034709
 30
0.0
  0
ENDBLK
  5
18BD3
330
18BC8
100
AcDbEntity
  8
0
 48
50.0
100
AcDbBlockEnd
  0
BLOCK
  5
18BD5
330
18BD4
100
AcDbEntity
  8
0
 48
50.0
100
AcDbBlockBegin
  2
*D4
 70
     1
 10
0.0
 20
0.0
 30
0.0
  3
*D4
  1

  0
LINE
  5
18BD6
330
18BD4
100
AcDbEntity
  8
寸法
 62
     0
 48
50.0
370
    -2
100
AcDbLine
 10
4214.896575106998
 20
9656.123139034622
 30
0.0
 11
4214.896575106998
 21
10211.93135865972
 31
0.0
  0
LINE
  5
18BD7
330
18BD4
100
AcDbEntity
  8
寸法
 62
     0
 48
50.0
370
    -2
100
AcDbLine
 10
7574.896575106999
 20
9656.123139034718
 30
0.0
 11
7574.896575106999
 21
10211.93135865972
 31
0.0
  0
LINE
  5
18BD8
330
18BD4
100
AcDbEntity
  8
寸法
 62
     0
 48
50.0
370
    -2
100
AcDbLine
 10
4214.896575106998
 20
10151.93135865972
 30
0.0
 11
7574.896575106999
 21
10151.93135865972
 31
0.0
  0
INSERT
  5
18BD9
330
18BD4
100
AcDbEntity
  8
寸法
 62
     0
 48
50.0
370
    -2
100
AcDbBlockReference
  2
_DOTSMALL
 10
4214.896575106998
 20
10151.93135865972
 30
0.0
 41
100.0
 42
100.0
 43
100.0
 50
180.0
  0
INSERT
  5
18BDA
330
18BD4
100
AcDbEntity
  8
寸法
 62
     0
 48
50.0
370
    -2
100
AcDbBlockReference
  2
_DOTSMALL
 10
7574.896575106999
 20
10151.93135865972
 30
0.0
 41
100.0
 42
100.0
 43
100.0
  0
MTEXT
  5
18BDB
330
18BD4
100
AcDbEntity
  8
寸法
 62
     7
 48
50.0
100
AcDbMText
 10
5894.896575106997
 20
10251.94316968334
 30
0.0
 40
120.0
 41
0.0
 71
     5
 72
     1
  1
\A1;8X420=3360
  7
STYLE1
 73
     1
 44
1.0
1001
ACAD
1000
MTEXTBEGIN
1070
    73
1070
     1
1070
    44
1040
1.0
1070
    74
1070
     0
1000
MTEXTEND
  0
POINT
  5
18BDC
330
18BD4
100
AcDbEntity
  8
DEFPOINTS
 62
     0
 48
50.0
100
AcDbPoint
 10
4214.896575106998
 20
9636.123139034623
 30
0.0
  0
POINT
  5
18BDD
330
18BD4
100
AcDbEntity
  8
DEFPOINTS
 62
     0
 48
50.0
100
AcDbPoint
 10
7574.896575106999
 20
9636.123139034717
 30
0.0
  0
POINT
  5
18BDE
330
18BD4
100
AcDbEntity
  8
DEFPOINTS
 62
     0
 48
50.0
100
AcDbPoint
 10
7574.896575106999
 20
10151.93135865972
 30
0.0
  0
ENDBLK
  5
18BDF
330
18BD4
100
AcDbEntity
  8
0
 48
50.0
100
AcDbBlockEnd
  0
BLOCK
  5
18BE1
330
18BE0
100
AcDbEntity
  8
0
 48
50.0
100
AcDbBlockBegin
  2
*D5
 70
     1
 10
0.0
 20
0.0
 30
0.0
  3
*D5
  1

  0
LINE
  5
18BE2
330
18BE0
100
AcDbEntity
  8
寸法
 62
     0
 48
50.0
370
    -2
100
AcDbLine
 10
7574.896575106999
 20
9656.123139034718
 30
0.0
 11
7574.896575106999
 21
10211.9313586597
 31
0.0
  0
LINE
  5
18BE3
330
18BE0
100
AcDbEntity
  8
寸法
 62
     0
 48
50.0
370
    -2
100
AcDbLine
 10
7629.896575106998
 20
9656.123139034718
 30
0.0
 11
7629.896575106998
 21
10211.9313586597
 31
0.0
  0
LINE
  5
18BE4
330
18BE0
100
AcDbEntity
  8
寸法
 62
     0
 48
50.0
370
    -2
100
AcDbLine
 10
7574.896575106999
 20
10151.9313586597
 30
0.0
 11
7474.896575106999
 21
10151.9313586597
 31
0.0
  0
LINE
  5
18BE5
330
18BE0
100
AcDbEntity
  8
寸法
 62
     0
 48
50.0
370
    -2
100
AcDbLine
 10
7629.896575106998
 20
10151.9313586597
 30
0.0
 11
8046.867137855477
 21
10151.9313586597
 31
0.0
  0
LINE
  5
18BE6
330
18BE0
100
AcDbEntity
  8
寸法
 62
     0
 48
50.0
370
    -2
100
AcDbLine
 10
7574.896575106999
 20
10151.9313586597
 30
0.0
 11
7629.896575106998
 21
10151.9313586597
 31
0.0
  0
INSERT
  5
18BE7
330
18BE0
100
AcDbEntity
  8
寸法
 62
     0
 48
50.0
370
    -2
100
AcDbBlockReference
  2
_DOTSMALL
 10
7574.896575106999
 20
10151.9313586597
 30
0.0
 41
100.0
 42
100.0
 43
100.0
  0
INSERT
  5
18BE8
330
18BE0
100
AcDbEntity
  8
寸法
 62
     0
 48
50.0
370
    -2
100
AcDbBlockReference
  2
_DOTSMALL
 10
7629.896575106998
 20
10151.9313586597
 30
0.0
 41
100.0
 42
100.0
 43
100.0
 50
180.0
  0
MTEXT
  5
18BE9
330
18BE0
100
AcDbEntity
  8
寸法
 62
     7
 48
50.0
100
AcDbMText
 10
7938.381856481237
 20
10251.9313586597
 30
0.0
 40
120.0
 41
0.0
 71
     5
 72
     1
  1
\A1;55
  7
STYLE1
 73
     1
 44
1.0
1001
ACAD
1000
MTEXTBEGIN
1070
    73
1070
     1
1070
    44
1040
1.0
1070
    74
1070
     0
1000
MTEXTEND
  0
POINT
  5
18BEA
330
18BE0
100
AcDbEntity
  8
DEFPOINTS
 62
     0
 48
50.0
100
AcDbPoint
 10
7574.896575106999
 20
9636.123139034717
 30
0.0
  0
POINT
  5
18BEB
330
18BE0
100
AcDbEntity
  8
DEFPOINTS
 62
     0
 48
50.0
100
AcDbPoint
 10
7629.896575106998
 20
9636.123139034717
 30
0.0
  0
POINT
  5
18BEC
330
18BE0
100
AcDbEntity
  8
DEFPOINTS
 62
     0
 48
50.0
100
AcDbPoint
 10
7629.896575106998
 20
10151.9313586597
 30
0.0
  0
ENDBLK
  5
18BED
330
18BE0
100
AcDbEntity
  8
0
 48
50.0
100
AcDbBlockEnd
  0
BLOCK
  5
18BEF
330
18BEE
100
AcDbEntity
  8
0
 48
50.0
100
AcDbBlockBegin
  2
*D6
 70
     1
 10
0.0
 20
0.0
 30
0.0
  3
*D6
  1

  0
LINE
  5
18BF0
330
18BEE
100
AcDbEntity
  8
寸法
 62
     0
 48
50.0
370
    -2
100
AcDbLine
 10
7649.896575106999
 20
9636.123139034717
 30
0.0
 11
8337.32292084141
 21
9636.123139034717
 31
0.0
  0
LINE
  5
18BF1
330
18BEE
100
AcDbEntity
  8
寸法
 62
     0
 48
50.0
370
    -2
100
AcDbLine
 10
7649.896575106999
 20
9581.123139034721
 30
0.0
 11
8337.32292084141
 21
9581.123139034721
 31
0.0
  0
LINE
  5
18BF2
330
18BEE
100
AcDbEntity
  8
寸法
 62
     0
 48
50.0
370
    -2
100
AcDbLine
 10
8277.322920841411
 20
9581.123139034721
 30
0.0
 11
8277.322920841411
 21
9481.123139034719
 31
0.0
  0
LINE
  5
18BF3
330
18BEE
100
AcDbEntity
  8
寸法
 62
     0
 48
50.0
370
    -2
100
AcDbLine
 10
8277.322920841411
 20
9636.123139034717
 30
0.0
 11
8277.322920841411
 21
10053.09370178319
 31
0.0
  0
LINE
  5
18BF4
330
18BEE
100
AcDbEntity
  8
寸法
 62
     0
 48
50.0
370
    -2
100
AcDbLine
 10
8277.322920841411
 20
9581.123139034721
 30
0.0
 11
8277.322920841411
 21
9636.123139034717
 31
0.0
  0
INSERT
  5
18BF5
330
18BEE
100
AcDbEntity
  8
寸法
 62
     0
 48
50.0
370
    -2
100
AcDbBlockReference
  2
_DOTSMALL
 10
8277.322920841411
 20
9581.123139034721
 30
0.0
 41
100.0
 42
100.0
 43
100.0
 50
90.0
  0
INSERT
  5
18BF6
330
18BEE
100
AcDbEntity
  8
寸法
 62
     0
 48
50.0
370
    -2
100
AcDbBlockReference
  2
_DOTSMALL
 10
8277.322920841411
 20
9636.123139034717
 30
0.0
 41
100.0
 42
100.0
 43
100.0
 50
270.0
  0
MTEXT
  5
18BF7
330
18BEE
100
AcDbEntity
  8
寸法
 62
     7
 48
50.0
100
AcDbMText
 10
8177.32292084141
 20
9944.608420408957
 30
0.0
 40
120.0
 41
0.0
 71
     5
 72
     1
  1
\A1;55
  7
STYLE1
 11
0.0000000000000001
 21
1.0
 31
0.0
 73
     1
 44
1.0
1001
ACAD
1000
MTEXTBEGIN
1070
    73
1070
     1
1070
    44
1040
1.0
1070
    74
1070
     0
1000
MTEXTEND
  0
POINT
  5
18BF8
330
18BEE
100
AcDbEntity
  8
DEFPOINTS
 62
     0
 48
50.0
100
AcDbPoint
 10
7629.896575106998
 20
9636.123139034717
 30
0.0
  0
POINT
  5
18BF9
330
18BEE
100
AcDbEntity
  8
DEFPOINTS
 62
     0
 48
50.0
100
AcDbPoint
 10
7629.896575106998
 20
9581.123139034721
 30
0.0
  0
POINT
  5
18BFA
330
18BEE
100
AcDbEntity
  8
DEFPOINTS
 62
     0
 48
50.0
100
AcDbPoint
 10
8277.322920841411
 20
9581.123139034721
 30
0.0
  0
ENDBLK
  5
18BFB
330
18BEE
100
AcDbEntity
  8
0
 48
50.0
100
AcDbBlockEnd
  0
BLOCK
  5
18BFD
330
18BFC
100
AcDbEntity
  8
0
 48
50.0
100
AcDbBlockBegin
  2
*D7
 70
     1
 10
0.0
 20
0.0
 30
0.0
  3
*D7
  1

  0
LINE
  5
18BFE
330
18BFC
100
AcDbEntity
  8
寸法
 62
     0
 48
50.0
370
    -2
100
AcDbLine
 10
4159.896575106963
 20
9656.123139034622
 30
0.0
 11
4159.896575106963
 21
10211.9313586596
 31
0.0
  0
LINE
  5
18BFF
330
18BFC
100
AcDbEntity
  8
寸法
 62
     0
 48
50.0
370
    -2
100
AcDbLine
 10
4214.896575106998
 20
9656.123139034622
 30
0.0
 11
4214.896575106998
 21
10211.9313586596
 31
0.0
  0
LINE
  5
18C00
330
18BFC
100
AcDbEntity
  8
寸法
 62
     0
 48
50.0
370
    -2
100
AcDbLine
 10
4214.896575106998
 20
10151.9313586596
 30
0.0
 11
4314.896575106998
 21
10151.9313586596
 31
0.0
  0
LINE
  5
18C01
330
18BFC
100
AcDbEntity
  8
寸法
 62
     0
 48
50.0
370
    -2
100
AcDbLine
 10
4159.896575106963
 20
10151.9313586596
 30
0.0
 11
3742.926012358486
 21
10151.9313586596
 31
0.0
  0
LINE
  5
18C02
330
18BFC
100
AcDbEntity
  8
寸法
 62
     0
 48
50.0
370
    -2
100
AcDbLine
 10
4214.896575106998
 20
10151.9313586596
 30
0.0
 11
4159.896575106963
 21
10151.9313586596
 31
0.0
  0
INSERT
  5
18C03
330
18BFC
100
AcDbEntity
  8
寸法
 62
     0
 48
50.0
370
    -2
100
AcDbBlockReference
  2
_DOTSMALL
 10
4214.896575106998
 20
10151.9313586596
 30
0.0
 41
100.0
 42
100.0
 43
100.0
 50
180.0
  0
INSERT
  5
18C04
330
18BFC
100
AcDbEntity
  8
寸法
 62
     0
 48
50.0
370
    -2
100
AcDbBlockReference
  2
_DOTSMALL
 10
4159.896575106963
 20
10151.9313586596
 30
0.0
 41
100.0
 42
100.0
 43
100.0
  0
MTEXT
  5
18C05
330
18BFC
100
AcDbEntity
  8
寸法
 62
     7
 48
50.0
100
AcDbMText
 10
3851.411293732725
 20
10251.9313586596
 30
0.0
 40
120.0
 41
0.0
 71
     5
 72
     1
  1
\A1;55
  7
STYLE1
 73
     1
 44
1.0
1001
ACAD
1000
MTEXTBEGIN
1070
    73
1070
     1
1070
    44
1040
1.0
1070
    74
1070
     0
1000
MTEXTEND
  0
POINT
  5
18C06
330
18BFC
100
AcDbEntity
  8
DEFPOINTS
 62
     0
 48
50.0
100
AcDbPoint
 10
4159.896575106963
 20
9636.123139034623
 30
0.0
  0
POINT
  5
18C07
330
18BFC
100
AcDbEntity
  8
DEFPOINTS
 62
     0
 48
50.0
100
AcDbPoint
 10
4214.896575106998
 20
9636.123139034623
 30
0.0
  0
POINT
  5
18C08
330
18BFC
100
AcDbEntity
  8
DEFPOINTS
 62
     0
 48
50.0
100
AcDbPoint
 10
4214.896575106998
 20
10151.9313586596
 30
0.0
  0
ENDBLK
  5
18C09
330
18BFC
100
AcDbEntity
  8
0
 48
50.0
100
AcDbBlockEnd
  0
BLOCK
  5
18C0B
330
18C0A
100
AcDbEntity
  8
0
 48
50.0
100
AcDbBlockBegin
  2
*D8
 70
     1
 10
0.0
 20
0.0
 30
0.0
  3
*D8
  1

  0
LINE
  5
18C0C
330
18C0A
100
AcDbEntity
  8
寸法
 62
     0
 48
50.0
370
    -2
100
AcDbLine
 10
4159.896575106992
 20
7826.123139034546
 30
0.0
 11
4159.896575106992
 21
6804.372203245664
 31
0.0
  0
LINE
  5
18C0D
330
18C0A
100
AcDbEntity
  8
寸法
 62
     0
 48
50.0
370
    -2
100
AcDbLine
 10
7629.896575106974
 20
7826.123139034674
 30
0.0
 11
7629.896575106974
 21
6804.372203245664
 31
0.0
  0
LINE
  5
18C0E
330
18C0A
100
AcDbEntity
  8
寸法
 62
     0
 48
50.0
370
    -2
100
AcDbLine
 10
4159.896575106992
 20
6864.372203245665
 30
0.0
 11
7629.896575106974
 21
6864.372203245665
 31
0.0
  0
INSERT
  5
18C0F
330
18C0A
100
AcDbEntity
  8
寸法
 62
     0
 48
50.0
370
    -2
100
AcDbBlockReference
  2
_DOTSMALL
 10
4159.896575106992
 20
6864.372203245665
 30
0.0
 41
100.0
 42
100.0
 43
100.0
 50
180.0
  0
INSERT
  5
18C10
330
18C0A
100
AcDbEntity
  8
寸法
 62
     0
 48
50.0
370
    -2
100
AcDbBlockReference
  2
_DOTSMALL
 10
7629.896575106974
 20
6864.372203245665
 30
0.0
 41
100.0
 42
100.0
 43
100.0
  0
MTEXT
  5
18C11
330
18C0A
100
AcDbEntity
  8
寸法
 62
     7
 48
50.0
100
AcDbMText
 10
5911.12376113973
 20
6964.372203245665
 30
0.0
 40
120.0
 41
0.0
 71
     5
 72
     1
  1
\A1;3470
  7
STYLE1
 73
     1
 44
1.0
1001
ACAD
1000
MTEXTBEGIN
1070
    73
1070
     1
1070
    44
1040
1.0
1070
    74
1070
     0
1000
MTEXTEND
  0
POINT
  5
18C12
330
18C0A
100
AcDbEntity
  8
DEFPOINTS
 62
     0
 48
50.0
100
AcDbPoint
 10
4159.896575106992
 20
7846.123139034546
 30
0.0
  0
POINT
  5
18C13
330
18C0A
100
AcDbEntity
  8
DEFPOINTS
 62
     0
 48
50.0
100
AcDbPoint
 10
7629.896575106974
 20
7846.123139034673
 30
0.0
  0
POINT
  5
18C14
330
18C0A
100
AcDbEntity
  8
DEFPOINTS
 62
     0
 48
50.0
100
AcDbPoint
 10
7629.896575106974
 20
6864.372203245665
 30
0.0
  0
ENDBLK
  5
18C15
330
18C0A
100
AcDbEntity
  8
0
 48
50.0
100
AcDbBlockEnd
  0
BLOCK
  5
18C17
330
18C16
100
AcDbEntity
  8
0
 48
50.0
100
AcDbBlockBegin
  2
*D9
 70
     1
 10
0.0
 20
0.0
 30
0.0
  3
*D9
  1

  0
LINE
  5
18C18
330
18C16
100
AcDbEntity
  8
寸法
 62
     0
 48
50.0
370
    -2
100
AcDbLine
 10
7649.896575106973
 20
7901.123139034706
 30
0.0
 11
8337.322920841385
 21
7901.123139034706
 31
0.0
  0
LINE
  5
18C19
330
18C16
100
AcDbEntity
  8
寸法
 62
     0
 48
50.0
370
    -2
100
AcDbLine
 10
7649.896575106973
 20
7846.123139034709
 30
0.0
 11
8337.322920841385
 21
7846.123139034709
 31
0.0
  0
LINE
  5
18C1A
330
18C16
100
AcDbEntity
  8
寸法
 62
     0
 48
50.0
370
    -2
100
AcDbLine
 10
8277.322920841385
 20
7901.123139034706
 30
0.0
 11
8277.322920841385
 21
8001.123139034707
 31
0.0
  0
LINE
  5
18C1B
330
18C16
100
AcDbEntity
  8
寸法
 62
     0
 48
50.0
370
    -2
100
AcDbLine
 10
8277.322920841385
 20
7846.123139034709
 30
0.0
 11
8277.322920841385
 21
7429.152576286229
 31
0.0
  0
LINE
  5
18C1C
330
18C16
100
AcDbEntity
  8
寸法
 62
     0
 48
50.0
370
    -2
100
AcDbLine
 10
8277.322920841385
 20
7901.123139034706
 30
0.0
 11
8277.322920841385
 21
7846.123139034709
 31
0.0
  0
INSERT
  5
18C1D
330
18C16
100
AcDbEntity
  8
寸法
 62
     0
 48
50.0
370
    -2
100
AcDbBlockReference
  2
_DOTSMALL
 10
8277.322920841385
 20
7901.123139034706
 30
0.0
 41
100.0
 42
100.0
 43
100.0
 50
270.0
  0
INSERT
  5
18C1E
330
18C16
100
AcDbEntity
  8
寸法
 62
     0
 48
50.0
370
    -2
100
AcDbBlockReference
  2
_DOTSMALL
 10
8277.322920841385
 20
7846.123139034709
 30
0.0
 41
100.0
 42
100.0
 43
100.0
 50
90.0
  0
MTEXT
  5
18C1F
330
18C16
100
AcDbEntity
  8
寸法
 62
     7
 48
50.0
100
AcDbMText
 10
8177.322920841383
 20
7537.637857660469
 30
0.0
 40
120.0
 41
0.0
 71
     5
 72
     1
  1
\A1;55
  7
STYLE1
 11
0.0000000000000001
 21
1.0
 31
0.0
 73
     1
 44
1.0
1001
ACAD
1000
MTEXTBEGIN
1070
    73
1070
     1
1070
    44
1040
1.0
1070
    74
1070
     0
1000
MTEXTEND
  0
POINT
  5
18C20
330
18C16
100
AcDbEntity
  8
DEFPOINTS
 62
     0
 48
50.0
100
AcDbPoint
 10
7629.896575106974
 20
7901.123139034706
 30
0.0
  0
POINT
  5
18C21
330
18C16
100
AcDbEntity
  8
DEFPOINTS
 62
     0
 48
50.0
100
AcDbPoint
 10
7629.896575106974
 20
7846.123139034709
 30
0.0
  0
POINT
  5
18C22
330
18C16
100
AcDbEntity
  8
DEFPOINTS
 62
     0
 48
50.0
100
AcDbPoint
 10
8277.322920841385
 20
7846.123139034709
 30
0.0
  0
ENDBLK
  5
18C23
330
18C16
100
AcDbEntity
  8
0
 48
50.0
100
AcDbBlockEnd
  0
BLOCK
  5
18C25
330
18C24
100
AcDbEntity
  8
0
 48
50.0
100
AcDbBlockBegin
  2
*D10
 70
     1
 10
0.0
 20
0.0
 30
0.0
  3
*D10
  1

  0
LINE
  5
18C26
330
18C24
100
AcDbEntity
  8
寸法
 62
     0
 48
50.0
370
    -2
100
AcDbLine
 10
6533.037591258376
 20
9136.123139034728
 30
0.0
 11
6465.083950562664
 21
8882.516699399049
 31
0.0
  0
LINE
  5
18C27
330
18C24
100
AcDbEntity
  8
寸法
 62
     0
 48
50.0
370
    -2
100
AcDbLine
 10
7596.037591258388
 20
9136.123139034721
 30
0.0
 11
7528.083950562677
 21
8882.516699399049
 31
0.0
  0
LINE
  5
18C28
330
18C24
100
AcDbEntity
  8
寸法
 62
     0
 48
50.0
370
    -2
100
AcDbLine
 10
6481.160902108531
 20
8942.51669939905
 30
0.0
 11
7544.160902108544
 21
8942.51669939905
 31
0.0
  0
INSERT
  5
18C29
330
18C24
100
AcDbEntity
  8
寸法
 62
     0
 48
50.0
370
    -2
100
AcDbBlockReference
  2
_DOTSMALL
 10
6481.160902108531
 20
8942.51669939905
 30
0.0
 41
100.0
 42
100.0
 43
100.0
 50
180.0
  0
INSERT
  5
18C2A
330
18C24
100
AcDbEntity
  8
寸法
 62
     0
 48
50.0
370
    -2
100
AcDbBlockReference
  2
_DOTSMALL
 10
7544.160902108544
 20
8942.51669939905
 30
0.0
 41
100.0
 42
100.0
 43
100.0
  0
MTEXT
  5
18C2B
330
18C24
100
AcDbEntity
  8
寸法
 62
     7
 48
50.0
100
AcDbMText
 10
7061.28653022935
 20
9042.516699399049
 30
0.0
 40
120.0
 41
0.0
 71
     5
 72
     1
  1
\A1;1063
  7
STYLE1
 73
     1
 44
1.0
1001
ACAD
1000
MTEXTBEGIN
1070
    73
1070
     1
1070
    44
1040
1.0
1070
    74
1070
     0
1000
MTEXTEND
  0
POINT
  5
18C2C
330
18C24
100
AcDbEntity
  8
DEFPOINTS
 62
     0
 48
50.0
100
AcDbPoint
 10
6538.396575106998
 20
9156.123139034727
 30
0.0
  0
POINT
  5
18C2D
330
18C24
100
AcDbEntity
  8
DEFPOINTS
 62
     0
 48
50.0
100
AcDbPoint
 10
7601.39657510701
 20
9156.12313903472
 30
0.0
  0
POINT
  5
18C2E
330
18C24
100
AcDbEntity
  8
DEFPOINTS
 62
     0
 48
50.0
100
AcDbPoint
 10
7544.160902108544
 20
8942.51669939905
 30
0.0
  0
ENDBLK
  5
18C2F
330
18C24
100
AcDbEntity
  8
0
 48
50.0
100
AcDbBlockEnd
  0
BLOCK
  5
18C31
330
18C30
100
AcDbEntity
  8
0
 48
50.0
100
AcDbBlockBegin
  2
*D11
 70
     1
 10
0.0
 20
0.0
 30
0.0
  3
*D11
  1

  0
LINE
  5
18C32
330
18C30
100
AcDbEntity
  8
寸法
 62
     0
 48
50.0
370
    -2
100
AcDbLine
 10
7621.396575106999
 20
9600.764155186094
 30
0.0
 11
8016.754300969024
 21
9494.828371819961
 31
0.0
  0
LINE
  5
18C33
330
18C30
100
AcDbEntity
  8
寸法
 62
     0
 48
50.0
370
    -2
100
AcDbLine
 10
7621.396575106999
 20
9150.764155186099
 30
0.0
 11
8016.754300969024
 21
9044.828371819964
 31
0.0
  0
LINE
  5
18C34
330
18C30
100
AcDbEntity
  8
寸法
 62
     0
 48
50.0
370
    -2
100
AcDbLine
 10
7956.754300969024
 20
9510.905323365827
 30
0.0
 11
7956.754300969024
 21
9060.90532336583
 31
0.0
  0
INSERT
  5
18C35
330
18C30
100
AcDbEntity
  8
寸法
 62
     0
 48
50.0
370
    -2
100
AcDbBlockReference
  2
_DOTSMALL
 10
7956.754300969024
 20
9510.905323365827
 30
0.0
 41
100.0
 42
100.0
 43
100.0
 50
90.0
  0
INSERT
  5
18C36
330
18C30
100
AcDbEntity
  8
寸法
 62
     0
 48
50.0
370
    -2
100
AcDbBlockReference
  2
_DOTSMALL
 10
7956.754300969024
 20
9060.90532336583
 30
0.0
 41
100.0
 42
100.0
 43
100.0
 50
270.0
  0
MTEXT
  5
18C37
330
18C30
100
AcDbEntity
  8
寸法
 62
     7
 48
50.0
100
AcDbMText
 10
7856.754300969022
 20
9285.905323365829
 30
0.0
 40
120.0
 41
0.0
 71
     5
 72
     1
  1
\A1;450
  7
STYLE1
 11
0.0000000000000001
 21
1.0
 31
0.0
 73
     1
 44
1.0
1001
ACAD
1000
MTEXTBEGIN
1070
    73
1070
     1
1070
    44
1040
1.0
1070
    74
1070
     0
1000
MTEXTEND
  0
POINT
  5
18C38
330
18C30
100
AcDbEntity
  8
DEFPOINTS
 62
     0
 48
50.0
100
AcDbPoint
 10
7601.396575106999
 20
9606.123139034718
 30
0.0
  0
POINT
  5
18C39
330
18C30
100
AcDbEntity
  8
DEFPOINTS
 62
     0
 48
50.0
100
AcDbPoint
 10
7601.396575106999
 20
9156.12313903472
 30
0.0
  0
POINT
  5
18C3A
330
18C30
100
AcDbEntity
  8
DEFPOINTS
 62
     0
 48
50.0
100
AcDbPoint
 10
7956.754300969024
 20
9060.90532336583
 30
0.0
  0
ENDBLK
  5
18C3B
330
18C30
100
AcDbEntity
  8
0
 48
50.0
100
AcDbBlockEnd
  0
BLOCK
  5
18C3D
330
18C3C
100
AcDbEntity
  8
0
 48
50.0
100
AcDbBlockBegin
  2
*D12
 70
     1
 10
0.0
 20
0.0
 30
0.0
  3
*D12
  1

  0
LINE
  5
18C3E
330
18C3C
100
AcDbEntity
  8
寸法
 62
     0
 48
50.0
370
    -2
100
AcDbLine
 10
7649.896575106999
 20
9581.123139034721
 30
0.0
 11
8337.32292084141
 21
9581.123139034721
 31
0.0
  0
LINE
  5
18C3F
330
18C3C
100
AcDbEntity
  8
寸法
 62
     0
 48
50.0
370
    -2
100
AcDbLine
 10
7649.896575106973
 20
7901.123139034706
 30
0.0
 11
8337.32292084141
 21
7901.123139034706
 31
0.0
  0
LINE
  5
18C40
330
18C3C
100
AcDbEntity
  8
寸法
 62
     0
 48
50.0
370
    -2
100
AcDbLine
 10
8277.322920841411
 20
9581.123139034721
 30
0.0
 11
8277.322920841411
 21
7901.123139034706
 31
0.0
  0
INSERT
  5
18C41
330
18C3C
100
AcDbEntity
  8
寸法
 62
     0
 48
50.0
370
    -2
100
AcDbBlockReference
  2
_DOTSMALL
 10
8277.322920841411
 20
9581.123139034721
 30
0.0
 41
100.0
 42
100.0
 43
100.0
 50
90.0
  0
INSERT
  5
18C42
330
18C3C
100
AcDbEntity
  8
寸法
 62
     0
 48
50.0
370
    -2
100
AcDbBlockReference
  2
_DOTSMALL
 10
8277.322920841411
 20
7901.123139034706
 30
0.0
 41
100.0
 42
100.0
 43
100.0
 50
270.0
  0
MTEXT
  5
18C43
330
18C3C
100
AcDbEntity
  8
寸法
 62
     7
 48
50.0
100
AcDbMText
 10
8177.311109817788
 20
8741.123139034712
 30
0.0
 40
120.0
 41
0.0
 71
     5
 72
     1
  1
\A1;4X420=1680
  7
STYLE1
 11
0.0000000000000001
 21
1.0
 31
0.0
 73
     1
 44
1.0
1001
ACAD
1000
MTEXTBEGIN
1070
    73
1070
     1
1070
    44
1040
1.0
1070
    74
1070
     0
1000
MTEXTEND
  0
POINT
  5
18C44
330
18C3C
100
AcDbEntity
  8
DEFPOINTS
 62
     0
 48
50.0
100
AcDbPoint
 10
7629.896575106998
 20
9581.123139034721
 30
0.0
  0
POINT
  5
18C45
330
18C3C
100
AcDbEntity
  8
DEFPOINTS
 62
     0
 48
50.0
100
AcDbPoint
 10
7629.896575106974
 20
7901.123139034706
 30
0.0
  0
POINT
  5
18C46
330
18C3C
100
AcDbEntity
  8
DEFPOINTS
 62
     0
 48
50.0
100
AcDbPoint
 10
8277.322920841411
 20
7901.123139034706
 30
0.0
  0
ENDBLK
  5
18C47
330
18C3C
100
AcDbEntity
  8
0
 48
50.0
100
AcDbBlockEnd
  0
BLOCK
  5
18C49
330
18C48
100
AcDbEntity
  8
0
 48
50.0
100
AcDbBlockBegin
  2
*D13
 70
     1
 10
0.0
 20
0.0
 30
0.0
  3
*D13
  1

  0
LINE
  5
18C4A
330
18C48
100
AcDbEntity
  8
寸法
 62
     0
 48
50.0
370
    -2
100
AcDbLine
 10
4183.037591258377
 20
9136.123139034619
 30
0.0
 11
4115.083950562663
 21
8882.516699398941
 31
0.0
  0
LINE
  5
18C4B
330
18C48
100
AcDbEntity
  8
寸法
 62
     0
 48
50.0
370
    -2
100
AcDbLine
 10
5246.037591258307
 20
9136.123139034671
 30
0.0
 11
5178.08395056258
 21
8882.516699398941
 31
0.0
  0
LINE
  5
18C4C
330
18C48
100
AcDbEntity
  8
寸法
 62
     0
 48
50.0
370
    -2
100
AcDbLine
 10
4131.160902108532
 20
8942.516699398941
 30
0.0
 11
5194.160902108448
 21
8942.516699398941
 31
0.0
  0
INSERT
  5
18C4D
330
18C48
100
AcDbEntity
  8
寸法
 62
     0
 48
50.0
370
    -2
100
AcDbBlockReference
  2
_DOTSMALL
 10
4131.160902108532
 20
8942.516699398941
 30
0.0
 41
100.0
 42
100.0
 43
100.0
 50
180.0
  0
INSERT
  5
18C4E
330
18C48
100
AcDbEntity
  8
寸法
 62
     0
 48
50.0
370
    -2
100
AcDbBlockReference
  2
_DOTSMALL
 10
5194.160902108448
 20
8942.516699398941
 30
0.0
 41
100.0
 42
100.0
 43
100.0
  0
MTEXT
  5
18C4F
330
18C48
100
AcDbEntity
  8
寸法
 62
     7
 48
50.0
100
AcDbMText
 10
4658.986452655306
 20
9042.516699398941
 30
0.0
 40
120.0
 41
0.0
 71
     5
 72
     1
  1
\A1;1063
  7
STYLE1
 73
     1
 44
1.0
1001
ACAD
1000
MTEXTBEGIN
1070
    73
1070
     1
1070
    44
1040
1.0
1070
    74
1070
     0
1000
MTEXTEND
  0
POINT
  5
18C50
330
18C48
100
AcDbEntity
  8
DEFPOINTS
 62
     0
 48
50.0
100
AcDbPoint
 10
4188.396575106999
 20
9156.123139034617
 30
0.0
  0
POINT
  5
18C51
330
18C48
100
AcDbEntity
  8
DEFPOINTS
 62
     0
 48
50.0
100
AcDbPoint
 10
5251.396575106929
 20
9156.123139034672
 30
0.0
  0
POINT
  5
18C52
330
18C48
100
AcDbEntity
  8
DEFPOINTS
 62
     0
 48
50.0
100
AcDbPoint
 10
5194.160902108448
 20
8942.516699398941
 30
0.0
  0
ENDBLK
  5
18C53
330
18C48
100
AcDbEntity
  8
0
 48
50.0
100
AcDbBlockEnd
  0
BLOCK
  5
18C55
330
18C54
100
AcDbEntity
  8
0
 48
50.0
100
AcDbBlockBegin
  2
*D14
 70
     1
 10
0.0
 20
0.0
 30
0.0
  3
*D14
  1

  0
LINE
  5
18C56
330
18C54
100
AcDbEntity
  8
寸法
 62
     0
 48
50.0
370
    -2
100
AcDbLine
 10
5274.037591258307
 20
9136.123139034669
 30
0.0
 11
5206.08395056258
 21
8882.516699398941
 31
0.0
  0
LINE
  5
18C57
330
18C54
100
AcDbEntity
  8
寸法
 62
     0
 48
50.0
370
    -2
100
AcDbLine
 10
6505.037591258377
 20
9136.123139034662
 30
0.0
 11
6437.083950562653
 21
8882.516699398941
 31
0.0
  0
LINE
  5
18C58
330
18C54
100
AcDbEntity
  8
寸法
 62
     0
 48
50.0
370
    -2
100
AcDbLine
 10
5222.160902108448
 20
8942.516699398941
 30
0.0
 11
6453.16090210852
 21
8942.516699398941
 31
0.0
  0
INSERT
  5
18C59
330
18C54
100
AcDbEntity
  8
寸法
 62
     0
 48
50.0
370
    -2
100
AcDbBlockReference
  2
_DOTSMALL
 10
5222.160902108448
 20
8942.516699398941
 30
0.0
 41
100.0
 42
100.0
 43
100.0
 50
180.0
  0
INSERT
  5
18C5A
330
18C54
100
AcDbEntity
  8
寸法
 62
     0
 48
50.0
370
    -2
100
AcDbBlockReference
  2
_DOTSMALL
 10
6453.16090210852
 20
8942.516699398941
 30
0.0
 41
100.0
 42
100.0
 43
100.0
  0
MTEXT
  5
18C5B
330
18C54
100
AcDbEntity
  8
寸法
 62
     7
 48
50.0
100
AcDbMText
 10
6081.244808320626
 20
9042.528510422561
 30
0.0
 40
120.0
 41
0.0
 71
     5
 72
     1
  1
\A1;1231
  7
STYLE1
 73
     1
 44
1.0
1001
ACAD
1000
MTEXTBEGIN
1070
    73
1070
     1
1070
    44
1040
1.0
1070
    74
1070
     0
1000
MTEXTEND
  0
POINT
  5
18C5C
330
18C54
100
AcDbEntity
  8
DEFPOINTS
 62
     0
 48
50.0
100
AcDbPoint
 10
5279.396575106929
 20
9156.123139034669
 30
0.0
  0
POINT
  5
18C5D
330
18C54
100
AcDbEntity
  8
DEFPOINTS
 62
     0
 48
50.0
100
AcDbPoint
 10
6510.396575106999
 20
9156.123139034662
 30
0.0
  0
POINT
  5
18C5E
330
18C54
100
AcDbEntity
  8
DEFPOINTS
 62
     0
 48
50.0
100
AcDbPoint
 10
6453.16090210852
 20
8942.516699398941
 30
0.0
  0
ENDBLK
  5
18C5F
330
18C54
100
AcDbEntity
  8
0
 48
50.0
100
AcDbBlockEnd
  0
BLOCK
  5
18C61
330
18C60
100
AcDbEntity
  8
0
 48
50.0
100
AcDbBlockBegin
  2
*D15
 70
     1
 10
0.0
 20
0.0
 30
0.0
  3
*D15
  1

  0
LINE
  5
18C62
330
18C60
100
AcDbEntity
  8
寸法
 62
     0
 48
50.0
370
    -2
100
AcDbLine
 10
5065.896575106966
 20
7749.123139034579
 30
0.0
 11
5065.896575106966
 21
7099.952920982538
 31
0.0
  0
LINE
  5
18C63
330
18C60
100
AcDbEntity
  8
寸法
 62
     0
 48
50.0
370
    -2
100
AcDbLine
 10
6331.896575106966
 20
7749.123139034579
 30
0.0
 11
6331.896575106966
 21
7099.952920982538
 31
0.0
  0
LINE
  5
18C64
330
18C60
100
AcDbEntity
  8
寸法
 62
     0
 48
50.0
370
    -2
100
AcDbLine
 10
5065.896575106966
 20
7159.952920982537
 30
0.0
 11
6331.896575106966
 21
7159.952920982537
 31
0.0
  0
INSERT
  5
18C65
330
18C60
100
AcDbEntity
  8
寸法
 62
     0
 48
50.0
370
    -2
100
AcDbBlockReference
  2
_DOTSMALL
 10
5065.896575106966
 20
7159.952920982537
 30
0.0
 41
100.0
 42
100.0
 43
100.0
 50
180.0
  0
INSERT
  5
18C66
330
18C60
100
AcDbEntity
  8
寸法
 62
     0
 48
50.0
370
    -2
100
AcDbBlockReference
  2
_DOTSMALL
 10
6331.896575106966
 20
7159.952920982537
 30
0.0
 41
100.0
 42
100.0
 43
100.0
  0
MTEXT
  5
18C67
330
18C60
100
AcDbEntity
  8
寸法
 62
     7
 48
50.0
100
AcDbMText
 10
5711.986008735934
 20
7359.964732006159
 30
0.0
 40
120.0
 41
0.0
 71
     5
 72
     1
  1
\A1;有効開口部間口\P1266
  7
STYLE1
 73
     1
 44
1.0
1001
ACAD
1000
MTEXTBEGIN
1070
    73
1070
     1
1070
    44
1040
1.0
1070
    74
1070
     0
1000
MTEXTEND
  0
POINT
  5
18C68
330
18C60
100
AcDbEntity
  8
DEFPOINTS
 62
     0
 48
50.0
100
AcDbPoint
 10
5065.896575106966
 20
7769.123139034579
 30
0.0
  0
POINT
  5
18C69
330
18C60
100
AcDbEntity
  8
DEFPOINTS
 62
     0
 48
50.0
100
AcDbPoint
 10
6331.896575106966
 20
7769.123139034579
 30
0.0
  0
POINT
  5
18C6A
330
18C60
100
AcDbEntity
  8
DEFPOINTS
 62
     0
 48
50.0
100
AcDbPoint
 10
6331.896575106966
 20
7159.952920982537
 30
0.0
  0
ENDBLK
  5
18C6B
330
18C60
100
AcDbEntity
  8
0
 48
50.0
100
AcDbBlockEnd
  0
BLOCK
  5
18C6D
330
18C6C
100
AcDbEntity
  8
0
 48
50.0
100
AcDbBlockBegin
  2
*D16
 70
     1
 10
0.0
 20
0.0
 30
0.0
  3
*D16
  1

  0
LINE
  5
18C6E
330
18C6C
100
AcDbEntity
  8
寸法
 62
     0
 48
50.0
370
    -2
100
AcDbLine
 10
7200.896575106966
 20
7846.123139034578
 30
0.0
 11
7457.192158500191
 21
7846.123139034578
 31
0.0
  0
LINE
  5
18C6F
330
18C6C
100
AcDbEntity
  8
寸法
 62
     0
 48
50.0
370
    -2
100
AcDbLine
 10
7199.896575106966
 20
7769.123139034579
 30
0.0
 11
7457.192158500191
 21
7769.123139034579
 31
0.0
  0
LINE
  5
18C70
330
18C6C
100
AcDbEntity
  8
寸法
 62
     0
 48
50.0
370
    -2
100
AcDbLine
 10
7417.192158500192
 20
7866.123139034579
 30
0.0
 11
7417.192158500192
 21
7886.123139034578
 31
0.0
  0
LINE
  5
18C71
330
18C6C
100
AcDbEntity
  8
寸法
 62
     0
 48
50.0
370
    -2
100
AcDbLine
 10
7417.192158500192
 20
7749.123139034579
 30
0.0
 11
7417.192158500192
 21
7533.123139034573
 31
0.0
  0
LINE
  5
18C72
330
18C6C
100
AcDbEntity
  8
寸法
 62
     0
 48
50.0
370
    -2
100
AcDbLine
 10
7417.192158500192
 20
7846.123139034578
 30
0.0
 11
7417.192158500192
 21
7769.123139034579
 31
0.0
  0
INSERT
  5
18C73
330
18C6C
100
AcDbEntity
  8
寸法
 62
     0
 48
50.0
370
    -2
100
AcDbBlockReference
  2
_DOT
 10
7417.192158500192
 20
7846.123139034578
 30
0.0
 41
20.0
 42
20.0
 43
20.0
 50
270.0
  0
INSERT
  5
18C74
330
18C6C
100
AcDbEntity
  8
寸法
 62
     0
 48
50.0
370
    -2
100
AcDbBlockReference
  2
_DOT
 10
7417.192158500192
 20
7769.123139034579
 30
0.0
 41
20.0
 42
20.0
 43
20.0
 50
90.0
  0
MTEXT
  5
18C75
330
18C6C
100
AcDbEntity
  8
寸法
 62
     7
 48
50.0
100
AcDbMText
 10
7325.192158500191
 20
7631.123139034575
 30
0.0
 40
120.0
 41
0.0
 71
     5
 72
     1
  1
\A1;77
  7
STYLE1
 11
0.0000000000000001
 21
1.0
 31
0.0
 73
     1
 44
1.0
1001
ACAD
1000
MTEXTBEGIN
1070
    73
1070
     1
1070
    44
1040
1.0
1070
    74
1070
     0
1000
MTEXTEND
  0
POINT
  5
18C76
330
18C6C
100
AcDbEntity
  8
DEFPOINTS
 62
     0
 48
50.0
100
AcDbPoint
 10
7180.896575106967
 20
7846.123139034578
 30
0.0
  0
POINT
  5
18C77
330
18C6C
100
AcDbEntity
  8
DEFPOINTS
 62
     0
 48
50.0
100
AcDbPoint
 10
7179.896575106965
 20
7769.123139034579
 30
0.0
  0
POINT
  5
18C78
330
18C6C
100
AcDbEntity
  8
DEFPOINTS
 62
     0
 48
50.0
100
AcDbPoint
 10
7417.192158500192
 20
7769.123139034579
 30
0.0
  0
ENDBLK
  5
18C79
330
18C6C
100
AcDbEntity
  8
0
 48
50.0
100
AcDbBlockEnd
  0
BLOCK
  5
18DA0
330
18C7A
100
AcDbEntity
  8
0
 48
50.0
100
AcDbBlockBegin
  2
A$C3B1A506B
 70
     0
 10
0.0
 20
0.0
 30
0.0
  3
A$C3B1A506B
  1

  0
MTEXT
  5
18C7B
330
18C7A
100
AcDbEntity
  8
寸法
 62
     7
 48
50.0
100
AcDbMText
 10
3342.250386887194
 20
2778.329429134012
 30
0.0
 40
96.0
 41
0.0
 71
     5
 72
     1
  1
棚 2段
  7
STYLE1
 73
     1
 44
1.0
1001
ACAD
1000
MTEXTBEGIN
1070
    73
1070
     1
1070
    44
1040
1.0
1070
    74
1070
     0
1000
MTEXTEND
  0
MTEXT
  5
18C7C
330
18C7A
100
AcDbEntity
  8
寸法
 62
     7
 48
50.0
100
AcDbMText
 10
2167.25038688716
 20
2778.329429133986
 30
0.0
 40
96.0
 41
0.0
 71
     5
 72
     1
  1
棚 2段
  7
STYLE1
 73
     1
 44
1.0
1001
ACAD
1000
MTEXTBEGIN
1070
    73
1070
     1
1070
    44
1040
1.0
1070
    74
1070
     0
1000
MTEXTEND
  0
MTEXT
  5
18C7D
330
18C7A
100
AcDbEntity
  8
寸法
 62
     7
 48
50.0
100
AcDbMText
 10
992.2503868871608
 20
2778.329429133935
 30
0.0
 40
96.0
 41
0.0
 71
     5
 72
     1
  1
棚 2段
  7
STYLE1
 73
     1
 44
1.0
1001
ACAD
1000
MTEXTBEGIN
1070
    73
1070
     1
1070
    44
1040
1.0
1070
    74
1070
     0
1000
MTEXTEND
  0
LINE
  5
18C7E
330
18C7A
100
AcDbEntity
  8
細線
 48
50.0
100
AcDbLine
 10
2771.970589276527
 20
1368.994384123192
 30
0.0
 11
3398.970589276523
 21
1368.994384123192
 31
0.0
  0
LINE
  5
18C7F
330
18C7A
100
AcDbEntity
  8
細線
 48
50.0
100
AcDbLine
 10
2117.970593930113
 20
1335.285615569113
 30
0.0
 11
3398.970589276523
 21
1335.285615569113
 31
0.0
  0
LINE
  5
18C80
330
18C7A
100
AcDbEntity
  8
細線
 48
50.0
100
AcDbLine
 10
2076.970593930115
 20
1364.690523565368
 30
0.0
 11
1322.970589276523
 21
1364.690523565367
 31
0.0
  0
LINE
  5
18C81
330
18C7A
100
AcDbEntity
  8
細線
100
AcDbLine
 10
3170.720579860066
 20
1388.494284088199
 30
0.0
 11
3173.052119381877
 21
1393.494286728162
 31
0.0
  0
LINE
  5
18C82
330
18C7A
100
AcDbEntity
  8
細線
100
AcDbLine
 10
3240.720589276525
 20
1388.494269174465
 30
0.0
 11
3238.389042800336
 21
1393.494286728144
 31
0.0
  0
LINE
  5
18C83
330
18C7A
100
AcDbEntity
  8
細線
100
AcDbLine
 10
3238.389042800336
 20
1393.494286728144
 30
0.0
 11
3173.052119381862
 21
1393.494286728133
 31
0.0
  0
LINE
  5
18C84
330
18C7A
100
AcDbEntity
  8
細線
100
AcDbLine
 10
3098.389042800336
 20
1393.494286728144
 30
0.0
 11
3033.052119381862
 21
1393.494286728133
 31
0.0
  0
LINE
  5
18C85
330
18C7A
100
AcDbEntity
  8
細線
100
AcDbLine
 10
3100.720589276523
 20
1388.494269174465
 30
0.0
 11
3098.389042800336
 21
1393.494286728144
 31
0.0
  0
LINE
  5
18C86
330
18C7A
100
AcDbEntity
  8
細線
100
AcDbLine
 10
3030.720579860066
 20
1388.494284088199
 30
0.0
 11
3033.052119381875
 21
1393.494286728162
 31
0.0
  0
LINE
  5
18C87
330
18C7A
100
AcDbEntity
  8
細線
100
AcDbLine
 10
2890.720589276525
 20
1388.494269174465
 30
0.0
 11
2893.052128798336
 21
1393.494271814428
 31
0.0
  0
LINE
  5
18C88
330
18C7A
100
AcDbEntity
  8
細線
100
AcDbLine
 10
2960.720598692984
 20
1388.494254260731
 30
0.0
 11
2958.389052216793
 21
1393.49427181441
 31
0.0
  0
LINE
  5
18C89
330
18C7A
100
AcDbEntity
  8
細線
100
AcDbLine
 10
2958.389052216795
 20
1393.49427181441
 30
0.0
 11
2893.052128798321
 21
1393.494271814399
 31
0.0
  0
LINE
  5
18C8A
330
18C7A
100
AcDbEntity
  8
細線
100
AcDbLine
 10
2667.139038146739
 20
1359.494298590735
 30
0.0
 11
2601.802114728263
 21
1359.494298590724
 31
0.0
  0
LINE
  5
18C8B
330
18C7A
100
AcDbEntity
  8
細線
100
AcDbLine
 10
2669.470584622926
 20
1354.494281037055
 30
0.0
 11
2667.139038146737
 21
1359.494298590735
 31
0.0
  0
LINE
  5
18C8C
330
18C7A
100
AcDbEntity
  8
細線
100
AcDbLine
 10
2599.470575206469
 20
1354.49429595079
 30
0.0
 11
2601.802114728278
 21
1359.494298590752
 31
0.0
  0
LINE
  5
18C8D
330
18C7A
100
AcDbEntity
  8
細線
 48
50.0
100
AcDbLine
 10
2440.853968524536
 20
1372.765132327548
 30
0.0
 11
2446.609486107205
 21
1354.494281037057
 31
0.0
  0
LINE
  5
18C8E
330
18C7A
100
AcDbEntity
  8
細線
 48
50.0
100
AcDbLine
 10
2429.925520044106
 20
1372.765132327546
 30
0.0
 11
2440.853968524536
 21
1372.765132327548
 31
0.0
  0
ARC
  5
18C8F
330
18C7A
100
AcDbEntity
  8
細線
 48
50.0
100
AcDbCircle
 10
2424.471163986787
 20
1374.265132327546
 30
0.0
 40
5.0
100
AcDbArc
 50
204.6243183520723
 51
335.3756816479278
  0
ARC
  5
18C90
330
18C7A
100
AcDbEntity
  8
細線
 48
50.0
100
AcDbCircle
 10
2429.925520044106
 20
1371.765132327546
 30
0.0
 40
1.0
100
AcDbArc
 50
90.0
 51
155.3756816479277
  0
ARC
  5
18C91
330
18C7A
100
AcDbEntity
  8
細線
 48
50.0
100
AcDbCircle
 10
2419.016807929469
 20
1371.765132327546
 30
0.0
 40
1.0
100
AcDbArc
 50
24.62431835207225
 51
90.0
  0
LINE
  5
18C92
330
18C7A
100
AcDbEntity
  8
細線
 48
50.0
100
AcDbLine
 10
2408.088359449037
 20
1372.765132327548
 30
0.0
 11
2419.016807929469
 21
1372.765132327546
 31
0.0
  0
LINE
  5
18C93
330
18C7A
100
AcDbEntity
  8
細線
 48
50.0
100
AcDbLine
 10
2402.33284186637
 20
1354.494281037054
 30
0.0
 11
2408.088359449037
 21
1372.765132327548
 31
0.0
  0
LINE
  5
18C94
330
18C7A
100
AcDbEntity
  8
細線
100
AcDbLine
 10
2458.070304175992
 20
1354.494278397076
 30
0.0
 11
2460.401843697802
 21
1359.494281037039
 31
0.0
  0
LINE
  5
18C95
330
18C7A
100
AcDbEntity
  8
細線
100
AcDbLine
 10
2528.070313592451
 20
1354.494263483342
 30
0.0
 11
2525.738767116262
 21
1359.494281037021
 31
0.0
  0
LINE
  5
18C96
330
18C7A
100
AcDbEntity
  8
細線
100
AcDbLine
 10
2525.738767116262
 20
1359.494281037021
 30
0.0
 11
2460.40184369779
 21
1359.49428103701
 31
0.0
  0
LINE
  5
18C97
330
18C7A
100
AcDbEntity
  8
細線
100
AcDbLine
 10
2387.139046332155
 20
1359.494281037021
 30
0.0
 11
2321.80212291368
 21
1359.49428103701
 31
0.0
  0
LINE
  5
18C98
330
18C7A
100
AcDbEntity
  8
細線
100
AcDbLine
 10
2389.470592808342
 20
1354.494263483342
 30
0.0
 11
2387.139046332153
 21
1359.494281037021
 31
0.0
  0
LINE
  5
18C99
330
18C7A
100
AcDbEntity
  8
細線
100
AcDbLine
 10
2319.470584622926
 20
1354.494281037054
 30
0.0
 11
2321.802122913694
 21
1359.494281037039
 31
0.0
  0
LINE
  5
18C9A
330
18C7A
100
AcDbEntity
  8
細線
100
AcDbLine
 10
2179.47061994182
 20
1354.494289224422
 30
0.0
 11
2181.802158232587
 21
1359.494289224407
 31
0.0
  0
LINE
  5
18C9B
330
18C7A
100
AcDbEntity
  8
細線
100
AcDbLine
 10
2249.470628127236
 20
1354.49427167071
 30
0.0
 11
2247.139081651047
 21
1359.494289224389
 31
0.0
  0
LINE
  5
18C9C
330
18C7A
100
AcDbEntity
  8
細線
100
AcDbLine
 10
2247.139081651047
 20
1359.494289224389
 30
0.0
 11
2181.802158232573
 21
1359.494289224378
 31
0.0
  0
LINE
  5
18C9D
330
18C7A
100
AcDbEntity
  8
細線
100
AcDbLine
 10
1807.970585744697
 20
1320.494460905133
 30
0.0
 11
1810.302124035464
 21
1325.494460905118
 31
0.0
  0
LINE
  5
18C9E
330
18C7A
100
AcDbEntity
  8
細線
100
AcDbLine
 10
1877.970593930113
 20
1320.494443351421
 30
0.0
 11
1875.639047453926
 21
1325.4944609051
 31
0.0
  0
LINE
  5
18C9F
330
18C7A
100
AcDbEntity
  8
細線
100
AcDbLine
 10
1875.639047453926
 20
1325.4944609051
 30
0.0
 11
1810.302124035452
 21
1325.494460905089
 31
0.0
  0
LINE
  5
18CA0
330
18C7A
100
AcDbEntity
  8
細線
100
AcDbLine
 10
2015.639047453926
 20
1325.4944609051
 30
0.0
 11
1950.302124035452
 21
1325.494460905089
 31
0.0
  0
LINE
  5
18CA1
330
18C7A
100
AcDbEntity
  8
細線
100
AcDbLine
 10
2017.970593930113
 20
1320.494443351421
 30
0.0
 11
2015.639047453924
 21
1325.4944609051
 31
0.0
  0
LINE
  5
18CA2
330
18C7A
100
AcDbEntity
  8
細線
100
AcDbLine
 10
1947.970585744697
 20
1320.494460905133
 30
0.0
 11
1950.302124035465
 21
1325.494460905118
 31
0.0
  0
LINE
  5
18CA3
330
18C7A
100
AcDbEntity
  8
細線
100
AcDbLine
 10
1735.639047453926
 20
1325.494460905098
 30
0.0
 11
1670.302124035454
 21
1325.494460905087
 31
0.0
  0
LINE
  5
18CA4
330
18C7A
100
AcDbEntity
  8
細線
100
AcDbLine
 10
1737.970593930113
 20
1320.494443351419
 30
0.0
 11
1735.639047453926
 21
1325.494460905098
 31
0.0
  0
LINE
  5
18CA5
330
18C7A
100
AcDbEntity
  8
細線
100
AcDbLine
 10
1667.970585744697
 20
1320.494460905131
 30
0.0
 11
1670.302124035465
 21
1325.494460905116
 31
0.0
  0
LINE
  5
18CA6
330
18C7A
100
AcDbEntity
  8
細線
100
AcDbLine
 10
1527.970593930113
 20
1320.494460905133
 30
0.0
 11
1530.302132220881
 21
1325.494460905118
 31
0.0
  0
LINE
  5
18CA7
330
18C7A
100
AcDbEntity
  8
細線
100
AcDbLine
 10
1597.970602115529
 20
1320.494443351421
 30
0.0
 11
1595.639055639342
 21
1325.4944609051
 31
0.0
  0
LINE
  5
18CA8
330
18C7A
100
AcDbEntity
  8
細線
100
AcDbLine
 10
1595.639055639342
 20
1325.4944609051
 30
0.0
 11
1530.302132220869
 21
1325.494460905089
 31
0.0
  0
ARC
  5
18CA9
330
18C7A
100
AcDbEntity
  8
部品1
 48
0.01
100
AcDbCircle
 10
1483.470482677778
 20
1319.493338720063
 30
0.0
 40
0.5
100
AcDbArc
 50
270.0
 51
0.0
  0
LINE
  5
18CAA
330
18C7A
100
AcDbEntity
  8
部品1
 48
0.01
100
AcDbLine
 10
1483.970482677778
 20
1320.493338720063
 30
0.0
 11
1483.970482677778
 21
1319.493338720063
 31
0.0
  0
LINE
  5
18CAB
330
18C7A
100
AcDbEntity
  8
部品1
 48
0.01
100
AcDbLine
 10
1483.970482677778
 20
1320.493338720063
 30
0.0
 11
1483.970482677778
 21
1319.493338720063
 31
0.0
  0
LINE
  5
18CAC
330
18C7A
100
AcDbEntity
  8
部品1
 48
0.01
100
AcDbLine
 10
1483.470482677778
 20
1318.993338720063
 30
0.0
 11
1476.857977247713
 21
1318.993338720062
 31
0.0
  0
ARC
  5
18CAD
330
18C7A
100
AcDbEntity
  8
部品1
100
AcDbCircle
 10
1476.926326800494
 20
1319.993338720062
 30
0.0
 40
1.0
100
AcDbArc
 50
160.5287793655865
 51
270.0
  0
ARC
  5
18CAE
330
18C7A
100
AcDbEntity
  8
部品1
100
AcDbCircle
 10
1451.470482677778
 20
1328.993338720062
 30
0.0
 40
26.0
100
AcDbArc
 50
340.5287793655865
 51
0.0
  0
LINE
  5
18CAF
330
18C7A
100
AcDbEntity
  8
部品1
100
AcDbLine
 10
1477.470482677778
 20
1328.993338720062
 30
0.0
 11
1477.470482677778
 21
1333.993338720061
 31
0.0
  0
ARC
  5
18CB0
330
18C7A
100
AcDbEntity
  8
部品1
 48
0.01
100
AcDbCircle
 10
1475.470482677778
 20
1333.993338720061
 30
0.0
 40
2.0
100
AcDbArc
 50
0.0
 51
90.0
  0
ARC
  5
18CB1
330
18C7A
100
AcDbEntity
  8
部品1
100
AcDbCircle
 10
1473.862091052968
 20
1332.993338720062
 30
0.0
 40
3.0
100
AcDbArc
 50
90.0
 51
141.6069559808035
  0
LINE
  5
18CB2
330
18C7A
100
AcDbEntity
  8
部品1
 48
0.01
100
AcDbLine
 10
1475.470482677778
 20
1335.993338720062
 30
0.0
 11
1473.862091052968
 21
1335.993338720062
 31
0.0
  0
ARC
  5
18CB3
330
18C7A
100
AcDbEntity
  8
部品1
100
AcDbCircle
 10
1455.399768463507
 20
1332.293338720065
 30
0.0
 40
3.0
100
AcDbArc
 50
254.0576313943215
 51
270.0
  0
ARC
  5
18CB4
330
18C7A
100
AcDbEntity
  8
部品1
100
AcDbCircle
 10
1462.541196892049
 20
1332.293338720065
 30
0.0
 40
3.0
100
AcDbArc
 50
270.0
 51
285.9423686056786
  0
LINE
  5
18CB5
330
18C7A
100
AcDbEntity
  8
部品1
100
AcDbLine
 10
1462.541196892049
 20
1329.293338720064
 30
0.0
 11
1455.399768463507
 21
1329.293338720064
 31
0.0
  0
ARC
  5
18CB6
330
18C7A
100
AcDbEntity
  8
部品1
100
AcDbCircle
 10
1458.970482677778
 20
1344.793338720065
 30
0.0
 40
16.0
100
AcDbArc
 50
285.9423686056786
 51
321.6069559808035
  0
LINE
  5
18CB7
330
18C7A
100
AcDbEntity
  8
部品1
 48
0.01
100
AcDbLine
 10
1442.470482677778
 20
1335.993338720062
 30
0.0
 11
1444.078874302588
 21
1335.993338720062
 31
0.0
  0
ARC
  5
18CB8
330
18C7A
100
AcDbEntity
  8
部品1
100
AcDbCircle
 10
1444.078874302588
 20
1332.993338720062
 30
0.0
 40
3.0
100
AcDbArc
 50
38.39304401919648
 51
90.0
  0
ARC
  5
18CB9
330
18C7A
100
AcDbEntity
  8
部品1
100
AcDbCircle
 10
1458.970482677778
 20
1344.793338720065
 30
0.0
 40
16.0
100
AcDbArc
 50
218.3930440191965
 51
254.0576313943215
  0
LINE
  5
18CBA
330
18C7A
100
AcDbEntity
  8
部品1
100
AcDbLine
 10
1440.470482677778
 20
1328.993338720062
 30
0.0
 11
1440.470482677778
 21
1333.993338720061
 31
0.0
  0
ARC
  5
18CBB
330
18C7A
100
AcDbEntity
  8
部品1
 48
0.01
100
AcDbCircle
 10
1442.470482677778
 20
1333.993338720061
 30
0.0
 40
2.0
100
AcDbArc
 50
90.0
 51
180.0
  0
ARC
  5
18CBC
330
18C7A
100
AcDbEntity
  8
部品1
100
AcDbCircle
 10
1466.470482677778
 20
1328.993338720062
 30
0.0
 40
26.0
100
AcDbArc
 50
180.0
 51
199.4712206344134
  0
ARC
  5
18CBD
330
18C7A
100
AcDbEntity
  8
部品1
 48
0.01
100
AcDbCircle
 10
1434.470482677778
 20
1319.493338720063
 30
0.0
 40
0.5
100
AcDbArc
 50
180.0
 51
270.0
  0
LINE
  5
18CBE
330
18C7A
100
AcDbEntity
  8
部品1
 48
0.01
100
AcDbLine
 10
1434.470482677778
 20
1318.993338720063
 30
0.0
 11
1441.014638555061
 21
1318.993338720062
 31
0.0
  0
LINE
  5
18CBF
330
18C7A
100
AcDbEntity
  8
部品1
 48
0.01
100
AcDbLine
 10
1433.970482677778
 20
1320.493338720063
 30
0.0
 11
1433.970482677778
 21
1319.493338720063
 31
0.0
  0
ARC
  5
18CC0
330
18C7A
100
AcDbEntity
  8
部品1
100
AcDbCircle
 10
1441.014638555061
 20
1319.993338720062
 30
0.0
 40
1.0
100
AcDbArc
 50
270.0
 51
19.47122063441346
  0
LINE
  5
18CC1
330
18C7A
100
AcDbEntity
  8
細線
100
AcDbLine
 10
1479.470482677785
 20
1338.493338720065
 30
0.0
 11
1438.470482677785
 21
1338.493338720058
 31
0.0
  0
LINE
  5
18CC2
330
18C7A
100
AcDbEntity
  8
細線
100
AcDbLine
 10
1438.470482677785
 20
1338.493338720058
 30
0.0
 11
1438.470482677785
 21
1320.49333872004
 31
0.0
  0
LINE
  5
18CC3
330
18C7A
100
AcDbEntity
  8
細線
100
AcDbLine
 10
1479.470482677785
 20
1338.493338720065
 30
0.0
 11
1479.470482677785
 21
1320.49333872004
 31
0.0
  0
LINE
  5
18CC4
330
18C7A
100
AcDbEntity
  8
細線
100
AcDbLine
 10
1322.970589276523
 20
1324.494269174465
 30
0.0
 11
1322.970589276523
 21
1320.494269174513
 31
0.0
  0
LINE
  5
18CC5
330
18C7A
100
AcDbEntity
  8
寸法
 48
50.0
100
AcDbLine
 10
1746.17359555837
 20
1170.531020743327
 30
0.0
 11
1694.767587648266
 21
1170.531020743327
 31
0.0
  0
LINE
  5
18CC6
330
18C7A
100
AcDbEntity
  8
寸法
 48
50.0
100
AcDbLine
 10
1694.767587648266
 20
1170.531020743327
 30
0.0
 11
1694.767587648266
 21
1201.841179395494
 31
0.0
  0
LINE
  5
18CC7
330
18C7A
100
AcDbEntity
  8
寸法
 48
50.0
100
AcDbLine
 10
1694.767587648266
 20
1201.841179395494
 30
0.0
 11
1665.006255656843
 21
1201.841179395494
 31
0.0
  0
LINE
  5
18CC8
330
18C7A
100
AcDbEntity
  8
寸法
 48
50.0
100
AcDbLine
 10
1665.006255656843
 20
1201.841179395494
 30
0.0
 11
1720.470591603318
 21
1239.420630324105
 31
0.0
  0
LINE
  5
18CC9
330
18C7A
100
AcDbEntity
  8
寸法
 48
50.0
100
AcDbLine
 10
1775.934927549793
 20
1201.841179395494
 30
0.0
 11
1720.470591603318
 21
1239.420630324105
 31
0.0
  0
LINE
  5
18CCA
330
18C7A
100
AcDbEntity
  8
寸法
 48
50.0
100
AcDbLine
 10
1746.17359555837
 20
1201.841179395494
 30
0.0
 11
1775.934927549793
 21
1201.841179395494
 31
0.0
  0
LINE
  5
18CCB
330
18C7A
100
AcDbEntity
  8
寸法
 48
50.0
100
AcDbLine
 10
1746.17359555837
 20
1170.531020743327
 30
0.0
 11
1746.17359555837
 21
1201.841179395494
 31
0.0
  0
LINE
  5
18CCC
330
18C7A
100
AcDbEntity
  8
寸法
 48
50.0
100
AcDbLine
 10
1694.767587648266
 20
1170.531020743327
 30
0.0
 11
1746.17359555837
 21
1170.531020743327
 31
0.0
  0
LINE
  5
18CCD
330
18C7A
100
AcDbEntity
  8
寸法
 48
50.0
100
AcDbLine
 10
2025.339129835225
 20
1227.676611498152
 30
0.0
 11
2025.339129835225
 21
1174.01297691636
 31
0.0
  0
LINE
  5
18CCE
330
18C7A
100
AcDbEntity
  8
寸法
 48
50.0
100
AcDbLine
 10
2114.623348430647
 20
1203.752977228664
 30
0.0
 11
2025.339129835225
 21
1227.676611498152
 31
0.0
  0
LINE
  5
18CCF
330
18C7A
100
AcDbEntity
  8
寸法
 48
50.0
100
AcDbLine
 10
1895.471408254923
 20
1203.752977228664
 30
0.0
 11
2114.623348430647
 21
1203.752977228664
 31
0.0
  0
DIMENSION
  5
18CD0
330
18C7A
100
AcDbEntity
  8
寸法
 48
50.0
100
AcDbDimension
  2
*D15
 10
2588.970589276523
 20
706.3240511224249
 30
0.0
 11
1969.060022905491
 21
706.3240511224249
 31
0.0
 12
-3742.925985830444
 22
-6453.628869860112
 32
0.0
 70
   128
  1
有効開口部間口\P<>
 71
     5
 42
1266.0
  3
INABA_S40G
100
AcDbAlignedDimension
 13
1322.970589276523
 23
1315.494269174465
 33
0.0
 14
2588.970589276523
 24
1315.494269174465
 34
0.0
100
AcDbRotatedDimension
1001
ACAD
1000
DSTYLE
1002
{
1070
   341
1005
0
1002
}
  0
LINE
  5
18CD1
330
18C7A
100
AcDbEntity
  8
部品1
100
AcDbLine
 10
3409.970589276524
 20
1392.494269174465
 30
0.0
 11
3437.970589276523
 21
1392.494269174465
 31
0.0
  0
DIMENSION
  5
18CD2
330
18C7A
100
AcDbEntity
  8
寸法
100
AcDbDimension
  2
*D16
 10
3674.266172669749
 20
1315.494269174465
 30
0.0
 11
3674.266172669748
 21
1177.494269174462
 31
0.0
 12
-3742.925985830444
 22
-6453.628869860112
 32
0.0
 70
   128
 71
     5
 42
77.0
  3
INABA_S40
100
AcDbAlignedDimension
 13
3437.970589276523
 23
1392.494269174465
 33
0.0
 14
3436.970589276523
 24
1315.494269174465
 34
0.0
 50
90.0
100
AcDbRotatedDimension
1001
ACAD
1000
DSTYLE
1002
{
1070
    41
1040
0.5
1070
    44
1040
1.0
1070
   147
1040
0.8
1070
   271
1070
     2
1070
   272
1070
     2
1070
   289
1070
     3
1070
   340
1005
F706
1070
   343
1005
164B4
1070
   344
1005
164B4
1002
}
  0
LINE
  5
18CD3
330
18C7A
100
AcDbEntity
  8
部品1
100
AcDbLine
 10
3437.970589276523
 20
1315.494269174465
 30
0.0
 11
3437.970589276523
 21
1392.494269174465
 31
0.0
  0
LINE
  5
18CD4
330
18C7A
100
AcDbEntity
  8
部品1
100
AcDbLine
 10
3398.970589276523
 20
1388.494269174465
 30
0.0
 11
3409.970589276524
 21
1388.494269174465
 31
0.0
  0
LINE
  5
18CD5
330
18C7A
100
AcDbEntity
  8
部品1
100
AcDbLine
 10
3407.970589276523
 20
1324.494269174465
 30
0.0
 11
3407.970589276523
 21
1315.494269174465
 31
0.0
  0
LINE
  5
18CD6
330
18C7A
100
AcDbEntity
  8
部品1
100
AcDbLine
 10
3398.970589276523
 20
1324.494269174465
 30
0.0
 11
3407.970589276523
 21
1324.494269174465
 31
0.0
  0
LINE
  5
18CD7
330
18C7A
100
AcDbEntity
  8
部品1
100
AcDbLine
 10
3398.970589276523
 20
1388.494269174465
 30
0.0
 11
3398.970589276523
 21
1324.494269174465
 31
0.0
  0
LINE
  5
18CD8
330
18C7A
100
AcDbEntity
  8
部品1
100
AcDbLine
 10
3409.970589276524
 20
1419.494269174465
 30
0.0
 11
3409.970589276524
 21
1388.494269174465
 31
0.0
  0
LINE
  5
18CD9
330
18C7A
100
AcDbEntity
  8
部品1
100
AcDbLine
 10
1322.970589276523
 20
1388.494269174465
 30
0.0
 11
1311.970589276523
 21
1388.494269174465
 31
0.0
  0
LINE
  5
18CDA
330
18C7A
100
AcDbEntity
  8
部品1
100
AcDbLine
 10
1283.970589276523
 20
1392.494269174465
 30
0.0
 11
1311.970589276523
 21
1392.494269174465
 31
0.0
  0
LINE
  5
18CDB
330
18C7A
100
AcDbEntity
  8
部品1
100
AcDbLine
 10
1313.970589276523
 20
1324.494269174465
 30
0.0
 11
1313.970589276523
 21
1315.494269174465
 31
0.0
  0
LINE
  5
18CDC
330
18C7A
100
AcDbEntity
  8
部品1
100
AcDbLine
 10
1322.970589276523
 20
1324.494269174465
 30
0.0
 11
1313.970589276523
 21
1324.494269174465
 31
0.0
  0
LINE
  5
18CDD
330
18C7A
100
AcDbEntity
  8
部品1
100
AcDbLine
 10
1313.970589276523
 20
1315.494269174465
 30
0.0
 11
1283.970589276523
 21
1315.494269174465
 31
0.0
  0
LINE
  5
18CDE
330
18C7A
100
AcDbEntity
  8
部品1
100
AcDbLine
 10
1283.970589276523
 20
1315.494269174465
 30
0.0
 11
1283.970589276523
 21
1392.494269174465
 31
0.0
  0
LINE
  5
18CDF
330
18C7A
100
AcDbEntity
  8
部品1
100
AcDbLine
 10
1322.970589276523
 20
1388.494269174465
 30
0.0
 11
1322.970589276523
 21
1324.494269174465
 31
0.0
  0
LINE
  5
18CE0
330
18C7A
100
AcDbEntity
  8
部品1
100
AcDbLine
 10
1311.970589276523
 20
1419.494269174462
 30
0.0
 11
1311.970589276523
 21
1388.494269174465
 31
0.0
  0
LINE
  5
18CE1
330
18C7A
100
AcDbEntity
  8
部品1
100
AcDbLine
 10
1311.970589276523
 20
1419.494269174462
 30
0.0
 11
3409.970589276524
 21
1419.494269174465
 31
0.0
  0
LINE
  5
18CE2
330
18C7A
100
AcDbEntity
  8
部品1
100
AcDbLine
 10
3407.970589276523
 20
1315.494269174465
 30
0.0
 11
3437.970589276523
 21
1315.494269174465
 31
0.0
  0
LINE
  5
18CE3
330
18C7A
100
AcDbEntity
  8
部品1
100
AcDbLine
 10
1313.970589276523
 20
1315.494269174465
 30
0.0
 11
3410.970589276523
 21
1315.494269174465
 31
0.0
  0
LINE
  5
18CE4
330
18C7A
100
AcDbEntity
  8
細線
  6
Continuous
 62
     5
100
AcDbLine
 10
2689.970589276527
 20
1354.494269174462
 30
0.0
 11
2689.970589276527
 21
1354.494269174462
 31
0.0
  0
LINE
  5
18CE5
330
18C7A
100
AcDbEntity
  8
細線
  6
Continuous
 62
     5
100
AcDbLine
 10
2682.470589276527
 20
1354.494269174462
 30
0.0
 11
2682.470589276527
 21
1354.494269174462
 31
0.0
  0
LINE
  5
18CE6
330
18C7A
100
AcDbEntity
  8
細線
  6
Continuous
 62
     5
100
AcDbLine
 10
2676.470589276527
 20
1354.494269174462
 30
0.0
 11
2676.470589276527
 21
1354.494269174462
 31
0.0
  0
LINE
  5
18CE7
330
18C7A
100
AcDbEntity
  8
細線
  6
Continuous
 62
     5
100
AcDbLine
 10
2743.970589276527
 20
1373.494269174462
 30
0.0
 11
2743.970589276527
 21
1373.494269174462
 31
0.0
  0
LINE
  5
18CE8
330
18C7A
100
AcDbEntity
  8
細線
 48
50.0
100
AcDbLine
 10
1336.970593930116
 20
1341.094443351418
 30
0.0
 11
1336.970593930113
 21
1349.490593759059
 31
0.0
  0
LINE
  5
18CE9
330
18C7A
100
AcDbEntity
  8
細線
 48
50.0
100
AcDbLine
 10
1336.970593930113
 20
1349.490593759059
 30
0.0
 11
1322.970589276523
 21
1349.490593759057
 31
0.0
  0
LINE
  5
18CEA
330
18C7A
100
AcDbEntity
  8
細線
 48
50.0
100
AcDbLine
 10
2087.970593930113
 20
1337.644443351419
 30
0.0
 11
2087.970593930113
 21
1342.494443351421
 31
0.0
  0
LINE
  5
18CEB
330
18C7A
100
AcDbEntity
  8
細線
 48
50.0
100
AcDbLine
 10
2087.970593930113
 20
1342.494443351421
 30
0.0
 11
2102.970593930113
 21
1342.494443351421
 31
0.0
  0
LINE
  5
18CEC
330
18C7A
100
AcDbEntity
  8
細線
 48
50.0
100
AcDbLine
 10
2102.970593930113
 20
1342.494443351421
 30
0.0
 11
2102.970593930115
 21
1349.494443351419
 31
0.0
  0
LINE
  5
18CED
330
18C7A
100
AcDbEntity
  8
細線
 48
50.0
100
AcDbLine
 10
2102.970593930115
 20
1349.494443351419
 30
0.0
 11
2117.970593930113
 21
1349.494443351419
 31
0.0
  0
LINE
  5
18CEE
330
18C7A
100
AcDbEntity
  8
細線
 48
50.0
100
AcDbLine
 10
2117.970593930113
 20
1349.494443351419
 30
0.0
 11
2117.970593930113
 21
1320.494443351421
 31
0.0
  0
LINE
  5
18CEF
330
18C7A
100
AcDbEntity
  8
細線
 48
50.0
100
AcDbLine
 10
1313.970589276523
 20
1320.491777694889
 30
0.0
 11
1527.970593930113
 21
1320.494460905133
 31
0.0
  0
LINE
  5
18CF0
330
18C7A
100
AcDbEntity
  8
細線
 48
50.0
100
AcDbLine
 10
2017.970593930113
 20
1320.494443351421
 30
0.0
 11
2117.970593930113
 21
1320.494443351421
 31
0.0
  0
LINE
  5
18CF1
330
18C7A
100
AcDbEntity
  8
細線
 48
50.0
100
AcDbLine
 10
1737.970593930113
 20
1320.494443351419
 30
0.0
 11
1807.970593930113
 21
1320.494443351423
 31
0.0
  0
LINE
  5
18CF2
330
18C7A
100
AcDbEntity
  8
細線
 48
50.0
100
AcDbLine
 10
1750.832558942642
 20
1320.494443351419
 30
0.0
 11
1756.588076525309
 21
1338.765294641913
 31
0.0
  0
LINE
  5
18CF3
330
18C7A
100
AcDbEntity
  8
細線
 48
50.0
100
AcDbLine
 10
1756.588076525309
 20
1338.765294641913
 30
0.0
 11
1767.516525005743
 21
1338.765294641911
 31
0.0
  0
ARC
  5
18CF4
330
18C7A
100
AcDbEntity
  8
細線
 48
50.0
100
AcDbCircle
 10
1767.516525005743
 20
1337.765294641911
 30
0.0
 40
1.0
100
AcDbArc
 50
24.62431835207225
 51
90.0
  0
ARC
  5
18CF5
330
18C7A
100
AcDbEntity
  8
細線
 48
50.0
100
AcDbCircle
 10
1778.425237120377
 20
1337.765294641911
 30
0.0
 40
1.0
100
AcDbArc
 50
90.0
 51
155.3756816479277
  0
ARC
  5
18CF6
330
18C7A
100
AcDbEntity
  8
細線
 48
50.0
100
AcDbCircle
 10
1772.970881063058
 20
1340.265294641911
 30
0.0
 40
5.0
100
AcDbArc
 50
204.6243183520723
 51
335.3756816479278
  0
LINE
  5
18CF7
330
18C7A
100
AcDbEntity
  8
細線
 48
50.0
100
AcDbLine
 10
1778.425237120377
 20
1338.765294641911
 30
0.0
 11
1789.35368560081
 21
1338.765294641913
 31
0.0
  0
LINE
  5
18CF8
330
18C7A
100
AcDbEntity
  8
細線
 48
50.0
100
AcDbLine
 10
1789.35368560081
 20
1338.765294641913
 30
0.0
 11
1795.109203183478
 21
1320.494443351423
 31
0.0
  0
LINE
  5
18CF9
330
18C7A
100
AcDbEntity
  8
細線
 48
50.0
100
AcDbLine
 10
2087.970593930113
 20
1341.094443351419
 30
0.0
 11
1336.970593930116
 21
1341.094443351418
 31
0.0
  0
LINE
  5
18CFA
330
18C7A
100
AcDbEntity
  8
細線
 48
50.0
100
AcDbLine
 10
1947.970593930113
 20
1320.494443351421
 30
0.0
 11
1877.970593930113
 21
1320.494443351421
 31
0.0
  0
LINE
  5
18CFB
330
18C7A
100
AcDbEntity
  8
細線
100
AcDbLine
 10
1667.970593930113
 20
1320.494443351421
 30
0.0
 11
1597.970602115529
 21
1320.494443351421
 31
0.0
  0
LINE
  5
18CFC
330
18C7A
100
AcDbEntity
  8
細線
 48
50.0
100
AcDbLine
 10
2741.970584622936
 20
1375.094487209288
 30
0.0
 11
2106.970593930113
 21
1375.094487209284
 31
0.0
  0
LINE
  5
18CFD
330
18C7A
100
AcDbEntity
  8
細線
 48
50.0
100
AcDbLine
 10
2106.970593930113
 20
1371.990637616925
 30
0.0
 11
2106.970593930113
 21
1376.490637616925
 31
0.0
  0
LINE
  5
18CFE
330
18C7A
100
AcDbEntity
  8
細線
 48
50.0
100
AcDbLine
 10
2106.970593930113
 20
1376.490637616925
 30
0.0
 11
2091.970593930113
 21
1376.490637616925
 31
0.0
  0
LINE
  5
18CFF
330
18C7A
100
AcDbEntity
  8
細線
 48
50.0
100
AcDbLine
 10
2091.970593930113
 20
1376.490637616925
 30
0.0
 11
2091.970593930113
 21
1383.490637616927
 31
0.0
  0
LINE
  5
18D00
330
18C7A
100
AcDbEntity
  8
細線
 48
50.0
100
AcDbLine
 10
2091.970593930113
 20
1383.490637616927
 30
0.0
 11
2076.970593930115
 21
1383.490637616924
 31
0.0
  0
LINE
  5
18D01
330
18C7A
100
AcDbEntity
  8
細線
 48
50.0
100
AcDbLine
 10
2076.970593930115
 20
1383.490637616924
 30
0.0
 11
2076.970593930115
 21
1345.890409513813
 31
0.0
  0
LINE
  5
18D02
330
18C7A
100
AcDbEntity
  8
細線
 48
50.0
100
AcDbLine
 10
2076.970593930115
 20
1345.890409513813
 30
0.0
 11
2096.970601231289
 21
1345.890451063353
 31
0.0
  0
LINE
  5
18D03
330
18C7A
100
AcDbEntity
  8
細線
 48
50.0
100
AcDbLine
 10
2096.970556362348
 20
1354.493912699161
 30
0.0
 11
2096.970601231289
 21
1345.890451063353
 31
0.0
  0
LINE
  5
18D04
330
18C7A
100
AcDbEntity
  8
細線
 48
50.0
100
AcDbLine
 10
2741.970584622936
 20
1371.644487209287
 30
0.0
 11
2741.970584622936
 21
1376.494487209284
 31
0.0
  0
LINE
  5
18D05
330
18C7A
100
AcDbEntity
  8
細線
 48
50.0
100
AcDbLine
 10
2741.970584622936
 20
1376.494487209284
 30
0.0
 11
2756.970584622934
 21
1376.494487209285
 31
0.0
  0
LINE
  5
18D06
330
18C7A
100
AcDbEntity
  8
細線
 48
50.0
100
AcDbLine
 10
2756.970584622934
 20
1376.494487209285
 30
0.0
 11
2756.970596256909
 21
1383.494487209331
 31
0.0
  0
LINE
  5
18D07
330
18C7A
100
AcDbEntity
  8
細線
 48
50.0
100
AcDbLine
 10
2756.970596256909
 20
1383.494487209331
 30
0.0
 11
2771.970594427439
 21
1383.494487209329
 31
0.0
  0
LINE
  5
18D08
330
18C7A
100
AcDbEntity
  8
細線
 48
50.0
100
AcDbLine
 10
2771.970594427439
 20
1383.494487209329
 30
0.0
 11
2771.970584125617
 21
1354.494281037055
 31
0.0
  0
LINE
  5
18D09
330
18C7A
100
AcDbEntity
  8
細線
 48
50.0
100
AcDbLine
 10
2458.070304175992
 20
1354.494278397076
 30
0.0
 11
2389.470863838818
 21
1354.494283787084
 31
0.0
  0
LINE
  5
18D0A
330
18C7A
100
AcDbEntity
  8
細線
 48
50.0
100
AcDbLine
 10
2096.970556362348
 20
1354.493912699161
 30
0.0
 11
2108.203245717057
 21
1354.494095652309
 31
0.0
  0
ARC
  5
18D0B
330
18C7A
100
AcDbEntity
  8
細線
 48
50.0
100
AcDbCircle
 10
2114.785538024393
 20
1353.294259565922
 30
0.0
 40
1.8
100
AcDbArc
 50
270.0006665777295
 51
345.000555481349
  0
LINE
  5
18D0C
330
18C7A
100
AcDbEntity
  8
細線
 48
50.0
100
AcDbLine
 10
2116.771971470473
 20
1353.753100023201
 30
0.0
 11
2116.524209028273
 21
1352.828402141094
 31
0.0
  0
LINE
  5
18D0D
330
18C7A
100
AcDbEntity
  8
細線
 48
50.0
100
AcDbLine
 10
2114.785558965548
 20
1351.494259566043
 30
0.0
 11
2111.155631546781
 21
1351.494217335563
 31
0.0
  0
ARC
  5
18D0E
330
18C7A
100
AcDbEntity
  8
細線
 48
50.0
100
AcDbCircle
 10
2111.155610605627
 20
1353.29421733544
 30
0.0
 40
1.8
100
AcDbArc
 50
195.0010443049965
 51
270.0006665777295
  0
LINE
  5
18D0F
330
18C7A
100
AcDbEntity
  8
細線
 48
50.0
100
AcDbLine
 10
2109.169183113368
 20
1353.752932303007
 30
0.0
 11
2109.416952609882
 21
1352.828311364425
 31
0.0
  0
ARC
  5
18D10
330
18C7A
100
AcDbEntity
  8
細線
 48
50.0
100
AcDbCircle
 10
2108.203262004622
 20
1353.494095652444
 30
0.0
 40
1.0
100
AcDbArc
 50
15.00104430499651
 51
90.00093320877969
  0
LINE
  5
18D11
330
18C7A
100
AcDbEntity
  8
細線
 48
50.0
100
AcDbLine
 10
2117.737892825577
 20
1354.494290342714
 30
0.0
 11
2118.679652976481
 21
1354.494296916564
 31
0.0
  0
ARC
  5
18D12
330
18C7A
100
AcDbEntity
  8
細線
 48
50.0
100
AcDbCircle
 10
2117.737899805961
 20
1353.49429034274
 30
0.0
 40
1.0
100
AcDbArc
 50
90.0003999466794
 51
165.000555481349
  0
LINE
  5
18D13
330
18C7A
100
AcDbEntity
  8
細線
 48
50.0
100
AcDbLine
 10
2669.470584622926
 20
1354.494281037055
 30
0.0
 11
2771.970584125617
 21
1354.494281037055
 31
0.0
  0
LINE
  5
18D14
330
18C7A
100
AcDbEntity
  8
細線
 48
50.0
100
AcDbLine
 10
2179.47061994182
 20
1354.494289224422
 30
0.0
 11
2118.370558714898
 21
1354.494296916564
 31
0.0
  0
LINE
  5
18D15
330
18C7A
100
AcDbEntity
  8
細線
 48
50.0
100
AcDbLine
 10
2599.470584622926
 20
1354.494281037057
 30
0.0
 11
2529.470584622926
 21
1354.494281037055
 31
0.0
  0
LINE
  5
18D16
330
18C7A
100
AcDbEntity
  8
細線
 48
50.0
100
AcDbLine
 10
2319.470584622926
 20
1354.494281037054
 30
0.0
 11
2249.470567335051
 21
1354.494281037057
 31
0.0
  0
ARC
  5
18D17
330
18C7A
100
AcDbEntity
  8
細線
 48
50.0
100
AcDbCircle
 10
2756.170589276533
 20
1387.694269174466
 30
0.0
 40
0.8
100
AcDbArc
 50
359.9997333689499
 51
89.99986668437072
  0
ARC
  5
18D18
330
18C7A
100
AcDbEntity
  8
細線
 48
50.0
100
AcDbCircle
 10
2763.770596101631
 20
1387.694280343081
 30
0.0
 40
0.8
100
AcDbArc
 50
90.00014387753465
 51
179.9997333689498
  0
LINE
  5
18D19
330
18C7A
100
AcDbEntity
  8
細線
 48
50.0
100
AcDbLine
 10
2756.170591137969
 20
1388.494269174465
 30
0.0
 11
2750.970589276525
 21
1388.494269174465
 31
0.0
  0
ARC
  5
18D1A
330
18C7A
100
AcDbEntity
  8
細線
 48
50.0
100
AcDbCircle
 10
2757.670589276524
 20
1386.194269174464
 30
0.0
 40
0.7
100
AcDbArc
 50
180.0
 51
270.0
  0
ARC
  5
18D1B
330
18C7A
100
AcDbEntity
  8
細線
 48
50.0
100
AcDbCircle
 10
2762.270589276524
 20
1386.194269174464
 30
0.0
 40
0.7
100
AcDbArc
 50
270.0
 51
0.0
  0
LINE
  5
18D1C
330
18C7A
100
AcDbEntity
  8
細線
 48
50.0
100
AcDbLine
 10
2762.970589276525
 20
1386.194269174464
 30
0.0
 11
2762.970596101639
 21
1387.694284065954
 31
0.0
  0
LINE
  5
18D1D
330
18C7A
100
AcDbEntity
  8
細線
 48
50.0
100
AcDbLine
 10
2757.670589276524
 20
1385.494269174465
 30
0.0
 11
2762.270589276524
 21
1385.494269174465
 31
0.0
  0
LINE
  5
18D1E
330
18C7A
100
AcDbEntity
  8
細線
 48
50.0
100
AcDbLine
 10
2756.970589276525
 20
1387.694269174466
 30
0.0
 11
2756.970589276525
 21
1386.194269174464
 31
0.0
  0
LINE
  5
18D1F
330
18C7A
100
AcDbEntity
  8
細線
 48
50.0
100
AcDbLine
 10
3382.570589276527
 20
1418.494269174465
 30
0.0
 11
2745.970589276525
 21
1418.494269174463
 31
0.0
  0
LINE
  5
18D20
330
18C7A
100
AcDbEntity
  8
細線
 48
50.0
100
AcDbLine
 10
3408.470589276525
 20
1413.494269174467
 30
0.0
 11
3392.570589276527
 21
1413.494269174465
 31
0.0
  0
LINE
  5
18D21
330
18C7A
100
AcDbEntity
  8
細線
 48
50.0
100
AcDbLine
 10
3392.570589276526
 20
1413.494269174465
 30
0.0
 11
3382.570589276527
 21
1418.494269174465
 31
0.0
  0
LINE
  5
18D22
330
18C7A
100
AcDbEntity
  8
細線
100
AcDbLine
 10
2993.470589276525
 20
1388.494269174465
 30
0.0
 11
2993.470589276525
 21
1417.794269174464
 31
0.0
  0
LINE
  5
18D23
330
18C7A
100
AcDbEntity
  8
細線
100
AcDbLine
 10
2993.470589276525
 20
1417.794269174464
 30
0.0
 11
3013.470589276525
 21
1417.794269174464
 31
0.0
  0
LINE
  5
18D24
330
18C7A
100
AcDbEntity
  8
細線
100
AcDbLine
 10
3013.470589276525
 20
1388.494269174465
 30
0.0
 11
3013.470589276525
 21
1417.794269174464
 31
0.0
  0
LINE
  5
18D25
330
18C7A
100
AcDbEntity
  8
細線
100
AcDbLine
 10
3170.720589276524
 20
1388.494269174465
 30
0.0
 11
3100.720589276523
 21
1388.494269174465
 31
0.0
  0
LINE
  5
18D26
330
18C7A
100
AcDbEntity
  8
細線
 48
50.0
100
AcDbLine
 10
2890.720589276525
 20
1388.494269174465
 30
0.0
 11
2763.766368849365
 21
1388.494269174465
 31
0.0
  0
LINE
  5
18D27
330
18C7A
100
AcDbEntity
  8
細線
100
AcDbLine
 10
3030.720589276525
 20
1388.494269174465
 30
0.0
 11
2960.720589276525
 21
1388.494269174465
 31
0.0
  0
LINE
  5
18D28
330
18C7A
100
AcDbEntity
  8
細線
 48
50.0
100
AcDbLine
 10
2750.970589276525
 20
1380.494269174465
 30
0.0
 11
2750.970589276525
 21
1388.494269174465
 31
0.0
  0
LINE
  5
18D29
330
18C7A
100
AcDbEntity
  8
細線
 48
50.0
100
AcDbLine
 10
2730.970589276524
 20
1380.494269174467
 30
0.0
 11
2750.970589276525
 21
1380.494269174465
 31
0.0
  0
LINE
  5
18D2A
330
18C7A
100
AcDbEntity
  8
細線
 48
50.0
100
AcDbLine
 10
2745.970589276525
 20
1418.494269174465
 30
0.0
 11
2745.970589276525
 21
1413.494269174465
 31
0.0
  0
LINE
  5
18D2B
330
18C7A
100
AcDbEntity
  8
細線
 48
50.0
100
AcDbLine
 10
2730.970589276525
 20
1418.494269174463
 30
0.0
 11
2745.970589276525
 21
1418.494269174465
 31
0.0
  0
LINE
  5
18D2C
330
18C7A
100
AcDbEntity
  8
細線
 48
50.0
100
AcDbLine
 10
2730.970589276524
 20
1380.494269174467
 30
0.0
 11
2730.970589276525
 21
1418.494269174463
 31
0.0
  0
LINE
  5
18D2D
330
18C7A
100
AcDbEntity
  8
細線
100
AcDbLine
 10
3398.970589276523
 20
1388.494269174465
 30
0.0
 11
3240.720589276525
 21
1388.494269174465
 31
0.0
  0
LINE
  5
18D2E
330
18C7A
100
AcDbEntity
  8
細線
 48
50.0
100
AcDbLine
 10
3408.470589276525
 20
1413.494269174467
 30
0.0
 11
3408.470589276524
 21
1388.494269174465
 31
0.0
  0
TEXT
  5
18D2F
330
18C7A
100
AcDbEntity
  8
部品1
100
AcDbText
 10
1860.154865991392
 20
46.99880823813145
 30
0.0
 40
135.0
  1
平面図
  7
STYLE2
100
AcDbText
  0
LWPOLYLINE
  5
18D30
330
18C7A
100
AcDbEntity
  8
部品1
100
AcDbPolyline
 90
        4
 70
     1
 43
0.0
 10
1770.23525616235
 20
239.8923374566548
 10
1770.23525616235
 20
0.0000159111223184
 10
2533.705922390791
 20
0.0000159111223184
 10
2533.705922390791
 20
239.8923374566548
  0
LINE
  5
18D31
330
18C7A
100
AcDbEntity
  8
部品1
100
AcDbLine
 10
1534.470589276487
 20
3154.494269174626
 30
0.0
 11
2769.470589276552
 21
3154.494269174626
 31
0.0
  0
LINE
  5
18D32
330
18C7A
100
AcDbEntity
  8
部品1
 48
50.0
100
AcDbLine
 10
1311.970589276523
 20
1420.494269174462
 30
0.0
 11
3411.970589276523
 21
1420.494269174465
 31
0.0
  0
LINE
  5
18D33
330
18C7A
100
AcDbEntity
  8
部品1
 48
50.0
100
AcDbLine
 10
471.9705892765232
 20
1392.494269174465
 30
0.0
 11
1311.970589276523
 21
1392.494269174465
 31
0.0
  0
DIMENSION
  5
18D34
330
18C7A
100
AcDbEntity
  8
寸法
100
AcDbDimension
  2
*D14
 10
2710.234916278077
 20
2488.887829538828
 30
0.0
 11
2338.318822490183
 21
2488.887829538828
 31
0.0
 12
-3742.925985830444
 22
-6453.628869860112
 32
0.0
 70
   128
 71
     5
 42
1231.00000000007
  3
INABA_S40G
100
AcDbAlignedDimension
 13
1536.470589276486
 23
2702.494269174557
 33
0.0
 14
2767.470589276556
 24
2702.494269174549
 34
0.0
100
AcDbRotatedDimension
1001
ACAD
1000
DSTYLE
1002
{
1002
}
  0
LINE
  5
18D35
330
18C7A
100
AcDbEntity
  8
部品1
100
AcDbLine
 10
1536.470589276487
 20
2702.494269174557
 30
0.0
 11
2767.470589276554
 21
2702.494269174615
 31
0.0
  0
LINE
  5
18D36
330
18C7A
100
AcDbEntity
  8
部品1
100
AcDbLine
 10
1536.470589276487
 20
3152.494269174557
 30
0.0
 11
2767.470589276556
 21
3152.494269174615
 31
0.0
  0
LINE
  5
18D37
330
18C7A
100
AcDbEntity
  8
細線
 48
50.0
100
AcDbLine
 10
1508.470589276487
 20
3152.494269174558
 30
0.0
 11
445.4705892765559
 21
2702.494269174509
 31
0.0
  0
LINE
  5
18D38
330
18C7A
100
AcDbEntity
  8
細線
 48
50.0
100
AcDbLine
 10
1508.470589276487
 20
2702.494269174558
 30
0.0
 11
445.4705892765542
 21
3152.494269174509
 31
0.0
  0
LINE
  5
18D39
330
18C7A
100
AcDbEntity
  8
部品1
100
AcDbLine
 10
1556.970589276487
 20
3172.494269174611
 30
0.0
 11
1556.970589276487
 21
3154.494269174611
 31
0.0
  0
LINE
  5
18D3A
330
18C7A
100
AcDbEntity
  8
部品1
100
AcDbLine
 10
1556.970589276487
 20
3172.494269174611
 30
0.0
 11
1550.970589276487
 21
3172.494269174611
 31
0.0
  0
LINE
  5
18D3B
330
18C7A
100
AcDbEntity
  8
部品1
100
AcDbLine
 10
1534.470589276487
 20
3146.494269174608
 30
0.0
 11
1509.470589276487
 21
3146.494269174611
 31
0.0
  0
LINE
  5
18D3C
330
18C7A
100
AcDbEntity
  8
部品1
100
AcDbLine
 10
1486.970589276487
 20
3172.494269174611
 30
0.0
 11
1486.970589276487
 21
3154.494269174611
 31
0.0
  0
LINE
  5
18D3D
330
18C7A
100
AcDbEntity
  8
部品1
100
AcDbLine
 10
1492.970589276487
 20
3172.494269174611
 30
0.0
 11
1486.970589276487
 21
3172.494269174611
 31
0.0
  0
LINE
  5
18D3E
330
18C7A
100
AcDbEntity
  8
部品1
100
AcDbLine
 10
1534.470589276487
 20
2702.494269174615
 30
0.0
 11
1509.470589276487
 21
2702.494269174615
 31
0.0
  0
LINE
  5
18D3F
330
18C7A
100
AcDbEntity
  8
部品1
 48
50.0
100
AcDbLine
 10
1536.470589276487
 20
3152.494269174611
 30
0.0
 11
1536.470589276487
 21
2702.494269174615
 31
0.0
  0
LINE
  5
18D40
330
18C7A
100
AcDbEntity
  8
部品1
 48
50.0
100
AcDbLine
 10
1508.470589276487
 20
3152.494269174607
 30
0.0
 11
1508.470589276487
 21
2702.494269174615
 31
0.0
  0
LINE
  5
18D41
330
18C7A
100
AcDbEntity
  8
部品1
 48
50.0
100
AcDbLine
 10
1534.470589276487
 20
3154.494269174618
 30
0.0
 11
1534.470589276487
 21
2702.494269174615
 31
0.0
  0
LINE
  5
18D42
330
18C7A
100
AcDbEntity
  8
部品1
 48
50.0
100
AcDbLine
 10
1509.470589276487
 20
3154.494269174615
 30
0.0
 11
1509.470589276487
 21
2702.494269174615
 31
0.0
  0
LINE
  5
18D43
330
18C7A
100
AcDbEntity
  8
部品1
100
AcDbLine
 10
3411.970589276556
 20
1392.494269174582
 30
0.0
 11
3411.970589276556
 21
1420.494269174596
 31
0.0
  0
LINE
  5
18D44
330
18C7A
100
AcDbEntity
  8
部品1
100
AcDbLine
 10
1311.970589276523
 20
1392.494269174596
 30
0.0
 11
1311.970589276523
 21
1420.494269174596
 31
0.0
  0
LINE
  5
18D45
330
18C7A
100
AcDbEntity
  8
部品1
100
AcDbLine
 10
891.9705892765232
 20
1392.494269174596
 30
0.0
 11
891.9705892765232
 21
1420.494269174596
 31
0.0
  0
LINE
  5
18D46
330
18C7A
100
AcDbEntity
  8
部品1
100
AcDbLine
 10
3411.97058927652
 20
3182.494269174477
 30
0.0
 11
3411.970589276523
 21
3154.494269174477
 31
0.0
  0
LINE
  5
18D47
330
18C7A
100
AcDbEntity
  8
部品1
100
AcDbLine
 10
2571.97058927652
 20
3182.494269174477
 30
0.0
 11
2571.970589276523
 21
3154.494269174477
 31
0.0
  0
LINE
  5
18D48
330
18C7A
100
AcDbEntity
  8
部品1
100
AcDbLine
 10
2991.97058927652
 20
3182.494269174477
 30
0.0
 11
2991.970589276523
 21
3154.494269174477
 31
0.0
  0
LINE
  5
18D49
330
18C7A
100
AcDbEntity
  8
部品1
100
AcDbLine
 10
2151.970589276519
 20
3182.494269174477
 30
0.0
 11
2151.970589276523
 21
3154.494269174477
 31
0.0
  0
LINE
  5
18D4A
330
18C7A
100
AcDbEntity
  8
部品1
100
AcDbLine
 10
1731.970589276519
 20
3182.494269174477
 30
0.0
 11
1731.970589276523
 21
3154.494269174477
 31
0.0
  0
LINE
  5
18D4B
330
18C7A
100
AcDbEntity
  8
部品1
100
AcDbLine
 10
1311.970589276519
 20
3182.494269174477
 30
0.0
 11
1311.970589276523
 21
3154.494269174477
 31
0.0
  0
LINE
  5
18D4C
330
18C7A
100
AcDbEntity
  8
部品1
100
AcDbLine
 10
891.9705892765195
 20
3182.494269174477
 30
0.0
 11
891.9705892765232
 21
3154.494269174477
 31
0.0
  0
LINE
  5
18D4D
330
18C7A
100
AcDbEntity
  8
部品1
100
AcDbLine
 10
471.9705892765232
 20
1392.494269174596
 30
0.0
 11
471.9705892765232
 21
1420.494269174596
 31
0.0
  0
LINE
  5
18D4E
330
18C7A
100
AcDbEntity
  8
部品1
100
AcDbLine
 10
444.9705892765305
 20
1420.494269174558
 30
0.0
 11
3858.970589276556
 21
1420.494269174596
 31
0.0
  0
LINE
  5
18D4F
330
18C7A
100
AcDbEntity
  8
部品1
100
AcDbLine
 10
3831.970589276556
 20
1392.494269174596
 30
0.0
 11
3831.970589276556
 21
1420.494269174596
 31
0.0
  0
LINE
  5
18D50
330
18C7A
100
AcDbEntity
  8
部品1
100
AcDbLine
 10
3858.970589276556
 20
1447.494269174593
 30
0.0
 11
3886.970589276556
 21
1447.494269174593
 31
0.0
  0
LINE
  5
18D51
330
18C7A
100
AcDbEntity
  8
部品1
100
AcDbLine
 10
3858.970589276556
 20
1867.494269174607
 30
0.0
 11
3886.970589276556
 21
1867.494269174607
 31
0.0
  0
LINE
  5
18D52
330
18C7A
100
AcDbEntity
  8
部品1
100
AcDbLine
 10
444.9705892765305
 20
1867.49426917448
 30
0.0
 11
416.9705892765305
 21
1867.49426917448
 31
0.0
  0
LINE
  5
18D53
330
18C7A
100
AcDbEntity
  8
部品1
100
AcDbLine
 10
3830.470589276541
 20
1867.49426917458
 30
0.0
 11
473.4705892765396
 21
1867.49426917448
 31
0.0
  0
LINE
  5
18D54
330
18C7A
100
AcDbEntity
  8
部品1
100
AcDbLine
 10
3830.470589276541
 20
2287.49426917458
 30
0.0
 11
473.4705892765396
 21
2287.49426917448
 31
0.0
  0
LINE
  5
18D55
330
18C7A
100
AcDbEntity
  8
部品1
100
AcDbLine
 10
444.9705892765305
 20
2287.49426917448
 30
0.0
 11
416.9705892765305
 21
2287.49426917448
 31
0.0
  0
LINE
  5
18D56
330
18C7A
100
AcDbEntity
  8
部品1
100
AcDbLine
 10
3858.970589276556
 20
2287.494269174608
 30
0.0
 11
3886.970589276556
 21
2287.494269174608
 31
0.0
  0
LINE
  5
18D57
330
18C7A
100
AcDbEntity
  8
部品1
 48
50.0
100
AcDbLine
 10
2151.970589276551
 20
2702.494269174586
 30
0.0
 11
2151.970589276581
 21
1448.994269174494
 31
0.0
  0
LINE
  5
18D58
330
18C7A
100
AcDbEntity
  8
破線
 48
10.0
100
AcDbLine
 10
2959.470589276535
 20
1472.494269174522
 30
0.0
 11
2176.970589276532
 21
1472.494269174505
 31
0.0
  0
LINE
  5
18D59
330
18C7A
100
AcDbEntity
  8
破線
 48
10.0
100
AcDbLine
 10
3009.47058927653
 20
1448.994269174509
 30
0.0
 11
3009.47058927653
 21
2702.494269174615
 31
0.0
  0
LINE
  5
18D5A
330
18C7A
100
AcDbEntity
  8
破線
 48
10.0
100
AcDbLine
 10
2959.470589276535
 20
1448.994269174505
 30
0.0
 11
2959.470589276531
 21
2702.494269174615
 31
0.0
  0
LINE
  5
18D5B
330
18C7A
100
AcDbEntity
  8
破線
 48
10.0
100
AcDbLine
 10
1344.47058927653
 20
1448.994269174509
 30
0.0
 11
1344.47058927653
 21
2702.494269174615
 31
0.0
  0
LINE
  5
18D5C
330
18C7A
100
AcDbEntity
  8
破線
 48
10.0
100
AcDbLine
 10
1294.470589276534
 20
1448.994269174505
 30
0.0
 11
1294.47058927653
 21
2702.494269174615
 31
0.0
  0
DIMENSION
  5
18D5D
330
18C7A
100
AcDbEntity
  8
寸法
100
AcDbDimension
  2
*D13
 10
1451.234916278005
 20
2488.887829538828
 30
0.0
 11
916.0604668248634
 21
2488.887829538828
 31
0.0
 12
-3742.925985830444
 22
-6453.628869860112
 32
0.0
 70
   128
 71
     5
 42
1062.99999999993
  3
INABA_S40G
100
AcDbAlignedDimension
 13
445.4705892765559
 23
2702.494269174505
 33
0.0
 14
1508.470589276486
 24
2702.494269174558
 34
0.0
100
AcDbRotatedDimension
1001
ACAD
1000
DSTYLE
1002
{
1002
}
  0
LINE
  5
18D5E
330
18C7A
100
AcDbEntity
  8
破線
 48
10.0
100
AcDbLine
 10
1294.470589276534
 20
1472.494269174469
 30
0.0
 11
496.9705892765414
 21
1472.494269174476
 31
0.0
  0
LINE
  5
18D5F
330
18C7A
100
AcDbEntity
  8
部品1
100
AcDbLine
 10
3831.970589276556
 20
3182.494269174604
 30
0.0
 11
3831.970589276556
 21
3154.494269174604
 31
0.0
  0
LINE
  5
18D60
330
18C7A
100
AcDbEntity
  8
部品1
100
AcDbLine
 10
3831.970589276556
 20
3182.494269174626
 30
0.0
 11
3831.970589276556
 21
3154.494269174626
 31
0.0
  0
LINE
  5
18D61
330
18C7A
100
AcDbEntity
  8
部品1
100
AcDbLine
 10
3858.970589276556
 20
3127.494269174607
 30
0.0
 11
3886.970589276556
 21
3127.494269174607
 31
0.0
  0
LINE
  5
18D62
330
18C7A
100
AcDbEntity
  8
部品1
100
AcDbLine
 10
3858.970589276556
 20
2707.494269174608
 30
0.0
 11
3886.970589276556
 21
2707.494269174608
 31
0.0
  0
LINE
  5
18D63
330
18C7A
100
AcDbEntity
  8
部品1
100
AcDbLine
 10
3858.470589276556
 20
3152.494269174604
 30
0.0
 11
3858.470589276556
 21
2702.494269174608
 31
0.0
  0
LINE
  5
18D64
330
18C7A
100
AcDbEntity
  8
部品1
100
AcDbLine
 10
3886.970589276533
 20
1447.494269174593
 30
0.0
 11
3886.970589276531
 21
1392.494269174596
 31
0.0
  0
LINE
  5
18D65
330
18C7A
100
AcDbEntity
  8
部品1
 48
50.0
100
AcDbLine
 10
3830.470589276556
 20
1448.994269174596
 30
0.0
 11
3858.970589276554
 21
1420.494269174596
 31
0.0
  0
LINE
  5
18D66
330
18C7A
100
AcDbEntity
  8
部品1
100
AcDbLine
 10
3886.970589276531
 20
1392.494269174596
 30
0.0
 11
3835.970589276531
 21
1392.494269174596
 31
0.0
  0
LINE
  5
18D67
330
18C7A
100
AcDbEntity
  8
部品1
100
AcDbLine
 10
3858.970589276533
 20
1447.494269174593
 30
0.0
 11
3886.970589276531
 21
1447.494269174593
 31
0.0
  0
LINE
  5
18D68
330
18C7A
100
AcDbEntity
  8
部品1
100
AcDbLine
 10
3886.970589276556
 20
3182.494269174604
 30
0.0
 11
3886.970589276531
 21
1392.494269174596
 31
0.0
  0
DIMENSION
  5
18D69
330
18C7A
100
AcDbEntity
  8
寸法
100
AcDbDimension
  2
*D12
 10
4534.396935010967
 20
1447.494269174593
 30
0.0
 11
4534.396935010965
 21
2287.4942691746
 31
0.0
 12
-3742.925985830444
 22
-6453.628869860112
 32
0.0
 70
   128
  1
4X420=<>
 71
     5
 42
1680.000000000014
  3
INABA_S40G
100
AcDbAlignedDimension
 13
3886.970589276556
 23
3127.494269174607
 33
0.0
 14
3886.970589276531
 24
1447.494269174593
 34
0.0
 50
90.0
100
AcDbRotatedDimension
1001
ACAD
1000
DSTYLE
1002
{
1002
}
  0
LINE
  5
18D6A
330
18C7A
100
AcDbEntity
  8
部品1
100
AcDbLine
 10
3858.970589276556
 20
3154.494269174604
 30
0.0
 11
3858.970589276534
 21
1420.494269174596
 31
0.0
  0
DIMENSION
  5
18D6B
330
18C7A
100
AcDbEntity
  8
寸法
100
AcDbDimension
  2
*D11
 10
4213.82831513858
 20
2607.276453505718
 30
0.0
 11
4113.828315138579
 21
2832.276453505718
 31
0.0
 12
-3742.925985830444
 22
-6453.628869860112
 32
0.0
 71
     5
 42
449.9999999999963
  3
INABA_S40G
100
AcDbAlignedDimension
 13
3858.470589276556
 23
3152.494269174604
 33
0.0
 14
3858.470589276556
 24
2702.494269174608
 34
0.0
 50
90.0
100
AcDbRotatedDimension
1001
ACAD
1000
DSTYLE
1002
{
1002
}
  0
LINE
  5
18D6C
330
18C7A
100
AcDbEntity
  8
部品1
100
AcDbLine
 10
3830.470589276547
 20
2702.494269174608
 30
0.0
 11
3830.470589276556
 21
1448.994269174596
 31
0.0
  0
LINE
  5
18D6D
330
18C7A
100
AcDbEntity
  8
破線
 48
10.0
100
AcDbLine
 10
3806.970589276549
 20
2702.494269174608
 30
0.0
 11
3806.970589276558
 21
1472.494269174593
 31
0.0
  0
LINE
  5
18D6E
330
18C7A
100
AcDbEntity
  8
部品1
100
AcDbLine
 10
2769.470589276556
 20
3146.494269174608
 30
0.0
 11
2794.470589276556
 21
3146.494269174611
 31
0.0
  0
LINE
  5
18D6F
330
18C7A
100
AcDbEntity
  8
部品1
100
AcDbLine
 10
2810.970589276556
 20
3172.494269174611
 30
0.0
 11
2816.970589276556
 21
3172.494269174611
 31
0.0
  0
LINE
  5
18D70
330
18C7A
100
AcDbEntity
  8
部品1
100
AcDbLine
 10
2816.970589276556
 20
3172.494269174611
 30
0.0
 11
2816.970589276556
 21
3154.494269174611
 31
0.0
  0
LINE
  5
18D71
330
18C7A
100
AcDbEntity
  8
部品1
100
AcDbLine
 10
2746.970589276556
 20
3172.494269174611
 30
0.0
 11
2752.970589276556
 21
3172.494269174611
 31
0.0
  0
LINE
  5
18D72
330
18C7A
100
AcDbEntity
  8
部品1
100
AcDbLine
 10
2746.970589276556
 20
3172.494269174611
 30
0.0
 11
2746.970589276556
 21
3154.494269174611
 31
0.0
  0
LINE
  5
18D73
330
18C7A
100
AcDbEntity
  8
部品1
100
AcDbLine
 10
2769.470589276556
 20
2702.494269174615
 30
0.0
 11
2794.470589276556
 21
2702.494269174615
 31
0.0
  0
LINE
  5
18D74
330
18C7A
100
AcDbEntity
  8
部品1
 48
50.0
100
AcDbLine
 10
2794.470589276556
 20
3154.494269174615
 30
0.0
 11
2794.470589276556
 21
2702.494269174615
 31
0.0
  0
LINE
  5
18D75
330
18C7A
100
AcDbEntity
  8
部品1
 48
50.0
100
AcDbLine
 10
2769.470589276554
 20
3154.494269174618
 30
0.0
 11
2769.470589276556
 21
2702.494269174615
 31
0.0
  0
LINE
  5
18D76
330
18C7A
100
AcDbEntity
  8
部品1
 48
50.0
100
AcDbLine
 10
2795.470589276556
 20
3152.494269174607
 30
0.0
 11
2795.470589276556
 21
2702.494269174615
 31
0.0
  0
LINE
  5
18D77
330
18C7A
100
AcDbEntity
  8
部品1
 48
50.0
100
AcDbLine
 10
2767.470589276556
 20
3152.494269174611
 30
0.0
 11
2767.470589276556
 21
2702.494269174615
 31
0.0
  0
LINE
  5
18D78
330
18C7A
100
AcDbEntity
  8
破線
 48
10.0
100
AcDbLine
 10
2176.97058927653
 20
1448.994269174509
 30
0.0
 11
2176.97058927653
 21
2702.494269174588
 31
0.0
  0
LINE
  5
18D79
330
18C7A
100
AcDbEntity
  8
破線
 48
10.0
100
AcDbLine
 10
2126.970589276534
 20
1448.994269174505
 30
0.0
 11
2126.970589276531
 21
2702.494269174586
 31
0.0
  0
LINE
  5
18D7A
330
18C7A
100
AcDbEntity
  8
部品1
100
AcDbLine
 10
2794.470589276556
 20
3154.494269174622
 30
0.0
 11
3858.970589276556
 21
3154.494269174604
 31
0.0
  0
LINE
  5
18D7B
330
18C7A
100
AcDbEntity
  8
細線
 48
50.0
100
AcDbLine
 10
3858.470589276556
 20
2702.494269174608
 30
0.0
 11
2795.470589276556
 21
3152.494269174607
 31
0.0
  0
LINE
  5
18D7C
330
18C7A
100
AcDbEntity
  8
部品1
100
AcDbLine
 10
2795.470589276555
 20
2702.494269174615
 30
0.0
 11
3858.470589276556
 21
2702.494269174608
 31
0.0
  0
LINE
  5
18D7D
330
18C7A
100
AcDbEntity
  8
部品1
100
AcDbLine
 10
2795.470589276556
 20
3152.494269174611
 30
0.0
 11
3858.470589276556
 21
3152.494269174604
 31
0.0
  0
LINE
  5
18D7E
330
18C7A
100
AcDbEntity
  8
細線
 48
50.0
100
AcDbLine
 10
3858.470589276556
 20
3152.494269174604
 30
0.0
 11
2795.470589276555
 21
2702.494269174615
 31
0.0
  0
DIMENSION
  5
18D7F
330
18C7A
100
AcDbEntity
  8
寸法
100
AcDbDimension
  2
*D10
 10
3801.234916278101
 20
2488.887829538937
 30
0.0
 11
3318.360544398907
 21
2488.887829538937
 31
0.0
 12
-3742.925985830444
 22
-6453.628869860112
 32
0.0
 70
   128
 71
     5
 42
1063.000000000012
  3
INABA_S40G
100
AcDbAlignedDimension
 13
2795.470589276555
 23
2702.494269174615
 33
0.0
 14
3858.470589276567
 24
2702.494269174608
 34
0.0
100
AcDbRotatedDimension
1001
ACAD
1000
DSTYLE
1002
{
1002
}
  0
LINE
  5
18D80
330
18C7A
100
AcDbEntity
  8
破線
 48
10.0
100
AcDbLine
 10
3806.970589276556
 20
1472.494269174594
 30
0.0
 11
3009.47058927653
 21
1472.494269174523
 31
0.0
  0
DIMENSION
  5
18D81
330
18C7A
100
AcDbEntity
  8
寸法
100
AcDbDimension
  2
*D9
 10
4534.396935010941
 20
1392.494269174596
 30
0.0
 11
4534.39693501094
 21
1084.008987800356
 31
0.0
 12
-3742.925985830444
 22
-6453.628869860112
 32
0.0
 70
   128
 71
     5
 42
54.99999999999636
  3
INABA_S40G
100
AcDbAlignedDimension
 13
3886.970589276531
 23
1447.494269174593
 33
0.0
 14
3886.970589276531
 24
1392.494269174596
 34
0.0
 50
90.0
100
AcDbRotatedDimension
1001
ACAD
1000
DSTYLE
1002
{
1002
}
  0
LINE
  5
18D82
330
18C7A
100
AcDbEntity
  8
部品1
100
AcDbLine
 10
471.9705892765196
 20
3182.494269174477
 30
0.0
 11
471.9705892765232
 21
3154.494269174477
 31
0.0
  0
LINE
  5
18D83
330
18C7A
100
AcDbEntity
  8
部品1
100
AcDbLine
 10
471.9705892765559
 20
3182.494269174509
 30
0.0
 11
471.9705892765559
 21
3154.494269174509
 31
0.0
  0
LINE
  5
18D84
330
18C7A
100
AcDbEntity
  8
部品1
100
AcDbLine
 10
444.9705892765232
 20
3127.49426917448
 30
0.0
 11
416.9705892765232
 21
3127.49426917448
 31
0.0
  0
LINE
  5
18D85
330
18C7A
100
AcDbEntity
  8
部品1
100
AcDbLine
 10
444.9705892765305
 20
2707.49426917448
 30
0.0
 11
416.9705892765305
 21
2707.49426917448
 31
0.0
  0
LINE
  5
18D86
330
18C7A
100
AcDbEntity
  8
部品1
 48
50.0
100
AcDbLine
 10
445.4705892765542
 20
3152.494269174506
 30
0.0
 11
445.4705892765559
 21
2702.494269174505
 31
0.0
  0
LINE
  5
18D87
330
18C7A
100
AcDbEntity
  8
部品1
 48
50.0
100
AcDbLine
 10
473.470589276545
 20
1448.994269174573
 30
0.0
 11
444.970589276545
 21
1420.494269174574
 31
0.0
  0
LINE
  5
18D88
330
18C7A
100
AcDbEntity
  8
部品1
100
AcDbLine
 10
471.9705892765232
 20
1392.494269174465
 30
0.0
 11
416.9705892765486
 21
1392.494269174465
 31
0.0
  0
LINE
  5
18D89
330
18C7A
100
AcDbEntity
  8
部品1
100
AcDbLine
 10
444.9705892765305
 20
1447.494269174429
 30
0.0
 11
416.9705892765469
 21
1447.494269174429
 31
0.0
  0
LINE
  5
18D8A
330
18C7A
100
AcDbEntity
  8
部品1
100
AcDbLine
 10
444.9705892765305
 20
1447.494269174465
 30
0.0
 11
416.9705892765469
 21
1447.494269174465
 31
0.0
  0
LINE
  5
18D8B
330
18C7A
100
AcDbEntity
  8
部品1
100
AcDbLine
 10
444.9705892765469
 20
1447.49426917448
 30
0.0
 11
416.9705892765469
 21
1447.49426917448
 31
0.0
  0
LINE
  5
18D8C
330
18C7A
100
AcDbEntity
  8
部品1
100
AcDbLine
 10
416.9705892765469
 20
1447.494269174429
 30
0.0
 11
416.9705892765486
 21
1392.494269174433
 31
0.0
  0
LINE
  5
18D8D
330
18C7A
100
AcDbEntity
  8
部品1
100
AcDbLine
 10
416.9705892765196
 20
3182.494269174477
 30
0.0
 11
416.9705892765486
 21
1392.494269174465
 31
0.0
  0
LINE
  5
18D8E
330
18C7A
100
AcDbEntity
  8
部品1
100
AcDbLine
 10
444.9705892765305
 20
1420.494269174556
 30
0.0
 11
444.9705892765559
 21
3154.494269174509
 31
0.0
  0
LINE
  5
18D8F
330
18C7A
100
AcDbEntity
  8
部品1
100
AcDbLine
 10
473.4705892765323
 20
2702.494269174608
 30
0.0
 11
473.470589276545
 21
1448.994269174571
 31
0.0
  0
LINE
  5
18D90
330
18C7A
100
AcDbEntity
  8
破線
 48
10.0
100
AcDbLine
 10
496.9705892765305
 20
2702.494269174608
 30
0.0
 11
496.9705892765451
 21
1472.494269174476
 31
0.0
  0
DIMENSION
  5
18D91
330
18C7A
100
AcDbEntity
  8
寸法
100
AcDbDimension
  2
*D8
 10
3886.970589276531
 20
410.7433333855515
 30
0.0
 11
2168.197775309287
 21
410.7433333855515
 31
0.0
 12
-3742.925985830444
 22
-6453.628869860112
 32
0.0
 70
   128
 71
     5
 42
3469.999999999982
  3
INABA_S40G
100
AcDbAlignedDimension
 13
416.9705892765486
 23
1392.494269174433
 33
0.0
 14
3886.970589276531
 24
1392.49426917456
 34
0.0
100
AcDbRotatedDimension
1001
ACAD
1000
DSTYLE
1002
{
1070
   341
1005
0
1002
}
  0
LINE
  5
18D92
330
18C7A
100
AcDbEntity
  8
部品1
100
AcDbLine
 10
444.9705892765559
 20
3154.494269174624
 30
0.0
 11
1509.470589276487
 21
3154.494269174626
 31
0.0
  0
LINE
  5
18D93
330
18C7A
100
AcDbEntity
  8
部品1
100
AcDbLine
 10
3886.970589276531
 20
1392.494269174596
 30
0.0
 11
3411.970589276556
 21
1392.494269174582
 31
0.0
  0
LINE
  5
18D94
330
18C7A
100
AcDbEntity
  8
部品1
100
AcDbLine
 10
416.9705892765559
 20
3182.494269174509
 30
0.0
 11
3886.970589276556
 21
3182.494269174604
 31
0.0
  0
LINE
  5
18D95
330
18C7A
100
AcDbEntity
  8
部品1
100
AcDbLine
 10
445.4705892765559
 20
2702.494269174509
 30
0.0
 11
1508.470589276487
 21
2702.494269174558
 31
0.0
  0
LINE
  5
18D96
330
18C7A
100
AcDbEntity
  8
細線
 48
50.0
100
AcDbLine
 10
2767.470589276556
 20
3152.494269174611
 30
0.0
 11
1536.470589276487
 21
2702.494269174558
 31
0.0
  0
LINE
  5
18D97
330
18C7A
100
AcDbEntity
  8
部品1
100
AcDbLine
 10
445.4705892765542
 20
3152.494269174509
 30
0.0
 11
1508.470589276485
 21
3152.494269174558
 31
0.0
  0
LINE
  5
18D98
330
18C7A
100
AcDbEntity
  8
細線
 48
50.0
100
AcDbLine
 10
2767.470589276554
 20
2702.494269174615
 30
0.0
 11
1536.470589276485
 21
3152.494269174558
 31
0.0
  0
LINE
  5
18D99
330
18C7A
100
AcDbEntity
  8
破線
 48
10.0
100
AcDbLine
 10
2126.970589276534
 20
1472.494269174502
 30
0.0
 11
1344.47058927653
 21
1472.494269174473
 31
0.0
  0
LINE
  5
18D9A
330
18C7A
100
AcDbEntity
  8
部品1
100
AcDbLine
 10
3830.470589276556
 20
1448.994269174596
 30
0.0
 11
473.4705892764487
 21
1448.994269174476
 31
0.0
  0
DIMENSION
  5
18D9B
330
18C7A
100
AcDbEntity
  8
寸法
100
AcDbDimension
  2
*D7
 10
471.970589276555
 20
3698.302488799491
 30
0.0
 11
108.4853079022819
 21
3698.302488799491
 31
0.0
 12
-3742.925985830444
 22
-6453.628869860112
 32
0.0
 70
   128
 71
     5
 42
55.00000000003456
  3
INABA_S40G
100
AcDbAlignedDimension
 13
416.9705892765205
 23
3182.494269174509
 33
0.0
 14
471.970589276555
 24
3182.494269174509
 34
0.0
100
AcDbRotatedDimension
1001
ACAD
1000
DSTYLE
1002
{
1002
}
  0
DIMENSION
  5
18D9C
330
18C7A
100
AcDbEntity
  8
寸法
100
AcDbDimension
  2
*D6
 10
4534.396935010967
 20
3127.494269174607
 30
0.0
 11
4534.396935010965
 21
3490.979550548844
 31
0.0
 12
-3742.925985830444
 22
-6453.628869860112
 32
0.0
 70
   128
 71
     5
 42
54.99999999999636
  3
INABA_S40G
100
AcDbAlignedDimension
 13
3886.970589276556
 23
3182.494269174604
 33
0.0
 14
3886.970589276556
 24
3127.494269174607
 34
0.0
 50
90.0
100
AcDbRotatedDimension
1001
ACAD
1000
DSTYLE
1002
{
1002
}
  0
DIMENSION
  5
18D9D
330
18C7A
100
AcDbEntity
  8
寸法
100
AcDbDimension
  2
*D5
 10
3886.970589276556
 20
3698.302488799589
 30
0.0
 11
4195.455870650794
 21
3698.302488799589
 31
0.0
 12
-3742.925985830444
 22
-6453.628869860112
 32
0.0
 70
   128
 71
     5
 42
55.0
  3
INABA_S40G
100
AcDbAlignedDimension
 13
3831.970589276556
 23
3182.494269174604
 33
0.0
 14
3886.970589276556
 24
3182.494269174604
 34
0.0
100
AcDbRotatedDimension
1001
ACAD
1000
DSTYLE
1002
{
1002
}
  0
DIMENSION
  5
18D9E
330
18C7A
100
AcDbEntity
  8
寸法
100
AcDbDimension
  2
*D4
 10
3831.970589276556
 20
3698.302488799607
 30
0.0
 11
2151.970589276555
 21
3698.302488799607
 31
0.0
 12
-3742.925985830444
 22
-6453.628869860112
 32
0.0
 70
   128
  1
8X420=<>
 71
     5
 42
3360.000000000001
  3
INABA_S40G
100
AcDbAlignedDimension
 13
471.970589276555
 23
3182.494269174509
 33
0.0
 14
3831.970589276556
 24
3182.494269174604
 34
0.0
100
AcDbRotatedDimension
1001
ACAD
1000
DSTYLE
1002
{
1002
}
  0
DIMENSION
  5
18D9F
330
18C7A
100
AcDbEntity
  8
寸法
100
AcDbDimension
  2
*D3
 10
4899.503876750603
 20
1392.494269174596
 30
0.0
 11
4899.503876750601
 21
2287.4942691746
 31
0.0
 12
-3742.925985830444
 22
-6453.628869860112
 32
0.0
 70
   128
 71
     5
 42
1790.000000000007
  3
INABA_S40G
100
AcDbAlignedDimension
 13
3886.970589276556
 23
3182.494269174604
 33
0.0
 14
3886.970589276531
 24
1392.494269174596
 34
0.0
 50
90.0
100
AcDbRotatedDimension
1001
ACAD
1000
DSTYLE
1002
{
1002
}
  0
ENDBLK
  5
18DA1
330
18C7A
100
AcDbEntity
  8
0
 48
50.0
100
AcDbBlockEnd
  0
BLOCK
  5
1C4CB
330
1C4CA
100
AcDbEntity
  8
0
 48
50.0
100
AcDbBlockBegin
  2
_NONE
 70
     0
 10
0.0
 20
0.0
 30
0.0
  3
_NONE
  1

  0
CIRCLE
  5
1C4CC
330
1C4CA
100
AcDbEntity
  8
0
  6
ByBlock
 62
     0
 48
50.0
100
AcDbCircle
 10
0.0
 20
0.0
 30
0.0
 40
0.25
  0
ENDBLK
  5
1C4CD
330
1C4CA
100
AcDbEntity
  8
0
 48
50.0
100
AcDbBlockEnd
  0
BLOCK
  5
24C1F
330
24C15
100
AcDbEntity
  8
0
 48
50.0
100
AcDbBlockBegin
  2
*D19
 70
     1
 10
0.0
 20
0.0
 30
0.0
  3
*D19
  1

  0
LINE
  5
25334
330
24C15
100
AcDbEntity
  8
寸法
 62
     0
 48
50.0
370
    -2
100
AcDbLine
 10
8223.600000000002
 20
7351.907777930207
 30
0.0
 11
8223.600000000002
 21
8553.817543578535
 31
0.0
  0
LINE
  5
25335
330
24C15
100
AcDbEntity
  8
寸法
 62
     0
 48
50.0
370
    -2
100
AcDbLine
 10
7496.6
 20
7351.907777930207
 30
0.0
 11
7496.6
 21
8553.817543578535
 31
0.0
  0
LINE
  5
25336
330
24C15
100
AcDbEntity
  8
寸法
 62
     0
 48
50.0
370
    -2
100
AcDbLine
 10
8223.600000000002
 20
8493.817543578535
 30
0.0
 11
7496.6
 21
8493.817543578535
 31
0.0
  0
INSERT
  5
25337
330
24C15
100
AcDbEntity
  8
寸法
 62
     0
 48
50.0
370
    -2
100
AcDbBlockReference
  2
_DOTSMALL
 10
8223.600000000002
 20
8493.817543578535
 30
0.0
 41
100.0
 42
100.0
 43
100.0
  0
INSERT
  5
25338
330
24C15
100
AcDbEntity
  8
寸法
 62
     0
 48
50.0
370
    -2
100
AcDbBlockReference
  2
_DOTSMALL
 10
7496.6
 20
8493.817543578535
 30
0.0
 41
100.0
 42
100.0
 43
100.0
 50
180.0
  0
MTEXT
  5
25339
330
24C15
100
AcDbEntity
  8
寸法
 62
     7
 48
50.0
100
AcDbMText
 10
7860.100000000002
 20
8593.829354602155
 30
0.0
 40
120.0
 41
0.0
 71
     5
 72
     1
  1
\A1;727
  7
STYLE1
 73
     1
 44
1.0
1001
ACAD
1000
MTEXTBEGIN
1070
    73
1070
     1
1070
    44
1040
1.0
1070
    74
1070
     0
1000
MTEXTEND
  0
POINT
  5
2533A
330
24C15
100
AcDbEntity
  8
DEFPOINTS
 62
     0
 48
50.0
100
AcDbPoint
 10
8223.600000000002
 20
7331.907777930206
 30
0.0
  0
POINT
  5
2533B
330
24C15
100
AcDbEntity
  8
DEFPOINTS
 62
     0
 48
50.0
100
AcDbPoint
 10
7496.6
 20
7331.907777930206
 30
0.0
  0
POINT
  5
2533C
330
24C15
100
AcDbEntity
  8
DEFPOINTS
 62
     0
 48
50.0
100
AcDbPoint
 10
7496.6
 20
8493.817543578535
 30
0.0
  0
ENDBLK
  5
24C20
330
24C15
100
AcDbEntity
  8
0
 48
50.0
100
AcDbBlockEnd
  0
BLOCK
  5
24C37
330
24C2E
100
AcDbEntity
  8
0
 48
50.0
100
AcDbBlockBegin
  2
*D20
 70
     1
 10
0.0
 20
0.0
 30
0.0
  3
*D20
  1

  0
LINE
  5
2541E
330
24C2E
100
AcDbEntity
  8
寸法
 62
     0
 48
50.0
370
    -2
100
AcDbLine
 10
6693.6
 20
7986.907777930206
 30
0.0
 11
6693.6
 21
8985.128099989127
 31
0.0
  0
LINE
  5
2541F
330
24C2E
100
AcDbEntity
  8
寸法
 62
     0
 48
50.0
370
    -2
100
AcDbLine
 10
9753.600000000004
 20
7986.907777930206
 30
0.0
 11
9753.600000000004
 21
8985.128099989127
 31
0.0
  0
LINE
  5
25420
330
24C2E
100
AcDbEntity
  8
寸法
 62
     0
 48
50.0
370
    -2
100
AcDbLine
 10
6693.6
 20
8925.128099989128
 30
0.0
 11
9753.600000000004
 21
8925.128099989128
 31
0.0
  0
INSERT
  5
25421
330
24C2E
100
AcDbEntity
  8
寸法
 62
     0
 48
50.0
370
    -2
100
AcDbBlockReference
  2
_DOTSMALL
 10
6693.6
 20
8925.128099989128
 30
0.0
 41
100.0
 42
100.0
 43
100.0
 50
180.0
  0
INSERT
  5
25422
330
24C2E
100
AcDbEntity
  8
寸法
 62
     0
 48
50.0
370
    -2
100
AcDbBlockReference
  2
_DOTSMALL
 10
9753.600000000004
 20
8925.128099989128
 30
0.0
 41
100.0
 42
100.0
 43
100.0
  0
MTEXT
  5
25423
330
24C2E
100
AcDbEntity
  8
寸法
 62
     7
 48
50.0
100
AcDbMText
 10
8223.600000000002
 20
9025.128099989128
 30
0.0
 40
120.0
 41
0.0
 71
     5
 72
     1
  1
\A1;3060
  7
STYLE1
 73
     1
 44
1.0
1001
ACAD
1000
MTEXTBEGIN
1070
    73
1070
     1
1070
    44
1040
1.0
1070
    74
1070
     0
1000
MTEXTEND
  0
POINT
  5
25424
330
24C2E
100
AcDbEntity
  8
DEFPOINTS
 62
     0
 48
50.0
100
AcDbPoint
 10
6693.6
 20
7966.907777930206
 30
0.0
  0
POINT
  5
25425
330
24C2E
100
AcDbEntity
  8
DEFPOINTS
 62
     0
 48
50.0
100
AcDbPoint
 10
9753.600000000004
 20
7966.907777930206
 30
0.0
  0
POINT
  5
25426
330
24C2E
100
AcDbEntity
  8
DEFPOINTS
 62
     0
 48
50.0
100
AcDbPoint
 10
9753.600000000004
 20
8925.128099989128
 30
0.0
  0
ENDBLK
  5
24C38
330
24C2E
100
AcDbEntity
  8
0
 48
50.0
100
AcDbBlockEnd
  0
BLOCK
  5
24C42
330
24C39
100
AcDbEntity
  8
0
 48
50.0
100
AcDbBlockBegin
  2
*D21
 70
     1
 10
0.0
 20
0.0
 30
0.0
  3
*D21
  1

  0
LINE
  5
25415
330
24C39
100
AcDbEntity
  8
寸法
 62
     0
 48
50.0
370
    -2
100
AcDbLine
 10
9630.600000000002
 20
7913.907777930205
 30
0.0
 11
9630.600000000002
 21
8772.66740447229
 31
0.0
  0
LINE
  5
25416
330
24C39
100
AcDbEntity
  8
寸法
 62
     0
 48
50.0
370
    -2
100
AcDbLine
 10
6816.600000000001
 20
7913.907777930205
 30
0.0
 11
6816.600000000001
 21
8772.66740447229
 31
0.0
  0
LINE
  5
25417
330
24C39
100
AcDbEntity
  8
寸法
 62
     0
 48
50.0
370
    -2
100
AcDbLine
 10
9630.600000000002
 20
8712.66740447229
 30
0.0
 11
6816.600000000001
 21
8712.66740447229
 31
0.0
  0
INSERT
  5
25418
330
24C39
100
AcDbEntity
  8
寸法
 62
     0
 48
50.0
370
    -2
100
AcDbBlockReference
  2
_DOTSMALL
 10
9630.600000000002
 20
8712.66740447229
 30
0.0
 41
100.0
 42
100.0
 43
100.0
  0
INSERT
  5
25419
330
24C39
100
AcDbEntity
  8
寸法
 62
     0
 48
50.0
370
    -2
100
AcDbBlockReference
  2
_DOTSMALL
 10
6816.600000000001
 20
8712.66740447229
 30
0.0
 41
100.0
 42
100.0
 43
100.0
 50
180.0
  0
MTEXT
  5
2541A
330
24C39
100
AcDbEntity
  8
寸法
 62
     7
 48
50.0
100
AcDbMText
 10
8223.600000000002
 20
8812.679215495911
 30
0.0
 40
120.0
 41
0.0
 71
     5
 72
     1
  1
\A1;2814
  7
STYLE1
 73
     1
 44
1.0
1001
ACAD
1000
MTEXTBEGIN
1070
    73
1070
     1
1070
    44
1040
1.0
1070
    74
1070
     0
1000
MTEXTEND
  0
POINT
  5
2541B
330
24C39
100
AcDbEntity
  8
DEFPOINTS
 62
     0
 48
50.0
100
AcDbPoint
 10
9630.600000000002
 20
7893.907777930206
 30
0.0
  0
POINT
  5
2541C
330
24C39
100
AcDbEntity
  8
DEFPOINTS
 62
     0
 48
50.0
100
AcDbPoint
 10
6816.600000000001
 20
7893.907777930206
 30
0.0
  0
POINT
  5
2541D
330
24C39
100
AcDbEntity
  8
DEFPOINTS
 62
     0
 48
50.0
100
AcDbPoint
 10
6816.600000000001
 20
8712.66740447229
 30
0.0
  0
ENDBLK
  5
24C43
330
24C39
100
AcDbEntity
  8
0
 48
50.0
100
AcDbBlockEnd
  0
BLOCK
  5
24C4D
330
24C44
100
AcDbEntity
  8
0
 48
50.0
100
AcDbBlockBegin
  2
*D22
 70
     1
 10
0.0
 20
0.0
 30
0.0
  3
*D22
  1

  0
LINE
  5
2540C
330
24C44
100
AcDbEntity
  8
寸法
 62
     0
 48
50.0
370
    -2
100
AcDbLine
 10
6673.600000000002
 20
5746.90777793021
 30
0.0
 11
5294.99411552824
 21
5746.907777930211
 31
0.0
  0
LINE
  5
2540D
330
24C44
100
AcDbEntity
  8
寸法
 62
     0
 48
50.0
370
    -2
100
AcDbLine
 10
6673.600000000002
 20
7966.907777930209
 30
0.0
 11
5294.99411552824
 21
7966.907777930211
 31
0.0
  0
LINE
  5
2540E
330
24C44
100
AcDbEntity
  8
寸法
 62
     0
 48
50.0
370
    -2
100
AcDbLine
 10
5354.994115528239
 20
5746.907777930211
 30
0.0
 11
5354.99411552824
 21
7966.907777930211
 31
0.0
  0
INSERT
  5
2540F
330
24C44
100
AcDbEntity
  8
寸法
 62
     0
 48
50.0
370
    -2
100
AcDbBlockReference
  2
_DOTSMALL
 10
5354.994115528239
 20
5746.907777930211
 30
0.0
 41
100.0
 42
100.0
 43
100.0
 50
270.0
  0
INSERT
  5
25410
330
24C44
100
AcDbEntity
  8
寸法
 62
     0
 48
50.0
370
    -2
100
AcDbBlockReference
  2
_DOTSMALL
 10
5354.99411552824
 20
7966.907777930211
 30
0.0
 41
100.0
 42
100.0
 43
100.0
 50
90.0
  0
MTEXT
  5
25411
330
24C44
100
AcDbEntity
  8
寸法
 62
     7
 48
50.0
100
AcDbMText
 10
5254.982304504617
 20
6821.907777930211
 30
0.0
 40
120.0
 41
0.0
 71
     5
 72
     1
  1
\A1;2220
  7
STYLE1
 11
0.0000000000000001
 21
1.0
 31
0.0
 73
     1
 44
1.0
1001
ACAD
1000
MTEXTBEGIN
1070
    73
1070
     1
1070
    44
1040
1.0
1070
    74
1070
     0
1000
MTEXTEND
  0
POINT
  5
25412
330
24C44
100
AcDbEntity
  8
DEFPOINTS
 62
     0
 48
50.0
100
AcDbPoint
 10
6693.6
 20
5746.90777793021
 30
0.0
  0
POINT
  5
25413
330
24C44
100
AcDbEntity
  8
DEFPOINTS
 62
     0
 48
50.0
100
AcDbPoint
 10
6693.6
 20
7966.907777930209
 30
0.0
  0
POINT
  5
25414
330
24C44
100
AcDbEntity
  8
DEFPOINTS
 62
     0
 48
50.0
100
AcDbPoint
 10
5354.99411552824
 20
7966.907777930211
 30
0.0
  0
ENDBLK
  5
24C4E
330
24C44
100
AcDbEntity
  8
0
 48
50.0
100
AcDbBlockEnd
  0
BLOCK
  5
24C59
330
24C4F
100
AcDbEntity
  8
0
 48
50.0
100
AcDbBlockBegin
  2
*D23
 70
     1
 10
0.0
 20
0.0
 30
0.0
  3
*D23
  1

  0
LINE
  5
25403
330
24C4F
100
AcDbEntity
  8
寸法
 62
     0
 48
50.0
370
    -2
100
AcDbLine
 10
6746.6
 20
7843.907777930207
 30
0.0
 11
5546.937212247638
 21
7843.907777930207
 31
0.0
  0
LINE
  5
25404
330
24C4F
100
AcDbEntity
  8
寸法
 62
     0
 48
50.0
370
    -2
100
AcDbLine
 10
6746.600000000009
 20
5869.907777930206
 30
0.0
 11
5546.937212247637
 21
5869.907777930207
 31
0.0
  0
LINE
  5
25405
330
24C4F
100
AcDbEntity
  8
寸法
 62
     0
 48
50.0
370
    -2
100
AcDbLine
 10
5606.937212247639
 20
7843.907777930207
 30
0.0
 11
5606.937212247638
 21
5869.907777930207
 31
0.0
  0
INSERT
  5
25406
330
24C4F
100
AcDbEntity
  8
寸法
 62
     0
 48
50.0
370
    -2
100
AcDbBlockReference
  2
_DOTSMALL
 10
5606.937212247639
 20
7843.907777930207
 30
0.0
 41
100.0
 42
100.0
 43
100.0
 50
90.0
  0
INSERT
  5
25407
330
24C4F
100
AcDbEntity
  8
寸法
 62
     0
 48
50.0
370
    -2
100
AcDbBlockReference
  2
_DOTSMALL
 10
5606.937212247638
 20
5869.907777930207
 30
0.0
 41
100.0
 42
100.0
 43
100.0
 50
270.0
  0
MTEXT
  5
25408
330
24C4F
100
AcDbEntity
  8
寸法
 62
     7
 48
50.0
100
AcDbMText
 10
5506.937212247637
 20
6891.907777930204
 30
0.0
 40
120.0
 41
0.0
 71
     5
 72
     1
  1
\A1;1974
  7
STYLE1
 11
0.0000000000000001
 21
1.0
 31
0.0
 73
     1
 44
1.0
1001
ACAD
1000
MTEXTBEGIN
1070
    73
1070
     1
1070
    44
1040
1.0
1070
    74
1070
     0
1000
MTEXTEND
  0
POINT
  5
25409
330
24C4F
100
AcDbEntity
  8
DEFPOINTS
 62
     0
 48
50.0
100
AcDbPoint
 10
6766.600000000001
 20
7843.907777930207
 30
0.0
  0
POINT
  5
2540A
330
24C4F
100
AcDbEntity
  8
DEFPOINTS
 62
     0
 48
50.0
100
AcDbPoint
 10
6766.600000000008
 20
5869.907777930206
 30
0.0
  0
POINT
  5
2540B
330
24C4F
100
AcDbEntity
  8
DEFPOINTS
 62
     0
 48
50.0
100
AcDbPoint
 10
5606.937212247638
 20
5869.907777930207
 30
0.0
  0
ENDBLK
  5
24C5A
330
24C4F
100
AcDbEntity
  8
0
 48
50.0
100
AcDbBlockEnd
  0
BLOCK
  5
24C66
330
24C5B
100
AcDbEntity
  8
0
 48
50.0
100
AcDbBlockBegin
  2
*D24
 70
     1
 10
0.0
 20
0.0
 30
0.0
  3
*D24
  1

  0
LINE
  5
2633E
330
24C5B
100
AcDbEntity
  8
寸法
 62
     0
 48
50.0
370
    -2
100
AcDbLine
 10
6943.600000000002
 20
7846.907777930209
 30
0.0
 11
7200.3072498761
 21
7846.907777930209
 31
0.0
  0
LINE
  5
2633F
330
24C5B
100
AcDbEntity
  8
寸法
 62
     0
 48
50.0
370
    -2
100
AcDbLine
 10
6943.600000000002
 20
7736.907777930203
 30
0.0
 11
7200.3072498761
 21
7736.907777930203
 31
0.0
  0
LINE
  5
26340
330
24C5B
100
AcDbEntity
  8
寸法
 62
     0
 48
50.0
370
    -2
100
AcDbLine
 10
7140.307249876101
 20
7846.907777930209
 30
0.0
 11
7140.307249876101
 21
7736.907777930203
 31
0.0
  0
LINE
  5
26341
330
24C5B
100
AcDbEntity
  8
寸法
 62
     0
 48
50.0
370
    -2
100
AcDbLine
 10
7140.307249876101
 20
7736.907777930203
 30
0.0
 11
7140.307249876101
 21
7272.8014787176
 31
0.0
  0
INSERT
  5
26342
330
24C5B
100
AcDbEntity
  8
寸法
 62
     0
 48
50.0
370
    -2
100
AcDbBlockReference
  2
_DOTSMALL
 10
7140.307249876101
 20
7846.907777930209
 30
0.0
 41
100.0
 42
100.0
 43
100.0
 50
90.0
  0
INSERT
  5
26343
330
24C5B
100
AcDbEntity
  8
寸法
 62
     0
 48
50.0
370
    -2
100
AcDbBlockReference
  2
_DOTSMALL
 10
7140.307249876101
 20
7736.907777930203
 30
0.0
 41
100.0
 42
100.0
 43
100.0
 50
270.0
  0
MTEXT
  5
26344
330
24C5B
100
AcDbEntity
  8
寸法
 62
     7
 48
50.0
100
AcDbMText
 10
7040.307249876099
 20
7396.848722812091
 30
0.0
 40
120.0
 41
0.0
 71
     5
 72
     1
  1
\A1;110
  7
STYLE1
 11
0.0000000000000001
 21
1.0
 31
0.0
 73
     1
 44
1.0
1001
ACAD
1000
MTEXTBEGIN
1070
    73
1070
     1
1070
    44
1040
1.0
1070
    74
1070
     0
1000
MTEXTEND
  0
POINT
  5
26345
330
24C5B
100
AcDbEntity
  8
DEFPOINTS
 62
     0
 48
50.0
100
AcDbPoint
 10
6923.600000000002
 20
7846.907777930209
 30
0.0
  0
POINT
  5
26346
330
24C5B
100
AcDbEntity
  8
DEFPOINTS
 62
     0
 48
50.0
100
AcDbPoint
 10
6923.600000000002
 20
7736.907777930203
 30
0.0
  0
POINT
  5
26347
330
24C5B
100
AcDbEntity
  8
DEFPOINTS
 62
     0
 48
50.0
100
AcDbPoint
 10
7140.307249876101
 20
7736.907777930203
 30
0.0
  0
ENDBLK
  5
24C67
330
24C5B
100
AcDbEntity
  8
0
 48
50.0
100
AcDbBlockEnd
  0
BLOCK
  5
24C71
330
24C68
100
AcDbEntity
  8
0
 48
50.0
100
AcDbBlockBegin
  2
*D25
 70
     1
 10
0.0
 20
0.0
 30
0.0
  3
*D25
  1

  0
LINE
  5
253F0
330
24C68
100
AcDbEntity
  8
寸法
 62
     0
 48
50.0
370
    -2
100
AcDbLine
 10
7496.6
 20
7351.907777930207
 30
0.0
 11
7496.6
 21
8553.817543578535
 31
0.0
  0
LINE
  5
253F1
330
24C68
100
AcDbEntity
  8
寸法
 62
     0
 48
50.0
370
    -2
100
AcDbLine
 10
6693.6
 20
7986.907777930206
 30
0.0
 11
6693.6
 21
8553.817543578535
 31
0.0
  0
LINE
  5
253F2
330
24C68
100
AcDbEntity
  8
寸法
 62
     0
 48
50.0
370
    -2
100
AcDbLine
 10
7496.6
 20
8493.817543578535
 30
0.0
 11
6693.6
 21
8493.817543578535
 31
0.0
  0
INSERT
  5
253F3
330
24C68
100
AcDbEntity
  8
寸法
 62
     0
 48
50.0
370
    -2
100
AcDbBlockReference
  2
_DOTSMALL
 10
7496.6
 20
8493.817543578535
 30
0.0
 41
100.0
 42
100.0
 43
100.0
  0
INSERT
  5
253F4
330
24C68
100
AcDbEntity
  8
寸法
 62
     0
 48
50.0
370
    -2
100
AcDbBlockReference
  2
_DOTSMALL
 10
6693.6
 20
8493.817543578535
 30
0.0
 41
100.0
 42
100.0
 43
100.0
 50
180.0
  0
MTEXT
  5
253F5
330
24C68
100
AcDbEntity
  8
寸法
 62
     7
 48
50.0
100
AcDbMText
 10
7095.100000000001
 20
8593.817543578534
 30
0.0
 40
120.0
 41
0.0
 71
     5
 72
     1
  1
\A1;803
  7
STYLE1
 73
     1
 44
1.0
1001
ACAD
1000
MTEXTBEGIN
1070
    73
1070
     1
1070
    44
1040
1.0
1070
    74
1070
     0
1000
MTEXTEND
  0
POINT
  5
253F6
330
24C68
100
AcDbEntity
  8
DEFPOINTS
 62
     0
 48
50.0
100
AcDbPoint
 10
7496.6
 20
7331.907777930206
 30
0.0
  0
POINT
  5
253F7
330
24C68
100
AcDbEntity
  8
DEFPOINTS
 62
     0
 48
50.0
100
AcDbPoint
 10
6693.6
 20
7966.907777930206
 30
0.0
  0
POINT
  5
253F8
330
24C68
100
AcDbEntity
  8
DEFPOINTS
 62
     0
 48
50.0
100
AcDbPoint
 10
6693.6
 20
8493.817543578535
 30
0.0
  0
ENDBLK
  5
24C72
330
24C68
100
AcDbEntity
  8
0
 48
50.0
100
AcDbBlockEnd
  0
BLOCK
  5
24CA0
330
24C95
100
AcDbEntity
  8
0
 48
50.0
100
AcDbBlockBegin
  2
*D26
 70
     1
 10
0.0
 20
0.0
 30
0.0
  3
*D26
  1

  0
LINE
  5
253C8
330
24C95
100
AcDbEntity
  8
寸法
 62
     0
 48
50.0
370
    -2
100
AcDbLine
 10
6746.600000000009
 20
5869.907777930206
 30
0.0
 11
5546.937212247637
 21
5869.907777930207
 31
0.0
  0
LINE
  5
253C9
330
24C95
100
AcDbEntity
  8
寸法
 62
     0
 48
50.0
370
    -2
100
AcDbLine
 10
6673.600000000002
 20
5746.907777930206
 30
0.0
 11
5546.937212247637
 21
5746.907777930207
 31
0.0
  0
LINE
  5
253CA
330
24C95
100
AcDbEntity
  8
寸法
 62
     0
 48
50.0
370
    -2
100
AcDbLine
 10
5606.937212247638
 20
5869.907777930207
 30
0.0
 11
5606.937212247638
 21
5746.907777930207
 31
0.0
  0
LINE
  5
253CB
330
24C95
100
AcDbEntity
  8
寸法
 62
     0
 48
50.0
370
    -2
100
AcDbLine
 10
5606.937212247638
 20
5746.907777930207
 30
0.0
 11
5606.937212247638
 21
5312.891547713374
 31
0.0
  0
INSERT
  5
253CC
330
24C95
100
AcDbEntity
  8
寸法
 62
     0
 48
50.0
370
    -2
100
AcDbBlockReference
  2
_DOTSMALL
 10
5606.937212247638
 20
5869.907777930207
 30
0.0
 41
100.0
 42
100.0
 43
100.0
 50
90.0
  0
INSERT
  5
253CD
330
24C95
100
AcDbEntity
  8
寸法
 62
     0
 48
50.0
370
    -2
100
AcDbBlockReference
  2
_DOTSMALL
 10
5606.937212247638
 20
5746.907777930207
 30
0.0
 41
100.0
 42
100.0
 43
100.0
 50
270.0
  0
MTEXT
  5
253CE
330
24C95
100
AcDbEntity
  8
寸法
 62
     7
 48
50.0
100
AcDbMText
 10
5506.925401224015
 20
5451.376829087614
 30
0.0
 40
120.0
 41
0.0
 71
     5
 72
     1
  1
\A1;123
  7
STYLE1
 11
0.0000000000000001
 21
1.0
 31
0.0
 73
     1
 44
1.0
1001
ACAD
1000
MTEXTBEGIN
1070
    73
1070
     1
1070
    44
1040
1.0
1070
    74
1070
     0
1000
MTEXTEND
  0
POINT
  5
253CF
330
24C95
100
AcDbEntity
  8
DEFPOINTS
 62
     0
 48
50.0
100
AcDbPoint
 10
6766.600000000008
 20
5869.907777930206
 30
0.0
  0
POINT
  5
253D0
330
24C95
100
AcDbEntity
  8
DEFPOINTS
 62
     0
 48
50.0
100
AcDbPoint
 10
6693.6
 20
5746.907777930206
 30
0.0
  0
POINT
  5
253D1
330
24C95
100
AcDbEntity
  8
DEFPOINTS
 62
     0
 48
50.0
100
AcDbPoint
 10
5606.937212247638
 20
5746.907777930207
 30
0.0
  0
ENDBLK
  5
24CA1
330
24C95
100
AcDbEntity
  8
0
 48
50.0
100
AcDbBlockEnd
  0
BLOCK
  5
24CC6
330
24CBB
100
AcDbEntity
  8
0
 48
50.0
100
AcDbBlockBegin
  2
*D27
 70
     1
 10
0.0
 20
0.0
 30
0.0
  3
*D27
  1

  0
LINE
  5
253A8
330
24CBB
100
AcDbEntity
  8
寸法
 62
     0
 48
50.0
370
    -2
100
AcDbLine
 10
6816.600000000001
 20
7913.907777930205
 30
0.0
 11
6816.600000000001
 21
8772.66740447229
 31
0.0
  0
LINE
  5
253A9
330
24CBB
100
AcDbEntity
  8
寸法
 62
     0
 48
50.0
370
    -2
100
AcDbLine
 10
6693.6
 20
7986.907777930206
 30
0.0
 11
6693.6
 21
8772.66740447229
 31
0.0
  0
LINE
  5
253AA
330
24CBB
100
AcDbEntity
  8
寸法
 62
     0
 48
50.0
370
    -2
100
AcDbLine
 10
6816.600000000001
 20
8712.66740447229
 30
0.0
 11
6693.6
 21
8712.66740447229
 31
0.0
  0
LINE
  5
253AB
330
24CBB
100
AcDbEntity
  8
寸法
 62
     0
 48
50.0
370
    -2
100
AcDbLine
 10
6693.6
 20
8712.66740447229
 30
0.0
 11
6282.008116907964
 21
8712.66740447229
 31
0.0
  0
INSERT
  5
253AC
330
24CBB
100
AcDbEntity
  8
寸法
 62
     0
 48
50.0
370
    -2
100
AcDbBlockReference
  2
_DOTSMALL
 10
6816.600000000001
 20
8712.66740447229
 30
0.0
 41
100.0
 42
100.0
 43
100.0
  0
INSERT
  5
253AD
330
24CBB
100
AcDbEntity
  8
寸法
 62
     0
 48
50.0
370
    -2
100
AcDbBlockReference
  2
_DOTSMALL
 10
6693.6
 20
8712.66740447229
 30
0.0
 41
100.0
 42
100.0
 43
100.0
 50
180.0
  0
MTEXT
  5
253AE
330
24CBB
100
AcDbEntity
  8
寸法
 62
     7
 48
50.0
100
AcDbMText
 10
6420.493398282203
 20
8812.679215495911
 30
0.0
 40
120.0
 41
0.0
 71
     5
 72
     1
  1
\A1;123
  7
STYLE1
 73
     1
 44
1.0
1001
ACAD
1000
MTEXTBEGIN
1070
    73
1070
     1
1070
    44
1040
1.0
1070
    74
1070
     0
1000
MTEXTEND
  0
POINT
  5
253AF
330
24CBB
100
AcDbEntity
  8
DEFPOINTS
 62
     0
 48
50.0
100
AcDbPoint
 10
6816.600000000001
 20
7893.907777930206
 30
0.0
  0
POINT
  5
253B0
330
24CBB
100
AcDbEntity
  8
DEFPOINTS
 62
     0
 48
50.0
100
AcDbPoint
 10
6693.6
 20
7966.907777930206
 30
0.0
  0
POINT
  5
253B1
330
24CBB
100
AcDbEntity
  8
DEFPOINTS
 62
     0
 48
50.0
100
AcDbPoint
 10
6693.6
 20
8712.66740447229
 30
0.0
  0
ENDBLK
  5
24CC7
330
24CBB
100
AcDbEntity
  8
0
 48
50.0
100
AcDbBlockEnd
  0
BLOCK
  5
24CD3
330
24CC8
100
AcDbEntity
  8
0
 48
50.0
100
AcDbBlockBegin
  2
*D28
 70
     1
 10
0.0
 20
0.0
 30
0.0
  3
*D28
  1

  0
LINE
  5
2539E
330
24CC8
100
AcDbEntity
  8
寸法
 62
     0
 48
50.0
370
    -2
100
AcDbLine
 10
6673.600000000002
 20
7966.907777930206
 30
0.0
 11
5546.937212247637
 21
7966.907777930207
 31
0.0
  0
LINE
  5
2539F
330
24CC8
100
AcDbEntity
  8
寸法
 62
     0
 48
50.0
370
    -2
100
AcDbLine
 10
6746.6
 20
7843.907777930207
 30
0.0
 11
5546.937212247637
 21
7843.907777930207
 31
0.0
  0
LINE
  5
253A0
330
24CC8
100
AcDbEntity
  8
寸法
 62
     0
 48
50.0
370
    -2
100
AcDbLine
 10
5606.937212247638
 20
7843.907777930207
 30
0.0
 11
5606.937212247638
 21
7966.907777930207
 31
0.0
  0
LINE
  5
253A1
330
24CC8
100
AcDbEntity
  8
寸法
 62
     0
 48
50.0
370
    -2
100
AcDbLine
 10
5606.937212247638
 20
7966.907777930207
 30
0.0
 11
5606.937212247638
 21
8418.499661022242
 31
0.0
  0
INSERT
  5
253A2
330
24CC8
100
AcDbEntity
  8
寸法
 62
     0
 48
50.0
370
    -2
100
AcDbBlockReference
  2
_DOTSMALL
 10
5606.937212247638
 20
7843.907777930207
 30
0.0
 41
100.0
 42
100.0
 43
100.0
 50
270.0
  0
INSERT
  5
253A3
330
24CC8
100
AcDbEntity
  8
寸法
 62
     0
 48
50.0
370
    -2
100
AcDbBlockReference
  2
_DOTSMALL
 10
5606.937212247638
 20
7966.907777930207
 30
0.0
 41
100.0
 42
100.0
 43
100.0
 50
90.0
  0
MTEXT
  5
253A4
330
24CC8
100
AcDbEntity
  8
寸法
 62
     7
 48
50.0
100
AcDbMText
 10
5506.925401224015
 20
8280.014379648005
 30
0.0
 40
120.0
 41
0.0
 71
     5
 72
     1
  1
\A1;123
  7
STYLE1
 11
0.0000000000000001
 21
1.0
 31
0.0
 73
     1
 44
1.0
1001
ACAD
1000
MTEXTBEGIN
1070
    73
1070
     1
1070
    44
1040
1.0
1070
    74
1070
     0
1000
MTEXTEND
  0
POINT
  5
253A5
330
24CC8
100
AcDbEntity
  8
DEFPOINTS
 62
     0
 48
50.0
100
AcDbPoint
 10
6693.6
 20
7966.907777930206
 30
0.0
  0
POINT
  5
253A6
330
24CC8
100
AcDbEntity
  8
DEFPOINTS
 62
     0
 48
50.0
100
AcDbPoint
 10
6766.600000000001
 20
7843.907777930207
 30
0.0
  0
POINT
  5
253A7
330
24CC8
100
AcDbEntity
  8
DEFPOINTS
 62
     0
 48
50.0
100
AcDbPoint
 10
5606.937212247638
 20
7843.907777930207
 30
0.0
  0
ENDBLK
  5
24CD4
330
24CC8
100
AcDbEntity
  8
0
 48
50.0
100
AcDbBlockEnd
  0
BLOCK
  5
24CE0
330
24CD5
100
AcDbEntity
  8
0
 48
50.0
100
AcDbBlockBegin
  2
*D29
 70
     1
 10
0.0
 20
0.0
 30
0.0
  3
*D29
  1

  0
LINE
  5
26334
330
24CD5
100
AcDbEntity
  8
寸法
 62
     0
 48
50.0
370
    -2
100
AcDbLine
 10
6943.600000000002
 20
7846.907777930207
 30
0.0
 11
7200.3072498761
 21
7846.907777930207
 31
0.0
  0
LINE
  5
26335
330
24CD5
100
AcDbEntity
  8
寸法
 62
     0
 48
50.0
370
    -2
100
AcDbLine
 10
6943.600000000002
 20
7966.907777930206
 30
0.0
 11
7200.3072498761
 21
7966.907777930206
 31
0.0
  0
LINE
  5
26336
330
24CD5
100
AcDbEntity
  8
寸法
 62
     0
 48
50.0
370
    -2
100
AcDbLine
 10
7140.307249876099
 20
7846.907777930207
 30
0.0
 11
7140.307249876099
 21
7966.907777930206
 31
0.0
  0
LINE
  5
26337
330
24CD5
100
AcDbEntity
  8
寸法
 62
     0
 48
50.0
370
    -2
100
AcDbLine
 10
7140.307249876099
 20
7966.907777930206
 30
0.0
 11
7140.307249876099
 21
8381.038565297577
 31
0.0
  0
INSERT
  5
26338
330
24CD5
100
AcDbEntity
  8
寸法
 62
     0
 48
50.0
370
    -2
100
AcDbBlockReference
  2
_DOTSMALL
 10
7140.307249876099
 20
7846.907777930207
 30
0.0
 41
100.0
 42
100.0
 43
100.0
 50
270.0
  0
INSERT
  5
26339
330
24CD5
100
AcDbEntity
  8
寸法
 62
     0
 48
50.0
370
    -2
100
AcDbBlockReference
  2
_DOTSMALL
 10
7140.307249876099
 20
7966.907777930206
 30
0.0
 41
100.0
 42
100.0
 43
100.0
 50
90.0
  0
MTEXT
  5
2633A
330
24CD5
100
AcDbEntity
  8
寸法
 62
     7
 48
50.0
100
AcDbMText
 10
7040.295438852478
 20
8244.991321203093
 30
0.0
 40
120.0
 41
0.0
 71
     5
 72
     1
  1
\A1;120
  7
STYLE1
 11
0.0000000000000001
 21
1.0
 31
0.0
 73
     1
 44
1.0
1001
ACAD
1000
MTEXTBEGIN
1070
    73
1070
     1
1070
    44
1040
1.0
1070
    74
1070
     0
1000
MTEXTEND
  0
POINT
  5
2633B
330
24CD5
100
AcDbEntity
  8
DEFPOINTS
 62
     0
 48
50.0
100
AcDbPoint
 10
6923.600000000002
 20
7846.907777930207
 30
0.0
  0
POINT
  5
2633C
330
24CD5
100
AcDbEntity
  8
DEFPOINTS
 62
     0
 48
50.0
100
AcDbPoint
 10
6923.600000000002
 20
7966.907777930206
 30
0.0
  0
POINT
  5
2633D
330
24CD5
100
AcDbEntity
  8
DEFPOINTS
 62
     0
 48
50.0
100
AcDbPoint
 10
7140.307249876099
 20
7966.907777930206
 30
0.0
  0
ENDBLK
  5
24CE1
330
24CD5
100
AcDbEntity
  8
0
 48
50.0
100
AcDbBlockEnd
  0
BLOCK
  5
24CEC
330
24CE2
100
AcDbEntity
  8
0
 48
50.0
100
AcDbBlockBegin
  2
*D30
 70
     1
 10
0.0
 20
0.0
 30
0.0
  3
*D30
  1

  0
LINE
  5
2532B
330
24CE2
100
AcDbEntity
  8
寸法
 62
     0
 48
50.0
370
    -2
100
AcDbLine
 10
8950.600000000003
 20
7351.907777930207
 30
0.0
 11
8950.600000000003
 21
8553.817543578535
 31
0.0
  0
LINE
  5
2532C
330
24CE2
100
AcDbEntity
  8
寸法
 62
     0
 48
50.0
370
    -2
100
AcDbLine
 10
8223.600000000002
 20
7351.907777930207
 30
0.0
 11
8223.600000000002
 21
8553.817543578535
 31
0.0
  0
LINE
  5
2532D
330
24CE2
100
AcDbEntity
  8
寸法
 62
     0
 48
50.0
370
    -2
100
AcDbLine
 10
8950.600000000003
 20
8493.817543578535
 30
0.0
 11
8223.600000000002
 21
8493.817543578535
 31
0.0
  0
INSERT
  5
2532E
330
24CE2
100
AcDbEntity
  8
寸法
 62
     0
 48
50.0
370
    -2
100
AcDbBlockReference
  2
_DOTSMALL
 10
8950.600000000003
 20
8493.817543578535
 30
0.0
 41
100.0
 42
100.0
 43
100.0
  0
INSERT
  5
2532F
330
24CE2
100
AcDbEntity
  8
寸法
 62
     0
 48
50.0
370
    -2
100
AcDbBlockReference
  2
_DOTSMALL
 10
8223.600000000002
 20
8493.817543578535
 30
0.0
 41
100.0
 42
100.0
 43
100.0
 50
180.0
  0
MTEXT
  5
25330
330
24CE2
100
AcDbEntity
  8
寸法
 62
     7
 48
50.0
100
AcDbMText
 10
8587.100000000003
 20
8593.829354602155
 30
0.0
 40
120.0
 41
0.0
 71
     5
 72
     1
  1
\A1;727
  7
STYLE1
 73
     1
 44
1.0
1001
ACAD
1000
MTEXTBEGIN
1070
    73
1070
     1
1070
    44
1040
1.0
1070
    74
1070
     0
1000
MTEXTEND
  0
POINT
  5
25331
330
24CE2
100
AcDbEntity
  8
DEFPOINTS
 62
     0
 48
50.0
100
AcDbPoint
 10
8950.600000000003
 20
7331.907777930206
 30
0.0
  0
POINT
  5
25332
330
24CE2
100
AcDbEntity
  8
DEFPOINTS
 62
     0
 48
50.0
100
AcDbPoint
 10
8223.600000000002
 20
7331.907777930206
 30
0.0
  0
POINT
  5
25333
330
24CE2
100
AcDbEntity
  8
DEFPOINTS
 62
     0
 48
50.0
100
AcDbPoint
 10
8223.600000000002
 20
8493.817543578535
 30
0.0
  0
ENDBLK
  5
24CED
330
24CE2
100
AcDbEntity
  8
0
 48
50.0
100
AcDbBlockEnd
  0
BLOCK
  5
24D04
330
24CFB
100
AcDbEntity
  8
0
 48
50.0
100
AcDbBlockBegin
  2
*D31
 70
     1
 10
0.0
 20
0.0
 30
0.0
  3
*D31
  1

  0
LINE
  5
25381
330
24CFB
100
AcDbEntity
  8
寸法
 62
     0
 48
50.0
370
    -2
100
AcDbLine
 10
7376.600000000003
 20
7231.907777930207
 30
0.0
 11
5901.413371461228
 21
7231.907777930207
 31
0.0
  0
LINE
  5
25382
330
24CFB
100
AcDbEntity
  8
寸法
 62
     0
 48
50.0
370
    -2
100
AcDbLine
 10
6673.600000000002
 20
7966.907777930206
 30
0.0
 11
5901.413371461228
 21
7966.907777930207
 31
0.0
  0
LINE
  5
25383
330
24CFB
100
AcDbEntity
  8
寸法
 62
     0
 48
50.0
370
    -2
100
AcDbLine
 10
5961.413371461228
 20
7231.907777930207
 30
0.0
 11
5961.413371461228
 21
7966.907777930207
 31
0.0
  0
INSERT
  5
25384
330
24CFB
100
AcDbEntity
  8
寸法
 62
     0
 48
50.0
370
    -2
100
AcDbBlockReference
  2
_DOTSMALL
 10
5961.413371461228
 20
7231.907777930207
 30
0.0
 41
100.0
 42
100.0
 43
100.0
 50
270.0
  0
INSERT
  5
25385
330
24CFB
100
AcDbEntity
  8
寸法
 62
     0
 48
50.0
370
    -2
100
AcDbBlockReference
  2
_DOTSMALL
 10
5961.413371461228
 20
7966.907777930207
 30
0.0
 41
100.0
 42
100.0
 43
100.0
 50
90.0
  0
MTEXT
  5
25386
330
24CFB
100
AcDbEntity
  8
寸法
 62
     7
 48
50.0
100
AcDbMText
 10
5861.413371461227
 20
7599.407777930207
 30
0.0
 40
120.0
 41
0.0
 71
     5
 72
     1
  1
\A1;735
  7
STYLE1
 11
0.0000000000000001
 21
1.0
 31
0.0
 73
     1
 44
1.0
1001
ACAD
1000
MTEXTBEGIN
1070
    73
1070
     1
1070
    44
1040
1.0
1070
    74
1070
     0
1000
MTEXTEND
  0
POINT
  5
25387
330
24CFB
100
AcDbEntity
  8
DEFPOINTS
 62
     0
 48
50.0
100
AcDbPoint
 10
7396.600000000003
 20
7231.907777930207
 30
0.0
  0
POINT
  5
25388
330
24CFB
100
AcDbEntity
  8
DEFPOINTS
 62
     0
 48
50.0
100
AcDbPoint
 10
6693.6
 20
7966.907777930206
 30
0.0
  0
POINT
  5
25389
330
24CFB
100
AcDbEntity
  8
DEFPOINTS
 62
     0
 48
50.0
100
AcDbPoint
 10
5961.413371461228
 20
7966.907777930207
 30
0.0
  0
ENDBLK
  5
24D05
330
24CFB
100
AcDbEntity
  8
0
 48
50.0
100
AcDbBlockEnd
  0
BLOCK
  5
24D1D
330
24D13
100
AcDbEntity
  8
0
 48
50.0
100
AcDbBlockBegin
  2
*D32
 70
     1
 10
0.0
 20
0.0
 30
0.0
  3
*D32
  1

  0
LINE
  5
2536E
330
24D13
100
AcDbEntity
  8
寸法
 62
     0
 48
50.0
370
    -2
100
AcDbLine
 10
9753.600000000004
 20
7986.907777930206
 30
0.0
 11
9753.600000000004
 21
8553.817543578535
 31
0.0
  0
LINE
  5
2536F
330
24D13
100
AcDbEntity
  8
寸法
 62
     0
 48
50.0
370
    -2
100
AcDbLine
 10
8950.600000000003
 20
7351.907777930207
 30
0.0
 11
8950.600000000003
 21
8553.817543578535
 31
0.0
  0
LINE
  5
25370
330
24D13
100
AcDbEntity
  8
寸法
 62
     0
 48
50.0
370
    -2
100
AcDbLine
 10
9753.600000000004
 20
8493.817543578535
 30
0.0
 11
8950.600000000003
 21
8493.817543578535
 31
0.0
  0
INSERT
  5
25371
330
24D13
100
AcDbEntity
  8
寸法
 62
     0
 48
50.0
370
    -2
100
AcDbBlockReference
  2
_DOTSMALL
 10
9753.600000000004
 20
8493.817543578535
 30
0.0
 41
100.0
 42
100.0
 43
100.0
  0
INSERT
  5
25372
330
24D13
100
AcDbEntity
  8
寸法
 62
     0
 48
50.0
370
    -2
100
AcDbBlockReference
  2
_DOTSMALL
 10
8950.600000000003
 20
8493.817543578535
 30
0.0
 41
100.0
 42
100.0
 43
100.0
 50
180.0
  0
MTEXT
  5
25373
330
24D13
100
AcDbEntity
  8
寸法
 62
     7
 48
50.0
100
AcDbMText
 10
9324.518522006281
 20
8593.817543578534
 30
0.0
 40
120.0
 41
0.0
 71
     5
 72
     1
  1
\A1;803
  7
STYLE1
 73
     1
 44
1.0
1001
ACAD
1000
MTEXTBEGIN
1070
    73
1070
     1
1070
    44
1040
1.0
1070
    74
1070
     0
1000
MTEXTEND
  0
POINT
  5
25374
330
24D13
100
AcDbEntity
  8
DEFPOINTS
 62
     0
 48
50.0
100
AcDbPoint
 10
9753.600000000004
 20
7966.907777930206
 30
0.0
  0
POINT
  5
25375
330
24D13
100
AcDbEntity
  8
DEFPOINTS
 62
     0
 48
50.0
100
AcDbPoint
 10
8950.600000000003
 20
7331.907777930206
 30
0.0
  0
POINT
  5
25376
330
24D13
100
AcDbEntity
  8
DEFPOINTS
 62
     0
 48
50.0
100
AcDbPoint
 10
8950.600000000003
 20
8493.817543578535
 30
0.0
  0
ENDBLK
  5
24D1E
330
24D13
100
AcDbEntity
  8
0
 48
50.0
100
AcDbBlockEnd
  0
BLOCK
  5
24D29
330
24D1F
100
AcDbEntity
  8
0
 48
50.0
100
AcDbBlockBegin
  2
*D33
 70
     1
 10
0.0
 20
0.0
 30
0.0
  3
*D33
  1

  0
LINE
  5
25365
330
24D1F
100
AcDbEntity
  8
寸法
 62
     0
 48
50.0
370
    -2
100
AcDbLine
 10
6673.600000000002
 20
5746.907777930214
 30
0.0
 11
5901.413371461229
 21
5746.907777930215
 31
0.0
  0
LINE
  5
25366
330
24D1F
100
AcDbEntity
  8
寸法
 62
     0
 48
50.0
370
    -2
100
AcDbLine
 10
7376.600000000002
 20
6481.907777930207
 30
0.0
 11
5901.41337146123
 21
6481.907777930207
 31
0.0
  0
LINE
  5
25367
330
24D1F
100
AcDbEntity
  8
寸法
 62
     0
 48
50.0
370
    -2
100
AcDbLine
 10
5961.41337146123
 20
5746.907777930215
 30
0.0
 11
5961.41337146123
 21
6481.907777930207
 31
0.0
  0
INSERT
  5
25368
330
24D1F
100
AcDbEntity
  8
寸法
 62
     0
 48
50.0
370
    -2
100
AcDbBlockReference
  2
_DOTSMALL
 10
5961.41337146123
 20
5746.907777930215
 30
0.0
 41
100.0
 42
100.0
 43
100.0
 50
270.0
  0
INSERT
  5
25369
330
24D1F
100
AcDbEntity
  8
寸法
 62
     0
 48
50.0
370
    -2
100
AcDbBlockReference
  2
_DOTSMALL
 10
5961.41337146123
 20
6481.907777930207
 30
0.0
 41
100.0
 42
100.0
 43
100.0
 50
90.0
  0
MTEXT
  5
2536A
330
24D1F
100
AcDbEntity
  8
寸法
 62
     7
 48
50.0
100
AcDbMText
 10
5861.413371461228
 20
6071.120553595382
 30
0.0
 40
120.0
 41
0.0
 71
     5
 72
     1
  1
\A1;735
  7
STYLE1
 11
0.0000000000000001
 21
1.0
 31
0.0
 73
     1
 44
1.0
1001
ACAD
1000
MTEXTBEGIN
1070
    73
1070
     1
1070
    44
1040
1.0
1070
    74
1070
     0
1000
MTEXTEND
  0
POINT
  5
2536B
330
24D1F
100
AcDbEntity
  8
DEFPOINTS
 62
     0
 48
50.0
100
AcDbPoint
 10
6693.6
 20
5746.907777930214
 30
0.0
  0
POINT
  5
2536C
330
24D1F
100
AcDbEntity
  8
DEFPOINTS
 62
     0
 48
50.0
100
AcDbPoint
 10
7396.600000000001
 20
6481.907777930207
 30
0.0
  0
POINT
  5
2536D
330
24D1F
100
AcDbEntity
  8
DEFPOINTS
 62
     0
 48
50.0
100
AcDbPoint
 10
5961.41337146123
 20
6481.907777930207
 30
0.0
  0
ENDBLK
  5
24D2A
330
24D1F
100
AcDbEntity
  8
0
 48
50.0
100
AcDbBlockEnd
  0
BLOCK
  5
24D42
330
24D38
100
AcDbEntity
  8
0
 48
50.0
100
AcDbBlockBegin
  2
*D34
 70
     1
 10
0.0
 20
0.0
 30
0.0
  3
*D34
  1

  0
LINE
  5
25352
330
24D38
100
AcDbEntity
  8
寸法
 62
     0
 48
50.0
370
    -2
100
AcDbLine
 10
7376.600000000003
 20
7231.907777930207
 30
0.0
 11
5901.413371461228
 21
7231.907777930207
 31
0.0
  0
LINE
  5
25353
330
24D38
100
AcDbEntity
  8
寸法
 62
     0
 48
50.0
370
    -2
100
AcDbLine
 10
7376.600000000002
 20
6481.907777930207
 30
0.0
 11
5901.413371461228
 21
6481.907777930207
 31
0.0
  0
LINE
  5
25354
330
24D38
100
AcDbEntity
  8
寸法
 62
     0
 48
50.0
370
    -2
100
AcDbLine
 10
5961.413371461228
 20
7231.907777930207
 30
0.0
 11
5961.413371461228
 21
6481.907777930207
 31
0.0
  0
INSERT
  5
25355
330
24D38
100
AcDbEntity
  8
寸法
 62
     0
 48
50.0
370
    -2
100
AcDbBlockReference
  2
_DOTSMALL
 10
5961.413371461228
 20
7231.907777930207
 30
0.0
 41
100.0
 42
100.0
 43
100.0
 50
90.0
  0
INSERT
  5
25356
330
24D38
100
AcDbEntity
  8
寸法
 62
     0
 48
50.0
370
    -2
100
AcDbBlockReference
  2
_DOTSMALL
 10
5961.413371461228
 20
6481.907777930207
 30
0.0
 41
100.0
 42
100.0
 43
100.0
 50
270.0
  0
MTEXT
  5
25357
330
24D38
100
AcDbEntity
  8
寸法
 62
     7
 48
50.0
100
AcDbMText
 10
5861.413371461226
 20
6856.907777930207
 30
0.0
 40
120.0
 41
0.0
 71
     5
 72
     1
  1
\A1;750
  7
STYLE1
 11
0.0000000000000001
 21
1.0
 31
0.0
 73
     1
 44
1.0
1001
ACAD
1000
MTEXTBEGIN
1070
    73
1070
     1
1070
    44
1040
1.0
1070
    74
1070
     0
1000
MTEXTEND
  0
POINT
  5
25358
330
24D38
100
AcDbEntity
  8
DEFPOINTS
 62
     0
 48
50.0
100
AcDbPoint
 10
7396.600000000003
 20
7231.907777930207
 30
0.0
  0
POINT
  5
25359
330
24D38
100
AcDbEntity
  8
DEFPOINTS
 62
     0
 48
50.0
100
AcDbPoint
 10
7396.600000000001
 20
6481.907777930207
 30
0.0
  0
POINT
  5
2535A
330
24D38
100
AcDbEntity
  8
DEFPOINTS
 62
     0
 48
50.0
100
AcDbPoint
 10
5961.413371461228
 20
6481.907777930207
 30
0.0
  0
ENDBLK
  5
24D43
330
24D38
100
AcDbEntity
  8
0
 48
50.0
100
AcDbBlockEnd
  0
BLOCK
  5
24D4F
330
24D44
100
AcDbEntity
  8
0
 48
50.0
100
AcDbBlockBegin
  2
*D35
 70
     1
 10
0.0
 20
0.0
 30
0.0
  3
*D35
  1

  0
LINE
  5
25348
330
24D44
100
AcDbEntity
  8
寸法
 62
     0
 48
50.0
370
    -2
100
AcDbLine
 10
9753.600000000004
 20
7986.907777930206
 30
0.0
 11
9753.600000000004
 21
8772.66740447229
 31
0.0
  0
LINE
  5
25349
330
24D44
100
AcDbEntity
  8
寸法
 62
     0
 48
50.0
370
    -2
100
AcDbLine
 10
9630.600000000002
 20
7913.907777930205
 30
0.0
 11
9630.600000000002
 21
8772.66740447229
 31
0.0
  0
LINE
  5
2534A
330
24D44
100
AcDbEntity
  8
寸法
 62
     0
 48
50.0
370
    -2
100
AcDbLine
 10
9630.600000000002
 20
8712.66740447229
 30
0.0
 11
9753.600000000004
 21
8712.66740447229
 31
0.0
  0
LINE
  5
2534B
330
24D44
100
AcDbEntity
  8
寸法
 62
     0
 48
50.0
370
    -2
100
AcDbLine
 10
9753.600000000004
 20
8712.66740447229
 30
0.0
 11
10165.19188309204
 21
8712.66740447229
 31
0.0
  0
INSERT
  5
2534C
330
24D44
100
AcDbEntity
  8
寸法
 62
     0
 48
50.0
370
    -2
100
AcDbBlockReference
  2
_DOTSMALL
 10
9630.600000000002
 20
8712.66740447229
 30
0.0
 41
100.0
 42
100.0
 43
100.0
 50
180.0
  0
INSERT
  5
2534D
330
24D44
100
AcDbEntity
  8
寸法
 62
     0
 48
50.0
370
    -2
100
AcDbBlockReference
  2
_DOTSMALL
 10
9753.600000000004
 20
8712.66740447229
 30
0.0
 41
100.0
 42
100.0
 43
100.0
  0
MTEXT
  5
2534E
330
24D44
100
AcDbEntity
  8
寸法
 62
     7
 48
50.0
100
AcDbMText
 10
10026.7066017178
 20
8812.679215495911
 30
0.0
 40
120.0
 41
0.0
 71
     5
 72
     1
  1
\A1;123
  7
STYLE1
 73
     1
 44
1.0
1001
ACAD
1000
MTEXTBEGIN
1070
    73
1070
     1
1070
    44
1040
1.0
1070
    74
1070
     0
1000
MTEXTEND
  0
POINT
  5
2534F
330
24D44
100
AcDbEntity
  8
DEFPOINTS
 62
     0
 48
50.0
100
AcDbPoint
 10
9753.600000000004
 20
7966.907777930206
 30
0.0
  0
POINT
  5
25350
330
24D44
100
AcDbEntity
  8
DEFPOINTS
 62
     0
 48
50.0
100
AcDbPoint
 10
9630.600000000002
 20
7893.907777930206
 30
0.0
  0
POINT
  5
25351
330
24D44
100
AcDbEntity
  8
DEFPOINTS
 62
     0
 48
50.0
100
AcDbPoint
 10
9630.600000000002
 20
8712.66740447229
 30
0.0
  0
ENDBLK
  5
24D50
330
24D44
100
AcDbEntity
  8
0
 48
50.0
100
AcDbBlockEnd
  0
BLOCK
  5
256BF
330
256B4
100
AcDbEntity
  8
0
 48
50.0
100
AcDbBlockBegin
  2
*D36
 70
     1
 10
0.0
 20
0.0
 30
0.0
  3
*D36
  1

  0
LINE
  5
269E6
330
256B4
100
AcDbEntity
  8
寸法
 62
     0
 48
50.0
370
    -2
100
AcDbLine
 10
9633.600000000003
 20
7716.907777930206
 30
0.0
 11
9633.600000000003
 21
7449.199110429834
 31
0.0
  0
LINE
  5
269E7
330
256B4
100
AcDbEntity
  8
寸法
 62
     0
 48
50.0
370
    -2
100
AcDbLine
 10
9523.600000000001
 20
7716.907777930206
 30
0.0
 11
9523.600000000001
 21
7449.199110429834
 31
0.0
  0
LINE
  5
269E8
330
256B4
100
AcDbEntity
  8
寸法
 62
     0
 48
50.0
370
    -2
100
AcDbLine
 10
9633.600000000003
 20
7509.199110429834
 30
0.0
 11
9523.600000000001
 21
7509.199110429834
 31
0.0
  0
LINE
  5
269E9
330
256B4
100
AcDbEntity
  8
寸法
 62
     0
 48
50.0
370
    -2
100
AcDbLine
 10
9523.600000000001
 20
7509.199110429834
 30
0.0
 11
9129.493700787405
 21
7509.199110429834
 31
0.0
  0
INSERT
  5
269EA
330
256B4
100
AcDbEntity
  8
寸法
 62
     0
 48
50.0
370
    -2
100
AcDbBlockReference
  2
_DOTSMALL
 10
9633.600000000003
 20
7509.199110429834
 30
0.0
 41
100.0
 42
100.0
 43
100.0
  0
INSERT
  5
269EB
330
256B4
100
AcDbEntity
  8
寸法
 62
     0
 48
50.0
370
    -2
100
AcDbBlockReference
  2
_DOTSMALL
 10
9523.600000000001
 20
7509.199110429834
 30
0.0
 41
100.0
 42
100.0
 43
100.0
 50
180.0
  0
MTEXT
  5
269EC
330
256B4
100
AcDbEntity
  8
寸法
 62
     7
 48
50.0
100
AcDbMText
 10
9253.540944881892
 20
7609.199110429834
 30
0.0
 40
120.0
 41
0.0
 71
     5
 72
     1
  1
\A1;110
  7
STYLE1
 73
     1
 44
1.0
1001
ACAD
1000
MTEXTBEGIN
1070
    73
1070
     1
1070
    44
1040
1.0
1070
    74
1070
     0
1000
MTEXTEND
  0
POINT
  5
269ED
330
256B4
100
AcDbEntity
  8
DEFPOINTS
 62
     0
 48
50.0
100
AcDbPoint
 10
9633.600000000003
 20
7736.907777930206
 30
0.0
  0
POINT
  5
269EE
330
256B4
100
AcDbEntity
  8
DEFPOINTS
 62
     0
 48
50.0
100
AcDbPoint
 10
9523.600000000001
 20
7736.907777930206
 30
0.0
  0
POINT
  5
269EF
330
256B4
100
AcDbEntity
  8
DEFPOINTS
 62
     0
 48
50.0
100
AcDbPoint
 10
9523.600000000001
 20
7509.199110429834
 30
0.0
  0
ENDBLK
  5
256C0
330
256B4
100
AcDbEntity
  8
0
 48
50.0
100
AcDbBlockEnd
  0
BLOCK
  5
256CC
330
256C1
100
AcDbEntity
  8
0
 48
50.0
100
AcDbBlockBegin
  2
*D37
 70
     1
 10
0.0
 20
0.0
 30
0.0
  3
*D37
  1

  0
LINE
  5
2632A
330
256C1
100
AcDbEntity
  8
寸法
 62
     0
 48
50.0
370
    -2
100
AcDbLine
 10
9753.600000000004
 20
7716.907777930209
 30
0.0
 11
9753.600000000004
 21
7449.199110429834
 31
0.0
  0
LINE
  5
2632B
330
256C1
100
AcDbEntity
  8
寸法
 62
     0
 48
50.0
370
    -2
100
AcDbLine
 10
9633.600000000003
 20
7716.907777930206
 30
0.0
 11
9633.600000000003
 21
7449.199110429834
 31
0.0
  0
LINE
  5
2632C
330
256C1
100
AcDbEntity
  8
寸法
 62
     0
 48
50.0
370
    -2
100
AcDbLine
 10
9633.600000000003
 20
7509.199110429834
 30
0.0
 11
9753.600000000004
 21
7509.199110429834
 31
0.0
  0
LINE
  5
2632D
330
256C1
100
AcDbEntity
  8
寸法
 62
     0
 48
50.0
370
    -2
100
AcDbLine
 10
9753.600000000004
 20
7509.199110429834
 30
0.0
 11
10159.7062992126
 21
7509.199110429834
 31
0.0
  0
INSERT
  5
2632E
330
256C1
100
AcDbEntity
  8
寸法
 62
     0
 48
50.0
370
    -2
100
AcDbBlockReference
  2
_DOTSMALL
 10
9633.600000000003
 20
7509.199110429834
 30
0.0
 41
100.0
 42
100.0
 43
100.0
 50
180.0
  0
INSERT
  5
2632F
330
256C1
100
AcDbEntity
  8
寸法
 62
     0
 48
50.0
370
    -2
100
AcDbBlockReference
  2
_DOTSMALL
 10
9753.600000000004
 20
7509.199110429834
 30
0.0
 41
100.0
 42
100.0
 43
100.0
  0
MTEXT
  5
26330
330
256C1
100
AcDbEntity
  8
寸法
 62
     7
 48
50.0
100
AcDbMText
 10
10023.65905511811
 20
7609.210921453456
 30
0.0
 40
120.0
 41
0.0
 71
     5
 72
     1
  1
\A1;120
  7
STYLE1
 73
     1
 44
1.0
1001
ACAD
1000
MTEXTBEGIN
1070
    73
1070
     1
1070
    44
1040
1.0
1070
    74
1070
     0
1000
MTEXTEND
  0
POINT
  5
26331
330
256C1
100
AcDbEntity
  8
DEFPOINTS
 62
     0
 48
50.0
100
AcDbPoint
 10
9753.600000000004
 20
7736.907777930207
 30
0.0
  0
POINT
  5
26332
330
256C1
100
AcDbEntity
  8
DEFPOINTS
 62
     0
 48
50.0
100
AcDbPoint
 10
9633.600000000003
 20
7736.907777930206
 30
0.0
  0
POINT
  5
26333
330
256C1
100
AcDbEntity
  8
DEFPOINTS
 62
     0
 48
50.0
100
AcDbPoint
 10
9633.600000000003
 20
7509.199110429834
 30
0.0
  0
ENDBLK
  5
256CD
330
256C1
100
AcDbEntity
  8
0
 48
50.0
100
AcDbBlockEnd
  0
BLOCK
  5
25B36
330
25B2B
100
AcDbEntity
  8
0
 48
50.0
100
AcDbBlockBegin
  2
*D38
 70
     1
 10
0.0
 20
0.0
 30
0.0
  3
*D38
  1

  0
LINE
  5
26316
330
25B2B
100
AcDbEntity
  8
寸法
 62
     0
 48
50.0
370
    -2
100
AcDbLine
 10
6943.600000000002
 20
5866.907777930213
 30
0.0
 11
7102.197085004765
 21
5866.907777930213
 31
0.0
  0
LINE
  5
26317
330
25B2B
100
AcDbEntity
  8
寸法
 62
     0
 48
50.0
370
    -2
100
AcDbLine
 10
6943.600000000002
 20
5746.907777930225
 30
0.0
 11
7102.197085004765
 21
5746.907777930225
 31
0.0
  0
LINE
  5
26318
330
25B2B
100
AcDbEntity
  8
寸法
 62
     0
 48
50.0
370
    -2
100
AcDbLine
 10
7042.197085004765
 20
5866.907777930213
 30
0.0
 11
7042.197085004765
 21
5746.907777930225
 31
0.0
  0
LINE
  5
26319
330
25B2B
100
AcDbEntity
  8
寸法
 62
     0
 48
50.0
370
    -2
100
AcDbLine
 10
7042.197085004765
 20
5746.907777930225
 30
0.0
 11
7042.197085004765
 21
5340.801478717624
 31
0.0
  0
INSERT
  5
2631A
330
25B2B
100
AcDbEntity
  8
寸法
 62
     0
 48
50.0
370
    -2
100
AcDbBlockReference
  2
_DOTSMALL
 10
7042.197085004765
 20
5866.907777930213
 30
0.0
 41
100.0
 42
100.0
 43
100.0
 50
90.0
  0
INSERT
  5
2631B
330
25B2B
100
AcDbEntity
  8
寸法
 62
     0
 48
50.0
370
    -2
100
AcDbBlockReference
  2
_DOTSMALL
 10
7042.197085004765
 20
5746.907777930225
 30
0.0
 41
100.0
 42
100.0
 43
100.0
 50
270.0
  0
MTEXT
  5
2631C
330
25B2B
100
AcDbEntity
  8
寸法
 62
     7
 48
50.0
100
AcDbMText
 10
6942.185273981142
 20
5476.848722812114
 30
0.0
 40
120.0
 41
0.0
 71
     5
 72
     1
  1
\A1;120
  7
STYLE1
 11
0.0000000000000001
 21
1.0
 31
0.0
 73
     1
 44
1.0
1001
ACAD
1000
MTEXTBEGIN
1070
    73
1070
     1
1070
    44
1040
1.0
1070
    74
1070
     0
1000
MTEXTEND
  0
POINT
  5
2631D
330
25B2B
100
AcDbEntity
  8
DEFPOINTS
 62
     0
 48
50.0
100
AcDbPoint
 10
6923.600000000002
 20
5866.907777930213
 30
0.0
  0
POINT
  5
2631E
330
25B2B
100
AcDbEntity
  8
DEFPOINTS
 62
     0
 48
50.0
100
AcDbPoint
 10
6923.600000000002
 20
5746.907777930225
 30
0.0
  0
POINT
  5
2631F
330
25B2B
100
AcDbEntity
  8
DEFPOINTS
 62
     0
 48
50.0
100
AcDbPoint
 10
7042.197085004765
 20
5746.907777930225
 30
0.0
  0
ENDBLK
  5
25B37
330
25B2B
100
AcDbEntity
  8
0
 48
50.0
100
AcDbBlockEnd
  0
BLOCK
  5
25B43
330
25B38
100
AcDbEntity
  8
0
 48
50.0
100
AcDbBlockBegin
  2
*D39
 70
     1
 10
0.0
 20
0.0
 30
0.0
  3
*D39
  1

  0
LINE
  5
2630C
330
25B38
100
AcDbEntity
  8
寸法
 62
     0
 48
50.0
370
    -2
100
AcDbLine
 10
6943.600000000002
 20
5866.90777793021
 30
0.0
 11
7102.197085004765
 21
5866.90777793021
 31
0.0
  0
LINE
  5
2630D
330
25B38
100
AcDbEntity
  8
寸法
 62
     0
 48
50.0
370
    -2
100
AcDbLine
 10
6943.600000000002
 20
5976.907777930228
 30
0.0
 11
7102.197085004765
 21
5976.907777930228
 31
0.0
  0
LINE
  5
2630E
330
25B38
100
AcDbEntity
  8
寸法
 62
     0
 48
50.0
370
    -2
100
AcDbLine
 10
7042.197085004765
 20
5866.90777793021
 30
0.0
 11
7042.197085004765
 21
5976.907777930228
 31
0.0
  0
LINE
  5
2630F
330
25B38
100
AcDbEntity
  8
寸法
 62
     0
 48
50.0
370
    -2
100
AcDbLine
 10
7042.197085004765
 20
5976.907777930228
 30
0.0
 11
7042.197085004767
 21
6337.002266119204
 31
0.0
  0
INSERT
  5
26310
330
25B38
100
AcDbEntity
  8
寸法
 62
     0
 48
50.0
370
    -2
100
AcDbBlockReference
  2
_DOTSMALL
 10
7042.197085004765
 20
5866.90777793021
 30
0.0
 41
100.0
 42
100.0
 43
100.0
 50
270.0
  0
INSERT
  5
26311
330
25B38
100
AcDbEntity
  8
寸法
 62
     0
 48
50.0
370
    -2
100
AcDbBlockReference
  2
_DOTSMALL
 10
7042.197085004765
 20
5976.907777930228
 30
0.0
 41
100.0
 42
100.0
 43
100.0
 50
90.0
  0
MTEXT
  5
26312
330
25B38
100
AcDbEntity
  8
寸法
 62
     7
 48
50.0
100
AcDbMText
 10
6942.197085004764
 20
6212.955022024718
 30
0.0
 40
120.0
 41
0.0
 71
     5
 72
     1
  1
\A1;110
  7
STYLE1
 11
0.0000000000000001
 21
1.0
 31
0.0
 73
     1
 44
1.0
1001
ACAD
1000
MTEXTBEGIN
1070
    73
1070
     1
1070
    44
1040
1.0
1070
    74
1070
     0
1000
MTEXTEND
  0
POINT
  5
26313
330
25B38
100
AcDbEntity
  8
DEFPOINTS
 62
     0
 48
50.0
100
AcDbPoint
 10
6923.600000000002
 20
5866.90777793021
 30
0.0
  0
POINT
  5
26314
330
25B38
100
AcDbEntity
  8
DEFPOINTS
 62
     0
 48
50.0
100
AcDbPoint
 10
6923.600000000002
 20
5976.907777930228
 30
0.0
  0
POINT
  5
26315
330
25B38
100
AcDbEntity
  8
DEFPOINTS
 62
     0
 48
50.0
100
AcDbPoint
 10
7042.197085004765
 20
5976.907777930228
 30
0.0
  0
ENDBLK
  5
25B44
330
25B38
100
AcDbEntity
  8
0
 48
50.0
100
AcDbBlockEnd
  0
BLOCK
  5
25B4F
330
25B45
100
AcDbEntity
  8
0
 48
50.0
100
AcDbBlockBegin
  2
*D40
 70
     1
 10
0.0
 20
0.0
 30
0.0
  3
*D40
  1

  0
LINE
  5
25D86
330
25B45
100
AcDbEntity
  8
寸法
 62
     0
 48
50.0
370
    -2
100
AcDbLine
 10
9301.600000000002
 20
5651.907777930226
 30
0.0
 11
9301.600000000002
 21
5059.687091109516
 31
0.0
  0
LINE
  5
25D87
330
25B45
100
AcDbEntity
  8
寸法
 62
     0
 48
50.0
370
    -2
100
AcDbLine
 10
7146.600000000001
 20
5651.907777930258
 30
0.0
 11
7146.600000000001
 21
5059.687091109516
 31
0.0
  0
LINE
  5
25D88
330
25B45
100
AcDbEntity
  8
寸法
 62
     0
 48
50.0
370
    -2
100
AcDbLine
 10
9301.600000000002
 20
5119.687091109516
 30
0.0
 11
7146.600000000001
 21
5119.687091109516
 31
0.0
  0
INSERT
  5
25D89
330
25B45
100
AcDbEntity
  8
寸法
 62
     0
 48
50.0
370
    -2
100
AcDbBlockReference
  2
_DOTSMALL
 10
9301.600000000002
 20
5119.687091109516
 30
0.0
 41
100.0
 42
100.0
 43
100.0
  0
INSERT
  5
25D8A
330
25B45
100
AcDbEntity
  8
寸法
 62
     0
 48
50.0
370
    -2
100
AcDbBlockReference
  2
_DOTSMALL
 10
7146.600000000001
 20
5119.687091109516
 30
0.0
 41
100.0
 42
100.0
 43
100.0
 50
180.0
  0
MTEXT
  5
25D8B
330
25B45
100
AcDbEntity
  8
寸法
 62
     7
 48
50.0
100
AcDbMText
 10
8224.100000000003
 20
5219.698902133138
 30
0.0
 40
120.0
 41
0.0
 71
     5
 72
     1
  1
\A1;扉の幅 2155
  7
STYLE1
 73
     1
 44
1.0
1001
ACAD
1000
MTEXTBEGIN
1070
    73
1070
     1
1070
    44
1040
1.0
1070
    74
1070
     0
1000
MTEXTEND
  0
POINT
  5
25D8C
330
25B45
100
AcDbEntity
  8
DEFPOINTS
 62
     0
 48
50.0
100
AcDbPoint
 10
9301.600000000002
 20
5671.907777930226
 30
0.0
  0
POINT
  5
25D8D
330
25B45
100
AcDbEntity
  8
DEFPOINTS
 62
     0
 48
50.0
100
AcDbPoint
 10
7146.600000000001
 20
5671.907777930258
 30
0.0
  0
POINT
  5
25D8E
330
25B45
100
AcDbEntity
  8
DEFPOINTS
 62
     0
 48
50.0
100
AcDbPoint
 10
7146.600000000001
 20
5119.687091109516
 30
0.0
  0
ENDBLK
  5
25B50
330
25B45
100
AcDbEntity
  8
0
 48
50.0
100
AcDbBlockEnd
  0
BLOCK
  5
25B5C
330
25B51
100
AcDbEntity
  8
0
 48
50.0
100
AcDbBlockBegin
  2
*D41
 70
     1
 10
0.0
 20
0.0
 30
0.0
  3
*D41
  1

  0
LINE
  5
26320
330
25B51
100
AcDbEntity
  8
寸法
 62
     0
 48
50.0
370
    -2
100
AcDbLine
 10
7166.599999999966
 20
5671.907777930252
 30
0.0
 11
7475.743526793876
 21
5671.907777930252
 31
0.0
  0
LINE
  5
26321
330
25B51
100
AcDbEntity
  8
寸法
 62
     0
 48
50.0
370
    -2
100
AcDbLine
 10
7062.197085004766
 20
5866.90777793021
 30
0.0
 11
7475.743526793876
 21
5866.90777793021
 31
0.0
  0
LINE
  5
26322
330
25B51
100
AcDbEntity
  8
寸法
 62
     0
 48
50.0
370
    -2
100
AcDbLine
 10
7415.743526793876
 20
5866.90777793021
 30
0.0
 11
7415.743526793876
 21
5671.907777930252
 31
0.0
  0
LINE
  5
26323
330
25B51
100
AcDbEntity
  8
寸法
 62
     0
 48
50.0
370
    -2
100
AcDbLine
 10
7415.743526793876
 20
5671.907777930252
 30
0.0
 11
7415.743526793876
 21
5294.517895522462
 31
0.0
  0
INSERT
  5
26324
330
25B51
100
AcDbEntity
  8
寸法
 62
     0
 48
50.0
370
    -2
100
AcDbBlockReference
  2
_DOTSMALL
 10
7415.743526793876
 20
5866.90777793021
 30
0.0
 41
100.0
 42
100.0
 43
100.0
 50
90.0
  0
INSERT
  5
26325
330
25B51
100
AcDbEntity
  8
寸法
 62
     0
 48
50.0
370
    -2
100
AcDbBlockReference
  2
_DOTSMALL
 10
7415.743526793876
 20
5671.907777930252
 30
0.0
 41
100.0
 42
100.0
 43
100.0
 50
270.0
  0
MTEXT
  5
26326
330
25B51
100
AcDbEntity
  8
寸法
 62
     7
 48
50.0
100
AcDbMText
 10
7315.743526793875
 20
5433.212836726359
 30
0.0
 40
120.0
 41
0.0
 71
     5
 72
     1
  1
\A1;195
  7
STYLE1
 11
0.0000000000000001
 21
1.0
 31
0.0
 73
     1
 44
1.0
1001
ACAD
1000
MTEXTBEGIN
1070
    73
1070
     1
1070
    44
1040
1.0
1070
    74
1070
     0
1000
MTEXTEND
  0
POINT
  5
26327
330
25B51
100
AcDbEntity
  8
DEFPOINTS
 62
     0
 48
50.0
100
AcDbPoint
 10
7146.599999999965
 20
5671.907777930252
 30
0.0
  0
POINT
  5
26328
330
25B51
100
AcDbEntity
  8
DEFPOINTS
 62
     0
 48
50.0
100
AcDbPoint
 10
7042.197085004765
 20
5866.90777793021
 30
0.0
  0
POINT
  5
26329
330
25B51
100
AcDbEntity
  8
DEFPOINTS
 62
     0
 48
50.0
100
AcDbPoint
 10
7415.743526793876
 20
5866.90777793021
 30
0.0
  0
ENDBLK
  5
25B5D
330
25B51
100
AcDbEntity
  8
0
 48
50.0
100
AcDbBlockEnd
  0
BLOCK
  5
25C68
330
25C5C
100
AcDbEntity
  8
0
 48
50.0
100
AcDbBlockBegin
  2
*D42
 70
     1
 10
0.0
 20
0.0
 30
0.0
  3
*D42
  1

  0
LINE
  5
25DA3
330
25C5C
100
AcDbEntity
  8
寸法
 62
     0
 48
50.0
370
    -2
100
AcDbLine
 10
7126.599999999965
 20
5671.907777930252
 30
0.0
 11
6261.457130887759
 21
5671.907777930252
 31
0.0
  0
LINE
  5
25DA4
330
25C5C
100
AcDbEntity
  8
寸法
 62
     0
 48
50.0
370
    -2
100
AcDbLine
 10
6673.600000000002
 20
5746.907777930222
 30
0.0
 11
6261.457130887759
 21
5746.907777930222
 31
0.0
  0
LINE
  5
25DA5
330
25C5C
100
AcDbEntity
  8
寸法
 62
     0
 48
50.0
370
    -2
100
AcDbLine
 10
6321.457130887758
 20
5746.907777930222
 30
0.0
 11
6321.457130887758
 21
5846.907777930223
 31
0.0
  0
LINE
  5
25DA6
330
25C5C
100
AcDbEntity
  8
寸法
 62
     0
 48
50.0
370
    -2
100
AcDbLine
 10
6321.457130887758
 20
5671.907777930252
 30
0.0
 11
6321.457130887758
 21
4804.937215181773
 31
0.0
  0
LINE
  5
25DA7
330
25C5C
100
AcDbEntity
  8
寸法
 62
     0
 48
50.0
370
    -2
100
AcDbLine
 10
6321.457130887758
 20
5746.907777930222
 30
0.0
 11
6321.457130887758
 21
5671.907777930252
 31
0.0
  0
INSERT
  5
25DA8
330
25C5C
100
AcDbEntity
  8
寸法
 62
     0
 48
50.0
370
    -2
100
AcDbBlockReference
  2
_DOTSMALL
 10
6321.457130887758
 20
5746.907777930222
 30
0.0
 41
100.0
 42
100.0
 43
100.0
 50
270.0
  0
INSERT
  5
25DA9
330
25C5C
100
AcDbEntity
  8
寸法
 62
     0
 48
50.0
370
    -2
100
AcDbBlockReference
  2
_DOTSMALL
 10
6321.457130887758
 20
5671.907777930252
 30
0.0
 41
100.0
 42
100.0
 43
100.0
 50
90.0
  0
MTEXT
  5
25DAA
330
25C5C
100
AcDbEntity
  8
寸法
 62
     7
 48
50.0
100
AcDbMText
 10
6221.457130887757
 20
5138.422496556014
 30
0.0
 40
120.0
 41
0.0
 71
     5
 72
     1
  1
\A1;扉の出75
  7
STYLE1
 11
0.0000000000000001
 21
1.0
 31
0.0
 73
     1
 44
1.0
1001
ACAD
1000
MTEXTBEGIN
1070
    73
1070
     1
1070
    44
1040
1.0
1070
    74
1070
     0
1000
MTEXTEND
  0
POINT
  5
25DAB
330
25C5C
100
AcDbEntity
  8
DEFPOINTS
 62
     0
 48
50.0
100
AcDbPoint
 10
7146.599999999965
 20
5671.907777930252
 30
0.0
  0
POINT
  5
25DAC
330
25C5C
100
AcDbEntity
  8
DEFPOINTS
 62
     0
 48
50.0
100
AcDbPoint
 10
6693.6
 20
5746.907777930222
 30
0.0
  0
POINT
  5
25DAD
330
25C5C
100
AcDbEntity
  8
DEFPOINTS
 62
     0
 48
50.0
100
AcDbPoint
 10
6321.457130887758
 20
5746.907777930222
 30
0.0
  0
ENDBLK
  5
25C69
330
25C5C
100
AcDbEntity
  8
0
 48
50.0
100
AcDbBlockEnd
  0
BLOCK
  5
25C74
330
25C6A
100
AcDbEntity
  8
0
 48
50.0
100
AcDbBlockBegin
  2
*D43
 70
     1
 10
0.0
 20
0.0
 30
0.0
  3
*D43
  1

  0
LINE
  5
25D73
330
25C6A
100
AcDbEntity
  8
寸法
 62
     0
 48
50.0
370
    -2
100
AcDbLine
 10
7146.600000000001
 20
5651.907777930212
 30
0.0
 11
7146.600000000001
 21
5059.687091109516
 31
0.0
  0
LINE
  5
25D74
330
25C6A
100
AcDbEntity
  8
寸法
 62
     0
 48
50.0
370
    -2
100
AcDbLine
 10
6693.6
 20
5726.907777930222
 30
0.0
 11
6693.6
 21
5059.687091109516
 31
0.0
  0
LINE
  5
25D75
330
25C6A
100
AcDbEntity
  8
寸法
 62
     0
 48
50.0
370
    -2
100
AcDbLine
 10
7146.600000000001
 20
5119.687091109516
 30
0.0
 11
6693.6
 21
5119.687091109516
 31
0.0
  0
INSERT
  5
25D76
330
25C6A
100
AcDbEntity
  8
寸法
 62
     0
 48
50.0
370
    -2
100
AcDbBlockReference
  2
_DOTSMALL
 10
7146.600000000001
 20
5119.687091109516
 30
0.0
 41
100.0
 42
100.0
 43
100.0
  0
INSERT
  5
25D77
330
25C6A
100
AcDbEntity
  8
寸法
 62
     0
 48
50.0
370
    -2
100
AcDbBlockReference
  2
_DOTSMALL
 10
6693.6
 20
5119.687091109516
 30
0.0
 41
100.0
 42
100.0
 43
100.0
 50
180.0
  0
MTEXT
  5
25D78
330
25C6A
100
AcDbEntity
  8
寸法
 62
     7
 48
50.0
100
AcDbMText
 10
6916.400741355808
 20
5219.687091109516
 30
0.0
 40
120.0
 41
0.0
 71
     5
 72
     1
  1
\A1;453
  7
STYLE1
 73
     1
 44
1.0
1001
ACAD
1000
MTEXTBEGIN
1070
    73
1070
     1
1070
    44
1040
1.0
1070
    74
1070
     0
1000
MTEXTEND
  0
POINT
  5
25D79
330
25C6A
100
AcDbEntity
  8
DEFPOINTS
 62
     0
 48
50.0
100
AcDbPoint
 10
7146.600000000001
 20
5671.907777930211
 30
0.0
  0
POINT
  5
25D7A
330
25C6A
100
AcDbEntity
  8
DEFPOINTS
 62
     0
 48
50.0
100
AcDbPoint
 10
6693.6
 20
5746.907777930222
 30
0.0
  0
POINT
  5
25D7B
330
25C6A
100
AcDbEntity
  8
DEFPOINTS
 62
     0
 48
50.0
100
AcDbPoint
 10
6693.6
 20
5119.687091109516
 30
0.0
  0
ENDBLK
  5
25C75
330
25C6A
100
AcDbEntity
  8
0
 48
50.0
100
AcDbBlockEnd
  0
BLOCK
  5
260DB
330
260CF
100
AcDbEntity
  8
0
 48
50.0
100
AcDbBlockBegin
  2
*D44
 70
     1
 10
0.0
 20
0.0
 30
0.0
  3
*D44
  1

  0
LINE
  5
26261
330
260CF
100
AcDbEntity
  8
寸法
 62
     0
 48
50.0
370
    -2
100
AcDbLine
 10
5586.93721224764
 20
5701.295673787304
 30
0.0
 11
5294.994115528242
 21
5701.295673787304
 31
0.0
  0
LINE
  5
26262
330
260CF
100
AcDbEntity
  8
寸法
 62
     0
 48
50.0
370
    -2
100
AcDbLine
 10
6673.600000000002
 20
5746.907777930206
 30
0.0
 11
5294.994115528242
 21
5746.907777930207
 31
0.0
  0
LINE
  5
26263
330
260CF
100
AcDbEntity
  8
寸法
 62
     0
 48
50.0
370
    -2
100
AcDbLine
 10
5354.994115528241
 20
5746.907777930207
 30
0.0
 11
5354.994115528241
 21
5846.907777930207
 31
0.0
  0
LINE
  5
26264
330
260CF
100
AcDbEntity
  8
寸法
 62
     0
 48
50.0
370
    -2
100
AcDbLine
 10
5354.994115528241
 20
5701.295673787304
 30
0.0
 11
5354.994115528241
 21
5368.946431382386
 31
0.0
  0
LINE
  5
26265
330
260CF
100
AcDbEntity
  8
寸法
 62
     0
 48
50.0
370
    -2
100
AcDbLine
 10
5354.994115528241
 20
5746.907777930207
 30
0.0
 11
5354.994115528241
 21
5701.295673787304
 31
0.0
  0
INSERT
  5
26266
330
260CF
100
AcDbEntity
  8
寸法
 62
     0
 48
50.0
370
    -2
100
AcDbBlockReference
  2
_DOTSMALL
 10
5354.994115528241
 20
5746.907777930207
 30
0.0
 41
100.0
 42
100.0
 43
100.0
 50
270.0
  0
INSERT
  5
26267
330
260CF
100
AcDbEntity
  8
寸法
 62
     0
 48
50.0
370
    -2
100
AcDbBlockReference
  2
_DOTSMALL
 10
5354.994115528241
 20
5701.295673787304
 30
0.0
 41
100.0
 42
100.0
 43
100.0
 50
90.0
  0
MTEXT
  5
26268
330
260CF
100
AcDbEntity
  8
寸法
 62
     7
 48
50.0
100
AcDbMText
 10
5254.994115528241
 20
5435.121052584844
 30
0.0
 40
120.0
 41
0.0
 71
     5
 72
     1
  1
\A1;a
  7
STYLE1
 11
0.0000000000000001
 21
1.0
 31
0.0
 73
     1
 44
1.0
1001
ACAD
1000
MTEXTBEGIN
1070
    73
1070
     1
1070
    44
1040
1.0
1070
    74
1070
     0
1000
MTEXTEND
  0
POINT
  5
26269
330
260CF
100
AcDbEntity
  8
DEFPOINTS
 62
     0
 48
50.0
100
AcDbPoint
 10
5606.93721224764
 20
5701.295673787304
 30
0.0
  0
POINT
  5
2626A
330
260CF
100
AcDbEntity
  8
DEFPOINTS
 62
     0
 48
50.0
100
AcDbPoint
 10
6693.6
 20
5746.907777930206
 30
0.0
  0
POINT
  5
2626B
330
260CF
100
AcDbEntity
  8
DEFPOINTS
 62
     0
 48
50.0
100
AcDbPoint
 10
5354.994115528241
 20
5746.907777930207
 30
0.0
  0
ENDBLK
  5
260DC
330
260CF
100
AcDbEntity
  8
0
 48
50.0
100
AcDbBlockEnd
  0
BLOCK
  5
260E9
330
260DD
100
AcDbEntity
  8
0
 48
50.0
100
AcDbBlockBegin
  2
*D45
 70
     1
 10
0.0
 20
0.0
 30
0.0
  3
*D45
  1

  0
LINE
  5
26235
330
260DD
100
AcDbEntity
  8
寸法
 62
     0
 48
50.0
370
    -2
100
AcDbLine
 10
6693.600000000002
 20
7986.907777930209
 30
0.0
 11
6693.600000000002
 21
8985.128099989127
 31
0.0
  0
LINE
  5
26236
330
260DD
100
AcDbEntity
  8
寸法
 62
     0
 48
50.0
370
    -2
100
AcDbLine
 10
6638.600000000014
 20
8732.667404472293
 30
0.0
 11
6638.600000000014
 21
8985.128099989127
 31
0.0
  0
LINE
  5
26237
330
260DD
100
AcDbEntity
  8
寸法
 62
     0
 48
50.0
370
    -2
100
AcDbLine
 10
6693.600000000002
 20
8925.128099989128
 30
0.0
 11
6793.600000000002
 21
8925.128099989128
 31
0.0
  0
LINE
  5
26238
330
260DD
100
AcDbEntity
  8
寸法
 62
     0
 48
50.0
370
    -2
100
AcDbLine
 10
6638.600000000014
 20
8925.128099989128
 30
0.0
 11
6538.600000000013
 21
8925.128099989128
 31
0.0
  0
LINE
  5
26239
330
260DD
100
AcDbEntity
  8
寸法
 62
     0
 48
50.0
370
    -2
100
AcDbLine
 10
6693.600000000002
 20
8925.128099989128
 30
0.0
 11
6638.600000000014
 21
8925.128099989128
 31
0.0
  0
INSERT
  5
2623A
330
260DD
100
AcDbEntity
  8
寸法
 62
     0
 48
50.0
370
    -2
100
AcDbBlockReference
  2
_DOTSMALL
 10
6693.600000000002
 20
8925.128099989128
 30
0.0
 41
100.0
 42
100.0
 43
100.0
 50
180.0
  0
INSERT
  5
2623B
330
260DD
100
AcDbEntity
  8
寸法
 62
     0
 48
50.0
370
    -2
100
AcDbBlockReference
  2
_DOTSMALL
 10
6638.600000000014
 20
8925.128099989128
 30
0.0
 41
100.0
 42
100.0
 43
100.0
  0
MTEXT
  5
2623C
330
260DD
100
AcDbEntity
  8
寸法
 62
     7
 48
50.0
100
AcDbMText
 10
6666.100000000007
 20
9025.128099989128
 30
0.0
 40
120.0
 41
0.0
 71
     5
 72
     1
  1
\A1;b
  7
STYLE1
 73
     1
 44
1.0
1001
ACAD
1000
MTEXTBEGIN
1070
    73
1070
     1
1070
    44
1040
1.0
1070
    74
1070
     0
1000
MTEXTEND
  0
POINT
  5
2623D
330
260DD
100
AcDbEntity
  8
DEFPOINTS
 62
     0
 48
50.0
100
AcDbPoint
 10
6693.600000000002
 20
7966.907777930209
 30
0.0
  0
POINT
  5
2623E
330
260DD
100
AcDbEntity
  8
DEFPOINTS
 62
     0
 48
50.0
100
AcDbPoint
 10
6638.600000000014
 20
8712.667404472291
 30
0.0
  0
POINT
  5
2623F
330
260DD
100
AcDbEntity
  8
DEFPOINTS
 62
     0
 48
50.0
100
AcDbPoint
 10
6638.600000000014
 20
8925.128099989128
 30
0.0
  0
ENDBLK
  5
260EA
330
260DD
100
AcDbEntity
  8
0
 48
50.0
100
AcDbBlockEnd
  0
BLOCK
  5
260F7
330
260EB
100
AcDbEntity
  8
0
 48
50.0
100
AcDbBlockBegin
  2
*D46
 70
     1
 10
0.0
 20
0.0
 30
0.0
  3
*D46
  1

  0
LINE
  5
2622A
330
260EB
100
AcDbEntity
  8
寸法
 62
     0
 48
50.0
370
    -2
100
AcDbLine
 10
9828.600000000005
 20
8732.667404472293
 30
0.0
 11
9828.600000000005
 21
8985.128099989127
 31
0.0
  0
LINE
  5
2622B
330
260EB
100
AcDbEntity
  8
寸法
 62
     0
 48
50.0
370
    -2
100
AcDbLine
 10
9753.600000000004
 20
7986.907777930209
 30
0.0
 11
9753.600000000004
 21
8985.128099989127
 31
0.0
  0
LINE
  5
2622C
330
260EB
100
AcDbEntity
  8
寸法
 62
     0
 48
50.0
370
    -2
100
AcDbLine
 10
9828.600000000005
 20
8925.128099989128
 30
0.0
 11
9928.600000000004
 21
8925.128099989128
 31
0.0
  0
LINE
  5
2622D
330
260EB
100
AcDbEntity
  8
寸法
 62
     0
 48
50.0
370
    -2
100
AcDbLine
 10
9753.600000000004
 20
8925.128099989128
 30
0.0
 11
9653.600000000004
 21
8925.128099989128
 31
0.0
  0
LINE
  5
2622E
330
260EB
100
AcDbEntity
  8
寸法
 62
     0
 48
50.0
370
    -2
100
AcDbLine
 10
9828.600000000005
 20
8925.128099989128
 30
0.0
 11
9753.600000000004
 21
8925.128099989128
 31
0.0
  0
INSERT
  5
2622F
330
260EB
100
AcDbEntity
  8
寸法
 62
     0
 48
50.0
370
    -2
100
AcDbBlockReference
  2
_DOTSMALL
 10
9828.600000000005
 20
8925.128099989128
 30
0.0
 41
100.0
 42
100.0
 43
100.0
 50
180.0
  0
INSERT
  5
26230
330
260EB
100
AcDbEntity
  8
寸法
 62
     0
 48
50.0
370
    -2
100
AcDbBlockReference
  2
_DOTSMALL
 10
9753.600000000004
 20
8925.128099989128
 30
0.0
 41
100.0
 42
100.0
 43
100.0
  0
MTEXT
  5
26231
330
260EB
100
AcDbEntity
  8
寸法
 62
     7
 48
50.0
100
AcDbMText
 10
9791.100000000003
 20
9025.128099989128
 30
0.0
 40
120.0
 41
0.0
 71
     5
 72
     1
  1
\A1;c
  7
STYLE1
 73
     1
 44
1.0
1001
ACAD
1000
MTEXTBEGIN
1070
    73
1070
     1
1070
    44
1040
1.0
1070
    74
1070
     0
1000
MTEXTEND
  0
POINT
  5
26232
330
260EB
100
AcDbEntity
  8
DEFPOINTS
 62
     0
 48
50.0
100
AcDbPoint
 10
9828.600000000005
 20
8712.667404472291
 30
0.0
  0
POINT
  5
26233
330
260EB
100
AcDbEntity
  8
DEFPOINTS
 62
     0
 48
50.0
100
AcDbPoint
 10
9753.600000000004
 20
7966.907777930209
 30
0.0
  0
POINT
  5
26234
330
260EB
100
AcDbEntity
  8
DEFPOINTS
 62
     0
 48
50.0
100
AcDbPoint
 10
9753.600000000004
 20
8925.128099989128
 30
0.0
  0
ENDBLK
  5
260F8
330
260EB
100
AcDbEntity
  8
0
 48
50.0
100
AcDbBlockEnd
  0
BLOCK
  5
26105
330
260F9
100
AcDbEntity
  8
0
 48
50.0
100
AcDbBlockBegin
  2
*D47
 70
     1
 10
0.0
 20
0.0
 30
0.0
  3
*D47
  1

  0
LINE
  5
2624B
330
260F9
100
AcDbEntity
  8
寸法
 62
     0
 48
50.0
370
    -2
100
AcDbLine
 10
6673.600000000002
 20
7966.907777930206
 30
0.0
 11
5294.994115528242
 21
7966.907777930207
 31
0.0
  0
LINE
  5
2624C
330
260F9
100
AcDbEntity
  8
寸法
 62
     0
 48
50.0
370
    -2
100
AcDbLine
 10
5586.937212247639
 20
8012.519882073114
 30
0.0
 11
5294.994115528242
 21
8012.519882073114
 31
0.0
  0
LINE
  5
2624D
330
260F9
100
AcDbEntity
  8
寸法
 62
     0
 48
50.0
370
    -2
100
AcDbLine
 10
5354.994115528241
 20
7966.907777930207
 30
0.0
 11
5354.994115528241
 21
7866.907777930207
 31
0.0
  0
LINE
  5
2624E
330
260F9
100
AcDbEntity
  8
寸法
 62
     0
 48
50.0
370
    -2
100
AcDbLine
 10
5354.994115528241
 20
8012.519882073114
 30
0.0
 11
5354.994115528241
 21
8349.869124478033
 31
0.0
  0
LINE
  5
2624F
330
260F9
100
AcDbEntity
  8
寸法
 62
     0
 48
50.0
370
    -2
100
AcDbLine
 10
5354.994115528241
 20
7966.907777930207
 30
0.0
 11
5354.994115528241
 21
8012.519882073114
 31
0.0
  0
INSERT
  5
26250
330
260F9
100
AcDbEntity
  8
寸法
 62
     0
 48
50.0
370
    -2
100
AcDbBlockReference
  2
_DOTSMALL
 10
5354.994115528241
 20
7966.907777930207
 30
0.0
 41
100.0
 42
100.0
 43
100.0
 50
90.0
  0
INSERT
  5
26251
330
260F9
100
AcDbEntity
  8
寸法
 62
     0
 48
50.0
370
    -2
100
AcDbBlockReference
  2
_DOTSMALL
 10
5354.994115528241
 20
8012.519882073114
 30
0.0
 41
100.0
 42
100.0
 43
100.0
 50
270.0
  0
MTEXT
  5
26252
330
260F9
100
AcDbEntity
  8
寸法
 62
     7
 48
50.0
100
AcDbMText
 10
5254.994115528241
 20
8283.694503275576
 30
0.0
 40
120.0
 41
0.0
 71
     5
 72
     1
  1
\A1;a
  7
STYLE1
 11
0.0000000000000001
 21
1.0
 31
0.0
 73
     1
 44
1.0
1001
ACAD
1000
MTEXTBEGIN
1070
    73
1070
     1
1070
    44
1040
1.0
1070
    74
1070
     0
1000
MTEXTEND
  0
POINT
  5
26253
330
260F9
100
AcDbEntity
  8
DEFPOINTS
 62
     0
 48
50.0
100
AcDbPoint
 10
6693.6
 20
7966.907777930206
 30
0.0
  0
POINT
  5
26254
330
260F9
100
AcDbEntity
  8
DEFPOINTS
 62
     0
 48
50.0
100
AcDbPoint
 10
5606.937212247639
 20
8012.519882073114
 30
0.0
  0
POINT
  5
26255
330
260F9
100
AcDbEntity
  8
DEFPOINTS
 62
     0
 48
50.0
100
AcDbPoint
 10
5354.994115528241
 20
8012.519882073114
 30
0.0
  0
ENDBLK
  5
26106
330
260F9
100
AcDbEntity
  8
0
 48
50.0
100
AcDbBlockEnd
  0
BLOCK
  5
26CB7
330
26CAD
100
AcDbEntity
  8
0
 48
50.0
100
AcDbBlockBegin
  2
*D48
 70
     1
 10
0.0
 20
0.0
 30
0.0
  3
*D48
  1

  0
LINE
  5
26CFA
330
26CAD
100
AcDbEntity
  8
寸法
 62
     0
 48
50.0
370
    -2
100
AcDbLine
 10
8368.030799862433
 20
2173.623857557852
 30
0.0
 11
8909.899399631274
 21
2173.623857557852
 31
0.0
  0
LINE
  5
26CFB
330
26CAD
100
AcDbEntity
  8
寸法
 62
     0
 48
50.0
370
    -2
100
AcDbLine
 10
8368.030799862433
 20
1849.623857557851
 30
0.0
 11
8909.899399631274
 21
1849.62385755785
 31
0.0
  0
LINE
  5
26CFC
330
26CAD
100
AcDbEntity
  8
寸法
 62
     0
 48
50.0
370
    -2
100
AcDbLine
 10
8849.899399631274
 20
2173.623857557852
 30
0.0
 11
8849.899399631274
 21
1849.62385755785
 31
0.0
  0
INSERT
  5
26CFD
330
26CAD
100
AcDbEntity
  8
寸法
 62
     0
 48
50.0
370
    -2
100
AcDbBlockReference
  2
_DOTSMALL
 10
8849.899399631274
 20
2173.623857557852
 30
0.0
 41
100.0
 42
100.0
 43
100.0
 50
90.0
  0
INSERT
  5
26CFE
330
26CAD
100
AcDbEntity
  8
寸法
 62
     0
 48
50.0
370
    -2
100
AcDbBlockReference
  2
_DOTSMALL
 10
8849.899399631274
 20
1849.62385755785
 30
0.0
 41
100.0
 42
100.0
 43
100.0
 50
270.0
  0
MTEXT
  5
26CFF
330
26CAD
100
AcDbEntity
  8
寸法
 62
     7
 48
50.0
100
AcDbMText
 10
8749.899399631274
 20
2011.623857557853
 30
0.0
 40
120.0
 41
0.0
 71
     5
 72
     1
  1
\A1;180
  7
STYLE1
 11
0.0000000000000001
 21
1.0
 31
0.0
 73
     1
 44
1.0
1001
ACAD
1000
MTEXTBEGIN
1070
    73
1070
     1
1070
    44
1040
1.0
1070
    74
1070
     0
1000
MTEXTEND
  0
POINT
  5
26D00
330
26CAD
100
AcDbEntity
  8
DEFPOINTS
 62
     0
 48
50.0
100
AcDbPoint
 10
8348.030799862433
 20
2173.623857557852
 30
0.0
  0
POINT
  5
26D01
330
26CAD
100
AcDbEntity
  8
DEFPOINTS
 62
     0
 48
50.0
100
AcDbPoint
 10
8348.030799862433
 20
1849.623857557851
 30
0.0
  0
POINT
  5
26D02
330
26CAD
100
AcDbEntity
  8
DEFPOINTS
 62
     0
 48
50.0
100
AcDbPoint
 10
8849.899399631274
 20
1849.62385755785
 30
0.0
  0
ENDBLK
  5
26CB8
330
26CAD
100
AcDbEntity
  8
0
 48
50.0
100
AcDbBlockEnd
  0
BLOCK
  5
26CC8
330
26CB9
100
AcDbEntity
  8
0
 48
50.0
100
AcDbBlockBegin
  2
*D49
 70
     1
 10
0.0
 20
0.0
 30
0.0
  3
*D49
  1

  0
LINE
  5
26D03
330
26CB9
100
AcDbEntity
  8
寸法
 62
     0
 48
50.0
370
    -2
100
AcDbLine
 10
8180.830799862432
 20
2226.383857557853
 30
0.0
 11
8909.899399631274
 21
2226.383857557853
 31
0.0
  0
LINE
  5
26D04
330
26CB9
100
AcDbEntity
  8
寸法
 62
     0
 48
50.0
370
    -2
100
AcDbLine
 10
8368.030799862433
 20
2173.623857557852
 30
0.0
 11
8909.899399631274
 21
2173.623857557852
 31
0.0
  0
LINE
  5
26D05
330
26CB9
100
AcDbEntity
  8
寸法
 62
     0
 48
50.0
370
    -2
100
AcDbLine
 10
8849.899399631274
 20
2226.383857557853
 30
0.0
 11
8849.899399631274
 21
2326.383857557853
 31
0.0
  0
LINE
  5
26D06
330
26CB9
100
AcDbEntity
  8
寸法
 62
     0
 48
50.0
370
    -2
100
AcDbLine
 10
8849.899399631274
 20
2173.623857557852
 30
0.0
 11
8849.899399631274
 21
2073.623857557852
 31
0.0
  0
LINE
  5
26D07
330
26CB9
100
AcDbEntity
  8
寸法
 62
     0
 48
50.0
370
    -2
100
AcDbLine
 10
8849.899399631274
 20
2200.003857557852
 30
0.0
 11
9125.954065750303
 21
2188.499899953639
 31
0.0
  0
LINE
  5
26D08
330
26CB9
100
AcDbEntity
  8
寸法
 62
     0
 48
50.0
370
    -2
100
AcDbLine
 10
9125.954065750303
 20
2188.499899953639
 30
0.0
 11
9125.954065750303
 21
1656.482093110673
 31
0.0
  0
MTEXT
  5
26D09
330
26CB9
100
AcDbEntity
  8
寸法
 62
     7
 48
50.0
100
AcDbMText
 10
9025.942254726681
 20
1922.490996532157
 30
0.0
 40
120.0
 41
0.0
 71
     5
 72
     1
  1
\A1;20～25
  7
STYLE1
 11
0.0000000000000001
 21
1.0
 31
0.0
 73
     1
 44
1.0
1001
ACAD
1000
MTEXTBEGIN
1070
    73
1070
     1
1070
    44
1040
1.0
1070
    74
1070
     0
1000
MTEXTEND
  0
LINE
  5
26D0A
330
26CB9
100
AcDbEntity
  8
寸法
 62
     0
 48
50.0
370
    -2
100
AcDbLine
 10
8849.899399631274
 20
2226.383857557853
 30
0.0
 11
8849.899399631274
 21
2173.623857557852
 31
0.0
  0
LINE
  5
26D0B
330
26CB9
100
AcDbEntity
  8
寸法
 62
     0
 48
50.0
370
    -2
100
AcDbLine
 10
8849.899399631274
 20
2226.383857557853
 30
0.0
 11
8849.899399631274
 21
2173.623857557852
 31
0.0
  0
INSERT
  5
26D0C
330
26CB9
100
AcDbEntity
  8
寸法
 62
     0
 48
50.0
370
    -2
100
AcDbBlockReference
  2
_DOTSMALL
 10
8849.899399631274
 20
2226.383857557853
 30
0.0
 41
100.0
 42
100.0
 43
100.0
 50
270.0
  0
INSERT
  5
26D0D
330
26CB9
100
AcDbEntity
  8
寸法
 62
     0
 48
50.0
370
    -2
100
AcDbBlockReference
  2
_DOTSMALL
 10
8849.899399631274
 20
2173.623857557852
 30
0.0
 41
100.0
 42
100.0
 43
100.0
 50
90.0
  0
POINT
  5
26D0E
330
26CB9
100
AcDbEntity
  8
DEFPOINTS
 62
     0
 48
50.0
100
AcDbPoint
 10
8160.830799862434
 20
2226.383857557853
 30
0.0
  0
POINT
  5
26D0F
330
26CB9
100
AcDbEntity
  8
DEFPOINTS
 62
     0
 48
50.0
100
AcDbPoint
 10
8348.030799862433
 20
2173.623857557852
 30
0.0
  0
POINT
  5
26D10
330
26CB9
100
AcDbEntity
  8
DEFPOINTS
 62
     0
 48
50.0
100
AcDbPoint
 10
8849.899399631274
 20
2173.623857557852
 30
0.0
  0
ENDBLK
  5
26CC9
330
26CB9
100
AcDbEntity
  8
0
 48
50.0
100
AcDbBlockEnd
  0
BLOCK
  5
26CD4
330
26CCA
100
AcDbEntity
  8
0
 48
50.0
100
AcDbBlockBegin
  2
*D50
 70
     1
 10
0.0
 20
0.0
 30
0.0
  3
*D50
  1

  0
LINE
  5
26D11
330
26CCA
100
AcDbEntity
  8
寸法
 62
     0
 48
50.0
370
    -2
100
AcDbLine
 10
6085.991486685237
 20
1629.623857557852
 30
0.0
 11
5903.571172952778
 21
1629.623857557852
 31
0.0
  0
LINE
  5
26D12
330
26CCA
100
AcDbEntity
  8
寸法
 62
     0
 48
50.0
370
    -2
100
AcDbLine
 10
6005.991486685242
 20
1389.623857557852
 30
0.0
 11
5903.571172952778
 21
1389.623857557852
 31
0.0
  0
LINE
  5
26D13
330
26CCA
100
AcDbEntity
  8
寸法
 62
     0
 48
50.0
370
    -2
100
AcDbLine
 10
5963.571172952779
 20
1629.623857557852
 30
0.0
 11
5963.571172952779
 21
1389.623857557852
 31
0.0
  0
MTEXT
  5
26D14
330
26CCA
100
AcDbEntity
  8
寸法
 62
     7
 48
50.0
100
AcDbMText
 10
5863.571172952778
 20
1509.623857557851
 30
0.0
 40
120.0
 41
0.0
 71
     5
 72
     1
  1
\A1;150
  7
STYLE1
 11
0.0000000000000001
 21
1.0
 31
0.0
 73
     1
 44
1.0
1001
ACAD
1000
MTEXTBEGIN
1070
    73
1070
     1
1070
    44
1040
1.0
1070
    74
1070
     0
1000
MTEXTEND
  0
INSERT
  5
26D15
330
26CCA
100
AcDbEntity
  8
寸法
 62
     0
 48
50.0
370
    -2
100
AcDbBlockReference
  2
_DOTSMALL
 10
5963.571172952779
 20
1629.623857557852
 30
0.0
 41
100.0
 42
100.0
 43
100.0
 50
90.0
  0
INSERT
  5
26D16
330
26CCA
100
AcDbEntity
  8
寸法
 62
     0
 48
50.0
370
    -2
100
AcDbBlockReference
  2
_DOTSMALL
 10
5963.571172952779
 20
1389.623857557852
 30
0.0
 41
100.0
 42
100.0
 43
100.0
 50
270.0
  0
POINT
  5
26D17
330
26CCA
100
AcDbEntity
  8
DEFPOINTS
 62
     0
 48
50.0
100
AcDbPoint
 10
6105.991486685238
 20
1629.623857557852
 30
0.0
  0
POINT
  5
26D18
330
26CCA
100
AcDbEntity
  8
DEFPOINTS
 62
     0
 48
50.0
100
AcDbPoint
 10
6025.991486685241
 20
1389.623857557852
 30
0.0
  0
POINT
  5
26D19
330
26CCA
100
AcDbEntity
  8
DEFPOINTS
 62
     0
 48
50.0
100
AcDbPoint
 10
5963.571172952779
 20
1389.623857557852
 30
0.0
  0
ENDBLK
  5
26CD5
330
26CCA
100
AcDbEntity
  8
0
 48
50.0
100
AcDbBlockEnd
  0
BLOCK
  5
26CE0
330
26CD6
100
AcDbEntity
  8
0
 48
50.0
100
AcDbBlockBegin
  2
*D51
 70
     1
 10
0.0
 20
0.0
 30
0.0
  3
*D51
  1

  0
LINE
  5
26D1A
330
26CD6
100
AcDbEntity
  8
寸法
 62
     0
 48
50.0
370
    -2
100
AcDbLine
 10
6213.991486685237
 20
2173.623857557852
 30
0.0
 11
5438.954248123497
 21
2173.623857557852
 31
0.0
  0
LINE
  5
26D1B
330
26CD6
100
AcDbEntity
  8
寸法
 62
     0
 48
50.0
370
    -2
100
AcDbLine
 10
6005.991486685242
 20
1389.623857557852
 30
0.0
 11
5438.954248123497
 21
1389.623857557852
 31
0.0
  0
LINE
  5
26D1C
330
26CD6
100
AcDbEntity
  8
寸法
 62
     0
 48
50.0
370
    -2
100
AcDbLine
 10
5498.954248123498
 20
2173.623857557852
 30
0.0
 11
5498.954248123497
 21
1389.623857557852
 31
0.0
  0
MTEXT
  5
26D1D
330
26CD6
100
AcDbEntity
  8
寸法
 62
     7
 48
50.0
100
AcDbMText
 10
5398.954248123498
 20
1761.164007213852
 30
0.0
 40
120.0
 41
0.0
 71
     5
 72
     1
  1
\A1;540
  7
STYLE1
 11
0.0000000000000001
 21
1.0
 31
0.0
 73
     1
 44
1.0
1001
ACAD
1000
MTEXTBEGIN
1070
    73
1070
     1
1070
    44
1040
1.0
1070
    74
1070
     0
1000
MTEXTEND
  0
INSERT
  5
26D1E
330
26CD6
100
AcDbEntity
  8
寸法
 62
     0
 48
50.0
370
    -2
100
AcDbBlockReference
  2
_DOTSMALL
 10
5498.954248123498
 20
2173.623857557852
 30
0.0
 41
100.0
 42
100.0
 43
100.0
 50
90.0
  0
INSERT
  5
26D1F
330
26CD6
100
AcDbEntity
  8
寸法
 62
     0
 48
50.0
370
    -2
100
AcDbBlockReference
  2
_DOTSMALL
 10
5498.954248123497
 20
1389.623857557852
 30
0.0
 41
100.0
 42
100.0
 43
100.0
 50
270.0
  0
POINT
  5
26D20
330
26CD6
100
AcDbEntity
  8
DEFPOINTS
 62
     0
 48
50.0
100
AcDbPoint
 10
6233.991486685238
 20
2173.623857557852
 30
0.0
  0
POINT
  5
26D21
330
26CD6
100
AcDbEntity
  8
DEFPOINTS
 62
     0
 48
50.0
100
AcDbPoint
 10
6025.991486685241
 20
1389.623857557852
 30
0.0
  0
POINT
  5
26D22
330
26CD6
100
AcDbEntity
  8
DEFPOINTS
 62
     0
 48
50.0
100
AcDbPoint
 10
5498.954248123497
 20
1389.623857557852
 30
0.0
  0
ENDBLK
  5
26CE1
330
26CD6
100
AcDbEntity
  8
0
 48
50.0
100
AcDbBlockEnd
  0
BLOCK
  5
26CEC
330
26CE2
100
AcDbEntity
  8
0
 48
50.0
100
AcDbBlockBegin
  2
*D52
 70
     1
 10
0.0
 20
0.0
 30
0.0
  3
*D52
  1

  0
LINE
  5
26D23
330
26CE2
100
AcDbEntity
  8
寸法
 62
     0
 48
50.0
370
    -2
100
AcDbLine
 10
6105.991486685238
 20
1241.623857557852
 30
0.0
 11
6105.991486685238
 21
791.1942195526917
 31
0.0
  0
LINE
  5
26D24
330
26CE2
100
AcDbEntity
  8
寸法
 62
     0
 48
50.0
370
    -2
100
AcDbLine
 10
6553.991486685238
 20
1241.623857557852
 30
0.0
 11
6553.991486685238
 21
791.1942195526917
 31
0.0
  0
LINE
  5
26D25
330
26CE2
100
AcDbEntity
  8
寸法
 62
     0
 48
50.0
370
    -2
100
AcDbLine
 10
6105.991486685238
 20
851.1942195526916
 30
0.0
 11
6553.991486685238
 21
851.1942195526916
 31
0.0
  0
MTEXT
  5
26D26
330
26CE2
100
AcDbEntity
  8
寸法
 62
     7
 48
50.0
100
AcDbMText
 10
6309.894728007014
 20
951.1942195526916
 30
0.0
 40
120.0
 41
0.0
 71
     5
 72
     1
  1
\A1;300
  7
STYLE1
 73
     1
 44
1.0
1001
ACAD
1000
MTEXTBEGIN
1070
    73
1070
     1
1070
    44
1040
1.0
1070
    74
1070
     0
1000
MTEXTEND
  0
INSERT
  5
26D27
330
26CE2
100
AcDbEntity
  8
寸法
 62
     0
 48
50.0
370
    -2
100
AcDbBlockReference
  2
_DOTSMALL
 10
6105.991486685238
 20
851.1942195526916
 30
0.0
 41
100.0
 42
100.0
 43
100.0
 50
180.0
  0
INSERT
  5
26D28
330
26CE2
100
AcDbEntity
  8
寸法
 62
     0
 48
50.0
370
    -2
100
AcDbBlockReference
  2
_DOTSMALL
 10
6553.991486685238
 20
851.1942195526916
 30
0.0
 41
100.0
 42
100.0
 43
100.0
  0
POINT
  5
26D29
330
26CE2
100
AcDbEntity
  8
DEFPOINTS
 62
     0
 48
50.0
100
AcDbPoint
 10
6105.991486685238
 20
1261.623857557852
 30
0.0
  0
POINT
  5
26D2A
330
26CE2
100
AcDbEntity
  8
DEFPOINTS
 62
     0
 48
50.0
100
AcDbPoint
 10
6553.991486685238
 20
1261.623857557852
 30
0.0
  0
POINT
  5
26D2B
330
26CE2
100
AcDbEntity
  8
DEFPOINTS
 62
     0
 48
50.0
100
AcDbPoint
 10
6553.991486685238
 20
851.1942195526916
 30
0.0
  0
ENDBLK
  5
26CED
330
26CE2
100
AcDbEntity
  8
0
 48
50.0
100
AcDbBlockEnd
  0
BLOCK
  5
26CF8
330
26CEE
100
AcDbEntity
  8
0
 48
50.0
100
AcDbBlockBegin
  2
*D53
 70
     1
 10
0.0
 20
0.0
 30
0.0
  3
*D53
  1

  0
LINE
  5
26D2C
330
26CEE
100
AcDbEntity
  8
寸法
 62
     0
 48
50.0
370
    -2
100
AcDbLine
 10
6425.991486685238
 20
2193.623857557852
 30
0.0
 11
6425.991486685238
 21
2553.623857557852
 31
0.0
  0
LINE
  5
26D2D
330
26CEE
100
AcDbEntity
  8
寸法
 62
     0
 48
50.0
370
    -2
100
AcDbLine
 10
6233.991486685238
 20
2193.623857557852
 30
0.0
 11
6233.991486685238
 21
2553.623857557852
 31
0.0
  0
LINE
  5
26D2E
330
26CEE
100
AcDbEntity
  8
寸法
 62
     0
 48
50.0
370
    -2
100
AcDbLine
 10
6425.991486685238
 20
2493.623857557852
 30
0.0
 11
6233.991486685238
 21
2493.623857557852
 31
0.0
  0
MTEXT
  5
26D2F
330
26CEE
100
AcDbEntity
  8
寸法
 62
     7
 48
50.0
100
AcDbMText
 10
6341.217817030435
 20
2793.303476497854
 30
0.0
 40
120.0
 41
0.0
 71
     5
 72
     1
  1
\A1;120\P195
  7
STYLE1
 73
     1
 44
1.0
1001
ACAD
1000
MTEXTBEGIN
1070
    73
1070
     1
1070
    44
1040
1.0
1070
    74
1070
     0
1000
MTEXTEND
  0
INSERT
  5
26D30
330
26CEE
100
AcDbEntity
  8
寸法
 62
     0
 48
50.0
370
    -2
100
AcDbBlockReference
  2
_DOTSMALL
 10
6425.991486685238
 20
2493.623857557852
 30
0.0
 41
100.0
 42
100.0
 43
100.0
  0
INSERT
  5
26D31
330
26CEE
100
AcDbEntity
  8
寸法
 62
     0
 48
50.0
370
    -2
100
AcDbBlockReference
  2
_DOTSMALL
 10
6233.991486685238
 20
2493.623857557852
 30
0.0
 41
100.0
 42
100.0
 43
100.0
 50
180.0
  0
POINT
  5
26D32
330
26CEE
100
AcDbEntity
  8
DEFPOINTS
 62
     0
 48
50.0
100
AcDbPoint
 10
6425.991486685238
 20
2173.623857557852
 30
0.0
  0
POINT
  5
26D33
330
26CEE
100
AcDbEntity
  8
DEFPOINTS
 62
     0
 48
50.0
100
AcDbPoint
 10
6233.991486685238
 20
2173.623857557852
 30
0.0
  0
POINT
  5
26D34
330
26CEE
100
AcDbEntity
  8
DEFPOINTS
 62
     0
 48
50.0
100
AcDbPoint
 10
6233.991486685238
 20
2493.623857557852
 30
0.0
  0
ENDBLK
  5
26CF9
330
26CEE
100
AcDbEntity
  8
0
 48
50.0
100
AcDbBlockEnd
  0
ENDSEC
  0
SECTION
  2
ENTITIES
  0
MTEXT
  5
763F
330
747D
100
AcDbEntity
  8
0
100
AcDbMText
 10
302.846345836809
 20
280.1983726409901
 30
0.0
 40
3.5
 41
5.323721266742722
 71
     1
 72
     5
  1

  7
MSMINCHO
 73
     1
 44
1.0
1001
ACAD
1000
MTEXTBEGIN
1070
    73
1070
     1
1070
    44
1040
1.0
1070
    74
1070
     0
1000
MTEXTEND
  0
LINE
  5
10B57
330
747D
100
AcDbEntity
  8
補助
  6
PHANTOM
 62
   230
 48
50.0
100
AcDbLine
 10
139.9999999999995
 20
11409.6
 30
0.0
 11
16307.2
 21
11409.6
 31
0.0
  0
LINE
  5
10B5D
330
747D
100
AcDbEntity
  8
仕様書枠
 48
50.0
100
AcDbLine
 10
140.0
 20
0.0
 30
0.0
 11
16307.2
 21
-0.0000000000000909
 31
0.0
  0
LINE
  5
10B5E
330
747D
100
AcDbEntity
  8
補助
  6
PHANTOM
 62
   230
 48
50.0
100
AcDbLine
 10
16307.2
 20
11409.6
 30
0.0
 11
16307.2
 21
1200.0
 31
0.0
  0
LINE
  5
10B6C
330
747D
100
AcDbEntity
  8
仕様書枠
 48
50.0
100
AcDbLine
 10
13107.2
 20
1200.0
 30
0.0
 11
16307.2
 21
1200.0
 31
0.0
  0
TEXT
  5
10B73
330
747D
100
AcDbEntity
  8
文字
 62
     7
 48
50.0
100
AcDbText
 10
13162.9790565769
 20
895.0906074299405
 30
0.0
 40
200.0
  1
基 礎 図
  7
STYLE2
100
AcDbText
  0
LINE
  5
10B7B
330
747D
100
AcDbEntity
  8
仕様書枠
 48
50.0
100
AcDbLine
 10
13107.2
 20
800.0
 30
0.0
 11
14251.2
 21
800.0
 31
0.0
  0
LINE
  5
10B88
330
747D
100
AcDbEntity
  8
仕様書枠
  6
Continuous
 48
50.0
100
AcDbLine
 10
14251.2
 20
1200.0
 30
0.0
 11
14251.2
 21
800.0
 31
0.0
  0
LINE
  5
16462
330
747D
100
AcDbEntity
  8
仕様書枠
 48
50.0
100
AcDbLine
 10
16307.2
 20
1200.0
 30
0.0
 11
16307.2
 21
-0.0000000000000909
 31
0.0
  0
LINE
  5
1903B
330
747D
100
AcDbEntity
  8
補助
  6
PHANTOM
 62
   230
 48
50.0
100
AcDbLine
 10
140.0
 20
0.0
 30
0.0
 11
139.9999999999995
 21
11409.6
 31
0.0
  0
TEXT
  5
1C7A1
330
747D
100
AcDbEntity
  8
文字
 62
     7
 48
50.0
100
AcDbText
 10
13188.16259899338
 20
79.80631269190417
 30
0.0
 40
80.0
  1
※布基礎には換気口を設けてください。
  7
STYLE2
100
AcDbText
  0
TEXT
  5
1C7E7
330
747D
100
AcDbEntity
  8
文字
 62
     7
 48
50.0
100
AcDbText
 10
13188.16259899338
 20
246.7109242801889
 30
0.0
 40
80.0
  1
※寒冷地等は地域の実情に合わせた基礎にして下さい。
  7
STYLE2
100
AcDbText
  0
TEXT
  5
1C7E8
330
747D
100
AcDbEntity
  8
文字
 62
     7
 48
50.0
100
AcDbText
 10
14298.39471975829
 20
499.5983841039506
 30
0.0
 40
160.0
  1
ＮＸＮ－６５ＳＢ/ＨＢ
  7
STYLE2
100
AcDbText
  0
TEXT
  5
1C7E9
330
747D
100
AcDbEntity
  8
文字
 62
     7
 48
50.0
100
AcDbText
 10
14641.2525855784
 20
871.1744590657927
 30
0.0
 40
100.0
  1
～一般型・多雪地型～
  7
STYLE2
100
AcDbText
  0
TEXT
  5
1C7EC
330
747D
100
AcDbEntity
  8
文字
 62
     7
 48
50.0
100
AcDbText
 10
14524.131837222
 20
1031.557706291229
 30
0.0
 40
100.0
  1
     　    <縮尺> S=1/40
  7
STYLE2
100
AcDbText
  0
TEXT
  5
1C7ED
330
747D
100
AcDbEntity
  8
文字
 62
     7
 48
50.0
100
AcDbText
 10
13201.43669998441
 20
477.2740661031257
 30
0.0
 40
160.0
  1
機種名
  7
STYLE2
100
AcDbText
  0
LINE
  5
1C7EF
330
747D
100
AcDbEntity
  8
文字
 62
     7
 48
50.0
100
AcDbLine
 10
13187.2
 20
400.0
 30
0.0
 11
16227.2
 21
400.0
 31
0.0
  0
MTEXT
  5
24743
330
747D
100
AcDbEntity
  8
部品1
 62
     7
 48
50.0
100
AcDbMText
 10
8741.362297620369
 20
6968.211536739985
 30
0.0
 40
120.0
 41
0.0
 71
     6
 72
     1
  1
CB
  7
STYLE1
 73
     1
 44
1.0
1001
ACAD
1000
MTEXTBEGIN
1070
    73
1070
     1
1070
    44
1040
1.0
1070
    74
1070
     0
1000
MTEXTEND
  0
LWPOLYLINE
  5
24744
330
747D
100
AcDbEntity
  8
寸法
 48
50.0
100
AcDbPolyline
 90
        3
 70
     0
 43
0.0
 10
8876.472283077132
 20
7025.131930464822
 10
8837.809206570423
 20
6877.421839692274
 10
8573.50424964046
 20
6877.421839692273
1001
ACAD
1000
DSTYLE
1002
{
1070
   341
1005
0
1070
   343
1005
0
1070
   344
1005
0
1002
}
  0
SOLID
  5
24745
330
747D
100
AcDbEntity
  8
寸法
 48
50.0
100
AcDbTrace
 10
8856.317929497269
 20
7030.407327090239
 30
0.0
 11
8908.12466282964
 21
7146.058051944024
 31
0.0
 12
8896.626636657002
 22
7019.856533839403
 32
0.0
 13
8896.626636657002
 23
7019.856533839403
 33
0.0
1001
ACAD
1000
DSTYLE
1002
{
1070
   341
1005
0
1070
   343
1005
0
1070
   344
1005
0
1002
}
  0
LINE
  5
24B91
102
{ACAD_REACTORS
330
262E9
102
}
330
747D
100
AcDbEntity
  8
部品1
 48
50.0
100
AcDbLine
 10
9301.600000000002
 20
5671.90777793021
 30
0.0
 11
7146.600000000001
 21
5671.907777930195
 31
0.0
  0
LINE
  5
24B93
330
747D
100
AcDbEntity
  8
センター
 48
2.0
100
AcDbLine
 10
7446.6
 20
6481.907777930207
 30
0.0
 11
7546.600000000001
 21
6481.907777930207
 31
0.0
  0
LINE
  5
24B94
330
747D
100
AcDbEntity
  8
部品1
 48
50.0
100
AcDbLine
 10
7596.600000000001
 20
6581.907777930206
 30
0.0
 11
7396.600000000001
 21
6581.907777930206
 31
0.0
  0
LINE
  5
24B95
330
747D
100
AcDbEntity
  8
部品1
 48
50.0
100
AcDbLine
 10
7596.600000000001
 20
6381.907777930206
 30
0.0
 11
7396.600000000001
 21
6381.907777930206
 31
0.0
  0
LINE
  5
24B96
330
747D
100
AcDbEntity
  8
センター
 48
2.0
100
AcDbLine
 10
7446.6
 20
7231.907777930207
 30
0.0
 11
7546.600000000001
 21
7231.907777930207
 31
0.0
  0
LINE
  5
24B97
330
747D
100
AcDbEntity
  8
部品1
 48
50.0
100
AcDbLine
 10
7596.600000000001
 20
7131.907777930206
 30
0.0
 11
7396.600000000001
 21
7131.907777930206
 31
0.0
  0
LINE
  5
24B98
330
747D
100
AcDbEntity
  8
部品1
 48
50.0
100
AcDbLine
 10
7596.600000000001
 20
7331.907777930206
 30
0.0
 11
7396.600000000001
 21
7331.907777930206
 31
0.0
  0
DIMENSION
  5
24B99
330
747D
100
AcDbEntity
  8
寸法
 48
50.0
100
AcDbDimension
  2
*D19
 10
7496.6
 20
8493.817543578535
 30
0.0
 11
7860.100000000002
 21
8593.829354602155
 31
0.0
 70
    32
 71
     5
 42
727.0000000000009
  3
INABA_S40G
100
AcDbAlignedDimension
 13
8223.600000000002
 23
7331.907777930206
 33
0.0
 14
7496.6
 24
7331.907777930206
 34
0.0
100
AcDbRotatedDimension
1001
ACAD
1000
DSTYLE
1002
{
1070
   174
1070
     0
1070
   272
1070
     1
1070
   341
1005
0
1002
}
  0
LINE
  5
24B9D
102
{ACAD_REACTORS
330
262A5
102
}
330
747D
100
AcDbEntity
  8
部品1
 48
50.0
100
AcDbLine
 10
9753.600000000004
 20
7966.907777930206
 30
0.0
 11
6693.6
 21
7966.907777930206
 31
0.0
  0
DIMENSION
  5
24BA0
330
747D
100
AcDbEntity
  8
寸法
 48
50.0
100
AcDbDimension
  2
*D20
 10
9753.600000000004
 20
8925.128099989128
 30
0.0
 11
8223.600000000002
 21
9025.128099989128
 31
0.0
 70
    32
 71
     5
 42
3060.000000000001
  3
INABA_S40G
100
AcDbAlignedDimension
 13
6693.6
 23
7966.907777930206
 33
0.0
 14
9753.600000000004
 24
7966.907777930206
 34
0.0
100
AcDbRotatedDimension
1001
ACAD
1000
DSTYLE
1002
{
1070
   174
1070
     0
1070
   272
1070
     1
1070
   341
1005
0
1002
}
  0
DIMENSION
  5
24BA1
330
747D
100
AcDbEntity
  8
寸法
 48
50.0
100
AcDbDimension
  2
*D21
 10
6816.600000000001
 20
8712.66740447229
 30
0.0
 11
8223.600000000002
 21
8812.679215495911
 31
0.0
 70
    32
 71
     5
 42
2814.000000000001
  3
INABA_S40G
100
AcDbAlignedDimension
 13
9630.600000000002
 23
7893.907777930206
 33
0.0
 14
6816.600000000001
 24
7893.907777930206
 34
0.0
100
AcDbRotatedDimension
1001
ACAD
1000
DSTYLE
1002
{
1070
   174
1070
     0
1070
   272
1070
     1
1070
   341
1005
0
1002
}
  0
LINE
  5
24BA4
102
{ACAD_REACTORS
330
2630B
102
}
330
747D
100
AcDbEntity
  8
部品1
 48
50.0
100
AcDbLine
 10
6693.6
 20
5746.907777930206
 30
0.0
 11
6693.6
 21
7966.907777930206
 31
0.0
  0
DIMENSION
  5
24BA5
330
747D
100
AcDbEntity
  8
寸法
 48
50.0
100
AcDbDimension
  2
*D22
 10
5354.99411552824
 20
7966.907777930211
 30
0.0
 11
5354.994115528239
 21
6821.907777930211
 31
0.0
 70
   160
 71
     5
 42
2220.0
  3
INABA_S40G
100
AcDbAlignedDimension
 13
6693.6
 23
5746.90777793021
 33
0.0
 14
6693.6
 24
7966.907777930209
 34
0.0
 50
90.0
100
AcDbRotatedDimension
1001
ACAD
1000
DSTYLE
1002
{
1070
   174
1070
     0
1070
   272
1070
     1
1070
   341
1005
0
1002
}
  0
DIMENSION
  5
24BA6
330
747D
100
AcDbEntity
  8
寸法
 48
50.0
100
AcDbDimension
  2
*D23
 10
5606.937212247638
 20
5869.907777930207
 30
0.0
 11
5606.937212247637
 21
6891.907777930204
 31
0.0
 70
   160
 71
     5
 42
1974.0
  3
INABA_S40G
100
AcDbAlignedDimension
 13
6766.600000000001
 23
7843.907777930207
 33
0.0
 14
6766.600000000008
 24
5869.907777930206
 34
0.0
 50
90.0
100
AcDbRotatedDimension
1001
ACAD
1000
DSTYLE
1002
{
1070
   174
1070
     0
1070
   272
1070
     1
1070
   341
1005
0
1002
}
  0
DIMENSION
  5
24BA7
330
747D
100
AcDbEntity
  8
寸法
 48
50.0
100
AcDbDimension
  2
*D24
 10
7140.307249876101
 20
7736.907777930203
 30
0.0
 11
7140.307249876099
 21
7396.848722812091
 31
0.0
 70
   160
 71
     5
 42
110.0000000000072
  3
INABA_S40G
100
AcDbAlignedDimension
 13
6923.600000000002
 23
7846.907777930209
 33
0.0
 14
6923.600000000002
 24
7736.907777930203
 34
0.0
 50
90.0
100
AcDbRotatedDimension
1001
ACAD
1000
DSTYLE
1002
{
1070
   174
1070
     0
1070
   272
1070
     1
1070
   341
1005
0
1002
}
  0
DIMENSION
  5
24BA8
330
747D
100
AcDbEntity
  8
寸法
 48
50.0
100
AcDbDimension
  2
*D25
 10
6693.6
 20
8493.817543578535
 30
0.0
 11
7095.100000000001
 21
8593.817543578534
 31
0.0
 70
    32
 71
     5
 42
803.0
  3
INABA_S40G
100
AcDbAlignedDimension
 13
7496.6
 23
7331.907777930206
 33
0.0
 14
6693.6
 24
7966.907777930206
 34
0.0
100
AcDbRotatedDimension
1001
ACAD
1000
DSTYLE
1002
{
1070
   174
1070
     0
1070
   272
1070
     1
1070
   341
1005
0
1002
}
  0
LINE
  5
24BAC
330
747D
100
AcDbEntity
  8
部品1
 48
50.0
100
AcDbLine
 10
6693.6
 20
5746.907777930206
 30
0.0
 11
7146.600000000001
 21
5746.907777930206
 31
0.0
  0
DIMENSION
  5
24BAD
330
747D
100
AcDbEntity
  8
寸法
 48
50.0
100
AcDbDimension
  2
*D26
 10
5606.937212247638
 20
5746.907777930207
 30
0.0
 11
5606.937212247637
 21
5451.376829087614
 31
0.0
 70
   160
 71
     5
 42
123.0
  3
INABA_S40G
100
AcDbAlignedDimension
 13
6766.600000000008
 23
5869.907777930206
 33
0.0
 14
6693.6
 24
5746.907777930206
 34
0.0
 50
90.0
100
AcDbRotatedDimension
1001
ACAD
1000
DSTYLE
1002
{
1070
   174
1070
     0
1070
   272
1070
     1
1070
   341
1005
0
1002
}
  0
LINE
  5
24BAE
330
747D
100
AcDbEntity
  8
部品1
 48
50.0
100
AcDbLine
 10
7146.600000000001
 20
5671.907777930211
 30
0.0
 11
7146.600000000001
 21
5746.907777930196
 31
0.0
  0
LINE
  5
24BAF
330
747D
100
AcDbEntity
  8
部品1
 48
50.0
100
AcDbLine
 10
6923.600000000002
 20
5976.90777793021
 30
0.0
 11
6813.600000000002
 21
5976.907777930207
 31
0.0
  0
LINE
  5
24BB0
330
747D
100
AcDbEntity
  8
センター
 48
2.0
100
AcDbLine
 10
6766.600000000008
 20
5869.907777930206
 30
0.0
 11
6866.600000000008
 21
5869.907777930206
 31
0.0
  0
CIRCLE
  5
24BB1
330
747D
100
AcDbEntity
  8
部品1
 48
50.0
100
AcDbCircle
 10
6816.600000000008
 20
5869.907777930206
 30
0.0
 40
35.0
  0
LINE
  5
24BB2
330
747D
100
AcDbEntity
  8
部品1
 48
50.0
100
AcDbLine
 10
6923.600000000002
 20
5866.90777793021
 30
0.0
 11
6923.600000000002
 21
5976.90777793021
 31
0.0
  0
LINE
  5
24BB3
330
747D
100
AcDbEntity
  8
センター
 48
2.0
100
AcDbLine
 10
6816.600000000008
 20
5919.907777930205
 30
0.0
 11
6816.600000000008
 21
5819.907777930206
 31
0.0
  0
LINE
  5
24BB5
102
{ACAD_REACTORS
330
2630B
102
}
330
747D
100
AcDbEntity
  8
部品1
 48
50.0
100
AcDbLine
 10
6813.6
 20
6756.907777930215
 30
0.0
 11
6693.6
 21
6756.907777930215
 31
0.0
  0
LINE
  5
24BB6
102
{ACAD_REACTORS
330
2630B
102
}
330
747D
100
AcDbEntity
  8
部品1
 48
50.0
100
AcDbLine
 10
6813.6
 20
6956.907777930215
 30
0.0
 11
6693.6
 21
6956.907777930215
 31
0.0
  0
LINE
  5
24BB7
330
747D
100
AcDbEntity
  8
センター
 48
2.0
100
AcDbLine
 10
7496.6
 20
6531.907777930206
 30
0.0
 11
7496.6
 21
6431.907777930206
 31
0.0
  0
LINE
  5
24BB8
330
747D
100
AcDbEntity
  8
部品1
 48
50.0
100
AcDbLine
 10
7396.600000000001
 20
6381.907777930206
 30
0.0
 11
7396.600000000001
 21
6581.907777930206
 31
0.0
  0
LINE
  5
24BB9
330
747D
100
AcDbEntity
  8
センター
 48
2.0
100
AcDbLine
 10
7496.6
 20
7281.907777930206
 30
0.0
 11
7496.6
 21
7181.907777930206
 31
0.0
  0
LINE
  5
24BBA
330
747D
100
AcDbEntity
  8
部品1
 48
50.0
100
AcDbLine
 10
7396.600000000001
 20
7131.907777930206
 30
0.0
 11
7396.600000000001
 21
7331.907777930206
 31
0.0
  0
DIMENSION
  5
24BBD
330
747D
100
AcDbEntity
  8
寸法
 48
50.0
100
AcDbDimension
  2
*D27
 10
6693.6
 20
8712.66740447229
 30
0.0
 11
6420.493398282203
 21
8712.66740447229
 31
0.0
 70
   160
 71
     5
 42
123.0
  3
INABA_S40G
100
AcDbAlignedDimension
 13
6816.600000000001
 23
7893.907777930206
 33
0.0
 14
6693.6
 24
7966.907777930206
 34
0.0
100
AcDbRotatedDimension
1001
ACAD
1000
DSTYLE
1002
{
1070
   174
1070
     0
1070
   272
1070
     1
1070
   341
1005
0
1002
}
  0
LINE
  5
24BBE
330
747D
100
AcDbEntity
  8
部品1
 48
50.0
100
AcDbLine
 10
7092.928907166849
 20
7966.907777930202
 30
0.0
 11
6693.6
 21
7966.907777930206
 31
0.0
  0
DIMENSION
  5
24BBF
330
747D
100
AcDbEntity
  8
寸法
 48
50.0
100
AcDbDimension
  2
*D28
 10
5606.937212247638
 20
7843.907777930207
 30
0.0
 11
5606.937212247637
 21
8280.014379648005
 31
0.0
 70
   160
 71
     5
 42
123.0
  3
INABA_S40G
100
AcDbAlignedDimension
 13
6693.6
 23
7966.907777930206
 33
0.0
 14
6766.600000000001
 24
7843.907777930207
 34
0.0
 50
90.0
100
AcDbRotatedDimension
1001
ACAD
1000
DSTYLE
1002
{
1070
   174
1070
     0
1070
   272
1070
     1
1070
   341
1005
0
1002
}
  0
DIMENSION
  5
24BC0
330
747D
100
AcDbEntity
  8
寸法
 48
50.0
100
AcDbDimension
  2
*D29
 10
7140.307249876099
 20
7966.907777930206
 30
0.0
 11
7140.307249876099
 21
8244.991321203093
 31
0.0
 70
   160
 71
     5
 42
120.0
  3
INABA_S40G
100
AcDbAlignedDimension
 13
6923.600000000002
 23
7846.907777930207
 33
0.0
 14
6923.600000000002
 24
7966.907777930206
 34
0.0
 50
90.0
100
AcDbRotatedDimension
1001
ACAD
1000
DSTYLE
1002
{
1070
   174
1070
     0
1070
   272
1070
     1
1070
   341
1005
0
1002
}
  0
CIRCLE
  5
24BC1
330
747D
100
AcDbEntity
  8
部品1
 48
50.0
100
AcDbCircle
 10
6816.600000000001
 20
7843.907777930207
 30
0.0
 40
35.0
  0
LINE
  5
24BC2
330
747D
100
AcDbEntity
  8
センター
 48
2.0
100
AcDbLine
 10
6816.600000000001
 20
7893.907777930206
 30
0.0
 11
6816.600000000001
 21
7793.907777930207
 31
0.0
  0
LINE
  5
24BC3
330
747D
100
AcDbEntity
  8
部品1
 48
50.0
100
AcDbLine
 10
6923.600000000002
 20
7736.907777930203
 30
0.0
 11
6923.600000000002
 21
7846.907777930205
 31
0.0
  0
LINE
  5
24BC4
330
747D
100
AcDbEntity
  8
部品1
 48
50.0
100
AcDbLine
 10
6923.600000000002
 20
7736.907777930203
 30
0.0
 11
6813.600000000002
 21
7736.907777930206
 31
0.0
  0
LINE
  5
24BC5
330
747D
100
AcDbEntity
  8
センター
 48
2.0
100
AcDbLine
 10
6766.600000000001
 20
7843.907777930207
 30
0.0
 11
6866.600000000001
 21
7843.907777930207
 31
0.0
  0
DIMENSION
  5
24BC6
330
747D
100
AcDbEntity
  8
寸法
 48
50.0
100
AcDbDimension
  2
*D30
 10
8223.600000000002
 20
8493.817543578535
 30
0.0
 11
8587.100000000003
 21
8593.829354602155
 31
0.0
 70
    32
 71
     5
 42
727.0
  3
INABA_S40G
100
AcDbAlignedDimension
 13
8950.600000000003
 23
7331.907777930206
 33
0.0
 14
8223.600000000002
 24
7331.907777930206
 34
0.0
100
AcDbRotatedDimension
1001
ACAD
1000
DSTYLE
1002
{
1070
   174
1070
     0
1070
   272
1070
     1
1070
   341
1005
0
1002
}
  0
LINE
  5
24BCA
102
{ACAD_REACTORS
330
262C7
102
}
330
747D
100
AcDbEntity
  8
部品1
 48
50.0
100
AcDbLine
 10
9753.600000000004
 20
5746.907777930225
 30
0.0
 11
9753.600000000004
 21
7966.907777930206
 31
0.0
  0
DIMENSION
  5
24BCB
330
747D
100
AcDbEntity
  8
寸法
 48
50.0
100
AcDbDimension
  2
*D31
 10
5961.413371461228
 20
7966.907777930207
 30
0.0
 11
5861.413371461227
 21
7599.407777930207
 31
0.0
 70
    32
 71
     5
 42
734.999999999999
  3
INABA_S40G
100
AcDbAlignedDimension
 13
7396.600000000003
 23
7231.907777930207
 33
0.0
 14
6693.6
 24
7966.907777930206
 34
0.0
 50
90.0
100
AcDbRotatedDimension
1001
ACAD
1000
DSTYLE
1002
{
1070
   174
1070
     0
1070
   272
1070
     1
1070
   341
1005
0
1002
}
  0
DIMENSION
  5
24BCD
330
747D
100
AcDbEntity
  8
寸法
 48
50.0
100
AcDbDimension
  2
*D32
 10
8950.600000000003
 20
8493.817543578535
 30
0.0
 11
9324.518522006281
 21
8493.817543578535
 31
0.0
 70
   160
 71
     5
 42
803.0
  3
INABA_S40G
100
AcDbAlignedDimension
 13
9753.600000000004
 23
7966.907777930206
 33
0.0
 14
8950.600000000003
 24
7331.907777930206
 34
0.0
100
AcDbRotatedDimension
1001
ACAD
1000
DSTYLE
1002
{
1070
   174
1070
     0
1070
   272
1070
     1
1070
   341
1005
0
1002
}
  0
DIMENSION
  5
24BD3
330
747D
100
AcDbEntity
  8
寸法
 48
50.0
100
AcDbDimension
  2
*D33
 10
5961.41337146123
 20
6481.907777930207
 30
0.0
 11
5961.413371461228
 21
6071.120553595382
 31
0.0
 70
   160
 71
     5
 42
734.9999999999917
  3
INABA_S40G
100
AcDbAlignedDimension
 13
6693.6
 23
5746.907777930214
 33
0.0
 14
7396.600000000001
 24
6481.907777930207
 34
0.0
 50
90.0
100
AcDbRotatedDimension
1001
ACAD
1000
DSTYLE
1002
{
1070
   174
1070
     0
1070
   272
1070
     1
1070
   341
1005
0
1002
}
  0
LINE
  5
24BD5
102
{ACAD_REACTORS
330
262E9
102
}
330
747D
100
AcDbEntity
  8
部品1
 48
50.0
100
AcDbLine
 10
8123.600000000017
 20
5671.907777930215
 30
0.0
 11
8123.600000000021
 21
5866.907777930216
 31
0.0
  0
LINE
  5
24BD6
102
{ACAD_REACTORS
330
262E9
102
}
330
747D
100
AcDbEntity
  8
部品1
 48
50.0
100
AcDbLine
 10
8323.600000000018
 20
5671.907777930217
 30
0.0
 11
8323.60000000002
 21
5866.907777930216
 31
0.0
  0
LINE
  5
24BDA
330
747D
100
AcDbEntity
  8
部品1
 48
50.0
100
AcDbLine
 10
7596.600000000001
 20
6381.907777930206
 30
0.0
 11
7596.600000000001
 21
6581.907777930206
 31
0.0
  0
LINE
  5
24BDB
330
747D
100
AcDbEntity
  8
部品1
 48
50.0
100
AcDbLine
 10
8323.600000000002
 20
6581.907777930206
 30
0.0
 11
8123.600000000001
 21
6581.907777930206
 31
0.0
  0
LINE
  5
24BDC
330
747D
100
AcDbEntity
  8
部品1
 48
50.0
100
AcDbLine
 10
8323.600000000002
 20
6381.907777930206
 30
0.0
 11
8123.600000000001
 21
6381.907777930206
 31
0.0
  0
LINE
  5
24BDD
330
747D
100
AcDbEntity
  8
部品1
 48
50.0
100
AcDbLine
 10
8123.600000000001
 20
6381.907777930206
 30
0.0
 11
8123.600000000001
 21
6581.907777930206
 31
0.0
  0
LINE
  5
24BDE
330
747D
100
AcDbEntity
  8
センター
 48
2.0
100
AcDbLine
 10
8173.600000000002
 20
6481.907777930207
 30
0.0
 11
8273.600000000001
 21
6481.907777930207
 31
0.0
  0
LINE
  5
24BDF
330
747D
100
AcDbEntity
  8
センター
 48
2.0
100
AcDbLine
 10
8223.600000000002
 20
6531.907777930206
 30
0.0
 11
8223.600000000002
 21
6431.907777930206
 31
0.0
  0
LINE
  5
24BE0
330
747D
100
AcDbEntity
  8
部品1
 48
50.0
100
AcDbLine
 10
8323.600000000002
 20
6381.907777930206
 30
0.0
 11
8323.600000000002
 21
6581.907777930206
 31
0.0
  0
LINE
  5
24BE1
330
747D
100
AcDbEntity
  8
部品1
 48
50.0
100
AcDbLine
 10
7596.600000000001
 20
7131.907777930206
 30
0.0
 11
7596.600000000001
 21
7331.907777930206
 31
0.0
  0
LINE
  5
24BE2
330
747D
100
AcDbEntity
  8
センター
 48
2.0
100
AcDbLine
 10
8223.600000000002
 20
7281.907777930206
 30
0.0
 11
8223.600000000002
 21
7181.907777930206
 31
0.0
  0
LINE
  5
24BE3
330
747D
100
AcDbEntity
  8
部品1
 48
50.0
100
AcDbLine
 10
8123.600000000001
 20
7131.907777930206
 30
0.0
 11
8123.600000000001
 21
7331.907777930206
 31
0.0
  0
LINE
  5
24BE4
330
747D
100
AcDbEntity
  8
部品1
 48
50.0
100
AcDbLine
 10
8323.600000000002
 20
7131.907777930206
 30
0.0
 11
8323.600000000002
 21
7331.907777930206
 31
0.0
  0
LINE
  5
24BE5
330
747D
100
AcDbEntity
  8
部品1
 48
50.0
100
AcDbLine
 10
8323.600000000002
 20
7131.907777930206
 30
0.0
 11
8123.600000000001
 21
7131.907777930206
 31
0.0
  0
LINE
  5
24BE6
330
747D
100
AcDbEntity
  8
センター
 48
2.0
100
AcDbLine
 10
8173.600000000002
 20
7231.907777930207
 30
0.0
 11
8273.600000000001
 21
7231.907777930207
 31
0.0
  0
LINE
  5
24BE7
330
747D
100
AcDbEntity
  8
部品1
 48
50.0
100
AcDbLine
 10
8323.600000000002
 20
7331.907777930206
 30
0.0
 11
8123.600000000001
 21
7331.907777930206
 31
0.0
  0
DIMENSION
  5
24BE8
330
747D
100
AcDbEntity
  8
寸法
 48
50.0
100
AcDbDimension
  2
*D34
 10
5961.413371461228
 20
6481.907777930207
 30
0.0
 11
5861.413371461226
 21
6856.907777930207
 31
0.0
 70
    32
 71
     5
 42
750.0000000000008
  3
INABA_S40G
100
AcDbAlignedDimension
 13
7396.600000000003
 23
7231.907777930207
 33
0.0
 14
7396.600000000001
 24
6481.907777930207
 34
0.0
 50
90.0
100
AcDbRotatedDimension
1001
ACAD
1000
DSTYLE
1002
{
1070
   174
1070
     0
1070
   272
1070
     1
1070
   341
1005
0
1002
}
  0
LINE
  5
24BE9
330
747D
100
AcDbEntity
  8
センター
 48
2.0
100
AcDbLine
 10
8900.600000000002
 20
6481.907777930207
 30
0.0
 11
9000.600000000003
 21
6481.907777930207
 31
0.0
  0
LINE
  5
24BEA
330
747D
100
AcDbEntity
  8
部品1
 48
50.0
100
AcDbLine
 10
9050.600000000002
 20
6381.907777930206
 30
0.0
 11
8850.600000000003
 21
6381.907777930206
 31
0.0
  0
LINE
  5
24BEB
330
747D
100
AcDbEntity
  8
部品1
 48
50.0
100
AcDbLine
 10
9050.600000000002
 20
6581.907777930206
 30
0.0
 11
8850.600000000003
 21
6581.907777930206
 31
0.0
  0
LINE
  5
24BEC
330
747D
100
AcDbEntity
  8
センター
 48
2.0
100
AcDbLine
 10
8950.600000000003
 20
6531.907777930206
 30
0.0
 11
8950.600000000003
 21
6431.907777930206
 31
0.0
  0
LINE
  5
24BED
330
747D
100
AcDbEntity
  8
部品1
 48
50.0
100
AcDbLine
 10
8850.600000000003
 20
6381.907777930206
 30
0.0
 11
8850.600000000003
 21
6581.907777930206
 31
0.0
  0
LINE
  5
24BEE
330
747D
100
AcDbEntity
  8
部品1
 48
50.0
100
AcDbLine
 10
9050.600000000002
 20
6381.907777930206
 30
0.0
 11
9050.600000000002
 21
6581.907777930206
 31
0.0
  0
LINE
  5
24BEF
330
747D
100
AcDbEntity
  8
部品1
 48
50.0
100
AcDbLine
 10
9050.600000000002
 20
7131.907777930206
 30
0.0
 11
9050.600000000002
 21
7331.907777930206
 31
0.0
  0
LINE
  5
24BF0
330
747D
100
AcDbEntity
  8
センター
 48
2.0
100
AcDbLine
 10
8950.600000000003
 20
7281.907777930206
 30
0.0
 11
8950.600000000003
 21
7181.907777930206
 31
0.0
  0
LINE
  5
24BF1
330
747D
100
AcDbEntity
  8
部品1
 48
50.0
100
AcDbLine
 10
8850.600000000003
 20
7131.907777930206
 30
0.0
 11
8850.600000000003
 21
7331.907777930206
 31
0.0
  0
LINE
  5
24BF2
330
747D
100
AcDbEntity
  8
センター
 48
2.0
100
AcDbLine
 10
8900.600000000002
 20
7231.907777930207
 30
0.0
 11
9000.600000000003
 21
7231.907777930207
 31
0.0
  0
LINE
  5
24BF3
330
747D
100
AcDbEntity
  8
部品1
 48
50.0
100
AcDbLine
 10
9050.600000000002
 20
7131.907777930206
 30
0.0
 11
8850.600000000003
 21
7131.907777930206
 31
0.0
  0
LINE
  5
24BF4
330
747D
100
AcDbEntity
  8
部品1
 48
50.0
100
AcDbLine
 10
9050.600000000002
 20
7331.907777930206
 30
0.0
 11
8850.600000000003
 21
7331.907777930206
 31
0.0
  0
LINE
  5
24BF5
330
747D
100
AcDbEntity
  8
部品1
 48
50.0
100
AcDbLine
 10
9753.600000000004
 20
5746.907777930225
 30
0.0
 11
9301.600000000002
 21
5746.907777930225
 31
0.0
  0
LINE
  5
24BF6
330
747D
100
AcDbEntity
  8
部品1
 48
50.0
100
AcDbLine
 10
9301.600000000002
 20
5671.907777930211
 30
0.0
 11
9301.600000000002
 21
5746.907777930208
 31
0.0
  0
LINE
  5
24BF7
330
747D
100
AcDbEntity
  8
部品1
 48
50.0
100
AcDbLine
 10
9633.600000000003
 20
5976.907777930224
 30
0.0
 11
9523.600000000001
 21
5976.907777930224
 31
0.0
  0
LINE
  5
24BF8
330
747D
100
AcDbEntity
  8
センター
 48
2.0
100
AcDbLine
 10
9580.600000000009
 20
5869.907777930206
 30
0.0
 11
9680.60000000001
 21
5869.907777930206
 31
0.0
  0
LINE
  5
24BF9
330
747D
100
AcDbEntity
  8
部品1
 48
50.0
100
AcDbLine
 10
9523.600000000001
 20
5866.907777930221
 30
0.0
 11
9523.600000000001
 21
5976.907777930224
 31
0.0
  0
LINE
  5
24BFA
330
747D
100
AcDbEntity
  8
センター
 48
2.0
100
AcDbLine
 10
9630.60000000001
 20
5919.907777930205
 30
0.0
 11
9630.60000000001
 21
5819.907777930206
 31
0.0
  0
CIRCLE
  5
24BFB
330
747D
100
AcDbEntity
  8
部品1
 48
50.0
100
AcDbCircle
 10
9630.60000000001
 20
5869.907777930206
 30
0.0
 40
35.0
  0
LINE
  5
24BFD
102
{ACAD_REACTORS
330
262C7
102
}
330
747D
100
AcDbEntity
  8
部品1
 48
50.0
100
AcDbLine
 10
9753.600000000004
 20
6756.907777930215
 30
0.0
 11
9633.600000000004
 21
6756.907777930215
 31
0.0
  0
LINE
  5
24BFE
102
{ACAD_REACTORS
330
262C7
102
}
330
747D
100
AcDbEntity
  8
部品1
 48
50.0
100
AcDbLine
 10
9753.600000000004
 20
6956.907777930215
 30
0.0
 11
9633.600000000004
 21
6956.907777930215
 31
0.0
  0
LINE
  5
24C00
102
{ACAD_REACTORS
330
262A5
102
}
330
747D
100
AcDbEntity
  8
部品1
 48
50.0
100
AcDbLine
 10
8123.600000000001
 20
7846.907777930207
 30
0.0
 11
8123.600000000001
 21
7966.907777930206
 31
0.0
  0
LINE
  5
24C01
102
{ACAD_REACTORS
330
262A5
102
}
330
747D
100
AcDbEntity
  8
部品1
 48
50.0
100
AcDbLine
 10
8323.600000000004
 20
7846.907777930207
 30
0.0
 11
8323.600000000002
 21
7966.907777930206
 31
0.0
  0
DIMENSION
  5
24C02
330
747D
100
AcDbEntity
  8
寸法
 48
50.0
100
AcDbDimension
  2
*D35
 10
9630.600000000002
 20
8712.66740447229
 30
0.0
 11
10026.7066017178
 21
8712.66740447229
 31
0.0
 70
   160
 71
     5
 42
123.0
  3
INABA_S40G
100
AcDbAlignedDimension
 13
9753.600000000004
 23
7966.907777930206
 33
0.0
 14
9630.600000000002
 24
7893.907777930206
 34
0.0
100
AcDbRotatedDimension
1001
ACAD
1000
DSTYLE
1002
{
1070
   174
1070
     0
1070
   272
1070
     1
1070
   341
1005
0
1002
}
  0
LINE
  5
24C04
330
747D
100
AcDbEntity
  8
センター
 48
2.0
100
AcDbLine
 10
9580.600000000002
 20
7843.907777930207
 30
0.0
 11
9680.600000000003
 21
7843.907777930207
 31
0.0
  0
LINE
  5
24C05
330
747D
100
AcDbEntity
  8
部品1
 48
50.0
100
AcDbLine
 10
9633.600000000003
 20
7736.907777930206
 30
0.0
 11
9523.600000000001
 21
7736.907777930206
 31
0.0
  0
LINE
  5
24C06
330
747D
100
AcDbEntity
  8
部品1
 48
50.0
100
AcDbLine
 10
9523.600000000001
 20
7736.907777930206
 30
0.0
 11
9523.600000000001
 21
7846.907777930207
 31
0.0
  0
LINE
  5
24C07
330
747D
100
AcDbEntity
  8
センター
 48
2.0
100
AcDbLine
 10
9630.600000000002
 20
7893.907777930206
 30
0.0
 11
9630.600000000002
 21
7793.907777930207
 31
0.0
  0
CIRCLE
  5
24C08
330
747D
100
AcDbEntity
  8
部品1
 48
50.0
100
AcDbCircle
 10
9630.600000000002
 20
7843.907777930207
 30
0.0
 40
35.0
  0
MTEXT
  5
25211
102
{ACAD_REACTORS
330
25212
102
}
330
747D
100
AcDbEntity
  8
部品1
 62
     7
 48
50.0
100
AcDbMText
 10
10948.99523070989
 20
8217.880272274156
 30
0.0
 40
120.0
 41
0.0
 71
     6
 72
     1
  1
アンカーボルト
  7
STYLE1
 73
     1
 44
1.0
1001
ACAD
1000
MTEXTBEGIN
1070
    73
1070
     1
1070
    44
1040
1.0
1070
    74
1070
     0
1000
MTEXTEND
  0
LEADER
  5
25212
330
747D
100
AcDbEntity
  8
寸法
 48
50.0
100
AcDbLeader
  3
INABA_S50G
 73
     0
 74
     0
 75
     1
 40
120.0
 41
994.3492424049171
 76
     3
 10
9630.68008575701
 20
7843.921501126414
 30
0.0
 10
9804.645988304974
 20
8132.880272274157
 30
0.0
 10
9929.645988304974
 20
8132.880272274157
 30
0.0
340
25211
1001
ACAD
1000
DSTYLE
1002
{
1070
   341
1005
0
1070
    40
1040
1.0
1070
   343
1005
0
1070
   344
1005
0
1002
}
  0
MTEXT
  5
25213
102
{ACAD_REACTORS
330
25214
102
}
330
747D
100
AcDbEntity
  8
部品1
 62
     7
 48
50.0
100
AcDbMText
 10
11200.62410510936
 20
6702.279162114828
 30
0.0
 40
120.0
 41
0.0
 71
     6
 72
     1
  1
\A1;床下換気口
  7
STYLE1
 73
     1
 44
1.0
1001
ACAD
1000
MTEXTBEGIN
1070
    73
1070
     1
1070
    44
1040
1.0
1070
    74
1070
     0
1000
MTEXTEND
  0
LEADER
  5
25214
330
747D
100
AcDbEntity
  8
寸法
 48
50.0
100
AcDbLeader
  3
INABA_S50G
 73
     0
 74
     0
 75
     1
 40
120.0
 41
720.0000000000001
 76
     3
 10
9753.695499614998
 20
6892.665324718881
 30
0.0
 10
10330.62410510936
 20
6617.279162114828
 30
0.0
 10
10455.62410510936
 20
6617.279162114828
 30
0.0
340
25213
1001
ACAD
1000
DSTYLE
1002
{
1070
   341
1005
0
1070
    40
1040
1.0
1070
   343
1005
0
1070
   344
1005
0
1002
}
  0
DIMENSION
  5
25649
330
747D
100
AcDbEntity
  8
寸法
 48
50.0
100
AcDbDimension
  2
*D36
 10
9523.600000000001
 20
7509.199110429834
 30
0.0
 11
9253.540944881892
 21
7509.199110429834
 31
0.0
 70
   160
 71
     5
 42
110.0
  3
INABA_S40G
100
AcDbAlignedDimension
 13
9633.600000000003
 23
7736.907777930206
 33
0.0
 14
9523.600000000001
 24
7736.907777930206
 34
0.0
100
AcDbRotatedDimension
1001
ACAD
1000
DSTYLE
1002
{
1070
   174
1070
     0
1070
   272
1070
     1
1070
   341
1005
0
1002
}
  0
DIMENSION
  5
2564A
330
747D
100
AcDbEntity
  8
寸法
 48
50.0
100
AcDbDimension
  2
*D37
 10
9633.600000000003
 20
7509.199110429834
 30
0.0
 11
10023.65905511811
 21
7509.199110429834
 31
0.0
 70
   160
 71
     5
 42
120.0
  3
INABA_S40G
100
AcDbAlignedDimension
 13
9753.600000000004
 23
7736.907777930207
 33
0.0
 14
9633.600000000003
 24
7736.907777930206
 34
0.0
100
AcDbRotatedDimension
1001
ACAD
1000
DSTYLE
1002
{
1070
   174
1070
     0
1070
   272
1070
     1
1070
   341
1005
0
1002
}
  0
LINE
  5
25AC0
330
747D
100
AcDbEntity
  8
寸法
 48
50.0
100
AcDbLine
 10
7440.341458265277
 20
4770.961862207768
 30
0.0
 11
10191.15778665414
 21
4770.961862207768
 31
0.0
210
0.0
220
0.0
230
-1.0
1001
ACAD
1000
DSTYLE
1002
{
1070
   341
1005
0
1070
    40
1040
1.0
1070
   343
1005
0
1070
   344
1005
0
1002
}
  0
LINE
  5
25AC1
330
747D
100
AcDbEntity
  8
寸法
 48
50.0
100
AcDbLine
 10
7718.103838224871
 20
5671.907777930242
 30
0.0
 11
7440.341458265277
 21
4770.961862207768
 31
0.0
210
0.0
220
0.0
230
-1.0
1001
ACAD
1000
DSTYLE
1002
{
1070
   341
1005
0
1070
    40
1040
1.0
1070
   343
1005
0
1070
   344
1005
0
1002
}
  0
DIMENSION
  5
25AC2
330
747D
100
AcDbEntity
  8
寸法
 48
50.0
100
AcDbDimension
  2
*D38
 10
7042.197085004765
 20
5746.907777930225
 30
0.0
 11
7042.197085004764
 21
5476.848722812114
 31
0.0
 70
   160
 71
     5
 42
119.9999999999891
  3
INABA_S40G
100
AcDbAlignedDimension
 13
6923.600000000002
 23
5866.907777930213
 33
0.0
 14
6923.600000000002
 24
5746.907777930225
 34
0.0
 50
90.0
100
AcDbRotatedDimension
1001
ACAD
1000
DSTYLE
1002
{
1070
   174
1070
     0
1070
   272
1070
     1
1070
   341
1005
0
1002
}
  0
DIMENSION
  5
25AC3
330
747D
100
AcDbEntity
  8
寸法
 48
50.0
100
AcDbDimension
  2
*D39
 10
7042.197085004765
 20
5976.907777930228
 30
0.0
 11
7042.197085004764
 21
6212.955022024718
 31
0.0
 70
   160
 71
     5
 42
110.0000000000182
  3
INABA_S40G
100
AcDbAlignedDimension
 13
6923.600000000002
 23
5866.90777793021
 33
0.0
 14
6923.600000000002
 24
5976.907777930228
 34
0.0
 50
90.0
100
AcDbRotatedDimension
1001
ACAD
1000
DSTYLE
1002
{
1070
   174
1070
     0
1070
   272
1070
     1
1070
   341
1005
0
1002
}
  0
DIMENSION
  5
25AC4
330
747D
100
AcDbEntity
  8
寸法
 48
50.0
100
AcDbDimension
  2
*D40
 10
7146.600000000001
 20
5119.687091109516
 30
0.0
 11
8224.100000000003
 21
5219.698902133138
 31
0.0
 70
    32
  1
扉の幅 <>
 71
     5
 42
2155.000000000001
  3
INABA_S40G
100
AcDbAlignedDimension
 13
9301.600000000002
 23
5671.907777930226
 33
0.0
 14
7146.600000000001
 24
5671.907777930258
 34
0.0
100
AcDbRotatedDimension
1001
ACAD
1000
DSTYLE
1002
{
1070
   341
1005
0
1002
}
  0
TEXT
  5
25AC5
330
747D
100
AcDbEntity
  8
寸法
 62
     7
100
AcDbText
 10
7566.813330072308
 20
4802.172996572506
 30
0.0
 40
120.0
  1
扉位置 (2155x75)
  7
STYLE1
100
AcDbText
  0
SOLID
  5
25AC6
330
747D
100
AcDbEntity
  8
寸法
 48
50.0
100
AcDbTrace
 10
-7701.194632554884
 20
5546.316749025355
 30
0.0
 11
-7718.103838224871
 21
5671.907777930242
 31
0.0
 12
-7661.376418081406
 22
5558.589519994264
 32
0.0
 13
-7661.376418081406
 23
5558.589519994264
 33
0.0
210
0.0
220
0.0
230
-1.0
1001
ACAD
1000
DSTYLE
1002
{
1070
   341
1005
0
1070
    40
1040
1.0
1070
   343
1005
0
1070
   344
1005
0
1002
}
  0
TEXT
  5
25AC7
330
747D
100
AcDbEntity
  8
寸法
 62
     7
100
AcDbText
 10
7566.813330072308
 20
4630.569233689181
 30
0.0
 40
120.0
  1
扉の位置に合わせた基礎形状として下さい。
  7
STYLE1
100
AcDbText
  0
DIMENSION
  5
25AC8
330
747D
100
AcDbEntity
  8
寸法
 48
50.0
100
AcDbDimension
  2
*D41
 10
7415.743526793876
 20
5866.90777793021
 30
0.0
 11
7415.743526793875
 21
5433.212836726359
 31
0.0
 70
   160
 71
     5
 42
194.9999999999572
  3
INABA_S40G
100
AcDbAlignedDimension
 13
7146.599999999965
 23
5671.907777930252
 33
0.0
 14
7042.197085004765
 24
5866.90777793021
 34
0.0
 50
270.0
100
AcDbRotatedDimension
1001
ACAD
1000
DSTYLE
1002
{
1070
   341
1005
0
1002
}
  0
DIMENSION
  5
25B25
330
747D
100
AcDbEntity
  8
寸法
 48
50.0
100
AcDbDimension
  2
*D42
 10
6321.457130887758
 20
5746.907777930222
 30
0.0
 11
6321.457130887758
 21
5138.422496556014
 31
0.0
 70
   160
  1
扉の出<>
 71
     5
 42
74.99999999996998
  3
INABA_S40G
100
AcDbAlignedDimension
 13
7146.599999999965
 23
5671.907777930252
 33
0.0
 14
6693.6
 24
5746.907777930222
 34
0.0
 50
90.0
100
AcDbRotatedDimension
1001
ACAD
1000
DSTYLE
1002
{
1070
   174
1070
     0
1070
   272
1070
     1
1070
   341
1005
0
1002
}
  0
DIMENSION
  5
25B26
330
747D
100
AcDbEntity
  8
寸法
 48
50.0
100
AcDbDimension
  2
*D43
 10
6693.6
 20
5119.687091109516
 30
0.0
 11
6916.400741355808
 21
5119.687091109516
 31
0.0
 70
   160
 71
     5
 42
453.0
  3
INABA_S40G
100
AcDbAlignedDimension
 13
7146.600000000001
 23
5671.907777930211
 33
0.0
 14
6693.6
 24
5746.907777930222
 34
0.0
100
AcDbRotatedDimension
1001
ACAD
1000
DSTYLE
1002
{
1070
   174
1070
     0
1070
   272
1070
     1
1070
   341
1005
0
1002
}
  0
DIMENSION
  5
25F76
330
747D
100
AcDbEntity
  8
寸法
 48
50.0
100
AcDbDimension
  2
*D44
 10
5354.994115528241
 20
5746.907777930207
 30
0.0
 11
5354.99411552824
 21
5435.121052584844
 31
0.0
 70
   160
  1
a
 71
     5
 42
45.61210414290326
  3
INABA_S40G
100
AcDbAlignedDimension
 13
5606.93721224764
 23
5701.295673787304
 33
0.0
 14
6693.6
 24
5746.907777930206
 34
0.0
 50
90.0
100
AcDbRotatedDimension
1001
ACAD
1000
DSTYLE
1002
{
1070
   341
1005
0
1002
}
  0
LINE
  5
25F77
330
747D
100
AcDbEntity
  8
想像線
 48
10.0
100
AcDbLine
 10
6638.600000000024
 20
8012.51988207311
 30
0.0
 11
6638.600000000024
 21
7374.531102267456
 31
0.0
  0
LINE
  5
25F78
330
747D
100
AcDbEntity
  8
想像線
 48
10.0
100
AcDbLine
 10
6638.600000000024
 20
8012.519882073112
 30
0.0
 11
9828.600000000015
 21
8012.51988207311
 31
0.0
  0
DIMENSION
  5
25F79
330
747D
100
AcDbEntity
  8
寸法
 48
50.0
100
AcDbDimension
  2
*D45
 10
6638.600000000014
 20
8925.128099989128
 30
0.0
 11
6666.100000000007
 21
9025.128099989128
 31
0.0
 70
    32
  1
b
 71
     5
 42
54.99999999998817
  3
INABA_S40G
100
AcDbAlignedDimension
 13
6693.600000000002
 23
7966.907777930209
 33
0.0
 14
6638.600000000014
 24
8712.667404472291
 34
0.0
100
AcDbRotatedDimension
1001
ACAD
1000
DSTYLE
1002
{
1070
   341
1005
0
1002
}
  0
DIMENSION
  5
25F7A
330
747D
100
AcDbEntity
  8
寸法
 48
50.0
100
AcDbDimension
  2
*D46
 10
9753.600000000004
 20
8925.128099989128
 30
0.0
 11
9791.100000000003
 21
9025.128099989128
 31
0.0
 70
    32
  1
c
 71
     5
 42
75.00000000000182
  3
INABA_S40G
100
AcDbAlignedDimension
 13
9828.600000000005
 23
8712.667404472291
 33
0.0
 14
9753.600000000004
 24
7966.907777930209
 34
0.0
100
AcDbRotatedDimension
1001
ACAD
1000
DSTYLE
1002
{
1070
   341
1005
0
1002
}
  0
TEXT
  5
25F7B
102
{ACAD_REACTORS
330
2668D
102
}
330
747D
100
AcDbEntity
  8
部品1
 48
50.0
100
AcDbText
 10
10448.21898138745
 20
6955.591763877414
 30
0.0
 40
80.0
  1
(a=45,b=55,c=75)
  7
STYLE1
100
AcDbText
  0
TEXT
  5
25F7C
102
{ACAD_REACTORS
330
2668D
102
}
330
747D
100
AcDbEntity
  8
部品1
 48
50.0
100
AcDbText
 10
10289.63997263314
 20
7062.436984746169
 30
0.0
 40
80.0
  1
※a,b,cは屋根の出幅です。
  7
STYLE1
100
AcDbText
  0
MTEXT
  5
25F7D
102
{ACAD_REACTORS
330
25F7E
102
}
330
747D
100
AcDbEntity
  8
部品1
 62
     7
 48
50.0
100
AcDbMText
 10
11166.48748891214
 20
7275.468612098524
 30
0.0
 40
120.0
 41
0.0
 71
     6
 72
     1
  1
\A1;屋根の外寸
  7
STYLE1
 73
     1
 44
1.0
1001
ACAD
1000
MTEXTBEGIN
1070
    73
1070
     1
1070
    44
1040
1.0
1070
    74
1070
     0
1000
MTEXTEND
  0
LEADER
  5
25F7E
330
747D
100
AcDbEntity
  8
寸法
 48
50.0
100
AcDbLeader
  3
INABA_S50G
 73
     0
 74
     0
 75
     1
 40
120.0
 41
672.0
 76
     3
 10
9828.602603499797
 20
7449.755433433813
 30
0.0
 10
10344.48748891214
 20
7190.468612098524
 30
0.0
 10
10469.48748891214
 20
7190.468612098524
 30
0.0
340
25F7D
1001
ACAD
1000
DSTYLE
1002
{
1070
   341
1005
0
1070
    40
1040
1.0
1070
   343
1005
0
1070
   344
1005
0
1002
}
  0
DIMENSION
  5
25F7F
330
747D
100
AcDbEntity
  8
寸法
 48
50.0
100
AcDbDimension
  2
*D47
 10
5354.994115528241
 20
8012.519882073114
 30
0.0
 11
5354.99411552824
 21
8283.694503275576
 31
0.0
 70
   160
  1
a
 71
     5
 42
45.61210414290781
  3
INABA_S40G
100
AcDbAlignedDimension
 13
6693.6
 23
7966.907777930206
 33
0.0
 14
5606.937212247639
 24
8012.519882073114
 34
0.0
 50
90.0
100
AcDbRotatedDimension
1001
ACAD
1000
DSTYLE
1002
{
1070
   341
1005
0
1002
}
  0
LINE
  5
25F80
330
747D
100
AcDbEntity
  8
想像線
 48
10.0
100
AcDbLine
 10
9828.600000000015
 20
8012.51988207311
 30
0.0
 11
9828.600000000015
 21
7374.531102267456
 31
0.0
  0
LINE
  5
26280
102
{ACAD_REACTORS
330
262A5
102
}
330
747D
100
AcDbEntity
  8
部品1
 48
50.0
100
AcDbLine
 10
9523.600000000001
 20
7846.907777930207
 30
0.0
 11
6923.600000000002
 21
7846.907777930207
 31
0.0
  0
LINE
  5
26281
102
{ACAD_REACTORS
330
2630B
102
}
330
747D
100
AcDbEntity
  8
部品1
 48
50.0
100
AcDbLine
 10
6813.6
 20
5976.907777930206
 30
0.0
 11
6813.6
 21
7736.907777930203
 31
0.0
  0
LINE
  5
26282
102
{ACAD_REACTORS
330
262E9
102
}
330
747D
100
AcDbEntity
  8
部品1
 48
50.0
100
AcDbLine
 10
9523.600000000001
 20
5866.907777930221
 30
0.0
 11
6923.600000000002
 21
5866.90777793021
 31
0.0
  0
LINE
  5
26283
102
{ACAD_REACTORS
330
262C7
102
}
330
747D
100
AcDbEntity
  8
部品1
 48
50.0
100
AcDbLine
 10
9633.600000000003
 20
5976.907777930228
 30
0.0
 11
9633.600000000003
 21
7736.907777930206
 31
0.0
  0
HATCH
  5
262A5
330
747D
100
AcDbEntity
  8
細線
 48
50.0
100
AcDbHatch
 10
0.0
 20
0.0
 30
0.0
210
0.0
220
0.0
230
1.0
  2
LINE
 70
     0
 71
     1
 91
        1
 92
        7
 72
     0
 73
     1
 93
        4
 10
8323.600000000002
 20
7966.907777930206
 10
8123.600000000001
 20
7966.907777930206
 10
8123.600000000001
 20
7846.907777930207
 10
8323.600000000002
 20
7846.907777930207
 97
        4
330
24B9D
330
24C00
330
26280
330
24C01
 75
     0
 76
     1
 52
45.0
 41
10.0
 77
     0
 78
     1
 53
45.0
 43
0.0
 44
0.0
 45
-22.45064030267288
 46
22.45064030267288
 79
     0
 47
5.473680071881299
 98
        1
 10
8255.906521369398
 20
7888.288793551764
  0
HATCH
  5
262C7
330
747D
100
AcDbEntity
  8
細線
 48
50.0
100
AcDbHatch
 10
0.0
 20
0.0
 30
0.0
210
0.0
220
0.0
230
1.0
  2
LINE
 70
     0
 71
     1
 91
        1
 92
        7
 72
     0
 73
     1
 93
        4
 10
9753.600000000005
 20
6956.907777930215
 10
9633.600000000003
 20
6956.907777930213
 10
9633.600000000003
 20
6756.907777930215
 10
9753.600000000005
 20
6756.907777930216
 97
        4
330
24BFE
330
26283
330
24BFD
330
24BCA
 75
     0
 76
     1
 52
45.0
 41
10.0
 77
     0
 78
     1
 53
45.0
 43
0.0
 44
0.0
 45
-22.45064030267288
 46
22.45064030267288
 79
     0
 47
5.473680071881299
 98
        1
 10
9668.870739887402
 20
6886.605327286808
  0
HATCH
  5
262E9
330
747D
100
AcDbEntity
  8
細線
 48
50.0
100
AcDbHatch
 10
0.0
 20
0.0
 30
0.0
210
0.0
220
0.0
230
1.0
  2
LINE
 70
     0
 71
     1
 91
        1
 92
        7
 72
     0
 73
     1
 93
        4
 10
8323.60000000002
 20
5866.907777930216
 10
8123.600000000021
 20
5866.907777930214
 10
8123.600000000019
 20
5671.907777930202
 10
8323.600000000018
 20
5671.907777930203
 97
        4
330
26282
330
24BD5
330
24B91
330
24BD6
 75
     0
 76
     1
 52
45.0
 41
10.0
 77
     0
 78
     1
 53
45.0
 43
0.0
 44
0.0
 45
-22.45064030267288
 46
22.45064030267288
 79
     0
 47
5.473680071881299
 98
        1
 10
8272.336314135101
 20
5715.237769751682
  0
HATCH
  5
2630B
330
747D
100
AcDbEntity
  8
細線
 48
50.0
100
AcDbHatch
 10
0.0
 20
0.0
 30
0.0
210
0.0
220
0.0
230
1.0
  2
LINE
 70
     0
 71
     1
 91
        1
 92
        7
 72
     0
 73
     1
 93
        4
 10
6813.6
 20
6956.907777930215
 10
6693.600000000002
 20
6956.907777930216
 10
6693.600000000002
 20
6756.907777930215
 10
6813.6
 20
6756.907777930215
 97
        4
330
24BB6
330
24BA4
330
24BB5
330
26281
 75
     0
 76
     1
 52
45.0
 41
10.0
 77
     0
 78
     1
 53
45.0
 43
0.0
 44
0.0
 45
-22.45064030267288
 46
22.45064030267288
 79
     0
 47
5.473680071881299
 98
        1
 10
6733.410145431371
 20
6831.868521821023
  0
LINE
  5
26B77
330
747D
100
AcDbEntity
  8
部品1
100
AcDbLine
 10
11234.30823326223
 20
3494.595477334697
 30
0.0
 11
5163.323047875973
 21
3494.595477334696
 31
0.0
  0
LINE
  5
26B78
330
747D
100
AcDbEntity
  8
部品1
100
AcDbLine
 10
11234.30823326222
 20
3254.595477334695
 30
0.0
 11
5163.323047875977
 21
3254.595477334696
 31
0.0
  0
LINE
  5
26B79
330
747D
100
AcDbEntity
  8
部品1
100
AcDbLine
 10
5163.323047875979
 20
530.2885077500495
 30
0.0
 11
11234.30823326222
 21
530.2885077500495
 31
0.0
  0
LEADER
  5
26B7A
330
747D
100
AcDbEntity
  8
寸法
 48
50.0
100
AcDbLeader
  3
INABA_S50G
 73
     0
 74
     0
 75
     1
 40
102.2727272727273
 41
680.0000000000001
 76
     3
 10
8171.430799862433
 20
2572.499138666995
 30
0.0
 10
8205.784770975789
 20
2982.951949773536
 30
0.0
 10
8330.784770975789
 20
2982.951949773536
 30
0.0
340
26B7B
1001
ACAD
1000
DSTYLE
1002
{
1070
   341
1005
0
1070
    40
1040
1.0
1070
   343
1005
0
1070
   344
1005
0
1002
}
  0
MTEXT
  5
26B7B
102
{ACAD_REACTORS
330
26B7A
102
}
330
747D
100
AcDbEntity
  8
部品1
 62
     7
 48
50.0
100
AcDbMText
 10
8355.784770975789
 20
3059.0883134099
 30
0.0
 40
80.0
 41
0.8
 71
     4
 72
     1
  1
\A1;ナット(市販品)
  7
STYLE2
 73
     1
 44
1.0
1001
ACAD
1000
MTEXTBEGIN
1070
    73
1070
     1
1070
    44
1040
1.0
1070
    74
1070
     0
1000
MTEXTEND
  0
LEADER
  5
26B7C
330
747D
100
AcDbEntity
  8
寸法
 48
50.0
100
AcDbLeader
  3
INABA_S50G
 73
     0
 74
     0
 75
     1
 40
102.2727272727273
 41
906.8181818181818
 76
     3
 10
8195.430799862432
 20
2442.747146002132
 30
0.0
 10
8237.30239023127
 20
2797.982867008748
 30
0.0
 10
8362.30239023127
 20
2797.982867008748
 30
0.0
340
26B7D
1001
ACAD
1000
DSTYLE
1002
{
1070
   341
1005
0
1070
    40
1040
1.0
1070
   343
1005
0
1070
   344
1005
0
1002
}
  0
MTEXT
  5
26B7D
102
{ACAD_REACTORS
330
26B7C
102
}
330
747D
100
AcDbEntity
  8
部品1
 62
     7
 48
50.0
100
AcDbMText
 10
8387.302390231271
 20
2874.119230645112
 30
0.0
 40
80.0
 41
0.8
 71
     4
 72
     1
  1
\A1;ワッシャー(市販品)
  7
STYLE2
 73
     1
 44
1.0
1001
ACAD
1000
MTEXTBEGIN
1070
    73
1070
     1
1070
    44
1040
1.0
1070
    74
1070
     0
1000
MTEXTEND
  0
LWPOLYLINE
  5
26B7E
330
747D
100
AcDbEntity
  8
部品1
 48
50.0
100
AcDbPolyline
 90
        2
 70
     0
 43
8.0
 10
8348.030799862433
 20
1933.623857557853
 10
8641.733263261818
 20
1933.623857557853
  0
TEXT
  5
26B7F
330
747D
100
AcDbEntity
  8
部品1
 48
50.0
100
AcDbText
 10
8352.38438414686
 20
2529.502538320052
 30
0.0
 40
80.0
  1
基礎ボルト(市販品)
  7
STYLE2
100
AcDbText
  0
DIMENSION
  5
26B80
330
747D
100
AcDbEntity
  8
寸法
 48
50.0
100
AcDbDimension
  2
*D48
 10
8849.899399631274
 20
1849.62385755785
 30
0.0
 11
8749.899399631274
 21
2011.623857557853
 31
0.0
 70
    32
  1
180
 71
     5
 42
324.0000000000009
  3
INABA_S40G
100
AcDbAlignedDimension
 13
8348.030799862433
 23
2173.623857557852
 33
0.0
 14
8348.030799862433
 24
1849.623857557851
 34
0.0
 50
90.0
100
AcDbRotatedDimension
1001
ACAD
1000
DSTYLE
1002
{
1070
   174
1070
     0
1070
   272
1070
     1
1070
   279
1070
     1
1070
   288
1070
     0
1070
   341
1005
0
1002
}
  0
DIMENSION
  5
26B81
330
747D
100
AcDbEntity
  8
寸法
 48
50.0
100
AcDbDimension
  2
*D49
 10
8849.899399631274
 20
2173.623857557852
 30
0.0
 11
9125.954065750303
 21
2148.49989995364
 31
0.0
 70
   160
  1
20～25
 71
     5
 42
52.76000000000113
  3
INABA_S40G
100
AcDbAlignedDimension
 13
8160.830799862434
 23
2226.383857557853
 33
0.0
 14
8348.030799862433
 24
2173.623857557852
 34
0.0
 50
90.0
100
AcDbRotatedDimension
1001
ACAD
1000
DSTYLE
1002
{
1070
   174
1070
     0
1070
   272
1070
     1
1070
   279
1070
     1
1070
   288
1070
     0
1070
   341
1005
0
1002
}
  0
MTEXT
  5
26B82
102
{ACAD_REACTORS
330
26B83
102
}
330
747D
100
AcDbEntity
  8
部品1
 62
     7
 48
50.0
100
AcDbMText
 10
8356.97526228175
 20
2438.007183711082
 30
0.0
 40
80.0
 41
0.8
 71
     4
 72
     1
  1
M10X160
  7
STYLE2
 73
     1
 44
1.0
1001
ACAD
1000
MTEXTBEGIN
1070
    73
1070
     1
1070
    44
1040
1.0
1070
    74
1070
     0
1000
MTEXTEND
  0
LEADER
  5
26B83
330
747D
100
AcDbEntity
  8
寸法
 48
50.0
100
AcDbLeader
  3
INABA_S50G
 73
     0
 74
     0
 75
     1
 40
80.0
 41
435.0
 76
     3
 10
8164.430799862431
 20
2222.783857557853
 30
0.0
 10
8206.97526228175
 20
2373.007183711082
 30
0.0
 10
8331.97526228175
 20
2373.007183711082
 30
0.0
340
26B82
1001
ACAD
1000
DSTYLE
1002
{
1070
   341
1005
0
1070
    40
1040
1.0
1070
   343
1005
0
1070
   344
1005
0
1002
}
  0
LINE
  5
26B84
330
747D
100
AcDbEntity
  8
部品1
100
AcDbLine
 10
5163.323047875975
 20
3494.595477334697
 30
0.0
 11
5163.323047875977
 21
530.2885077500495
 31
0.0
  0
LEADER
  5
26B85
330
747D
100
AcDbEntity
  8
寸法
 48
50.0
100
AcDbLeader
  3
INABA_S50G
 73
     0
 75
     1
 40
113.1818181818182
 41
608.6363636363635
 76
     3
 10
8124.167550000482
 20
2123.139530916131
 30
0.0
 10
7990.363721309136
 20
2974.518613272609
 30
0.0
 10
7865.363721309136
 20
2974.518613272609
 30
0.0
340
26B86
1001
ACAD
1000
DSTYLE
1002
{
1070
   341
1005
0
1070
    40
1040
1.0
1070
   343
1005
0
1070
   344
1005
0
1002
}
  0
MTEXT
  5
26B86
102
{ACAD_REACTORS
330
26B85
102
}
330
747D
100
AcDbEntity
  8
寸法
 62
     7
 48
50.0
100
AcDbMText
 10
7840.363721309135
 20
3056.109522363517
 30
0.0
 40
80.0
 41
0.8
 71
     6
 72
     1
  1
\A1;φ70スリーブ
  7
STYLE2
 73
     1
 44
1.0
1001
ACAD
1000
MTEXTBEGIN
1070
    73
1070
     1
1070
    44
1040
1.0
1070
    74
1070
     0
1000
MTEXTEND
  0
LWPOLYLINE
  5
26B87
330
747D
100
AcDbEntity
  8
部品1
 48
50.0
100
AcDbPolyline
 90
        2
 70
     0
 43
8.0
 10
5819.851584852281
 20
1933.623857557853
 10
6233.991486685238
 20
1933.623857557853
  0
TEXT
  5
26B88
330
747D
100
AcDbEntity
  8
部品1
 48
50.0
100
AcDbText
 10
5819.851584852281
 20
1944.862849841107
 30
0.0
 40
80.0
  1
▽G.L
  7
STYLE2
100
AcDbText
  0
DIMENSION
  5
26B89
330
747D
100
AcDbEntity
  8
寸法
 48
50.0
100
AcDbDimension
  2
*D50
 10
5963.571172952779
 20
1389.623857557852
 30
0.0
 11
5963.571172952779
 21
1509.623857557851
 31
0.0
 70
   160
  1
150
 71
     5
 42
240.0
  3
INABA_S40G
100
AcDbAlignedDimension
 13
6105.991486685238
 23
1629.623857557852
 33
0.0
 14
6025.991486685241
 24
1389.623857557852
 34
0.0
 50
90.0
100
AcDbRotatedDimension
1001
ACAD
1000
DSTYLE
1002
{
1070
   174
1070
     0
1070
   272
1070
     1
1070
   279
1070
     1
1070
   288
1070
     0
1070
   341
1005
0
1002
}
  0
LEADER
  5
26B8A
330
747D
100
AcDbEntity
  8
寸法
 48
50.0
100
AcDbLeader
  3
INABA_S50G
 71
     0
 73
     0
 75
     1
 40
100.0
 41
225.0
 76
     3
 10
6201.894439037381
 20
1509.623857557851
 30
0.0
 10
6080.056460490044
 20
1246.101163939415
 30
0.0
 10
5955.056460490044
 20
1246.101163939415
 30
0.0
1001
ACAD
1000
DSTYLE
1002
{
1070
    40
1040
1.0
1070
   272
1070
     1
1070
   279
1070
     1
1070
   341
1005
0
1002
}
  0
LEADER
  5
26B8B
330
747D
100
AcDbEntity
  8
寸法
 48
50.0
100
AcDbLeader
  3
INABA_S50G
 71
     0
 73
     0
 75
     1
 40
100.0
 41
222.7272727272727
 76
     3
 10
6329.991486685237
 20
1509.623857557851
 30
0.0
 10
6108.179188047478
 20
1065.785011399972
 30
0.0
 10
5983.179188047478
 20
1065.785011399972
 30
0.0
1001
ACAD
1000
DSTYLE
1002
{
1070
    40
1040
1.0
1070
   272
1070
     1
1070
   279
1070
     1
1070
   341
1005
0
1002
}
  0
MTEXT
  5
26B8C
102
{ACAD_REACTORS
330
26B8D
102
}
330
747D
100
AcDbEntity
  8
寸法
 62
     7
 48
50.0
100
AcDbMText
 10
6144.741432462433
 20
1774.924460375309
 30
0.0
 40
80.0
 41
0.8
 71
     6
 72
     1
  1
\A1;D10@300
  7
STYLE2
 73
     1
 44
1.0
1001
ACAD
1000
MTEXTBEGIN
1070
    73
1070
     1
1070
    44
1040
1.0
1070
    74
1070
     0
1000
MTEXTEND
  0
LEADER
  5
26B8D
330
747D
100
AcDbEntity
  8
寸法
 48
50.0
100
AcDbLeader
  3
INABA_S50G
 71
     0
 73
     0
 75
     1
 40
100.0
 41
540.3409090909091
 76
     3
 10
6337.991486685238
 20
1931.751072254975
 30
0.0
 10
6280.009250156539
 20
1710.28074371417
 30
0.0
 10
6155.009250156539
 20
1710.28074371417
 30
0.0
213
-9.732182305893367
223
-4.643716661138569
233
0.0
1001
ACAD
1000
DSTYLE
1002
{
1070
    40
1040
1.0
1070
   272
1070
     1
1070
   279
1070
     1
1070
   341
1005
0
1002
}
  0
LEADER
  5
26B8E
330
747D
100
AcDbEntity
  8
寸法
 48
50.0
100
AcDbLeader
  3
INABA_S50G
 71
     0
 73
     0
 75
     1
 40
130.1136363636363
 41
651.1363636363636
 76
     3
 10
6313.991486685238
 20
2173.623857557852
 30
0.0
 10
6201.566906521222
 20
2314.09462301444
 30
0.0
 10
6076.566906521222
 20
2314.09462301444
 30
0.0
1001
ACAD
1000
DSTYLE
1002
{
1070
    40
1040
1.0
1070
   272
1070
     1
1070
   279
1070
     1
1070
   341
1005
0
1002
}
  0
MTEXT
  5
26B8F
102
{ACAD_REACTORS
330
26B8E
102
}
330
747D
100
AcDbEntity
  8
寸法
 62
     7
 48
50.0
100
AcDbMText
 10
6013.893007201964
 20
2386.140077559894
 30
0.0
 40
80.0
 41
0.8
 71
     6
 72
     1
  1
\A1;金コテ押エ
  7
STYLE2
 73
     1
 44
1.0
1001
ACAD
1000
MTEXTBEGIN
1070
    73
1070
     1
1070
    44
1040
1.0
1070
    74
1070
     0
1000
MTEXTEND
  0
DIMENSION
  5
26B90
330
747D
100
AcDbEntity
  8
寸法
 48
50.0
100
AcDbDimension
  2
*D51
 10
5498.954248123497
 20
1389.623857557852
 30
0.0
 11
5498.954248123498
 21
1761.164007213852
 31
0.0
 70
   160
  1
540
 71
     5
 42
784.0
  3
INABA_S40G
100
AcDbAlignedDimension
 13
6233.991486685238
 23
2173.623857557852
 33
0.0
 14
6025.991486685241
 24
1389.623857557852
 34
0.0
 50
90.0
100
AcDbRotatedDimension
1001
ACAD
1000
DSTYLE
1002
{
1070
   174
1070
     0
1070
   272
1070
     1
1070
   279
1070
     1
1070
   288
1070
     0
1070
   341
1005
0
1002
}
  0
MTEXT
  5
26B91
102
{ACAD_REACTORS
330
26B8B
102
}
330
747D
100
AcDbEntity
  8
寸法
 62
     7
 48
50.0
100
AcDbMText
 10
5963.179188047479
 20
1125.785011399972
 30
0.0
 40
80.0
 41
0.8
 71
     6
 72
     1
  1
D13
  7
STYLE2
 73
     1
 44
1.0
1001
ACAD
1000
MTEXTBEGIN
1070
    73
1070
     1
1070
    44
1040
1.0
1070
    74
1070
     0
1000
MTEXTEND
  0
MTEXT
  5
26B92
102
{ACAD_REACTORS
330
26B8A
102
}
330
747D
100
AcDbEntity
  8
寸法
 62
     7
 48
50.0
100
AcDbMText
 10
5935.056460490044
 20
1306.101163939415
 30
0.0
 40
80.0
 41
0.8
 71
     6
 72
     1
  1
D10
  7
STYLE2
 73
     1
 44
1.0
1001
ACAD
1000
MTEXTBEGIN
1070
    73
1070
     1
1070
    44
1040
1.0
1070
    74
1070
     0
1000
MTEXTEND
  0
DIMENSION
  5
26B93
330
747D
100
AcDbEntity
  8
寸法
 48
50.0
100
AcDbDimension
  2
*D52
 10
6553.991486685238
 20
851.1942195526916
 30
0.0
 11
6309.894728007014
 21
851.1942195526916
 31
0.0
 70
   160
  1
300
 71
     5
 42
448.0
  3
INABA_S40G
100
AcDbAlignedDimension
 13
6105.991486685238
 23
1261.623857557852
 33
0.0
 14
6553.991486685238
 24
1261.623857557852
 34
0.0
100
AcDbRotatedDimension
1001
ACAD
1000
DSTYLE
1002
{
1070
   174
1070
     0
1070
   272
1070
     1
1070
   279
1070
     1
1070
   288
1070
     0
1070
   341
1005
0
1002
}
  0
MTEXT
  5
26B94
102
{ACAD_REACTORS
330
26B95
102
}
330
747D
100
AcDbEntity
  8
寸法
 62
     7
 48
50.0
100
AcDbMText
 10
7867.006727517493
 20
2695.425250456004
 30
0.0
 40
80.0
 41
0.8
 71
     6
 72
     1
  1
アンカープレート Ｕ
  7
STYLE2
 73
     1
 44
1.0
1001
ACAD
1000
MTEXTBEGIN
1070
    73
1070
     1
1070
    44
1040
1.0
1070
    74
1070
     0
1000
MTEXTEND
  0
LEADER
  5
26B95
330
747D
100
AcDbEntity
  8
寸法
 48
50.0
100
AcDbLeader
  3
INABA_S50G
 73
     0
 75
     1
 40
106.3636363636363
 41
920.0
 76
     3
 10
8065.430799862431
 20
2243.183857557853
 30
0.0
 10
8017.006727517493
 20
2617.243432274185
 30
0.0
 10
7892.006727517493
 20
2617.243432274185
 30
0.0
340
26B94
1001
ACAD
1000
DSTYLE
1002
{
1070
   341
1005
0
1070
    40
1040
1.0
1070
   343
1005
0
1070
   344
1005
0
1002
}
  0
LINE
  5
26B96
330
747D
100
AcDbEntity
  8
細線
 48
50.0
100
AcDbLine
 10
6353.991486685238
 20
2011.996750225682
 30
0.0
 11
6425.991486685238
 21
2083.996750225682
 31
0.0
  0
ARC
  5
26B97
330
747D
100
AcDbEntity
  8
部品1
 48
50.0
100
AcDbCircle
 10
6329.991486685239
 20
2033.878286952097
 30
0.0
 40
24.0
100
AcDbArc
 50
0.0
 51
180.0
  0
CIRCLE
  5
26B98
330
747D
100
AcDbEntity
  8
部品1
 48
50.0
100
AcDbCircle
 10
6329.991486685239
 20
2033.878286952097
 30
0.0
 40
8.0
  0
LINE
  5
26B99
330
747D
100
AcDbEntity
  8
部品1
 48
50.0
100
AcDbLine
 10
6233.991486685239
 20
1629.623857557852
 30
0.0
 11
6233.991486685239
 21
2173.623857557852
 31
0.0
  0
LINE
  5
26B9A
330
747D
100
AcDbEntity
  8
部品1
 48
50.0
100
AcDbLine
 10
6425.991486685238
 20
2173.623857557852
 30
0.0
 11
6425.991486685238
 21
1629.623857557852
 31
0.0
  0
MTEXT
  5
26B9B
102
{ACAD_REACTORS
330
26BA0
102
}
330
747D
100
AcDbEntity
  8
寸法
 62
     7
 48
50.0
100
AcDbMText
 10
6508.877423712633
 20
2034.89141885678
 30
0.0
 40
80.0
 41
0.8
 71
     4
 72
     1
  1
D13
  7
STYLE2
 73
     1
 44
1.0
1001
ACAD
1000
MTEXTBEGIN
1070
    73
1070
     1
1070
    44
1040
1.0
1070
    74
1070
     0
1000
MTEXTEND
  0
LEADER
  5
26B9C
330
747D
100
AcDbEntity
  8
寸法
 48
50.0
100
AcDbLeader
  3
INABA_S50G
 71
     0
 73
     0
 74
     0
 75
     1
 40
100.0
 41
225.0
 76
     3
 10
6457.894439037381
 20
1509.623857557851
 30
0.0
 10
6512.319146491923
 20
1414.226788614879
 30
0.0
 10
6637.319146491923
 20
1414.226788614879
 30
0.0
1001
ACAD
1000
DSTYLE
1002
{
1070
    40
1040
1.0
1070
   272
1070
     1
1070
   279
1070
     1
1070
   341
1005
0
1002
}
  0
LEADER
  5
26B9D
330
747D
100
AcDbEntity
  8
寸法
 48
50.0
100
AcDbLeader
  3
INABA_S50G
 71
     0
 73
     0
 74
     0
 75
     1
 40
100.0
 41
540.3409090909091
 76
     3
 10
6403.936655698412
 20
1492.883327144326
 30
0.0
 10
6522.729942546489
 20
1151.252509149429
 30
0.0
 10
6647.729942546489
 20
1151.252509149429
 30
0.0
213
0.0
223
-1.022262676269383
233
0.0
1001
ACAD
1000
DSTYLE
1002
{
1070
    40
1040
1.0
1070
   272
1070
     1
1070
   279
1070
     1
1070
   341
1005
0
1002
}
  0
MTEXT
  5
26B9E
102
{ACAD_REACTORS
330
26B9C
102
}
330
747D
100
AcDbEntity
  8
寸法
 62
     7
 48
50.0
100
AcDbMText
 10
6657.319146491923
 20
1474.226788614879
 30
0.0
 40
80.0
 41
0.8
 71
     4
 72
     1
  1
D10
  7
STYLE2
 73
     1
 44
1.0
1001
ACAD
1000
MTEXTBEGIN
1070
    73
1070
     1
1070
    44
1040
1.0
1070
    74
1070
     0
1000
MTEXTEND
  0
LWPOLYLINE
  5
26B9F
330
747D
100
AcDbEntity
  8
部品1
 48
50.0
100
AcDbPolyline
 90
        2
 70
     0
 43
8.0
 10
6425.991486685238
 20
1933.623857557853
 10
6840.131388518194
 20
1933.623857557853
  0
LEADER
  5
26BA0
330
747D
100
AcDbEntity
  8
寸法
 48
50.0
100
AcDbLeader
  3
INABA_S50G
 71
     0
 73
     0
 74
     0
 75
     1
 40
100.0
 41
222.7272727272727
 76
     3
 10
6329.991486685237
 20
2033.878286952097
 30
0.0
 10
6363.877423712633
 20
1974.891418856779
 30
0.0
 10
6488.877423712633
 20
1974.891418856779
 30
0.0
1001
ACAD
1000
DSTYLE
1002
{
1070
    40
1040
1.0
1070
   272
1070
     1
1070
   279
1070
     1
1070
   341
1005
0
1002
}
  0
LINE
  5
26BA1
330
747D
100
AcDbEntity
  8
細線
 48
50.0
100
AcDbLine
 10
6105.991486685232
 20
1548.470603320023
 30
0.0
 11
6187.144740923066
 21
1629.623857557852
 31
0.0
  0
LINE
  5
26BA2
330
747D
100
AcDbEntity
  8
細線
 48
50.0
100
AcDbLine
 10
6313.857334162642
 20
1567.751072254974
 30
0.0
 11
6337.991486685244
 21
1591.885224777573
 31
0.0
  0
LINE
  5
26BA3
330
747D
100
AcDbEntity
  8
細線
 48
50.0
100
AcDbLine
 10
6220.789351102311
 20
1501.623857557851
 30
0.0
 11
6337.991486685239
 21
1618.825993140777
 31
0.0
  0
LINE
  5
26BA4
330
747D
100
AcDbEntity
  8
部品1
 48
50.0
100
AcDbLine
 10
6105.991486685239
 20
1389.623857557852
 30
0.0
 11
6105.991486685239
 21
1629.623857557852
 31
0.0
  0
LINE
  5
26BA5
330
747D
100
AcDbEntity
  8
細線
 48
50.0
100
AcDbLine
 10
6463.256266371182
 20
1501.623857557851
 30
0.0
 11
6553.991486685238
 21
1592.35907787191
 31
0.0
  0
LINE
  5
26BA6
330
747D
100
AcDbEntity
  8
細線
 48
50.0
100
AcDbLine
 10
6436.315498007965
 20
1501.623857557851
 30
0.0
 11
6553.991486685238
 21
1619.299846235118
 31
0.0
  0
LINE
  5
26BA7
330
747D
100
AcDbEntity
  8
部品1
 48
50.0
100
AcDbLine
 10
6553.991486685238
 20
1629.623857557852
 30
0.0
 11
6553.991486685238
 21
1389.623857557852
 31
0.0
  0
LINE
  5
26BA8
330
747D
100
AcDbEntity
  8
部品1
 48
50.0
100
AcDbLine
 10
6353.991486685244
 20
1509.623857557851
 30
0.0
 11
6353.991486685238
 21
2033.878286952097
 31
0.0
  0
LINE
  5
26BA9
330
747D
100
AcDbEntity
  8
部品1
 48
50.0
100
AcDbLine
 10
6337.991486685244
 20
1509.623857557851
 30
0.0
 11
6337.991486685232
 21
2033.878286952097
 31
0.0
  0
LINE
  5
26BAA
330
747D
100
AcDbEntity
  8
細線
 48
50.0
100
AcDbLine
 10
6321.991486685238
 20
1548.944456414363
 30
0.0
 11
6337.991486685244
 21
1564.944456414363
 31
0.0
  0
LINE
  5
26BAB
330
747D
100
AcDbEntity
  8
細線
 48
50.0
100
AcDbLine
 10
6311.174326181252
 20
1261.623857557852
 30
0.0
 11
6345.471822812435
 21
1389.623857557852
 31
0.0
  0
LINE
  5
26BAC
330
747D
100
AcDbEntity
  8
部品1
 48
50.0
100
AcDbLine
 10
6633.991486685243
 20
1261.623857557852
 30
0.0
 11
6025.99148668524
 21
1261.623857557852
 31
0.0
  0
LINE
  5
26BAD
330
747D
100
AcDbEntity
  8
部品1
 48
50.0
100
AcDbLine
 10
6161.991486685239
 20
1485.623857557851
 30
0.0
 11
6497.991486685238
 21
1485.623857557851
 31
0.0
  0
LINE
  5
26BAE
330
747D
100
AcDbEntity
  8
部品1
 48
50.0
100
AcDbLine
 10
6161.991486685239
 20
1501.623857557851
 30
0.0
 11
6497.991486685238
 21
1501.623857557851
 31
0.0
  0
LINE
  5
26BAF
330
747D
100
AcDbEntity
  8
部品1
 48
50.0
100
AcDbLine
 10
6633.991486685243
 20
1389.623857557852
 30
0.0
 11
6025.99148668524
 21
1389.623857557852
 31
0.0
  0
CIRCLE
  5
26BB0
330
747D
100
AcDbEntity
  8
部品1
 48
50.0
100
AcDbCircle
 10
6329.991486685239
 20
1509.623857557851
 30
0.0
 40
8.0
  0
LINE
  5
26BB1
330
747D
100
AcDbEntity
  8
細線
 48
50.0
100
AcDbLine
 10
6324.315498007972
 20
1389.623857557852
 30
0.0
 11
6420.315498007972
 21
1485.623857557851
 31
0.0
  0
LINE
  5
26BB2
330
747D
100
AcDbEntity
  8
細線
 48
50.0
100
AcDbLine
 10
6153.398236286754
 20
1261.623857557852
 30
0.0
 11
6187.695732917937
 21
1389.623857557852
 31
0.0
  0
LINE
  5
26BB3
330
747D
100
AcDbEntity
  8
細線
 48
50.0
100
AcDbLine
 10
6232.286281233999
 20
1261.62385755785
 30
0.0
 11
6266.583777865183
 21
1389.62385755785
 31
0.0
  0
LINE
  5
26BB4
330
747D
100
AcDbEntity
  8
細線
 48
50.0
100
AcDbLine
 10
6074.510191339497
 20
1261.62385755785
 30
0.0
 11
6108.80768797068
 21
1389.62385755785
 31
0.0
  0
LINE
  5
26BB5
330
747D
100
AcDbEntity
  8
部品1
 48
50.0
100
AcDbLine
 10
6025.99148668524
 20
1261.623857557852
 30
0.0
 11
6025.99148668524
 21
1389.623857557852
 31
0.0
  0
LINE
  5
26BB6
330
747D
100
AcDbEntity
  8
細線
 48
50.0
100
AcDbLine
 10
6159.8290169051
 20
1285.623857557852
 30
0.0
 11
6166.259797523448
 21
1261.623857557852
 31
0.0
  0
LINE
  5
26BB7
330
747D
100
AcDbEntity
  8
細線
 48
50.0
100
AcDbLine
 10
6080.94097195785
 20
1285.623857557852
 30
0.0
 11
6087.371752576196
 21
1261.623857557852
 31
0.0
  0
LINE
  5
26BB8
330
747D
100
AcDbEntity
  8
細線
 48
50.0
100
AcDbLine
 10
6317.605106799606
 20
1285.623857557852
 30
0.0
 11
6324.035887417952
 21
1261.623857557852
 31
0.0
  0
LINE
  5
26BB9
330
747D
100
AcDbEntity
  8
細線
 48
50.0
100
AcDbLine
 10
6238.717061852353
 20
1285.623857557852
 30
0.0
 11
6245.147842470699
 21
1261.623857557852
 31
0.0
  0
LINE
  5
26BBA
330
747D
100
AcDbEntity
  8
細線
 48
50.0
100
AcDbLine
 10
6135.730119465522
 20
1389.623857557852
 30
0.0
 11
6231.730119465522
 21
1485.623857557851
 31
0.0
  0
LINE
  5
26BBB
330
747D
100
AcDbEntity
  8
細線
 48
50.0
100
AcDbLine
 10
6108.789351102311
 20
1389.623857557852
 30
0.0
 11
6204.789351102311
 21
1485.623857557851
 31
0.0
  0
LINE
  5
26BBC
330
747D
100
AcDbEntity
  8
部品1
 48
50.0
100
AcDbLine
 10
6161.991486685239
 20
1501.623857557851
 30
0.0
 11
6161.991486685239
 21
1485.623857557851
 31
0.0
  0
LINE
  5
26BBD
330
747D
100
AcDbEntity
  8
細線
 48
50.0
100
AcDbLine
 10
6102.376907352339
 20
1365.623857557852
 30
0.0
 11
6095.946126733991
 21
1389.623857557852
 31
0.0
  0
LINE
  5
26BBE
330
747D
100
AcDbEntity
  8
細線
 48
50.0
100
AcDbLine
 10
6025.991486685239
 20
1374.963778523632
 30
0.0
 11
6029.919643023434
 21
1389.623857557852
 31
0.0
  0
LINE
  5
26BBF
330
747D
100
AcDbEntity
  8
部品1
 48
50.0
100
AcDbLine
 10
6321.991486685238
 20
1567.751072254974
 30
0.0
 11
6305.991486685239
 21
1567.751072254974
 31
0.0
  0
CIRCLE
  5
26BC0
330
747D
100
AcDbEntity
  8
部品1
 48
50.0
100
AcDbCircle
 10
6201.991486685239
 20
1509.623857557851
 30
0.0
 40
8.0
  0
LINE
  5
26BC1
330
747D
100
AcDbEntity
  8
細線
 48
50.0
100
AcDbLine
 10
6274.670887828727
 20
1501.623857557851
 30
0.0
 11
6305.991486685239
 21
1532.944456414363
 31
0.0
  0
ARC
  5
26BC2
330
747D
100
AcDbEntity
  8
部品1
 48
50.0
100
AcDbCircle
 10
6329.991486685239
 20
1509.623857557851
 30
0.0
 40
24.0
100
AcDbArc
 50
180.0
 51
199.4712206345143
  0
LINE
  5
26BC3
330
747D
100
AcDbEntity
  8
細線
 48
50.0
100
AcDbLine
 10
6181.264952299589
 20
1365.623857557852
 30
0.0
 11
6174.834171681244
 21
1389.623857557852
 31
0.0
  0
LINE
  5
26BC4
330
747D
100
AcDbEntity
  8
細線
 48
50.0
100
AcDbLine
 10
6260.152997246843
 20
1365.623857557852
 30
0.0
 11
6253.722216628496
 21
1389.623857557852
 31
0.0
  0
LINE
  5
26BC5
330
747D
100
AcDbEntity
  8
細線
 48
50.0
100
AcDbLine
 10
6162.670887828728
 20
1389.623857557852
 30
0.0
 11
6258.670887828728
 21
1485.623857557851
 31
0.0
  0
LINE
  5
26BC6
330
747D
100
AcDbEntity
  8
部品1
 48
50.0
100
AcDbLine
 10
6305.991486685239
 20
1567.751072254974
 30
0.0
 11
6305.991486685239
 21
1509.623857557851
 31
0.0
  0
LINE
  5
26BC7
330
747D
100
AcDbEntity
  8
細線
 48
50.0
100
AcDbLine
 10
6247.730119465522
 20
1501.623857557851
 30
0.0
 11
6305.991486685239
 21
1559.88522477757
 31
0.0
  0
LINE
  5
26BC8
330
747D
100
AcDbEntity
  8
部品1
 48
50.0
100
AcDbLine
 10
6321.991486685238
 20
1567.751072254974
 30
0.0
 11
6321.991486685238
 21
1509.623857557851
 31
0.0
  0
LINE
  5
26BC9
330
747D
100
AcDbEntity
  8
部品1
 48
50.0
100
AcDbLine
 10
6633.991486685243
 20
1389.623857557852
 30
0.0
 11
6633.991486685243
 21
1261.623857557852
 31
0.0
  0
LINE
  5
26BCA
330
747D
100
AcDbEntity
  8
細線
 48
50.0
100
AcDbLine
 10
6547.838461022992
 20
1261.623857557852
 30
0.0
 11
6582.135957654177
 21
1389.62385755785
 31
0.0
  0
LINE
  5
26BCB
330
747D
100
AcDbEntity
  8
細線
 48
50.0
100
AcDbLine
 10
6390.062371128498
 20
1261.623857557852
 30
0.0
 11
6424.359867759685
 21
1389.62385755785
 31
0.0
  0
LINE
  5
26BCC
330
747D
100
AcDbEntity
  8
細線
 48
50.0
100
AcDbLine
 10
6468.950416075746
 20
1261.62385755785
 30
0.0
 11
6503.247912706932
 21
1389.62385755785
 31
0.0
  0
LINE
  5
26BCD
330
747D
100
AcDbEntity
  8
細線
 48
50.0
100
AcDbLine
 10
6475.381196694097
 20
1285.623857557852
 30
0.0
 11
6481.811977312445
 21
1261.623857557852
 31
0.0
  0
LINE
  5
26BCE
330
747D
100
AcDbEntity
  8
細線
 48
50.0
100
AcDbLine
 10
6396.493151746851
 20
1285.623857557852
 30
0.0
 11
6402.923932365197
 21
1261.623857557852
 31
0.0
  0
LINE
  5
26BCF
330
747D
100
AcDbEntity
  8
細線
 48
50.0
100
AcDbLine
 10
6554.269241641344
 20
1285.623857557852
 30
0.0
 11
6560.700022259692
 21
1261.623857557852
 31
0.0
  0
LINE
  5
26BD0
330
747D
100
AcDbEntity
  8
細線
 48
50.0
100
AcDbLine
 10
6633.157286588591
 20
1285.623857557852
 30
0.0
 11
6633.991486685238
 21
1282.510580413487
 31
0.0
  0
LINE
  5
26BD1
330
747D
100
AcDbEntity
  8
細線
 48
50.0
100
AcDbLine
 10
6626.726505970241
 20
1261.62385755785
 30
0.0
 11
6633.991486685238
 21
1288.73713470224
 31
0.0
  0
LINE
  5
26BD2
330
747D
100
AcDbEntity
  8
細線
 48
50.0
100
AcDbLine
 10
6490.197034734386
 20
1501.623857557851
 30
0.0
 11
6553.991486685238
 21
1565.418309508703
 31
0.0
  0
CIRCLE
  5
26BD3
330
747D
100
AcDbEntity
  8
部品1
 48
50.0
100
AcDbCircle
 10
6457.991486685239
 20
1509.623857557851
 30
0.0
 40
8.0
  0
ARC
  5
26BD4
330
747D
100
AcDbEntity
  8
部品1
 48
50.0
100
AcDbCircle
 10
6329.991486685239
 20
1509.623857557851
 30
0.0
 40
24.0
100
AcDbArc
 50
340.5287793654858
 51
0.0
  0
LINE
  5
26BD5
330
747D
100
AcDbEntity
  8
細線
 48
50.0
100
AcDbLine
 10
6339.041042194095
 20
1365.623857557852
 30
0.0
 11
6332.610261575747
 21
1389.623857557852
 31
0.0
  0
LINE
  5
26BD6
330
747D
100
AcDbEntity
  8
細線
 48
50.0
100
AcDbLine
 10
6417.92908714134
 20
1365.623857557852
 30
0.0
 11
6411.498306522995
 21
1389.623857557852
 31
0.0
  0
LINE
  5
26BD7
330
747D
100
AcDbEntity
  8
細線
 48
50.0
100
AcDbLine
 10
6351.256266371183
 20
1389.623857557852
 30
0.0
 11
6447.256266371183
 21
1485.623857557851
 31
0.0
  0
LINE
  5
26BD8
330
747D
100
AcDbEntity
  8
細線
 48
50.0
100
AcDbLine
 10
6378.197034734386
 20
1389.623857557852
 30
0.0
 11
6474.197922579524
 21
1485.624745402991
 31
0.0
  0
LINE
  5
26BD9
330
747D
100
AcDbEntity
  8
部品1
 48
50.0
100
AcDbLine
 10
6497.991486685238
 20
1501.623857557851
 30
0.0
 11
6497.991486685238
 21
1485.623857557851
 31
0.0
  0
LINE
  5
26BDA
330
747D
100
AcDbEntity
  8
細線
 48
50.0
100
AcDbLine
 10
6575.705177035833
 20
1365.623857557852
 30
0.0
 11
6569.274396417485
 21
1389.623857557852
 31
0.0
  0
LINE
  5
26BDB
330
747D
100
AcDbEntity
  8
細線
 48
50.0
100
AcDbLine
 10
6539.841644913632
 20
1389.623857557852
 30
0.0
 11
6553.991486685238
 21
1403.773699329458
 31
0.0
  0
LINE
  5
26BDC
330
747D
100
AcDbEntity
  8
細線
 48
50.0
100
AcDbLine
 10
6496.817132088586
 20
1365.623857557852
 30
0.0
 11
6490.386351470239
 21
1389.623857557852
 31
0.0
  0
LINE
  5
26BDD
330
747D
100
AcDbEntity
  8
細線
 48
50.0
100
AcDbLine
 10
6233.991486685239
 20
1703.41137168323
 30
0.0
 11
6337.991486685244
 21
1807.411371683232
 31
0.0
  0
LINE
  5
26BDE
330
747D
100
AcDbEntity
  8
細線
 48
50.0
100
AcDbLine
 10
6233.991486685239
 20
1730.352140046438
 30
0.0
 11
6337.991486685239
 21
1834.352140046438
 31
0.0
  0
LINE
  5
26BDF
330
747D
100
AcDbEntity
  8
細線
 48
50.0
100
AcDbLine
 10
6233.991486685239
 20
1676.470603320022
 30
0.0
 11
6337.991486685244
 21
1780.470603320023
 31
0.0
  0
LINE
  5
26BE0
330
747D
100
AcDbEntity
  8
細線
 48
50.0
100
AcDbLine
 10
6321.991486685238
 20
1979.996750225682
 30
0.0
 11
6337.991486685239
 21
1995.996750225682
 31
0.0
  0
LINE
  5
26BE1
330
747D
100
AcDbEntity
  8
細線
 48
50.0
100
AcDbLine
 10
6321.991486685238
 20
2006.937518588889
 30
0.0
 11
6337.991486685239
 21
2022.937518588889
 31
0.0
  0
LINE
  5
26BE2
330
747D
100
AcDbEntity
  8
部品1
 48
50.0
100
AcDbLine
 10
6105.991486685239
 20
1629.623857557852
 30
0.0
 11
6233.991486685239
 21
1629.623857557852
 31
0.0
  0
LINE
  5
26BE3
330
747D
100
AcDbEntity
  8
細線
 48
50.0
100
AcDbLine
 10
6105.991486685232
 20
1575.411371683227
 30
0.0
 11
6160.203972559863
 21
1629.623857557852
 31
0.0
  0
LINE
  5
26BE4
330
747D
100
AcDbEntity
  8
細線
 48
50.0
100
AcDbLine
 10
6105.991486685232
 20
1602.352140046438
 30
0.0
 11
6133.263204196652
 21
1629.623857557852
 31
0.0
  0
LINE
  5
26BE5
330
747D
100
AcDbEntity
  8
部品1
 48
50.0
100
AcDbLine
 10
6321.991486685238
 20
1975.751072254974
 30
0.0
 11
6305.991486685239
 21
1975.751072254977
 31
0.0
  0
LINE
  5
26BE6
330
747D
100
AcDbEntity
  8
細線
 48
50.0
100
AcDbLine
 10
6233.991486685239
 20
1891.996750225682
 30
0.0
 11
6317.745808714533
 21
1975.751072254974
 31
0.0
  0
LINE
  5
26BE7
330
747D
100
AcDbEntity
  8
細線
 48
50.0
100
AcDbLine
 10
6233.991486685239
 20
1918.937518588889
 30
0.0
 11
6305.991486685239
 21
1990.937518588889
 31
0.0
  0
LINE
  5
26BE8
330
747D
100
AcDbEntity
  8
部品1
 48
50.0
100
AcDbLine
 10
6305.991486685239
 20
1975.751072254977
 30
0.0
 11
6305.991486685239
 21
2033.878286952097
 31
0.0
  0
LINE
  5
26BE9
330
747D
100
AcDbEntity
  8
細線
 48
50.0
100
AcDbLine
 10
6233.991486685239
 20
1945.878286952097
 30
0.0
 11
6305.991486685239
 21
2017.878286952097
 31
0.0
  0
LINE
  5
26BEA
330
747D
100
AcDbEntity
  8
部品1
 48
50.0
100
AcDbLine
 10
6321.991486685238
 20
1975.751072254974
 30
0.0
 11
6321.991486685238
 21
2033.878286952097
 31
0.0
  0
LINE
  5
26BEB
330
747D
100
AcDbEntity
  8
細線
 48
50.0
100
AcDbLine
 10
6353.991486685244
 20
1796.470603320022
 30
0.0
 11
6425.991486685231
 21
1868.470603320023
 31
0.0
  0
LINE
  5
26BEC
330
747D
100
AcDbEntity
  8
部品1
 48
50.0
100
AcDbLine
 10
6425.991486685238
 20
1629.623857557852
 30
0.0
 11
6553.991486685238
 21
1629.623857557852
 31
0.0
  0
LINE
  5
26BED
330
747D
100
AcDbEntity
  8
細線
 48
50.0
100
AcDbLine
 10
6353.991486685244
 20
1607.885224777573
 30
0.0
 11
6425.991486685231
 21
1679.885224777567
 31
0.0
  0
LINE
  5
26BEE
330
747D
100
AcDbEntity
  8
細線
 48
50.0
100
AcDbLine
 10
6353.991486685244
 20
1634.825993140781
 30
0.0
 11
6425.991486685231
 21
1706.825993140777
 31
0.0
  0
LINE
  5
26BEF
330
747D
100
AcDbEntity
  8
細線
 48
50.0
100
AcDbLine
 10
6353.991486685244
 20
1580.944456414363
 30
0.0
 11
6425.991486685231
 21
1652.944456414363
 31
0.0
  0
LINE
  5
26BF0
330
747D
100
AcDbEntity
  8
細線
 48
50.0
100
AcDbLine
 10
6353.991486685238
 20
1850.352140046438
 30
0.0
 11
6425.991486685238
 21
1922.352140046438
 31
0.0
  0
LINE
  5
26BF1
330
747D
100
AcDbEntity
  8
細線
 48
50.0
100
AcDbLine
 10
6353.991486685244
 20
1823.411371683232
 30
0.0
 11
6425.991486685231
 21
1895.411371683227
 31
0.0
  0
MTEXT
  5
26BF2
102
{ACAD_REACTORS
330
26B9D
102
}
330
747D
100
AcDbEntity
  8
寸法
 62
     7
 48
50.0
100
AcDbMText
 10
6667.72994254649
 20
1212.274771825699
 30
0.0
 40
80.0
 41
0.8
 71
     4
 72
     1
  1
\A1;D10@300
  7
STYLE2
 73
     1
 44
1.0
1001
ACAD
1000
MTEXTBEGIN
1070
    73
1070
     1
1070
    44
1040
1.0
1070
    74
1070
     0
1000
MTEXTEND
  0
DIMENSION
  5
26BF3
330
747D
100
AcDbEntity
  8
寸法
 48
50.0
100
AcDbDimension
  2
*D53
 10
6233.991486685238
 20
2493.623857557852
 30
0.0
 11
6341.217817030435
 21
2593.291665474232
 31
0.0
 70
   160
  1
120\P195
 71
     5
 42
192.0
  3
INABA_S40G
100
AcDbAlignedDimension
 13
6425.991486685238
 23
2173.623857557852
 33
0.0
 14
6233.991486685238
 24
2173.623857557852
 34
0.0
100
AcDbRotatedDimension
1001
ACAD
1000
DSTYLE
1002
{
1070
   174
1070
     0
1070
   272
1070
     1
1070
   279
1070
     1
1070
   288
1070
     0
1070
   341
1005
0
1002
}
  0
LINE
  5
26BF4
330
747D
100
AcDbEntity
  8
部品1
 48
50.0
100
AcDbLine
 10
6233.991486685239
 20
2173.623857557852
 30
0.0
 11
6425.991486685238
 21
2173.623857557852
 31
0.0
  0
LINE
  5
26BF5
330
747D
100
AcDbEntity
  8
細線
 48
50.0
100
AcDbLine
 10
6233.991486685239
 20
2134.46366549455
 30
0.0
 11
6273.151678748543
 21
2173.623857557852
 31
0.0
  0
LINE
  5
26BF6
330
747D
100
AcDbEntity
  8
細線
 48
50.0
100
AcDbLine
 10
6233.991486685239
 20
2107.522897131342
 30
0.0
 11
6300.092447111747
 21
2173.623857557852
 31
0.0
  0
LINE
  5
26BF7
330
747D
100
AcDbEntity
  8
細線
 48
50.0
100
AcDbLine
 10
6233.991486685239
 20
2161.404433857757
 30
0.0
 11
6246.210910385333
 21
2173.623857557852
 31
0.0
  0
LINE
  5
26BF8
330
747D
100
AcDbEntity
  8
細線
 48
50.0
100
AcDbLine
 10
6353.544193951225
 20
2038.490225854874
 30
0.0
 11
6425.991486685238
 21
2110.937518588889
 31
0.0
  0
LINE
  5
26BF9
330
747D
100
AcDbEntity
  8
細線
 48
50.0
100
AcDbLine
 10
6342.483909187708
 20
2054.370709454568
 30
0.0
 11
6425.991486685238
 21
2137.878286952098
 31
0.0
  0
LINE
  5
26BFA
330
747D
100
AcDbEntity
  8
細線
 48
50.0
100
AcDbLine
 10
8218.430799862433
 20
2014.75214004644
 30
0.0
 11
8348.030799862433
 21
2144.352140046439
 31
0.0
  0
LINE
  5
26BFB
330
747D
100
AcDbEntity
  8
部品1
100
AcDbLine
 10
8348.03079986243
 20
1629.623857557852
 30
0.0
 11
8348.030799862433
 21
2173.623857557852
 31
0.0
  0
LINE
  5
26BFC
330
747D
100
AcDbEntity
  8
部品1
 48
50.0
100
AcDbLine
 10
7934.030799862433
 20
1629.623857557852
 30
0.0
 11
7934.030799862433
 21
2173.623857557852
 31
0.0
  0
LINE
  5
26BFD
330
747D
100
AcDbEntity
  8
細線
 48
50.0
100
AcDbLine
 10
7934.030799862433
 20
1945.878286952097
 30
0.0
 11
8092.430799862432
 21
2104.278286952094
 31
0.0
  0
LINE
  5
26BFE
330
747D
100
AcDbEntity
  8
細線
 48
50.0
100
AcDbLine
 10
7934.030799862433
 20
1918.937518588889
 30
0.0
 11
8092.430799862432
 21
2077.337518588887
 31
0.0
  0
LINE
  5
26BFF
330
747D
100
AcDbEntity
  8
細線
 48
50.0
100
AcDbLine
 10
7934.030799862433
 20
1891.996750225682
 30
0.0
 11
8092.430799862428
 21
2050.396750225675
 31
0.0
  0
TEXT
  5
26C00
330
747D
100
AcDbEntity
  8
部品1
 48
50.0
100
AcDbText
 10
7519.890898029476
 20
1944.862849841107
 30
0.0
 40
80.0
  1
▽G.L
  7
STYLE2
100
AcDbText
  0
LINE
  5
26C01
330
747D
100
AcDbEntity
  8
部品1
100
AcDbLine
 10
8164.430799862431
 20
1948.623857557852
 30
0.0
 11
8164.430799862428
 21
2222.783857557853
 31
0.0
  0
LINE
  5
26C02
330
747D
100
AcDbEntity
  8
部品1
100
AcDbLine
 10
8146.430799862432
 20
1948.623857557852
 30
0.0
 11
8146.430799862427
 21
2222.783857557853
 31
0.0
  0
LINE
  5
26C03
330
747D
100
AcDbEntity
  8
細線
 48
50.0
100
AcDbLine
 10
8218.430799862433
 20
1960.87060332001
 30
0.0
 11
8348.030799862433
 21
2090.470603320002
 31
0.0
  0
LINE
  5
26C04
330
747D
100
AcDbEntity
  8
細線
 48
50.0
100
AcDbLine
 10
8218.430799862433
 20
1987.811371683223
 30
0.0
 11
8348.030799862433
 21
2117.41137168322
 31
0.0
  0
LINE
  5
26C05
330
747D
100
AcDbEntity
  8
部品1
100
AcDbLine
 10
8218.430799862431
 20
1849.623857557852
 30
0.0
 11
8218.430799862431
 21
2173.623857557852
 31
0.0
  0
LINE
  5
26C06
330
747D
100
AcDbEntity
  8
部品1
100
AcDbLine
 10
8092.430799862425
 20
1849.623857557852
 30
0.0
 11
8092.430799862432
 21
2173.623857557852
 31
0.0
  0
LINE
  5
26C07
330
747D
100
AcDbEntity
  8
細線
 48
50.0
100
AcDbLine
 10
7934.030799862433
 20
1703.41137168323
 30
0.0
 11
8092.430799862425
 21
1861.811371683218
 31
0.0
  0
LINE
  5
26C08
330
747D
100
AcDbEntity
  8
細線
 48
50.0
100
AcDbLine
 10
7934.030799862433
 20
1676.470603320022
 30
0.0
 11
8107.184054100267
 21
1849.62385755785
 31
0.0
  0
LINE
  5
26C09
330
747D
100
AcDbEntity
  8
細線
 48
50.0
100
AcDbLine
 10
7934.030799862433
 20
1730.352140046438
 30
0.0
 11
8092.430799862425
 21
1888.752140046433
 31
0.0
  0
LINE
  5
26C0A
330
747D
100
AcDbEntity
  8
細線
 48
50.0
100
AcDbLine
 10
7862.710201005921
 20
1389.623857557852
 30
0.0
 11
8348.030799862433
 21
1874.944456414359
 31
0.0
  0
LINE
  5
26C0B
330
747D
100
AcDbEntity
  8
細線
 48
50.0
100
AcDbLine
 10
7835.769432642715
 20
1389.623857557852
 30
0.0
 11
8348.030799862433
 21
1901.885224777566
 31
0.0
  0
LINE
  5
26C0C
330
747D
100
AcDbEntity
  8
細線
 48
50.0
100
AcDbLine
 10
7808.828664279507
 20
1389.623857557852
 30
0.0
 11
8348.03079986243
 21
1928.825993140777
 31
0.0
  0
LINE
  5
26C0D
330
747D
100
AcDbEntity
  8
部品1
 48
50.0
100
AcDbLine
 10
8556.030799862433
 20
1389.623857557852
 30
0.0
 11
7726.030799862434
 21
1389.623857557852
 31
0.0
  0
LINE
  5
26C0E
330
747D
100
AcDbEntity
  8
部品1
 48
50.0
100
AcDbLine
 10
8556.030799862433
 20
1261.623857557852
 30
0.0
 11
7726.030799862434
 21
1261.623857557852
 31
0.0
  0
LINE
  5
26C0F
330
747D
100
AcDbEntity
  8
細線
 48
50.0
100
AcDbLine
 10
7806.030799862426
 20
1548.470603320023
 30
0.0
 11
7887.184054100259
 21
1629.623857557852
 31
0.0
  0
LINE
  5
26C10
330
747D
100
AcDbEntity
  8
部品1
 48
50.0
100
AcDbLine
 10
7806.030799862432
 20
1389.623857557852
 30
0.0
 11
7806.030799862432
 21
1629.623857557852
 31
0.0
  0
LINE
  5
26C11
330
747D
100
AcDbEntity
  8
細線
 48
50.0
100
AcDbLine
 10
7853.437549463951
 20
1261.623857557852
 30
0.0
 11
7887.735046095132
 21
1389.623857557852
 31
0.0
  0
LINE
  5
26C12
330
747D
100
AcDbEntity
  8
部品1
 48
50.0
100
AcDbLine
 10
7726.030799862434
 20
1261.623857557852
 30
0.0
 11
7726.030799862434
 21
1389.623857557852
 31
0.0
  0
LINE
  5
26C13
330
747D
100
AcDbEntity
  8
細線
 48
50.0
100
AcDbLine
 10
7774.549504516691
 20
1261.62385755785
 30
0.0
 11
7808.847001147874
 21
1389.62385755785
 31
0.0
  0
LINE
  5
26C14
330
747D
100
AcDbEntity
  8
細線
 48
50.0
100
AcDbLine
 10
7932.325594411195
 20
1261.62385755785
 30
0.0
 11
7966.623091042376
 21
1389.62385755785
 31
0.0
  0
LINE
  5
26C15
330
747D
100
AcDbEntity
  8
細線
 48
50.0
100
AcDbLine
 10
7780.980285135044
 20
1285.623857557852
 30
0.0
 11
7787.411065753389
 21
1261.623857557852
 31
0.0
  0
LINE
  5
26C16
330
747D
100
AcDbEntity
  8
細線
 48
50.0
100
AcDbLine
 10
7938.756375029548
 20
1285.623857557852
 30
0.0
 11
7945.187155647895
 21
1261.623857557852
 31
0.0
  0
LINE
  5
26C17
330
747D
100
AcDbEntity
  8
細線
 48
50.0
100
AcDbLine
 10
7859.868330082296
 20
1285.623857557852
 30
0.0
 11
7866.299110700642
 21
1261.623857557852
 31
0.0
  0
LINE
  5
26C18
330
747D
100
AcDbEntity
  8
細線
 48
50.0
100
AcDbLine
 10
7726.030799862432
 20
1374.963778523632
 30
0.0
 11
7729.958956200627
 21
1389.623857557852
 31
0.0
  0
LINE
  5
26C19
330
747D
100
AcDbEntity
  8
細線
 48
50.0
100
AcDbLine
 10
7802.416220529533
 20
1365.623857557852
 30
0.0
 11
7795.985439911186
 21
1389.623857557852
 31
0.0
  0
LINE
  5
26C1A
330
747D
100
AcDbEntity
  8
細線
 48
50.0
100
AcDbLine
 10
7960.192310424038
 20
1365.623857557852
 30
0.0
 11
7953.76152980569
 21
1389.623857557852
 31
0.0
  0
LINE
  5
26C1B
330
747D
100
AcDbEntity
  8
細線
 48
50.0
100
AcDbLine
 10
7881.304265476785
 20
1365.623857557852
 30
0.0
 11
7874.873484858439
 21
1389.623857557852
 31
0.0
  0
LWPOLYLINE
  5
26C1C
330
747D
100
AcDbEntity
  8
部品1
 48
50.0
100
AcDbPolyline
 90
        2
 70
     0
 43
8.0
 10
7519.890898029476
 20
1933.623857557853
 10
7934.030799862433
 20
1933.623857557853
  0
LINE
  5
26C1D
330
747D
100
AcDbEntity
  8
細線
 48
50.0
100
AcDbLine
 10
7806.030799862426
 20
1575.411371683227
 30
0.0
 11
7860.243285737057
 21
1629.623857557852
 31
0.0
  0
LINE
  5
26C1E
330
747D
100
AcDbEntity
  8
部品1
 48
50.0
100
AcDbLine
 10
7806.030799862432
 20
1629.623857557852
 30
0.0
 11
7934.030799862433
 21
1629.623857557852
 31
0.0
  0
LINE
  5
26C1F
330
747D
100
AcDbEntity
  8
細線
 48
50.0
100
AcDbLine
 10
7806.030799862426
 20
1602.352140046438
 30
0.0
 11
7833.302517373846
 21
1629.623857557852
 31
0.0
  0
LINE
  5
26C20
330
747D
100
AcDbEntity
  8
細線
 48
50.0
100
AcDbLine
 10
8051.295579548376
 20
1389.623857557852
 30
0.0
 11
8348.030799862433
 21
1686.359077871904
 31
0.0
  0
LINE
  5
26C21
330
747D
100
AcDbEntity
  8
細線
 48
50.0
100
AcDbLine
 10
8078.236347911582
 20
1389.623857557852
 30
0.0
 11
8348.030799862433
 21
1659.418309508709
 31
0.0
  0
LINE
  5
26C22
330
747D
100
AcDbEntity
  8
細線
 48
50.0
100
AcDbLine
 10
8024.354811185167
 20
1389.623857557852
 30
0.0
 11
8348.03079986243
 21
1713.299846235118
 31
0.0
  0
LINE
  5
26C23
330
747D
100
AcDbEntity
  8
細線
 48
50.0
100
AcDbLine
 10
8239.880958090827
 20
1389.623857557852
 30
0.0
 11
8476.03079986243
 21
1625.77369932946
 31
0.0
  0
LINE
  5
26C24
330
747D
100
AcDbEntity
  8
細線
 48
50.0
100
AcDbLine
 10
8266.821726454036
 20
1389.623857557852
 30
0.0
 11
8476.03079986243
 21
1598.832930966245
 31
0.0
  0
LINE
  5
26C25
330
747D
100
AcDbEntity
  8
部品1
 48
50.0
100
AcDbLine
 10
8476.03079986243
 20
1629.623857557852
 30
0.0
 11
8476.03079986243
 21
1389.623857557852
 31
0.0
  0
LINE
  5
26C26
330
747D
100
AcDbEntity
  8
細線
 48
50.0
100
AcDbLine
 10
8293.762494817242
 20
1389.623857557852
 30
0.0
 11
8476.03079986243
 21
1571.892162603048
 31
0.0
  0
LINE
  5
26C27
330
747D
100
AcDbEntity
  8
細線
 48
50.0
100
AcDbLine
 10
8168.989729252942
 20
1261.62385755785
 30
0.0
 11
8203.287225884123
 21
1389.62385755785
 31
0.0
  0
LINE
  5
26C28
330
747D
100
AcDbEntity
  8
細線
 48
50.0
100
AcDbLine
 10
8011.213639358448
 20
1261.623857557852
 30
0.0
 11
8045.511135989629
 21
1389.623857557852
 31
0.0
  0
LINE
  5
26C29
330
747D
100
AcDbEntity
  8
細線
 48
50.0
100
AcDbLine
 10
8090.101684305693
 20
1261.623857557852
 30
0.0
 11
8124.399180936878
 21
1389.62385755785
 31
0.0
  0
LINE
  5
26C2A
330
747D
100
AcDbEntity
  8
細線
 48
50.0
100
AcDbLine
 10
8247.877774200183
 20
1261.623857557852
 30
0.0
 11
8282.175270831372
 21
1389.62385755785
 31
0.0
  0
LINE
  5
26C2B
330
747D
100
AcDbEntity
  8
細線
 48
50.0
100
AcDbLine
 10
8096.532464924047
 20
1285.623857557852
 30
0.0
 11
8102.963245542392
 21
1261.623857557852
 31
0.0
  0
LINE
  5
26C2C
330
747D
100
AcDbEntity
  8
細線
 48
50.0
100
AcDbLine
 10
8017.6444199768
 20
1285.623857557852
 30
0.0
 11
8024.075200595147
 21
1261.623857557852
 31
0.0
  0
LINE
  5
26C2D
330
747D
100
AcDbEntity
  8
細線
 48
50.0
100
AcDbLine
 10
8254.308554818537
 20
1285.623857557852
 30
0.0
 11
8260.739335436884
 21
1261.623857557852
 31
0.0
  0
LINE
  5
26C2E
330
747D
100
AcDbEntity
  8
細線
 48
50.0
100
AcDbLine
 10
8175.420509871292
 20
1285.623857557852
 30
0.0
 11
8181.851290489637
 21
1261.623857557852
 31
0.0
  0
LINE
  5
26C2F
330
747D
100
AcDbEntity
  8
細線
 48
50.0
100
AcDbLine
 10
8117.968400318536
 20
1365.623857557852
 30
0.0
 11
8111.537619700188
 21
1389.623857557852
 31
0.0
  0
LINE
  5
26C30
330
747D
100
AcDbEntity
  8
細線
 48
50.0
100
AcDbLine
 10
8039.080355371288
 20
1365.623857557852
 30
0.0
 11
8032.649574752941
 21
1389.623857557852
 31
0.0
  0
LINE
  5
26C31
330
747D
100
AcDbEntity
  8
細線
 48
50.0
100
AcDbLine
 10
8196.856445265781
 20
1365.623857557852
 30
0.0
 11
8190.425664647435
 21
1389.623857557852
 31
0.0
  0
LINE
  5
26C32
330
747D
100
AcDbEntity
  8
細線
 48
50.0
100
AcDbLine
 10
8275.744490213027
 20
1365.623857557852
 30
0.0
 11
8269.313709594682
 21
1389.623857557852
 31
0.0
  0
LINE
  5
26C33
330
747D
100
AcDbEntity
  8
部品1
 48
50.0
100
AcDbLine
 10
8556.030799862433
 20
1389.623857557852
 30
0.0
 11
8556.030799862433
 21
1261.623857557852
 31
0.0
  0
LINE
  5
26C34
330
747D
100
AcDbEntity
  8
細線
 48
50.0
100
AcDbLine
 10
8484.541909041928
 20
1261.62385755785
 30
0.0
 11
8518.839405673112
 21
1389.623857557849
 31
0.0
  0
LINE
  5
26C35
330
747D
100
AcDbEntity
  8
細線
 48
50.0
100
AcDbLine
 10
8326.765819147432
 20
1261.62385755785
 30
0.0
 11
8361.063315778606
 21
1389.623857557852
 31
0.0
  0
LINE
  5
26C36
330
747D
100
AcDbEntity
  8
細線
 48
50.0
100
AcDbLine
 10
8405.653864094682
 20
1261.623857557849
 30
0.0
 11
8439.951360725867
 21
1389.623857557849
 31
0.0
  0
LINE
  5
26C37
330
747D
100
AcDbEntity
  8
細線
 48
50.0
100
AcDbLine
 10
8333.196599765782
 20
1285.623857557852
 30
0.0
 11
8339.62738038414
 21
1261.623857557852
 31
0.0
  0
LINE
  5
26C38
330
747D
100
AcDbEntity
  8
細線
 48
50.0
100
AcDbLine
 10
8412.084644713031
 20
1285.62385755785
 30
0.0
 11
8418.515425331378
 21
1261.62385755785
 31
0.0
  0
LINE
  5
26C39
330
747D
100
AcDbEntity
  8
細線
 48
50.0
100
AcDbLine
 10
8490.972689660278
 20
1285.62385755785
 30
0.0
 11
8497.403470278626
 21
1261.62385755785
 31
0.0
  0
LINE
  5
26C3A
330
747D
100
AcDbEntity
  8
細線
 48
50.0
100
AcDbLine
 10
8354.632535160265
 20
1365.623857557852
 30
0.0
 11
8348.201754541918
 21
1389.623857557852
 31
0.0
  0
LINE
  5
26C3B
330
747D
100
AcDbEntity
  8
細線
 48
50.0
100
AcDbLine
 10
8433.52058010752
 20
1365.62385755785
 30
0.0
 11
8427.089799489175
 21
1389.62385755785
 31
0.0
  0
LINE
  5
26C3C
330
747D
100
AcDbEntity
  8
細線
 48
50.0
100
AcDbLine
 10
8512.408625054765
 20
1365.62385755785
 30
0.0
 11
8505.97784443642
 21
1389.62385755785
 31
0.0
  0
LINE
  5
26C3D
330
747D
100
AcDbEntity
  8
部品1
100
AcDbLine
 10
8218.430799862431
 20
1849.62385755785
 30
0.0
 11
8092.430799862425
 21
1849.62385755785
 31
0.0
  0
LINE
  5
26C3E
330
747D
100
AcDbEntity
  8
部品1
100
AcDbLine
 10
8200.430799862431
 20
1930.623857557852
 30
0.0
 11
8200.430799862431
 21
1948.623857557852
 31
0.0
  0
ARC
  5
26C3F
330
747D
100
AcDbEntity
  8
部品1
100
AcDbCircle
 10
8164.430799862431
 20
1948.623857557852
 30
0.0
 40
18.0
100
AcDbArc
 50
180.0
 51
270.0
  0
LINE
  5
26C40
330
747D
100
AcDbEntity
  8
部品1
100
AcDbLine
 10
8164.430799862431
 20
1930.623857557852
 30
0.0
 11
8200.430799862431
 21
1930.623857557852
 31
0.0
  0
LINE
  5
26C41
330
747D
100
AcDbEntity
  8
部品1
100
AcDbLine
 10
8164.430799862431
 20
1948.623857557852
 30
0.0
 11
8200.430799862431
 21
1948.623857557852
 31
0.0
  0
LINE
  5
26C42
330
747D
100
AcDbEntity
  8
部品1
 48
50.0
100
AcDbLine
 10
8348.030799862433
 20
1629.623857557852
 30
0.0
 11
8476.03079986243
 21
1629.623857557852
 31
0.0
  0
LINE
  5
26C43
330
747D
100
AcDbEntity
  8
部品1
100
AcDbLine
 10
7953.830799862434
 20
2263.623857557852
 30
0.0
 11
7991.630799862433
 21
2263.623857557852
 31
0.0
  0
LINE
  5
26C44
330
747D
100
AcDbEntity
  8
細線
 48
50.0
100
AcDbLine
 10
7934.030799862433
 20
2134.46366549455
 30
0.0
 11
7973.190991925737
 21
2173.623857557852
 31
0.0
  0
LINE
  5
26C45
330
747D
100
AcDbEntity
  8
細線
 48
50.0
100
AcDbLine
 10
7934.030799862433
 20
2107.522897131342
 30
0.0
 11
8000.131760288942
 21
2173.623857557852
 31
0.0
  0
LINE
  5
26C46
330
747D
100
AcDbEntity
  8
部品1
 48
50.0
100
AcDbLine
 10
7934.030799862433
 20
2173.623857557852
 30
0.0
 11
8348.030799862433
 21
2173.623857557852
 31
0.0
  0
TEXT
  5
26C47
330
747D
100
AcDbEntity
  8
部品1
 48
50.0
100
AcDbText
 10
7507.58470328294
 20
2504.184378658328
 30
0.0
 40
80.0
  1
※(別売)
  7
STYLE2
100
AcDbText
  0
LINE
  5
26C48
330
747D
100
AcDbEntity
  8
部品1
100
AcDbLine
 10
7951.130799862433
 20
2252.823857557852
 30
0.0
 11
7951.130799862433
 21
2260.923857557852
 31
0.0
  0
ARC
  5
26C49
330
747D
100
AcDbEntity
  8
部品1
100
AcDbCircle
 10
7953.830799862434
 20
2260.923857557852
 30
0.0
 40
2.7
100
AcDbArc
 50
90.0
 51
180.0
  0
ARC
  5
26C4A
330
747D
100
AcDbEntity
  8
部品1
100
AcDbCircle
 10
7943.030799862433
 20
2248.01576126056
 30
0.0
 40
2.7
100
AcDbArc
 50
104.0362434679059
 51
180.0
  0
LINE
  5
26C4B
330
747D
100
AcDbEntity
  8
部品1
100
AcDbLine
 10
7942.375953674833
 20
2250.635146010952
 30
0.0
 11
7951.130799862433
 21
2252.823857557852
 31
0.0
  0
ARC
  5
26C4C
330
747D
100
AcDbEntity
  8
部品1
100
AcDbCircle
 10
7943.030799862433
 20
2185.883857557852
 30
0.0
 40
2.7
100
AcDbArc
 50
180.0
 51
270.0
  0
LINE
  5
26C4D
330
747D
100
AcDbEntity
  8
細線
 48
50.0
100
AcDbLine
 10
7934.030799862433
 20
2161.404433857757
 30
0.0
 11
7946.250223562526
 21
2173.623857557852
 31
0.0
  0
LINE
  5
26C4E
330
747D
100
AcDbEntity
  8
部品1
100
AcDbLine
 10
7943.030799862433
 20
2183.183857557852
 30
0.0
 11
7954.730799862428
 21
2183.183857557852
 31
0.0
  0
LINE
  5
26C4F
330
747D
100
AcDbEntity
  8
部品1
100
AcDbLine
 10
7940.330799862433
 20
2185.883857557852
 30
0.0
 11
7940.330799862433
 21
2248.01576126056
 31
0.0
  0
LINE
  5
26C50
330
747D
100
AcDbEntity
  8
部品1
100
AcDbLine
 10
8098.990799862425
 20
2183.183857557852
 30
0.0
 11
8300.330799862427
 21
2183.183857557852
 31
0.0
  0
LINE
  5
26C51
330
747D
100
AcDbEntity
  8
部品1
100
AcDbLine
 10
7991.630799862433
 20
2263.623857557852
 30
0.0
 11
7991.630799862433
 21
2271.723857557852
 31
0.0
  0
LINE
  5
26C52
330
747D
100
AcDbEntity
  8
部品1
100
AcDbLine
 10
8042.030799862432
 20
2282.523857557849
 30
0.0
 11
8042.030799862432
 21
2231.223857557852
 31
0.0
  0
LINE
  5
26C53
330
747D
100
AcDbEntity
  8
部品1
100
AcDbLine
 10
8065.430799862431
 20
2243.183857557852
 30
0.0
 11
8093.590799862431
 21
2243.183857557852
 31
0.0
  0
ARC
  5
26C54
330
747D
100
AcDbEntity
  8
部品1
100
AcDbCircle
 10
8065.430799862431
 20
2240.483857557852
 30
0.0
 40
2.7
100
AcDbArc
 50
90.0
 51
180.0
  0
ARC
  5
26C55
330
747D
100
AcDbEntity
  8
部品1
100
AcDbCircle
 10
8093.590799862431
 20
2240.483857557852
 30
0.0
 40
2.7
100
AcDbArc
 50
0.0
 51
90.0
  0
LINE
  5
26C56
330
747D
100
AcDbEntity
  8
部品1
100
AcDbLine
 10
8084.330799862433
 20
2228.523857557851
 30
0.0
 11
8084.330799862433
 21
2185.883857557852
 31
0.0
  0
LINE
  5
26C57
330
747D
100
AcDbEntity
  8
部品1
100
AcDbLine
 10
8069.930799862431
 20
2183.183857557852
 30
0.0
 11
8081.630799862432
 21
2183.183857557852
 31
0.0
  0
ARC
  5
26C58
330
747D
100
AcDbEntity
  8
部品1
100
AcDbCircle
 10
8098.990799862425
 20
2185.883857557852
 30
0.0
 40
2.7
100
AcDbArc
 50
180.0
 51
270.0
  0
ARC
  5
26C59
330
747D
100
AcDbEntity
  8
部品1
100
AcDbCircle
 10
8081.630799862432
 20
2185.883857557852
 30
0.0
 40
2.7
100
AcDbArc
 50
270.0
 51
0.0
  0
LINE
  5
26C5A
330
747D
100
AcDbEntity
  8
部品1
100
AcDbLine
 10
8042.030799862432
 20
2231.223857557852
 30
0.0
 11
8081.630799862432
 21
2231.223857557852
 31
0.0
  0
ARC
  5
26C5B
330
747D
100
AcDbEntity
  8
部品1
100
AcDbCircle
 10
8081.630799862432
 20
2228.523857557851
 30
0.0
 40
2.7
100
AcDbArc
 50
0.0
 51
90.0
  0
LINE
  5
26C5C
330
747D
100
AcDbEntity
  8
部品1
100
AcDbLine
 10
8096.290799862433
 20
2240.483857557852
 30
0.0
 11
8096.290799862428
 21
2185.883857557852
 31
0.0
  0
LINE
  5
26C5D
330
747D
100
AcDbEntity
  8
部品1
100
AcDbLine
 10
8062.730799862432
 20
2240.483857557852
 30
0.0
 11
8062.730799862432
 21
2223.383857557852
 31
0.0
  0
LINE
  5
26C5E
330
747D
100
AcDbEntity
  8
細線
100
AcDbLine
 10
8160.830799862434
 20
2183.183857557852
 30
0.0
 11
8160.830799862434
 21
2226.383857557852
 31
0.0
  0
LINE
  5
26C5F
330
747D
100
AcDbEntity
  8
細線
100
AcDbLine
 10
8150.030799862433
 20
2183.183857557852
 30
0.0
 11
8150.030799862433
 21
2226.383857557852
 31
0.0
  0
LINE
  5
26C60
330
747D
100
AcDbEntity
  8
部品1
100
AcDbLine
 10
8146.430799862432
 20
2222.783857557853
 30
0.0
 11
8164.430799862431
 21
2222.783857557853
 31
0.0
  0
LINE
  5
26C61
330
747D
100
AcDbEntity
  8
部品1
100
AcDbLine
 10
8150.030799862433
 20
2226.383857557852
 30
0.0
 11
8160.830799862434
 21
2226.383857557852
 31
0.0
  0
ELLIPSE
  5
26C62
330
747D
100
AcDbEntity
  8
部品1
 48
50.0
100
AcDbEllipse
 10
8155.430799862433
 20
2442.747146002125
 30
0.0
 11
40.0
 21
0.0
 31
0.0
210
0.0
220
0.0
230
1.0
 40
0.4
 41
0.0
 42
6.283185307179586
  0
ELLIPSE
  5
26C63
330
747D
100
AcDbEntity
  8
部品1
 48
50.0
100
AcDbEllipse
 10
8155.430799862433
 20
2433.147146002125
 30
0.0
 11
40.0
 21
0.0
 31
0.0
210
0.0
220
0.0
230
1.0
 40
0.4
 41
3.141592653589793
 42
6.283185307179586
  0
LINE
  5
26C64
330
747D
100
AcDbEntity
  8
部品1
 48
50.0
100
AcDbLine
 10
8115.430799862432
 20
2442.747146002125
 30
0.0
 11
8115.430799862432
 21
2433.147146002124
 31
0.0
  0
ARC
  5
26C65
330
747D
100
AcDbEntity
  8
部品1
100
AcDbCircle
 10
8039.330799862433
 20
2282.523857557849
 30
0.0
 40
2.7
100
AcDbArc
 50
0.0
 51
90.0
  0
ARC
  5
26C66
330
747D
100
AcDbEntity
  8
部品1
100
AcDbCircle
 10
7997.030799862432
 20
2282.523857557851
 30
0.0
 40
2.7
100
AcDbArc
 50
90.0
 51
180.0
  0
LINE
  5
26C67
330
747D
100
AcDbEntity
  8
部品1
100
AcDbLine
 10
7994.330799862433
 20
2274.423857557852
 30
0.0
 11
7994.330799862433
 21
2274.423857557852
 31
0.0
  0
LINE
  5
26C68
330
747D
100
AcDbEntity
  8
部品1
100
AcDbLine
 10
7994.330799862433
 20
2274.423857557852
 30
0.0
 11
7994.330799862433
 21
2282.523857557851
 31
0.0
  0
LINE
  5
26C69
330
747D
100
AcDbEntity
  8
部品1
100
AcDbLine
 10
7997.030799862432
 20
2285.223857557852
 30
0.0
 11
8039.330799862433
 21
2285.223857557848
 31
0.0
  0
ARC
  5
26C6A
330
747D
100
AcDbEntity
  8
部品1
100
AcDbCircle
 10
7994.330799862433
 20
2271.723857557852
 30
0.0
 40
2.7
100
AcDbArc
 50
90.0
 51
180.0
  0
ELLIPSE
  5
26C6B
330
747D
100
AcDbEntity
  8
部品1
 48
50.0
100
AcDbEllipse
 10
8155.430799862433
 20
2442.747146002125
 30
0.0
 11
18.4
 21
0.0
 31
0.0
210
0.0
220
0.0
230
1.0
 40
0.3478260869565217
 41
0.0
 42
6.283185307179586
  0
LINE
  5
26C6C
330
747D
100
AcDbEntity
  8
部品1
 48
50.0
100
AcDbLine
 10
8195.430799862432
 20
2433.147146002124
 30
0.0
 11
8195.430799862432
 21
2442.747146002125
 31
0.0
  0
LINE
  5
26C6D
330
747D
100
AcDbEntity
  8
部品1
 48
50.0
100
AcDbLine
 10
8123.430799862431
 20
2564.499138666994
 30
0.0
 11
8139.430799862431
 21
2556.499138666995
 31
0.0
  0
LINE
  5
26C6E
330
747D
100
AcDbEntity
  8
部品1
 48
50.0
100
AcDbLine
 10
8123.430799862431
 20
2532.499138666995
 30
0.0
 11
8139.430799862431
 21
2524.499138666995
 31
0.0
  0
LINE
  5
26C6F
330
747D
100
AcDbEntity
  8
部品1
 48
50.0
100
AcDbLine
 10
8123.430799862431
 20
2564.499138666994
 30
0.0
 11
8139.430799862431
 21
2572.499138666995
 31
0.0
  0
LINE
  5
26C70
330
747D
100
AcDbEntity
  8
部品1
 48
50.0
100
AcDbLine
 10
8123.430799862431
 20
2532.499138666995
 30
0.0
 11
8123.430799862431
 21
2564.499138666994
 31
0.0
  0
LINE
  5
26C71
330
747D
100
AcDbEntity
  8
部品1
 48
50.0
100
AcDbLine
 10
8139.430799862431
 20
2572.499138666995
 30
0.0
 11
8171.430799862433
 21
2572.499138666995
 31
0.0
  0
ELLIPSE
  5
26C72
330
747D
100
AcDbEntity
  8
細線
 48
50.0
100
AcDbEllipse
 10
8155.430799862433
 20
2564.499138666994
 30
0.0
 11
14.76670786606846
 21
0.0
 31
0.0
210
0.0
220
0.0
230
1.0
 40
0.2071254069489396
 41
0.0
 42
6.283185307179586
  0
LINE
  5
26C73
330
747D
100
AcDbEntity
  8
部品1
 48
50.0
100
AcDbLine
 10
8139.430799862431
 20
2524.499138666995
 30
0.0
 11
8171.430799862433
 21
2524.499138666995
 31
0.0
  0
LINE
  5
26C74
330
747D
100
AcDbEntity
  8
部品1
 48
50.0
100
AcDbLine
 10
8171.430799862433
 20
2524.499138666995
 30
0.0
 11
8187.430799862431
 21
2532.499138666995
 31
0.0
  0
LINE
  5
26C75
330
747D
100
AcDbEntity
  8
部品1
 48
50.0
100
AcDbLine
 10
8139.430799862431
 20
2556.499138666995
 30
0.0
 11
8171.430799862433
 21
2556.499138666995
 31
0.0
  0
LINE
  5
26C76
330
747D
100
AcDbEntity
  8
部品1
 48
50.0
100
AcDbLine
 10
8171.430799862433
 20
2556.499138666995
 30
0.0
 11
8187.430799862431
 21
2564.499138666994
 31
0.0
  0
LINE
  5
26C77
330
747D
100
AcDbEntity
  8
細線
 48
50.0
100
AcDbLine
 10
8171.430799862433
 20
2524.499138666995
 30
0.0
 11
8171.430799862433
 21
2556.499138666995
 31
0.0
  0
LINE
  5
26C78
330
747D
100
AcDbEntity
  8
部品1
 48
50.0
100
AcDbLine
 10
8187.430799862431
 20
2532.499138666995
 30
0.0
 11
8187.430799862431
 21
2564.499138666994
 31
0.0
  0
LINE
  5
26C79
330
747D
100
AcDbEntity
  8
細線
 48
50.0
100
AcDbLine
 10
8139.430799862431
 20
2524.499138666995
 30
0.0
 11
8139.430799862431
 21
2556.499138666995
 31
0.0
  0
LINE
  5
26C7A
330
747D
100
AcDbEntity
  8
部品1
 48
50.0
100
AcDbLine
 10
8171.430799862433
 20
2572.499138666995
 30
0.0
 11
8187.430799862431
 21
2564.499138666994
 31
0.0
  0
TEXT
  5
26C7B
330
747D
100
AcDbEntity
  8
部品1
100
AcDbText
 10
7856.203049054362
 20
3315.043545383268
 30
0.0
 40
120.0
  1
基礎詳細
  7
STYLE2
100
AcDbText
  0
LINE
  5
26C7C
330
747D
100
AcDbEntity
  8
部品1
100
AcDbLine
 10
11234.30823326222
 20
530.2885077500495
 30
0.0
 11
11234.30823326223
 21
3494.595477334697
 31
0.0
  0
LINE
  5
26C7D
330
747D
100
AcDbEntity
  8
細線
100
AcDbLine
 10
10242.20006584197
 20
1933.623857557852
 30
0.0
 11
10047.56673216519
 21
2128.257191234635
 31
0.0
  0
LINE
  5
26C7E
330
747D
100
AcDbEntity
  8
部品1
100
AcDbLine
 10
10047.56673216519
 20
2173.623857557852
 30
0.0
 11
10527.56673216519
 21
2173.623857557852
 31
0.0
  0
LINE
  5
26C7F
330
747D
100
AcDbEntity
  8
細線
 48
50.0
100
AcDbLine
 10
10181.63761660844
 20
1713.924941904502
 30
0.0
 11
10215.93511323963
 21
1841.924941904501
 31
0.0
  0
LINE
  5
26C80
330
747D
100
AcDbEntity
  8
部品1
100
AcDbLine
 10
9927.566732165189
 20
1713.924941904498
 30
0.0
 11
10647.56673216519
 21
1713.924941904502
 31
0.0
  0
LINE
  5
26C81
330
747D
100
AcDbEntity
  8
部品1
100
AcDbLine
 10
9927.566732165189
 20
1841.924941904502
 30
0.0
 11
10647.56673216519
 21
1841.924941904504
 31
0.0
  0
LINE
  5
26C82
330
747D
100
AcDbEntity
  8
細線
100
AcDbLine
 10
10108.48537765843
 20
1841.924941904502
 30
0.0
 11
10200.18429331178
 21
1933.623857557852
 31
0.0
  0
LWPOLYLINE
  5
26C83
330
747D
100
AcDbEntity
  8
部品1
 48
50.0
100
AcDbPolyline
 90
        2
 70
     0
 43
12.0
 10
9662.955470064801
 20
1933.623857557852
 10
10864.04777319643
 20
1933.623857557852
  0
LINE
  5
26C84
330
747D
100
AcDbEntity
  8
細線
100
AcDbLine
 10
10191.28837759654
 20
1933.623857557852
 30
0.0
 11
10047.56673216519
 21
2077.345502989205
 31
0.0
  0
TEXT
  5
26C85
330
747D
100
AcDbEntity
  8
部品1
 48
50.0
100
AcDbText
 10
9283.448645406686
 20
1666.824116920543
 30
0.0
 40
80.0
  1
ボルトの出
 50
90.0
  7
STYLE2
100
AcDbText
  0
LINE
  5
26C86
330
747D
100
AcDbEntity
  8
部品1
100
AcDbLine
 10
10047.56673216519
 20
1933.623857557852
 30
0.0
 11
10047.56673216519
 21
2173.623857557852
 31
0.0
  0
LINE
  5
26C87
330
747D
100
AcDbEntity
  8
細線
 48
50.0
100
AcDbLine
 10
10023.86152671395
 20
1713.924941904501
 30
0.0
 11
10058.15902334513
 21
1841.924941904501
 31
0.0
  0
LINE
  5
26C88
330
747D
100
AcDbEntity
  8
細線
 48
50.0
100
AcDbLine
 10
10102.7495716612
 20
1713.924941904502
 30
0.0
 11
10137.04706829238
 21
1841.924941904502
 31
0.0
  0
LINE
  5
26C89
330
747D
100
AcDbEntity
  8
細線
 48
50.0
100
AcDbLine
 10
9944.973481766702
 20
1713.924941904502
 30
0.0
 11
9979.270978397886
 21
1841.924941904502
 31
0.0
  0
LINE
  5
26C8A
330
747D
100
AcDbEntity
  8
部品1
100
AcDbLine
 10
9927.566732165189
 20
1713.924941904498
 30
0.0
 11
9927.566732165189
 21
1933.623857557852
 31
0.0
  0
LINE
  5
26C8B
330
747D
100
AcDbEntity
  8
細線
 48
50.0
100
AcDbLine
 10
10030.2923073323
 20
1737.924941904501
 30
0.0
 11
10036.72308795065
 21
1713.924941904502
 31
0.0
  0
LINE
  5
26C8C
330
747D
100
AcDbEntity
  8
細線
 48
50.0
100
AcDbLine
 10
9951.404262385052
 20
1737.924941904501
 30
0.0
 11
9957.835043003399
 21
1713.924941904502
 31
0.0
  0
LINE
  5
26C8D
330
747D
100
AcDbEntity
  8
細線
 48
50.0
100
AcDbLine
 10
10109.18035227955
 20
1737.924941904501
 30
0.0
 11
10115.6111328979
 21
1713.924941904502
 31
0.0
  0
LINE
  5
26C8E
330
747D
100
AcDbEntity
  8
細線
 48
50.0
100
AcDbLine
 10
10188.0683972268
 20
1737.924941904501
 30
0.0
 11
10194.49917784515
 21
1713.924941904502
 31
0.0
  0
LINE
  5
26C8F
330
747D
100
AcDbEntity
  8
細線
 48
50.0
100
AcDbLine
 10
9972.84019777954
 20
1817.924941904502
 30
0.0
 11
9966.409417161191
 21
1841.924941904502
 31
0.0
  0
LINE
  5
26C90
330
747D
100
AcDbEntity
  8
細線
 48
50.0
100
AcDbLine
 10
10130.61628767404
 20
1817.924941904502
 30
0.0
 11
10124.18550705569
 21
1841.924941904502
 31
0.0
  0
LINE
  5
26C91
330
747D
100
AcDbEntity
  8
細線
 48
50.0
100
AcDbLine
 10
10051.72824272679
 20
1817.924941904502
 30
0.0
 11
10045.29746210844
 21
1841.924941904502
 31
0.0
  0
LINE
  5
26C92
330
747D
100
AcDbEntity
  8
細線
100
AcDbLine
 10
10040.60312666452
 20
1841.924941904502
 30
0.0
 11
10132.30204231787
 21
1933.623857557852
 31
0.0
  0
LINE
  5
26C93
330
747D
100
AcDbEntity
  8
細線
100
AcDbLine
 10
10074.54425216147
 20
1841.924941904502
 30
0.0
 11
10166.24316781482
 21
1933.623857557852
 31
0.0
  0
LINE
  5
26C94
330
747D
100
AcDbEntity
  8
細線
100
AcDbLine
 10
10462.81738157218
 20
1933.623857557852
 30
0.0
 11
10222.81738157218
 21
2173.623857557852
 31
0.0
  0
LINE
  5
26C95
330
747D
100
AcDbEntity
  8
細線
100
AcDbLine
 10
10513.72906981761
 20
1933.623857557854
 30
0.0
 11
10273.72906981761
 21
2173.623857557852
 31
0.0
  0
LINE
  5
26C96
330
747D
100
AcDbEntity
  8
部品1
100
AcDbLine
 10
10527.56673216519
 20
2173.623857557852
 30
0.0
 11
10527.56673216519
 21
1933.623857557852
 31
0.0
  0
LINE
  5
26C97
330
747D
100
AcDbEntity
  8
細線
 48
50.0
100
AcDbLine
 10
10497.18979639743
 20
1713.924941904499
 30
0.0
 11
10531.48729302862
 21
1841.924941904499
 31
0.0
  0
LINE
  5
26C98
330
747D
100
AcDbEntity
  8
細線
100
AcDbLine
 10
10468.48537765843
 20
1841.924941904504
 30
0.0
 11
10560.18429331178
 21
1933.623857557852
 31
0.0
  0
LINE
  5
26C99
330
747D
100
AcDbEntity
  8
細線
 48
50.0
100
AcDbLine
 10
10418.30175145018
 20
1713.924941904501
 30
0.0
 11
10452.59924808136
 21
1841.924941904502
 31
0.0
  0
LINE
  5
26C9A
330
747D
100
AcDbEntity
  8
細線
 48
50.0
100
AcDbLine
 10
10260.52566155569
 20
1713.924941904501
 30
0.0
 11
10294.82315818688
 21
1841.924941904501
 31
0.0
  0
LINE
  5
26C9B
330
747D
100
AcDbEntity
  8
細線
 48
50.0
100
AcDbLine
 10
10339.41370650294
 20
1713.924941904502
 30
0.0
 11
10373.71120313412
 21
1841.924941904501
 31
0.0
  0
LINE
  5
26C9C
330
747D
100
AcDbEntity
  8
細線
 48
50.0
100
AcDbLine
 10
10345.84448712129
 20
1737.924941904501
 30
0.0
 11
10352.27526773964
 21
1713.924941904502
 31
0.0
  0
LINE
  5
26C9D
330
747D
100
AcDbEntity
  8
細線
 48
50.0
100
AcDbLine
 10
10266.95644217404
 20
1737.924941904501
 30
0.0
 11
10273.38722279239
 21
1713.924941904502
 31
0.0
  0
LINE
  5
26C9E
330
747D
100
AcDbEntity
  8
細線
 48
50.0
100
AcDbLine
 10
10424.73253206854
 20
1737.924941904501
 30
0.0
 11
10431.16331268689
 21
1713.924941904502
 31
0.0
  0
LINE
  5
26C9F
330
747D
100
AcDbEntity
  8
細線
 48
50.0
100
AcDbLine
 10
10503.62057701578
 20
1737.924941904501
 30
0.0
 11
10510.05135763413
 21
1713.924941904501
 31
0.0
  0
LINE
  5
26CA0
330
747D
100
AcDbEntity
  8
細線
 48
50.0
100
AcDbLine
 10
10367.28042251578
 20
1817.924941904502
 30
0.0
 11
10360.84964189743
 21
1841.924941904502
 31
0.0
  0
LINE
  5
26CA1
330
747D
100
AcDbEntity
  8
細線
 48
50.0
100
AcDbLine
 10
10288.39237756853
 20
1817.924941904502
 30
0.0
 11
10281.96159695019
 21
1841.924941904502
 31
0.0
  0
LINE
  5
26CA2
330
747D
100
AcDbEntity
  8
細線
 48
50.0
100
AcDbLine
 10
10209.50433262129
 20
1817.924941904502
 30
0.0
 11
10203.07355200294
 21
1841.924941904502
 31
0.0
  0
LINE
  5
26CA3
330
747D
100
AcDbEntity
  8
細線
100
AcDbLine
 10
10434.54425216148
 20
1841.924941904504
 30
0.0
 11
10526.24316781482
 21
1933.623857557852
 31
0.0
  0
LINE
  5
26CA4
330
747D
100
AcDbEntity
  8
細線
 48
50.0
100
AcDbLine
 10
10446.16846746302
 20
1817.924941904502
 30
0.0
 11
10439.73768684467
 21
1841.924941904502
 31
0.0
  0
LINE
  5
26CA5
330
747D
100
AcDbEntity
  8
細線
100
AcDbLine
 10
10400.60312666452
 20
1841.924941904504
 30
0.0
 11
10492.30204231787
 21
1933.623857557852
 31
0.0
  0
LINE
  5
26CA6
330
747D
100
AcDbEntity
  8
細線
 48
50.0
100
AcDbLine
 10
10525.05651241027
 20
1817.924941904501
 30
0.0
 11
10518.62573179193
 21
1841.924941904501
 31
0.0
  0
LINE
  5
26CA7
330
747D
100
AcDbEntity
  8
細線
 48
50.0
100
AcDbLine
 10
10576.07784134468
 20
1713.924941904501
 30
0.0
 11
10610.37533797587
 21
1841.924941904499
 31
0.0
  0
LINE
  5
26CA8
330
747D
100
AcDbEntity
  8
部品1
100
AcDbLine
 10
10647.56673216519
 20
1933.623857557852
 30
0.0
 11
10647.56673216519
 21
1713.924941904502
 31
0.0
  0
LINE
  5
26CA9
330
747D
100
AcDbEntity
  8
細線
 48
50.0
100
AcDbLine
 10
10582.50862196303
 20
1737.924941904501
 30
0.0
 11
10588.93940258138
 21
1713.924941904501
 31
0.0
  0
LINE
  5
26CAA
330
747D
100
AcDbEntity
  8
細線
 48
50.0
100
AcDbLine
 10
10603.94455735752
 20
1817.924941904501
 30
0.0
 11
10597.51377673917
 21
1841.924941904501
 31
0.0
  0
LEADER
  5
26CAB
330
747D
100
AcDbEntity
  8
寸法
 48
50.0
100
AcDbLeader
  3
INABA_S50G
 73
     0
 74
     0
 75
     1
 40
120.0
 41
185.591883092037
 76
     3
 10
10458.29114378111
 20
2173.623857557852
 30
0.0
 10
10491.42935041476
 20
2345.77017823899
 30
0.0
 10
10616.42935041475
 20
2345.77017823899
 30
0.0
340
26CAC
1001
ACAD
1000
DSTYLE
1002
{
1070
    40
1040
1.0
1002
}
  0
MTEXT
  5
26CAC
102
{ACAD_REACTORS
330
26CAB
102
}
330
747D
100
AcDbEntity
  8
寸法
 62
     7
 48
50.0
100
AcDbMText
 10
10641.42935041475
 20
2430.77017823899
 30
0.0
 40
120.0
 41
0.8
 71
     4
 72
     1
  1
\A1;C.B
  7
STYLE1
 73
     1
 44
1.0
1001
ACAD
1000
MTEXTBEGIN
1070
    73
1070
     1
1070
    44
1040
1.0
1070
    74
1070
     0
1000
MTEXTEND
  0
LINE
  5
26D3E
330
747D
100
AcDbEntity
  8
仕様書枠
 48
50.0
100
AcDbLine
 10
13107.2
 20
1200.0
 30
0.0
 11
13107.2
 21
0.0
 31
0.0
  0
ENDSEC
  0
SECTION
  2
OBJECTS
  0
DICTIONARY
  5
7471
330
0
100
AcDbDictionary
281
     1
  3
ACAD_COLOR
350
173D2
  3
ACAD_GROUP
350
7472
  3
ACAD_LAYOUT
350
173D3
  3
ACAD_MATERIAL
350
173D1
  3
ACAD_MLINESTYLE
350
7473
  3
ACAD_PLOTSETTINGS
350
173D4
  3
ACAD_PLOTSTYLENAME
350
173CF
  3
ACDBHEADERROUNDTRIPXREC
350
26D4D
  3
AcDbVariableDictionary
350
26D49
  3
CONTENTDICTIONARY
350
E71C
  3
DRAWINGVARIABLESDICT
350
F3B9
  0
DICTIONARY
  5
1758F
330
7467
100
AcDbDictionary
280
     1
281
     1
  3
ACAD_LAYERSTATES
360
17590
  0
DICTIONARY
  5
173D2
102
{ACAD_REACTORS
330
7471
102
}
330
7471
100
AcDbDictionary
281
     1
  0
DICTIONARY
  5
7472
102
{ACAD_REACTORS
330
7471
102
}
330
7471
100
AcDbDictionary
281
     1
  3
*A1
350
1D2A9
  3
*A2
350
2668D
  0
DICTIONARY
  5
173D3
102
{ACAD_REACTORS
330
7471
102
}
330
7471
100
AcDbDictionary
281
     1
  3
Model
350
173D5
  3
レイアウト1
350
173D6
  0
DICTIONARY
  5
173D1
102
{ACAD_REACTORS
330
7471
102
}
330
7471
100
AcDbDictionary
281
     1
  0
DICTIONARY
  5
7473
102
{ACAD_REACTORS
330
7471
102
}
330
7471
100
AcDbDictionary
281
     1
  3
STANDARD
350
7480
  0
DICTIONARY
  5
173D4
102
{ACAD_REACTORS
330
7471
102
}
330
7471
100
AcDbDictionary
281
     1
  0
ACDBDICTIONARYWDFLT
  5
173CF
102
{ACAD_REACTORS
330
7471
102
}
330
7471
100
AcDbDictionary
281
     1
  3
Normal
350
173D0
100
AcDbDictionaryWithDefault
340
173D0
  0
DICTIONARY
  5
26D4D
102
{ACAD_REACTORS
330
7471
102
}
330
7471
100
AcDbDictionary
281
     1
  3
COLORDICT
350
26D4F
  3
MATERIALDICT
350
26D4E
  0
DICTIONARY
  5
26D49
102
{ACAD_REACTORS
330
7471
102
}
330
7471
100
AcDbDictionary
281
     1
  3
DIMASSOC
350
26D4A
  3
PROJECTNAME
350
26D4B
  0
DICTIONARY
  5
E71C
102
{ACAD_REACTORS
330
7471
102
}
330
7471
100
AcDbDictionary
281
     1
  0
DICTIONARY
  5
F3B9
102
{ACAD_REACTORS
330
7471
102
}
330
7471
100
AcDbDictionary
281
     1
1001
DRAWINGVARIABLESXDATA
1000
POLARMODE
1000
1
  0
DICTIONARY
  5
17590
102
{ACAD_REACTORS
330
1758F
102
}
330
1758F
100
AcDbDictionary
281
     1
  0
GROUP
  5
1D2A9
102
{ACAD_REACTORS
330
7472
102
}
330
7472
100
AcDbGroup
300

 70
     1
 71
     1
  0
GROUP
  5
2668D
102
{ACAD_REACTORS
330
7472
102
}
330
7472
100
AcDbGroup
300

 70
     1
 71
     1
340
25F7C
340
25F7B
  0
LAYOUT
  5
173D5
102
{ACAD_XDICTIONARY
360
26D50
102
}
102
{ACAD_REACTORS
330
173D3
102
}
330
173D3
100
AcDbPlotSettings
  1

  2
クセロPDFよこ.pc3
  4
A3
  6

 40
3.174999952316284
 41
3.174999952316284
 42
3.17498779296875
 43
3.17498779296875
 44
419.9466552734374
 45
296.9259948730469
 46
0.0
 47
0.0
 48
0.0
 49
0.0
140
0.0
141
0.0
142
1.0
143
40.0
 70
 11952
 72
     1
 73
     0
 74
     2
  7
ACA3.ctb
 75
    24
147
0.025
148
0.0
149
0.0
100
AcDbLayout
  1
Model
 70
     1
 71
     0
 10
0.0
 20
0.0
 11
12.0
 21
9.0
 12
0.0
 22
0.0
 32
0.0
 14
0.0
 24
0.0
 34
0.0
 15
0.0
 25
0.0
 35
0.0
146
0.0
 13
0.0
 23
0.0
 33
0.0
 16
1.0
 26
0.0
 36
0.0
 17
0.0
 27
1.0
 37
0.0
 76
     0
330
747D
  0
LAYOUT
  5
173D6
102
{ACAD_XDICTIONARY
360
26D52
102
}
102
{ACAD_REACTORS
330
173D3
102
}
330
173D3
100
AcDbPlotSettings
  1

  2
Microsoft Office Document Image Writer
  4

  6

 40
0.0
 41
0.0
 42
0.0
 43
0.0
 44
0.0
 45
0.0
 46
0.0
 47
0.0
 48
0.0
 49
0.0
140
0.0
141
0.0
142
1.0
143
1.0
 70
   688
 72
     0
 73
     0
 74
     5
  7
ACA3.ctb
 75
    16
147
1.0
148
0.0
149
0.0
100
AcDbLayout
  1
レイアウト1
 70
     0
 71
     1
 10
0.0
 20
0.0
 11
420.0
 21
297.0
 12
0.0
 22
0.0
 32
0.0
 14
1.000000000000000E+20
 24
1.000000000000000E+20
 34
1.000000000000000E+20
 15
-1.000000000000000E+20
 25
-1.000000000000000E+20
 35
-1.000000000000000E+20
146
0.0
 13
0.0
 23
0.0
 33
0.0
 16
1.0
 26
0.0
 36
0.0
 17
0.0
 27
1.0
 37
0.0
 76
     0
330
747A
  0
MLINESTYLE
  5
7480
102
{ACAD_REACTORS
330
7473
102
}
330
7473
100
AcDbMlineStyle
  2
STANDARD
 70
     0
  3

 62
     0
 51
90.0
 52
90.0
 71
     2
 49
0.5
 62
   256
  6
BYLAYER
 49
-0.5
 62
   256
  6
BYLAYER
  0
ACDBPLACEHOLDER
  5
173D0
102
{ACAD_REACTORS
330
173CF
102
}
330
173CF
  0
XRECORD
  5
26D4F
102
{ACAD_REACTORS
330
26D4D
102
}
330
26D4D
100
AcDbXrecord
280
     1
340
173D2
  0
XRECORD
  5
26D4E
102
{ACAD_REACTORS
330
26D4D
102
}
330
26D4D
100
AcDbXrecord
280
     1
340
173D1
  0
DICTIONARYVAR
  5
26D4A
102
{ACAD_REACTORS
330
26D49
102
}
330
26D49
100
DictionaryVariables
280
     0
  1
1
  0
DICTIONARYVAR
  5
26D4B
102
{ACAD_REACTORS
330
26D49
102
}
330
26D49
100
DictionaryVariables
280
     0
  1

  0
DICTIONARY
  5
26D50
330
173D5
100
AcDbDictionary
280
     1
281
     1
  3
ACAD_XREC_ROUNDTRIP
360
26D51
  0
DICTIONARY
  5
26D52
330
173D6
100
AcDbDictionary
280
     1
281
     1
  3
ACAD_XREC_ROUNDTRIP
360
26D53
  0
XRECORD
  5
26D51
102
{ACAD_REACTORS
330
26D50
102
}
330
26D50
100
AcDbXrecord
280
     1
102
SHADEPLOT
 70
     0
102
SHADEPLOTRESLEVEL
 70
     2
102
SHADEPLOTCUSTOMDPI
 70
   150
  0
XRECORD
  5
26D53
102
{ACAD_REACTORS
330
26D52
102
}
330
26D52
100
AcDbXrecord
280
     1
102
SHADEPLOT
 70
     0
102
SHADEPLOTRESLEVEL
 70
     2
102
SHADEPLOTCUSTOMDPI
 70
   300
  0
ENDSEC
  0
EOF
