  0
SECTION
  2
HEADER
  9
$ACADVER
  1
AC1015
  9
$ACADMAINTVER
 70
    20
  9
$DWGCODEPAGE
  3
ANSI_932
  9
$INSBASE
 10
0.0
 20
0.0
 30
0.0
  9
$EXTMIN
 10
139.9999999999995
 20
-0.0000000000000909
 30
0.0
  9
$EXTMAX
 10
16307.2
 20
11409.6
 30
0.0
  9
$LIMMIN
 10
0.0
 20
0.0
  9
$LIMMAX
 10
16800.0
 20
11880.0
  9
$ORTHOMODE
 70
     0
  9
$REGENMODE
 70
     1
  9
$FILLMODE
 70
     1
  9
$QTEXTMODE
 70
     0
  9
$MIRRTEXT
 70
     1
  9
$LTSCALE
 40
20.0
  9
$ATTMODE
 70
     1
  9
$TEXTSIZE
 40
4.0
  9
$TRACEWID
 40
1.0
  9
$TEXTSTYLE
  7
STYLE1
  9
$CLAYER
  8
細線
  9
$CELTYPE
  6
BYLAYER
  9
$CECOLOR
 62
   256
  9
$CELTSCALE
 40
50.0
  9
$DISPSILH
 70
     0
  9
$DIMSCALE
 40
40.0
  9
$DIMASZ
 40
2.5
  9
$DIMEXO
 40
0.5
  9
$DIMDLI
 40
7.0
  9
$DIMRND
 40
0.0
  9
$DIMDLE
 40
0.0
  9
$DIMEXE
 40
1.5
  9
$DIMTP
 40
0.0
  9
$DIMTM
 40
0.0
  9
$DIMTXT
 40
3.0
  9
$DIMCEN
 40
0.0
  9
$DIMTSZ
 40
0.0
  9
$DIMTOL
 70
     0
  9
$DIMLIM
 70
     0
  9
$DIMTIH
 70
     0
  9
$DIMTOH
 70
     0
  9
$DIMSE1
 70
     0
  9
$DIMSE2
 70
     0
  9
$DIMTAD
 70
     3
  9
$DIMZIN
 70
     8
  9
$DIMBLK
  1

  9
$DIMASO
 70
     1
  9
$DIMSHO
 70
     1
  9
$DIMPOST
  1

  9
$DIMAPOST
  1

  9
$DIMALT
 70
     0
  9
$DIMALTD
 70
     2
  9
$DIMALTF
 40
0.0394
  9
$DIMLFAC
 40
1.0
  9
$DIMTOFL
 70
     1
  9
$DIMTVP
 40
0.0
  9
$DIMTIX
 70
     1
  9
$DIMSOXD
 70
     0
  9
$DIMSAH
 70
     1
  9
$DIMBLK1
  1
DOTSMALL
  9
$DIMBLK2
  1
DOTSMALL
  9
$DIMSTYLE
  2
INABA_S40G
  9
$DIMCLRD
 70
     0
  9
$DIMCLRE
 70
     0
  9
$DIMCLRT
 70
     7
  9
$DIMTFAC
 40
1.0
  9
$DIMGAP
 40
1.0
  9
$DIMJUST
 70
     0
  9
$DIMSD1
 70
     0
  9
$DIMSD2
 70
     0
  9
$DIMTOLJ
 70
     1
  9
$DIMTZIN
 70
     0
  9
$DIMALTZ
 70
     0
  9
$DIMALTTZ
 70
     0
  9
$DIMUPT
 70
     0
  9
$DIMDEC
 70
     1
  9
$DIMTDEC
 70
     4
  9
$DIMALTU
 70
     2
  9
$DIMALTTD
 70
     2
  9
$DIMTXSTY
  7
STYLE1
  9
$DIMAUNIT
 70
     0
  9
$DIMADEC
 70
     0
  9
$DIMALTRND
 40
0.0
  9
$DIMAZIN
 70
     0
  9
$DIMDSEP
 70
    46
  9
$DIMATFIT
 70
     3
  9
$DIMFRAC
 70
     0
  9
$DIMLDRBLK
  1

  9
$DIMLUNIT
 70
     2
  9
$DIMLWD
 70
    -2
  9
$DIMLWE
 70
    -2
  9
$DIMTMOVE
 70
     0
  9
$LUNITS
 70
     2
  9
$LUPREC
 70
     1
  9
$SKETCHINC
 40
1.0
  9
$FILLETRAD
 40
3.0
  9
$AUNITS
 70
     0
  9
$AUPREC
 70
     0
  9
$MENU
  1
acad
  9
$ELEVATION
 40
0.0
  9
$PELEVATION
 40
0.0
  9
$THICKNESS
 40
0.0
  9
$LIMCHECK
 70
     0
  9
$CHAMFERA
 40
0.0
  9
$CHAMFERB
 40
0.0
  9
$CHAMFERC
 40
0.0
  9
$CHAMFERD
 40
0.0
  9
$SKPOLY
 70
     0
  9
$TDCREATE
 40
2451368.612993866
  9
$TDUCREATE
 40
2451368.237993866
  9
$TDUPDATE
 40
2455826.641340417
  9
$TDUUPDATE
 40
2455826.266340417
  9
$TDINDWG
 40
0.8203807060
  9
$TDUSRTIMER
 40
0.8203807060
  9
$USRTIMER
 70
     1
  9
$ANGBASE
 50
0.0
  9
$ANGDIR
 70
     0
  9
$PDMODE
 70
     3
  9
$PDSIZE
 40
2.0
  9
$PLINEWID
 40
0.0
  9
$SPLFRAME
 70
     0
  9
$SPLINETYPE
 70
     6
  9
$SPLINESEGS
 70
     8
  9
$HANDSEED
  5
261BB
  9
$SURFTAB1
 70
     6
  9
$SURFTAB2
 70
     6
  9
$SURFTYPE
 70
     6
  9
$SURFU
 70
     6
  9
$SURFV
 70
     6
  9
$UCSBASE
  2

  9
$UCSNAME
  2

  9
$UCSORG
 10
0.0
 20
0.0
 30
0.0
  9
$UCSXDIR
 10
1.0
 20
0.0
 30
0.0
  9
$UCSYDIR
 10
0.0
 20
1.0
 30
0.0
  9
$UCSORTHOREF
  2

  9
$UCSORTHOVIEW
 70
     0
  9
$UCSORGTOP
 10
0.0
 20
0.0
 30
0.0
  9
$UCSORGBOTTOM
 10
0.0
 20
0.0
 30
0.0
  9
$UCSORGLEFT
 10
0.0
 20
0.0
 30
0.0
  9
$UCSORGRIGHT
 10
0.0
 20
0.0
 30
0.0
  9
$UCSORGFRONT
 10
0.0
 20
0.0
 30
0.0
  9
$UCSORGBACK
 10
0.0
 20
0.0
 30
0.0
  9
$PUCSBASE
  2

  9
$PUCSNAME
  2

  9
$PUCSORG
 10
0.0
 20
0.0
 30
0.0
  9
$PUCSXDIR
 10
1.0
 20
0.0
 30
0.0
  9
$PUCSYDIR
 10
0.0
 20
1.0
 30
0.0
  9
$PUCSORTHOREF
  2

  9
$PUCSORTHOVIEW
 70
     0
  9
$PUCSORGTOP
 10
0.0
 20
0.0
 30
0.0
  9
$PUCSORGBOTTOM
 10
0.0
 20
0.0
 30
0.0
  9
$PUCSORGLEFT
 10
0.0
 20
0.0
 30
0.0
  9
$PUCSORGRIGHT
 10
0.0
 20
0.0
 30
0.0
  9
$PUCSORGFRONT
 10
0.0
 20
0.0
 30
0.0
  9
$PUCSORGBACK
 10
0.0
 20
0.0
 30
0.0
  9
$USERI1
 70
     0
  9
$USERI2
 70
     0
  9
$USERI3
 70
     0
  9
$USERI4
 70
     0
  9
$USERI5
 70
     0
  9
$USERR1
 40
0.0
  9
$USERR2
 40
0.0
  9
$USERR3
 40
0.0
  9
$USERR4
 40
0.0
  9
$USERR5
 40
0.0
  9
$WORLDVIEW
 70
     1
  9
$SHADEDGE
 70
     3
  9
$SHADEDIF
 70
    70
  9
$TILEMODE
 70
     1
  9
$MAXACTVP
 70
    16
  9
$PINSBASE
 10
0.0
 20
0.0
 30
0.0
  9
$PLIMCHECK
 70
     0
  9
$PEXTMIN
 10
1.000000000000000E+20
 20
1.000000000000000E+20
 30
1.000000000000000E+20
  9
$PEXTMAX
 10
-1.000000000000000E+20
 20
-1.000000000000000E+20
 30
-1.000000000000000E+20
  9
$PLIMMIN
 10
0.0
 20
0.0
  9
$PLIMMAX
 10
420.0
 20
297.0
  9
$UNITMODE
 70
     0
  9
$VISRETAIN
 70
     0
  9
$PLINEGEN
 70
     0
  9
$PSLTSCALE
 70
     0
  9
$TREEDEPTH
 70
  3020
  9
$CMLSTYLE
  2
STANDARD
  9
$CMLJUST
 70
     0
  9
$CMLSCALE
 40
1.0
  9
$PROXYGRAPHICS
 70
     1
  9
$MEASUREMENT
 70
     1
  9
$CELWEIGHT
370
    -1
  9
$ENDCAPS
280
     0
  9
$JOINSTYLE
280
     0
  9
$LWDISPLAY
290
     0
  9
$INSUNITS
 70
     0
  9
$HYPERLINKBASE
  1

  9
$STYLESHEET
  1

  9
$XEDIT
290
     1
  9
$CEPSNTYPE
380
     0
  9
$PSTYLEMODE
290
     1
  9
$FINGERPRINTGUID
  2
{5EAC461A-2277-4BF8-9AB0-99C43BB394F0}
  9
$VERSIONGUID
  2
{F8989CAE-AE38-4227-864D-C6C30F06D04A}
  9
$EXTNAMES
290
     1
  9
$PSVPSCALE
 40
0.0
  9
$OLESTARTUP
290
     0
  0
ENDSEC
  0
SECTION
  2
CLASSES
  0
CLASS
  1
ACDBDICTIONARYWDFLT
  2
AcDbDictionaryWithDefault
  3
ObjectDBX Classes
 90
        0
280
     0
281
     0
  0
CLASS
  1
DICTIONARYVAR
  2
AcDbDictionaryVar
  3
ObjectDBX Classes
 90
        0
280
     0
281
     0
  0
CLASS
  1
ACDBPLACEHOLDER
  2
AcDbPlaceHolder
  3
ObjectDBX Classes
 90
        0
280
     0
281
     0
  0
CLASS
  1
LAYOUT
  2
AcDbLayout
  3
ObjectDBX Classes
 90
        0
280
     0
281
     0
  0
ENDSEC
  0
SECTION
  2
TABLES
  0
TABLE
  2
VPORT
  5
746D
330
0
100
AcDbSymbolTable
 70
     2
  0
VPORT
  5
261B3
330
746D
100
AcDbSymbolTableRecord
100
AcDbViewportTableRecord
  2
*Active
 70
     0
 10
0.0
 20
0.0
 11
1.0
 21
1.0
 12
8223.761025238502
 22
5855.51892110829
 13
0.0
 23
0.0
 14
10.0
 24
10.0
 15
10.0
 25
10.0
 16
0.0
 26
0.0
 36
1.0
 17
0.0
 27
0.0
 37
0.0
 40
11801.05715611403
 41
1.522222222222222
 42
50.0
 43
0.0
 44
0.0
 50
0.0
 51
0.0
 71
     0
 72
     0
 73
     1
 74
     0
 75
     0
 76
     0
 77
     0
 78
     0
281
     0
 65
     1
110
0.0
120
0.0
130
0.0
111
1.0
121
0.0
131
0.0
112
0.0
122
1.0
132
0.0
 79
     0
146
0.0
  0
ENDTAB
  0
TABLE
  2
LTYPE
  5
746A
330
0
100
AcDbSymbolTable
 70
     5
  0
LTYPE
  5
7477
330
746A
100
AcDbSymbolTableRecord
100
AcDbLinetypeTableRecord
  2
BYBLOCK
 70
     0
  3

 72
    65
 73
     0
 40
0.0
  0
LTYPE
  5
7478
330
746A
100
AcDbSymbolTableRecord
100
AcDbLinetypeTableRecord
  2
BYLAYER
 70
     0
  3

 72
    65
 73
     0
 40
0.0
  0
LTYPE
  5
7479
330
746A
100
AcDbSymbolTableRecord
100
AcDbLinetypeTableRecord
  2
CONTINUOUS
 70
     0
  3
Solid line
 72
    65
 73
     0
 40
0.0
  0
LTYPE
  5
7816
330
746A
100
AcDbSymbolTableRecord
100
AcDbLinetypeTableRecord
  2
CENTER
 70
     0
  3
____ _ ____ _ ____ _ ____ _ ____ _ ____ _ ____ 
 72
    65
 73
     4
 40
2.0
 49
1.25
 74
     0
 49
-0.25
 74
     0
 49
0.25
 74
     0
 49
-0.25
 74
     0
  0
LTYPE
  5
781A
330
746A
100
AcDbSymbolTableRecord
100
AcDbLinetypeTableRecord
  2
HIDDEN
 70
     0
  3
__ __ __ __ __ __ __ __ __ __ __ __ __ __ __ __
 72
    65
 73
     2
 40
0.375
 49
0.25
 74
     0
 49
-0.125
 74
     0
  0
LTYPE
  5
781B
330
746A
100
AcDbSymbolTableRecord
100
AcDbLinetypeTableRecord
  2
PHANTOM
 70
     0
  3
______  __  __  ______  __  __  ______  __  __ 
 72
    65
 73
     6
 40
2.5
 49
1.25
 74
     0
 49
-0.25
 74
     0
 49
0.25
 74
     0
 49
-0.25
 74
     0
 49
0.25
 74
     0
 49
-0.25
 74
     0
  0
LTYPE
  5
12CC3
330
746A
100
AcDbSymbolTableRecord
100
AcDbLinetypeTableRecord
  2
HIDDENX2
 70
     0
  3
Hidden (2x) ____ ____ ____ ____ ____ ____ ____
 72
    65
 73
     2
 40
19.05
 49
12.7
 74
     0
 49
-6.349999999999999
 74
     0
  0
ENDTAB
  0
TABLE
  2
LAYER
  5
7467
102
{ACAD_XDICTIONARY
360
1758F
102
}
330
0
100
AcDbSymbolTable
 70
    12
  0
LAYER
  5
7474
330
7467
100
AcDbSymbolTableRecord
100
AcDbLayerTableRecord
  2
0
 70
     0
 62
     7
  6
CONTINUOUS
370
    -3
390
173D0
  0
LAYER
  5
DEB2
330
7467
100
AcDbSymbolTableRecord
100
AcDbLayerTableRecord
  2
センター
 70
     0
 62
     3
  6
CENTER
370
    -3
390
173D0
  0
LAYER
  5
DEB3
330
7467
100
AcDbSymbolTableRecord
100
AcDbLayerTableRecord
  2
寸法
 70
     0
 62
     4
  6
CONTINUOUS
370
    -3
390
173D0
  0
LAYER
  5
DEB4
330
7467
100
AcDbSymbolTableRecord
100
AcDbLayerTableRecord
  2
部品1
 70
     0
 62
     7
  6
CONTINUOUS
370
    -3
390
173D0
  0
LAYER
  5
DEB5
330
7467
100
AcDbSymbolTableRecord
100
AcDbLayerTableRecord
  2
補助
 70
     0
 62
    -1
  6
CONTINUOUS
370
    -3
390
173D0
  0
LAYER
  5
DEB6
330
7467
100
AcDbSymbolTableRecord
100
AcDbLayerTableRecord
  2
文字
 70
     0
 62
     7
  6
CONTINUOUS
370
    -3
390
173D0
  0
LAYER
  5
F255
330
7467
100
AcDbSymbolTableRecord
100
AcDbLayerTableRecord
  2
DEFPOINTS
 70
     0
 62
     7
  6
CONTINUOUS
290
     0
370
    -3
390
173D0
  0
LAYER
  5
10B54
330
7467
100
AcDbSymbolTableRecord
100
AcDbLayerTableRecord
  2
仕様書枠
 70
     0
 62
   230
  6
CONTINUOUS
370
    -3
390
173D0
  0
LAYER
  5
11729
330
7467
100
AcDbSymbolTableRecord
100
AcDbLayerTableRecord
  2
Ｇ．Ｌ
 70
     0
 62
    30
  6
CONTINUOUS
370
    -3
390
173D0
  0
LAYER
  5
1173F
330
7467
100
AcDbSymbolTableRecord
100
AcDbLayerTableRecord
  2
細線
 70
     0
 62
     5
  6
CONTINUOUS
370
    -3
390
173D0
  0
LAYER
  5
12CC4
330
7467
100
AcDbSymbolTableRecord
100
AcDbLayerTableRecord
  2
想像線
 70
     0
 62
     6
  6
PHANTOM
370
    -3
390
173D0
  0
LAYER
  5
142E2
330
7467
100
AcDbSymbolTableRecord
100
AcDbLayerTableRecord
  2
破線
 70
     0
 62
     2
  6
HIDDEN
370
    -3
390
173D0
  0
ENDTAB
  0
TABLE
  2
STYLE
  5
7468
330
0
100
AcDbSymbolTable
 70
     7
  0
STYLE
  5
7475
330
7468
100
AcDbSymbolTableRecord
100
AcDbTextStyleTableRecord
  2
STANDARD
 70
     0
 40
0.0
 41
1.0
 50
0.0
 71
     0
 42
4.0
  3
txt
  4
C:\AutoCAD LT\bigfont.shx
  0
STYLE
  5
763C
330
7468
100
AcDbSymbolTableRecord
100
AcDbTextStyleTableRecord
  2
MSMINCHO
 70
     0
 40
0.0
 41
1.0
 50
0.0
 71
     0
 42
1.199999999999999
  3
C:\AutoCAD LT\msminch2.TTF
  4

  0
STYLE
  5
F706
330
7468
100
AcDbSymbolTableRecord
100
AcDbTextStyleTableRecord
  2
STYLE1
 70
     0
 40
0.0
 41
1.0
 50
0.0
 71
     0
 42
4.0
  3
isocp.shx
  4
bigfont.shx
  0
STYLE
  5
103BF
330
7468
100
AcDbSymbolTableRecord
100
AcDbTextStyleTableRecord
  2
STYLE2
 70
     0
 40
0.0
 41
1.0
 50
0.0
 71
     0
 42
100.0
  3
MS PGothic.ttf
  4

1001
ACAD
1000
MS PGothic
1071
    32818
  0
STYLE
  5
10BAA
330
7468
100
AcDbSymbolTableRecord
100
AcDbTextStyleTableRecord
  2
STYLE3
 70
     0
 40
0.0
 41
1.0
 50
0.0
 71
     0
 42
100.0
  3

  4

1001
ACAD
1000
DFPGothic-EB
1071
    32818
  0
STYLE
  5
11A15
330
7468
100
AcDbSymbolTableRecord
100
AcDbTextStyleTableRecord
  2
MSGOTHIC
 70
     0
 40
0.0
 41
1.0
 50
0.0
 71
     0
 42
3.5
  3
msgothi2.ttf
  4

  0
STYLE
  5
13E96
330
7468
100
AcDbSymbolTableRecord
100
AcDbTextStyleTableRecord
  2
MSPゴシック
 70
     0
 40
0.0
 41
1.0
 50
0.0
 71
     0
 42
4.0
  3
MS PGothic.ttf
  4

1001
ACAD
1000
MS PGothic
1071
    32818
  0
ENDTAB
  0
TABLE
  2
VIEW
  5
746B
330
0
100
AcDbSymbolTable
 70
     0
  0
ENDTAB
  0
TABLE
  2
UCS
  5
746C
330
0
100
AcDbSymbolTable
 70
     0
  0
ENDTAB
  0
TABLE
  2
APPID
  5
746E
330
0
100
AcDbSymbolTable
 70
     6
  0
APPID
  5
7476
330
746E
100
AcDbSymbolTableRecord
100
AcDbRegAppTableRecord
  2
ACAD
 70
     0
  0
APPID
  5
DEA9
330
746E
100
AcDbSymbolTableRecord
100
AcDbRegAppTableRecord
  2
CONTENTBLOCKICON
 70
     0
  0
APPID
  5
DEAA
330
746E
100
AcDbSymbolTableRecord
100
AcDbRegAppTableRecord
  2
CONTENTBLOCKDESCRIPTION
 70
     0
  0
APPID
  5
E71D
330
746E
100
AcDbSymbolTableRecord
100
AcDbRegAppTableRecord
  2
CONTENTTABDATA
 70
     0
  0
APPID
  5
E71E
330
746E
100
AcDbSymbolTableRecord
100
AcDbRegAppTableRecord
  2
CONTENTCURRENTTAB
 70
     0
  0
APPID
  5
F3BA
330
746E
100
AcDbSymbolTableRecord
100
AcDbRegAppTableRecord
  2
DRAWINGVARIABLESXDATA
 70
     0
  0
ENDTAB
  0
TABLE
  2
DIMSTYLE
  5
746F
330
0
100
AcDbSymbolTable
 70
     6
100
AcDbDimStyleTable
 71
     1
340
F71F
  0
DIMSTYLE
105
7484
330
746F
100
AcDbSymbolTableRecord
100
AcDbDimStyleTableRecord
  2
JIS
 70
     0
 41
2.5
 42
1.0
 43
7.0
 44
1.0
 73
     0
 74
     0
 77
     1
 78
     8
140
2.5
141
0.0
143
0.0394
147
0.0
172
     1
174
     1
175
     1
340
7475
  0
DIMSTYLE
105
F236
330
746F
100
AcDbSymbolTableRecord
100
AcDbDimStyleTableRecord
  2
INABA_S40
 70
     0
 40
40.0
 41
2.5
 42
0.5
 43
7.0
 44
1.5
 73
     0
 74
     0
 77
     3
 78
     8
140
3.0
141
0.0
143
0.0394
147
1.0
172
     1
173
     1
174
     1
175
     1
178
     7
289
     0
340
7475
341
DEAC
343
DEAC
344
DEAC
  0
DIMSTYLE
105
F71F
102
{ACAD_REACTORS
330
24BE8
330
24BD3
330
24BCB
330
24BBF
330
24BBB
330
24BAD
330
24BAB
330
24BA6
330
24BA5
330
24BA7
330
24C03
330
24C02
330
24BCD
330
24BC6
330
24BC0
330
24BBD
330
24BBC
330
24BA8
330
24BA1
330
24BA0
330
24B99
330
25649
330
2564A
330
25AC2
330
25AC3
330
25AC4
330
25AC8
330
25B25
330
25B26
330
25FE6
330
25FE7
330
25FEF
330
25FF6
330
25FF9
330
26059
102
}
330
746F
100
AcDbSymbolTableRecord
100
AcDbDimStyleTableRecord
  2
INABA_S40G
 70
     0
 40
40.0
 41
2.5
 42
0.5
 43
7.0
 44
1.5
 73
     0
 74
     0
 77
     3
 78
     8
140
3.0
141
0.0
143
0.0394
147
1.0
172
     1
173
     1
174
     1
178
     7
271
     1
340
F706
341
F770
343
F770
344
F770
  0
DIMSTYLE
105
142E3
330
746F
100
AcDbSymbolTableRecord
100
AcDbDimStyleTableRecord
  2
INABA_S1
 70
     0
 40
0.0
 41
2.5
 42
0.5
 43
7.0
 44
1.5
 73
     0
 74
     0
 77
     3
 78
     8
140
3.0
141
0.0
143
0.0394
146
0.5
147
0.5
172
     1
173
     1
176
   256
177
   256
178
     7
271
     2
272
     2
284
     8
288
     1
340
7475
341
DEAC
343
DEAC
344
DEAC
  0
DIMSTYLE
105
14463
330
746F
100
AcDbSymbolTableRecord
100
AcDbDimStyleTableRecord
  2
INABA_S30G
 70
     0
 40
30.0
 41
2.5
 42
0.5
 43
7.0
 44
1.5
 73
     0
 74
     0
 77
     3
 78
     8
140
3.0
141
0.0
143
0.0394
147
1.0
172
     1
173
     1
174
     1
175
     1
178
     7
271
     1
340
F706
341
F770
343
F770
344
F770
  0
DIMSTYLE
105
1758E
330
746F
100
AcDbSymbolTableRecord
100
AcDbDimStyleTableRecord
  2
INABA_S50G
 70
     0
 41
125.0
 42
25.0
 43
7.0
 44
75.0
 73
     0
 74
     0
 77
     3
 78
     8
140
150.0
141
0.0
143
0.0394
147
25.0
172
     1
173
     1
174
     1
175
     1
178
     7
271
     1
340
F706
341
F770
343
F770
344
F770
  0
ENDTAB
  0
TABLE
  2
BLOCK_RECORD
  5
7466
330
0
100
AcDbSymbolTable
 70
    54
  0
BLOCK_RECORD
  5
747D
330
7466
100
AcDbSymbolTableRecord
100
AcDbBlockTableRecord
  2
*MODEL_SPACE
340
173D5
  0
BLOCK_RECORD
  5
747A
330
7466
100
AcDbSymbolTableRecord
100
AcDbBlockTableRecord
  2
*PAPER_SPACE
340
173D6
  0
BLOCK_RECORD
  5
DEAC
330
7466
100
AcDbSymbolTableRecord
100
AcDbBlockTableRecord
  2
_OPEN
340
0
  0
BLOCK_RECORD
  5
F770
330
7466
100
AcDbSymbolTableRecord
100
AcDbBlockTableRecord
  2
_DOTSMALL
340
0
102
{BLKREFS
331
18C65
331
18C66
331
18C59
331
18C5A
331
18C4D
331
18C4E
331
18C41
331
18C42
331
18C35
331
18C36
331
18C29
331
18C2A
331
18C1D
331
18C1E
331
18C0F
331
18C10
331
18C03
331
18C04
331
18BF5
331
18BF6
331
18BE7
331
18BE8
331
18BD9
331
18BDA
331
18BCD
331
18BCE
331
2532E
331
2532F
331
25337
331
25338
331
25342
331
25343
331
2534C
331
2534D
331
25355
331
25356
331
25368
331
25369
331
25371
331
25372
331
25384
331
25385
331
253A2
331
253A3
331
253AC
331
253AD
331
253B7
331
253B8
331
253CC
331
253CD
331
253F3
331
253F4
331
25406
331
25407
331
2540F
331
25410
331
25418
331
25419
331
25421
331
25422
331
25462
331
25463
331
25483
331
25484
331
25D76
331
25D77
331
25D89
331
25D8A
331
25DA8
331
25DA9
331
25E14
331
25E15
331
25E1E
331
25E1F
331
25E28
331
25E29
331
25E32
331
25E33
331
25E3C
331
25E3D
331
25E46
331
25E47
331
25E50
331
25E51
331
26163
331
26164
331
26172
331
26173
331
2617B
331
2617C
331
26184
331
26185
331
2618D
331
2618E
331
26196
331
26197
102
}
  0
BLOCK_RECORD
  5
164B4
330
7466
100
AcDbSymbolTableRecord
100
AcDbBlockTableRecord
  2
_DOT
340
0
102
{BLKREFS
331
18C73
331
18C74
102
}
  0
BLOCK_RECORD
  5
18BC8
330
7466
100
AcDbSymbolTableRecord
100
AcDbBlockTableRecord
  2
*D3
340
0
  0
BLOCK_RECORD
  5
18BD4
330
7466
100
AcDbSymbolTableRecord
100
AcDbBlockTableRecord
  2
*D4
340
0
  0
BLOCK_RECORD
  5
18BE0
330
7466
100
AcDbSymbolTableRecord
100
AcDbBlockTableRecord
  2
*D5
340
0
  0
BLOCK_RECORD
  5
18BEE
330
7466
100
AcDbSymbolTableRecord
100
AcDbBlockTableRecord
  2
*D6
340
0
  0
BLOCK_RECORD
  5
18BFC
330
7466
100
AcDbSymbolTableRecord
100
AcDbBlockTableRecord
  2
*D7
340
0
  0
BLOCK_RECORD
  5
18C0A
330
7466
100
AcDbSymbolTableRecord
100
AcDbBlockTableRecord
  2
*D8
340
0
  0
BLOCK_RECORD
  5
18C16
330
7466
100
AcDbSymbolTableRecord
100
AcDbBlockTableRecord
  2
*D9
340
0
  0
BLOCK_RECORD
  5
18C24
330
7466
100
AcDbSymbolTableRecord
100
AcDbBlockTableRecord
  2
*D10
340
0
  0
BLOCK_RECORD
  5
18C30
330
7466
100
AcDbSymbolTableRecord
100
AcDbBlockTableRecord
  2
*D11
340
0
  0
BLOCK_RECORD
  5
18C3C
330
7466
100
AcDbSymbolTableRecord
100
AcDbBlockTableRecord
  2
*D12
340
0
  0
BLOCK_RECORD
  5
18C48
330
7466
100
AcDbSymbolTableRecord
100
AcDbBlockTableRecord
  2
*D13
340
0
  0
BLOCK_RECORD
  5
18C54
330
7466
100
AcDbSymbolTableRecord
100
AcDbBlockTableRecord
  2
*D14
340
0
  0
BLOCK_RECORD
  5
18C60
330
7466
100
AcDbSymbolTableRecord
100
AcDbBlockTableRecord
  2
*D15
340
0
  0
BLOCK_RECORD
  5
18C6C
330
7466
100
AcDbSymbolTableRecord
100
AcDbBlockTableRecord
  2
*D16
340
0
  0
BLOCK_RECORD
  5
18C7A
330
7466
100
AcDbSymbolTableRecord
100
AcDbBlockTableRecord
  2
A$C3B1A506B
340
0
  0
BLOCK_RECORD
  5
1C4CA
330
7466
100
AcDbSymbolTableRecord
100
AcDbBlockTableRecord
  2
_NONE
340
0
  0
BLOCK_RECORD
  5
24C15
330
7466
100
AcDbSymbolTableRecord
100
AcDbBlockTableRecord
  2
*D19
340
0
  0
BLOCK_RECORD
  5
24C2E
330
7466
100
AcDbSymbolTableRecord
100
AcDbBlockTableRecord
  2
*D20
340
0
  0
BLOCK_RECORD
  5
24C39
330
7466
100
AcDbSymbolTableRecord
100
AcDbBlockTableRecord
  2
*D21
340
0
  0
BLOCK_RECORD
  5
24C44
330
7466
100
AcDbSymbolTableRecord
100
AcDbBlockTableRecord
  2
*D22
340
0
  0
BLOCK_RECORD
  5
24C4F
330
7466
100
AcDbSymbolTableRecord
100
AcDbBlockTableRecord
  2
*D23
340
0
  0
BLOCK_RECORD
  5
24C5B
330
7466
100
AcDbSymbolTableRecord
100
AcDbBlockTableRecord
  2
*D24
340
0
  0
BLOCK_RECORD
  5
24C68
330
7466
100
AcDbSymbolTableRecord
100
AcDbBlockTableRecord
  2
*D25
340
0
  0
BLOCK_RECORD
  5
24C8B
330
7466
100
AcDbSymbolTableRecord
100
AcDbBlockTableRecord
  2
*D26
340
0
  0
BLOCK_RECORD
  5
24C95
330
7466
100
AcDbSymbolTableRecord
100
AcDbBlockTableRecord
  2
*D27
340
0
  0
BLOCK_RECORD
  5
24CA2
330
7466
100
AcDbSymbolTableRecord
100
AcDbBlockTableRecord
  2
*D28
340
0
  0
BLOCK_RECORD
  5
24CAE
330
7466
100
AcDbSymbolTableRecord
100
AcDbBlockTableRecord
  2
*D29
340
0
  0
BLOCK_RECORD
  5
24CBB
330
7466
100
AcDbSymbolTableRecord
100
AcDbBlockTableRecord
  2
*D30
340
0
  0
BLOCK_RECORD
  5
24CC8
330
7466
100
AcDbSymbolTableRecord
100
AcDbBlockTableRecord
  2
*D31
340
0
  0
BLOCK_RECORD
  5
24CD5
330
7466
100
AcDbSymbolTableRecord
100
AcDbBlockTableRecord
  2
*D32
340
0
  0
BLOCK_RECORD
  5
24CE2
330
7466
100
AcDbSymbolTableRecord
100
AcDbBlockTableRecord
  2
*D33
340
0
  0
BLOCK_RECORD
  5
24CFB
330
7466
100
AcDbSymbolTableRecord
100
AcDbBlockTableRecord
  2
*D34
340
0
  0
BLOCK_RECORD
  5
24D13
330
7466
100
AcDbSymbolTableRecord
100
AcDbBlockTableRecord
  2
*D35
340
0
  0
BLOCK_RECORD
  5
24D1F
330
7466
100
AcDbSymbolTableRecord
100
AcDbBlockTableRecord
  2
*D36
340
0
  0
BLOCK_RECORD
  5
24D38
330
7466
100
AcDbSymbolTableRecord
100
AcDbBlockTableRecord
  2
*D37
340
0
  0
BLOCK_RECORD
  5
24D44
330
7466
100
AcDbSymbolTableRecord
100
AcDbBlockTableRecord
  2
*D38
340
0
  0
BLOCK_RECORD
  5
24D51
330
7466
100
AcDbSymbolTableRecord
100
AcDbBlockTableRecord
  2
*D39
340
0
  0
BLOCK_RECORD
  5
256B4
330
7466
100
AcDbSymbolTableRecord
100
AcDbBlockTableRecord
  2
*D40
340
0
  0
BLOCK_RECORD
  5
256C1
330
7466
100
AcDbSymbolTableRecord
100
AcDbBlockTableRecord
  2
*D41
340
0
  0
BLOCK_RECORD
  5
25B2B
330
7466
100
AcDbSymbolTableRecord
100
AcDbBlockTableRecord
  2
*D42
340
0
  0
BLOCK_RECORD
  5
25B38
330
7466
100
AcDbSymbolTableRecord
100
AcDbBlockTableRecord
  2
*D43
340
0
  0
BLOCK_RECORD
  5
25B45
330
7466
100
AcDbSymbolTableRecord
100
AcDbBlockTableRecord
  2
*D44
340
0
  0
BLOCK_RECORD
  5
25B51
330
7466
100
AcDbSymbolTableRecord
100
AcDbBlockTableRecord
  2
*D45
340
0
  0
BLOCK_RECORD
  5
25C5C
330
7466
100
AcDbSymbolTableRecord
100
AcDbBlockTableRecord
  2
*D46
340
0
  0
BLOCK_RECORD
  5
25C6A
330
7466
100
AcDbSymbolTableRecord
100
AcDbBlockTableRecord
  2
*D47
340
0
  0
BLOCK_RECORD
  5
26113
330
7466
100
AcDbSymbolTableRecord
100
AcDbBlockTableRecord
  2
*D48
340
0
  0
BLOCK_RECORD
  5
2611F
330
7466
100
AcDbSymbolTableRecord
100
AcDbBlockTableRecord
  2
*D49
340
0
  0
BLOCK_RECORD
  5
26130
330
7466
100
AcDbSymbolTableRecord
100
AcDbBlockTableRecord
  2
*D50
340
0
  0
BLOCK_RECORD
  5
2613C
330
7466
100
AcDbSymbolTableRecord
100
AcDbBlockTableRecord
  2
*D51
340
0
  0
BLOCK_RECORD
  5
26148
330
7466
100
AcDbSymbolTableRecord
100
AcDbBlockTableRecord
  2
*D52
340
0
  0
BLOCK_RECORD
  5
26154
330
7466
100
AcDbSymbolTableRecord
100
AcDbBlockTableRecord
  2
*D53
340
0
  0
ENDTAB
  0
ENDSEC
  0
SECTION
  2
BLOCKS
  0
BLOCK
  5
7489
330
747D
100
AcDbEntity
  8
0
100
AcDbBlockBegin
  2
*MODEL_SPACE
 70
     0
 10
0.0
 20
0.0
 30
0.0
  3
*MODEL_SPACE
  1

  0
ENDBLK
  5
748A
330
747D
100
AcDbEntity
  8
0
100
AcDbBlockEnd
  0
BLOCK
  5
7487
330
747A
100
AcDbEntity
 67
     1
  8
0
100
AcDbBlockBegin
  2
*PAPER_SPACE
 70
     0
 10
0.0
 20
0.0
 30
0.0
  3
*PAPER_SPACE
  1

  0
ENDBLK
  5
7488
330
747A
100
AcDbEntity
 67
     1
  8
0
100
AcDbBlockEnd
  0
BLOCK
  5
DEAD
330
DEAC
100
AcDbEntity
  8
0
100
AcDbBlockBegin
  2
_OPEN
 70
     0
 10
0.0
 20
0.0
 30
0.0
  3
_OPEN
  1

  0
LINE
  5
DEAE
330
DEAC
100
AcDbEntity
  8
0
  6
ByBlock
 62
     0
100
AcDbLine
 10
-1.0
 20
0.1666666666666666
 30
0.0
 11
0.0
 21
0.0
 31
0.0
  0
LINE
  5
DEAF
330
DEAC
100
AcDbEntity
  8
0
  6
ByBlock
 62
     0
100
AcDbLine
 10
0.0
 20
0.0
 30
0.0
 11
-1.0
 21
-0.1666666666666666
 31
0.0
  0
LINE
  5
DEB0
330
DEAC
100
AcDbEntity
  8
0
  6
ByBlock
 62
     0
100
AcDbLine
 10
0.0
 20
0.0
 30
0.0
 11
-1.0
 21
0.0
 31
0.0
  0
ENDBLK
  5
DEB1
330
DEAC
100
AcDbEntity
  8
0
100
AcDbBlockEnd
  0
BLOCK
  5
F771
330
F770
100
AcDbEntity
  8
0
 48
50.0
100
AcDbBlockBegin
  2
_DOTSMALL
 70
     0
 10
0.0
 20
0.0
 30
0.0
  3
_DOTSMALL
  1

  0
LWPOLYLINE
  5
F772
330
F770
100
AcDbEntity
  8
0
  6
ByBlock
 62
     0
 48
50.0
100
AcDbPolyline
 90
        2
 70
     1
 43
0.5
 10
-0.0625
 20
0.0
 42
1.0
 10
0.0625
 20
0.0
 42
1.0
  0
ENDBLK
  5
F776
330
F770
100
AcDbEntity
  8
0
 48
50.0
100
AcDbBlockEnd
  0
BLOCK
  5
164BA
330
164B4
100
AcDbEntity
  8
0
 48
50.0
100
AcDbBlockBegin
  2
_DOT
 70
     0
 10
0.0
 20
0.0
 30
0.0
  3
_DOT
  1

  0
LWPOLYLINE
  5
164B5
330
164B4
100
AcDbEntity
  8
0
  6
ByBlock
 62
     0
 48
50.0
100
AcDbPolyline
 90
        2
 70
     1
 43
0.5
 10
-0.25
 20
0.0
 42
1.0
 10
0.25
 20
0.0
 42
1.0
  0
LINE
  5
164B9
330
164B4
100
AcDbEntity
  8
0
  6
ByBlock
 62
     0
 48
50.0
100
AcDbLine
 10
-0.5
 20
0.0
 30
0.0
 11
-1.0
 21
0.0
 31
0.0
  0
ENDBLK
  5
164BB
330
164B4
100
AcDbEntity
  8
0
 48
50.0
100
AcDbBlockEnd
  0
BLOCK
  5
18BC9
330
18BC8
100
AcDbEntity
  8
0
 48
50.0
100
AcDbBlockBegin
  2
*D3
 70
     1
 10
0.0
 20
0.0
 30
0.0
  3
*D3
  1

  0
LINE
  5
18BCA
330
18BC8
100
AcDbEntity
  8
寸法
 62
     0
 48
50.0
370
    -2
100
AcDbLine
 10
7649.896575106999
 20
9636.123139034717
 30
0.0
 11
8702.429862581047
 21
9636.123139034717
 31
0.0
  0
LINE
  5
18BCB
330
18BC8
100
AcDbEntity
  8
寸法
 62
     0
 48
50.0
370
    -2
100
AcDbLine
 10
7649.896575106973
 20
7846.123139034709
 30
0.0
 11
8702.429862581047
 21
7846.123139034709
 31
0.0
  0
LINE
  5
18BCC
330
18BC8
100
AcDbEntity
  8
寸法
 62
     0
 48
50.0
370
    -2
100
AcDbLine
 10
8642.429862581046
 20
9636.123139034717
 30
0.0
 11
8642.429862581046
 21
7846.123139034709
 31
0.0
  0
INSERT
  5
18BCD
330
18BC8
100
AcDbEntity
  8
寸法
 62
     0
 48
50.0
370
    -2
100
AcDbBlockReference
  2
_DOTSMALL
 10
8642.429862581046
 20
9636.123139034717
 30
0.0
 41
100.0
 42
100.0
 43
100.0
 50
90.0
  0
INSERT
  5
18BCE
330
18BC8
100
AcDbEntity
  8
寸法
 62
     0
 48
50.0
370
    -2
100
AcDbBlockReference
  2
_DOTSMALL
 10
8642.429862581046
 20
7846.123139034709
 30
0.0
 41
100.0
 42
100.0
 43
100.0
 50
270.0
  0
MTEXT
  5
18BCF
330
18BC8
100
AcDbEntity
  8
寸法
 62
     7
 48
50.0
100
AcDbMText
 10
8542.429862581045
 20
8741.123139034712
 30
0.0
 40
120.0
 41
0.0
 71
     5
 72
     1
  1
\A1;1790
  7
STYLE1
 11
0.0000000000000001
 21
1.0
 31
0.0
 73
     1
 44
1.0
1001
ACAD
1000
MTEXTBEGIN
1070
    73
1070
     1
1070
    44
1040
1.0
1070
    74
1070
     0
1000
MTEXTEND
  0
POINT
  5
18BD0
330
18BC8
100
AcDbEntity
  8
DEFPOINTS
 62
     0
 48
50.0
100
AcDbPoint
 10
7629.896575106998
 20
9636.123139034717
 30
0.0
  0
POINT
  5
18BD1
330
18BC8
100
AcDbEntity
  8
DEFPOINTS
 62
     0
 48
50.0
100
AcDbPoint
 10
7629.896575106974
 20
7846.123139034709
 30
0.0
  0
POINT
  5
18BD2
330
18BC8
100
AcDbEntity
  8
DEFPOINTS
 62
     0
 48
50.0
100
AcDbPoint
 10
8642.429862581046
 20
7846.123139034709
 30
0.0
  0
ENDBLK
  5
18BD3
330
18BC8
100
AcDbEntity
  8
0
 48
50.0
100
AcDbBlockEnd
  0
BLOCK
  5
18BD5
330
18BD4
100
AcDbEntity
  8
0
 48
50.0
100
AcDbBlockBegin
  2
*D4
 70
     1
 10
0.0
 20
0.0
 30
0.0
  3
*D4
  1

  0
LINE
  5
18BD6
330
18BD4
100
AcDbEntity
  8
寸法
 62
     0
 48
50.0
370
    -2
100
AcDbLine
 10
4214.896575106998
 20
9656.123139034622
 30
0.0
 11
4214.896575106998
 21
10211.93135865972
 31
0.0
  0
LINE
  5
18BD7
330
18BD4
100
AcDbEntity
  8
寸法
 62
     0
 48
50.0
370
    -2
100
AcDbLine
 10
7574.896575106999
 20
9656.123139034718
 30
0.0
 11
7574.896575106999
 21
10211.93135865972
 31
0.0
  0
LINE
  5
18BD8
330
18BD4
100
AcDbEntity
  8
寸法
 62
     0
 48
50.0
370
    -2
100
AcDbLine
 10
4214.896575106998
 20
10151.93135865972
 30
0.0
 11
7574.896575106999
 21
10151.93135865972
 31
0.0
  0
INSERT
  5
18BD9
330
18BD4
100
AcDbEntity
  8
寸法
 62
     0
 48
50.0
370
    -2
100
AcDbBlockReference
  2
_DOTSMALL
 10
4214.896575106998
 20
10151.93135865972
 30
0.0
 41
100.0
 42
100.0
 43
100.0
 50
180.0
  0
INSERT
  5
18BDA
330
18BD4
100
AcDbEntity
  8
寸法
 62
     0
 48
50.0
370
    -2
100
AcDbBlockReference
  2
_DOTSMALL
 10
7574.896575106999
 20
10151.93135865972
 30
0.0
 41
100.0
 42
100.0
 43
100.0
  0
MTEXT
  5
18BDB
330
18BD4
100
AcDbEntity
  8
寸法
 62
     7
 48
50.0
100
AcDbMText
 10
5894.896575106997
 20
10251.94316968334
 30
0.0
 40
120.0
 41
0.0
 71
     5
 72
     1
  1
\A1;8X420=3360
  7
STYLE1
 73
     1
 44
1.0
1001
ACAD
1000
MTEXTBEGIN
1070
    73
1070
     1
1070
    44
1040
1.0
1070
    74
1070
     0
1000
MTEXTEND
  0
POINT
  5
18BDC
330
18BD4
100
AcDbEntity
  8
DEFPOINTS
 62
     0
 48
50.0
100
AcDbPoint
 10
4214.896575106998
 20
9636.123139034623
 30
0.0
  0
POINT
  5
18BDD
330
18BD4
100
AcDbEntity
  8
DEFPOINTS
 62
     0
 48
50.0
100
AcDbPoint
 10
7574.896575106999
 20
9636.123139034717
 30
0.0
  0
POINT
  5
18BDE
330
18BD4
100
AcDbEntity
  8
DEFPOINTS
 62
     0
 48
50.0
100
AcDbPoint
 10
7574.896575106999
 20
10151.93135865972
 30
0.0
  0
ENDBLK
  5
18BDF
330
18BD4
100
AcDbEntity
  8
0
 48
50.0
100
AcDbBlockEnd
  0
BLOCK
  5
18BE1
330
18BE0
100
AcDbEntity
  8
0
 48
50.0
100
AcDbBlockBegin
  2
*D5
 70
     1
 10
0.0
 20
0.0
 30
0.0
  3
*D5
  1

  0
LINE
  5
18BE2
330
18BE0
100
AcDbEntity
  8
寸法
 62
     0
 48
50.0
370
    -2
100
AcDbLine
 10
7574.896575106999
 20
9656.123139034718
 30
0.0
 11
7574.896575106999
 21
10211.9313586597
 31
0.0
  0
LINE
  5
18BE3
330
18BE0
100
AcDbEntity
  8
寸法
 62
     0
 48
50.0
370
    -2
100
AcDbLine
 10
7629.896575106998
 20
9656.123139034718
 30
0.0
 11
7629.896575106998
 21
10211.9313586597
 31
0.0
  0
LINE
  5
18BE4
330
18BE0
100
AcDbEntity
  8
寸法
 62
     0
 48
50.0
370
    -2
100
AcDbLine
 10
7574.896575106999
 20
10151.9313586597
 30
0.0
 11
7474.896575106999
 21
10151.9313586597
 31
0.0
  0
LINE
  5
18BE5
330
18BE0
100
AcDbEntity
  8
寸法
 62
     0
 48
50.0
370
    -2
100
AcDbLine
 10
7629.896575106998
 20
10151.9313586597
 30
0.0
 11
8046.867137855477
 21
10151.9313586597
 31
0.0
  0
LINE
  5
18BE6
330
18BE0
100
AcDbEntity
  8
寸法
 62
     0
 48
50.0
370
    -2
100
AcDbLine
 10
7574.896575106999
 20
10151.9313586597
 30
0.0
 11
7629.896575106998
 21
10151.9313586597
 31
0.0
  0
INSERT
  5
18BE7
330
18BE0
100
AcDbEntity
  8
寸法
 62
     0
 48
50.0
370
    -2
100
AcDbBlockReference
  2
_DOTSMALL
 10
7574.896575106999
 20
10151.9313586597
 30
0.0
 41
100.0
 42
100.0
 43
100.0
  0
INSERT
  5
18BE8
330
18BE0
100
AcDbEntity
  8
寸法
 62
     0
 48
50.0
370
    -2
100
AcDbBlockReference
  2
_DOTSMALL
 10
7629.896575106998
 20
10151.9313586597
 30
0.0
 41
100.0
 42
100.0
 43
100.0
 50
180.0
  0
MTEXT
  5
18BE9
330
18BE0
100
AcDbEntity
  8
寸法
 62
     7
 48
50.0
100
AcDbMText
 10
7938.381856481237
 20
10251.9313586597
 30
0.0
 40
120.0
 41
0.0
 71
     5
 72
     1
  1
\A1;55
  7
STYLE1
 73
     1
 44
1.0
1001
ACAD
1000
MTEXTBEGIN
1070
    73
1070
     1
1070
    44
1040
1.0
1070
    74
1070
     0
1000
MTEXTEND
  0
POINT
  5
18BEA
330
18BE0
100
AcDbEntity
  8
DEFPOINTS
 62
     0
 48
50.0
100
AcDbPoint
 10
7574.896575106999
 20
9636.123139034717
 30
0.0
  0
POINT
  5
18BEB
330
18BE0
100
AcDbEntity
  8
DEFPOINTS
 62
     0
 48
50.0
100
AcDbPoint
 10
7629.896575106998
 20
9636.123139034717
 30
0.0
  0
POINT
  5
18BEC
330
18BE0
100
AcDbEntity
  8
DEFPOINTS
 62
     0
 48
50.0
100
AcDbPoint
 10
7629.896575106998
 20
10151.9313586597
 30
0.0
  0
ENDBLK
  5
18BED
330
18BE0
100
AcDbEntity
  8
0
 48
50.0
100
AcDbBlockEnd
  0
BLOCK
  5
18BEF
330
18BEE
100
AcDbEntity
  8
0
 48
50.0
100
AcDbBlockBegin
  2
*D6
 70
     1
 10
0.0
 20
0.0
 30
0.0
  3
*D6
  1

  0
LINE
  5
18BF0
330
18BEE
100
AcDbEntity
  8
寸法
 62
     0
 48
50.0
370
    -2
100
AcDbLine
 10
7649.896575106999
 20
9636.123139034717
 30
0.0
 11
8337.32292084141
 21
9636.123139034717
 31
0.0
  0
LINE
  5
18BF1
330
18BEE
100
AcDbEntity
  8
寸法
 62
     0
 48
50.0
370
    -2
100
AcDbLine
 10
7649.896575106999
 20
9581.123139034721
 30
0.0
 11
8337.32292084141
 21
9581.123139034721
 31
0.0
  0
LINE
  5
18BF2
330
18BEE
100
AcDbEntity
  8
寸法
 62
     0
 48
50.0
370
    -2
100
AcDbLine
 10
8277.322920841411
 20
9581.123139034721
 30
0.0
 11
8277.322920841411
 21
9481.123139034719
 31
0.0
  0
LINE
  5
18BF3
330
18BEE
100
AcDbEntity
  8
寸法
 62
     0
 48
50.0
370
    -2
100
AcDbLine
 10
8277.322920841411
 20
9636.123139034717
 30
0.0
 11
8277.322920841411
 21
10053.09370178319
 31
0.0
  0
LINE
  5
18BF4
330
18BEE
100
AcDbEntity
  8
寸法
 62
     0
 48
50.0
370
    -2
100
AcDbLine
 10
8277.322920841411
 20
9581.123139034721
 30
0.0
 11
8277.322920841411
 21
9636.123139034717
 31
0.0
  0
INSERT
  5
18BF5
330
18BEE
100
AcDbEntity
  8
寸法
 62
     0
 48
50.0
370
    -2
100
AcDbBlockReference
  2
_DOTSMALL
 10
8277.322920841411
 20
9581.123139034721
 30
0.0
 41
100.0
 42
100.0
 43
100.0
 50
90.0
  0
INSERT
  5
18BF6
330
18BEE
100
AcDbEntity
  8
寸法
 62
     0
 48
50.0
370
    -2
100
AcDbBlockReference
  2
_DOTSMALL
 10
8277.322920841411
 20
9636.123139034717
 30
0.0
 41
100.0
 42
100.0
 43
100.0
 50
270.0
  0
MTEXT
  5
18BF7
330
18BEE
100
AcDbEntity
  8
寸法
 62
     7
 48
50.0
100
AcDbMText
 10
8177.32292084141
 20
9944.608420408957
 30
0.0
 40
120.0
 41
0.0
 71
     5
 72
     1
  1
\A1;55
  7
STYLE1
 11
0.0000000000000001
 21
1.0
 31
0.0
 73
     1
 44
1.0
1001
ACAD
1000
MTEXTBEGIN
1070
    73
1070
     1
1070
    44
1040
1.0
1070
    74
1070
     0
1000
MTEXTEND
  0
POINT
  5
18BF8
330
18BEE
100
AcDbEntity
  8
DEFPOINTS
 62
     0
 48
50.0
100
AcDbPoint
 10
7629.896575106998
 20
9636.123139034717
 30
0.0
  0
POINT
  5
18BF9
330
18BEE
100
AcDbEntity
  8
DEFPOINTS
 62
     0
 48
50.0
100
AcDbPoint
 10
7629.896575106998
 20
9581.123139034721
 30
0.0
  0
POINT
  5
18BFA
330
18BEE
100
AcDbEntity
  8
DEFPOINTS
 62
     0
 48
50.0
100
AcDbPoint
 10
8277.322920841411
 20
9581.123139034721
 30
0.0
  0
ENDBLK
  5
18BFB
330
18BEE
100
AcDbEntity
  8
0
 48
50.0
100
AcDbBlockEnd
  0
BLOCK
  5
18BFD
330
18BFC
100
AcDbEntity
  8
0
 48
50.0
100
AcDbBlockBegin
  2
*D7
 70
     1
 10
0.0
 20
0.0
 30
0.0
  3
*D7
  1

  0
LINE
  5
18BFE
330
18BFC
100
AcDbEntity
  8
寸法
 62
     0
 48
50.0
370
    -2
100
AcDbLine
 10
4159.896575106963
 20
9656.123139034622
 30
0.0
 11
4159.896575106963
 21
10211.9313586596
 31
0.0
  0
LINE
  5
18BFF
330
18BFC
100
AcDbEntity
  8
寸法
 62
     0
 48
50.0
370
    -2
100
AcDbLine
 10
4214.896575106998
 20
9656.123139034622
 30
0.0
 11
4214.896575106998
 21
10211.9313586596
 31
0.0
  0
LINE
  5
18C00
330
18BFC
100
AcDbEntity
  8
寸法
 62
     0
 48
50.0
370
    -2
100
AcDbLine
 10
4214.896575106998
 20
10151.9313586596
 30
0.0
 11
4314.896575106998
 21
10151.9313586596
 31
0.0
  0
LINE
  5
18C01
330
18BFC
100
AcDbEntity
  8
寸法
 62
     0
 48
50.0
370
    -2
100
AcDbLine
 10
4159.896575106963
 20
10151.9313586596
 30
0.0
 11
3742.926012358486
 21
10151.9313586596
 31
0.0
  0
LINE
  5
18C02
330
18BFC
100
AcDbEntity
  8
寸法
 62
     0
 48
50.0
370
    -2
100
AcDbLine
 10
4214.896575106998
 20
10151.9313586596
 30
0.0
 11
4159.896575106963
 21
10151.9313586596
 31
0.0
  0
INSERT
  5
18C03
330
18BFC
100
AcDbEntity
  8
寸法
 62
     0
 48
50.0
370
    -2
100
AcDbBlockReference
  2
_DOTSMALL
 10
4214.896575106998
 20
10151.9313586596
 30
0.0
 41
100.0
 42
100.0
 43
100.0
 50
180.0
  0
INSERT
  5
18C04
330
18BFC
100
AcDbEntity
  8
寸法
 62
     0
 48
50.0
370
    -2
100
AcDbBlockReference
  2
_DOTSMALL
 10
4159.896575106963
 20
10151.9313586596
 30
0.0
 41
100.0
 42
100.0
 43
100.0
  0
MTEXT
  5
18C05
330
18BFC
100
AcDbEntity
  8
寸法
 62
     7
 48
50.0
100
AcDbMText
 10
3851.411293732725
 20
10251.9313586596
 30
0.0
 40
120.0
 41
0.0
 71
     5
 72
     1
  1
\A1;55
  7
STYLE1
 73
     1
 44
1.0
1001
ACAD
1000
MTEXTBEGIN
1070
    73
1070
     1
1070
    44
1040
1.0
1070
    74
1070
     0
1000
MTEXTEND
  0
POINT
  5
18C06
330
18BFC
100
AcDbEntity
  8
DEFPOINTS
 62
     0
 48
50.0
100
AcDbPoint
 10
4159.896575106963
 20
9636.123139034623
 30
0.0
  0
POINT
  5
18C07
330
18BFC
100
AcDbEntity
  8
DEFPOINTS
 62
     0
 48
50.0
100
AcDbPoint
 10
4214.896575106998
 20
9636.123139034623
 30
0.0
  0
POINT
  5
18C08
330
18BFC
100
AcDbEntity
  8
DEFPOINTS
 62
     0
 48
50.0
100
AcDbPoint
 10
4214.896575106998
 20
10151.9313586596
 30
0.0
  0
ENDBLK
  5
18C09
330
18BFC
100
AcDbEntity
  8
0
 48
50.0
100
AcDbBlockEnd
  0
BLOCK
  5
18C0B
330
18C0A
100
AcDbEntity
  8
0
 48
50.0
100
AcDbBlockBegin
  2
*D8
 70
     1
 10
0.0
 20
0.0
 30
0.0
  3
*D8
  1

  0
LINE
  5
18C0C
330
18C0A
100
AcDbEntity
  8
寸法
 62
     0
 48
50.0
370
    -2
100
AcDbLine
 10
4159.896575106992
 20
7826.123139034546
 30
0.0
 11
4159.896575106992
 21
6804.372203245664
 31
0.0
  0
LINE
  5
18C0D
330
18C0A
100
AcDbEntity
  8
寸法
 62
     0
 48
50.0
370
    -2
100
AcDbLine
 10
7629.896575106974
 20
7826.123139034674
 30
0.0
 11
7629.896575106974
 21
6804.372203245664
 31
0.0
  0
LINE
  5
18C0E
330
18C0A
100
AcDbEntity
  8
寸法
 62
     0
 48
50.0
370
    -2
100
AcDbLine
 10
4159.896575106992
 20
6864.372203245665
 30
0.0
 11
7629.896575106974
 21
6864.372203245665
 31
0.0
  0
INSERT
  5
18C0F
330
18C0A
100
AcDbEntity
  8
寸法
 62
     0
 48
50.0
370
    -2
100
AcDbBlockReference
  2
_DOTSMALL
 10
4159.896575106992
 20
6864.372203245665
 30
0.0
 41
100.0
 42
100.0
 43
100.0
 50
180.0
  0
INSERT
  5
18C10
330
18C0A
100
AcDbEntity
  8
寸法
 62
     0
 48
50.0
370
    -2
100
AcDbBlockReference
  2
_DOTSMALL
 10
7629.896575106974
 20
6864.372203245665
 30
0.0
 41
100.0
 42
100.0
 43
100.0
  0
MTEXT
  5
18C11
330
18C0A
100
AcDbEntity
  8
寸法
 62
     7
 48
50.0
100
AcDbMText
 10
5911.12376113973
 20
6964.372203245665
 30
0.0
 40
120.0
 41
0.0
 71
     5
 72
     1
  1
\A1;3470
  7
STYLE1
 73
     1
 44
1.0
1001
ACAD
1000
MTEXTBEGIN
1070
    73
1070
     1
1070
    44
1040
1.0
1070
    74
1070
     0
1000
MTEXTEND
  0
POINT
  5
18C12
330
18C0A
100
AcDbEntity
  8
DEFPOINTS
 62
     0
 48
50.0
100
AcDbPoint
 10
4159.896575106992
 20
7846.123139034546
 30
0.0
  0
POINT
  5
18C13
330
18C0A
100
AcDbEntity
  8
DEFPOINTS
 62
     0
 48
50.0
100
AcDbPoint
 10
7629.896575106974
 20
7846.123139034673
 30
0.0
  0
POINT
  5
18C14
330
18C0A
100
AcDbEntity
  8
DEFPOINTS
 62
     0
 48
50.0
100
AcDbPoint
 10
7629.896575106974
 20
6864.372203245665
 30
0.0
  0
ENDBLK
  5
18C15
330
18C0A
100
AcDbEntity
  8
0
 48
50.0
100
AcDbBlockEnd
  0
BLOCK
  5
18C17
330
18C16
100
AcDbEntity
  8
0
 48
50.0
100
AcDbBlockBegin
  2
*D9
 70
     1
 10
0.0
 20
0.0
 30
0.0
  3
*D9
  1

  0
LINE
  5
18C18
330
18C16
100
AcDbEntity
  8
寸法
 62
     0
 48
50.0
370
    -2
100
AcDbLine
 10
7649.896575106973
 20
7901.123139034706
 30
0.0
 11
8337.322920841385
 21
7901.123139034706
 31
0.0
  0
LINE
  5
18C19
330
18C16
100
AcDbEntity
  8
寸法
 62
     0
 48
50.0
370
    -2
100
AcDbLine
 10
7649.896575106973
 20
7846.123139034709
 30
0.0
 11
8337.322920841385
 21
7846.123139034709
 31
0.0
  0
LINE
  5
18C1A
330
18C16
100
AcDbEntity
  8
寸法
 62
     0
 48
50.0
370
    -2
100
AcDbLine
 10
8277.322920841385
 20
7901.123139034706
 30
0.0
 11
8277.322920841385
 21
8001.123139034707
 31
0.0
  0
LINE
  5
18C1B
330
18C16
100
AcDbEntity
  8
寸法
 62
     0
 48
50.0
370
    -2
100
AcDbLine
 10
8277.322920841385
 20
7846.123139034709
 30
0.0
 11
8277.322920841385
 21
7429.152576286229
 31
0.0
  0
LINE
  5
18C1C
330
18C16
100
AcDbEntity
  8
寸法
 62
     0
 48
50.0
370
    -2
100
AcDbLine
 10
8277.322920841385
 20
7901.123139034706
 30
0.0
 11
8277.322920841385
 21
7846.123139034709
 31
0.0
  0
INSERT
  5
18C1D
330
18C16
100
AcDbEntity
  8
寸法
 62
     0
 48
50.0
370
    -2
100
AcDbBlockReference
  2
_DOTSMALL
 10
8277.322920841385
 20
7901.123139034706
 30
0.0
 41
100.0
 42
100.0
 43
100.0
 50
270.0
  0
INSERT
  5
18C1E
330
18C16
100
AcDbEntity
  8
寸法
 62
     0
 48
50.0
370
    -2
100
AcDbBlockReference
  2
_DOTSMALL
 10
8277.322920841385
 20
7846.123139034709
 30
0.0
 41
100.0
 42
100.0
 43
100.0
 50
90.0
  0
MTEXT
  5
18C1F
330
18C16
100
AcDbEntity
  8
寸法
 62
     7
 48
50.0
100
AcDbMText
 10
8177.322920841383
 20
7537.637857660469
 30
0.0
 40
120.0
 41
0.0
 71
     5
 72
     1
  1
\A1;55
  7
STYLE1
 11
0.0000000000000001
 21
1.0
 31
0.0
 73
     1
 44
1.0
1001
ACAD
1000
MTEXTBEGIN
1070
    73
1070
     1
1070
    44
1040
1.0
1070
    74
1070
     0
1000
MTEXTEND
  0
POINT
  5
18C20
330
18C16
100
AcDbEntity
  8
DEFPOINTS
 62
     0
 48
50.0
100
AcDbPoint
 10
7629.896575106974
 20
7901.123139034706
 30
0.0
  0
POINT
  5
18C21
330
18C16
100
AcDbEntity
  8
DEFPOINTS
 62
     0
 48
50.0
100
AcDbPoint
 10
7629.896575106974
 20
7846.123139034709
 30
0.0
  0
POINT
  5
18C22
330
18C16
100
AcDbEntity
  8
DEFPOINTS
 62
     0
 48
50.0
100
AcDbPoint
 10
8277.322920841385
 20
7846.123139034709
 30
0.0
  0
ENDBLK
  5
18C23
330
18C16
100
AcDbEntity
  8
0
 48
50.0
100
AcDbBlockEnd
  0
BLOCK
  5
18C25
330
18C24
100
AcDbEntity
  8
0
 48
50.0
100
AcDbBlockBegin
  2
*D10
 70
     1
 10
0.0
 20
0.0
 30
0.0
  3
*D10
  1

  0
LINE
  5
18C26
330
18C24
100
AcDbEntity
  8
寸法
 62
     0
 48
50.0
370
    -2
100
AcDbLine
 10
6533.037591258376
 20
9136.123139034728
 30
0.0
 11
6465.083950562664
 21
8882.516699399049
 31
0.0
  0
LINE
  5
18C27
330
18C24
100
AcDbEntity
  8
寸法
 62
     0
 48
50.0
370
    -2
100
AcDbLine
 10
7596.037591258388
 20
9136.123139034721
 30
0.0
 11
7528.083950562677
 21
8882.516699399049
 31
0.0
  0
LINE
  5
18C28
330
18C24
100
AcDbEntity
  8
寸法
 62
     0
 48
50.0
370
    -2
100
AcDbLine
 10
6481.160902108531
 20
8942.51669939905
 30
0.0
 11
7544.160902108544
 21
8942.51669939905
 31
0.0
  0
INSERT
  5
18C29
330
18C24
100
AcDbEntity
  8
寸法
 62
     0
 48
50.0
370
    -2
100
AcDbBlockReference
  2
_DOTSMALL
 10
6481.160902108531
 20
8942.51669939905
 30
0.0
 41
100.0
 42
100.0
 43
100.0
 50
180.0
  0
INSERT
  5
18C2A
330
18C24
100
AcDbEntity
  8
寸法
 62
     0
 48
50.0
370
    -2
100
AcDbBlockReference
  2
_DOTSMALL
 10
7544.160902108544
 20
8942.51669939905
 30
0.0
 41
100.0
 42
100.0
 43
100.0
  0
MTEXT
  5
18C2B
330
18C24
100
AcDbEntity
  8
寸法
 62
     7
 48
50.0
100
AcDbMText
 10
7061.28653022935
 20
9042.516699399049
 30
0.0
 40
120.0
 41
0.0
 71
     5
 72
     1
  1
\A1;1063
  7
STYLE1
 73
     1
 44
1.0
1001
ACAD
1000
MTEXTBEGIN
1070
    73
1070
     1
1070
    44
1040
1.0
1070
    74
1070
     0
1000
MTEXTEND
  0
POINT
  5
18C2C
330
18C24
100
AcDbEntity
  8
DEFPOINTS
 62
     0
 48
50.0
100
AcDbPoint
 10
6538.396575106998
 20
9156.123139034727
 30
0.0
  0
POINT
  5
18C2D
330
18C24
100
AcDbEntity
  8
DEFPOINTS
 62
     0
 48
50.0
100
AcDbPoint
 10
7601.39657510701
 20
9156.12313903472
 30
0.0
  0
POINT
  5
18C2E
330
18C24
100
AcDbEntity
  8
DEFPOINTS
 62
     0
 48
50.0
100
AcDbPoint
 10
7544.160902108544
 20
8942.51669939905
 30
0.0
  0
ENDBLK
  5
18C2F
330
18C24
100
AcDbEntity
  8
0
 48
50.0
100
AcDbBlockEnd
  0
BLOCK
  5
18C31
330
18C30
100
AcDbEntity
  8
0
 48
50.0
100
AcDbBlockBegin
  2
*D11
 70
     1
 10
0.0
 20
0.0
 30
0.0
  3
*D11
  1

  0
LINE
  5
18C32
330
18C30
100
AcDbEntity
  8
寸法
 62
     0
 48
50.0
370
    -2
100
AcDbLine
 10
7621.396575106999
 20
9600.764155186094
 30
0.0
 11
8016.754300969024
 21
9494.828371819961
 31
0.0
  0
LINE
  5
18C33
330
18C30
100
AcDbEntity
  8
寸法
 62
     0
 48
50.0
370
    -2
100
AcDbLine
 10
7621.396575106999
 20
9150.764155186099
 30
0.0
 11
8016.754300969024
 21
9044.828371819964
 31
0.0
  0
LINE
  5
18C34
330
18C30
100
AcDbEntity
  8
寸法
 62
     0
 48
50.0
370
    -2
100
AcDbLine
 10
7956.754300969024
 20
9510.905323365827
 30
0.0
 11
7956.754300969024
 21
9060.90532336583
 31
0.0
  0
INSERT
  5
18C35
330
18C30
100
AcDbEntity
  8
寸法
 62
     0
 48
50.0
370
    -2
100
AcDbBlockReference
  2
_DOTSMALL
 10
7956.754300969024
 20
9510.905323365827
 30
0.0
 41
100.0
 42
100.0
 43
100.0
 50
90.0
  0
INSERT
  5
18C36
330
18C30
100
AcDbEntity
  8
寸法
 62
     0
 48
50.0
370
    -2
100
AcDbBlockReference
  2
_DOTSMALL
 10
7956.754300969024
 20
9060.90532336583
 30
0.0
 41
100.0
 42
100.0
 43
100.0
 50
270.0
  0
MTEXT
  5
18C37
330
18C30
100
AcDbEntity
  8
寸法
 62
     7
 48
50.0
100
AcDbMText
 10
7856.754300969022
 20
9285.905323365829
 30
0.0
 40
120.0
 41
0.0
 71
     5
 72
     1
  1
\A1;450
  7
STYLE1
 11
0.0000000000000001
 21
1.0
 31
0.0
 73
     1
 44
1.0
1001
ACAD
1000
MTEXTBEGIN
1070
    73
1070
     1
1070
    44
1040
1.0
1070
    74
1070
     0
1000
MTEXTEND
  0
POINT
  5
18C38
330
18C30
100
AcDbEntity
  8
DEFPOINTS
 62
     0
 48
50.0
100
AcDbPoint
 10
7601.396575106999
 20
9606.123139034718
 30
0.0
  0
POINT
  5
18C39
330
18C30
100
AcDbEntity
  8
DEFPOINTS
 62
     0
 48
50.0
100
AcDbPoint
 10
7601.396575106999
 20
9156.12313903472
 30
0.0
  0
POINT
  5
18C3A
330
18C30
100
AcDbEntity
  8
DEFPOINTS
 62
     0
 48
50.0
100
AcDbPoint
 10
7956.754300969024
 20
9060.90532336583
 30
0.0
  0
ENDBLK
  5
18C3B
330
18C30
100
AcDbEntity
  8
0
 48
50.0
100
AcDbBlockEnd
  0
BLOCK
  5
18C3D
330
18C3C
100
AcDbEntity
  8
0
 48
50.0
100
AcDbBlockBegin
  2
*D12
 70
     1
 10
0.0
 20
0.0
 30
0.0
  3
*D12
  1

  0
LINE
  5
18C3E
330
18C3C
100
AcDbEntity
  8
寸法
 62
     0
 48
50.0
370
    -2
100
AcDbLine
 10
7649.896575106999
 20
9581.123139034721
 30
0.0
 11
8337.32292084141
 21
9581.123139034721
 31
0.0
  0
LINE
  5
18C3F
330
18C3C
100
AcDbEntity
  8
寸法
 62
     0
 48
50.0
370
    -2
100
AcDbLine
 10
7649.896575106973
 20
7901.123139034706
 30
0.0
 11
8337.32292084141
 21
7901.123139034706
 31
0.0
  0
LINE
  5
18C40
330
18C3C
100
AcDbEntity
  8
寸法
 62
     0
 48
50.0
370
    -2
100
AcDbLine
 10
8277.322920841411
 20
9581.123139034721
 30
0.0
 11
8277.322920841411
 21
7901.123139034706
 31
0.0
  0
INSERT
  5
18C41
330
18C3C
100
AcDbEntity
  8
寸法
 62
     0
 48
50.0
370
    -2
100
AcDbBlockReference
  2
_DOTSMALL
 10
8277.322920841411
 20
9581.123139034721
 30
0.0
 41
100.0
 42
100.0
 43
100.0
 50
90.0
  0
INSERT
  5
18C42
330
18C3C
100
AcDbEntity
  8
寸法
 62
     0
 48
50.0
370
    -2
100
AcDbBlockReference
  2
_DOTSMALL
 10
8277.322920841411
 20
7901.123139034706
 30
0.0
 41
100.0
 42
100.0
 43
100.0
 50
270.0
  0
MTEXT
  5
18C43
330
18C3C
100
AcDbEntity
  8
寸法
 62
     7
 48
50.0
100
AcDbMText
 10
8177.311109817788
 20
8741.123139034712
 30
0.0
 40
120.0
 41
0.0
 71
     5
 72
     1
  1
\A1;4X420=1680
  7
STYLE1
 11
0.0000000000000001
 21
1.0
 31
0.0
 73
     1
 44
1.0
1001
ACAD
1000
MTEXTBEGIN
1070
    73
1070
     1
1070
    44
1040
1.0
1070
    74
1070
     0
1000
MTEXTEND
  0
POINT
  5
18C44
330
18C3C
100
AcDbEntity
  8
DEFPOINTS
 62
     0
 48
50.0
100
AcDbPoint
 10
7629.896575106998
 20
9581.123139034721
 30
0.0
  0
POINT
  5
18C45
330
18C3C
100
AcDbEntity
  8
DEFPOINTS
 62
     0
 48
50.0
100
AcDbPoint
 10
7629.896575106974
 20
7901.123139034706
 30
0.0
  0
POINT
  5
18C46
330
18C3C
100
AcDbEntity
  8
DEFPOINTS
 62
     0
 48
50.0
100
AcDbPoint
 10
8277.322920841411
 20
7901.123139034706
 30
0.0
  0
ENDBLK
  5
18C47
330
18C3C
100
AcDbEntity
  8
0
 48
50.0
100
AcDbBlockEnd
  0
BLOCK
  5
18C49
330
18C48
100
AcDbEntity
  8
0
 48
50.0
100
AcDbBlockBegin
  2
*D13
 70
     1
 10
0.0
 20
0.0
 30
0.0
  3
*D13
  1

  0
LINE
  5
18C4A
330
18C48
100
AcDbEntity
  8
寸法
 62
     0
 48
50.0
370
    -2
100
AcDbLine
 10
4183.037591258377
 20
9136.123139034619
 30
0.0
 11
4115.083950562663
 21
8882.516699398941
 31
0.0
  0
LINE
  5
18C4B
330
18C48
100
AcDbEntity
  8
寸法
 62
     0
 48
50.0
370
    -2
100
AcDbLine
 10
5246.037591258307
 20
9136.123139034671
 30
0.0
 11
5178.08395056258
 21
8882.516699398941
 31
0.0
  0
LINE
  5
18C4C
330
18C48
100
AcDbEntity
  8
寸法
 62
     0
 48
50.0
370
    -2
100
AcDbLine
 10
4131.160902108532
 20
8942.516699398941
 30
0.0
 11
5194.160902108448
 21
8942.516699398941
 31
0.0
  0
INSERT
  5
18C4D
330
18C48
100
AcDbEntity
  8
寸法
 62
     0
 48
50.0
370
    -2
100
AcDbBlockReference
  2
_DOTSMALL
 10
4131.160902108532
 20
8942.516699398941
 30
0.0
 41
100.0
 42
100.0
 43
100.0
 50
180.0
  0
INSERT
  5
18C4E
330
18C48
100
AcDbEntity
  8
寸法
 62
     0
 48
50.0
370
    -2
100
AcDbBlockReference
  2
_DOTSMALL
 10
5194.160902108448
 20
8942.516699398941
 30
0.0
 41
100.0
 42
100.0
 43
100.0
  0
MTEXT
  5
18C4F
330
18C48
100
AcDbEntity
  8
寸法
 62
     7
 48
50.0
100
AcDbMText
 10
4658.986452655306
 20
9042.516699398941
 30
0.0
 40
120.0
 41
0.0
 71
     5
 72
     1
  1
\A1;1063
  7
STYLE1
 73
     1
 44
1.0
1001
ACAD
1000
MTEXTBEGIN
1070
    73
1070
     1
1070
    44
1040
1.0
1070
    74
1070
     0
1000
MTEXTEND
  0
POINT
  5
18C50
330
18C48
100
AcDbEntity
  8
DEFPOINTS
 62
     0
 48
50.0
100
AcDbPoint
 10
4188.396575106999
 20
9156.123139034617
 30
0.0
  0
POINT
  5
18C51
330
18C48
100
AcDbEntity
  8
DEFPOINTS
 62
     0
 48
50.0
100
AcDbPoint
 10
5251.396575106929
 20
9156.123139034672
 30
0.0
  0
POINT
  5
18C52
330
18C48
100
AcDbEntity
  8
DEFPOINTS
 62
     0
 48
50.0
100
AcDbPoint
 10
5194.160902108448
 20
8942.516699398941
 30
0.0
  0
ENDBLK
  5
18C53
330
18C48
100
AcDbEntity
  8
0
 48
50.0
100
AcDbBlockEnd
  0
BLOCK
  5
18C55
330
18C54
100
AcDbEntity
  8
0
 48
50.0
100
AcDbBlockBegin
  2
*D14
 70
     1
 10
0.0
 20
0.0
 30
0.0
  3
*D14
  1

  0
LINE
  5
18C56
330
18C54
100
AcDbEntity
  8
寸法
 62
     0
 48
50.0
370
    -2
100
AcDbLine
 10
5274.037591258307
 20
9136.123139034669
 30
0.0
 11
5206.08395056258
 21
8882.516699398941
 31
0.0
  0
LINE
  5
18C57
330
18C54
100
AcDbEntity
  8
寸法
 62
     0
 48
50.0
370
    -2
100
AcDbLine
 10
6505.037591258377
 20
9136.123139034662
 30
0.0
 11
6437.083950562653
 21
8882.516699398941
 31
0.0
  0
LINE
  5
18C58
330
18C54
100
AcDbEntity
  8
寸法
 62
     0
 48
50.0
370
    -2
100
AcDbLine
 10
5222.160902108448
 20
8942.516699398941
 30
0.0
 11
6453.16090210852
 21
8942.516699398941
 31
0.0
  0
INSERT
  5
18C59
330
18C54
100
AcDbEntity
  8
寸法
 62
     0
 48
50.0
370
    -2
100
AcDbBlockReference
  2
_DOTSMALL
 10
5222.160902108448
 20
8942.516699398941
 30
0.0
 41
100.0
 42
100.0
 43
100.0
 50
180.0
  0
INSERT
  5
18C5A
330
18C54
100
AcDbEntity
  8
寸法
 62
     0
 48
50.0
370
    -2
100
AcDbBlockReference
  2
_DOTSMALL
 10
6453.16090210852
 20
8942.516699398941
 30
0.0
 41
100.0
 42
100.0
 43
100.0
  0
MTEXT
  5
18C5B
330
18C54
100
AcDbEntity
  8
寸法
 62
     7
 48
50.0
100
AcDbMText
 10
6081.244808320626
 20
9042.528510422561
 30
0.0
 40
120.0
 41
0.0
 71
     5
 72
     1
  1
\A1;1231
  7
STYLE1
 73
     1
 44
1.0
1001
ACAD
1000
MTEXTBEGIN
1070
    73
1070
     1
1070
    44
1040
1.0
1070
    74
1070
     0
1000
MTEXTEND
  0
POINT
  5
18C5C
330
18C54
100
AcDbEntity
  8
DEFPOINTS
 62
     0
 48
50.0
100
AcDbPoint
 10
5279.396575106929
 20
9156.123139034669
 30
0.0
  0
POINT
  5
18C5D
330
18C54
100
AcDbEntity
  8
DEFPOINTS
 62
     0
 48
50.0
100
AcDbPoint
 10
6510.396575106999
 20
9156.123139034662
 30
0.0
  0
POINT
  5
18C5E
330
18C54
100
AcDbEntity
  8
DEFPOINTS
 62
     0
 48
50.0
100
AcDbPoint
 10
6453.16090210852
 20
8942.516699398941
 30
0.0
  0
ENDBLK
  5
18C5F
330
18C54
100
AcDbEntity
  8
0
 48
50.0
100
AcDbBlockEnd
  0
BLOCK
  5
18C61
330
18C60
100
AcDbEntity
  8
0
 48
50.0
100
AcDbBlockBegin
  2
*D15
 70
     1
 10
0.0
 20
0.0
 30
0.0
  3
*D15
  1

  0
LINE
  5
18C62
330
18C60
100
AcDbEntity
  8
寸法
 62
     0
 48
50.0
370
    -2
100
AcDbLine
 10
5065.896575106966
 20
7749.123139034579
 30
0.0
 11
5065.896575106966
 21
7099.952920982538
 31
0.0
  0
LINE
  5
18C63
330
18C60
100
AcDbEntity
  8
寸法
 62
     0
 48
50.0
370
    -2
100
AcDbLine
 10
6331.896575106966
 20
7749.123139034579
 30
0.0
 11
6331.896575106966
 21
7099.952920982538
 31
0.0
  0
LINE
  5
18C64
330
18C60
100
AcDbEntity
  8
寸法
 62
     0
 48
50.0
370
    -2
100
AcDbLine
 10
5065.896575106966
 20
7159.952920982537
 30
0.0
 11
6331.896575106966
 21
7159.952920982537
 31
0.0
  0
INSERT
  5
18C65
330
18C60
100
AcDbEntity
  8
寸法
 62
     0
 48
50.0
370
    -2
100
AcDbBlockReference
  2
_DOTSMALL
 10
5065.896575106966
 20
7159.952920982537
 30
0.0
 41
100.0
 42
100.0
 43
100.0
 50
180.0
  0
INSERT
  5
18C66
330
18C60
100
AcDbEntity
  8
寸法
 62
     0
 48
50.0
370
    -2
100
AcDbBlockReference
  2
_DOTSMALL
 10
6331.896575106966
 20
7159.952920982537
 30
0.0
 41
100.0
 42
100.0
 43
100.0
  0
MTEXT
  5
18C67
330
18C60
100
AcDbEntity
  8
寸法
 62
     7
 48
50.0
100
AcDbMText
 10
5711.986008735934
 20
7359.964732006159
 30
0.0
 40
120.0
 41
0.0
 71
     5
 72
     1
  1
\A1;有効開口部間口\P1266
  7
STYLE1
 73
     1
 44
1.0
1001
ACAD
1000
MTEXTBEGIN
1070
    73
1070
     1
1070
    44
1040
1.0
1070
    74
1070
     0
1000
MTEXTEND
  0
POINT
  5
18C68
330
18C60
100
AcDbEntity
  8
DEFPOINTS
 62
     0
 48
50.0
100
AcDbPoint
 10
5065.896575106966
 20
7769.123139034579
 30
0.0
  0
POINT
  5
18C69
330
18C60
100
AcDbEntity
  8
DEFPOINTS
 62
     0
 48
50.0
100
AcDbPoint
 10
6331.896575106966
 20
7769.123139034579
 30
0.0
  0
POINT
  5
18C6A
330
18C60
100
AcDbEntity
  8
DEFPOINTS
 62
     0
 48
50.0
100
AcDbPoint
 10
6331.896575106966
 20
7159.952920982537
 30
0.0
  0
ENDBLK
  5
18C6B
330
18C60
100
AcDbEntity
  8
0
 48
50.0
100
AcDbBlockEnd
  0
BLOCK
  5
18C6D
330
18C6C
100
AcDbEntity
  8
0
 48
50.0
100
AcDbBlockBegin
  2
*D16
 70
     1
 10
0.0
 20
0.0
 30
0.0
  3
*D16
  1

  0
LINE
  5
18C6E
330
18C6C
100
AcDbEntity
  8
寸法
 62
     0
 48
50.0
370
    -2
100
AcDbLine
 10
7200.896575106966
 20
7846.123139034578
 30
0.0
 11
7457.192158500191
 21
7846.123139034578
 31
0.0
  0
LINE
  5
18C6F
330
18C6C
100
AcDbEntity
  8
寸法
 62
     0
 48
50.0
370
    -2
100
AcDbLine
 10
7199.896575106966
 20
7769.123139034579
 30
0.0
 11
7457.192158500191
 21
7769.123139034579
 31
0.0
  0
LINE
  5
18C70
330
18C6C
100
AcDbEntity
  8
寸法
 62
     0
 48
50.0
370
    -2
100
AcDbLine
 10
7417.192158500192
 20
7866.123139034579
 30
0.0
 11
7417.192158500192
 21
7886.123139034578
 31
0.0
  0
LINE
  5
18C71
330
18C6C
100
AcDbEntity
  8
寸法
 62
     0
 48
50.0
370
    -2
100
AcDbLine
 10
7417.192158500192
 20
7749.123139034579
 30
0.0
 11
7417.192158500192
 21
7533.123139034573
 31
0.0
  0
LINE
  5
18C72
330
18C6C
100
AcDbEntity
  8
寸法
 62
     0
 48
50.0
370
    -2
100
AcDbLine
 10
7417.192158500192
 20
7846.123139034578
 30
0.0
 11
7417.192158500192
 21
7769.123139034579
 31
0.0
  0
INSERT
  5
18C73
330
18C6C
100
AcDbEntity
  8
寸法
 62
     0
 48
50.0
370
    -2
100
AcDbBlockReference
  2
_DOT
 10
7417.192158500192
 20
7846.123139034578
 30
0.0
 41
20.0
 42
20.0
 43
20.0
 50
270.0
  0
INSERT
  5
18C74
330
18C6C
100
AcDbEntity
  8
寸法
 62
     0
 48
50.0
370
    -2
100
AcDbBlockReference
  2
_DOT
 10
7417.192158500192
 20
7769.123139034579
 30
0.0
 41
20.0
 42
20.0
 43
20.0
 50
90.0
  0
MTEXT
  5
18C75
330
18C6C
100
AcDbEntity
  8
寸法
 62
     7
 48
50.0
100
AcDbMText
 10
7325.192158500191
 20
7631.123139034575
 30
0.0
 40
120.0
 41
0.0
 71
     5
 72
     1
  1
\A1;77
  7
STYLE1
 11
0.0000000000000001
 21
1.0
 31
0.0
 73
     1
 44
1.0
1001
ACAD
1000
MTEXTBEGIN
1070
    73
1070
     1
1070
    44
1040
1.0
1070
    74
1070
     0
1000
MTEXTEND
  0
POINT
  5
18C76
330
18C6C
100
AcDbEntity
  8
DEFPOINTS
 62
     0
 48
50.0
100
AcDbPoint
 10
7180.896575106967
 20
7846.123139034578
 30
0.0
  0
POINT
  5
18C77
330
18C6C
100
AcDbEntity
  8
DEFPOINTS
 62
     0
 48
50.0
100
AcDbPoint
 10
7179.896575106965
 20
7769.123139034579
 30
0.0
  0
POINT
  5
18C78
330
18C6C
100
AcDbEntity
  8
DEFPOINTS
 62
     0
 48
50.0
100
AcDbPoint
 10
7417.192158500192
 20
7769.123139034579
 30
0.0
  0
ENDBLK
  5
18C79
330
18C6C
100
AcDbEntity
  8
0
 48
50.0
100
AcDbBlockEnd
  0
BLOCK
  5
18DA0
330
18C7A
100
AcDbEntity
  8
0
 48
50.0
100
AcDbBlockBegin
  2
A$C3B1A506B
 70
     0
 10
0.0
 20
0.0
 30
0.0
  3
A$C3B1A506B
  1

  0
MTEXT
  5
18C7B
330
18C7A
100
AcDbEntity
  8
寸法
 62
     7
 48
50.0
100
AcDbMText
 10
3342.250386887194
 20
2778.329429134012
 30
0.0
 40
96.0
 41
0.0
 71
     5
 72
     1
  1
棚 2段
  7
STYLE1
 73
     1
 44
1.0
1001
ACAD
1000
MTEXTBEGIN
1070
    73
1070
     1
1070
    44
1040
1.0
1070
    74
1070
     0
1000
MTEXTEND
  0
MTEXT
  5
18C7C
330
18C7A
100
AcDbEntity
  8
寸法
 62
     7
 48
50.0
100
AcDbMText
 10
2167.25038688716
 20
2778.329429133986
 30
0.0
 40
96.0
 41
0.0
 71
     5
 72
     1
  1
棚 2段
  7
STYLE1
 73
     1
 44
1.0
1001
ACAD
1000
MTEXTBEGIN
1070
    73
1070
     1
1070
    44
1040
1.0
1070
    74
1070
     0
1000
MTEXTEND
  0
MTEXT
  5
18C7D
330
18C7A
100
AcDbEntity
  8
寸法
 62
     7
 48
50.0
100
AcDbMText
 10
992.2503868871608
 20
2778.329429133935
 30
0.0
 40
96.0
 41
0.0
 71
     5
 72
     1
  1
棚 2段
  7
STYLE1
 73
     1
 44
1.0
1001
ACAD
1000
MTEXTBEGIN
1070
    73
1070
     1
1070
    44
1040
1.0
1070
    74
1070
     0
1000
MTEXTEND
  0
LINE
  5
18C7E
330
18C7A
100
AcDbEntity
  8
細線
 48
50.0
100
AcDbLine
 10
2771.970589276527
 20
1368.994384123192
 30
0.0
 11
3398.970589276523
 21
1368.994384123192
 31
0.0
  0
LINE
  5
18C7F
330
18C7A
100
AcDbEntity
  8
細線
 48
50.0
100
AcDbLine
 10
2117.970593930113
 20
1335.285615569113
 30
0.0
 11
3398.970589276523
 21
1335.285615569113
 31
0.0
  0
LINE
  5
18C80
330
18C7A
100
AcDbEntity
  8
細線
 48
50.0
100
AcDbLine
 10
2076.970593930115
 20
1364.690523565368
 30
0.0
 11
1322.970589276523
 21
1364.690523565367
 31
0.0
  0
LINE
  5
18C81
330
18C7A
100
AcDbEntity
  8
細線
100
AcDbLine
 10
3170.720579860066
 20
1388.494284088199
 30
0.0
 11
3173.052119381877
 21
1393.494286728162
 31
0.0
  0
LINE
  5
18C82
330
18C7A
100
AcDbEntity
  8
細線
100
AcDbLine
 10
3240.720589276525
 20
1388.494269174465
 30
0.0
 11
3238.389042800336
 21
1393.494286728144
 31
0.0
  0
LINE
  5
18C83
330
18C7A
100
AcDbEntity
  8
細線
100
AcDbLine
 10
3238.389042800336
 20
1393.494286728144
 30
0.0
 11
3173.052119381862
 21
1393.494286728133
 31
0.0
  0
LINE
  5
18C84
330
18C7A
100
AcDbEntity
  8
細線
100
AcDbLine
 10
3098.389042800336
 20
1393.494286728144
 30
0.0
 11
3033.052119381862
 21
1393.494286728133
 31
0.0
  0
LINE
  5
18C85
330
18C7A
100
AcDbEntity
  8
細線
100
AcDbLine
 10
3100.720589276523
 20
1388.494269174465
 30
0.0
 11
3098.389042800336
 21
1393.494286728144
 31
0.0
  0
LINE
  5
18C86
330
18C7A
100
AcDbEntity
  8
細線
100
AcDbLine
 10
3030.720579860066
 20
1388.494284088199
 30
0.0
 11
3033.052119381875
 21
1393.494286728162
 31
0.0
  0
LINE
  5
18C87
330
18C7A
100
AcDbEntity
  8
細線
100
AcDbLine
 10
2890.720589276525
 20
1388.494269174465
 30
0.0
 11
2893.052128798336
 21
1393.494271814428
 31
0.0
  0
LINE
  5
18C88
330
18C7A
100
AcDbEntity
  8
細線
100
AcDbLine
 10
2960.720598692984
 20
1388.494254260731
 30
0.0
 11
2958.389052216793
 21
1393.49427181441
 31
0.0
  0
LINE
  5
18C89
330
18C7A
100
AcDbEntity
  8
細線
100
AcDbLine
 10
2958.389052216795
 20
1393.49427181441
 30
0.0
 11
2893.052128798321
 21
1393.494271814399
 31
0.0
  0
LINE
  5
18C8A
330
18C7A
100
AcDbEntity
  8
細線
100
AcDbLine
 10
2667.139038146739
 20
1359.494298590735
 30
0.0
 11
2601.802114728263
 21
1359.494298590724
 31
0.0
  0
LINE
  5
18C8B
330
18C7A
100
AcDbEntity
  8
細線
100
AcDbLine
 10
2669.470584622926
 20
1354.494281037055
 30
0.0
 11
2667.139038146737
 21
1359.494298590735
 31
0.0
  0
LINE
  5
18C8C
330
18C7A
100
AcDbEntity
  8
細線
100
AcDbLine
 10
2599.470575206469
 20
1354.49429595079
 30
0.0
 11
2601.802114728278
 21
1359.494298590752
 31
0.0
  0
LINE
  5
18C8D
330
18C7A
100
AcDbEntity
  8
細線
 48
50.0
100
AcDbLine
 10
2440.853968524536
 20
1372.765132327548
 30
0.0
 11
2446.609486107205
 21
1354.494281037057
 31
0.0
  0
LINE
  5
18C8E
330
18C7A
100
AcDbEntity
  8
細線
 48
50.0
100
AcDbLine
 10
2429.925520044106
 20
1372.765132327546
 30
0.0
 11
2440.853968524536
 21
1372.765132327548
 31
0.0
  0
ARC
  5
18C8F
330
18C7A
100
AcDbEntity
  8
細線
 48
50.0
100
AcDbCircle
 10
2424.471163986787
 20
1374.265132327546
 30
0.0
 40
5.0
100
AcDbArc
 50
204.6243183520723
 51
335.3756816479278
  0
ARC
  5
18C90
330
18C7A
100
AcDbEntity
  8
細線
 48
50.0
100
AcDbCircle
 10
2429.925520044106
 20
1371.765132327546
 30
0.0
 40
1.0
100
AcDbArc
 50
90.0
 51
155.3756816479277
  0
ARC
  5
18C91
330
18C7A
100
AcDbEntity
  8
細線
 48
50.0
100
AcDbCircle
 10
2419.016807929469
 20
1371.765132327546
 30
0.0
 40
1.0
100
AcDbArc
 50
24.62431835207225
 51
90.0
  0
LINE
  5
18C92
330
18C7A
100
AcDbEntity
  8
細線
 48
50.0
100
AcDbLine
 10
2408.088359449037
 20
1372.765132327548
 30
0.0
 11
2419.016807929469
 21
1372.765132327546
 31
0.0
  0
LINE
  5
18C93
330
18C7A
100
AcDbEntity
  8
細線
 48
50.0
100
AcDbLine
 10
2402.33284186637
 20
1354.494281037054
 30
0.0
 11
2408.088359449037
 21
1372.765132327548
 31
0.0
  0
LINE
  5
18C94
330
18C7A
100
AcDbEntity
  8
細線
100
AcDbLine
 10
2458.070304175992
 20
1354.494278397076
 30
0.0
 11
2460.401843697802
 21
1359.494281037039
 31
0.0
  0
LINE
  5
18C95
330
18C7A
100
AcDbEntity
  8
細線
100
AcDbLine
 10
2528.070313592451
 20
1354.494263483342
 30
0.0
 11
2525.738767116262
 21
1359.494281037021
 31
0.0
  0
LINE
  5
18C96
330
18C7A
100
AcDbEntity
  8
細線
100
AcDbLine
 10
2525.738767116262
 20
1359.494281037021
 30
0.0
 11
2460.40184369779
 21
1359.49428103701
 31
0.0
  0
LINE
  5
18C97
330
18C7A
100
AcDbEntity
  8
細線
100
AcDbLine
 10
2387.139046332155
 20
1359.494281037021
 30
0.0
 11
2321.80212291368
 21
1359.49428103701
 31
0.0
  0
LINE
  5
18C98
330
18C7A
100
AcDbEntity
  8
細線
100
AcDbLine
 10
2389.470592808342
 20
1354.494263483342
 30
0.0
 11
2387.139046332153
 21
1359.494281037021
 31
0.0
  0
LINE
  5
18C99
330
18C7A
100
AcDbEntity
  8
細線
100
AcDbLine
 10
2319.470584622926
 20
1354.494281037054
 30
0.0
 11
2321.802122913694
 21
1359.494281037039
 31
0.0
  0
LINE
  5
18C9A
330
18C7A
100
AcDbEntity
  8
細線
100
AcDbLine
 10
2179.47061994182
 20
1354.494289224422
 30
0.0
 11
2181.802158232587
 21
1359.494289224407
 31
0.0
  0
LINE
  5
18C9B
330
18C7A
100
AcDbEntity
  8
細線
100
AcDbLine
 10
2249.470628127236
 20
1354.49427167071
 30
0.0
 11
2247.139081651047
 21
1359.494289224389
 31
0.0
  0
LINE
  5
18C9C
330
18C7A
100
AcDbEntity
  8
細線
100
AcDbLine
 10
2247.139081651047
 20
1359.494289224389
 30
0.0
 11
2181.802158232573
 21
1359.494289224378
 31
0.0
  0
LINE
  5
18C9D
330
18C7A
100
AcDbEntity
  8
細線
100
AcDbLine
 10
1807.970585744697
 20
1320.494460905133
 30
0.0
 11
1810.302124035464
 21
1325.494460905118
 31
0.0
  0
LINE
  5
18C9E
330
18C7A
100
AcDbEntity
  8
細線
100
AcDbLine
 10
1877.970593930113
 20
1320.494443351421
 30
0.0
 11
1875.639047453926
 21
1325.4944609051
 31
0.0
  0
LINE
  5
18C9F
330
18C7A
100
AcDbEntity
  8
細線
100
AcDbLine
 10
1875.639047453926
 20
1325.4944609051
 30
0.0
 11
1810.302124035452
 21
1325.494460905089
 31
0.0
  0
LINE
  5
18CA0
330
18C7A
100
AcDbEntity
  8
細線
100
AcDbLine
 10
2015.639047453926
 20
1325.4944609051
 30
0.0
 11
1950.302124035452
 21
1325.494460905089
 31
0.0
  0
LINE
  5
18CA1
330
18C7A
100
AcDbEntity
  8
細線
100
AcDbLine
 10
2017.970593930113
 20
1320.494443351421
 30
0.0
 11
2015.639047453924
 21
1325.4944609051
 31
0.0
  0
LINE
  5
18CA2
330
18C7A
100
AcDbEntity
  8
細線
100
AcDbLine
 10
1947.970585744697
 20
1320.494460905133
 30
0.0
 11
1950.302124035465
 21
1325.494460905118
 31
0.0
  0
LINE
  5
18CA3
330
18C7A
100
AcDbEntity
  8
細線
100
AcDbLine
 10
1735.639047453926
 20
1325.494460905098
 30
0.0
 11
1670.302124035454
 21
1325.494460905087
 31
0.0
  0
LINE
  5
18CA4
330
18C7A
100
AcDbEntity
  8
細線
100
AcDbLine
 10
1737.970593930113
 20
1320.494443351419
 30
0.0
 11
1735.639047453926
 21
1325.494460905098
 31
0.0
  0
LINE
  5
18CA5
330
18C7A
100
AcDbEntity
  8
細線
100
AcDbLine
 10
1667.970585744697
 20
1320.494460905131
 30
0.0
 11
1670.302124035465
 21
1325.494460905116
 31
0.0
  0
LINE
  5
18CA6
330
18C7A
100
AcDbEntity
  8
細線
100
AcDbLine
 10
1527.970593930113
 20
1320.494460905133
 30
0.0
 11
1530.302132220881
 21
1325.494460905118
 31
0.0
  0
LINE
  5
18CA7
330
18C7A
100
AcDbEntity
  8
細線
100
AcDbLine
 10
1597.970602115529
 20
1320.494443351421
 30
0.0
 11
1595.639055639342
 21
1325.4944609051
 31
0.0
  0
LINE
  5
18CA8
330
18C7A
100
AcDbEntity
  8
細線
100
AcDbLine
 10
1595.639055639342
 20
1325.4944609051
 30
0.0
 11
1530.302132220869
 21
1325.494460905089
 31
0.0
  0
ARC
  5
18CA9
330
18C7A
100
AcDbEntity
  8
部品1
 48
0.01
100
AcDbCircle
 10
1483.470482677778
 20
1319.493338720063
 30
0.0
 40
0.5
100
AcDbArc
 50
270.0
 51
0.0
  0
LINE
  5
18CAA
330
18C7A
100
AcDbEntity
  8
部品1
 48
0.01
100
AcDbLine
 10
1483.970482677778
 20
1320.493338720063
 30
0.0
 11
1483.970482677778
 21
1319.493338720063
 31
0.0
  0
LINE
  5
18CAB
330
18C7A
100
AcDbEntity
  8
部品1
 48
0.01
100
AcDbLine
 10
1483.970482677778
 20
1320.493338720063
 30
0.0
 11
1483.970482677778
 21
1319.493338720063
 31
0.0
  0
LINE
  5
18CAC
330
18C7A
100
AcDbEntity
  8
部品1
 48
0.01
100
AcDbLine
 10
1483.470482677778
 20
1318.993338720063
 30
0.0
 11
1476.857977247713
 21
1318.993338720062
 31
0.0
  0
ARC
  5
18CAD
330
18C7A
100
AcDbEntity
  8
部品1
100
AcDbCircle
 10
1476.926326800494
 20
1319.993338720062
 30
0.0
 40
1.0
100
AcDbArc
 50
160.5287793655865
 51
270.0
  0
ARC
  5
18CAE
330
18C7A
100
AcDbEntity
  8
部品1
100
AcDbCircle
 10
1451.470482677778
 20
1328.993338720062
 30
0.0
 40
26.0
100
AcDbArc
 50
340.5287793655865
 51
0.0
  0
LINE
  5
18CAF
330
18C7A
100
AcDbEntity
  8
部品1
100
AcDbLine
 10
1477.470482677778
 20
1328.993338720062
 30
0.0
 11
1477.470482677778
 21
1333.993338720061
 31
0.0
  0
ARC
  5
18CB0
330
18C7A
100
AcDbEntity
  8
部品1
 48
0.01
100
AcDbCircle
 10
1475.470482677778
 20
1333.993338720061
 30
0.0
 40
2.0
100
AcDbArc
 50
0.0
 51
90.0
  0
ARC
  5
18CB1
330
18C7A
100
AcDbEntity
  8
部品1
100
AcDbCircle
 10
1473.862091052968
 20
1332.993338720062
 30
0.0
 40
3.0
100
AcDbArc
 50
90.0
 51
141.6069559808035
  0
LINE
  5
18CB2
330
18C7A
100
AcDbEntity
  8
部品1
 48
0.01
100
AcDbLine
 10
1475.470482677778
 20
1335.993338720062
 30
0.0
 11
1473.862091052968
 21
1335.993338720062
 31
0.0
  0
ARC
  5
18CB3
330
18C7A
100
AcDbEntity
  8
部品1
100
AcDbCircle
 10
1455.399768463507
 20
1332.293338720065
 30
0.0
 40
3.0
100
AcDbArc
 50
254.0576313943215
 51
270.0
  0
ARC
  5
18CB4
330
18C7A
100
AcDbEntity
  8
部品1
100
AcDbCircle
 10
1462.541196892049
 20
1332.293338720065
 30
0.0
 40
3.0
100
AcDbArc
 50
270.0
 51
285.9423686056786
  0
LINE
  5
18CB5
330
18C7A
100
AcDbEntity
  8
部品1
100
AcDbLine
 10
1462.541196892049
 20
1329.293338720064
 30
0.0
 11
1455.399768463507
 21
1329.293338720064
 31
0.0
  0
ARC
  5
18CB6
330
18C7A
100
AcDbEntity
  8
部品1
100
AcDbCircle
 10
1458.970482677778
 20
1344.793338720065
 30
0.0
 40
16.0
100
AcDbArc
 50
285.9423686056786
 51
321.6069559808035
  0
LINE
  5
18CB7
330
18C7A
100
AcDbEntity
  8
部品1
 48
0.01
100
AcDbLine
 10
1442.470482677778
 20
1335.993338720062
 30
0.0
 11
1444.078874302588
 21
1335.993338720062
 31
0.0
  0
ARC
  5
18CB8
330
18C7A
100
AcDbEntity
  8
部品1
100
AcDbCircle
 10
1444.078874302588
 20
1332.993338720062
 30
0.0
 40
3.0
100
AcDbArc
 50
38.39304401919648
 51
90.0
  0
ARC
  5
18CB9
330
18C7A
100
AcDbEntity
  8
部品1
100
AcDbCircle
 10
1458.970482677778
 20
1344.793338720065
 30
0.0
 40
16.0
100
AcDbArc
 50
218.3930440191965
 51
254.0576313943215
  0
LINE
  5
18CBA
330
18C7A
100
AcDbEntity
  8
部品1
100
AcDbLine
 10
1440.470482677778
 20
1328.993338720062
 30
0.0
 11
1440.470482677778
 21
1333.993338720061
 31
0.0
  0
ARC
  5
18CBB
330
18C7A
100
AcDbEntity
  8
部品1
 48
0.01
100
AcDbCircle
 10
1442.470482677778
 20
1333.993338720061
 30
0.0
 40
2.0
100
AcDbArc
 50
90.0
 51
180.0
  0
ARC
  5
18CBC
330
18C7A
100
AcDbEntity
  8
部品1
100
AcDbCircle
 10
1466.470482677778
 20
1328.993338720062
 30
0.0
 40
26.0
100
AcDbArc
 50
180.0
 51
199.4712206344134
  0
ARC
  5
18CBD
330
18C7A
100
AcDbEntity
  8
部品1
 48
0.01
100
AcDbCircle
 10
1434.470482677778
 20
1319.493338720063
 30
0.0
 40
0.5
100
AcDbArc
 50
180.0
 51
270.0
  0
LINE
  5
18CBE
330
18C7A
100
AcDbEntity
  8
部品1
 48
0.01
100
AcDbLine
 10
1434.470482677778
 20
1318.993338720063
 30
0.0
 11
1441.014638555061
 21
1318.993338720062
 31
0.0
  0
LINE
  5
18CBF
330
18C7A
100
AcDbEntity
  8
部品1
 48
0.01
100
AcDbLine
 10
1433.970482677778
 20
1320.493338720063
 30
0.0
 11
1433.970482677778
 21
1319.493338720063
 31
0.0
  0
ARC
  5
18CC0
330
18C7A
100
AcDbEntity
  8
部品1
100
AcDbCircle
 10
1441.014638555061
 20
1319.993338720062
 30
0.0
 40
1.0
100
AcDbArc
 50
270.0
 51
19.47122063441346
  0
LINE
  5
18CC1
330
18C7A
100
AcDbEntity
  8
細線
100
AcDbLine
 10
1479.470482677785
 20
1338.493338720065
 30
0.0
 11
1438.470482677785
 21
1338.493338720058
 31
0.0
  0
LINE
  5
18CC2
330
18C7A
100
AcDbEntity
  8
細線
100
AcDbLine
 10
1438.470482677785
 20
1338.493338720058
 30
0.0
 11
1438.470482677785
 21
1320.49333872004
 31
0.0
  0
LINE
  5
18CC3
330
18C7A
100
AcDbEntity
  8
細線
100
AcDbLine
 10
1479.470482677785
 20
1338.493338720065
 30
0.0
 11
1479.470482677785
 21
1320.49333872004
 31
0.0
  0
LINE
  5
18CC4
330
18C7A
100
AcDbEntity
  8
細線
100
AcDbLine
 10
1322.970589276523
 20
1324.494269174465
 30
0.0
 11
1322.970589276523
 21
1320.494269174513
 31
0.0
  0
LINE
  5
18CC5
330
18C7A
100
AcDbEntity
  8
寸法
 48
50.0
100
AcDbLine
 10
1746.17359555837
 20
1170.531020743327
 30
0.0
 11
1694.767587648266
 21
1170.531020743327
 31
0.0
  0
LINE
  5
18CC6
330
18C7A
100
AcDbEntity
  8
寸法
 48
50.0
100
AcDbLine
 10
1694.767587648266
 20
1170.531020743327
 30
0.0
 11
1694.767587648266
 21
1201.841179395494
 31
0.0
  0
LINE
  5
18CC7
330
18C7A
100
AcDbEntity
  8
寸法
 48
50.0
100
AcDbLine
 10
1694.767587648266
 20
1201.841179395494
 30
0.0
 11
1665.006255656843
 21
1201.841179395494
 31
0.0
  0
LINE
  5
18CC8
330
18C7A
100
AcDbEntity
  8
寸法
 48
50.0
100
AcDbLine
 10
1665.006255656843
 20
1201.841179395494
 30
0.0
 11
1720.470591603318
 21
1239.420630324105
 31
0.0
  0
LINE
  5
18CC9
330
18C7A
100
AcDbEntity
  8
寸法
 48
50.0
100
AcDbLine
 10
1775.934927549793
 20
1201.841179395494
 30
0.0
 11
1720.470591603318
 21
1239.420630324105
 31
0.0
  0
LINE
  5
18CCA
330
18C7A
100
AcDbEntity
  8
寸法
 48
50.0
100
AcDbLine
 10
1746.17359555837
 20
1201.841179395494
 30
0.0
 11
1775.934927549793
 21
1201.841179395494
 31
0.0
  0
LINE
  5
18CCB
330
18C7A
100
AcDbEntity
  8
寸法
 48
50.0
100
AcDbLine
 10
1746.17359555837
 20
1170.531020743327
 30
0.0
 11
1746.17359555837
 21
1201.841179395494
 31
0.0
  0
LINE
  5
18CCC
330
18C7A
100
AcDbEntity
  8
寸法
 48
50.0
100
AcDbLine
 10
1694.767587648266
 20
1170.531020743327
 30
0.0
 11
1746.17359555837
 21
1170.531020743327
 31
0.0
  0
LINE
  5
18CCD
330
18C7A
100
AcDbEntity
  8
寸法
 48
50.0
100
AcDbLine
 10
2025.339129835225
 20
1227.676611498152
 30
0.0
 11
2025.339129835225
 21
1174.01297691636
 31
0.0
  0
LINE
  5
18CCE
330
18C7A
100
AcDbEntity
  8
寸法
 48
50.0
100
AcDbLine
 10
2114.623348430647
 20
1203.752977228664
 30
0.0
 11
2025.339129835225
 21
1227.676611498152
 31
0.0
  0
LINE
  5
18CCF
330
18C7A
100
AcDbEntity
  8
寸法
 48
50.0
100
AcDbLine
 10
1895.471408254923
 20
1203.752977228664
 30
0.0
 11
2114.623348430647
 21
1203.752977228664
 31
0.0
  0
DIMENSION
  5
18CD0
330
18C7A
100
AcDbEntity
  8
寸法
 48
50.0
100
AcDbDimension
  2
*D15
 10
2588.970589276523
 20
706.3240511224249
 30
0.0
 11
1969.060022905491
 21
706.3240511224249
 31
0.0
 12
-3742.925985830444
 22
-6453.628869860112
 32
0.0
 70
   128
  1
有効開口部間口\P<>
 71
     5
 42
1266.0
  3
INABA_S40G
100
AcDbAlignedDimension
 13
1322.970589276523
 23
1315.494269174465
 33
0.0
 14
2588.970589276523
 24
1315.494269174465
 34
0.0
100
AcDbRotatedDimension
1001
ACAD
1000
DSTYLE
1002
{
1070
   341
1005
0
1002
}
  0
LINE
  5
18CD1
330
18C7A
100
AcDbEntity
  8
部品1
100
AcDbLine
 10
3409.970589276524
 20
1392.494269174465
 30
0.0
 11
3437.970589276523
 21
1392.494269174465
 31
0.0
  0
DIMENSION
  5
18CD2
330
18C7A
100
AcDbEntity
  8
寸法
100
AcDbDimension
  2
*D16
 10
3674.266172669749
 20
1315.494269174465
 30
0.0
 11
3674.266172669748
 21
1177.494269174462
 31
0.0
 12
-3742.925985830444
 22
-6453.628869860112
 32
0.0
 70
   128
 71
     5
 42
77.0
  3
INABA_S40
100
AcDbAlignedDimension
 13
3437.970589276523
 23
1392.494269174465
 33
0.0
 14
3436.970589276523
 24
1315.494269174465
 34
0.0
 50
90.0
100
AcDbRotatedDimension
1001
ACAD
1000
DSTYLE
1002
{
1070
    41
1040
0.5
1070
    44
1040
1.0
1070
   147
1040
0.8
1070
   271
1070
     2
1070
   272
1070
     2
1070
   289
1070
     3
1070
   340
1005
F706
1070
   343
1005
164B4
1070
   344
1005
164B4
1002
}
  0
LINE
  5
18CD3
330
18C7A
100
AcDbEntity
  8
部品1
100
AcDbLine
 10
3437.970589276523
 20
1315.494269174465
 30
0.0
 11
3437.970589276523
 21
1392.494269174465
 31
0.0
  0
LINE
  5
18CD4
330
18C7A
100
AcDbEntity
  8
部品1
100
AcDbLine
 10
3398.970589276523
 20
1388.494269174465
 30
0.0
 11
3409.970589276524
 21
1388.494269174465
 31
0.0
  0
LINE
  5
18CD5
330
18C7A
100
AcDbEntity
  8
部品1
100
AcDbLine
 10
3407.970589276523
 20
1324.494269174465
 30
0.0
 11
3407.970589276523
 21
1315.494269174465
 31
0.0
  0
LINE
  5
18CD6
330
18C7A
100
AcDbEntity
  8
部品1
100
AcDbLine
 10
3398.970589276523
 20
1324.494269174465
 30
0.0
 11
3407.970589276523
 21
1324.494269174465
 31
0.0
  0
LINE
  5
18CD7
330
18C7A
100
AcDbEntity
  8
部品1
100
AcDbLine
 10
3398.970589276523
 20
1388.494269174465
 30
0.0
 11
3398.970589276523
 21
1324.494269174465
 31
0.0
  0
LINE
  5
18CD8
330
18C7A
100
AcDbEntity
  8
部品1
100
AcDbLine
 10
3409.970589276524
 20
1419.494269174465
 30
0.0
 11
3409.970589276524
 21
1388.494269174465
 31
0.0
  0
LINE
  5
18CD9
330
18C7A
100
AcDbEntity
  8
部品1
100
AcDbLine
 10
1322.970589276523
 20
1388.494269174465
 30
0.0
 11
1311.970589276523
 21
1388.494269174465
 31
0.0
  0
LINE
  5
18CDA
330
18C7A
100
AcDbEntity
  8
部品1
100
AcDbLine
 10
1283.970589276523
 20
1392.494269174465
 30
0.0
 11
1311.970589276523
 21
1392.494269174465
 31
0.0
  0
LINE
  5
18CDB
330
18C7A
100
AcDbEntity
  8
部品1
100
AcDbLine
 10
1313.970589276523
 20
1324.494269174465
 30
0.0
 11
1313.970589276523
 21
1315.494269174465
 31
0.0
  0
LINE
  5
18CDC
330
18C7A
100
AcDbEntity
  8
部品1
100
AcDbLine
 10
1322.970589276523
 20
1324.494269174465
 30
0.0
 11
1313.970589276523
 21
1324.494269174465
 31
0.0
  0
LINE
  5
18CDD
330
18C7A
100
AcDbEntity
  8
部品1
100
AcDbLine
 10
1313.970589276523
 20
1315.494269174465
 30
0.0
 11
1283.970589276523
 21
1315.494269174465
 31
0.0
  0
LINE
  5
18CDE
330
18C7A
100
AcDbEntity
  8
部品1
100
AcDbLine
 10
1283.970589276523
 20
1315.494269174465
 30
0.0
 11
1283.970589276523
 21
1392.494269174465
 31
0.0
  0
LINE
  5
18CDF
330
18C7A
100
AcDbEntity
  8
部品1
100
AcDbLine
 10
1322.970589276523
 20
1388.494269174465
 30
0.0
 11
1322.970589276523
 21
1324.494269174465
 31
0.0
  0
LINE
  5
18CE0
330
18C7A
100
AcDbEntity
  8
部品1
100
AcDbLine
 10
1311.970589276523
 20
1419.494269174462
 30
0.0
 11
1311.970589276523
 21
1388.494269174465
 31
0.0
  0
LINE
  5
18CE1
330
18C7A
100
AcDbEntity
  8
部品1
100
AcDbLine
 10
1311.970589276523
 20
1419.494269174462
 30
0.0
 11
3409.970589276524
 21
1419.494269174465
 31
0.0
  0
LINE
  5
18CE2
330
18C7A
100
AcDbEntity
  8
部品1
100
AcDbLine
 10
3407.970589276523
 20
1315.494269174465
 30
0.0
 11
3437.970589276523
 21
1315.494269174465
 31
0.0
  0
LINE
  5
18CE3
330
18C7A
100
AcDbEntity
  8
部品1
100
AcDbLine
 10
1313.970589276523
 20
1315.494269174465
 30
0.0
 11
3410.970589276523
 21
1315.494269174465
 31
0.0
  0
LINE
  5
18CE4
330
18C7A
100
AcDbEntity
  8
細線
  6
Continuous
 62
     5
100
AcDbLine
 10
2689.970589276527
 20
1354.494269174462
 30
0.0
 11
2689.970589276527
 21
1354.494269174462
 31
0.0
  0
LINE
  5
18CE5
330
18C7A
100
AcDbEntity
  8
細線
  6
Continuous
 62
     5
100
AcDbLine
 10
2682.470589276527
 20
1354.494269174462
 30
0.0
 11
2682.470589276527
 21
1354.494269174462
 31
0.0
  0
LINE
  5
18CE6
330
18C7A
100
AcDbEntity
  8
細線
  6
Continuous
 62
     5
100
AcDbLine
 10
2676.470589276527
 20
1354.494269174462
 30
0.0
 11
2676.470589276527
 21
1354.494269174462
 31
0.0
  0
LINE
  5
18CE7
330
18C7A
100
AcDbEntity
  8
細線
  6
Continuous
 62
     5
100
AcDbLine
 10
2743.970589276527
 20
1373.494269174462
 30
0.0
 11
2743.970589276527
 21
1373.494269174462
 31
0.0
  0
LINE
  5
18CE8
330
18C7A
100
AcDbEntity
  8
細線
 48
50.0
100
AcDbLine
 10
1336.970593930116
 20
1341.094443351418
 30
0.0
 11
1336.970593930113
 21
1349.490593759059
 31
0.0
  0
LINE
  5
18CE9
330
18C7A
100
AcDbEntity
  8
細線
 48
50.0
100
AcDbLine
 10
1336.970593930113
 20
1349.490593759059
 30
0.0
 11
1322.970589276523
 21
1349.490593759057
 31
0.0
  0
LINE
  5
18CEA
330
18C7A
100
AcDbEntity
  8
細線
 48
50.0
100
AcDbLine
 10
2087.970593930113
 20
1337.644443351419
 30
0.0
 11
2087.970593930113
 21
1342.494443351421
 31
0.0
  0
LINE
  5
18CEB
330
18C7A
100
AcDbEntity
  8
細線
 48
50.0
100
AcDbLine
 10
2087.970593930113
 20
1342.494443351421
 30
0.0
 11
2102.970593930113
 21
1342.494443351421
 31
0.0
  0
LINE
  5
18CEC
330
18C7A
100
AcDbEntity
  8
細線
 48
50.0
100
AcDbLine
 10
2102.970593930113
 20
1342.494443351421
 30
0.0
 11
2102.970593930115
 21
1349.494443351419
 31
0.0
  0
LINE
  5
18CED
330
18C7A
100
AcDbEntity
  8
細線
 48
50.0
100
AcDbLine
 10
2102.970593930115
 20
1349.494443351419
 30
0.0
 11
2117.970593930113
 21
1349.494443351419
 31
0.0
  0
LINE
  5
18CEE
330
18C7A
100
AcDbEntity
  8
細線
 48
50.0
100
AcDbLine
 10
2117.970593930113
 20
1349.494443351419
 30
0.0
 11
2117.970593930113
 21
1320.494443351421
 31
0.0
  0
LINE
  5
18CEF
330
18C7A
100
AcDbEntity
  8
細線
 48
50.0
100
AcDbLine
 10
1313.970589276523
 20
1320.491777694889
 30
0.0
 11
1527.970593930113
 21
1320.494460905133
 31
0.0
  0
LINE
  5
18CF0
330
18C7A
100
AcDbEntity
  8
細線
 48
50.0
100
AcDbLine
 10
2017.970593930113
 20
1320.494443351421
 30
0.0
 11
2117.970593930113
 21
1320.494443351421
 31
0.0
  0
LINE
  5
18CF1
330
18C7A
100
AcDbEntity
  8
細線
 48
50.0
100
AcDbLine
 10
1737.970593930113
 20
1320.494443351419
 30
0.0
 11
1807.970593930113
 21
1320.494443351423
 31
0.0
  0
LINE
  5
18CF2
330
18C7A
100
AcDbEntity
  8
細線
 48
50.0
100
AcDbLine
 10
1750.832558942642
 20
1320.494443351419
 30
0.0
 11
1756.588076525309
 21
1338.765294641913
 31
0.0
  0
LINE
  5
18CF3
330
18C7A
100
AcDbEntity
  8
細線
 48
50.0
100
AcDbLine
 10
1756.588076525309
 20
1338.765294641913
 30
0.0
 11
1767.516525005743
 21
1338.765294641911
 31
0.0
  0
ARC
  5
18CF4
330
18C7A
100
AcDbEntity
  8
細線
 48
50.0
100
AcDbCircle
 10
1767.516525005743
 20
1337.765294641911
 30
0.0
 40
1.0
100
AcDbArc
 50
24.62431835207225
 51
90.0
  0
ARC
  5
18CF5
330
18C7A
100
AcDbEntity
  8
細線
 48
50.0
100
AcDbCircle
 10
1778.425237120377
 20
1337.765294641911
 30
0.0
 40
1.0
100
AcDbArc
 50
90.0
 51
155.3756816479277
  0
ARC
  5
18CF6
330
18C7A
100
AcDbEntity
  8
細線
 48
50.0
100
AcDbCircle
 10
1772.970881063058
 20
1340.265294641911
 30
0.0
 40
5.0
100
AcDbArc
 50
204.6243183520723
 51
335.3756816479278
  0
LINE
  5
18CF7
330
18C7A
100
AcDbEntity
  8
細線
 48
50.0
100
AcDbLine
 10
1778.425237120377
 20
1338.765294641911
 30
0.0
 11
1789.35368560081
 21
1338.765294641913
 31
0.0
  0
LINE
  5
18CF8
330
18C7A
100
AcDbEntity
  8
細線
 48
50.0
100
AcDbLine
 10
1789.35368560081
 20
1338.765294641913
 30
0.0
 11
1795.109203183478
 21
1320.494443351423
 31
0.0
  0
LINE
  5
18CF9
330
18C7A
100
AcDbEntity
  8
細線
 48
50.0
100
AcDbLine
 10
2087.970593930113
 20
1341.094443351419
 30
0.0
 11
1336.970593930116
 21
1341.094443351418
 31
0.0
  0
LINE
  5
18CFA
330
18C7A
100
AcDbEntity
  8
細線
 48
50.0
100
AcDbLine
 10
1947.970593930113
 20
1320.494443351421
 30
0.0
 11
1877.970593930113
 21
1320.494443351421
 31
0.0
  0
LINE
  5
18CFB
330
18C7A
100
AcDbEntity
  8
細線
100
AcDbLine
 10
1667.970593930113
 20
1320.494443351421
 30
0.0
 11
1597.970602115529
 21
1320.494443351421
 31
0.0
  0
LINE
  5
18CFC
330
18C7A
100
AcDbEntity
  8
細線
 48
50.0
100
AcDbLine
 10
2741.970584622936
 20
1375.094487209288
 30
0.0
 11
2106.970593930113
 21
1375.094487209284
 31
0.0
  0
LINE
  5
18CFD
330
18C7A
100
AcDbEntity
  8
細線
 48
50.0
100
AcDbLine
 10
2106.970593930113
 20
1371.990637616925
 30
0.0
 11
2106.970593930113
 21
1376.490637616925
 31
0.0
  0
LINE
  5
18CFE
330
18C7A
100
AcDbEntity
  8
細線
 48
50.0
100
AcDbLine
 10
2106.970593930113
 20
1376.490637616925
 30
0.0
 11
2091.970593930113
 21
1376.490637616925
 31
0.0
  0
LINE
  5
18CFF
330
18C7A
100
AcDbEntity
  8
細線
 48
50.0
100
AcDbLine
 10
2091.970593930113
 20
1376.490637616925
 30
0.0
 11
2091.970593930113
 21
1383.490637616927
 31
0.0
  0
LINE
  5
18D00
330
18C7A
100
AcDbEntity
  8
細線
 48
50.0
100
AcDbLine
 10
2091.970593930113
 20
1383.490637616927
 30
0.0
 11
2076.970593930115
 21
1383.490637616924
 31
0.0
  0
LINE
  5
18D01
330
18C7A
100
AcDbEntity
  8
細線
 48
50.0
100
AcDbLine
 10
2076.970593930115
 20
1383.490637616924
 30
0.0
 11
2076.970593930115
 21
1345.890409513813
 31
0.0
  0
LINE
  5
18D02
330
18C7A
100
AcDbEntity
  8
細線
 48
50.0
100
AcDbLine
 10
2076.970593930115
 20
1345.890409513813
 30
0.0
 11
2096.970601231289
 21
1345.890451063353
 31
0.0
  0
LINE
  5
18D03
330
18C7A
100
AcDbEntity
  8
細線
 48
50.0
100
AcDbLine
 10
2096.970556362348
 20
1354.493912699161
 30
0.0
 11
2096.970601231289
 21
1345.890451063353
 31
0.0
  0
LINE
  5
18D04
330
18C7A
100
AcDbEntity
  8
細線
 48
50.0
100
AcDbLine
 10
2741.970584622936
 20
1371.644487209287
 30
0.0
 11
2741.970584622936
 21
1376.494487209284
 31
0.0
  0
LINE
  5
18D05
330
18C7A
100
AcDbEntity
  8
細線
 48
50.0
100
AcDbLine
 10
2741.970584622936
 20
1376.494487209284
 30
0.0
 11
2756.970584622934
 21
1376.494487209285
 31
0.0
  0
LINE
  5
18D06
330
18C7A
100
AcDbEntity
  8
細線
 48
50.0
100
AcDbLine
 10
2756.970584622934
 20
1376.494487209285
 30
0.0
 11
2756.970596256909
 21
1383.494487209331
 31
0.0
  0
LINE
  5
18D07
330
18C7A
100
AcDbEntity
  8
細線
 48
50.0
100
AcDbLine
 10
2756.970596256909
 20
1383.494487209331
 30
0.0
 11
2771.970594427439
 21
1383.494487209329
 31
0.0
  0
LINE
  5
18D08
330
18C7A
100
AcDbEntity
  8
細線
 48
50.0
100
AcDbLine
 10
2771.970594427439
 20
1383.494487209329
 30
0.0
 11
2771.970584125617
 21
1354.494281037055
 31
0.0
  0
LINE
  5
18D09
330
18C7A
100
AcDbEntity
  8
細線
 48
50.0
100
AcDbLine
 10
2458.070304175992
 20
1354.494278397076
 30
0.0
 11
2389.470863838818
 21
1354.494283787084
 31
0.0
  0
LINE
  5
18D0A
330
18C7A
100
AcDbEntity
  8
細線
 48
50.0
100
AcDbLine
 10
2096.970556362348
 20
1354.493912699161
 30
0.0
 11
2108.203245717057
 21
1354.494095652309
 31
0.0
  0
ARC
  5
18D0B
330
18C7A
100
AcDbEntity
  8
細線
 48
50.0
100
AcDbCircle
 10
2114.785538024393
 20
1353.294259565922
 30
0.0
 40
1.8
100
AcDbArc
 50
270.0006665777295
 51
345.000555481349
  0
LINE
  5
18D0C
330
18C7A
100
AcDbEntity
  8
細線
 48
50.0
100
AcDbLine
 10
2116.771971470473
 20
1353.753100023201
 30
0.0
 11
2116.524209028273
 21
1352.828402141094
 31
0.0
  0
LINE
  5
18D0D
330
18C7A
100
AcDbEntity
  8
細線
 48
50.0
100
AcDbLine
 10
2114.785558965548
 20
1351.494259566043
 30
0.0
 11
2111.155631546781
 21
1351.494217335563
 31
0.0
  0
ARC
  5
18D0E
330
18C7A
100
AcDbEntity
  8
細線
 48
50.0
100
AcDbCircle
 10
2111.155610605627
 20
1353.29421733544
 30
0.0
 40
1.8
100
AcDbArc
 50
195.0010443049965
 51
270.0006665777295
  0
LINE
  5
18D0F
330
18C7A
100
AcDbEntity
  8
細線
 48
50.0
100
AcDbLine
 10
2109.169183113368
 20
1353.752932303007
 30
0.0
 11
2109.416952609882
 21
1352.828311364425
 31
0.0
  0
ARC
  5
18D10
330
18C7A
100
AcDbEntity
  8
細線
 48
50.0
100
AcDbCircle
 10
2108.203262004622
 20
1353.494095652444
 30
0.0
 40
1.0
100
AcDbArc
 50
15.00104430499651
 51
90.00093320877969
  0
LINE
  5
18D11
330
18C7A
100
AcDbEntity
  8
細線
 48
50.0
100
AcDbLine
 10
2117.737892825577
 20
1354.494290342714
 30
0.0
 11
2118.679652976481
 21
1354.494296916564
 31
0.0
  0
ARC
  5
18D12
330
18C7A
100
AcDbEntity
  8
細線
 48
50.0
100
AcDbCircle
 10
2117.737899805961
 20
1353.49429034274
 30
0.0
 40
1.0
100
AcDbArc
 50
90.0003999466794
 51
165.000555481349
  0
LINE
  5
18D13
330
18C7A
100
AcDbEntity
  8
細線
 48
50.0
100
AcDbLine
 10
2669.470584622926
 20
1354.494281037055
 30
0.0
 11
2771.970584125617
 21
1354.494281037055
 31
0.0
  0
LINE
  5
18D14
330
18C7A
100
AcDbEntity
  8
細線
 48
50.0
100
AcDbLine
 10
2179.47061994182
 20
1354.494289224422
 30
0.0
 11
2118.370558714898
 21
1354.494296916564
 31
0.0
  0
LINE
  5
18D15
330
18C7A
100
AcDbEntity
  8
細線
 48
50.0
100
AcDbLine
 10
2599.470584622926
 20
1354.494281037057
 30
0.0
 11
2529.470584622926
 21
1354.494281037055
 31
0.0
  0
LINE
  5
18D16
330
18C7A
100
AcDbEntity
  8
細線
 48
50.0
100
AcDbLine
 10
2319.470584622926
 20
1354.494281037054
 30
0.0
 11
2249.470567335051
 21
1354.494281037057
 31
0.0
  0
ARC
  5
18D17
330
18C7A
100
AcDbEntity
  8
細線
 48
50.0
100
AcDbCircle
 10
2756.170589276533
 20
1387.694269174466
 30
0.0
 40
0.8
100
AcDbArc
 50
359.9997333689499
 51
89.99986668437072
  0
ARC
  5
18D18
330
18C7A
100
AcDbEntity
  8
細線
 48
50.0
100
AcDbCircle
 10
2763.770596101631
 20
1387.694280343081
 30
0.0
 40
0.8
100
AcDbArc
 50
90.00014387753465
 51
179.9997333689498
  0
LINE
  5
18D19
330
18C7A
100
AcDbEntity
  8
細線
 48
50.0
100
AcDbLine
 10
2756.170591137969
 20
1388.494269174465
 30
0.0
 11
2750.970589276525
 21
1388.494269174465
 31
0.0
  0
ARC
  5
18D1A
330
18C7A
100
AcDbEntity
  8
細線
 48
50.0
100
AcDbCircle
 10
2757.670589276524
 20
1386.194269174464
 30
0.0
 40
0.7
100
AcDbArc
 50
180.0
 51
270.0
  0
ARC
  5
18D1B
330
18C7A
100
AcDbEntity
  8
細線
 48
50.0
100
AcDbCircle
 10
2762.270589276524
 20
1386.194269174464
 30
0.0
 40
0.7
100
AcDbArc
 50
270.0
 51
0.0
  0
LINE
  5
18D1C
330
18C7A
100
AcDbEntity
  8
細線
 48
50.0
100
AcDbLine
 10
2762.970589276525
 20
1386.194269174464
 30
0.0
 11
2762.970596101639
 21
1387.694284065954
 31
0.0
  0
LINE
  5
18D1D
330
18C7A
100
AcDbEntity
  8
細線
 48
50.0
100
AcDbLine
 10
2757.670589276524
 20
1385.494269174465
 30
0.0
 11
2762.270589276524
 21
1385.494269174465
 31
0.0
  0
LINE
  5
18D1E
330
18C7A
100
AcDbEntity
  8
細線
 48
50.0
100
AcDbLine
 10
2756.970589276525
 20
1387.694269174466
 30
0.0
 11
2756.970589276525
 21
1386.194269174464
 31
0.0
  0
LINE
  5
18D1F
330
18C7A
100
AcDbEntity
  8
細線
 48
50.0
100
AcDbLine
 10
3382.570589276527
 20
1418.494269174465
 30
0.0
 11
2745.970589276525
 21
1418.494269174463
 31
0.0
  0
LINE
  5
18D20
330
18C7A
100
AcDbEntity
  8
細線
 48
50.0
100
AcDbLine
 10
3408.470589276525
 20
1413.494269174467
 30
0.0
 11
3392.570589276527
 21
1413.494269174465
 31
0.0
  0
LINE
  5
18D21
330
18C7A
100
AcDbEntity
  8
細線
 48
50.0
100
AcDbLine
 10
3392.570589276526
 20
1413.494269174465
 30
0.0
 11
3382.570589276527
 21
1418.494269174465
 31
0.0
  0
LINE
  5
18D22
330
18C7A
100
AcDbEntity
  8
細線
100
AcDbLine
 10
2993.470589276525
 20
1388.494269174465
 30
0.0
 11
2993.470589276525
 21
1417.794269174464
 31
0.0
  0
LINE
  5
18D23
330
18C7A
100
AcDbEntity
  8
細線
100
AcDbLine
 10
2993.470589276525
 20
1417.794269174464
 30
0.0
 11
3013.470589276525
 21
1417.794269174464
 31
0.0
  0
LINE
  5
18D24
330
18C7A
100
AcDbEntity
  8
細線
100
AcDbLine
 10
3013.470589276525
 20
1388.494269174465
 30
0.0
 11
3013.470589276525
 21
1417.794269174464
 31
0.0
  0
LINE
  5
18D25
330
18C7A
100
AcDbEntity
  8
細線
100
AcDbLine
 10
3170.720589276524
 20
1388.494269174465
 30
0.0
 11
3100.720589276523
 21
1388.494269174465
 31
0.0
  0
LINE
  5
18D26
330
18C7A
100
AcDbEntity
  8
細線
 48
50.0
100
AcDbLine
 10
2890.720589276525
 20
1388.494269174465
 30
0.0
 11
2763.766368849365
 21
1388.494269174465
 31
0.0
  0
LINE
  5
18D27
330
18C7A
100
AcDbEntity
  8
細線
100
AcDbLine
 10
3030.720589276525
 20
1388.494269174465
 30
0.0
 11
2960.720589276525
 21
1388.494269174465
 31
0.0
  0
LINE
  5
18D28
330
18C7A
100
AcDbEntity
  8
細線
 48
50.0
100
AcDbLine
 10
2750.970589276525
 20
1380.494269174465
 30
0.0
 11
2750.970589276525
 21
1388.494269174465
 31
0.0
  0
LINE
  5
18D29
330
18C7A
100
AcDbEntity
  8
細線
 48
50.0
100
AcDbLine
 10
2730.970589276524
 20
1380.494269174467
 30
0.0
 11
2750.970589276525
 21
1380.494269174465
 31
0.0
  0
LINE
  5
18D2A
330
18C7A
100
AcDbEntity
  8
細線
 48
50.0
100
AcDbLine
 10
2745.970589276525
 20
1418.494269174465
 30
0.0
 11
2745.970589276525
 21
1413.494269174465
 31
0.0
  0
LINE
  5
18D2B
330
18C7A
100
AcDbEntity
  8
細線
 48
50.0
100
AcDbLine
 10
2730.970589276525
 20
1418.494269174463
 30
0.0
 11
2745.970589276525
 21
1418.494269174465
 31
0.0
  0
LINE
  5
18D2C
330
18C7A
100
AcDbEntity
  8
細線
 48
50.0
100
AcDbLine
 10
2730.970589276524
 20
1380.494269174467
 30
0.0
 11
2730.970589276525
 21
1418.494269174463
 31
0.0
  0
LINE
  5
18D2D
330
18C7A
100
AcDbEntity
  8
細線
100
AcDbLine
 10
3398.970589276523
 20
1388.494269174465
 30
0.0
 11
3240.720589276525
 21
1388.494269174465
 31
0.0
  0
LINE
  5
18D2E
330
18C7A
100
AcDbEntity
  8
細線
 48
50.0
100
AcDbLine
 10
3408.470589276525
 20
1413.494269174467
 30
0.0
 11
3408.470589276524
 21
1388.494269174465
 31
0.0
  0
TEXT
  5
18D2F
330
18C7A
100
AcDbEntity
  8
部品1
100
AcDbText
 10
1860.154865991392
 20
46.99880823813145
 30
0.0
 40
135.0
  1
平面図
  7
STYLE2
100
AcDbText
  0
LWPOLYLINE
  5
18D30
330
18C7A
100
AcDbEntity
  8
部品1
100
AcDbPolyline
 90
        4
 70
     1
 43
0.0
 10
1770.23525616235
 20
239.8923374566548
 10
1770.23525616235
 20
0.0000159111223184
 10
2533.705922390791
 20
0.0000159111223184
 10
2533.705922390791
 20
239.8923374566548
  0
LINE
  5
18D31
330
18C7A
100
AcDbEntity
  8
部品1
100
AcDbLine
 10
1534.470589276487
 20
3154.494269174626
 30
0.0
 11
2769.470589276552
 21
3154.494269174626
 31
0.0
  0
LINE
  5
18D32
330
18C7A
100
AcDbEntity
  8
部品1
 48
50.0
100
AcDbLine
 10
1311.970589276523
 20
1420.494269174462
 30
0.0
 11
3411.970589276523
 21
1420.494269174465
 31
0.0
  0
LINE
  5
18D33
330
18C7A
100
AcDbEntity
  8
部品1
 48
50.0
100
AcDbLine
 10
471.9705892765232
 20
1392.494269174465
 30
0.0
 11
1311.970589276523
 21
1392.494269174465
 31
0.0
  0
DIMENSION
  5
18D34
330
18C7A
100
AcDbEntity
  8
寸法
100
AcDbDimension
  2
*D14
 10
2710.234916278077
 20
2488.887829538828
 30
0.0
 11
2338.318822490183
 21
2488.887829538828
 31
0.0
 12
-3742.925985830444
 22
-6453.628869860112
 32
0.0
 70
   128
 71
     5
 42
1231.00000000007
  3
INABA_S40G
100
AcDbAlignedDimension
 13
1536.470589276486
 23
2702.494269174557
 33
0.0
 14
2767.470589276556
 24
2702.494269174549
 34
0.0
100
AcDbRotatedDimension
1001
ACAD
1000
DSTYLE
1002
{
1002
}
  0
LINE
  5
18D35
330
18C7A
100
AcDbEntity
  8
部品1
100
AcDbLine
 10
1536.470589276487
 20
2702.494269174557
 30
0.0
 11
2767.470589276554
 21
2702.494269174615
 31
0.0
  0
LINE
  5
18D36
330
18C7A
100
AcDbEntity
  8
部品1
100
AcDbLine
 10
1536.470589276487
 20
3152.494269174557
 30
0.0
 11
2767.470589276556
 21
3152.494269174615
 31
0.0
  0
LINE
  5
18D37
330
18C7A
100
AcDbEntity
  8
細線
 48
50.0
100
AcDbLine
 10
1508.470589276487
 20
3152.494269174558
 30
0.0
 11
445.4705892765559
 21
2702.494269174509
 31
0.0
  0
LINE
  5
18D38
330
18C7A
100
AcDbEntity
  8
細線
 48
50.0
100
AcDbLine
 10
1508.470589276487
 20
2702.494269174558
 30
0.0
 11
445.4705892765542
 21
3152.494269174509
 31
0.0
  0
LINE
  5
18D39
330
18C7A
100
AcDbEntity
  8
部品1
100
AcDbLine
 10
1556.970589276487
 20
3172.494269174611
 30
0.0
 11
1556.970589276487
 21
3154.494269174611
 31
0.0
  0
LINE
  5
18D3A
330
18C7A
100
AcDbEntity
  8
部品1
100
AcDbLine
 10
1556.970589276487
 20
3172.494269174611
 30
0.0
 11
1550.970589276487
 21
3172.494269174611
 31
0.0
  0
LINE
  5
18D3B
330
18C7A
100
AcDbEntity
  8
部品1
100
AcDbLine
 10
1534.470589276487
 20
3146.494269174608
 30
0.0
 11
1509.470589276487
 21
3146.494269174611
 31
0.0
  0
LINE
  5
18D3C
330
18C7A
100
AcDbEntity
  8
部品1
100
AcDbLine
 10
1486.970589276487
 20
3172.494269174611
 30
0.0
 11
1486.970589276487
 21
3154.494269174611
 31
0.0
  0
LINE
  5
18D3D
330
18C7A
100
AcDbEntity
  8
部品1
100
AcDbLine
 10
1492.970589276487
 20
3172.494269174611
 30
0.0
 11
1486.970589276487
 21
3172.494269174611
 31
0.0
  0
LINE
  5
18D3E
330
18C7A
100
AcDbEntity
  8
部品1
100
AcDbLine
 10
1534.470589276487
 20
2702.494269174615
 30
0.0
 11
1509.470589276487
 21
2702.494269174615
 31
0.0
  0
LINE
  5
18D3F
330
18C7A
100
AcDbEntity
  8
部品1
 48
50.0
100
AcDbLine
 10
1536.470589276487
 20
3152.494269174611
 30
0.0
 11
1536.470589276487
 21
2702.494269174615
 31
0.0
  0
LINE
  5
18D40
330
18C7A
100
AcDbEntity
  8
部品1
 48
50.0
100
AcDbLine
 10
1508.470589276487
 20
3152.494269174607
 30
0.0
 11
1508.470589276487
 21
2702.494269174615
 31
0.0
  0
LINE
  5
18D41
330
18C7A
100
AcDbEntity
  8
部品1
 48
50.0
100
AcDbLine
 10
1534.470589276487
 20
3154.494269174618
 30
0.0
 11
1534.470589276487
 21
2702.494269174615
 31
0.0
  0
LINE
  5
18D42
330
18C7A
100
AcDbEntity
  8
部品1
 48
50.0
100
AcDbLine
 10
1509.470589276487
 20
3154.494269174615
 30
0.0
 11
1509.470589276487
 21
2702.494269174615
 31
0.0
  0
LINE
  5
18D43
330
18C7A
100
AcDbEntity
  8
部品1
100
AcDbLine
 10
3411.970589276556
 20
1392.494269174582
 30
0.0
 11
3411.970589276556
 21
1420.494269174596
 31
0.0
  0
LINE
  5
18D44
330
18C7A
100
AcDbEntity
  8
部品1
100
AcDbLine
 10
1311.970589276523
 20
1392.494269174596
 30
0.0
 11
1311.970589276523
 21
1420.494269174596
 31
0.0
  0
LINE
  5
18D45
330
18C7A
100
AcDbEntity
  8
部品1
100
AcDbLine
 10
891.9705892765232
 20
1392.494269174596
 30
0.0
 11
891.9705892765232
 21
1420.494269174596
 31
0.0
  0
LINE
  5
18D46
330
18C7A
100
AcDbEntity
  8
部品1
100
AcDbLine
 10
3411.97058927652
 20
3182.494269174477
 30
0.0
 11
3411.970589276523
 21
3154.494269174477
 31
0.0
  0
LINE
  5
18D47
330
18C7A
100
AcDbEntity
  8
部品1
100
AcDbLine
 10
2571.97058927652
 20
3182.494269174477
 30
0.0
 11
2571.970589276523
 21
3154.494269174477
 31
0.0
  0
LINE
  5
18D48
330
18C7A
100
AcDbEntity
  8
部品1
100
AcDbLine
 10
2991.97058927652
 20
3182.494269174477
 30
0.0
 11
2991.970589276523
 21
3154.494269174477
 31
0.0
  0
LINE
  5
18D49
330
18C7A
100
AcDbEntity
  8
部品1
100
AcDbLine
 10
2151.970589276519
 20
3182.494269174477
 30
0.0
 11
2151.970589276523
 21
3154.494269174477
 31
0.0
  0
LINE
  5
18D4A
330
18C7A
100
AcDbEntity
  8
部品1
100
AcDbLine
 10
1731.970589276519
 20
3182.494269174477
 30
0.0
 11
1731.970589276523
 21
3154.494269174477
 31
0.0
  0
LINE
  5
18D4B
330
18C7A
100
AcDbEntity
  8
部品1
100
AcDbLine
 10
1311.970589276519
 20
3182.494269174477
 30
0.0
 11
1311.970589276523
 21
3154.494269174477
 31
0.0
  0
LINE
  5
18D4C
330
18C7A
100
AcDbEntity
  8
部品1
100
AcDbLine
 10
891.9705892765195
 20
3182.494269174477
 30
0.0
 11
891.9705892765232
 21
3154.494269174477
 31
0.0
  0
LINE
  5
18D4D
330
18C7A
100
AcDbEntity
  8
部品1
100
AcDbLine
 10
471.9705892765232
 20
1392.494269174596
 30
0.0
 11
471.9705892765232
 21
1420.494269174596
 31
0.0
  0
LINE
  5
18D4E
330
18C7A
100
AcDbEntity
  8
部品1
100
AcDbLine
 10
444.9705892765305
 20
1420.494269174558
 30
0.0
 11
3858.970589276556
 21
1420.494269174596
 31
0.0
  0
LINE
  5
18D4F
330
18C7A
100
AcDbEntity
  8
部品1
100
AcDbLine
 10
3831.970589276556
 20
1392.494269174596
 30
0.0
 11
3831.970589276556
 21
1420.494269174596
 31
0.0
  0
LINE
  5
18D50
330
18C7A
100
AcDbEntity
  8
部品1
100
AcDbLine
 10
3858.970589276556
 20
1447.494269174593
 30
0.0
 11
3886.970589276556
 21
1447.494269174593
 31
0.0
  0
LINE
  5
18D51
330
18C7A
100
AcDbEntity
  8
部品1
100
AcDbLine
 10
3858.970589276556
 20
1867.494269174607
 30
0.0
 11
3886.970589276556
 21
1867.494269174607
 31
0.0
  0
LINE
  5
18D52
330
18C7A
100
AcDbEntity
  8
部品1
100
AcDbLine
 10
444.9705892765305
 20
1867.49426917448
 30
0.0
 11
416.9705892765305
 21
1867.49426917448
 31
0.0
  0
LINE
  5
18D53
330
18C7A
100
AcDbEntity
  8
部品1
100
AcDbLine
 10
3830.470589276541
 20
1867.49426917458
 30
0.0
 11
473.4705892765396
 21
1867.49426917448
 31
0.0
  0
LINE
  5
18D54
330
18C7A
100
AcDbEntity
  8
部品1
100
AcDbLine
 10
3830.470589276541
 20
2287.49426917458
 30
0.0
 11
473.4705892765396
 21
2287.49426917448
 31
0.0
  0
LINE
  5
18D55
330
18C7A
100
AcDbEntity
  8
部品1
100
AcDbLine
 10
444.9705892765305
 20
2287.49426917448
 30
0.0
 11
416.9705892765305
 21
2287.49426917448
 31
0.0
  0
LINE
  5
18D56
330
18C7A
100
AcDbEntity
  8
部品1
100
AcDbLine
 10
3858.970589276556
 20
2287.494269174608
 30
0.0
 11
3886.970589276556
 21
2287.494269174608
 31
0.0
  0
LINE
  5
18D57
330
18C7A
100
AcDbEntity
  8
部品1
 48
50.0
100
AcDbLine
 10
2151.970589276551
 20
2702.494269174586
 30
0.0
 11
2151.970589276581
 21
1448.994269174494
 31
0.0
  0
LINE
  5
18D58
330
18C7A
100
AcDbEntity
  8
破線
 48
10.0
100
AcDbLine
 10
2959.470589276535
 20
1472.494269174522
 30
0.0
 11
2176.970589276532
 21
1472.494269174505
 31
0.0
  0
LINE
  5
18D59
330
18C7A
100
AcDbEntity
  8
破線
 48
10.0
100
AcDbLine
 10
3009.47058927653
 20
1448.994269174509
 30
0.0
 11
3009.47058927653
 21
2702.494269174615
 31
0.0
  0
LINE
  5
18D5A
330
18C7A
100
AcDbEntity
  8
破線
 48
10.0
100
AcDbLine
 10
2959.470589276535
 20
1448.994269174505
 30
0.0
 11
2959.470589276531
 21
2702.494269174615
 31
0.0
  0
LINE
  5
18D5B
330
18C7A
100
AcDbEntity
  8
破線
 48
10.0
100
AcDbLine
 10
1344.47058927653
 20
1448.994269174509
 30
0.0
 11
1344.47058927653
 21
2702.494269174615
 31
0.0
  0
LINE
  5
18D5C
330
18C7A
100
AcDbEntity
  8
破線
 48
10.0
100
AcDbLine
 10
1294.470589276534
 20
1448.994269174505
 30
0.0
 11
1294.47058927653
 21
2702.494269174615
 31
0.0
  0
DIMENSION
  5
18D5D
330
18C7A
100
AcDbEntity
  8
寸法
100
AcDbDimension
  2
*D13
 10
1451.234916278005
 20
2488.887829538828
 30
0.0
 11
916.0604668248634
 21
2488.887829538828
 31
0.0
 12
-3742.925985830444
 22
-6453.628869860112
 32
0.0
 70
   128
 71
     5
 42
1062.99999999993
  3
INABA_S40G
100
AcDbAlignedDimension
 13
445.4705892765559
 23
2702.494269174505
 33
0.0
 14
1508.470589276486
 24
2702.494269174558
 34
0.0
100
AcDbRotatedDimension
1001
ACAD
1000
DSTYLE
1002
{
1002
}
  0
LINE
  5
18D5E
330
18C7A
100
AcDbEntity
  8
破線
 48
10.0
100
AcDbLine
 10
1294.470589276534
 20
1472.494269174469
 30
0.0
 11
496.9705892765414
 21
1472.494269174476
 31
0.0
  0
LINE
  5
18D5F
330
18C7A
100
AcDbEntity
  8
部品1
100
AcDbLine
 10
3831.970589276556
 20
3182.494269174604
 30
0.0
 11
3831.970589276556
 21
3154.494269174604
 31
0.0
  0
LINE
  5
18D60
330
18C7A
100
AcDbEntity
  8
部品1
100
AcDbLine
 10
3831.970589276556
 20
3182.494269174626
 30
0.0
 11
3831.970589276556
 21
3154.494269174626
 31
0.0
  0
LINE
  5
18D61
330
18C7A
100
AcDbEntity
  8
部品1
100
AcDbLine
 10
3858.970589276556
 20
3127.494269174607
 30
0.0
 11
3886.970589276556
 21
3127.494269174607
 31
0.0
  0
LINE
  5
18D62
330
18C7A
100
AcDbEntity
  8
部品1
100
AcDbLine
 10
3858.970589276556
 20
2707.494269174608
 30
0.0
 11
3886.970589276556
 21
2707.494269174608
 31
0.0
  0
LINE
  5
18D63
330
18C7A
100
AcDbEntity
  8
部品1
100
AcDbLine
 10
3858.470589276556
 20
3152.494269174604
 30
0.0
 11
3858.470589276556
 21
2702.494269174608
 31
0.0
  0
LINE
  5
18D64
330
18C7A
100
AcDbEntity
  8
部品1
100
AcDbLine
 10
3886.970589276533
 20
1447.494269174593
 30
0.0
 11
3886.970589276531
 21
1392.494269174596
 31
0.0
  0
LINE
  5
18D65
330
18C7A
100
AcDbEntity
  8
部品1
 48
50.0
100
AcDbLine
 10
3830.470589276556
 20
1448.994269174596
 30
0.0
 11
3858.970589276554
 21
1420.494269174596
 31
0.0
  0
LINE
  5
18D66
330
18C7A
100
AcDbEntity
  8
部品1
100
AcDbLine
 10
3886.970589276531
 20
1392.494269174596
 30
0.0
 11
3835.970589276531
 21
1392.494269174596
 31
0.0
  0
LINE
  5
18D67
330
18C7A
100
AcDbEntity
  8
部品1
100
AcDbLine
 10
3858.970589276533
 20
1447.494269174593
 30
0.0
 11
3886.970589276531
 21
1447.494269174593
 31
0.0
  0
LINE
  5
18D68
330
18C7A
100
AcDbEntity
  8
部品1
100
AcDbLine
 10
3886.970589276556
 20
3182.494269174604
 30
0.0
 11
3886.970589276531
 21
1392.494269174596
 31
0.0
  0
DIMENSION
  5
18D69
330
18C7A
100
AcDbEntity
  8
寸法
100
AcDbDimension
  2
*D12
 10
4534.396935010967
 20
1447.494269174593
 30
0.0
 11
4534.396935010965
 21
2287.4942691746
 31
0.0
 12
-3742.925985830444
 22
-6453.628869860112
 32
0.0
 70
   128
  1
4X420=<>
 71
     5
 42
1680.000000000014
  3
INABA_S40G
100
AcDbAlignedDimension
 13
3886.970589276556
 23
3127.494269174607
 33
0.0
 14
3886.970589276531
 24
1447.494269174593
 34
0.0
 50
90.0
100
AcDbRotatedDimension
1001
ACAD
1000
DSTYLE
1002
{
1002
}
  0
LINE
  5
18D6A
330
18C7A
100
AcDbEntity
  8
部品1
100
AcDbLine
 10
3858.970589276556
 20
3154.494269174604
 30
0.0
 11
3858.970589276534
 21
1420.494269174596
 31
0.0
  0
DIMENSION
  5
18D6B
330
18C7A
100
AcDbEntity
  8
寸法
100
AcDbDimension
  2
*D11
 10
4213.82831513858
 20
2607.276453505718
 30
0.0
 11
4113.828315138579
 21
2832.276453505718
 31
0.0
 12
-3742.925985830444
 22
-6453.628869860112
 32
0.0
 71
     5
 42
449.9999999999963
  3
INABA_S40G
100
AcDbAlignedDimension
 13
3858.470589276556
 23
3152.494269174604
 33
0.0
 14
3858.470589276556
 24
2702.494269174608
 34
0.0
 50
90.0
100
AcDbRotatedDimension
1001
ACAD
1000
DSTYLE
1002
{
1002
}
  0
LINE
  5
18D6C
330
18C7A
100
AcDbEntity
  8
部品1
100
AcDbLine
 10
3830.470589276547
 20
2702.494269174608
 30
0.0
 11
3830.470589276556
 21
1448.994269174596
 31
0.0
  0
LINE
  5
18D6D
330
18C7A
100
AcDbEntity
  8
破線
 48
10.0
100
AcDbLine
 10
3806.970589276549
 20
2702.494269174608
 30
0.0
 11
3806.970589276558
 21
1472.494269174593
 31
0.0
  0
LINE
  5
18D6E
330
18C7A
100
AcDbEntity
  8
部品1
100
AcDbLine
 10
2769.470589276556
 20
3146.494269174608
 30
0.0
 11
2794.470589276556
 21
3146.494269174611
 31
0.0
  0
LINE
  5
18D6F
330
18C7A
100
AcDbEntity
  8
部品1
100
AcDbLine
 10
2810.970589276556
 20
3172.494269174611
 30
0.0
 11
2816.970589276556
 21
3172.494269174611
 31
0.0
  0
LINE
  5
18D70
330
18C7A
100
AcDbEntity
  8
部品1
100
AcDbLine
 10
2816.970589276556
 20
3172.494269174611
 30
0.0
 11
2816.970589276556
 21
3154.494269174611
 31
0.0
  0
LINE
  5
18D71
330
18C7A
100
AcDbEntity
  8
部品1
100
AcDbLine
 10
2746.970589276556
 20
3172.494269174611
 30
0.0
 11
2752.970589276556
 21
3172.494269174611
 31
0.0
  0
LINE
  5
18D72
330
18C7A
100
AcDbEntity
  8
部品1
100
AcDbLine
 10
2746.970589276556
 20
3172.494269174611
 30
0.0
 11
2746.970589276556
 21
3154.494269174611
 31
0.0
  0
LINE
  5
18D73
330
18C7A
100
AcDbEntity
  8
部品1
100
AcDbLine
 10
2769.470589276556
 20
2702.494269174615
 30
0.0
 11
2794.470589276556
 21
2702.494269174615
 31
0.0
  0
LINE
  5
18D74
330
18C7A
100
AcDbEntity
  8
部品1
 48
50.0
100
AcDbLine
 10
2794.470589276556
 20
3154.494269174615
 30
0.0
 11
2794.470589276556
 21
2702.494269174615
 31
0.0
  0
LINE
  5
18D75
330
18C7A
100
AcDbEntity
  8
部品1
 48
50.0
100
AcDbLine
 10
2769.470589276554
 20
3154.494269174618
 30
0.0
 11
2769.470589276556
 21
2702.494269174615
 31
0.0
  0
LINE
  5
18D76
330
18C7A
100
AcDbEntity
  8
部品1
 48
50.0
100
AcDbLine
 10
2795.470589276556
 20
3152.494269174607
 30
0.0
 11
2795.470589276556
 21
2702.494269174615
 31
0.0
  0
LINE
  5
18D77
330
18C7A
100
AcDbEntity
  8
部品1
 48
50.0
100
AcDbLine
 10
2767.470589276556
 20
3152.494269174611
 30
0.0
 11
2767.470589276556
 21
2702.494269174615
 31
0.0
  0
LINE
  5
18D78
330
18C7A
100
AcDbEntity
  8
破線
 48
10.0
100
AcDbLine
 10
2176.97058927653
 20
1448.994269174509
 30
0.0
 11
2176.97058927653
 21
2702.494269174588
 31
0.0
  0
LINE
  5
18D79
330
18C7A
100
AcDbEntity
  8
破線
 48
10.0
100
AcDbLine
 10
2126.970589276534
 20
1448.994269174505
 30
0.0
 11
2126.970589276531
 21
2702.494269174586
 31
0.0
  0
LINE
  5
18D7A
330
18C7A
100
AcDbEntity
  8
部品1
100
AcDbLine
 10
2794.470589276556
 20
3154.494269174622
 30
0.0
 11
3858.970589276556
 21
3154.494269174604
 31
0.0
  0
LINE
  5
18D7B
330
18C7A
100
AcDbEntity
  8
細線
 48
50.0
100
AcDbLine
 10
3858.470589276556
 20
2702.494269174608
 30
0.0
 11
2795.470589276556
 21
3152.494269174607
 31
0.0
  0
LINE
  5
18D7C
330
18C7A
100
AcDbEntity
  8
部品1
100
AcDbLine
 10
2795.470589276555
 20
2702.494269174615
 30
0.0
 11
3858.470589276556
 21
2702.494269174608
 31
0.0
  0
LINE
  5
18D7D
330
18C7A
100
AcDbEntity
  8
部品1
100
AcDbLine
 10
2795.470589276556
 20
3152.494269174611
 30
0.0
 11
3858.470589276556
 21
3152.494269174604
 31
0.0
  0
LINE
  5
18D7E
330
18C7A
100
AcDbEntity
  8
細線
 48
50.0
100
AcDbLine
 10
3858.470589276556
 20
3152.494269174604
 30
0.0
 11
2795.470589276555
 21
2702.494269174615
 31
0.0
  0
DIMENSION
  5
18D7F
330
18C7A
100
AcDbEntity
  8
寸法
100
AcDbDimension
  2
*D10
 10
3801.234916278101
 20
2488.887829538937
 30
0.0
 11
3318.360544398907
 21
2488.887829538937
 31
0.0
 12
-3742.925985830444
 22
-6453.628869860112
 32
0.0
 70
   128
 71
     5
 42
1063.000000000012
  3
INABA_S40G
100
AcDbAlignedDimension
 13
2795.470589276555
 23
2702.494269174615
 33
0.0
 14
3858.470589276567
 24
2702.494269174608
 34
0.0
100
AcDbRotatedDimension
1001
ACAD
1000
DSTYLE
1002
{
1002
}
  0
LINE
  5
18D80
330
18C7A
100
AcDbEntity
  8
破線
 48
10.0
100
AcDbLine
 10
3806.970589276556
 20
1472.494269174594
 30
0.0
 11
3009.47058927653
 21
1472.494269174523
 31
0.0
  0
DIMENSION
  5
18D81
330
18C7A
100
AcDbEntity
  8
寸法
100
AcDbDimension
  2
*D9
 10
4534.396935010941
 20
1392.494269174596
 30
0.0
 11
4534.39693501094
 21
1084.008987800356
 31
0.0
 12
-3742.925985830444
 22
-6453.628869860112
 32
0.0
 70
   128
 71
     5
 42
54.99999999999636
  3
INABA_S40G
100
AcDbAlignedDimension
 13
3886.970589276531
 23
1447.494269174593
 33
0.0
 14
3886.970589276531
 24
1392.494269174596
 34
0.0
 50
90.0
100
AcDbRotatedDimension
1001
ACAD
1000
DSTYLE
1002
{
1002
}
  0
LINE
  5
18D82
330
18C7A
100
AcDbEntity
  8
部品1
100
AcDbLine
 10
471.9705892765196
 20
3182.494269174477
 30
0.0
 11
471.9705892765232
 21
3154.494269174477
 31
0.0
  0
LINE
  5
18D83
330
18C7A
100
AcDbEntity
  8
部品1
100
AcDbLine
 10
471.9705892765559
 20
3182.494269174509
 30
0.0
 11
471.9705892765559
 21
3154.494269174509
 31
0.0
  0
LINE
  5
18D84
330
18C7A
100
AcDbEntity
  8
部品1
100
AcDbLine
 10
444.9705892765232
 20
3127.49426917448
 30
0.0
 11
416.9705892765232
 21
3127.49426917448
 31
0.0
  0
LINE
  5
18D85
330
18C7A
100
AcDbEntity
  8
部品1
100
AcDbLine
 10
444.9705892765305
 20
2707.49426917448
 30
0.0
 11
416.9705892765305
 21
2707.49426917448
 31
0.0
  0
LINE
  5
18D86
330
18C7A
100
AcDbEntity
  8
部品1
 48
50.0
100
AcDbLine
 10
445.4705892765542
 20
3152.494269174506
 30
0.0
 11
445.4705892765559
 21
2702.494269174505
 31
0.0
  0
LINE
  5
18D87
330
18C7A
100
AcDbEntity
  8
部品1
 48
50.0
100
AcDbLine
 10
473.470589276545
 20
1448.994269174573
 30
0.0
 11
444.970589276545
 21
1420.494269174574
 31
0.0
  0
LINE
  5
18D88
330
18C7A
100
AcDbEntity
  8
部品1
100
AcDbLine
 10
471.9705892765232
 20
1392.494269174465
 30
0.0
 11
416.9705892765486
 21
1392.494269174465
 31
0.0
  0
LINE
  5
18D89
330
18C7A
100
AcDbEntity
  8
部品1
100
AcDbLine
 10
444.9705892765305
 20
1447.494269174429
 30
0.0
 11
416.9705892765469
 21
1447.494269174429
 31
0.0
  0
LINE
  5
18D8A
330
18C7A
100
AcDbEntity
  8
部品1
100
AcDbLine
 10
444.9705892765305
 20
1447.494269174465
 30
0.0
 11
416.9705892765469
 21
1447.494269174465
 31
0.0
  0
LINE
  5
18D8B
330
18C7A
100
AcDbEntity
  8
部品1
100
AcDbLine
 10
444.9705892765469
 20
1447.49426917448
 30
0.0
 11
416.9705892765469
 21
1447.49426917448
 31
0.0
  0
LINE
  5
18D8C
330
18C7A
100
AcDbEntity
  8
部品1
100
AcDbLine
 10
416.9705892765469
 20
1447.494269174429
 30
0.0
 11
416.9705892765486
 21
1392.494269174433
 31
0.0
  0
LINE
  5
18D8D
330
18C7A
100
AcDbEntity
  8
部品1
100
AcDbLine
 10
416.9705892765196
 20
3182.494269174477
 30
0.0
 11
416.9705892765486
 21
1392.494269174465
 31
0.0
  0
LINE
  5
18D8E
330
18C7A
100
AcDbEntity
  8
部品1
100
AcDbLine
 10
444.9705892765305
 20
1420.494269174556
 30
0.0
 11
444.9705892765559
 21
3154.494269174509
 31
0.0
  0
LINE
  5
18D8F
330
18C7A
100
AcDbEntity
  8
部品1
100
AcDbLine
 10
473.4705892765323
 20
2702.494269174608
 30
0.0
 11
473.470589276545
 21
1448.994269174571
 31
0.0
  0
LINE
  5
18D90
330
18C7A
100
AcDbEntity
  8
破線
 48
10.0
100
AcDbLine
 10
496.9705892765305
 20
2702.494269174608
 30
0.0
 11
496.9705892765451
 21
1472.494269174476
 31
0.0
  0
DIMENSION
  5
18D91
330
18C7A
100
AcDbEntity
  8
寸法
100
AcDbDimension
  2
*D8
 10
3886.970589276531
 20
410.7433333855515
 30
0.0
 11
2168.197775309287
 21
410.7433333855515
 31
0.0
 12
-3742.925985830444
 22
-6453.628869860112
 32
0.0
 70
   128
 71
     5
 42
3469.999999999982
  3
INABA_S40G
100
AcDbAlignedDimension
 13
416.9705892765486
 23
1392.494269174433
 33
0.0
 14
3886.970589276531
 24
1392.49426917456
 34
0.0
100
AcDbRotatedDimension
1001
ACAD
1000
DSTYLE
1002
{
1070
   341
1005
0
1002
}
  0
LINE
  5
18D92
330
18C7A
100
AcDbEntity
  8
部品1
100
AcDbLine
 10
444.9705892765559
 20
3154.494269174624
 30
0.0
 11
1509.470589276487
 21
3154.494269174626
 31
0.0
  0
LINE
  5
18D93
330
18C7A
100
AcDbEntity
  8
部品1
100
AcDbLine
 10
3886.970589276531
 20
1392.494269174596
 30
0.0
 11
3411.970589276556
 21
1392.494269174582
 31
0.0
  0
LINE
  5
18D94
330
18C7A
100
AcDbEntity
  8
部品1
100
AcDbLine
 10
416.9705892765559
 20
3182.494269174509
 30
0.0
 11
3886.970589276556
 21
3182.494269174604
 31
0.0
  0
LINE
  5
18D95
330
18C7A
100
AcDbEntity
  8
部品1
100
AcDbLine
 10
445.4705892765559
 20
2702.494269174509
 30
0.0
 11
1508.470589276487
 21
2702.494269174558
 31
0.0
  0
LINE
  5
18D96
330
18C7A
100
AcDbEntity
  8
細線
 48
50.0
100
AcDbLine
 10
2767.470589276556
 20
3152.494269174611
 30
0.0
 11
1536.470589276487
 21
2702.494269174558
 31
0.0
  0
LINE
  5
18D97
330
18C7A
100
AcDbEntity
  8
部品1
100
AcDbLine
 10
445.4705892765542
 20
3152.494269174509
 30
0.0
 11
1508.470589276485
 21
3152.494269174558
 31
0.0
  0
LINE
  5
18D98
330
18C7A
100
AcDbEntity
  8
細線
 48
50.0
100
AcDbLine
 10
2767.470589276554
 20
2702.494269174615
 30
0.0
 11
1536.470589276485
 21
3152.494269174558
 31
0.0
  0
LINE
  5
18D99
330
18C7A
100
AcDbEntity
  8
破線
 48
10.0
100
AcDbLine
 10
2126.970589276534
 20
1472.494269174502
 30
0.0
 11
1344.47058927653
 21
1472.494269174473
 31
0.0
  0
LINE
  5
18D9A
330
18C7A
100
AcDbEntity
  8
部品1
100
AcDbLine
 10
3830.470589276556
 20
1448.994269174596
 30
0.0
 11
473.4705892764487
 21
1448.994269174476
 31
0.0
  0
DIMENSION
  5
18D9B
330
18C7A
100
AcDbEntity
  8
寸法
100
AcDbDimension
  2
*D7
 10
471.970589276555
 20
3698.302488799491
 30
0.0
 11
108.4853079022819
 21
3698.302488799491
 31
0.0
 12
-3742.925985830444
 22
-6453.628869860112
 32
0.0
 70
   128
 71
     5
 42
55.00000000003456
  3
INABA_S40G
100
AcDbAlignedDimension
 13
416.9705892765205
 23
3182.494269174509
 33
0.0
 14
471.970589276555
 24
3182.494269174509
 34
0.0
100
AcDbRotatedDimension
1001
ACAD
1000
DSTYLE
1002
{
1002
}
  0
DIMENSION
  5
18D9C
330
18C7A
100
AcDbEntity
  8
寸法
100
AcDbDimension
  2
*D6
 10
4534.396935010967
 20
3127.494269174607
 30
0.0
 11
4534.396935010965
 21
3490.979550548844
 31
0.0
 12
-3742.925985830444
 22
-6453.628869860112
 32
0.0
 70
   128
 71
     5
 42
54.99999999999636
  3
INABA_S40G
100
AcDbAlignedDimension
 13
3886.970589276556
 23
3182.494269174604
 33
0.0
 14
3886.970589276556
 24
3127.494269174607
 34
0.0
 50
90.0
100
AcDbRotatedDimension
1001
ACAD
1000
DSTYLE
1002
{
1002
}
  0
DIMENSION
  5
18D9D
330
18C7A
100
AcDbEntity
  8
寸法
100
AcDbDimension
  2
*D5
 10
3886.970589276556
 20
3698.302488799589
 30
0.0
 11
4195.455870650794
 21
3698.302488799589
 31
0.0
 12
-3742.925985830444
 22
-6453.628869860112
 32
0.0
 70
   128
 71
     5
 42
55.0
  3
INABA_S40G
100
AcDbAlignedDimension
 13
3831.970589276556
 23
3182.494269174604
 33
0.0
 14
3886.970589276556
 24
3182.494269174604
 34
0.0
100
AcDbRotatedDimension
1001
ACAD
1000
DSTYLE
1002
{
1002
}
  0
DIMENSION
  5
18D9E
330
18C7A
100
AcDbEntity
  8
寸法
100
AcDbDimension
  2
*D4
 10
3831.970589276556
 20
3698.302488799607
 30
0.0
 11
2151.970589276555
 21
3698.302488799607
 31
0.0
 12
-3742.925985830444
 22
-6453.628869860112
 32
0.0
 70
   128
  1
8X420=<>
 71
     5
 42
3360.000000000001
  3
INABA_S40G
100
AcDbAlignedDimension
 13
471.970589276555
 23
3182.494269174509
 33
0.0
 14
3831.970589276556
 24
3182.494269174604
 34
0.0
100
AcDbRotatedDimension
1001
ACAD
1000
DSTYLE
1002
{
1002
}
  0
DIMENSION
  5
18D9F
330
18C7A
100
AcDbEntity
  8
寸法
100
AcDbDimension
  2
*D3
 10
4899.503876750603
 20
1392.494269174596
 30
0.0
 11
4899.503876750601
 21
2287.4942691746
 31
0.0
 12
-3742.925985830444
 22
-6453.628869860112
 32
0.0
 70
   128
 71
     5
 42
1790.000000000007
  3
INABA_S40G
100
AcDbAlignedDimension
 13
3886.970589276556
 23
3182.494269174604
 33
0.0
 14
3886.970589276531
 24
1392.494269174596
 34
0.0
 50
90.0
100
AcDbRotatedDimension
1001
ACAD
1000
DSTYLE
1002
{
1002
}
  0
ENDBLK
  5
18DA1
330
18C7A
100
AcDbEntity
  8
0
 48
50.0
100
AcDbBlockEnd
  0
BLOCK
  5
1C4CB
330
1C4CA
100
AcDbEntity
  8
0
 48
50.0
100
AcDbBlockBegin
  2
_NONE
 70
     0
 10
0.0
 20
0.0
 30
0.0
  3
_NONE
  1

  0
CIRCLE
  5
1C4CC
330
1C4CA
100
AcDbEntity
  8
0
  6
ByBlock
 62
     0
 48
50.0
100
AcDbCircle
 10
0.0
 20
0.0
 30
0.0
 40
0.25
  0
ENDBLK
  5
1C4CD
330
1C4CA
100
AcDbEntity
  8
0
 48
50.0
100
AcDbBlockEnd
  0
BLOCK
  5
24C1F
330
24C15
100
AcDbEntity
  8
0
 48
50.0
100
AcDbBlockBegin
  2
*D19
 70
     1
 10
0.0
 20
0.0
 30
0.0
  3
*D19
  1

  0
LINE
  5
25334
330
24C15
100
AcDbEntity
  8
寸法
 62
     0
 48
50.0
370
    -2
100
AcDbLine
 10
8223.600000000002
 20
7351.907777930207
 30
0.0
 11
8223.600000000002
 21
8553.817543578535
 31
0.0
  0
LINE
  5
25335
330
24C15
100
AcDbEntity
  8
寸法
 62
     0
 48
50.0
370
    -2
100
AcDbLine
 10
7496.6
 20
7351.907777930207
 30
0.0
 11
7496.6
 21
8553.817543578535
 31
0.0
  0
LINE
  5
25336
330
24C15
100
AcDbEntity
  8
寸法
 62
     0
 48
50.0
370
    -2
100
AcDbLine
 10
8223.600000000002
 20
8493.817543578535
 30
0.0
 11
7496.6
 21
8493.817543578535
 31
0.0
  0
INSERT
  5
25337
330
24C15
100
AcDbEntity
  8
寸法
 62
     0
 48
50.0
370
    -2
100
AcDbBlockReference
  2
_DOTSMALL
 10
8223.600000000002
 20
8493.817543578535
 30
0.0
 41
100.0
 42
100.0
 43
100.0
  0
INSERT
  5
25338
330
24C15
100
AcDbEntity
  8
寸法
 62
     0
 48
50.0
370
    -2
100
AcDbBlockReference
  2
_DOTSMALL
 10
7496.6
 20
8493.817543578535
 30
0.0
 41
100.0
 42
100.0
 43
100.0
 50
180.0
  0
MTEXT
  5
25339
330
24C15
100
AcDbEntity
  8
寸法
 62
     7
 48
50.0
100
AcDbMText
 10
7860.100000000002
 20
8593.829354602155
 30
0.0
 40
120.0
 41
0.0
 71
     5
 72
     1
  1
\A1;727
  7
STYLE1
 73
     1
 44
1.0
1001
ACAD
1000
MTEXTBEGIN
1070
    73
1070
     1
1070
    44
1040
1.0
1070
    74
1070
     0
1000
MTEXTEND
  0
POINT
  5
2533A
330
24C15
100
AcDbEntity
  8
DEFPOINTS
 62
     0
 48
50.0
100
AcDbPoint
 10
8223.600000000002
 20
7331.907777930206
 30
0.0
  0
POINT
  5
2533B
330
24C15
100
AcDbEntity
  8
DEFPOINTS
 62
     0
 48
50.0
100
AcDbPoint
 10
7496.6
 20
7331.907777930206
 30
0.0
  0
POINT
  5
2533C
330
24C15
100
AcDbEntity
  8
DEFPOINTS
 62
     0
 48
50.0
100
AcDbPoint
 10
7496.6
 20
8493.817543578535
 30
0.0
  0
ENDBLK
  5
24C20
330
24C15
100
AcDbEntity
  8
0
 48
50.0
100
AcDbBlockEnd
  0
BLOCK
  5
24C37
330
24C2E
100
AcDbEntity
  8
0
 48
50.0
100
AcDbBlockBegin
  2
*D20
 70
     1
 10
0.0
 20
0.0
 30
0.0
  3
*D20
  1

  0
LINE
  5
2541E
330
24C2E
100
AcDbEntity
  8
寸法
 62
     0
 48
50.0
370
    -2
100
AcDbLine
 10
6693.6
 20
7986.907777930206
 30
0.0
 11
6693.6
 21
8985.128099989127
 31
0.0
  0
LINE
  5
2541F
330
24C2E
100
AcDbEntity
  8
寸法
 62
     0
 48
50.0
370
    -2
100
AcDbLine
 10
9753.600000000004
 20
7986.907777930206
 30
0.0
 11
9753.600000000004
 21
8985.128099989127
 31
0.0
  0
LINE
  5
25420
330
24C2E
100
AcDbEntity
  8
寸法
 62
     0
 48
50.0
370
    -2
100
AcDbLine
 10
6693.6
 20
8925.128099989128
 30
0.0
 11
9753.600000000004
 21
8925.128099989128
 31
0.0
  0
INSERT
  5
25421
330
24C2E
100
AcDbEntity
  8
寸法
 62
     0
 48
50.0
370
    -2
100
AcDbBlockReference
  2
_DOTSMALL
 10
6693.6
 20
8925.128099989128
 30
0.0
 41
100.0
 42
100.0
 43
100.0
 50
180.0
  0
INSERT
  5
25422
330
24C2E
100
AcDbEntity
  8
寸法
 62
     0
 48
50.0
370
    -2
100
AcDbBlockReference
  2
_DOTSMALL
 10
9753.600000000004
 20
8925.128099989128
 30
0.0
 41
100.0
 42
100.0
 43
100.0
  0
MTEXT
  5
25423
330
24C2E
100
AcDbEntity
  8
寸法
 62
     7
 48
50.0
100
AcDbMText
 10
8223.600000000002
 20
9025.128099989128
 30
0.0
 40
120.0
 41
0.0
 71
     5
 72
     1
  1
\A1;3060
  7
STYLE1
 73
     1
 44
1.0
1001
ACAD
1000
MTEXTBEGIN
1070
    73
1070
     1
1070
    44
1040
1.0
1070
    74
1070
     0
1000
MTEXTEND
  0
POINT
  5
25424
330
24C2E
100
AcDbEntity
  8
DEFPOINTS
 62
     0
 48
50.0
100
AcDbPoint
 10
6693.6
 20
7966.907777930206
 30
0.0
  0
POINT
  5
25425
330
24C2E
100
AcDbEntity
  8
DEFPOINTS
 62
     0
 48
50.0
100
AcDbPoint
 10
9753.600000000004
 20
7966.907777930206
 30
0.0
  0
POINT
  5
25426
330
24C2E
100
AcDbEntity
  8
DEFPOINTS
 62
     0
 48
50.0
100
AcDbPoint
 10
9753.600000000004
 20
8925.128099989128
 30
0.0
  0
ENDBLK
  5
24C38
330
24C2E
100
AcDbEntity
  8
0
 48
50.0
100
AcDbBlockEnd
  0
BLOCK
  5
24C42
330
24C39
100
AcDbEntity
  8
0
 48
50.0
100
AcDbBlockBegin
  2
*D21
 70
     1
 10
0.0
 20
0.0
 30
0.0
  3
*D21
  1

  0
LINE
  5
25415
330
24C39
100
AcDbEntity
  8
寸法
 62
     0
 48
50.0
370
    -2
100
AcDbLine
 10
9630.600000000002
 20
7913.907777930205
 30
0.0
 11
9630.600000000002
 21
8772.66740447229
 31
0.0
  0
LINE
  5
25416
330
24C39
100
AcDbEntity
  8
寸法
 62
     0
 48
50.0
370
    -2
100
AcDbLine
 10
6816.600000000001
 20
7913.907777930205
 30
0.0
 11
6816.600000000001
 21
8772.66740447229
 31
0.0
  0
LINE
  5
25417
330
24C39
100
AcDbEntity
  8
寸法
 62
     0
 48
50.0
370
    -2
100
AcDbLine
 10
9630.600000000002
 20
8712.66740447229
 30
0.0
 11
6816.600000000001
 21
8712.66740447229
 31
0.0
  0
INSERT
  5
25418
330
24C39
100
AcDbEntity
  8
寸法
 62
     0
 48
50.0
370
    -2
100
AcDbBlockReference
  2
_DOTSMALL
 10
9630.600000000002
 20
8712.66740447229
 30
0.0
 41
100.0
 42
100.0
 43
100.0
  0
INSERT
  5
25419
330
24C39
100
AcDbEntity
  8
寸法
 62
     0
 48
50.0
370
    -2
100
AcDbBlockReference
  2
_DOTSMALL
 10
6816.600000000001
 20
8712.66740447229
 30
0.0
 41
100.0
 42
100.0
 43
100.0
 50
180.0
  0
MTEXT
  5
2541A
330
24C39
100
AcDbEntity
  8
寸法
 62
     7
 48
50.0
100
AcDbMText
 10
8223.600000000002
 20
8812.679215495911
 30
0.0
 40
120.0
 41
0.0
 71
     5
 72
     1
  1
\A1;2814
  7
STYLE1
 73
     1
 44
1.0
1001
ACAD
1000
MTEXTBEGIN
1070
    73
1070
     1
1070
    44
1040
1.0
1070
    74
1070
     0
1000
MTEXTEND
  0
POINT
  5
2541B
330
24C39
100
AcDbEntity
  8
DEFPOINTS
 62
     0
 48
50.0
100
AcDbPoint
 10
9630.600000000002
 20
7893.907777930206
 30
0.0
  0
POINT
  5
2541C
330
24C39
100
AcDbEntity
  8
DEFPOINTS
 62
     0
 48
50.0
100
AcDbPoint
 10
6816.600000000001
 20
7893.907777930206
 30
0.0
  0
POINT
  5
2541D
330
24C39
100
AcDbEntity
  8
DEFPOINTS
 62
     0
 48
50.0
100
AcDbPoint
 10
6816.600000000001
 20
8712.66740447229
 30
0.0
  0
ENDBLK
  5
24C43
330
24C39
100
AcDbEntity
  8
0
 48
50.0
100
AcDbBlockEnd
  0
BLOCK
  5
24C4D
330
24C44
100
AcDbEntity
  8
0
 48
50.0
100
AcDbBlockBegin
  2
*D22
 70
     1
 10
0.0
 20
0.0
 30
0.0
  3
*D22
  1

  0
LINE
  5
2540C
330
24C44
100
AcDbEntity
  8
寸法
 62
     0
 48
50.0
370
    -2
100
AcDbLine
 10
6673.600000000002
 20
5746.90777793021
 30
0.0
 11
5294.99411552824
 21
5746.907777930211
 31
0.0
  0
LINE
  5
2540D
330
24C44
100
AcDbEntity
  8
寸法
 62
     0
 48
50.0
370
    -2
100
AcDbLine
 10
6673.600000000002
 20
7966.907777930209
 30
0.0
 11
5294.99411552824
 21
7966.907777930211
 31
0.0
  0
LINE
  5
2540E
330
24C44
100
AcDbEntity
  8
寸法
 62
     0
 48
50.0
370
    -2
100
AcDbLine
 10
5354.994115528239
 20
5746.907777930211
 30
0.0
 11
5354.99411552824
 21
7966.907777930211
 31
0.0
  0
INSERT
  5
2540F
330
24C44
100
AcDbEntity
  8
寸法
 62
     0
 48
50.0
370
    -2
100
AcDbBlockReference
  2
_DOTSMALL
 10
5354.994115528239
 20
5746.907777930211
 30
0.0
 41
100.0
 42
100.0
 43
100.0
 50
270.0
  0
INSERT
  5
25410
330
24C44
100
AcDbEntity
  8
寸法
 62
     0
 48
50.0
370
    -2
100
AcDbBlockReference
  2
_DOTSMALL
 10
5354.99411552824
 20
7966.907777930211
 30
0.0
 41
100.0
 42
100.0
 43
100.0
 50
90.0
  0
MTEXT
  5
25411
330
24C44
100
AcDbEntity
  8
寸法
 62
     7
 48
50.0
100
AcDbMText
 10
5254.982304504617
 20
6821.907777930211
 30
0.0
 40
120.0
 41
0.0
 71
     5
 72
     1
  1
\A1;2220
  7
STYLE1
 11
0.0000000000000001
 21
1.0
 31
0.0
 73
     1
 44
1.0
1001
ACAD
1000
MTEXTBEGIN
1070
    73
1070
     1
1070
    44
1040
1.0
1070
    74
1070
     0
1000
MTEXTEND
  0
POINT
  5
25412
330
24C44
100
AcDbEntity
  8
DEFPOINTS
 62
     0
 48
50.0
100
AcDbPoint
 10
6693.6
 20
5746.90777793021
 30
0.0
  0
POINT
  5
25413
330
24C44
100
AcDbEntity
  8
DEFPOINTS
 62
     0
 48
50.0
100
AcDbPoint
 10
6693.6
 20
7966.907777930209
 30
0.0
  0
POINT
  5
25414
330
24C44
100
AcDbEntity
  8
DEFPOINTS
 62
     0
 48
50.0
100
AcDbPoint
 10
5354.99411552824
 20
7966.907777930211
 30
0.0
  0
ENDBLK
  5
24C4E
330
24C44
100
AcDbEntity
  8
0
 48
50.0
100
AcDbBlockEnd
  0
BLOCK
  5
24C59
330
24C4F
100
AcDbEntity
  8
0
 48
50.0
100
AcDbBlockBegin
  2
*D23
 70
     1
 10
0.0
 20
0.0
 30
0.0
  3
*D23
  1

  0
LINE
  5
25403
330
24C4F
100
AcDbEntity
  8
寸法
 62
     0
 48
50.0
370
    -2
100
AcDbLine
 10
6746.6
 20
7843.907777930207
 30
0.0
 11
5546.937212247638
 21
7843.907777930207
 31
0.0
  0
LINE
  5
25404
330
24C4F
100
AcDbEntity
  8
寸法
 62
     0
 48
50.0
370
    -2
100
AcDbLine
 10
6746.600000000009
 20
5869.907777930206
 30
0.0
 11
5546.937212247637
 21
5869.907777930207
 31
0.0
  0
LINE
  5
25405
330
24C4F
100
AcDbEntity
  8
寸法
 62
     0
 48
50.0
370
    -2
100
AcDbLine
 10
5606.937212247639
 20
7843.907777930207
 30
0.0
 11
5606.937212247638
 21
5869.907777930207
 31
0.0
  0
INSERT
  5
25406
330
24C4F
100
AcDbEntity
  8
寸法
 62
     0
 48
50.0
370
    -2
100
AcDbBlockReference
  2
_DOTSMALL
 10
5606.937212247639
 20
7843.907777930207
 30
0.0
 41
100.0
 42
100.0
 43
100.0
 50
90.0
  0
INSERT
  5
25407
330
24C4F
100
AcDbEntity
  8
寸法
 62
     0
 48
50.0
370
    -2
100
AcDbBlockReference
  2
_DOTSMALL
 10
5606.937212247638
 20
5869.907777930207
 30
0.0
 41
100.0
 42
100.0
 43
100.0
 50
270.0
  0
MTEXT
  5
25408
330
24C4F
100
AcDbEntity
  8
寸法
 62
     7
 48
50.0
100
AcDbMText
 10
5506.937212247637
 20
6891.907777930204
 30
0.0
 40
120.0
 41
0.0
 71
     5
 72
     1
  1
\A1;1974
  7
STYLE1
 11
0.0000000000000001
 21
1.0
 31
0.0
 73
     1
 44
1.0
1001
ACAD
1000
MTEXTBEGIN
1070
    73
1070
     1
1070
    44
1040
1.0
1070
    74
1070
     0
1000
MTEXTEND
  0
POINT
  5
25409
330
24C4F
100
AcDbEntity
  8
DEFPOINTS
 62
     0
 48
50.0
100
AcDbPoint
 10
6766.600000000001
 20
7843.907777930207
 30
0.0
  0
POINT
  5
2540A
330
24C4F
100
AcDbEntity
  8
DEFPOINTS
 62
     0
 48
50.0
100
AcDbPoint
 10
6766.600000000008
 20
5869.907777930206
 30
0.0
  0
POINT
  5
2540B
330
24C4F
100
AcDbEntity
  8
DEFPOINTS
 62
     0
 48
50.0
100
AcDbPoint
 10
5606.937212247638
 20
5869.907777930207
 30
0.0
  0
ENDBLK
  5
24C5A
330
24C4F
100
AcDbEntity
  8
0
 48
50.0
100
AcDbBlockEnd
  0
BLOCK
  5
24C66
330
24C5B
100
AcDbEntity
  8
0
 48
50.0
100
AcDbBlockBegin
  2
*D24
 70
     1
 10
0.0
 20
0.0
 30
0.0
  3
*D24
  1

  0
LINE
  5
25E2E
330
24C5B
100
AcDbEntity
  8
寸法
 62
     0
 48
50.0
370
    -2
100
AcDbLine
 10
6943.600000000002
 20
7846.907777930207
 30
0.0
 11
7200.3072498761
 21
7846.907777930207
 31
0.0
  0
LINE
  5
25E2F
330
24C5B
100
AcDbEntity
  8
寸法
 62
     0
 48
50.0
370
    -2
100
AcDbLine
 10
6943.600000000002
 20
7736.907777930203
 30
0.0
 11
7200.3072498761
 21
7736.907777930203
 31
0.0
  0
LINE
  5
25E30
330
24C5B
100
AcDbEntity
  8
寸法
 62
     0
 48
50.0
370
    -2
100
AcDbLine
 10
7140.307249876101
 20
7846.907777930207
 30
0.0
 11
7140.307249876101
 21
7736.907777930203
 31
0.0
  0
LINE
  5
25E31
330
24C5B
100
AcDbEntity
  8
寸法
 62
     0
 48
50.0
370
    -2
100
AcDbLine
 10
7140.307249876101
 20
7736.907777930203
 30
0.0
 11
7140.307249876101
 21
7272.8014787176
 31
0.0
  0
INSERT
  5
25E32
330
24C5B
100
AcDbEntity
  8
寸法
 62
     0
 48
50.0
370
    -2
100
AcDbBlockReference
  2
_DOTSMALL
 10
7140.307249876101
 20
7846.907777930207
 30
0.0
 41
100.0
 42
100.0
 43
100.0
 50
90.0
  0
INSERT
  5
25E33
330
24C5B
100
AcDbEntity
  8
寸法
 62
     0
 48
50.0
370
    -2
100
AcDbBlockReference
  2
_DOTSMALL
 10
7140.307249876101
 20
7736.907777930203
 30
0.0
 41
100.0
 42
100.0
 43
100.0
 50
270.0
  0
MTEXT
  5
25E34
330
24C5B
100
AcDbEntity
  8
寸法
 62
     7
 48
50.0
100
AcDbMText
 10
7040.307249876099
 20
7396.848722812091
 30
0.0
 40
120.0
 41
0.0
 71
     5
 72
     1
  1
\A1;110
  7
STYLE1
 11
0.0000000000000001
 21
1.0
 31
0.0
 73
     1
 44
1.0
1001
ACAD
1000
MTEXTBEGIN
1070
    73
1070
     1
1070
    44
1040
1.0
1070
    74
1070
     0
1000
MTEXTEND
  0
POINT
  5
25E35
330
24C5B
100
AcDbEntity
  8
DEFPOINTS
 62
     0
 48
50.0
100
AcDbPoint
 10
6923.600000000002
 20
7846.907777930207
 30
0.0
  0
POINT
  5
25E36
330
24C5B
100
AcDbEntity
  8
DEFPOINTS
 62
     0
 48
50.0
100
AcDbPoint
 10
6923.600000000002
 20
7736.907777930203
 30
0.0
  0
POINT
  5
25E37
330
24C5B
100
AcDbEntity
  8
DEFPOINTS
 62
     0
 48
50.0
100
AcDbPoint
 10
7140.307249876101
 20
7736.907777930203
 30
0.0
  0
ENDBLK
  5
24C67
330
24C5B
100
AcDbEntity
  8
0
 48
50.0
100
AcDbBlockEnd
  0
BLOCK
  5
24C71
330
24C68
100
AcDbEntity
  8
0
 48
50.0
100
AcDbBlockBegin
  2
*D25
 70
     1
 10
0.0
 20
0.0
 30
0.0
  3
*D25
  1

  0
LINE
  5
253F0
330
24C68
100
AcDbEntity
  8
寸法
 62
     0
 48
50.0
370
    -2
100
AcDbLine
 10
7496.6
 20
7351.907777930207
 30
0.0
 11
7496.6
 21
8553.817543578535
 31
0.0
  0
LINE
  5
253F1
330
24C68
100
AcDbEntity
  8
寸法
 62
     0
 48
50.0
370
    -2
100
AcDbLine
 10
6693.6
 20
7986.907777930206
 30
0.0
 11
6693.6
 21
8553.817543578535
 31
0.0
  0
LINE
  5
253F2
330
24C68
100
AcDbEntity
  8
寸法
 62
     0
 48
50.0
370
    -2
100
AcDbLine
 10
7496.6
 20
8493.817543578535
 30
0.0
 11
6693.6
 21
8493.817543578535
 31
0.0
  0
INSERT
  5
253F3
330
24C68
100
AcDbEntity
  8
寸法
 62
     0
 48
50.0
370
    -2
100
AcDbBlockReference
  2
_DOTSMALL
 10
7496.6
 20
8493.817543578535
 30
0.0
 41
100.0
 42
100.0
 43
100.0
  0
INSERT
  5
253F4
330
24C68
100
AcDbEntity
  8
寸法
 62
     0
 48
50.0
370
    -2
100
AcDbBlockReference
  2
_DOTSMALL
 10
6693.6
 20
8493.817543578535
 30
0.0
 41
100.0
 42
100.0
 43
100.0
 50
180.0
  0
MTEXT
  5
253F5
330
24C68
100
AcDbEntity
  8
寸法
 62
     7
 48
50.0
100
AcDbMText
 10
7095.100000000001
 20
8593.817543578534
 30
0.0
 40
120.0
 41
0.0
 71
     5
 72
     1
  1
\A1;803
  7
STYLE1
 73
     1
 44
1.0
1001
ACAD
1000
MTEXTBEGIN
1070
    73
1070
     1
1070
    44
1040
1.0
1070
    74
1070
     0
1000
MTEXTEND
  0
POINT
  5
253F6
330
24C68
100
AcDbEntity
  8
DEFPOINTS
 62
     0
 48
50.0
100
AcDbPoint
 10
7496.6
 20
7331.907777930206
 30
0.0
  0
POINT
  5
253F7
330
24C68
100
AcDbEntity
  8
DEFPOINTS
 62
     0
 48
50.0
100
AcDbPoint
 10
6693.6
 20
7966.907777930206
 30
0.0
  0
POINT
  5
253F8
330
24C68
100
AcDbEntity
  8
DEFPOINTS
 62
     0
 48
50.0
100
AcDbPoint
 10
6693.6
 20
8493.817543578535
 30
0.0
  0
ENDBLK
  5
24C72
330
24C68
100
AcDbEntity
  8
0
 48
50.0
100
AcDbBlockEnd
  0
BLOCK
  5
24C93
330
24C8B
100
AcDbEntity
  8
0
 48
50.0
100
AcDbBlockBegin
  2
*D26
 70
     1
 10
0.0
 20
0.0
 30
0.0
  3
*D26
  1

  0
LINE
  5
2547E
330
24C8B
100
AcDbEntity
  8
寸法
 62
     0
 48
50.0
370
    -2
100
AcDbLine
 10
5586.937212247637
 20
5671.907777930212
 30
0.0
 11
5294.994115528242
 21
5671.907777930212
 31
0.0
  0
LINE
  5
2547F
330
24C8B
100
AcDbEntity
  8
寸法
 62
     0
 48
50.0
370
    -2
100
AcDbLine
 10
6673.600000000002
 20
5746.90777793021
 30
0.0
 11
5294.994115528242
 21
5746.907777930211
 31
0.0
  0
LINE
  5
25480
330
24C8B
100
AcDbEntity
  8
寸法
 62
     0
 48
50.0
370
    -2
100
AcDbLine
 10
5354.994115528241
 20
5671.907777930212
 30
0.0
 11
5354.994115528241
 21
5571.907777930213
 31
0.0
  0
LINE
  5
25481
330
24C8B
100
AcDbEntity
  8
寸法
 62
     0
 48
50.0
370
    -2
100
AcDbLine
 10
5354.994115528241
 20
5746.907777930211
 30
0.0
 11
5354.994115528241
 21
5846.90777793021
 31
0.0
  0
LINE
  5
25482
330
24C8B
100
AcDbEntity
  8
寸法
 62
     0
 48
50.0
370
    -2
100
AcDbLine
 10
5354.994115528241
 20
5671.907777930212
 30
0.0
 11
5354.994115528241
 21
5746.907777930211
 31
0.0
  0
INSERT
  5
25483
330
24C8B
100
AcDbEntity
  8
寸法
 62
     0
 48
50.0
370
    -2
100
AcDbBlockReference
  2
_DOTSMALL
 10
5354.994115528241
 20
5671.907777930212
 30
0.0
 41
100.0
 42
100.0
 43
100.0
 50
90.0
  0
INSERT
  5
25484
330
24C8B
100
AcDbEntity
  8
寸法
 62
     0
 48
50.0
370
    -2
100
AcDbBlockReference
  2
_DOTSMALL
 10
5354.994115528241
 20
5746.907777930211
 30
0.0
 41
100.0
 42
100.0
 43
100.0
 50
270.0
  0
MTEXT
  5
25485
330
24C8B
100
AcDbEntity
  8
寸法
 62
     7
 48
50.0
100
AcDbMText
 10
5254.994115528241
 20
5709.407777930213
 30
0.0
 40
120.0
 41
0.0
 71
     5
 72
     1
  1
\A1;c
  7
STYLE1
 11
0.0000000000000001
 21
1.0
 31
0.0
 73
     1
 44
1.0
1001
ACAD
1000
MTEXTBEGIN
1070
    73
1070
     1
1070
    44
1040
1.0
1070
    74
1070
     0
1000
MTEXTEND
  0
POINT
  5
25486
330
24C8B
100
AcDbEntity
  8
DEFPOINTS
 62
     0
 48
50.0
100
AcDbPoint
 10
5606.937212247638
 20
5671.907777930212
 30
0.0
  0
POINT
  5
25487
330
24C8B
100
AcDbEntity
  8
DEFPOINTS
 62
     0
 48
50.0
100
AcDbPoint
 10
6693.6
 20
5746.90777793021
 30
0.0
  0
POINT
  5
25488
330
24C8B
100
AcDbEntity
  8
DEFPOINTS
 62
     0
 48
50.0
100
AcDbPoint
 10
5354.994115528241
 20
5746.907777930211
 30
0.0
  0
ENDBLK
  5
24C94
330
24C8B
100
AcDbEntity
  8
0
 48
50.0
100
AcDbBlockEnd
  0
BLOCK
  5
24CA0
330
24C95
100
AcDbEntity
  8
0
 48
50.0
100
AcDbBlockBegin
  2
*D27
 70
     1
 10
0.0
 20
0.0
 30
0.0
  3
*D27
  1

  0
LINE
  5
253C8
330
24C95
100
AcDbEntity
  8
寸法
 62
     0
 48
50.0
370
    -2
100
AcDbLine
 10
6746.600000000009
 20
5869.907777930206
 30
0.0
 11
5546.937212247637
 21
5869.907777930207
 31
0.0
  0
LINE
  5
253C9
330
24C95
100
AcDbEntity
  8
寸法
 62
     0
 48
50.0
370
    -2
100
AcDbLine
 10
6673.600000000002
 20
5746.907777930206
 30
0.0
 11
5546.937212247637
 21
5746.907777930207
 31
0.0
  0
LINE
  5
253CA
330
24C95
100
AcDbEntity
  8
寸法
 62
     0
 48
50.0
370
    -2
100
AcDbLine
 10
5606.937212247638
 20
5869.907777930207
 30
0.0
 11
5606.937212247638
 21
5746.907777930207
 31
0.0
  0
LINE
  5
253CB
330
24C95
100
AcDbEntity
  8
寸法
 62
     0
 48
50.0
370
    -2
100
AcDbLine
 10
5606.937212247638
 20
5746.907777930207
 30
0.0
 11
5606.937212247638
 21
5312.891547713374
 31
0.0
  0
INSERT
  5
253CC
330
24C95
100
AcDbEntity
  8
寸法
 62
     0
 48
50.0
370
    -2
100
AcDbBlockReference
  2
_DOTSMALL
 10
5606.937212247638
 20
5869.907777930207
 30
0.0
 41
100.0
 42
100.0
 43
100.0
 50
90.0
  0
INSERT
  5
253CD
330
24C95
100
AcDbEntity
  8
寸法
 62
     0
 48
50.0
370
    -2
100
AcDbBlockReference
  2
_DOTSMALL
 10
5606.937212247638
 20
5746.907777930207
 30
0.0
 41
100.0
 42
100.0
 43
100.0
 50
270.0
  0
MTEXT
  5
253CE
330
24C95
100
AcDbEntity
  8
寸法
 62
     7
 48
50.0
100
AcDbMText
 10
5506.925401224015
 20
5451.376829087614
 30
0.0
 40
120.0
 41
0.0
 71
     5
 72
     1
  1
\A1;123
  7
STYLE1
 11
0.0000000000000001
 21
1.0
 31
0.0
 73
     1
 44
1.0
1001
ACAD
1000
MTEXTBEGIN
1070
    73
1070
     1
1070
    44
1040
1.0
1070
    74
1070
     0
1000
MTEXTEND
  0
POINT
  5
253CF
330
24C95
100
AcDbEntity
  8
DEFPOINTS
 62
     0
 48
50.0
100
AcDbPoint
 10
6766.600000000008
 20
5869.907777930206
 30
0.0
  0
POINT
  5
253D0
330
24C95
100
AcDbEntity
  8
DEFPOINTS
 62
     0
 48
50.0
100
AcDbPoint
 10
6693.6
 20
5746.907777930206
 30
0.0
  0
POINT
  5
253D1
330
24C95
100
AcDbEntity
  8
DEFPOINTS
 62
     0
 48
50.0
100
AcDbPoint
 10
5606.937212247638
 20
5746.907777930207
 30
0.0
  0
ENDBLK
  5
24CA1
330
24C95
100
AcDbEntity
  8
0
 48
50.0
100
AcDbBlockEnd
  0
BLOCK
  5
24CAC
330
24CA2
100
AcDbEntity
  8
0
 48
50.0
100
AcDbBlockBegin
  2
*D28
 70
     1
 10
0.0
 20
0.0
 30
0.0
  3
*D28
  1

  0
LINE
  5
2545D
330
24CA2
100
AcDbEntity
  8
寸法
 62
     0
 48
50.0
370
    -2
100
AcDbLine
 10
6673.600000000002
 20
7966.907777930209
 30
0.0
 11
5294.994115528242
 21
7966.907777930211
 31
0.0
  0
LINE
  5
2545E
330
24CA2
100
AcDbEntity
  8
寸法
 62
     0
 48
50.0
370
    -2
100
AcDbLine
 10
5586.937212247637
 20
8021.907777930207
 30
0.0
 11
5294.994115528242
 21
8021.907777930207
 31
0.0
  0
LINE
  5
2545F
330
24CA2
100
AcDbEntity
  8
寸法
 62
     0
 48
50.0
370
    -2
100
AcDbLine
 10
5354.994115528241
 20
7966.907777930211
 30
0.0
 11
5354.994115528241
 21
7866.907777930212
 31
0.0
  0
LINE
  5
25460
330
24CA2
100
AcDbEntity
  8
寸法
 62
     0
 48
50.0
370
    -2
100
AcDbLine
 10
5354.994115528241
 20
8021.907777930207
 30
0.0
 11
5354.994115528241
 21
8121.907777930207
 31
0.0
  0
LINE
  5
25461
330
24CA2
100
AcDbEntity
  8
寸法
 62
     0
 48
50.0
370
    -2
100
AcDbLine
 10
5354.994115528241
 20
7966.907777930211
 30
0.0
 11
5354.994115528241
 21
8021.907777930207
 31
0.0
  0
INSERT
  5
25462
330
24CA2
100
AcDbEntity
  8
寸法
 62
     0
 48
50.0
370
    -2
100
AcDbBlockReference
  2
_DOTSMALL
 10
5354.994115528241
 20
7966.907777930211
 30
0.0
 41
100.0
 42
100.0
 43
100.0
 50
90.0
  0
INSERT
  5
25463
330
24CA2
100
AcDbEntity
  8
寸法
 62
     0
 48
50.0
370
    -2
100
AcDbBlockReference
  2
_DOTSMALL
 10
5354.994115528241
 20
8021.907777930207
 30
0.0
 41
100.0
 42
100.0
 43
100.0
 50
270.0
  0
MTEXT
  5
25464
330
24CA2
100
AcDbEntity
  8
寸法
 62
     7
 48
50.0
100
AcDbMText
 10
5254.994115528241
 20
7994.40777793021
 30
0.0
 40
120.0
 41
0.0
 71
     5
 72
     1
  1
\A1;b
  7
STYLE1
 11
0.0000000000000001
 21
1.0
 31
0.0
 73
     1
 44
1.0
1001
ACAD
1000
MTEXTBEGIN
1070
    73
1070
     1
1070
    44
1040
1.0
1070
    74
1070
     0
1000
MTEXTEND
  0
POINT
  5
25465
330
24CA2
100
AcDbEntity
  8
DEFPOINTS
 62
     0
 48
50.0
100
AcDbPoint
 10
6693.6
 20
7966.907777930209
 30
0.0
  0
POINT
  5
25466
330
24CA2
100
AcDbEntity
  8
DEFPOINTS
 62
     0
 48
50.0
100
AcDbPoint
 10
5606.937212247638
 20
8021.907777930207
 30
0.0
  0
POINT
  5
25467
330
24CA2
100
AcDbEntity
  8
DEFPOINTS
 62
     0
 48
50.0
100
AcDbPoint
 10
5354.994115528241
 20
8021.907777930207
 30
0.0
  0
ENDBLK
  5
24CAD
330
24CA2
100
AcDbEntity
  8
0
 48
50.0
100
AcDbBlockEnd
  0
BLOCK
  5
24CB9
330
24CAE
100
AcDbEntity
  8
0
 48
50.0
100
AcDbBlockBegin
  2
*D29
 70
     1
 10
0.0
 20
0.0
 30
0.0
  3
*D29
  1

  0
LINE
  5
253B2
330
24CAE
100
AcDbEntity
  8
寸法
 62
     0
 48
50.0
370
    -2
100
AcDbLine
 10
6643.600000000001
 20
8732.667404472286
 30
0.0
 11
6643.600000000001
 21
8985.128099989127
 31
0.0
  0
LINE
  5
253B3
330
24CAE
100
AcDbEntity
  8
寸法
 62
     0
 48
50.0
370
    -2
100
AcDbLine
 10
6693.6
 20
7986.907777930206
 30
0.0
 11
6693.6
 21
8985.128099989127
 31
0.0
  0
LINE
  5
253B4
330
24CAE
100
AcDbEntity
  8
寸法
 62
     0
 48
50.0
370
    -2
100
AcDbLine
 10
6693.6
 20
8925.128099989128
 30
0.0
 11
6793.600000000001
 21
8925.128099989128
 31
0.0
  0
LINE
  5
253B5
330
24CAE
100
AcDbEntity
  8
寸法
 62
     0
 48
50.0
370
    -2
100
AcDbLine
 10
6643.600000000001
 20
8925.128099989128
 30
0.0
 11
6311.250757595084
 21
8925.128099989128
 31
0.0
  0
LINE
  5
253B6
330
24CAE
100
AcDbEntity
  8
寸法
 62
     0
 48
50.0
370
    -2
100
AcDbLine
 10
6693.6
 20
8925.128099989128
 30
0.0
 11
6643.600000000001
 21
8925.128099989128
 31
0.0
  0
INSERT
  5
253B7
330
24CAE
100
AcDbEntity
  8
寸法
 62
     0
 48
50.0
370
    -2
100
AcDbBlockReference
  2
_DOTSMALL
 10
6693.6
 20
8925.128099989128
 30
0.0
 41
100.0
 42
100.0
 43
100.0
 50
180.0
  0
INSERT
  5
253B8
330
24CAE
100
AcDbEntity
  8
寸法
 62
     0
 48
50.0
370
    -2
100
AcDbBlockReference
  2
_DOTSMALL
 10
6643.600000000001
 20
8925.128099989128
 30
0.0
 41
100.0
 42
100.0
 43
100.0
  0
MTEXT
  5
253B9
330
24CAE
100
AcDbEntity
  8
寸法
 62
     7
 48
50.0
100
AcDbMText
 10
6377.425378797543
 20
9025.128099989128
 30
0.0
 40
120.0
 41
0.0
 71
     5
 72
     1
  1
\A1;a
  7
STYLE1
 73
     1
 44
1.0
1001
ACAD
1000
MTEXTBEGIN
1070
    73
1070
     1
1070
    44
1040
1.0
1070
    74
1070
     0
1000
MTEXTEND
  0
POINT
  5
253BA
330
24CAE
100
AcDbEntity
  8
DEFPOINTS
 62
     0
 48
50.0
100
AcDbPoint
 10
6643.600000000001
 20
8712.667404472286
 30
0.0
  0
POINT
  5
253BB
330
24CAE
100
AcDbEntity
  8
DEFPOINTS
 62
     0
 48
50.0
100
AcDbPoint
 10
6693.6
 20
7966.907777930206
 30
0.0
  0
POINT
  5
253BC
330
24CAE
100
AcDbEntity
  8
DEFPOINTS
 62
     0
 48
50.0
100
AcDbPoint
 10
6693.6
 20
8925.128099989128
 30
0.0
  0
ENDBLK
  5
24CBA
330
24CAE
100
AcDbEntity
  8
0
 48
50.0
100
AcDbBlockEnd
  0
BLOCK
  5
24CC6
330
24CBB
100
AcDbEntity
  8
0
 48
50.0
100
AcDbBlockBegin
  2
*D30
 70
     1
 10
0.0
 20
0.0
 30
0.0
  3
*D30
  1

  0
LINE
  5
253A8
330
24CBB
100
AcDbEntity
  8
寸法
 62
     0
 48
50.0
370
    -2
100
AcDbLine
 10
6816.600000000001
 20
7913.907777930205
 30
0.0
 11
6816.600000000001
 21
8772.66740447229
 31
0.0
  0
LINE
  5
253A9
330
24CBB
100
AcDbEntity
  8
寸法
 62
     0
 48
50.0
370
    -2
100
AcDbLine
 10
6693.6
 20
7986.907777930206
 30
0.0
 11
6693.6
 21
8772.66740447229
 31
0.0
  0
LINE
  5
253AA
330
24CBB
100
AcDbEntity
  8
寸法
 62
     0
 48
50.0
370
    -2
100
AcDbLine
 10
6816.600000000001
 20
8712.66740447229
 30
0.0
 11
6693.6
 21
8712.66740447229
 31
0.0
  0
LINE
  5
253AB
330
24CBB
100
AcDbEntity
  8
寸法
 62
     0
 48
50.0
370
    -2
100
AcDbLine
 10
6693.6
 20
8712.66740447229
 30
0.0
 11
6282.008116907964
 21
8712.66740447229
 31
0.0
  0
INSERT
  5
253AC
330
24CBB
100
AcDbEntity
  8
寸法
 62
     0
 48
50.0
370
    -2
100
AcDbBlockReference
  2
_DOTSMALL
 10
6816.600000000001
 20
8712.66740447229
 30
0.0
 41
100.0
 42
100.0
 43
100.0
  0
INSERT
  5
253AD
330
24CBB
100
AcDbEntity
  8
寸法
 62
     0
 48
50.0
370
    -2
100
AcDbBlockReference
  2
_DOTSMALL
 10
6693.6
 20
8712.66740447229
 30
0.0
 41
100.0
 42
100.0
 43
100.0
 50
180.0
  0
MTEXT
  5
253AE
330
24CBB
100
AcDbEntity
  8
寸法
 62
     7
 48
50.0
100
AcDbMText
 10
6420.493398282203
 20
8812.679215495911
 30
0.0
 40
120.0
 41
0.0
 71
     5
 72
     1
  1
\A1;123
  7
STYLE1
 73
     1
 44
1.0
1001
ACAD
1000
MTEXTBEGIN
1070
    73
1070
     1
1070
    44
1040
1.0
1070
    74
1070
     0
1000
MTEXTEND
  0
POINT
  5
253AF
330
24CBB
100
AcDbEntity
  8
DEFPOINTS
 62
     0
 48
50.0
100
AcDbPoint
 10
6816.600000000001
 20
7893.907777930206
 30
0.0
  0
POINT
  5
253B0
330
24CBB
100
AcDbEntity
  8
DEFPOINTS
 62
     0
 48
50.0
100
AcDbPoint
 10
6693.6
 20
7966.907777930206
 30
0.0
  0
POINT
  5
253B1
330
24CBB
100
AcDbEntity
  8
DEFPOINTS
 62
     0
 48
50.0
100
AcDbPoint
 10
6693.6
 20
8712.66740447229
 30
0.0
  0
ENDBLK
  5
24CC7
330
24CBB
100
AcDbEntity
  8
0
 48
50.0
100
AcDbBlockEnd
  0
BLOCK
  5
24CD3
330
24CC8
100
AcDbEntity
  8
0
 48
50.0
100
AcDbBlockBegin
  2
*D31
 70
     1
 10
0.0
 20
0.0
 30
0.0
  3
*D31
  1

  0
LINE
  5
2539E
330
24CC8
100
AcDbEntity
  8
寸法
 62
     0
 48
50.0
370
    -2
100
AcDbLine
 10
6673.600000000002
 20
7966.907777930206
 30
0.0
 11
5546.937212247637
 21
7966.907777930207
 31
0.0
  0
LINE
  5
2539F
330
24CC8
100
AcDbEntity
  8
寸法
 62
     0
 48
50.0
370
    -2
100
AcDbLine
 10
6746.6
 20
7843.907777930207
 30
0.0
 11
5546.937212247637
 21
7843.907777930207
 31
0.0
  0
LINE
  5
253A0
330
24CC8
100
AcDbEntity
  8
寸法
 62
     0
 48
50.0
370
    -2
100
AcDbLine
 10
5606.937212247638
 20
7843.907777930207
 30
0.0
 11
5606.937212247638
 21
7966.907777930207
 31
0.0
  0
LINE
  5
253A1
330
24CC8
100
AcDbEntity
  8
寸法
 62
     0
 48
50.0
370
    -2
100
AcDbLine
 10
5606.937212247638
 20
7966.907777930207
 30
0.0
 11
5606.937212247638
 21
8418.499661022242
 31
0.0
  0
INSERT
  5
253A2
330
24CC8
100
AcDbEntity
  8
寸法
 62
     0
 48
50.0
370
    -2
100
AcDbBlockReference
  2
_DOTSMALL
 10
5606.937212247638
 20
7843.907777930207
 30
0.0
 41
100.0
 42
100.0
 43
100.0
 50
270.0
  0
INSERT
  5
253A3
330
24CC8
100
AcDbEntity
  8
寸法
 62
     0
 48
50.0
370
    -2
100
AcDbBlockReference
  2
_DOTSMALL
 10
5606.937212247638
 20
7966.907777930207
 30
0.0
 41
100.0
 42
100.0
 43
100.0
 50
90.0
  0
MTEXT
  5
253A4
330
24CC8
100
AcDbEntity
  8
寸法
 62
     7
 48
50.0
100
AcDbMText
 10
5506.925401224015
 20
8280.014379648005
 30
0.0
 40
120.0
 41
0.0
 71
     5
 72
     1
  1
\A1;123
  7
STYLE1
 11
0.0000000000000001
 21
1.0
 31
0.0
 73
     1
 44
1.0
1001
ACAD
1000
MTEXTBEGIN
1070
    73
1070
     1
1070
    44
1040
1.0
1070
    74
1070
     0
1000
MTEXTEND
  0
POINT
  5
253A5
330
24CC8
100
AcDbEntity
  8
DEFPOINTS
 62
     0
 48
50.0
100
AcDbPoint
 10
6693.6
 20
7966.907777930206
 30
0.0
  0
POINT
  5
253A6
330
24CC8
100
AcDbEntity
  8
DEFPOINTS
 62
     0
 48
50.0
100
AcDbPoint
 10
6766.600000000001
 20
7843.907777930207
 30
0.0
  0
POINT
  5
253A7
330
24CC8
100
AcDbEntity
  8
DEFPOINTS
 62
     0
 48
50.0
100
AcDbPoint
 10
5606.937212247638
 20
7843.907777930207
 30
0.0
  0
ENDBLK
  5
24CD4
330
24CC8
100
AcDbEntity
  8
0
 48
50.0
100
AcDbBlockEnd
  0
BLOCK
  5
24CE0
330
24CD5
100
AcDbEntity
  8
0
 48
50.0
100
AcDbBlockBegin
  2
*D32
 70
     1
 10
0.0
 20
0.0
 30
0.0
  3
*D32
  1

  0
LINE
  5
25E24
330
24CD5
100
AcDbEntity
  8
寸法
 62
     0
 48
50.0
370
    -2
100
AcDbLine
 10
6943.600000000002
 20
7846.907777930207
 30
0.0
 11
7200.3072498761
 21
7846.907777930207
 31
0.0
  0
LINE
  5
25E25
330
24CD5
100
AcDbEntity
  8
寸法
 62
     0
 48
50.0
370
    -2
100
AcDbLine
 10
6943.600000000002
 20
7966.907777930206
 30
0.0
 11
7200.3072498761
 21
7966.907777930206
 31
0.0
  0
LINE
  5
25E26
330
24CD5
100
AcDbEntity
  8
寸法
 62
     0
 48
50.0
370
    -2
100
AcDbLine
 10
7140.307249876099
 20
7846.907777930207
 30
0.0
 11
7140.307249876099
 21
7966.907777930206
 31
0.0
  0
LINE
  5
25E27
330
24CD5
100
AcDbEntity
  8
寸法
 62
     0
 48
50.0
370
    -2
100
AcDbLine
 10
7140.307249876099
 20
7966.907777930206
 30
0.0
 11
7140.307249876099
 21
8381.038565297577
 31
0.0
  0
INSERT
  5
25E28
330
24CD5
100
AcDbEntity
  8
寸法
 62
     0
 48
50.0
370
    -2
100
AcDbBlockReference
  2
_DOTSMALL
 10
7140.307249876099
 20
7846.907777930207
 30
0.0
 41
100.0
 42
100.0
 43
100.0
 50
270.0
  0
INSERT
  5
25E29
330
24CD5
100
AcDbEntity
  8
寸法
 62
     0
 48
50.0
370
    -2
100
AcDbBlockReference
  2
_DOTSMALL
 10
7140.307249876099
 20
7966.907777930206
 30
0.0
 41
100.0
 42
100.0
 43
100.0
 50
90.0
  0
MTEXT
  5
25E2A
330
24CD5
100
AcDbEntity
  8
寸法
 62
     7
 48
50.0
100
AcDbMText
 10
7040.295438852478
 20
8244.991321203093
 30
0.0
 40
120.0
 41
0.0
 71
     5
 72
     1
  1
\A1;120
  7
STYLE1
 11
0.0000000000000001
 21
1.0
 31
0.0
 73
     1
 44
1.0
1001
ACAD
1000
MTEXTBEGIN
1070
    73
1070
     1
1070
    44
1040
1.0
1070
    74
1070
     0
1000
MTEXTEND
  0
POINT
  5
25E2B
330
24CD5
100
AcDbEntity
  8
DEFPOINTS
 62
     0
 48
50.0
100
AcDbPoint
 10
6923.600000000002
 20
7846.907777930207
 30
0.0
  0
POINT
  5
25E2C
330
24CD5
100
AcDbEntity
  8
DEFPOINTS
 62
     0
 48
50.0
100
AcDbPoint
 10
6923.600000000002
 20
7966.907777930206
 30
0.0
  0
POINT
  5
25E2D
330
24CD5
100
AcDbEntity
  8
DEFPOINTS
 62
     0
 48
50.0
100
AcDbPoint
 10
7140.307249876099
 20
7966.907777930206
 30
0.0
  0
ENDBLK
  5
24CE1
330
24CD5
100
AcDbEntity
  8
0
 48
50.0
100
AcDbBlockEnd
  0
BLOCK
  5
24CEC
330
24CE2
100
AcDbEntity
  8
0
 48
50.0
100
AcDbBlockBegin
  2
*D33
 70
     1
 10
0.0
 20
0.0
 30
0.0
  3
*D33
  1

  0
LINE
  5
2532B
330
24CE2
100
AcDbEntity
  8
寸法
 62
     0
 48
50.0
370
    -2
100
AcDbLine
 10
8950.600000000003
 20
7351.907777930207
 30
0.0
 11
8950.600000000003
 21
8553.817543578535
 31
0.0
  0
LINE
  5
2532C
330
24CE2
100
AcDbEntity
  8
寸法
 62
     0
 48
50.0
370
    -2
100
AcDbLine
 10
8223.600000000002
 20
7351.907777930207
 30
0.0
 11
8223.600000000002
 21
8553.817543578535
 31
0.0
  0
LINE
  5
2532D
330
24CE2
100
AcDbEntity
  8
寸法
 62
     0
 48
50.0
370
    -2
100
AcDbLine
 10
8950.600000000003
 20
8493.817543578535
 30
0.0
 11
8223.600000000002
 21
8493.817543578535
 31
0.0
  0
INSERT
  5
2532E
330
24CE2
100
AcDbEntity
  8
寸法
 62
     0
 48
50.0
370
    -2
100
AcDbBlockReference
  2
_DOTSMALL
 10
8950.600000000003
 20
8493.817543578535
 30
0.0
 41
100.0
 42
100.0
 43
100.0
  0
INSERT
  5
2532F
330
24CE2
100
AcDbEntity
  8
寸法
 62
     0
 48
50.0
370
    -2
100
AcDbBlockReference
  2
_DOTSMALL
 10
8223.600000000002
 20
8493.817543578535
 30
0.0
 41
100.0
 42
100.0
 43
100.0
 50
180.0
  0
MTEXT
  5
25330
330
24CE2
100
AcDbEntity
  8
寸法
 62
     7
 48
50.0
100
AcDbMText
 10
8587.100000000003
 20
8593.829354602155
 30
0.0
 40
120.0
 41
0.0
 71
     5
 72
     1
  1
\A1;727
  7
STYLE1
 73
     1
 44
1.0
1001
ACAD
1000
MTEXTBEGIN
1070
    73
1070
     1
1070
    44
1040
1.0
1070
    74
1070
     0
1000
MTEXTEND
  0
POINT
  5
25331
330
24CE2
100
AcDbEntity
  8
DEFPOINTS
 62
     0
 48
50.0
100
AcDbPoint
 10
8950.600000000003
 20
7331.907777930206
 30
0.0
  0
POINT
  5
25332
330
24CE2
100
AcDbEntity
  8
DEFPOINTS
 62
     0
 48
50.0
100
AcDbPoint
 10
8223.600000000002
 20
7331.907777930206
 30
0.0
  0
POINT
  5
25333
330
24CE2
100
AcDbEntity
  8
DEFPOINTS
 62
     0
 48
50.0
100
AcDbPoint
 10
8223.600000000002
 20
8493.817543578535
 30
0.0
  0
ENDBLK
  5
24CED
330
24CE2
100
AcDbEntity
  8
0
 48
50.0
100
AcDbBlockEnd
  0
BLOCK
  5
24D04
330
24CFB
100
AcDbEntity
  8
0
 48
50.0
100
AcDbBlockBegin
  2
*D34
 70
     1
 10
0.0
 20
0.0
 30
0.0
  3
*D34
  1

  0
LINE
  5
25381
330
24CFB
100
AcDbEntity
  8
寸法
 62
     0
 48
50.0
370
    -2
100
AcDbLine
 10
7376.600000000003
 20
7231.907777930207
 30
0.0
 11
5901.413371461228
 21
7231.907777930207
 31
0.0
  0
LINE
  5
25382
330
24CFB
100
AcDbEntity
  8
寸法
 62
     0
 48
50.0
370
    -2
100
AcDbLine
 10
6673.600000000002
 20
7966.907777930206
 30
0.0
 11
5901.413371461228
 21
7966.907777930207
 31
0.0
  0
LINE
  5
25383
330
24CFB
100
AcDbEntity
  8
寸法
 62
     0
 48
50.0
370
    -2
100
AcDbLine
 10
5961.413371461228
 20
7231.907777930207
 30
0.0
 11
5961.413371461228
 21
7966.907777930207
 31
0.0
  0
INSERT
  5
25384
330
24CFB
100
AcDbEntity
  8
寸法
 62
     0
 48
50.0
370
    -2
100
AcDbBlockReference
  2
_DOTSMALL
 10
5961.413371461228
 20
7231.907777930207
 30
0.0
 41
100.0
 42
100.0
 43
100.0
 50
270.0
  0
INSERT
  5
25385
330
24CFB
100
AcDbEntity
  8
寸法
 62
     0
 48
50.0
370
    -2
100
AcDbBlockReference
  2
_DOTSMALL
 10
5961.413371461228
 20
7966.907777930207
 30
0.0
 41
100.0
 42
100.0
 43
100.0
 50
90.0
  0
MTEXT
  5
25386
330
24CFB
100
AcDbEntity
  8
寸法
 62
     7
 48
50.0
100
AcDbMText
 10
5861.413371461227
 20
7599.407777930207
 30
0.0
 40
120.0
 41
0.0
 71
     5
 72
     1
  1
\A1;735
  7
STYLE1
 11
0.0000000000000001
 21
1.0
 31
0.0
 73
     1
 44
1.0
1001
ACAD
1000
MTEXTBEGIN
1070
    73
1070
     1
1070
    44
1040
1.0
1070
    74
1070
     0
1000
MTEXTEND
  0
POINT
  5
25387
330
24CFB
100
AcDbEntity
  8
DEFPOINTS
 62
     0
 48
50.0
100
AcDbPoint
 10
7396.600000000003
 20
7231.907777930207
 30
0.0
  0
POINT
  5
25388
330
24CFB
100
AcDbEntity
  8
DEFPOINTS
 62
     0
 48
50.0
100
AcDbPoint
 10
6693.6
 20
7966.907777930206
 30
0.0
  0
POINT
  5
25389
330
24CFB
100
AcDbEntity
  8
DEFPOINTS
 62
     0
 48
50.0
100
AcDbPoint
 10
5961.413371461228
 20
7966.907777930207
 30
0.0
  0
ENDBLK
  5
24D05
330
24CFB
100
AcDbEntity
  8
0
 48
50.0
100
AcDbBlockEnd
  0
BLOCK
  5
24D1D
330
24D13
100
AcDbEntity
  8
0
 48
50.0
100
AcDbBlockBegin
  2
*D35
 70
     1
 10
0.0
 20
0.0
 30
0.0
  3
*D35
  1

  0
LINE
  5
2536E
330
24D13
100
AcDbEntity
  8
寸法
 62
     0
 48
50.0
370
    -2
100
AcDbLine
 10
9753.600000000004
 20
7986.907777930206
 30
0.0
 11
9753.600000000004
 21
8553.817543578535
 31
0.0
  0
LINE
  5
2536F
330
24D13
100
AcDbEntity
  8
寸法
 62
     0
 48
50.0
370
    -2
100
AcDbLine
 10
8950.600000000003
 20
7351.907777930207
 30
0.0
 11
8950.600000000003
 21
8553.817543578535
 31
0.0
  0
LINE
  5
25370
330
24D13
100
AcDbEntity
  8
寸法
 62
     0
 48
50.0
370
    -2
100
AcDbLine
 10
9753.600000000004
 20
8493.817543578535
 30
0.0
 11
8950.600000000003
 21
8493.817543578535
 31
0.0
  0
INSERT
  5
25371
330
24D13
100
AcDbEntity
  8
寸法
 62
     0
 48
50.0
370
    -2
100
AcDbBlockReference
  2
_DOTSMALL
 10
9753.600000000004
 20
8493.817543578535
 30
0.0
 41
100.0
 42
100.0
 43
100.0
  0
INSERT
  5
25372
330
24D13
100
AcDbEntity
  8
寸法
 62
     0
 48
50.0
370
    -2
100
AcDbBlockReference
  2
_DOTSMALL
 10
8950.600000000003
 20
8493.817543578535
 30
0.0
 41
100.0
 42
100.0
 43
100.0
 50
180.0
  0
MTEXT
  5
25373
330
24D13
100
AcDbEntity
  8
寸法
 62
     7
 48
50.0
100
AcDbMText
 10
9324.518522006281
 20
8593.817543578534
 30
0.0
 40
120.0
 41
0.0
 71
     5
 72
     1
  1
\A1;803
  7
STYLE1
 73
     1
 44
1.0
1001
ACAD
1000
MTEXTBEGIN
1070
    73
1070
     1
1070
    44
1040
1.0
1070
    74
1070
     0
1000
MTEXTEND
  0
POINT
  5
25374
330
24D13
100
AcDbEntity
  8
DEFPOINTS
 62
     0
 48
50.0
100
AcDbPoint
 10
9753.600000000004
 20
7966.907777930206
 30
0.0
  0
POINT
  5
25375
330
24D13
100
AcDbEntity
  8
DEFPOINTS
 62
     0
 48
50.0
100
AcDbPoint
 10
8950.600000000003
 20
7331.907777930206
 30
0.0
  0
POINT
  5
25376
330
24D13
100
AcDbEntity
  8
DEFPOINTS
 62
     0
 48
50.0
100
AcDbPoint
 10
8950.600000000003
 20
8493.817543578535
 30
0.0
  0
ENDBLK
  5
24D1E
330
24D13
100
AcDbEntity
  8
0
 48
50.0
100
AcDbBlockEnd
  0
BLOCK
  5
24D29
330
24D1F
100
AcDbEntity
  8
0
 48
50.0
100
AcDbBlockBegin
  2
*D36
 70
     1
 10
0.0
 20
0.0
 30
0.0
  3
*D36
  1

  0
LINE
  5
25365
330
24D1F
100
AcDbEntity
  8
寸法
 62
     0
 48
50.0
370
    -2
100
AcDbLine
 10
6673.600000000002
 20
5746.907777930214
 30
0.0
 11
5901.413371461229
 21
5746.907777930215
 31
0.0
  0
LINE
  5
25366
330
24D1F
100
AcDbEntity
  8
寸法
 62
     0
 48
50.0
370
    -2
100
AcDbLine
 10
7376.600000000002
 20
6481.907777930207
 30
0.0
 11
5901.41337146123
 21
6481.907777930207
 31
0.0
  0
LINE
  5
25367
330
24D1F
100
AcDbEntity
  8
寸法
 62
     0
 48
50.0
370
    -2
100
AcDbLine
 10
5961.41337146123
 20
5746.907777930215
 30
0.0
 11
5961.41337146123
 21
6481.907777930207
 31
0.0
  0
INSERT
  5
25368
330
24D1F
100
AcDbEntity
  8
寸法
 62
     0
 48
50.0
370
    -2
100
AcDbBlockReference
  2
_DOTSMALL
 10
5961.41337146123
 20
5746.907777930215
 30
0.0
 41
100.0
 42
100.0
 43
100.0
 50
270.0
  0
INSERT
  5
25369
330
24D1F
100
AcDbEntity
  8
寸法
 62
     0
 48
50.0
370
    -2
100
AcDbBlockReference
  2
_DOTSMALL
 10
5961.41337146123
 20
6481.907777930207
 30
0.0
 41
100.0
 42
100.0
 43
100.0
 50
90.0
  0
MTEXT
  5
2536A
330
24D1F
100
AcDbEntity
  8
寸法
 62
     7
 48
50.0
100
AcDbMText
 10
5861.413371461228
 20
6071.120553595382
 30
0.0
 40
120.0
 41
0.0
 71
     5
 72
     1
  1
\A1;735
  7
STYLE1
 11
0.0000000000000001
 21
1.0
 31
0.0
 73
     1
 44
1.0
1001
ACAD
1000
MTEXTBEGIN
1070
    73
1070
     1
1070
    44
1040
1.0
1070
    74
1070
     0
1000
MTEXTEND
  0
POINT
  5
2536B
330
24D1F
100
AcDbEntity
  8
DEFPOINTS
 62
     0
 48
50.0
100
AcDbPoint
 10
6693.6
 20
5746.907777930214
 30
0.0
  0
POINT
  5
2536C
330
24D1F
100
AcDbEntity
  8
DEFPOINTS
 62
     0
 48
50.0
100
AcDbPoint
 10
7396.600000000001
 20
6481.907777930207
 30
0.0
  0
POINT
  5
2536D
330
24D1F
100
AcDbEntity
  8
DEFPOINTS
 62
     0
 48
50.0
100
AcDbPoint
 10
5961.41337146123
 20
6481.907777930207
 30
0.0
  0
ENDBLK
  5
24D2A
330
24D1F
100
AcDbEntity
  8
0
 48
50.0
100
AcDbBlockEnd
  0
BLOCK
  5
24D42
330
24D38
100
AcDbEntity
  8
0
 48
50.0
100
AcDbBlockBegin
  2
*D37
 70
     1
 10
0.0
 20
0.0
 30
0.0
  3
*D37
  1

  0
LINE
  5
25352
330
24D38
100
AcDbEntity
  8
寸法
 62
     0
 48
50.0
370
    -2
100
AcDbLine
 10
7376.600000000003
 20
7231.907777930207
 30
0.0
 11
5901.413371461228
 21
7231.907777930207
 31
0.0
  0
LINE
  5
25353
330
24D38
100
AcDbEntity
  8
寸法
 62
     0
 48
50.0
370
    -2
100
AcDbLine
 10
7376.600000000002
 20
6481.907777930207
 30
0.0
 11
5901.413371461228
 21
6481.907777930207
 31
0.0
  0
LINE
  5
25354
330
24D38
100
AcDbEntity
  8
寸法
 62
     0
 48
50.0
370
    -2
100
AcDbLine
 10
5961.413371461228
 20
7231.907777930207
 30
0.0
 11
5961.413371461228
 21
6481.907777930207
 31
0.0
  0
INSERT
  5
25355
330
24D38
100
AcDbEntity
  8
寸法
 62
     0
 48
50.0
370
    -2
100
AcDbBlockReference
  2
_DOTSMALL
 10
5961.413371461228
 20
7231.907777930207
 30
0.0
 41
100.0
 42
100.0
 43
100.0
 50
90.0
  0
INSERT
  5
25356
330
24D38
100
AcDbEntity
  8
寸法
 62
     0
 48
50.0
370
    -2
100
AcDbBlockReference
  2
_DOTSMALL
 10
5961.413371461228
 20
6481.907777930207
 30
0.0
 41
100.0
 42
100.0
 43
100.0
 50
270.0
  0
MTEXT
  5
25357
330
24D38
100
AcDbEntity
  8
寸法
 62
     7
 48
50.0
100
AcDbMText
 10
5861.413371461226
 20
6856.907777930207
 30
0.0
 40
120.0
 41
0.0
 71
     5
 72
     1
  1
\A1;750
  7
STYLE1
 11
0.0000000000000001
 21
1.0
 31
0.0
 73
     1
 44
1.0
1001
ACAD
1000
MTEXTBEGIN
1070
    73
1070
     1
1070
    44
1040
1.0
1070
    74
1070
     0
1000
MTEXTEND
  0
POINT
  5
25358
330
24D38
100
AcDbEntity
  8
DEFPOINTS
 62
     0
 48
50.0
100
AcDbPoint
 10
7396.600000000003
 20
7231.907777930207
 30
0.0
  0
POINT
  5
25359
330
24D38
100
AcDbEntity
  8
DEFPOINTS
 62
     0
 48
50.0
100
AcDbPoint
 10
7396.600000000001
 20
6481.907777930207
 30
0.0
  0
POINT
  5
2535A
330
24D38
100
AcDbEntity
  8
DEFPOINTS
 62
     0
 48
50.0
100
AcDbPoint
 10
5961.413371461228
 20
6481.907777930207
 30
0.0
  0
ENDBLK
  5
24D43
330
24D38
100
AcDbEntity
  8
0
 48
50.0
100
AcDbBlockEnd
  0
BLOCK
  5
24D4F
330
24D44
100
AcDbEntity
  8
0
 48
50.0
100
AcDbBlockBegin
  2
*D38
 70
     1
 10
0.0
 20
0.0
 30
0.0
  3
*D38
  1

  0
LINE
  5
25348
330
24D44
100
AcDbEntity
  8
寸法
 62
     0
 48
50.0
370
    -2
100
AcDbLine
 10
9753.600000000004
 20
7986.907777930206
 30
0.0
 11
9753.600000000004
 21
8772.66740447229
 31
0.0
  0
LINE
  5
25349
330
24D44
100
AcDbEntity
  8
寸法
 62
     0
 48
50.0
370
    -2
100
AcDbLine
 10
9630.600000000002
 20
7913.907777930205
 30
0.0
 11
9630.600000000002
 21
8772.66740447229
 31
0.0
  0
LINE
  5
2534A
330
24D44
100
AcDbEntity
  8
寸法
 62
     0
 48
50.0
370
    -2
100
AcDbLine
 10
9630.600000000002
 20
8712.66740447229
 30
0.0
 11
9753.600000000004
 21
8712.66740447229
 31
0.0
  0
LINE
  5
2534B
330
24D44
100
AcDbEntity
  8
寸法
 62
     0
 48
50.0
370
    -2
100
AcDbLine
 10
9753.600000000004
 20
8712.66740447229
 30
0.0
 11
10165.19188309204
 21
8712.66740447229
 31
0.0
  0
INSERT
  5
2534C
330
24D44
100
AcDbEntity
  8
寸法
 62
     0
 48
50.0
370
    -2
100
AcDbBlockReference
  2
_DOTSMALL
 10
9630.600000000002
 20
8712.66740447229
 30
0.0
 41
100.0
 42
100.0
 43
100.0
 50
180.0
  0
INSERT
  5
2534D
330
24D44
100
AcDbEntity
  8
寸法
 62
     0
 48
50.0
370
    -2
100
AcDbBlockReference
  2
_DOTSMALL
 10
9753.600000000004
 20
8712.66740447229
 30
0.0
 41
100.0
 42
100.0
 43
100.0
  0
MTEXT
  5
2534E
330
24D44
100
AcDbEntity
  8
寸法
 62
     7
 48
50.0
100
AcDbMText
 10
10026.7066017178
 20
8812.679215495911
 30
0.0
 40
120.0
 41
0.0
 71
     5
 72
     1
  1
\A1;123
  7
STYLE1
 73
     1
 44
1.0
1001
ACAD
1000
MTEXTBEGIN
1070
    73
1070
     1
1070
    44
1040
1.0
1070
    74
1070
     0
1000
MTEXTEND
  0
POINT
  5
2534F
330
24D44
100
AcDbEntity
  8
DEFPOINTS
 62
     0
 48
50.0
100
AcDbPoint
 10
9753.600000000004
 20
7966.907777930206
 30
0.0
  0
POINT
  5
25350
330
24D44
100
AcDbEntity
  8
DEFPOINTS
 62
     0
 48
50.0
100
AcDbPoint
 10
9630.600000000002
 20
7893.907777930206
 30
0.0
  0
POINT
  5
25351
330
24D44
100
AcDbEntity
  8
DEFPOINTS
 62
     0
 48
50.0
100
AcDbPoint
 10
9630.600000000002
 20
8712.66740447229
 30
0.0
  0
ENDBLK
  5
24D50
330
24D44
100
AcDbEntity
  8
0
 48
50.0
100
AcDbBlockEnd
  0
BLOCK
  5
24D5C
330
24D51
100
AcDbEntity
  8
0
 48
50.0
100
AcDbBlockBegin
  2
*D39
 70
     1
 10
0.0
 20
0.0
 30
0.0
  3
*D39
  1

  0
LINE
  5
2533D
330
24D51
100
AcDbEntity
  8
寸法
 62
     0
 48
50.0
370
    -2
100
AcDbLine
 10
9753.600000000004
 20
7986.907777930206
 30
0.0
 11
9753.600000000004
 21
8985.128099989127
 31
0.0
  0
LINE
  5
2533E
330
24D51
100
AcDbEntity
  8
寸法
 62
     0
 48
50.0
370
    -2
100
AcDbLine
 10
9803.600000000002
 20
8732.667404472293
 30
0.0
 11
9803.600000000002
 21
8985.128099989127
 31
0.0
  0
LINE
  5
2533F
330
24D51
100
AcDbEntity
  8
寸法
 62
     0
 48
50.0
370
    -2
100
AcDbLine
 10
9753.600000000004
 20
8925.128099989128
 30
0.0
 11
9653.600000000004
 21
8925.128099989128
 31
0.0
  0
LINE
  5
25340
330
24D51
100
AcDbEntity
  8
寸法
 62
     0
 48
50.0
370
    -2
100
AcDbLine
 10
9803.600000000002
 20
8925.128099989128
 30
0.0
 11
10135.94924240492
 21
8925.128099989128
 31
0.0
  0
LINE
  5
25341
330
24D51
100
AcDbEntity
  8
寸法
 62
     0
 48
50.0
370
    -2
100
AcDbLine
 10
9753.600000000004
 20
8925.128099989128
 30
0.0
 11
9803.600000000002
 21
8925.128099989128
 31
0.0
  0
INSERT
  5
25342
330
24D51
100
AcDbEntity
  8
寸法
 62
     0
 48
50.0
370
    -2
100
AcDbBlockReference
  2
_DOTSMALL
 10
9753.600000000004
 20
8925.128099989128
 30
0.0
 41
100.0
 42
100.0
 43
100.0
  0
INSERT
  5
25343
330
24D51
100
AcDbEntity
  8
寸法
 62
     0
 48
50.0
370
    -2
100
AcDbBlockReference
  2
_DOTSMALL
 10
9803.600000000002
 20
8925.128099989128
 30
0.0
 41
100.0
 42
100.0
 43
100.0
 50
180.0
  0
MTEXT
  5
25344
330
24D51
100
AcDbEntity
  8
寸法
 62
     7
 48
50.0
100
AcDbMText
 10
10069.77462120246
 20
9025.128099989128
 30
0.0
 40
120.0
 41
0.0
 71
     5
 72
     1
  1
\A1;a
  7
STYLE1
 73
     1
 44
1.0
1001
ACAD
1000
MTEXTBEGIN
1070
    73
1070
     1
1070
    44
1040
1.0
1070
    74
1070
     0
1000
MTEXTEND
  0
POINT
  5
25345
330
24D51
100
AcDbEntity
  8
DEFPOINTS
 62
     0
 48
50.0
100
AcDbPoint
 10
9753.600000000004
 20
7966.907777930206
 30
0.0
  0
POINT
  5
25346
330
24D51
100
AcDbEntity
  8
DEFPOINTS
 62
     0
 48
50.0
100
AcDbPoint
 10
9803.600000000002
 20
8712.667404472293
 30
0.0
  0
POINT
  5
25347
330
24D51
100
AcDbEntity
  8
DEFPOINTS
 62
     0
 48
50.0
100
AcDbPoint
 10
9803.600000000002
 20
8925.128099989128
 30
0.0
  0
ENDBLK
  5
24D5D
330
24D51
100
AcDbEntity
  8
0
 48
50.0
100
AcDbBlockEnd
  0
BLOCK
  5
256BF
330
256B4
100
AcDbEntity
  8
0
 48
50.0
100
AcDbBlockBegin
  2
*D40
 70
     1
 10
0.0
 20
0.0
 30
0.0
  3
*D40
  1

  0
LINE
  5
25E1A
330
256B4
100
AcDbEntity
  8
寸法
 62
     0
 48
50.0
370
    -2
100
AcDbLine
 10
9633.600000000003
 20
7716.907777930206
 30
0.0
 11
9633.600000000003
 21
7449.199110429834
 31
0.0
  0
LINE
  5
25E1B
330
256B4
100
AcDbEntity
  8
寸法
 62
     0
 48
50.0
370
    -2
100
AcDbLine
 10
9523.600000000001
 20
7716.907777930206
 30
0.0
 11
9523.600000000001
 21
7449.199110429834
 31
0.0
  0
LINE
  5
25E1C
330
256B4
100
AcDbEntity
  8
寸法
 62
     0
 48
50.0
370
    -2
100
AcDbLine
 10
9633.600000000003
 20
7509.199110429834
 30
0.0
 11
9523.600000000001
 21
7509.199110429834
 31
0.0
  0
LINE
  5
25E1D
330
256B4
100
AcDbEntity
  8
寸法
 62
     0
 48
50.0
370
    -2
100
AcDbLine
 10
9523.600000000001
 20
7509.199110429834
 30
0.0
 11
9129.493700787405
 21
7509.199110429834
 31
0.0
  0
INSERT
  5
25E1E
330
256B4
100
AcDbEntity
  8
寸法
 62
     0
 48
50.0
370
    -2
100
AcDbBlockReference
  2
_DOTSMALL
 10
9633.600000000003
 20
7509.199110429834
 30
0.0
 41
100.0
 42
100.0
 43
100.0
  0
INSERT
  5
25E1F
330
256B4
100
AcDbEntity
  8
寸法
 62
     0
 48
50.0
370
    -2
100
AcDbBlockReference
  2
_DOTSMALL
 10
9523.600000000001
 20
7509.199110429834
 30
0.0
 41
100.0
 42
100.0
 43
100.0
 50
180.0
  0
MTEXT
  5
25E20
330
256B4
100
AcDbEntity
  8
寸法
 62
     7
 48
50.0
100
AcDbMText
 10
9253.540944881892
 20
7609.199110429834
 30
0.0
 40
120.0
 41
0.0
 71
     5
 72
     1
  1
\A1;110
  7
STYLE1
 73
     1
 44
1.0
1001
ACAD
1000
MTEXTBEGIN
1070
    73
1070
     1
1070
    44
1040
1.0
1070
    74
1070
     0
1000
MTEXTEND
  0
POINT
  5
25E21
330
256B4
100
AcDbEntity
  8
DEFPOINTS
 62
     0
 48
50.0
100
AcDbPoint
 10
9633.600000000003
 20
7736.907777930206
 30
0.0
  0
POINT
  5
25E22
330
256B4
100
AcDbEntity
  8
DEFPOINTS
 62
     0
 48
50.0
100
AcDbPoint
 10
9523.600000000001
 20
7736.907777930206
 30
0.0
  0
POINT
  5
25E23
330
256B4
100
AcDbEntity
  8
DEFPOINTS
 62
     0
 48
50.0
100
AcDbPoint
 10
9523.600000000001
 20
7509.199110429834
 30
0.0
  0
ENDBLK
  5
256C0
330
256B4
100
AcDbEntity
  8
0
 48
50.0
100
AcDbBlockEnd
  0
BLOCK
  5
256CC
330
256C1
100
AcDbEntity
  8
0
 48
50.0
100
AcDbBlockBegin
  2
*D41
 70
     1
 10
0.0
 20
0.0
 30
0.0
  3
*D41
  1

  0
LINE
  5
25E10
330
256C1
100
AcDbEntity
  8
寸法
 62
     0
 48
50.0
370
    -2
100
AcDbLine
 10
9753.600000000004
 20
7716.907777930209
 30
0.0
 11
9753.600000000004
 21
7449.199110429834
 31
0.0
  0
LINE
  5
25E11
330
256C1
100
AcDbEntity
  8
寸法
 62
     0
 48
50.0
370
    -2
100
AcDbLine
 10
9633.600000000003
 20
7716.907777930206
 30
0.0
 11
9633.600000000003
 21
7449.199110429834
 31
0.0
  0
LINE
  5
25E12
330
256C1
100
AcDbEntity
  8
寸法
 62
     0
 48
50.0
370
    -2
100
AcDbLine
 10
9633.600000000003
 20
7509.199110429834
 30
0.0
 11
9753.600000000004
 21
7509.199110429834
 31
0.0
  0
LINE
  5
25E13
330
256C1
100
AcDbEntity
  8
寸法
 62
     0
 48
50.0
370
    -2
100
AcDbLine
 10
9753.600000000004
 20
7509.199110429834
 30
0.0
 11
10159.7062992126
 21
7509.199110429834
 31
0.0
  0
INSERT
  5
25E14
330
256C1
100
AcDbEntity
  8
寸法
 62
     0
 48
50.0
370
    -2
100
AcDbBlockReference
  2
_DOTSMALL
 10
9633.600000000003
 20
7509.199110429834
 30
0.0
 41
100.0
 42
100.0
 43
100.0
 50
180.0
  0
INSERT
  5
25E15
330
256C1
100
AcDbEntity
  8
寸法
 62
     0
 48
50.0
370
    -2
100
AcDbBlockReference
  2
_DOTSMALL
 10
9753.600000000004
 20
7509.199110429834
 30
0.0
 41
100.0
 42
100.0
 43
100.0
  0
MTEXT
  5
25E16
330
256C1
100
AcDbEntity
  8
寸法
 62
     7
 48
50.0
100
AcDbMText
 10
10023.65905511811
 20
7609.210921453456
 30
0.0
 40
120.0
 41
0.0
 71
     5
 72
     1
  1
\A1;120
  7
STYLE1
 73
     1
 44
1.0
1001
ACAD
1000
MTEXTBEGIN
1070
    73
1070
     1
1070
    44
1040
1.0
1070
    74
1070
     0
1000
MTEXTEND
  0
POINT
  5
25E17
330
256C1
100
AcDbEntity
  8
DEFPOINTS
 62
     0
 48
50.0
100
AcDbPoint
 10
9753.600000000004
 20
7736.907777930207
 30
0.0
  0
POINT
  5
25E18
330
256C1
100
AcDbEntity
  8
DEFPOINTS
 62
     0
 48
50.0
100
AcDbPoint
 10
9633.600000000003
 20
7736.907777930206
 30
0.0
  0
POINT
  5
25E19
330
256C1
100
AcDbEntity
  8
DEFPOINTS
 62
     0
 48
50.0
100
AcDbPoint
 10
9633.600000000003
 20
7509.199110429834
 30
0.0
  0
ENDBLK
  5
256CD
330
256C1
100
AcDbEntity
  8
0
 48
50.0
100
AcDbBlockEnd
  0
BLOCK
  5
25B36
330
25B2B
100
AcDbEntity
  8
0
 48
50.0
100
AcDbBlockBegin
  2
*D42
 70
     1
 10
0.0
 20
0.0
 30
0.0
  3
*D42
  1

  0
LINE
  5
25E42
330
25B2B
100
AcDbEntity
  8
寸法
 62
     0
 48
50.0
370
    -2
100
AcDbLine
 10
6943.600000000002
 20
5866.907777930213
 30
0.0
 11
7102.197085004765
 21
5866.907777930213
 31
0.0
  0
LINE
  5
25E43
330
25B2B
100
AcDbEntity
  8
寸法
 62
     0
 48
50.0
370
    -2
100
AcDbLine
 10
6943.600000000002
 20
5746.907777930225
 30
0.0
 11
7102.197085004765
 21
5746.907777930225
 31
0.0
  0
LINE
  5
25E44
330
25B2B
100
AcDbEntity
  8
寸法
 62
     0
 48
50.0
370
    -2
100
AcDbLine
 10
7042.197085004765
 20
5866.907777930213
 30
0.0
 11
7042.197085004765
 21
5746.907777930225
 31
0.0
  0
LINE
  5
25E45
330
25B2B
100
AcDbEntity
  8
寸法
 62
     0
 48
50.0
370
    -2
100
AcDbLine
 10
7042.197085004765
 20
5746.907777930225
 30
0.0
 11
7042.197085004765
 21
5340.801478717624
 31
0.0
  0
INSERT
  5
25E46
330
25B2B
100
AcDbEntity
  8
寸法
 62
     0
 48
50.0
370
    -2
100
AcDbBlockReference
  2
_DOTSMALL
 10
7042.197085004765
 20
5866.907777930213
 30
0.0
 41
100.0
 42
100.0
 43
100.0
 50
90.0
  0
INSERT
  5
25E47
330
25B2B
100
AcDbEntity
  8
寸法
 62
     0
 48
50.0
370
    -2
100
AcDbBlockReference
  2
_DOTSMALL
 10
7042.197085004765
 20
5746.907777930225
 30
0.0
 41
100.0
 42
100.0
 43
100.0
 50
270.0
  0
MTEXT
  5
25E48
330
25B2B
100
AcDbEntity
  8
寸法
 62
     7
 48
50.0
100
AcDbMText
 10
6942.185273981142
 20
5476.848722812114
 30
0.0
 40
120.0
 41
0.0
 71
     5
 72
     1
  1
\A1;120
  7
STYLE1
 11
0.0000000000000001
 21
1.0
 31
0.0
 73
     1
 44
1.0
1001
ACAD
1000
MTEXTBEGIN
1070
    73
1070
     1
1070
    44
1040
1.0
1070
    74
1070
     0
1000
MTEXTEND
  0
POINT
  5
25E49
330
25B2B
100
AcDbEntity
  8
DEFPOINTS
 62
     0
 48
50.0
100
AcDbPoint
 10
6923.600000000002
 20
5866.907777930213
 30
0.0
  0
POINT
  5
25E4A
330
25B2B
100
AcDbEntity
  8
DEFPOINTS
 62
     0
 48
50.0
100
AcDbPoint
 10
6923.600000000002
 20
5746.907777930225
 30
0.0
  0
POINT
  5
25E4B
330
25B2B
100
AcDbEntity
  8
DEFPOINTS
 62
     0
 48
50.0
100
AcDbPoint
 10
7042.197085004765
 20
5746.907777930225
 30
0.0
  0
ENDBLK
  5
25B37
330
25B2B
100
AcDbEntity
  8
0
 48
50.0
100
AcDbBlockEnd
  0
BLOCK
  5
25B43
330
25B38
100
AcDbEntity
  8
0
 48
50.0
100
AcDbBlockBegin
  2
*D43
 70
     1
 10
0.0
 20
0.0
 30
0.0
  3
*D43
  1

  0
LINE
  5
25E38
330
25B38
100
AcDbEntity
  8
寸法
 62
     0
 48
50.0
370
    -2
100
AcDbLine
 10
6943.600000000002
 20
5866.90777793021
 30
0.0
 11
7102.197085004765
 21
5866.90777793021
 31
0.0
  0
LINE
  5
25E39
330
25B38
100
AcDbEntity
  8
寸法
 62
     0
 48
50.0
370
    -2
100
AcDbLine
 10
6943.600000000002
 20
5976.907777930228
 30
0.0
 11
7102.197085004765
 21
5976.907777930228
 31
0.0
  0
LINE
  5
25E3A
330
25B38
100
AcDbEntity
  8
寸法
 62
     0
 48
50.0
370
    -2
100
AcDbLine
 10
7042.197085004765
 20
5866.90777793021
 30
0.0
 11
7042.197085004765
 21
5976.907777930228
 31
0.0
  0
LINE
  5
25E3B
330
25B38
100
AcDbEntity
  8
寸法
 62
     0
 48
50.0
370
    -2
100
AcDbLine
 10
7042.197085004765
 20
5976.907777930228
 30
0.0
 11
7042.197085004767
 21
6337.002266119204
 31
0.0
  0
INSERT
  5
25E3C
330
25B38
100
AcDbEntity
  8
寸法
 62
     0
 48
50.0
370
    -2
100
AcDbBlockReference
  2
_DOTSMALL
 10
7042.197085004765
 20
5866.90777793021
 30
0.0
 41
100.0
 42
100.0
 43
100.0
 50
270.0
  0
INSERT
  5
25E3D
330
25B38
100
AcDbEntity
  8
寸法
 62
     0
 48
50.0
370
    -2
100
AcDbBlockReference
  2
_DOTSMALL
 10
7042.197085004765
 20
5976.907777930228
 30
0.0
 41
100.0
 42
100.0
 43
100.0
 50
90.0
  0
MTEXT
  5
25E3E
330
25B38
100
AcDbEntity
  8
寸法
 62
     7
 48
50.0
100
AcDbMText
 10
6942.197085004764
 20
6212.955022024718
 30
0.0
 40
120.0
 41
0.0
 71
     5
 72
     1
  1
\A1;110
  7
STYLE1
 11
0.0000000000000001
 21
1.0
 31
0.0
 73
     1
 44
1.0
1001
ACAD
1000
MTEXTBEGIN
1070
    73
1070
     1
1070
    44
1040
1.0
1070
    74
1070
     0
1000
MTEXTEND
  0
POINT
  5
25E3F
330
25B38
100
AcDbEntity
  8
DEFPOINTS
 62
     0
 48
50.0
100
AcDbPoint
 10
6923.600000000002
 20
5866.90777793021
 30
0.0
  0
POINT
  5
25E40
330
25B38
100
AcDbEntity
  8
DEFPOINTS
 62
     0
 48
50.0
100
AcDbPoint
 10
6923.600000000002
 20
5976.907777930228
 30
0.0
  0
POINT
  5
25E41
330
25B38
100
AcDbEntity
  8
DEFPOINTS
 62
     0
 48
50.0
100
AcDbPoint
 10
7042.197085004765
 20
5976.907777930228
 30
0.0
  0
ENDBLK
  5
25B44
330
25B38
100
AcDbEntity
  8
0
 48
50.0
100
AcDbBlockEnd
  0
BLOCK
  5
25B4F
330
25B45
100
AcDbEntity
  8
0
 48
50.0
100
AcDbBlockBegin
  2
*D44
 70
     1
 10
0.0
 20
0.0
 30
0.0
  3
*D44
  1

  0
LINE
  5
25D86
330
25B45
100
AcDbEntity
  8
寸法
 62
     0
 48
50.0
370
    -2
100
AcDbLine
 10
9301.600000000002
 20
5651.907777930226
 30
0.0
 11
9301.600000000002
 21
5059.687091109516
 31
0.0
  0
LINE
  5
25D87
330
25B45
100
AcDbEntity
  8
寸法
 62
     0
 48
50.0
370
    -2
100
AcDbLine
 10
7146.600000000001
 20
5651.907777930258
 30
0.0
 11
7146.600000000001
 21
5059.687091109516
 31
0.0
  0
LINE
  5
25D88
330
25B45
100
AcDbEntity
  8
寸法
 62
     0
 48
50.0
370
    -2
100
AcDbLine
 10
9301.600000000002
 20
5119.687091109516
 30
0.0
 11
7146.600000000001
 21
5119.687091109516
 31
0.0
  0
INSERT
  5
25D89
330
25B45
100
AcDbEntity
  8
寸法
 62
     0
 48
50.0
370
    -2
100
AcDbBlockReference
  2
_DOTSMALL
 10
9301.600000000002
 20
5119.687091109516
 30
0.0
 41
100.0
 42
100.0
 43
100.0
  0
INSERT
  5
25D8A
330
25B45
100
AcDbEntity
  8
寸法
 62
     0
 48
50.0
370
    -2
100
AcDbBlockReference
  2
_DOTSMALL
 10
7146.600000000001
 20
5119.687091109516
 30
0.0
 41
100.0
 42
100.0
 43
100.0
 50
180.0
  0
MTEXT
  5
25D8B
330
25B45
100
AcDbEntity
  8
寸法
 62
     7
 48
50.0
100
AcDbMText
 10
8224.100000000003
 20
5219.698902133138
 30
0.0
 40
120.0
 41
0.0
 71
     5
 72
     1
  1
\A1;扉の幅 2155
  7
STYLE1
 73
     1
 44
1.0
1001
ACAD
1000
MTEXTBEGIN
1070
    73
1070
     1
1070
    44
1040
1.0
1070
    74
1070
     0
1000
MTEXTEND
  0
POINT
  5
25D8C
330
25B45
100
AcDbEntity
  8
DEFPOINTS
 62
     0
 48
50.0
100
AcDbPoint
 10
9301.600000000002
 20
5671.907777930226
 30
0.0
  0
POINT
  5
25D8D
330
25B45
100
AcDbEntity
  8
DEFPOINTS
 62
     0
 48
50.0
100
AcDbPoint
 10
7146.600000000001
 20
5671.907777930258
 30
0.0
  0
POINT
  5
25D8E
330
25B45
100
AcDbEntity
  8
DEFPOINTS
 62
     0
 48
50.0
100
AcDbPoint
 10
7146.600000000001
 20
5119.687091109516
 30
0.0
  0
ENDBLK
  5
25B50
330
25B45
100
AcDbEntity
  8
0
 48
50.0
100
AcDbBlockEnd
  0
BLOCK
  5
25B5C
330
25B51
100
AcDbEntity
  8
0
 48
50.0
100
AcDbBlockBegin
  2
*D45
 70
     1
 10
0.0
 20
0.0
 30
0.0
  3
*D45
  1

  0
LINE
  5
25E4C
330
25B51
100
AcDbEntity
  8
寸法
 62
     0
 48
50.0
370
    -2
100
AcDbLine
 10
7166.599999999966
 20
5671.907777930252
 30
0.0
 11
7475.743526793876
 21
5671.907777930252
 31
0.0
  0
LINE
  5
25E4D
330
25B51
100
AcDbEntity
  8
寸法
 62
     0
 48
50.0
370
    -2
100
AcDbLine
 10
7166.599999999966
 20
5866.907777930211
 30
0.0
 11
7475.743526793876
 21
5866.907777930211
 31
0.0
  0
LINE
  5
25E4E
330
25B51
100
AcDbEntity
  8
寸法
 62
     0
 48
50.0
370
    -2
100
AcDbLine
 10
7415.743526793876
 20
5866.907777930211
 30
0.0
 11
7415.743526793876
 21
5671.907777930252
 31
0.0
  0
LINE
  5
25E4F
330
25B51
100
AcDbEntity
  8
寸法
 62
     0
 48
50.0
370
    -2
100
AcDbLine
 10
7415.743526793876
 20
5671.907777930252
 30
0.0
 11
7415.743526793876
 21
5294.517895522462
 31
0.0
  0
INSERT
  5
25E50
330
25B51
100
AcDbEntity
  8
寸法
 62
     0
 48
50.0
370
    -2
100
AcDbBlockReference
  2
_DOTSMALL
 10
7415.743526793876
 20
5866.907777930211
 30
0.0
 41
100.0
 42
100.0
 43
100.0
 50
90.0
  0
INSERT
  5
25E51
330
25B51
100
AcDbEntity
  8
寸法
 62
     0
 48
50.0
370
    -2
100
AcDbBlockReference
  2
_DOTSMALL
 10
7415.743526793876
 20
5671.907777930252
 30
0.0
 41
100.0
 42
100.0
 43
100.0
 50
270.0
  0
MTEXT
  5
25E52
330
25B51
100
AcDbEntity
  8
寸法
 62
     7
 48
50.0
100
AcDbMText
 10
7315.743526793875
 20
5433.212836726359
 30
0.0
 40
120.0
 41
0.0
 71
     5
 72
     1
  1
\A1;195
  7
STYLE1
 11
0.0000000000000001
 21
1.0
 31
0.0
 73
     1
 44
1.0
1001
ACAD
1000
MTEXTBEGIN
1070
    73
1070
     1
1070
    44
1040
1.0
1070
    74
1070
     0
1000
MTEXTEND
  0
POINT
  5
25E53
330
25B51
100
AcDbEntity
  8
DEFPOINTS
 62
     0
 48
50.0
100
AcDbPoint
 10
7146.599999999965
 20
5671.907777930252
 30
0.0
  0
POINT
  5
25E54
330
25B51
100
AcDbEntity
  8
DEFPOINTS
 62
     0
 48
50.0
100
AcDbPoint
 10
7146.599999999965
 20
5866.907777930211
 30
0.0
  0
POINT
  5
25E55
330
25B51
100
AcDbEntity
  8
DEFPOINTS
 62
     0
 48
50.0
100
AcDbPoint
 10
7415.743526793876
 20
5866.907777930211
 30
0.0
  0
ENDBLK
  5
25B5D
330
25B51
100
AcDbEntity
  8
0
 48
50.0
100
AcDbBlockEnd
  0
BLOCK
  5
25C68
330
25C5C
100
AcDbEntity
  8
0
 48
50.0
100
AcDbBlockBegin
  2
*D46
 70
     1
 10
0.0
 20
0.0
 30
0.0
  3
*D46
  1

  0
LINE
  5
25DA3
330
25C5C
100
AcDbEntity
  8
寸法
 62
     0
 48
50.0
370
    -2
100
AcDbLine
 10
7126.599999999965
 20
5671.907777930252
 30
0.0
 11
6261.457130887759
 21
5671.907777930252
 31
0.0
  0
LINE
  5
25DA4
330
25C5C
100
AcDbEntity
  8
寸法
 62
     0
 48
50.0
370
    -2
100
AcDbLine
 10
6673.600000000002
 20
5746.907777930222
 30
0.0
 11
6261.457130887759
 21
5746.907777930222
 31
0.0
  0
LINE
  5
25DA5
330
25C5C
100
AcDbEntity
  8
寸法
 62
     0
 48
50.0
370
    -2
100
AcDbLine
 10
6321.457130887758
 20
5746.907777930222
 30
0.0
 11
6321.457130887758
 21
5846.907777930223
 31
0.0
  0
LINE
  5
25DA6
330
25C5C
100
AcDbEntity
  8
寸法
 62
     0
 48
50.0
370
    -2
100
AcDbLine
 10
6321.457130887758
 20
5671.907777930252
 30
0.0
 11
6321.457130887758
 21
4804.937215181773
 31
0.0
  0
LINE
  5
25DA7
330
25C5C
100
AcDbEntity
  8
寸法
 62
     0
 48
50.0
370
    -2
100
AcDbLine
 10
6321.457130887758
 20
5746.907777930222
 30
0.0
 11
6321.457130887758
 21
5671.907777930252
 31
0.0
  0
INSERT
  5
25DA8
330
25C5C
100
AcDbEntity
  8
寸法
 62
     0
 48
50.0
370
    -2
100
AcDbBlockReference
  2
_DOTSMALL
 10
6321.457130887758
 20
5746.907777930222
 30
0.0
 41
100.0
 42
100.0
 43
100.0
 50
270.0
  0
INSERT
  5
25DA9
330
25C5C
100
AcDbEntity
  8
寸法
 62
     0
 48
50.0
370
    -2
100
AcDbBlockReference
  2
_DOTSMALL
 10
6321.457130887758
 20
5671.907777930252
 30
0.0
 41
100.0
 42
100.0
 43
100.0
 50
90.0
  0
MTEXT
  5
25DAA
330
25C5C
100
AcDbEntity
  8
寸法
 62
     7
 48
50.0
100
AcDbMText
 10
6221.457130887757
 20
5138.422496556014
 30
0.0
 40
120.0
 41
0.0
 71
     5
 72
     1
  1
\A1;扉の出75
  7
STYLE1
 11
0.0000000000000001
 21
1.0
 31
0.0
 73
     1
 44
1.0
1001
ACAD
1000
MTEXTBEGIN
1070
    73
1070
     1
1070
    44
1040
1.0
1070
    74
1070
     0
1000
MTEXTEND
  0
POINT
  5
25DAB
330
25C5C
100
AcDbEntity
  8
DEFPOINTS
 62
     0
 48
50.0
100
AcDbPoint
 10
7146.599999999965
 20
5671.907777930252
 30
0.0
  0
POINT
  5
25DAC
330
25C5C
100
AcDbEntity
  8
DEFPOINTS
 62
     0
 48
50.0
100
AcDbPoint
 10
6693.6
 20
5746.907777930222
 30
0.0
  0
POINT
  5
25DAD
330
25C5C
100
AcDbEntity
  8
DEFPOINTS
 62
     0
 48
50.0
100
AcDbPoint
 10
6321.457130887758
 20
5746.907777930222
 30
0.0
  0
ENDBLK
  5
25C69
330
25C5C
100
AcDbEntity
  8
0
 48
50.0
100
AcDbBlockEnd
  0
BLOCK
  5
25C74
330
25C6A
100
AcDbEntity
  8
0
 48
50.0
100
AcDbBlockBegin
  2
*D47
 70
     1
 10
0.0
 20
0.0
 30
0.0
  3
*D47
  1

  0
LINE
  5
25D73
330
25C6A
100
AcDbEntity
  8
寸法
 62
     0
 48
50.0
370
    -2
100
AcDbLine
 10
7146.600000000001
 20
5651.907777930212
 30
0.0
 11
7146.600000000001
 21
5059.687091109516
 31
0.0
  0
LINE
  5
25D74
330
25C6A
100
AcDbEntity
  8
寸法
 62
     0
 48
50.0
370
    -2
100
AcDbLine
 10
6693.6
 20
5726.907777930222
 30
0.0
 11
6693.6
 21
5059.687091109516
 31
0.0
  0
LINE
  5
25D75
330
25C6A
100
AcDbEntity
  8
寸法
 62
     0
 48
50.0
370
    -2
100
AcDbLine
 10
7146.600000000001
 20
5119.687091109516
 30
0.0
 11
6693.6
 21
5119.687091109516
 31
0.0
  0
INSERT
  5
25D76
330
25C6A
100
AcDbEntity
  8
寸法
 62
     0
 48
50.0
370
    -2
100
AcDbBlockReference
  2
_DOTSMALL
 10
7146.600000000001
 20
5119.687091109516
 30
0.0
 41
100.0
 42
100.0
 43
100.0
  0
INSERT
  5
25D77
330
25C6A
100
AcDbEntity
  8
寸法
 62
     0
 48
50.0
370
    -2
100
AcDbBlockReference
  2
_DOTSMALL
 10
6693.6
 20
5119.687091109516
 30
0.0
 41
100.0
 42
100.0
 43
100.0
 50
180.0
  0
MTEXT
  5
25D78
330
25C6A
100
AcDbEntity
  8
寸法
 62
     7
 48
50.0
100
AcDbMText
 10
6916.400741355808
 20
5219.687091109516
 30
0.0
 40
120.0
 41
0.0
 71
     5
 72
     1
  1
\A1;453
  7
STYLE1
 73
     1
 44
1.0
1001
ACAD
1000
MTEXTBEGIN
1070
    73
1070
     1
1070
    44
1040
1.0
1070
    74
1070
     0
1000
MTEXTEND
  0
POINT
  5
25D79
330
25C6A
100
AcDbEntity
  8
DEFPOINTS
 62
     0
 48
50.0
100
AcDbPoint
 10
7146.600000000001
 20
5671.907777930211
 30
0.0
  0
POINT
  5
25D7A
330
25C6A
100
AcDbEntity
  8
DEFPOINTS
 62
     0
 48
50.0
100
AcDbPoint
 10
6693.6
 20
5746.907777930222
 30
0.0
  0
POINT
  5
25D7B
330
25C6A
100
AcDbEntity
  8
DEFPOINTS
 62
     0
 48
50.0
100
AcDbPoint
 10
6693.6
 20
5119.687091109516
 30
0.0
  0
ENDBLK
  5
25C75
330
25C6A
100
AcDbEntity
  8
0
 48
50.0
100
AcDbBlockEnd
  0
BLOCK
  5
2611D
330
26113
100
AcDbEntity
  8
0
 48
50.0
100
AcDbBlockBegin
  2
*D48
 70
     1
 10
0.0
 20
0.0
 30
0.0
  3
*D48
  1

  0
LINE
  5
26160
330
26113
100
AcDbEntity
  8
寸法
 62
     0
 48
50.0
370
    -2
100
AcDbLine
 10
7843.849754848108
 20
2124.817449036638
 30
0.0
 11
8385.718354616951
 21
2124.817449036638
 31
0.0
  0
LINE
  5
26161
330
26113
100
AcDbEntity
  8
寸法
 62
     0
 48
50.0
370
    -2
100
AcDbLine
 10
7843.849754848108
 20
1800.817449036637
 30
0.0
 11
8385.718354616951
 21
1800.817449036637
 31
0.0
  0
LINE
  5
26162
330
26113
100
AcDbEntity
  8
寸法
 62
     0
 48
50.0
370
    -2
100
AcDbLine
 10
8325.718354616951
 20
2124.817449036638
 30
0.0
 11
8325.718354616951
 21
1800.817449036637
 31
0.0
  0
INSERT
  5
26163
330
26113
100
AcDbEntity
  8
寸法
 62
     0
 48
50.0
370
    -2
100
AcDbBlockReference
  2
_DOTSMALL
 10
8325.718354616951
 20
2124.817449036638
 30
0.0
 41
100.0
 42
100.0
 43
100.0
 50
90.0
  0
INSERT
  5
26164
330
26113
100
AcDbEntity
  8
寸法
 62
     0
 48
50.0
370
    -2
100
AcDbBlockReference
  2
_DOTSMALL
 10
8325.718354616951
 20
1800.817449036637
 30
0.0
 41
100.0
 42
100.0
 43
100.0
 50
270.0
  0
MTEXT
  5
26165
330
26113
100
AcDbEntity
  8
寸法
 62
     7
 48
50.0
100
AcDbMText
 10
8225.718354616951
 20
1962.817449036639
 30
0.0
 40
120.0
 41
0.0
 71
     5
 72
     1
  1
\A1;180
  7
STYLE1
 11
0.0000000000000001
 21
1.0
 31
0.0
 73
     1
 44
1.0
1001
ACAD
1000
MTEXTBEGIN
1070
    73
1070
     1
1070
    44
1040
1.0
1070
    74
1070
     0
1000
MTEXTEND
  0
POINT
  5
26166
330
26113
100
AcDbEntity
  8
DEFPOINTS
 62
     0
 48
50.0
100
AcDbPoint
 10
7823.849754848108
 20
2124.817449036638
 30
0.0
  0
POINT
  5
26167
330
26113
100
AcDbEntity
  8
DEFPOINTS
 62
     0
 48
50.0
100
AcDbPoint
 10
7823.849754848108
 20
1800.817449036637
 30
0.0
  0
POINT
  5
26168
330
26113
100
AcDbEntity
  8
DEFPOINTS
 62
     0
 48
50.0
100
AcDbPoint
 10
8325.718354616951
 20
1800.817449036637
 30
0.0
  0
ENDBLK
  5
2611E
330
26113
100
AcDbEntity
  8
0
 48
50.0
100
AcDbBlockEnd
  0
BLOCK
  5
2612E
330
2611F
100
AcDbEntity
  8
0
 48
50.0
100
AcDbBlockBegin
  2
*D49
 70
     1
 10
0.0
 20
0.0
 30
0.0
  3
*D49
  1

  0
LINE
  5
26169
330
2611F
100
AcDbEntity
  8
寸法
 62
     0
 48
50.0
370
    -2
100
AcDbLine
 10
7656.64975484811
 20
2177.57744903664
 30
0.0
 11
8385.718354616951
 21
2177.57744903664
 31
0.0
  0
LINE
  5
2616A
330
2611F
100
AcDbEntity
  8
寸法
 62
     0
 48
50.0
370
    -2
100
AcDbLine
 10
7843.849754848108
 20
2124.817449036638
 30
0.0
 11
8385.718354616951
 21
2124.817449036638
 31
0.0
  0
LINE
  5
2616B
330
2611F
100
AcDbEntity
  8
寸法
 62
     0
 48
50.0
370
    -2
100
AcDbLine
 10
8325.718354616951
 20
2177.57744903664
 30
0.0
 11
8325.718354616951
 21
2277.577449036639
 31
0.0
  0
LINE
  5
2616C
330
2611F
100
AcDbEntity
  8
寸法
 62
     0
 48
50.0
370
    -2
100
AcDbLine
 10
8325.718354616951
 20
2124.817449036638
 30
0.0
 11
8325.718354616951
 21
2024.817449036638
 31
0.0
  0
LINE
  5
2616D
330
2611F
100
AcDbEntity
  8
寸法
 62
     0
 48
50.0
370
    -2
100
AcDbLine
 10
8325.718354616951
 20
2151.197449036639
 30
0.0
 11
8601.773020735979
 21
2139.693491432425
 31
0.0
  0
LINE
  5
2616E
330
2611F
100
AcDbEntity
  8
寸法
 62
     0
 48
50.0
370
    -2
100
AcDbLine
 10
8601.773020735979
 20
2139.693491432425
 30
0.0
 11
8601.773020735979
 21
1607.67568458946
 31
0.0
  0
MTEXT
  5
2616F
330
2611F
100
AcDbEntity
  8
寸法
 62
     7
 48
50.0
100
AcDbMText
 10
8501.761209712356
 20
1873.684588010944
 30
0.0
 40
120.0
 41
0.0
 71
     5
 72
     1
  1
\A1;20～25
  7
STYLE1
 11
0.0000000000000001
 21
1.0
 31
0.0
 73
     1
 44
1.0
1001
ACAD
1000
MTEXTBEGIN
1070
    73
1070
     1
1070
    44
1040
1.0
1070
    74
1070
     0
1000
MTEXTEND
  0
LINE
  5
26170
330
2611F
100
AcDbEntity
  8
寸法
 62
     0
 48
50.0
370
    -2
100
AcDbLine
 10
8325.718354616951
 20
2177.57744903664
 30
0.0
 11
8325.718354616951
 21
2124.817449036638
 31
0.0
  0
LINE
  5
26171
330
2611F
100
AcDbEntity
  8
寸法
 62
     0
 48
50.0
370
    -2
100
AcDbLine
 10
8325.718354616951
 20
2177.57744903664
 30
0.0
 11
8325.718354616951
 21
2124.817449036638
 31
0.0
  0
INSERT
  5
26172
330
2611F
100
AcDbEntity
  8
寸法
 62
     0
 48
50.0
370
    -2
100
AcDbBlockReference
  2
_DOTSMALL
 10
8325.718354616951
 20
2177.57744903664
 30
0.0
 41
100.0
 42
100.0
 43
100.0
 50
270.0
  0
INSERT
  5
26173
330
2611F
100
AcDbEntity
  8
寸法
 62
     0
 48
50.0
370
    -2
100
AcDbBlockReference
  2
_DOTSMALL
 10
8325.718354616951
 20
2124.817449036638
 30
0.0
 41
100.0
 42
100.0
 43
100.0
 50
90.0
  0
POINT
  5
26174
330
2611F
100
AcDbEntity
  8
DEFPOINTS
 62
     0
 48
50.0
100
AcDbPoint
 10
7636.649754848109
 20
2177.57744903664
 30
0.0
  0
POINT
  5
26175
330
2611F
100
AcDbEntity
  8
DEFPOINTS
 62
     0
 48
50.0
100
AcDbPoint
 10
7823.849754848108
 20
2124.817449036638
 30
0.0
  0
POINT
  5
26176
330
2611F
100
AcDbEntity
  8
DEFPOINTS
 62
     0
 48
50.0
100
AcDbPoint
 10
8325.718354616951
 20
2124.817449036638
 30
0.0
  0
ENDBLK
  5
2612F
330
2611F
100
AcDbEntity
  8
0
 48
50.0
100
AcDbBlockEnd
  0
BLOCK
  5
2613A
330
26130
100
AcDbEntity
  8
0
 48
50.0
100
AcDbBlockBegin
  2
*D50
 70
     1
 10
0.0
 20
0.0
 30
0.0
  3
*D50
  1

  0
LINE
  5
26177
330
26130
100
AcDbEntity
  8
寸法
 62
     0
 48
50.0
370
    -2
100
AcDbLine
 10
5561.810441670914
 20
1580.817449036638
 30
0.0
 11
5379.390127938455
 21
1580.817449036638
 31
0.0
  0
LINE
  5
26178
330
26130
100
AcDbEntity
  8
寸法
 62
     0
 48
50.0
370
    -2
100
AcDbLine
 10
5481.810441670917
 20
1340.817449036638
 30
0.0
 11
5379.390127938455
 21
1340.817449036638
 31
0.0
  0
LINE
  5
26179
330
26130
100
AcDbEntity
  8
寸法
 62
     0
 48
50.0
370
    -2
100
AcDbLine
 10
5439.390127938454
 20
1580.817449036638
 30
0.0
 11
5439.390127938454
 21
1340.817449036638
 31
0.0
  0
MTEXT
  5
2617A
330
26130
100
AcDbEntity
  8
寸法
 62
     7
 48
50.0
100
AcDbMText
 10
5339.390127938454
 20
1460.817449036638
 30
0.0
 40
120.0
 41
0.0
 71
     5
 72
     1
  1
\A1;150
  7
STYLE1
 11
0.0000000000000001
 21
1.0
 31
0.0
 73
     1
 44
1.0
1001
ACAD
1000
MTEXTBEGIN
1070
    73
1070
     1
1070
    44
1040
1.0
1070
    74
1070
     0
1000
MTEXTEND
  0
INSERT
  5
2617B
330
26130
100
AcDbEntity
  8
寸法
 62
     0
 48
50.0
370
    -2
100
AcDbBlockReference
  2
_DOTSMALL
 10
5439.390127938454
 20
1580.817449036638
 30
0.0
 41
100.0
 42
100.0
 43
100.0
 50
90.0
  0
INSERT
  5
2617C
330
26130
100
AcDbEntity
  8
寸法
 62
     0
 48
50.0
370
    -2
100
AcDbBlockReference
  2
_DOTSMALL
 10
5439.390127938454
 20
1340.817449036638
 30
0.0
 41
100.0
 42
100.0
 43
100.0
 50
270.0
  0
POINT
  5
2617D
330
26130
100
AcDbEntity
  8
DEFPOINTS
 62
     0
 48
50.0
100
AcDbPoint
 10
5581.810441670914
 20
1580.817449036638
 30
0.0
  0
POINT
  5
2617E
330
26130
100
AcDbEntity
  8
DEFPOINTS
 62
     0
 48
50.0
100
AcDbPoint
 10
5501.810441670918
 20
1340.817449036638
 30
0.0
  0
POINT
  5
2617F
330
26130
100
AcDbEntity
  8
DEFPOINTS
 62
     0
 48
50.0
100
AcDbPoint
 10
5439.390127938454
 20
1340.817449036638
 30
0.0
  0
ENDBLK
  5
2613B
330
26130
100
AcDbEntity
  8
0
 48
50.0
100
AcDbBlockEnd
  0
BLOCK
  5
26146
330
2613C
100
AcDbEntity
  8
0
 48
50.0
100
AcDbBlockBegin
  2
*D51
 70
     1
 10
0.0
 20
0.0
 30
0.0
  3
*D51
  1

  0
LINE
  5
26180
330
2613C
100
AcDbEntity
  8
寸法
 62
     0
 48
50.0
370
    -2
100
AcDbLine
 10
5689.810441670914
 20
2124.817449036638
 30
0.0
 11
4914.773203109174
 21
2124.817449036639
 31
0.0
  0
LINE
  5
26181
330
2613C
100
AcDbEntity
  8
寸法
 62
     0
 48
50.0
370
    -2
100
AcDbLine
 10
5481.810441670917
 20
1340.817449036638
 30
0.0
 11
4914.773203109173
 21
1340.817449036638
 31
0.0
  0
LINE
  5
26182
330
2613C
100
AcDbEntity
  8
寸法
 62
     0
 48
50.0
370
    -2
100
AcDbLine
 10
4974.773203109173
 20
2124.817449036639
 30
0.0
 11
4974.773203109172
 21
1340.817449036638
 31
0.0
  0
MTEXT
  5
26183
330
2613C
100
AcDbEntity
  8
寸法
 62
     7
 48
50.0
100
AcDbMText
 10
4874.773203109174
 20
1712.357598692639
 30
0.0
 40
120.0
 41
0.0
 71
     5
 72
     1
  1
\A1;540
  7
STYLE1
 11
0.0000000000000001
 21
1.0
 31
0.0
 73
     1
 44
1.0
1001
ACAD
1000
MTEXTBEGIN
1070
    73
1070
     1
1070
    44
1040
1.0
1070
    74
1070
     0
1000
MTEXTEND
  0
INSERT
  5
26184
330
2613C
100
AcDbEntity
  8
寸法
 62
     0
 48
50.0
370
    -2
100
AcDbBlockReference
  2
_DOTSMALL
 10
4974.773203109173
 20
2124.817449036639
 30
0.0
 41
100.0
 42
100.0
 43
100.0
 50
90.0
  0
INSERT
  5
26185
330
2613C
100
AcDbEntity
  8
寸法
 62
     0
 48
50.0
370
    -2
100
AcDbBlockReference
  2
_DOTSMALL
 10
4974.773203109172
 20
1340.817449036638
 30
0.0
 41
100.0
 42
100.0
 43
100.0
 50
270.0
  0
POINT
  5
26186
330
2613C
100
AcDbEntity
  8
DEFPOINTS
 62
     0
 48
50.0
100
AcDbPoint
 10
5709.810441670914
 20
2124.817449036638
 30
0.0
  0
POINT
  5
26187
330
2613C
100
AcDbEntity
  8
DEFPOINTS
 62
     0
 48
50.0
100
AcDbPoint
 10
5501.810441670918
 20
1340.817449036638
 30
0.0
  0
POINT
  5
26188
330
2613C
100
AcDbEntity
  8
DEFPOINTS
 62
     0
 48
50.0
100
AcDbPoint
 10
4974.773203109172
 20
1340.817449036638
 30
0.0
  0
ENDBLK
  5
26147
330
2613C
100
AcDbEntity
  8
0
 48
50.0
100
AcDbBlockEnd
  0
BLOCK
  5
26152
330
26148
100
AcDbEntity
  8
0
 48
50.0
100
AcDbBlockBegin
  2
*D52
 70
     1
 10
0.0
 20
0.0
 30
0.0
  3
*D52
  1

  0
LINE
  5
26189
330
26148
100
AcDbEntity
  8
寸法
 62
     0
 48
50.0
370
    -2
100
AcDbLine
 10
5581.810441670914
 20
1192.817449036638
 30
0.0
 11
5581.810441670914
 21
742.3878110314781
 31
0.0
  0
LINE
  5
2618A
330
26148
100
AcDbEntity
  8
寸法
 62
     0
 48
50.0
370
    -2
100
AcDbLine
 10
6029.810441670914
 20
1192.817449036638
 30
0.0
 11
6029.810441670914
 21
742.3878110314781
 31
0.0
  0
LINE
  5
2618B
330
26148
100
AcDbEntity
  8
寸法
 62
     0
 48
50.0
370
    -2
100
AcDbLine
 10
5581.810441670914
 20
802.3878110314781
 30
0.0
 11
6029.810441670914
 21
802.3878110314781
 31
0.0
  0
MTEXT
  5
2618C
330
26148
100
AcDbEntity
  8
寸法
 62
     7
 48
50.0
100
AcDbMText
 10
5785.71368299269
 20
902.3878110314781
 30
0.0
 40
120.0
 41
0.0
 71
     5
 72
     1
  1
\A1;300
  7
STYLE1
 73
     1
 44
1.0
1001
ACAD
1000
MTEXTBEGIN
1070
    73
1070
     1
1070
    44
1040
1.0
1070
    74
1070
     0
1000
MTEXTEND
  0
INSERT
  5
2618D
330
26148
100
AcDbEntity
  8
寸法
 62
     0
 48
50.0
370
    -2
100
AcDbBlockReference
  2
_DOTSMALL
 10
5581.810441670914
 20
802.3878110314781
 30
0.0
 41
100.0
 42
100.0
 43
100.0
 50
180.0
  0
INSERT
  5
2618E
330
26148
100
AcDbEntity
  8
寸法
 62
     0
 48
50.0
370
    -2
100
AcDbBlockReference
  2
_DOTSMALL
 10
6029.810441670914
 20
802.3878110314781
 30
0.0
 41
100.0
 42
100.0
 43
100.0
  0
POINT
  5
2618F
330
26148
100
AcDbEntity
  8
DEFPOINTS
 62
     0
 48
50.0
100
AcDbPoint
 10
5581.810441670914
 20
1212.817449036638
 30
0.0
  0
POINT
  5
26190
330
26148
100
AcDbEntity
  8
DEFPOINTS
 62
     0
 48
50.0
100
AcDbPoint
 10
6029.810441670914
 20
1212.817449036638
 30
0.0
  0
POINT
  5
26191
330
26148
100
AcDbEntity
  8
DEFPOINTS
 62
     0
 48
50.0
100
AcDbPoint
 10
6029.810441670914
 20
802.3878110314781
 30
0.0
  0
ENDBLK
  5
26153
330
26148
100
AcDbEntity
  8
0
 48
50.0
100
AcDbBlockEnd
  0
BLOCK
  5
2615E
330
26154
100
AcDbEntity
  8
0
 48
50.0
100
AcDbBlockBegin
  2
*D53
 70
     1
 10
0.0
 20
0.0
 30
0.0
  3
*D53
  1

  0
LINE
  5
26192
330
26154
100
AcDbEntity
  8
寸法
 62
     0
 48
50.0
370
    -2
100
AcDbLine
 10
5901.810441670914
 20
2144.817449036638
 30
0.0
 11
5901.810441670914
 21
2504.817449036638
 31
0.0
  0
LINE
  5
26193
330
26154
100
AcDbEntity
  8
寸法
 62
     0
 48
50.0
370
    -2
100
AcDbLine
 10
5709.810441670914
 20
2144.817449036638
 30
0.0
 11
5709.810441670914
 21
2504.817449036638
 31
0.0
  0
LINE
  5
26194
330
26154
100
AcDbEntity
  8
寸法
 62
     0
 48
50.0
370
    -2
100
AcDbLine
 10
5901.810441670914
 20
2444.817449036639
 30
0.0
 11
5709.810441670914
 21
2444.817449036639
 31
0.0
  0
MTEXT
  5
26195
330
26154
100
AcDbEntity
  8
寸法
 62
     7
 48
50.0
100
AcDbMText
 10
5817.036772016111
 20
2744.497067976641
 30
0.0
 40
120.0
 41
0.0
 71
     5
 72
     1
  1
\A1;120\P195
  7
STYLE1
 73
     1
 44
1.0
1001
ACAD
1000
MTEXTBEGIN
1070
    73
1070
     1
1070
    44
1040
1.0
1070
    74
1070
     0
1000
MTEXTEND
  0
INSERT
  5
26196
330
26154
100
AcDbEntity
  8
寸法
 62
     0
 48
50.0
370
    -2
100
AcDbBlockReference
  2
_DOTSMALL
 10
5901.810441670914
 20
2444.817449036639
 30
0.0
 41
100.0
 42
100.0
 43
100.0
  0
INSERT
  5
26197
330
26154
100
AcDbEntity
  8
寸法
 62
     0
 48
50.0
370
    -2
100
AcDbBlockReference
  2
_DOTSMALL
 10
5709.810441670914
 20
2444.817449036639
 30
0.0
 41
100.0
 42
100.0
 43
100.0
 50
180.0
  0
POINT
  5
26198
330
26154
100
AcDbEntity
  8
DEFPOINTS
 62
     0
 48
50.0
100
AcDbPoint
 10
5901.810441670914
 20
2124.817449036638
 30
0.0
  0
POINT
  5
26199
330
26154
100
AcDbEntity
  8
DEFPOINTS
 62
     0
 48
50.0
100
AcDbPoint
 10
5709.810441670914
 20
2124.817449036638
 30
0.0
  0
POINT
  5
2619A
330
26154
100
AcDbEntity
  8
DEFPOINTS
 62
     0
 48
50.0
100
AcDbPoint
 10
5709.810441670914
 20
2444.817449036639
 30
0.0
  0
ENDBLK
  5
2615F
330
26154
100
AcDbEntity
  8
0
 48
50.0
100
AcDbBlockEnd
  0
ENDSEC
  0
SECTION
  2
ENTITIES
  0
MTEXT
  5
763F
330
747D
100
AcDbEntity
  8
0
100
AcDbMText
 10
302.846345836809
 20
280.1983726409901
 30
0.0
 40
3.5
 41
5.323721266742722
 71
     1
 72
     5
  1

  7
MSMINCHO
 73
     1
 44
1.0
1001
ACAD
1000
MTEXTBEGIN
1070
    73
1070
     1
1070
    44
1040
1.0
1070
    74
1070
     0
1000
MTEXTEND
  0
LINE
  5
10B57
330
747D
100
AcDbEntity
  8
補助
  6
PHANTOM
 62
   230
 48
50.0
100
AcDbLine
 10
139.9999999999995
 20
11409.6
 30
0.0
 11
16307.2
 21
11409.6
 31
0.0
  0
LINE
  5
10B59
330
747D
100
AcDbEntity
  8
仕様書枠
  6
Continuous
 48
50.0
100
AcDbLine
 10
13107.2
 20
1200.0
 30
0.0
 11
13107.2
 21
-0.0000000000000729
 31
0.0
  0
LINE
  5
10B5D
330
747D
100
AcDbEntity
  8
仕様書枠
 48
50.0
100
AcDbLine
 10
140.0
 20
0.0
 30
0.0
 11
16307.2
 21
-0.0000000000000909
 31
0.0
  0
LINE
  5
10B5E
330
747D
100
AcDbEntity
  8
補助
  6
PHANTOM
 62
   230
 48
50.0
100
AcDbLine
 10
16307.2
 20
11409.6
 30
0.0
 11
16307.2
 21
1200.0
 31
0.0
  0
LINE
  5
10B6C
330
747D
100
AcDbEntity
  8
仕様書枠
 48
50.0
100
AcDbLine
 10
13107.2
 20
1200.0
 30
0.0
 11
16307.2
 21
1200.0
 31
0.0
  0
TEXT
  5
10B73
330
747D
100
AcDbEntity
  8
文字
 62
     7
 48
50.0
100
AcDbText
 10
13162.9790565769
 20
895.0906074299405
 30
0.0
 40
200.0
  1
基 礎 図
  7
STYLE2
100
AcDbText
  0
LINE
  5
10B7B
330
747D
100
AcDbEntity
  8
仕様書枠
 48
50.0
100
AcDbLine
 10
13107.2
 20
800.0
 30
0.0
 11
14251.2
 21
800.0
 31
0.0
  0
LINE
  5
10B88
330
747D
100
AcDbEntity
  8
仕様書枠
  6
Continuous
 48
50.0
100
AcDbLine
 10
14251.2
 20
1200.0
 30
0.0
 11
14251.2
 21
800.0
 31
0.0
  0
LINE
  5
16462
330
747D
100
AcDbEntity
  8
仕様書枠
 48
50.0
100
AcDbLine
 10
16307.2
 20
1200.0
 30
0.0
 11
16307.2
 21
-0.0000000000000909
 31
0.0
  0
LINE
  5
1903B
330
747D
100
AcDbEntity
  8
補助
  6
PHANTOM
 62
   230
 48
50.0
100
AcDbLine
 10
140.0
 20
0.0
 30
0.0
 11
139.9999999999995
 21
11409.6
 31
0.0
  0
TEXT
  5
1C7A1
330
747D
100
AcDbEntity
  8
文字
 62
     7
 48
50.0
100
AcDbText
 10
13188.16259899338
 20
79.80631269190417
 30
0.0
 40
80.0
  1
※布基礎には換気口を設けてください。
  7
STYLE2
100
AcDbText
  0
TEXT
  5
1C7E7
330
747D
100
AcDbEntity
  8
文字
 62
     7
 48
50.0
100
AcDbText
 10
13188.16259899338
 20
246.7109242801889
 30
0.0
 40
80.0
  1
※寒冷地等は地域の実情に合わせた基礎にして下さい。
  7
STYLE2
100
AcDbText
  0
TEXT
  5
1C7E8
330
747D
100
AcDbEntity
  8
文字
 62
     7
 48
50.0
100
AcDbText
 10
14338.83900715397
 20
499.5983841039506
 30
0.0
 40
160.0
  1
ＮＸＮ－６５ＳＡ/ＨＡ
  7
STYLE2
100
AcDbText
  0
TEXT
  5
1C7E9
330
747D
100
AcDbEntity
  8
文字
 62
     7
 48
50.0
100
AcDbText
 10
14641.2525855784
 20
871.1744590657927
 30
0.0
 40
100.0
  1
～一般型・多雪地型～
  7
STYLE2
100
AcDbText
  0
TEXT
  5
1C7EC
330
747D
100
AcDbEntity
  8
文字
 62
     7
 48
50.0
100
AcDbText
 10
14524.131837222
 20
1031.557706291229
 30
0.0
 40
100.0
  1
 　    <縮尺> S=1/40
  7
STYLE2
100
AcDbText
  0
TEXT
  5
1C7ED
330
747D
100
AcDbEntity
  8
文字
 62
     7
 48
50.0
100
AcDbText
 10
13201.43669998441
 20
477.2740661031257
 30
0.0
 40
160.0
  1
機種名
  7
STYLE2
100
AcDbText
  0
LINE
  5
1C7EF
330
747D
100
AcDbEntity
  8
文字
 62
     7
 48
50.0
100
AcDbLine
 10
13187.2
 20
400.0
 30
0.0
 11
16227.2
 21
400.0
 31
0.0
  0
MTEXT
  5
24743
330
747D
100
AcDbEntity
  8
部品1
 62
     7
 48
50.0
100
AcDbMText
 10
8741.362297620369
 20
6968.211536739985
 30
0.0
 40
120.0
 41
0.0
 71
     6
 72
     1
  1
CB
  7
STYLE1
 73
     1
 44
1.0
1001
ACAD
1000
MTEXTBEGIN
1070
    73
1070
     1
1070
    44
1040
1.0
1070
    74
1070
     0
1000
MTEXTEND
  0
LWPOLYLINE
  5
24744
330
747D
100
AcDbEntity
  8
寸法
 48
50.0
100
AcDbPolyline
 90
        3
 70
     0
 43
0.0
 10
8876.472283077132
 20
7025.131930464822
 10
8837.809206570423
 20
6877.421839692274
 10
8573.50424964046
 20
6877.421839692273
1001
ACAD
1000
DSTYLE
1002
{
1070
   341
1005
0
1070
   343
1005
0
1070
   344
1005
0
1002
}
  0
SOLID
  5
24745
330
747D
100
AcDbEntity
  8
寸法
 48
50.0
100
AcDbTrace
 10
8856.317929497269
 20
7030.407327090239
 30
0.0
 11
8908.12466282964
 21
7146.058051944024
 31
0.0
 12
8896.626636657002
 22
7019.856533839403
 32
0.0
 13
8896.626636657002
 23
7019.856533839403
 33
0.0
1001
ACAD
1000
DSTYLE
1002
{
1070
   341
1005
0
1070
   343
1005
0
1070
   344
1005
0
1002
}
  0
LINE
  5
24B91
102
{ACAD_REACTORS
330
25E01
102
}
330
747D
100
AcDbEntity
  8
部品1
 48
50.0
100
AcDbLine
 10
9301.600000000002
 20
5671.90777793021
 30
0.0
 11
7146.600000000001
 21
5671.907777930195
 31
0.0
  0
LINE
  5
24B93
330
747D
100
AcDbEntity
  8
センター
 48
2.0
100
AcDbLine
 10
7446.6
 20
6481.907777930207
 30
0.0
 11
7546.600000000001
 21
6481.907777930207
 31
0.0
  0
LINE
  5
24B94
330
747D
100
AcDbEntity
  8
部品1
 48
50.0
100
AcDbLine
 10
7596.600000000001
 20
6581.907777930206
 30
0.0
 11
7396.600000000001
 21
6581.907777930206
 31
0.0
  0
LINE
  5
24B95
330
747D
100
AcDbEntity
  8
部品1
 48
50.0
100
AcDbLine
 10
7596.600000000001
 20
6381.907777930206
 30
0.0
 11
7396.600000000001
 21
6381.907777930206
 31
0.0
  0
LINE
  5
24B96
330
747D
100
AcDbEntity
  8
センター
 48
2.0
100
AcDbLine
 10
7446.6
 20
7231.907777930207
 30
0.0
 11
7546.600000000001
 21
7231.907777930207
 31
0.0
  0
LINE
  5
24B97
330
747D
100
AcDbEntity
  8
部品1
 48
50.0
100
AcDbLine
 10
7596.600000000001
 20
7131.907777930206
 30
0.0
 11
7396.600000000001
 21
7131.907777930206
 31
0.0
  0
LINE
  5
24B98
330
747D
100
AcDbEntity
  8
部品1
 48
50.0
100
AcDbLine
 10
7596.600000000001
 20
7331.907777930206
 30
0.0
 11
7396.600000000001
 21
7331.907777930206
 31
0.0
  0
DIMENSION
  5
24B99
330
747D
100
AcDbEntity
  8
寸法
 48
50.0
100
AcDbDimension
  2
*D19
 10
7496.6
 20
8493.817543578535
 30
0.0
 11
7860.100000000002
 21
8593.829354602155
 31
0.0
 70
    32
 71
     5
 42
727.0000000000009
  3
INABA_S40G
100
AcDbAlignedDimension
 13
8223.600000000002
 23
7331.907777930206
 33
0.0
 14
7496.6
 24
7331.907777930206
 34
0.0
100
AcDbRotatedDimension
1001
ACAD
1000
DSTYLE
1002
{
1070
   174
1070
     0
1070
   272
1070
     1
1070
   341
1005
0
1002
}
  0
LINE
  5
24B9D
102
{ACAD_REACTORS
330
25DDA
102
}
330
747D
100
AcDbEntity
  8
部品1
 48
50.0
100
AcDbLine
 10
9753.600000000004
 20
7966.907777930206
 30
0.0
 11
6693.6
 21
7966.907777930206
 31
0.0
  0
DIMENSION
  5
24BA0
330
747D
100
AcDbEntity
  8
寸法
 48
50.0
100
AcDbDimension
  2
*D20
 10
9753.600000000004
 20
8925.128099989128
 30
0.0
 11
8223.600000000002
 21
9025.128099989128
 31
0.0
 70
    32
 71
     5
 42
3060.000000000001
  3
INABA_S40G
100
AcDbAlignedDimension
 13
6693.6
 23
7966.907777930206
 33
0.0
 14
9753.600000000004
 24
7966.907777930206
 34
0.0
100
AcDbRotatedDimension
1001
ACAD
1000
DSTYLE
1002
{
1070
   174
1070
     0
1070
   272
1070
     1
1070
   341
1005
0
1002
}
  0
DIMENSION
  5
24BA1
330
747D
100
AcDbEntity
  8
寸法
 48
50.0
100
AcDbDimension
  2
*D21
 10
6816.600000000001
 20
8712.66740447229
 30
0.0
 11
8223.600000000002
 21
8812.679215495911
 31
0.0
 70
    32
 71
     5
 42
2814.000000000001
  3
INABA_S40G
100
AcDbAlignedDimension
 13
9630.600000000002
 23
7893.907777930206
 33
0.0
 14
6816.600000000001
 24
7893.907777930206
 34
0.0
100
AcDbRotatedDimension
1001
ACAD
1000
DSTYLE
1002
{
1070
   174
1070
     0
1070
   272
1070
     1
1070
   341
1005
0
1002
}
  0
LINE
  5
24BA4
102
{ACAD_REACTORS
330
25DF0
102
}
330
747D
100
AcDbEntity
  8
部品1
 48
50.0
100
AcDbLine
 10
6693.6
 20
5746.907777930206
 30
0.0
 11
6693.6
 21
7966.907777930206
 31
0.0
  0
DIMENSION
  5
24BA5
330
747D
100
AcDbEntity
  8
寸法
 48
50.0
100
AcDbDimension
  2
*D22
 10
5354.99411552824
 20
7966.907777930211
 30
0.0
 11
5354.994115528239
 21
6821.907777930211
 31
0.0
 70
   160
 71
     5
 42
2220.0
  3
INABA_S40G
100
AcDbAlignedDimension
 13
6693.6
 23
5746.90777793021
 33
0.0
 14
6693.6
 24
7966.907777930209
 34
0.0
 50
90.0
100
AcDbRotatedDimension
1001
ACAD
1000
DSTYLE
1002
{
1070
   174
1070
     0
1070
   272
1070
     1
1070
   341
1005
0
1002
}
  0
DIMENSION
  5
24BA6
330
747D
100
AcDbEntity
  8
寸法
 48
50.0
100
AcDbDimension
  2
*D23
 10
5606.937212247638
 20
5869.907777930207
 30
0.0
 11
5606.937212247637
 21
6891.907777930204
 31
0.0
 70
   160
 71
     5
 42
1974.0
  3
INABA_S40G
100
AcDbAlignedDimension
 13
6766.600000000001
 23
7843.907777930207
 33
0.0
 14
6766.600000000008
 24
5869.907777930206
 34
0.0
 50
90.0
100
AcDbRotatedDimension
1001
ACAD
1000
DSTYLE
1002
{
1070
   174
1070
     0
1070
   272
1070
     1
1070
   341
1005
0
1002
}
  0
DIMENSION
  5
24BA7
330
747D
100
AcDbEntity
  8
寸法
 48
50.0
100
AcDbDimension
  2
*D24
 10
7140.307249876101
 20
7736.907777930203
 30
0.0
 11
7140.307249876099
 21
7396.848722812091
 31
0.0
 70
   160
 71
     5
 42
110.0000000000036
  3
INABA_S40G
100
AcDbAlignedDimension
 13
6923.600000000002
 23
7846.907777930207
 33
0.0
 14
6923.600000000002
 24
7736.907777930203
 34
0.0
 50
90.0
100
AcDbRotatedDimension
1001
ACAD
1000
DSTYLE
1002
{
1070
   174
1070
     0
1070
   272
1070
     1
1070
   341
1005
0
1002
}
  0
DIMENSION
  5
24BA8
330
747D
100
AcDbEntity
  8
寸法
 48
50.0
100
AcDbDimension
  2
*D25
 10
6693.6
 20
8493.817543578535
 30
0.0
 11
7095.100000000001
 21
8593.817543578534
 31
0.0
 70
    32
 71
     5
 42
803.0
  3
INABA_S40G
100
AcDbAlignedDimension
 13
7496.6
 23
7331.907777930206
 33
0.0
 14
6693.6
 24
7966.907777930206
 34
0.0
100
AcDbRotatedDimension
1001
ACAD
1000
DSTYLE
1002
{
1070
   174
1070
     0
1070
   272
1070
     1
1070
   341
1005
0
1002
}
  0
DIMENSION
  5
24BAB
330
747D
100
AcDbEntity
  8
寸法
 48
50.0
100
AcDbDimension
  2
*D26
 10
5354.994115528241
 20
5746.907777930211
 30
0.0
 11
5354.99411552824
 21
5709.407777930213
 31
0.0
 70
   160
  1
c
 71
     5
 42
74.99999999999818
  3
INABA_S40G
100
AcDbAlignedDimension
 13
5606.937212247638
 23
5671.907777930212
 33
0.0
 14
6693.6
 24
5746.90777793021
 34
0.0
 50
90.0
100
AcDbRotatedDimension
1001
ACAD
1000
DSTYLE
1002
{
1070
   174
1070
     0
1070
   272
1070
     1
1070
   341
1005
0
1002
}
  0
LINE
  5
24BAC
330
747D
100
AcDbEntity
  8
部品1
 48
50.0
100
AcDbLine
 10
6693.6
 20
5746.907777930206
 30
0.0
 11
7146.600000000001
 21
5746.907777930206
 31
0.0
  0
DIMENSION
  5
24BAD
330
747D
100
AcDbEntity
  8
寸法
 48
50.0
100
AcDbDimension
  2
*D27
 10
5606.937212247638
 20
5746.907777930207
 30
0.0
 11
5606.937212247637
 21
5451.376829087614
 31
0.0
 70
   160
 71
     5
 42
123.0
  3
INABA_S40G
100
AcDbAlignedDimension
 13
6766.600000000008
 23
5869.907777930206
 33
0.0
 14
6693.6
 24
5746.907777930206
 34
0.0
 50
90.0
100
AcDbRotatedDimension
1001
ACAD
1000
DSTYLE
1002
{
1070
   174
1070
     0
1070
   272
1070
     1
1070
   341
1005
0
1002
}
  0
LINE
  5
24BAE
330
747D
100
AcDbEntity
  8
部品1
 48
50.0
100
AcDbLine
 10
7146.600000000001
 20
5671.907777930211
 30
0.0
 11
7146.600000000001
 21
5746.907777930196
 31
0.0
  0
LINE
  5
24BAF
330
747D
100
AcDbEntity
  8
部品1
 48
50.0
100
AcDbLine
 10
6923.600000000002
 20
5976.90777793021
 30
0.0
 11
6813.600000000002
 21
5976.907777930207
 31
0.0
  0
LINE
  5
24BB0
330
747D
100
AcDbEntity
  8
センター
 48
2.0
100
AcDbLine
 10
6766.600000000008
 20
5869.907777930206
 30
0.0
 11
6866.600000000008
 21
5869.907777930206
 31
0.0
  0
CIRCLE
  5
24BB1
330
747D
100
AcDbEntity
  8
部品1
 48
50.0
100
AcDbCircle
 10
6816.600000000008
 20
5869.907777930206
 30
0.0
 40
35.0
  0
LINE
  5
24BB2
330
747D
100
AcDbEntity
  8
部品1
 48
50.0
100
AcDbLine
 10
6923.600000000002
 20
5866.90777793021
 30
0.0
 11
6923.600000000002
 21
5976.90777793021
 31
0.0
  0
LINE
  5
24BB3
330
747D
100
AcDbEntity
  8
センター
 48
2.0
100
AcDbLine
 10
6816.600000000008
 20
5919.907777930205
 30
0.0
 11
6816.600000000008
 21
5819.907777930206
 31
0.0
  0
LINE
  5
24BB5
102
{ACAD_REACTORS
330
25DF0
102
}
330
747D
100
AcDbEntity
  8
部品1
 48
50.0
100
AcDbLine
 10
6813.6
 20
6756.907777930215
 30
0.0
 11
6693.6
 21
6756.907777930215
 31
0.0
  0
LINE
  5
24BB6
102
{ACAD_REACTORS
330
25DF0
102
}
330
747D
100
AcDbEntity
  8
部品1
 48
50.0
100
AcDbLine
 10
6813.6
 20
6956.907777930215
 30
0.0
 11
6693.6
 21
6956.907777930215
 31
0.0
  0
LINE
  5
24BB7
330
747D
100
AcDbEntity
  8
センター
 48
2.0
100
AcDbLine
 10
7496.6
 20
6531.907777930206
 30
0.0
 11
7496.6
 21
6431.907777930206
 31
0.0
  0
LINE
  5
24BB8
330
747D
100
AcDbEntity
  8
部品1
 48
50.0
100
AcDbLine
 10
7396.600000000001
 20
6381.907777930206
 30
0.0
 11
7396.600000000001
 21
6581.907777930206
 31
0.0
  0
LINE
  5
24BB9
330
747D
100
AcDbEntity
  8
センター
 48
2.0
100
AcDbLine
 10
7496.6
 20
7281.907777930206
 30
0.0
 11
7496.6
 21
7181.907777930206
 31
0.0
  0
LINE
  5
24BBA
330
747D
100
AcDbEntity
  8
部品1
 48
50.0
100
AcDbLine
 10
7396.600000000001
 20
7131.907777930206
 30
0.0
 11
7396.600000000001
 21
7331.907777930206
 31
0.0
  0
DIMENSION
  5
24BBB
330
747D
100
AcDbEntity
  8
寸法
 48
50.0
100
AcDbDimension
  2
*D28
 10
5354.994115528241
 20
8021.907777930207
 30
0.0
 11
5354.99411552824
 21
7994.40777793021
 31
0.0
 70
   160
  1
b
 71
     5
 42
54.99999999999545
  3
INABA_S40G
100
AcDbAlignedDimension
 13
6693.6
 23
7966.907777930209
 33
0.0
 14
5606.937212247638
 24
8021.907777930207
 34
0.0
 50
90.0
100
AcDbRotatedDimension
1001
ACAD
1000
DSTYLE
1002
{
1070
   174
1070
     0
1070
   272
1070
     1
1070
   341
1005
0
1002
}
  0
DIMENSION
  5
24BBC
330
747D
100
AcDbEntity
  8
寸法
 48
50.0
100
AcDbDimension
  2
*D29
 10
6693.6
 20
8925.128099989128
 30
0.0
 11
6377.425378797543
 21
8925.128099989128
 31
0.0
 70
   160
  1
a
 71
     5
 42
50.0
  3
INABA_S40G
100
AcDbAlignedDimension
 13
6643.600000000001
 23
8712.667404472286
 33
0.0
 14
6693.6
 24
7966.907777930206
 34
0.0
100
AcDbRotatedDimension
1001
ACAD
1000
DSTYLE
1002
{
1070
   174
1070
     0
1070
   272
1070
     1
1070
   341
1005
0
1002
}
  0
DIMENSION
  5
24BBD
330
747D
100
AcDbEntity
  8
寸法
 48
50.0
100
AcDbDimension
  2
*D30
 10
6693.6
 20
8712.66740447229
 30
0.0
 11
6420.493398282203
 21
8712.66740447229
 31
0.0
 70
   160
 71
     5
 42
123.0
  3
INABA_S40G
100
AcDbAlignedDimension
 13
6816.600000000001
 23
7893.907777930206
 33
0.0
 14
6693.6
 24
7966.907777930206
 34
0.0
100
AcDbRotatedDimension
1001
ACAD
1000
DSTYLE
1002
{
1070
   174
1070
     0
1070
   272
1070
     1
1070
   341
1005
0
1002
}
  0
LINE
  5
24BBE
330
747D
100
AcDbEntity
  8
部品1
 48
50.0
100
AcDbLine
 10
7092.928907166849
 20
7966.907777930202
 30
0.0
 11
6693.6
 21
7966.907777930206
 31
0.0
  0
DIMENSION
  5
24BBF
330
747D
100
AcDbEntity
  8
寸法
 48
50.0
100
AcDbDimension
  2
*D31
 10
5606.937212247638
 20
7843.907777930207
 30
0.0
 11
5606.937212247637
 21
8280.014379648005
 31
0.0
 70
   160
 71
     5
 42
123.0
  3
INABA_S40G
100
AcDbAlignedDimension
 13
6693.6
 23
7966.907777930206
 33
0.0
 14
6766.600000000001
 24
7843.907777930207
 34
0.0
 50
90.0
100
AcDbRotatedDimension
1001
ACAD
1000
DSTYLE
1002
{
1070
   174
1070
     0
1070
   272
1070
     1
1070
   341
1005
0
1002
}
  0
DIMENSION
  5
24BC0
330
747D
100
AcDbEntity
  8
寸法
 48
50.0
100
AcDbDimension
  2
*D32
 10
7140.307249876099
 20
7966.907777930206
 30
0.0
 11
7140.307249876099
 21
8244.991321203093
 31
0.0
 70
   160
 71
     5
 42
120.0
  3
INABA_S40G
100
AcDbAlignedDimension
 13
6923.600000000002
 23
7846.907777930207
 33
0.0
 14
6923.600000000002
 24
7966.907777930206
 34
0.0
 50
90.0
100
AcDbRotatedDimension
1001
ACAD
1000
DSTYLE
1002
{
1070
   174
1070
     0
1070
   272
1070
     1
1070
   341
1005
0
1002
}
  0
CIRCLE
  5
24BC1
330
747D
100
AcDbEntity
  8
部品1
 48
50.0
100
AcDbCircle
 10
6816.600000000001
 20
7843.907777930207
 30
0.0
 40
35.0
  0
LINE
  5
24BC2
330
747D
100
AcDbEntity
  8
センター
 48
2.0
100
AcDbLine
 10
6816.600000000001
 20
7893.907777930206
 30
0.0
 11
6816.600000000001
 21
7793.907777930207
 31
0.0
  0
LINE
  5
24BC3
330
747D
100
AcDbEntity
  8
部品1
 48
50.0
100
AcDbLine
 10
6923.600000000002
 20
7736.907777930203
 30
0.0
 11
6923.600000000002
 21
7846.907777930205
 31
0.0
  0
LINE
  5
24BC4
330
747D
100
AcDbEntity
  8
部品1
 48
50.0
100
AcDbLine
 10
6923.600000000002
 20
7736.907777930203
 30
0.0
 11
6813.600000000002
 21
7736.907777930206
 31
0.0
  0
LINE
  5
24BC5
330
747D
100
AcDbEntity
  8
センター
 48
2.0
100
AcDbLine
 10
6766.600000000001
 20
7843.907777930207
 30
0.0
 11
6866.600000000001
 21
7843.907777930207
 31
0.0
  0
DIMENSION
  5
24BC6
330
747D
100
AcDbEntity
  8
寸法
 48
50.0
100
AcDbDimension
  2
*D33
 10
8223.600000000002
 20
8493.817543578535
 30
0.0
 11
8587.100000000003
 21
8593.829354602155
 31
0.0
 70
    32
 71
     5
 42
727.0
  3
INABA_S40G
100
AcDbAlignedDimension
 13
8950.600000000003
 23
7331.907777930206
 33
0.0
 14
8223.600000000002
 24
7331.907777930206
 34
0.0
100
AcDbRotatedDimension
1001
ACAD
1000
DSTYLE
1002
{
1070
   174
1070
     0
1070
   272
1070
     1
1070
   341
1005
0
1002
}
  0
LINE
  5
24BC9
330
747D
100
AcDbEntity
  8
想像線
 48
10.0
100
AcDbLine
 10
9803.600000000004
 20
8021.907777930211
 30
0.0
 11
9803.600000000008
 21
5671.907777930202
 31
0.0
  0
LINE
  5
24BCA
102
{ACAD_REACTORS
330
25E0F
102
}
330
747D
100
AcDbEntity
  8
部品1
 48
50.0
100
AcDbLine
 10
9753.600000000004
 20
5746.907777930225
 30
0.0
 11
9753.600000000004
 21
7966.907777930206
 31
0.0
  0
DIMENSION
  5
24BCB
330
747D
100
AcDbEntity
  8
寸法
 48
50.0
100
AcDbDimension
  2
*D34
 10
5961.413371461228
 20
7966.907777930207
 30
0.0
 11
5861.413371461227
 21
7599.407777930207
 31
0.0
 70
    32
 71
     5
 42
734.999999999999
  3
INABA_S40G
100
AcDbAlignedDimension
 13
7396.600000000003
 23
7231.907777930207
 33
0.0
 14
6693.6
 24
7966.907777930206
 34
0.0
 50
90.0
100
AcDbRotatedDimension
1001
ACAD
1000
DSTYLE
1002
{
1070
   174
1070
     0
1070
   272
1070
     1
1070
   341
1005
0
1002
}
  0
DIMENSION
  5
24BCD
330
747D
100
AcDbEntity
  8
寸法
 48
50.0
100
AcDbDimension
  2
*D35
 10
8950.600000000003
 20
8493.817543578535
 30
0.0
 11
9324.518522006281
 21
8493.817543578535
 31
0.0
 70
   160
 71
     5
 42
803.0
  3
INABA_S40G
100
AcDbAlignedDimension
 13
9753.600000000004
 23
7966.907777930206
 33
0.0
 14
8950.600000000003
 24
7331.907777930206
 34
0.0
100
AcDbRotatedDimension
1001
ACAD
1000
DSTYLE
1002
{
1070
   174
1070
     0
1070
   272
1070
     1
1070
   341
1005
0
1002
}
  0
DIMENSION
  5
24BD3
330
747D
100
AcDbEntity
  8
寸法
 48
50.0
100
AcDbDimension
  2
*D36
 10
5961.41337146123
 20
6481.907777930207
 30
0.0
 11
5961.413371461228
 21
6071.120553595382
 31
0.0
 70
   160
 71
     5
 42
734.9999999999917
  3
INABA_S40G
100
AcDbAlignedDimension
 13
6693.6
 23
5746.907777930214
 33
0.0
 14
7396.600000000001
 24
6481.907777930207
 34
0.0
 50
90.0
100
AcDbRotatedDimension
1001
ACAD
1000
DSTYLE
1002
{
1070
   174
1070
     0
1070
   272
1070
     1
1070
   341
1005
0
1002
}
  0
LINE
  5
24BD5
102
{ACAD_REACTORS
330
25E01
102
}
330
747D
100
AcDbEntity
  8
部品1
 48
50.0
100
AcDbLine
 10
8123.600000000017
 20
5671.907777930215
 30
0.0
 11
8123.600000000021
 21
5866.907777930216
 31
0.0
  0
LINE
  5
24BD6
102
{ACAD_REACTORS
330
25E01
102
}
330
747D
100
AcDbEntity
  8
部品1
 48
50.0
100
AcDbLine
 10
8323.600000000018
 20
5671.907777930217
 30
0.0
 11
8323.60000000002
 21
5866.907777930216
 31
0.0
  0
LINE
  5
24BDA
330
747D
100
AcDbEntity
  8
部品1
 48
50.0
100
AcDbLine
 10
7596.600000000001
 20
6381.907777930206
 30
0.0
 11
7596.600000000001
 21
6581.907777930206
 31
0.0
  0
LINE
  5
24BDB
330
747D
100
AcDbEntity
  8
部品1
 48
50.0
100
AcDbLine
 10
8323.600000000002
 20
6581.907777930206
 30
0.0
 11
8123.600000000001
 21
6581.907777930206
 31
0.0
  0
LINE
  5
24BDC
330
747D
100
AcDbEntity
  8
部品1
 48
50.0
100
AcDbLine
 10
8323.600000000002
 20
6381.907777930206
 30
0.0
 11
8123.600000000001
 21
6381.907777930206
 31
0.0
  0
LINE
  5
24BDD
330
747D
100
AcDbEntity
  8
部品1
 48
50.0
100
AcDbLine
 10
8123.600000000001
 20
6381.907777930206
 30
0.0
 11
8123.600000000001
 21
6581.907777930206
 31
0.0
  0
LINE
  5
24BDE
330
747D
100
AcDbEntity
  8
センター
 48
2.0
100
AcDbLine
 10
8173.600000000002
 20
6481.907777930207
 30
0.0
 11
8273.600000000001
 21
6481.907777930207
 31
0.0
  0
LINE
  5
24BDF
330
747D
100
AcDbEntity
  8
センター
 48
2.0
100
AcDbLine
 10
8223.600000000002
 20
6531.907777930206
 30
0.0
 11
8223.600000000002
 21
6431.907777930206
 31
0.0
  0
LINE
  5
24BE0
330
747D
100
AcDbEntity
  8
部品1
 48
50.0
100
AcDbLine
 10
8323.600000000002
 20
6381.907777930206
 30
0.0
 11
8323.600000000002
 21
6581.907777930206
 31
0.0
  0
LINE
  5
24BE1
330
747D
100
AcDbEntity
  8
部品1
 48
50.0
100
AcDbLine
 10
7596.600000000001
 20
7131.907777930206
 30
0.0
 11
7596.600000000001
 21
7331.907777930206
 31
0.0
  0
LINE
  5
24BE2
330
747D
100
AcDbEntity
  8
センター
 48
2.0
100
AcDbLine
 10
8223.600000000002
 20
7281.907777930206
 30
0.0
 11
8223.600000000002
 21
7181.907777930206
 31
0.0
  0
LINE
  5
24BE3
330
747D
100
AcDbEntity
  8
部品1
 48
50.0
100
AcDbLine
 10
8123.600000000001
 20
7131.907777930206
 30
0.0
 11
8123.600000000001
 21
7331.907777930206
 31
0.0
  0
LINE
  5
24BE4
330
747D
100
AcDbEntity
  8
部品1
 48
50.0
100
AcDbLine
 10
8323.600000000002
 20
7131.907777930206
 30
0.0
 11
8323.600000000002
 21
7331.907777930206
 31
0.0
  0
LINE
  5
24BE5
330
747D
100
AcDbEntity
  8
部品1
 48
50.0
100
AcDbLine
 10
8323.600000000002
 20
7131.907777930206
 30
0.0
 11
8123.600000000001
 21
7131.907777930206
 31
0.0
  0
LINE
  5
24BE6
330
747D
100
AcDbEntity
  8
センター
 48
2.0
100
AcDbLine
 10
8173.600000000002
 20
7231.907777930207
 30
0.0
 11
8273.600000000001
 21
7231.907777930207
 31
0.0
  0
LINE
  5
24BE7
330
747D
100
AcDbEntity
  8
部品1
 48
50.0
100
AcDbLine
 10
8323.600000000002
 20
7331.907777930206
 30
0.0
 11
8123.600000000001
 21
7331.907777930206
 31
0.0
  0
DIMENSION
  5
24BE8
330
747D
100
AcDbEntity
  8
寸法
 48
50.0
100
AcDbDimension
  2
*D37
 10
5961.413371461228
 20
6481.907777930207
 30
0.0
 11
5861.413371461226
 21
6856.907777930207
 31
0.0
 70
    32
 71
     5
 42
750.0000000000008
  3
INABA_S40G
100
AcDbAlignedDimension
 13
7396.600000000003
 23
7231.907777930207
 33
0.0
 14
7396.600000000001
 24
6481.907777930207
 34
0.0
 50
90.0
100
AcDbRotatedDimension
1001
ACAD
1000
DSTYLE
1002
{
1070
   174
1070
     0
1070
   272
1070
     1
1070
   341
1005
0
1002
}
  0
LINE
  5
24BE9
330
747D
100
AcDbEntity
  8
センター
 48
2.0
100
AcDbLine
 10
8900.600000000002
 20
6481.907777930207
 30
0.0
 11
9000.600000000003
 21
6481.907777930207
 31
0.0
  0
LINE
  5
24BEA
330
747D
100
AcDbEntity
  8
部品1
 48
50.0
100
AcDbLine
 10
9050.600000000002
 20
6381.907777930206
 30
0.0
 11
8850.600000000003
 21
6381.907777930206
 31
0.0
  0
LINE
  5
24BEB
330
747D
100
AcDbEntity
  8
部品1
 48
50.0
100
AcDbLine
 10
9050.600000000002
 20
6581.907777930206
 30
0.0
 11
8850.600000000003
 21
6581.907777930206
 31
0.0
  0
LINE
  5
24BEC
330
747D
100
AcDbEntity
  8
センター
 48
2.0
100
AcDbLine
 10
8950.600000000003
 20
6531.907777930206
 30
0.0
 11
8950.600000000003
 21
6431.907777930206
 31
0.0
  0
LINE
  5
24BED
330
747D
100
AcDbEntity
  8
部品1
 48
50.0
100
AcDbLine
 10
8850.600000000003
 20
6381.907777930206
 30
0.0
 11
8850.600000000003
 21
6581.907777930206
 31
0.0
  0
LINE
  5
24BEE
330
747D
100
AcDbEntity
  8
部品1
 48
50.0
100
AcDbLine
 10
9050.600000000002
 20
6381.907777930206
 30
0.0
 11
9050.600000000002
 21
6581.907777930206
 31
0.0
  0
LINE
  5
24BEF
330
747D
100
AcDbEntity
  8
部品1
 48
50.0
100
AcDbLine
 10
9050.600000000002
 20
7131.907777930206
 30
0.0
 11
9050.600000000002
 21
7331.907777930206
 31
0.0
  0
LINE
  5
24BF0
330
747D
100
AcDbEntity
  8
センター
 48
2.0
100
AcDbLine
 10
8950.600000000003
 20
7281.907777930206
 30
0.0
 11
8950.600000000003
 21
7181.907777930206
 31
0.0
  0
LINE
  5
24BF1
330
747D
100
AcDbEntity
  8
部品1
 48
50.0
100
AcDbLine
 10
8850.600000000003
 20
7131.907777930206
 30
0.0
 11
8850.600000000003
 21
7331.907777930206
 31
0.0
  0
LINE
  5
24BF2
330
747D
100
AcDbEntity
  8
センター
 48
2.0
100
AcDbLine
 10
8900.600000000002
 20
7231.907777930207
 30
0.0
 11
9000.600000000003
 21
7231.907777930207
 31
0.0
  0
LINE
  5
24BF3
330
747D
100
AcDbEntity
  8
部品1
 48
50.0
100
AcDbLine
 10
9050.600000000002
 20
7131.907777930206
 30
0.0
 11
8850.600000000003
 21
7131.907777930206
 31
0.0
  0
LINE
  5
24BF4
330
747D
100
AcDbEntity
  8
部品1
 48
50.0
100
AcDbLine
 10
9050.600000000002
 20
7331.907777930206
 30
0.0
 11
8850.600000000003
 21
7331.907777930206
 31
0.0
  0
LINE
  5
24BF5
330
747D
100
AcDbEntity
  8
部品1
 48
50.0
100
AcDbLine
 10
9753.600000000004
 20
5746.907777930225
 30
0.0
 11
9301.600000000002
 21
5746.907777930225
 31
0.0
  0
LINE
  5
24BF6
330
747D
100
AcDbEntity
  8
部品1
 48
50.0
100
AcDbLine
 10
9301.600000000002
 20
5671.907777930211
 30
0.0
 11
9301.600000000002
 21
5746.907777930208
 31
0.0
  0
LINE
  5
24BF7
330
747D
100
AcDbEntity
  8
部品1
 48
50.0
100
AcDbLine
 10
9633.600000000003
 20
5976.907777930224
 30
0.0
 11
9523.600000000001
 21
5976.907777930224
 31
0.0
  0
LINE
  5
24BF8
330
747D
100
AcDbEntity
  8
センター
 48
2.0
100
AcDbLine
 10
9580.600000000009
 20
5869.907777930206
 30
0.0
 11
9680.60000000001
 21
5869.907777930206
 31
0.0
  0
LINE
  5
24BF9
330
747D
100
AcDbEntity
  8
部品1
 48
50.0
100
AcDbLine
 10
9523.600000000001
 20
5866.907777930221
 30
0.0
 11
9523.600000000001
 21
5976.907777930224
 31
0.0
  0
LINE
  5
24BFA
330
747D
100
AcDbEntity
  8
センター
 48
2.0
100
AcDbLine
 10
9630.60000000001
 20
5919.907777930205
 30
0.0
 11
9630.60000000001
 21
5819.907777930206
 31
0.0
  0
CIRCLE
  5
24BFB
330
747D
100
AcDbEntity
  8
部品1
 48
50.0
100
AcDbCircle
 10
9630.60000000001
 20
5869.907777930206
 30
0.0
 40
35.0
  0
LINE
  5
24BFD
102
{ACAD_REACTORS
330
25E0F
102
}
330
747D
100
AcDbEntity
  8
部品1
 48
50.0
100
AcDbLine
 10
9753.600000000004
 20
6756.907777930215
 30
0.0
 11
9633.600000000004
 21
6756.907777930215
 31
0.0
  0
LINE
  5
24BFE
102
{ACAD_REACTORS
330
25E0F
102
}
330
747D
100
AcDbEntity
  8
部品1
 48
50.0
100
AcDbLine
 10
9753.600000000004
 20
6956.907777930215
 30
0.0
 11
9633.600000000004
 21
6956.907777930215
 31
0.0
  0
LINE
  5
24C00
102
{ACAD_REACTORS
330
25DDA
102
}
330
747D
100
AcDbEntity
  8
部品1
 48
50.0
100
AcDbLine
 10
8123.600000000001
 20
7846.907777930207
 30
0.0
 11
8123.600000000001
 21
7966.907777930206
 31
0.0
  0
LINE
  5
24C01
102
{ACAD_REACTORS
330
25DDA
102
}
330
747D
100
AcDbEntity
  8
部品1
 48
50.0
100
AcDbLine
 10
8323.600000000004
 20
7846.907777930207
 30
0.0
 11
8323.600000000002
 21
7966.907777930206
 31
0.0
  0
DIMENSION
  5
24C02
330
747D
100
AcDbEntity
  8
寸法
 48
50.0
100
AcDbDimension
  2
*D38
 10
9630.600000000002
 20
8712.66740447229
 30
0.0
 11
10026.7066017178
 21
8712.66740447229
 31
0.0
 70
   160
 71
     5
 42
123.0
  3
INABA_S40G
100
AcDbAlignedDimension
 13
9753.600000000004
 23
7966.907777930206
 33
0.0
 14
9630.600000000002
 24
7893.907777930206
 34
0.0
100
AcDbRotatedDimension
1001
ACAD
1000
DSTYLE
1002
{
1070
   174
1070
     0
1070
   272
1070
     1
1070
   341
1005
0
1002
}
  0
DIMENSION
  5
24C03
330
747D
100
AcDbEntity
  8
寸法
 48
50.0
100
AcDbDimension
  2
*D39
 10
9803.600000000002
 20
8925.128099989128
 30
0.0
 11
10069.77462120246
 21
8925.128099989128
 31
0.0
 70
   160
  1
a
 71
     5
 42
50.0
  3
INABA_S40G
100
AcDbAlignedDimension
 13
9753.600000000004
 23
7966.907777930206
 33
0.0
 14
9803.600000000002
 24
8712.667404472293
 34
0.0
100
AcDbRotatedDimension
1001
ACAD
1000
DSTYLE
1002
{
1070
   174
1070
     0
1070
   272
1070
     1
1070
   341
1005
0
1002
}
  0
LINE
  5
24C04
330
747D
100
AcDbEntity
  8
センター
 48
2.0
100
AcDbLine
 10
9580.600000000002
 20
7843.907777930207
 30
0.0
 11
9680.600000000003
 21
7843.907777930207
 31
0.0
  0
LINE
  5
24C05
330
747D
100
AcDbEntity
  8
部品1
 48
50.0
100
AcDbLine
 10
9633.600000000003
 20
7736.907777930206
 30
0.0
 11
9523.600000000001
 21
7736.907777930206
 31
0.0
  0
LINE
  5
24C06
330
747D
100
AcDbEntity
  8
部品1
 48
50.0
100
AcDbLine
 10
9523.600000000001
 20
7736.907777930206
 30
0.0
 11
9523.600000000001
 21
7846.907777930207
 31
0.0
  0
LINE
  5
24C07
330
747D
100
AcDbEntity
  8
センター
 48
2.0
100
AcDbLine
 10
9630.600000000002
 20
7893.907777930206
 30
0.0
 11
9630.600000000002
 21
7793.907777930207
 31
0.0
  0
CIRCLE
  5
24C08
330
747D
100
AcDbEntity
  8
部品1
 48
50.0
100
AcDbCircle
 10
9630.600000000002
 20
7843.907777930207
 30
0.0
 40
35.0
  0
MTEXT
  5
25211
102
{ACAD_REACTORS
330
25212
102
}
330
747D
100
AcDbEntity
  8
部品1
 62
     7
 48
50.0
100
AcDbMText
 10
10948.99523070989
 20
8217.880272274156
 30
0.0
 40
120.0
 41
0.0
 71
     6
 72
     1
  1
アンカーボルト
  7
STYLE1
 73
     1
 44
1.0
1001
ACAD
1000
MTEXTBEGIN
1070
    73
1070
     1
1070
    44
1040
1.0
1070
    74
1070
     0
1000
MTEXTEND
  0
LEADER
  5
25212
330
747D
100
AcDbEntity
  8
寸法
 48
50.0
100
AcDbLeader
  3
INABA_S50G
 73
     0
 74
     0
 75
     1
 40
120.0
 41
994.3492424049171
 76
     3
 10
9630.68008575701
 20
7843.921501126414
 30
0.0
 10
9804.645988304974
 20
8132.880272274157
 30
0.0
 10
9929.645988304974
 20
8132.880272274157
 30
0.0
340
25211
1001
ACAD
1000
DSTYLE
1002
{
1070
   341
1005
0
1070
    40
1040
1.0
1070
   343
1005
0
1070
   344
1005
0
1002
}
  0
MTEXT
  5
25213
102
{ACAD_REACTORS
330
25214
102
}
330
747D
100
AcDbEntity
  8
部品1
 62
     7
 48
50.0
100
AcDbMText
 10
10780.46907400128
 20
6716.651411151048
 30
0.0
 40
120.0
 41
0.0
 71
     6
 72
     1
  1
\A1;床下換気口
  7
STYLE1
 73
     1
 44
1.0
1001
ACAD
1000
MTEXTBEGIN
1070
    73
1070
     1
1070
    44
1040
1.0
1070
    74
1070
     0
1000
MTEXTEND
  0
LEADER
  5
25214
330
747D
100
AcDbEntity
  8
寸法
 48
50.0
100
AcDbLeader
  3
INABA_S50G
 73
     0
 74
     0
 75
     1
 40
120.0
 41
720.0000000000001
 76
     3
 10
9753.695499614998
 20
6892.665324718881
 30
0.0
 10
9910.469074001282
 20
6631.651411151048
 30
0.0
 10
10035.46907400128
 20
6631.651411151048
 30
0.0
340
25213
1001
ACAD
1000
DSTYLE
1002
{
1070
   341
1005
0
1070
    40
1040
1.0
1070
   343
1005
0
1070
   344
1005
0
1002
}
  0
TEXT
  5
25215
330
747D
100
AcDbEntity
  8
部品1
 48
50.0
100
AcDbText
 10
10102.43013846117
 20
5515.28674986108
 30
0.0
 40
80.0
  1
(a=45,b=55,c=75)
  7
STYLE1
100
AcDbText
  0
TEXT
  5
25216
330
747D
100
AcDbEntity
  8
部品1
 48
50.0
100
AcDbText
 10
9943.851129706869
 20
5622.131970729835
 30
0.0
 40
80.0
  1
※a,b,cは屋根の出幅です。
  7
STYLE1
100
AcDbText
  0
MTEXT
  5
25217
102
{ACAD_REACTORS
330
25218
102
}
330
747D
100
AcDbEntity
  8
部品1
 62
     7
 48
50.0
100
AcDbMText
 10
10741.63832569547
 20
5801.44265766291
 30
0.0
 40
120.0
 41
0.0
 71
     6
 72
     1
  1
\A1;屋根の外寸
  7
STYLE1
 73
     1
 44
1.0
1001
ACAD
1000
MTEXTBEGIN
1070
    73
1070
     1
1070
    44
1040
1.0
1070
    74
1070
     0
1000
MTEXTEND
  0
LEADER
  5
25218
330
747D
100
AcDbEntity
  8
寸法
 48
50.0
100
AcDbLeader
  3
INABA_S50G
 73
     0
 74
     0
 75
     1
 40
120.0
 41
672.0
 76
     3
 10
9803.698313503435
 20
5975.332001126486
 30
0.0
 10
9919.638325695476
 20
5716.44265766291
 30
0.0
 10
10044.63832569547
 20
5716.44265766291
 30
0.0
340
25217
1001
ACAD
1000
DSTYLE
1002
{
1070
   341
1005
0
1070
    40
1040
1.0
1070
   343
1005
0
1070
   344
1005
0
1002
}
  0
DIMENSION
  5
25649
330
747D
100
AcDbEntity
  8
寸法
 48
50.0
100
AcDbDimension
  2
*D40
 10
9523.600000000001
 20
7509.199110429834
 30
0.0
 11
9253.540944881892
 21
7509.199110429834
 31
0.0
 70
   160
 71
     5
 42
110.0
  3
INABA_S40G
100
AcDbAlignedDimension
 13
9633.600000000003
 23
7736.907777930206
 33
0.0
 14
9523.600000000001
 24
7736.907777930206
 34
0.0
100
AcDbRotatedDimension
1001
ACAD
1000
DSTYLE
1002
{
1070
   174
1070
     0
1070
   272
1070
     1
1070
   341
1005
0
1002
}
  0
DIMENSION
  5
2564A
330
747D
100
AcDbEntity
  8
寸法
 48
50.0
100
AcDbDimension
  2
*D41
 10
9633.600000000003
 20
7509.199110429834
 30
0.0
 11
10023.65905511811
 21
7509.199110429834
 31
0.0
 70
   160
 71
     5
 42
120.0
  3
INABA_S40G
100
AcDbAlignedDimension
 13
9753.600000000004
 23
7736.907777930207
 33
0.0
 14
9633.600000000003
 24
7736.907777930206
 34
0.0
100
AcDbRotatedDimension
1001
ACAD
1000
DSTYLE
1002
{
1070
   174
1070
     0
1070
   272
1070
     1
1070
   341
1005
0
1002
}
  0
LINE
  5
25AC0
330
747D
100
AcDbEntity
  8
寸法
 48
50.0
100
AcDbLine
 10
7440.341458265277
 20
4770.961862207768
 30
0.0
 11
10191.15778665414
 21
4770.961862207768
 31
0.0
210
0.0
220
0.0
230
-1.0
1001
ACAD
1000
DSTYLE
1002
{
1070
   341
1005
0
1070
    40
1040
1.0
1070
   343
1005
0
1070
   344
1005
0
1002
}
  0
LINE
  5
25AC1
330
747D
100
AcDbEntity
  8
寸法
 48
50.0
100
AcDbLine
 10
7718.103838224871
 20
5671.907777930242
 30
0.0
 11
7440.341458265277
 21
4770.961862207768
 31
0.0
210
0.0
220
0.0
230
-1.0
1001
ACAD
1000
DSTYLE
1002
{
1070
   341
1005
0
1070
    40
1040
1.0
1070
   343
1005
0
1070
   344
1005
0
1002
}
  0
DIMENSION
  5
25AC2
330
747D
100
AcDbEntity
  8
寸法
 48
50.0
100
AcDbDimension
  2
*D42
 10
7042.197085004765
 20
5746.907777930225
 30
0.0
 11
7042.197085004764
 21
5476.848722812114
 31
0.0
 70
   160
 71
     5
 42
119.9999999999891
  3
INABA_S40G
100
AcDbAlignedDimension
 13
6923.600000000002
 23
5866.907777930213
 33
0.0
 14
6923.600000000002
 24
5746.907777930225
 34
0.0
 50
90.0
100
AcDbRotatedDimension
1001
ACAD
1000
DSTYLE
1002
{
1070
   174
1070
     0
1070
   272
1070
     1
1070
   341
1005
0
1002
}
  0
DIMENSION
  5
25AC3
330
747D
100
AcDbEntity
  8
寸法
 48
50.0
100
AcDbDimension
  2
*D43
 10
7042.197085004765
 20
5976.907777930228
 30
0.0
 11
7042.197085004764
 21
6212.955022024718
 31
0.0
 70
   160
 71
     5
 42
110.0000000000182
  3
INABA_S40G
100
AcDbAlignedDimension
 13
6923.600000000002
 23
5866.90777793021
 33
0.0
 14
6923.600000000002
 24
5976.907777930228
 34
0.0
 50
90.0
100
AcDbRotatedDimension
1001
ACAD
1000
DSTYLE
1002
{
1070
   174
1070
     0
1070
   272
1070
     1
1070
   341
1005
0
1002
}
  0
DIMENSION
  5
25AC4
330
747D
100
AcDbEntity
  8
寸法
 48
50.0
100
AcDbDimension
  2
*D44
 10
7146.600000000001
 20
5119.687091109516
 30
0.0
 11
8224.100000000003
 21
5219.698902133138
 31
0.0
 70
    32
  1
扉の幅 <>
 71
     5
 42
2155.000000000001
  3
INABA_S40G
100
AcDbAlignedDimension
 13
9301.600000000002
 23
5671.907777930226
 33
0.0
 14
7146.600000000001
 24
5671.907777930258
 34
0.0
100
AcDbRotatedDimension
1001
ACAD
1000
DSTYLE
1002
{
1070
   341
1005
0
1002
}
  0
TEXT
  5
25AC5
330
747D
100
AcDbEntity
  8
寸法
 62
     7
100
AcDbText
 10
7566.813330072308
 20
4802.172996572506
 30
0.0
 40
120.0
  1
扉位置 (2155x75)
  7
STYLE1
100
AcDbText
  0
SOLID
  5
25AC6
330
747D
100
AcDbEntity
  8
寸法
 48
50.0
100
AcDbTrace
 10
-7701.194632554884
 20
5546.316749025355
 30
0.0
 11
-7718.103838224871
 21
5671.907777930242
 31
0.0
 12
-7661.376418081406
 22
5558.589519994264
 32
0.0
 13
-7661.376418081406
 23
5558.589519994264
 33
0.0
210
0.0
220
0.0
230
-1.0
1001
ACAD
1000
DSTYLE
1002
{
1070
   341
1005
0
1070
    40
1040
1.0
1070
   343
1005
0
1070
   344
1005
0
1002
}
  0
TEXT
  5
25AC7
330
747D
100
AcDbEntity
  8
寸法
 62
     7
100
AcDbText
 10
7566.813330072308
 20
4630.569233689181
 30
0.0
 40
120.0
  1
扉の位置に合わせた基礎形状として下さい。
  7
STYLE1
100
AcDbText
  0
DIMENSION
  5
25AC8
330
747D
100
AcDbEntity
  8
寸法
 48
50.0
100
AcDbDimension
  2
*D45
 10
7415.743526793876
 20
5866.907777930211
 30
0.0
 11
7415.743526793875
 21
5433.212836726359
 31
0.0
 70
   160
 71
     5
 42
194.9999999999581
  3
INABA_S40G
100
AcDbAlignedDimension
 13
7146.599999999965
 23
5671.907777930252
 33
0.0
 14
7146.599999999965
 24
5866.907777930211
 34
0.0
 50
270.0
100
AcDbRotatedDimension
1001
ACAD
1000
DSTYLE
1002
{
1070
   341
1005
0
1002
}
  0
DIMENSION
  5
25B25
330
747D
100
AcDbEntity
  8
寸法
 48
50.0
100
AcDbDimension
  2
*D46
 10
6321.457130887758
 20
5746.907777930222
 30
0.0
 11
6321.457130887758
 21
5138.422496556014
 31
0.0
 70
   160
  1
扉の出<>
 71
     5
 42
74.99999999996998
  3
INABA_S40G
100
AcDbAlignedDimension
 13
7146.599999999965
 23
5671.907777930252
 33
0.0
 14
6693.6
 24
5746.907777930222
 34
0.0
 50
90.0
100
AcDbRotatedDimension
1001
ACAD
1000
DSTYLE
1002
{
1070
   174
1070
     0
1070
   272
1070
     1
1070
   341
1005
0
1002
}
  0
DIMENSION
  5
25B26
330
747D
100
AcDbEntity
  8
寸法
 48
50.0
100
AcDbDimension
  2
*D47
 10
6693.6
 20
5119.687091109516
 30
0.0
 11
6916.400741355808
 21
5119.687091109516
 31
0.0
 70
   160
 71
     5
 42
453.0
  3
INABA_S40G
100
AcDbAlignedDimension
 13
7146.600000000001
 23
5671.907777930211
 33
0.0
 14
6693.6
 24
5746.907777930222
 34
0.0
100
AcDbRotatedDimension
1001
ACAD
1000
DSTYLE
1002
{
1070
   174
1070
     0
1070
   272
1070
     1
1070
   341
1005
0
1002
}
  0
LINE
  5
25DAE
330
747D
100
AcDbEntity
  8
想像線
 48
10.0
100
AcDbLine
 10
9007.790201497062
 20
8021.907777930211
 30
0.0
 11
9803.600000000004
 21
8021.907777930211
 31
0.0
  0
LINE
  5
25DAF
330
747D
100
AcDbEntity
  8
想像線
 48
10.0
100
AcDbLine
 10
9007.790201497066
 20
5671.907777930202
 30
0.0
 11
9803.600000000008
 21
5671.907777930202
 31
0.0
  0
LINE
  5
25DC4
102
{ACAD_REACTORS
330
25E0F
102
}
330
747D
100
AcDbEntity
  8
部品1
 48
50.0
100
AcDbLine
 10
9633.600000000003
 20
5976.907777930228
 30
0.0
 11
9633.600000000003
 21
7736.907777930206
 31
0.0
  0
LINE
  5
25DC5
102
{ACAD_REACTORS
330
25DDA
102
}
330
747D
100
AcDbEntity
  8
部品1
 48
50.0
100
AcDbLine
 10
9523.600000000001
 20
7846.907777930207
 30
0.0
 11
6923.600000000002
 21
7846.907777930207
 31
0.0
  0
LINE
  5
25DC6
102
{ACAD_REACTORS
330
25DF0
102
}
330
747D
100
AcDbEntity
  8
部品1
 48
50.0
100
AcDbLine
 10
6813.6
 20
5976.907777930206
 30
0.0
 11
6813.6
 21
7736.907777930203
 31
0.0
  0
LINE
  5
25DC7
102
{ACAD_REACTORS
330
25E01
102
}
330
747D
100
AcDbEntity
  8
部品1
 48
50.0
100
AcDbLine
 10
9523.600000000001
 20
5866.907777930221
 30
0.0
 11
6923.600000000002
 21
5866.90777793021
 31
0.0
  0
HATCH
  5
25DDA
330
747D
100
AcDbEntity
  8
細線
 48
50.0
100
AcDbHatch
 10
0.0
 20
0.0
 30
0.0
210
0.0
220
0.0
230
1.0
  2
LINE
 70
     0
 71
     1
 91
        1
 92
        7
 72
     0
 73
     1
 93
        4
 10
8323.600000000002
 20
7966.907777930206
 10
8123.600000000001
 20
7966.907777930206
 10
8123.600000000001
 20
7846.907777930207
 10
8323.600000000002
 20
7846.907777930207
 97
        4
330
24B9D
330
24C00
330
25DC5
330
24C01
 75
     0
 76
     1
 52
45.0
 41
10.0
 77
     0
 78
     1
 53
45.0
 43
0.0
 44
0.0
 45
-22.45064030267288
 46
22.45064030267288
 79
     0
 47
2.942561162130442
 98
        1
 10
8287.740666431389
 20
7909.533913295444
  0
HATCH
  5
25DF0
330
747D
100
AcDbEntity
  8
細線
 48
50.0
100
AcDbHatch
 10
0.0
 20
0.0
 30
0.0
210
0.0
220
0.0
230
1.0
  2
LINE
 70
     0
 71
     1
 91
        1
 92
        7
 72
     0
 73
     1
 93
        4
 10
6813.6
 20
6956.907777930215
 10
6693.6
 20
6956.907777930215
 10
6693.6
 20
6756.907777930215
 10
6813.600000000002
 20
6756.907777930216
 97
        4
330
24BB6
330
24BA4
330
24BB5
330
25DC6
 75
     0
 76
     1
 52
45.0
 41
10.0
 77
     0
 78
     1
 53
45.0
 43
0.0
 44
0.0
 45
-22.45064030267288
 46
22.45064030267288
 79
     0
 47
2.318724716508164
 98
        1
 10
6736.822040275889
 20
6866.561731140432
  0
HATCH
  5
25E01
330
747D
100
AcDbEntity
  8
細線
 48
50.0
100
AcDbHatch
 10
0.0
 20
0.0
 30
0.0
210
0.0
220
0.0
230
1.0
  2
LINE
 70
     0
 71
     1
 91
        1
 92
        7
 72
     0
 73
     1
 93
        4
 10
8323.60000000002
 20
5866.907777930215
 10
8123.600000000021
 20
5866.907777930214
 10
8123.600000000019
 20
5671.907777930202
 10
8323.600000000018
 20
5671.907777930203
 97
        4
330
25DC7
330
24BD5
330
24B91
330
24BD6
 75
     0
 76
     1
 52
45.0
 41
10.0
 77
     0
 78
     1
 53
45.0
 43
0.0
 44
0.0
 45
-22.45064030267288
 46
22.45064030267288
 79
     0
 47
2.301740170494985
 98
        1
 10
8181.975573914321
 20
5786.067194394429
  0
HATCH
  5
25E0F
330
747D
100
AcDbEntity
  8
細線
 48
50.0
100
AcDbHatch
 10
0.0
 20
0.0
 30
0.0
210
0.0
220
0.0
230
1.0
  2
LINE
 70
     0
 71
     1
 91
        1
 92
        7
 72
     0
 73
     1
 93
        4
 10
9753.600000000004
 20
6956.907777930215
 10
9633.600000000004
 20
6956.907777930215
 10
9633.600000000004
 20
6756.907777930215
 10
9753.600000000004
 20
6756.907777930215
 97
        4
330
24BFE
330
25DC4
330
24BFD
330
24BCA
 75
     0
 76
     1
 52
45.0
 41
10.0
 77
     0
 78
     1
 53
45.0
 43
0.0
 44
0.0
 45
-22.45064030267288
 46
22.45064030267288
 79
     0
 47
2.284880030481142
 98
        1
 10
9676.769673053648
 20
6826.508485086968
  0
LINE
  5
25FDD
330
747D
100
AcDbEntity
  8
部品1
100
AcDbLine
 10
10710.1271882479
 20
3445.789068813483
 30
0.0
 11
4639.142002861649
 21
3445.789068813482
 31
0.0
  0
LINE
  5
25FDE
330
747D
100
AcDbEntity
  8
部品1
100
AcDbLine
 10
10710.1271882479
 20
3205.78906881348
 30
0.0
 11
4639.142002861652
 21
3205.789068813482
 31
0.0
  0
LINE
  5
25FDF
330
747D
100
AcDbEntity
  8
部品1
100
AcDbLine
 10
4639.142002861655
 20
481.482099228836
 30
0.0
 11
10710.1271882479
 21
481.482099228836
 31
0.0
  0
LEADER
  5
25FE0
330
747D
100
AcDbEntity
  8
寸法
 48
50.0
100
AcDbLeader
  3
INABA_S50G
 73
     0
 74
     0
 75
     1
 40
102.2727272727273
 41
680.0000000000001
 76
     3
 10
7647.249754848108
 20
2523.692730145781
 30
0.0
 10
7681.603725961466
 20
2934.145541252322
 30
0.0
 10
7806.603725961466
 20
2934.145541252322
 30
0.0
340
25FE1
1001
ACAD
1000
DSTYLE
1002
{
1070
   341
1005
0
1070
    40
1040
1.0
1070
   343
1005
0
1070
   344
1005
0
1002
}
  0
MTEXT
  5
25FE1
102
{ACAD_REACTORS
330
25FE0
102
}
330
747D
100
AcDbEntity
  8
部品1
 62
     7
 48
50.0
100
AcDbMText
 10
7831.603725961466
 20
3010.281904888686
 30
0.0
 40
80.0
 41
0.8
 71
     4
 72
     1
  1
\A1;ナット(市販品)
  7
STYLE2
 73
     1
 44
1.0
1001
ACAD
1000
MTEXTBEGIN
1070
    73
1070
     1
1070
    44
1040
1.0
1070
    74
1070
     0
1000
MTEXTEND
  0
LEADER
  5
25FE2
330
747D
100
AcDbEntity
  8
寸法
 48
50.0
100
AcDbLeader
  3
INABA_S50G
 73
     0
 74
     0
 75
     1
 40
102.2727272727273
 41
906.8181818181818
 76
     3
 10
7671.249754848108
 20
2393.940737480918
 30
0.0
 10
7713.121345216947
 20
2749.176458487534
 30
0.0
 10
7838.121345216947
 20
2749.176458487534
 30
0.0
340
25FE3
1001
ACAD
1000
DSTYLE
1002
{
1070
   341
1005
0
1070
    40
1040
1.0
1070
   343
1005
0
1070
   344
1005
0
1002
}
  0
MTEXT
  5
25FE3
102
{ACAD_REACTORS
330
25FE2
102
}
330
747D
100
AcDbEntity
  8
部品1
 62
     7
 48
50.0
100
AcDbMText
 10
7863.121345216947
 20
2825.312822123899
 30
0.0
 40
80.0
 41
0.8
 71
     4
 72
     1
  1
\A1;ワッシャー(市販品)
  7
STYLE2
 73
     1
 44
1.0
1001
ACAD
1000
MTEXTBEGIN
1070
    73
1070
     1
1070
    44
1040
1.0
1070
    74
1070
     0
1000
MTEXTEND
  0
LWPOLYLINE
  5
25FE4
330
747D
100
AcDbEntity
  8
部品1
 48
50.0
100
AcDbPolyline
 90
        2
 70
     0
 43
8.0
 10
7823.849754848108
 20
1884.817449036639
 10
8117.552218247492
 20
1884.817449036639
  0
TEXT
  5
25FE5
330
747D
100
AcDbEntity
  8
部品1
 48
50.0
100
AcDbText
 10
7828.203339132537
 20
2480.696129798838
 30
0.0
 40
80.0
  1
基礎ボルト(市販品)
  7
STYLE2
100
AcDbText
  0
DIMENSION
  5
25FE6
330
747D
100
AcDbEntity
  8
寸法
 48
50.0
100
AcDbDimension
  2
*D48
 10
8325.718354616951
 20
1800.817449036637
 30
0.0
 11
8225.718354616951
 21
1962.817449036639
 31
0.0
 70
    32
  1
180
 71
     5
 42
324.0000000000009
  3
INABA_S40G
100
AcDbAlignedDimension
 13
7823.849754848108
 23
2124.817449036638
 33
0.0
 14
7823.849754848108
 24
1800.817449036637
 34
0.0
 50
90.0
100
AcDbRotatedDimension
1001
ACAD
1000
DSTYLE
1002
{
1070
   174
1070
     0
1070
   272
1070
     1
1070
   279
1070
     1
1070
   288
1070
     0
1070
   341
1005
0
1002
}
  0
DIMENSION
  5
25FE7
330
747D
100
AcDbEntity
  8
寸法
 48
50.0
100
AcDbDimension
  2
*D49
 10
8325.718354616951
 20
2124.817449036638
 30
0.0
 11
8601.773020735979
 21
2099.693491432427
 31
0.0
 70
   160
  1
20～25
 71
     5
 42
52.76000000000113
  3
INABA_S40G
100
AcDbAlignedDimension
 13
7636.649754848109
 23
2177.57744903664
 33
0.0
 14
7823.849754848108
 24
2124.817449036638
 34
0.0
 50
90.0
100
AcDbRotatedDimension
1001
ACAD
1000
DSTYLE
1002
{
1070
   174
1070
     0
1070
   272
1070
     1
1070
   279
1070
     1
1070
   288
1070
     0
1070
   341
1005
0
1002
}
  0
MTEXT
  5
25FE8
102
{ACAD_REACTORS
330
25FE9
102
}
330
747D
100
AcDbEntity
  8
部品1
 62
     7
 48
50.0
100
AcDbMText
 10
7832.794217267426
 20
2389.200775189868
 30
0.0
 40
80.0
 41
0.8
 71
     4
 72
     1
  1
M10X160
  7
STYLE2
 73
     1
 44
1.0
1001
ACAD
1000
MTEXTBEGIN
1070
    73
1070
     1
1070
    44
1040
1.0
1070
    74
1070
     0
1000
MTEXTEND
  0
LEADER
  5
25FE9
330
747D
100
AcDbEntity
  8
寸法
 48
50.0
100
AcDbLeader
  3
INABA_S50G
 73
     0
 74
     0
 75
     1
 40
80.0
 41
435.0
 76
     3
 10
7640.249754848108
 20
2173.977449036639
 30
0.0
 10
7682.794217267427
 20
2324.200775189869
 30
0.0
 10
7807.794217267427
 20
2324.200775189869
 30
0.0
340
25FE8
1001
ACAD
1000
DSTYLE
1002
{
1070
   341
1005
0
1070
    40
1040
1.0
1070
   343
1005
0
1070
   344
1005
0
1002
}
  0
LINE
  5
25FEA
330
747D
100
AcDbEntity
  8
部品1
100
AcDbLine
 10
4639.142002861651
 20
3445.789068813483
 30
0.0
 11
4639.142002861652
 21
481.482099228836
 31
0.0
  0
LEADER
  5
25FEB
330
747D
100
AcDbEntity
  8
寸法
 48
50.0
100
AcDbLeader
  3
INABA_S50G
 73
     0
 75
     1
 40
113.1818181818182
 41
608.6363636363635
 76
     3
 10
7599.986504986159
 20
2074.333122394917
 30
0.0
 10
7466.182676294811
 20
2925.712204751395
 30
0.0
 10
7341.182676294811
 20
2925.712204751395
 30
0.0
340
25FEC
1001
ACAD
1000
DSTYLE
1002
{
1070
   341
1005
0
1070
    40
1040
1.0
1070
   343
1005
0
1070
   344
1005
0
1002
}
  0
MTEXT
  5
25FEC
102
{ACAD_REACTORS
330
25FEB
102
}
330
747D
100
AcDbEntity
  8
寸法
 62
     7
 48
50.0
100
AcDbMText
 10
7316.182676294811
 20
3007.303113842304
 30
0.0
 40
80.0
 41
0.8
 71
     6
 72
     1
  1
\A1;φ70スリーブ
  7
STYLE2
 73
     1
 44
1.0
1001
ACAD
1000
MTEXTBEGIN
1070
    73
1070
     1
1070
    44
1040
1.0
1070
    74
1070
     0
1000
MTEXTEND
  0
LWPOLYLINE
  5
25FED
330
747D
100
AcDbEntity
  8
部品1
 48
50.0
100
AcDbPolyline
 90
        2
 70
     0
 43
8.0
 10
5295.670539837957
 20
1884.817449036639
 10
5709.810441670914
 20
1884.817449036639
  0
TEXT
  5
25FEE
330
747D
100
AcDbEntity
  8
部品1
 48
50.0
100
AcDbText
 10
5295.670539837957
 20
1896.056441319893
 30
0.0
 40
80.0
  1
▽G.L
  7
STYLE2
100
AcDbText
  0
DIMENSION
  5
25FEF
330
747D
100
AcDbEntity
  8
寸法
 48
50.0
100
AcDbDimension
  2
*D50
 10
5439.390127938454
 20
1340.817449036638
 30
0.0
 11
5439.390127938454
 21
1460.817449036638
 31
0.0
 70
   160
  1
150
 71
     5
 42
240.0
  3
INABA_S40G
100
AcDbAlignedDimension
 13
5581.810441670914
 23
1580.817449036638
 33
0.0
 14
5501.810441670918
 24
1340.817449036638
 34
0.0
 50
90.0
100
AcDbRotatedDimension
1001
ACAD
1000
DSTYLE
1002
{
1070
   174
1070
     0
1070
   272
1070
     1
1070
   279
1070
     1
1070
   288
1070
     0
1070
   341
1005
0
1002
}
  0
LEADER
  5
25FF0
330
747D
100
AcDbEntity
  8
寸法
 48
50.0
100
AcDbLeader
  3
INABA_S50G
 71
     0
 73
     0
 75
     1
 40
100.0
 41
225.0
 76
     3
 10
5677.713394023057
 20
1460.817449036638
 30
0.0
 10
5555.875415475719
 20
1197.294755418202
 30
0.0
 10
5430.875415475719
 20
1197.294755418202
 30
0.0
1001
ACAD
1000
DSTYLE
1002
{
1070
    40
1040
1.0
1070
   272
1070
     1
1070
   279
1070
     1
1070
   341
1005
0
1002
}
  0
LEADER
  5
25FF1
330
747D
100
AcDbEntity
  8
寸法
 48
50.0
100
AcDbLeader
  3
INABA_S50G
 71
     0
 73
     0
 75
     1
 40
100.0
 41
222.7272727272727
 76
     3
 10
5805.810441670914
 20
1460.817449036638
 30
0.0
 10
5583.998143033155
 20
1016.978602878758
 30
0.0
 10
5458.998143033155
 20
1016.978602878758
 30
0.0
1001
ACAD
1000
DSTYLE
1002
{
1070
    40
1040
1.0
1070
   272
1070
     1
1070
   279
1070
     1
1070
   341
1005
0
1002
}
  0
MTEXT
  5
25FF2
102
{ACAD_REACTORS
330
25FF3
102
}
330
747D
100
AcDbEntity
  8
寸法
 62
     7
 48
50.0
100
AcDbMText
 10
5620.560387448109
 20
1726.118051854095
 30
0.0
 40
80.0
 41
0.8
 71
     6
 72
     1
  1
\A1;D10@300
  7
STYLE2
 73
     1
 44
1.0
1001
ACAD
1000
MTEXTBEGIN
1070
    73
1070
     1
1070
    44
1040
1.0
1070
    74
1070
     0
1000
MTEXTEND
  0
LEADER
  5
25FF3
330
747D
100
AcDbEntity
  8
寸法
 48
50.0
100
AcDbLeader
  3
INABA_S50G
 71
     0
 73
     0
 75
     1
 40
100.0
 41
540.3409090909091
 76
     3
 10
5813.810441670914
 20
1882.944663733761
 30
0.0
 10
5755.828205142216
 20
1661.474335192956
 30
0.0
 10
5630.828205142216
 20
1661.474335192956
 30
0.0
213
-9.732182305893367
223
-4.643716661138569
233
0.0
1001
ACAD
1000
DSTYLE
1002
{
1070
    40
1040
1.0
1070
   272
1070
     1
1070
   279
1070
     1
1070
   341
1005
0
1002
}
  0
LEADER
  5
25FF4
330
747D
100
AcDbEntity
  8
寸法
 48
50.0
100
AcDbLeader
  3
INABA_S50G
 71
     0
 73
     0
 75
     1
 40
130.1136363636363
 41
651.1363636363636
 76
     3
 10
5789.810441670914
 20
2124.817449036638
 30
0.0
 10
5677.385861506897
 20
2265.288214493226
 30
0.0
 10
5552.385861506897
 20
2265.288214493226
 30
0.0
1001
ACAD
1000
DSTYLE
1002
{
1070
    40
1040
1.0
1070
   272
1070
     1
1070
   279
1070
     1
1070
   341
1005
0
1002
}
  0
MTEXT
  5
25FF5
102
{ACAD_REACTORS
330
25FF4
102
}
330
747D
100
AcDbEntity
  8
寸法
 62
     7
 48
50.0
100
AcDbMText
 10
5489.711962187641
 20
2337.333669038681
 30
0.0
 40
80.0
 41
0.8
 71
     6
 72
     1
  1
\A1;金コテ押エ
  7
STYLE2
 73
     1
 44
1.0
1001
ACAD
1000
MTEXTBEGIN
1070
    73
1070
     1
1070
    44
1040
1.0
1070
    74
1070
     0
1000
MTEXTEND
  0
DIMENSION
  5
25FF6
330
747D
100
AcDbEntity
  8
寸法
 48
50.0
100
AcDbDimension
  2
*D51
 10
4974.773203109172
 20
1340.817449036638
 30
0.0
 11
4974.773203109173
 21
1712.357598692639
 31
0.0
 70
   160
  1
540
 71
     5
 42
784.0000000000002
  3
INABA_S40G
100
AcDbAlignedDimension
 13
5709.810441670914
 23
2124.817449036638
 33
0.0
 14
5501.810441670918
 24
1340.817449036638
 34
0.0
 50
90.0
100
AcDbRotatedDimension
1001
ACAD
1000
DSTYLE
1002
{
1070
   174
1070
     0
1070
   272
1070
     1
1070
   279
1070
     1
1070
   288
1070
     0
1070
   341
1005
0
1002
}
  0
MTEXT
  5
25FF7
102
{ACAD_REACTORS
330
25FF1
102
}
330
747D
100
AcDbEntity
  8
寸法
 62
     7
 48
50.0
100
AcDbMText
 10
5438.998143033154
 20
1076.978602878758
 30
0.0
 40
80.0
 41
0.8
 71
     6
 72
     1
  1
D13
  7
STYLE2
 73
     1
 44
1.0
1001
ACAD
1000
MTEXTBEGIN
1070
    73
1070
     1
1070
    44
1040
1.0
1070
    74
1070
     0
1000
MTEXTEND
  0
MTEXT
  5
25FF8
102
{ACAD_REACTORS
330
25FF0
102
}
330
747D
100
AcDbEntity
  8
寸法
 62
     7
 48
50.0
100
AcDbMText
 10
5410.87541547572
 20
1257.294755418202
 30
0.0
 40
80.0
 41
0.8
 71
     6
 72
     1
  1
D10
  7
STYLE2
 73
     1
 44
1.0
1001
ACAD
1000
MTEXTBEGIN
1070
    73
1070
     1
1070
    44
1040
1.0
1070
    74
1070
     0
1000
MTEXTEND
  0
DIMENSION
  5
25FF9
330
747D
100
AcDbEntity
  8
寸法
 48
50.0
100
AcDbDimension
  2
*D52
 10
6029.810441670914
 20
802.3878110314781
 30
0.0
 11
5785.71368299269
 21
802.3878110314781
 31
0.0
 70
   160
  1
300
 71
     5
 42
448.0
  3
INABA_S40G
100
AcDbAlignedDimension
 13
5581.810441670914
 23
1212.817449036638
 33
0.0
 14
6029.810441670914
 24
1212.817449036638
 34
0.0
100
AcDbRotatedDimension
1001
ACAD
1000
DSTYLE
1002
{
1070
   174
1070
     0
1070
   272
1070
     1
1070
   279
1070
     1
1070
   288
1070
     0
1070
   341
1005
0
1002
}
  0
MTEXT
  5
25FFA
102
{ACAD_REACTORS
330
25FFB
102
}
330
747D
100
AcDbEntity
  8
寸法
 62
     7
 48
50.0
100
AcDbMText
 10
7342.825682503169
 20
2646.61884193479
 30
0.0
 40
80.0
 41
0.8
 71
     6
 72
     1
  1
アンカープレート {\fArial|b0|i0|c0|p32;U}
  7
STYLE2
 73
     1
 44
1.0
1001
ACAD
1000
MTEXTBEGIN
1070
    73
1070
     1
1070
    44
1040
1.0
1070
    74
1070
     0
1000
MTEXTEND
  0
LEADER
  5
25FFB
330
747D
100
AcDbEntity
  8
寸法
 48
50.0
100
AcDbLeader
  3
INABA_S50G
 73
     0
 75
     1
 40
106.3636363636363
 41
903.5235024184547
 76
     3
 10
7541.249754848108
 20
2194.37744903664
 30
0.0
 10
7492.82568250317
 20
2568.437023752972
 30
0.0
 10
7367.82568250317
 20
2568.437023752972
 30
0.0
340
25FFA
1001
ACAD
1000
DSTYLE
1002
{
1070
   341
1005
0
1070
    40
1040
1.0
1070
   343
1005
0
1070
   344
1005
0
1002
}
  0
LINE
  5
25FFC
330
747D
100
AcDbEntity
  8
細線
 48
50.0
100
AcDbLine
 10
5829.810441670915
 20
1963.190341704468
 30
0.0
 11
5901.810441670915
 21
2035.190341704469
 31
0.0
  0
ARC
  5
25FFD
330
747D
100
AcDbEntity
  8
部品1
 48
50.0
100
AcDbCircle
 10
5805.810441670915
 20
1985.071878430884
 30
0.0
 40
24.0
100
AcDbArc
 50
0.0
 51
180.0
  0
CIRCLE
  5
25FFE
330
747D
100
AcDbEntity
  8
部品1
 48
50.0
100
AcDbCircle
 10
5805.810441670915
 20
1985.071878430884
 30
0.0
 40
8.0
  0
LINE
  5
25FFF
330
747D
100
AcDbEntity
  8
部品1
 48
50.0
100
AcDbLine
 10
5709.810441670915
 20
1580.817449036638
 30
0.0
 11
5709.810441670915
 21
2124.817449036638
 31
0.0
  0
LINE
  5
26000
330
747D
100
AcDbEntity
  8
部品1
 48
50.0
100
AcDbLine
 10
5901.810441670915
 20
2124.817449036638
 30
0.0
 11
5901.810441670915
 21
1580.817449036638
 31
0.0
  0
MTEXT
  5
26001
102
{ACAD_REACTORS
330
26006
102
}
330
747D
100
AcDbEntity
  8
寸法
 62
     7
 48
50.0
100
AcDbMText
 10
5984.696378698309
 20
1986.085010335566
 30
0.0
 40
80.0
 41
0.8
 71
     4
 72
     1
  1
D13
  7
STYLE2
 73
     1
 44
1.0
1001
ACAD
1000
MTEXTBEGIN
1070
    73
1070
     1
1070
    44
1040
1.0
1070
    74
1070
     0
1000
MTEXTEND
  0
LEADER
  5
26002
330
747D
100
AcDbEntity
  8
寸法
 48
50.0
100
AcDbLeader
  3
INABA_S50G
 71
     0
 73
     0
 74
     0
 75
     1
 40
100.0
 41
225.0
 76
     3
 10
5933.713394023057
 20
1460.817449036638
 30
0.0
 10
5988.138101477598
 20
1365.420380093665
 30
0.0
 10
6113.138101477598
 20
1365.420380093665
 30
0.0
1001
ACAD
1000
DSTYLE
1002
{
1070
    40
1040
1.0
1070
   272
1070
     1
1070
   279
1070
     1
1070
   341
1005
0
1002
}
  0
LEADER
  5
26003
330
747D
100
AcDbEntity
  8
寸法
 48
50.0
100
AcDbLeader
  3
INABA_S50G
 71
     0
 73
     0
 74
     0
 75
     1
 40
100.0
 41
540.3409090909091
 76
     3
 10
5879.755610684089
 20
1444.076918623113
 30
0.0
 10
5998.548897532165
 20
1102.446100628215
 30
0.0
 10
6123.548897532165
 20
1102.446100628215
 30
0.0
213
0.0
223
-1.022262676269383
233
0.0
1001
ACAD
1000
DSTYLE
1002
{
1070
    40
1040
1.0
1070
   272
1070
     1
1070
   279
1070
     1
1070
   341
1005
0
1002
}
  0
MTEXT
  5
26004
102
{ACAD_REACTORS
330
26002
102
}
330
747D
100
AcDbEntity
  8
寸法
 62
     7
 48
50.0
100
AcDbMText
 10
6133.138101477599
 20
1425.420380093665
 30
0.0
 40
80.0
 41
0.8
 71
     4
 72
     1
  1
D10
  7
STYLE2
 73
     1
 44
1.0
1001
ACAD
1000
MTEXTBEGIN
1070
    73
1070
     1
1070
    44
1040
1.0
1070
    74
1070
     0
1000
MTEXTEND
  0
LWPOLYLINE
  5
26005
330
747D
100
AcDbEntity
  8
部品1
 48
50.0
100
AcDbPolyline
 90
        2
 70
     0
 43
8.0
 10
5901.810441670914
 20
1884.817449036639
 10
6315.950343503871
 20
1884.817449036639
  0
LEADER
  5
26006
330
747D
100
AcDbEntity
  8
寸法
 48
50.0
100
AcDbLeader
  3
INABA_S50G
 71
     0
 73
     0
 74
     0
 75
     1
 40
100.0
 41
222.7272727272727
 76
     3
 10
5805.810441670914
 20
1985.071878430884
 30
0.0
 10
5839.696378698309
 20
1926.085010335566
 30
0.0
 10
5964.696378698309
 20
1926.085010335566
 30
0.0
1001
ACAD
1000
DSTYLE
1002
{
1070
    40
1040
1.0
1070
   272
1070
     1
1070
   279
1070
     1
1070
   341
1005
0
1002
}
  0
LINE
  5
26007
330
747D
100
AcDbEntity
  8
細線
 48
50.0
100
AcDbLine
 10
5581.810441670907
 20
1499.664194798809
 30
0.0
 11
5662.963695908743
 21
1580.817449036638
 31
0.0
  0
LINE
  5
26008
330
747D
100
AcDbEntity
  8
細線
 48
50.0
100
AcDbLine
 10
5789.676289148318
 20
1518.94466373376
 30
0.0
 11
5813.81044167092
 21
1543.078816256359
 31
0.0
  0
LINE
  5
26009
330
747D
100
AcDbEntity
  8
細線
 48
50.0
100
AcDbLine
 10
5696.608306087988
 20
1452.817449036638
 30
0.0
 11
5813.810441670915
 21
1570.019584619564
 31
0.0
  0
LINE
  5
2600A
330
747D
100
AcDbEntity
  8
部品1
 48
50.0
100
AcDbLine
 10
5581.810441670914
 20
1340.817449036638
 30
0.0
 11
5581.810441670914
 21
1580.817449036638
 31
0.0
  0
LINE
  5
2600B
330
747D
100
AcDbEntity
  8
細線
 48
50.0
100
AcDbLine
 10
5939.075221356858
 20
1452.817449036638
 30
0.0
 11
6029.810441670915
 21
1543.552669350697
 31
0.0
  0
LINE
  5
2600C
330
747D
100
AcDbEntity
  8
細線
 48
50.0
100
AcDbLine
 10
5912.134452993642
 20
1452.817449036638
 30
0.0
 11
6029.810441670915
 21
1570.493437713904
 31
0.0
  0
LINE
  5
2600D
330
747D
100
AcDbEntity
  8
部品1
 48
50.0
100
AcDbLine
 10
6029.810441670915
 20
1580.817449036638
 30
0.0
 11
6029.810441670915
 21
1340.817449036638
 31
0.0
  0
LINE
  5
2600E
330
747D
100
AcDbEntity
  8
部品1
 48
50.0
100
AcDbLine
 10
5829.81044167092
 20
1460.817449036638
 30
0.0
 11
5829.810441670915
 21
1985.071878430884
 31
0.0
  0
LINE
  5
2600F
330
747D
100
AcDbEntity
  8
部品1
 48
50.0
100
AcDbLine
 10
5813.81044167092
 20
1460.817449036638
 30
0.0
 11
5813.810441670907
 21
1985.071878430884
 31
0.0
  0
LINE
  5
26010
330
747D
100
AcDbEntity
  8
細線
 48
50.0
100
AcDbLine
 10
5797.810441670915
 20
1500.138047893149
 30
0.0
 11
5813.81044167092
 21
1516.138047893149
 31
0.0
  0
LINE
  5
26011
330
747D
100
AcDbEntity
  8
細線
 48
50.0
100
AcDbLine
 10
5786.993281166928
 20
1212.817449036638
 30
0.0
 11
5821.290777798111
 21
1340.817449036638
 31
0.0
  0
LINE
  5
26012
330
747D
100
AcDbEntity
  8
部品1
 48
50.0
100
AcDbLine
 10
6109.810441670918
 20
1212.817449036638
 30
0.0
 11
5501.810441670916
 21
1212.817449036638
 31
0.0
  0
LINE
  5
26013
330
747D
100
AcDbEntity
  8
部品1
 48
50.0
100
AcDbLine
 10
5637.810441670914
 20
1436.817449036638
 30
0.0
 11
5973.810441670915
 21
1436.817449036638
 31
0.0
  0
LINE
  5
26014
330
747D
100
AcDbEntity
  8
部品1
 48
50.0
100
AcDbLine
 10
5637.810441670914
 20
1452.817449036638
 30
0.0
 11
5973.810441670915
 21
1452.817449036638
 31
0.0
  0
LINE
  5
26015
330
747D
100
AcDbEntity
  8
部品1
 48
50.0
100
AcDbLine
 10
6109.810441670918
 20
1340.817449036638
 30
0.0
 11
5501.810441670916
 21
1340.817449036638
 31
0.0
  0
CIRCLE
  5
26016
330
747D
100
AcDbEntity
  8
部品1
 48
50.0
100
AcDbCircle
 10
5805.810441670915
 20
1460.817449036638
 30
0.0
 40
8.0
  0
LINE
  5
26017
330
747D
100
AcDbEntity
  8
細線
 48
50.0
100
AcDbLine
 10
5800.134452993648
 20
1340.817449036638
 30
0.0
 11
5896.134452993647
 21
1436.817449036638
 31
0.0
  0
LINE
  5
26018
330
747D
100
AcDbEntity
  8
細線
 48
50.0
100
AcDbLine
 10
5629.217191272431
 20
1212.817449036638
 30
0.0
 11
5663.514687903614
 21
1340.817449036638
 31
0.0
  0
LINE
  5
26019
330
747D
100
AcDbEntity
  8
細線
 48
50.0
100
AcDbLine
 10
5708.105236219676
 20
1212.817449036636
 30
0.0
 11
5742.402732850859
 21
1340.817449036636
 31
0.0
  0
LINE
  5
2601A
330
747D
100
AcDbEntity
  8
細線
 48
50.0
100
AcDbLine
 10
5550.329146325172
 20
1212.817449036636
 30
0.0
 11
5584.626642956355
 21
1340.817449036636
 31
0.0
  0
LINE
  5
2601B
330
747D
100
AcDbEntity
  8
部品1
 48
50.0
100
AcDbLine
 10
5501.810441670916
 20
1212.817449036638
 30
0.0
 11
5501.810441670916
 21
1340.817449036638
 31
0.0
  0
LINE
  5
2601C
330
747D
100
AcDbEntity
  8
細線
 48
50.0
100
AcDbLine
 10
5635.647971890777
 20
1236.817449036638
 30
0.0
 11
5642.078752509124
 21
1212.817449036638
 31
0.0
  0
LINE
  5
2601D
330
747D
100
AcDbEntity
  8
細線
 48
50.0
100
AcDbLine
 10
5556.759926943526
 20
1236.817449036638
 30
0.0
 11
5563.190707561872
 21
1212.817449036638
 31
0.0
  0
LINE
  5
2601E
330
747D
100
AcDbEntity
  8
細線
 48
50.0
100
AcDbLine
 10
5793.424061785282
 20
1236.817449036638
 30
0.0
 11
5799.854842403628
 21
1212.817449036638
 31
0.0
  0
LINE
  5
2601F
330
747D
100
AcDbEntity
  8
細線
 48
50.0
100
AcDbLine
 10
5714.536016838029
 20
1236.817449036638
 30
0.0
 11
5720.966797456376
 21
1212.817449036638
 31
0.0
  0
LINE
  5
26020
330
747D
100
AcDbEntity
  8
細線
 48
50.0
100
AcDbLine
 10
5611.549074451198
 20
1340.817449036638
 30
0.0
 11
5707.549074451198
 21
1436.817449036638
 31
0.0
  0
LINE
  5
26021
330
747D
100
AcDbEntity
  8
細線
 48
50.0
100
AcDbLine
 10
5584.608306087988
 20
1340.817449036638
 30
0.0
 11
5680.608306087987
 21
1436.817449036638
 31
0.0
  0
LINE
  5
26022
330
747D
100
AcDbEntity
  8
部品1
 48
50.0
100
AcDbLine
 10
5637.810441670914
 20
1452.817449036638
 30
0.0
 11
5637.810441670914
 21
1436.817449036638
 31
0.0
  0
LINE
  5
26023
330
747D
100
AcDbEntity
  8
細線
 48
50.0
100
AcDbLine
 10
5578.195862338015
 20
1316.817449036638
 30
0.0
 11
5571.765081719667
 21
1340.817449036638
 31
0.0
  0
LINE
  5
26024
330
747D
100
AcDbEntity
  8
細線
 48
50.0
100
AcDbLine
 10
5501.810441670915
 20
1326.157370002418
 30
0.0
 11
5505.73859800911
 21
1340.817449036638
 31
0.0
  0
LINE
  5
26025
330
747D
100
AcDbEntity
  8
部品1
 48
50.0
100
AcDbLine
 10
5797.810441670915
 20
1518.94466373376
 30
0.0
 11
5781.810441670915
 21
1518.94466373376
 31
0.0
  0
CIRCLE
  5
26026
330
747D
100
AcDbEntity
  8
部品1
 48
50.0
100
AcDbCircle
 10
5677.810441670914
 20
1460.817449036638
 30
0.0
 40
8.0
  0
LINE
  5
26027
330
747D
100
AcDbEntity
  8
細線
 48
50.0
100
AcDbLine
 10
5750.489842814403
 20
1452.817449036638
 30
0.0
 11
5781.810441670915
 21
1484.138047893149
 31
0.0
  0
ARC
  5
26028
330
747D
100
AcDbEntity
  8
部品1
 48
50.0
100
AcDbCircle
 10
5805.810441670915
 20
1460.817449036638
 30
0.0
 40
24.0
100
AcDbArc
 50
180.0
 51
199.4712206344866
  0
LINE
  5
26029
330
747D
100
AcDbEntity
  8
細線
 48
50.0
100
AcDbLine
 10
5657.083907285266
 20
1316.817449036638
 30
0.0
 11
5650.65312666692
 21
1340.817449036638
 31
0.0
  0
LINE
  5
2602A
330
747D
100
AcDbEntity
  8
細線
 48
50.0
100
AcDbLine
 10
5735.971952232518
 20
1316.817449036638
 30
0.0
 11
5729.541171614172
 21
1340.817449036638
 31
0.0
  0
LINE
  5
2602B
330
747D
100
AcDbEntity
  8
細線
 48
50.0
100
AcDbLine
 10
5638.489842814403
 20
1340.817449036638
 30
0.0
 11
5734.489842814403
 21
1436.817449036638
 31
0.0
  0
LINE
  5
2602C
330
747D
100
AcDbEntity
  8
部品1
 48
50.0
100
AcDbLine
 10
5781.810441670915
 20
1518.94466373376
 30
0.0
 11
5781.810441670915
 21
1460.817449036638
 31
0.0
  0
LINE
  5
2602D
330
747D
100
AcDbEntity
  8
細線
 48
50.0
100
AcDbLine
 10
5723.549074451199
 20
1452.817449036638
 30
0.0
 11
5781.810441670915
 21
1511.078816256357
 31
0.0
  0
LINE
  5
2602E
330
747D
100
AcDbEntity
  8
部品1
 48
50.0
100
AcDbLine
 10
5797.810441670915
 20
1518.94466373376
 30
0.0
 11
5797.810441670915
 21
1460.817449036638
 31
0.0
  0
LINE
  5
2602F
330
747D
100
AcDbEntity
  8
部品1
 48
50.0
100
AcDbLine
 10
6109.810441670918
 20
1340.817449036638
 30
0.0
 11
6109.810441670918
 21
1212.817449036638
 31
0.0
  0
LINE
  5
26030
330
747D
100
AcDbEntity
  8
細線
 48
50.0
100
AcDbLine
 10
6023.657416008668
 20
1212.817449036638
 30
0.0
 11
6057.954912639853
 21
1340.817449036636
 31
0.0
  0
LINE
  5
26031
330
747D
100
AcDbEntity
  8
細線
 48
50.0
100
AcDbLine
 10
5865.881326114174
 20
1212.817449036638
 30
0.0
 11
5900.178822745361
 21
1340.817449036636
 31
0.0
  0
LINE
  5
26032
330
747D
100
AcDbEntity
  8
細線
 48
50.0
100
AcDbLine
 10
5944.769371061423
 20
1212.817449036636
 30
0.0
 11
5979.066867692608
 21
1340.817449036636
 31
0.0
  0
LINE
  5
26033
330
747D
100
AcDbEntity
  8
細線
 48
50.0
100
AcDbLine
 10
5951.200151679773
 20
1236.817449036638
 30
0.0
 11
5957.630932298121
 21
1212.817449036638
 31
0.0
  0
LINE
  5
26034
330
747D
100
AcDbEntity
  8
細線
 48
50.0
100
AcDbLine
 10
5872.312106732527
 20
1236.817449036638
 30
0.0
 11
5878.742887350874
 21
1212.817449036638
 31
0.0
  0
LINE
  5
26035
330
747D
100
AcDbEntity
  8
細線
 48
50.0
100
AcDbLine
 10
6030.088196627019
 20
1236.817449036638
 30
0.0
 11
6036.518977245368
 21
1212.817449036638
 31
0.0
  0
LINE
  5
26036
330
747D
100
AcDbEntity
  8
細線
 48
50.0
100
AcDbLine
 10
6108.976241574267
 20
1236.817449036638
 30
0.0
 11
6109.810441670915
 21
1233.704171892274
 31
0.0
  0
LINE
  5
26037
330
747D
100
AcDbEntity
  8
細線
 48
50.0
100
AcDbLine
 10
6102.545460955917
 20
1212.817449036636
 30
0.0
 11
6109.810441670915
 21
1239.930726181026
 31
0.0
  0
LINE
  5
26038
330
747D
100
AcDbEntity
  8
細線
 48
50.0
100
AcDbLine
 10
5966.015989720062
 20
1452.817449036638
 30
0.0
 11
6029.810441670915
 21
1516.611900987489
 31
0.0
  0
CIRCLE
  5
26039
330
747D
100
AcDbEntity
  8
部品1
 48
50.0
100
AcDbCircle
 10
5933.810441670915
 20
1460.817449036638
 30
0.0
 40
8.0
  0
ARC
  5
2603A
330
747D
100
AcDbEntity
  8
部品1
 48
50.0
100
AcDbCircle
 10
5805.810441670915
 20
1460.817449036638
 30
0.0
 40
24.0
100
AcDbArc
 50
340.5287793655134
 51
0.0
  0
LINE
  5
2603B
330
747D
100
AcDbEntity
  8
細線
 48
50.0
100
AcDbLine
 10
5814.859997179771
 20
1316.817449036638
 30
0.0
 11
5808.429216561424
 21
1340.817449036638
 31
0.0
  0
LINE
  5
2603C
330
747D
100
AcDbEntity
  8
細線
 48
50.0
100
AcDbLine
 10
5893.748042127016
 20
1316.817449036638
 30
0.0
 11
5887.317261508671
 21
1340.817449036638
 31
0.0
  0
LINE
  5
2603D
330
747D
100
AcDbEntity
  8
細線
 48
50.0
100
AcDbLine
 10
5827.075221356858
 20
1340.817449036638
 30
0.0
 11
5923.075221356858
 21
1436.817449036638
 31
0.0
  0
LINE
  5
2603E
330
747D
100
AcDbEntity
  8
細線
 48
50.0
100
AcDbLine
 10
5854.015989720062
 20
1340.817449036638
 30
0.0
 11
5950.016877565199
 21
1436.818336881777
 31
0.0
  0
LINE
  5
2603F
330
747D
100
AcDbEntity
  8
部品1
 48
50.0
100
AcDbLine
 10
5973.810441670915
 20
1452.817449036638
 30
0.0
 11
5973.810441670915
 21
1436.817449036638
 31
0.0
  0
LINE
  5
26040
330
747D
100
AcDbEntity
  8
細線
 48
50.0
100
AcDbLine
 10
6051.524132021508
 20
1316.817449036638
 30
0.0
 11
6045.093351403161
 21
1340.817449036638
 31
0.0
  0
LINE
  5
26041
330
747D
100
AcDbEntity
  8
細線
 48
50.0
100
AcDbLine
 10
6015.660599899309
 20
1340.817449036638
 30
0.0
 11
6029.810441670915
 21
1354.967290808245
 31
0.0
  0
LINE
  5
26042
330
747D
100
AcDbEntity
  8
細線
 48
50.0
100
AcDbLine
 10
5972.636087074262
 20
1316.817449036638
 30
0.0
 11
5966.205306455916
 21
1340.817449036638
 31
0.0
  0
LINE
  5
26043
330
747D
100
AcDbEntity
  8
細線
 48
50.0
100
AcDbLine
 10
5709.810441670915
 20
1654.604963162016
 30
0.0
 11
5813.81044167092
 21
1758.604963162019
 31
0.0
  0
LINE
  5
26044
330
747D
100
AcDbEntity
  8
細線
 48
50.0
100
AcDbLine
 10
5709.810441670915
 20
1681.545731525224
 30
0.0
 11
5813.810441670915
 21
1785.545731525224
 31
0.0
  0
LINE
  5
26045
330
747D
100
AcDbEntity
  8
細線
 48
50.0
100
AcDbLine
 10
5709.810441670915
 20
1627.664194798809
 30
0.0
 11
5813.81044167092
 21
1731.664194798809
 31
0.0
  0
LINE
  5
26046
330
747D
100
AcDbEntity
  8
細線
 48
50.0
100
AcDbLine
 10
5797.810441670915
 20
1931.190341704468
 30
0.0
 11
5813.810441670915
 21
1947.190341704468
 31
0.0
  0
LINE
  5
26047
330
747D
100
AcDbEntity
  8
細線
 48
50.0
100
AcDbLine
 10
5797.810441670915
 20
1958.131110067675
 30
0.0
 11
5813.810441670915
 21
1974.131110067675
 31
0.0
  0
LINE
  5
26048
330
747D
100
AcDbEntity
  8
部品1
 48
50.0
100
AcDbLine
 10
5581.810441670914
 20
1580.817449036638
 30
0.0
 11
5709.810441670915
 21
1580.817449036638
 31
0.0
  0
LINE
  5
26049
330
747D
100
AcDbEntity
  8
細線
 48
50.0
100
AcDbLine
 10
5581.810441670907
 20
1526.604963162013
 30
0.0
 11
5636.022927545539
 21
1580.817449036638
 31
0.0
  0
LINE
  5
2604A
330
747D
100
AcDbEntity
  8
細線
 48
50.0
100
AcDbLine
 10
5581.810441670907
 20
1553.545731525224
 30
0.0
 11
5609.082159182328
 21
1580.817449036638
 31
0.0
  0
LINE
  5
2604B
330
747D
100
AcDbEntity
  8
部品1
 48
50.0
100
AcDbLine
 10
5797.810441670915
 20
1926.94466373376
 30
0.0
 11
5781.810441670915
 21
1926.944663733764
 31
0.0
  0
LINE
  5
2604C
330
747D
100
AcDbEntity
  8
細線
 48
50.0
100
AcDbLine
 10
5709.810441670915
 20
1843.190341704469
 30
0.0
 11
5793.564763700208
 21
1926.94466373376
 31
0.0
  0
LINE
  5
2604D
330
747D
100
AcDbEntity
  8
細線
 48
50.0
100
AcDbLine
 10
5709.810441670915
 20
1870.131110067676
 30
0.0
 11
5781.810441670915
 21
1942.131110067675
 31
0.0
  0
LINE
  5
2604E
330
747D
100
AcDbEntity
  8
部品1
 48
50.0
100
AcDbLine
 10
5781.810441670915
 20
1926.944663733764
 30
0.0
 11
5781.810441670915
 21
1985.071878430884
 31
0.0
  0
LINE
  5
2604F
330
747D
100
AcDbEntity
  8
細線
 48
50.0
100
AcDbLine
 10
5709.810441670915
 20
1897.071878430884
 30
0.0
 11
5781.810441670915
 21
1969.071878430884
 31
0.0
  0
LINE
  5
26050
330
747D
100
AcDbEntity
  8
部品1
 48
50.0
100
AcDbLine
 10
5797.810441670915
 20
1926.94466373376
 30
0.0
 11
5797.810441670915
 21
1985.071878430884
 31
0.0
  0
LINE
  5
26051
330
747D
100
AcDbEntity
  8
細線
 48
50.0
100
AcDbLine
 10
5829.81044167092
 20
1747.664194798809
 30
0.0
 11
5901.810441670908
 21
1819.664194798809
 31
0.0
  0
LINE
  5
26052
330
747D
100
AcDbEntity
  8
部品1
 48
50.0
100
AcDbLine
 10
5901.810441670915
 20
1580.817449036638
 30
0.0
 11
6029.810441670915
 21
1580.817449036638
 31
0.0
  0
LINE
  5
26053
330
747D
100
AcDbEntity
  8
細線
 48
50.0
100
AcDbLine
 10
5829.81044167092
 20
1559.078816256359
 30
0.0
 11
5901.810441670908
 21
1631.078816256354
 31
0.0
  0
LINE
  5
26054
330
747D
100
AcDbEntity
  8
細線
 48
50.0
100
AcDbLine
 10
5829.81044167092
 20
1586.019584619567
 30
0.0
 11
5901.810441670908
 21
1658.019584619564
 31
0.0
  0
LINE
  5
26055
330
747D
100
AcDbEntity
  8
細線
 48
50.0
100
AcDbLine
 10
5829.81044167092
 20
1532.138047893149
 30
0.0
 11
5901.810441670908
 21
1604.138047893149
 31
0.0
  0
LINE
  5
26056
330
747D
100
AcDbEntity
  8
細線
 48
50.0
100
AcDbLine
 10
5829.810441670915
 20
1801.545731525224
 30
0.0
 11
5901.810441670915
 21
1873.545731525224
 31
0.0
  0
LINE
  5
26057
330
747D
100
AcDbEntity
  8
細線
 48
50.0
100
AcDbLine
 10
5829.81044167092
 20
1774.604963162019
 30
0.0
 11
5901.810441670908
 21
1846.604963162013
 31
0.0
  0
MTEXT
  5
26058
102
{ACAD_REACTORS
330
26003
102
}
330
747D
100
AcDbEntity
  8
寸法
 62
     7
 48
50.0
100
AcDbMText
 10
6143.548897532165
 20
1163.468363304485
 30
0.0
 40
80.0
 41
0.8
 71
     4
 72
     1
  1
\A1;D10@300
  7
STYLE2
 73
     1
 44
1.0
1001
ACAD
1000
MTEXTBEGIN
1070
    73
1070
     1
1070
    44
1040
1.0
1070
    74
1070
     0
1000
MTEXTEND
  0
DIMENSION
  5
26059
330
747D
100
AcDbEntity
  8
寸法
 48
50.0
100
AcDbDimension
  2
*D53
 10
5709.810441670914
 20
2444.817449036639
 30
0.0
 11
5817.036772016111
 21
2544.485256953019
 31
0.0
 70
   160
  1
120\P195
 71
     5
 42
192.0
  3
INABA_S40G
100
AcDbAlignedDimension
 13
5901.810441670914
 23
2124.817449036638
 33
0.0
 14
5709.810441670914
 24
2124.817449036638
 34
0.0
100
AcDbRotatedDimension
1001
ACAD
1000
DSTYLE
1002
{
1070
   174
1070
     0
1070
   272
1070
     1
1070
   279
1070
     1
1070
   288
1070
     0
1070
   341
1005
0
1002
}
  0
LINE
  5
2605A
330
747D
100
AcDbEntity
  8
部品1
 48
50.0
100
AcDbLine
 10
5709.810441670915
 20
2124.817449036638
 30
0.0
 11
5901.810441670915
 21
2124.817449036638
 31
0.0
  0
LINE
  5
2605B
330
747D
100
AcDbEntity
  8
細線
 48
50.0
100
AcDbLine
 10
5709.810441670915
 20
2085.657256973336
 30
0.0
 11
5748.970633734218
 21
2124.817449036638
 31
0.0
  0
LINE
  5
2605C
330
747D
100
AcDbEntity
  8
細線
 48
50.0
100
AcDbLine
 10
5709.810441670915
 20
2058.716488610128
 30
0.0
 11
5775.911402097424
 21
2124.817449036638
 31
0.0
  0
LINE
  5
2605D
330
747D
100
AcDbEntity
  8
細線
 48
50.0
100
AcDbLine
 10
5709.810441670915
 20
2112.598025336543
 30
0.0
 11
5722.029865371009
 21
2124.817449036638
 31
0.0
  0
LINE
  5
2605E
330
747D
100
AcDbEntity
  8
細線
 48
50.0
100
AcDbLine
 10
5829.363148936901
 20
1989.68381733366
 30
0.0
 11
5901.810441670915
 21
2062.131110067676
 31
0.0
  0
LINE
  5
2605F
330
747D
100
AcDbEntity
  8
細線
 48
50.0
100
AcDbLine
 10
5818.302864173385
 20
2005.564300933354
 30
0.0
 11
5901.810441670915
 21
2089.071878430884
 31
0.0
  0
LINE
  5
26060
330
747D
100
AcDbEntity
  8
細線
 48
50.0
100
AcDbLine
 10
7694.24975484811
 20
1965.945731525226
 30
0.0
 11
7823.849754848108
 21
2095.545731525225
 31
0.0
  0
LINE
  5
26061
330
747D
100
AcDbEntity
  8
部品1
100
AcDbLine
 10
7823.849754848106
 20
1580.817449036638
 30
0.0
 11
7823.849754848108
 21
2124.817449036638
 31
0.0
  0
LINE
  5
26062
330
747D
100
AcDbEntity
  8
部品1
 48
50.0
100
AcDbLine
 10
7409.849754848107
 20
1580.817449036638
 30
0.0
 11
7409.849754848107
 21
2124.817449036638
 31
0.0
  0
LINE
  5
26063
330
747D
100
AcDbEntity
  8
細線
 48
50.0
100
AcDbLine
 10
7409.849754848107
 20
1897.071878430884
 30
0.0
 11
7568.249754848108
 21
2055.471878430881
 31
0.0
  0
LINE
  5
26064
330
747D
100
AcDbEntity
  8
細線
 48
50.0
100
AcDbLine
 10
7409.849754848107
 20
1870.131110067676
 30
0.0
 11
7568.249754848108
 21
2028.531110067674
 31
0.0
  0
LINE
  5
26065
330
747D
100
AcDbEntity
  8
細線
 48
50.0
100
AcDbLine
 10
7409.849754848107
 20
1843.190341704469
 30
0.0
 11
7568.249754848103
 21
2001.590341704461
 31
0.0
  0
TEXT
  5
26066
330
747D
100
AcDbEntity
  8
部品1
 48
50.0
100
AcDbText
 10
6995.709853015153
 20
1896.056441319893
 30
0.0
 40
80.0
  1
▽G.L
  7
STYLE2
100
AcDbText
  0
LINE
  5
26067
330
747D
100
AcDbEntity
  8
部品1
100
AcDbLine
 10
7640.249754848108
 20
1899.817449036638
 30
0.0
 11
7640.249754848103
 21
2173.977449036639
 31
0.0
  0
LINE
  5
26068
330
747D
100
AcDbEntity
  8
部品1
100
AcDbLine
 10
7622.249754848109
 20
1899.817449036638
 30
0.0
 11
7622.249754848104
 21
2173.977449036639
 31
0.0
  0
LINE
  5
26069
330
747D
100
AcDbEntity
  8
細線
 48
50.0
100
AcDbLine
 10
7694.24975484811
 20
1912.064194798797
 30
0.0
 11
7823.849754848108
 21
2041.664194798789
 31
0.0
  0
LINE
  5
2606A
330
747D
100
AcDbEntity
  8
細線
 48
50.0
100
AcDbLine
 10
7694.24975484811
 20
1939.004963162009
 30
0.0
 11
7823.849754848108
 21
2068.604963162006
 31
0.0
  0
LINE
  5
2606B
330
747D
100
AcDbEntity
  8
部品1
100
AcDbLine
 10
7694.249754848108
 20
1800.817449036638
 30
0.0
 11
7694.249754848108
 21
2124.817449036638
 31
0.0
  0
LINE
  5
2606C
330
747D
100
AcDbEntity
  8
部品1
100
AcDbLine
 10
7568.249754848102
 20
1800.817449036638
 30
0.0
 11
7568.249754848108
 21
2124.817449036638
 31
0.0
  0
LINE
  5
2606D
330
747D
100
AcDbEntity
  8
細線
 48
50.0
100
AcDbLine
 10
7409.849754848107
 20
1654.604963162016
 30
0.0
 11
7568.249754848101
 21
1813.004963162005
 31
0.0
  0
LINE
  5
2606E
330
747D
100
AcDbEntity
  8
細線
 48
50.0
100
AcDbLine
 10
7409.849754848107
 20
1627.664194798809
 30
0.0
 11
7583.003009085944
 21
1800.817449036636
 31
0.0
  0
LINE
  5
2606F
330
747D
100
AcDbEntity
  8
細線
 48
50.0
100
AcDbLine
 10
7409.849754848107
 20
1681.545731525224
 30
0.0
 11
7568.249754848101
 21
1839.945731525219
 31
0.0
  0
LINE
  5
26070
330
747D
100
AcDbEntity
  8
細線
 48
50.0
100
AcDbLine
 10
7338.529155991597
 20
1340.817449036638
 30
0.0
 11
7823.849754848108
 21
1826.138047893146
 31
0.0
  0
LINE
  5
26071
330
747D
100
AcDbEntity
  8
細線
 48
50.0
100
AcDbLine
 10
7311.588387628392
 20
1340.817449036638
 30
0.0
 11
7823.849754848111
 21
1853.078816256352
 31
0.0
  0
LINE
  5
26072
330
747D
100
AcDbEntity
  8
細線
 48
50.0
100
AcDbLine
 10
7284.647619265182
 20
1340.817449036638
 30
0.0
 11
7823.849754848106
 21
1880.019584619564
 31
0.0
  0
LINE
  5
26073
330
747D
100
AcDbEntity
  8
部品1
 48
50.0
100
AcDbLine
 10
8031.84975484811
 20
1340.817449036638
 30
0.0
 11
7201.849754848111
 21
1340.817449036638
 31
0.0
  0
LINE
  5
26074
330
747D
100
AcDbEntity
  8
部品1
 48
50.0
100
AcDbLine
 10
8031.84975484811
 20
1212.817449036638
 30
0.0
 11
7201.849754848111
 21
1212.817449036638
 31
0.0
  0
LINE
  5
26075
330
747D
100
AcDbEntity
  8
細線
 48
50.0
100
AcDbLine
 10
7281.849754848103
 20
1499.664194798809
 30
0.0
 11
7363.003009085936
 21
1580.817449036638
 31
0.0
  0
LINE
  5
26076
330
747D
100
AcDbEntity
  8
部品1
 48
50.0
100
AcDbLine
 10
7281.849754848109
 20
1340.817449036638
 30
0.0
 11
7281.849754848109
 21
1580.817449036638
 31
0.0
  0
LINE
  5
26077
330
747D
100
AcDbEntity
  8
細線
 48
50.0
100
AcDbLine
 10
7329.256504449626
 20
1212.817449036638
 30
0.0
 11
7363.554001080807
 21
1340.817449036638
 31
0.0
  0
LINE
  5
26078
330
747D
100
AcDbEntity
  8
部品1
 48
50.0
100
AcDbLine
 10
7201.849754848111
 20
1212.817449036638
 30
0.0
 11
7201.849754848111
 21
1340.817449036638
 31
0.0
  0
LINE
  5
26079
330
747D
100
AcDbEntity
  8
細線
 48
50.0
100
AcDbLine
 10
7250.368459502365
 20
1212.817449036636
 30
0.0
 11
7284.665956133551
 21
1340.817449036636
 31
0.0
  0
LINE
  5
2607A
330
747D
100
AcDbEntity
  8
細線
 48
50.0
100
AcDbLine
 10
7408.144549396872
 20
1212.817449036636
 30
0.0
 11
7442.442046028053
 21
1340.817449036636
 31
0.0
  0
LINE
  5
2607B
330
747D
100
AcDbEntity
  8
細線
 48
50.0
100
AcDbLine
 10
7256.799240120719
 20
1236.817449036638
 30
0.0
 11
7263.230020739065
 21
1212.817449036638
 31
0.0
  0
LINE
  5
2607C
330
747D
100
AcDbEntity
  8
細線
 48
50.0
100
AcDbLine
 10
7414.575330015225
 20
1236.817449036638
 30
0.0
 11
7421.006110633571
 21
1212.817449036638
 31
0.0
  0
LINE
  5
2607D
330
747D
100
AcDbEntity
  8
細線
 48
50.0
100
AcDbLine
 10
7335.687285067972
 20
1236.817449036638
 30
0.0
 11
7342.118065686318
 21
1212.817449036638
 31
0.0
  0
LINE
  5
2607E
330
747D
100
AcDbEntity
  8
細線
 48
50.0
100
AcDbLine
 10
7201.849754848108
 20
1326.157370002418
 30
0.0
 11
7205.777911186304
 21
1340.817449036638
 31
0.0
  0
LINE
  5
2607F
330
747D
100
AcDbEntity
  8
細線
 48
50.0
100
AcDbLine
 10
7278.235175515209
 20
1316.817449036638
 30
0.0
 11
7271.804394896863
 21
1340.817449036638
 31
0.0
  0
LINE
  5
26080
330
747D
100
AcDbEntity
  8
細線
 48
50.0
100
AcDbLine
 10
7436.011265409714
 20
1316.817449036638
 30
0.0
 11
7429.580484791365
 21
1340.817449036638
 31
0.0
  0
LINE
  5
26081
330
747D
100
AcDbEntity
  8
細線
 48
50.0
100
AcDbLine
 10
7357.123220462461
 20
1316.817449036638
 30
0.0
 11
7350.692439844116
 21
1340.817449036638
 31
0.0
  0
LWPOLYLINE
  5
26082
330
747D
100
AcDbEntity
  8
部品1
 48
50.0
100
AcDbPolyline
 90
        2
 70
     0
 43
8.0
 10
6995.709853015153
 20
1884.817449036639
 10
7409.849754848107
 20
1884.817449036639
  0
LINE
  5
26083
330
747D
100
AcDbEntity
  8
細線
 48
50.0
100
AcDbLine
 10
7281.849754848103
 20
1526.604963162013
 30
0.0
 11
7336.062240722732
 21
1580.817449036638
 31
0.0
  0
LINE
  5
26084
330
747D
100
AcDbEntity
  8
部品1
 48
50.0
100
AcDbLine
 10
7281.849754848109
 20
1580.817449036638
 30
0.0
 11
7409.849754848107
 21
1580.817449036638
 31
0.0
  0
LINE
  5
26085
330
747D
100
AcDbEntity
  8
細線
 48
50.0
100
AcDbLine
 10
7281.849754848103
 20
1553.545731525224
 30
0.0
 11
7309.121472359523
 21
1580.817449036638
 31
0.0
  0
LINE
  5
26086
330
747D
100
AcDbEntity
  8
細線
 48
50.0
100
AcDbLine
 10
7527.114534534051
 20
1340.817449036638
 30
0.0
 11
7823.849754848108
 21
1637.552669350691
 31
0.0
  0
LINE
  5
26087
330
747D
100
AcDbEntity
  8
細線
 48
50.0
100
AcDbLine
 10
7554.055302897257
 20
1340.817449036638
 30
0.0
 11
7823.849754848108
 21
1610.611900987495
 31
0.0
  0
LINE
  5
26088
330
747D
100
AcDbEntity
  8
細線
 48
50.0
100
AcDbLine
 10
7500.173766170843
 20
1340.817449036638
 30
0.0
 11
7823.849754848106
 21
1664.493437713904
 31
0.0
  0
LINE
  5
26089
330
747D
100
AcDbEntity
  8
細線
 48
50.0
100
AcDbLine
 10
7715.699913076502
 20
1340.817449036638
 30
0.0
 11
7951.849754848106
 21
1576.967290808246
 31
0.0
  0
LINE
  5
2608A
330
747D
100
AcDbEntity
  8
細線
 48
50.0
100
AcDbLine
 10
7742.640681439713
 20
1340.817449036638
 30
0.0
 11
7951.849754848106
 21
1550.026522445031
 31
0.0
  0
LINE
  5
2608B
330
747D
100
AcDbEntity
  8
部品1
 48
50.0
100
AcDbLine
 10
7951.849754848106
 20
1580.817449036638
 30
0.0
 11
7951.849754848106
 21
1340.817449036638
 31
0.0
  0
LINE
  5
2608C
330
747D
100
AcDbEntity
  8
細線
 48
50.0
100
AcDbLine
 10
7769.581449802918
 20
1340.817449036638
 30
0.0
 11
7951.849754848106
 21
1523.085754081834
 31
0.0
  0
LINE
  5
2608D
330
747D
100
AcDbEntity
  8
細線
 48
50.0
100
AcDbLine
 10
7644.808684238618
 20
1212.817449036636
 30
0.0
 11
7679.1061808698
 21
1340.817449036636
 31
0.0
  0
LINE
  5
2608E
330
747D
100
AcDbEntity
  8
細線
 48
50.0
100
AcDbLine
 10
7487.032594344125
 20
1212.817449036638
 30
0.0
 11
7521.330090975306
 21
1340.817449036638
 31
0.0
  0
LINE
  5
2608F
330
747D
100
AcDbEntity
  8
細線
 48
50.0
100
AcDbLine
 10
7565.920639291369
 20
1212.817449036638
 30
0.0
 11
7600.218135922554
 21
1340.817449036636
 31
0.0
  0
LINE
  5
26090
330
747D
100
AcDbEntity
  8
細線
 48
50.0
100
AcDbLine
 10
7723.69672918586
 20
1212.817449036638
 30
0.0
 11
7757.994225817047
 21
1340.817449036636
 31
0.0
  0
LINE
  5
26091
330
747D
100
AcDbEntity
  8
細線
 48
50.0
100
AcDbLine
 10
7572.351419909722
 20
1236.817449036638
 30
0.0
 11
7578.782200528069
 21
1212.817449036638
 31
0.0
  0
LINE
  5
26092
330
747D
100
AcDbEntity
  8
細線
 48
50.0
100
AcDbLine
 10
7493.463374962475
 20
1236.817449036638
 30
0.0
 11
7499.894155580823
 21
1212.817449036638
 31
0.0
  0
LINE
  5
26093
330
747D
100
AcDbEntity
  8
細線
 48
50.0
100
AcDbLine
 10
7730.127509804214
 20
1236.817449036638
 30
0.0
 11
7736.558290422559
 21
1212.817449036638
 31
0.0
  0
LINE
  5
26094
330
747D
100
AcDbEntity
  8
細線
 48
50.0
100
AcDbLine
 10
7651.239464856968
 20
1236.817449036638
 30
0.0
 11
7657.670245475315
 21
1212.817449036638
 31
0.0
  0
LINE
  5
26095
330
747D
100
AcDbEntity
  8
細線
 48
50.0
100
AcDbLine
 10
7593.787355304212
 20
1316.817449036638
 30
0.0
 11
7587.356574685864
 21
1340.817449036638
 31
0.0
  0
LINE
  5
26096
330
747D
100
AcDbEntity
  8
細線
 48
50.0
100
AcDbLine
 10
7514.899310356965
 20
1316.817449036638
 30
0.0
 11
7508.468529738618
 21
1340.817449036638
 31
0.0
  0
LINE
  5
26097
330
747D
100
AcDbEntity
  8
細線
 48
50.0
100
AcDbLine
 10
7672.675400251456
 20
1316.817449036638
 30
0.0
 11
7666.244619633111
 21
1340.817449036638
 31
0.0
  0
LINE
  5
26098
330
747D
100
AcDbEntity
  8
細線
 48
50.0
100
AcDbLine
 10
7751.563445198702
 20
1316.817449036638
 30
0.0
 11
7745.132664580356
 21
1340.817449036638
 31
0.0
  0
LINE
  5
26099
330
747D
100
AcDbEntity
  8
部品1
 48
50.0
100
AcDbLine
 10
8031.84975484811
 20
1340.817449036638
 30
0.0
 11
8031.84975484811
 21
1212.817449036638
 31
0.0
  0
LINE
  5
2609A
330
747D
100
AcDbEntity
  8
細線
 48
50.0
100
AcDbLine
 10
7960.360864027603
 20
1212.817449036636
 30
0.0
 11
7994.658360658788
 21
1340.817449036635
 31
0.0
  0
LINE
  5
2609B
330
747D
100
AcDbEntity
  8
細線
 48
50.0
100
AcDbLine
 10
7802.584774133109
 20
1212.817449036636
 30
0.0
 11
7836.882270764284
 21
1340.817449036638
 31
0.0
  0
LINE
  5
2609C
330
747D
100
AcDbEntity
  8
細線
 48
50.0
100
AcDbLine
 10
7881.472819080357
 20
1212.817449036635
 30
0.0
 11
7915.770315711544
 21
1340.817449036635
 31
0.0
  0
LINE
  5
2609D
330
747D
100
AcDbEntity
  8
細線
 48
50.0
100
AcDbLine
 10
7809.015554751458
 20
1236.817449036638
 30
0.0
 11
7815.446335369816
 21
1212.817449036638
 31
0.0
  0
LINE
  5
2609E
330
747D
100
AcDbEntity
  8
細線
 48
50.0
100
AcDbLine
 10
7887.903599698709
 20
1236.817449036636
 30
0.0
 11
7894.334380317054
 21
1212.817449036636
 31
0.0
  0
LINE
  5
2609F
330
747D
100
AcDbEntity
  8
細線
 48
50.0
100
AcDbLine
 10
7966.791644645953
 20
1236.817449036636
 30
0.0
 11
7973.222425264303
 21
1212.817449036636
 31
0.0
  0
LINE
  5
260A0
330
747D
100
AcDbEntity
  8
細線
 48
50.0
100
AcDbLine
 10
7830.451490145941
 20
1316.817449036638
 30
0.0
 11
7824.020709527594
 21
1340.817449036638
 31
0.0
  0
LINE
  5
260A1
330
747D
100
AcDbEntity
  8
細線
 48
50.0
100
AcDbLine
 10
7909.339535093197
 20
1316.817449036636
 30
0.0
 11
7902.90875447485
 21
1340.817449036636
 31
0.0
  0
LINE
  5
260A2
330
747D
100
AcDbEntity
  8
細線
 48
50.0
100
AcDbLine
 10
7988.227580040443
 20
1316.817449036636
 30
0.0
 11
7981.796799422096
 21
1340.817449036636
 31
0.0
  0
LINE
  5
260A3
330
747D
100
AcDbEntity
  8
部品1
100
AcDbLine
 10
7694.249754848108
 20
1800.817449036636
 30
0.0
 11
7568.249754848102
 21
1800.817449036636
 31
0.0
  0
LINE
  5
260A4
330
747D
100
AcDbEntity
  8
部品1
100
AcDbLine
 10
7676.249754848107
 20
1881.817449036638
 30
0.0
 11
7676.249754848107
 21
1899.817449036638
 31
0.0
  0
ARC
  5
260A5
330
747D
100
AcDbEntity
  8
部品1
100
AcDbCircle
 10
7640.249754848108
 20
1899.817449036638
 30
0.0
 40
18.0
100
AcDbArc
 50
180.0
 51
270.0
  0
LINE
  5
260A6
330
747D
100
AcDbEntity
  8
部品1
100
AcDbLine
 10
7640.249754848108
 20
1881.817449036638
 30
0.0
 11
7676.249754848107
 21
1881.817449036638
 31
0.0
  0
LINE
  5
260A7
330
747D
100
AcDbEntity
  8
部品1
100
AcDbLine
 10
7640.249754848108
 20
1899.817449036638
 30
0.0
 11
7676.249754848107
 21
1899.817449036638
 31
0.0
  0
LINE
  5
260A8
330
747D
100
AcDbEntity
  8
部品1
 48
50.0
100
AcDbLine
 10
7823.849754848108
 20
1580.817449036638
 30
0.0
 11
7951.849754848106
 21
1580.817449036638
 31
0.0
  0
LINE
  5
260A9
330
747D
100
AcDbEntity
  8
部品1
100
AcDbLine
 10
7429.64975484811
 20
2214.817449036639
 30
0.0
 11
7467.449754848108
 21
2214.817449036639
 31
0.0
  0
LINE
  5
260AA
330
747D
100
AcDbEntity
  8
細線
 48
50.0
100
AcDbLine
 10
7409.849754848107
 20
2085.657256973336
 30
0.0
 11
7449.009946911414
 21
2124.817449036638
 31
0.0
  0
LINE
  5
260AB
330
747D
100
AcDbEntity
  8
細線
 48
50.0
100
AcDbLine
 10
7409.849754848107
 20
2058.716488610128
 30
0.0
 11
7475.95071527462
 21
2124.817449036638
 31
0.0
  0
LINE
  5
260AC
330
747D
100
AcDbEntity
  8
部品1
 48
50.0
100
AcDbLine
 10
7409.849754848107
 20
2124.817449036638
 30
0.0
 11
7823.849754848111
 21
2124.817449036638
 31
0.0
  0
TEXT
  5
260AD
330
747D
100
AcDbEntity
  8
部品1
 48
50.0
100
AcDbText
 10
6983.403658268617
 20
2455.377970137114
 30
0.0
 40
80.0
  1
※(別売)
  7
STYLE2
100
AcDbText
  0
LINE
  5
260AE
330
747D
100
AcDbEntity
  8
部品1
100
AcDbLine
 10
7426.949754848108
 20
2204.017449036638
 30
0.0
 11
7426.949754848108
 21
2212.117449036639
 31
0.0
  0
ARC
  5
260AF
330
747D
100
AcDbEntity
  8
部品1
100
AcDbCircle
 10
7429.64975484811
 20
2212.117449036639
 30
0.0
 40
2.7
100
AcDbArc
 50
90.0
 51
180.0
  0
ARC
  5
260B0
330
747D
100
AcDbEntity
  8
部品1
100
AcDbCircle
 10
7418.849754848108
 20
2199.209352739346
 30
0.0
 40
2.7
100
AcDbArc
 50
104.0362434679067
 51
180.0
  0
LINE
  5
260B1
330
747D
100
AcDbEntity
  8
部品1
100
AcDbLine
 10
7418.194908660509
 20
2201.828737489738
 30
0.0
 11
7426.949754848108
 21
2204.017449036638
 31
0.0
  0
ARC
  5
260B2
330
747D
100
AcDbEntity
  8
部品1
100
AcDbCircle
 10
7418.849754848108
 20
2137.077449036638
 30
0.0
 40
2.7
100
AcDbArc
 50
180.0
 51
270.0
  0
LINE
  5
260B3
330
747D
100
AcDbEntity
  8
細線
 48
50.0
100
AcDbLine
 10
7409.849754848107
 20
2112.598025336543
 30
0.0
 11
7422.069178548203
 21
2124.817449036638
 31
0.0
  0
LINE
  5
260B4
330
747D
100
AcDbEntity
  8
部品1
100
AcDbLine
 10
7418.849754848108
 20
2134.377449036639
 30
0.0
 11
7430.549754848104
 21
2134.377449036639
 31
0.0
  0
LINE
  5
260B5
330
747D
100
AcDbEntity
  8
部品1
100
AcDbLine
 10
7416.14975484811
 20
2137.077449036638
 30
0.0
 11
7416.14975484811
 21
2199.209352739346
 31
0.0
  0
LINE
  5
260B6
330
747D
100
AcDbEntity
  8
部品1
100
AcDbLine
 10
7574.809754848103
 20
2134.377449036639
 30
0.0
 11
7776.149754848102
 21
2134.377449036639
 31
0.0
  0
LINE
  5
260B7
330
747D
100
AcDbEntity
  8
部品1
100
AcDbLine
 10
7467.449754848108
 20
2214.817449036639
 30
0.0
 11
7467.449754848108
 21
2222.917449036639
 31
0.0
  0
LINE
  5
260B8
330
747D
100
AcDbEntity
  8
部品1
100
AcDbLine
 10
7517.849754848109
 20
2233.717449036635
 30
0.0
 11
7517.849754848109
 21
2182.417449036639
 31
0.0
  0
LINE
  5
260B9
330
747D
100
AcDbEntity
  8
部品1
100
AcDbLine
 10
7541.249754848108
 20
2194.377449036639
 30
0.0
 11
7569.409754848108
 21
2194.377449036639
 31
0.0
  0
ARC
  5
260BA
330
747D
100
AcDbEntity
  8
部品1
100
AcDbCircle
 10
7541.249754848108
 20
2191.677449036639
 30
0.0
 40
2.7
100
AcDbArc
 50
90.0
 51
180.0
  0
ARC
  5
260BB
330
747D
100
AcDbEntity
  8
部品1
100
AcDbCircle
 10
7569.409754848108
 20
2191.677449036639
 30
0.0
 40
2.7
100
AcDbArc
 50
0.0
 51
90.0
  0
LINE
  5
260BC
330
747D
100
AcDbEntity
  8
部品1
100
AcDbLine
 10
7560.149754848109
 20
2179.717449036638
 30
0.0
 11
7560.149754848109
 21
2137.077449036638
 31
0.0
  0
LINE
  5
260BD
330
747D
100
AcDbEntity
  8
部品1
100
AcDbLine
 10
7545.749754848109
 20
2134.377449036639
 30
0.0
 11
7557.449754848109
 21
2134.377449036639
 31
0.0
  0
ARC
  5
260BE
330
747D
100
AcDbEntity
  8
部品1
100
AcDbCircle
 10
7574.809754848103
 20
2137.077449036638
 30
0.0
 40
2.7
100
AcDbArc
 50
180.0
 51
270.0
  0
ARC
  5
260BF
330
747D
100
AcDbEntity
  8
部品1
100
AcDbCircle
 10
7557.449754848109
 20
2137.077449036638
 30
0.0
 40
2.7
100
AcDbArc
 50
270.0
 51
0.0
  0
LINE
  5
260C0
330
747D
100
AcDbEntity
  8
部品1
100
AcDbLine
 10
7517.849754848109
 20
2182.417449036639
 30
0.0
 11
7557.449754848109
 21
2182.417449036639
 31
0.0
  0
ARC
  5
260C1
330
747D
100
AcDbEntity
  8
部品1
100
AcDbCircle
 10
7557.449754848109
 20
2179.717449036638
 30
0.0
 40
2.7
100
AcDbArc
 50
0.0
 51
90.0
  0
LINE
  5
260C2
330
747D
100
AcDbEntity
  8
部品1
100
AcDbLine
 10
7572.109754848108
 20
2191.677449036639
 30
0.0
 11
7572.109754848106
 21
2137.077449036638
 31
0.0
  0
LINE
  5
260C3
330
747D
100
AcDbEntity
  8
部品1
100
AcDbLine
 10
7538.549754848107
 20
2191.677449036639
 30
0.0
 11
7538.549754848107
 21
2174.577449036638
 31
0.0
  0
LINE
  5
260C4
330
747D
100
AcDbEntity
  8
細線
100
AcDbLine
 10
7636.649754848109
 20
2134.377449036639
 30
0.0
 11
7636.649754848109
 21
2177.577449036638
 31
0.0
  0
LINE
  5
260C5
330
747D
100
AcDbEntity
  8
細線
100
AcDbLine
 10
7625.84975484811
 20
2134.377449036639
 30
0.0
 11
7625.849754848109
 21
2177.577449036638
 31
0.0
  0
LINE
  5
260C6
330
747D
100
AcDbEntity
  8
部品1
100
AcDbLine
 10
7622.249754848109
 20
2173.977449036639
 30
0.0
 11
7640.249754848108
 21
2173.977449036639
 31
0.0
  0
LINE
  5
260C7
330
747D
100
AcDbEntity
  8
部品1
100
AcDbLine
 10
7625.849754848109
 20
2177.577449036638
 30
0.0
 11
7636.649754848109
 21
2177.577449036638
 31
0.0
  0
ELLIPSE
  5
260C8
330
747D
100
AcDbEntity
  8
部品1
 48
50.0
100
AcDbEllipse
 10
7631.249754848107
 20
2393.940737480911
 30
0.0
 11
40.0
 21
0.0
 31
0.0
210
0.0
220
0.0
230
1.0
 40
0.4
 41
0.0
 42
6.283185307179586
  0
ELLIPSE
  5
260C9
330
747D
100
AcDbEntity
  8
部品1
 48
50.0
100
AcDbEllipse
 10
7631.249754848107
 20
2384.340737480911
 30
0.0
 11
40.0
 21
0.0
 31
0.0
210
0.0
220
0.0
230
1.0
 40
0.4
 41
3.141592653589793
 42
6.283185307179586
  0
LINE
  5
260CA
330
747D
100
AcDbEntity
  8
部品1
 48
50.0
100
AcDbLine
 10
7591.249754848108
 20
2393.940737480911
 30
0.0
 11
7591.249754848108
 21
2384.34073748091
 31
0.0
  0
ARC
  5
260CB
330
747D
100
AcDbEntity
  8
部品1
100
AcDbCircle
 10
7515.149754848109
 20
2233.717449036635
 30
0.0
 40
2.7
100
AcDbArc
 50
0.0
 51
90.0
  0
ARC
  5
260CC
330
747D
100
AcDbEntity
  8
部品1
100
AcDbCircle
 10
7472.849754848109
 20
2233.717449036638
 30
0.0
 40
2.7
100
AcDbArc
 50
90.0
 51
180.0
  0
LINE
  5
260CD
330
747D
100
AcDbEntity
  8
部品1
100
AcDbLine
 10
7470.14975484811
 20
2225.617449036638
 30
0.0
 11
7470.14975484811
 21
2225.617449036638
 31
0.0
  0
LINE
  5
260CE
330
747D
100
AcDbEntity
  8
部品1
100
AcDbLine
 10
7470.14975484811
 20
2225.617449036638
 30
0.0
 11
7470.14975484811
 21
2233.717449036638
 31
0.0
  0
LINE
  5
260CF
330
747D
100
AcDbEntity
  8
部品1
100
AcDbLine
 10
7472.849754848109
 20
2236.417449036639
 30
0.0
 11
7515.149754848109
 21
2236.417449036635
 31
0.0
  0
ARC
  5
260D0
330
747D
100
AcDbEntity
  8
部品1
100
AcDbCircle
 10
7470.14975484811
 20
2222.917449036639
 30
0.0
 40
2.7
100
AcDbArc
 50
90.0
 51
180.0
  0
ELLIPSE
  5
260D1
330
747D
100
AcDbEntity
  8
部品1
 48
50.0
100
AcDbEllipse
 10
7631.249754848107
 20
2393.940737480911
 30
0.0
 11
18.4
 21
0.0
 31
0.0
210
0.0
220
0.0
230
1.0
 40
0.3478260869565217
 41
0.0
 42
6.283185307179586
  0
LINE
  5
260D2
330
747D
100
AcDbEntity
  8
部品1
 48
50.0
100
AcDbLine
 10
7671.249754848108
 20
2384.34073748091
 30
0.0
 11
7671.249754848108
 21
2393.940737480911
 31
0.0
  0
LINE
  5
260D3
330
747D
100
AcDbEntity
  8
部品1
 48
50.0
100
AcDbLine
 10
7599.249754848108
 20
2515.692730145781
 30
0.0
 11
7615.249754848107
 21
2507.692730145781
 31
0.0
  0
LINE
  5
260D4
330
747D
100
AcDbEntity
  8
部品1
 48
50.0
100
AcDbLine
 10
7599.249754848108
 20
2483.692730145781
 30
0.0
 11
7615.249754848107
 21
2475.692730145781
 31
0.0
  0
LINE
  5
260D5
330
747D
100
AcDbEntity
  8
部品1
 48
50.0
100
AcDbLine
 10
7599.249754848108
 20
2515.692730145781
 30
0.0
 11
7615.249754848107
 21
2523.692730145781
 31
0.0
  0
LINE
  5
260D6
330
747D
100
AcDbEntity
  8
部品1
 48
50.0
100
AcDbLine
 10
7599.249754848108
 20
2483.692730145781
 30
0.0
 11
7599.249754848108
 21
2515.692730145781
 31
0.0
  0
LINE
  5
260D7
330
747D
100
AcDbEntity
  8
部品1
 48
50.0
100
AcDbLine
 10
7615.249754848107
 20
2523.692730145781
 30
0.0
 11
7647.249754848108
 21
2523.692730145781
 31
0.0
  0
ELLIPSE
  5
260D8
330
747D
100
AcDbEntity
  8
細線
 48
50.0
100
AcDbEllipse
 10
7631.249754848107
 20
2515.692730145781
 30
0.0
 11
14.76670786606846
 21
0.0
 31
0.0
210
0.0
220
0.0
230
1.0
 40
0.2071254069489396
 41
0.0
 42
6.283185307179586
  0
LINE
  5
260D9
330
747D
100
AcDbEntity
  8
部品1
 48
50.0
100
AcDbLine
 10
7615.249754848107
 20
2475.692730145781
 30
0.0
 11
7647.249754848108
 21
2475.692730145781
 31
0.0
  0
LINE
  5
260DA
330
747D
100
AcDbEntity
  8
部品1
 48
50.0
100
AcDbLine
 10
7647.249754848108
 20
2475.692730145781
 30
0.0
 11
7663.249754848108
 21
2483.692730145781
 31
0.0
  0
LINE
  5
260DB
330
747D
100
AcDbEntity
  8
部品1
 48
50.0
100
AcDbLine
 10
7615.249754848107
 20
2507.692730145781
 30
0.0
 11
7647.249754848108
 21
2507.692730145781
 31
0.0
  0
LINE
  5
260DC
330
747D
100
AcDbEntity
  8
部品1
 48
50.0
100
AcDbLine
 10
7647.249754848108
 20
2507.692730145781
 30
0.0
 11
7663.249754848108
 21
2515.692730145781
 31
0.0
  0
LINE
  5
260DD
330
747D
100
AcDbEntity
  8
細線
 48
50.0
100
AcDbLine
 10
7647.249754848108
 20
2475.692730145781
 30
0.0
 11
7647.249754848108
 21
2507.692730145781
 31
0.0
  0
LINE
  5
260DE
330
747D
100
AcDbEntity
  8
部品1
 48
50.0
100
AcDbLine
 10
7663.249754848108
 20
2483.692730145781
 30
0.0
 11
7663.249754848108
 21
2515.692730145781
 31
0.0
  0
LINE
  5
260DF
330
747D
100
AcDbEntity
  8
細線
 48
50.0
100
AcDbLine
 10
7615.249754848107
 20
2475.692730145781
 30
0.0
 11
7615.249754848107
 21
2507.692730145781
 31
0.0
  0
LINE
  5
260E0
330
747D
100
AcDbEntity
  8
部品1
 48
50.0
100
AcDbLine
 10
7647.249754848108
 20
2523.692730145781
 30
0.0
 11
7663.249754848108
 21
2515.692730145781
 31
0.0
  0
TEXT
  5
260E1
330
747D
100
AcDbEntity
  8
部品1
100
AcDbText
 10
7332.022004040038
 20
3266.237136862056
 30
0.0
 40
120.0
  1
基礎詳細
  7
STYLE2
100
AcDbText
  0
LINE
  5
260E2
330
747D
100
AcDbEntity
  8
部品1
100
AcDbLine
 10
10710.12718824789
 20
481.482099228836
 30
0.0
 11
10710.1271882479
 21
3445.789068813483
 31
0.0
  0
LINE
  5
260E3
330
747D
100
AcDbEntity
  8
細線
100
AcDbLine
 10
9718.019020827652
 20
1884.817449036638
 30
0.0
 11
9523.385687150865
 21
2079.450782713421
 31
0.0
  0
LINE
  5
260E4
330
747D
100
AcDbEntity
  8
部品1
100
AcDbLine
 10
9523.385687150865
 20
2124.817449036638
 30
0.0
 11
10003.38568715086
 21
2124.817449036638
 31
0.0
  0
LINE
  5
260E5
330
747D
100
AcDbEntity
  8
細線
 48
50.0
100
AcDbLine
 10
9657.456571594124
 20
1665.118533383288
 30
0.0
 11
9691.754068225309
 21
1793.118533383287
 31
0.0
  0
LINE
  5
260E6
330
747D
100
AcDbEntity
  8
部品1
100
AcDbLine
 10
9403.385687150864
 20
1665.118533383284
 30
0.0
 11
10123.38568715086
 21
1665.118533383288
 31
0.0
  0
LINE
  5
260E7
330
747D
100
AcDbEntity
  8
部品1
100
AcDbLine
 10
9403.385687150864
 20
1793.118533383288
 30
0.0
 11
10123.38568715086
 21
1793.118533383291
 31
0.0
  0
LINE
  5
260E8
330
747D
100
AcDbEntity
  8
細線
100
AcDbLine
 10
9584.304332644107
 20
1793.118533383288
 30
0.0
 11
9676.003248297455
 21
1884.817449036638
 31
0.0
  0
LWPOLYLINE
  5
260E9
330
747D
100
AcDbEntity
  8
部品1
 48
50.0
100
AcDbPolyline
 90
        2
 70
     0
 43
12.0
 10
9138.774425050476
 20
1884.817449036638
 10
10339.8667281821
 20
1884.817449036638
  0
LINE
  5
260EA
330
747D
100
AcDbEntity
  8
細線
100
AcDbLine
 10
9667.107332582219
 20
1884.817449036638
 30
0.0
 11
9523.385687150865
 21
2028.539094467991
 31
0.0
  0
TEXT
  5
260EB
330
747D
100
AcDbEntity
  8
部品1
 48
50.0
100
AcDbText
 10
8759.267600392362
 20
1618.017708399329
 30
0.0
 40
80.0
  1
ボルトの出
 50
90.0
  7
STYLE2
100
AcDbText
  0
LINE
  5
260EC
330
747D
100
AcDbEntity
  8
部品1
100
AcDbLine
 10
9523.385687150865
 20
1884.817449036638
 30
0.0
 11
9523.385687150865
 21
2124.817449036638
 31
0.0
  0
LINE
  5
260ED
330
747D
100
AcDbEntity
  8
細線
 48
50.0
100
AcDbLine
 10
9499.680481699625
 20
1665.118533383287
 30
0.0
 11
9533.977978330808
 21
1793.118533383287
 31
0.0
  0
LINE
  5
260EE
330
747D
100
AcDbEntity
  8
細線
 48
50.0
100
AcDbLine
 10
9578.568526646876
 20
1665.118533383288
 30
0.0
 11
9612.86602327806
 21
1793.118533383288
 31
0.0
  0
LINE
  5
260EF
330
747D
100
AcDbEntity
  8
細線
 48
50.0
100
AcDbLine
 10
9420.792436752376
 20
1665.118533383288
 30
0.0
 11
9455.089933383563
 21
1793.118533383288
 31
0.0
  0
LINE
  5
260F0
330
747D
100
AcDbEntity
  8
部品1
100
AcDbLine
 10
9403.385687150864
 20
1665.118533383284
 30
0.0
 11
9403.385687150864
 21
1884.817449036638
 31
0.0
  0
LINE
  5
260F1
330
747D
100
AcDbEntity
  8
細線
 48
50.0
100
AcDbLine
 10
9506.111262317977
 20
1689.118533383288
 30
0.0
 11
9512.542042936326
 21
1665.118533383288
 31
0.0
  0
LINE
  5
260F2
330
747D
100
AcDbEntity
  8
細線
 48
50.0
100
AcDbLine
 10
9427.223217370727
 20
1689.118533383288
 30
0.0
 11
9433.653997989074
 21
1665.118533383288
 31
0.0
  0
LINE
  5
260F3
330
747D
100
AcDbEntity
  8
細線
 48
50.0
100
AcDbLine
 10
9584.999307265229
 20
1689.118533383288
 30
0.0
 11
9591.430087883574
 21
1665.118533383288
 31
0.0
  0
LINE
  5
260F4
330
747D
100
AcDbEntity
  8
細線
 48
50.0
100
AcDbLine
 10
9663.887352212475
 20
1689.118533383288
 30
0.0
 11
9670.318132830823
 21
1665.118533383288
 31
0.0
  0
LINE
  5
260F5
330
747D
100
AcDbEntity
  8
細線
 48
50.0
100
AcDbLine
 10
9448.659152765216
 20
1769.118533383288
 30
0.0
 11
9442.228372146868
 21
1793.118533383288
 31
0.0
  0
LINE
  5
260F6
330
747D
100
AcDbEntity
  8
細線
 48
50.0
100
AcDbLine
 10
9606.435242659719
 20
1769.118533383288
 30
0.0
 11
9600.004462041372
 21
1793.118533383288
 31
0.0
  0
LINE
  5
260F7
330
747D
100
AcDbEntity
  8
細線
 48
50.0
100
AcDbLine
 10
9527.547197712465
 20
1769.118533383288
 30
0.0
 11
9521.116417094118
 21
1793.118533383288
 31
0.0
  0
LINE
  5
260F8
330
747D
100
AcDbEntity
  8
細線
100
AcDbLine
 10
9516.422081650196
 20
1793.118533383288
 30
0.0
 11
9608.120997303544
 21
1884.817449036638
 31
0.0
  0
LINE
  5
260F9
330
747D
100
AcDbEntity
  8
細線
100
AcDbLine
 10
9550.363207147151
 20
1793.118533383288
 30
0.0
 11
9642.062122800496
 21
1884.817449036638
 31
0.0
  0
LINE
  5
260FA
330
747D
100
AcDbEntity
  8
細線
100
AcDbLine
 10
9938.636336557856
 20
1884.817449036638
 30
0.0
 11
9698.636336557854
 21
2124.817449036638
 31
0.0
  0
LINE
  5
260FB
330
747D
100
AcDbEntity
  8
細線
100
AcDbLine
 10
9989.548024803283
 20
1884.81744903664
 30
0.0
 11
9749.548024803289
 21
2124.817449036638
 31
0.0
  0
LINE
  5
260FC
330
747D
100
AcDbEntity
  8
部品1
100
AcDbLine
 10
10003.38568715086
 20
2124.817449036638
 30
0.0
 11
10003.38568715086
 21
1884.817449036638
 31
0.0
  0
LINE
  5
260FD
330
747D
100
AcDbEntity
  8
細線
 48
50.0
100
AcDbLine
 10
9973.008751383114
 20
1665.118533383285
 30
0.0
 11
10007.3062480143
 21
1793.118533383285
 31
0.0
  0
LINE
  5
260FE
330
747D
100
AcDbEntity
  8
細線
100
AcDbLine
 10
9944.304332644108
 20
1793.11853338329
 30
0.0
 11
10036.00324829745
 21
1884.817449036638
 31
0.0
  0
LINE
  5
260FF
330
747D
100
AcDbEntity
  8
細線
 48
50.0
100
AcDbLine
 10
9894.120706435865
 20
1665.118533383287
 30
0.0
 11
9928.418203067039
 21
1793.118533383288
 31
0.0
  0
LINE
  5
26100
330
747D
100
AcDbEntity
  8
細線
 48
50.0
100
AcDbLine
 10
9736.344616541373
 20
1665.118533383287
 30
0.0
 11
9770.642113172556
 21
1793.118533383287
 31
0.0
  0
LINE
  5
26101
330
747D
100
AcDbEntity
  8
細線
 48
50.0
100
AcDbLine
 10
9815.232661488614
 20
1665.118533383288
 30
0.0
 11
9849.530158119801
 21
1793.118533383287
 31
0.0
  0
LINE
  5
26102
330
747D
100
AcDbEntity
  8
細線
 48
50.0
100
AcDbLine
 10
9821.663442106968
 20
1689.118533383288
 30
0.0
 11
9828.094222725315
 21
1665.118533383288
 31
0.0
  0
LINE
  5
26103
330
747D
100
AcDbEntity
  8
細線
 48
50.0
100
AcDbLine
 10
9742.775397159723
 20
1689.118533383288
 30
0.0
 11
9749.20617777807
 21
1665.118533383288
 31
0.0
  0
LINE
  5
26104
330
747D
100
AcDbEntity
  8
細線
 48
50.0
100
AcDbLine
 10
9900.551487054215
 20
1689.118533383288
 30
0.0
 11
9906.982267672571
 21
1665.118533383288
 31
0.0
  0
LINE
  5
26105
330
747D
100
AcDbEntity
  8
細線
 48
50.0
100
AcDbLine
 10
9979.439532001464
 20
1689.118533383287
 30
0.0
 11
9985.870312619809
 21
1665.118533383287
 31
0.0
  0
LINE
  5
26106
330
747D
100
AcDbEntity
  8
細線
 48
50.0
100
AcDbLine
 10
9843.099377501459
 20
1769.118533383288
 30
0.0
 11
9836.668596883113
 21
1793.118533383288
 31
0.0
  0
LINE
  5
26107
330
747D
100
AcDbEntity
  8
細線
 48
50.0
100
AcDbLine
 10
9764.211332554213
 20
1769.118533383288
 30
0.0
 11
9757.780551935866
 21
1793.118533383288
 31
0.0
  0
LINE
  5
26108
330
747D
100
AcDbEntity
  8
細線
 48
50.0
100
AcDbLine
 10
9685.323287606964
 20
1769.118533383288
 30
0.0
 11
9678.892506988617
 21
1793.118533383288
 31
0.0
  0
LINE
  5
26109
330
747D
100
AcDbEntity
  8
細線
100
AcDbLine
 10
9910.363207147156
 20
1793.11853338329
 30
0.0
 11
10002.06212280049
 21
1884.817449036638
 31
0.0
  0
LINE
  5
2610A
330
747D
100
AcDbEntity
  8
細線
 48
50.0
100
AcDbLine
 10
9921.987422448696
 20
1769.118533383288
 30
0.0
 11
9915.556641830349
 21
1793.118533383288
 31
0.0
  0
LINE
  5
2610B
330
747D
100
AcDbEntity
  8
細線
100
AcDbLine
 10
9876.422081650199
 20
1793.11853338329
 30
0.0
 11
9968.120997303543
 21
1884.817449036638
 31
0.0
  0
LINE
  5
2610C
330
747D
100
AcDbEntity
  8
細線
 48
50.0
100
AcDbLine
 10
10000.87546739595
 20
1769.118533383287
 30
0.0
 11
9994.444686777606
 21
1793.118533383287
 31
0.0
  0
LINE
  5
2610D
330
747D
100
AcDbEntity
  8
細線
 48
50.0
100
AcDbLine
 10
10051.89679633036
 20
1665.118533383287
 30
0.0
 11
10086.19429296154
 21
1793.118533383285
 31
0.0
  0
LINE
  5
2610E
330
747D
100
AcDbEntity
  8
部品1
100
AcDbLine
 10
10123.38568715086
 20
1884.817449036638
 30
0.0
 11
10123.38568715087
 21
1665.118533383288
 31
0.0
  0
LINE
  5
2610F
330
747D
100
AcDbEntity
  8
細線
 48
50.0
100
AcDbLine
 10
10058.32757694871
 20
1689.118533383287
 30
0.0
 11
10064.75835756706
 21
1665.118533383287
 31
0.0
  0
LINE
  5
26110
330
747D
100
AcDbEntity
  8
細線
 48
50.0
100
AcDbLine
 10
10079.7635123432
 20
1769.118533383287
 30
0.0
 11
10073.33273172485
 21
1793.118533383287
 31
0.0
  0
LEADER
  5
26111
330
747D
100
AcDbEntity
  8
寸法
 48
50.0
100
AcDbLeader
  3
INABA_S50G
 73
     0
 74
     0
 75
     1
 40
120.0
 41
185.591883092037
 76
     3
 10
9934.110098766788
 20
2124.817449036638
 30
0.0
 10
9967.248305400433
 20
2296.963769717776
 30
0.0
 10
10092.24830540043
 20
2296.963769717776
 30
0.0
340
26112
1001
ACAD
1000
DSTYLE
1002
{
1070
    40
1040
1.0
1002
}
  0
MTEXT
  5
26112
102
{ACAD_REACTORS
330
26111
102
}
330
747D
100
AcDbEntity
  8
寸法
 62
     7
 48
50.0
100
AcDbMText
 10
10117.24830540043
 20
2381.963769717776
 30
0.0
 40
120.0
 41
0.8
 71
     4
 72
     1
  1
\A1;C.B
  7
STYLE1
 73
     1
 44
1.0
1001
ACAD
1000
MTEXTBEGIN
1070
    73
1070
     1
1070
    44
1040
1.0
1070
    74
1070
     0
1000
MTEXTEND
  0
ENDSEC
  0
SECTION
  2
OBJECTS
  0
DICTIONARY
  5
7471
330
0
100
AcDbDictionary
281
     1
  3
ACAD_COLOR
350
173D2
  3
ACAD_GROUP
350
7472
  3
ACAD_LAYOUT
350
173D3
  3
ACAD_MATERIAL
350
173D1
  3
ACAD_MLINESTYLE
350
7473
  3
ACAD_PLOTSETTINGS
350
173D4
  3
ACAD_PLOTSTYLENAME
350
173CF
  3
ACDBHEADERROUNDTRIPXREC
350
261B4
  3
AcDbVariableDictionary
350
261B0
  3
CONTENTDICTIONARY
350
E71C
  3
DRAWINGVARIABLESDICT
350
F3B9
  0
DICTIONARY
  5
1758F
330
7467
100
AcDbDictionary
280
     1
281
     1
  3
ACAD_LAYERSTATES
360
17590
  0
DICTIONARY
  5
173D2
102
{ACAD_REACTORS
330
7471
102
}
330
7471
100
AcDbDictionary
281
     1
  0
DICTIONARY
  5
7472
102
{ACAD_REACTORS
330
7471
102
}
330
7471
100
AcDbDictionary
281
     1
  3
*A1
350
1D2A9
  0
DICTIONARY
  5
173D3
102
{ACAD_REACTORS
330
7471
102
}
330
7471
100
AcDbDictionary
281
     1
  3
Model
350
173D5
  3
レイアウト1
350
173D6
  0
DICTIONARY
  5
173D1
102
{ACAD_REACTORS
330
7471
102
}
330
7471
100
AcDbDictionary
281
     1
  0
DICTIONARY
  5
7473
102
{ACAD_REACTORS
330
7471
102
}
330
7471
100
AcDbDictionary
281
     1
  3
STANDARD
350
7480
  0
DICTIONARY
  5
173D4
102
{ACAD_REACTORS
330
7471
102
}
330
7471
100
AcDbDictionary
281
     1
  0
ACDBDICTIONARYWDFLT
  5
173CF
102
{ACAD_REACTORS
330
7471
102
}
330
7471
100
AcDbDictionary
281
     1
  3
Normal
350
173D0
100
AcDbDictionaryWithDefault
340
173D0
  0
DICTIONARY
  5
261B4
102
{ACAD_REACTORS
330
7471
102
}
330
7471
100
AcDbDictionary
281
     1
  3
COLORDICT
350
261B6
  3
MATERIALDICT
350
261B5
  0
DICTIONARY
  5
261B0
102
{ACAD_REACTORS
330
7471
102
}
330
7471
100
AcDbDictionary
281
     1
  3
DIMASSOC
350
261B1
  3
PROJECTNAME
350
261B2
  0
DICTIONARY
  5
E71C
102
{ACAD_REACTORS
330
7471
102
}
330
7471
100
AcDbDictionary
281
     1
  0
DICTIONARY
  5
F3B9
102
{ACAD_REACTORS
330
7471
102
}
330
7471
100
AcDbDictionary
281
     1
1001
DRAWINGVARIABLESXDATA
1000
POLARMODE
1000
1
  0
DICTIONARY
  5
17590
102
{ACAD_REACTORS
330
1758F
102
}
330
1758F
100
AcDbDictionary
281
     1
  0
GROUP
  5
1D2A9
102
{ACAD_REACTORS
330
7472
102
}
330
7472
100
AcDbGroup
300

 70
     1
 71
     1
  0
LAYOUT
  5
173D5
102
{ACAD_XDICTIONARY
360
261B7
102
}
102
{ACAD_REACTORS
330
173D3
102
}
330
173D3
100
AcDbPlotSettings
  1

  2
Microsoft Office Document Image Writer
  4

  6

 40
0.0
 41
0.0
 42
0.0
 43
0.0
 44
0.0
 45
0.0
 46
0.0
 47
0.0
 48
0.0
 49
0.0
140
0.0
141
0.0
142
1.0
143
1.0
 70
  1712
 72
     0
 73
     0
 74
     0
  7

 75
     0
147
1.0
148
0.0
149
0.0
100
AcDbLayout
  1
Model
 70
     1
 71
     0
 10
0.0
 20
0.0
 11
12.0
 21
9.0
 12
0.0
 22
0.0
 32
0.0
 14
0.0
 24
0.0
 34
0.0
 15
0.0
 25
0.0
 35
0.0
146
0.0
 13
0.0
 23
0.0
 33
0.0
 16
1.0
 26
0.0
 36
0.0
 17
0.0
 27
1.0
 37
0.0
 76
     0
330
747D
  0
LAYOUT
  5
173D6
102
{ACAD_XDICTIONARY
360
261B9
102
}
102
{ACAD_REACTORS
330
173D3
102
}
330
173D3
100
AcDbPlotSettings
  1

  2
Microsoft Office Document Image Writer
  4

  6

 40
0.0
 41
0.0
 42
0.0
 43
0.0
 44
0.0
 45
0.0
 46
0.0
 47
0.0
 48
0.0
 49
0.0
140
0.0
141
0.0
142
1.0
143
1.0
 70
   688
 72
     0
 73
     0
 74
     5
  7

 75
    16
147
1.0
148
0.0
149
0.0
100
AcDbLayout
  1
レイアウト1
 70
     0
 71
     1
 10
0.0
 20
0.0
 11
420.0
 21
297.0
 12
0.0
 22
0.0
 32
0.0
 14
1.000000000000000E+20
 24
1.000000000000000E+20
 34
1.000000000000000E+20
 15
-1.000000000000000E+20
 25
-1.000000000000000E+20
 35
-1.000000000000000E+20
146
0.0
 13
0.0
 23
0.0
 33
0.0
 16
1.0
 26
0.0
 36
0.0
 17
0.0
 27
1.0
 37
0.0
 76
     0
330
747A
  0
MLINESTYLE
  5
7480
102
{ACAD_REACTORS
330
7473
102
}
330
7473
100
AcDbMlineStyle
  2
STANDARD
 70
     0
  3

 62
     0
 51
90.0
 52
90.0
 71
     2
 49
0.5
 62
   256
  6
BYLAYER
 49
-0.5
 62
   256
  6
BYLAYER
  0
ACDBPLACEHOLDER
  5
173D0
102
{ACAD_REACTORS
330
173CF
102
}
330
173CF
  0
XRECORD
  5
261B6
102
{ACAD_REACTORS
330
261B4
102
}
330
261B4
100
AcDbXrecord
280
     1
340
173D2
  0
XRECORD
  5
261B5
102
{ACAD_REACTORS
330
261B4
102
}
330
261B4
100
AcDbXrecord
280
     1
340
173D1
  0
DICTIONARYVAR
  5
261B1
102
{ACAD_REACTORS
330
261B0
102
}
330
261B0
100
DictionaryVariables
280
     0
  1
1
  0
DICTIONARYVAR
  5
261B2
102
{ACAD_REACTORS
330
261B0
102
}
330
261B0
100
DictionaryVariables
280
     0
  1

  0
DICTIONARY
  5
261B7
330
173D5
100
AcDbDictionary
280
     1
281
     1
  3
ACAD_XREC_ROUNDTRIP
360
261B8
  0
DICTIONARY
  5
261B9
330
173D6
100
AcDbDictionary
280
     1
281
     1
  3
ACAD_XREC_ROUNDTRIP
360
261BA
  0
XRECORD
  5
261B8
102
{ACAD_REACTORS
330
261B7
102
}
330
261B7
100
AcDbXrecord
280
     1
102
SHADEPLOT
 70
     0
102
SHADEPLOTRESLEVEL
 70
     2
102
SHADEPLOTCUSTOMDPI
 70
   300
  0
XRECORD
  5
261BA
102
{ACAD_REACTORS
330
261B9
102
}
330
261B9
100
AcDbXrecord
280
     1
102
SHADEPLOT
 70
     0
102
SHADEPLOTRESLEVEL
 70
     2
102
SHADEPLOTCUSTOMDPI
 70
   300
  0
ENDSEC
  0
EOF
