  0
SECTION
  2
HEADER
  9
$ACADVER
  1
AC1015
  9
$ACADMAINTVER
 70
    20
  9
$DWGCODEPAGE
  3
ANSI_932
  9
$INSBASE
 10
0.0
 20
0.0
 30
0.0
  9
$EXTMIN
 10
139.9999999999995
 20
-0.0000000000000909
 30
0.0
  9
$EXTMAX
 10
16307.2
 20
11409.6
 30
0.0
  9
$LIMMIN
 10
0.0
 20
0.0
  9
$LIMMAX
 10
16800.0
 20
11880.0
  9
$ORTHOMODE
 70
     0
  9
$REGENMODE
 70
     1
  9
$FILLMODE
 70
     1
  9
$QTEXTMODE
 70
     0
  9
$MIRRTEXT
 70
     1
  9
$LTSCALE
 40
20.0
  9
$ATTMODE
 70
     1
  9
$TEXTSIZE
 40
4.0
  9
$TRACEWID
 40
1.0
  9
$TEXTSTYLE
  7
STYLE1
  9
$CLAYER
  8
寸法
  9
$CELTYPE
  6
BYLAYER
  9
$CECOLOR
 62
   256
  9
$CELTSCALE
 40
50.0
  9
$DISPSILH
 70
     0
  9
$DIMSCALE
 40
40.0
  9
$DIMASZ
 40
2.5
  9
$DIMEXO
 40
0.5
  9
$DIMDLI
 40
7.0
  9
$DIMRND
 40
0.0
  9
$DIMDLE
 40
0.0
  9
$DIMEXE
 40
1.5
  9
$DIMTP
 40
0.0
  9
$DIMTM
 40
0.0
  9
$DIMTXT
 40
3.0
  9
$DIMCEN
 40
0.0
  9
$DIMTSZ
 40
0.0
  9
$DIMTOL
 70
     0
  9
$DIMLIM
 70
     0
  9
$DIMTIH
 70
     0
  9
$DIMTOH
 70
     0
  9
$DIMSE1
 70
     0
  9
$DIMSE2
 70
     0
  9
$DIMTAD
 70
     3
  9
$DIMZIN
 70
     8
  9
$DIMBLK
  1

  9
$DIMASO
 70
     1
  9
$DIMSHO
 70
     1
  9
$DIMPOST
  1

  9
$DIMAPOST
  1

  9
$DIMALT
 70
     0
  9
$DIMALTD
 70
     2
  9
$DIMALTF
 40
0.0394
  9
$DIMLFAC
 40
1.0
  9
$DIMTOFL
 70
     1
  9
$DIMTVP
 40
0.0
  9
$DIMTIX
 70
     1
  9
$DIMSOXD
 70
     0
  9
$DIMSAH
 70
     1
  9
$DIMBLK1
  1
DOTSMALL
  9
$DIMBLK2
  1
DOTSMALL
  9
$DIMSTYLE
  2
INABA_S40G
  9
$DIMCLRD
 70
     0
  9
$DIMCLRE
 70
     0
  9
$DIMCLRT
 70
     7
  9
$DIMTFAC
 40
1.0
  9
$DIMGAP
 40
1.0
  9
$DIMJUST
 70
     0
  9
$DIMSD1
 70
     0
  9
$DIMSD2
 70
     0
  9
$DIMTOLJ
 70
     1
  9
$DIMTZIN
 70
     0
  9
$DIMALTZ
 70
     0
  9
$DIMALTTZ
 70
     0
  9
$DIMUPT
 70
     0
  9
$DIMDEC
 70
     1
  9
$DIMTDEC
 70
     4
  9
$DIMALTU
 70
     2
  9
$DIMALTTD
 70
     2
  9
$DIMTXSTY
  7
STYLE1
  9
$DIMAUNIT
 70
     0
  9
$DIMADEC
 70
     0
  9
$DIMALTRND
 40
0.0
  9
$DIMAZIN
 70
     0
  9
$DIMDSEP
 70
    46
  9
$DIMATFIT
 70
     3
  9
$DIMFRAC
 70
     0
  9
$DIMLDRBLK
  1

  9
$DIMLUNIT
 70
     2
  9
$DIMLWD
 70
    -2
  9
$DIMLWE
 70
    -2
  9
$DIMTMOVE
 70
     0
  9
$LUNITS
 70
     2
  9
$LUPREC
 70
     1
  9
$SKETCHINC
 40
1.0
  9
$FILLETRAD
 40
3.0
  9
$AUNITS
 70
     0
  9
$AUPREC
 70
     0
  9
$MENU
  1
acad
  9
$ELEVATION
 40
0.0
  9
$PELEVATION
 40
0.0
  9
$THICKNESS
 40
0.0
  9
$LIMCHECK
 70
     0
  9
$CHAMFERA
 40
0.0
  9
$CHAMFERB
 40
0.0
  9
$CHAMFERC
 40
0.0
  9
$CHAMFERD
 40
0.0
  9
$SKPOLY
 70
     0
  9
$TDCREATE
 40
2451368.612993866
  9
$TDUCREATE
 40
2451368.237993866
  9
$TDUPDATE
 40
2455827.788015903
  9
$TDUUPDATE
 40
2455827.413015903
  9
$TDINDWG
 40
0.7085241319
  9
$TDUSRTIMER
 40
0.7085241319
  9
$USRTIMER
 70
     1
  9
$ANGBASE
 50
0.0
  9
$ANGDIR
 70
     0
  9
$PDMODE
 70
     3
  9
$PDSIZE
 40
2.0
  9
$PLINEWID
 40
0.0
  9
$SPLFRAME
 70
     0
  9
$SPLINETYPE
 70
     6
  9
$SPLINESEGS
 70
     8
  9
$HANDSEED
  5
1E6C2
  9
$SURFTAB1
 70
     6
  9
$SURFTAB2
 70
     6
  9
$SURFTYPE
 70
     6
  9
$SURFU
 70
     6
  9
$SURFV
 70
     6
  9
$UCSBASE
  2

  9
$UCSNAME
  2

  9
$UCSORG
 10
0.0
 20
0.0
 30
0.0
  9
$UCSXDIR
 10
1.0
 20
0.0
 30
0.0
  9
$UCSYDIR
 10
0.0
 20
1.0
 30
0.0
  9
$UCSORTHOREF
  2

  9
$UCSORTHOVIEW
 70
     0
  9
$UCSORGTOP
 10
0.0
 20
0.0
 30
0.0
  9
$UCSORGBOTTOM
 10
0.0
 20
0.0
 30
0.0
  9
$UCSORGLEFT
 10
0.0
 20
0.0
 30
0.0
  9
$UCSORGRIGHT
 10
0.0
 20
0.0
 30
0.0
  9
$UCSORGFRONT
 10
0.0
 20
0.0
 30
0.0
  9
$UCSORGBACK
 10
0.0
 20
0.0
 30
0.0
  9
$PUCSBASE
  2

  9
$PUCSNAME
  2

  9
$PUCSORG
 10
0.0
 20
0.0
 30
0.0
  9
$PUCSXDIR
 10
1.0
 20
0.0
 30
0.0
  9
$PUCSYDIR
 10
0.0
 20
1.0
 30
0.0
  9
$PUCSORTHOREF
  2

  9
$PUCSORTHOVIEW
 70
     0
  9
$PUCSORGTOP
 10
0.0
 20
0.0
 30
0.0
  9
$PUCSORGBOTTOM
 10
0.0
 20
0.0
 30
0.0
  9
$PUCSORGLEFT
 10
0.0
 20
0.0
 30
0.0
  9
$PUCSORGRIGHT
 10
0.0
 20
0.0
 30
0.0
  9
$PUCSORGFRONT
 10
0.0
 20
0.0
 30
0.0
  9
$PUCSORGBACK
 10
0.0
 20
0.0
 30
0.0
  9
$USERI1
 70
     0
  9
$USERI2
 70
     0
  9
$USERI3
 70
     0
  9
$USERI4
 70
     0
  9
$USERI5
 70
     0
  9
$USERR1
 40
0.0
  9
$USERR2
 40
0.0
  9
$USERR3
 40
0.0
  9
$USERR4
 40
0.0
  9
$USERR5
 40
0.0
  9
$WORLDVIEW
 70
     1
  9
$SHADEDGE
 70
     3
  9
$SHADEDIF
 70
    70
  9
$TILEMODE
 70
     1
  9
$MAXACTVP
 70
    16
  9
$PINSBASE
 10
0.0
 20
0.0
 30
0.0
  9
$PLIMCHECK
 70
     0
  9
$PEXTMIN
 10
1.000000000000000E+20
 20
1.000000000000000E+20
 30
1.000000000000000E+20
  9
$PEXTMAX
 10
-1.000000000000000E+20
 20
-1.000000000000000E+20
 30
-1.000000000000000E+20
  9
$PLIMMIN
 10
0.0
 20
0.0
  9
$PLIMMAX
 10
420.0
 20
297.0
  9
$UNITMODE
 70
     0
  9
$VISRETAIN
 70
     0
  9
$PLINEGEN
 70
     0
  9
$PSLTSCALE
 70
     0
  9
$TREEDEPTH
 70
  3020
  9
$CMLSTYLE
  2
STANDARD
  9
$CMLJUST
 70
     0
  9
$CMLSCALE
 40
1.0
  9
$PROXYGRAPHICS
 70
     1
  9
$MEASUREMENT
 70
     1
  9
$CELWEIGHT
370
    -1
  9
$ENDCAPS
280
     0
  9
$JOINSTYLE
280
     0
  9
$LWDISPLAY
290
     0
  9
$INSUNITS
 70
     0
  9
$HYPERLINKBASE
  1

  9
$STYLESHEET
  1
inaba.ctb
  9
$XEDIT
290
     1
  9
$CEPSNTYPE
380
     0
  9
$PSTYLEMODE
290
     1
  9
$FINGERPRINTGUID
  2
{5EAC461A-2277-4BF8-9AB0-99C43BB394F0}
  9
$VERSIONGUID
  2
{6019A779-9F32-47B6-A05A-6D4D9B8E9EBA}
  9
$EXTNAMES
290
     1
  9
$PSVPSCALE
 40
0.0
  9
$OLESTARTUP
290
     0
  0
ENDSEC
  0
SECTION
  2
CLASSES
  0
CLASS
  1
ACDBDICTIONARYWDFLT
  2
AcDbDictionaryWithDefault
  3
ObjectDBX Classes
 90
        0
280
     0
281
     0
  0
CLASS
  1
DICTIONARYVAR
  2
AcDbDictionaryVar
  3
ObjectDBX Classes
 90
        0
280
     0
281
     0
  0
CLASS
  1
ACDBPLACEHOLDER
  2
AcDbPlaceHolder
  3
ObjectDBX Classes
 90
        0
280
     0
281
     0
  0
CLASS
  1
LAYOUT
  2
AcDbLayout
  3
ObjectDBX Classes
 90
        0
280
     0
281
     0
  0
ENDSEC
  0
SECTION
  2
TABLES
  0
TABLE
  2
VPORT
  5
746D
330
0
100
AcDbSymbolTable
 70
     2
  0
VPORT
  5
1E6BA
330
746D
100
AcDbSymbolTableRecord
100
AcDbViewportTableRecord
  2
*Active
 70
     0
 10
0.0
 20
0.0
 11
1.0
 21
1.0
 12
8223.761025238502
 22
5704.608037261908
 13
0.0
 23
0.0
 14
10.0
 24
10.0
 15
10.0
 25
10.0
 16
0.0
 26
0.0
 36
1.0
 17
0.0
 27
0.0
 37
0.0
 40
11495.60305318721
 41
1.522222222222222
 42
50.0
 43
0.0
 44
0.0
 50
0.0
 51
0.0
 71
     0
 72
     0
 73
     1
 74
     0
 75
     0
 76
     0
 77
     0
 78
     0
281
     0
 65
     1
110
0.0
120
0.0
130
0.0
111
1.0
121
0.0
131
0.0
112
0.0
122
1.0
132
0.0
 79
     0
146
0.0
  0
ENDTAB
  0
TABLE
  2
LTYPE
  5
746A
330
0
100
AcDbSymbolTable
 70
     3
  0
LTYPE
  5
7477
330
746A
100
AcDbSymbolTableRecord
100
AcDbLinetypeTableRecord
  2
BYBLOCK
 70
     0
  3

 72
    65
 73
     0
 40
0.0
  0
LTYPE
  5
7478
330
746A
100
AcDbSymbolTableRecord
100
AcDbLinetypeTableRecord
  2
BYLAYER
 70
     0
  3

 72
    65
 73
     0
 40
0.0
  0
LTYPE
  5
7479
330
746A
100
AcDbSymbolTableRecord
100
AcDbLinetypeTableRecord
  2
CONTINUOUS
 70
     0
  3
Solid line
 72
    65
 73
     0
 40
0.0
  0
LTYPE
  5
7816
330
746A
100
AcDbSymbolTableRecord
100
AcDbLinetypeTableRecord
  2
CENTER
 70
     0
  3
____ _ ____ _ ____ _ ____ _ ____ _ ____ _ ____ 
 72
    65
 73
     4
 40
2.0
 49
1.25
 74
     0
 49
-0.25
 74
     0
 49
0.25
 74
     0
 49
-0.25
 74
     0
  0
LTYPE
  5
781B
330
746A
100
AcDbSymbolTableRecord
100
AcDbLinetypeTableRecord
  2
PHANTOM
 70
     0
  3
______  __  __  ______  __  __  ______  __  __ 
 72
    65
 73
     6
 40
2.5
 49
1.25
 74
     0
 49
-0.25
 74
     0
 49
0.25
 74
     0
 49
-0.25
 74
     0
 49
0.25
 74
     0
 49
-0.25
 74
     0
  0
ENDTAB
  0
TABLE
  2
LAYER
  5
7467
102
{ACAD_XDICTIONARY
360
1758F
102
}
330
0
100
AcDbSymbolTable
 70
    10
  0
LAYER
  5
7474
330
7467
100
AcDbSymbolTableRecord
100
AcDbLayerTableRecord
  2
0
 70
     0
 62
     7
  6
CONTINUOUS
370
    -3
390
173D0
  0
LAYER
  5
DEB2
330
7467
100
AcDbSymbolTableRecord
100
AcDbLayerTableRecord
  2
センター
 70
     0
 62
     3
  6
CENTER
370
    -3
390
173D0
  0
LAYER
  5
DEB3
330
7467
100
AcDbSymbolTableRecord
100
AcDbLayerTableRecord
  2
寸法
 70
     0
 62
     4
  6
CONTINUOUS
370
    -3
390
173D0
  0
LAYER
  5
DEB4
330
7467
100
AcDbSymbolTableRecord
100
AcDbLayerTableRecord
  2
部品1
 70
     0
 62
     7
  6
CONTINUOUS
370
    -3
390
173D0
  0
LAYER
  5
DEB5
330
7467
100
AcDbSymbolTableRecord
100
AcDbLayerTableRecord
  2
補助
 70
     0
 62
    -1
  6
CONTINUOUS
370
    -3
390
173D0
  0
LAYER
  5
DEB6
330
7467
100
AcDbSymbolTableRecord
100
AcDbLayerTableRecord
  2
文字
 70
     0
 62
     7
  6
CONTINUOUS
370
    -3
390
173D0
  0
LAYER
  5
F255
330
7467
100
AcDbSymbolTableRecord
100
AcDbLayerTableRecord
  2
DEFPOINTS
 70
     0
 62
     7
  6
CONTINUOUS
290
     0
370
    -3
390
173D0
  0
LAYER
  5
10B54
330
7467
100
AcDbSymbolTableRecord
100
AcDbLayerTableRecord
  2
仕様書枠
 70
     0
 62
   230
  6
CONTINUOUS
370
    -3
390
173D0
  0
LAYER
  5
1173F
330
7467
100
AcDbSymbolTableRecord
100
AcDbLayerTableRecord
  2
細線
 70
     0
 62
     5
  6
CONTINUOUS
370
    -3
390
173D0
  0
LAYER
  5
12CC4
330
7467
100
AcDbSymbolTableRecord
100
AcDbLayerTableRecord
  2
想像線
 70
     0
 62
     6
  6
PHANTOM
370
    -3
390
173D0
  0
ENDTAB
  0
TABLE
  2
STYLE
  5
7468
330
0
100
AcDbSymbolTable
 70
     4
  0
STYLE
  5
7475
330
7468
100
AcDbSymbolTableRecord
100
AcDbTextStyleTableRecord
  2
STANDARD
 70
     0
 40
0.0
 41
1.0
 50
0.0
 71
     0
 42
4.0
  3
txt
  4
C:\AutoCAD LT\bigfont.shx
  0
STYLE
  5
763C
330
7468
100
AcDbSymbolTableRecord
100
AcDbTextStyleTableRecord
  2
MSMINCHO
 70
     0
 40
0.0
 41
1.0
 50
0.0
 71
     0
 42
1.199999999999999
  3
C:\AutoCAD LT\msminch2.TTF
  4

  0
STYLE
  5
F706
330
7468
100
AcDbSymbolTableRecord
100
AcDbTextStyleTableRecord
  2
STYLE1
 70
     0
 40
0.0
 41
1.0
 50
0.0
 71
     0
 42
4.0
  3
isocp.shx
  4
bigfont.shx
  0
STYLE
  5
103BF
330
7468
100
AcDbSymbolTableRecord
100
AcDbTextStyleTableRecord
  2
STYLE2
 70
     0
 40
0.0
 41
1.0
 50
0.0
 71
     0
 42
100.0
  3
MS PGothic.ttf
  4

1001
ACAD
1000
MS PGothic
1071
    32818
  0
ENDTAB
  0
TABLE
  2
VIEW
  5
746B
330
0
100
AcDbSymbolTable
 70
     0
  0
ENDTAB
  0
TABLE
  2
UCS
  5
746C
330
0
100
AcDbSymbolTable
 70
     0
  0
ENDTAB
  0
TABLE
  2
APPID
  5
746E
330
0
100
AcDbSymbolTable
 70
     6
  0
APPID
  5
7476
330
746E
100
AcDbSymbolTableRecord
100
AcDbRegAppTableRecord
  2
ACAD
 70
     0
  0
APPID
  5
DEA9
330
746E
100
AcDbSymbolTableRecord
100
AcDbRegAppTableRecord
  2
CONTENTBLOCKICON
 70
     0
  0
APPID
  5
DEAA
330
746E
100
AcDbSymbolTableRecord
100
AcDbRegAppTableRecord
  2
CONTENTBLOCKDESCRIPTION
 70
     0
  0
APPID
  5
E71D
330
746E
100
AcDbSymbolTableRecord
100
AcDbRegAppTableRecord
  2
CONTENTTABDATA
 70
     0
  0
APPID
  5
E71E
330
746E
100
AcDbSymbolTableRecord
100
AcDbRegAppTableRecord
  2
CONTENTCURRENTTAB
 70
     0
  0
APPID
  5
F3BA
330
746E
100
AcDbSymbolTableRecord
100
AcDbRegAppTableRecord
  2
DRAWINGVARIABLESXDATA
 70
     0
  0
ENDTAB
  0
TABLE
  2
DIMSTYLE
  5
746F
330
0
100
AcDbSymbolTable
 70
     1
100
AcDbDimStyleTable
 71
     1
340
F71F
  0
DIMSTYLE
105
F71F
102
{ACAD_REACTORS
330
1E3F1
330
1E339
330
1E2E6
330
1E2E3
330
1E2E2
330
1E2DB
330
1E2D9
330
1E2D6
330
1E2D4
330
1E2D3
330
1E2D1
330
1E2D0
330
1E2CF
330
1E2CB
330
1E2C9
330
1E2C7
330
1E2C6
330
1E2C2
330
1E2C0
330
1D333
330
1D304
330
1D2D6
330
1AE65
330
1AE61
330
1AC32
330
1AC2F
330
1AC2C
330
1AC27
330
1AC26
330
1AC25
330
1AC21
330
1AC20
330
1AC1F
330
1AC1E
330
1AC17
330
1AC16
330
1AC15
330
1AC14
330
1AC13
330
1AC0B
330
1AC0A
330
1AC09
330
1AC07
330
1AC06
330
1AC02
330
1AC01
330
1AC00
330
1ABFF
330
1ABF9
330
1ABF8
330
1ABF4
102
}
330
746F
100
AcDbSymbolTableRecord
100
AcDbDimStyleTableRecord
  2
INABA_S40G
 70
     0
 40
40.0
 41
2.5
 42
0.5
 43
7.0
 44
1.5
 73
     0
 74
     0
 77
     3
 78
     8
140
3.0
141
0.0
143
0.0394
147
1.0
172
     1
173
     1
174
     1
178
     7
271
     1
340
F706
341
F770
343
F770
344
F770
  0
ENDTAB
  0
TABLE
  2
BLOCK_RECORD
  5
7466
330
0
100
AcDbSymbolTable
 70
    35
  0
BLOCK_RECORD
  5
747D
330
7466
100
AcDbSymbolTableRecord
100
AcDbBlockTableRecord
  2
*MODEL_SPACE
340
173D5
  0
BLOCK_RECORD
  5
747A
330
7466
100
AcDbSymbolTableRecord
100
AcDbBlockTableRecord
  2
*PAPER_SPACE
340
173D6
  0
BLOCK_RECORD
  5
F770
330
7466
100
AcDbSymbolTableRecord
100
AcDbBlockTableRecord
  2
_DOTSMALL
340
0
102
{BLKREFS
331
1E53E
331
1E53F
331
1E547
331
1E548
331
1E550
331
1E551
331
1E559
331
1E55A
331
1E564
331
1E565
331
1E56D
331
1E56E
331
1E577
331
1E578
331
1E582
331
1E583
331
1E58C
331
1E58D
331
1E595
331
1E596
331
1E59E
331
1E59F
331
1E5A7
331
1E5A8
331
1E5B0
331
1E5B1
331
1E5BA
331
1E5BB
331
1E5C4
331
1E5C5
331
1E5CD
331
1E5CE
331
1E5D6
331
1E5D7
331
1E5E0
331
1E5E1
331
1E5EB
331
1E5EC
331
1E5F5
331
1E5F6
331
1E600
331
1E601
331
1E60A
331
1E60B
331
1E614
331
1E615
331
1E61F
331
1E620
331
1E629
331
1E62A
331
1E633
331
1E634
331
1E63E
331
1E63F
331
1E647
331
1E648
331
1E650
331
1E651
331
1E65A
331
1E65B
331
1E663
331
1E664
331
1E66C
331
1E66D
331
1E675
331
1E676
331
1E67E
331
1E67F
102
}
  0
BLOCK_RECORD
  5
1B53B
330
7466
100
AcDbSymbolTableRecord
100
AcDbBlockTableRecord
  2
*D1
340
0
  0
BLOCK_RECORD
  5
1B547
330
7466
100
AcDbSymbolTableRecord
100
AcDbBlockTableRecord
  2
*D2
340
0
  0
BLOCK_RECORD
  5
1B552
330
7466
100
AcDbSymbolTableRecord
100
AcDbBlockTableRecord
  2
*D3
340
0
  0
BLOCK_RECORD
  5
1B55D
330
7466
100
AcDbSymbolTableRecord
100
AcDbBlockTableRecord
  2
*D4
340
0
  0
BLOCK_RECORD
  5
1B568
330
7466
100
AcDbSymbolTableRecord
100
AcDbBlockTableRecord
  2
*D5
340
0
  0
BLOCK_RECORD
  5
1B575
330
7466
100
AcDbSymbolTableRecord
100
AcDbBlockTableRecord
  2
*D6
340
0
  0
BLOCK_RECORD
  5
1B581
330
7466
100
AcDbSymbolTableRecord
100
AcDbBlockTableRecord
  2
*D7
340
0
  0
BLOCK_RECORD
  5
1B58C
330
7466
100
AcDbSymbolTableRecord
100
AcDbBlockTableRecord
  2
*D8
340
0
  0
BLOCK_RECORD
  5
1B599
330
7466
100
AcDbSymbolTableRecord
100
AcDbBlockTableRecord
  2
*D9
340
0
  0
BLOCK_RECORD
  5
1B5A6
330
7466
100
AcDbSymbolTableRecord
100
AcDbBlockTableRecord
  2
*D10
340
0
  0
BLOCK_RECORD
  5
1B5B3
330
7466
100
AcDbSymbolTableRecord
100
AcDbBlockTableRecord
  2
*D11
340
0
  0
BLOCK_RECORD
  5
1B5BF
330
7466
100
AcDbSymbolTableRecord
100
AcDbBlockTableRecord
  2
*D12
340
0
  0
BLOCK_RECORD
  5
1B5CC
330
7466
100
AcDbSymbolTableRecord
100
AcDbBlockTableRecord
  2
*D13
340
0
  0
BLOCK_RECORD
  5
1B5D9
330
7466
100
AcDbSymbolTableRecord
100
AcDbBlockTableRecord
  2
*D14
340
0
  0
BLOCK_RECORD
  5
1B5E6
330
7466
100
AcDbSymbolTableRecord
100
AcDbBlockTableRecord
  2
*D15
340
0
  0
BLOCK_RECORD
  5
1B5F3
330
7466
100
AcDbSymbolTableRecord
100
AcDbBlockTableRecord
  2
*D16
340
0
  0
BLOCK_RECORD
  5
1B5FD
330
7466
100
AcDbSymbolTableRecord
100
AcDbBlockTableRecord
  2
*D17
340
0
  0
BLOCK_RECORD
  5
1B60A
330
7466
100
AcDbSymbolTableRecord
100
AcDbBlockTableRecord
  2
*D18
340
0
  0
BLOCK_RECORD
  5
1B616
330
7466
100
AcDbSymbolTableRecord
100
AcDbBlockTableRecord
  2
*D19
340
0
  0
BLOCK_RECORD
  5
1B622
330
7466
100
AcDbSymbolTableRecord
100
AcDbBlockTableRecord
  2
*D20
340
0
  0
BLOCK_RECORD
  5
1B62F
330
7466
100
AcDbSymbolTableRecord
100
AcDbBlockTableRecord
  2
*D21
340
0
  0
BLOCK_RECORD
  5
1B63C
330
7466
100
AcDbSymbolTableRecord
100
AcDbBlockTableRecord
  2
*D22
340
0
  0
BLOCK_RECORD
  5
1B647
330
7466
100
AcDbSymbolTableRecord
100
AcDbBlockTableRecord
  2
*D23
340
0
  0
BLOCK_RECORD
  5
1B653
330
7466
100
AcDbSymbolTableRecord
100
AcDbBlockTableRecord
  2
*D24
340
0
  0
BLOCK_RECORD
  5
1B65F
330
7466
100
AcDbSymbolTableRecord
100
AcDbBlockTableRecord
  2
*D25
340
0
  0
BLOCK_RECORD
  5
1B66B
330
7466
100
AcDbSymbolTableRecord
100
AcDbBlockTableRecord
  2
*D26
340
0
  0
BLOCK_RECORD
  5
1B678
330
7466
100
AcDbSymbolTableRecord
100
AcDbBlockTableRecord
  2
*D27
340
0
  0
BLOCK_RECORD
  5
1D305
330
7466
100
AcDbSymbolTableRecord
100
AcDbBlockTableRecord
  2
*D28
340
0
  0
BLOCK_RECORD
  5
1E401
330
7466
100
AcDbSymbolTableRecord
100
AcDbBlockTableRecord
  2
*D29
340
0
  0
BLOCK_RECORD
  5
1E40C
330
7466
100
AcDbSymbolTableRecord
100
AcDbBlockTableRecord
  2
*D30
340
0
  0
BLOCK_RECORD
  5
1E41A
330
7466
100
AcDbSymbolTableRecord
100
AcDbBlockTableRecord
  2
*D31
340
0
  0
BLOCK_RECORD
  5
1E426
330
7466
100
AcDbSymbolTableRecord
100
AcDbBlockTableRecord
  2
*D32
340
0
  0
BLOCK_RECORD
  5
1E432
330
7466
100
AcDbSymbolTableRecord
100
AcDbBlockTableRecord
  2
*D33
340
0
  0
BLOCK_RECORD
  5
1E43E
330
7466
100
AcDbSymbolTableRecord
100
AcDbBlockTableRecord
  2
*D34
340
0
  0
ENDTAB
  0
ENDSEC
  0
SECTION
  2
BLOCKS
  0
BLOCK
  5
7489
330
747D
100
AcDbEntity
  8
0
100
AcDbBlockBegin
  2
*MODEL_SPACE
 70
     0
 10
0.0
 20
0.0
 30
0.0
  3
*MODEL_SPACE
  1

  0
ENDBLK
  5
748A
330
747D
100
AcDbEntity
  8
0
100
AcDbBlockEnd
  0
BLOCK
  5
7487
330
747A
100
AcDbEntity
 67
     1
  8
0
100
AcDbBlockBegin
  2
*PAPER_SPACE
 70
     0
 10
0.0
 20
0.0
 30
0.0
  3
*PAPER_SPACE
  1

  0
ENDBLK
  5
7488
330
747A
100
AcDbEntity
 67
     1
  8
0
100
AcDbBlockEnd
  0
BLOCK
  5
F771
330
F770
100
AcDbEntity
  8
0
 48
50.0
100
AcDbBlockBegin
  2
_DOTSMALL
 70
     0
 10
0.0
 20
0.0
 30
0.0
  3
_DOTSMALL
  1

  0
LWPOLYLINE
  5
F772
330
F770
100
AcDbEntity
  8
0
  6
ByBlock
 62
     0
 48
50.0
100
AcDbPolyline
 90
        2
 70
     1
 43
0.5
 10
-0.0625
 20
0.0
 42
1.0
 10
0.0625
 20
0.0
 42
1.0
  0
ENDBLK
  5
F776
330
F770
100
AcDbEntity
  8
0
 48
50.0
100
AcDbBlockEnd
  0
BLOCK
  5
1B545
330
1B53B
100
AcDbEntity
  8
0
 48
50.0
100
AcDbBlockBegin
  2
*D1
 70
     1
 10
0.0
 20
0.0
 30
0.0
  3
*D1
  1

  0
LINE
  5
1E67B
330
1B53B
100
AcDbEntity
  8
寸法
 62
     0
 48
50.0
370
    -2
100
AcDbLine
 10
7356.6
 20
5827.272318337284
 30
0.0
 11
7356.6
 21
5072.408014913155
 31
0.0
  0
LINE
  5
1E67C
330
1B53B
100
AcDbEntity
  8
寸法
 62
     0
 48
50.0
370
    -2
100
AcDbLine
 10
6483.6
 20
5902.272318337265
 30
0.0
 11
6483.6
 21
5072.408014913155
 31
0.0
  0
LINE
  5
1E67D
330
1B53B
100
AcDbEntity
  8
寸法
 62
     0
 48
50.0
370
    -2
100
AcDbLine
 10
7356.6
 20
5132.408014913155
 30
0.0
 11
6483.6
 21
5132.408014913155
 31
0.0
  0
INSERT
  5
1E67E
330
1B53B
100
AcDbEntity
  8
寸法
 62
     0
 48
50.0
370
    -2
100
AcDbBlockReference
  2
_DOTSMALL
 10
7356.6
 20
5132.408014913155
 30
0.0
 41
100.0
 42
100.0
 43
100.0
  0
INSERT
  5
1E67F
330
1B53B
100
AcDbEntity
  8
寸法
 62
     0
 48
50.0
370
    -2
100
AcDbBlockReference
  2
_DOTSMALL
 10
6483.6
 20
5132.408014913155
 30
0.0
 41
100.0
 42
100.0
 43
100.0
 50
180.0
  0
MTEXT
  5
1E680
330
1B53B
100
AcDbEntity
  8
寸法
 62
     7
 48
50.0
100
AcDbMText
 10
6920.100000000001
 20
5232.408014913155
 30
0.0
 40
120.0
 41
0.0
 71
     5
 72
     1
  1
\A1;873
  7
STYLE1
 73
     1
 44
1.0
1001
ACAD
1000
MTEXTBEGIN
1070
    73
1070
     1
1070
    44
1040
1.0
1070
    74
1070
     0
1000
MTEXTEND
  0
POINT
  5
1E681
330
1B53B
100
AcDbEntity
  8
DEFPOINTS
 62
     0
 48
50.0
100
AcDbPoint
 10
7356.6
 20
5847.272318337283
 30
0.0
  0
POINT
  5
1E682
330
1B53B
100
AcDbEntity
  8
DEFPOINTS
 62
     0
 48
50.0
100
AcDbPoint
 10
6483.6
 20
5922.272318337266
 30
0.0
  0
POINT
  5
1E683
330
1B53B
100
AcDbEntity
  8
DEFPOINTS
 62
     0
 48
50.0
100
AcDbPoint
 10
6483.6
 20
5132.408014913155
 30
0.0
  0
ENDBLK
  5
1B546
330
1B53B
100
AcDbEntity
  8
0
 48
50.0
100
AcDbBlockEnd
  0
BLOCK
  5
1B550
330
1B547
100
AcDbEntity
  8
0
 48
50.0
100
AcDbBlockBegin
  2
*D2
 70
     1
 10
0.0
 20
0.0
 30
0.0
  3
*D2
  1

  0
LINE
  5
1E672
330
1B547
100
AcDbEntity
  8
寸法
 62
     0
 48
50.0
370
    -2
100
AcDbLine
 10
9840.600000000002
 20
7669.272318337265
 30
0.0
 11
9840.600000000002
 21
8528.03194487935
 31
0.0
  0
LINE
  5
1E673
330
1B547
100
AcDbEntity
  8
寸法
 62
     0
 48
50.0
370
    -2
100
AcDbLine
 10
6606.6
 20
7669.272318337265
 30
0.0
 11
6606.6
 21
8528.03194487935
 31
0.0
  0
LINE
  5
1E674
330
1B547
100
AcDbEntity
  8
寸法
 62
     0
 48
50.0
370
    -2
100
AcDbLine
 10
9840.600000000002
 20
8468.031944879349
 30
0.0
 11
6606.6
 21
8468.031944879349
 31
0.0
  0
INSERT
  5
1E675
330
1B547
100
AcDbEntity
  8
寸法
 62
     0
 48
50.0
370
    -2
100
AcDbBlockReference
  2
_DOTSMALL
 10
9840.600000000002
 20
8468.031944879349
 30
0.0
 41
100.0
 42
100.0
 43
100.0
  0
INSERT
  5
1E676
330
1B547
100
AcDbEntity
  8
寸法
 62
     0
 48
50.0
370
    -2
100
AcDbBlockReference
  2
_DOTSMALL
 10
6606.6
 20
8468.031944879349
 30
0.0
 41
100.0
 42
100.0
 43
100.0
 50
180.0
  0
MTEXT
  5
1E677
330
1B547
100
AcDbEntity
  8
寸法
 62
     7
 48
50.0
100
AcDbMText
 10
8223.600000000001
 20
8568.043755902971
 30
0.0
 40
120.0
 41
0.0
 71
     5
 72
     1
  1
\A1;3234
  7
STYLE1
 73
     1
 44
1.0
1001
ACAD
1000
MTEXTBEGIN
1070
    73
1070
     1
1070
    44
1040
1.0
1070
    74
1070
     0
1000
MTEXTEND
  0
POINT
  5
1E678
330
1B547
100
AcDbEntity
  8
DEFPOINTS
 62
     0
 48
50.0
100
AcDbPoint
 10
9840.600000000002
 20
7649.272318337266
 30
0.0
  0
POINT
  5
1E679
330
1B547
100
AcDbEntity
  8
DEFPOINTS
 62
     0
 48
50.0
100
AcDbPoint
 10
6606.6
 20
7649.272318337266
 30
0.0
  0
POINT
  5
1E67A
330
1B547
100
AcDbEntity
  8
DEFPOINTS
 62
     0
 48
50.0
100
AcDbPoint
 10
6606.6
 20
8468.031944879349
 30
0.0
  0
ENDBLK
  5
1B551
330
1B547
100
AcDbEntity
  8
0
 48
50.0
100
AcDbBlockEnd
  0
BLOCK
  5
1B55B
330
1B552
100
AcDbEntity
  8
0
 48
50.0
100
AcDbBlockBegin
  2
*D3
 70
     1
 10
0.0
 20
0.0
 30
0.0
  3
*D3
  1

  0
LINE
  5
1E669
330
1B552
100
AcDbEntity
  8
寸法
 62
     0
 48
50.0
370
    -2
100
AcDbLine
 10
6483.6
 20
7742.272318337265
 30
0.0
 11
6483.6
 21
8740.492640396185
 31
0.0
  0
LINE
  5
1E66A
330
1B552
100
AcDbEntity
  8
寸法
 62
     0
 48
50.0
370
    -2
100
AcDbLine
 10
9963.600000000001
 20
7742.272318337265
 30
0.0
 11
9963.600000000001
 21
8740.492640396185
 31
0.0
  0
LINE
  5
1E66B
330
1B552
100
AcDbEntity
  8
寸法
 62
     0
 48
50.0
370
    -2
100
AcDbLine
 10
6483.6
 20
8680.492640396186
 30
0.0
 11
9963.600000000001
 21
8680.492640396186
 31
0.0
  0
INSERT
  5
1E66C
330
1B552
100
AcDbEntity
  8
寸法
 62
     0
 48
50.0
370
    -2
100
AcDbBlockReference
  2
_DOTSMALL
 10
6483.6
 20
8680.492640396186
 30
0.0
 41
100.0
 42
100.0
 43
100.0
 50
180.0
  0
INSERT
  5
1E66D
330
1B552
100
AcDbEntity
  8
寸法
 62
     0
 48
50.0
370
    -2
100
AcDbBlockReference
  2
_DOTSMALL
 10
9963.600000000001
 20
8680.492640396186
 30
0.0
 41
100.0
 42
100.0
 43
100.0
  0
MTEXT
  5
1E66E
330
1B552
100
AcDbEntity
  8
寸法
 62
     7
 48
50.0
100
AcDbMText
 10
8223.600000000001
 20
8780.492640396186
 30
0.0
 40
120.0
 41
0.0
 71
     5
 72
     1
  1
\A1;3480
  7
STYLE1
 73
     1
 44
1.0
1001
ACAD
1000
MTEXTBEGIN
1070
    73
1070
     1
1070
    44
1040
1.0
1070
    74
1070
     0
1000
MTEXTEND
  0
POINT
  5
1E66F
330
1B552
100
AcDbEntity
  8
DEFPOINTS
 62
     0
 48
50.0
100
AcDbPoint
 10
6483.6
 20
7722.272318337265
 30
0.0
  0
POINT
  5
1E670
330
1B552
100
AcDbEntity
  8
DEFPOINTS
 62
     0
 48
50.0
100
AcDbPoint
 10
9963.600000000001
 20
7722.272318337265
 30
0.0
  0
POINT
  5
1E671
330
1B552
100
AcDbEntity
  8
DEFPOINTS
 62
     0
 48
50.0
100
AcDbPoint
 10
9963.600000000001
 20
8680.492640396186
 30
0.0
  0
ENDBLK
  5
1B55C
330
1B552
100
AcDbEntity
  8
0
 48
50.0
100
AcDbBlockEnd
  0
BLOCK
  5
1B566
330
1B55D
100
AcDbEntity
  8
0
 48
50.0
100
AcDbBlockBegin
  2
*D4
 70
     1
 10
0.0
 20
0.0
 30
0.0
  3
*D4
  1

  0
LINE
  5
1E660
330
1B55D
100
AcDbEntity
  8
寸法
 62
     0
 48
50.0
370
    -2
100
AcDbLine
 10
7391.600000000001
 20
7042.272318337265
 30
0.0
 11
7391.600000000001
 21
8309.182083985595
 31
0.0
  0
LINE
  5
1E661
330
1B55D
100
AcDbEntity
  8
寸法
 62
     0
 48
50.0
370
    -2
100
AcDbLine
 10
6483.6
 20
7742.272318337265
 30
0.0
 11
6483.6
 21
8309.182083985595
 31
0.0
  0
LINE
  5
1E662
330
1B55D
100
AcDbEntity
  8
寸法
 62
     0
 48
50.0
370
    -2
100
AcDbLine
 10
7391.600000000001
 20
8249.182083985592
 30
0.0
 11
6483.6
 21
8249.182083985592
 31
0.0
  0
INSERT
  5
1E663
330
1B55D
100
AcDbEntity
  8
寸法
 62
     0
 48
50.0
370
    -2
100
AcDbBlockReference
  2
_DOTSMALL
 10
7391.600000000001
 20
8249.182083985592
 30
0.0
 41
100.0
 42
100.0
 43
100.0
  0
INSERT
  5
1E664
330
1B55D
100
AcDbEntity
  8
寸法
 62
     0
 48
50.0
370
    -2
100
AcDbBlockReference
  2
_DOTSMALL
 10
6483.6
 20
8249.182083985592
 30
0.0
 41
100.0
 42
100.0
 43
100.0
 50
180.0
  0
MTEXT
  5
1E665
330
1B55D
100
AcDbEntity
  8
寸法
 62
     7
 48
50.0
100
AcDbMText
 10
6937.6
 20
8349.182083985594
 30
0.0
 40
120.0
 41
0.0
 71
     5
 72
     1
  1
\A1;908
  7
STYLE1
 73
     1
 44
1.0
1001
ACAD
1000
MTEXTBEGIN
1070
    73
1070
     1
1070
    44
1040
1.0
1070
    74
1070
     0
1000
MTEXTEND
  0
POINT
  5
1E666
330
1B55D
100
AcDbEntity
  8
DEFPOINTS
 62
     0
 48
50.0
100
AcDbPoint
 10
7391.600000000001
 20
7022.272318337265
 30
0.0
  0
POINT
  5
1E667
330
1B55D
100
AcDbEntity
  8
DEFPOINTS
 62
     0
 48
50.0
100
AcDbPoint
 10
6483.6
 20
7722.272318337265
 30
0.0
  0
POINT
  5
1E668
330
1B55D
100
AcDbEntity
  8
DEFPOINTS
 62
     0
 48
50.0
100
AcDbPoint
 10
6483.6
 20
8249.182083985592
 30
0.0
  0
ENDBLK
  5
1B567
330
1B55D
100
AcDbEntity
  8
0
 48
50.0
100
AcDbBlockEnd
  0
BLOCK
  5
1B573
330
1B568
100
AcDbEntity
  8
0
 48
50.0
100
AcDbBlockBegin
  2
*D5
 70
     1
 10
0.0
 20
0.0
 30
0.0
  3
*D5
  1

  0
LINE
  5
1E656
330
1B568
100
AcDbEntity
  8
寸法
 62
     0
 48
50.0
370
    -2
100
AcDbLine
 10
6733.6
 20
7602.272318337263
 30
0.0
 11
6990.307249876099
 21
7602.272318337263
 31
0.0
  0
LINE
  5
1E657
330
1B568
100
AcDbEntity
  8
寸法
 62
     0
 48
50.0
370
    -2
100
AcDbLine
 10
6733.6
 20
7492.272318337263
 30
0.0
 11
6990.307249876099
 21
7492.272318337263
 31
0.0
  0
LINE
  5
1E658
330
1B568
100
AcDbEntity
  8
寸法
 62
     0
 48
50.0
370
    -2
100
AcDbLine
 10
6930.3072498761
 20
7602.272318337263
 30
0.0
 11
6930.3072498761
 21
7492.272318337263
 31
0.0
  0
LINE
  5
1E659
330
1B568
100
AcDbEntity
  8
寸法
 62
     0
 48
50.0
370
    -2
100
AcDbLine
 10
6930.3072498761
 20
7492.272318337263
 30
0.0
 11
6930.3072498761
 21
7008.166019124662
 31
0.0
  0
INSERT
  5
1E65A
330
1B568
100
AcDbEntity
  8
寸法
 62
     0
 48
50.0
370
    -2
100
AcDbBlockReference
  2
_DOTSMALL
 10
6930.3072498761
 20
7602.272318337263
 30
0.0
 41
100.0
 42
100.0
 43
100.0
 50
90.0
  0
INSERT
  5
1E65B
330
1B568
100
AcDbEntity
  8
寸法
 62
     0
 48
50.0
370
    -2
100
AcDbBlockReference
  2
_DOTSMALL
 10
6930.3072498761
 20
7492.272318337263
 30
0.0
 41
100.0
 42
100.0
 43
100.0
 50
270.0
  0
MTEXT
  5
1E65C
330
1B568
100
AcDbEntity
  8
寸法
 62
     7
 48
50.0
100
AcDbMText
 10
6830.307249876098
 20
7132.213263219151
 30
0.0
 40
120.0
 41
0.0
 71
     5
 72
     1
  1
\A1;110
  7
STYLE1
 11
0.0000000000000001
 21
1.0
 31
0.0
 73
     1
 44
1.0
1001
ACAD
1000
MTEXTBEGIN
1070
    73
1070
     1
1070
    44
1040
1.0
1070
    74
1070
     0
1000
MTEXTEND
  0
POINT
  5
1E65D
330
1B568
100
AcDbEntity
  8
DEFPOINTS
 62
     0
 48
50.0
100
AcDbPoint
 10
6713.600000000001
 20
7602.272318337263
 30
0.0
  0
POINT
  5
1E65E
330
1B568
100
AcDbEntity
  8
DEFPOINTS
 62
     0
 48
50.0
100
AcDbPoint
 10
6713.600000000001
 20
7492.272318337263
 30
0.0
  0
POINT
  5
1E65F
330
1B568
100
AcDbEntity
  8
DEFPOINTS
 62
     0
 48
50.0
100
AcDbPoint
 10
6930.3072498761
 20
7492.272318337263
 30
0.0
  0
ENDBLK
  5
1B574
330
1B568
100
AcDbEntity
  8
0
 48
50.0
100
AcDbBlockEnd
  0
BLOCK
  5
1B57F
330
1B575
100
AcDbEntity
  8
0
 48
50.0
100
AcDbBlockBegin
  2
*D6
 70
     1
 10
0.0
 20
0.0
 30
0.0
  3
*D6
  1

  0
LINE
  5
1E64D
330
1B575
100
AcDbEntity
  8
寸法
 62
     0
 48
50.0
370
    -2
100
AcDbLine
 10
6536.599999999999
 20
7599.272318337266
 30
0.0
 11
5927.65773398618
 21
7599.272318337266
 31
0.0
  0
LINE
  5
1E64E
330
1B575
100
AcDbEntity
  8
寸法
 62
     0
 48
50.0
370
    -2
100
AcDbLine
 10
6536.600000000007
 20
6045.272318337268
 30
0.0
 11
5927.657733986179
 21
6045.272318337268
 31
0.0
  0
LINE
  5
1E64F
330
1B575
100
AcDbEntity
  8
寸法
 62
     0
 48
50.0
370
    -2
100
AcDbLine
 10
5987.657733986179
 20
7599.272318337266
 30
0.0
 11
5987.657733986178
 21
6045.272318337268
 31
0.0
  0
INSERT
  5
1E650
330
1B575
100
AcDbEntity
  8
寸法
 62
     0
 48
50.0
370
    -2
100
AcDbBlockReference
  2
_DOTSMALL
 10
5987.657733986179
 20
7599.272318337266
 30
0.0
 41
100.0
 42
100.0
 43
100.0
 50
90.0
  0
INSERT
  5
1E651
330
1B575
100
AcDbEntity
  8
寸法
 62
     0
 48
50.0
370
    -2
100
AcDbBlockReference
  2
_DOTSMALL
 10
5987.657733986178
 20
6045.272318337268
 30
0.0
 41
100.0
 42
100.0
 43
100.0
 50
270.0
  0
MTEXT
  5
1E652
330
1B575
100
AcDbEntity
  8
寸法
 62
     7
 48
50.0
100
AcDbMText
 10
5887.657733986178
 20
6822.272318337265
 30
0.0
 40
120.0
 41
0.0
 71
     5
 72
     1
  1
\A1;1554
  7
STYLE1
 11
0.0000000000000001
 21
1.0
 31
0.0
 73
     1
 44
1.0
1001
ACAD
1000
MTEXTBEGIN
1070
    73
1070
     1
1070
    44
1040
1.0
1070
    74
1070
     0
1000
MTEXTEND
  0
POINT
  5
1E653
330
1B575
100
AcDbEntity
  8
DEFPOINTS
 62
     0
 48
50.0
100
AcDbPoint
 10
6556.6
 20
7599.272318337266
 30
0.0
  0
POINT
  5
1E654
330
1B575
100
AcDbEntity
  8
DEFPOINTS
 62
     0
 48
50.0
100
AcDbPoint
 10
6556.600000000007
 20
6045.272318337268
 30
0.0
  0
POINT
  5
1E655
330
1B575
100
AcDbEntity
  8
DEFPOINTS
 62
     0
 48
50.0
100
AcDbPoint
 10
5987.657733986178
 20
6045.272318337268
 30
0.0
  0
ENDBLK
  5
1B580
330
1B575
100
AcDbEntity
  8
0
 48
50.0
100
AcDbBlockEnd
  0
BLOCK
  5
1B58A
330
1B581
100
AcDbEntity
  8
0
 48
50.0
100
AcDbBlockBegin
  2
*D7
 70
     1
 10
0.0
 20
0.0
 30
0.0
  3
*D7
  1

  0
LINE
  5
1E644
330
1B581
100
AcDbEntity
  8
寸法
 62
     0
 48
50.0
370
    -2
100
AcDbLine
 10
6463.600000000001
 20
7722.272318337265
 30
0.0
 11
5675.714637266781
 21
7722.272318337267
 31
0.0
  0
LINE
  5
1E645
330
1B581
100
AcDbEntity
  8
寸法
 62
     0
 48
50.0
370
    -2
100
AcDbLine
 10
6463.600000000001
 20
5922.272318337266
 30
0.0
 11
5675.71463726678
 21
5922.272318337267
 31
0.0
  0
LINE
  5
1E646
330
1B581
100
AcDbEntity
  8
寸法
 62
     0
 48
50.0
370
    -2
100
AcDbLine
 10
5735.714637266781
 20
7722.272318337267
 30
0.0
 11
5735.714637266781
 21
5922.272318337267
 31
0.0
  0
INSERT
  5
1E647
330
1B581
100
AcDbEntity
  8
寸法
 62
     0
 48
50.0
370
    -2
100
AcDbBlockReference
  2
_DOTSMALL
 10
5735.714637266781
 20
7722.272318337267
 30
0.0
 41
100.0
 42
100.0
 43
100.0
 50
90.0
  0
INSERT
  5
1E648
330
1B581
100
AcDbEntity
  8
寸法
 62
     0
 48
50.0
370
    -2
100
AcDbBlockReference
  2
_DOTSMALL
 10
5735.714637266781
 20
5922.272318337267
 30
0.0
 41
100.0
 42
100.0
 43
100.0
 50
270.0
  0
MTEXT
  5
1E649
330
1B581
100
AcDbEntity
  8
寸法
 62
     7
 48
50.0
100
AcDbMText
 10
5635.714637266779
 20
6822.272318337265
 30
0.0
 40
120.0
 41
0.0
 71
     5
 72
     1
  1
\A1;1800
  7
STYLE1
 11
0.0000000000000001
 21
1.0
 31
0.0
 73
     1
 44
1.0
1001
ACAD
1000
MTEXTBEGIN
1070
    73
1070
     1
1070
    44
1040
1.0
1070
    74
1070
     0
1000
MTEXTEND
  0
POINT
  5
1E64A
330
1B581
100
AcDbEntity
  8
DEFPOINTS
 62
     0
 48
50.0
100
AcDbPoint
 10
6483.6
 20
7722.272318337265
 30
0.0
  0
POINT
  5
1E64B
330
1B581
100
AcDbEntity
  8
DEFPOINTS
 62
     0
 48
50.0
100
AcDbPoint
 10
6483.6
 20
5922.272318337266
 30
0.0
  0
POINT
  5
1E64C
330
1B581
100
AcDbEntity
  8
DEFPOINTS
 62
     0
 48
50.0
100
AcDbPoint
 10
5735.714637266781
 20
5922.272318337267
 30
0.0
  0
ENDBLK
  5
1B58B
330
1B581
100
AcDbEntity
  8
0
 48
50.0
100
AcDbBlockEnd
  0
BLOCK
  5
1B597
330
1B58C
100
AcDbEntity
  8
0
 48
50.0
100
AcDbBlockBegin
  2
*D8
 70
     1
 10
0.0
 20
0.0
 30
0.0
  3
*D8
  1

  0
LINE
  5
1E639
330
1B58C
100
AcDbEntity
  8
寸法
 62
     0
 48
50.0
370
    -2
100
AcDbLine
 10
9531.6
 20
5847.272318337282
 30
0.0
 11
9838.202780124335
 21
5847.272318337282
 31
0.0
  0
LINE
  5
1E63A
330
1B58C
100
AcDbEntity
  8
寸法
 62
     0
 48
50.0
370
    -2
100
AcDbLine
 10
9531.600000000002
 20
5922.272318337283
 30
0.0
 11
9838.202780124335
 21
5922.272318337283
 31
0.0
  0
LINE
  5
1E63B
330
1B58C
100
AcDbEntity
  8
寸法
 62
     0
 48
50.0
370
    -2
100
AcDbLine
 10
9778.202780124335
 20
5922.272318337283
 30
0.0
 11
9778.202780124335
 21
6022.272318337282
 31
0.0
  0
LINE
  5
1E63C
330
1B58C
100
AcDbEntity
  8
寸法
 62
     0
 48
50.0
370
    -2
100
AcDbLine
 10
9778.202780124335
 20
5847.272318337282
 30
0.0
 11
9778.202780124335
 21
4980.301755588804
 31
0.0
  0
LINE
  5
1E63D
330
1B58C
100
AcDbEntity
  8
寸法
 62
     0
 48
50.0
370
    -2
100
AcDbLine
 10
9778.202780124335
 20
5922.272318337283
 30
0.0
 11
9778.202780124335
 21
5847.272318337282
 31
0.0
  0
INSERT
  5
1E63E
330
1B58C
100
AcDbEntity
  8
寸法
 62
     0
 48
50.0
370
    -2
100
AcDbBlockReference
  2
_DOTSMALL
 10
9778.202780124335
 20
5922.272318337283
 30
0.0
 41
100.0
 42
100.0
 43
100.0
 50
270.0
  0
INSERT
  5
1E63F
330
1B58C
100
AcDbEntity
  8
寸法
 62
     0
 48
50.0
370
    -2
100
AcDbBlockReference
  2
_DOTSMALL
 10
9778.202780124335
 20
5847.272318337282
 30
0.0
 41
100.0
 42
100.0
 43
100.0
 50
90.0
  0
MTEXT
  5
1E640
330
1B58C
100
AcDbEntity
  8
寸法
 62
     7
 48
50.0
100
AcDbMText
 10
9678.202780124333
 20
5313.787036963045
 30
0.0
 40
120.0
 41
0.0
 71
     5
 72
     1
  1
\A1;扉の出75
  7
STYLE1
 11
0.0000000000000001
 21
1.0
 31
0.0
 73
     1
 44
1.0
1001
ACAD
1000
MTEXTBEGIN
1070
    73
1070
     1
1070
    44
1040
1.0
1070
    74
1070
     0
1000
MTEXTEND
  0
POINT
  5
1E641
330
1B58C
100
AcDbEntity
  8
DEFPOINTS
 62
     0
 48
50.0
100
AcDbPoint
 10
9511.599999999999
 20
5847.272318337282
 30
0.0
  0
POINT
  5
1E642
330
1B58C
100
AcDbEntity
  8
DEFPOINTS
 62
     0
 48
50.0
100
AcDbPoint
 10
9511.600000000003
 20
5922.272318337283
 30
0.0
  0
POINT
  5
1E643
330
1B58C
100
AcDbEntity
  8
DEFPOINTS
 62
     0
 48
50.0
100
AcDbPoint
 10
9778.202780124335
 20
5922.272318337283
 30
0.0
  0
ENDBLK
  5
1B598
330
1B58C
100
AcDbEntity
  8
0
 48
50.0
100
AcDbBlockEnd
  0
BLOCK
  5
1B5A4
330
1B599
100
AcDbEntity
  8
0
 48
50.0
100
AcDbBlockBegin
  2
*D9
 70
     1
 10
0.0
 20
0.0
 30
0.0
  3
*D9
  1

  0
LINE
  5
1E62F
330
1B599
100
AcDbEntity
  8
寸法
 62
     0
 48
50.0
370
    -2
100
AcDbLine
 10
6733.6
 20
6042.272318337282
 30
0.0
 11
6990.307249876098
 21
6042.272318337282
 31
0.0
  0
LINE
  5
1E630
330
1B599
100
AcDbEntity
  8
寸法
 62
     0
 48
50.0
370
    -2
100
AcDbLine
 10
6733.6
 20
6152.272318337269
 30
0.0
 11
6990.307249876099
 21
6152.272318337269
 31
0.0
  0
LINE
  5
1E631
330
1B599
100
AcDbEntity
  8
寸法
 62
     0
 48
50.0
370
    -2
100
AcDbLine
 10
6930.307249876098
 20
6042.272318337282
 30
0.0
 11
6930.307249876098
 21
6152.272318337269
 31
0.0
  0
LINE
  5
1E632
330
1B599
100
AcDbEntity
  8
寸法
 62
     0
 48
50.0
370
    -2
100
AcDbLine
 10
6930.307249876098
 20
6152.272318337269
 30
0.0
 11
6930.307249876098
 21
6566.378617549879
 31
0.0
  0
INSERT
  5
1E633
330
1B599
100
AcDbEntity
  8
寸法
 62
     0
 48
50.0
370
    -2
100
AcDbBlockReference
  2
_DOTSMALL
 10
6930.307249876098
 20
6042.272318337282
 30
0.0
 41
100.0
 42
100.0
 43
100.0
 50
270.0
  0
INSERT
  5
1E634
330
1B599
100
AcDbEntity
  8
寸法
 62
     0
 48
50.0
370
    -2
100
AcDbBlockReference
  2
_DOTSMALL
 10
6930.307249876098
 20
6152.272318337269
 30
0.0
 41
100.0
 42
100.0
 43
100.0
 50
90.0
  0
MTEXT
  5
1E635
330
1B599
100
AcDbEntity
  8
寸法
 62
     7
 48
50.0
100
AcDbMText
 10
6830.307249876097
 20
6442.331373455394
 30
0.0
 40
120.0
 41
0.0
 71
     5
 72
     1
  1
\A1;110
  7
STYLE1
 11
0.0000000000000001
 21
1.0
 31
0.0
 73
     1
 44
1.0
1001
ACAD
1000
MTEXTBEGIN
1070
    73
1070
     1
1070
    44
1040
1.0
1070
    74
1070
     0
1000
MTEXTEND
  0
POINT
  5
1E636
330
1B599
100
AcDbEntity
  8
DEFPOINTS
 62
     0
 48
50.0
100
AcDbPoint
 10
6713.600000000001
 20
6042.272318337282
 30
0.0
  0
POINT
  5
1E637
330
1B599
100
AcDbEntity
  8
DEFPOINTS
 62
     0
 48
50.0
100
AcDbPoint
 10
6713.600000000001
 20
6152.272318337269
 30
0.0
  0
POINT
  5
1E638
330
1B599
100
AcDbEntity
  8
DEFPOINTS
 62
     0
 48
50.0
100
AcDbPoint
 10
6930.307249876098
 20
6152.272318337269
 30
0.0
  0
ENDBLK
  5
1B5A5
330
1B599
100
AcDbEntity
  8
0
 48
50.0
100
AcDbBlockEnd
  0
BLOCK
  5
1B5B1
330
1B5A6
100
AcDbEntity
  8
0
 48
50.0
100
AcDbBlockBegin
  2
*D10
 70
     1
 10
0.0
 20
0.0
 30
0.0
  3
*D10
  1

  0
LINE
  5
1E625
330
1B5A6
100
AcDbEntity
  8
寸法
 62
     0
 48
50.0
370
    -2
100
AcDbLine
 10
6536.600000000007
 20
6045.272318337268
 30
0.0
 11
5927.657733986179
 21
6045.272318337268
 31
0.0
  0
LINE
  5
1E626
330
1B5A6
100
AcDbEntity
  8
寸法
 62
     0
 48
50.0
370
    -2
100
AcDbLine
 10
6463.600000000001
 20
5922.272318337266
 30
0.0
 11
5927.657733986179
 21
5922.272318337267
 31
0.0
  0
LINE
  5
1E627
330
1B5A6
100
AcDbEntity
  8
寸法
 62
     0
 48
50.0
370
    -2
100
AcDbLine
 10
5987.657733986178
 20
6045.272318337268
 30
0.0
 11
5987.657733986178
 21
5922.272318337267
 31
0.0
  0
LINE
  5
1E628
330
1B5A6
100
AcDbEntity
  8
寸法
 62
     0
 48
50.0
370
    -2
100
AcDbLine
 10
5987.657733986178
 20
5922.272318337267
 30
0.0
 11
5987.657733986178
 21
5448.256088120434
 31
0.0
  0
INSERT
  5
1E629
330
1B5A6
100
AcDbEntity
  8
寸法
 62
     0
 48
50.0
370
    -2
100
AcDbBlockReference
  2
_DOTSMALL
 10
5987.657733986178
 20
6045.272318337268
 30
0.0
 41
100.0
 42
100.0
 43
100.0
 50
90.0
  0
INSERT
  5
1E62A
330
1B5A6
100
AcDbEntity
  8
寸法
 62
     0
 48
50.0
370
    -2
100
AcDbBlockReference
  2
_DOTSMALL
 10
5987.657733986178
 20
5922.272318337267
 30
0.0
 41
100.0
 42
100.0
 43
100.0
 50
270.0
  0
MTEXT
  5
1E62B
330
1B5A6
100
AcDbEntity
  8
寸法
 62
     7
 48
50.0
100
AcDbMText
 10
5887.645922962556
 20
5586.741369494673
 30
0.0
 40
120.0
 41
0.0
 71
     5
 72
     1
  1
\A1;123
  7
STYLE1
 11
0.0000000000000001
 21
1.0
 31
0.0
 73
     1
 44
1.0
1001
ACAD
1000
MTEXTBEGIN
1070
    73
1070
     1
1070
    44
1040
1.0
1070
    74
1070
     0
1000
MTEXTEND
  0
POINT
  5
1E62C
330
1B5A6
100
AcDbEntity
  8
DEFPOINTS
 62
     0
 48
50.0
100
AcDbPoint
 10
6556.600000000007
 20
6045.272318337268
 30
0.0
  0
POINT
  5
1E62D
330
1B5A6
100
AcDbEntity
  8
DEFPOINTS
 62
     0
 48
50.0
100
AcDbPoint
 10
6483.6
 20
5922.272318337266
 30
0.0
  0
POINT
  5
1E62E
330
1B5A6
100
AcDbEntity
  8
DEFPOINTS
 62
     0
 48
50.0
100
AcDbPoint
 10
5987.657733986178
 20
5922.272318337267
 30
0.0
  0
ENDBLK
  5
1B5B2
330
1B5A6
100
AcDbEntity
  8
0
 48
50.0
100
AcDbBlockEnd
  0
BLOCK
  5
1B5BD
330
1B5B3
100
AcDbEntity
  8
0
 48
50.0
100
AcDbBlockBegin
  2
*D11
 70
     1
 10
0.0
 20
0.0
 30
0.0
  3
*D11
  1

  0
LINE
  5
1E61A
330
1B5B3
100
AcDbEntity
  8
寸法
 62
     0
 48
50.0
370
    -2
100
AcDbLine
 10
6463.600000000001
 20
5922.272318337266
 30
0.0
 11
5675.71463726678
 21
5922.272318337267
 31
0.0
  0
LINE
  5
1E61B
330
1B5B3
100
AcDbEntity
  8
寸法
 62
     0
 48
50.0
370
    -2
100
AcDbLine
 10
5967.657733986179
 20
5867.272318337278
 30
0.0
 11
5675.71463726678
 21
5867.272318337278
 31
0.0
  0
LINE
  5
1E61C
330
1B5B3
100
AcDbEntity
  8
寸法
 62
     0
 48
50.0
370
    -2
100
AcDbLine
 10
5735.714637266781
 20
5922.272318337267
 30
0.0
 11
5735.714637266781
 21
6022.272318337266
 31
0.0
  0
LINE
  5
1E61D
330
1B5B3
100
AcDbEntity
  8
寸法
 62
     0
 48
50.0
370
    -2
100
AcDbLine
 10
5735.714637266781
 20
5867.272318337278
 30
0.0
 11
5735.714637266781
 21
5767.272318337277
 31
0.0
  0
LINE
  5
1E61E
330
1B5B3
100
AcDbEntity
  8
寸法
 62
     0
 48
50.0
370
    -2
100
AcDbLine
 10
5735.714637266781
 20
5922.272318337267
 30
0.0
 11
5735.714637266781
 21
5867.272318337278
 31
0.0
  0
INSERT
  5
1E61F
330
1B5B3
100
AcDbEntity
  8
寸法
 62
     0
 48
50.0
370
    -2
100
AcDbBlockReference
  2
_DOTSMALL
 10
5735.714637266781
 20
5922.272318337267
 30
0.0
 41
100.0
 42
100.0
 43
100.0
 50
270.0
  0
INSERT
  5
1E620
330
1B5B3
100
AcDbEntity
  8
寸法
 62
     0
 48
50.0
370
    -2
100
AcDbBlockReference
  2
_DOTSMALL
 10
5735.714637266781
 20
5867.272318337278
 30
0.0
 41
100.0
 42
100.0
 43
100.0
 50
90.0
  0
MTEXT
  5
1E621
330
1B5B3
100
AcDbEntity
  8
寸法
 62
     7
 48
50.0
100
AcDbMText
 10
5635.714637266779
 20
5894.772318337273
 30
0.0
 40
120.0
 41
0.0
 71
     5
 72
     1
  1
\A1;b
  7
STYLE1
 11
0.0000000000000001
 21
1.0
 31
0.0
 73
     1
 44
1.0
1001
ACAD
1000
MTEXTBEGIN
1070
    73
1070
     1
1070
    44
1040
1.0
1070
    74
1070
     0
1000
MTEXTEND
  0
POINT
  5
1E622
330
1B5B3
100
AcDbEntity
  8
DEFPOINTS
 62
     0
 48
50.0
100
AcDbPoint
 10
6483.6
 20
5922.272318337266
 30
0.0
  0
POINT
  5
1E623
330
1B5B3
100
AcDbEntity
  8
DEFPOINTS
 62
     0
 48
50.0
100
AcDbPoint
 10
5987.657733986178
 20
5867.272318337278
 30
0.0
  0
POINT
  5
1E624
330
1B5B3
100
AcDbEntity
  8
DEFPOINTS
 62
     0
 48
50.0
100
AcDbPoint
 10
5735.714637266781
 20
5867.272318337278
 30
0.0
  0
ENDBLK
  5
1B5BE
330
1B5B3
100
AcDbEntity
  8
0
 48
50.0
100
AcDbBlockEnd
  0
BLOCK
  5
1B5CA
330
1B5BF
100
AcDbEntity
  8
0
 48
50.0
100
AcDbBlockBegin
  2
*D12
 70
     1
 10
0.0
 20
0.0
 30
0.0
  3
*D12
  1

  0
LINE
  5
1E610
330
1B5BF
100
AcDbEntity
  8
寸法
 62
     0
 48
50.0
370
    -2
100
AcDbLine
 10
6805.419180988154
 20
5922.272318337278
 30
0.0
 11
6990.307249876099
 21
5922.272318337278
 31
0.0
  0
LINE
  5
1E611
330
1B5BF
100
AcDbEntity
  8
寸法
 62
     0
 48
50.0
370
    -2
100
AcDbLine
 10
6733.6
 20
6042.272318337268
 30
0.0
 11
6990.307249876099
 21
6042.272318337268
 31
0.0
  0
LINE
  5
1E612
330
1B5BF
100
AcDbEntity
  8
寸法
 62
     0
 48
50.0
370
    -2
100
AcDbLine
 10
6930.307249876098
 20
6042.272318337268
 30
0.0
 11
6930.307249876098
 21
5922.272318337278
 31
0.0
  0
LINE
  5
1E613
330
1B5BF
100
AcDbEntity
  8
寸法
 62
     0
 48
50.0
370
    -2
100
AcDbLine
 10
6930.307249876098
 20
5922.272318337278
 30
0.0
 11
6930.307249876098
 21
5469.936769274821
 31
0.0
  0
INSERT
  5
1E614
330
1B5BF
100
AcDbEntity
  8
寸法
 62
     0
 48
50.0
370
    -2
100
AcDbBlockReference
  2
_DOTSMALL
 10
6930.307249876098
 20
6042.272318337268
 30
0.0
 41
100.0
 42
100.0
 43
100.0
 50
90.0
  0
INSERT
  5
1E615
330
1B5BF
100
AcDbEntity
  8
寸法
 62
     0
 48
50.0
370
    -2
100
AcDbBlockReference
  2
_DOTSMALL
 10
6930.307249876098
 20
5922.272318337278
 30
0.0
 41
100.0
 42
100.0
 43
100.0
 50
270.0
  0
MTEXT
  5
1E616
330
1B5BF
100
AcDbEntity
  8
寸法
 62
     7
 48
50.0
100
AcDbMText
 10
6830.295438852475
 20
5605.984013369311
 30
0.0
 40
120.0
 41
0.0
 71
     5
 72
     1
  1
\A1;120
  7
STYLE1
 11
0.0000000000000001
 21
1.0
 31
0.0
 73
     1
 44
1.0
1001
ACAD
1000
MTEXTBEGIN
1070
    73
1070
     1
1070
    44
1040
1.0
1070
    74
1070
     0
1000
MTEXTEND
  0
POINT
  5
1E617
330
1B5BF
100
AcDbEntity
  8
DEFPOINTS
 62
     0
 48
50.0
100
AcDbPoint
 10
6785.419180988154
 20
5922.272318337278
 30
0.0
  0
POINT
  5
1E618
330
1B5BF
100
AcDbEntity
  8
DEFPOINTS
 62
     0
 48
50.0
100
AcDbPoint
 10
6713.600000000001
 20
6042.272318337268
 30
0.0
  0
POINT
  5
1E619
330
1B5BF
100
AcDbEntity
  8
DEFPOINTS
 62
     0
 48
50.0
100
AcDbPoint
 10
6930.307249876098
 20
6042.272318337268
 30
0.0
  0
ENDBLK
  5
1B5CB
330
1B5BF
100
AcDbEntity
  8
0
 48
50.0
100
AcDbBlockEnd
  0
BLOCK
  5
1B5D7
330
1B5CC
100
AcDbEntity
  8
0
 48
50.0
100
AcDbBlockBegin
  2
*D13
 70
     1
 10
0.0
 20
0.0
 30
0.0
  3
*D13
  1

  0
LINE
  5
1E606
330
1B5CC
100
AcDbEntity
  8
寸法
 62
     0
 48
50.0
370
    -2
100
AcDbLine
 10
6606.6
 20
7669.272318337265
 30
0.0
 11
6606.6
 21
8528.03194487935
 31
0.0
  0
LINE
  5
1E607
330
1B5CC
100
AcDbEntity
  8
寸法
 62
     0
 48
50.0
370
    -2
100
AcDbLine
 10
6483.6
 20
7742.272318337265
 30
0.0
 11
6483.6
 21
8528.03194487935
 31
0.0
  0
LINE
  5
1E608
330
1B5CC
100
AcDbEntity
  8
寸法
 62
     0
 48
50.0
370
    -2
100
AcDbLine
 10
6606.6
 20
8468.031944879349
 30
0.0
 11
6483.6
 21
8468.031944879349
 31
0.0
  0
LINE
  5
1E609
330
1B5CC
100
AcDbEntity
  8
寸法
 62
     0
 48
50.0
370
    -2
100
AcDbLine
 10
6483.6
 20
8468.031944879349
 30
0.0
 11
6072.008116907963
 21
8468.031944879349
 31
0.0
  0
INSERT
  5
1E60A
330
1B5CC
100
AcDbEntity
  8
寸法
 62
     0
 48
50.0
370
    -2
100
AcDbBlockReference
  2
_DOTSMALL
 10
6606.6
 20
8468.031944879349
 30
0.0
 41
100.0
 42
100.0
 43
100.0
  0
INSERT
  5
1E60B
330
1B5CC
100
AcDbEntity
  8
寸法
 62
     0
 48
50.0
370
    -2
100
AcDbBlockReference
  2
_DOTSMALL
 10
6483.6
 20
8468.031944879349
 30
0.0
 41
100.0
 42
100.0
 43
100.0
 50
180.0
  0
MTEXT
  5
1E60C
330
1B5CC
100
AcDbEntity
  8
寸法
 62
     7
 48
50.0
100
AcDbMText
 10
6210.493398282203
 20
8568.043755902971
 30
0.0
 40
120.0
 41
0.0
 71
     5
 72
     1
  1
\A1;123
  7
STYLE1
 73
     1
 44
1.0
1001
ACAD
1000
MTEXTBEGIN
1070
    73
1070
     1
1070
    44
1040
1.0
1070
    74
1070
     0
1000
MTEXTEND
  0
POINT
  5
1E60D
330
1B5CC
100
AcDbEntity
  8
DEFPOINTS
 62
     0
 48
50.0
100
AcDbPoint
 10
6606.6
 20
7649.272318337266
 30
0.0
  0
POINT
  5
1E60E
330
1B5CC
100
AcDbEntity
  8
DEFPOINTS
 62
     0
 48
50.0
100
AcDbPoint
 10
6483.6
 20
7722.272318337265
 30
0.0
  0
POINT
  5
1E60F
330
1B5CC
100
AcDbEntity
  8
DEFPOINTS
 62
     0
 48
50.0
100
AcDbPoint
 10
6483.6
 20
8468.031944879349
 30
0.0
  0
ENDBLK
  5
1B5D8
330
1B5CC
100
AcDbEntity
  8
0
 48
50.0
100
AcDbBlockEnd
  0
BLOCK
  5
1B5E4
330
1B5D9
100
AcDbEntity
  8
0
 48
50.0
100
AcDbBlockBegin
  2
*D14
 70
     1
 10
0.0
 20
0.0
 30
0.0
  3
*D14
  1

  0
LINE
  5
1E5FB
330
1B5D9
100
AcDbEntity
  8
寸法
 62
     0
 48
50.0
370
    -2
100
AcDbLine
 10
6438.6
 20
8488.031944879349
 30
0.0
 11
6438.6
 21
8740.492640396189
 31
0.0
  0
LINE
  5
1E5FC
330
1B5D9
100
AcDbEntity
  8
寸法
 62
     0
 48
50.0
370
    -2
100
AcDbLine
 10
6483.6
 20
7742.272318337265
 30
0.0
 11
6483.6
 21
8740.492640396189
 31
0.0
  0
LINE
  5
1E5FD
330
1B5D9
100
AcDbEntity
  8
寸法
 62
     0
 48
50.0
370
    -2
100
AcDbLine
 10
6483.6
 20
8680.492640396186
 30
0.0
 11
6583.6
 21
8680.492640396186
 31
0.0
  0
LINE
  5
1E5FE
330
1B5D9
100
AcDbEntity
  8
寸法
 62
     0
 48
50.0
370
    -2
100
AcDbLine
 10
6438.6
 20
8680.492640396186
 30
0.0
 11
6101.250757595083
 21
8680.492640396186
 31
0.0
  0
LINE
  5
1E5FF
330
1B5D9
100
AcDbEntity
  8
寸法
 62
     0
 48
50.0
370
    -2
100
AcDbLine
 10
6483.6
 20
8680.492640396186
 30
0.0
 11
6438.6
 21
8680.492640396186
 31
0.0
  0
INSERT
  5
1E600
330
1B5D9
100
AcDbEntity
  8
寸法
 62
     0
 48
50.0
370
    -2
100
AcDbBlockReference
  2
_DOTSMALL
 10
6483.6
 20
8680.492640396186
 30
0.0
 41
100.0
 42
100.0
 43
100.0
 50
180.0
  0
INSERT
  5
1E601
330
1B5D9
100
AcDbEntity
  8
寸法
 62
     0
 48
50.0
370
    -2
100
AcDbBlockReference
  2
_DOTSMALL
 10
6438.6
 20
8680.492640396186
 30
0.0
 41
100.0
 42
100.0
 43
100.0
  0
MTEXT
  5
1E602
330
1B5D9
100
AcDbEntity
  8
寸法
 62
     7
 48
50.0
100
AcDbMText
 10
6167.425378797542
 20
8780.492640396188
 30
0.0
 40
120.0
 41
0.0
 71
     5
 72
     1
  1
\A1;a
  7
STYLE1
 73
     1
 44
1.0
1001
ACAD
1000
MTEXTBEGIN
1070
    73
1070
     1
1070
    44
1040
1.0
1070
    74
1070
     0
1000
MTEXTEND
  0
POINT
  5
1E603
330
1B5D9
100
AcDbEntity
  8
DEFPOINTS
 62
     0
 48
50.0
100
AcDbPoint
 10
6438.6
 20
8468.031944879349
 30
0.0
  0
POINT
  5
1E604
330
1B5D9
100
AcDbEntity
  8
DEFPOINTS
 62
     0
 48
50.0
100
AcDbPoint
 10
6483.6
 20
7722.272318337265
 30
0.0
  0
POINT
  5
1E605
330
1B5D9
100
AcDbEntity
  8
DEFPOINTS
 62
     0
 48
50.0
100
AcDbPoint
 10
6483.6
 20
8680.492640396186
 30
0.0
  0
ENDBLK
  5
1B5E5
330
1B5D9
100
AcDbEntity
  8
0
 48
50.0
100
AcDbBlockEnd
  0
BLOCK
  5
1B5F1
330
1B5E6
100
AcDbEntity
  8
0
 48
50.0
100
AcDbBlockBegin
  2
*D15
 70
     1
 10
0.0
 20
0.0
 30
0.0
  3
*D15
  1

  0
LINE
  5
1E5F1
330
1B5E6
100
AcDbEntity
  8
寸法
 62
     0
 48
50.0
370
    -2
100
AcDbLine
 10
6463.600000000001
 20
7722.272318337265
 30
0.0
 11
5927.657733986179
 21
7722.272318337267
 31
0.0
  0
LINE
  5
1E5F2
330
1B5E6
100
AcDbEntity
  8
寸法
 62
     0
 48
50.0
370
    -2
100
AcDbLine
 10
6536.599999999999
 20
7599.272318337266
 30
0.0
 11
5927.657733986179
 21
7599.272318337266
 31
0.0
  0
LINE
  5
1E5F3
330
1B5E6
100
AcDbEntity
  8
寸法
 62
     0
 48
50.0
370
    -2
100
AcDbLine
 10
5987.657733986178
 20
7599.272318337266
 30
0.0
 11
5987.657733986178
 21
7722.272318337267
 31
0.0
  0
LINE
  5
1E5F4
330
1B5E6
100
AcDbEntity
  8
寸法
 62
     0
 48
50.0
370
    -2
100
AcDbLine
 10
5987.657733986178
 20
7722.272318337267
 30
0.0
 11
5987.657733986178
 21
8133.864201429304
 31
0.0
  0
INSERT
  5
1E5F5
330
1B5E6
100
AcDbEntity
  8
寸法
 62
     0
 48
50.0
370
    -2
100
AcDbBlockReference
  2
_DOTSMALL
 10
5987.657733986178
 20
7599.272318337266
 30
0.0
 41
100.0
 42
100.0
 43
100.0
 50
270.0
  0
INSERT
  5
1E5F6
330
1B5E6
100
AcDbEntity
  8
寸法
 62
     0
 48
50.0
370
    -2
100
AcDbBlockReference
  2
_DOTSMALL
 10
5987.657733986178
 20
7722.272318337267
 30
0.0
 41
100.0
 42
100.0
 43
100.0
 50
90.0
  0
MTEXT
  5
1E5F7
330
1B5E6
100
AcDbEntity
  8
寸法
 62
     7
 48
50.0
100
AcDbMText
 10
5887.645922962556
 20
7995.378920055066
 30
0.0
 40
120.0
 41
0.0
 71
     5
 72
     1
  1
\A1;123
  7
STYLE1
 11
0.0000000000000001
 21
1.0
 31
0.0
 73
     1
 44
1.0
1001
ACAD
1000
MTEXTBEGIN
1070
    73
1070
     1
1070
    44
1040
1.0
1070
    74
1070
     0
1000
MTEXTEND
  0
POINT
  5
1E5F8
330
1B5E6
100
AcDbEntity
  8
DEFPOINTS
 62
     0
 48
50.0
100
AcDbPoint
 10
6483.6
 20
7722.272318337265
 30
0.0
  0
POINT
  5
1E5F9
330
1B5E6
100
AcDbEntity
  8
DEFPOINTS
 62
     0
 48
50.0
100
AcDbPoint
 10
6556.6
 20
7599.272318337266
 30
0.0
  0
POINT
  5
1E5FA
330
1B5E6
100
AcDbEntity
  8
DEFPOINTS
 62
     0
 48
50.0
100
AcDbPoint
 10
5987.657733986178
 20
7599.272318337266
 30
0.0
  0
ENDBLK
  5
1B5F2
330
1B5E6
100
AcDbEntity
  8
0
 48
50.0
100
AcDbBlockEnd
  0
BLOCK
  5
1B5FB
330
1B5F3
100
AcDbEntity
  8
0
 48
50.0
100
AcDbBlockBegin
  2
*D16
 70
     1
 10
0.0
 20
0.0
 30
0.0
  3
*D16
  1

  0
LINE
  5
1E5E6
330
1B5F3
100
AcDbEntity
  8
寸法
 62
     0
 48
50.0
370
    -2
100
AcDbLine
 10
5967.657733986179
 20
7797.272318337268
 30
0.0
 11
5675.714637266781
 21
7797.272318337268
 31
0.0
  0
LINE
  5
1E5E7
330
1B5F3
100
AcDbEntity
  8
寸法
 62
     0
 48
50.0
370
    -2
100
AcDbLine
 10
6463.600000000001
 20
7722.272318337265
 30
0.0
 11
5675.714637266781
 21
7722.272318337267
 31
0.0
  0
LINE
  5
1E5E8
330
1B5F3
100
AcDbEntity
  8
寸法
 62
     0
 48
50.0
370
    -2
100
AcDbLine
 10
5735.714637266781
 20
7797.272318337268
 30
0.0
 11
5735.714637266781
 21
7897.272318337268
 31
0.0
  0
LINE
  5
1E5E9
330
1B5F3
100
AcDbEntity
  8
寸法
 62
     0
 48
50.0
370
    -2
100
AcDbLine
 10
5735.714637266781
 20
7722.272318337267
 30
0.0
 11
5735.714637266781
 21
7622.272318337266
 31
0.0
  0
LINE
  5
1E5EA
330
1B5F3
100
AcDbEntity
  8
寸法
 62
     0
 48
50.0
370
    -2
100
AcDbLine
 10
5735.714637266781
 20
7797.272318337268
 30
0.0
 11
5735.714637266781
 21
7722.272318337267
 31
0.0
  0
INSERT
  5
1E5EB
330
1B5F3
100
AcDbEntity
  8
寸法
 62
     0
 48
50.0
370
    -2
100
AcDbBlockReference
  2
_DOTSMALL
 10
5735.714637266781
 20
7797.272318337268
 30
0.0
 41
100.0
 42
100.0
 43
100.0
 50
270.0
  0
INSERT
  5
1E5EC
330
1B5F3
100
AcDbEntity
  8
寸法
 62
     0
 48
50.0
370
    -2
100
AcDbBlockReference
  2
_DOTSMALL
 10
5735.714637266781
 20
7722.272318337267
 30
0.0
 41
100.0
 42
100.0
 43
100.0
 50
90.0
  0
MTEXT
  5
1E5ED
330
1B5F3
100
AcDbEntity
  8
寸法
 62
     7
 48
50.0
100
AcDbMText
 10
5635.71463726678
 20
7759.772318337268
 30
0.0
 40
120.0
 41
0.0
 71
     5
 72
     1
  1
\A1;c
  7
STYLE1
 11
0.0000000000000001
 21
1.0
 31
0.0
 73
     1
 44
1.0
1001
ACAD
1000
MTEXTBEGIN
1070
    73
1070
     1
1070
    44
1040
1.0
1070
    74
1070
     0
1000
MTEXTEND
  0
POINT
  5
1E5EE
330
1B5F3
100
AcDbEntity
  8
DEFPOINTS
 62
     0
 48
50.0
100
AcDbPoint
 10
5987.657733986178
 20
7797.272318337268
 30
0.0
  0
POINT
  5
1E5EF
330
1B5F3
100
AcDbEntity
  8
DEFPOINTS
 62
     0
 48
50.0
100
AcDbPoint
 10
6483.6
 20
7722.272318337265
 30
0.0
  0
POINT
  5
1E5F0
330
1B5F3
100
AcDbEntity
  8
DEFPOINTS
 62
     0
 48
50.0
100
AcDbPoint
 10
5735.714637266781
 20
7722.272318337267
 30
0.0
  0
ENDBLK
  5
1B5FC
330
1B5F3
100
AcDbEntity
  8
0
 48
50.0
100
AcDbBlockEnd
  0
BLOCK
  5
1B608
330
1B5FD
100
AcDbEntity
  8
0
 48
50.0
100
AcDbBlockBegin
  2
*D17
 70
     1
 10
0.0
 20
0.0
 30
0.0
  3
*D17
  1

  0
LINE
  5
1E5DC
330
1B5FD
100
AcDbEntity
  8
寸法
 62
     0
 48
50.0
370
    -2
100
AcDbLine
 10
6733.6
 20
7602.272318337262
 30
0.0
 11
6990.307249876099
 21
7602.272318337262
 31
0.0
  0
LINE
  5
1E5DD
330
1B5FD
100
AcDbEntity
  8
寸法
 62
     0
 48
50.0
370
    -2
100
AcDbLine
 10
6733.6
 20
7722.272318337264
 30
0.0
 11
6990.307249876099
 21
7722.272318337264
 31
0.0
  0
LINE
  5
1E5DE
330
1B5FD
100
AcDbEntity
  8
寸法
 62
     0
 48
50.0
370
    -2
100
AcDbLine
 10
6930.307249876098
 20
7602.272318337262
 30
0.0
 11
6930.307249876098
 21
7722.272318337264
 31
0.0
  0
LINE
  5
1E5DF
330
1B5FD
100
AcDbEntity
  8
寸法
 62
     0
 48
50.0
370
    -2
100
AcDbLine
 10
6930.307249876098
 20
7722.272318337264
 30
0.0
 11
6930.307249876098
 21
8116.403105704637
 31
0.0
  0
INSERT
  5
1E5E0
330
1B5FD
100
AcDbEntity
  8
寸法
 62
     0
 48
50.0
370
    -2
100
AcDbBlockReference
  2
_DOTSMALL
 10
6930.307249876098
 20
7602.272318337262
 30
0.0
 41
100.0
 42
100.0
 43
100.0
 50
270.0
  0
INSERT
  5
1E5E1
330
1B5FD
100
AcDbEntity
  8
寸法
 62
     0
 48
50.0
370
    -2
100
AcDbBlockReference
  2
_DOTSMALL
 10
6930.307249876098
 20
7722.272318337264
 30
0.0
 41
100.0
 42
100.0
 43
100.0
 50
90.0
  0
MTEXT
  5
1E5E2
330
1B5FD
100
AcDbEntity
  8
寸法
 62
     7
 48
50.0
100
AcDbMText
 10
6830.295438852475
 20
7980.355861610151
 30
0.0
 40
120.0
 41
0.0
 71
     5
 72
     1
  1
\A1;120
  7
STYLE1
 11
0.0000000000000001
 21
1.0
 31
0.0
 73
     1
 44
1.0
1001
ACAD
1000
MTEXTBEGIN
1070
    73
1070
     1
1070
    44
1040
1.0
1070
    74
1070
     0
1000
MTEXTEND
  0
POINT
  5
1E5E3
330
1B5FD
100
AcDbEntity
  8
DEFPOINTS
 62
     0
 48
50.0
100
AcDbPoint
 10
6713.600000000001
 20
7602.272318337262
 30
0.0
  0
POINT
  5
1E5E4
330
1B5FD
100
AcDbEntity
  8
DEFPOINTS
 62
     0
 48
50.0
100
AcDbPoint
 10
6713.600000000001
 20
7722.272318337264
 30
0.0
  0
POINT
  5
1E5E5
330
1B5FD
100
AcDbEntity
  8
DEFPOINTS
 62
     0
 48
50.0
100
AcDbPoint
 10
6930.307249876098
 20
7722.272318337264
 30
0.0
  0
ENDBLK
  5
1B609
330
1B5FD
100
AcDbEntity
  8
0
 48
50.0
100
AcDbBlockEnd
  0
BLOCK
  5
1B614
330
1B60A
100
AcDbEntity
  8
0
 48
50.0
100
AcDbBlockBegin
  2
*D18
 70
     1
 10
0.0
 20
0.0
 30
0.0
  3
*D18
  1

  0
LINE
  5
1E5D3
330
1B60A
100
AcDbEntity
  8
寸法
 62
     0
 48
50.0
370
    -2
100
AcDbLine
 10
9055.600000000001
 20
7042.272318337265
 30
0.0
 11
9055.600000000001
 21
8309.182083985595
 31
0.0
  0
LINE
  5
1E5D4
330
1B60A
100
AcDbEntity
  8
寸法
 62
     0
 48
50.0
370
    -2
100
AcDbLine
 10
8223.600000000001
 20
7042.272318337265
 30
0.0
 11
8223.600000000001
 21
8309.182083985595
 31
0.0
  0
LINE
  5
1E5D5
330
1B60A
100
AcDbEntity
  8
寸法
 62
     0
 48
50.0
370
    -2
100
AcDbLine
 10
9055.600000000001
 20
8249.182083985592
 30
0.0
 11
8223.600000000001
 21
8249.182083985592
 31
0.0
  0
INSERT
  5
1E5D6
330
1B60A
100
AcDbEntity
  8
寸法
 62
     0
 48
50.0
370
    -2
100
AcDbBlockReference
  2
_DOTSMALL
 10
9055.600000000001
 20
8249.182083985592
 30
0.0
 41
100.0
 42
100.0
 43
100.0
  0
INSERT
  5
1E5D7
330
1B60A
100
AcDbEntity
  8
寸法
 62
     0
 48
50.0
370
    -2
100
AcDbBlockReference
  2
_DOTSMALL
 10
8223.600000000001
 20
8249.182083985592
 30
0.0
 41
100.0
 42
100.0
 43
100.0
 50
180.0
  0
MTEXT
  5
1E5D8
330
1B60A
100
AcDbEntity
  8
寸法
 62
     7
 48
50.0
100
AcDbMText
 10
8639.599999999999
 20
8349.193895009214
 30
0.0
 40
120.0
 41
0.0
 71
     5
 72
     1
  1
\A1;832
  7
STYLE1
 73
     1
 44
1.0
1001
ACAD
1000
MTEXTBEGIN
1070
    73
1070
     1
1070
    44
1040
1.0
1070
    74
1070
     0
1000
MTEXTEND
  0
POINT
  5
1E5D9
330
1B60A
100
AcDbEntity
  8
DEFPOINTS
 62
     0
 48
50.0
100
AcDbPoint
 10
9055.600000000001
 20
7022.272318337265
 30
0.0
  0
POINT
  5
1E5DA
330
1B60A
100
AcDbEntity
  8
DEFPOINTS
 62
     0
 48
50.0
100
AcDbPoint
 10
8223.600000000001
 20
7022.272318337265
 30
0.0
  0
POINT
  5
1E5DB
330
1B60A
100
AcDbEntity
  8
DEFPOINTS
 62
     0
 48
50.0
100
AcDbPoint
 10
8223.600000000001
 20
8249.182083985592
 30
0.0
  0
ENDBLK
  5
1B615
330
1B60A
100
AcDbEntity
  8
0
 48
50.0
100
AcDbBlockEnd
  0
BLOCK
  5
1B620
330
1B616
100
AcDbEntity
  8
0
 48
50.0
100
AcDbBlockBegin
  2
*D19
 70
     1
 10
0.0
 20
0.0
 30
0.0
  3
*D19
  1

  0
LINE
  5
1E5CA
330
1B616
100
AcDbEntity
  8
寸法
 62
     0
 48
50.0
370
    -2
100
AcDbLine
 10
8223.600000000001
 20
7042.272318337265
 30
0.0
 11
8223.600000000001
 21
8309.182083985595
 31
0.0
  0
LINE
  5
1E5CB
330
1B616
100
AcDbEntity
  8
寸法
 62
     0
 48
50.0
370
    -2
100
AcDbLine
 10
7391.600000000001
 20
7042.272318337265
 30
0.0
 11
7391.600000000001
 21
8309.182083985595
 31
0.0
  0
LINE
  5
1E5CC
330
1B616
100
AcDbEntity
  8
寸法
 62
     0
 48
50.0
370
    -2
100
AcDbLine
 10
8223.600000000001
 20
8249.182083985592
 30
0.0
 11
7391.600000000001
 21
8249.182083985592
 31
0.0
  0
INSERT
  5
1E5CD
330
1B616
100
AcDbEntity
  8
寸法
 62
     0
 48
50.0
370
    -2
100
AcDbBlockReference
  2
_DOTSMALL
 10
8223.600000000001
 20
8249.182083985592
 30
0.0
 41
100.0
 42
100.0
 43
100.0
  0
INSERT
  5
1E5CE
330
1B616
100
AcDbEntity
  8
寸法
 62
     0
 48
50.0
370
    -2
100
AcDbBlockReference
  2
_DOTSMALL
 10
7391.600000000001
 20
8249.182083985592
 30
0.0
 41
100.0
 42
100.0
 43
100.0
 50
180.0
  0
MTEXT
  5
1E5CF
330
1B616
100
AcDbEntity
  8
寸法
 62
     7
 48
50.0
100
AcDbMText
 10
7807.6
 20
8349.193895009214
 30
0.0
 40
120.0
 41
0.0
 71
     5
 72
     1
  1
\A1;832
  7
STYLE1
 73
     1
 44
1.0
1001
ACAD
1000
MTEXTBEGIN
1070
    73
1070
     1
1070
    44
1040
1.0
1070
    74
1070
     0
1000
MTEXTEND
  0
POINT
  5
1E5D0
330
1B616
100
AcDbEntity
  8
DEFPOINTS
 62
     0
 48
50.0
100
AcDbPoint
 10
8223.600000000001
 20
7022.272318337265
 30
0.0
  0
POINT
  5
1E5D1
330
1B616
100
AcDbEntity
  8
DEFPOINTS
 62
     0
 48
50.0
100
AcDbPoint
 10
7391.600000000001
 20
7022.272318337265
 30
0.0
  0
POINT
  5
1E5D2
330
1B616
100
AcDbEntity
  8
DEFPOINTS
 62
     0
 48
50.0
100
AcDbPoint
 10
7391.600000000001
 20
8249.182083985592
 30
0.0
  0
ENDBLK
  5
1B621
330
1B616
100
AcDbEntity
  8
0
 48
50.0
100
AcDbBlockEnd
  0
BLOCK
  5
1B62D
330
1B622
100
AcDbEntity
  8
0
 48
50.0
100
AcDbBlockBegin
  2
*D20
 70
     1
 10
0.0
 20
0.0
 30
0.0
  3
*D20
  1

  0
LINE
  5
1E5C0
330
1B622
100
AcDbEntity
  8
寸法
 62
     0
 48
50.0
370
    -2
100
AcDbLine
 10
9963.600000000001
 20
7261.556914875722
 30
0.0
 11
9963.600000000001
 21
7204.563650836892
 31
0.0
  0
LINE
  5
1E5C1
330
1B622
100
AcDbEntity
  8
寸法
 62
     0
 48
50.0
370
    -2
100
AcDbLine
 10
9843.600000000002
 20
7261.556914875722
 30
0.0
 11
9843.600000000002
 21
7204.563650836892
 31
0.0
  0
LINE
  5
1E5C2
330
1B622
100
AcDbEntity
  8
寸法
 62
     0
 48
50.0
370
    -2
100
AcDbLine
 10
9843.600000000002
 20
7264.563650836892
 30
0.0
 11
9963.600000000001
 21
7264.563650836892
 31
0.0
  0
LINE
  5
1E5C3
330
1B622
100
AcDbEntity
  8
寸法
 62
     0
 48
50.0
370
    -2
100
AcDbLine
 10
9963.600000000001
 20
7264.563650836892
 30
0.0
 11
10349.7062992126
 21
7264.563650836892
 31
0.0
  0
INSERT
  5
1E5C4
330
1B622
100
AcDbEntity
  8
寸法
 62
     0
 48
50.0
370
    -2
100
AcDbBlockReference
  2
_DOTSMALL
 10
9843.600000000002
 20
7264.563650836892
 30
0.0
 41
100.0
 42
100.0
 43
100.0
 50
180.0
  0
INSERT
  5
1E5C5
330
1B622
100
AcDbEntity
  8
寸法
 62
     0
 48
50.0
370
    -2
100
AcDbBlockReference
  2
_DOTSMALL
 10
9963.600000000001
 20
7264.563650836892
 30
0.0
 41
100.0
 42
100.0
 43
100.0
  0
MTEXT
  5
1E5C6
330
1B622
100
AcDbEntity
  8
寸法
 62
     7
 48
50.0
100
AcDbMText
 10
10213.65905511811
 20
7364.575461860514
 30
0.0
 40
120.0
 41
0.0
 71
     5
 72
     1
  1
\A1;120
  7
STYLE1
 73
     1
 44
1.0
1001
ACAD
1000
MTEXTBEGIN
1070
    73
1070
     1
1070
    44
1040
1.0
1070
    74
1070
     0
1000
MTEXTEND
  0
POINT
  5
1E5C7
330
1B622
100
AcDbEntity
  8
DEFPOINTS
 62
     0
 48
50.0
100
AcDbPoint
 10
9963.600000000001
 20
7281.556914875721
 30
0.0
  0
POINT
  5
1E5C8
330
1B622
100
AcDbEntity
  8
DEFPOINTS
 62
     0
 48
50.0
100
AcDbPoint
 10
9843.600000000002
 20
7281.556914875721
 30
0.0
  0
POINT
  5
1E5C9
330
1B622
100
AcDbEntity
  8
DEFPOINTS
 62
     0
 48
50.0
100
AcDbPoint
 10
9843.600000000002
 20
7264.563650836892
 30
0.0
  0
ENDBLK
  5
1B62E
330
1B622
100
AcDbEntity
  8
0
 48
50.0
100
AcDbBlockEnd
  0
BLOCK
  5
1B63A
330
1B62F
100
AcDbEntity
  8
0
 48
50.0
100
AcDbBlockBegin
  2
*D21
 70
     1
 10
0.0
 20
0.0
 30
0.0
  3
*D21
  1

  0
LINE
  5
1E5B6
330
1B62F
100
AcDbEntity
  8
寸法
 62
     0
 48
50.0
370
    -2
100
AcDbLine
 10
9843.600000000002
 20
7261.556914875722
 30
0.0
 11
9843.600000000002
 21
7204.563650836892
 31
0.0
  0
LINE
  5
1E5B7
330
1B62F
100
AcDbEntity
  8
寸法
 62
     0
 48
50.0
370
    -2
100
AcDbLine
 10
9733.600000000002
 20
7472.272318337264
 30
0.0
 11
9733.600000000002
 21
7204.563650836892
 31
0.0
  0
LINE
  5
1E5B8
330
1B62F
100
AcDbEntity
  8
寸法
 62
     0
 48
50.0
370
    -2
100
AcDbLine
 10
9843.600000000002
 20
7264.563650836892
 30
0.0
 11
9733.600000000002
 21
7264.563650836892
 31
0.0
  0
LINE
  5
1E5B9
330
1B62F
100
AcDbEntity
  8
寸法
 62
     0
 48
50.0
370
    -2
100
AcDbLine
 10
9733.600000000002
 20
7264.563650836892
 30
0.0
 11
9319.493700787402
 21
7264.563650836892
 31
0.0
  0
INSERT
  5
1E5BA
330
1B62F
100
AcDbEntity
  8
寸法
 62
     0
 48
50.0
370
    -2
100
AcDbBlockReference
  2
_DOTSMALL
 10
9843.600000000002
 20
7264.563650836892
 30
0.0
 41
100.0
 42
100.0
 43
100.0
  0
INSERT
  5
1E5BB
330
1B62F
100
AcDbEntity
  8
寸法
 62
     0
 48
50.0
370
    -2
100
AcDbBlockReference
  2
_DOTSMALL
 10
9733.600000000002
 20
7264.563650836892
 30
0.0
 41
100.0
 42
100.0
 43
100.0
 50
180.0
  0
MTEXT
  5
1E5BC
330
1B62F
100
AcDbEntity
  8
寸法
 62
     7
 48
50.0
100
AcDbMText
 10
9443.54094488189
 20
7364.563650836892
 30
0.0
 40
120.0
 41
0.0
 71
     5
 72
     1
  1
\A1;110
  7
STYLE1
 73
     1
 44
1.0
1001
ACAD
1000
MTEXTBEGIN
1070
    73
1070
     1
1070
    44
1040
1.0
1070
    74
1070
     0
1000
MTEXTEND
  0
POINT
  5
1E5BD
330
1B62F
100
AcDbEntity
  8
DEFPOINTS
 62
     0
 48
50.0
100
AcDbPoint
 10
9843.600000000002
 20
7281.556914875721
 30
0.0
  0
POINT
  5
1E5BE
330
1B62F
100
AcDbEntity
  8
DEFPOINTS
 62
     0
 48
50.0
100
AcDbPoint
 10
9733.600000000002
 20
7492.272318337263
 30
0.0
  0
POINT
  5
1E5BF
330
1B62F
100
AcDbEntity
  8
DEFPOINTS
 62
     0
 48
50.0
100
AcDbPoint
 10
9733.600000000002
 20
7264.563650836892
 30
0.0
  0
ENDBLK
  5
1B63B
330
1B62F
100
AcDbEntity
  8
0
 48
50.0
100
AcDbBlockEnd
  0
BLOCK
  5
1B645
330
1B63C
100
AcDbEntity
  8
0
 48
50.0
100
AcDbBlockBegin
  2
*D22
 70
     1
 10
0.0
 20
0.0
 30
0.0
  3
*D22
  1

  0
LINE
  5
1E5AD
330
1B63C
100
AcDbEntity
  8
寸法
 62
     0
 48
50.0
370
    -2
100
AcDbLine
 10
7271.600000000001
 20
6822.272318337265
 30
0.0
 11
7115.088299142577
 21
6822.272318337265
 31
0.0
  0
LINE
  5
1E5AE
330
1B63C
100
AcDbEntity
  8
寸法
 62
     0
 48
50.0
370
    -2
100
AcDbLine
 10
6894.600000000001
 20
7722.272318337265
 30
0.0
 11
7235.088299142578
 21
7722.272318337265
 31
0.0
  0
LINE
  5
1E5AF
330
1B63C
100
AcDbEntity
  8
寸法
 62
     0
 48
50.0
370
    -2
100
AcDbLine
 10
7175.088299142577
 20
6822.272318337265
 30
0.0
 11
7175.088299142577
 21
7722.272318337265
 31
0.0
  0
INSERT
  5
1E5B0
330
1B63C
100
AcDbEntity
  8
寸法
 62
     0
 48
50.0
370
    -2
100
AcDbBlockReference
  2
_DOTSMALL
 10
7175.088299142577
 20
6822.272318337265
 30
0.0
 41
100.0
 42
100.0
 43
100.0
 50
270.0
  0
INSERT
  5
1E5B1
330
1B63C
100
AcDbEntity
  8
寸法
 62
     0
 48
50.0
370
    -2
100
AcDbBlockReference
  2
_DOTSMALL
 10
7175.088299142577
 20
7722.272318337265
 30
0.0
 41
100.0
 42
100.0
 43
100.0
 50
90.0
  0
MTEXT
  5
1E5B2
330
1B63C
100
AcDbEntity
  8
寸法
 62
     7
 48
50.0
100
AcDbMText
 10
7075.088299142575
 20
7304.51842814745
 30
0.0
 40
120.0
 41
0.0
 71
     5
 72
     1
  1
\A1;900
  7
STYLE1
 11
0.0000000000000001
 21
1.0
 31
0.0
 73
     1
 44
1.0
1001
ACAD
1000
MTEXTBEGIN
1070
    73
1070
     1
1070
    44
1040
1.0
1070
    74
1070
     0
1000
MTEXTEND
  0
POINT
  5
1E5B3
330
1B63C
100
AcDbEntity
  8
DEFPOINTS
 62
     0
 48
50.0
100
AcDbPoint
 10
7291.600000000001
 20
6822.272318337265
 30
0.0
  0
POINT
  5
1E5B4
330
1B63C
100
AcDbEntity
  8
DEFPOINTS
 62
     0
 48
50.0
100
AcDbPoint
 10
6874.6
 20
7722.272318337265
 30
0.0
  0
POINT
  5
1E5B5
330
1B63C
100
AcDbEntity
  8
DEFPOINTS
 62
     0
 48
50.0
100
AcDbPoint
 10
7175.088299142577
 20
7722.272318337265
 30
0.0
  0
ENDBLK
  5
1B646
330
1B63C
100
AcDbEntity
  8
0
 48
50.0
100
AcDbBlockEnd
  0
BLOCK
  5
1B651
330
1B647
100
AcDbEntity
  8
0
 48
50.0
100
AcDbBlockBegin
  2
*D23
 70
     1
 10
0.0
 20
0.0
 30
0.0
  3
*D23
  1

  0
LINE
  5
1E5A4
330
1B647
100
AcDbEntity
  8
寸法
 62
     0
 48
50.0
370
    -2
100
AcDbLine
 10
9963.600000000001
 20
7742.272318337265
 30
0.0
 11
9963.600000000001
 21
8309.182083985595
 31
0.0
  0
LINE
  5
1E5A5
330
1B647
100
AcDbEntity
  8
寸法
 62
     0
 48
50.0
370
    -2
100
AcDbLine
 10
9055.600000000001
 20
7042.272318337265
 30
0.0
 11
9055.600000000001
 21
8309.182083985595
 31
0.0
  0
LINE
  5
1E5A6
330
1B647
100
AcDbEntity
  8
寸法
 62
     0
 48
50.0
370
    -2
100
AcDbLine
 10
9963.600000000001
 20
8249.182083985592
 30
0.0
 11
9055.600000000001
 21
8249.182083985592
 31
0.0
  0
INSERT
  5
1E5A7
330
1B647
100
AcDbEntity
  8
寸法
 62
     0
 48
50.0
370
    -2
100
AcDbBlockReference
  2
_DOTSMALL
 10
9963.600000000001
 20
8249.182083985592
 30
0.0
 41
100.0
 42
100.0
 43
100.0
  0
INSERT
  5
1E5A8
330
1B647
100
AcDbEntity
  8
寸法
 62
     0
 48
50.0
370
    -2
100
AcDbBlockReference
  2
_DOTSMALL
 10
9055.600000000001
 20
8249.182083985592
 30
0.0
 41
100.0
 42
100.0
 43
100.0
 50
180.0
  0
MTEXT
  5
1E5A9
330
1B647
100
AcDbEntity
  8
寸法
 62
     7
 48
50.0
100
AcDbMText
 10
9534.51852200628
 20
8349.182083985594
 30
0.0
 40
120.0
 41
0.0
 71
     5
 72
     1
  1
\A1;908
  7
STYLE1
 73
     1
 44
1.0
1001
ACAD
1000
MTEXTBEGIN
1070
    73
1070
     1
1070
    44
1040
1.0
1070
    74
1070
     0
1000
MTEXTEND
  0
POINT
  5
1E5AA
330
1B647
100
AcDbEntity
  8
DEFPOINTS
 62
     0
 48
50.0
100
AcDbPoint
 10
9963.600000000001
 20
7722.272318337265
 30
0.0
  0
POINT
  5
1E5AB
330
1B647
100
AcDbEntity
  8
DEFPOINTS
 62
     0
 48
50.0
100
AcDbPoint
 10
9055.600000000001
 20
7022.272318337265
 30
0.0
  0
POINT
  5
1E5AC
330
1B647
100
AcDbEntity
  8
DEFPOINTS
 62
     0
 48
50.0
100
AcDbPoint
 10
9055.600000000001
 20
8249.182083985592
 30
0.0
  0
ENDBLK
  5
1B652
330
1B647
100
AcDbEntity
  8
0
 48
50.0
100
AcDbBlockEnd
  0
BLOCK
  5
1B65D
330
1B653
100
AcDbEntity
  8
0
 48
50.0
100
AcDbBlockBegin
  2
*D24
 70
     1
 10
0.0
 20
0.0
 30
0.0
  3
*D24
  1

  0
LINE
  5
1E59B
330
1B653
100
AcDbEntity
  8
寸法
 62
     0
 48
50.0
370
    -2
100
AcDbLine
 10
9511.599999999999
 20
5827.272318337282
 30
0.0
 11
9511.599999999999
 21
5072.408014913155
 31
0.0
  0
LINE
  5
1E59C
330
1B653
100
AcDbEntity
  8
寸法
 62
     0
 48
50.0
370
    -2
100
AcDbLine
 10
7356.6
 20
5827.272318337268
 30
0.0
 11
7356.6
 21
5072.408014913155
 31
0.0
  0
LINE
  5
1E59D
330
1B653
100
AcDbEntity
  8
寸法
 62
     0
 48
50.0
370
    -2
100
AcDbLine
 10
9511.599999999999
 20
5132.408014913155
 30
0.0
 11
7356.6
 21
5132.408014913155
 31
0.0
  0
INSERT
  5
1E59E
330
1B653
100
AcDbEntity
  8
寸法
 62
     0
 48
50.0
370
    -2
100
AcDbBlockReference
  2
_DOTSMALL
 10
9511.599999999999
 20
5132.408014913155
 30
0.0
 41
100.0
 42
100.0
 43
100.0
  0
INSERT
  5
1E59F
330
1B653
100
AcDbEntity
  8
寸法
 62
     0
 48
50.0
370
    -2
100
AcDbBlockReference
  2
_DOTSMALL
 10
7356.6
 20
5132.408014913155
 30
0.0
 41
100.0
 42
100.0
 43
100.0
 50
180.0
  0
MTEXT
  5
1E5A0
330
1B653
100
AcDbEntity
  8
寸法
 62
     7
 48
50.0
100
AcDbMText
 10
8434.1
 20
5232.419825936776
 30
0.0
 40
120.0
 41
0.0
 71
     5
 72
     1
  1
\A1;扉の幅 2155
  7
STYLE1
 73
     1
 44
1.0
1001
ACAD
1000
MTEXTBEGIN
1070
    73
1070
     1
1070
    44
1040
1.0
1070
    74
1070
     0
1000
MTEXTEND
  0
POINT
  5
1E5A1
330
1B653
100
AcDbEntity
  8
DEFPOINTS
 62
     0
 48
50.0
100
AcDbPoint
 10
9511.599999999999
 20
5847.272318337282
 30
0.0
  0
POINT
  5
1E5A2
330
1B653
100
AcDbEntity
  8
DEFPOINTS
 62
     0
 48
50.0
100
AcDbPoint
 10
7356.6
 20
5847.272318337267
 30
0.0
  0
POINT
  5
1E5A3
330
1B653
100
AcDbEntity
  8
DEFPOINTS
 62
     0
 48
50.0
100
AcDbPoint
 10
7356.6
 20
5132.408014913155
 30
0.0
  0
ENDBLK
  5
1B65E
330
1B653
100
AcDbEntity
  8
0
 48
50.0
100
AcDbBlockEnd
  0
BLOCK
  5
1B669
330
1B65F
100
AcDbEntity
  8
0
 48
50.0
100
AcDbBlockBegin
  2
*D25
 70
     1
 10
0.0
 20
0.0
 30
0.0
  3
*D25
  1

  0
LINE
  5
1E592
330
1B65F
100
AcDbEntity
  8
寸法
 62
     0
 48
50.0
370
    -2
100
AcDbLine
 10
7336.6
 20
5922.272318337267
 30
0.0
 11
7115.088299142576
 21
5922.272318337267
 31
0.0
  0
LINE
  5
1E593
330
1B65F
100
AcDbEntity
  8
寸法
 62
     0
 48
50.0
370
    -2
100
AcDbLine
 10
7271.600000000001
 20
6822.272318337265
 30
0.0
 11
7115.088299142577
 21
6822.272318337265
 31
0.0
  0
LINE
  5
1E594
330
1B65F
100
AcDbEntity
  8
寸法
 62
     0
 48
50.0
370
    -2
100
AcDbLine
 10
7175.088299142577
 20
5922.272318337267
 30
0.0
 11
7175.088299142577
 21
6822.272318337265
 31
0.0
  0
INSERT
  5
1E595
330
1B65F
100
AcDbEntity
  8
寸法
 62
     0
 48
50.0
370
    -2
100
AcDbBlockReference
  2
_DOTSMALL
 10
7175.088299142577
 20
5922.272318337267
 30
0.0
 41
100.0
 42
100.0
 43
100.0
 50
270.0
  0
INSERT
  5
1E596
330
1B65F
100
AcDbEntity
  8
寸法
 62
     0
 48
50.0
370
    -2
100
AcDbBlockReference
  2
_DOTSMALL
 10
7175.088299142577
 20
6822.272318337265
 30
0.0
 41
100.0
 42
100.0
 43
100.0
 50
90.0
  0
MTEXT
  5
1E597
330
1B65F
100
AcDbEntity
  8
寸法
 62
     7
 48
50.0
100
AcDbMText
 10
7075.088299142575
 20
6372.272318337269
 30
0.0
 40
120.0
 41
0.0
 71
     5
 72
     1
  1
\A1;900
  7
STYLE1
 11
0.0000000000000001
 21
1.0
 31
0.0
 73
     1
 44
1.0
1001
ACAD
1000
MTEXTBEGIN
1070
    73
1070
     1
1070
    44
1040
1.0
1070
    74
1070
     0
1000
MTEXTEND
  0
POINT
  5
1E598
330
1B65F
100
AcDbEntity
  8
DEFPOINTS
 62
     0
 48
50.0
100
AcDbPoint
 10
7356.6
 20
5922.272318337267
 30
0.0
  0
POINT
  5
1E599
330
1B65F
100
AcDbEntity
  8
DEFPOINTS
 62
     0
 48
50.0
100
AcDbPoint
 10
7291.600000000001
 20
6822.272318337265
 30
0.0
  0
POINT
  5
1E59A
330
1B65F
100
AcDbEntity
  8
DEFPOINTS
 62
     0
 48
50.0
100
AcDbPoint
 10
7175.088299142577
 20
6822.272318337265
 30
0.0
  0
ENDBLK
  5
1B66A
330
1B65F
100
AcDbEntity
  8
0
 48
50.0
100
AcDbBlockEnd
  0
BLOCK
  5
1B676
330
1B66B
100
AcDbEntity
  8
0
 48
50.0
100
AcDbBlockBegin
  2
*D26
 70
     1
 10
0.0
 20
0.0
 30
0.0
  3
*D26
  1

  0
LINE
  5
1E588
330
1B66B
100
AcDbEntity
  8
寸法
 62
     0
 48
50.0
370
    -2
100
AcDbLine
 10
9963.600000000001
 20
7742.272318337265
 30
0.0
 11
9963.600000000001
 21
8528.03194487935
 31
0.0
  0
LINE
  5
1E589
330
1B66B
100
AcDbEntity
  8
寸法
 62
     0
 48
50.0
370
    -2
100
AcDbLine
 10
9840.600000000002
 20
7669.272318337265
 30
0.0
 11
9840.600000000002
 21
8528.03194487935
 31
0.0
  0
LINE
  5
1E58A
330
1B66B
100
AcDbEntity
  8
寸法
 62
     0
 48
50.0
370
    -2
100
AcDbLine
 10
9840.600000000002
 20
8468.031944879349
 30
0.0
 11
9963.600000000001
 21
8468.031944879349
 31
0.0
  0
LINE
  5
1E58B
330
1B66B
100
AcDbEntity
  8
寸法
 62
     0
 48
50.0
370
    -2
100
AcDbLine
 10
9963.600000000001
 20
8468.031944879349
 30
0.0
 11
10375.19188309203
 21
8468.031944879349
 31
0.0
  0
INSERT
  5
1E58C
330
1B66B
100
AcDbEntity
  8
寸法
 62
     0
 48
50.0
370
    -2
100
AcDbBlockReference
  2
_DOTSMALL
 10
9840.600000000002
 20
8468.031944879349
 30
0.0
 41
100.0
 42
100.0
 43
100.0
 50
180.0
  0
INSERT
  5
1E58D
330
1B66B
100
AcDbEntity
  8
寸法
 62
     0
 48
50.0
370
    -2
100
AcDbBlockReference
  2
_DOTSMALL
 10
9963.600000000001
 20
8468.031944879349
 30
0.0
 41
100.0
 42
100.0
 43
100.0
  0
MTEXT
  5
1E58E
330
1B66B
100
AcDbEntity
  8
寸法
 62
     7
 48
50.0
100
AcDbMText
 10
10236.7066017178
 20
8568.043755902971
 30
0.0
 40
120.0
 41
0.0
 71
     5
 72
     1
  1
\A1;123
  7
STYLE1
 73
     1
 44
1.0
1001
ACAD
1000
MTEXTBEGIN
1070
    73
1070
     1
1070
    44
1040
1.0
1070
    74
1070
     0
1000
MTEXTEND
  0
POINT
  5
1E58F
330
1B66B
100
AcDbEntity
  8
DEFPOINTS
 62
     0
 48
50.0
100
AcDbPoint
 10
9963.600000000001
 20
7722.272318337265
 30
0.0
  0
POINT
  5
1E590
330
1B66B
100
AcDbEntity
  8
DEFPOINTS
 62
     0
 48
50.0
100
AcDbPoint
 10
9840.600000000002
 20
7649.272318337266
 30
0.0
  0
POINT
  5
1E591
330
1B66B
100
AcDbEntity
  8
DEFPOINTS
 62
     0
 48
50.0
100
AcDbPoint
 10
9840.600000000002
 20
8468.031944879349
 30
0.0
  0
ENDBLK
  5
1B677
330
1B66B
100
AcDbEntity
  8
0
 48
50.0
100
AcDbBlockEnd
  0
BLOCK
  5
1B683
330
1B678
100
AcDbEntity
  8
0
 48
50.0
100
AcDbBlockBegin
  2
*D27
 70
     1
 10
0.0
 20
0.0
 30
0.0
  3
*D27
  1

  0
LINE
  5
1E57D
330
1B678
100
AcDbEntity
  8
寸法
 62
     0
 48
50.0
370
    -2
100
AcDbLine
 10
9963.600000000001
 20
7742.272318337265
 30
0.0
 11
9963.600000000001
 21
8740.492640396189
 31
0.0
  0
LINE
  5
1E57E
330
1B678
100
AcDbEntity
  8
寸法
 62
     0
 48
50.0
370
    -2
100
AcDbLine
 10
10008.6
 20
8488.031944879349
 30
0.0
 11
10008.6
 21
8740.492640396189
 31
0.0
  0
LINE
  5
1E57F
330
1B678
100
AcDbEntity
  8
寸法
 62
     0
 48
50.0
370
    -2
100
AcDbLine
 10
9963.600000000001
 20
8680.492640396186
 30
0.0
 11
9863.600000000001
 21
8680.492640396186
 31
0.0
  0
LINE
  5
1E580
330
1B678
100
AcDbEntity
  8
寸法
 62
     0
 48
50.0
370
    -2
100
AcDbLine
 10
10008.6
 20
8680.492640396186
 30
0.0
 11
10345.94924240492
 21
8680.492640396186
 31
0.0
  0
LINE
  5
1E581
330
1B678
100
AcDbEntity
  8
寸法
 62
     0
 48
50.0
370
    -2
100
AcDbLine
 10
9963.600000000001
 20
8680.492640396186
 30
0.0
 11
10008.6
 21
8680.492640396186
 31
0.0
  0
INSERT
  5
1E582
330
1B678
100
AcDbEntity
  8
寸法
 62
     0
 48
50.0
370
    -2
100
AcDbBlockReference
  2
_DOTSMALL
 10
9963.600000000001
 20
8680.492640396186
 30
0.0
 41
100.0
 42
100.0
 43
100.0
  0
INSERT
  5
1E583
330
1B678
100
AcDbEntity
  8
寸法
 62
     0
 48
50.0
370
    -2
100
AcDbBlockReference
  2
_DOTSMALL
 10
10008.6
 20
8680.492640396186
 30
0.0
 41
100.0
 42
100.0
 43
100.0
 50
180.0
  0
MTEXT
  5
1E584
330
1B678
100
AcDbEntity
  8
寸法
 62
     7
 48
50.0
100
AcDbMText
 10
10279.77462120246
 20
8780.492640396188
 30
0.0
 40
120.0
 41
0.0
 71
     5
 72
     1
  1
\A1;a
  7
STYLE1
 73
     1
 44
1.0
1001
ACAD
1000
MTEXTBEGIN
1070
    73
1070
     1
1070
    44
1040
1.0
1070
    74
1070
     0
1000
MTEXTEND
  0
POINT
  5
1E585
330
1B678
100
AcDbEntity
  8
DEFPOINTS
 62
     0
 48
50.0
100
AcDbPoint
 10
9963.600000000001
 20
7722.272318337265
 30
0.0
  0
POINT
  5
1E586
330
1B678
100
AcDbEntity
  8
DEFPOINTS
 62
     0
 48
50.0
100
AcDbPoint
 10
10008.6
 20
8468.031944879349
 30
0.0
  0
POINT
  5
1E587
330
1B678
100
AcDbEntity
  8
DEFPOINTS
 62
     0
 48
50.0
100
AcDbPoint
 10
10008.6
 20
8680.492640396186
 30
0.0
  0
ENDBLK
  5
1B684
330
1B678
100
AcDbEntity
  8
0
 48
50.0
100
AcDbBlockEnd
  0
BLOCK
  5
1D311
330
1D305
100
AcDbEntity
  8
0
 48
50.0
100
AcDbBlockBegin
  2
*D28
 70
     1
 10
0.0
 20
0.0
 30
0.0
  3
*D28
  1

  0
LINE
  5
1E573
330
1D305
100
AcDbEntity
  8
寸法
 62
     0
 48
50.0
370
    -2
100
AcDbLine
 10
7376.6
 20
5847.272318337283
 30
0.0
 11
7649.016176011947
 21
5847.272318337283
 31
0.0
  0
LINE
  5
1E574
330
1D305
100
AcDbEntity
  8
寸法
 62
     0
 48
50.0
370
    -2
100
AcDbLine
 10
7376.6
 20
6042.272318337289
 30
0.0
 11
7649.016176011947
 21
6042.272318337289
 31
0.0
  0
LINE
  5
1E575
330
1D305
100
AcDbEntity
  8
寸法
 62
     0
 48
50.0
370
    -2
100
AcDbLine
 10
7589.016176011947
 20
6042.272318337289
 30
0.0
 11
7589.016176011947
 21
5847.272318337283
 31
0.0
  0
LINE
  5
1E576
330
1D305
100
AcDbEntity
  8
寸法
 62
     0
 48
50.0
370
    -2
100
AcDbLine
 10
7589.016176011947
 20
5847.272318337283
 30
0.0
 11
7589.016176011947
 21
5469.882435929493
 31
0.0
  0
INSERT
  5
1E577
330
1D305
100
AcDbEntity
  8
寸法
 62
     0
 48
50.0
370
    -2
100
AcDbBlockReference
  2
_DOTSMALL
 10
7589.016176011947
 20
6042.272318337289
 30
0.0
 41
100.0
 42
100.0
 43
100.0
 50
90.0
  0
INSERT
  5
1E578
330
1D305
100
AcDbEntity
  8
寸法
 62
     0
 48
50.0
370
    -2
100
AcDbBlockReference
  2
_DOTSMALL
 10
7589.016176011947
 20
5847.272318337283
 30
0.0
 41
100.0
 42
100.0
 43
100.0
 50
270.0
  0
MTEXT
  5
1E579
330
1D305
100
AcDbEntity
  8
寸法
 62
     7
 48
50.0
100
AcDbMText
 10
7489.016176011947
 20
5608.577377133389
 30
0.0
 40
120.0
 41
0.0
 71
     5
 72
     1
  1
\A1;195
  7
STYLE1
 11
0.0000000000000001
 21
1.0
 31
0.0
 73
     1
 44
1.0
1001
ACAD
1000
MTEXTBEGIN
1070
    73
1070
     1
1070
    44
1040
1.0
1070
    74
1070
     0
1000
MTEXTEND
  0
POINT
  5
1E57A
330
1D305
100
AcDbEntity
  8
DEFPOINTS
 62
     0
 48
50.0
100
AcDbPoint
 10
7356.6
 20
5847.272318337283
 30
0.0
  0
POINT
  5
1E57B
330
1D305
100
AcDbEntity
  8
DEFPOINTS
 62
     0
 48
50.0
100
AcDbPoint
 10
7356.6
 20
6042.272318337289
 30
0.0
  0
POINT
  5
1E57C
330
1D305
100
AcDbEntity
  8
DEFPOINTS
 62
     0
 48
50.0
100
AcDbPoint
 10
7589.016176011947
 20
6042.272318337289
 30
0.0
  0
ENDBLK
  5
1D312
330
1D305
100
AcDbEntity
  8
0
 48
50.0
100
AcDbBlockEnd
  0
BLOCK
  5
1E40A
330
1E401
100
AcDbEntity
  8
0
 48
50.0
100
AcDbBlockBegin
  2
*D29
 70
     1
 10
0.0
 20
0.0
 30
0.0
  3
*D29
  1

  0
LINE
  5
1E56A
330
1E401
100
AcDbEntity
  8
寸法
 62
     0
 48
50.0
370
    -2
100
AcDbLine
 10
8328.081488615843
 20
1830.547220888093
 30
0.0
 11
8869.950088384689
 21
1830.547220888092
 31
0.0
  0
LINE
  5
1E56B
330
1E401
100
AcDbEntity
  8
寸法
 62
     0
 48
50.0
370
    -2
100
AcDbLine
 10
8328.081488615843
 20
1506.547220888092
 30
0.0
 11
8869.950088384689
 21
1506.547220888092
 31
0.0
  0
LINE
  5
1E56C
330
1E401
100
AcDbEntity
  8
寸法
 62
     0
 48
50.0
370
    -2
100
AcDbLine
 10
8809.950088384688
 20
1830.547220888092
 30
0.0
 11
8809.950088384688
 21
1506.547220888092
 31
0.0
  0
INSERT
  5
1E56D
330
1E401
100
AcDbEntity
  8
寸法
 62
     0
 48
50.0
370
    -2
100
AcDbBlockReference
  2
_DOTSMALL
 10
8809.950088384688
 20
1830.547220888092
 30
0.0
 41
100.0
 42
100.0
 43
100.0
 50
90.0
  0
INSERT
  5
1E56E
330
1E401
100
AcDbEntity
  8
寸法
 62
     0
 48
50.0
370
    -2
100
AcDbBlockReference
  2
_DOTSMALL
 10
8809.950088384688
 20
1506.547220888092
 30
0.0
 41
100.0
 42
100.0
 43
100.0
 50
270.0
  0
MTEXT
  5
1E56F
330
1E401
100
AcDbEntity
  8
寸法
 62
     7
 48
50.0
100
AcDbMText
 10
8709.950088384688
 20
1668.547220888093
 30
0.0
 40
120.0
 41
0.0
 71
     5
 72
     1
  1
\A1;180
  7
STYLE1
 11
0.0000000000000001
 21
1.0
 31
0.0
 73
     1
 44
1.0
1001
ACAD
1000
MTEXTBEGIN
1070
    73
1070
     1
1070
    44
1040
1.0
1070
    74
1070
     0
1000
MTEXTEND
  0
POINT
  5
1E570
330
1E401
100
AcDbEntity
  8
DEFPOINTS
 62
     0
 48
50.0
100
AcDbPoint
 10
8308.081488615846
 20
1830.547220888093
 30
0.0
  0
POINT
  5
1E571
330
1E401
100
AcDbEntity
  8
DEFPOINTS
 62
     0
 48
50.0
100
AcDbPoint
 10
8308.081488615846
 20
1506.547220888092
 30
0.0
  0
POINT
  5
1E572
330
1E401
100
AcDbEntity
  8
DEFPOINTS
 62
     0
 48
50.0
100
AcDbPoint
 10
8809.950088384688
 20
1506.547220888092
 30
0.0
  0
ENDBLK
  5
1E40B
330
1E401
100
AcDbEntity
  8
0
 48
50.0
100
AcDbBlockEnd
  0
BLOCK
  5
1E418
330
1E40C
100
AcDbEntity
  8
0
 48
50.0
100
AcDbBlockBegin
  2
*D30
 70
     1
 10
0.0
 20
0.0
 30
0.0
  3
*D30
  1

  0
LINE
  5
1E55F
330
1E40C
100
AcDbEntity
  8
寸法
 62
     0
 48
50.0
370
    -2
100
AcDbLine
 10
8140.881488615844
 20
1883.307220888094
 30
0.0
 11
9146.004754503715
 21
1883.307220888094
 31
0.0
  0
LINE
  5
1E560
330
1E40C
100
AcDbEntity
  8
寸法
 62
     0
 48
50.0
370
    -2
100
AcDbLine
 10
8328.081488615843
 20
1830.547220888093
 30
0.0
 11
9146.004754503715
 21
1830.547220888092
 31
0.0
  0
LINE
  5
1E561
330
1E40C
100
AcDbEntity
  8
寸法
 62
     0
 48
50.0
370
    -2
100
AcDbLine
 10
9086.004754503717
 20
1883.307220888094
 30
0.0
 11
9086.004754503717
 21
1983.307220888094
 31
0.0
  0
LINE
  5
1E562
330
1E40C
100
AcDbEntity
  8
寸法
 62
     0
 48
50.0
370
    -2
100
AcDbLine
 10
9086.004754503717
 20
1830.547220888092
 30
0.0
 11
9086.004754503717
 21
1098.529414045127
 31
0.0
  0
LINE
  5
1E563
330
1E40C
100
AcDbEntity
  8
寸法
 62
     0
 48
50.0
370
    -2
100
AcDbLine
 10
9086.004754503717
 20
1883.307220888094
 30
0.0
 11
9086.004754503717
 21
1830.547220888092
 31
0.0
  0
INSERT
  5
1E564
330
1E40C
100
AcDbEntity
  8
寸法
 62
     0
 48
50.0
370
    -2
100
AcDbBlockReference
  2
_DOTSMALL
 10
9086.004754503717
 20
1883.307220888094
 30
0.0
 41
100.0
 42
100.0
 43
100.0
 50
270.0
  0
INSERT
  5
1E565
330
1E40C
100
AcDbEntity
  8
寸法
 62
     0
 48
50.0
370
    -2
100
AcDbBlockReference
  2
_DOTSMALL
 10
9086.004754503717
 20
1830.547220888092
 30
0.0
 41
100.0
 42
100.0
 43
100.0
 50
90.0
  0
MTEXT
  5
1E566
330
1E40C
100
AcDbEntity
  8
寸法
 62
     7
 48
50.0
100
AcDbMText
 10
8985.992943480095
 20
1364.538317466611
 30
0.0
 40
120.0
 41
0.0
 71
     5
 72
     1
  1
\A1;20～25
  7
STYLE1
 11
0.0000000000000001
 21
1.0
 31
0.0
 73
     1
 44
1.0
1001
ACAD
1000
MTEXTBEGIN
1070
    73
1070
     1
1070
    44
1040
1.0
1070
    74
1070
     0
1000
MTEXTEND
  0
POINT
  5
1E567
330
1E40C
100
AcDbEntity
  8
DEFPOINTS
 62
     0
 48
50.0
100
AcDbPoint
 10
8120.881488615845
 20
1883.307220888094
 30
0.0
  0
POINT
  5
1E568
330
1E40C
100
AcDbEntity
  8
DEFPOINTS
 62
     0
 48
50.0
100
AcDbPoint
 10
8308.081488615846
 20
1830.547220888093
 30
0.0
  0
POINT
  5
1E569
330
1E40C
100
AcDbEntity
  8
DEFPOINTS
 62
     0
 48
50.0
100
AcDbPoint
 10
9086.004754503717
 20
1830.547220888092
 30
0.0
  0
ENDBLK
  5
1E419
330
1E40C
100
AcDbEntity
  8
0
 48
50.0
100
AcDbBlockEnd
  0
BLOCK
  5
1E424
330
1E41A
100
AcDbEntity
  8
0
 48
50.0
100
AcDbBlockBegin
  2
*D31
 70
     1
 10
0.0
 20
0.0
 30
0.0
  3
*D31
  1

  0
LINE
  5
1E556
330
1E41A
100
AcDbEntity
  8
寸法
 62
     0
 48
50.0
370
    -2
100
AcDbLine
 10
6046.042175438651
 20
1286.547220888093
 30
0.0
 11
5863.621861706191
 21
1286.547220888093
 31
0.0
  0
LINE
  5
1E557
330
1E41A
100
AcDbEntity
  8
寸法
 62
     0
 48
50.0
370
    -2
100
AcDbLine
 10
5966.042175438655
 20
1046.547220888093
 30
0.0
 11
5863.621861706191
 21
1046.547220888093
 31
0.0
  0
LINE
  5
1E558
330
1E41A
100
AcDbEntity
  8
寸法
 62
     0
 48
50.0
370
    -2
100
AcDbLine
 10
5923.621861706191
 20
1286.547220888093
 30
0.0
 11
5923.621861706191
 21
1046.547220888093
 31
0.0
  0
INSERT
  5
1E559
330
1E41A
100
AcDbEntity
  8
寸法
 62
     0
 48
50.0
370
    -2
100
AcDbBlockReference
  2
_DOTSMALL
 10
5923.621861706191
 20
1286.547220888093
 30
0.0
 41
100.0
 42
100.0
 43
100.0
 50
90.0
  0
INSERT
  5
1E55A
330
1E41A
100
AcDbEntity
  8
寸法
 62
     0
 48
50.0
370
    -2
100
AcDbBlockReference
  2
_DOTSMALL
 10
5923.621861706191
 20
1046.547220888093
 30
0.0
 41
100.0
 42
100.0
 43
100.0
 50
270.0
  0
MTEXT
  5
1E55B
330
1E41A
100
AcDbEntity
  8
寸法
 62
     7
 48
50.0
100
AcDbMText
 10
5823.621861706191
 20
1166.547220888094
 30
0.0
 40
120.0
 41
0.0
 71
     5
 72
     1
  1
\A1;150
  7
STYLE1
 11
0.0000000000000001
 21
1.0
 31
0.0
 73
     1
 44
1.0
1001
ACAD
1000
MTEXTBEGIN
1070
    73
1070
     1
1070
    44
1040
1.0
1070
    74
1070
     0
1000
MTEXTEND
  0
POINT
  5
1E55C
330
1E41A
100
AcDbEntity
  8
DEFPOINTS
 62
     0
 48
50.0
100
AcDbPoint
 10
6066.04217543865
 20
1286.547220888093
 30
0.0
  0
POINT
  5
1E55D
330
1E41A
100
AcDbEntity
  8
DEFPOINTS
 62
     0
 48
50.0
100
AcDbPoint
 10
5986.042175438655
 20
1046.547220888093
 30
0.0
  0
POINT
  5
1E55E
330
1E41A
100
AcDbEntity
  8
DEFPOINTS
 62
     0
 48
50.0
100
AcDbPoint
 10
5923.621861706191
 20
1046.547220888093
 30
0.0
  0
ENDBLK
  5
1E425
330
1E41A
100
AcDbEntity
  8
0
 48
50.0
100
AcDbBlockEnd
  0
BLOCK
  5
1E430
330
1E426
100
AcDbEntity
  8
0
 48
50.0
100
AcDbBlockBegin
  2
*D32
 70
     1
 10
0.0
 20
0.0
 30
0.0
  3
*D32
  1

  0
LINE
  5
1E54D
330
1E426
100
AcDbEntity
  8
寸法
 62
     0
 48
50.0
370
    -2
100
AcDbLine
 10
6174.042175438651
 20
1830.547220888093
 30
0.0
 11
5399.00493687691
 21
1830.547220888093
 31
0.0
  0
LINE
  5
1E54E
330
1E426
100
AcDbEntity
  8
寸法
 62
     0
 48
50.0
370
    -2
100
AcDbLine
 10
5966.042175438655
 20
1046.547220888093
 30
0.0
 11
5399.00493687691
 21
1046.547220888093
 31
0.0
  0
LINE
  5
1E54F
330
1E426
100
AcDbEntity
  8
寸法
 62
     0
 48
50.0
370
    -2
100
AcDbLine
 10
5459.004936876911
 20
1830.547220888093
 30
0.0
 11
5459.004936876911
 21
1046.547220888093
 31
0.0
  0
INSERT
  5
1E550
330
1E426
100
AcDbEntity
  8
寸法
 62
     0
 48
50.0
370
    -2
100
AcDbBlockReference
  2
_DOTSMALL
 10
5459.004936876911
 20
1830.547220888093
 30
0.0
 41
100.0
 42
100.0
 43
100.0
 50
90.0
  0
INSERT
  5
1E551
330
1E426
100
AcDbEntity
  8
寸法
 62
     0
 48
50.0
370
    -2
100
AcDbBlockReference
  2
_DOTSMALL
 10
5459.004936876911
 20
1046.547220888093
 30
0.0
 41
100.0
 42
100.0
 43
100.0
 50
270.0
  0
MTEXT
  5
1E552
330
1E426
100
AcDbEntity
  8
寸法
 62
     7
 48
50.0
100
AcDbMText
 10
5359.00493687691
 20
1418.087370544093
 30
0.0
 40
120.0
 41
0.0
 71
     5
 72
     1
  1
\A1;540
  7
STYLE1
 11
0.0000000000000001
 21
1.0
 31
0.0
 73
     1
 44
1.0
1001
ACAD
1000
MTEXTBEGIN
1070
    73
1070
     1
1070
    44
1040
1.0
1070
    74
1070
     0
1000
MTEXTEND
  0
POINT
  5
1E553
330
1E426
100
AcDbEntity
  8
DEFPOINTS
 62
     0
 48
50.0
100
AcDbPoint
 10
6194.04217543865
 20
1830.547220888093
 30
0.0
  0
POINT
  5
1E554
330
1E426
100
AcDbEntity
  8
DEFPOINTS
 62
     0
 48
50.0
100
AcDbPoint
 10
5986.042175438655
 20
1046.547220888093
 30
0.0
  0
POINT
  5
1E555
330
1E426
100
AcDbEntity
  8
DEFPOINTS
 62
     0
 48
50.0
100
AcDbPoint
 10
5459.004936876911
 20
1046.547220888093
 30
0.0
  0
ENDBLK
  5
1E431
330
1E426
100
AcDbEntity
  8
0
 48
50.0
100
AcDbBlockEnd
  0
BLOCK
  5
1E43C
330
1E432
100
AcDbEntity
  8
0
 48
50.0
100
AcDbBlockBegin
  2
*D33
 70
     1
 10
0.0
 20
0.0
 30
0.0
  3
*D33
  1

  0
LINE
  5
1E544
330
1E432
100
AcDbEntity
  8
寸法
 62
     0
 48
50.0
370
    -2
100
AcDbLine
 10
6066.04217543865
 20
898.5472208880928
 30
0.0
 11
6066.04217543865
 21
448.1175828829328
 31
0.0
  0
LINE
  5
1E545
330
1E432
100
AcDbEntity
  8
寸法
 62
     0
 48
50.0
370
    -2
100
AcDbLine
 10
6514.042175438651
 20
898.5472208880928
 30
0.0
 11
6514.042175438651
 21
448.1175828829328
 31
0.0
  0
LINE
  5
1E546
330
1E432
100
AcDbEntity
  8
寸法
 62
     0
 48
50.0
370
    -2
100
AcDbLine
 10
6066.04217543865
 20
508.1175828829327
 30
0.0
 11
6514.042175438651
 21
508.1175828829327
 31
0.0
  0
INSERT
  5
1E547
330
1E432
100
AcDbEntity
  8
寸法
 62
     0
 48
50.0
370
    -2
100
AcDbBlockReference
  2
_DOTSMALL
 10
6066.04217543865
 20
508.1175828829327
 30
0.0
 41
100.0
 42
100.0
 43
100.0
 50
180.0
  0
INSERT
  5
1E548
330
1E432
100
AcDbEntity
  8
寸法
 62
     0
 48
50.0
370
    -2
100
AcDbBlockReference
  2
_DOTSMALL
 10
6514.042175438651
 20
508.1175828829327
 30
0.0
 41
100.0
 42
100.0
 43
100.0
  0
MTEXT
  5
1E549
330
1E432
100
AcDbEntity
  8
寸法
 62
     7
 48
50.0
100
AcDbMText
 10
6269.945416760427
 20
608.1175828829327
 30
0.0
 40
120.0
 41
0.0
 71
     5
 72
     1
  1
\A1;300
  7
STYLE1
 73
     1
 44
1.0
1001
ACAD
1000
MTEXTBEGIN
1070
    73
1070
     1
1070
    44
1040
1.0
1070
    74
1070
     0
1000
MTEXTEND
  0
POINT
  5
1E54A
330
1E432
100
AcDbEntity
  8
DEFPOINTS
 62
     0
 48
50.0
100
AcDbPoint
 10
6066.04217543865
 20
918.5472208880929
 30
0.0
  0
POINT
  5
1E54B
330
1E432
100
AcDbEntity
  8
DEFPOINTS
 62
     0
 48
50.0
100
AcDbPoint
 10
6514.042175438651
 20
918.5472208880929
 30
0.0
  0
POINT
  5
1E54C
330
1E432
100
AcDbEntity
  8
DEFPOINTS
 62
     0
 48
50.0
100
AcDbPoint
 10
6514.042175438651
 20
508.1175828829327
 30
0.0
  0
ENDBLK
  5
1E43D
330
1E432
100
AcDbEntity
  8
0
 48
50.0
100
AcDbBlockEnd
  0
BLOCK
  5
1E448
330
1E43E
100
AcDbEntity
  8
0
 48
50.0
100
AcDbBlockBegin
  2
*D34
 70
     1
 10
0.0
 20
0.0
 30
0.0
  3
*D34
  1

  0
LINE
  5
1E53B
330
1E43E
100
AcDbEntity
  8
寸法
 62
     0
 48
50.0
370
    -2
100
AcDbLine
 10
6386.04217543865
 20
1850.547220888093
 30
0.0
 11
6386.04217543865
 21
2310.215028804473
 31
0.0
  0
LINE
  5
1E53C
330
1E43E
100
AcDbEntity
  8
寸法
 62
     0
 48
50.0
370
    -2
100
AcDbLine
 10
6194.04217543865
 20
1850.547220888093
 30
0.0
 11
6194.04217543865
 21
2310.215028804473
 31
0.0
  0
LINE
  5
1E53D
330
1E43E
100
AcDbEntity
  8
寸法
 62
     0
 48
50.0
370
    -2
100
AcDbLine
 10
6386.04217543865
 20
2250.215028804473
 30
0.0
 11
6194.04217543865
 21
2250.215028804473
 31
0.0
  0
INSERT
  5
1E53E
330
1E43E
100
AcDbEntity
  8
寸法
 62
     0
 48
50.0
370
    -2
100
AcDbBlockReference
  2
_DOTSMALL
 10
6386.04217543865
 20
2250.215028804473
 30
0.0
 41
100.0
 42
100.0
 43
100.0
  0
INSERT
  5
1E53F
330
1E43E
100
AcDbEntity
  8
寸法
 62
     0
 48
50.0
370
    -2
100
AcDbBlockReference
  2
_DOTSMALL
 10
6194.04217543865
 20
2250.215028804473
 30
0.0
 41
100.0
 42
100.0
 43
100.0
 50
180.0
  0
MTEXT
  5
1E540
330
1E43E
100
AcDbEntity
  8
寸法
 62
     7
 48
50.0
100
AcDbMText
 10
6290.04217543865
 20
2450.226839828096
 30
0.0
 40
120.0
 41
0.0
 71
     5
 72
     1
  1
\A1;120\P195
  7
STYLE1
 73
     1
 44
1.0
1001
ACAD
1000
MTEXTBEGIN
1070
    73
1070
     1
1070
    44
1040
1.0
1070
    74
1070
     0
1000
MTEXTEND
  0
POINT
  5
1E541
330
1E43E
100
AcDbEntity
  8
DEFPOINTS
 62
     0
 48
50.0
100
AcDbPoint
 10
6386.04217543865
 20
1830.547220888093
 30
0.0
  0
POINT
  5
1E542
330
1E43E
100
AcDbEntity
  8
DEFPOINTS
 62
     0
 48
50.0
100
AcDbPoint
 10
6194.04217543865
 20
1830.547220888093
 30
0.0
  0
POINT
  5
1E543
330
1E43E
100
AcDbEntity
  8
DEFPOINTS
 62
     0
 48
50.0
100
AcDbPoint
 10
6194.04217543865
 20
2250.215028804473
 30
0.0
  0
ENDBLK
  5
1E449
330
1E43E
100
AcDbEntity
  8
0
 48
50.0
100
AcDbBlockEnd
  0
ENDSEC
  0
SECTION
  2
ENTITIES
  0
MTEXT
  5
763F
330
747D
100
AcDbEntity
  8
0
100
AcDbMText
 10
302.846345836809
 20
280.1983726409901
 30
0.0
 40
3.5
 41
5.323721266742722
 71
     1
 72
     5
  1

  7
MSMINCHO
 73
     1
 44
1.0
1001
ACAD
1000
MTEXTBEGIN
1070
    73
1070
     1
1070
    44
1040
1.0
1070
    74
1070
     0
1000
MTEXTEND
  0
LINE
  5
10B57
330
747D
100
AcDbEntity
  8
補助
  6
PHANTOM
 62
   230
 48
50.0
100
AcDbLine
 10
139.9999999999995
 20
11409.6
 30
0.0
 11
16307.2
 21
11409.6
 31
0.0
  0
LINE
  5
10B59
330
747D
100
AcDbEntity
  8
仕様書枠
  6
Continuous
 48
50.0
100
AcDbLine
 10
13107.2
 20
1200.0
 30
0.0
 11
13107.2
 21
-0.0000000000000729
 31
0.0
  0
LINE
  5
10B5D
330
747D
100
AcDbEntity
  8
仕様書枠
 48
50.0
100
AcDbLine
 10
140.0
 20
0.0
 30
0.0
 11
16307.2
 21
-0.0000000000000909
 31
0.0
  0
LINE
  5
10B5E
330
747D
100
AcDbEntity
  8
補助
  6
PHANTOM
 62
   230
 48
50.0
100
AcDbLine
 10
16307.2
 20
11409.6
 30
0.0
 11
16307.2
 21
1200.0
 31
0.0
  0
LINE
  5
10B6C
330
747D
100
AcDbEntity
  8
仕様書枠
 48
50.0
100
AcDbLine
 10
13107.2
 20
1200.0
 30
0.0
 11
16307.2
 21
1200.0
 31
0.0
  0
TEXT
  5
10B73
330
747D
100
AcDbEntity
  8
文字
 62
     7
 48
50.0
100
AcDbText
 10
13162.9790565769
 20
895.0906074299405
 30
0.0
 40
200.0
  1
基 礎 図
  7
STYLE2
100
AcDbText
  0
LINE
  5
10B7B
330
747D
100
AcDbEntity
  8
仕様書枠
 48
50.0
100
AcDbLine
 10
13107.2
 20
800.0
 30
0.0
 11
14251.2
 21
800.0
 31
0.0
  0
LINE
  5
10B88
330
747D
100
AcDbEntity
  8
仕様書枠
  6
Continuous
 48
50.0
100
AcDbLine
 10
14251.2
 20
1200.0
 30
0.0
 11
14251.2
 21
800.0
 31
0.0
  0
LINE
  5
16462
330
747D
100
AcDbEntity
  8
仕様書枠
 48
50.0
100
AcDbLine
 10
16307.2
 20
1200.0
 30
0.0
 11
16307.2
 21
-0.0000000000000909
 31
0.0
  0
LINE
  5
1903B
330
747D
100
AcDbEntity
  8
補助
  6
PHANTOM
 62
   230
 48
50.0
100
AcDbLine
 10
140.0
 20
0.0
 30
0.0
 11
139.9999999999995
 21
11409.6
 31
0.0
  0
DIMENSION
  5
1ABF4
330
747D
100
AcDbEntity
  8
寸法
 48
50.0
100
AcDbDimension
  2
*D1
 10
6483.6
 20
5132.408014913155
 30
0.0
 11
6920.100000000001
 21
5232.408014913155
 31
0.0
 70
    32
 71
     5
 42
873.0
  3
INABA_S40G
100
AcDbAlignedDimension
 13
7356.6
 23
5847.272318337283
 33
0.0
 14
6483.6
 24
5922.272318337266
 34
0.0
100
AcDbRotatedDimension
1001
ACAD
1000
DSTYLE
1002
{
1070
   341
1005
0
1002
}
  0
LINE
  5
1ABF7
330
747D
100
AcDbEntity
  8
部品1
 48
50.0
100
AcDbLine
 10
7356.6
 20
5922.272318337267
 30
0.0
 11
6483.6
 21
5922.272318337266
 31
0.0
  0
DIMENSION
  5
1ABF8
330
747D
100
AcDbEntity
  8
寸法
 48
50.0
100
AcDbDimension
  2
*D2
 10
6606.6
 20
8468.031944879349
 30
0.0
 11
8223.600000000001
 21
8568.043755902971
 31
0.0
 70
    32
 71
     5
 42
3234.0
  3
INABA_S40G
100
AcDbAlignedDimension
 13
9840.600000000002
 23
7649.272318337266
 33
0.0
 14
6606.6
 24
7649.272318337266
 34
0.0
100
AcDbRotatedDimension
1001
ACAD
1000
DSTYLE
1002
{
1070
   341
1005
0
1002
}
  0
DIMENSION
  5
1ABF9
330
747D
100
AcDbEntity
  8
寸法
 48
50.0
100
AcDbDimension
  2
*D3
 10
9963.600000000001
 20
8680.492640396186
 30
0.0
 11
8223.600000000001
 21
8780.492640396186
 31
0.0
 70
    32
 71
     5
 42
3480.0
  3
INABA_S40G
100
AcDbAlignedDimension
 13
6483.6
 23
7722.272318337265
 33
0.0
 14
9963.600000000001
 24
7722.272318337265
 34
0.0
100
AcDbRotatedDimension
1001
ACAD
1000
DSTYLE
1002
{
1070
   341
1005
0
1002
}
  0
LINE
  5
1ABFA
330
747D
100
AcDbEntity
  8
部品1
 48
50.0
100
AcDbLine
 10
9733.600000000002
 20
7602.272318337263
 30
0.0
 11
6713.600000000001
 21
7602.272318337266
 31
0.0
  0
LINE
  5
1ABFB
330
747D
100
AcDbEntity
  8
部品1
 48
50.0
100
AcDbLine
 10
9733.600000000002
 20
6042.272318337282
 30
0.0
 11
6713.600000000001
 21
6042.272318337269
 31
0.0
  0
LINE
  5
1ABFC
330
747D
100
AcDbEntity
  8
部品1
 48
50.0
100
AcDbLine
 10
9963.600000000001
 20
7722.272318337265
 30
0.0
 11
6483.6
 21
7722.272318337265
 31
0.0
  0
DIMENSION
  5
1ABFF
330
747D
100
AcDbEntity
  8
寸法
 48
50.0
100
AcDbDimension
  2
*D4
 10
6483.6
 20
8249.182083985592
 30
0.0
 11
6937.6
 21
8349.182083985594
 31
0.0
 70
    32
 71
     5
 42
908.0
  3
INABA_S40G
100
AcDbAlignedDimension
 13
7391.600000000001
 23
7022.272318337265
 33
0.0
 14
6483.6
 24
7722.272318337265
 34
0.0
100
AcDbRotatedDimension
1001
ACAD
1000
DSTYLE
1002
{
1070
   341
1005
0
1002
}
  0
DIMENSION
  5
1AC00
330
747D
100
AcDbEntity
  8
寸法
 48
50.0
100
AcDbDimension
  2
*D5
 10
6930.3072498761
 20
7492.272318337263
 30
0.0
 11
6930.307249876098
 21
7132.213263219151
 31
0.0
 70
   160
 71
     5
 42
110.0000000000018
  3
INABA_S40G
100
AcDbAlignedDimension
 13
6713.600000000001
 23
7602.272318337263
 33
0.0
 14
6713.600000000001
 24
7492.272318337263
 34
0.0
 50
90.0
100
AcDbRotatedDimension
1001
ACAD
1000
DSTYLE
1002
{
1070
   341
1005
0
1002
}
  0
DIMENSION
  5
1AC01
330
747D
100
AcDbEntity
  8
寸法
 48
50.0
100
AcDbDimension
  2
*D6
 10
5987.657733986178
 20
6045.272318337268
 30
0.0
 11
5987.657733986178
 21
6822.272318337265
 31
0.0
 70
   160
 71
     5
 42
1553.999999999998
  3
INABA_S40G
100
AcDbAlignedDimension
 13
6556.6
 23
7599.272318337266
 33
0.0
 14
6556.600000000007
 24
6045.272318337268
 34
0.0
 50
90.0
100
AcDbRotatedDimension
1001
ACAD
1000
DSTYLE
1002
{
1070
   341
1005
0
1002
}
  0
DIMENSION
  5
1AC02
330
747D
100
AcDbEntity
  8
寸法
 48
50.0
100
AcDbDimension
  2
*D7
 10
5735.714637266781
 20
5922.272318337267
 30
0.0
 11
5735.714637266779
 21
6822.272318337265
 31
0.0
 70
   160
 71
     5
 42
1800.0
  3
INABA_S40G
100
AcDbAlignedDimension
 13
6483.6
 23
7722.272318337265
 33
0.0
 14
6483.6
 24
5922.272318337266
 34
0.0
 50
90.0
100
AcDbRotatedDimension
1001
ACAD
1000
DSTYLE
1002
{
1070
   341
1005
0
1002
}
  0
LINE
  5
1AC03
330
747D
100
AcDbEntity
  8
部品1
 48
50.0
100
AcDbLine
 10
6603.6
 20
6152.272318337267
 30
0.0
 11
6603.6
 21
7492.272318337263
 31
0.0
  0
LINE
  5
1AC04
330
747D
100
AcDbEntity
  8
部品1
 48
50.0
100
AcDbLine
 10
6483.6
 20
5922.272318337266
 30
0.0
 11
6483.6
 21
7722.272318337265
 31
0.0
  0
DIMENSION
  5
1AC06
330
747D
100
AcDbEntity
  8
寸法
 48
50.0
100
AcDbDimension
  2
*D8
 10
9778.202780124335
 20
5922.272318337283
 30
0.0
 11
9778.202780124333
 21
5313.787036963045
 31
0.0
 70
   160
  1
扉の出<>
 71
     5
 42
75.00000000000091
  3
INABA_S40G
100
AcDbAlignedDimension
 13
9511.599999999999
 23
5847.272318337282
 33
0.0
 14
9511.600000000003
 24
5922.272318337283
 34
0.0
 50
90.0
100
AcDbRotatedDimension
1001
ACAD
1000
DSTYLE
1002
{
1070
   341
1005
0
1002
}
  0
DIMENSION
  5
1AC07
330
747D
100
AcDbEntity
  8
寸法
 48
50.0
100
AcDbDimension
  2
*D9
 10
6930.307249876098
 20
6152.272318337269
 30
0.0
 11
6930.307249876097
 21
6442.331373455394
 31
0.0
 70
   160
 71
     5
 42
109.9999999999872
  3
INABA_S40G
100
AcDbAlignedDimension
 13
6713.600000000001
 23
6042.272318337282
 33
0.0
 14
6713.600000000001
 24
6152.272318337269
 34
0.0
 50
90.0
100
AcDbRotatedDimension
1001
ACAD
1000
DSTYLE
1002
{
1070
   341
1005
0
1002
}
  0
LINE
  5
1AC08
330
747D
100
AcDbEntity
  8
部品1
 48
50.0
100
AcDbLine
 10
6713.600000000001
 20
6042.272318337268
 30
0.0
 11
6713.600000000001
 21
6152.272318337269
 31
0.0
  0
DIMENSION
  5
1AC09
330
747D
100
AcDbEntity
  8
寸法
 48
50.0
100
AcDbDimension
  2
*D10
 10
5987.657733986178
 20
5922.272318337267
 30
0.0
 11
5987.657733986178
 21
5586.741369494673
 31
0.0
 70
   160
 71
     5
 42
123.0000000000018
  3
INABA_S40G
100
AcDbAlignedDimension
 13
6556.600000000007
 23
6045.272318337268
 33
0.0
 14
6483.6
 24
5922.272318337266
 34
0.0
 50
90.0
100
AcDbRotatedDimension
1001
ACAD
1000
DSTYLE
1002
{
1070
   341
1005
0
1002
}
  0
DIMENSION
  5
1AC0A
330
747D
100
AcDbEntity
  8
寸法
 48
50.0
100
AcDbDimension
  2
*D11
 10
5735.714637266781
 20
5867.272318337278
 30
0.0
 11
5635.714637266779
 21
5894.772318337273
 31
0.0
 70
    32
  1
b
 71
     5
 42
54.99999999998909
  3
INABA_S40G
100
AcDbAlignedDimension
 13
6483.6
 23
5922.272318337266
 33
0.0
 14
5987.657733986178
 24
5867.272318337278
 34
0.0
 50
90.0
100
AcDbRotatedDimension
1001
ACAD
1000
DSTYLE
1002
{
1070
   341
1005
0
1002
}
  0
DIMENSION
  5
1AC0B
330
747D
100
AcDbEntity
  8
寸法
 48
50.0
100
AcDbDimension
  2
*D12
 10
6930.307249876098
 20
6042.272318337268
 30
0.0
 11
6930.307249876098
 21
5605.984013369311
 31
0.0
 70
   160
 71
     5
 42
119.9999999999891
  3
INABA_S40G
100
AcDbAlignedDimension
 13
6785.419180988154
 23
5922.272318337278
 33
0.0
 14
6713.600000000001
 24
6042.272318337268
 34
0.0
 50
90.0
100
AcDbRotatedDimension
1001
ACAD
1000
DSTYLE
1002
{
1070
   341
1005
0
1002
}
  0
LINE
  5
1AC0C
330
747D
100
AcDbEntity
  8
センター
 48
2.0
100
AcDbLine
 10
6556.600000000007
 20
6045.272318337268
 30
0.0
 11
6656.600000000008
 21
6045.272318337268
 31
0.0
  0
CIRCLE
  5
1AC0D
330
747D
100
AcDbEntity
  8
部品1
 48
50.0
100
AcDbCircle
 10
6606.600000000007
 20
6045.272318337268
 30
0.0
 40
35.0
  0
LINE
  5
1AC0E
330
747D
100
AcDbEntity
  8
センター
 48
2.0
100
AcDbLine
 10
6606.600000000007
 20
6095.272318337268
 30
0.0
 11
6606.600000000007
 21
5995.272318337267
 31
0.0
  0
LINE
  5
1AC0F
330
747D
100
AcDbEntity
  8
部品1
 48
50.0
100
AcDbLine
 10
6713.600000000001
 20
6152.272318337269
 30
0.0
 11
6603.6
 21
6152.272318337267
 31
0.0
  0
DIMENSION
  5
1AC13
330
747D
100
AcDbEntity
  8
寸法
 48
50.0
100
AcDbDimension
  2
*D13
 10
6483.6
 20
8468.031944879349
 30
0.0
 11
6210.493398282203
 21
8468.031944879349
 31
0.0
 70
   160
 71
     5
 42
123.0
  3
INABA_S40G
100
AcDbAlignedDimension
 13
6606.6
 23
7649.272318337266
 33
0.0
 14
6483.6
 24
7722.272318337265
 34
0.0
100
AcDbRotatedDimension
1001
ACAD
1000
DSTYLE
1002
{
1070
   341
1005
0
1002
}
  0
DIMENSION
  5
1AC14
330
747D
100
AcDbEntity
  8
寸法
 48
50.0
100
AcDbDimension
  2
*D14
 10
6483.6
 20
8680.492640396186
 30
0.0
 11
6167.425378797542
 21
8680.492640396186
 31
0.0
 70
   160
  1
a
 71
     5
 42
44.99999999999909
  3
INABA_S40G
100
AcDbAlignedDimension
 13
6438.6
 23
8468.031944879349
 33
0.0
 14
6483.6
 24
7722.272318337265
 34
0.0
100
AcDbRotatedDimension
1001
ACAD
1000
DSTYLE
1002
{
1070
   341
1005
0
1002
}
  0
DIMENSION
  5
1AC15
330
747D
100
AcDbEntity
  8
寸法
 48
50.0
100
AcDbDimension
  2
*D15
 10
5987.657733986178
 20
7599.272318337266
 30
0.0
 11
5987.657733986178
 21
7995.378920055066
 31
0.0
 70
   160
 71
     5
 42
123.0
  3
INABA_S40G
100
AcDbAlignedDimension
 13
6483.6
 23
7722.272318337265
 33
0.0
 14
6556.6
 24
7599.272318337266
 34
0.0
 50
90.0
100
AcDbRotatedDimension
1001
ACAD
1000
DSTYLE
1002
{
1070
   341
1005
0
1002
}
  0
DIMENSION
  5
1AC16
330
747D
100
AcDbEntity
  8
寸法
 48
50.0
100
AcDbDimension
  2
*D16
 10
5735.714637266781
 20
7722.272318337267
 30
0.0
 11
5635.71463726678
 21
7759.772318337268
 31
0.0
 70
    32
  1
c
 71
     5
 42
75.00000000000091
  3
INABA_S40G
100
AcDbAlignedDimension
 13
5987.657733986178
 23
7797.272318337268
 33
0.0
 14
6483.6
 24
7722.272318337265
 34
0.0
 50
90.0
100
AcDbRotatedDimension
1001
ACAD
1000
DSTYLE
1002
{
1070
   341
1005
0
1002
}
  0
DIMENSION
  5
1AC17
330
747D
100
AcDbEntity
  8
寸法
 48
50.0
100
AcDbDimension
  2
*D17
 10
6930.307249876098
 20
7722.272318337264
 30
0.0
 11
6930.307249876098
 21
7980.355861610151
 31
0.0
 70
   160
 71
     5
 42
120.0000000000018
  3
INABA_S40G
100
AcDbAlignedDimension
 13
6713.600000000001
 23
7602.272318337262
 33
0.0
 14
6713.600000000001
 24
7722.272318337264
 34
0.0
 50
90.0
100
AcDbRotatedDimension
1001
ACAD
1000
DSTYLE
1002
{
1070
   341
1005
0
1002
}
  0
LINE
  5
1AC18
330
747D
100
AcDbEntity
  8
センター
 48
2.0
100
AcDbLine
 10
6556.6
 20
7599.272318337266
 30
0.0
 11
6656.6
 21
7599.272318337266
 31
0.0
  0
CIRCLE
  5
1AC19
330
747D
100
AcDbEntity
  8
部品1
 48
50.0
100
AcDbCircle
 10
6606.6
 20
7599.272318337266
 30
0.0
 40
35.0
  0
LINE
  5
1AC1A
330
747D
100
AcDbEntity
  8
部品1
 48
50.0
100
AcDbLine
 10
6713.600000000001
 20
7492.272318337263
 30
0.0
 11
6603.6
 21
7492.272318337265
 31
0.0
  0
LINE
  5
1AC1B
330
747D
100
AcDbEntity
  8
部品1
 48
50.0
100
AcDbLine
 10
6882.928907166848
 20
7722.272318337262
 30
0.0
 11
6483.6
 21
7722.272318337265
 31
0.0
  0
LINE
  5
1AC1C
330
747D
100
AcDbEntity
  8
センター
 48
2.0
100
AcDbLine
 10
6606.6
 20
7649.272318337266
 30
0.0
 11
6606.6
 21
7549.272318337266
 31
0.0
  0
LINE
  5
1AC1D
330
747D
100
AcDbEntity
  8
部品1
 48
50.0
100
AcDbLine
 10
6713.600000000001
 20
7492.272318337263
 30
0.0
 11
6713.600000000001
 21
7602.272318337266
 31
0.0
  0
DIMENSION
  5
1AC1E
330
747D
100
AcDbEntity
  8
寸法
 48
50.0
100
AcDbDimension
  2
*D18
 10
8223.600000000001
 20
8249.182083985592
 30
0.0
 11
8639.599999999999
 21
8349.193895009214
 31
0.0
 70
    32
 71
     5
 42
832.0
  3
INABA_S40G
100
AcDbAlignedDimension
 13
9055.600000000001
 23
7022.272318337265
 33
0.0
 14
8223.600000000001
 24
7022.272318337265
 34
0.0
100
AcDbRotatedDimension
1001
ACAD
1000
DSTYLE
1002
{
1070
   341
1005
0
1002
}
  0
DIMENSION
  5
1AC1F
330
747D
100
AcDbEntity
  8
寸法
 48
50.0
100
AcDbDimension
  2
*D19
 10
7391.600000000001
 20
8249.182083985592
 30
0.0
 11
7807.6
 21
8349.193895009214
 31
0.0
 70
    32
 71
     5
 42
832.0
  3
INABA_S40G
100
AcDbAlignedDimension
 13
8223.600000000001
 23
7022.272318337265
 33
0.0
 14
7391.600000000001
 24
7022.272318337265
 34
0.0
100
AcDbRotatedDimension
1001
ACAD
1000
DSTYLE
1002
{
1070
   341
1005
0
1002
}
  0
DIMENSION
  5
1AC20
330
747D
100
AcDbEntity
  8
寸法
 48
50.0
100
AcDbDimension
  2
*D20
 10
9843.600000000002
 20
7264.563650836892
 30
0.0
 11
10213.65905511811
 21
7264.563650836892
 31
0.0
 70
   160
 71
     5
 42
120.0
  3
INABA_S40G
100
AcDbAlignedDimension
 13
9963.600000000001
 23
7281.556914875721
 33
0.0
 14
9843.600000000002
 24
7281.556914875721
 34
0.0
100
AcDbRotatedDimension
1001
ACAD
1000
DSTYLE
1002
{
1070
   341
1005
0
1002
}
  0
DIMENSION
  5
1AC21
330
747D
100
AcDbEntity
  8
寸法
 48
50.0
100
AcDbDimension
  2
*D21
 10
9733.600000000002
 20
7264.563650836892
 30
0.0
 11
9443.54094488189
 21
7264.563650836892
 31
0.0
 70
   160
 71
     5
 42
110.0
  3
INABA_S40G
100
AcDbAlignedDimension
 13
9843.600000000002
 23
7281.556914875721
 33
0.0
 14
9733.600000000002
 24
7492.272318337263
 34
0.0
100
AcDbRotatedDimension
1001
ACAD
1000
DSTYLE
1002
{
1070
   341
1005
0
1002
}
  0
LINE
  5
1AC22
330
747D
100
AcDbEntity
  8
部品1
 48
50.0
100
AcDbLine
 10
9843.600000000002
 20
6152.272318337285
 30
0.0
 11
9843.600000000002
 21
7492.272318337265
 31
0.0
  0
LINE
  5
1AC23
330
747D
100
AcDbEntity
  8
部品1
 48
50.0
100
AcDbLine
 10
9963.600000000001
 20
5922.272318337284
 30
0.0
 11
9963.600000000001
 21
7722.272318337265
 31
0.0
  0
DIMENSION
  5
1AC25
330
747D
100
AcDbEntity
  8
寸法
 48
50.0
100
AcDbDimension
  2
*D22
 10
7175.088299142577
 20
7722.272318337265
 30
0.0
 11
7175.088299142576
 21
7304.51842814745
 31
0.0
 70
   160
 71
     5
 42
900.0
  3
INABA_S40G
100
AcDbAlignedDimension
 13
7291.600000000001
 23
6822.272318337265
 33
0.0
 14
6874.6
 24
7722.272318337265
 34
0.0
 50
90.0
100
AcDbRotatedDimension
1001
ACAD
1000
DSTYLE
1002
{
1070
   341
1005
0
1002
}
  0
DIMENSION
  5
1AC26
330
747D
100
AcDbEntity
  8
寸法
 48
50.0
100
AcDbDimension
  2
*D23
 10
9055.600000000001
 20
8249.182083985592
 30
0.0
 11
9534.51852200628
 21
8249.182083985592
 31
0.0
 70
   160
 71
     5
 42
908.0
  3
INABA_S40G
100
AcDbAlignedDimension
 13
9963.600000000001
 23
7722.272318337265
 33
0.0
 14
9055.600000000001
 24
7022.272318337265
 34
0.0
100
AcDbRotatedDimension
1001
ACAD
1000
DSTYLE
1002
{
1070
   341
1005
0
1002
}
  0
LEADER
  5
1AC27
330
747D
100
AcDbEntity
  8
寸法
 48
50.0
100
AcDbLeader
  3
INABA_S40G
 73
     0
 74
     0
 75
     1
 40
120.0
 41
720.0000000000001
 76
     3
 10
9963.695499614992
 20
6772.359653605052
 30
0.0
 10
10130.46907400128
 20
6496.34574003722
 30
0.0
 10
10230.46907400128
 20
6496.34574003722
 30
0.0
340
1AC28
1001
ACAD
1000
DSTYLE
1002
{
1070
   341
1005
0
1002
}
  0
MTEXT
  5
1AC28
102
{ACAD_REACTORS
330
1AC27
102
}
330
747D
100
AcDbEntity
  8
部品1
 62
     7
 48
50.0
100
AcDbMText
 10
10990.46907400128
 20
6596.345740037221
 30
0.0
 40
120.0
 41
0.0
 71
     6
 72
     1
  1
\A1;床下換気口
  7
STYLE1
 73
     1
 44
1.0
1001
ACAD
1000
MTEXTBEGIN
1070
    73
1070
     1
1070
    44
1040
1.0
1070
    74
1070
     0
1000
MTEXTEND
  0
TEXT
  5
1AC29
330
747D
100
AcDbEntity
  8
部品1
 48
50.0
100
AcDbText
 10
10307.43013846117
 20
5715.651290268159
 30
0.0
 40
80.0
  1
(a=45,b=55,c=75)
  7
STYLE1
100
AcDbText
  0
TEXT
  5
1AC2A
330
747D
100
AcDbEntity
  8
部品1
 48
50.0
100
AcDbText
 10
10148.85112970687
 20
5822.496511136915
 30
0.0
 40
80.0
  1
※a,b,cは屋根の出幅です。
  7
STYLE1
100
AcDbText
  0
MTEXT
  5
1AC2B
102
{ACAD_REACTORS
330
1AC2C
102
}
330
747D
100
AcDbEntity
  8
部品1
 62
     7
 48
50.0
100
AcDbMText
 10
10946.63832569548
 20
6001.80719806999
 30
0.0
 40
120.0
 41
0.0
 71
     6
 72
     1
  1
\A1;屋根の外寸
  7
STYLE1
 73
     1
 44
1.0
1001
ACAD
1000
MTEXTBEGIN
1070
    73
1070
     1
1070
    44
1040
1.0
1070
    74
1070
     0
1000
MTEXTEND
  0
LEADER
  5
1AC2C
330
747D
100
AcDbEntity
  8
寸法
 48
50.0
100
AcDbLeader
  3
INABA_S40G
 73
     0
 74
     0
 75
     1
 40
120.0
 41
672.0
 76
     3
 10
10008.69831350344
 20
6175.696541533565
 30
0.0
 10
10134.63832569548
 20
5901.80719806999
 30
0.0
 10
10234.63832569548
 20
5901.80719806999
 30
0.0
340
1AC2B
1001
ACAD
1000
DSTYLE
1002
{
1070
   341
1005
0
1002
}
  0
DIMENSION
  5
1AC2F
330
747D
100
AcDbEntity
  8
寸法
 48
50.0
100
AcDbDimension
  2
*D24
 10
7356.6
 20
5132.408014913155
 30
0.0
 11
8434.1
 21
5232.419825936776
 31
0.0
 70
    32
  1
扉の幅 <>
 71
     5
 42
2155.0
  3
INABA_S40G
100
AcDbAlignedDimension
 13
9511.599999999999
 23
5847.272318337282
 33
0.0
 14
7356.6
 24
5847.272318337267
 34
0.0
100
AcDbRotatedDimension
1001
ACAD
1000
DSTYLE
1002
{
1070
   341
1005
0
1002
}
  0
LINE
  5
1AC31
330
747D
100
AcDbEntity
  8
部品1
 48
50.0
100
AcDbLine
 10
9511.599999999999
 20
5847.272318337282
 30
0.0
 11
7356.6
 21
5847.272318337267
 31
0.0
  0
DIMENSION
  5
1AC32
330
747D
100
AcDbEntity
  8
寸法
 48
50.0
100
AcDbDimension
  2
*D25
 10
7175.088299142577
 20
6822.272318337265
 30
0.0
 11
7075.088299142575
 21
6372.272318337269
 31
0.0
 70
    32
 71
     5
 42
899.9999999999982
  3
INABA_S40G
100
AcDbAlignedDimension
 13
7356.6
 23
5922.272318337267
 33
0.0
 14
7291.600000000001
 24
6822.272318337265
 34
0.0
 50
90.0
100
AcDbRotatedDimension
1001
ACAD
1000
DSTYLE
1002
{
1070
   341
1005
0
1002
}
  0
LINE
  5
1AC50
330
747D
100
AcDbEntity
  8
部品1
 48
50.0
100
AcDbLine
 10
7356.6
 20
5847.272318337283
 30
0.0
 11
7356.6
 21
5922.272318337267
 31
0.0
  0
LINE
  5
1ACD3
330
747D
100
AcDbEntity
  8
細線
 48
50.0
100
AcDbLine
 10
8123.600000000021
 20
5857.060027156279
 30
0.0
 11
8308.812291181018
 21
6042.272318337277
 31
0.0
  0
LINE
  5
1ACD4
330
747D
100
AcDbEntity
  8
細線
 48
50.0
100
AcDbLine
 10
8248.516132997051
 20
5847.272318337273
 30
0.0
 11
8323.60000000002
 21
5922.356185340246
 31
0.0
  0
LINE
  5
1ACD5
330
747D
100
AcDbEntity
  8
細線
 48
50.0
100
AcDbLine
 10
8203.6148523917
 20
5847.272318337276
 30
0.0
 11
8323.60000000002
 21
5967.257465945593
 31
0.0
  0
LINE
  5
1ACD6
330
747D
100
AcDbEntity
  8
細線
 48
50.0
100
AcDbLine
 10
8158.713571786355
 20
5847.272318337273
 30
0.0
 11
8323.60000000002
 21
6012.158746550936
 31
0.0
  0
LINE
  5
1AD15
330
747D
100
AcDbEntity
  8
細線
 48
50.0
100
AcDbLine
 10
8123.600000000021
 20
5901.961307761627
 30
0.0
 11
8263.911010575665
 21
6042.272318337275
 31
0.0
  0
LINE
  5
1AD16
330
747D
100
AcDbEntity
  8
細線
 48
50.0
100
AcDbLine
 10
8123.600000000015
 20
5946.86258836697
 30
0.0
 11
8219.009729970318
 21
6042.272318337275
 31
0.0
  0
LINE
  5
1AD17
330
747D
100
AcDbEntity
  8
細線
 48
50.0
100
AcDbLine
 10
8123.600000000021
 20
5991.763868972316
 30
0.0
 11
8174.108449364972
 21
6042.272318337275
 31
0.0
  0
LINE
  5
1AD18
330
747D
100
AcDbEntity
  8
部品1
 48
50.0
100
AcDbLine
 10
8123.600000000021
 20
5847.272318337273
 30
0.0
 11
8123.600000000021
 21
6042.272318337277
 31
0.0
  0
LINE
  5
1AD2E
330
747D
100
AcDbEntity
  8
部品1
 48
50.0
100
AcDbLine
 10
8323.60000000002
 20
5847.272318337273
 30
0.0
 11
8323.60000000002
 21
6042.272318337277
 31
0.0
  0
LINE
  5
1AD2F
330
747D
100
AcDbEntity
  8
細線
 48
50.0
100
AcDbLine
 10
8293.417413602394
 20
5847.272318337276
 30
0.0
 11
8323.60000000002
 21
5877.454904734899
 31
0.0
  0
LINE
  5
1AD3E
330
747D
100
AcDbEntity
  8
部品1
 48
50.0
100
AcDbLine
 10
7291.600000000001
 20
6622.272318337265
 30
0.0
 11
7291.600000000001
 21
7022.272318337265
 31
0.0
  0
LINE
  5
1AD3F
330
747D
100
AcDbEntity
  8
部品1
 48
50.0
100
AcDbLine
 10
7491.600000000001
 20
6622.272318337263
 30
0.0
 11
7491.600000000001
 21
7022.272318337265
 31
0.0
  0
LINE
  5
1AD40
330
747D
100
AcDbEntity
  8
部品1
 48
50.0
100
AcDbLine
 10
7491.600000000001
 20
6622.272318337263
 30
0.0
 11
7291.600000000001
 21
6622.272318337263
 31
0.0
  0
LINE
  5
1AD41
330
747D
100
AcDbEntity
  8
部品1
 48
50.0
100
AcDbLine
 10
7491.600000000001
 20
7022.272318337265
 30
0.0
 11
7291.600000000001
 21
7022.272318337265
 31
0.0
  0
LINE
  5
1AD42
330
747D
100
AcDbEntity
  8
センター
 48
2.0
100
AcDbLine
 10
7341.600000000001
 20
6822.272318337265
 30
0.0
 11
7441.600000000001
 21
6822.272318337265
 31
0.0
  0
LINE
  5
1AD43
330
747D
100
AcDbEntity
  8
センター
 48
2.0
100
AcDbLine
 10
7391.600000000001
 20
6872.272318337265
 30
0.0
 11
7391.600000000001
 21
6772.272318337265
 31
0.0
  0
LINE
  5
1AD44
330
747D
100
AcDbEntity
  8
部品1
 48
50.0
100
AcDbLine
 10
8323.6
 20
6622.272318337263
 30
0.0
 11
8323.6
 21
7022.272318337265
 31
0.0
  0
LINE
  5
1AD45
330
747D
100
AcDbEntity
  8
部品1
 48
50.0
100
AcDbLine
 10
8123.600000000001
 20
6622.272318337265
 30
0.0
 11
8123.600000000001
 21
7022.272318337265
 31
0.0
  0
LINE
  5
1AD46
330
747D
100
AcDbEntity
  8
部品1
 48
50.0
100
AcDbLine
 10
8323.6
 20
6622.272318337263
 30
0.0
 11
8123.600000000001
 21
6622.272318337263
 31
0.0
  0
LINE
  5
1AD47
330
747D
100
AcDbEntity
  8
センター
 48
2.0
100
AcDbLine
 10
8173.6
 20
6822.272318337265
 30
0.0
 11
8273.6
 21
6822.272318337265
 31
0.0
  0
LINE
  5
1AD48
330
747D
100
AcDbEntity
  8
部品1
 48
50.0
100
AcDbLine
 10
8323.6
 20
7022.272318337265
 30
0.0
 11
8123.600000000001
 21
7022.272318337265
 31
0.0
  0
LINE
  5
1AD49
330
747D
100
AcDbEntity
  8
センター
 48
2.0
100
AcDbLine
 10
8223.600000000001
 20
6872.272318337265
 30
0.0
 11
8223.600000000001
 21
6772.272318337265
 31
0.0
  0
LINE
  5
1AD4A
330
747D
100
AcDbEntity
  8
部品1
 48
50.0
100
AcDbLine
 10
9733.600000000002
 20
6042.272318337282
 30
0.0
 11
9733.600000000002
 21
6152.272318337284
 31
0.0
  0
LINE
  5
1AE4D
330
747D
100
AcDbEntity
  8
部品1
 48
50.0
100
AcDbLine
 10
9963.600000000001
 20
5922.272318337284
 30
0.0
 11
9511.600000000003
 21
5922.272318337283
 31
0.0
  0
LINE
  5
1AE53
330
747D
100
AcDbEntity
  8
部品1
 48
50.0
100
AcDbLine
 10
9511.599999999999
 20
5847.272318337283
 30
0.0
 11
9511.599999999999
 21
5922.27231833728
 31
0.0
  0
LINE
  5
1AE54
330
747D
100
AcDbEntity
  8
センター
 48
2.0
100
AcDbLine
 10
9790.600000000008
 20
6045.272318337268
 30
0.0
 11
9890.600000000008
 21
6045.272318337268
 31
0.0
  0
CIRCLE
  5
1AE55
330
747D
100
AcDbEntity
  8
部品1
 48
50.0
100
AcDbCircle
 10
9840.600000000009
 20
6045.272318337268
 30
0.0
 40
35.0
  0
LINE
  5
1AE56
330
747D
100
AcDbEntity
  8
センター
 48
2.0
100
AcDbLine
 10
9840.600000000009
 20
6095.272318337268
 30
0.0
 11
9840.600000000009
 21
5995.272318337267
 31
0.0
  0
LINE
  5
1AE57
330
747D
100
AcDbEntity
  8
部品1
 48
50.0
100
AcDbLine
 10
9155.600000000001
 20
6622.272318337263
 30
0.0
 11
9155.600000000001
 21
7022.272318337265
 31
0.0
  0
LINE
  5
1AE58
330
747D
100
AcDbEntity
  8
部品1
 48
50.0
100
AcDbLine
 10
8955.600000000002
 20
6622.272318337265
 30
0.0
 11
8955.600000000002
 21
7022.272318337265
 31
0.0
  0
LINE
  5
1AE59
330
747D
100
AcDbEntity
  8
部品1
 48
50.0
100
AcDbLine
 10
9155.600000000001
 20
6622.272318337263
 30
0.0
 11
8955.600000000002
 21
6622.272318337263
 31
0.0
  0
LINE
  5
1AE5A
330
747D
100
AcDbEntity
  8
センター
 48
2.0
100
AcDbLine
 10
9005.600000000001
 20
6822.272318337265
 30
0.0
 11
9105.6
 21
6822.272318337265
 31
0.0
  0
LINE
  5
1AE5B
330
747D
100
AcDbEntity
  8
部品1
 48
50.0
100
AcDbLine
 10
9155.600000000001
 20
7022.272318337265
 30
0.0
 11
8955.600000000002
 21
7022.272318337265
 31
0.0
  0
LINE
  5
1AE5C
330
747D
100
AcDbEntity
  8
センター
 48
2.0
100
AcDbLine
 10
9055.600000000001
 20
6872.272318337265
 30
0.0
 11
9055.600000000001
 21
6772.272318337265
 31
0.0
  0
LINE
  5
1AE5D
330
747D
100
AcDbEntity
  8
部品1
 48
50.0
100
AcDbLine
 10
9843.600000000002
 20
6152.272318337284
 30
0.0
 11
9733.600000000002
 21
6152.272318337284
 31
0.0
  0
LINE
  5
1AE5E
330
747D
100
AcDbEntity
  8
部品1
 48
50.0
100
AcDbLine
 10
9963.600000000001
 20
6922.272318337265
 30
0.0
 11
9843.600000000002
 21
6922.272318337265
 31
0.0
  0
LINE
  5
1AE5F
330
747D
100
AcDbEntity
  8
部品1
 48
50.0
100
AcDbLine
 10
9963.600000000001
 20
6722.272318337264
 30
0.0
 11
9843.600000000002
 21
6722.272318337265
 31
0.0
  0
DIMENSION
  5
1AE61
330
747D
100
AcDbEntity
  8
寸法
 48
50.0
100
AcDbDimension
  2
*D26
 10
9840.600000000002
 20
8468.031944879349
 30
0.0
 11
10236.7066017178
 21
8468.031944879349
 31
0.0
 70
   160
 71
     5
 42
123.0
  3
INABA_S40G
100
AcDbAlignedDimension
 13
9963.600000000001
 23
7722.272318337265
 33
0.0
 14
9840.600000000002
 24
7649.272318337266
 34
0.0
100
AcDbRotatedDimension
1001
ACAD
1000
DSTYLE
1002
{
1070
   341
1005
0
1002
}
  0
LINE
  5
1AE63
330
747D
100
AcDbEntity
  8
部品1
 48
50.0
100
AcDbLine
 10
8123.600000000001
 20
7602.272318337266
 30
0.0
 11
8123.600000000001
 21
7722.272318337265
 31
0.0
  0
LINE
  5
1AE64
330
747D
100
AcDbEntity
  8
部品1
 48
50.0
100
AcDbLine
 10
8323.6
 20
7602.272318337266
 30
0.0
 11
8323.6
 21
7722.272318337265
 31
0.0
  0
DIMENSION
  5
1AE65
330
747D
100
AcDbEntity
  8
寸法
 48
50.0
100
AcDbDimension
  2
*D27
 10
10008.6
 20
8680.492640396186
 30
0.0
 11
10279.77462120246
 21
8680.492640396186
 31
0.0
 70
   160
  1
a
 71
     5
 42
45.0
  3
INABA_S40G
100
AcDbAlignedDimension
 13
9963.600000000001
 23
7722.272318337265
 33
0.0
 14
10008.6
 24
8468.031944879349
 34
0.0
100
AcDbRotatedDimension
1001
ACAD
1000
DSTYLE
1002
{
1070
   341
1005
0
1002
}
  0
CIRCLE
  5
1AE66
330
747D
100
AcDbEntity
  8
部品1
 48
50.0
100
AcDbCircle
 10
9840.600000000002
 20
7599.272318337266
 30
0.0
 40
35.0
  0
LINE
  5
1AE67
330
747D
100
AcDbEntity
  8
部品1
 48
50.0
100
AcDbLine
 10
9733.600000000002
 20
7492.272318337263
 30
0.0
 11
9733.600000000002
 21
7602.272318337266
 31
0.0
  0
LINE
  5
1AE68
330
747D
100
AcDbEntity
  8
センター
 48
2.0
100
AcDbLine
 10
9840.600000000002
 20
7649.272318337266
 30
0.0
 11
9840.600000000002
 21
7549.272318337266
 31
0.0
  0
LINE
  5
1AE69
330
747D
100
AcDbEntity
  8
部品1
 48
50.0
100
AcDbLine
 10
9843.600000000002
 20
7492.272318337267
 30
0.0
 11
9733.600000000002
 21
7492.272318337263
 31
0.0
  0
LINE
  5
1AE6A
330
747D
100
AcDbEntity
  8
センター
 48
2.0
100
AcDbLine
 10
9790.600000000001
 20
7599.272318337266
 30
0.0
 11
9890.6
 21
7599.272318337266
 31
0.0
  0
TEXT
  5
1C7A1
330
747D
100
AcDbEntity
  8
文字
 62
     7
 48
50.0
100
AcDbText
 10
13188.16259899338
 20
79.80631269190417
 30
0.0
 40
80.0
  1
※布基礎には換気口を設けてください。
  7
STYLE2
100
AcDbText
  0
TEXT
  5
1C7E7
330
747D
100
AcDbEntity
  8
文字
 62
     7
 48
50.0
100
AcDbText
 10
13188.16259899338
 20
246.7109242801889
 30
0.0
 40
80.0
  1
※寒冷地等は地域の実情に合わせた基礎にして下さい。
  7
STYLE2
100
AcDbText
  0
TEXT
  5
1C7E8
330
747D
100
AcDbEntity
  8
文字
 62
     7
 48
50.0
100
AcDbText
 10
14478.98566430227
 20
499.5983841039506
 30
0.0
 40
160.0
  1
ＮＸＮ－６２Ｓ･Ｈ
  7
STYLE2
100
AcDbText
  0
TEXT
  5
1C7E9
330
747D
100
AcDbEntity
  8
文字
 62
     7
 48
50.0
100
AcDbText
 10
14881.74688742722
 20
871.1744590657927
 30
0.0
 40
100.0
  1
～一般型～
  7
STYLE2
100
AcDbText
  0
TEXT
  5
1C7EC
330
747D
100
AcDbEntity
  8
文字
 62
     7
 48
50.0
100
AcDbText
 10
14524.131837222
 20
1031.557706291229
 30
0.0
 40
100.0
  1
      <縮尺> S=1/40
  7
STYLE2
100
AcDbText
  0
TEXT
  5
1C7ED
330
747D
100
AcDbEntity
  8
文字
 62
     7
 48
50.0
100
AcDbText
 10
13201.43669998441
 20
477.2740661031257
 30
0.0
 40
160.0
  1
機種名
  7
STYLE2
100
AcDbText
  0
LINE
  5
1C7EF
330
747D
100
AcDbEntity
  8
文字
 62
     7
 48
50.0
100
AcDbLine
 10
13187.2
 20
400.0
 30
0.0
 11
16227.2
 21
400.0
 31
0.0
  0
LINE
  5
1D2D1
330
747D
100
AcDbEntity
  8
想像線
 48
10.0
100
AcDbLine
 10
10008.6
 20
5867.272318337278
 30
0.0
 11
10008.6
 21
7797.272318337267
 31
0.0
  0
MTEXT
  5
1D2D5
102
{ACAD_REACTORS
330
1D2D6
102
}
330
747D
100
AcDbEntity
  8
部品1
 62
     7
 48
50.0
100
AcDbMText
 10
11158.99523070988
 20
8096.926620687394
 30
0.0
 40
120.0
 41
0.0
 71
     6
 72
     1
  1
アンカーボルト
  7
STYLE1
 73
     1
 44
1.0
1001
ACAD
1000
MTEXTBEGIN
1070
    73
1070
     1
1070
    44
1040
1.0
1070
    74
1070
     0
1000
MTEXTEND
  0
LEADER
  5
1D2D6
330
747D
100
AcDbEntity
  8
寸法
 48
50.0
100
AcDbLeader
  3
INABA_S40G
 73
     0
 74
     0
 75
     1
 40
120.0
 41
994.3492424049171
 76
     3
 10
9840.680085756996
 20
7599.286041533479
 30
0.0
 10
10024.64598830496
 20
7996.926620687394
 30
0.0
 10
10124.64598830496
 20
7996.926620687394
 30
0.0
340
1D2D5
1001
ACAD
1000
DSTYLE
1002
{
1070
   341
1005
0
1002
}
  0
DIMENSION
  5
1D304
330
747D
100
AcDbEntity
  8
寸法
 48
50.0
100
AcDbDimension
  2
*D28
 10
7589.016176011947
 20
6042.272318337289
 30
0.0
 11
7589.016176011947
 21
5608.577377133389
 31
0.0
 70
   160
 71
     5
 42
195.0000000000054
  3
INABA_S40G
100
AcDbAlignedDimension
 13
7356.6
 23
5847.272318337283
 33
0.0
 14
7356.6
 24
6042.272318337289
 34
0.0
 50
90.0
100
AcDbRotatedDimension
1001
ACAD
1000
DSTYLE
1002
{
1070
   341
1005
0
1002
}
  0
MTEXT
  5
1D332
102
{ACAD_REACTORS
330
1D333
102
}
330
747D
100
AcDbEntity
  8
部品1
 62
     7
 48
50.0
100
AcDbMText
 10
8649.175758905467
 20
6484.283082073736
 30
0.0
 40
120.0
 41
0.0
 71
     6
 72
     1
  1
CB
  7
STYLE1
 73
     1
 44
1.0
1001
ACAD
1000
MTEXTBEGIN
1070
    73
1070
     1
1070
    44
1040
1.0
1070
    74
1070
     0
1000
MTEXTEND
  0
LEADER
  5
1D333
330
747D
100
AcDbEntity
  8
寸法
 48
50.0
100
AcDbLeader
  3
INABA_S40G
 73
     0
 74
     0
 75
     1
 40
120.0
 41
149.591883092037
 76
     3
 10
8209.024647748888
 20
6660.296995641568
 30
0.0
 10
8359.583875813431
 20
6384.283082073736
 30
0.0
 10
8459.58387581343
 20
6384.283082073736
 30
0.0
340
1D332
1001
ACAD
1000
DSTYLE
1002
{
1070
   341
1005
0
1002
}
  0
TEXT
  5
1DBEA
102
{ACAD_REACTORS
330
1DC10
102
}
330
747D
100
AcDbEntity
  8
寸法
 62
     7
100
AcDbText
 10
7740.750754363533
 20
4763.443805822389
 30
0.0
 40
120.0
  1
扉位置 (2155x75)
  7
STYLE1
100
AcDbText
  0
SOLID
  5
1DBEB
102
{ACAD_REACTORS
330
1DC10
102
}
330
747D
100
AcDbEntity
  8
寸法
 48
50.0
100
AcDbTrace
 10
-7948.236054003165
 20
5721.681289432385
 30
0.0
 11
-7965.145259673153
 21
5847.272318337272
 31
0.0
 12
-7908.417839529687
 22
5733.954060401295
 32
0.0
 13
-7908.417839529687
 23
5733.954060401295
 33
0.0
210
0.0
220
0.0
230
-1.0
1001
ACAD
1000
DSTYLE
1002
{
1070
   341
1005
0
1070
    40
1040
1.0
1070
   343
1005
0
1070
   344
1005
0
1002
}
  0
LWPOLYLINE
  5
1DBEC
102
{ACAD_REACTORS
330
1DC10
102
}
330
747D
100
AcDbEntity
  8
寸法
 48
50.0
100
AcDbPolyline
 90
        3
 70
     0
 43
0.0
 10
-7965.145259673153
 20
5847.272318337272
 10
-7624.134795170779
 20
4741.175858274069
 10
-10438.19920810242
 20
4741.175858274069
210
0.0
220
0.0
230
-1.0
1001
ACAD
1000
DSTYLE
1002
{
1070
   341
1005
0
1070
    40
1040
1.0
1070
   343
1005
0
1070
   344
1005
0
1002
}
  0
TEXT
  5
1DBED
102
{ACAD_REACTORS
330
1DC10
102
}
330
747D
100
AcDbEntity
  8
寸法
 62
     7
100
AcDbText
 10
7740.750754363533
 20
4591.840042939064
 30
0.0
 40
120.0
  1
扉の位置に合わせた基礎形状として下さい。
  7
STYLE1
100
AcDbText
  0
LINE
  5
1DBF0
330
747D
100
AcDbEntity
  8
想像線
 48
10.0
100
AcDbLine
 10
9201.647029532507
 20
7797.272318337268
 30
0.0
 11
10008.6
 21
7797.272318337267
 31
0.0
  0
LINE
  5
1DBF1
330
747D
100
AcDbEntity
  8
想像線
 48
10.0
100
AcDbLine
 10
9845.428912875883
 20
5867.272318337278
 30
0.0
 11
10008.6
 21
5867.272318337278
 31
0.0
  0
LINE
  5
1E2BD
330
747D
100
AcDbEntity
  8
部品1
100
AcDbLine
 10
11194.35892201564
 20
3151.518840664938
 30
0.0
 11
5123.373736629386
 21
3151.518840664937
 31
0.0
  0
LINE
  5
1E2BE
330
747D
100
AcDbEntity
  8
部品1
100
AcDbLine
 10
11194.35892201563
 20
2911.518840664936
 30
0.0
 11
5123.37373662939
 21
2911.518840664936
 31
0.0
  0
LINE
  5
1E2BF
330
747D
100
AcDbEntity
  8
部品1
100
AcDbLine
 10
5123.373736629392
 20
187.2118710802906
 30
0.0
 11
11194.35892201563
 21
187.2118710802906
 31
0.0
  0
LEADER
  5
1E2C0
330
747D
100
AcDbEntity
  8
寸法
 48
50.0
100
AcDbLeader
  3
INABA_S40G
 73
     0
 74
     0
 75
     1
 40
102.2727272727273
 41
680.0000000000001
 76
     3
 10
8131.481488615845
 20
2229.422501997236
 30
0.0
 10
8175.835459729203
 20
2624.875313103777
 30
0.0
 10
8275.835459729202
 20
2624.875313103777
 30
0.0
340
1E2C1
1001
ACAD
1000
DSTYLE
1002
{
1070
   341
1005
0
1002
}
  0
MTEXT
  5
1E2C1
102
{ACAD_REACTORS
330
1E2C0
102
}
330
747D
100
AcDbEntity
  8
部品1
 62
     7
 48
50.0
100
AcDbMText
 10
8315.835459729202
 20
2716.011676740141
 30
0.0
 40
80.0
 41
0.8
 71
     4
 72
     1
  1
\A1;ナット(市販品)
  7
STYLE2
 73
     1
 44
1.0
1001
ACAD
1000
MTEXTBEGIN
1070
    73
1070
     1
1070
    44
1040
1.0
1070
    74
1070
     0
1000
MTEXTEND
  0
LEADER
  5
1E2C2
330
747D
100
AcDbEntity
  8
寸法
 48
50.0
100
AcDbLeader
  3
INABA_S40G
 73
     0
 74
     0
 75
     1
 40
102.2727272727273
 41
906.8181818181818
 76
     3
 10
8155.481488615846
 20
2099.670509332373
 30
0.0
 10
8207.353078984684
 20
2439.906230338989
 30
0.0
 10
8307.353078984684
 20
2439.906230338989
 30
0.0
340
1E2C3
1001
ACAD
1000
DSTYLE
1002
{
1070
   341
1005
0
1002
}
  0
MTEXT
  5
1E2C3
102
{ACAD_REACTORS
330
1E2C2
102
}
330
747D
100
AcDbEntity
  8
部品1
 62
     7
 48
50.0
100
AcDbMText
 10
8347.353078984685
 20
2531.042593975354
 30
0.0
 40
80.0
 41
0.8
 71
     4
 72
     1
  1
\A1;ワッシャー(市販品)
  7
STYLE2
 73
     1
 44
1.0
1001
ACAD
1000
MTEXTBEGIN
1070
    73
1070
     1
1070
    44
1040
1.0
1070
    74
1070
     0
1000
MTEXTEND
  0
LWPOLYLINE
  5
1E2C4
330
747D
100
AcDbEntity
  8
部品1
 48
50.0
100
AcDbPolyline
 90
        2
 70
     0
 43
8.0
 10
8308.081488615846
 20
1590.547220888094
 10
8601.783952015228
 20
1590.547220888094
  0
TEXT
  5
1E2C5
330
747D
100
AcDbEntity
  8
部品1
 48
50.0
100
AcDbText
 10
8312.435072900273
 20
2186.425901650293
 30
0.0
 40
80.0
  1
基礎ボルト(市販品)
  7
STYLE2
100
AcDbText
  0
DIMENSION
  5
1E2C6
330
747D
100
AcDbEntity
  8
寸法
 48
50.0
100
AcDbDimension
  2
*D29
 10
8809.950088384688
 20
1506.547220888092
 30
0.0
 11
8709.950088384688
 21
1668.547220888093
 31
0.0
 70
    32
  1
180
 71
     5
 42
324.0000000000009
  3
INABA_S40G
100
AcDbAlignedDimension
 13
8308.081488615846
 23
1830.547220888093
 33
0.0
 14
8308.081488615846
 24
1506.547220888092
 34
0.0
 50
90.0
100
AcDbRotatedDimension
1001
ACAD
1000
DSTYLE
1002
{
1070
   341
1005
0
1002
}
  0
DIMENSION
  5
1E2C7
330
747D
100
AcDbEntity
  8
寸法
 48
50.0
100
AcDbDimension
  2
*D30
 10
9086.004754503717
 20
1830.547220888092
 30
0.0
 11
9086.004754503717
 21
1364.538317466611
 31
0.0
 70
   160
  1
20～25
 71
     5
 42
52.76000000000113
  3
INABA_S40G
100
AcDbAlignedDimension
 13
8120.881488615845
 23
1883.307220888094
 33
0.0
 14
8308.081488615846
 24
1830.547220888093
 34
0.0
 50
90.0
100
AcDbRotatedDimension
1001
ACAD
1000
DSTYLE
1002
{
1070
   341
1005
0
1002
}
  0
MTEXT
  5
1E2C8
102
{ACAD_REACTORS
330
1E2C9
102
}
330
747D
100
AcDbEntity
  8
部品1
 62
     7
 48
50.0
100
AcDbMText
 10
8317.025951035164
 20
2094.930547041323
 30
0.0
 40
80.0
 41
0.8
 71
     4
 72
     1
  1
M10X160
  7
STYLE2
 73
     1
 44
1.0
1001
ACAD
1000
MTEXTBEGIN
1070
    73
1070
     1
1070
    44
1040
1.0
1070
    74
1070
     0
1000
MTEXTEND
  0
LEADER
  5
1E2C9
330
747D
100
AcDbEntity
  8
寸法
 48
50.0
100
AcDbLeader
  3
INABA_S40G
 73
     0
 74
     0
 75
     1
 40
80.0
 41
435.0
 76
     3
 10
8124.481488615845
 20
1879.707220888094
 30
0.0
 10
8177.025951035165
 20
2014.930547041323
 30
0.0
 10
8277.025951035165
 20
2014.930547041323
 30
0.0
340
1E2C8
1001
ACAD
1000
DSTYLE
1002
{
1070
   341
1005
0
1002
}
  0
LINE
  5
1E2CA
330
747D
100
AcDbEntity
  8
部品1
100
AcDbLine
 10
5123.373736629388
 20
3151.518840664938
 30
0.0
 11
5123.37373662939
 21
187.2118710802906
 31
0.0
  0
LEADER
  5
1E2CB
330
747D
100
AcDbEntity
  8
寸法
 48
50.0
100
AcDbLeader
  3
INABA_S40G
 73
     0
 75
     1
 40
113.1818181818182
 41
608.6363636363635
 76
     3
 10
8084.218238753896
 20
1780.062894246372
 30
0.0
 10
7940.414410062548
 20
2616.44197660285
 30
0.0
 10
7840.414410062547
 20
2616.44197660285
 30
0.0
340
1E2CC
1001
ACAD
1000
DSTYLE
1002
{
1070
   341
1005
0
1002
}
  0
MTEXT
  5
1E2CC
102
{ACAD_REACTORS
330
1E2CB
102
}
330
747D
100
AcDbEntity
  8
寸法
 62
     7
 48
50.0
100
AcDbMText
 10
7800.414410062547
 20
2713.032885693758
 30
0.0
 40
80.0
 41
0.8
 71
     6
 72
     1
  1
\A1;φ70スリーブ
  7
STYLE2
 73
     1
 44
1.0
1001
ACAD
1000
MTEXTBEGIN
1070
    73
1070
     1
1070
    44
1040
1.0
1070
    74
1070
     0
1000
MTEXTEND
  0
LWPOLYLINE
  5
1E2CD
330
747D
100
AcDbEntity
  8
部品1
 48
50.0
100
AcDbPolyline
 90
        2
 70
     0
 43
8.0
 10
5779.902273605694
 20
1590.547220888094
 10
6194.04217543865
 20
1590.547220888094
  0
TEXT
  5
1E2CE
330
747D
100
AcDbEntity
  8
部品1
 48
50.0
100
AcDbText
 10
5779.902273605694
 20
1601.786213171348
 30
0.0
 40
80.0
  1
▽G.L
  7
STYLE2
100
AcDbText
  0
DIMENSION
  5
1E2CF
330
747D
100
AcDbEntity
  8
寸法
 48
50.0
100
AcDbDimension
  2
*D31
 10
5923.621861706191
 20
1046.547220888093
 30
0.0
 11
5923.621861706191
 21
1166.547220888094
 31
0.0
 70
   160
  1
150
 71
     5
 42
240.0
  3
INABA_S40G
100
AcDbAlignedDimension
 13
6066.04217543865
 23
1286.547220888093
 33
0.0
 14
5986.042175438655
 24
1046.547220888093
 34
0.0
 50
90.0
100
AcDbRotatedDimension
1001
ACAD
1000
DSTYLE
1002
{
1070
   341
1005
0
1002
}
  0
LEADER
  5
1E2D0
330
747D
100
AcDbEntity
  8
寸法
 48
50.0
100
AcDbLeader
  3
INABA_S40G
 71
     0
 73
     0
 75
     1
 40
100.0
 41
225.0
 76
     3
 10
6161.945127790794
 20
1166.547220888093
 30
0.0
 10
6015.107149243457
 20
903.0245272696566
 30
0.0
 10
5915.107149243457
 20
903.0245272696566
 30
0.0
1001
ACAD
1000
DSTYLE
1002
{
1070
   341
1005
0
1002
}
  0
LEADER
  5
1E2D1
330
747D
100
AcDbEntity
  8
寸法
 48
50.0
100
AcDbLeader
  3
INABA_S40G
 71
     0
 73
     0
 75
     1
 40
100.0
 41
222.7272727272727
 76
     3
 10
6290.04217543865
 20
1166.547220888093
 30
0.0
 10
6043.229876800891
 20
722.7083747302131
 30
0.0
 10
5943.229876800891
 20
722.7083747302131
 30
0.0
1001
ACAD
1000
DSTYLE
1002
{
1070
   341
1005
0
1002
}
  0
MTEXT
  5
1E2D2
102
{ACAD_REACTORS
330
1E2D3
102
}
330
747D
100
AcDbEntity
  8
寸法
 62
     7
 48
50.0
100
AcDbMText
 10
6104.792121215846
 20
1431.84782370555
 30
0.0
 40
80.0
 41
0.8
 71
     6
 72
     1
  1
\A1;D10@300
  7
STYLE2
 73
     1
 44
1.0
1001
ACAD
1000
MTEXTBEGIN
1070
    73
1070
     1
1070
    44
1040
1.0
1070
    74
1070
     0
1000
MTEXTEND
  0
LEADER
  5
1E2D3
330
747D
100
AcDbEntity
  8
寸法
 48
50.0
100
AcDbLeader
  3
INABA_S40G
 71
     0
 73
     0
 75
     1
 40
100.0
 41
540.3409090909091
 76
     3
 10
6298.04217543865
 20
1588.674435585216
 30
0.0
 10
6215.059938909952
 20
1367.204107044411
 30
0.0
 10
6115.059938909952
 20
1367.204107044411
 30
0.0
213
-9.732182305893367
223
-4.643716661138569
233
0.0
1001
ACAD
1000
DSTYLE
1002
{
1070
   341
1005
0
1002
}
  0
LEADER
  5
1E2D4
330
747D
100
AcDbEntity
  8
寸法
 48
50.0
100
AcDbLeader
  3
INABA_S40G
 71
     0
 73
     0
 75
     1
 40
130.1136363636363
 41
651.1363636363636
 76
     3
 10
6274.042175438651
 20
1830.547220888093
 30
0.0
 10
6136.617595274635
 20
1971.017986344681
 30
0.0
 10
6036.617595274634
 20
1971.017986344681
 30
0.0
1001
ACAD
1000
DSTYLE
1002
{
1070
   341
1005
0
1002
}
  0
MTEXT
  5
1E2D5
102
{ACAD_REACTORS
330
1E2D4
102
}
330
747D
100
AcDbEntity
  8
寸法
 62
     7
 48
50.0
100
AcDbMText
 10
5973.943695955377
 20
2043.063440890135
 30
0.0
 40
80.0
 41
0.8
 71
     6
 72
     1
  1
\A1;金コテ押エ
  7
STYLE2
 73
     1
 44
1.0
1001
ACAD
1000
MTEXTBEGIN
1070
    73
1070
     1
1070
    44
1040
1.0
1070
    74
1070
     0
1000
MTEXTEND
  0
DIMENSION
  5
1E2D6
330
747D
100
AcDbEntity
  8
寸法
 48
50.0
100
AcDbDimension
  2
*D32
 10
5459.004936876911
 20
1046.547220888093
 30
0.0
 11
5459.004936876911
 21
1418.087370544093
 31
0.0
 70
   160
  1
540
 71
     5
 42
784.0
  3
INABA_S40G
100
AcDbAlignedDimension
 13
6194.04217543865
 23
1830.547220888093
 33
0.0
 14
5986.042175438655
 24
1046.547220888093
 34
0.0
 50
90.0
100
AcDbRotatedDimension
1001
ACAD
1000
DSTYLE
1002
{
1070
   341
1005
0
1002
}
  0
MTEXT
  5
1E2D7
102
{ACAD_REACTORS
330
1E2D1
102
}
330
747D
100
AcDbEntity
  8
寸法
 62
     7
 48
50.0
100
AcDbMText
 10
5923.229876800892
 20
782.7083747302131
 30
0.0
 40
80.0
 41
0.8
 71
     6
 72
     1
  1
D13
  7
STYLE2
 73
     1
 44
1.0
1001
ACAD
1000
MTEXTBEGIN
1070
    73
1070
     1
1070
    44
1040
1.0
1070
    74
1070
     0
1000
MTEXTEND
  0
MTEXT
  5
1E2D8
102
{ACAD_REACTORS
330
1E2D0
102
}
330
747D
100
AcDbEntity
  8
寸法
 62
     7
 48
50.0
100
AcDbMText
 10
5895.107149243457
 20
963.0245272696566
 30
0.0
 40
80.0
 41
0.8
 71
     6
 72
     1
  1
D10
  7
STYLE2
 73
     1
 44
1.0
1001
ACAD
1000
MTEXTBEGIN
1070
    73
1070
     1
1070
    44
1040
1.0
1070
    74
1070
     0
1000
MTEXTEND
  0
DIMENSION
  5
1E2D9
330
747D
100
AcDbEntity
  8
寸法
 48
50.0
100
AcDbDimension
  2
*D33
 10
6514.042175438651
 20
508.1175828829327
 30
0.0
 11
6269.945416760427
 21
508.1175828829327
 31
0.0
 70
   160
  1
300
 71
     5
 42
448.0
  3
INABA_S40G
100
AcDbAlignedDimension
 13
6066.04217543865
 23
918.5472208880929
 33
0.0
 14
6514.042175438651
 24
918.5472208880929
 34
0.0
100
AcDbRotatedDimension
1001
ACAD
1000
DSTYLE
1002
{
1070
   341
1005
0
1002
}
  0
MTEXT
  5
1E2DA
102
{ACAD_REACTORS
330
1E2DB
102
}
330
747D
100
AcDbEntity
  8
寸法
 62
     7
 48
50.0
100
AcDbMText
 10
7827.057416270907
 20
2352.348613786245
 30
0.0
 40
80.0
 41
0.8
 71
     6
 72
     1
  1
アンカープレート {\fArial|b0|i0|c0|p32;U}
  7
STYLE2
 73
     1
 44
1.0
1001
ACAD
1000
MTEXTBEGIN
1070
    73
1070
     1
1070
    44
1040
1.0
1070
    74
1070
     0
1000
MTEXTEND
  0
LEADER
  5
1E2DB
330
747D
100
AcDbEntity
  8
寸法
 48
50.0
100
AcDbLeader
  3
INABA_S40G
 73
     0
 75
     1
 40
106.3636363636363
 41
903.5235024184547
 76
     3
 10
8025.481488615843
 20
1900.107220888094
 30
0.0
 10
7967.057416270906
 20
2259.166795604426
 30
0.0
 10
7867.057416270906
 20
2259.166795604426
 30
0.0
340
1E2DA
1001
ACAD
1000
DSTYLE
1002
{
1070
   341
1005
0
1002
}
  0
LINE
  5
1E2DC
330
747D
100
AcDbEntity
  8
細線
 48
50.0
100
AcDbLine
 10
6314.042175438651
 20
1668.920113555923
 30
0.0
 11
6386.042175438651
 21
1740.920113555923
 31
0.0
  0
ARC
  5
1E2DD
330
747D
100
AcDbEntity
  8
部品1
 48
50.0
100
AcDbCircle
 10
6290.042175438652
 20
1690.801650282338
 30
0.0
 40
24.0
100
AcDbArc
 50
0.0
 51
180.0
  0
CIRCLE
  5
1E2DE
330
747D
100
AcDbEntity
  8
部品1
 48
50.0
100
AcDbCircle
 10
6290.042175438652
 20
1690.801650282338
 30
0.0
 40
8.0
  0
LINE
  5
1E2DF
330
747D
100
AcDbEntity
  8
部品1
 48
50.0
100
AcDbLine
 10
6194.042175438652
 20
1286.547220888093
 30
0.0
 11
6194.042175438652
 21
1830.547220888093
 31
0.0
  0
LINE
  5
1E2E0
330
747D
100
AcDbEntity
  8
部品1
 48
50.0
100
AcDbLine
 10
6386.042175438651
 20
1830.547220888093
 30
0.0
 11
6386.042175438651
 21
1286.547220888093
 31
0.0
  0
MTEXT
  5
1E2E1
102
{ACAD_REACTORS
330
1E2E6
102
}
330
747D
100
AcDbEntity
  8
寸法
 62
     7
 48
50.0
100
AcDbMText
 10
6468.928112466045
 20
1691.814782187021
 30
0.0
 40
80.0
 41
0.8
 71
     4
 72
     1
  1
D13
  7
STYLE2
 73
     1
 44
1.0
1001
ACAD
1000
MTEXTBEGIN
1070
    73
1070
     1
1070
    44
1040
1.0
1070
    74
1070
     0
1000
MTEXTEND
  0
LEADER
  5
1E2E2
330
747D
100
AcDbEntity
  8
寸法
 48
50.0
100
AcDbLeader
  3
INABA_S40G
 71
     0
 73
     0
 74
     0
 75
     1
 40
100.0
 41
225.0
 76
     3
 10
6417.945127790794
 20
1166.547220888093
 30
0.0
 10
6497.369835245335
 20
1071.15015194512
 30
0.0
 10
6597.369835245335
 20
1071.15015194512
 30
0.0
1001
ACAD
1000
DSTYLE
1002
{
1070
   341
1005
0
1002
}
  0
LEADER
  5
1E2E3
330
747D
100
AcDbEntity
  8
寸法
 48
50.0
100
AcDbLeader
  3
INABA_S40G
 71
     0
 73
     0
 74
     0
 75
     1
 40
100.0
 41
540.3409090909091
 76
     3
 10
6363.987344451825
 20
1149.806690474567
 30
0.0
 10
6507.780631299901
 20
808.1758724796699
 30
0.0
 10
6607.780631299902
 20
808.1758724796699
 30
0.0
213
0.0
223
-1.022262676269383
233
0.0
1001
ACAD
1000
DSTYLE
1002
{
1070
   341
1005
0
1002
}
  0
MTEXT
  5
1E2E4
102
{ACAD_REACTORS
330
1E2E2
102
}
330
747D
100
AcDbEntity
  8
寸法
 62
     7
 48
50.0
100
AcDbMText
 10
6617.369835245336
 20
1131.15015194512
 30
0.0
 40
80.0
 41
0.8
 71
     4
 72
     1
  1
D10
  7
STYLE2
 73
     1
 44
1.0
1001
ACAD
1000
MTEXTBEGIN
1070
    73
1070
     1
1070
    44
1040
1.0
1070
    74
1070
     0
1000
MTEXTEND
  0
LWPOLYLINE
  5
1E2E5
330
747D
100
AcDbEntity
  8
部品1
 48
50.0
100
AcDbPolyline
 90
        2
 70
     0
 43
8.0
 10
6386.04217543865
 20
1590.547220888094
 10
6800.182077271609
 20
1590.547220888094
  0
LEADER
  5
1E2E6
330
747D
100
AcDbEntity
  8
寸法
 48
50.0
100
AcDbLeader
  3
INABA_S40G
 71
     0
 73
     0
 74
     0
 75
     1
 40
100.0
 41
222.7272727272727
 76
     3
 10
6290.04217543865
 20
1690.801650282338
 30
0.0
 10
6348.928112466046
 20
1631.81478218702
 30
0.0
 10
6448.928112466045
 20
1631.81478218702
 30
0.0
1001
ACAD
1000
DSTYLE
1002
{
1070
   341
1005
0
1002
}
  0
LINE
  5
1E2E7
330
747D
100
AcDbEntity
  8
細線
 48
50.0
100
AcDbLine
 10
6066.042175438645
 20
1205.393966650263
 30
0.0
 11
6147.19542967648
 21
1286.547220888093
 31
0.0
  0
LINE
  5
1E2E8
330
747D
100
AcDbEntity
  8
細線
 48
50.0
100
AcDbLine
 10
6273.908022916056
 20
1224.674435585215
 30
0.0
 11
6298.042175438657
 21
1248.808588107814
 31
0.0
  0
LINE
  5
1E2E9
330
747D
100
AcDbEntity
  8
細線
 48
50.0
100
AcDbLine
 10
6180.840039855724
 20
1158.547220888093
 30
0.0
 11
6298.042175438652
 21
1275.749356471018
 31
0.0
  0
LINE
  5
1E2EA
330
747D
100
AcDbEntity
  8
部品1
 48
50.0
100
AcDbLine
 10
6066.042175438652
 20
1046.547220888093
 30
0.0
 11
6066.042175438652
 21
1286.547220888093
 31
0.0
  0
LINE
  5
1E2EB
330
747D
100
AcDbEntity
  8
細線
 48
50.0
100
AcDbLine
 10
6423.306955124596
 20
1158.547220888093
 30
0.0
 11
6514.042175438652
 21
1249.282441202152
 31
0.0
  0
LINE
  5
1E2EC
330
747D
100
AcDbEntity
  8
細線
 48
50.0
100
AcDbLine
 10
6396.36618676138
 20
1158.547220888093
 30
0.0
 11
6514.042175438652
 21
1276.223209565359
 31
0.0
  0
LINE
  5
1E2ED
330
747D
100
AcDbEntity
  8
部品1
 48
50.0
100
AcDbLine
 10
6514.042175438652
 20
1286.547220888093
 30
0.0
 11
6514.042175438652
 21
1046.547220888093
 31
0.0
  0
LINE
  5
1E2EE
330
747D
100
AcDbEntity
  8
部品1
 48
50.0
100
AcDbLine
 10
6314.042175438657
 20
1166.547220888093
 30
0.0
 11
6314.042175438651
 21
1690.801650282338
 31
0.0
  0
LINE
  5
1E2EF
330
747D
100
AcDbEntity
  8
部品1
 48
50.0
100
AcDbLine
 10
6298.042175438657
 20
1166.547220888093
 30
0.0
 11
6298.042175438645
 21
1690.801650282338
 31
0.0
  0
LINE
  5
1E2F0
330
747D
100
AcDbEntity
  8
細線
 48
50.0
100
AcDbLine
 10
6282.042175438651
 20
1205.867819744604
 30
0.0
 11
6298.042175438657
 21
1221.867819744604
 31
0.0
  0
LINE
  5
1E2F1
330
747D
100
AcDbEntity
  8
細線
 48
50.0
100
AcDbLine
 10
6271.225014934666
 20
918.5472208880929
 30
0.0
 11
6305.522511565849
 21
1046.547220888093
 31
0.0
  0
LINE
  5
1E2F2
330
747D
100
AcDbEntity
  8
部品1
 48
50.0
100
AcDbLine
 10
6594.042175438655
 20
918.5472208880929
 30
0.0
 11
5986.042175438654
 21
918.5472208880929
 31
0.0
  0
LINE
  5
1E2F3
330
747D
100
AcDbEntity
  8
部品1
 48
50.0
100
AcDbLine
 10
6122.042175438651
 20
1142.547220888093
 30
0.0
 11
6458.042175438652
 21
1142.547220888093
 31
0.0
  0
LINE
  5
1E2F4
330
747D
100
AcDbEntity
  8
部品1
 48
50.0
100
AcDbLine
 10
6122.042175438651
 20
1158.547220888093
 30
0.0
 11
6458.042175438652
 21
1158.547220888093
 31
0.0
  0
LINE
  5
1E2F5
330
747D
100
AcDbEntity
  8
部品1
 48
50.0
100
AcDbLine
 10
6594.042175438655
 20
1046.547220888093
 30
0.0
 11
5986.042175438654
 21
1046.547220888093
 31
0.0
  0
CIRCLE
  5
1E2F6
330
747D
100
AcDbEntity
  8
部品1
 48
50.0
100
AcDbCircle
 10
6290.042175438652
 20
1166.547220888093
 30
0.0
 40
8.0
  0
LINE
  5
1E2F7
330
747D
100
AcDbEntity
  8
細線
 48
50.0
100
AcDbLine
 10
6284.366186761385
 20
1046.547220888093
 30
0.0
 11
6380.366186761385
 21
1142.547220888093
 31
0.0
  0
LINE
  5
1E2F8
330
747D
100
AcDbEntity
  8
細線
 48
50.0
100
AcDbLine
 10
6113.448925040168
 20
918.5472208880929
 30
0.0
 11
6147.74642167135
 21
1046.547220888093
 31
0.0
  0
LINE
  5
1E2F9
330
747D
100
AcDbEntity
  8
細線
 48
50.0
100
AcDbLine
 10
6192.336969987413
 20
918.5472208880909
 30
0.0
 11
6226.634466618595
 21
1046.547220888091
 31
0.0
  0
LINE
  5
1E2FA
330
747D
100
AcDbEntity
  8
細線
 48
50.0
100
AcDbLine
 10
6034.560880092909
 20
918.5472208880909
 30
0.0
 11
6068.858376724093
 21
1046.547220888091
 31
0.0
  0
LINE
  5
1E2FB
330
747D
100
AcDbEntity
  8
部品1
 48
50.0
100
AcDbLine
 10
5986.042175438654
 20
918.5472208880929
 30
0.0
 11
5986.042175438654
 21
1046.547220888093
 31
0.0
  0
LINE
  5
1E2FC
330
747D
100
AcDbEntity
  8
細線
 48
50.0
100
AcDbLine
 10
6119.879705658513
 20
942.5472208880929
 30
0.0
 11
6126.310486276861
 21
918.5472208880929
 31
0.0
  0
LINE
  5
1E2FD
330
747D
100
AcDbEntity
  8
細線
 48
50.0
100
AcDbLine
 10
6040.991660711263
 20
942.5472208880929
 30
0.0
 11
6047.422441329609
 21
918.5472208880929
 31
0.0
  0
LINE
  5
1E2FE
330
747D
100
AcDbEntity
  8
細線
 48
50.0
100
AcDbLine
 10
6277.655795553019
 20
942.5472208880929
 30
0.0
 11
6284.086576171365
 21
918.5472208880929
 31
0.0
  0
LINE
  5
1E2FF
330
747D
100
AcDbEntity
  8
細線
 48
50.0
100
AcDbLine
 10
6198.767750605767
 20
942.5472208880929
 30
0.0
 11
6205.198531224112
 21
918.5472208880929
 31
0.0
  0
LINE
  5
1E300
330
747D
100
AcDbEntity
  8
細線
 48
50.0
100
AcDbLine
 10
6095.780808218935
 20
1046.547220888093
 30
0.0
 11
6191.780808218935
 21
1142.547220888093
 31
0.0
  0
LINE
  5
1E301
330
747D
100
AcDbEntity
  8
細線
 48
50.0
100
AcDbLine
 10
6068.840039855724
 20
1046.547220888093
 30
0.0
 11
6164.840039855724
 21
1142.547220888093
 31
0.0
  0
LINE
  5
1E302
330
747D
100
AcDbEntity
  8
部品1
 48
50.0
100
AcDbLine
 10
6122.042175438651
 20
1158.547220888093
 30
0.0
 11
6122.042175438651
 21
1142.547220888093
 31
0.0
  0
LINE
  5
1E303
330
747D
100
AcDbEntity
  8
細線
 48
50.0
100
AcDbLine
 10
6062.427596105752
 20
1022.547220888093
 30
0.0
 11
6055.996815487404
 21
1046.547220888093
 31
0.0
  0
LINE
  5
1E304
330
747D
100
AcDbEntity
  8
細線
 48
50.0
100
AcDbLine
 10
5986.042175438651
 20
1031.887141853873
 30
0.0
 11
5989.970331776847
 21
1046.547220888093
 31
0.0
  0
LINE
  5
1E305
330
747D
100
AcDbEntity
  8
部品1
 48
50.0
100
AcDbLine
 10
6282.042175438651
 20
1224.674435585215
 30
0.0
 11
6266.042175438652
 21
1224.674435585215
 31
0.0
  0
CIRCLE
  5
1E306
330
747D
100
AcDbEntity
  8
部品1
 48
50.0
100
AcDbCircle
 10
6162.042175438652
 20
1166.547220888093
 30
0.0
 40
8.0
  0
LINE
  5
1E307
330
747D
100
AcDbEntity
  8
細線
 48
50.0
100
AcDbLine
 10
6234.72157658214
 20
1158.547220888093
 30
0.0
 11
6266.042175438652
 21
1189.867819744604
 31
0.0
  0
ARC
  5
1E308
330
747D
100
AcDbEntity
  8
部品1
 48
50.0
100
AcDbCircle
 10
6290.042175438652
 20
1166.547220888093
 30
0.0
 40
24.0
100
AcDbArc
 50
180.0
 51
199.4712206345247
  0
LINE
  5
1E309
330
747D
100
AcDbEntity
  8
細線
 48
50.0
100
AcDbLine
 10
6141.315641053003
 20
1022.547220888093
 30
0.0
 11
6134.884860434657
 21
1046.547220888093
 31
0.0
  0
LINE
  5
1E30A
330
747D
100
AcDbEntity
  8
細線
 48
50.0
100
AcDbLine
 10
6220.203686000256
 20
1022.547220888093
 30
0.0
 11
6213.772905381909
 21
1046.547220888093
 31
0.0
  0
LINE
  5
1E30B
330
747D
100
AcDbEntity
  8
細線
 48
50.0
100
AcDbLine
 10
6122.72157658214
 20
1046.547220888093
 30
0.0
 11
6218.72157658214
 21
1142.547220888093
 31
0.0
  0
LINE
  5
1E30C
330
747D
100
AcDbEntity
  8
部品1
 48
50.0
100
AcDbLine
 10
6266.042175438652
 20
1224.674435585215
 30
0.0
 11
6266.042175438652
 21
1166.547220888093
 31
0.0
  0
LINE
  5
1E30D
330
747D
100
AcDbEntity
  8
細線
 48
50.0
100
AcDbLine
 10
6207.780808218934
 20
1158.547220888093
 30
0.0
 11
6266.042175438652
 21
1216.808588107811
 31
0.0
  0
LINE
  5
1E30E
330
747D
100
AcDbEntity
  8
部品1
 48
50.0
100
AcDbLine
 10
6282.042175438651
 20
1224.674435585215
 30
0.0
 11
6282.042175438651
 21
1166.547220888093
 31
0.0
  0
LINE
  5
1E30F
330
747D
100
AcDbEntity
  8
部品1
 48
50.0
100
AcDbLine
 10
6594.042175438655
 20
1046.547220888093
 30
0.0
 11
6594.042175438655
 21
918.5472208880929
 31
0.0
  0
LINE
  5
1E310
330
747D
100
AcDbEntity
  8
細線
 48
50.0
100
AcDbLine
 10
6507.889149776405
 20
918.5472208880929
 30
0.0
 11
6542.18664640759
 21
1046.547220888091
 31
0.0
  0
LINE
  5
1E311
330
747D
100
AcDbEntity
  8
細線
 48
50.0
100
AcDbLine
 10
6350.113059881911
 20
918.5472208880929
 30
0.0
 11
6384.410556513098
 21
1046.547220888091
 31
0.0
  0
LINE
  5
1E312
330
747D
100
AcDbEntity
  8
細線
 48
50.0
100
AcDbLine
 10
6429.00110482916
 20
918.5472208880909
 30
0.0
 11
6463.298601460344
 21
1046.547220888091
 31
0.0
  0
LINE
  5
1E313
330
747D
100
AcDbEntity
  8
細線
 48
50.0
100
AcDbLine
 10
6435.43188544751
 20
942.5472208880929
 30
0.0
 11
6441.862666065858
 21
918.5472208880929
 31
0.0
  0
LINE
  5
1E314
330
747D
100
AcDbEntity
  8
細線
 48
50.0
100
AcDbLine
 10
6356.543840500265
 20
942.5472208880929
 30
0.0
 11
6362.97462111861
 21
918.5472208880929
 31
0.0
  0
LINE
  5
1E315
330
747D
100
AcDbEntity
  8
細線
 48
50.0
100
AcDbLine
 10
6514.319930394757
 20
942.5472208880929
 30
0.0
 11
6520.750711013104
 21
918.5472208880929
 31
0.0
  0
LINE
  5
1E316
330
747D
100
AcDbEntity
  8
細線
 48
50.0
100
AcDbLine
 10
6593.207975342004
 20
942.5472208880929
 30
0.0
 11
6594.042175438652
 21
939.4339437437283
 31
0.0
  0
LINE
  5
1E317
330
747D
100
AcDbEntity
  8
細線
 48
50.0
100
AcDbLine
 10
6586.777194723655
 20
918.5472208880909
 30
0.0
 11
6594.042175438652
 21
945.660498032481
 31
0.0
  0
LINE
  5
1E318
330
747D
100
AcDbEntity
  8
細線
 48
50.0
100
AcDbLine
 10
6450.247723487798
 20
1158.547220888093
 30
0.0
 11
6514.042175438652
 21
1222.341672838944
 31
0.0
  0
CIRCLE
  5
1E319
330
747D
100
AcDbEntity
  8
部品1
 48
50.0
100
AcDbCircle
 10
6418.042175438651
 20
1166.547220888093
 30
0.0
 40
8.0
  0
ARC
  5
1E31A
330
747D
100
AcDbEntity
  8
部品1
 48
50.0
100
AcDbCircle
 10
6290.042175438652
 20
1166.547220888093
 30
0.0
 40
24.0
100
AcDbArc
 50
340.5287793654752
 51
0.0
  0
LINE
  5
1E31B
330
747D
100
AcDbEntity
  8
細線
 48
50.0
100
AcDbLine
 10
6299.091730947508
 20
1022.547220888093
 30
0.0
 11
6292.66095032916
 21
1046.547220888093
 31
0.0
  0
LINE
  5
1E31C
330
747D
100
AcDbEntity
  8
細線
 48
50.0
100
AcDbLine
 10
6377.979775894754
 20
1022.547220888093
 30
0.0
 11
6371.548995276407
 21
1046.547220888093
 31
0.0
  0
LINE
  5
1E31D
330
747D
100
AcDbEntity
  8
細線
 48
50.0
100
AcDbLine
 10
6311.306955124596
 20
1046.547220888093
 30
0.0
 11
6407.306955124595
 21
1142.547220888093
 31
0.0
  0
LINE
  5
1E31E
330
747D
100
AcDbEntity
  8
細線
 48
50.0
100
AcDbLine
 10
6338.247723487799
 20
1046.547220888093
 30
0.0
 11
6434.248611332936
 21
1142.548108733232
 31
0.0
  0
LINE
  5
1E31F
330
747D
100
AcDbEntity
  8
部品1
 48
50.0
100
AcDbLine
 10
6458.042175438652
 20
1158.547220888093
 30
0.0
 11
6458.042175438652
 21
1142.547220888093
 31
0.0
  0
LINE
  5
1E320
330
747D
100
AcDbEntity
  8
細線
 48
50.0
100
AcDbLine
 10
6535.755865789245
 20
1022.547220888093
 30
0.0
 11
6529.325085170897
 21
1046.547220888093
 31
0.0
  0
LINE
  5
1E321
330
747D
100
AcDbEntity
  8
細線
 48
50.0
100
AcDbLine
 10
6499.892333667045
 20
1046.547220888093
 30
0.0
 11
6514.042175438652
 21
1060.697062659699
 31
0.0
  0
LINE
  5
1E322
330
747D
100
AcDbEntity
  8
細線
 48
50.0
100
AcDbLine
 10
6456.867820841998
 20
1022.547220888093
 30
0.0
 11
6450.437040223653
 21
1046.547220888093
 31
0.0
  0
LINE
  5
1E323
330
747D
100
AcDbEntity
  8
細線
 48
50.0
100
AcDbLine
 10
6194.042175438652
 20
1360.334735013471
 30
0.0
 11
6298.042175438657
 21
1464.334735013473
 31
0.0
  0
LINE
  5
1E324
330
747D
100
AcDbEntity
  8
細線
 48
50.0
100
AcDbLine
 10
6194.042175438652
 20
1387.275503376679
 30
0.0
 11
6298.042175438652
 21
1491.275503376679
 31
0.0
  0
LINE
  5
1E325
330
747D
100
AcDbEntity
  8
細線
 48
50.0
100
AcDbLine
 10
6194.042175438652
 20
1333.393966650264
 30
0.0
 11
6298.042175438657
 21
1437.393966650264
 31
0.0
  0
LINE
  5
1E326
330
747D
100
AcDbEntity
  8
細線
 48
50.0
100
AcDbLine
 10
6282.042175438651
 20
1636.920113555923
 30
0.0
 11
6298.042175438652
 21
1652.920113555923
 31
0.0
  0
LINE
  5
1E327
330
747D
100
AcDbEntity
  8
細線
 48
50.0
100
AcDbLine
 10
6282.042175438651
 20
1663.86088191913
 30
0.0
 11
6298.042175438652
 21
1679.86088191913
 31
0.0
  0
LINE
  5
1E328
330
747D
100
AcDbEntity
  8
部品1
 48
50.0
100
AcDbLine
 10
6066.042175438652
 20
1286.547220888093
 30
0.0
 11
6194.042175438652
 21
1286.547220888093
 31
0.0
  0
LINE
  5
1E329
330
747D
100
AcDbEntity
  8
細線
 48
50.0
100
AcDbLine
 10
6066.042175438645
 20
1232.334735013468
 30
0.0
 11
6120.254661313277
 21
1286.547220888093
 31
0.0
  0
LINE
  5
1E32A
330
747D
100
AcDbEntity
  8
細線
 48
50.0
100
AcDbLine
 10
6066.042175438645
 20
1259.275503376679
 30
0.0
 11
6093.313892950066
 21
1286.547220888093
 31
0.0
  0
LINE
  5
1E32B
330
747D
100
AcDbEntity
  8
部品1
 48
50.0
100
AcDbLine
 10
6282.042175438651
 20
1632.674435585215
 30
0.0
 11
6266.042175438652
 21
1632.674435585219
 31
0.0
  0
LINE
  5
1E32C
330
747D
100
AcDbEntity
  8
細線
 48
50.0
100
AcDbLine
 10
6194.042175438652
 20
1548.920113555923
 30
0.0
 11
6277.796497467946
 21
1632.674435585215
 31
0.0
  0
LINE
  5
1E32D
330
747D
100
AcDbEntity
  8
細線
 48
50.0
100
AcDbLine
 10
6194.042175438652
 20
1575.86088191913
 30
0.0
 11
6266.042175438652
 21
1647.86088191913
 31
0.0
  0
LINE
  5
1E32E
330
747D
100
AcDbEntity
  8
部品1
 48
50.0
100
AcDbLine
 10
6266.042175438652
 20
1632.674435585219
 30
0.0
 11
6266.042175438652
 21
1690.801650282338
 31
0.0
  0
LINE
  5
1E32F
330
747D
100
AcDbEntity
  8
細線
 48
50.0
100
AcDbLine
 10
6194.042175438652
 20
1602.801650282338
 30
0.0
 11
6266.042175438652
 21
1674.801650282338
 31
0.0
  0
LINE
  5
1E330
330
747D
100
AcDbEntity
  8
部品1
 48
50.0
100
AcDbLine
 10
6282.042175438651
 20
1632.674435585215
 30
0.0
 11
6282.042175438651
 21
1690.801650282338
 31
0.0
  0
LINE
  5
1E331
330
747D
100
AcDbEntity
  8
細線
 48
50.0
100
AcDbLine
 10
6314.042175438657
 20
1453.393966650264
 30
0.0
 11
6386.042175438644
 21
1525.393966650264
 31
0.0
  0
LINE
  5
1E332
330
747D
100
AcDbEntity
  8
部品1
 48
50.0
100
AcDbLine
 10
6386.042175438651
 20
1286.547220888093
 30
0.0
 11
6514.042175438652
 21
1286.547220888093
 31
0.0
  0
LINE
  5
1E333
330
747D
100
AcDbEntity
  8
細線
 48
50.0
100
AcDbLine
 10
6314.042175438657
 20
1264.808588107814
 30
0.0
 11
6386.042175438644
 21
1336.808588107809
 31
0.0
  0
LINE
  5
1E334
330
747D
100
AcDbEntity
  8
細線
 48
50.0
100
AcDbLine
 10
6314.042175438657
 20
1291.749356471022
 30
0.0
 11
6386.042175438644
 21
1363.749356471018
 31
0.0
  0
LINE
  5
1E335
330
747D
100
AcDbEntity
  8
細線
 48
50.0
100
AcDbLine
 10
6314.042175438657
 20
1237.867819744604
 30
0.0
 11
6386.042175438644
 21
1309.867819744604
 31
0.0
  0
LINE
  5
1E336
330
747D
100
AcDbEntity
  8
細線
 48
50.0
100
AcDbLine
 10
6314.042175438651
 20
1507.275503376679
 30
0.0
 11
6386.042175438651
 21
1579.275503376679
 31
0.0
  0
LINE
  5
1E337
330
747D
100
AcDbEntity
  8
細線
 48
50.0
100
AcDbLine
 10
6314.042175438657
 20
1480.334735013473
 30
0.0
 11
6386.042175438644
 21
1552.334735013468
 31
0.0
  0
MTEXT
  5
1E338
102
{ACAD_REACTORS
330
1E2E3
102
}
330
747D
100
AcDbEntity
  8
寸法
 62
     7
 48
50.0
100
AcDbMText
 10
6627.780631299902
 20
869.1981351559398
 30
0.0
 40
80.0
 41
0.8
 71
     4
 72
     1
  1
\A1;D10@300
  7
STYLE2
 73
     1
 44
1.0
1001
ACAD
1000
MTEXTBEGIN
1070
    73
1070
     1
1070
    44
1040
1.0
1070
    74
1070
     0
1000
MTEXTEND
  0
DIMENSION
  5
1E339
330
747D
100
AcDbEntity
  8
寸法
 48
50.0
100
AcDbDimension
  2
*D34
 10
6194.04217543865
 20
2250.215028804473
 30
0.0
 11
6290.04217543865
 21
2250.215028804473
 31
0.0
 70
   160
  1
120\P195
 71
     5
 42
192.0
  3
INABA_S40G
100
AcDbAlignedDimension
 13
6386.04217543865
 23
1830.547220888093
 33
0.0
 14
6194.04217543865
 24
1830.547220888093
 34
0.0
100
AcDbRotatedDimension
1001
ACAD
1000
DSTYLE
1002
{
1070
   341
1005
0
1002
}
  0
LINE
  5
1E33A
330
747D
100
AcDbEntity
  8
部品1
 48
50.0
100
AcDbLine
 10
6194.042175438652
 20
1830.547220888093
 30
0.0
 11
6386.042175438651
 21
1830.547220888093
 31
0.0
  0
LINE
  5
1E33B
330
747D
100
AcDbEntity
  8
細線
 48
50.0
100
AcDbLine
 10
6194.042175438652
 20
1791.387028824791
 30
0.0
 11
6233.202367501956
 21
1830.547220888093
 31
0.0
  0
LINE
  5
1E33C
330
747D
100
AcDbEntity
  8
細線
 48
50.0
100
AcDbLine
 10
6194.042175438652
 20
1764.446260461583
 30
0.0
 11
6260.143135865161
 21
1830.547220888093
 31
0.0
  0
LINE
  5
1E33D
330
747D
100
AcDbEntity
  8
細線
 48
50.0
100
AcDbLine
 10
6194.042175438652
 20
1818.327797187998
 30
0.0
 11
6206.261599138747
 21
1830.547220888093
 31
0.0
  0
LINE
  5
1E33E
330
747D
100
AcDbEntity
  8
細線
 48
50.0
100
AcDbLine
 10
6313.594882704638
 20
1695.413589185115
 30
0.0
 11
6386.042175438651
 21
1767.86088191913
 31
0.0
  0
LINE
  5
1E33F
330
747D
100
AcDbEntity
  8
細線
 48
50.0
100
AcDbLine
 10
6302.534597941122
 20
1711.294072784809
 30
0.0
 11
6386.042175438651
 21
1794.801650282338
 31
0.0
  0
LINE
  5
1E340
330
747D
100
AcDbEntity
  8
細線
 48
50.0
100
AcDbLine
 10
8178.481488615847
 20
1671.675503376681
 30
0.0
 11
8308.081488615846
 21
1801.27550337668
 31
0.0
  0
LINE
  5
1E341
330
747D
100
AcDbEntity
  8
部品1
100
AcDbLine
 10
8308.081488615846
 20
1286.547220888093
 30
0.0
 11
8308.081488615846
 21
1830.547220888093
 31
0.0
  0
LINE
  5
1E342
330
747D
100
AcDbEntity
  8
部品1
 48
50.0
100
AcDbLine
 10
7894.081488615845
 20
1286.547220888093
 30
0.0
 11
7894.081488615845
 21
1830.547220888093
 31
0.0
  0
LINE
  5
1E343
330
747D
100
AcDbEntity
  8
細線
 48
50.0
100
AcDbLine
 10
7894.081488615845
 20
1602.801650282338
 30
0.0
 11
8052.481488615844
 21
1761.201650282335
 31
0.0
  0
LINE
  5
1E344
330
747D
100
AcDbEntity
  8
細線
 48
50.0
100
AcDbLine
 10
7894.081488615845
 20
1575.86088191913
 30
0.0
 11
8052.481488615844
 21
1734.260881919128
 31
0.0
  0
LINE
  5
1E345
330
747D
100
AcDbEntity
  8
細線
 48
50.0
100
AcDbLine
 10
7894.081488615845
 20
1548.920113555923
 30
0.0
 11
8052.481488615843
 21
1707.320113555915
 31
0.0
  0
TEXT
  5
1E346
330
747D
100
AcDbEntity
  8
部品1
 48
50.0
100
AcDbText
 10
7479.941586782889
 20
1601.786213171348
 30
0.0
 40
80.0
  1
▽G.L
  7
STYLE2
100
AcDbText
  0
LINE
  5
1E347
330
747D
100
AcDbEntity
  8
部品1
100
AcDbLine
 10
8124.481488615845
 20
1605.547220888093
 30
0.0
 11
8124.481488615842
 21
1879.707220888094
 31
0.0
  0
LINE
  5
1E348
330
747D
100
AcDbEntity
  8
部品1
100
AcDbLine
 10
8106.481488615846
 20
1605.547220888093
 30
0.0
 11
8106.481488615841
 21
1879.707220888094
 31
0.0
  0
LINE
  5
1E349
330
747D
100
AcDbEntity
  8
細線
 48
50.0
100
AcDbLine
 10
8178.481488615847
 20
1617.793966650252
 30
0.0
 11
8308.081488615846
 21
1747.393966650243
 31
0.0
  0
LINE
  5
1E34A
330
747D
100
AcDbEntity
  8
細線
 48
50.0
100
AcDbLine
 10
8178.481488615847
 20
1644.734735013464
 30
0.0
 11
8308.081488615846
 21
1774.334735013461
 31
0.0
  0
LINE
  5
1E34B
330
747D
100
AcDbEntity
  8
部品1
100
AcDbLine
 10
8178.481488615846
 20
1506.547220888093
 30
0.0
 11
8178.481488615846
 21
1830.547220888093
 31
0.0
  0
LINE
  5
1E34C
330
747D
100
AcDbEntity
  8
部品1
100
AcDbLine
 10
8052.481488615839
 20
1506.547220888093
 30
0.0
 11
8052.481488615844
 21
1830.547220888093
 31
0.0
  0
LINE
  5
1E34D
330
747D
100
AcDbEntity
  8
細線
 48
50.0
100
AcDbLine
 10
7894.081488615845
 20
1360.334735013471
 30
0.0
 11
8052.481488615837
 21
1518.734735013459
 31
0.0
  0
LINE
  5
1E34E
330
747D
100
AcDbEntity
  8
細線
 48
50.0
100
AcDbLine
 10
7894.081488615845
 20
1333.393966650264
 30
0.0
 11
8067.234742853681
 21
1506.547220888091
 31
0.0
  0
LINE
  5
1E34F
330
747D
100
AcDbEntity
  8
細線
 48
50.0
100
AcDbLine
 10
7894.081488615845
 20
1387.275503376679
 30
0.0
 11
8052.481488615837
 21
1545.675503376674
 31
0.0
  0
LINE
  5
1E350
330
747D
100
AcDbEntity
  8
細線
 48
50.0
100
AcDbLine
 10
7822.760889759334
 20
1046.547220888093
 30
0.0
 11
8308.081488615846
 21
1531.867819744601
 31
0.0
  0
LINE
  5
1E351
330
747D
100
AcDbEntity
  8
細線
 48
50.0
100
AcDbLine
 10
7795.820121396129
 20
1046.547220888093
 30
0.0
 11
8308.081488615847
 21
1558.808588107807
 31
0.0
  0
LINE
  5
1E352
330
747D
100
AcDbEntity
  8
細線
 48
50.0
100
AcDbLine
 10
7768.879353032919
 20
1046.547220888093
 30
0.0
 11
8308.081488615846
 21
1585.749356471018
 31
0.0
  0
LINE
  5
1E353
330
747D
100
AcDbEntity
  8
部品1
 48
50.0
100
AcDbLine
 10
8516.081488615848
 20
1046.547220888093
 30
0.0
 11
7686.081488615847
 21
1046.547220888093
 31
0.0
  0
LINE
  5
1E354
330
747D
100
AcDbEntity
  8
部品1
 48
50.0
100
AcDbLine
 10
8516.081488615848
 20
918.5472208880929
 30
0.0
 11
7686.081488615847
 21
918.5472208880929
 31
0.0
  0
LINE
  5
1E355
330
747D
100
AcDbEntity
  8
細線
 48
50.0
100
AcDbLine
 10
7766.081488615839
 20
1205.393966650263
 30
0.0
 11
7847.234742853673
 21
1286.547220888093
 31
0.0
  0
LINE
  5
1E356
330
747D
100
AcDbEntity
  8
部品1
 48
50.0
100
AcDbLine
 10
7766.081488615845
 20
1046.547220888093
 30
0.0
 11
7766.081488615845
 21
1286.547220888093
 31
0.0
  0
LINE
  5
1E357
330
747D
100
AcDbEntity
  8
細線
 48
50.0
100
AcDbLine
 10
7813.488238217361
 20
918.5472208880929
 30
0.0
 11
7847.785734848546
 21
1046.547220888093
 31
0.0
  0
LINE
  5
1E358
330
747D
100
AcDbEntity
  8
部品1
 48
50.0
100
AcDbLine
 10
7686.081488615847
 20
918.5472208880929
 30
0.0
 11
7686.081488615847
 21
1046.547220888093
 31
0.0
  0
LINE
  5
1E359
330
747D
100
AcDbEntity
  8
細線
 48
50.0
100
AcDbLine
 10
7734.600193270104
 20
918.5472208880909
 30
0.0
 11
7768.897689901287
 21
1046.547220888091
 31
0.0
  0
LINE
  5
1E35A
330
747D
100
AcDbEntity
  8
細線
 48
50.0
100
AcDbLine
 10
7892.376283164608
 20
918.5472208880909
 30
0.0
 11
7926.67377979579
 21
1046.547220888091
 31
0.0
  0
LINE
  5
1E35B
330
747D
100
AcDbEntity
  8
細線
 48
50.0
100
AcDbLine
 10
7741.030973888458
 20
942.5472208880929
 30
0.0
 11
7747.461754506803
 21
918.5472208880929
 31
0.0
  0
LINE
  5
1E35C
330
747D
100
AcDbEntity
  8
細線
 48
50.0
100
AcDbLine
 10
7898.80706378296
 20
942.5472208880929
 30
0.0
 11
7905.237844401307
 21
918.5472208880929
 31
0.0
  0
LINE
  5
1E35D
330
747D
100
AcDbEntity
  8
細線
 48
50.0
100
AcDbLine
 10
7819.919018835709
 20
942.5472208880929
 30
0.0
 11
7826.349799454056
 21
918.5472208880929
 31
0.0
  0
LINE
  5
1E35E
330
747D
100
AcDbEntity
  8
細線
 48
50.0
100
AcDbLine
 10
7686.081488615845
 20
1031.887141853873
 30
0.0
 11
7690.009644954042
 21
1046.547220888093
 31
0.0
  0
LINE
  5
1E35F
330
747D
100
AcDbEntity
  8
細線
 48
50.0
100
AcDbLine
 10
7762.466909282946
 20
1022.547220888093
 30
0.0
 11
7756.0361286646
 21
1046.547220888093
 31
0.0
  0
LINE
  5
1E360
330
747D
100
AcDbEntity
  8
細線
 48
50.0
100
AcDbLine
 10
7920.24299917745
 20
1022.547220888093
 30
0.0
 11
7913.812218559103
 21
1046.547220888093
 31
0.0
  0
LINE
  5
1E361
330
747D
100
AcDbEntity
  8
細線
 48
50.0
100
AcDbLine
 10
7841.354954230197
 20
1022.547220888093
 30
0.0
 11
7834.924173611852
 21
1046.547220888093
 31
0.0
  0
LWPOLYLINE
  5
1E362
330
747D
100
AcDbEntity
  8
部品1
 48
50.0
100
AcDbPolyline
 90
        2
 70
     0
 43
8.0
 10
7479.941586782889
 20
1590.547220888094
 10
7894.081488615845
 20
1590.547220888094
  0
LINE
  5
1E363
330
747D
100
AcDbEntity
  8
細線
 48
50.0
100
AcDbLine
 10
7766.081488615839
 20
1232.334735013468
 30
0.0
 11
7820.29397449047
 21
1286.547220888093
 31
0.0
  0
LINE
  5
1E364
330
747D
100
AcDbEntity
  8
部品1
 48
50.0
100
AcDbLine
 10
7766.081488615845
 20
1286.547220888093
 30
0.0
 11
7894.081488615845
 21
1286.547220888093
 31
0.0
  0
LINE
  5
1E365
330
747D
100
AcDbEntity
  8
細線
 48
50.0
100
AcDbLine
 10
7766.081488615839
 20
1259.275503376679
 30
0.0
 11
7793.35320612726
 21
1286.547220888093
 31
0.0
  0
LINE
  5
1E366
330
747D
100
AcDbEntity
  8
細線
 48
50.0
100
AcDbLine
 10
8011.346268301791
 20
1046.547220888093
 30
0.0
 11
8308.081488615846
 21
1343.282441202145
 31
0.0
  0
LINE
  5
1E367
330
747D
100
AcDbEntity
  8
細線
 48
50.0
100
AcDbLine
 10
8038.287036664995
 20
1046.547220888093
 30
0.0
 11
8308.081488615846
 21
1316.34167283895
 31
0.0
  0
LINE
  5
1E368
330
747D
100
AcDbEntity
  8
細線
 48
50.0
100
AcDbLine
 10
7984.405499938579
 20
1046.547220888093
 30
0.0
 11
8308.081488615846
 21
1370.223209565359
 31
0.0
  0
LINE
  5
1E369
330
747D
100
AcDbEntity
  8
細線
 48
50.0
100
AcDbLine
 10
8199.931646844238
 20
1046.547220888093
 30
0.0
 11
8436.081488615844
 21
1282.697062659701
 31
0.0
  0
LINE
  5
1E36A
330
747D
100
AcDbEntity
  8
細線
 48
50.0
100
AcDbLine
 10
8226.87241520745
 20
1046.547220888093
 30
0.0
 11
8436.081488615844
 21
1255.756294296486
 31
0.0
  0
LINE
  5
1E36B
330
747D
100
AcDbEntity
  8
部品1
 48
50.0
100
AcDbLine
 10
8436.081488615844
 20
1286.547220888093
 30
0.0
 11
8436.081488615844
 21
1046.547220888093
 31
0.0
  0
LINE
  5
1E36C
330
747D
100
AcDbEntity
  8
細線
 48
50.0
100
AcDbLine
 10
8253.813183570654
 20
1046.547220888093
 30
0.0
 11
8436.081488615844
 21
1228.815525933289
 31
0.0
  0
LINE
  5
1E36D
330
747D
100
AcDbEntity
  8
細線
 48
50.0
100
AcDbLine
 10
8129.040418006354
 20
918.5472208880909
 30
0.0
 11
8163.337914637537
 21
1046.547220888091
 31
0.0
  0
LINE
  5
1E36E
330
747D
100
AcDbEntity
  8
細線
 48
50.0
100
AcDbLine
 10
7971.26432811186
 20
918.5472208880929
 30
0.0
 11
8005.561824743043
 21
1046.547220888093
 31
0.0
  0
LINE
  5
1E36F
330
747D
100
AcDbEntity
  8
細線
 48
50.0
100
AcDbLine
 10
8050.152373059106
 20
918.5472208880929
 30
0.0
 11
8084.449869690292
 21
1046.547220888091
 31
0.0
  0
LINE
  5
1E370
330
747D
100
AcDbEntity
  8
細線
 48
50.0
100
AcDbLine
 10
8207.928462953598
 20
918.5472208880929
 30
0.0
 11
8242.225959584784
 21
1046.547220888091
 31
0.0
  0
LINE
  5
1E371
330
747D
100
AcDbEntity
  8
細線
 48
50.0
100
AcDbLine
 10
8056.583153677458
 20
942.5472208880929
 30
0.0
 11
8063.013934295806
 21
918.5472208880929
 31
0.0
  0
LINE
  5
1E372
330
747D
100
AcDbEntity
  8
細線
 48
50.0
100
AcDbLine
 10
7977.695108730213
 20
942.5472208880929
 30
0.0
 11
7984.125889348558
 21
918.5472208880929
 31
0.0
  0
LINE
  5
1E373
330
747D
100
AcDbEntity
  8
細線
 48
50.0
100
AcDbLine
 10
8214.359243571951
 20
942.5472208880929
 30
0.0
 11
8220.790024190298
 21
918.5472208880929
 31
0.0
  0
LINE
  5
1E374
330
747D
100
AcDbEntity
  8
細線
 48
50.0
100
AcDbLine
 10
8135.471198624705
 20
942.5472208880929
 30
0.0
 11
8141.901979243051
 21
918.5472208880929
 31
0.0
  0
LINE
  5
1E375
330
747D
100
AcDbEntity
  8
細線
 48
50.0
100
AcDbLine
 10
8078.019089071949
 20
1022.547220888093
 30
0.0
 11
8071.5883084536
 21
1046.547220888093
 31
0.0
  0
LINE
  5
1E376
330
747D
100
AcDbEntity
  8
細線
 48
50.0
100
AcDbLine
 10
7999.131044124702
 20
1022.547220888093
 30
0.0
 11
7992.700263506354
 21
1046.547220888093
 31
0.0
  0
LINE
  5
1E377
330
747D
100
AcDbEntity
  8
細線
 48
50.0
100
AcDbLine
 10
8156.907134019194
 20
1022.547220888093
 30
0.0
 11
8150.476353400847
 21
1046.547220888093
 31
0.0
  0
LINE
  5
1E378
330
747D
100
AcDbEntity
  8
細線
 48
50.0
100
AcDbLine
 10
8235.795178966439
 20
1022.547220888093
 30
0.0
 11
8229.364398348094
 21
1046.547220888093
 31
0.0
  0
LINE
  5
1E379
330
747D
100
AcDbEntity
  8
部品1
 48
50.0
100
AcDbLine
 10
8516.081488615848
 20
1046.547220888093
 30
0.0
 11
8516.081488615848
 21
918.5472208880929
 31
0.0
  0
LINE
  5
1E37A
330
747D
100
AcDbEntity
  8
細線
 48
50.0
100
AcDbLine
 10
8444.59259779534
 20
918.5472208880909
 30
0.0
 11
8478.890094426526
 21
1046.54722088809
 31
0.0
  0
LINE
  5
1E37B
330
747D
100
AcDbEntity
  8
細線
 48
50.0
100
AcDbLine
 10
8286.816507900846
 20
918.5472208880909
 30
0.0
 11
8321.11400453202
 21
1046.547220888093
 31
0.0
  0
LINE
  5
1E37C
330
747D
100
AcDbEntity
  8
細線
 48
50.0
100
AcDbLine
 10
8365.704552848097
 20
918.54722088809
 30
0.0
 11
8400.002049479279
 21
1046.54722088809
 31
0.0
  0
LINE
  5
1E37D
330
747D
100
AcDbEntity
  8
細線
 48
50.0
100
AcDbLine
 10
8293.247288519197
 20
942.5472208880929
 30
0.0
 11
8299.678069137554
 21
918.5472208880929
 31
0.0
  0
LINE
  5
1E37E
330
747D
100
AcDbEntity
  8
細線
 48
50.0
100
AcDbLine
 10
8372.135333466445
 20
942.5472208880909
 30
0.0
 11
8378.566114084792
 21
918.5472208880909
 31
0.0
  0
LINE
  5
1E37F
330
747D
100
AcDbEntity
  8
細線
 48
50.0
100
AcDbLine
 10
8451.023378413692
 20
942.5472208880909
 30
0.0
 11
8457.454159032039
 21
918.5472208880909
 31
0.0
  0
LINE
  5
1E380
330
747D
100
AcDbEntity
  8
細線
 48
50.0
100
AcDbLine
 10
8314.683223913679
 20
1022.547220888093
 30
0.0
 11
8308.25244329533
 21
1046.547220888093
 31
0.0
  0
LINE
  5
1E381
330
747D
100
AcDbEntity
  8
細線
 48
50.0
100
AcDbLine
 10
8393.571268860934
 20
1022.547220888091
 30
0.0
 11
8387.140488242589
 21
1046.547220888091
 31
0.0
  0
LINE
  5
1E382
330
747D
100
AcDbEntity
  8
細線
 48
50.0
100
AcDbLine
 10
8472.45931380818
 20
1022.547220888091
 30
0.0
 11
8466.028533189833
 21
1046.547220888091
 31
0.0
  0
LINE
  5
1E383
330
747D
100
AcDbEntity
  8
部品1
100
AcDbLine
 10
8178.481488615846
 20
1506.547220888091
 30
0.0
 11
8052.481488615839
 21
1506.547220888091
 31
0.0
  0
LINE
  5
1E384
330
747D
100
AcDbEntity
  8
部品1
100
AcDbLine
 10
8160.481488615845
 20
1587.547220888093
 30
0.0
 11
8160.481488615845
 21
1605.547220888093
 31
0.0
  0
ARC
  5
1E385
330
747D
100
AcDbEntity
  8
部品1
100
AcDbCircle
 10
8124.481488615845
 20
1605.547220888093
 30
0.0
 40
18.0
100
AcDbArc
 50
180.0
 51
270.0
  0
LINE
  5
1E386
330
747D
100
AcDbEntity
  8
部品1
100
AcDbLine
 10
8124.481488615845
 20
1587.547220888093
 30
0.0
 11
8160.481488615845
 21
1587.547220888093
 31
0.0
  0
LINE
  5
1E387
330
747D
100
AcDbEntity
  8
部品1
100
AcDbLine
 10
8124.481488615845
 20
1605.547220888093
 30
0.0
 11
8160.481488615845
 21
1605.547220888093
 31
0.0
  0
LINE
  5
1E388
330
747D
100
AcDbEntity
  8
部品1
 48
50.0
100
AcDbLine
 10
8308.081488615846
 20
1286.547220888093
 30
0.0
 11
8436.081488615844
 21
1286.547220888093
 31
0.0
  0
LINE
  5
1E389
330
747D
100
AcDbEntity
  8
部品1
100
AcDbLine
 10
7913.881488615846
 20
1920.547220888093
 30
0.0
 11
7951.681488615846
 21
1920.547220888093
 31
0.0
  0
LINE
  5
1E38A
330
747D
100
AcDbEntity
  8
細線
 48
50.0
100
AcDbLine
 10
7894.081488615845
 20
1791.387028824791
 30
0.0
 11
7933.241680679151
 21
1830.547220888093
 31
0.0
  0
LINE
  5
1E38B
330
747D
100
AcDbEntity
  8
細線
 48
50.0
100
AcDbLine
 10
7894.081488615845
 20
1764.446260461583
 30
0.0
 11
7960.182449042355
 21
1830.547220888093
 31
0.0
  0
LINE
  5
1E38C
330
747D
100
AcDbEntity
  8
部品1
 48
50.0
100
AcDbLine
 10
7894.081488615845
 20
1830.547220888093
 30
0.0
 11
8308.081488615847
 21
1830.547220888093
 31
0.0
  0
TEXT
  5
1E38D
330
747D
100
AcDbEntity
  8
部品1
 48
50.0
100
AcDbText
 10
7467.635392036354
 20
2161.107741988569
 30
0.0
 40
80.0
  1
※(別売)
  7
STYLE2
100
AcDbText
  0
LINE
  5
1E38E
330
747D
100
AcDbEntity
  8
部品1
100
AcDbLine
 10
7911.181488615845
 20
1909.747220888093
 30
0.0
 11
7911.181488615845
 21
1917.847220888093
 31
0.0
  0
ARC
  5
1E38F
330
747D
100
AcDbEntity
  8
部品1
100
AcDbCircle
 10
7913.881488615846
 20
1917.847220888093
 30
0.0
 40
2.7
100
AcDbArc
 50
90.0
 51
180.0
  0
ARC
  5
1E390
330
747D
100
AcDbEntity
  8
部品1
100
AcDbCircle
 10
7903.081488615845
 20
1904.939124590801
 30
0.0
 40
2.7
100
AcDbArc
 50
104.0362434679012
 51
180.0
  0
LINE
  5
1E391
330
747D
100
AcDbEntity
  8
部品1
100
AcDbLine
 10
7902.426642428245
 20
1907.558509341193
 30
0.0
 11
7911.181488615845
 21
1909.747220888093
 31
0.0
  0
ARC
  5
1E392
330
747D
100
AcDbEntity
  8
部品1
100
AcDbCircle
 10
7903.081488615845
 20
1842.807220888093
 30
0.0
 40
2.7
100
AcDbArc
 50
180.0
 51
270.0
  0
LINE
  5
1E393
330
747D
100
AcDbEntity
  8
細線
 48
50.0
100
AcDbLine
 10
7894.081488615845
 20
1818.327797187998
 30
0.0
 11
7906.30091231594
 21
1830.547220888093
 31
0.0
  0
LINE
  5
1E394
330
747D
100
AcDbEntity
  8
部品1
100
AcDbLine
 10
7903.081488615845
 20
1840.107220888093
 30
0.0
 11
7914.78148861584
 21
1840.107220888093
 31
0.0
  0
LINE
  5
1E395
330
747D
100
AcDbEntity
  8
部品1
100
AcDbLine
 10
7900.381488615845
 20
1842.807220888093
 30
0.0
 11
7900.381488615845
 21
1904.939124590801
 31
0.0
  0
LINE
  5
1E396
330
747D
100
AcDbEntity
  8
部品1
100
AcDbLine
 10
8059.041488615839
 20
1840.107220888093
 30
0.0
 11
8260.381488615839
 21
1840.107220888093
 31
0.0
  0
LINE
  5
1E397
330
747D
100
AcDbEntity
  8
部品1
100
AcDbLine
 10
7951.681488615846
 20
1920.547220888093
 30
0.0
 11
7951.681488615846
 21
1928.647220888093
 31
0.0
  0
LINE
  5
1E398
330
747D
100
AcDbEntity
  8
部品1
100
AcDbLine
 10
8002.081488615845
 20
1939.44722088809
 30
0.0
 11
8002.081488615845
 21
1888.147220888093
 31
0.0
  0
LINE
  5
1E399
330
747D
100
AcDbEntity
  8
部品1
100
AcDbLine
 10
8025.481488615845
 20
1900.107220888093
 30
0.0
 11
8053.641488615845
 21
1900.107220888093
 31
0.0
  0
ARC
  5
1E39A
330
747D
100
AcDbEntity
  8
部品1
100
AcDbCircle
 10
8025.481488615845
 20
1897.407220888093
 30
0.0
 40
2.7
100
AcDbArc
 50
90.0
 51
180.0
  0
ARC
  5
1E39B
330
747D
100
AcDbEntity
  8
部品1
100
AcDbCircle
 10
8053.641488615845
 20
1897.407220888093
 30
0.0
 40
2.7
100
AcDbArc
 50
0.0
 51
90.0
  0
LINE
  5
1E39C
330
747D
100
AcDbEntity
  8
部品1
100
AcDbLine
 10
8044.381488615846
 20
1885.447220888092
 30
0.0
 11
8044.381488615846
 21
1842.807220888093
 31
0.0
  0
LINE
  5
1E39D
330
747D
100
AcDbEntity
  8
部品1
100
AcDbLine
 10
8029.981488615845
 20
1840.107220888093
 30
0.0
 11
8041.681488615846
 21
1840.107220888093
 31
0.0
  0
ARC
  5
1E39E
330
747D
100
AcDbEntity
  8
部品1
100
AcDbCircle
 10
8059.041488615839
 20
1842.807220888093
 30
0.0
 40
2.7
100
AcDbArc
 50
180.0
 51
270.0
  0
ARC
  5
1E39F
330
747D
100
AcDbEntity
  8
部品1
100
AcDbCircle
 10
8041.681488615846
 20
1842.807220888093
 30
0.0
 40
2.7
100
AcDbArc
 50
270.0
 51
0.0
  0
LINE
  5
1E3A0
330
747D
100
AcDbEntity
  8
部品1
100
AcDbLine
 10
8002.081488615845
 20
1888.147220888093
 30
0.0
 11
8041.681488615846
 21
1888.147220888093
 31
0.0
  0
ARC
  5
1E3A1
330
747D
100
AcDbEntity
  8
部品1
100
AcDbCircle
 10
8041.681488615846
 20
1885.447220888092
 30
0.0
 40
2.7
100
AcDbArc
 50
0.0
 51
90.0
  0
LINE
  5
1E3A2
330
747D
100
AcDbEntity
  8
部品1
100
AcDbLine
 10
8056.341488615847
 20
1897.407220888093
 30
0.0
 11
8056.341488615842
 21
1842.807220888093
 31
0.0
  0
LINE
  5
1E3A3
330
747D
100
AcDbEntity
  8
部品1
100
AcDbLine
 10
8022.781488615846
 20
1897.407220888093
 30
0.0
 11
8022.781488615846
 21
1880.307220888093
 31
0.0
  0
LINE
  5
1E3A4
330
747D
100
AcDbEntity
  8
細線
100
AcDbLine
 10
8120.881488615845
 20
1840.107220888093
 30
0.0
 11
8120.881488615845
 21
1883.307220888093
 31
0.0
  0
LINE
  5
1E3A5
330
747D
100
AcDbEntity
  8
細線
100
AcDbLine
 10
8110.081488615847
 20
1840.107220888093
 30
0.0
 11
8110.081488615845
 21
1883.307220888093
 31
0.0
  0
LINE
  5
1E3A6
330
747D
100
AcDbEntity
  8
部品1
100
AcDbLine
 10
8106.481488615846
 20
1879.707220888094
 30
0.0
 11
8124.481488615845
 21
1879.707220888094
 31
0.0
  0
LINE
  5
1E3A7
330
747D
100
AcDbEntity
  8
部品1
100
AcDbLine
 10
8110.081488615845
 20
1883.307220888093
 30
0.0
 11
8120.881488615845
 21
1883.307220888093
 31
0.0
  0
ELLIPSE
  5
1E3A8
330
747D
100
AcDbEntity
  8
部品1
 48
50.0
100
AcDbEllipse
 10
8115.481488615845
 20
2099.670509332366
 30
0.0
 11
40.0
 21
0.0
 31
0.0
210
0.0
220
0.0
230
1.0
 40
0.4
 41
0.0
 42
6.283185307179586
  0
ELLIPSE
  5
1E3A9
330
747D
100
AcDbEntity
  8
部品1
 48
50.0
100
AcDbEllipse
 10
8115.481488615845
 20
2090.070509332366
 30
0.0
 11
40.0
 21
0.0
 31
0.0
210
0.0
220
0.0
230
1.0
 40
0.4
 41
3.141592653589793
 42
6.283185307179586
  0
LINE
  5
1E3AA
330
747D
100
AcDbEntity
  8
部品1
 48
50.0
100
AcDbLine
 10
8075.481488615846
 20
2099.670509332366
 30
0.0
 11
8075.481488615846
 21
2090.070509332365
 31
0.0
  0
ARC
  5
1E3AB
330
747D
100
AcDbEntity
  8
部品1
100
AcDbCircle
 10
7999.381488615846
 20
1939.44722088809
 30
0.0
 40
2.7
100
AcDbArc
 50
0.0
 51
90.0
  0
ARC
  5
1E3AC
330
747D
100
AcDbEntity
  8
部品1
100
AcDbCircle
 10
7957.081488615846
 20
1939.447220888092
 30
0.0
 40
2.7
100
AcDbArc
 50
90.0
 51
180.0
  0
LINE
  5
1E3AD
330
747D
100
AcDbEntity
  8
部品1
100
AcDbLine
 10
7954.381488615846
 20
1931.347220888093
 30
0.0
 11
7954.381488615846
 21
1931.347220888093
 31
0.0
  0
LINE
  5
1E3AE
330
747D
100
AcDbEntity
  8
部品1
100
AcDbLine
 10
7954.381488615846
 20
1931.347220888093
 30
0.0
 11
7954.381488615846
 21
1939.447220888092
 31
0.0
  0
LINE
  5
1E3AF
330
747D
100
AcDbEntity
  8
部品1
100
AcDbLine
 10
7957.081488615846
 20
1942.147220888093
 30
0.0
 11
7999.381488615846
 21
1942.147220888089
 31
0.0
  0
ARC
  5
1E3B0
330
747D
100
AcDbEntity
  8
部品1
100
AcDbCircle
 10
7954.381488615846
 20
1928.647220888093
 30
0.0
 40
2.7
100
AcDbArc
 50
90.0
 51
180.0
  0
ELLIPSE
  5
1E3B1
330
747D
100
AcDbEntity
  8
部品1
 48
50.0
100
AcDbEllipse
 10
8115.481488615845
 20
2099.670509332366
 30
0.0
 11
18.4
 21
0.0
 31
0.0
210
0.0
220
0.0
230
1.0
 40
0.3478260869565217
 41
0.0
 42
6.283185307179586
  0
LINE
  5
1E3B2
330
747D
100
AcDbEntity
  8
部品1
 48
50.0
100
AcDbLine
 10
8155.481488615846
 20
2090.070509332365
 30
0.0
 11
8155.481488615846
 21
2099.670509332366
 31
0.0
  0
LINE
  5
1E3B3
330
747D
100
AcDbEntity
  8
部品1
 48
50.0
100
AcDbLine
 10
8083.481488615845
 20
2221.422501997236
 30
0.0
 11
8099.481488615845
 21
2213.422501997236
 31
0.0
  0
LINE
  5
1E3B4
330
747D
100
AcDbEntity
  8
部品1
 48
50.0
100
AcDbLine
 10
8083.481488615845
 20
2189.422501997236
 30
0.0
 11
8099.481488615845
 21
2181.422501997236
 31
0.0
  0
LINE
  5
1E3B5
330
747D
100
AcDbEntity
  8
部品1
 48
50.0
100
AcDbLine
 10
8083.481488615845
 20
2221.422501997236
 30
0.0
 11
8099.481488615845
 21
2229.422501997236
 31
0.0
  0
LINE
  5
1E3B6
330
747D
100
AcDbEntity
  8
部品1
 48
50.0
100
AcDbLine
 10
8083.481488615845
 20
2189.422501997236
 30
0.0
 11
8083.481488615845
 21
2221.422501997236
 31
0.0
  0
LINE
  5
1E3B7
330
747D
100
AcDbEntity
  8
部品1
 48
50.0
100
AcDbLine
 10
8099.481488615845
 20
2229.422501997236
 30
0.0
 11
8131.481488615845
 21
2229.422501997236
 31
0.0
  0
ELLIPSE
  5
1E3B8
330
747D
100
AcDbEntity
  8
細線
 48
50.0
100
AcDbEllipse
 10
8115.481488615845
 20
2221.422501997236
 30
0.0
 11
14.76670786606846
 21
0.0
 31
0.0
210
0.0
220
0.0
230
1.0
 40
0.2071254069489396
 41
0.0
 42
6.283185307179586
  0
LINE
  5
1E3B9
330
747D
100
AcDbEntity
  8
部品1
 48
50.0
100
AcDbLine
 10
8099.481488615845
 20
2181.422501997236
 30
0.0
 11
8131.481488615845
 21
2181.422501997236
 31
0.0
  0
LINE
  5
1E3BA
330
747D
100
AcDbEntity
  8
部品1
 48
50.0
100
AcDbLine
 10
8131.481488615845
 20
2181.422501997236
 30
0.0
 11
8147.481488615845
 21
2189.422501997236
 31
0.0
  0
LINE
  5
1E3BB
330
747D
100
AcDbEntity
  8
部品1
 48
50.0
100
AcDbLine
 10
8099.481488615845
 20
2213.422501997236
 30
0.0
 11
8131.481488615845
 21
2213.422501997236
 31
0.0
  0
LINE
  5
1E3BC
330
747D
100
AcDbEntity
  8
部品1
 48
50.0
100
AcDbLine
 10
8131.481488615845
 20
2213.422501997236
 30
0.0
 11
8147.481488615845
 21
2221.422501997236
 31
0.0
  0
LINE
  5
1E3BD
330
747D
100
AcDbEntity
  8
細線
 48
50.0
100
AcDbLine
 10
8131.481488615845
 20
2181.422501997236
 30
0.0
 11
8131.481488615845
 21
2213.422501997236
 31
0.0
  0
LINE
  5
1E3BE
330
747D
100
AcDbEntity
  8
部品1
 48
50.0
100
AcDbLine
 10
8147.481488615845
 20
2189.422501997236
 30
0.0
 11
8147.481488615845
 21
2221.422501997236
 31
0.0
  0
LINE
  5
1E3BF
330
747D
100
AcDbEntity
  8
細線
 48
50.0
100
AcDbLine
 10
8099.481488615845
 20
2181.422501997236
 30
0.0
 11
8099.481488615845
 21
2213.422501997236
 31
0.0
  0
LINE
  5
1E3C0
330
747D
100
AcDbEntity
  8
部品1
 48
50.0
100
AcDbLine
 10
8131.481488615845
 20
2229.422501997236
 30
0.0
 11
8147.481488615845
 21
2221.422501997236
 31
0.0
  0
TEXT
  5
1E3C1
330
747D
100
AcDbEntity
  8
部品1
100
AcDbText
 10
7816.253737807776
 20
2971.96690871351
 30
0.0
 40
120.0
  1
基礎詳細
  7
STYLE2
100
AcDbText
  0
LINE
  5
1E3C2
330
747D
100
AcDbEntity
  8
部品1
100
AcDbLine
 10
11194.35892201563
 20
187.2118710802906
 30
0.0
 11
11194.35892201564
 21
3151.518840664938
 31
0.0
  0
LINE
  5
1E3C3
330
747D
100
AcDbEntity
  8
細線
100
AcDbLine
 10
10202.25075459538
 20
1590.547220888093
 30
0.0
 11
10007.6174209186
 21
1785.180554564876
 31
0.0
  0
LINE
  5
1E3C4
330
747D
100
AcDbEntity
  8
部品1
100
AcDbLine
 10
10007.6174209186
 20
1830.547220888093
 30
0.0
 11
10487.6174209186
 21
1830.547220888093
 31
0.0
  0
LINE
  5
1E3C5
330
747D
100
AcDbEntity
  8
細線
 48
50.0
100
AcDbLine
 10
10141.68830536186
 20
1370.848305234743
 30
0.0
 11
10175.98580199305
 21
1498.848305234742
 31
0.0
  0
LINE
  5
1E3C6
330
747D
100
AcDbEntity
  8
部品1
100
AcDbLine
 10
9887.617420918603
 20
1370.848305234739
 30
0.0
 11
10607.6174209186
 21
1370.848305234743
 31
0.0
  0
LINE
  5
1E3C7
330
747D
100
AcDbEntity
  8
部品1
100
AcDbLine
 10
9887.617420918603
 20
1498.848305234743
 30
0.0
 11
10607.6174209186
 21
1498.848305234745
 31
0.0
  0
LINE
  5
1E3C8
330
747D
100
AcDbEntity
  8
細線
100
AcDbLine
 10
10068.53606641184
 20
1498.848305234743
 30
0.0
 11
10160.23498206519
 21
1590.547220888093
 31
0.0
  0
LWPOLYLINE
  5
1E3C9
330
747D
100
AcDbEntity
  8
部品1
 48
50.0
100
AcDbPolyline
 90
        2
 70
     0
 43
12.0
 10
9623.006158818213
 20
1590.547220888093
 10
10824.09846194984
 20
1590.547220888093
  0
LINE
  5
1E3CA
330
747D
100
AcDbEntity
  8
細線
100
AcDbLine
 10
10151.33906634995
 20
1590.547220888093
 30
0.0
 11
10007.6174209186
 21
1734.268866319446
 31
0.0
  0
TEXT
  5
1E3CB
330
747D
100
AcDbEntity
  8
部品1
 48
50.0
100
AcDbText
 10
9243.4993341601
 20
1323.747480250784
 30
0.0
 40
80.0
  1
ボルトの出
 50
90.0
  7
STYLE2
100
AcDbText
  0
LINE
  5
1E3CC
330
747D
100
AcDbEntity
  8
部品1
100
AcDbLine
 10
10007.6174209186
 20
1590.547220888093
 30
0.0
 11
10007.6174209186
 21
1830.547220888093
 31
0.0
  0
LINE
  5
1E3CD
330
747D
100
AcDbEntity
  8
細線
 48
50.0
100
AcDbLine
 10
9983.912215467363
 20
1370.848305234742
 30
0.0
 11
10018.20971209854
 21
1498.848305234742
 31
0.0
  0
LINE
  5
1E3CE
330
747D
100
AcDbEntity
  8
細線
 48
50.0
100
AcDbLine
 10
10062.80026041461
 20
1370.848305234743
 30
0.0
 11
10097.0977570458
 21
1498.848305234743
 31
0.0
  0
LINE
  5
1E3CF
330
747D
100
AcDbEntity
  8
細線
 48
50.0
100
AcDbLine
 10
9905.024170520116
 20
1370.848305234743
 30
0.0
 11
9939.3216671513
 21
1498.848305234743
 31
0.0
  0
LINE
  5
1E3D0
330
747D
100
AcDbEntity
  8
部品1
100
AcDbLine
 10
9887.617420918603
 20
1370.848305234739
 30
0.0
 11
9887.617420918603
 21
1590.547220888093
 31
0.0
  0
LINE
  5
1E3D1
330
747D
100
AcDbEntity
  8
細線
 48
50.0
100
AcDbLine
 10
9990.342996085715
 20
1394.848305234743
 30
0.0
 11
9996.773776704062
 21
1370.848305234743
 31
0.0
  0
LINE
  5
1E3D2
330
747D
100
AcDbEntity
  8
細線
 48
50.0
100
AcDbLine
 10
9911.454951138464
 20
1394.848305234743
 30
0.0
 11
9917.885731756811
 21
1370.848305234743
 31
0.0
  0
LINE
  5
1E3D3
330
747D
100
AcDbEntity
  8
細線
 48
50.0
100
AcDbLine
 10
10069.23104103296
 20
1394.848305234743
 30
0.0
 11
10075.66182165131
 21
1370.848305234743
 31
0.0
  0
LINE
  5
1E3D4
330
747D
100
AcDbEntity
  8
細線
 48
50.0
100
AcDbLine
 10
10148.11908598021
 20
1394.848305234743
 30
0.0
 11
10154.54986659856
 21
1370.848305234743
 31
0.0
  0
LINE
  5
1E3D5
330
747D
100
AcDbEntity
  8
細線
 48
50.0
100
AcDbLine
 10
9932.890886532952
 20
1474.848305234743
 30
0.0
 11
9926.460105914605
 21
1498.848305234743
 31
0.0
  0
LINE
  5
1E3D6
330
747D
100
AcDbEntity
  8
細線
 48
50.0
100
AcDbLine
 10
10090.66697642745
 20
1474.848305234743
 30
0.0
 11
10084.23619580911
 21
1498.848305234743
 31
0.0
  0
LINE
  5
1E3D7
330
747D
100
AcDbEntity
  8
細線
 48
50.0
100
AcDbLine
 10
10011.7789314802
 20
1474.848305234743
 30
0.0
 11
10005.34815086185
 21
1498.848305234743
 31
0.0
  0
LINE
  5
1E3D8
330
747D
100
AcDbEntity
  8
細線
100
AcDbLine
 10
10000.65381541793
 20
1498.848305234743
 30
0.0
 11
10092.35273107128
 21
1590.547220888093
 31
0.0
  0
LINE
  5
1E3D9
330
747D
100
AcDbEntity
  8
細線
100
AcDbLine
 10
10034.59494091489
 20
1498.848305234743
 30
0.0
 11
10126.29385656823
 21
1590.547220888093
 31
0.0
  0
LINE
  5
1E3DA
330
747D
100
AcDbEntity
  8
細線
100
AcDbLine
 10
10422.86807032559
 20
1590.547220888093
 30
0.0
 11
10182.86807032559
 21
1830.547220888093
 31
0.0
  0
LINE
  5
1E3DB
330
747D
100
AcDbEntity
  8
細線
100
AcDbLine
 10
10473.77975857102
 20
1590.547220888095
 30
0.0
 11
10233.77975857102
 21
1830.547220888093
 31
0.0
  0
LINE
  5
1E3DC
330
747D
100
AcDbEntity
  8
部品1
100
AcDbLine
 10
10487.6174209186
 20
1830.547220888093
 30
0.0
 11
10487.6174209186
 21
1590.547220888093
 31
0.0
  0
LINE
  5
1E3DD
330
747D
100
AcDbEntity
  8
細線
 48
50.0
100
AcDbLine
 10
10457.24048515085
 20
1370.84830523474
 30
0.0
 11
10491.53798178203
 21
1498.84830523474
 31
0.0
  0
LINE
  5
1E3DE
330
747D
100
AcDbEntity
  8
細線
100
AcDbLine
 10
10428.53606641184
 20
1498.848305234744
 30
0.0
 11
10520.23498206519
 21
1590.547220888093
 31
0.0
  0
LINE
  5
1E3DF
330
747D
100
AcDbEntity
  8
細線
 48
50.0
100
AcDbLine
 10
10378.3524402036
 20
1370.848305234742
 30
0.0
 11
10412.64993683477
 21
1498.848305234743
 31
0.0
  0
LINE
  5
1E3E0
330
747D
100
AcDbEntity
  8
細線
 48
50.0
100
AcDbLine
 10
10220.57635030911
 20
1370.848305234742
 30
0.0
 11
10254.87384694029
 21
1498.848305234742
 31
0.0
  0
LINE
  5
1E3E1
330
747D
100
AcDbEntity
  8
細線
 48
50.0
100
AcDbLine
 10
10299.46439525635
 20
1370.848305234743
 30
0.0
 11
10333.76189188754
 21
1498.848305234742
 31
0.0
  0
LINE
  5
1E3E2
330
747D
100
AcDbEntity
  8
細線
 48
50.0
100
AcDbLine
 10
10305.8951758747
 20
1394.848305234743
 30
0.0
 11
10312.32595649305
 21
1370.848305234743
 31
0.0
  0
LINE
  5
1E3E3
330
747D
100
AcDbEntity
  8
細線
 48
50.0
100
AcDbLine
 10
10227.00713092746
 20
1394.848305234743
 30
0.0
 11
10233.4379115458
 21
1370.848305234743
 31
0.0
  0
LINE
  5
1E3E4
330
747D
100
AcDbEntity
  8
細線
 48
50.0
100
AcDbLine
 10
10384.78322082195
 20
1394.848305234743
 30
0.0
 11
10391.21400144031
 21
1370.848305234743
 31
0.0
  0
LINE
  5
1E3E5
330
747D
100
AcDbEntity
  8
細線
 48
50.0
100
AcDbLine
 10
10463.6712657692
 20
1394.848305234742
 30
0.0
 11
10470.10204638754
 21
1370.848305234742
 31
0.0
  0
LINE
  5
1E3E6
330
747D
100
AcDbEntity
  8
細線
 48
50.0
100
AcDbLine
 10
10327.33111126919
 20
1474.848305234743
 30
0.0
 11
10320.90033065085
 21
1498.848305234743
 31
0.0
  0
LINE
  5
1E3E7
330
747D
100
AcDbEntity
  8
細線
 48
50.0
100
AcDbLine
 10
10248.44306632195
 20
1474.848305234743
 30
0.0
 11
10242.0122857036
 21
1498.848305234743
 31
0.0
  0
LINE
  5
1E3E8
330
747D
100
AcDbEntity
  8
細線
 48
50.0
100
AcDbLine
 10
10169.5550213747
 20
1474.848305234743
 30
0.0
 11
10163.12424075635
 21
1498.848305234743
 31
0.0
  0
LINE
  5
1E3E9
330
747D
100
AcDbEntity
  8
細線
100
AcDbLine
 10
10394.59494091489
 20
1498.848305234744
 30
0.0
 11
10486.29385656823
 21
1590.547220888093
 31
0.0
  0
LINE
  5
1E3EA
330
747D
100
AcDbEntity
  8
細線
 48
50.0
100
AcDbLine
 10
10406.21915621643
 20
1474.848305234743
 30
0.0
 11
10399.78837559808
 21
1498.848305234743
 31
0.0
  0
LINE
  5
1E3EB
330
747D
100
AcDbEntity
  8
細線
100
AcDbLine
 10
10360.65381541793
 20
1498.848305234744
 30
0.0
 11
10452.35273107128
 21
1590.547220888093
 31
0.0
  0
LINE
  5
1E3EC
330
747D
100
AcDbEntity
  8
細線
 48
50.0
100
AcDbLine
 10
10485.10720116369
 20
1474.848305234742
 30
0.0
 11
10478.67642054534
 21
1498.848305234742
 31
0.0
  0
LINE
  5
1E3ED
330
747D
100
AcDbEntity
  8
細線
 48
50.0
100
AcDbLine
 10
10536.12853009809
 20
1370.848305234742
 30
0.0
 11
10570.42602672928
 21
1498.84830523474
 31
0.0
  0
LINE
  5
1E3EE
330
747D
100
AcDbEntity
  8
部品1
100
AcDbLine
 10
10607.6174209186
 20
1590.547220888093
 30
0.0
 11
10607.6174209186
 21
1370.848305234743
 31
0.0
  0
LINE
  5
1E3EF
330
747D
100
AcDbEntity
  8
細線
 48
50.0
100
AcDbLine
 10
10542.55931071644
 20
1394.848305234742
 30
0.0
 11
10548.99009133479
 21
1370.848305234742
 31
0.0
  0
LINE
  5
1E3F0
330
747D
100
AcDbEntity
  8
細線
 48
50.0
100
AcDbLine
 10
10563.99524611093
 20
1474.848305234742
 30
0.0
 11
10557.56446549259
 21
1498.848305234742
 31
0.0
  0
LEADER
  5
1E3F1
330
747D
100
AcDbEntity
  8
寸法
 48
50.0
100
AcDbLeader
  3
INABA_S40G
 73
     0
 74
     0
 75
     1
 40
120.0
 41
185.591883092037
 76
     3
 10
10418.34183253453
 20
1830.547220888093
 30
0.0
 10
10461.48003916817
 20
1987.69354156923
 30
0.0
 10
10561.48003916817
 20
1987.69354156923
 30
0.0
340
1E3F2
1001
ACAD
1000
DSTYLE
1002
{
1070
   341
1005
0
1002
}
  0
MTEXT
  5
1E3F2
102
{ACAD_REACTORS
330
1E3F1
102
}
330
747D
100
AcDbEntity
  8
寸法
 62
     7
 48
50.0
100
AcDbMText
 10
10601.48003916817
 20
2087.693541569231
 30
0.0
 40
120.0
 41
0.8
 71
     4
 72
     1
  1
\A1;C.B
  7
STYLE1
 73
     1
 44
1.0
1001
ACAD
1000
MTEXTBEGIN
1070
    73
1070
     1
1070
    44
1040
1.0
1070
    74
1070
     0
1000
MTEXTEND
  0
LINE
  5
1E4C1
330
747D
100
AcDbEntity
  8
細線
 48
50.0
100
AcDbLine
 10
9843.600000000002
 20
6896.862588366947
 30
0.0
 11
9869.00972997032
 21
6922.272318337265
 31
0.0
  0
LINE
  5
1E4C2
330
747D
100
AcDbEntity
  8
細線
 48
50.0
100
AcDbLine
 10
9843.600000000002
 20
6851.961307761602
 30
0.0
 11
9913.911010575667
 21
6922.272318337265
 31
0.0
  0
LINE
  5
1E4C3
330
747D
100
AcDbEntity
  8
細線
 48
50.0
100
AcDbLine
 10
9843.6
 20
6807.060027156254
 30
0.0
 11
9958.812291181011
 21
6922.272318337265
 31
0.0
  0
LINE
  5
1E4C4
330
747D
100
AcDbEntity
  8
細線
 48
50.0
100
AcDbLine
 10
9843.600000000002
 20
6762.158746550911
 30
0.0
 11
9963.600000000001
 21
6882.15874655091
 31
0.0
  0
LINE
  5
1E4C5
330
747D
100
AcDbEntity
  8
細線
 48
50.0
100
AcDbLine
 10
9848.614852391698
 20
6722.272318337262
 30
0.0
 11
9963.600000000003
 21
6837.257465945564
 31
0.0
  0
LINE
  5
1E4C6
330
747D
100
AcDbEntity
  8
細線
 48
50.0
100
AcDbLine
 10
9893.516132997046
 20
6722.272318337264
 30
0.0
 11
9963.600000000003
 21
6792.356185340217
 31
0.0
  0
LINE
  5
1E4C7
330
747D
100
AcDbEntity
  8
細線
 48
50.0
100
AcDbLine
 10
9938.417413602394
 20
6722.272318337265
 30
0.0
 11
9963.600000000001
 21
6747.454904734872
 31
0.0
  0
LINE
  5
1E4DC
330
747D
100
AcDbEntity
  8
細線
 48
50.0
100
AcDbLine
 10
6578.417413602394
 20
6722.272318337265
 30
0.0
 11
6603.6
 21
6747.454904734872
 31
0.0
  0
LINE
  5
1E4DD
330
747D
100
AcDbEntity
  8
細線
 48
50.0
100
AcDbLine
 10
6533.516132997045
 20
6722.272318337264
 30
0.0
 11
6603.600000000003
 21
6792.356185340217
 31
0.0
  0
LINE
  5
1E4DE
330
747D
100
AcDbEntity
  8
細線
 48
50.0
100
AcDbLine
 10
6488.614852391698
 20
6722.272318337262
 30
0.0
 11
6603.600000000003
 21
6837.257465945564
 31
0.0
  0
LINE
  5
1E4DF
330
747D
100
AcDbEntity
  8
細線
 48
50.0
100
AcDbLine
 10
6483.6
 20
6762.158746550911
 30
0.0
 11
6603.6
 21
6882.15874655091
 31
0.0
  0
LINE
  5
1E4E0
330
747D
100
AcDbEntity
  8
細線
 48
50.0
100
AcDbLine
 10
6483.599999999999
 20
6807.060027156254
 30
0.0
 11
6598.812291181011
 21
6922.272318337265
 31
0.0
  0
LINE
  5
1E4E1
330
747D
100
AcDbEntity
  8
細線
 48
50.0
100
AcDbLine
 10
6483.600000000002
 20
6851.961307761602
 30
0.0
 11
6553.911010575666
 21
6922.272318337265
 31
0.0
  0
LINE
  5
1E4E2
330
747D
100
AcDbEntity
  8
細線
 48
50.0
100
AcDbLine
 10
6483.6
 20
6896.862588366947
 30
0.0
 11
6509.009729970319
 21
6922.272318337265
 31
0.0
  0
LINE
  5
1E4E3
330
747D
100
AcDbEntity
  8
部品1
 48
50.0
100
AcDbLine
 10
6603.6
 20
6722.272318337264
 30
0.0
 11
6483.6
 21
6722.272318337265
 31
0.0
  0
LINE
  5
1E4E4
330
747D
100
AcDbEntity
  8
部品1
 48
50.0
100
AcDbLine
 10
6603.6
 20
6922.272318337265
 30
0.0
 11
6483.6
 21
6922.272318337265
 31
0.0
  0
LINE
  5
1E4F9
330
747D
100
AcDbEntity
  8
細線
 48
50.0
100
AcDbLine
 10
8123.600000000001
 20
7698.999725921983
 30
0.0
 11
8146.872592415283
 21
7722.272318337267
 31
0.0
  0
LINE
  5
1E4FA
330
747D
100
AcDbEntity
  8
細線
 48
50.0
100
AcDbLine
 10
8123.600000000001
 20
7654.098445316638
 30
0.0
 11
8191.773873020629
 21
7722.272318337265
 31
0.0
  0
LINE
  5
1E4FB
330
747D
100
AcDbEntity
  8
細線
 48
50.0
100
AcDbLine
 10
8123.600000000001
 20
7609.197164711291
 30
0.0
 11
8236.675153625977
 21
7722.272318337267
 31
0.0
  0
LINE
  5
1E4FC
330
747D
100
AcDbEntity
  8
細線
 48
50.0
100
AcDbLine
 10
8161.576434231319
 20
7602.272318337266
 30
0.0
 11
8281.57643423132
 21
7722.272318337265
 31
0.0
  0
LINE
  5
1E4FD
330
747D
100
AcDbEntity
  8
細線
 48
50.0
100
AcDbLine
 10
8206.477714836664
 20
7602.272318337265
 30
0.0
 11
8323.6
 21
7719.3946035006
 31
0.0
  0
LINE
  5
1E4FE
330
747D
100
AcDbEntity
  8
細線
 48
50.0
100
AcDbLine
 10
8251.378995442012
 20
7602.272318337265
 30
0.0
 11
8323.600000000002
 21
7674.493322895255
 31
0.0
  0
LINE
  5
1E4FF
330
747D
100
AcDbEntity
  8
細線
 48
50.0
100
AcDbLine
 10
8296.280276047356
 20
7602.272318337266
 30
0.0
 11
8323.6
 21
7629.592042289909
 31
0.0
  0
ENDSEC
  0
SECTION
  2
OBJECTS
  0
DICTIONARY
  5
7471
330
0
100
AcDbDictionary
281
     1
  3
ACAD_COLOR
350
173D2
  3
ACAD_GROUP
350
7472
  3
ACAD_LAYOUT
350
173D3
  3
ACAD_MATERIAL
350
173D1
  3
ACAD_MLINESTYLE
350
7473
  3
ACAD_PLOTSETTINGS
350
173D4
  3
ACAD_PLOTSTYLENAME
350
173CF
  3
ACDBHEADERROUNDTRIPXREC
350
1E6BB
  3
AcDbVariableDictionary
350
1E6B7
  3
CONTENTDICTIONARY
350
E71C
  3
DRAWINGVARIABLESDICT
350
F3B9
  0
DICTIONARY
  5
1758F
330
7467
100
AcDbDictionary
280
     1
281
     1
  3
ACAD_LAYERSTATES
360
17590
  0
DICTIONARY
  5
173D2
102
{ACAD_REACTORS
330
7471
102
}
330
7471
100
AcDbDictionary
281
     1
  0
DICTIONARY
  5
7472
102
{ACAD_REACTORS
330
7471
102
}
330
7471
100
AcDbDictionary
281
     1
  3
*A1
350
1D2A9
  3
*A2
350
1DC10
  0
DICTIONARY
  5
173D3
102
{ACAD_REACTORS
330
7471
102
}
330
7471
100
AcDbDictionary
281
     1
  3
Model
350
173D5
  3
レイアウト1
350
173D6
  0
DICTIONARY
  5
173D1
102
{ACAD_REACTORS
330
7471
102
}
330
7471
100
AcDbDictionary
281
     1
  0
DICTIONARY
  5
7473
102
{ACAD_REACTORS
330
7471
102
}
330
7471
100
AcDbDictionary
281
     1
  3
STANDARD
350
7480
  0
DICTIONARY
  5
173D4
102
{ACAD_REACTORS
330
7471
102
}
330
7471
100
AcDbDictionary
281
     1
  0
ACDBDICTIONARYWDFLT
  5
173CF
102
{ACAD_REACTORS
330
7471
102
}
330
7471
100
AcDbDictionary
281
     1
  3
Normal
350
173D0
100
AcDbDictionaryWithDefault
340
173D0
  0
DICTIONARY
  5
1E6BB
102
{ACAD_REACTORS
330
7471
102
}
330
7471
100
AcDbDictionary
281
     1
  3
COLORDICT
350
1E6BD
  3
MATERIALDICT
350
1E6BC
  0
DICTIONARY
  5
1E6B7
102
{ACAD_REACTORS
330
7471
102
}
330
7471
100
AcDbDictionary
281
     1
  3
DIMASSOC
350
1E6B8
  3
PROJECTNAME
350
1E6B9
  0
DICTIONARY
  5
E71C
102
{ACAD_REACTORS
330
7471
102
}
330
7471
100
AcDbDictionary
281
     1
  0
DICTIONARY
  5
F3B9
102
{ACAD_REACTORS
330
7471
102
}
330
7471
100
AcDbDictionary
281
     1
1001
DRAWINGVARIABLESXDATA
1000
POLARMODE
1000
1
  0
DICTIONARY
  5
17590
102
{ACAD_REACTORS
330
1758F
102
}
330
1758F
100
AcDbDictionary
281
     1
  0
GROUP
  5
1D2A9
102
{ACAD_REACTORS
330
7472
102
}
330
7472
100
AcDbGroup
300

 70
     1
 71
     1
  0
GROUP
  5
1DC10
102
{ACAD_REACTORS
330
7472
102
}
330
7472
100
AcDbGroup
300

 70
     1
 71
     1
340
1DBED
340
1DBEC
340
1DBEA
340
1DBEB
  0
LAYOUT
  5
173D5
102
{ACAD_XDICTIONARY
360
1E6BE
102
}
102
{ACAD_REACTORS
330
173D3
102
}
330
173D3
100
AcDbPlotSettings
  1

  2
クセロPDF
  4
A3
  6

 40
3.174999999999999
 41
3.174999999999999
 42
3.174987999999999
 43
3.174987999999999
 44
419.946655
 45
296.925995
 46
0.0
 47
0.0
 48
0.0
 49
0.0
140
0.0
141
0.0
142
1.0
143
40.88431155294937
 70
 11952
 72
     1
 73
     0
 74
     2
  7
inaba.ctb
 75
     0
147
0.0244592598484849
148
0.0
149
0.0
100
AcDbLayout
  1
Model
 70
     1
 71
     0
 10
0.0
 20
0.0
 11
12.0
 21
9.0
 12
0.0
 22
0.0
 32
0.0
 14
0.0
 24
0.0
 34
0.0
 15
0.0
 25
0.0
 35
0.0
146
0.0
 13
0.0
 23
0.0
 33
0.0
 16
1.0
 26
0.0
 36
0.0
 17
0.0
 27
1.0
 37
0.0
 76
     0
330
747D
  0
LAYOUT
  5
173D6
102
{ACAD_XDICTIONARY
360
1E6C0
102
}
102
{ACAD_REACTORS
330
173D3
102
}
330
173D3
100
AcDbPlotSettings
  1

  2
Microsoft Office Document Image Writer
  4

  6

 40
0.0
 41
0.0
 42
0.0
 43
0.0
 44
0.0
 45
0.0
 46
0.0
 47
0.0
 48
0.0
 49
0.0
140
0.0
141
0.0
142
1.0
143
1.0
 70
   688
 72
     0
 73
     0
 74
     5
  7
inaba.ctb
 75
    16
147
1.0
148
0.0
149
0.0
100
AcDbLayout
  1
レイアウト1
 70
     0
 71
     1
 10
0.0
 20
0.0
 11
420.0
 21
297.0
 12
0.0
 22
0.0
 32
0.0
 14
1.000000000000000E+20
 24
1.000000000000000E+20
 34
1.000000000000000E+20
 15
-1.000000000000000E+20
 25
-1.000000000000000E+20
 35
-1.000000000000000E+20
146
0.0
 13
0.0
 23
0.0
 33
0.0
 16
1.0
 26
0.0
 36
0.0
 17
0.0
 27
1.0
 37
0.0
 76
     0
330
747A
  0
MLINESTYLE
  5
7480
102
{ACAD_REACTORS
330
7473
102
}
330
7473
100
AcDbMlineStyle
  2
STANDARD
 70
     0
  3

 62
     0
 51
90.0
 52
90.0
 71
     2
 49
0.5
 62
   256
  6
BYLAYER
 49
-0.5
 62
   256
  6
BYLAYER
  0
ACDBPLACEHOLDER
  5
173D0
102
{ACAD_REACTORS
330
173CF
102
}
330
173CF
  0
XRECORD
  5
1E6BD
102
{ACAD_REACTORS
330
1E6BB
102
}
330
1E6BB
100
AcDbXrecord
280
     1
340
173D2
  0
XRECORD
  5
1E6BC
102
{ACAD_REACTORS
330
1E6BB
102
}
330
1E6BB
100
AcDbXrecord
280
     1
340
173D1
  0
DICTIONARYVAR
  5
1E6B8
102
{ACAD_REACTORS
330
1E6B7
102
}
330
1E6B7
100
DictionaryVariables
280
     0
  1
1
  0
DICTIONARYVAR
  5
1E6B9
102
{ACAD_REACTORS
330
1E6B7
102
}
330
1E6B7
100
DictionaryVariables
280
     0
  1

  0
DICTIONARY
  5
1E6BE
330
173D5
100
AcDbDictionary
280
     1
281
     1
  3
ACAD_XREC_ROUNDTRIP
360
1E6BF
  0
DICTIONARY
  5
1E6C0
330
173D6
100
AcDbDictionary
280
     1
281
     1
  3
ACAD_XREC_ROUNDTRIP
360
1E6C1
  0
XRECORD
  5
1E6BF
102
{ACAD_REACTORS
330
1E6BE
102
}
330
1E6BE
100
AcDbXrecord
280
     1
102
SHADEPLOT
 70
     1
102
SHADEPLOTRESLEVEL
 70
     2
102
SHADEPLOTCUSTOMDPI
 70
   300
  0
XRECORD
  5
1E6C1
102
{ACAD_REACTORS
330
1E6C0
102
}
330
1E6C0
100
AcDbXrecord
280
     1
102
SHADEPLOT
 70
     0
102
SHADEPLOTRESLEVEL
 70
     2
102
SHADEPLOTCUSTOMDPI
 70
   300
  0
ENDSEC
  0
EOF
