  0
SECTION
  2
HEADER
  9
$ACADVER
  1
AC1015
  9
$ACADMAINTVER
 70
    20
  9
$DWGCODEPAGE
  3
ANSI_932
  9
$INSBASE
 10
0.0
 20
0.0
 30
0.0
  9
$EXTMIN
 10
139.9999999999995
 20
-0.0000000000000909
 30
0.0
  9
$EXTMAX
 10
16307.2
 20
11409.6
 30
0.0
  9
$LIMMIN
 10
0.0
 20
0.0
  9
$LIMMAX
 10
16800.0
 20
11880.0
  9
$ORTHOMODE
 70
     0
  9
$REGENMODE
 70
     1
  9
$FILLMODE
 70
     1
  9
$QTEXTMODE
 70
     0
  9
$MIRRTEXT
 70
     1
  9
$LTSCALE
 40
20.0
  9
$ATTMODE
 70
     1
  9
$TEXTSIZE
 40
100.0
  9
$TRACEWID
 40
1.0
  9
$TEXTSTYLE
  7
STYLE2
  9
$CLAYER
  8
部品1
  9
$CELTYPE
  6
BYLAYER
  9
$CECOLOR
 62
   256
  9
$CELTSCALE
 40
50.0
  9
$DISPSILH
 70
     0
  9
$DIMSCALE
 40
40.0
  9
$DIMASZ
 40
2.5
  9
$DIMEXO
 40
0.5
  9
$DIMDLI
 40
7.0
  9
$DIMRND
 40
0.0
  9
$DIMDLE
 40
0.0
  9
$DIMEXE
 40
1.5
  9
$DIMTP
 40
0.0
  9
$DIMTM
 40
0.0
  9
$DIMTXT
 40
3.0
  9
$DIMCEN
 40
0.0
  9
$DIMTSZ
 40
0.0
  9
$DIMTOL
 70
     0
  9
$DIMLIM
 70
     0
  9
$DIMTIH
 70
     0
  9
$DIMTOH
 70
     0
  9
$DIMSE1
 70
     0
  9
$DIMSE2
 70
     0
  9
$DIMTAD
 70
     3
  9
$DIMZIN
 70
     8
  9
$DIMBLK
  1

  9
$DIMASO
 70
     1
  9
$DIMSHO
 70
     1
  9
$DIMPOST
  1

  9
$DIMAPOST
  1

  9
$DIMALT
 70
     0
  9
$DIMALTD
 70
     2
  9
$DIMALTF
 40
0.0394
  9
$DIMLFAC
 40
1.0
  9
$DIMTOFL
 70
     1
  9
$DIMTVP
 40
0.0
  9
$DIMTIX
 70
     0
  9
$DIMSOXD
 70
     0
  9
$DIMSAH
 70
     1
  9
$DIMBLK1
  1
DOTSMALL
  9
$DIMBLK2
  1
DOTSMALL
  9
$DIMSTYLE
  2
INABA_S40G
  9
$DIMCLRD
 70
     0
  9
$DIMCLRE
 70
     0
  9
$DIMCLRT
 70
     7
  9
$DIMTFAC
 40
1.0
  9
$DIMGAP
 40
1.0
  9
$DIMJUST
 70
     0
  9
$DIMSD1
 70
     0
  9
$DIMSD2
 70
     0
  9
$DIMTOLJ
 70
     1
  9
$DIMTZIN
 70
     0
  9
$DIMALTZ
 70
     0
  9
$DIMALTTZ
 70
     0
  9
$DIMUPT
 70
     0
  9
$DIMDEC
 70
     1
  9
$DIMTDEC
 70
     1
  9
$DIMALTU
 70
     2
  9
$DIMALTTD
 70
     2
  9
$DIMTXSTY
  7
STYLE1
  9
$DIMAUNIT
 70
     0
  9
$DIMADEC
 70
     0
  9
$DIMALTRND
 40
0.0
  9
$DIMAZIN
 70
     0
  9
$DIMDSEP
 70
    46
  9
$DIMATFIT
 70
     3
  9
$DIMFRAC
 70
     0
  9
$DIMLDRBLK
  1

  9
$DIMLUNIT
 70
     2
  9
$DIMLWD
 70
    -2
  9
$DIMLWE
 70
    -2
  9
$DIMTMOVE
 70
     1
  9
$LUNITS
 70
     2
  9
$LUPREC
 70
     1
  9
$SKETCHINC
 40
1.0
  9
$FILLETRAD
 40
2.299999999999999
  9
$AUNITS
 70
     0
  9
$AUPREC
 70
     0
  9
$MENU
  1
acad
  9
$ELEVATION
 40
0.0
  9
$PELEVATION
 40
0.0
  9
$THICKNESS
 40
0.0
  9
$LIMCHECK
 70
     0
  9
$CHAMFERA
 40
3.0
  9
$CHAMFERB
 40
3.0
  9
$CHAMFERC
 40
0.0
  9
$CHAMFERD
 40
0.0
  9
$SKPOLY
 70
     0
  9
$TDCREATE
 40
2451368.612993866
  9
$TDUCREATE
 40
2451368.237993866
  9
$TDUPDATE
 40
2455826.654097037
  9
$TDUUPDATE
 40
2455826.279097037
  9
$TDINDWG
 40
1.7355888310
  9
$TDUSRTIMER
 40
1.7355888310
  9
$USRTIMER
 70
     1
  9
$ANGBASE
 50
0.0
  9
$ANGDIR
 70
     0
  9
$PDMODE
 70
     3
  9
$PDSIZE
 40
2.0
  9
$PLINEWID
 40
0.0
  9
$SPLFRAME
 70
     0
  9
$SPLINETYPE
 70
     6
  9
$SPLINESEGS
 70
     8
  9
$HANDSEED
  5
21695
  9
$SURFTAB1
 70
     6
  9
$SURFTAB2
 70
     6
  9
$SURFTYPE
 70
     6
  9
$SURFU
 70
     6
  9
$SURFV
 70
     6
  9
$UCSBASE
  2

  9
$UCSNAME
  2

  9
$UCSORG
 10
0.0
 20
0.0
 30
0.0
  9
$UCSXDIR
 10
1.0
 20
0.0
 30
0.0
  9
$UCSYDIR
 10
0.0
 20
1.0
 30
0.0
  9
$UCSORTHOREF
  2

  9
$UCSORTHOVIEW
 70
     0
  9
$UCSORGTOP
 10
0.0
 20
0.0
 30
0.0
  9
$UCSORGBOTTOM
 10
0.0
 20
0.0
 30
0.0
  9
$UCSORGLEFT
 10
0.0
 20
0.0
 30
0.0
  9
$UCSORGRIGHT
 10
0.0
 20
0.0
 30
0.0
  9
$UCSORGFRONT
 10
0.0
 20
0.0
 30
0.0
  9
$UCSORGBACK
 10
0.0
 20
0.0
 30
0.0
  9
$PUCSBASE
  2

  9
$PUCSNAME
  2

  9
$PUCSORG
 10
0.0
 20
0.0
 30
0.0
  9
$PUCSXDIR
 10
1.0
 20
0.0
 30
0.0
  9
$PUCSYDIR
 10
0.0
 20
1.0
 30
0.0
  9
$PUCSORTHOREF
  2

  9
$PUCSORTHOVIEW
 70
     0
  9
$PUCSORGTOP
 10
0.0
 20
0.0
 30
0.0
  9
$PUCSORGBOTTOM
 10
0.0
 20
0.0
 30
0.0
  9
$PUCSORGLEFT
 10
0.0
 20
0.0
 30
0.0
  9
$PUCSORGRIGHT
 10
0.0
 20
0.0
 30
0.0
  9
$PUCSORGFRONT
 10
0.0
 20
0.0
 30
0.0
  9
$PUCSORGBACK
 10
0.0
 20
0.0
 30
0.0
  9
$USERI1
 70
     0
  9
$USERI2
 70
     0
  9
$USERI3
 70
     0
  9
$USERI4
 70
     0
  9
$USERI5
 70
     0
  9
$USERR1
 40
0.0
  9
$USERR2
 40
0.0
  9
$USERR3
 40
0.0
  9
$USERR4
 40
0.0
  9
$USERR5
 40
0.0
  9
$WORLDVIEW
 70
     1
  9
$SHADEDGE
 70
     3
  9
$SHADEDIF
 70
    70
  9
$TILEMODE
 70
     1
  9
$MAXACTVP
 70
    16
  9
$PINSBASE
 10
0.0
 20
0.0
 30
0.0
  9
$PLIMCHECK
 70
     0
  9
$PEXTMIN
 10
1.000000000000000E+20
 20
1.000000000000000E+20
 30
1.000000000000000E+20
  9
$PEXTMAX
 10
-1.000000000000000E+20
 20
-1.000000000000000E+20
 30
-1.000000000000000E+20
  9
$PLIMMIN
 10
0.0
 20
0.0
  9
$PLIMMAX
 10
420.0
 20
297.0
  9
$UNITMODE
 70
     0
  9
$VISRETAIN
 70
     0
  9
$PLINEGEN
 70
     0
  9
$PSLTSCALE
 70
     0
  9
$TREEDEPTH
 70
  3020
  9
$CMLSTYLE
  2
STANDARD
  9
$CMLJUST
 70
     0
  9
$CMLSCALE
 40
1.0
  9
$PROXYGRAPHICS
 70
     1
  9
$MEASUREMENT
 70
     1
  9
$CELWEIGHT
370
    -1
  9
$ENDCAPS
280
     0
  9
$JOINSTYLE
280
     0
  9
$LWDISPLAY
290
     0
  9
$INSUNITS
 70
     0
  9
$HYPERLINKBASE
  1

  9
$STYLESHEET
  1
inaba.ctb
  9
$XEDIT
290
     1
  9
$CEPSNTYPE
380
     0
  9
$PSTYLEMODE
290
     1
  9
$FINGERPRINTGUID
  2
{3B57B35E-7D77-4BBF-81B7-6C583B9EB24C}
  9
$VERSIONGUID
  2
{0965E68F-F235-41F4-9646-34B2B36C8585}
  9
$EXTNAMES
290
     1
  9
$PSVPSCALE
 40
0.0
  9
$OLESTARTUP
290
     0
  0
ENDSEC
  0
SECTION
  2
CLASSES
  0
CLASS
  1
ACDBDICTIONARYWDFLT
  2
AcDbDictionaryWithDefault
  3
ObjectDBX Classes
 90
        0
280
     0
281
     0
  0
CLASS
  1
DICTIONARYVAR
  2
AcDbDictionaryVar
  3
ObjectDBX Classes
 90
        0
280
     0
281
     0
  0
CLASS
  1
ACDBPLACEHOLDER
  2
AcDbPlaceHolder
  3
ObjectDBX Classes
 90
        0
280
     0
281
     0
  0
CLASS
  1
LAYOUT
  2
AcDbLayout
  3
ObjectDBX Classes
 90
        0
280
     0
281
     0
  0
ENDSEC
  0
SECTION
  2
TABLES
  0
TABLE
  2
VPORT
  5
746D
330
0
100
AcDbSymbolTable
 70
     2
  0
VPORT
  5
2168D
330
746D
100
AcDbSymbolTableRecord
100
AcDbViewportTableRecord
  2
*Active
 70
     0
 10
0.0
 20
0.0
 11
1.0
 21
1.0
 12
8223.761025238502
 22
5704.796475140369
 13
0.0
 23
0.0
 14
10.0
 24
10.0
 15
10.0
 25
10.0
 16
0.0
 26
0.0
 36
1.0
 17
0.0
 27
0.0
 37
0.0
 40
11494.73464854293
 41
1.522222222222222
 42
50.0
 43
0.0
 44
0.0
 50
0.0
 51
0.0
 71
     0
 72
     0
 73
     1
 74
     0
 75
     0
 76
     0
 77
     0
 78
     0
281
     0
 65
     1
110
0.0
120
0.0
130
0.0
111
1.0
121
0.0
131
0.0
112
0.0
122
1.0
132
0.0
 79
     0
146
0.0
  0
ENDTAB
  0
TABLE
  2
LTYPE
  5
746A
330
0
100
AcDbSymbolTable
 70
     3
  0
LTYPE
  5
7477
330
746A
100
AcDbSymbolTableRecord
100
AcDbLinetypeTableRecord
  2
BYBLOCK
 70
     0
  3

 72
    65
 73
     0
 40
0.0
  0
LTYPE
  5
7478
330
746A
100
AcDbSymbolTableRecord
100
AcDbLinetypeTableRecord
  2
BYLAYER
 70
     0
  3

 72
    65
 73
     0
 40
0.0
  0
LTYPE
  5
7479
330
746A
100
AcDbSymbolTableRecord
100
AcDbLinetypeTableRecord
  2
CONTINUOUS
 70
     0
  3
Solid line
 72
    65
 73
     0
 40
0.0
  0
LTYPE
  5
7816
330
746A
100
AcDbSymbolTableRecord
100
AcDbLinetypeTableRecord
  2
CENTER
 70
     0
  3
____ _ ____ _ ____ _ ____ _ ____ _ ____ _ ____ 
 72
    65
 73
     4
 40
2.0
 49
1.25
 74
     0
 49
-0.25
 74
     0
 49
0.25
 74
     0
 49
-0.25
 74
     0
  0
LTYPE
  5
781B
330
746A
100
AcDbSymbolTableRecord
100
AcDbLinetypeTableRecord
  2
PHANTOM
 70
     0
  3
______  __  __  ______  __  __  ______  __  __ 
 72
    65
 73
     6
 40
2.5
 49
1.25
 74
     0
 49
-0.25
 74
     0
 49
0.25
 74
     0
 49
-0.25
 74
     0
 49
0.25
 74
     0
 49
-0.25
 74
     0
  0
ENDTAB
  0
TABLE
  2
LAYER
  5
7467
102
{ACAD_XDICTIONARY
360
20E52
102
}
330
0
100
AcDbSymbolTable
 70
    11
  0
LAYER
  5
7474
330
7467
100
AcDbSymbolTableRecord
100
AcDbLayerTableRecord
  2
0
 70
     0
 62
     7
  6
CONTINUOUS
370
    -3
390
159AE
  0
LAYER
  5
DEB2
330
7467
100
AcDbSymbolTableRecord
100
AcDbLayerTableRecord
  2
センター
 70
     0
 62
     3
  6
CENTER
370
    -3
390
159AE
  0
LAYER
  5
DEB3
330
7467
100
AcDbSymbolTableRecord
100
AcDbLayerTableRecord
  2
寸法
 70
     0
 62
     4
  6
CONTINUOUS
370
    -3
390
159AE
  0
LAYER
  5
DEB4
330
7467
100
AcDbSymbolTableRecord
100
AcDbLayerTableRecord
  2
部品1
 70
     0
 62
     7
  6
CONTINUOUS
370
    -3
390
159AE
  0
LAYER
  5
DEB5
330
7467
100
AcDbSymbolTableRecord
100
AcDbLayerTableRecord
  2
補助
 70
     0
 62
    -1
  6
CONTINUOUS
370
    -3
390
159AE
  0
LAYER
  5
DEB6
330
7467
100
AcDbSymbolTableRecord
100
AcDbLayerTableRecord
  2
文字
 70
     0
 62
     7
  6
CONTINUOUS
370
    -3
390
159AE
  0
LAYER
  5
F255
330
7467
100
AcDbSymbolTableRecord
100
AcDbLayerTableRecord
  2
DEFPOINTS
 70
     0
 62
     7
  6
CONTINUOUS
290
     0
370
    -3
390
159AE
  0
LAYER
  5
10B54
330
7467
100
AcDbSymbolTableRecord
100
AcDbLayerTableRecord
  2
仕様書枠
 70
     0
 62
   230
  6
CONTINUOUS
370
    -3
390
159AE
  0
LAYER
  5
11729
330
7467
100
AcDbSymbolTableRecord
100
AcDbLayerTableRecord
  2
Ｇ．Ｌ
 70
     0
 62
    30
  6
CONTINUOUS
370
    -3
390
159AE
  0
LAYER
  5
1173F
330
7467
100
AcDbSymbolTableRecord
100
AcDbLayerTableRecord
  2
細線
 70
     0
 62
     5
  6
CONTINUOUS
370
    -3
390
159AE
  0
LAYER
  5
12CC4
330
7467
100
AcDbSymbolTableRecord
100
AcDbLayerTableRecord
  2
想像線
 70
     0
 62
     6
  6
PHANTOM
370
    -3
390
159AE
  0
ENDTAB
  0
TABLE
  2
STYLE
  5
7468
330
0
100
AcDbSymbolTable
 70
     3
  0
STYLE
  5
7475
330
7468
100
AcDbSymbolTableRecord
100
AcDbTextStyleTableRecord
  2
STANDARD
 70
     0
 40
0.0
 41
1.0
 50
0.0
 71
     0
 42
4.0
  3
txt
  4
C:\AutoCAD LT\bigfont.shx
  0
STYLE
  5
F706
330
7468
100
AcDbSymbolTableRecord
100
AcDbTextStyleTableRecord
  2
STYLE1
 70
     0
 40
0.0
 41
1.0
 50
0.0
 71
     0
 42
100.0
  3
isocp.shx
  4
bigfont.shx
  0
STYLE
  5
103BF
330
7468
100
AcDbSymbolTableRecord
100
AcDbTextStyleTableRecord
  2
STYLE2
 70
     0
 40
0.0
 41
1.0
 50
0.0
 71
     0
 42
100.0
  3
MS PGothic.ttf
  4

1001
ACAD
1000
MS PGothic
1071
    32818
  0
ENDTAB
  0
TABLE
  2
VIEW
  5
746B
330
0
100
AcDbSymbolTable
 70
     0
  0
ENDTAB
  0
TABLE
  2
UCS
  5
746C
330
0
100
AcDbSymbolTable
 70
     0
  0
ENDTAB
  0
TABLE
  2
APPID
  5
746E
330
0
100
AcDbSymbolTable
 70
     6
  0
APPID
  5
7476
330
746E
100
AcDbSymbolTableRecord
100
AcDbRegAppTableRecord
  2
ACAD
 70
     0
  0
APPID
  5
DEA9
330
746E
100
AcDbSymbolTableRecord
100
AcDbRegAppTableRecord
  2
CONTENTBLOCKICON
 70
     0
  0
APPID
  5
DEAA
330
746E
100
AcDbSymbolTableRecord
100
AcDbRegAppTableRecord
  2
CONTENTBLOCKDESCRIPTION
 70
     0
  0
APPID
  5
E71D
330
746E
100
AcDbSymbolTableRecord
100
AcDbRegAppTableRecord
  2
CONTENTTABDATA
 70
     0
  0
APPID
  5
E71E
330
746E
100
AcDbSymbolTableRecord
100
AcDbRegAppTableRecord
  2
CONTENTCURRENTTAB
 70
     0
  0
APPID
  5
F3BA
330
746E
100
AcDbSymbolTableRecord
100
AcDbRegAppTableRecord
  2
DRAWINGVARIABLESXDATA
 70
     0
  0
ENDTAB
  0
TABLE
  2
DIMSTYLE
  5
746F
330
0
100
AcDbSymbolTable
 70
     1
100
AcDbDimStyleTable
 71
     1
340
F71F
  0
DIMSTYLE
105
F71F
102
{ACAD_REACTORS
330
20D50
330
1FEC1
330
1FE4B
330
1F249
330
1F248
330
1F11C
330
1E98B
330
1E96D
330
1E701
330
1D959
330
1D947
330
1D946
330
1D942
330
1D93F
330
1D93E
330
1D934
330
1D933
330
1D92D
330
1D92C
330
1D929
330
1D927
330
1D926
330
1D925
330
1D920
330
1D91D
330
1D91C
330
1D91B
330
212E8
330
215E3
330
215E4
330
215ED
330
2156E
330
21574
330
215CE
102
}
330
746F
100
AcDbSymbolTableRecord
100
AcDbDimStyleTableRecord
  2
INABA_S40G
 70
     0
 40
40.0
 41
2.5
 42
0.5
 43
7.0
 44
1.5
 73
     0
 74
     0
 77
     3
 78
     8
140
3.0
141
0.0
143
0.0394
147
1.0
172
     1
173
     1
174
     1
178
     7
271
     1
288
     1
340
F706
341
F770
343
F770
344
F770
  0
ENDTAB
  0
TABLE
  2
BLOCK_RECORD
  5
7466
330
0
100
AcDbSymbolTable
 70
    43
  0
BLOCK_RECORD
  5
747D
330
7466
100
AcDbSymbolTableRecord
100
AcDbBlockTableRecord
  2
*MODEL_SPACE
340
159B3
  0
BLOCK_RECORD
  5
747A
330
7466
100
AcDbSymbolTableRecord
100
AcDbBlockTableRecord
  2
*PAPER_SPACE
340
159B4
  0
BLOCK_RECORD
  5
F770
330
7466
100
AcDbSymbolTableRecord
100
AcDbBlockTableRecord
  2
_DOTSMALL
340
0
102
{BLKREFS
331
211D3
331
211D4
331
211E2
331
211E3
331
211EB
331
211EC
331
211F4
331
211F5
331
211FD
331
211FE
331
21206
331
21207
331
2120E
331
2120F
331
21217
331
21218
331
21220
331
21221
331
2122A
331
2122B
331
21233
331
21234
331
2123B
331
2123C
331
21246
331
21247
331
21250
331
21251
331
2125A
331
2125B
331
21265
331
21266
331
2126E
331
2126F
331
21279
331
2127A
331
21282
331
21283
331
2128D
331
2128E
331
21297
331
21298
331
212A0
331
212A1
331
212A9
331
212AA
331
212B4
331
212B5
331
212BD
331
212BE
331
212C5
331
212C6
331
212CE
331
212CF
331
212D9
331
212DA
331
212E3
331
212E4
331
21319
331
2131A
331
21355
331
21356
331
21343
331
21344
331
21385
331
21386
331
21379
331
2137A
331
2136D
331
2136E
331
21361
331
21362
331
2164C
331
2164D
331
21655
331
21656
331
2165E
331
2165F
331
2166C
331
2166D
331
21674
331
21675
331
2167E
331
2167F
102
}
  0
BLOCK_RECORD
  5
1DA44
330
7466
100
AcDbSymbolTableRecord
100
AcDbBlockTableRecord
  2
*D1
340
0
  0
BLOCK_RECORD
  5
1DA51
330
7466
100
AcDbSymbolTableRecord
100
AcDbBlockTableRecord
  2
*D2
340
0
  0
BLOCK_RECORD
  5
1DA5E
330
7466
100
AcDbSymbolTableRecord
100
AcDbBlockTableRecord
  2
*D3
340
0
  0
BLOCK_RECORD
  5
1DA69
330
7466
100
AcDbSymbolTableRecord
100
AcDbBlockTableRecord
  2
*D4
340
0
  0
BLOCK_RECORD
  5
1DA74
330
7466
100
AcDbSymbolTableRecord
100
AcDbBlockTableRecord
  2
*D5
340
0
  0
BLOCK_RECORD
  5
1DA81
330
7466
100
AcDbSymbolTableRecord
100
AcDbBlockTableRecord
  2
*D6
340
0
  0
BLOCK_RECORD
  5
1DA8E
330
7466
100
AcDbSymbolTableRecord
100
AcDbBlockTableRecord
  2
*D7
340
0
  0
BLOCK_RECORD
  5
1DA9A
330
7466
100
AcDbSymbolTableRecord
100
AcDbBlockTableRecord
  2
*D8
340
0
  0
BLOCK_RECORD
  5
1DAA5
330
7466
100
AcDbSymbolTableRecord
100
AcDbBlockTableRecord
  2
*D9
340
0
  0
BLOCK_RECORD
  5
1DAB2
330
7466
100
AcDbSymbolTableRecord
100
AcDbBlockTableRecord
  2
*D10
340
0
  0
BLOCK_RECORD
  5
1DABE
330
7466
100
AcDbSymbolTableRecord
100
AcDbBlockTableRecord
  2
*D11
340
0
  0
BLOCK_RECORD
  5
1DACB
330
7466
100
AcDbSymbolTableRecord
100
AcDbBlockTableRecord
  2
*D12
340
0
  0
BLOCK_RECORD
  5
1DAD9
330
7466
100
AcDbSymbolTableRecord
100
AcDbBlockTableRecord
  2
*D13
340
0
  0
BLOCK_RECORD
  5
1DAE6
330
7466
100
AcDbSymbolTableRecord
100
AcDbBlockTableRecord
  2
*D14
340
0
  0
BLOCK_RECORD
  5
1DAF3
330
7466
100
AcDbSymbolTableRecord
100
AcDbBlockTableRecord
  2
*D15
340
0
  0
BLOCK_RECORD
  5
1DB00
330
7466
100
AcDbSymbolTableRecord
100
AcDbBlockTableRecord
  2
*D16
340
0
  0
BLOCK_RECORD
  5
1DB1A
330
7466
100
AcDbSymbolTableRecord
100
AcDbBlockTableRecord
  2
*D17
340
0
  0
BLOCK_RECORD
  5
1E9D0
330
7466
100
AcDbSymbolTableRecord
100
AcDbBlockTableRecord
  2
*D18
340
0
  0
BLOCK_RECORD
  5
1EA32
330
7466
100
AcDbSymbolTableRecord
100
AcDbBlockTableRecord
  2
*D19
340
0
  0
BLOCK_RECORD
  5
1F24A
330
7466
100
AcDbSymbolTableRecord
100
AcDbBlockTableRecord
  2
*D20
340
0
  0
BLOCK_RECORD
  5
1F255
330
7466
100
AcDbSymbolTableRecord
100
AcDbBlockTableRecord
  2
*D21
340
0
  0
BLOCK_RECORD
  5
1FE4C
330
7466
100
AcDbSymbolTableRecord
100
AcDbBlockTableRecord
  2
*D22
340
0
  0
BLOCK_RECORD
  5
20D51
330
7466
100
AcDbSymbolTableRecord
100
AcDbBlockTableRecord
  2
*D23
340
0
  0
BLOCK_RECORD
  5
212E9
330
7466
100
AcDbSymbolTableRecord
100
AcDbBlockTableRecord
  2
*D30
340
0
  0
BLOCK_RECORD
  5
215FB
330
7466
100
AcDbSymbolTableRecord
100
AcDbBlockTableRecord
  2
*D37
340
0
  0
BLOCK_RECORD
  5
21607
330
7466
100
AcDbSymbolTableRecord
100
AcDbBlockTableRecord
  2
*D38
340
0
  0
BLOCK_RECORD
  5
21613
330
7466
100
AcDbSymbolTableRecord
100
AcDbBlockTableRecord
  2
*D39
340
0
  0
BLOCK_RECORD
  5
2161F
330
7466
100
AcDbSymbolTableRecord
100
AcDbBlockTableRecord
  2
*D40
340
0
  0
BLOCK_RECORD
  5
21630
330
7466
100
AcDbSymbolTableRecord
100
AcDbBlockTableRecord
  2
*D41
340
0
  0
BLOCK_RECORD
  5
2163C
330
7466
100
AcDbSymbolTableRecord
100
AcDbBlockTableRecord
  2
*D42
340
0
  0
ENDTAB
  0
ENDSEC
  0
SECTION
  2
BLOCKS
  0
BLOCK
  5
7489
330
747D
100
AcDbEntity
  8
0
100
AcDbBlockBegin
  2
*MODEL_SPACE
 70
     0
 10
0.0
 20
0.0
 30
0.0
  3
*MODEL_SPACE
  1

  0
ENDBLK
  5
748A
330
747D
100
AcDbEntity
  8
0
100
AcDbBlockEnd
  0
BLOCK
  5
7487
330
747A
100
AcDbEntity
 67
     1
  8
0
100
AcDbBlockBegin
  2
*PAPER_SPACE
 70
     0
 10
0.0
 20
0.0
 30
0.0
  3
*PAPER_SPACE
  1

  0
ENDBLK
  5
7488
330
747A
100
AcDbEntity
 67
     1
  8
0
100
AcDbBlockEnd
  0
BLOCK
  5
F771
330
F770
100
AcDbEntity
  8
0
 48
50.0
100
AcDbBlockBegin
  2
_DOTSMALL
 70
     0
 10
0.0
 20
0.0
 30
0.0
  3
_DOTSMALL
  1

  0
LWPOLYLINE
  5
F772
330
F770
100
AcDbEntity
  8
0
  6
ByBlock
 62
     0
 48
50.0
100
AcDbPolyline
 90
        2
 70
     1
 43
0.5
 10
-0.0625
 20
0.0
 42
1.0
 10
0.0625
 20
0.0
 42
1.0
  0
ENDBLK
  5
F776
330
F770
100
AcDbEntity
  8
0
 48
50.0
100
AcDbBlockEnd
  0
BLOCK
  5
1DA4F
330
1DA44
100
AcDbEntity
  8
0
 48
50.0
100
AcDbBlockBegin
  2
*D1
 70
     1
 10
0.0
 20
0.0
 30
0.0
  3
*D1
  1

  0
LINE
  5
212DE
330
1DA44
100
AcDbEntity
  8
寸法
 62
     0
 48
50.0
370
    -2
100
AcDbLine
 10
6729.213011273897
 20
5892.919036112861
 30
0.0
 11
6985.920261149995
 21
5892.919036112861
 31
0.0
  0
LINE
  5
212DF
330
1DA44
100
AcDbEntity
  8
寸法
 62
     0
 48
50.0
370
    -2
100
AcDbLine
 10
6729.213011273897
 20
6022.919036112863
 30
0.0
 11
6985.920261149995
 21
6022.919036112863
 31
0.0
  0
LINE
  5
212E0
330
1DA44
100
AcDbEntity
  8
寸法
 62
     0
 48
50.0
370
    -2
100
AcDbLine
 10
6925.920261149996
 20
5892.919036112861
 30
0.0
 11
6925.920261149996
 21
6022.919036112863
 31
0.0
  0
LINE
  5
212E1
330
1DA44
100
AcDbEntity
  8
寸法
 62
     0
 48
50.0
370
    -2
100
AcDbLine
 10
6925.920261149996
 20
6395.01352430184
 30
0.0
 11
6925.920261149996
 21
6022.919036112863
 31
0.0
  0
MTEXT
  5
212E2
330
1DA44
100
AcDbEntity
  8
寸法
 62
     7
 48
50.0
100
AcDbMText
 10
6825.920261149994
 20
6258.966280207353
 30
0.0
 40
120.0
 41
0.0
 71
     5
 72
     1
  1
\A1;130
  7
STYLE1
 11
0.0000000000000001
 21
1.0
 31
0.0
 73
     1
 44
1.0
1001
ACAD
1000
MTEXTBEGIN
1070
    73
1070
     1
1070
    44
1040
1.0
1070
    74
1070
     0
1000
MTEXTEND
  0
INSERT
  5
212E3
330
1DA44
100
AcDbEntity
  8
寸法
 62
     0
 48
50.0
370
    -2
100
AcDbBlockReference
  2
_DOTSMALL
 10
6925.920261149996
 20
5892.919036112861
 30
0.0
 41
100.0
 42
100.0
 43
100.0
 50
270.0
  0
INSERT
  5
212E4
330
1DA44
100
AcDbEntity
  8
寸法
 62
     0
 48
50.0
370
    -2
100
AcDbBlockReference
  2
_DOTSMALL
 10
6925.920261149996
 20
6022.919036112863
 30
0.0
 41
100.0
 42
100.0
 43
100.0
 50
90.0
  0
POINT
  5
212E5
330
1DA44
100
AcDbEntity
  8
DEFPOINTS
 62
     0
 48
50.0
100
AcDbPoint
 10
6709.213011273897
 20
5892.919036112861
 30
0.0
  0
POINT
  5
212E6
330
1DA44
100
AcDbEntity
  8
DEFPOINTS
 62
     0
 48
50.0
100
AcDbPoint
 10
6709.213011273897
 20
6022.919036112863
 30
0.0
  0
POINT
  5
212E7
330
1DA44
100
AcDbEntity
  8
DEFPOINTS
 62
     0
 48
50.0
100
AcDbPoint
 10
6925.920261149996
 20
6022.919036112863
 30
0.0
  0
ENDBLK
  5
1DA50
330
1DA44
100
AcDbEntity
  8
0
 48
50.0
100
AcDbBlockEnd
  0
BLOCK
  5
1DA5C
330
1DA51
100
AcDbEntity
  8
0
 48
50.0
100
AcDbBlockBegin
  2
*D2
 70
     1
 10
0.0
 20
0.0
 30
0.0
  3
*D2
  1

  0
LINE
  5
212D4
330
1DA51
100
AcDbEntity
  8
寸法
 62
     0
 48
50.0
370
    -2
100
AcDbLine
 10
6729.213011273897
 20
5892.919036112863
 30
0.0
 11
6985.920261149995
 21
5892.919036112863
 31
0.0
  0
LINE
  5
212D5
330
1DA51
100
AcDbEntity
  8
寸法
 62
     0
 48
50.0
370
    -2
100
AcDbLine
 10
6729.213011273897
 20
5722.919036112862
 30
0.0
 11
6985.920261149995
 21
5722.919036112862
 31
0.0
  0
LINE
  5
212D6
330
1DA51
100
AcDbEntity
  8
寸法
 62
     0
 48
50.0
370
    -2
100
AcDbLine
 10
6925.920261149996
 20
5892.919036112863
 30
0.0
 11
6925.920261149996
 21
5722.919036112862
 31
0.0
  0
LINE
  5
212D7
330
1DA51
100
AcDbEntity
  8
寸法
 62
     0
 48
50.0
370
    -2
100
AcDbLine
 10
6925.920261149996
 20
5350.824547923883
 30
0.0
 11
6925.920261149996
 21
5722.919036112862
 31
0.0
  0
MTEXT
  5
212D8
330
1DA51
100
AcDbEntity
  8
寸法
 62
     7
 48
50.0
100
AcDbMText
 10
6825.920261149994
 20
5486.871792018373
 30
0.0
 40
120.0
 41
0.0
 71
     5
 72
     1
  1
\A1;170
  7
STYLE1
 11
0.0000000000000001
 21
1.0
 31
0.0
 73
     1
 44
1.0
1001
ACAD
1000
MTEXTBEGIN
1070
    73
1070
     1
1070
    44
1040
1.0
1070
    74
1070
     0
1000
MTEXTEND
  0
INSERT
  5
212D9
330
1DA51
100
AcDbEntity
  8
寸法
 62
     0
 48
50.0
370
    -2
100
AcDbBlockReference
  2
_DOTSMALL
 10
6925.920261149996
 20
5892.919036112863
 30
0.0
 41
100.0
 42
100.0
 43
100.0
 50
90.0
  0
INSERT
  5
212DA
330
1DA51
100
AcDbEntity
  8
寸法
 62
     0
 48
50.0
370
    -2
100
AcDbBlockReference
  2
_DOTSMALL
 10
6925.920261149996
 20
5722.919036112862
 30
0.0
 41
100.0
 42
100.0
 43
100.0
 50
270.0
  0
POINT
  5
212DB
330
1DA51
100
AcDbEntity
  8
DEFPOINTS
 62
     0
 48
50.0
100
AcDbPoint
 10
6709.213011273897
 20
5892.919036112863
 30
0.0
  0
POINT
  5
212DC
330
1DA51
100
AcDbEntity
  8
DEFPOINTS
 62
     0
 48
50.0
100
AcDbPoint
 10
6709.213011273897
 20
5722.919036112862
 30
0.0
  0
POINT
  5
212DD
330
1DA51
100
AcDbEntity
  8
DEFPOINTS
 62
     0
 48
50.0
100
AcDbPoint
 10
6925.920261149996
 20
5722.919036112862
 30
0.0
  0
ENDBLK
  5
1DA5D
330
1DA51
100
AcDbEntity
  8
0
 48
50.0
100
AcDbBlockEnd
  0
BLOCK
  5
1DA67
330
1DA5E
100
AcDbEntity
  8
0
 48
50.0
100
AcDbBlockBegin
  2
*D3
 70
     1
 10
0.0
 20
0.0
 30
0.0
  3
*D3
  1

  0
LINE
  5
212CB
330
1DA5E
100
AcDbEntity
  8
寸法
 62
     0
 48
50.0
370
    -2
100
AcDbLine
 10
9416.213011273896
 20
7469.91903611286
 30
0.0
 11
9416.213011273896
 21
8336.250847072712
 31
0.0
  0
LINE
  5
212CC
330
1DA5E
100
AcDbEntity
  8
寸法
 62
     0
 48
50.0
370
    -2
100
AcDbLine
 10
6602.213011273896
 20
7469.91903611286
 30
0.0
 11
6602.213011273896
 21
8336.250847072712
 31
0.0
  0
LINE
  5
212CD
330
1DA5E
100
AcDbEntity
  8
寸法
 62
     0
 48
50.0
370
    -2
100
AcDbLine
 10
9416.213011273896
 20
8276.250847072711
 30
0.0
 11
6602.213011273896
 21
8276.250847072711
 31
0.0
  0
INSERT
  5
212CE
330
1DA5E
100
AcDbEntity
  8
寸法
 62
     0
 48
50.0
370
    -2
100
AcDbBlockReference
  2
_DOTSMALL
 10
9416.213011273896
 20
8276.250847072711
 30
0.0
 41
100.0
 42
100.0
 43
100.0
  0
INSERT
  5
212CF
330
1DA5E
100
AcDbEntity
  8
寸法
 62
     0
 48
50.0
370
    -2
100
AcDbBlockReference
  2
_DOTSMALL
 10
6602.213011273896
 20
8276.250847072711
 30
0.0
 41
100.0
 42
100.0
 43
100.0
 50
180.0
  0
MTEXT
  5
212D0
330
1DA5E
100
AcDbEntity
  8
寸法
 62
     7
 48
50.0
100
AcDbMText
 10
8009.213011273896
 20
8376.262658096333
 30
0.0
 40
120.0
 41
0.0
 71
     5
 72
     1
  1
\A1;2814
  7
STYLE1
 73
     1
 44
1.0
1001
ACAD
1000
MTEXTBEGIN
1070
    73
1070
     1
1070
    44
1040
1.0
1070
    74
1070
     0
1000
MTEXTEND
  0
POINT
  5
212D1
330
1DA5E
100
AcDbEntity
  8
DEFPOINTS
 62
     0
 48
50.0
100
AcDbPoint
 10
9416.213011273896
 20
7449.919036112861
 30
0.0
  0
POINT
  5
212D2
330
1DA5E
100
AcDbEntity
  8
DEFPOINTS
 62
     0
 48
50.0
100
AcDbPoint
 10
6602.213011273896
 20
7449.919036112861
 30
0.0
  0
POINT
  5
212D3
330
1DA5E
100
AcDbEntity
  8
DEFPOINTS
 62
     0
 48
50.0
100
AcDbPoint
 10
6602.213011273896
 20
8276.250847072711
 30
0.0
  0
ENDBLK
  5
1DA68
330
1DA5E
100
AcDbEntity
  8
0
 48
50.0
100
AcDbBlockEnd
  0
BLOCK
  5
1DA72
330
1DA69
100
AcDbEntity
  8
0
 48
50.0
100
AcDbBlockBegin
  2
*D4
 70
     1
 10
0.0
 20
0.0
 30
0.0
  3
*D4
  1

  0
LINE
  5
212C2
330
1DA69
100
AcDbEntity
  8
寸法
 62
     0
 48
50.0
370
    -2
100
AcDbLine
 10
6479.213011273895
 20
7542.919036112859
 30
0.0
 11
6479.213011273895
 21
8548.711542589549
 31
0.0
  0
LINE
  5
212C3
330
1DA69
100
AcDbEntity
  8
寸法
 62
     0
 48
50.0
370
    -2
100
AcDbLine
 10
9539.213011273897
 20
7542.919036112862
 30
0.0
 11
9539.213011273897
 21
8548.711542589549
 31
0.0
  0
LINE
  5
212C4
330
1DA69
100
AcDbEntity
  8
寸法
 62
     0
 48
50.0
370
    -2
100
AcDbLine
 10
6479.213011273895
 20
8488.711542589548
 30
0.0
 11
9539.213011273897
 21
8488.711542589548
 31
0.0
  0
INSERT
  5
212C5
330
1DA69
100
AcDbEntity
  8
寸法
 62
     0
 48
50.0
370
    -2
100
AcDbBlockReference
  2
_DOTSMALL
 10
6479.213011273895
 20
8488.711542589548
 30
0.0
 41
100.0
 42
100.0
 43
100.0
 50
180.0
  0
INSERT
  5
212C6
330
1DA69
100
AcDbEntity
  8
寸法
 62
     0
 48
50.0
370
    -2
100
AcDbBlockReference
  2
_DOTSMALL
 10
9539.213011273897
 20
8488.711542589548
 30
0.0
 41
100.0
 42
100.0
 43
100.0
  0
MTEXT
  5
212C7
330
1DA69
100
AcDbEntity
  8
寸法
 62
     7
 48
50.0
100
AcDbMText
 10
8009.213011273896
 20
8588.711542589548
 30
0.0
 40
120.0
 41
0.0
 71
     5
 72
     1
  1
\A1;3060
  7
STYLE1
 73
     1
 44
1.0
1001
ACAD
1000
MTEXTBEGIN
1070
    73
1070
     1
1070
    44
1040
1.0
1070
    74
1070
     0
1000
MTEXTEND
  0
POINT
  5
212C8
330
1DA69
100
AcDbEntity
  8
DEFPOINTS
 62
     0
 48
50.0
100
AcDbPoint
 10
6479.213011273895
 20
7522.919036112859
 30
0.0
  0
POINT
  5
212C9
330
1DA69
100
AcDbEntity
  8
DEFPOINTS
 62
     0
 48
50.0
100
AcDbPoint
 10
9539.213011273897
 20
7522.919036112861
 30
0.0
  0
POINT
  5
212CA
330
1DA69
100
AcDbEntity
  8
DEFPOINTS
 62
     0
 48
50.0
100
AcDbPoint
 10
9539.213011273897
 20
8488.711542589548
 30
0.0
  0
ENDBLK
  5
1DA73
330
1DA69
100
AcDbEntity
  8
0
 48
50.0
100
AcDbBlockEnd
  0
BLOCK
  5
1DA7F
330
1DA74
100
AcDbEntity
  8
0
 48
50.0
100
AcDbBlockBegin
  2
*D5
 70
     1
 10
0.0
 20
0.0
 30
0.0
  3
*D5
  1

  0
LINE
  5
212B9
330
1DA74
100
AcDbEntity
  8
寸法
 62
     0
 48
50.0
370
    -2
100
AcDbLine
 10
6602.213011273896
 20
7469.91903611286
 30
0.0
 11
6602.213011273896
 21
8336.250847072712
 31
0.0
  0
LINE
  5
212BA
330
1DA74
100
AcDbEntity
  8
寸法
 62
     0
 48
50.0
370
    -2
100
AcDbLine
 10
6479.213011273895
 20
7542.919036112859
 30
0.0
 11
6479.213011273895
 21
8336.250847072712
 31
0.0
  0
LINE
  5
212BB
330
1DA74
100
AcDbEntity
  8
寸法
 62
     0
 48
50.0
370
    -2
100
AcDbLine
 10
6602.213011273896
 20
8276.250847072711
 30
0.0
 11
6479.213011273895
 21
8276.250847072711
 31
0.0
  0
MTEXT
  5
212BC
330
1DA74
100
AcDbEntity
  8
寸法
 62
     7
 48
50.0
100
AcDbMText
 10
6240.727729899656
 20
8376.262658096333
 30
0.0
 40
120.0
 41
0.0
 71
     5
 72
     1
  1
\A1;123
  7
STYLE1
 73
     1
 44
1.0
1001
ACAD
1000
MTEXTBEGIN
1070
    73
1070
     1
1070
    44
1040
1.0
1070
    74
1070
     0
1000
MTEXTEND
  0
INSERT
  5
212BD
330
1DA74
100
AcDbEntity
  8
寸法
 62
     0
 48
50.0
370
    -2
100
AcDbBlockReference
  2
_DOTSMALL
 10
6602.213011273896
 20
8276.250847072711
 30
0.0
 41
100.0
 42
100.0
 43
100.0
  0
INSERT
  5
212BE
330
1DA74
100
AcDbEntity
  8
寸法
 62
     0
 48
50.0
370
    -2
100
AcDbBlockReference
  2
_DOTSMALL
 10
6479.213011273895
 20
8276.250847072711
 30
0.0
 41
100.0
 42
100.0
 43
100.0
 50
180.0
  0
POINT
  5
212BF
330
1DA74
100
AcDbEntity
  8
DEFPOINTS
 62
     0
 48
50.0
100
AcDbPoint
 10
6602.213011273896
 20
7449.919036112861
 30
0.0
  0
POINT
  5
212C0
330
1DA74
100
AcDbEntity
  8
DEFPOINTS
 62
     0
 48
50.0
100
AcDbPoint
 10
6479.213011273895
 20
7522.919036112859
 30
0.0
  0
POINT
  5
212C1
330
1DA74
100
AcDbEntity
  8
DEFPOINTS
 62
     0
 48
50.0
100
AcDbPoint
 10
6479.213011273895
 20
8276.250847072711
 30
0.0
  0
ENDBLK
  5
1DA80
330
1DA74
100
AcDbEntity
  8
0
 48
50.0
100
AcDbBlockEnd
  0
BLOCK
  5
1DA8C
330
1DA81
100
AcDbEntity
  8
0
 48
50.0
100
AcDbBlockBegin
  2
*D6
 70
     1
 10
0.0
 20
0.0
 30
0.0
  3
*D6
  1

  0
LINE
  5
212AE
330
1DA81
100
AcDbEntity
  8
寸法
 62
     0
 48
50.0
370
    -2
100
AcDbLine
 10
6434.213011273893
 20
8296.250847072711
 30
0.0
 11
6434.213011273893
 21
8548.711542589549
 31
0.0
  0
LINE
  5
212AF
330
1DA81
100
AcDbEntity
  8
寸法
 62
     0
 48
50.0
370
    -2
100
AcDbLine
 10
6479.213011273896
 20
7691.190236682782
 30
0.0
 11
6479.213011273896
 21
8548.711542589549
 31
0.0
  0
LINE
  5
212B0
330
1DA81
100
AcDbEntity
  8
寸法
 62
     0
 48
50.0
370
    -2
100
AcDbLine
 10
6434.213011273893
 20
8488.71154258955
 30
0.0
 11
6334.213011273892
 21
8488.71154258955
 31
0.0
  0
LINE
  5
212B1
330
1DA81
100
AcDbEntity
  8
寸法
 62
     0
 48
50.0
370
    -2
100
AcDbLine
 10
6479.213011273896
 20
8488.71154258955
 30
0.0
 11
6579.213011273896
 21
8488.71154258955
 31
0.0
  0
MTEXT
  5
212B2
330
1DA81
100
AcDbEntity
  8
寸法
 62
     7
 48
50.0
100
AcDbMText
 10
6456.713011273894
 20
8588.71154258955
 30
0.0
 40
120.0
 41
0.0
 71
     5
 72
     1
  1
\A1;a
  7
STYLE1
 73
     1
 44
1.0
1001
ACAD
1000
MTEXTBEGIN
1070
    73
1070
     1
1070
    44
1040
1.0
1070
    74
1070
     0
1000
MTEXTEND
  0
LINE
  5
212B3
330
1DA81
100
AcDbEntity
  8
寸法
 62
     0
 48
50.0
370
    -2
100
AcDbLine
 10
6434.213011273893
 20
8488.71154258955
 30
0.0
 11
6479.213011273896
 21
8488.71154258955
 31
0.0
  0
INSERT
  5
212B4
330
1DA81
100
AcDbEntity
  8
寸法
 62
     0
 48
50.0
370
    -2
100
AcDbBlockReference
  2
_DOTSMALL
 10
6434.213011273893
 20
8488.71154258955
 30
0.0
 41
100.0
 42
100.0
 43
100.0
  0
INSERT
  5
212B5
330
1DA81
100
AcDbEntity
  8
寸法
 62
     0
 48
50.0
370
    -2
100
AcDbBlockReference
  2
_DOTSMALL
 10
6479.213011273896
 20
8488.71154258955
 30
0.0
 41
100.0
 42
100.0
 43
100.0
 50
180.0
  0
POINT
  5
212B6
330
1DA81
100
AcDbEntity
  8
DEFPOINTS
 62
     0
 48
50.0
100
AcDbPoint
 10
6434.213011273893
 20
8276.250847072711
 30
0.0
  0
POINT
  5
212B7
330
1DA81
100
AcDbEntity
  8
DEFPOINTS
 62
     0
 48
50.0
100
AcDbPoint
 10
6479.213011273896
 20
7671.190236682781
 30
0.0
  0
POINT
  5
212B8
330
1DA81
100
AcDbEntity
  8
DEFPOINTS
 62
     0
 48
50.0
100
AcDbPoint
 10
6479.213011273896
 20
8488.71154258955
 30
0.0
  0
ENDBLK
  5
1DA8D
330
1DA81
100
AcDbEntity
  8
0
 48
50.0
100
AcDbBlockEnd
  0
BLOCK
  5
1DA98
330
1DA8E
100
AcDbEntity
  8
0
 48
50.0
100
AcDbBlockBegin
  2
*D7
 70
     1
 10
0.0
 20
0.0
 30
0.0
  3
*D7
  1

  0
LINE
  5
212A5
330
1DA8E
100
AcDbEntity
  8
寸法
 62
     0
 48
50.0
370
    -2
100
AcDbLine
 10
6532.213011273896
 20
7399.919036112861
 30
0.0
 11
5923.270745260076
 21
7399.919036112861
 31
0.0
  0
LINE
  5
212A6
330
1DA8E
100
AcDbEntity
  8
寸法
 62
     0
 48
50.0
370
    -2
100
AcDbLine
 10
6532.213011273904
 20
5920.919036112861
 30
0.0
 11
5923.270745260076
 21
5920.919036112862
 31
0.0
  0
LINE
  5
212A7
330
1DA8E
100
AcDbEntity
  8
寸法
 62
     0
 48
50.0
370
    -2
100
AcDbLine
 10
5983.270745260076
 20
7399.919036112861
 30
0.0
 11
5983.270745260075
 21
5920.919036112862
 31
0.0
  0
MTEXT
  5
212A8
330
1DA8E
100
AcDbEntity
  8
寸法
 62
     7
 48
50.0
100
AcDbMText
 10
5883.270745260074
 20
6634.05280691343
 30
0.0
 40
120.0
 41
0.0
 71
     5
 72
     1
  1
\A1;1479
  7
STYLE1
 11
0.0000000000000001
 21
1.0
 31
0.0
 73
     1
 44
1.0
1001
ACAD
1000
MTEXTBEGIN
1070
    73
1070
     1
1070
    44
1040
1.0
1070
    74
1070
     0
1000
MTEXTEND
  0
INSERT
  5
212A9
330
1DA8E
100
AcDbEntity
  8
寸法
 62
     0
 48
50.0
370
    -2
100
AcDbBlockReference
  2
_DOTSMALL
 10
5983.270745260076
 20
7399.919036112861
 30
0.0
 41
100.0
 42
100.0
 43
100.0
 50
90.0
  0
INSERT
  5
212AA
330
1DA8E
100
AcDbEntity
  8
寸法
 62
     0
 48
50.0
370
    -2
100
AcDbBlockReference
  2
_DOTSMALL
 10
5983.270745260075
 20
5920.919036112862
 30
0.0
 41
100.0
 42
100.0
 43
100.0
 50
270.0
  0
POINT
  5
212AB
330
1DA8E
100
AcDbEntity
  8
DEFPOINTS
 62
     0
 48
50.0
100
AcDbPoint
 10
6552.213011273896
 20
7399.919036112861
 30
0.0
  0
POINT
  5
212AC
330
1DA8E
100
AcDbEntity
  8
DEFPOINTS
 62
     0
 48
50.0
100
AcDbPoint
 10
6552.213011273905
 20
5920.919036112861
 30
0.0
  0
POINT
  5
212AD
330
1DA8E
100
AcDbEntity
  8
DEFPOINTS
 62
     0
 48
50.0
100
AcDbPoint
 10
5983.270745260075
 20
5920.919036112862
 30
0.0
  0
ENDBLK
  5
1DA99
330
1DA8E
100
AcDbEntity
  8
0
 48
50.0
100
AcDbBlockEnd
  0
BLOCK
  5
1DAA3
330
1DA9A
100
AcDbEntity
  8
0
 48
50.0
100
AcDbBlockBegin
  2
*D8
 70
     1
 10
0.0
 20
0.0
 30
0.0
  3
*D8
  1

  0
LINE
  5
2129C
330
1DA9A
100
AcDbEntity
  8
寸法
 62
     0
 48
50.0
370
    -2
100
AcDbLine
 10
6459.213011273894
 20
7522.919036112863
 30
0.0
 11
5677.77794312211
 21
7522.919036112863
 31
0.0
  0
LINE
  5
2129D
330
1DA9A
100
AcDbEntity
  8
寸法
 62
     0
 48
50.0
370
    -2
100
AcDbLine
 10
6459.213011273897
 20
5722.919036112859
 30
0.0
 11
5677.777943122109
 21
5722.91903611286
 31
0.0
  0
LINE
  5
2129E
330
1DA9A
100
AcDbEntity
  8
寸法
 62
     0
 48
50.0
370
    -2
100
AcDbLine
 10
5737.77794312211
 20
7522.919036112863
 30
0.0
 11
5737.777943122108
 21
5722.91903611286
 31
0.0
  0
MTEXT
  5
2129F
330
1DA9A
100
AcDbEntity
  8
寸法
 62
     7
 48
50.0
100
AcDbMText
 10
5637.777943122108
 20
6651.31453344319
 30
0.0
 40
120.0
 41
0.0
 71
     5
 72
     1
  1
\A1;1800
  7
STYLE1
 11
0.0000000000000001
 21
1.0
 31
0.0
 73
     1
 44
1.0
1001
ACAD
1000
MTEXTBEGIN
1070
    73
1070
     1
1070
    44
1040
1.0
1070
    74
1070
     0
1000
MTEXTEND
  0
INSERT
  5
212A0
330
1DA9A
100
AcDbEntity
  8
寸法
 62
     0
 48
50.0
370
    -2
100
AcDbBlockReference
  2
_DOTSMALL
 10
5737.77794312211
 20
7522.919036112863
 30
0.0
 41
100.0
 42
100.0
 43
100.0
 50
90.0
  0
INSERT
  5
212A1
330
1DA9A
100
AcDbEntity
  8
寸法
 62
     0
 48
50.0
370
    -2
100
AcDbBlockReference
  2
_DOTSMALL
 10
5737.777943122108
 20
5722.91903611286
 30
0.0
 41
100.0
 42
100.0
 43
100.0
 50
270.0
  0
POINT
  5
212A2
330
1DA9A
100
AcDbEntity
  8
DEFPOINTS
 62
     0
 48
50.0
100
AcDbPoint
 10
6479.213011273895
 20
7522.919036112863
 30
0.0
  0
POINT
  5
212A3
330
1DA9A
100
AcDbEntity
  8
DEFPOINTS
 62
     0
 48
50.0
100
AcDbPoint
 10
6479.213011273897
 20
5722.919036112859
 30
0.0
  0
POINT
  5
212A4
330
1DA9A
100
AcDbEntity
  8
DEFPOINTS
 62
     0
 48
50.0
100
AcDbPoint
 10
5737.777943122108
 20
5722.91903611286
 30
0.0
  0
ENDBLK
  5
1DAA4
330
1DA9A
100
AcDbEntity
  8
0
 48
50.0
100
AcDbBlockEnd
  0
BLOCK
  5
1DAB0
330
1DAA5
100
AcDbEntity
  8
0
 48
50.0
100
AcDbBlockBegin
  2
*D9
 70
     1
 10
0.0
 20
0.0
 30
0.0
  3
*D9
  1

  0
LINE
  5
21292
330
1DAA5
100
AcDbEntity
  8
寸法
 62
     0
 48
50.0
370
    -2
100
AcDbLine
 10
6532.213011273904
 20
5920.919036112861
 30
0.0
 11
5923.270745260076
 21
5920.919036112862
 31
0.0
  0
LINE
  5
21293
330
1DAA5
100
AcDbEntity
  8
寸法
 62
     0
 48
50.0
370
    -2
100
AcDbLine
 10
6459.213011273897
 20
5722.919036112859
 30
0.0
 11
5923.270745260076
 21
5722.91903611286
 31
0.0
  0
LINE
  5
21294
330
1DAA5
100
AcDbEntity
  8
寸法
 62
     0
 48
50.0
370
    -2
100
AcDbLine
 10
5983.270745260075
 20
5920.919036112862
 30
0.0
 11
5983.270745260075
 21
5722.91903611286
 31
0.0
  0
LINE
  5
21295
330
1DAA5
100
AcDbEntity
  8
寸法
 62
     0
 48
50.0
370
    -2
100
AcDbLine
 10
5983.270745260075
 20
5350.499716453548
 30
0.0
 11
5983.270745260075
 21
5722.91903611286
 31
0.0
  0
MTEXT
  5
21296
330
1DAA5
100
AcDbEntity
  8
寸法
 62
     7
 48
50.0
100
AcDbMText
 10
5883.270745260074
 20
5486.709376283204
 30
0.0
 40
120.0
 41
0.0
 71
     5
 72
     1
  1
\A1;198
  7
STYLE1
 11
0.0000000000000001
 21
1.0
 31
0.0
 73
     1
 44
1.0
1001
ACAD
1000
MTEXTBEGIN
1070
    73
1070
     1
1070
    44
1040
1.0
1070
    74
1070
     0
1000
MTEXTEND
  0
INSERT
  5
21297
330
1DAA5
100
AcDbEntity
  8
寸法
 62
     0
 48
50.0
370
    -2
100
AcDbBlockReference
  2
_DOTSMALL
 10
5983.270745260075
 20
5920.919036112862
 30
0.0
 41
100.0
 42
100.0
 43
100.0
 50
90.0
  0
INSERT
  5
21298
330
1DAA5
100
AcDbEntity
  8
寸法
 62
     0
 48
50.0
370
    -2
100
AcDbBlockReference
  2
_DOTSMALL
 10
5983.270745260075
 20
5722.91903611286
 30
0.0
 41
100.0
 42
100.0
 43
100.0
 50
270.0
  0
POINT
  5
21299
330
1DAA5
100
AcDbEntity
  8
DEFPOINTS
 62
     0
 48
50.0
100
AcDbPoint
 10
6552.213011273905
 20
5920.919036112861
 30
0.0
  0
POINT
  5
2129A
330
1DAA5
100
AcDbEntity
  8
DEFPOINTS
 62
     0
 48
50.0
100
AcDbPoint
 10
6479.213011273897
 20
5722.919036112859
 30
0.0
  0
POINT
  5
2129B
330
1DAA5
100
AcDbEntity
  8
DEFPOINTS
 62
     0
 48
50.0
100
AcDbPoint
 10
5983.270745260075
 20
5722.91903611286
 30
0.0
  0
ENDBLK
  5
1DAB1
330
1DAA5
100
AcDbEntity
  8
0
 48
50.0
100
AcDbBlockEnd
  0
BLOCK
  5
1DABC
330
1DAB2
100
AcDbEntity
  8
0
 48
50.0
100
AcDbBlockBegin
  2
*D10
 70
     1
 10
0.0
 20
0.0
 30
0.0
  3
*D10
  1

  0
LINE
  5
21287
330
1DAB2
100
AcDbEntity
  8
寸法
 62
     0
 48
50.0
370
    -2
100
AcDbLine
 10
6459.213011273897
 20
5722.919036112859
 30
0.0
 11
5677.777943122109
 21
5722.91903611286
 31
0.0
  0
LINE
  5
21288
330
1DAB2
100
AcDbEntity
  8
寸法
 62
     0
 48
50.0
370
    -2
100
AcDbLine
 10
5963.270745260075
 20
5667.919036112859
 30
0.0
 11
5677.777943122109
 21
5667.919036112859
 31
0.0
  0
LINE
  5
21289
330
1DAB2
100
AcDbEntity
  8
寸法
 62
     0
 48
50.0
370
    -2
100
AcDbLine
 10
5737.777943122108
 20
5722.91903611286
 30
0.0
 11
5737.777943122108
 21
5822.91903611286
 31
0.0
  0
LINE
  5
2128A
330
1DAB2
100
AcDbEntity
  8
寸法
 62
     0
 48
50.0
370
    -2
100
AcDbLine
 10
5737.777943122108
 20
5667.919036112859
 30
0.0
 11
5737.777943122108
 21
5567.91903611286
 31
0.0
  0
MTEXT
  5
2128B
330
1DAB2
100
AcDbEntity
  8
寸法
 62
     7
 48
50.0
100
AcDbMText
 10
5637.777943122108
 20
5695.41903611286
 30
0.0
 40
120.0
 41
0.0
 71
     5
 72
     1
  1
\A1;b
  7
STYLE1
 11
0.0000000000000001
 21
1.0
 31
0.0
 73
     1
 44
1.0
1001
ACAD
1000
MTEXTBEGIN
1070
    73
1070
     1
1070
    44
1040
1.0
1070
    74
1070
     0
1000
MTEXTEND
  0
LINE
  5
2128C
330
1DAB2
100
AcDbEntity
  8
寸法
 62
     0
 48
50.0
370
    -2
100
AcDbLine
 10
5737.777943122108
 20
5722.91903611286
 30
0.0
 11
5737.777943122108
 21
5667.919036112859
 31
0.0
  0
INSERT
  5
2128D
330
1DAB2
100
AcDbEntity
  8
寸法
 62
     0
 48
50.0
370
    -2
100
AcDbBlockReference
  2
_DOTSMALL
 10
5737.777943122108
 20
5722.91903611286
 30
0.0
 41
100.0
 42
100.0
 43
100.0
 50
270.0
  0
INSERT
  5
2128E
330
1DAB2
100
AcDbEntity
  8
寸法
 62
     0
 48
50.0
370
    -2
100
AcDbBlockReference
  2
_DOTSMALL
 10
5737.777943122108
 20
5667.919036112859
 30
0.0
 41
100.0
 42
100.0
 43
100.0
 50
90.0
  0
POINT
  5
2128F
330
1DAB2
100
AcDbEntity
  8
DEFPOINTS
 62
     0
 48
50.0
100
AcDbPoint
 10
6479.213011273897
 20
5722.919036112859
 30
0.0
  0
POINT
  5
21290
330
1DAB2
100
AcDbEntity
  8
DEFPOINTS
 62
     0
 48
50.0
100
AcDbPoint
 10
5983.270745260075
 20
5667.919036112859
 30
0.0
  0
POINT
  5
21291
330
1DAB2
100
AcDbEntity
  8
DEFPOINTS
 62
     0
 48
50.0
100
AcDbPoint
 10
5737.777943122108
 20
5667.919036112859
 30
0.0
  0
ENDBLK
  5
1DABD
330
1DAB2
100
AcDbEntity
  8
0
 48
50.0
100
AcDbBlockEnd
  0
BLOCK
  5
1DAC9
330
1DABE
100
AcDbEntity
  8
0
 48
50.0
100
AcDbBlockBegin
  2
*D11
 70
     1
 10
0.0
 20
0.0
 30
0.0
  3
*D11
  1

  0
LINE
  5
2127E
330
1DABE
100
AcDbEntity
  8
寸法
 62
     0
 48
50.0
370
    -2
100
AcDbLine
 10
6459.213011273895
 20
7522.91903611286
 30
0.0
 11
5923.270745260074
 21
7522.919036112861
 31
0.0
  0
LINE
  5
2127F
330
1DABE
100
AcDbEntity
  8
寸法
 62
     0
 48
50.0
370
    -2
100
AcDbLine
 10
6532.213011273896
 20
7399.919036112861
 30
0.0
 11
5923.270745260074
 21
7399.919036112861
 31
0.0
  0
LINE
  5
21280
330
1DABE
100
AcDbEntity
  8
寸法
 62
     0
 48
50.0
370
    -2
100
AcDbLine
 10
5983.270745260075
 20
7522.919036112861
 30
0.0
 11
5983.270745260075
 21
7399.919036112861
 31
0.0
  0
MTEXT
  5
21281
330
1DABE
100
AcDbEntity
  8
寸法
 62
     7
 48
50.0
100
AcDbMText
 10
5883.258934236452
 20
7761.4043174871
 30
0.0
 40
120.0
 41
0.0
 71
     5
 72
     1
  1
\A1;123
  7
STYLE1
 11
0.0000000000000001
 21
1.0
 31
0.0
 73
     1
 44
1.0
1001
ACAD
1000
MTEXTBEGIN
1070
    73
1070
     1
1070
    44
1040
1.0
1070
    74
1070
     0
1000
MTEXTEND
  0
INSERT
  5
21282
330
1DABE
100
AcDbEntity
  8
寸法
 62
     0
 48
50.0
370
    -2
100
AcDbBlockReference
  2
_DOTSMALL
 10
5983.270745260075
 20
7522.919036112861
 30
0.0
 41
100.0
 42
100.0
 43
100.0
 50
90.0
  0
INSERT
  5
21283
330
1DABE
100
AcDbEntity
  8
寸法
 62
     0
 48
50.0
370
    -2
100
AcDbBlockReference
  2
_DOTSMALL
 10
5983.270745260075
 20
7399.919036112861
 30
0.0
 41
100.0
 42
100.0
 43
100.0
 50
270.0
  0
POINT
  5
21284
330
1DABE
100
AcDbEntity
  8
DEFPOINTS
 62
     0
 48
50.0
100
AcDbPoint
 10
6479.213011273896
 20
7522.91903611286
 30
0.0
  0
POINT
  5
21285
330
1DABE
100
AcDbEntity
  8
DEFPOINTS
 62
     0
 48
50.0
100
AcDbPoint
 10
6552.213011273896
 20
7399.919036112861
 30
0.0
  0
POINT
  5
21286
330
1DABE
100
AcDbEntity
  8
DEFPOINTS
 62
     0
 48
50.0
100
AcDbPoint
 10
5983.270745260075
 20
7399.919036112861
 30
0.0
  0
ENDBLK
  5
1DACA
330
1DABE
100
AcDbEntity
  8
0
 48
50.0
100
AcDbBlockEnd
  0
BLOCK
  5
1DAD7
330
1DACB
100
AcDbEntity
  8
0
 48
50.0
100
AcDbBlockBegin
  2
*D12
 70
     1
 10
0.0
 20
0.0
 30
0.0
  3
*D12
  1

  0
LINE
  5
21273
330
1DACB
100
AcDbEntity
  8
寸法
 62
     0
 48
50.0
370
    -2
100
AcDbLine
 10
5963.270745260075
 20
7597.91903611286
 30
0.0
 11
5677.777943122107
 21
7597.91903611286
 31
0.0
  0
LINE
  5
21274
330
1DACB
100
AcDbEntity
  8
寸法
 62
     0
 48
50.0
370
    -2
100
AcDbLine
 10
6459.213011273895
 20
7522.91903611286
 30
0.0
 11
5677.777943122107
 21
7522.919036112861
 31
0.0
  0
LINE
  5
21275
330
1DACB
100
AcDbEntity
  8
寸法
 62
     0
 48
50.0
370
    -2
100
AcDbLine
 10
5737.777943122107
 20
7597.91903611286
 30
0.0
 11
5737.777943122107
 21
7697.91903611286
 31
0.0
  0
LINE
  5
21276
330
1DACB
100
AcDbEntity
  8
寸法
 62
     0
 48
50.0
370
    -2
100
AcDbLine
 10
5737.777943122107
 20
7522.919036112861
 30
0.0
 11
5737.777943122107
 21
7422.919036112862
 31
0.0
  0
MTEXT
  5
21277
330
1DACB
100
AcDbEntity
  8
寸法
 62
     7
 48
50.0
100
AcDbMText
 10
5637.777943122106
 20
7560.419036112863
 30
0.0
 40
120.0
 41
0.0
 71
     5
 72
     1
  1
\A1;c
  7
STYLE1
 11
0.0000000000000001
 21
1.0
 31
0.0
 73
     1
 44
1.0
1001
ACAD
1000
MTEXTBEGIN
1070
    73
1070
     1
1070
    44
1040
1.0
1070
    74
1070
     0
1000
MTEXTEND
  0
LINE
  5
21278
330
1DACB
100
AcDbEntity
  8
寸法
 62
     0
 48
50.0
370
    -2
100
AcDbLine
 10
5737.777943122107
 20
7597.91903611286
 30
0.0
 11
5737.777943122107
 21
7522.919036112861
 31
0.0
  0
INSERT
  5
21279
330
1DACB
100
AcDbEntity
  8
寸法
 62
     0
 48
50.0
370
    -2
100
AcDbBlockReference
  2
_DOTSMALL
 10
5737.777943122107
 20
7597.91903611286
 30
0.0
 41
100.0
 42
100.0
 43
100.0
 50
270.0
  0
INSERT
  5
2127A
330
1DACB
100
AcDbEntity
  8
寸法
 62
     0
 48
50.0
370
    -2
100
AcDbBlockReference
  2
_DOTSMALL
 10
5737.777943122107
 20
7522.919036112861
 30
0.0
 41
100.0
 42
100.0
 43
100.0
 50
90.0
  0
POINT
  5
2127B
330
1DACB
100
AcDbEntity
  8
DEFPOINTS
 62
     0
 48
50.0
100
AcDbPoint
 10
5983.270745260075
 20
7597.91903611286
 30
0.0
  0
POINT
  5
2127C
330
1DACB
100
AcDbEntity
  8
DEFPOINTS
 62
     0
 48
50.0
100
AcDbPoint
 10
6479.213011273896
 20
7522.91903611286
 30
0.0
  0
POINT
  5
2127D
330
1DACB
100
AcDbEntity
  8
DEFPOINTS
 62
     0
 48
50.0
100
AcDbPoint
 10
5737.777943122107
 20
7522.919036112861
 30
0.0
  0
ENDBLK
  5
1DAD8
330
1DACB
100
AcDbEntity
  8
0
 48
50.0
100
AcDbBlockEnd
  0
BLOCK
  5
1DAE4
330
1DAD9
100
AcDbEntity
  8
0
 48
50.0
100
AcDbBlockBegin
  2
*D13
 70
     1
 10
0.0
 20
0.0
 30
0.0
  3
*D13
  1

  0
LINE
  5
2126A
330
1DAD9
100
AcDbEntity
  8
寸法
 62
     0
 48
50.0
370
    -2
100
AcDbLine
 10
9539.213011273897
 20
7542.919036112862
 30
0.0
 11
9539.213011273897
 21
8336.250847072712
 31
0.0
  0
LINE
  5
2126B
330
1DAD9
100
AcDbEntity
  8
寸法
 62
     0
 48
50.0
370
    -2
100
AcDbLine
 10
9416.213011273896
 20
7469.91903611286
 30
0.0
 11
9416.213011273896
 21
8336.250847072712
 31
0.0
  0
LINE
  5
2126C
330
1DAD9
100
AcDbEntity
  8
寸法
 62
     0
 48
50.0
370
    -2
100
AcDbLine
 10
9539.213011273897
 20
8276.250847072711
 30
0.0
 11
9416.213011273896
 21
8276.250847072711
 31
0.0
  0
MTEXT
  5
2126D
330
1DAD9
100
AcDbEntity
  8
寸法
 62
     7
 48
50.0
100
AcDbMText
 10
9777.698292648134
 20
8376.262658096333
 30
0.0
 40
120.0
 41
0.0
 71
     5
 72
     1
  1
\A1;123
  7
STYLE1
 73
     1
 44
1.0
1001
ACAD
1000
MTEXTBEGIN
1070
    73
1070
     1
1070
    44
1040
1.0
1070
    74
1070
     0
1000
MTEXTEND
  0
INSERT
  5
2126E
330
1DAD9
100
AcDbEntity
  8
寸法
 62
     0
 48
50.0
370
    -2
100
AcDbBlockReference
  2
_DOTSMALL
 10
9539.213011273897
 20
8276.250847072711
 30
0.0
 41
100.0
 42
100.0
 43
100.0
  0
INSERT
  5
2126F
330
1DAD9
100
AcDbEntity
  8
寸法
 62
     0
 48
50.0
370
    -2
100
AcDbBlockReference
  2
_DOTSMALL
 10
9416.213011273896
 20
8276.250847072711
 30
0.0
 41
100.0
 42
100.0
 43
100.0
 50
180.0
  0
POINT
  5
21270
330
1DAD9
100
AcDbEntity
  8
DEFPOINTS
 62
     0
 48
50.0
100
AcDbPoint
 10
9539.213011273897
 20
7522.919036112861
 30
0.0
  0
POINT
  5
21271
330
1DAD9
100
AcDbEntity
  8
DEFPOINTS
 62
     0
 48
50.0
100
AcDbPoint
 10
9416.213011273896
 20
7449.919036112861
 30
0.0
  0
POINT
  5
21272
330
1DAD9
100
AcDbEntity
  8
DEFPOINTS
 62
     0
 48
50.0
100
AcDbPoint
 10
9416.213011273896
 20
8276.250847072711
 30
0.0
  0
ENDBLK
  5
1DAE5
330
1DAD9
100
AcDbEntity
  8
0
 48
50.0
100
AcDbBlockEnd
  0
BLOCK
  5
1DAF1
330
1DAE6
100
AcDbEntity
  8
0
 48
50.0
100
AcDbBlockBegin
  2
*D14
 70
     1
 10
0.0
 20
0.0
 30
0.0
  3
*D14
  1

  0
LINE
  5
2125F
330
1DAE6
100
AcDbEntity
  8
寸法
 62
     0
 48
50.0
370
    -2
100
AcDbLine
 10
9539.213011273897
 20
7691.190236682782
 30
0.0
 11
9539.213011273897
 21
8548.711542589549
 31
0.0
  0
LINE
  5
21260
330
1DAE6
100
AcDbEntity
  8
寸法
 62
     0
 48
50.0
370
    -2
100
AcDbLine
 10
9584.213011273895
 20
8296.250847072711
 30
0.0
 11
9584.213011273895
 21
8548.711542589549
 31
0.0
  0
LINE
  5
21261
330
1DAE6
100
AcDbEntity
  8
寸法
 62
     0
 48
50.0
370
    -2
100
AcDbLine
 10
9539.213011273897
 20
8488.711542589548
 30
0.0
 11
9439.213011273897
 21
8488.711542589548
 31
0.0
  0
LINE
  5
21262
330
1DAE6
100
AcDbEntity
  8
寸法
 62
     0
 48
50.0
370
    -2
100
AcDbLine
 10
9584.213011273895
 20
8488.711542589548
 30
0.0
 11
9684.213011273897
 21
8488.711542589548
 31
0.0
  0
MTEXT
  5
21263
330
1DAE6
100
AcDbEntity
  8
寸法
 62
     7
 48
50.0
100
AcDbMText
 10
9561.713011273896
 20
8588.711542589548
 30
0.0
 40
120.0
 41
0.0
 71
     5
 72
     1
  1
\A1;a
  7
STYLE1
 73
     1
 44
1.0
1001
ACAD
1000
MTEXTBEGIN
1070
    73
1070
     1
1070
    44
1040
1.0
1070
    74
1070
     0
1000
MTEXTEND
  0
LINE
  5
21264
330
1DAE6
100
AcDbEntity
  8
寸法
 62
     0
 48
50.0
370
    -2
100
AcDbLine
 10
9539.213011273897
 20
8488.711542589548
 30
0.0
 11
9584.213011273895
 21
8488.711542589548
 31
0.0
  0
INSERT
  5
21265
330
1DAE6
100
AcDbEntity
  8
寸法
 62
     0
 48
50.0
370
    -2
100
AcDbBlockReference
  2
_DOTSMALL
 10
9539.213011273897
 20
8488.711542589548
 30
0.0
 41
100.0
 42
100.0
 43
100.0
  0
INSERT
  5
21266
330
1DAE6
100
AcDbEntity
  8
寸法
 62
     0
 48
50.0
370
    -2
100
AcDbBlockReference
  2
_DOTSMALL
 10
9584.213011273895
 20
8488.711542589548
 30
0.0
 41
100.0
 42
100.0
 43
100.0
 50
180.0
  0
POINT
  5
21267
330
1DAE6
100
AcDbEntity
  8
DEFPOINTS
 62
     0
 48
50.0
100
AcDbPoint
 10
9539.213011273897
 20
7671.190236682781
 30
0.0
  0
POINT
  5
21268
330
1DAE6
100
AcDbEntity
  8
DEFPOINTS
 62
     0
 48
50.0
100
AcDbPoint
 10
9584.213011273895
 20
8276.250847072711
 30
0.0
  0
POINT
  5
21269
330
1DAE6
100
AcDbEntity
  8
DEFPOINTS
 62
     0
 48
50.0
100
AcDbPoint
 10
9584.213011273895
 20
8488.711542589548
 30
0.0
  0
ENDBLK
  5
1DAF2
330
1DAE6
100
AcDbEntity
  8
0
 48
50.0
100
AcDbBlockEnd
  0
BLOCK
  5
1DAFE
330
1DAF3
100
AcDbEntity
  8
0
 48
50.0
100
AcDbBlockBegin
  2
*D15
 70
     1
 10
0.0
 20
0.0
 30
0.0
  3
*D15
  1

  0
LINE
  5
21255
330
1DAF3
100
AcDbEntity
  8
寸法
 62
     0
 48
50.0
370
    -2
100
AcDbLine
 10
9539.213011273897
 20
7022.91903611287
 30
0.0
 11
9539.213011273897
 21
6924.422404093454
 31
0.0
  0
LINE
  5
21256
330
1DAF3
100
AcDbEntity
  8
寸法
 62
     0
 48
50.0
370
    -2
100
AcDbLine
 10
9419.213011273894
 20
7057.560052264249
 30
0.0
 11
9419.213011273894
 21
6924.422404093454
 31
0.0
  0
LINE
  5
21257
330
1DAF3
100
AcDbEntity
  8
寸法
 62
     0
 48
50.0
370
    -2
100
AcDbLine
 10
9539.213011273897
 20
6984.422404093454
 30
0.0
 11
9419.213011273894
 21
6984.422404093454
 31
0.0
  0
LINE
  5
21258
330
1DAF3
100
AcDbEntity
  8
寸法
 62
     0
 48
50.0
370
    -2
100
AcDbLine
 10
9911.307499462873
 20
6984.422404093454
 30
0.0
 11
9539.213011273897
 21
6984.422404093454
 31
0.0
  0
MTEXT
  5
21259
330
1DAF3
100
AcDbEntity
  8
寸法
 62
     7
 48
50.0
100
AcDbMText
 10
9775.260255368385
 20
7084.434215117075
 30
0.0
 40
120.0
 41
0.0
 71
     5
 72
     1
  1
\A1;120
  7
STYLE1
 73
     1
 44
1.0
1001
ACAD
1000
MTEXTBEGIN
1070
    73
1070
     1
1070
    44
1040
1.0
1070
    74
1070
     0
1000
MTEXTEND
  0
INSERT
  5
2125A
330
1DAF3
100
AcDbEntity
  8
寸法
 62
     0
 48
50.0
370
    -2
100
AcDbBlockReference
  2
_DOTSMALL
 10
9539.213011273897
 20
6984.422404093454
 30
0.0
 41
100.0
 42
100.0
 43
100.0
  0
INSERT
  5
2125B
330
1DAF3
100
AcDbEntity
  8
寸法
 62
     0
 48
50.0
370
    -2
100
AcDbBlockReference
  2
_DOTSMALL
 10
9419.213011273894
 20
6984.422404093454
 30
0.0
 41
100.0
 42
100.0
 43
100.0
 50
180.0
  0
POINT
  5
2125C
330
1DAF3
100
AcDbEntity
  8
DEFPOINTS
 62
     0
 48
50.0
100
AcDbPoint
 10
9539.213011273897
 20
7042.919036112869
 30
0.0
  0
POINT
  5
2125D
330
1DAF3
100
AcDbEntity
  8
DEFPOINTS
 62
     0
 48
50.0
100
AcDbPoint
 10
9419.213011273894
 20
7077.560052264249
 30
0.0
  0
POINT
  5
2125E
330
1DAF3
100
AcDbEntity
  8
DEFPOINTS
 62
     0
 48
50.0
100
AcDbPoint
 10
9419.213011273894
 20
6984.422404093454
 30
0.0
  0
ENDBLK
  5
1DAFF
330
1DAF3
100
AcDbEntity
  8
0
 48
50.0
100
AcDbBlockEnd
  0
BLOCK
  5
1DB0B
330
1DB00
100
AcDbEntity
  8
0
 48
50.0
100
AcDbBlockBegin
  2
*D16
 70
     1
 10
0.0
 20
0.0
 30
0.0
  3
*D16
  1

  0
LINE
  5
2124B
330
1DB00
100
AcDbEntity
  8
寸法
 62
     0
 48
50.0
370
    -2
100
AcDbLine
 10
6729.213011273896
 20
7402.919036112862
 30
0.0
 11
6999.72319518692
 21
7402.919036112862
 31
0.0
  0
LINE
  5
2124C
330
1DB00
100
AcDbEntity
  8
寸法
 62
     0
 48
50.0
370
    -2
100
AcDbLine
 10
6729.213011273896
 20
7292.919036112856
 30
0.0
 11
6999.72319518692
 21
7292.919036112856
 31
0.0
  0
LINE
  5
2124D
330
1DB00
100
AcDbEntity
  8
寸法
 62
     0
 48
50.0
370
    -2
100
AcDbLine
 10
6939.72319518692
 20
7402.919036112862
 30
0.0
 11
6939.72319518692
 21
7292.919036112856
 31
0.0
  0
LINE
  5
2124E
330
1DB00
100
AcDbEntity
  8
寸法
 62
     0
 48
50.0
370
    -2
100
AcDbLine
 10
6939.72319518692
 20
6930.551083440443
 30
0.0
 11
6939.72319518692
 21
7292.919036112856
 31
0.0
  0
MTEXT
  5
2124F
330
1DB00
100
AcDbEntity
  8
寸法
 62
     7
 48
50.0
100
AcDbMText
 10
6839.723195186919
 20
7054.598327534932
 30
0.0
 40
120.0
 41
0.0
 71
     5
 72
     1
  1
\A1;110
  7
STYLE1
 11
0.0000000000000001
 21
1.0
 31
0.0
 73
     1
 44
1.0
1001
ACAD
1000
MTEXTBEGIN
1070
    73
1070
     1
1070
    44
1040
1.0
1070
    74
1070
     0
1000
MTEXTEND
  0
INSERT
  5
21250
330
1DB00
100
AcDbEntity
  8
寸法
 62
     0
 48
50.0
370
    -2
100
AcDbBlockReference
  2
_DOTSMALL
 10
6939.72319518692
 20
7402.919036112862
 30
0.0
 41
100.0
 42
100.0
 43
100.0
 50
90.0
  0
INSERT
  5
21251
330
1DB00
100
AcDbEntity
  8
寸法
 62
     0
 48
50.0
370
    -2
100
AcDbBlockReference
  2
_DOTSMALL
 10
6939.72319518692
 20
7292.919036112856
 30
0.0
 41
100.0
 42
100.0
 43
100.0
 50
270.0
  0
POINT
  5
21252
330
1DB00
100
AcDbEntity
  8
DEFPOINTS
 62
     0
 48
50.0
100
AcDbPoint
 10
6709.213011273895
 20
7402.919036112862
 30
0.0
  0
POINT
  5
21253
330
1DB00
100
AcDbEntity
  8
DEFPOINTS
 62
     0
 48
50.0
100
AcDbPoint
 10
6709.213011273895
 20
7292.919036112856
 30
0.0
  0
POINT
  5
21254
330
1DB00
100
AcDbEntity
  8
DEFPOINTS
 62
     0
 48
50.0
100
AcDbPoint
 10
6939.72319518692
 20
7292.919036112856
 30
0.0
  0
ENDBLK
  5
1DB0C
330
1DB00
100
AcDbEntity
  8
0
 48
50.0
100
AcDbBlockEnd
  0
BLOCK
  5
1DB25
330
1DB1A
100
AcDbEntity
  8
0
 48
50.0
100
AcDbBlockBegin
  2
*D17
 70
     1
 10
0.0
 20
0.0
 30
0.0
  3
*D17
  1

  0
LINE
  5
21241
330
1DB1A
100
AcDbEntity
  8
寸法
 62
     0
 48
50.0
370
    -2
100
AcDbLine
 10
6701.213011273896
 20
7522.919036112859
 30
0.0
 11
6999.72319518692
 21
7522.919036112859
 31
0.0
  0
LINE
  5
21242
330
1DB1A
100
AcDbEntity
  8
寸法
 62
     0
 48
50.0
370
    -2
100
AcDbLine
 10
6729.213011273896
 20
7402.919036112862
 30
0.0
 11
6999.72319518692
 21
7402.919036112862
 31
0.0
  0
LINE
  5
21243
330
1DB1A
100
AcDbEntity
  8
寸法
 62
     0
 48
50.0
370
    -2
100
AcDbLine
 10
6939.723195186918
 20
7522.919036112859
 30
0.0
 11
6939.723195186918
 21
7402.919036112862
 31
0.0
  0
LINE
  5
21244
330
1DB1A
100
AcDbEntity
  8
寸法
 62
     0
 48
50.0
370
    -2
100
AcDbLine
 10
6939.723195186918
 20
7895.013524301837
 30
0.0
 11
6939.723195186918
 21
7522.919036112859
 31
0.0
  0
MTEXT
  5
21245
330
1DB1A
100
AcDbEntity
  8
寸法
 62
     7
 48
50.0
100
AcDbMText
 10
6839.711384163296
 20
7758.96628020735
 30
0.0
 40
120.0
 41
0.0
 71
     5
 72
     1
  1
\A1;120
  7
STYLE1
 11
0.0000000000000001
 21
1.0
 31
0.0
 73
     1
 44
1.0
1001
ACAD
1000
MTEXTBEGIN
1070
    73
1070
     1
1070
    44
1040
1.0
1070
    74
1070
     0
1000
MTEXTEND
  0
INSERT
  5
21246
330
1DB1A
100
AcDbEntity
  8
寸法
 62
     0
 48
50.0
370
    -2
100
AcDbBlockReference
  2
_DOTSMALL
 10
6939.723195186918
 20
7522.919036112859
 30
0.0
 41
100.0
 42
100.0
 43
100.0
 50
90.0
  0
INSERT
  5
21247
330
1DB1A
100
AcDbEntity
  8
寸法
 62
     0
 48
50.0
370
    -2
100
AcDbBlockReference
  2
_DOTSMALL
 10
6939.723195186918
 20
7402.919036112862
 30
0.0
 41
100.0
 42
100.0
 43
100.0
 50
270.0
  0
POINT
  5
21248
330
1DB1A
100
AcDbEntity
  8
DEFPOINTS
 62
     0
 48
50.0
100
AcDbPoint
 10
6681.213011273896
 20
7522.919036112859
 30
0.0
  0
POINT
  5
21249
330
1DB1A
100
AcDbEntity
  8
DEFPOINTS
 62
     0
 48
50.0
100
AcDbPoint
 10
6709.213011273895
 20
7402.919036112862
 30
0.0
  0
POINT
  5
2124A
330
1DB1A
100
AcDbEntity
  8
DEFPOINTS
 62
     0
 48
50.0
100
AcDbPoint
 10
6939.723195186918
 20
7402.919036112862
 30
0.0
  0
ENDBLK
  5
1DB26
330
1DB1A
100
AcDbEntity
  8
0
 48
50.0
100
AcDbBlockEnd
  0
BLOCK
  5
1E9D9
330
1E9D0
100
AcDbEntity
  8
0
 48
50.0
100
AcDbBlockBegin
  2
*D18
 70
     1
 10
0.0
 20
0.0
 30
0.0
  3
*D18
  1

  0
LINE
  5
21238
330
1E9D0
100
AcDbEntity
  8
寸法
 62
     0
 48
50.0
370
    -2
100
AcDbLine
 10
8805.713011273898
 20
6622.919036112868
 30
0.0
 11
8991.087028824596
 21
6622.919036112868
 31
0.0
  0
LINE
  5
21239
330
1E9D0
100
AcDbEntity
  8
寸法
 62
     0
 48
50.0
370
    -2
100
AcDbLine
 10
8896.713011273908
 20
7522.919036112863
 30
0.0
 11
8991.087028824596
 21
7522.919036112863
 31
0.0
  0
LINE
  5
2123A
330
1E9D0
100
AcDbEntity
  8
寸法
 62
     0
 48
50.0
370
    -2
100
AcDbLine
 10
8931.087028824595
 20
6622.919036112868
 30
0.0
 11
8931.087028824595
 21
7522.919036112863
 31
0.0
  0
INSERT
  5
2123B
330
1E9D0
100
AcDbEntity
  8
寸法
 62
     0
 48
50.0
370
    -2
100
AcDbBlockReference
  2
_DOTSMALL
 10
8931.087028824595
 20
6622.919036112868
 30
0.0
 41
100.0
 42
100.0
 43
100.0
 50
270.0
  0
INSERT
  5
2123C
330
1E9D0
100
AcDbEntity
  8
寸法
 62
     0
 48
50.0
370
    -2
100
AcDbBlockReference
  2
_DOTSMALL
 10
8931.087028824595
 20
7522.919036112863
 30
0.0
 41
100.0
 42
100.0
 43
100.0
 50
90.0
  0
MTEXT
  5
2123D
330
1E9D0
100
AcDbEntity
  8
寸法
 62
     7
 48
50.0
100
AcDbMText
 10
8831.087028824594
 20
7072.919036112867
 30
0.0
 40
120.0
 41
0.0
 71
     5
 72
     1
  1
\A1;900
  7
STYLE1
 11
0.0000000000000001
 21
1.0
 31
0.0
 73
     1
 44
1.0
1001
ACAD
1000
MTEXTBEGIN
1070
    73
1070
     1
1070
    44
1040
1.0
1070
    74
1070
     0
1000
MTEXTEND
  0
POINT
  5
2123E
330
1E9D0
100
AcDbEntity
  8
DEFPOINTS
 62
     0
 48
50.0
100
AcDbPoint
 10
8785.713011273898
 20
6622.919036112868
 30
0.0
  0
POINT
  5
2123F
330
1E9D0
100
AcDbEntity
  8
DEFPOINTS
 62
     0
 48
50.0
100
AcDbPoint
 10
8876.713011273906
 20
7522.919036112863
 30
0.0
  0
POINT
  5
21240
330
1E9D0
100
AcDbEntity
  8
DEFPOINTS
 62
     0
 48
50.0
100
AcDbPoint
 10
8931.087028824595
 20
7522.919036112863
 30
0.0
  0
ENDBLK
  5
1E9DA
330
1E9D0
100
AcDbEntity
  8
0
 48
50.0
100
AcDbBlockEnd
  0
BLOCK
  5
1EA3C
330
1EA32
100
AcDbEntity
  8
0
 48
50.0
100
AcDbBlockBegin
  2
*D19
 70
     1
 10
0.0
 20
0.0
 30
0.0
  3
*D19
  1

  0
LINE
  5
2122F
330
1EA32
100
AcDbEntity
  8
寸法
 62
     0
 48
50.0
370
    -2
100
AcDbLine
 10
8896.713011273908
 20
5722.919036112869
 30
0.0
 11
8991.087028824606
 21
5722.919036112869
 31
0.0
  0
LINE
  5
21230
330
1EA32
100
AcDbEntity
  8
寸法
 62
     0
 48
50.0
370
    -2
100
AcDbLine
 10
8805.713011273898
 20
6622.919036112868
 30
0.0
 11
8991.087028824606
 21
6622.919036112868
 31
0.0
  0
LINE
  5
21231
330
1EA32
100
AcDbEntity
  8
寸法
 62
     0
 48
50.0
370
    -2
100
AcDbLine
 10
8931.087028824606
 20
5722.919036112869
 30
0.0
 11
8931.087028824606
 21
6622.919036112868
 31
0.0
  0
MTEXT
  5
21232
330
1EA32
100
AcDbEntity
  8
寸法
 62
     7
 48
50.0
100
AcDbMText
 10
8837.557571339553
 20
6104.500182931486
 30
0.0
 40
120.0
 41
0.0
 71
     5
 72
     1
  1
\A1;900
  7
STYLE1
 11
0.0000000000000001
 21
1.0
 31
0.0
 73
     1
 44
1.0
1001
ACAD
1000
MTEXTBEGIN
1070
    73
1070
     1
1070
    44
1040
1.0
1070
    74
1070
     0
1000
MTEXTEND
  0
INSERT
  5
21233
330
1EA32
100
AcDbEntity
  8
寸法
 62
     0
 48
50.0
370
    -2
100
AcDbBlockReference
  2
_DOTSMALL
 10
8931.087028824606
 20
5722.919036112869
 30
0.0
 41
100.0
 42
100.0
 43
100.0
 50
270.0
  0
INSERT
  5
21234
330
1EA32
100
AcDbEntity
  8
寸法
 62
     0
 48
50.0
370
    -2
100
AcDbBlockReference
  2
_DOTSMALL
 10
8931.087028824606
 20
6622.919036112868
 30
0.0
 41
100.0
 42
100.0
 43
100.0
 50
90.0
  0
POINT
  5
21235
330
1EA32
100
AcDbEntity
  8
DEFPOINTS
 62
     0
 48
50.0
100
AcDbPoint
 10
8876.713011273906
 20
5722.919036112869
 30
0.0
  0
POINT
  5
21236
330
1EA32
100
AcDbEntity
  8
DEFPOINTS
 62
     0
 48
50.0
100
AcDbPoint
 10
8785.713011273898
 20
6622.919036112868
 30
0.0
  0
POINT
  5
21237
330
1EA32
100
AcDbEntity
  8
DEFPOINTS
 62
     0
 48
50.0
100
AcDbPoint
 10
8931.087028824606
 20
6622.919036112868
 30
0.0
  0
ENDBLK
  5
1EA3D
330
1EA32
100
AcDbEntity
  8
0
 48
50.0
100
AcDbBlockEnd
  0
BLOCK
  5
1F253
330
1F24A
100
AcDbEntity
  8
0
 48
50.0
100
AcDbBlockBegin
  2
*D20
 70
     1
 10
0.0
 20
0.0
 30
0.0
  3
*D20
  1

  0
LINE
  5
2121D
330
1F24A
100
AcDbEntity
  8
寸法
 62
     0
 48
50.0
370
    -2
100
AcDbLine
 10
7282.213011273897
 20
6842.919036112869
 30
0.0
 11
7282.213011273897
 21
8109.828801761191
 31
0.0
  0
LINE
  5
2121E
330
1F24A
100
AcDbEntity
  8
寸法
 62
     0
 48
50.0
370
    -2
100
AcDbLine
 10
6479.213011273895
 20
7542.919036112862
 30
0.0
 11
6479.213011273895
 21
8109.828801761191
 31
0.0
  0
LINE
  5
2121F
330
1F24A
100
AcDbEntity
  8
寸法
 62
     0
 48
50.0
370
    -2
100
AcDbLine
 10
7282.213011273897
 20
8049.82880176119
 30
0.0
 11
6479.213011273895
 21
8049.82880176119
 31
0.0
  0
INSERT
  5
21220
330
1F24A
100
AcDbEntity
  8
寸法
 62
     0
 48
50.0
370
    -2
100
AcDbBlockReference
  2
_DOTSMALL
 10
7282.213011273897
 20
8049.82880176119
 30
0.0
 41
100.0
 42
100.0
 43
100.0
  0
INSERT
  5
21221
330
1F24A
100
AcDbEntity
  8
寸法
 62
     0
 48
50.0
370
    -2
100
AcDbBlockReference
  2
_DOTSMALL
 10
6479.213011273895
 20
8049.82880176119
 30
0.0
 41
100.0
 42
100.0
 43
100.0
 50
180.0
  0
MTEXT
  5
21222
330
1F24A
100
AcDbEntity
  8
寸法
 62
     7
 48
50.0
100
AcDbMText
 10
6880.713011273896
 20
8149.82880176119
 30
0.0
 40
120.0
 41
0.0
 71
     5
 72
     1
  1
\A1;803
  7
STYLE1
 73
     1
 44
1.0
1001
ACAD
1000
MTEXTBEGIN
1070
    73
1070
     1
1070
    44
1040
1.0
1070
    74
1070
     0
1000
MTEXTEND
  0
POINT
  5
21223
330
1F24A
100
AcDbEntity
  8
DEFPOINTS
 62
     0
 48
50.0
100
AcDbPoint
 10
7282.213011273897
 20
6822.91903611287
 30
0.0
  0
POINT
  5
21224
330
1F24A
100
AcDbEntity
  8
DEFPOINTS
 62
     0
 48
50.0
100
AcDbPoint
 10
6479.213011273895
 20
7522.919036112863
 30
0.0
  0
POINT
  5
21225
330
1F24A
100
AcDbEntity
  8
DEFPOINTS
 62
     0
 48
50.0
100
AcDbPoint
 10
6479.213011273895
 20
8049.82880176119
 30
0.0
  0
ENDBLK
  5
1F254
330
1F24A
100
AcDbEntity
  8
0
 48
50.0
100
AcDbBlockEnd
  0
BLOCK
  5
1F25F
330
1F255
100
AcDbEntity
  8
0
 48
50.0
100
AcDbBlockBegin
  2
*D21
 70
     1
 10
0.0
 20
0.0
 30
0.0
  3
*D21
  1

  0
LINE
  5
21226
330
1F255
100
AcDbEntity
  8
寸法
 62
     0
 48
50.0
370
    -2
100
AcDbLine
 10
9539.213011273892
 20
7542.919036112862
 30
0.0
 11
9539.213011273892
 21
8109.828801761191
 31
0.0
  0
LINE
  5
21227
330
1F255
100
AcDbEntity
  8
寸法
 62
     0
 48
50.0
370
    -2
100
AcDbLine
 10
8736.213011273896
 20
6842.919036112869
 30
0.0
 11
8736.213011273896
 21
8109.828801761191
 31
0.0
  0
LINE
  5
21228
330
1F255
100
AcDbEntity
  8
寸法
 62
     0
 48
50.0
370
    -2
100
AcDbLine
 10
9539.213011273892
 20
8049.82880176119
 30
0.0
 11
8736.213011273896
 21
8049.82880176119
 31
0.0
  0
MTEXT
  5
21229
330
1F255
100
AcDbEntity
  8
寸法
 62
     7
 48
50.0
100
AcDbMText
 10
9115.983146456347
 20
8148.090767068199
 30
0.0
 40
120.0
 41
0.0
 71
     5
 72
     1
  1
\A1;803
  7
STYLE1
 73
     1
 44
1.0
1001
ACAD
1000
MTEXTBEGIN
1070
    73
1070
     1
1070
    44
1040
1.0
1070
    74
1070
     0
1000
MTEXTEND
  0
INSERT
  5
2122A
330
1F255
100
AcDbEntity
  8
寸法
 62
     0
 48
50.0
370
    -2
100
AcDbBlockReference
  2
_DOTSMALL
 10
9539.213011273892
 20
8049.82880176119
 30
0.0
 41
100.0
 42
100.0
 43
100.0
  0
INSERT
  5
2122B
330
1F255
100
AcDbEntity
  8
寸法
 62
     0
 48
50.0
370
    -2
100
AcDbBlockReference
  2
_DOTSMALL
 10
8736.213011273896
 20
8049.82880176119
 30
0.0
 41
100.0
 42
100.0
 43
100.0
 50
180.0
  0
POINT
  5
2122C
330
1F255
100
AcDbEntity
  8
DEFPOINTS
 62
     0
 48
50.0
100
AcDbPoint
 10
9539.213011273892
 20
7522.919036112863
 30
0.0
  0
POINT
  5
2122D
330
1F255
100
AcDbEntity
  8
DEFPOINTS
 62
     0
 48
50.0
100
AcDbPoint
 10
8736.213011273896
 20
6822.919036112868
 30
0.0
  0
POINT
  5
2122E
330
1F255
100
AcDbEntity
  8
DEFPOINTS
 62
     0
 48
50.0
100
AcDbPoint
 10
8736.213011273896
 20
8049.82880176119
 30
0.0
  0
ENDBLK
  5
1F260
330
1F255
100
AcDbEntity
  8
0
 48
50.0
100
AcDbBlockEnd
  0
BLOCK
  5
1FE56
330
1FE4C
100
AcDbEntity
  8
0
 48
50.0
100
AcDbBlockBegin
  2
*D22
 70
     1
 10
0.0
 20
0.0
 30
0.0
  3
*D22
  1

  0
LINE
  5
21214
330
1FE4C
100
AcDbEntity
  8
寸法
 62
     0
 48
50.0
370
    -2
100
AcDbLine
 10
8009.213011273896
 20
6842.919036112869
 30
0.0
 11
8009.213011273896
 21
8109.828801761191
 31
0.0
  0
LINE
  5
21215
330
1FE4C
100
AcDbEntity
  8
寸法
 62
     0
 48
50.0
370
    -2
100
AcDbLine
 10
8736.213011273896
 20
6842.919036112869
 30
0.0
 11
8736.213011273896
 21
8109.828801761191
 31
0.0
  0
LINE
  5
21216
330
1FE4C
100
AcDbEntity
  8
寸法
 62
     0
 48
50.0
370
    -2
100
AcDbLine
 10
8009.213011273896
 20
8049.82880176119
 30
0.0
 11
8736.213011273896
 21
8049.82880176119
 31
0.0
  0
INSERT
  5
21217
330
1FE4C
100
AcDbEntity
  8
寸法
 62
     0
 48
50.0
370
    -2
100
AcDbBlockReference
  2
_DOTSMALL
 10
8009.213011273896
 20
8049.82880176119
 30
0.0
 41
100.0
 42
100.0
 43
100.0
 50
180.0
  0
INSERT
  5
21218
330
1FE4C
100
AcDbEntity
  8
寸法
 62
     0
 48
50.0
370
    -2
100
AcDbBlockReference
  2
_DOTSMALL
 10
8736.213011273896
 20
8049.82880176119
 30
0.0
 41
100.0
 42
100.0
 43
100.0
  0
MTEXT
  5
21219
330
1FE4C
100
AcDbEntity
  8
寸法
 62
     7
 48
50.0
100
AcDbMText
 10
8372.713011273896
 20
8149.840612784812
 30
0.0
 40
120.0
 41
0.0
 71
     5
 72
     1
  1
\A1;727
  7
STYLE1
 73
     1
 44
1.0
1001
ACAD
1000
MTEXTBEGIN
1070
    73
1070
     1
1070
    44
1040
1.0
1070
    74
1070
     0
1000
MTEXTEND
  0
POINT
  5
2121A
330
1FE4C
100
AcDbEntity
  8
DEFPOINTS
 62
     0
 48
50.0
100
AcDbPoint
 10
8009.213011273896
 20
6822.91903611287
 30
0.0
  0
POINT
  5
2121B
330
1FE4C
100
AcDbEntity
  8
DEFPOINTS
 62
     0
 48
50.0
100
AcDbPoint
 10
8736.213011273896
 20
6822.919036112868
 30
0.0
  0
POINT
  5
2121C
330
1FE4C
100
AcDbEntity
  8
DEFPOINTS
 62
     0
 48
50.0
100
AcDbPoint
 10
8736.213011273896
 20
8049.82880176119
 30
0.0
  0
ENDBLK
  5
1FE57
330
1FE4C
100
AcDbEntity
  8
0
 48
50.0
100
AcDbBlockEnd
  0
BLOCK
  5
20D5B
330
20D51
100
AcDbEntity
  8
0
 48
50.0
100
AcDbBlockBegin
  2
*D23
 70
     1
 10
0.0
 20
0.0
 30
0.0
  3
*D23
  1

  0
LINE
  5
2120B
330
20D51
100
AcDbEntity
  8
寸法
 62
     0
 48
50.0
370
    -2
100
AcDbLine
 10
7282.213011273897
 20
6842.919036112869
 30
0.0
 11
7282.213011273897
 21
8109.828801761191
 31
0.0
  0
LINE
  5
2120C
330
20D51
100
AcDbEntity
  8
寸法
 62
     0
 48
50.0
370
    -2
100
AcDbLine
 10
8009.213011273898
 20
6842.919036112869
 30
0.0
 11
8009.213011273898
 21
8109.828801761191
 31
0.0
  0
LINE
  5
2120D
330
20D51
100
AcDbEntity
  8
寸法
 62
     0
 48
50.0
370
    -2
100
AcDbLine
 10
7282.213011273897
 20
8049.82880176119
 30
0.0
 11
8009.213011273898
 21
8049.82880176119
 31
0.0
  0
INSERT
  5
2120E
330
20D51
100
AcDbEntity
  8
寸法
 62
     0
 48
50.0
370
    -2
100
AcDbBlockReference
  2
_DOTSMALL
 10
7282.213011273897
 20
8049.82880176119
 30
0.0
 41
100.0
 42
100.0
 43
100.0
 50
180.0
  0
INSERT
  5
2120F
330
20D51
100
AcDbEntity
  8
寸法
 62
     0
 48
50.0
370
    -2
100
AcDbBlockReference
  2
_DOTSMALL
 10
8009.213011273898
 20
8049.82880176119
 30
0.0
 41
100.0
 42
100.0
 43
100.0
  0
MTEXT
  5
21210
330
20D51
100
AcDbEntity
  8
寸法
 62
     7
 48
50.0
100
AcDbMText
 10
7645.713011273897
 20
8149.840612784812
 30
0.0
 40
120.0
 41
0.0
 71
     5
 72
     1
  1
\A1;727
  7
STYLE1
 73
     1
 44
1.0
1001
ACAD
1000
MTEXTBEGIN
1070
    73
1070
     1
1070
    44
1040
1.0
1070
    74
1070
     0
1000
MTEXTEND
  0
POINT
  5
21211
330
20D51
100
AcDbEntity
  8
DEFPOINTS
 62
     0
 48
50.0
100
AcDbPoint
 10
7282.213011273897
 20
6822.91903611287
 30
0.0
  0
POINT
  5
21212
330
20D51
100
AcDbEntity
  8
DEFPOINTS
 62
     0
 48
50.0
100
AcDbPoint
 10
8009.213011273898
 20
6822.919036112868
 30
0.0
  0
POINT
  5
21213
330
20D51
100
AcDbEntity
  8
DEFPOINTS
 62
     0
 48
50.0
100
AcDbPoint
 10
8009.213011273898
 20
8049.82880176119
 30
0.0
  0
ENDBLK
  5
20D5C
330
20D51
100
AcDbEntity
  8
0
 48
50.0
100
AcDbBlockEnd
  0
BLOCK
  5
212F5
330
212E9
100
AcDbEntity
  8
0
 48
50.0
100
AcDbBlockBegin
  2
*D30
 70
     1
 10
0.0
 20
0.0
 30
0.0
  3
*D30
  1

  0
LINE
  5
21315
330
212E9
100
AcDbEntity
  8
寸法
 62
     0
 48
50.0
370
    -2
100
AcDbLine
 10
9309.213011273895
 20
7272.919036112859
 30
0.0
 11
9309.213011273895
 21
6924.422404093454
 31
0.0
  0
LINE
  5
21316
330
212E9
100
AcDbEntity
  8
寸法
 62
     0
 48
50.0
370
    -2
100
AcDbLine
 10
9419.213011273894
 20
7272.919036112863
 30
0.0
 11
9419.213011273894
 21
6924.422404093454
 31
0.0
  0
LINE
  5
21317
330
212E9
100
AcDbEntity
  8
寸法
 62
     0
 48
50.0
370
    -2
100
AcDbLine
 10
9419.213011273894
 20
6984.422404093454
 30
0.0
 11
9309.213011273895
 21
6984.422404093454
 31
0.0
  0
LINE
  5
21318
330
212E9
100
AcDbEntity
  8
寸法
 62
     0
 48
50.0
370
    -2
100
AcDbLine
 10
9309.213011273895
 20
6984.422404093454
 30
0.0
 11
8961.118523084918
 21
6984.422404093454
 31
0.0
  0
INSERT
  5
21319
330
212E9
100
AcDbEntity
  8
寸法
 62
     0
 48
50.0
370
    -2
100
AcDbBlockReference
  2
_DOTSMALL
 10
9419.213011273894
 20
6984.422404093454
 30
0.0
 41
100.0
 42
100.0
 43
100.0
  0
INSERT
  5
2131A
330
212E9
100
AcDbEntity
  8
寸法
 62
     0
 48
50.0
370
    -2
100
AcDbBlockReference
  2
_DOTSMALL
 10
9309.213011273895
 20
6984.422404093454
 30
0.0
 41
100.0
 42
100.0
 43
100.0
 50
180.0
  0
MTEXT
  5
2131B
330
212E9
100
AcDbEntity
  8
寸法
 62
     7
 48
50.0
100
AcDbMText
 10
9085.165767179407
 20
7084.422404093453
 30
0.0
 40
120.0
 41
0.0
 71
     5
 72
     1
  1
\A1;110
  7
STYLE1
 73
     1
 44
1.0
1001
ACAD
1000
MTEXTBEGIN
1070
    73
1070
     1
1070
    44
1040
1.0
1070
    74
1070
     0
1000
MTEXTEND
  0
POINT
  5
2131C
330
212E9
100
AcDbEntity
  8
DEFPOINTS
 62
     0
 48
50.0
100
AcDbPoint
 10
9309.213011273895
 20
7292.919036112859
 30
0.0
  0
POINT
  5
2131D
330
212E9
100
AcDbEntity
  8
DEFPOINTS
 62
     0
 48
50.0
100
AcDbPoint
 10
9419.213011273894
 20
7292.919036112862
 30
0.0
  0
POINT
  5
2131E
330
212E9
100
AcDbEntity
  8
DEFPOINTS
 62
     0
 48
50.0
100
AcDbPoint
 10
9419.213011273894
 20
6984.422404093454
 30
0.0
  0
ENDBLK
  5
212F6
330
212E9
100
AcDbEntity
  8
0
 48
50.0
100
AcDbBlockEnd
  0
BLOCK
  5
21605
330
215FB
100
AcDbEntity
  8
0
 48
50.0
100
AcDbBlockBegin
  2
*D37
 70
     1
 10
0.0
 20
0.0
 30
0.0
  3
*D37
  1

  0
LINE
  5
21648
330
215FB
100
AcDbEntity
  8
寸法
 62
     0
 48
50.0
370
    -2
100
AcDbLine
 10
5380.72826382735
 20
2185.244356152147
 30
0.0
 11
4580.083325791286
 21
2185.244356152147
 31
0.0
  0
LINE
  5
21649
330
215FB
100
AcDbEntity
  8
寸法
 62
     0
 48
50.0
370
    -2
100
AcDbLine
 10
5120.728263827354
 20
1205.244356152146
 30
0.0
 11
4580.083325791285
 21
1205.244356152146
 31
0.0
  0
LINE
  5
2164A
330
215FB
100
AcDbEntity
  8
寸法
 62
     0
 48
50.0
370
    -2
100
AcDbLine
 10
4640.083325791287
 20
2185.244356152147
 30
0.0
 11
4640.083325791286
 21
1205.244356152146
 31
0.0
  0
MTEXT
  5
2164B
330
215FB
100
AcDbEntity
  8
寸法
 62
     7
 48
50.0
100
AcDbMText
 10
4540.083325791285
 20
1695.244356152146
 30
0.0
 40
120.0
 41
0.0
 71
     5
 72
     1
  1
\A1;540
  7
STYLE1
 11
0.0000000000000001
 21
1.0
 31
0.0
 73
     1
 44
1.0
1001
ACAD
1000
MTEXTBEGIN
1070
    73
1070
     1
1070
    44
1040
1.0
1070
    74
1070
     0
1000
MTEXTEND
  0
INSERT
  5
2164C
330
215FB
100
AcDbEntity
  8
寸法
 62
     0
 48
50.0
370
    -2
100
AcDbBlockReference
  2
_DOTSMALL
 10
4640.083325791287
 20
2185.244356152147
 30
0.0
 41
100.0
 42
100.0
 43
100.0
 50
90.0
  0
INSERT
  5
2164D
330
215FB
100
AcDbEntity
  8
寸法
 62
     0
 48
50.0
370
    -2
100
AcDbBlockReference
  2
_DOTSMALL
 10
4640.083325791286
 20
1205.244356152146
 30
0.0
 41
100.0
 42
100.0
 43
100.0
 50
270.0
  0
POINT
  5
2164E
330
215FB
100
AcDbEntity
  8
DEFPOINTS
 62
     0
 48
50.0
100
AcDbPoint
 10
5400.72826382735
 20
2185.244356152147
 30
0.0
  0
POINT
  5
2164F
330
215FB
100
AcDbEntity
  8
DEFPOINTS
 62
     0
 48
50.0
100
AcDbPoint
 10
5140.728263827353
 20
1205.244356152146
 30
0.0
  0
POINT
  5
21650
330
215FB
100
AcDbEntity
  8
DEFPOINTS
 62
     0
 48
50.0
100
AcDbPoint
 10
4640.083325791286
 20
1205.244356152146
 30
0.0
  0
ENDBLK
  5
21606
330
215FB
100
AcDbEntity
  8
0
 48
50.0
100
AcDbBlockEnd
  0
BLOCK
  5
21611
330
21607
100
AcDbEntity
  8
0
 48
50.0
100
AcDbBlockBegin
  2
*D38
 70
     1
 10
0.0
 20
0.0
 30
0.0
  3
*D38
  1

  0
LINE
  5
21651
330
21607
100
AcDbEntity
  8
寸法
 62
     0
 48
50.0
370
    -2
100
AcDbLine
 10
5220.72826382735
 20
1505.244356152145
 30
0.0
 11
5002.702871661774
 21
1505.244356152145
 31
0.0
  0
LINE
  5
21652
330
21607
100
AcDbEntity
  8
寸法
 62
     0
 48
50.0
370
    -2
100
AcDbLine
 10
5120.728263827354
 20
1205.244356152146
 30
0.0
 11
5002.702871661774
 21
1205.244356152146
 31
0.0
  0
LINE
  5
21653
330
21607
100
AcDbEntity
  8
寸法
 62
     0
 48
50.0
370
    -2
100
AcDbLine
 10
5062.702871661775
 20
1505.244356152145
 30
0.0
 11
5062.702871661775
 21
1205.244356152146
 31
0.0
  0
MTEXT
  5
21654
330
21607
100
AcDbEntity
  8
寸法
 62
     7
 48
50.0
100
AcDbMText
 10
4962.702871661775
 20
1355.244356152145
 30
0.0
 40
120.0
 41
0.0
 71
     5
 72
     1
  1
\A1;150
  7
STYLE1
 11
0.0000000000000001
 21
1.0
 31
0.0
 73
     1
 44
1.0
1001
ACAD
1000
MTEXTBEGIN
1070
    73
1070
     1
1070
    44
1040
1.0
1070
    74
1070
     0
1000
MTEXTEND
  0
INSERT
  5
21655
330
21607
100
AcDbEntity
  8
寸法
 62
     0
 48
50.0
370
    -2
100
AcDbBlockReference
  2
_DOTSMALL
 10
5062.702871661775
 20
1505.244356152145
 30
0.0
 41
100.0
 42
100.0
 43
100.0
 50
90.0
  0
INSERT
  5
21656
330
21607
100
AcDbEntity
  8
寸法
 62
     0
 48
50.0
370
    -2
100
AcDbBlockReference
  2
_DOTSMALL
 10
5062.702871661775
 20
1205.244356152146
 30
0.0
 41
100.0
 42
100.0
 43
100.0
 50
270.0
  0
POINT
  5
21657
330
21607
100
AcDbEntity
  8
DEFPOINTS
 62
     0
 48
50.0
100
AcDbPoint
 10
5240.72826382735
 20
1505.244356152145
 30
0.0
  0
POINT
  5
21658
330
21607
100
AcDbEntity
  8
DEFPOINTS
 62
     0
 48
50.0
100
AcDbPoint
 10
5140.728263827353
 20
1205.244356152146
 30
0.0
  0
POINT
  5
21659
330
21607
100
AcDbEntity
  8
DEFPOINTS
 62
     0
 48
50.0
100
AcDbPoint
 10
5062.702871661775
 20
1205.244356152146
 30
0.0
  0
ENDBLK
  5
21612
330
21607
100
AcDbEntity
  8
0
 48
50.0
100
AcDbBlockEnd
  0
BLOCK
  5
2161D
330
21613
100
AcDbEntity
  8
0
 48
50.0
100
AcDbBlockBegin
  2
*D39
 70
     1
 10
0.0
 20
0.0
 30
0.0
  3
*D39
  1

  0
LINE
  5
2165A
330
21613
100
AcDbEntity
  8
寸法
 62
     0
 48
50.0
370
    -2
100
AcDbLine
 10
5640.728263827347
 20
2205.244356152147
 30
0.0
 11
5640.728263827347
 21
2645.244356152148
 31
0.0
  0
LINE
  5
2165B
330
21613
100
AcDbEntity
  8
寸法
 62
     0
 48
50.0
370
    -2
100
AcDbLine
 10
5400.72826382735
 20
2205.244356152147
 30
0.0
 11
5400.72826382735
 21
2645.244356152148
 31
0.0
  0
LINE
  5
2165C
330
21613
100
AcDbEntity
  8
寸法
 62
     0
 48
50.0
370
    -2
100
AcDbLine
 10
5640.728263827347
 20
2585.244356152147
 30
0.0
 11
5400.72826382735
 21
2585.244356152147
 31
0.0
  0
MTEXT
  5
2165D
330
21613
100
AcDbEntity
  8
寸法
 62
     7
 48
50.0
100
AcDbMText
 10
5534.761176758846
 20
2909.840927071245
 30
0.0
 40
120.0
 41
0.0
 71
     5
 72
     1
  1
\A1;120\P170
  7
STYLE1
 73
     1
 44
1.0
1001
ACAD
1000
MTEXTBEGIN
1070
    73
1070
     1
1070
    44
1040
1.0
1070
    74
1070
     0
1000
MTEXTEND
  0
INSERT
  5
2165E
330
21613
100
AcDbEntity
  8
寸法
 62
     0
 48
50.0
370
    -2
100
AcDbBlockReference
  2
_DOTSMALL
 10
5640.728263827347
 20
2585.244356152147
 30
0.0
 41
100.0
 42
100.0
 43
100.0
  0
INSERT
  5
2165F
330
21613
100
AcDbEntity
  8
寸法
 62
     0
 48
50.0
370
    -2
100
AcDbBlockReference
  2
_DOTSMALL
 10
5400.72826382735
 20
2585.244356152147
 30
0.0
 41
100.0
 42
100.0
 43
100.0
 50
180.0
  0
POINT
  5
21660
330
21613
100
AcDbEntity
  8
DEFPOINTS
 62
     0
 48
50.0
100
AcDbPoint
 10
5640.728263827347
 20
2185.244356152147
 30
0.0
  0
POINT
  5
21661
330
21613
100
AcDbEntity
  8
DEFPOINTS
 62
     0
 48
50.0
100
AcDbPoint
 10
5400.72826382735
 20
2185.244356152147
 30
0.0
  0
POINT
  5
21662
330
21613
100
AcDbEntity
  8
DEFPOINTS
 62
     0
 48
50.0
100
AcDbPoint
 10
5400.72826382735
 20
2585.244356152147
 30
0.0
  0
ENDBLK
  5
2161E
330
21613
100
AcDbEntity
  8
0
 48
50.0
100
AcDbBlockEnd
  0
BLOCK
  5
2162E
330
2161F
100
AcDbEntity
  8
0
 48
50.0
100
AcDbBlockBegin
  2
*D40
 70
     1
 10
0.0
 20
0.0
 30
0.0
  3
*D40
  1

  0
LINE
  5
21663
330
2161F
100
AcDbEntity
  8
寸法
 62
     0
 48
50.0
370
    -2
100
AcDbLine
 10
7829.27740529884
 20
2251.194356152148
 30
0.0
 11
8730.613155009896
 21
2251.194356152148
 31
0.0
  0
LINE
  5
21664
330
2161F
100
AcDbEntity
  8
寸法
 62
     0
 48
50.0
370
    -2
100
AcDbLine
 10
8063.27740529884
 20
2185.244356152147
 30
0.0
 11
8730.613155009896
 21
2185.244356152147
 31
0.0
  0
LINE
  5
21665
330
2161F
100
AcDbEntity
  8
寸法
 62
     0
 48
50.0
370
    -2
100
AcDbLine
 10
8670.613155009895
 20
2251.194356152148
 30
0.0
 11
8670.613155009895
 21
2351.194356152148
 31
0.0
  0
LINE
  5
21666
330
2161F
100
AcDbEntity
  8
寸法
 62
     0
 48
50.0
370
    -2
100
AcDbLine
 10
8670.613155009895
 20
2185.244356152147
 30
0.0
 11
8670.613155009895
 21
2085.244356152147
 31
0.0
  0
LINE
  5
21667
330
2161F
100
AcDbEntity
  8
寸法
 62
     0
 48
50.0
370
    -2
100
AcDbLine
 10
8670.613155009895
 20
2218.219356152147
 30
0.0
 11
9015.681487658682
 21
2193.839409146879
 31
0.0
  0
LINE
  5
21668
330
2161F
100
AcDbEntity
  8
寸法
 62
     0
 48
50.0
370
    -2
100
AcDbLine
 10
9015.681487658682
 20
2193.839409146879
 30
0.0
 11
9015.681487658682
 21
1661.821602303913
 31
0.0
  0
MTEXT
  5
21669
330
2161F
100
AcDbEntity
  8
寸法
 62
     7
 48
50.0
100
AcDbMText
 10
8915.66967663506
 20
1927.830505725397
 30
0.0
 40
120.0
 41
0.0
 71
     5
 72
     1
  1
\A1;20～25
  7
STYLE1
 11
0.0000000000000001
 21
1.0
 31
0.0
 73
     1
 44
1.0
1001
ACAD
1000
MTEXTBEGIN
1070
    73
1070
     1
1070
    44
1040
1.0
1070
    74
1070
     0
1000
MTEXTEND
  0
LINE
  5
2166A
330
2161F
100
AcDbEntity
  8
寸法
 62
     0
 48
50.0
370
    -2
100
AcDbLine
 10
8670.613155009895
 20
2251.194356152148
 30
0.0
 11
8670.613155009895
 21
2185.244356152147
 31
0.0
  0
LINE
  5
2166B
330
2161F
100
AcDbEntity
  8
寸法
 62
     0
 48
50.0
370
    -2
100
AcDbLine
 10
8670.613155009895
 20
2251.194356152148
 30
0.0
 11
8670.613155009895
 21
2185.244356152147
 31
0.0
  0
INSERT
  5
2166C
330
2161F
100
AcDbEntity
  8
寸法
 62
     0
 48
50.0
370
    -2
100
AcDbBlockReference
  2
_DOTSMALL
 10
8670.613155009895
 20
2251.194356152148
 30
0.0
 41
100.0
 42
100.0
 43
100.0
 50
270.0
  0
INSERT
  5
2166D
330
2161F
100
AcDbEntity
  8
寸法
 62
     0
 48
50.0
370
    -2
100
AcDbBlockReference
  2
_DOTSMALL
 10
8670.613155009895
 20
2185.244356152147
 30
0.0
 41
100.0
 42
100.0
 43
100.0
 50
90.0
  0
POINT
  5
2166E
330
2161F
100
AcDbEntity
  8
DEFPOINTS
 62
     0
 48
50.0
100
AcDbPoint
 10
7809.27740529884
 20
2251.194356152148
 30
0.0
  0
POINT
  5
2166F
330
2161F
100
AcDbEntity
  8
DEFPOINTS
 62
     0
 48
50.0
100
AcDbPoint
 10
8043.277405298841
 20
2185.244356152147
 30
0.0
  0
POINT
  5
21670
330
2161F
100
AcDbEntity
  8
DEFPOINTS
 62
     0
 48
50.0
100
AcDbPoint
 10
8670.613155009895
 20
2185.244356152147
 30
0.0
  0
ENDBLK
  5
2162F
330
2161F
100
AcDbEntity
  8
0
 48
50.0
100
AcDbBlockEnd
  0
BLOCK
  5
2163A
330
21630
100
AcDbEntity
  8
0
 48
50.0
100
AcDbBlockBegin
  2
*D41
 70
     1
 10
0.0
 20
0.0
 30
0.0
  3
*D41
  1

  0
LINE
  5
21671
330
21630
100
AcDbEntity
  8
寸法
 62
     0
 48
50.0
370
    -2
100
AcDbLine
 10
8063.27740529884
 20
2185.244356152147
 30
0.0
 11
8730.613155009896
 21
2185.244356152147
 31
0.0
  0
LINE
  5
21672
330
21630
100
AcDbEntity
  8
寸法
 62
     0
 48
50.0
370
    -2
100
AcDbLine
 10
8063.27740529884
 20
1780.244356152145
 30
0.0
 11
8730.613155009896
 21
1780.244356152144
 31
0.0
  0
LINE
  5
21673
330
21630
100
AcDbEntity
  8
寸法
 62
     0
 48
50.0
370
    -2
100
AcDbLine
 10
8670.613155009895
 20
2185.244356152147
 30
0.0
 11
8670.613155009895
 21
1780.244356152145
 31
0.0
  0
INSERT
  5
21674
330
21630
100
AcDbEntity
  8
寸法
 62
     0
 48
50.0
370
    -2
100
AcDbBlockReference
  2
_DOTSMALL
 10
8670.613155009895
 20
2185.244356152147
 30
0.0
 41
100.0
 42
100.0
 43
100.0
 50
90.0
  0
INSERT
  5
21675
330
21630
100
AcDbEntity
  8
寸法
 62
     0
 48
50.0
370
    -2
100
AcDbBlockReference
  2
_DOTSMALL
 10
8670.613155009895
 20
1780.244356152145
 30
0.0
 41
100.0
 42
100.0
 43
100.0
 50
270.0
  0
MTEXT
  5
21676
330
21630
100
AcDbEntity
  8
寸法
 62
     7
 48
50.0
100
AcDbMText
 10
8570.613155009896
 20
1982.744356152147
 30
0.0
 40
120.0
 41
0.0
 71
     5
 72
     1
  1
\A1;180
  7
STYLE1
 11
0.0000000000000001
 21
1.0
 31
0.0
 73
     1
 44
1.0
1001
ACAD
1000
MTEXTBEGIN
1070
    73
1070
     1
1070
    44
1040
1.0
1070
    74
1070
     0
1000
MTEXTEND
  0
POINT
  5
21677
330
21630
100
AcDbEntity
  8
DEFPOINTS
 62
     0
 48
50.0
100
AcDbPoint
 10
8043.277405298841
 20
2185.244356152147
 30
0.0
  0
POINT
  5
21678
330
21630
100
AcDbEntity
  8
DEFPOINTS
 62
     0
 48
50.0
100
AcDbPoint
 10
8043.277405298841
 20
1780.244356152145
 30
0.0
  0
POINT
  5
21679
330
21630
100
AcDbEntity
  8
DEFPOINTS
 62
     0
 48
50.0
100
AcDbPoint
 10
8670.613155009895
 20
1780.244356152145
 30
0.0
  0
ENDBLK
  5
2163B
330
21630
100
AcDbEntity
  8
0
 48
50.0
100
AcDbBlockEnd
  0
BLOCK
  5
21646
330
2163C
100
AcDbEntity
  8
0
 48
50.0
100
AcDbBlockBegin
  2
*D42
 70
     1
 10
0.0
 20
0.0
 30
0.0
  3
*D42
  1

  0
LINE
  5
2167A
330
2163C
100
AcDbEntity
  8
寸法
 62
     0
 48
50.0
370
    -2
100
AcDbLine
 10
5240.72826382735
 20
1025.244356152146
 30
0.0
 11
5240.72826382735
 21
686.2922496962128
 31
0.0
  0
LINE
  5
2167B
330
2163C
100
AcDbEntity
  8
寸法
 62
     0
 48
50.0
370
    -2
100
AcDbLine
 10
5800.728263827349
 20
1025.244356152146
 30
0.0
 11
5800.728263827349
 21
686.2922496962128
 31
0.0
  0
LINE
  5
2167C
330
2163C
100
AcDbEntity
  8
寸法
 62
     0
 48
50.0
370
    -2
100
AcDbLine
 10
5240.72826382735
 20
746.2922496962128
 30
0.0
 11
5800.728263827349
 21
746.2922496962128
 31
0.0
  0
MTEXT
  5
2167D
330
2163C
100
AcDbEntity
  8
寸法
 62
     7
 48
50.0
100
AcDbMText
 10
5520.728263827351
 20
846.2922496962129
 30
0.0
 40
120.0
 41
0.0
 71
     5
 72
     1
  1
\A1;300
  7
STYLE1
 73
     1
 44
1.0
1001
ACAD
1000
MTEXTBEGIN
1070
    73
1070
     1
1070
    44
1040
1.0
1070
    74
1070
     0
1000
MTEXTEND
  0
INSERT
  5
2167E
330
2163C
100
AcDbEntity
  8
寸法
 62
     0
 48
50.0
370
    -2
100
AcDbBlockReference
  2
_DOTSMALL
 10
5240.72826382735
 20
746.2922496962128
 30
0.0
 41
100.0
 42
100.0
 43
100.0
 50
180.0
  0
INSERT
  5
2167F
330
2163C
100
AcDbEntity
  8
寸法
 62
     0
 48
50.0
370
    -2
100
AcDbBlockReference
  2
_DOTSMALL
 10
5800.728263827349
 20
746.2922496962128
 30
0.0
 41
100.0
 42
100.0
 43
100.0
  0
POINT
  5
21680
330
2163C
100
AcDbEntity
  8
DEFPOINTS
 62
     0
 48
50.0
100
AcDbPoint
 10
5240.72826382735
 20
1045.244356152146
 30
0.0
  0
POINT
  5
21681
330
2163C
100
AcDbEntity
  8
DEFPOINTS
 62
     0
 48
50.0
100
AcDbPoint
 10
5800.728263827349
 20
1045.244356152146
 30
0.0
  0
POINT
  5
21682
330
2163C
100
AcDbEntity
  8
DEFPOINTS
 62
     0
 48
50.0
100
AcDbPoint
 10
5800.728263827349
 20
746.2922496962128
 30
0.0
  0
ENDBLK
  5
21647
330
2163C
100
AcDbEntity
  8
0
 48
50.0
100
AcDbBlockEnd
  0
ENDSEC
  0
SECTION
  2
ENTITIES
  0
LINE
  5
10B57
330
747D
100
AcDbEntity
  8
補助
  6
PHANTOM
 62
   230
 48
50.0
100
AcDbLine
 10
139.9999999999995
 20
11409.6
 30
0.0
 11
16307.2
 21
11409.6
 31
0.0
  0
LINE
  5
10B59
330
747D
100
AcDbEntity
  8
仕様書枠
  6
Continuous
 48
50.0
100
AcDbLine
 10
13107.2
 20
1200.0
 30
0.0
 11
13107.2
 21
-0.0000000000000729
 31
0.0
  0
LINE
  5
10B5C
330
747D
100
AcDbEntity
  8
仕様書枠
 48
50.0
100
AcDbLine
 10
16307.2
 20
1200.0
 30
0.0
 11
16307.2
 21
-0.0000000000000909
 31
0.0
  0
LINE
  5
10B5D
330
747D
100
AcDbEntity
  8
仕様書枠
 48
50.0
100
AcDbLine
 10
140.0
 20
0.0
 30
0.0
 11
16307.2
 21
-0.0000000000000909
 31
0.0
  0
LINE
  5
10B5E
330
747D
100
AcDbEntity
  8
補助
  6
PHANTOM
 62
   230
 48
50.0
100
AcDbLine
 10
16307.2
 20
11409.6
 30
0.0
 11
16307.2
 21
1200.0
 31
0.0
  0
LINE
  5
10B6C
330
747D
100
AcDbEntity
  8
仕様書枠
 48
50.0
100
AcDbLine
 10
13107.2
 20
1200.0
 30
0.0
 11
16307.2
 21
1200.0
 31
0.0
  0
LINE
  5
10B6D
330
747D
100
AcDbEntity
  8
補助
  6
PHANTOM
 62
   230
 48
50.0
100
AcDbLine
 10
13107.2
 20
11409.6
 30
0.0
 11
13107.2
 21
4800.0
 31
0.0
  0
LINE
  5
10B6F
330
747D
100
AcDbEntity
  8
補助
  6
PHANTOM
 62
   230
 48
50.0
100
AcDbLine
 10
13107.2
 20
4800.0
 30
0.0
 11
16307.2
 21
4800.0
 31
0.0
  0
LINE
  5
10B72
330
747D
100
AcDbEntity
  8
文字
 62
     7
 48
50.0
100
AcDbLine
 10
13187.2
 20
400.0
 30
0.0
 11
16227.2
 21
400.0
 31
0.0
  0
TEXT
  5
10B73
330
747D
100
AcDbEntity
  8
文字
 62
     7
 48
50.0
100
AcDbText
 10
13162.9790565769
 20
895.0906074299405
 30
0.0
 40
200.0
  1
基 礎 図
  7
STYLE2
100
AcDbText
  0
TEXT
  5
10B74
330
747D
100
AcDbEntity
  8
文字
 62
     7
 48
50.0
100
AcDbText
 10
13201.43669998441
 20
477.2740661031255
 30
0.0
 40
160.0
  1
機種名
  7
STYLE2
100
AcDbText
  0
TEXT
  5
10B79
330
747D
100
AcDbEntity
  8
文字
 62
     7
 48
50.0
100
AcDbText
 10
14524.131837222
 20
1031.557706291228
 30
0.0
 40
100.0
  1
      <縮尺> S=1/40
  7
STYLE2
100
AcDbText
  0
LINE
  5
10B7B
330
747D
100
AcDbEntity
  8
仕様書枠
 48
50.0
100
AcDbLine
 10
13107.2
 20
800.0
 30
0.0
 11
14251.2
 21
800.0
 31
0.0
  0
LINE
  5
10B88
330
747D
100
AcDbEntity
  8
仕様書枠
  6
Continuous
 48
50.0
100
AcDbLine
 10
14251.2
 20
1200.0
 30
0.0
 11
14251.2
 21
800.0
 31
0.0
  0
TEXT
  5
14DEF
330
747D
100
AcDbEntity
  8
文字
 62
     7
 48
50.0
100
AcDbText
 10
14641.2525855784
 20
871.1744590657925
 30
0.0
 40
100.0
  1
～一般型・多雪地型～
  7
STYLE2
100
AcDbText
  0
TEXT
  5
15A76
330
747D
100
AcDbEntity
  8
文字
 62
     7
 48
50.0
100
AcDbText
 10
14483.56764462811
 20
483.8967129911411
 30
0.0
 40
160.0
  1
ＮＸＮ－５５Ｓ・H
  7
STYLE2
100
AcDbText
  0
TEXT
  5
1D002
330
747D
100
AcDbEntity
  8
文字
 62
     7
 48
50.0
100
AcDbText
 10
13188.16259899338
 20
246.7109242801889
 30
0.0
 40
80.0
  1
※寒冷地等は地域の実情に合わせた基礎にして下さい。
  7
STYLE2
100
AcDbText
  0
DIMENSION
  5
1D91B
330
747D
100
AcDbEntity
  8
寸法
 48
50.0
100
AcDbDimension
  2
*D1
 10
6925.920261149996
 20
6022.919036112863
 30
0.0
 11
6925.920261149994
 21
6258.966280207353
 31
0.0
 70
   160
 71
     5
 42
130.0000000000018
  3
INABA_S40G
100
AcDbAlignedDimension
 13
6709.213011273897
 23
5892.919036112861
 33
0.0
 14
6709.213011273897
 24
6022.919036112863
 34
0.0
 50
90.0
100
AcDbRotatedDimension
1001
ACAD
1000
DSTYLE
1002
{
1070
   174
1070
     0
1070
   272
1070
     1
1070
   279
1070
     1
1070
   288
1070
     0
1070
   341
1005
0
1002
}
  0
DIMENSION
  5
1D91C
330
747D
100
AcDbEntity
  8
寸法
 48
50.0
100
AcDbDimension
  2
*D2
 10
6925.920261149996
 20
5722.919036112862
 30
0.0
 11
6925.920261149994
 21
5486.871792018373
 31
0.0
 70
   160
 71
     5
 42
170.0000000000018
  3
INABA_S40G
100
AcDbAlignedDimension
 13
6709.213011273897
 23
5892.919036112863
 33
0.0
 14
6709.213011273897
 24
5722.919036112862
 34
0.0
 50
90.0
100
AcDbRotatedDimension
1001
ACAD
1000
DSTYLE
1002
{
1070
   174
1070
     0
1070
   272
1070
     1
1070
   279
1070
     1
1070
   288
1070
     0
1070
   341
1005
0
1002
}
  0
DIMENSION
  5
1D91D
330
747D
100
AcDbEntity
  8
寸法
 48
50.0
100
AcDbDimension
  2
*D3
 10
6602.213011273896
 20
8276.250847072711
 30
0.0
 11
8009.213011273896
 21
8376.262658096333
 31
0.0
 70
    32
 71
     5
 42
2814.0
  3
INABA_S40G
100
AcDbAlignedDimension
 13
9416.213011273896
 23
7449.919036112861
 33
0.0
 14
6602.213011273896
 24
7449.919036112861
 34
0.0
100
AcDbRotatedDimension
1001
ACAD
1000
DSTYLE
1002
{
1070
   174
1070
     0
1070
   272
1070
     1
1070
   279
1070
     1
1070
   288
1070
     0
1070
   341
1005
0
1002
}
  0
LINE
  5
1D91E
330
747D
100
AcDbEntity
  8
部品1
 48
50.0
100
AcDbLine
 10
9309.213011273895
 20
5892.919036112876
 30
0.0
 11
6709.213011273899
 21
5892.91903611286
 31
0.0
  0
LINE
  5
1D91F
330
747D
100
AcDbEntity
  8
部品1
 48
50.0
100
AcDbLine
 10
9309.213011273895
 20
7402.919036112859
 30
0.0
 11
6709.213011273895
 21
7402.919036112861
 31
0.0
  0
DIMENSION
  5
1D920
330
747D
100
AcDbEntity
  8
寸法
 48
50.0
100
AcDbDimension
  2
*D4
 10
9539.213011273897
 20
8488.711542589548
 30
0.0
 11
8009.213011273896
 21
8588.711542589548
 31
0.0
 70
    32
 71
     5
 42
3060.000000000002
  3
INABA_S40G
100
AcDbAlignedDimension
 13
6479.213011273895
 23
7522.919036112859
 33
0.0
 14
9539.213011273897
 24
7522.919036112861
 34
0.0
100
AcDbRotatedDimension
1001
ACAD
1000
DSTYLE
1002
{
1070
   174
1070
     0
1070
   272
1070
     1
1070
   279
1070
     1
1070
   288
1070
     0
1070
   341
1005
0
1002
}
  0
LINE
  5
1D921
330
747D
100
AcDbEntity
  8
部品1
 48
50.0
100
AcDbLine
 10
9539.213011273897
 20
5722.919036112878
 30
0.0
 11
6482.213011273895
 21
5722.919036112855
 31
0.0
  0
LINE
  5
1D922
330
747D
100
AcDbEntity
  8
部品1
 48
50.0
100
AcDbLine
 10
9539.213011273897
 20
7522.919036112863
 30
0.0
 11
6479.213011273898
 21
7522.919036112861
 31
0.0
  0
LINE
  5
1D923
330
747D
100
AcDbEntity
  8
想像線
 48
10.0
100
AcDbLine
 10
9584.213011273895
 20
5667.919036112856
 30
0.0
 11
6437.213011273897
 21
5667.919036112861
 31
0.0
  0
LINE
  5
1D924
330
747D
100
AcDbEntity
  8
想像線
 48
10.0
100
AcDbLine
 10
6437.213011273897
 20
7597.91903611286
 30
0.0
 11
9584.213011273893
 21
7597.919036112864
 31
0.0
  0
DIMENSION
  5
1D925
330
747D
100
AcDbEntity
  8
寸法
 48
50.0
100
AcDbDimension
  2
*D5
 10
6479.213011273895
 20
8276.250847072711
 30
0.0
 11
6240.727729899656
 21
8276.250847072711
 31
0.0
 70
   160
 71
     5
 42
123.0000000000018
  3
INABA_S40G
100
AcDbAlignedDimension
 13
6602.213011273896
 23
7449.919036112861
 33
0.0
 14
6479.213011273895
 24
7522.919036112859
 34
0.0
100
AcDbRotatedDimension
1001
ACAD
1000
DSTYLE
1002
{
1070
   174
1070
     0
1070
   272
1070
     1
1070
   279
1070
     1
1070
   288
1070
     0
1070
   341
1005
0
1002
}
  0
DIMENSION
  5
1D926
330
747D
100
AcDbEntity
  8
寸法
 48
50.0
100
AcDbDimension
  2
*D6
 10
6479.213011273896
 20
8488.71154258955
 30
0.0
 11
6456.713011273894
 21
8488.71154258955
 31
0.0
 70
   160
  1
a
 71
     5
 42
45.00000000000364
  3
INABA_S40G
100
AcDbAlignedDimension
 13
6434.213011273893
 23
8276.250847072711
 33
0.0
 14
6479.213011273896
 24
7671.190236682781
 34
0.0
100
AcDbRotatedDimension
1001
ACAD
1000
DSTYLE
1002
{
1070
   174
1070
     0
1070
   272
1070
     1
1070
   279
1070
     1
1070
   288
1070
     0
1070
   341
1005
0
1002
}
  0
DIMENSION
  5
1D927
330
747D
100
AcDbEntity
  8
寸法
 48
50.0
100
AcDbDimension
  2
*D7
 10
5983.270745260075
 20
5920.919036112862
 30
0.0
 11
5983.270745260075
 21
6634.05280691343
 31
0.0
 70
   160
 71
     5
 42
1478.999999999999
  3
INABA_S40G
100
AcDbAlignedDimension
 13
6552.213011273896
 23
7399.919036112861
 33
0.0
 14
6552.213011273905
 24
5920.919036112861
 34
0.0
 50
90.0
100
AcDbRotatedDimension
1001
ACAD
1000
DSTYLE
1002
{
1070
   174
1070
     0
1070
   272
1070
     1
1070
   279
1070
     1
1070
   288
1070
     0
1070
   341
1005
0
1002
}
  0
LINE
  5
1D928
330
747D
100
AcDbEntity
  8
部品1
 48
50.0
100
AcDbLine
 10
6599.213011273898
 20
6022.919036112861
 30
0.0
 11
6599.213011273896
 21
7292.919036112859
 31
0.0
  0
DIMENSION
  5
1D929
330
747D
100
AcDbEntity
  8
寸法
 48
50.0
100
AcDbDimension
  2
*D8
 10
5737.777943122108
 20
5722.91903611286
 30
0.0
 11
5737.777943122107
 21
6651.31453344319
 31
0.0
 70
   160
 71
     5
 42
1800.000000000003
  3
INABA_S40G
100
AcDbAlignedDimension
 13
6479.213011273895
 23
7522.919036112863
 33
0.0
 14
6479.213011273897
 24
5722.919036112859
 34
0.0
 50
90.0
100
AcDbRotatedDimension
1001
ACAD
1000
DSTYLE
1002
{
1070
   174
1070
     0
1070
   272
1070
     1
1070
   279
1070
     1
1070
   288
1070
     0
1070
   341
1005
0
1002
}
  0
LINE
  5
1D92A
330
747D
100
AcDbEntity
  8
部品1
 48
50.0
100
AcDbLine
 10
6479.213011273895
 20
5725.919036112856
 30
0.0
 11
6479.213011273898
 21
7522.919036112861
 31
0.0
  0
LINE
  5
1D92B
330
747D
100
AcDbEntity
  8
想像線
 48
10.0
100
AcDbLine
 10
6434.213011273898
 20
5670.919036112861
 30
0.0
 11
6434.213011273898
 21
7594.91903611286
 31
0.0
  0
DIMENSION
  5
1D92C
330
747D
100
AcDbEntity
  8
寸法
 48
50.0
100
AcDbDimension
  2
*D9
 10
5983.270745260075
 20
5722.91903611286
 30
0.0
 11
5983.270745260075
 21
5486.709376283204
 31
0.0
 70
   160
 71
     5
 42
198.0000000000018
  3
INABA_S40G
100
AcDbAlignedDimension
 13
6552.213011273905
 23
5920.919036112861
 33
0.0
 14
6479.213011273897
 24
5722.919036112859
 34
0.0
 50
90.0
100
AcDbRotatedDimension
1001
ACAD
1000
DSTYLE
1002
{
1070
   174
1070
     0
1070
   272
1070
     1
1070
   279
1070
     1
1070
   288
1070
     0
1070
   341
1005
0
1002
}
  0
DIMENSION
  5
1D92D
330
747D
100
AcDbEntity
  8
寸法
 48
50.0
100
AcDbDimension
  2
*D10
 10
5737.777943122108
 20
5667.919036112859
 30
0.0
 11
5737.777943122107
 21
5695.41903611286
 31
0.0
 70
   160
  1
b
 71
     5
 42
55.00000000000091
  3
INABA_S40G
100
AcDbAlignedDimension
 13
6479.213011273897
 23
5722.919036112859
 33
0.0
 14
5983.270745260075
 24
5667.919036112859
 34
0.0
 50
90.0
100
AcDbRotatedDimension
1001
ACAD
1000
DSTYLE
1002
{
1070
   174
1070
     0
1070
   272
1070
     1
1070
   279
1070
     1
1070
   288
1070
     0
1070
   341
1005
0
1002
}
  0
LINE
  5
1D92E
330
747D
100
AcDbEntity
  8
センター
 48
2.0
100
AcDbLine
 10
6602.213011273905
 20
5970.919036112861
 30
0.0
 11
6602.213011273905
 21
5870.919036112861
 31
0.0
  0
LINE
  5
1D92F
330
747D
100
AcDbEntity
  8
センター
 48
2.0
100
AcDbLine
 10
6552.213011273905
 20
5920.919036112861
 30
0.0
 11
6652.213011273905
 21
5920.919036112861
 31
0.0
  0
CIRCLE
  5
1D930
330
747D
100
AcDbEntity
  8
部品1
 48
50.0
100
AcDbCircle
 10
6602.213011273905
 20
5920.919036112861
 30
0.0
 40
35.0
  0
LINE
  5
1D931
330
747D
100
AcDbEntity
  8
部品1
 48
50.0
100
AcDbLine
 10
6709.213011273897
 20
6022.919036112863
 30
0.0
 11
6599.213011273898
 21
6022.919036112861
 31
0.0
  0
LINE
  5
1D932
330
747D
100
AcDbEntity
  8
部品1
 48
50.0
100
AcDbLine
 10
6709.213011273899
 20
5892.91903611286
 30
0.0
 11
6709.213011273897
 21
6022.919036112863
 31
0.0
  0
DIMENSION
  5
1D933
330
747D
100
AcDbEntity
  8
寸法
 48
50.0
100
AcDbDimension
  2
*D11
 10
5983.270745260075
 20
7399.919036112861
 30
0.0
 11
5983.270745260074
 21
7761.4043174871
 31
0.0
 70
   160
 71
     5
 42
123.0
  3
INABA_S40G
100
AcDbAlignedDimension
 13
6479.213011273896
 23
7522.91903611286
 33
0.0
 14
6552.213011273896
 24
7399.919036112861
 34
0.0
 50
90.0
100
AcDbRotatedDimension
1001
ACAD
1000
DSTYLE
1002
{
1070
   174
1070
     0
1070
   272
1070
     1
1070
   279
1070
     1
1070
   288
1070
     0
1070
   341
1005
0
1002
}
  0
DIMENSION
  5
1D934
330
747D
100
AcDbEntity
  8
寸法
 48
50.0
100
AcDbDimension
  2
*D12
 10
5737.777943122107
 20
7522.919036112861
 30
0.0
 11
5737.777943122106
 21
7560.419036112863
 31
0.0
 70
   160
  1
c
 71
     5
 42
74.99999999999909
  3
INABA_S40G
100
AcDbAlignedDimension
 13
5983.270745260075
 23
7597.91903611286
 33
0.0
 14
6479.213011273896
 24
7522.91903611286
 34
0.0
 50
90.0
100
AcDbRotatedDimension
1001
ACAD
1000
DSTYLE
1002
{
1070
   174
1070
     0
1070
   272
1070
     1
1070
   279
1070
     1
1070
   288
1070
     0
1070
   341
1005
0
1002
}
  0
LINE
  5
1D935
330
747D
100
AcDbEntity
  8
部品1
 48
50.0
100
AcDbLine
 10
6599.213011273898
 20
6722.919036112862
 30
0.0
 11
6479.213011273897
 21
6722.91903611286
 31
0.0
  0
LINE
  5
1D936
330
747D
100
AcDbEntity
  8
部品1
 48
50.0
100
AcDbLine
 10
6599.213011273898
 20
6522.91903611286
 30
0.0
 11
6479.213011273897
 21
6522.91903611286
 31
0.0
  0
LINE
  5
1D938
330
747D
100
AcDbEntity
  8
センター
 48
2.0
100
AcDbLine
 10
6602.213011273896
 20
7449.919036112861
 30
0.0
 11
6602.213011273896
 21
7349.919036112861
 31
0.0
  0
LINE
  5
1D939
330
747D
100
AcDbEntity
  8
センター
 48
2.0
100
AcDbLine
 10
6552.213011273896
 20
7399.919036112861
 30
0.0
 11
6652.213011273897
 21
7399.919036112861
 31
0.0
  0
CIRCLE
  5
1D93A
330
747D
100
AcDbEntity
  8
部品1
 48
50.0
100
AcDbCircle
 10
6602.213011273896
 20
7399.919036112861
 30
0.0
 40
35.0
  0
LINE
  5
1D93B
330
747D
100
AcDbEntity
  8
部品1
 48
50.0
100
AcDbLine
 10
6709.213011273895
 20
7292.919036112856
 30
0.0
 11
6599.213011273895
 21
7292.919036112857
 31
0.0
  0
LINE
  5
1D93C
330
747D
100
AcDbEntity
  8
部品1
 48
50.0
100
AcDbLine
 10
6709.213011273895
 20
7292.919036112856
 30
0.0
 11
6709.213011273895
 21
7402.919036112862
 31
0.0
  0
DIMENSION
  5
1D93E
330
747D
100
AcDbEntity
  8
寸法
 48
50.0
100
AcDbDimension
  2
*D13
 10
9416.213011273896
 20
8276.250847072711
 30
0.0
 11
9777.698292648134
 21
8276.250847072711
 31
0.0
 70
   160
 71
     5
 42
123.0
  3
INABA_S40G
100
AcDbAlignedDimension
 13
9539.213011273897
 23
7522.919036112861
 33
0.0
 14
9416.213011273896
 24
7449.919036112861
 34
0.0
100
AcDbRotatedDimension
1001
ACAD
1000
DSTYLE
1002
{
1070
   174
1070
     0
1070
   272
1070
     1
1070
   279
1070
     1
1070
   288
1070
     0
1070
   341
1005
0
1002
}
  0
DIMENSION
  5
1D93F
330
747D
100
AcDbEntity
  8
寸法
 48
50.0
100
AcDbDimension
  2
*D14
 10
9584.213011273895
 20
8488.711542589548
 30
0.0
 11
9561.713011273896
 21
8488.711542589548
 31
0.0
 70
   160
  1
a
 71
     5
 42
45.0
  3
INABA_S40G
100
AcDbAlignedDimension
 13
9539.213011273897
 23
7671.190236682781
 33
0.0
 14
9584.213011273895
 24
8276.250847072711
 34
0.0
100
AcDbRotatedDimension
1001
ACAD
1000
DSTYLE
1002
{
1070
   174
1070
     0
1070
   272
1070
     1
1070
   279
1070
     1
1070
   288
1070
     0
1070
   341
1005
0
1002
}
  0
DIMENSION
  5
1D942
330
747D
100
AcDbEntity
  8
寸法
 48
50.0
100
AcDbDimension
  2
*D15
 10
9419.213011273894
 20
6984.422404093454
 30
0.0
 11
9775.260255368385
 21
6984.422404093454
 31
0.0
 70
   160
 71
     5
 42
120.0000000000018
  3
INABA_S40G
100
AcDbAlignedDimension
 13
9539.213011273897
 23
7042.919036112869
 33
0.0
 14
9419.213011273894
 24
7077.560052264249
 34
0.0
100
AcDbRotatedDimension
1001
ACAD
1000
DSTYLE
1002
{
1070
   174
1070
     0
1070
   272
1070
     1
1070
   279
1070
     1
1070
   288
1070
     0
1070
   341
1005
0
1002
}
  0
TEXT
  5
1D943
330
747D
100
AcDbEntity
  8
部品1
 48
50.0
100
AcDbText
 10
9626.033077952298
 20
5028.032239333586
 30
0.0
 40
80.0
  1
(a=45,b=55,c=75)
  7
STYLE1
100
AcDbText
  0
TEXT
  5
1D944
330
747D
100
AcDbEntity
  8
部品1
 48
50.0
100
AcDbText
 10
9556.156190347413
 20
5147.763285486725
 30
0.0
 40
80.0
  1
※a,b,cは屋根の出幅です。
  7
STYLE1
100
AcDbText
  0
MTEXT
  5
1D945
102
{ACAD_REACTORS
330
1D946
102
}
330
747D
100
AcDbEntity
  8
部品1
 62
     7
 48
50.0
100
AcDbMText
 10
10421.33878581221
 20
5371.901644153068
 30
0.0
 40
120.0
 41
0.0
 71
     6
 72
     1
  1
\A1;屋根の外寸
  7
STYLE1
 73
     1
 44
1.0
1001
ACAD
1000
MTEXTBEGIN
1070
    73
1070
     1
1070
    44
1040
1.0
1070
    74
1070
     0
1000
MTEXTEND
  0
LEADER
  5
1D946
330
747D
100
AcDbEntity
  8
寸法
 48
50.0
100
AcDbLeader
  3
INABA_S40G
 71
     0
 73
     0
 74
     0
 75
     1
 40
120.0
 41
672.0
 76
     3
 10
9351.101599207723
 20
5666.919036112859
 30
0.0
 10
9609.338785812216
 20
5271.901644153068
 30
0.0
 10
9709.338785812215
 20
5271.901644153068
 30
0.0
340
1D945
1001
ACAD
1000
DSTYLE
1002
{
1070
   174
1070
     0
1070
   272
1070
     1
1070
   279
1070
     1
1070
   288
1070
     0
1070
   341
1005
0
1002
}
  0
DIMENSION
  5
1D947
330
747D
100
AcDbEntity
  8
寸法
 48
50.0
100
AcDbDimension
  2
*D16
 10
6939.72319518692
 20
7292.919036112856
 30
0.0
 11
6939.723195186918
 21
7054.598327534932
 31
0.0
 70
   160
 71
     5
 42
110.0000000000054
  3
INABA_S40G
100
AcDbAlignedDimension
 13
6709.213011273895
 23
7402.919036112862
 33
0.0
 14
6709.213011273895
 24
7292.919036112856
 34
0.0
 50
90.0
100
AcDbRotatedDimension
1001
ACAD
1000
DSTYLE
1002
{
1070
   174
1070
     0
1070
   272
1070
     1
1070
   279
1070
     1
1070
   288
1070
     0
1070
   341
1005
0
1002
}
  0
LINE
  5
1D949
330
747D
100
AcDbEntity
  8
部品1
 48
50.0
100
AcDbLine
 10
9419.213011273896
 20
6022.919036112879
 30
0.0
 11
9419.213011273894
 21
7292.919036112862
 31
0.0
  0
LINE
  5
1D94A
330
747D
100
AcDbEntity
  8
部品1
 48
50.0
100
AcDbLine
 10
9539.213011273897
 20
5722.919036112878
 30
0.0
 11
9539.213011273897
 21
7522.919036112863
 31
0.0
  0
LINE
  5
1D94B
330
747D
100
AcDbEntity
  8
想像線
 48
10.0
100
AcDbLine
 10
9584.213011273893
 20
7597.919036112864
 30
0.0
 11
9584.213011273901
 21
5667.919036112859
 31
0.0
  0
TEXT
  5
1D94C
330
747D
100
AcDbEntity
  8
部品1
 48
50.0
100
AcDbText
 10
7881.213011273904
 20
5461.4665347094
 30
0.0
 40
120.0
  1
扉面
  7
STYLE1
 72
     1
 11
8009.213011273903
 21
5445.4665347094
 31
0.0
100
AcDbText
 73
     1
  0
LINE
  5
1D94F
330
747D
100
AcDbEntity
  8
部品1
 48
50.0
100
AcDbLine
 10
7909.213011273918
 20
5722.919036112869
 30
0.0
 11
7909.213011273918
 21
5892.919036112863
 31
0.0
  0
LINE
  5
1D950
330
747D
100
AcDbEntity
  8
部品1
 48
50.0
100
AcDbLine
 10
8109.213011273919
 20
5722.919036112869
 30
0.0
 11
8109.213011273919
 21
5892.919036112867
 31
0.0
  0
LINE
  5
1D951
330
747D
100
AcDbEntity
  8
センター
 48
2.0
100
AcDbLine
 10
9366.213011273904
 20
5920.919036112861
 30
0.0
 11
9466.213011273904
 21
5920.919036112861
 31
0.0
  0
CIRCLE
  5
1D952
330
747D
100
AcDbEntity
  8
部品1
 48
50.0
100
AcDbCircle
 10
9416.213011273903
 20
5920.919036112861
 30
0.0
 40
35.0
  0
LINE
  5
1D953
330
747D
100
AcDbEntity
  8
部品1
 48
50.0
100
AcDbLine
 10
9419.213011273896
 20
6022.919036112877
 30
0.0
 11
9309.213011273895
 21
6022.919036112877
 31
0.0
  0
LINE
  5
1D954
330
747D
100
AcDbEntity
  8
部品1
 48
50.0
100
AcDbLine
 10
9309.213011273895
 20
5892.919036112876
 30
0.0
 11
9309.213011273895
 21
6022.919036112877
 31
0.0
  0
LINE
  5
1D955
330
747D
100
AcDbEntity
  8
センター
 48
2.0
100
AcDbLine
 10
9416.213011273903
 20
5970.919036112861
 30
0.0
 11
9416.213011273903
 21
5870.919036112861
 31
0.0
  0
LINE
  5
1D956
330
747D
100
AcDbEntity
  8
部品1
 48
50.0
100
AcDbLine
 10
8109.213011273903
 20
7402.91903611286
 30
0.0
 11
8109.213011273903
 21
7522.91903611286
 31
0.0
  0
LINE
  5
1D957
330
747D
100
AcDbEntity
  8
部品1
 48
50.0
100
AcDbLine
 10
7909.213011273902
 20
7402.91903611286
 30
0.0
 11
7909.213011273902
 21
7522.91903611286
 31
0.0
  0
DIMENSION
  5
1D959
330
747D
100
AcDbEntity
  8
寸法
 48
50.0
100
AcDbDimension
  2
*D17
 10
6939.723195186918
 20
7402.919036112862
 30
0.0
 11
6939.723195186918
 21
7758.96628020735
 31
0.0
 70
   160
 71
     5
 42
119.9999999999963
  3
INABA_S40G
100
AcDbAlignedDimension
 13
6681.213011273896
 23
7522.919036112859
 33
0.0
 14
6709.213011273895
 24
7402.919036112862
 34
0.0
 50
90.0
100
AcDbRotatedDimension
1001
ACAD
1000
DSTYLE
1002
{
1070
   174
1070
     0
1070
   272
1070
     1
1070
   279
1070
     1
1070
   288
1070
     0
1070
   341
1005
0
1002
}
  0
LINE
  5
1D95A
330
747D
100
AcDbEntity
  8
センター
 48
2.0
100
AcDbLine
 10
9366.213011273897
 20
7399.919036112861
 30
0.0
 11
9466.213011273897
 21
7399.919036112861
 31
0.0
  0
CIRCLE
  5
1D95B
330
747D
100
AcDbEntity
  8
部品1
 48
50.0
100
AcDbCircle
 10
9416.213011273896
 20
7399.919036112861
 30
0.0
 40
35.0
  0
LINE
  5
1D95C
330
747D
100
AcDbEntity
  8
部品1
 48
50.0
100
AcDbLine
 10
9419.213011273896
 20
7292.919036112862
 30
0.0
 11
9309.213011273895
 21
7292.919036112859
 31
0.0
  0
LINE
  5
1D95D
330
747D
100
AcDbEntity
  8
部品1
 48
50.0
100
AcDbLine
 10
9309.213011273895
 20
7292.919036112859
 30
0.0
 11
9309.213011273895
 21
7402.919036112859
 31
0.0
  0
LINE
  5
1D95E
330
747D
100
AcDbEntity
  8
部品1
 48
50.0
100
AcDbLine
 10
9539.213011273899
 20
6722.91903611286
 30
0.0
 11
9419.213011273896
 21
6722.91903611286
 31
0.0
  0
LINE
  5
1D95F
330
747D
100
AcDbEntity
  8
部品1
 48
50.0
100
AcDbLine
 10
9539.213011273899
 20
6522.91903611286
 30
0.0
 11
9419.213011273896
 21
6522.919036112861
 31
0.0
  0
LINE
  5
1D961
330
747D
100
AcDbEntity
  8
センター
 48
2.0
100
AcDbLine
 10
9416.213011273896
 20
7449.919036112861
 30
0.0
 11
9416.213011273896
 21
7349.919036112861
 31
0.0
  0
TEXT
  5
1DEDA
330
747D
100
AcDbEntity
  8
文字
 62
     7
 48
50.0
100
AcDbText
 10
13188.16259899338
 20
79.80631269190325
 30
0.0
 40
80.0
  1
※布基礎には換気口を設けてください。
  7
STYLE2
100
AcDbText
  0
MTEXT
  5
1E700
102
{ACAD_REACTORS
330
1E701
102
}
330
747D
100
AcDbEntity
  8
部品1
 62
     7
 48
50.0
100
AcDbMText
 10
10589.02999071
 20
7765.944479920811
 30
0.0
 40
120.0
 41
0.0
 71
     6
 72
     1
  1
基礎ボルト芯
  7
STYLE1
 73
     1
 44
1.0
1001
ACAD
1000
MTEXTBEGIN
1070
    73
1070
     1
1070
    44
1040
1.0
1070
    74
1070
     0
1000
MTEXTEND
  0
LEADER
  5
1E701
330
747D
100
AcDbEntity
  8
寸法
 48
50.0
100
AcDbLeader
  3
INABA_S40G
 71
     0
 73
     0
 74
     0
 75
     1
 40
120.0
 41
846.0000000000002
 76
     3
 10
9416.213011273896
 20
7399.919036112861
 30
0.0
 10
9603.029990710002
 20
7665.944479920812
 30
0.0
 10
9703.029990710001
 20
7665.944479920812
 30
0.0
340
1E700
1001
ACAD
1000
DSTYLE
1002
{
1070
   174
1070
     0
1070
   272
1070
     1
1070
   279
1070
     1
1070
   288
1070
     0
1070
   341
1005
0
1002
}
  0
DIMENSION
  5
1E96D
330
747D
100
AcDbEntity
  8
寸法
 48
50.0
100
AcDbDimension
  2
*D18
 10
8931.087028824595
 20
7522.919036112863
 30
0.0
 11
8831.087028824594
 21
7072.919036112867
 31
0.0
 70
    32
 71
     5
 42
899.9999999999936
  3
INABA_S40G
100
AcDbAlignedDimension
 13
8785.713011273898
 23
6622.919036112868
 33
0.0
 14
8876.713011273906
 24
7522.919036112863
 34
0.0
 50
90.0
100
AcDbRotatedDimension
1001
ACAD
1000
DSTYLE
1002
{
1070
   174
1070
     0
1070
   272
1070
     1
1070
   279
1070
     1
1070
   288
1070
     0
1070
   341
1005
0
1002
}
  0
DIMENSION
  5
1E98B
330
747D
100
AcDbEntity
  8
寸法
 48
50.0
100
AcDbDimension
  2
*D19
 10
8931.087028824606
 20
6622.919036112868
 30
0.0
 11
8937.557571339553
 21
6104.500182931486
 31
0.0
 70
   160
 71
     5
 42
900.0
  3
INABA_S40G
100
AcDbAlignedDimension
 13
8876.713011273906
 23
5722.919036112869
 33
0.0
 14
8785.713011273898
 24
6622.919036112868
 34
0.0
 50
90.0
100
AcDbRotatedDimension
1001
ACAD
1000
DSTYLE
1002
{
1070
   174
1070
     0
1070
   272
1070
     1
1070
   279
1070
     1
1070
   288
1070
     0
1070
   341
1005
0
1002
}
  0
MTEXT
  5
1F11B
102
{ACAD_REACTORS
330
1F11C
102
}
330
747D
100
AcDbEntity
  8
部品1
 62
     7
 48
50.0
100
AcDbMText
 10
10609.45019787839
 20
6327.901644153087
 30
0.0
 40
120.0
 41
0.0
 71
     6
 72
     1
  1
床下換気口
  7
STYLE1
 73
     1
 44
1.0
1001
ACAD
1000
MTEXTBEGIN
1070
    73
1070
     1
1070
    44
1040
1.0
1070
    74
1070
     0
1000
MTEXTEND
  0
LEADER
  5
1F11C
330
747D
100
AcDbEntity
  8
寸法
 48
50.0
100
AcDbLeader
  3
INABA_S40G
 71
     0
 73
     0
 74
     0
 75
     1
 40
120.0
 41
720.0000000000001
 76
     3
 10
9539.213011273899
 20
6622.919036112879
 30
0.0
 10
9749.45019787839
 20
6227.901644153088
 30
0.0
 10
9849.45019787839
 20
6227.901644153088
 30
0.0
340
1F11B
1001
ACAD
1000
DSTYLE
1002
{
1070
   174
1070
     0
1070
   272
1070
     1
1070
   279
1070
     1
1070
   288
1070
     0
1070
   341
1005
0
1002
}
  0
DIMENSION
  5
1F248
330
747D
100
AcDbEntity
  8
寸法
 48
50.0
100
AcDbDimension
  2
*D21
 10
8736.213011273896
 20
8049.82880176119
 30
0.0
 11
9115.983146456347
 21
8048.090767068199
 31
0.0
 70
   160
 71
     5
 42
802.9999999999963
  3
INABA_S40G
100
AcDbAlignedDimension
 13
9539.213011273892
 23
7522.919036112863
 33
0.0
 14
8736.213011273896
 24
6822.919036112868
 34
0.0
100
AcDbRotatedDimension
1001
ACAD
1000
DSTYLE
1002
{
1070
   174
1070
     0
1070
   272
1070
     1
1070
   279
1070
     1
1070
   288
1070
     0
1070
   341
1005
0
1002
}
  0
DIMENSION
  5
1F249
330
747D
100
AcDbEntity
  8
寸法
 48
50.0
100
AcDbDimension
  2
*D20
 10
6479.213011273895
 20
8049.82880176119
 30
0.0
 11
6880.713011273896
 21
8149.82880176119
 31
0.0
 70
    32
 71
     5
 42
803.0000000000027
  3
INABA_S40G
100
AcDbAlignedDimension
 13
7282.213011273897
 23
6822.91903611287
 33
0.0
 14
6479.213011273895
 24
7522.919036112863
 34
0.0
100
AcDbRotatedDimension
1001
ACAD
1000
DSTYLE
1002
{
1070
   174
1070
     0
1070
   272
1070
     1
1070
   279
1070
     1
1070
   288
1070
     0
1070
   341
1005
0
1002
}
  0
LINE
  5
1F940
330
747D
100
AcDbEntity
  8
センター
 48
2.0
100
AcDbLine
 10
8736.213011273898
 20
6672.919036112869
 30
0.0
 11
8736.213011273898
 21
6572.919036112868
 31
0.0
  0
LINE
  5
1F941
330
747D
100
AcDbEntity
  8
部品1
 48
50.0
100
AcDbLine
 10
8836.213011273898
 20
6422.919036112867
 30
0.0
 11
8836.213011273898
 21
6822.91903611287
 31
0.0
  0
LINE
  5
1F942
330
747D
100
AcDbEntity
  8
部品1
 48
50.0
100
AcDbLine
 10
8636.213011273898
 20
6422.919036112867
 30
0.0
 11
8636.2130112739
 21
6822.919036112868
 31
0.0
  0
LINE
  5
1F943
330
747D
100
AcDbEntity
  8
センター
 48
2.0
100
AcDbLine
 10
8686.213011273897
 20
6622.919036112868
 30
0.0
 11
8786.213011273899
 21
6622.919036112868
 31
0.0
  0
LINE
  5
1FDB5
330
747D
100
AcDbEntity
  8
想像線
 48
10.0
100
AcDbLine
 10
6437.213011273897
 20
7597.91903611286
 30
0.0
 11
6434.213011273898
 21
7594.91903611286
 31
0.0
  0
LINE
  5
1FDB8
330
747D
100
AcDbEntity
  8
部品1
 48
50.0
100
AcDbLine
 10
6479.213011273895
 20
5725.919036112856
 30
0.0
 11
6482.213011273895
 21
5722.919036112855
 31
0.0
  0
LINE
  5
1FDB9
330
747D
100
AcDbEntity
  8
想像線
 48
10.0
100
AcDbLine
 10
6434.213011273898
 20
5670.919036112861
 30
0.0
 11
6437.213011273897
 21
5667.919036112861
 31
0.0
  0
LINE
  5
1FE23
330
747D
100
AcDbEntity
  8
センター
 48
2.0
100
AcDbLine
 10
7232.213011273896
 20
6622.91903611287
 30
0.0
 11
7332.213011273896
 21
6622.91903611287
 31
0.0
  0
LINE
  5
1FE24
330
747D
100
AcDbEntity
  8
部品1
 48
50.0
100
AcDbLine
 10
7182.213011273896
 20
6422.919036112867
 30
0.0
 11
7182.213011273898
 21
6822.91903611287
 31
0.0
  0
LINE
  5
1FE25
330
747D
100
AcDbEntity
  8
部品1
 48
50.0
100
AcDbLine
 10
7382.213011273894
 20
6422.919036112867
 30
0.0
 11
7382.213011273896
 21
6822.91903611287
 31
0.0
  0
LINE
  5
1FE26
330
747D
100
AcDbEntity
  8
センター
 48
2.0
100
AcDbLine
 10
7282.213011273896
 20
6672.91903611287
 30
0.0
 11
7282.213011273896
 21
6572.91903611287
 31
0.0
  0
DIMENSION
  5
1FE4B
330
747D
100
AcDbEntity
  8
寸法
 48
50.0
100
AcDbDimension
  2
*D22
 10
8736.213011273896
 20
8049.82880176119
 30
0.0
 11
8372.713011273896
 21
8149.840612784812
 31
0.0
 70
    32
 71
     5
 42
727.0
  3
INABA_S40G
100
AcDbAlignedDimension
 13
8009.213011273896
 23
6822.91903611287
 33
0.0
 14
8736.213011273896
 24
6822.919036112868
 34
0.0
100
AcDbRotatedDimension
1001
ACAD
1000
DSTYLE
1002
{
1070
   174
1070
     0
1070
   272
1070
     1
1070
   279
1070
     1
1070
   288
1070
     0
1070
   341
1005
0
1002
}
  0
LEADER
  5
1FEC1
330
747D
100
AcDbEntity
  8
寸法
 48
50.0
100
AcDbLeader
  3
INABA_S40G
 71
     0
 73
     0
 75
     1
 40
120.0
 41
185.591883092037
 76
     3
 10
8697.13945144662
 20
6461.851451002377
 30
0.0
 10
8641.482087911551
 20
6268.118695381616
 30
0.0
 10
8541.482087911552
 20
6268.118695381616
 30
0.0
340
1FEC2
210
0.0
220
0.0
230
-1.0
213
-42.79594154601909
223
-42.66026254335156
233
0.0
1001
ACAD
1000
DSTYLE
1002
{
1070
   174
1070
     0
1070
   272
1070
     1
1070
   279
1070
     1
1070
   288
1070
     0
1070
   341
1005
0
1002
}
  0
MTEXT
  5
1FEC2
102
{ACAD_REACTORS
330
1FEC1
102
}
330
747D
100
AcDbEntity
  8
部品1
 62
     7
 48
50.0
100
AcDbMText
 10
8544.27802945757
 20
6330.778957924968
 30
0.0
 40
120.0
 41
0.0
 71
     6
 72
     1
  1
\A1;C.B
  7
STYLE1
 73
     1
 44
1.0
1001
ACAD
1000
MTEXTBEGIN
1070
    73
1070
     1
1070
    44
1040
1.0
1070
    74
1070
     0
1000
MTEXTEND
  0
LINE
  5
2076F
330
747D
100
AcDbEntity
  8
部品1
 48
50.0
100
AcDbLine
 10
7382.213011273896
 20
6822.91903611287
 30
0.0
 11
7182.213011273896
 21
6822.91903611287
 31
0.0
  0
LINE
  5
20770
330
747D
100
AcDbEntity
  8
部品1
 48
50.0
100
AcDbLine
 10
8836.213011273896
 20
6822.919036112868
 30
0.0
 11
8636.213011273897
 21
6822.919036112868
 31
0.0
  0
LINE
  5
20771
330
747D
100
AcDbEntity
  8
部品1
 48
50.0
100
AcDbLine
 10
7382.213011273896
 20
6422.919036112867
 30
0.0
 11
7182.213011273896
 21
6422.919036112867
 31
0.0
  0
LINE
  5
20772
330
747D
100
AcDbEntity
  8
部品1
 48
50.0
100
AcDbLine
 10
8836.213011273896
 20
6422.919036112867
 30
0.0
 11
8636.213011273897
 21
6422.919036112867
 31
0.0
  0
LINE
  5
20D41
330
747D
100
AcDbEntity
  8
部品1
 48
50.0
100
AcDbLine
 10
8109.213011273896
 20
6422.919036112867
 30
0.0
 11
7909.213011273895
 21
6422.919036112867
 31
0.0
  0
LINE
  5
20D42
330
747D
100
AcDbEntity
  8
部品1
 48
50.0
100
AcDbLine
 10
8109.213011273896
 20
6822.91903611287
 30
0.0
 11
7909.213011273895
 21
6822.91903611287
 31
0.0
  0
LINE
  5
20D43
330
747D
100
AcDbEntity
  8
センター
 48
2.0
100
AcDbLine
 10
8009.213011273896
 20
6672.91903611287
 30
0.0
 11
8009.213011273896
 21
6572.91903611287
 31
0.0
  0
LINE
  5
20D44
330
747D
100
AcDbEntity
  8
部品1
 48
50.0
100
AcDbLine
 10
8109.213011273896
 20
6422.919036112867
 30
0.0
 11
8109.213011273896
 21
6822.91903611287
 31
0.0
  0
LINE
  5
20D45
330
747D
100
AcDbEntity
  8
部品1
 48
50.0
100
AcDbLine
 10
7909.213011273895
 20
6422.919036112867
 30
0.0
 11
7909.213011273898
 21
6822.91903611287
 31
0.0
  0
LINE
  5
20D46
330
747D
100
AcDbEntity
  8
センター
 48
2.0
100
AcDbLine
 10
7959.213011273895
 20
6622.91903611287
 30
0.0
 11
8059.213011273895
 21
6622.91903611287
 31
0.0
  0
DIMENSION
  5
20D50
330
747D
100
AcDbEntity
  8
寸法
 48
50.0
100
AcDbDimension
  2
*D23
 10
8009.213011273898
 20
8049.82880176119
 30
0.0
 11
7645.713011273897
 21
8149.840612784812
 31
0.0
 70
    32
 71
     5
 42
727.0
  3
INABA_S40G
100
AcDbAlignedDimension
 13
7282.213011273897
 23
6822.91903611287
 33
0.0
 14
8009.213011273898
 24
6822.919036112868
 34
0.0
100
AcDbRotatedDimension
1001
ACAD
1000
DSTYLE
1002
{
1070
   174
1070
     0
1070
   272
1070
     1
1070
   279
1070
     1
1070
   288
1070
     0
1070
   341
1005
0
1002
}
  0
LINE
  5
20DC9
330
747D
100
AcDbEntity
  8
細線
 48
50.0
100
AcDbLine
 10
9419.213011273896
 20
6677.509306142538
 30
0.0
 11
9464.622741244218
 21
6722.919036112862
 31
0.0
  0
LINE
  5
20DCA
330
747D
100
AcDbEntity
  8
細線
 48
50.0
100
AcDbLine
 10
9419.213011273896
 20
6632.608025537194
 30
0.0
 11
9509.524021849561
 21
6722.91903611286
 31
0.0
  0
LINE
  5
20DCB
330
747D
100
AcDbEntity
  8
細線
 48
50.0
100
AcDbLine
 10
9419.213011273896
 20
6587.706744931852
 30
0.0
 11
9539.213011273899
 21
6707.706744931851
 31
0.0
  0
LINE
  5
20DCC
330
747D
100
AcDbEntity
  8
細線
 48
50.0
100
AcDbLine
 10
9419.213011273896
 20
6542.805464326503
 30
0.0
 11
9539.213011273899
 21
6662.805464326504
 31
0.0
  0
LINE
  5
20DCD
330
747D
100
AcDbEntity
  8
細線
 48
50.0
100
AcDbLine
 10
9444.227863665597
 20
6522.919036112857
 30
0.0
 11
9539.213011273899
 21
6617.90418372116
 31
0.0
  0
LINE
  5
20DCE
330
747D
100
AcDbEntity
  8
細線
 48
50.0
100
AcDbLine
 10
9489.12914427094
 20
6522.919036112859
 30
0.0
 11
9539.213011273899
 21
6573.002903115813
 31
0.0
  0
LINE
  5
20DCF
330
747D
100
AcDbEntity
  8
細線
 48
50.0
100
AcDbLine
 10
9534.03042487629
 20
6522.91903611286
 30
0.0
 11
9539.213011273899
 21
6528.101622510468
 31
0.0
  0
LINE
  5
20DD0
330
747D
100
AcDbEntity
  8
細線
 48
50.0
100
AcDbLine
 10
7909.213011273919
 20
5887.311867353258
 30
0.0
 11
7914.820180033527
 21
5892.919036112864
 31
0.0
  0
LINE
  5
20DD1
330
747D
100
AcDbEntity
  8
細線
 48
50.0
100
AcDbLine
 10
7909.213011273919
 20
5842.410586747912
 30
0.0
 11
7959.721460638873
 21
5892.919036112864
 31
0.0
  0
LINE
  5
20DD2
330
747D
100
AcDbEntity
  8
細線
 48
50.0
100
AcDbLine
 10
7909.213011273918
 20
5797.509306142564
 30
0.0
 11
8004.622741244219
 21
5892.919036112864
 31
0.0
  0
LINE
  5
20DD3
330
747D
100
AcDbEntity
  8
細線
 48
50.0
100
AcDbLine
 10
7909.213011273918
 20
5752.608025537218
 30
0.0
 11
8049.524021849565
 21
5892.919036112864
 31
0.0
  0
LINE
  5
20DD4
330
747D
100
AcDbEntity
  8
細線
 48
50.0
100
AcDbLine
 10
7924.42530245491
 20
5722.919036112863
 30
0.0
 11
8094.425302454911
 21
5892.919036112864
 31
0.0
  0
LINE
  5
20DD5
330
747D
100
AcDbEntity
  8
細線
 48
50.0
100
AcDbLine
 10
7969.326583060255
 20
5722.919036112864
 30
0.0
 11
8109.213011273919
 21
5862.805464326527
 31
0.0
  0
LINE
  5
20DD6
330
747D
100
AcDbEntity
  8
細線
 48
50.0
100
AcDbLine
 10
8014.227863665603
 20
5722.919036112866
 30
0.0
 11
8109.213011273919
 21
5817.904183721182
 31
0.0
  0
LINE
  5
20DD7
330
747D
100
AcDbEntity
  8
細線
 48
50.0
100
AcDbLine
 10
8059.129144270951
 20
5722.919036112868
 30
0.0
 11
8109.213011273919
 21
5773.002903115836
 31
0.0
  0
LINE
  5
20DD8
330
747D
100
AcDbEntity
  8
細線
 48
50.0
100
AcDbLine
 10
8104.030424876295
 20
5722.919036112866
 30
0.0
 11
8109.213011273919
 21
5728.101622510489
 31
0.0
  0
LINE
  5
20DD9
330
747D
100
AcDbEntity
  8
細線
 48
50.0
100
AcDbLine
 10
6479.213011273897
 20
6697.509306142542
 30
0.0
 11
6504.622741244216
 21
6722.91903611286
 31
0.0
  0
LINE
  5
20DDA
330
747D
100
AcDbEntity
  8
細線
 48
50.0
100
AcDbLine
 10
6479.213011273898
 20
6652.608025537197
 30
0.0
 11
6549.524021849561
 21
6722.91903611286
 31
0.0
  0
LINE
  5
20DDB
330
747D
100
AcDbEntity
  8
細線
 48
50.0
100
AcDbLine
 10
6479.213011273897
 20
6607.706744931849
 30
0.0
 11
6594.425302454911
 21
6722.919036112862
 31
0.0
  0
LINE
  5
20DDC
330
747D
100
AcDbEntity
  8
細線
 48
50.0
100
AcDbLine
 10
6479.213011273897
 20
6562.805464326505
 30
0.0
 11
6599.213011273898
 21
6682.805464326505
 31
0.0
  0
LINE
  5
20DDD
330
747D
100
AcDbEntity
  8
細線
 48
50.0
100
AcDbLine
 10
6484.227863665596
 20
6522.919036112857
 30
0.0
 11
6599.213011273896
 21
6637.904183721158
 31
0.0
  0
LINE
  5
20DDE
330
747D
100
AcDbEntity
  8
細線
 48
50.0
100
AcDbLine
 10
6529.129144270943
 20
6522.919036112859
 30
0.0
 11
6599.213011273898
 21
6593.002903115813
 31
0.0
  0
LINE
  5
20DDF
330
747D
100
AcDbEntity
  8
細線
 48
50.0
100
AcDbLine
 10
6574.030424876294
 20
6522.919036112861
 30
0.0
 11
6599.213011273896
 21
6548.101622510471
 31
0.0
  0
LINE
  5
20DE0
330
747D
100
AcDbEntity
  8
細線
 48
50.0
100
AcDbLine
 10
7909.213011273902
 20
7519.646443697578
 30
0.0
 11
7912.485603689184
 21
7522.919036112859
 31
0.0
  0
LINE
  5
20DE1
330
747D
100
AcDbEntity
  8
細線
 48
50.0
100
AcDbLine
 10
7909.213011273902
 20
7474.745163092231
 30
0.0
 11
7957.38688429453
 21
7522.919036112859
 31
0.0
  0
LINE
  5
20DE2
330
747D
100
AcDbEntity
  8
細線
 48
50.0
100
AcDbLine
 10
7909.213011273902
 20
7429.843882486887
 30
0.0
 11
8002.288164899878
 21
7522.91903611286
 31
0.0
  0
LINE
  5
20DE3
330
747D
100
AcDbEntity
  8
細線
 48
50.0
100
AcDbLine
 10
7927.189445505222
 20
7402.919036112861
 30
0.0
 11
8047.189445505223
 21
7522.91903611286
 31
0.0
  0
LINE
  5
20DE4
330
747D
100
AcDbEntity
  8
細線
 48
50.0
100
AcDbLine
 10
7972.090726110569
 20
7402.919036112861
 30
0.0
 11
8092.090726110567
 21
7522.91903611286
 31
0.0
  0
LINE
  5
20DE5
330
747D
100
AcDbEntity
  8
細線
 48
50.0
100
AcDbLine
 10
8016.992006715915
 20
7402.91903611286
 30
0.0
 11
8109.213011273904
 21
7495.140040670849
 31
0.0
  0
LINE
  5
20DE6
330
747D
100
AcDbEntity
  8
細線
 48
50.0
100
AcDbLine
 10
8061.893287321261
 20
7402.91903611286
 30
0.0
 11
8109.213011273903
 21
7450.238760065504
 31
0.0
  0
DIMENSION
  5
212E8
330
747D
100
AcDbEntity
  8
寸法
 48
50.0
100
AcDbDimension
  2
*D30
 10
9419.213011273894
 20
6984.422404093454
 30
0.0
 11
9085.165767179407
 21
6984.422404093454
 31
0.0
 70
   160
 71
     5
 42
109.9999999999982
  3
INABA_S40G
100
AcDbAlignedDimension
 13
9309.213011273895
 23
7292.919036112859
 33
0.0
 14
9419.213011273894
 24
7292.919036112862
 34
0.0
100
AcDbRotatedDimension
1001
ACAD
1000
DSTYLE
1002
{
1070
   174
1070
     0
1070
   272
1070
     1
1070
   279
1070
     0
1070
   288
1070
     0
1070
   341
1005
0
1002
}
  0
TEXT
  5
214C5
330
747D
100
AcDbEntity
  8
部品1
 48
50.0
100
AcDbText
 10
6911.760724810881
 20
2574.984630206907
 30
0.0
 40
100.0
  1
※(別売)
  7
STYLE2
100
AcDbText
  0
LINE
  5
214C6
330
747D
100
AcDbEntity
  8
細線
 48
50.0
100
AcDbLine
 10
10533.36362204488
 20
1740.620711585456
 30
0.0
 11
10525.32514627194
 21
1770.620711585456
 31
0.0
  0
LINE
  5
214C7
330
747D
100
AcDbEntity
  8
細線
100
AcDbLine
 10
10321.61324054981
 20
1770.62071158546
 30
0.0
 11
10436.23688511649
 21
1885.244356152146
 31
0.0
  0
LINE
  5
214C8
330
747D
100
AcDbEntity
  8
細線
100
AcDbLine
 10
10279.18683367862
 20
1770.62071158546
 30
0.0
 11
10393.81047824531
 21
1885.244356152146
 31
0.0
  0
LINE
  5
214C9
330
747D
100
AcDbEntity
  8
細線
100
AcDbLine
 10
10364.039647421
 20
1770.62071158546
 30
0.0
 11
10478.66329198769
 21
1885.244356152146
 31
0.0
  0
LINE
  5
214CA
330
747D
100
AcDbEntity
  8
細線
 48
50.0
100
AcDbLine
 10
10336.14350967675
 20
1740.620711585459
 30
0.0
 11
10328.10503390381
 21
1770.620711585458
 31
0.0
  0
LINE
  5
214CB
330
747D
100
AcDbEntity
  8
細線
 48
50.0
100
AcDbLine
 10
10434.75356586082
 20
1740.620711585456
 30
0.0
 11
10426.71509008788
 21
1770.620711585456
 31
0.0
  0
LINE
  5
214CC
330
747D
100
AcDbEntity
  8
部品1
100
AcDbLine
 10
10437.89134055446
 20
2185.244356152147
 30
0.0
 11
10437.89134055446
 21
1885.244356152146
 31
0.0
  0
LINE
  5
214CD
330
747D
100
AcDbEntity
  8
細線
 48
50.0
100
AcDbLine
 10
10138.92339730864
 20
1740.620711585459
 30
0.0
 11
10130.8849215357
 21
1770.620711585458
 31
0.0
  0
LINE
  5
214CE
330
747D
100
AcDbEntity
  8
細線
 48
50.0
100
AcDbLine
 10
10237.5334534927
 20
1740.620711585459
 30
0.0
 11
10229.49497771977
 21
1770.620711585458
 31
0.0
  0
LINE
  5
214CF
330
747D
100
AcDbEntity
  8
細線
100
AcDbLine
 10
9871.61324054982
 20
1770.620711585459
 30
0.0
 11
9986.236885116497
 21
1885.244356152146
 31
0.0
  0
LINE
  5
214D0
330
747D
100
AcDbEntity
  8
細線
100
AcDbLine
 10
9914.039647421009
 20
1770.620711585459
 30
0.0
 11
10028.66329198769
 21
1885.244356152146
 31
0.0
  0
LINE
  5
214D1
330
747D
100
AcDbEntity
  8
細線
 48
50.0
100
AcDbLine
 10
10040.31334112458
 20
1740.620711585459
 30
0.0
 11
10032.27486535165
 21
1770.620711585458
 31
0.0
  0
LINE
  5
214D2
330
747D
100
AcDbEntity
  8
細線
 48
50.0
100
AcDbLine
 10
9941.70328494053
 20
1740.620711585459
 30
0.0
 11
9933.66480916759
 21
1770.620711585458
 31
0.0
  0
LINE
  5
214D3
330
747D
100
AcDbEntity
  8
細線
100
AcDbLine
 10
10356.9546523132
 20
1885.244356152146
 30
0.0
 11
10056.9546523132
 21
2185.244356152147
 31
0.0
  0
LINE
  5
214D4
330
747D
100
AcDbEntity
  8
細線
100
AcDbLine
 10
10420.59426261997
 20
1885.244356152148
 30
0.0
 11
10120.59426261999
 21
2185.244356152147
 31
0.0
  0
LEADER
  5
214D5
330
747D
100
AcDbEntity
  8
寸法
 48
50.0
100
AcDbLeader
  3
INABA_S40G
 73
     0
 74
     0
 75
     1
 40
150.0
 41
231.9898538650463
 76
     3
 10
10351.29685507436
 20
2185.244356152147
 30
0.0
 10
10440.21961336642
 20
2391.67725700357
 30
0.0
 10
10540.21961336642
 20
2391.67725700357
 30
0.0
1001
ACAD
1000
DSTYLE
1002
{
1070
   174
1070
     0
1070
   272
1070
     1
1070
   279
1070
     1
1070
   288
1070
     0
1070
   341
1005
0
1002
}
  0
MTEXT
  5
214D6
102
{ACAD_REACTORS
330
214D5
102
}
330
747D
100
AcDbEntity
  8
寸法
 62
     7
 48
50.0
100
AcDbMText
 10
10580.21961336642
 20
2506.67725700357
 30
0.0
 40
150.0
 41
1.0
 71
     4
 72
     1
  1
\A1;C.B
  7
STYLE1
 73
     1
 44
1.0
1001
ACAD
1000
MTEXTBEGIN
1070
    73
1070
     1
1070
    44
1040
1.0
1070
    74
1070
     0
1000
MTEXTEND
  0
LINE
  5
214D7
330
747D
100
AcDbEntity
  8
細線
 48
50.0
100
AcDbLine
 10
10506.56870280177
 20
1640.620711585456
 30
0.0
 11
10514.6071785747
 21
1610.620711585456
 31
0.0
  0
LINE
  5
214D8
330
747D
100
AcDbEntity
  8
細線
 48
50.0
100
AcDbLine
 10
10309.34859043365
 20
1640.620711585459
 30
0.0
 11
10317.38706620659
 21
1610.620711585459
 31
0.0
  0
LINE
  5
214D9
330
747D
100
AcDbEntity
  8
細線
 48
50.0
100
AcDbLine
 10
10407.9586466177
 20
1640.620711585456
 30
0.0
 11
10415.99712239064
 21
1610.620711585456
 31
0.0
  0
LINE
  5
214DA
330
747D
100
AcDbEntity
  8
細線
 48
50.0
100
AcDbLine
 10
10112.12847806553
 20
1640.620711585459
 30
0.0
 11
10120.16695383846
 21
1610.620711585459
 31
0.0
  0
LINE
  5
214DB
330
747D
100
AcDbEntity
  8
細線
 48
50.0
100
AcDbLine
 10
10210.73853424959
 20
1640.620711585459
 30
0.0
 11
10218.77701002252
 21
1610.620711585459
 31
0.0
  0
LINE
  5
214DC
330
747D
100
AcDbEntity
  8
細線
 48
50.0
100
AcDbLine
 10
9914.908365697421
 20
1640.620711585459
 30
0.0
 11
9922.946841470348
 21
1610.620711585459
 31
0.0
  0
LINE
  5
214DD
330
747D
100
AcDbEntity
  8
細線
 48
50.0
100
AcDbLine
 10
10013.51842188147
 20
1640.620711585459
 30
0.0
 11
10021.55689765441
 21
1610.620711585459
 31
0.0
  0
LINE
  5
214DE
330
747D
100
AcDbEntity
  8
細線
 48
50.0
100
AcDbLine
 10
10104.09000229259
 20
1610.620711585456
 30
0.0
 11
10146.96187308157
 21
1770.620711585456
 31
0.0
  0
LINE
  5
214DF
330
747D
100
AcDbEntity
  8
細線
 48
50.0
100
AcDbLine
 10
9906.869889924479
 20
1610.620711585459
 30
0.0
 11
9949.741760713449
 21
1770.620711585458
 31
0.0
  0
LINE
  5
214E0
330
747D
100
AcDbEntity
  8
細線
 48
50.0
100
AcDbLine
 10
10005.47994610853
 20
1610.620711585459
 30
0.0
 11
10048.35181689751
 21
1770.620711585456
 31
0.0
  0
LINE
  5
214E1
330
747D
100
AcDbEntity
  8
細線
 48
50.0
100
AcDbLine
 10
10301.31011466071
 20
1610.620711585456
 30
0.0
 11
10344.18198544967
 21
1770.620711585458
 31
0.0
  0
LINE
  5
214E2
330
747D
100
AcDbEntity
  8
細線
 48
50.0
100
AcDbLine
 10
10202.70005847665
 20
1610.620711585459
 30
0.0
 11
10245.57192926563
 21
1770.620711585456
 31
0.0
  0
LINE
  5
214E3
330
747D
100
AcDbEntity
  8
細線
 48
50.0
100
AcDbLine
 10
10498.53022702882
 20
1610.620711585456
 30
0.0
 11
10541.4020978178
 21
1770.620711585454
 31
0.0
  0
LINE
  5
214E4
330
747D
100
AcDbEntity
  8
細線
 48
50.0
100
AcDbLine
 10
10399.92017084477
 20
1610.620711585455
 30
0.0
 11
10442.79204163374
 21
1770.620711585454
 31
0.0
  0
LINE
  5
214E5
330
747D
100
AcDbEntity
  8
部品1
100
AcDbLine
 10
10587.89134055446
 20
1885.244356152146
 30
0.0
 11
10587.89134055446
 21
1610.620711585459
 31
0.0
  0
LINE
  5
214E6
330
747D
100
AcDbEntity
  8
部品1
100
AcDbLine
 10
11178.4022683736
 20
577.3893781251135
 30
0.0
 11
11178.4022683736
 21
3836.458880873203
 31
0.0
  0
TEXT
  5
214E7
330
747D
100
AcDbEntity
  8
部品1
100
AcDbText
 10
7287.856680792214
 20
3612.018965933918
 30
0.0
 40
150.0
  1
基礎詳細
  7
STYLE2
100
AcDbText
  0
LINE
  5
214E8
330
747D
100
AcDbEntity
  8
細線
 48
50.0
100
AcDbLine
 10
9843.093228756458
 20
1740.620711585459
 30
0.0
 11
9835.054752983529
 21
1770.620711585458
 31
0.0
  0
LINE
  5
214E9
330
747D
100
AcDbEntity
  8
細線
 48
50.0
100
AcDbLine
 10
9744.483172572399
 20
1740.620711585459
 30
0.0
 11
9736.444696799456
 21
1770.620711585458
 31
0.0
  0
LINE
  5
214EA
330
747D
100
AcDbEntity
  8
部品1
100
AcDbLine
 10
9837.891340554463
 20
1885.244356152146
 30
0.0
 11
9837.891340554463
 21
2185.244356152147
 31
0.0
  0
LINE
  5
214EB
330
747D
100
AcDbEntity
  8
細線
 48
50.0
100
AcDbLine
 10
9717.688253329288
 20
1640.620711585459
 30
0.0
 11
9725.726729102216
 21
1610.620711585459
 31
0.0
  0
LINE
  5
214EC
330
747D
100
AcDbEntity
  8
細線
 48
50.0
100
AcDbLine
 10
9816.298309513349
 20
1640.620711585459
 30
0.0
 11
9824.336785286279
 21
1610.620711585459
 31
0.0
  0
LINE
  5
214ED
330
747D
100
AcDbEntity
  8
細線
 48
50.0
100
AcDbLine
 10
8248.749686789265
 20
1175.244356152145
 30
0.0
 11
8240.71121101633
 21
1205.244356152145
 31
0.0
  0
LINE
  5
214EE
330
747D
100
AcDbEntity
  8
部品1
 48
50.0
100
AcDbLine
 10
8303.277405298848
 20
1205.244356152146
 30
0.0
 11
8303.277405298848
 21
1045.244356152146
 31
0.0
  0
LINE
  5
214EF
330
747D
100
AcDbEntity
  8
細線
 48
50.0
100
AcDbLine
 10
9709.649777556348
 20
1610.620711585459
 30
0.0
 11
9752.521648345329
 21
1770.620711585458
 31
0.0
  0
LINE
  5
214F0
330
747D
100
AcDbEntity
  8
部品1
100
AcDbLine
 10
9687.891340554459
 20
1610.620711585455
 30
0.0
 11
9687.891340554459
 21
1885.244356152146
 31
0.0
  0
TEXT
  5
214F1
330
747D
100
AcDbEntity
  8
部品1
 48
50.0
100
AcDbText
 10
9212.54971222916
 20
1551.744680355509
 30
0.0
 40
100.0
  1
ボルトの出
 50
90.0
  7
STYLE2
100
AcDbText
  0
LINE
  5
214F2
330
747D
100
AcDbEntity
  8
細線
 48
50.0
100
AcDbLine
 10
9808.259833740407
 20
1610.620711585456
 30
0.0
 11
9851.13170452939
 21
1770.620711585456
 31
0.0
  0
LINE
  5
214F3
330
747D
100
AcDbEntity
  8
部品1
 48
50.0
100
AcDbLine
 10
7822.527405298844
 20
2623.838457538576
 30
0.0
 11
7842.527405298842
 21
2633.838457538576
 31
0.0
  0
LINE
  5
214F4
330
747D
100
AcDbEntity
  8
部品1
 48
50.0
100
AcDbLine
 10
7822.527405298844
 20
2663.838457538576
 30
0.0
 11
7842.527405298842
 21
2673.838457538578
 31
0.0
  0
LINE
  5
214F5
330
747D
100
AcDbEntity
  8
細線
 48
50.0
100
AcDbLine
 10
7822.527405298844
 20
2623.838457538576
 30
0.0
 11
7822.527405298844
 21
2663.838457538576
 31
0.0
  0
LINE
  5
214F6
330
747D
100
AcDbEntity
  8
部品1
 48
50.0
100
AcDbLine
 10
7842.527405298842
 20
2633.838457538576
 30
0.0
 11
7842.527405298842
 21
2673.838457538578
 31
0.0
  0
LINE
  5
214F7
330
747D
100
AcDbEntity
  8
部品1
 48
50.0
100
AcDbLine
 10
7822.527405298844
 20
2683.838457538576
 30
0.0
 11
7842.527405298842
 21
2673.838457538578
 31
0.0
  0
LINE
  5
214F8
330
747D
100
AcDbEntity
  8
部品1
 48
50.0
100
AcDbLine
 10
7852.52740529884
 20
2509.648466707488
 30
0.0
 11
7852.52740529884
 21
2521.648466707488
 31
0.0
  0
LINE
  5
214F9
330
747D
100
AcDbEntity
  8
細線
 48
50.0
100
AcDbLine
 10
7782.52740529884
 20
2623.838457538576
 30
0.0
 11
7782.52740529884
 21
2663.838457538576
 31
0.0
  0
LINE
  5
214FA
330
747D
100
AcDbEntity
  8
部品1
 48
50.0
100
AcDbLine
 10
7762.52740529884
 20
2633.838457538576
 30
0.0
 11
7762.52740529884
 21
2673.838457538578
 31
0.0
  0
LINE
  5
214FB
330
747D
100
AcDbEntity
  8
部品1
 48
50.0
100
AcDbLine
 10
7762.52740529884
 20
2673.838457538578
 30
0.0
 11
7782.52740529884
 21
2663.838457538576
 31
0.0
  0
LINE
  5
214FC
330
747D
100
AcDbEntity
  8
部品1
 48
50.0
100
AcDbLine
 10
7762.52740529884
 20
2633.838457538576
 30
0.0
 11
7782.52740529884
 21
2623.838457538576
 31
0.0
  0
LINE
  5
214FD
330
747D
100
AcDbEntity
  8
部品1
 48
50.0
100
AcDbLine
 10
7762.52740529884
 20
2673.838457538578
 30
0.0
 11
7782.52740529884
 21
2683.838457538576
 31
0.0
  0
LINE
  5
214FE
330
747D
100
AcDbEntity
  8
部品1
100
AcDbLine
 10
7660.777405298841
 20
2257.244356152147
 30
0.0
 11
7710.277405298841
 21
2257.244356152147
 31
0.0
  0
ARC
  5
214FF
330
747D
100
AcDbEntity
  8
部品1
100
AcDbCircle
 10
7657.402405298842
 20
2321.369356152144
 30
0.0
 40
3.375
100
AcDbArc
 50
0.0
 51
90.0
  0
LINE
  5
21500
330
747D
100
AcDbEntity
  8
部品1
100
AcDbLine
 10
7660.777405298841
 20
2321.369356152144
 30
0.0
 11
7660.777405298841
 21
2257.244356152147
 31
0.0
  0
LINE
  5
21501
330
747D
100
AcDbEntity
  8
部品1
 48
50.0
100
AcDbLine
 10
7752.527405298841
 20
2521.648466707488
 30
0.0
 11
7752.527405298841
 21
2509.648466707488
 31
0.0
  0
LINE
  5
21502
330
747D
100
AcDbEntity
  8
部品1
100
AcDbLine
 10
7690.027405298842
 20
2272.194356152148
 30
0.0
 11
7725.227405298845
 21
2272.194356152148
 31
0.0
  0
ARC
  5
21503
330
747D
100
AcDbEntity
  8
部品1
100
AcDbCircle
 10
7690.027405298842
 20
2268.81935615215
 30
0.0
 40
3.375
100
AcDbArc
 50
90.0
 51
180.0
  0
ARC
  5
21504
330
747D
100
AcDbEntity
  8
部品1
100
AcDbCircle
 10
7725.227405298845
 20
2268.81935615215
 30
0.0
 40
3.375
100
AcDbArc
 50
0.0
 51
90.0
  0
LINE
  5
21505
330
747D
100
AcDbEntity
  8
部品1
100
AcDbLine
 10
7791.277405298844
 20
2246.694356152147
 30
0.0
 11
7813.77740529884
 21
2246.694356152147
 31
0.0
  0
LINE
  5
21506
330
747D
100
AcDbEntity
  8
部品1
100
AcDbLine
 10
7795.777405298841
 20
2251.194356152148
 30
0.0
 11
7809.27740529884
 21
2251.194356152148
 31
0.0
  0
ARC
  5
21507
330
747D
100
AcDbEntity
  8
部品1
100
AcDbCircle
 10
7710.277405298841
 20
2253.869356152148
 30
0.0
 40
3.375
100
AcDbArc
 50
0.0
 51
90.0
  0
LINE
  5
21508
330
747D
100
AcDbEntity
  8
部品1
100
AcDbLine
 10
7686.652405298842
 20
2268.81935615215
 30
0.0
 11
7686.652405298842
 21
2247.444356152147
 31
0.0
  0
ARC
  5
21509
330
747D
100
AcDbEntity
  8
部品1
100
AcDbCircle
 10
7604.527405298842
 20
2321.369356152148
 30
0.0
 40
3.375
100
AcDbArc
 50
90.0
 51
180.0
  0
LINE
  5
2150A
330
747D
100
AcDbEntity
  8
部品1
100
AcDbLine
 10
7601.152405298844
 20
2311.244356152148
 30
0.0
 11
7601.152405298844
 21
2311.244356152148
 31
0.0
  0
LINE
  5
2150B
330
747D
100
AcDbEntity
  8
部品1
100
AcDbLine
 10
7601.152405298844
 20
2311.244356152148
 30
0.0
 11
7601.152405298844
 21
2321.369356152148
 31
0.0
  0
LINE
  5
2150C
330
747D
100
AcDbEntity
  8
部品1
100
AcDbLine
 10
7597.777405298842
 20
2297.744356152147
 30
0.0
 11
7597.777405298842
 21
2307.869356152147
 31
0.0
  0
ARC
  5
2150D
330
747D
100
AcDbEntity
  8
部品1
100
AcDbCircle
 10
7601.152405298844
 20
2307.869356152147
 30
0.0
 40
3.375
100
AcDbArc
 50
90.0
 51
180.0
  0
LINE
  5
2150E
330
747D
100
AcDbEntity
  8
部品1
100
AcDbLine
 10
7547.152405298842
 20
2284.244356152147
 30
0.0
 11
7547.152405298842
 21
2294.369356152146
 31
0.0
  0
ARC
  5
2150F
330
747D
100
AcDbEntity
  8
部品1
100
AcDbCircle
 10
7550.527405298841
 20
2294.369356152146
 30
0.0
 40
3.375
100
AcDbArc
 50
90.0
 51
180.0
  0
ARC
  5
21510
330
747D
100
AcDbEntity
  8
部品1
100
AcDbCircle
 10
7537.027405298842
 20
2278.234235780532
 30
0.0
 40
3.375
100
AcDbArc
 50
104.0362434679059
 51
180.0
  0
LINE
  5
21511
330
747D
100
AcDbEntity
  8
部品1
100
AcDbLine
 10
7536.208847564345
 20
2281.508466718523
 30
0.0
 11
7547.152405298842
 21
2284.244356152147
 31
0.0
  0
LINE
  5
21512
330
747D
100
AcDbEntity
  8
部品1
100
AcDbLine
 10
7550.527405298841
 20
2297.744356152147
 30
0.0
 11
7597.777405298842
 21
2297.744356152147
 31
0.0
  0
LINE
  5
21513
330
747D
100
AcDbEntity
  8
部品1
100
AcDbLine
 10
7604.527405298842
 20
2324.744356152146
 30
0.0
 11
7657.402405298842
 21
2324.744356152144
 31
0.0
  0
ELLIPSE
  5
21514
330
747D
100
AcDbEntity
  8
部品1
 48
50.0
100
AcDbEllipse
 10
7802.527405298841
 20
2521.648466707488
 30
0.0
 11
23.0
 21
0.0
 31
0.0
210
0.0
220
0.0
230
1.0
 40
0.3478260869565217
 41
0.0
 42
6.283185307179584
  0
ELLIPSE
  5
21515
330
747D
100
AcDbEntity
  8
部品1
 48
50.0
100
AcDbEllipse
 10
7802.527405298841
 20
2521.648466707488
 30
0.0
 11
50.0
 21
0.0
 31
0.0
210
0.0
220
0.0
230
1.0
 40
0.4
 41
0.0
 42
6.283185307179584
  0
ELLIPSE
  5
21516
330
747D
100
AcDbEntity
  8
部品1
 48
50.0
100
AcDbEllipse
 10
7802.527405298841
 20
2509.648466707488
 30
0.0
 11
50.0
 21
0.0
 31
0.0
210
0.0
220
0.0
230
1.0
 40
0.4
 41
3.141592653589792
 42
6.283185307179584
  0
LINE
  5
21517
330
747D
100
AcDbEntity
  8
部品1
 48
50.0
100
AcDbLine
 10
7782.52740529884
 20
2683.838457538576
 30
0.0
 11
7822.527405298844
 21
2683.838457538576
 31
0.0
  0
ELLIPSE
  5
21518
330
747D
100
AcDbEntity
  8
細線
 48
50.0
100
AcDbEllipse
 10
7802.527405298841
 20
2673.838457538578
 30
0.0
 11
18.45838483258558
 21
0.0
 31
0.0
210
0.0
220
0.0
230
1.0
 40
0.2071254069489396
 41
0.0
 42
6.283185307179584
  0
LINE
  5
21519
330
747D
100
AcDbEntity
  8
部品1
 48
50.0
100
AcDbLine
 10
7782.52740529884
 20
2623.838457538576
 30
0.0
 11
7822.527405298844
 21
2623.838457538576
 31
0.0
  0
LINE
  5
2151A
330
747D
100
AcDbEntity
  8
部品1
 48
50.0
100
AcDbLine
 10
7782.52740529884
 20
2663.838457538576
 30
0.0
 11
7822.527405298844
 21
2663.838457538576
 31
0.0
  0
LINE
  5
2151B
330
747D
100
AcDbEntity
  8
細線
 48
50.0
100
AcDbLine
 10
7881.277405298845
 20
1986.654709262883
 30
0.0
 11
8043.277405298841
 21
2148.654709262881
 31
0.0
  0
LINE
  5
2151C
330
747D
100
AcDbEntity
  8
細線
 48
50.0
100
AcDbLine
 10
7881.277405298845
 20
1952.97874880886
 30
0.0
 11
8043.277405298841
 21
2114.978748808856
 31
0.0
  0
LINE
  5
2151D
330
747D
100
AcDbEntity
  8
部品1
100
AcDbLine
 10
7858.777405298845
 20
1881.494356152145
 30
0.0
 11
7858.777405298845
 21
1903.994356152146
 31
0.0
  0
LINE
  5
2151E
330
747D
100
AcDbEntity
  8
部品1
100
AcDbLine
 10
7881.27740529884
 20
1780.244356152145
 30
0.0
 11
7881.27740529884
 21
2185.244356152147
 31
0.0
  0
LINE
  5
2151F
330
747D
100
AcDbEntity
  8
細線
 48
50.0
100
AcDbLine
 10
7881.277405298845
 20
1919.302788354843
 30
0.0
 11
8043.277405298841
 21
2081.302788354833
 31
0.0
  0
LINE
  5
21520
330
747D
100
AcDbEntity
  8
部品1
100
AcDbLine
 10
7695.652405298841
 20
2197.194356152147
 30
0.0
 11
7710.277405298841
 21
2197.194356152147
 31
0.0
  0
ARC
  5
21521
330
747D
100
AcDbEntity
  8
部品1
100
AcDbCircle
 10
7731.977405298836
 20
2200.569356152147
 30
0.0
 40
3.375
100
AcDbArc
 50
180.0
 51
270.0
  0
ARC
  5
21522
330
747D
100
AcDbEntity
  8
部品1
100
AcDbCircle
 10
7710.277405298841
 20
2200.569356152147
 30
0.0
 40
3.375
100
AcDbArc
 50
270.0
 51
0.0
  0
ARC
  5
21523
330
747D
100
AcDbEntity
  8
部品1
100
AcDbCircle
 10
7537.027405298842
 20
2200.569356152147
 30
0.0
 40
3.375
100
AcDbArc
 50
180.0
 51
270.0
  0
LINE
  5
21524
330
747D
100
AcDbEntity
  8
細線
 48
50.0
100
AcDbLine
 10
7525.777405298843
 20
2169.970076527027
 30
0.0
 11
7541.051684923961
 21
2185.244356152147
 31
0.0
  0
LINE
  5
21525
330
747D
100
AcDbEntity
  8
部品1
100
AcDbLine
 10
7537.027405298842
 20
2197.194356152147
 30
0.0
 11
7551.652405298836
 21
2197.194356152147
 31
0.0
  0
LINE
  5
21526
330
747D
100
AcDbEntity
  8
細線
 48
50.0
100
AcDbLine
 10
7525.777405298843
 20
2136.294116073019
 30
0.0
 11
7574.727645377975
 21
2185.244356152147
 31
0.0
  0
LINE
  5
21527
330
747D
100
AcDbEntity
  8
細線
 48
50.0
100
AcDbLine
 10
7525.777405298843
 20
2102.618155619008
 30
0.0
 11
7608.40360583198
 21
2185.244356152147
 31
0.0
  0
ARC
  5
21528
330
747D
100
AcDbEntity
  8
部品1
100
AcDbCircle
 10
7813.77740529884
 20
1903.994356152146
 30
0.0
 40
22.5
100
AcDbArc
 50
180.0
 51
270.0
  0
LINE
  5
21529
330
747D
100
AcDbEntity
  8
細線
 48
50.0
100
AcDbLine
 10
7525.777405298843
 20
1833.210471986934
 30
0.0
 11
7723.777405298837
 21
2031.210471986927
 31
0.0
  0
LINE
  5
2152A
330
747D
100
AcDbEntity
  8
部品1
100
AcDbLine
 10
7723.777405298837
 20
1780.244356152145
 30
0.0
 11
7723.777405298841
 21
2185.244356152147
 31
0.0
  0
LINE
  5
2152B
330
747D
100
AcDbEntity
  8
細線
 48
50.0
100
AcDbLine
 10
7525.777405298843
 20
1900.562392894953
 30
0.0
 11
7723.777405298837
 21
2098.562392894951
 31
0.0
  0
LINE
  5
2152C
330
747D
100
AcDbEntity
  8
細線
 48
50.0
100
AcDbLine
 10
7525.777405298843
 20
1866.886432440945
 30
0.0
 11
7723.777405298837
 21
2064.88643244094
 31
0.0
  0
LINE
  5
2152D
330
747D
100
AcDbEntity
  8
部品1
100
AcDbLine
 10
7881.27740529884
 20
1780.244356152145
 30
0.0
 11
7723.777405298837
 21
1780.244356152145
 31
0.0
  0
LINE
  5
2152E
330
747D
100
AcDbEntity
  8
部品1
 48
50.0
100
AcDbLine
 10
7525.777405298843
 20
2185.244356152147
 30
0.0
 11
8043.277405298844
 21
2185.244356152147
 31
0.0
  0
LINE
  5
2152F
330
747D
100
AcDbEntity
  8
部品1
100
AcDbLine
 10
7731.977405298836
 20
2197.194356152147
 30
0.0
 11
7983.652405298837
 21
2197.194356152147
 31
0.0
  0
LINE
  5
21530
330
747D
100
AcDbEntity
  8
部品1
100
AcDbLine
 10
7813.77740529884
 20
1881.494356152145
 30
0.0
 11
7858.777405298845
 21
1881.494356152145
 31
0.0
  0
LINE
  5
21531
330
747D
100
AcDbEntity
  8
部品1
100
AcDbLine
 10
7813.77740529884
 20
1903.994356152146
 30
0.0
 11
7858.777405298845
 21
1903.994356152146
 31
0.0
  0
LINE
  5
21532
330
747D
100
AcDbEntity
  8
部品1
100
AcDbLine
 10
7533.652405298844
 20
2200.569356152147
 30
0.0
 11
7533.652405298844
 21
2278.234235780532
 31
0.0
  0
LINE
  5
21533
330
747D
100
AcDbEntity
  8
細線
100
AcDbLine
 10
7809.27740529884
 20
2197.194356152147
 30
0.0
 11
7809.27740529884
 21
2251.194356152148
 31
0.0
  0
LINE
  5
21534
330
747D
100
AcDbEntity
  8
細線
100
AcDbLine
 10
7795.777405298848
 20
2197.194356152147
 30
0.0
 11
7795.777405298841
 21
2251.194356152148
 31
0.0
  0
LINE
  5
21535
330
747D
100
AcDbEntity
  8
部品1
100
AcDbLine
 10
7713.652405298841
 20
2253.869356152148
 30
0.0
 11
7713.652405298841
 21
2200.569356152147
 31
0.0
  0
LINE
  5
21536
330
747D
100
AcDbEntity
  8
部品1
100
AcDbLine
 10
7728.602405298845
 20
2268.81935615215
 30
0.0
 11
7728.602405298838
 21
2200.569356152147
 31
0.0
  0
LINE
  5
21537
330
747D
100
AcDbEntity
  8
部品1
100
AcDbLine
 10
7813.77740529884
 20
1903.994356152146
 30
0.0
 11
7813.777405298838
 21
2246.694356152147
 31
0.0
  0
LINE
  5
21538
330
747D
100
AcDbEntity
  8
部品1
100
AcDbLine
 10
7791.277405298844
 20
1903.994356152146
 30
0.0
 11
7791.277405298837
 21
2246.694356152147
 31
0.0
  0
TEXT
  5
21539
330
747D
100
AcDbEntity
  8
部品1
 48
50.0
100
AcDbText
 10
7008.102528007646
 20
1899.293096506215
 30
0.0
 40
100.0
  1
▽G.L
  7
STYLE2
100
AcDbText
  0
LWPOLYLINE
  5
2153A
330
747D
100
AcDbEntity
  8
部品1
 48
50.0
100
AcDbPolyline
 90
        2
 70
     0
 43
10.0
 10
7008.102528007646
 20
1885.244356152148
 10
7525.777405298843
 20
1885.244356152148
  0
LINE
  5
2153B
330
747D
100
AcDbEntity
  8
部品1
 48
50.0
100
AcDbLine
 10
8043.277405298841
 20
1505.244356152145
 30
0.0
 11
8203.277405298841
 21
1505.244356152145
 31
0.0
  0
LINE
  5
2153C
330
747D
100
AcDbEntity
  8
細線
 48
50.0
100
AcDbLine
 10
8051.529574421131
 20
1175.244356152147
 30
0.0
 11
8043.491098648201
 21
1205.244356152146
 31
0.0
  0
LINE
  5
2153D
330
747D
100
AcDbEntity
  8
細線
 48
50.0
100
AcDbLine
 10
8150.139630605202
 20
1175.244356152145
 30
0.0
 11
8142.101154832271
 21
1205.244356152145
 31
0.0
  0
LINE
  5
2153E
330
747D
100
AcDbEntity
  8
細線
 48
50.0
100
AcDbLine
 10
7854.309462053027
 20
1175.244356152147
 30
0.0
 11
7846.270986280099
 21
1205.244356152146
 31
0.0
  0
LINE
  5
2153F
330
747D
100
AcDbEntity
  8
細線
 48
50.0
100
AcDbLine
 10
7952.919518237084
 20
1175.244356152147
 30
0.0
 11
7944.881042464152
 21
1205.244356152146
 31
0.0
  0
LINE
  5
21540
330
747D
100
AcDbEntity
  8
細線
 48
50.0
100
AcDbLine
 10
7908.090103084332
 20
1205.244356152146
 30
0.0
 11
8203.277405298841
 21
1500.431658366655
 31
0.0
  0
LINE
  5
21541
330
747D
100
AcDbEntity
  8
細線
 48
50.0
100
AcDbLine
 10
7941.76606353835
 20
1205.244356152146
 30
0.0
 11
8203.277405298841
 21
1466.755697912638
 31
0.0
  0
LINE
  5
21542
330
747D
100
AcDbEntity
  8
細線
 48
50.0
100
AcDbLine
 10
7975.442023992354
 20
1205.244356152146
 30
0.0
 11
8203.277405298841
 21
1433.079737458641
 31
0.0
  0
LINE
  5
21543
330
747D
100
AcDbEntity
  8
部品1
 48
50.0
100
AcDbLine
 10
8203.277405298841
 20
1505.244356152145
 30
0.0
 11
8203.277405298841
 21
1205.244356152146
 31
0.0
  0
LINE
  5
21544
330
747D
100
AcDbEntity
  8
細線
 48
50.0
100
AcDbLine
 10
7657.089349684913
 20
1175.244356152147
 30
0.0
 11
7649.05087391198
 21
1205.244356152146
 31
0.0
  0
LINE
  5
21545
330
747D
100
AcDbEntity
  8
細線
 48
50.0
100
AcDbLine
 10
7755.69940586897
 20
1175.244356152147
 30
0.0
 11
7747.660930096039
 21
1205.244356152146
 31
0.0
  0
LINE
  5
21546
330
747D
100
AcDbEntity
  8
細線
 48
50.0
100
AcDbLine
 10
7459.869237316785
 20
1175.244356152147
 30
0.0
 11
7451.830761543849
 21
1205.244356152146
 31
0.0
  0
LINE
  5
21547
330
747D
100
AcDbEntity
  8
細線
 48
50.0
100
AcDbLine
 10
7558.479293500849
 20
1175.244356152147
 30
0.0
 11
7550.440817727913
 21
1205.244356152146
 31
0.0
  0
LINE
  5
21548
330
747D
100
AcDbEntity
  8
細線
 48
50.0
100
AcDbLine
 10
7638.682419452258
 20
1205.244356152146
 30
0.0
 11
8043.277405298841
 21
1609.839341998728
 31
0.0
  0
LINE
  5
21549
330
747D
100
AcDbEntity
  8
細線
 48
50.0
100
AcDbLine
 10
7672.35837990627
 20
1205.244356152146
 30
0.0
 11
8043.277405298841
 21
1576.163381544711
 31
0.0
  0
LINE
  5
2154A
330
747D
100
AcDbEntity
  8
細線
 48
50.0
100
AcDbLine
 10
7706.03434036028
 20
1205.244356152146
 30
0.0
 11
8043.277405298841
 21
1542.487421090717
 31
0.0
  0
LINE
  5
2154B
330
747D
100
AcDbEntity
  8
細線
 48
50.0
100
AcDbLine
 10
8024.734655178034
 20
1075.244356152146
 30
0.0
 11
8032.773130950978
 21
1045.244356152146
 31
0.0
  0
LINE
  5
2154C
330
747D
100
AcDbEntity
  8
細線
 48
50.0
100
AcDbLine
 10
8123.344711362092
 20
1075.244356152145
 30
0.0
 11
8131.383187135025
 21
1045.244356152145
 31
0.0
  0
LINE
  5
2154D
330
747D
100
AcDbEntity
  8
細線
 48
50.0
100
AcDbLine
 10
7827.514542809915
 20
1075.244356152146
 30
0.0
 11
7835.553018582849
 21
1045.244356152146
 31
0.0
  0
LINE
  5
2154E
330
747D
100
AcDbEntity
  8
細線
 48
50.0
100
AcDbLine
 10
7926.124598993976
 20
1075.244356152146
 30
0.0
 11
7934.163074766906
 21
1045.244356152146
 31
0.0
  0
LINE
  5
2154F
330
747D
100
AcDbEntity
  8
細線
 48
50.0
100
AcDbLine
 10
7630.2944304418
 20
1075.244356152146
 30
0.0
 11
7638.332906214734
 21
1045.244356152146
 31
0.0
  0
LINE
  5
21550
330
747D
100
AcDbEntity
  8
細線
 48
50.0
100
AcDbLine
 10
7728.904486625857
 20
1075.244356152146
 30
0.0
 11
7736.942962398794
 21
1045.244356152146
 31
0.0
  0
LINE
  5
21551
330
747D
100
AcDbEntity
  8
細線
 48
50.0
100
AcDbLine
 10
7433.07431807367
 20
1075.244356152146
 30
0.0
 11
7441.112793846605
 21
1045.244356152146
 31
0.0
  0
LINE
  5
21552
330
747D
100
AcDbEntity
  8
細線
 48
50.0
100
AcDbLine
 10
7531.684374257736
 20
1075.244356152146
 30
0.0
 11
7539.722850030672
 21
1045.244356152146
 31
0.0
  0
LINE
  5
21553
330
747D
100
AcDbEntity
  8
細線
 48
50.0
100
AcDbLine
 10
8016.696179405093
 20
1045.244356152145
 30
0.0
 11
8059.568050194064
 21
1205.244356152146
 31
0.0
  0
LINE
  5
21554
330
747D
100
AcDbEntity
  8
細線
 48
50.0
100
AcDbLine
 10
8115.306235589157
 20
1045.244356152142
 30
0.0
 11
8158.178106378134
 21
1205.244356152143
 31
0.0
  0
LINE
  5
21555
330
747D
100
AcDbEntity
  8
細線
 48
50.0
100
AcDbLine
 10
7819.476067036977
 20
1045.244356152145
 30
0.0
 11
7862.34793782596
 21
1205.244356152145
 31
0.0
  0
LINE
  5
21556
330
747D
100
AcDbEntity
  8
細線
 48
50.0
100
AcDbLine
 10
7622.255954668858
 20
1045.244356152146
 30
0.0
 11
7665.12782545784
 21
1205.244356152146
 31
0.0
  0
LINE
  5
21557
330
747D
100
AcDbEntity
  8
細線
 48
50.0
100
AcDbLine
 10
7720.866010852917
 20
1045.244356152146
 30
0.0
 11
7763.737881641898
 21
1205.244356152145
 31
0.0
  0
LINE
  5
21558
330
747D
100
AcDbEntity
  8
細線
 48
50.0
100
AcDbLine
 10
7918.086123221032
 20
1045.244356152146
 30
0.0
 11
7960.957994010015
 21
1205.244356152145
 31
0.0
  0
LINE
  5
21559
330
747D
100
AcDbEntity
  8
細線
 48
50.0
100
AcDbLine
 10
7425.035842300736
 20
1045.244356152146
 30
0.0
 11
7467.907713089715
 21
1205.244356152146
 31
0.0
  0
LINE
  5
2155A
330
747D
100
AcDbEntity
  8
細線
 48
50.0
100
AcDbLine
 10
7523.645898484793
 20
1045.244356152145
 30
0.0
 11
7566.517769273776
 21
1205.244356152145
 31
0.0
  0
LINE
  5
2155B
330
747D
100
AcDbEntity
  8
細線
 48
50.0
100
AcDbLine
 10
7365.777405298834
 20
1471.154709262878
 30
0.0
 11
7399.867052188111
 21
1505.244356152145
 31
0.0
  0
LINE
  5
2155C
330
747D
100
AcDbEntity
  8
細線
 48
50.0
100
AcDbLine
 10
7265.777405298841
 20
1186.919257359371
 30
0.0
 11
7270.687600721585
 21
1205.244356152146
 31
0.0
  0
LINE
  5
2155D
330
747D
100
AcDbEntity
  8
細線
 48
50.0
100
AcDbLine
 10
7361.259181132719
 20
1175.244356152147
 30
0.0
 11
7353.220705359785
 21
1205.244356152146
 31
0.0
  0
LINE
  5
2155E
330
747D
100
AcDbEntity
  8
部品1
 48
50.0
100
AcDbLine
 10
7365.777405298842
 20
1205.244356152146
 30
0.0
 11
7365.777405298842
 21
1505.244356152145
 31
0.0
  0
LINE
  5
2155F
330
747D
100
AcDbEntity
  8
細線
 48
50.0
100
AcDbLine
 10
7334.464261889606
 20
1075.244356152146
 30
0.0
 11
7342.502737662541
 21
1045.244356152146
 31
0.0
  0
LINE
  5
21560
330
747D
100
AcDbEntity
  8
部品1
 48
50.0
100
AcDbLine
 10
7265.777405298847
 20
1045.244356152146
 30
0.0
 11
7265.777405298847
 21
1205.244356152146
 31
0.0
  0
LINE
  5
21561
330
747D
100
AcDbEntity
  8
細線
 48
50.0
100
AcDbLine
 10
7326.425786116667
 20
1045.244356152145
 30
0.0
 11
7369.297656905644
 21
1205.244356152145
 31
0.0
  0
LINE
  5
21562
330
747D
100
AcDbEntity
  8
細線
 48
50.0
100
AcDbLine
 10
7365.777405298834
 20
1437.478748808865
 30
0.0
 11
7433.543012642123
 21
1505.244356152145
 31
0.0
  0
LINE
  5
21563
330
747D
100
AcDbEntity
  8
細線
 48
50.0
100
AcDbLine
 10
7365.777405298834
 20
1403.802788354859
 30
0.0
 11
7467.218973096128
 21
1505.244356152145
 31
0.0
  0
LINE
  5
21564
330
747D
100
AcDbEntity
  8
部品1
 48
50.0
100
AcDbLine
 10
7365.777405298842
 20
1505.244356152145
 30
0.0
 11
7525.777405298843
 21
1505.244356152145
 31
0.0
  0
LINE
  5
21565
330
747D
100
AcDbEntity
  8
細線
 48
50.0
100
AcDbLine
 10
7369.274735820185
 20
1205.244356152146
 30
0.0
 11
8043.277405298841
 21
1879.247025630802
 31
0.0
  0
LINE
  5
21566
330
747D
100
AcDbEntity
  8
部品1
100
AcDbLine
 10
8043.277405298841
 20
1505.244356152145
 30
0.0
 11
8043.277405298841
 21
2185.244356152147
 31
0.0
  0
LINE
  5
21567
330
747D
100
AcDbEntity
  8
部品1
 48
50.0
100
AcDbLine
 10
7525.777405298843
 20
1505.244356152145
 30
0.0
 11
7525.777405298843
 21
2185.244356152147
 31
0.0
  0
LINE
  5
21568
330
747D
100
AcDbEntity
  8
細線
 48
50.0
100
AcDbLine
 10
7525.777405298843
 20
1597.478748808868
 30
0.0
 11
7723.77740529883
 21
1795.478748808854
 31
0.0
  0
LINE
  5
21569
330
747D
100
AcDbEntity
  8
細線
 48
50.0
100
AcDbLine
 10
7525.777405298843
 20
1563.802788354859
 30
0.0
 11
7742.218973096138
 21
1780.244356152145
 31
0.0
  0
LINE
  5
2156A
330
747D
100
AcDbEntity
  8
細線
 48
50.0
100
AcDbLine
 10
7525.777405298843
 20
1631.154709262878
 30
0.0
 11
7723.77740529883
 21
1829.154709262871
 31
0.0
  0
LINE
  5
2156B
330
747D
100
AcDbEntity
  8
細線
 48
50.0
100
AcDbLine
 10
7436.626656728204
 20
1205.244356152146
 30
0.0
 11
8043.277405298841
 21
1811.895104722782
 31
0.0
  0
LINE
  5
2156C
330
747D
100
AcDbEntity
  8
細線
 48
50.0
100
AcDbLine
 10
7402.950696274196
 20
1205.244356152146
 30
0.0
 11
8043.277405298844
 21
1845.571065176789
 31
0.0
  0
TEXT
  5
2156D
330
747D
100
AcDbEntity
  8
部品1
 48
50.0
100
AcDbText
 10
8048.719385654377
 20
2630.092707104898
 30
0.0
 40
100.0
  1
基礎ボルト(市販品)
  7
STYLE2
100
AcDbText
  0
DIMENSION
  5
2156E
330
747D
100
AcDbEntity
  8
寸法
 48
50.0
100
AcDbDimension
  2
*D40
 10
8670.613155009895
 20
2185.244356152147
 30
0.0
 11
9015.681487658682
 21
2153.83940914688
 31
0.0
 70
   160
  1
20～25
 71
     5
 42
65.95000000000073
  3
INABA_S40G
100
AcDbAlignedDimension
 13
7809.27740529884
 23
2251.194356152148
 33
0.0
 14
8043.277405298841
 24
2185.244356152147
 34
0.0
 50
90.0
100
AcDbRotatedDimension
1001
ACAD
1000
DSTYLE
1002
{
1070
   174
1070
     0
1070
   272
1070
     1
1070
   279
1070
     1
1070
   288
1070
     0
1070
   341
1005
0
1002
}
  0
LINE
  5
2156F
330
747D
100
AcDbEntity
  8
細線
 48
50.0
100
AcDbLine
 10
8213.916291773207
 20
1045.244356152145
 30
0.0
 11
8256.788162562193
 21
1205.244356152143
 31
0.0
  0
LINE
  5
21570
330
747D
100
AcDbEntity
  8
部品1
 48
50.0
100
AcDbLine
 10
8303.277405298848
 20
1045.244356152146
 30
0.0
 11
7265.777405298847
 21
1045.244356152146
 31
0.0
  0
LINE
  5
21571
330
747D
100
AcDbEntity
  8
細線
 48
50.0
100
AcDbLine
 10
8221.954767546149
 20
1075.244356152145
 30
0.0
 11
8229.993243319086
 21
1045.244356152145
 31
0.0
  0
LINE
  5
21572
330
747D
100
AcDbEntity
  8
部品1
 48
50.0
100
AcDbLine
 10
8303.277405298848
 20
1205.244356152146
 30
0.0
 11
7265.777405298847
 21
1205.244356152146
 31
0.0
  0
LWPOLYLINE
  5
21573
330
747D
100
AcDbEntity
  8
部品1
 48
50.0
100
AcDbPolyline
 90
        2
 70
     0
 43
10.0
 10
8043.277405298841
 20
1885.244356152148
 10
8410.405484548073
 20
1885.244356152148
  0
DIMENSION
  5
21574
330
747D
100
AcDbEntity
  8
寸法
 48
50.0
100
AcDbDimension
  2
*D41
 10
8670.613155009895
 20
1780.244356152145
 30
0.0
 11
8570.613155009896
 21
1982.744356152147
 31
0.0
 70
    32
  1
180
 71
     5
 42
405.0000000000022
  3
INABA_S40G
100
AcDbAlignedDimension
 13
8043.277405298841
 23
2185.244356152147
 33
0.0
 14
8043.277405298841
 24
1780.244356152145
 34
0.0
 50
90.0
100
AcDbRotatedDimension
1001
ACAD
1000
DSTYLE
1002
{
1070
   174
1070
     0
1070
   272
1070
     1
1070
   279
1070
     1
1070
   288
1070
     0
1070
   341
1005
0
1002
}
  0
MTEXT
  5
21575
102
{ACAD_REACTORS
330
21576
102
}
330
747D
100
AcDbEntity
  8
部品1
 62
     7
 48
50.0
100
AcDbMText
 10
8054.457983322992
 20
2515.723513843685
 30
0.0
 40
100.0
 41
1.0
 71
     4
 72
     1
  1
M10X160
  7
STYLE2
 73
     1
 44
1.0
1001
ACAD
1000
MTEXTBEGIN
1070
    73
1070
     1
1070
    44
1040
1.0
1070
    74
1070
     0
1000
MTEXTEND
  0
LEADER
  5
21576
330
747D
100
AcDbEntity
  8
寸法
 48
50.0
100
AcDbLeader
  3
INABA_S40G
 73
     0
 74
     0
 75
     1
 40
100.0
 41
543.75
 76
     3
 10
7813.77740529884
 20
2246.694356152147
 30
0.0
 10
7914.457983322991
 20
2425.723513843685
 30
0.0
 10
8014.457983322991
 20
2425.723513843685
 30
0.0
1001
ACAD
1000
DSTYLE
1002
{
1070
   174
1070
     0
1070
   272
1070
     1
1070
   279
1070
     1
1070
   288
1070
     0
1070
   341
1005
0
1002
}
  0
LINE
  5
21577
330
747D
100
AcDbEntity
  8
細線
 48
50.0
100
AcDbLine
 10
5400.72826382735
 20
2136.294116073019
 30
0.0
 11
5449.678503906483
 21
2185.244356152147
 31
0.0
  0
LINE
  5
21578
330
747D
100
AcDbEntity
  8
細線
 48
50.0
100
AcDbLine
 10
5400.72826382735
 20
2102.618155619008
 30
0.0
 11
5483.354464360488
 21
2185.244356152147
 31
0.0
  0
LINE
  5
21579
330
747D
100
AcDbEntity
  8
細線
 48
50.0
100
AcDbLine
 10
5400.72826382735
 20
2169.970076527027
 30
0.0
 11
5416.002543452469
 21
2185.244356152147
 31
0.0
  0
ARC
  5
2157A
330
747D
100
AcDbEntity
  8
部品1
 48
50.0
100
AcDbCircle
 10
5520.728263827351
 20
2010.562392894952
 30
0.0
 40
30.0
100
AcDbArc
 50
0.0
 51
180.0
  0
CIRCLE
  5
2157B
330
747D
100
AcDbEntity
  8
部品1
 48
50.0
100
AcDbCircle
 10
5520.728263827351
 20
2010.562392894952
 30
0.0
 40
10.0
  0
LINE
  5
2157C
330
747D
100
AcDbEntity
  8
細線
 48
50.0
100
AcDbLine
 10
5510.728263827348
 20
1976.886432440944
 30
0.0
 11
5530.728263827352
 21
1996.886432440944
 31
0.0
  0
LINE
  5
2157D
330
747D
100
AcDbEntity
  8
細線
 48
50.0
100
AcDbLine
 10
5550.72826382735
 20
1983.210471986934
 30
0.0
 11
5640.728263827352
 21
2073.210471986934
 31
0.0
  0
LINE
  5
2157E
330
747D
100
AcDbEntity
  8
細線
 48
50.0
100
AcDbLine
 10
5550.169147909834
 20
2016.327316523424
 30
0.0
 11
5640.728263827352
 21
2106.886432440943
 31
0.0
  0
LINE
  5
2157F
330
747D
100
AcDbEntity
  8
細線
 48
50.0
100
AcDbLine
 10
5536.343791955437
 20
2036.17792102304
 30
0.0
 11
5640.728263827352
 21
2140.562392894953
 31
0.0
  0
LINE
  5
21580
330
747D
100
AcDbEntity
  8
部品1
 48
50.0
100
AcDbLine
 10
5400.72826382735
 20
2185.244356152147
 30
0.0
 11
5640.728263827352
 21
2185.244356152147
 31
0.0
  0
LINE
  5
21581
330
747D
100
AcDbEntity
  8
細線
 48
50.0
100
AcDbLine
 10
5400.72826382735
 20
1833.210471986934
 30
0.0
 11
5505.421166363968
 21
1937.903374523549
 31
0.0
  0
LINE
  5
21582
330
747D
100
AcDbEntity
  8
部品1
 48
50.0
100
AcDbLine
 10
5510.728263827348
 20
1937.903374523549
 30
0.0
 11
5490.72826382735
 21
1937.903374523553
 31
0.0
  0
LINE
  5
21583
330
747D
100
AcDbEntity
  8
細線
 48
50.0
100
AcDbLine
 10
5550.728263827357
 20
1713.80278835486
 30
0.0
 11
5640.728263827344
 21
1803.802788354859
 31
0.0
  0
LINE
  5
21584
330
747D
100
AcDbEntity
  8
細線
 48
50.0
100
AcDbLine
 10
5550.72826382735
 20
1781.154709262877
 30
0.0
 11
5640.728263827352
 21
1871.154709262878
 31
0.0
  0
LINE
  5
21585
330
747D
100
AcDbEntity
  8
細線
 48
50.0
100
AcDbLine
 10
5550.728263827357
 20
1747.478748808872
 30
0.0
 11
5640.728263827344
 21
1837.478748808865
 31
0.0
  0
LINE
  5
21586
330
747D
100
AcDbEntity
  8
細線
 48
50.0
100
AcDbLine
 10
5400.72826382735
 20
1866.886432440945
 30
0.0
 11
5490.72826382735
 21
1956.886432440944
 31
0.0
  0
LINE
  5
21587
330
747D
100
AcDbEntity
  8
細線
 48
50.0
100
AcDbLine
 10
5400.72826382735
 20
1900.562392894953
 30
0.0
 11
5490.72826382735
 21
1990.562392894953
 31
0.0
  0
LINE
  5
21588
330
747D
100
AcDbEntity
  8
細線
 48
50.0
100
AcDbLine
 10
5510.728263827348
 20
1943.210471986934
 30
0.0
 11
5530.728263827352
 21
1963.210471986934
 31
0.0
  0
LINE
  5
21589
330
747D
100
AcDbEntity
  8
部品1
 48
50.0
100
AcDbLine
 10
5490.72826382735
 20
1937.903374523553
 30
0.0
 11
5490.72826382735
 21
2010.562392894952
 31
0.0
  0
LINE
  5
2158A
330
747D
100
AcDbEntity
  8
部品1
 48
50.0
100
AcDbLine
 10
5510.728263827348
 20
1937.903374523549
 30
0.0
 11
5510.728263827348
 21
2010.562392894952
 31
0.0
  0
LEADER
  5
2158B
330
747D
100
AcDbEntity
  8
寸法
 48
50.0
100
AcDbLeader
  3
INABA_S40G
 71
     0
 74
     0
 40
100.0
 41
222.7272727272727
 76
     2
 10
5520.728263827351
 20
2010.562392894952
 30
0.0
 10
5719.335685111594
 20
1936.828807775805
 30
0.0
1001
ACAD
1000
DSTYLE
1002
{
1070
   174
1070
     0
1070
   272
1070
     1
1070
   279
1070
     1
1070
   288
1070
     0
1070
   341
1005
0
1002
}
  0
LWPOLYLINE
  5
2158C
330
747D
100
AcDbEntity
  8
部品1
 48
50.0
100
AcDbPolyline
 90
        2
 70
     0
 43
10.0
 10
5640.728263827347
 20
1885.244356152148
 10
6158.403141118547
 20
1885.244356152148
  0
MTEXT
  5
2158D
102
{ACAD_REACTORS
330
2158B
102
}
330
747D
100
AcDbEntity
  8
寸法
 62
     7
 48
50.0
100
AcDbMText
 10
5744.335685111592
 20
2011.828807775805
 30
0.0
 40
100.0
 41
1.0
 71
     4
 72
     1
  1
D13
  7
STYLE2
 73
     1
 44
1.0
1001
ACAD
1000
MTEXTBEGIN
1070
    73
1070
     1
1070
    44
1040
1.0
1070
    74
1070
     0
1000
MTEXTEND
  0
LINE
  5
2158E
330
747D
100
AcDbEntity
  8
細線
 48
50.0
100
AcDbLine
 10
5827.870376765595
 20
1175.244356152147
 30
0.0
 11
5819.831900992659
 21
1205.244356152146
 31
0.0
  0
LINE
  5
2158F
330
747D
100
AcDbEntity
  8
細線
 48
50.0
100
AcDbLine
 10
5783.04096161284
 20
1205.244356152146
 30
0.0
 11
5800.728263827349
 21
1222.931658366654
 31
0.0
  0
MTEXT
  5
21590
102
{ACAD_REACTORS
330
215CF
102
}
330
747D
100
AcDbEntity
  8
寸法
 62
     7
 48
50.0
100
AcDbMText
 10
5929.887838585706
 20
1310.998019973429
 30
0.0
 40
100.0
 41
1.0
 71
     4
 72
     1
  1
D10
  7
STYLE2
 73
     1
 44
1.0
1001
ACAD
1000
MTEXTBEGIN
1070
    73
1070
     1
1070
    44
1040
1.0
1070
    74
1070
     0
1000
MTEXTEND
  0
LINE
  5
21591
330
747D
100
AcDbEntity
  8
部品1
 48
50.0
100
AcDbLine
 10
5800.728263827349
 20
1505.244356152145
 30
0.0
 11
5800.728263827349
 21
1205.244356152146
 31
0.0
  0
LINE
  5
21592
330
747D
100
AcDbEntity
  8
細線
 48
50.0
100
AcDbLine
 10
5801.075457522482
 20
1075.244356152146
 30
0.0
 11
5809.113933295416
 21
1045.244356152146
 31
0.0
  0
LINE
  5
21593
330
747D
100
AcDbEntity
  8
細線
 48
50.0
100
AcDbLine
 10
5899.68551370654
 20
1075.244356152146
 30
0.0
 11
5900.72826382735
 21
1071.35275972169
 31
0.0
  0
LINE
  5
21594
330
747D
100
AcDbEntity
  8
細線
 48
50.0
100
AcDbLine
 10
5891.647037933604
 20
1045.244356152145
 30
0.0
 11
5900.72826382735
 21
1079.135952582632
 31
0.0
  0
MTEXT
  5
21595
102
{ACAD_REACTORS
330
215CD
102
}
330
747D
100
AcDbEntity
  8
寸法
 62
     7
 48
50.0
100
AcDbMText
 10
5942.901333653914
 20
983.5579989869547
 30
0.0
 40
100.0
 41
1.0
 71
     4
 72
     1
  1
\A1;D10@300
  7
STYLE2
 73
     1
 44
1.0
1001
ACAD
1000
MTEXTBEGIN
1070
    73
1070
     1
1070
    44
1040
1.0
1070
    74
1070
     0
1000
MTEXTEND
  0
LINE
  5
21596
330
747D
100
AcDbEntity
  8
部品1
 48
50.0
100
AcDbLine
 10
5900.728263827353
 20
1205.244356152146
 30
0.0
 11
5900.728263827353
 21
1045.244356152146
 31
0.0
  0
LINE
  5
21597
330
747D
100
AcDbEntity
  8
細線
 48
50.0
100
AcDbLine
 10
5793.036981749541
 20
1045.244356152146
 30
0.0
 11
5835.908852538523
 21
1205.244356152145
 31
0.0
  0
LINE
  5
21598
330
747D
100
AcDbEntity
  8
部品1
 48
50.0
100
AcDbLine
 10
5510.728263827348
 20
1427.903374523549
 30
0.0
 11
5490.72826382735
 21
1427.903374523549
 31
0.0
  0
LINE
  5
21599
330
747D
100
AcDbEntity
  8
細線
 48
50.0
100
AcDbLine
 10
5500.560573174104
 20
1427.903374523549
 30
0.0
 11
5530.728263827356
 21
1458.071065176798
 31
0.0
  0
LINE
  5
2159A
330
747D
100
AcDbEntity
  8
細線
 48
50.0
100
AcDbLine
 10
5510.728263827348
 20
1404.395104722784
 30
0.0
 11
5530.728263827356
 21
1424.395104722785
 31
0.0
  0
LINE
  5
2159B
330
747D
100
AcDbEntity
  8
細線
 48
50.0
100
AcDbLine
 10
5550.728263827357
 20
1478.071065176798
 30
0.0
 11
5640.728263827344
 21
1568.07106517679
 31
0.0
  0
LINE
  5
2159C
330
747D
100
AcDbEntity
  8
細線
 48
50.0
100
AcDbLine
 10
5550.728263827357
 20
1511.747025630808
 30
0.0
 11
5640.728263827344
 21
1601.747025630803
 31
0.0
  0
LINE
  5
2159D
330
747D
100
AcDbEntity
  8
細線
 48
50.0
100
AcDbLine
 10
5550.728263827357
 20
1444.395104722784
 30
0.0
 11
5640.728263827344
 21
1534.395104722784
 31
0.0
  0
LINE
  5
2159E
330
747D
100
AcDbEntity
  8
細線
 48
50.0
100
AcDbLine
 10
5580.985198888785
 20
1205.244356152146
 30
0.0
 11
5700.986308695206
 21
1325.24546595857
 31
0.0
  0
LINE
  5
2159F
330
747D
100
AcDbEntity
  8
部品1
 48
50.0
100
AcDbLine
 10
5730.72826382735
 20
1345.244356152145
 30
0.0
 11
5730.72826382735
 21
1325.244356152145
 31
0.0
  0
LINE
  5
215A0
330
747D
100
AcDbEntity
  8
細線
 48
50.0
100
AcDbLine
 10
5729.260320581534
 20
1175.244356152147
 30
0.0
 11
5721.221844808603
 21
1205.244356152146
 31
0.0
  0
CIRCLE
  5
215A1
330
747D
100
AcDbEntity
  8
部品1
 48
50.0
100
AcDbCircle
 10
5680.728263827352
 20
1355.244356152145
 30
0.0
 40
10.0
  0
LINE
  5
215A2
330
747D
100
AcDbEntity
  8
細線
 48
50.0
100
AcDbLine
 10
5630.650264397478
 20
1175.244356152147
 30
0.0
 11
5622.611788624546
 21
1205.244356152146
 31
0.0
  0
ARC
  5
215A3
330
747D
100
AcDbEntity
  8
部品1
 48
50.0
100
AcDbCircle
 10
5520.728263827351
 20
1355.244356152145
 30
0.0
 40
30.0
100
AcDbArc
 50
340.5287793654919
 51
0.0
  0
LINE
  5
215A4
330
747D
100
AcDbEntity
  8
細線
 48
50.0
100
AcDbLine
 10
5532.040208213421
 20
1175.244356152147
 30
0.0
 11
5524.001732440487
 21
1205.244356152146
 31
0.0
  0
ARC
  5
215A5
330
747D
100
AcDbEntity
  8
部品1
 48
50.0
100
AcDbCircle
 10
5520.728263827351
 20
1355.244356152145
 30
0.0
 40
30.0
100
AcDbArc
 50
180.0
 51
199.4712206345081
  0
LINE
  5
215A6
330
747D
100
AcDbEntity
  8
細線
 48
50.0
100
AcDbLine
 10
5433.430152029355
 20
1175.244356152147
 30
0.0
 11
5425.391676256421
 21
1205.244356152146
 31
0.0
  0
CIRCLE
  5
215A7
330
747D
100
AcDbEntity
  8
部品1
 48
50.0
100
AcDbCircle
 10
5520.728263827351
 20
1355.244356152145
 30
0.0
 40
10.0
  0
LINE
  5
215A8
330
747D
100
AcDbEntity
  8
細線
 48
50.0
100
AcDbLine
 10
5547.309238434781
 20
1205.244356152146
 30
0.0
 11
5667.309238434778
 21
1325.244356152145
 31
0.0
  0
LINE
  5
215A9
330
747D
100
AcDbEntity
  8
細線
 48
50.0
100
AcDbLine
 10
5513.633277980765
 20
1205.244356152146
 30
0.0
 11
5633.633277980766
 21
1325.244356152145
 31
0.0
  0
LINE
  5
215AA
330
747D
100
AcDbEntity
  8
細線
 48
50.0
100
AcDbLine
 10
5384.225594348692
 20
1345.244356152145
 30
0.0
 11
5530.728263827352
 21
1491.747025630803
 31
0.0
  0
LINE
  5
215AB
330
747D
100
AcDbEntity
  8
細線
 48
50.0
100
AcDbLine
 10
5451.577515256712
 20
1345.244356152145
 30
0.0
 11
5490.72826382735
 21
1384.395104722785
 31
0.0
  0
LINE
  5
215AC
330
747D
100
AcDbEntity
  8
部品1
 48
50.0
100
AcDbLine
 10
5490.72826382735
 20
1427.903374523549
 30
0.0
 11
5490.72826382735
 21
1355.244356152145
 31
0.0
  0
LINE
  5
215AD
330
747D
100
AcDbEntity
  8
細線
 48
50.0
100
AcDbLine
 10
5417.901554802705
 20
1345.244356152145
 30
0.0
 11
5490.72826382735
 21
1418.071065176795
 31
0.0
  0
LINE
  5
215AE
330
747D
100
AcDbEntity
  8
部品1
 48
50.0
100
AcDbLine
 10
5510.728263827348
 20
1427.903374523549
 30
0.0
 11
5510.728263827348
 21
1355.244356152145
 31
0.0
  0
LINE
  5
215AF
330
747D
100
AcDbEntity
  8
細線
 48
50.0
100
AcDbLine
 10
5240.728263827342
 20
1437.478748808865
 30
0.0
 11
5308.493871170631
 21
1505.244356152145
 31
0.0
  0
LINE
  5
215B0
330
747D
100
AcDbEntity
  8
細線
 48
50.0
100
AcDbLine
 10
5240.728263827342
 20
1471.154709262878
 30
0.0
 11
5274.817910716619
 21
1505.244356152145
 31
0.0
  0
LINE
  5
215B1
330
747D
100
AcDbEntity
  8
細線
 48
50.0
100
AcDbLine
 10
5240.728263827342
 20
1403.802788354859
 30
0.0
 11
5342.169831624636
 21
1505.244356152145
 31
0.0
  0
LINE
  5
215B2
330
747D
100
AcDbEntity
  8
部品1
 48
50.0
100
AcDbLine
 10
5310.72826382735
 20
1345.244356152145
 30
0.0
 11
5310.72826382735
 21
1325.244356152145
 31
0.0
  0
LINE
  5
215B3
330
747D
100
AcDbEntity
  8
細線
 48
50.0
100
AcDbLine
 10
5334.820095845291
 20
1175.244356152147
 30
0.0
 11
5326.781620072357
 21
1205.244356152146
 31
0.0
  0
LINE
  5
215B4
330
747D
100
AcDbEntity
  8
細線
 48
50.0
100
AcDbLine
 10
5236.210039661225
 20
1175.244356152147
 30
0.0
 11
5228.171563888293
 21
1205.244356152146
 31
0.0
  0
LINE
  5
215B5
330
747D
100
AcDbEntity
  8
細線
 48
50.0
100
AcDbLine
 10
5140.72826382735
 20
1186.919257359371
 30
0.0
 11
5145.638459250094
 21
1205.244356152146
 31
0.0
  0
LINE
  5
215B6
330
747D
100
AcDbEntity
  8
部品1
 48
50.0
100
AcDbLine
 10
5240.72826382735
 20
1205.244356152146
 30
0.0
 11
5240.72826382735
 21
1505.244356152145
 31
0.0
  0
LINE
  5
215B7
330
747D
100
AcDbEntity
  8
部品1
 48
50.0
100
AcDbLine
 10
5310.72826382735
 20
1325.244356152145
 30
0.0
 11
5730.72826382735
 21
1325.244356152145
 31
0.0
  0
LINE
  5
215B8
330
747D
100
AcDbEntity
  8
部品1
 48
50.0
100
AcDbLine
 10
5310.72826382735
 20
1345.244356152145
 30
0.0
 11
5730.72826382735
 21
1345.244356152145
 31
0.0
  0
LINE
  5
215B9
330
747D
100
AcDbEntity
  8
細線
 48
50.0
100
AcDbLine
 10
5311.57751525671
 20
1205.244356152146
 30
0.0
 11
5431.57751525671
 21
1325.244356152145
 31
0.0
  0
CIRCLE
  5
215BA
330
747D
100
AcDbEntity
  8
部品1
 48
50.0
100
AcDbCircle
 10
5360.728263827351
 20
1355.244356152145
 30
0.0
 40
10.0
  0
LINE
  5
215BB
330
747D
100
AcDbEntity
  8
細線
 48
50.0
100
AcDbLine
 10
5277.901554802705
 20
1205.244356152146
 30
0.0
 11
5397.901554802706
 21
1325.244356152145
 31
0.0
  0
LINE
  5
215BC
330
747D
100
AcDbEntity
  8
細線
 48
50.0
100
AcDbLine
 10
5244.225594348693
 20
1205.244356152146
 30
0.0
 11
5364.225594348693
 21
1325.244356152145
 31
0.0
  0
LINE
  5
215BD
330
747D
100
AcDbEntity
  8
部品1
 48
50.0
100
AcDbLine
 10
5240.72826382735
 20
1505.244356152145
 30
0.0
 11
5400.72826382735
 21
1505.244356152145
 31
0.0
  0
LINE
  5
215BE
330
747D
100
AcDbEntity
  8
細線
 48
50.0
100
AcDbLine
 10
5603.855345154368
 20
1075.244356152146
 30
0.0
 11
5611.893820927298
 21
1045.244356152146
 31
0.0
  0
LINE
  5
215BF
330
747D
100
AcDbEntity
  8
細線
 48
50.0
100
AcDbLine
 10
5702.465401338424
 20
1075.244356152146
 30
0.0
 11
5710.503877111357
 21
1045.244356152146
 31
0.0
  0
LINE
  5
215C0
330
747D
100
AcDbEntity
  8
細線
 48
50.0
100
AcDbLine
 10
5406.635232786245
 20
1075.244356152146
 30
0.0
 11
5414.673708559178
 21
1045.244356152146
 31
0.0
  0
LINE
  5
215C1
330
747D
100
AcDbEntity
  8
細線
 48
50.0
100
AcDbLine
 10
5505.245288970311
 20
1075.244356152146
 30
0.0
 11
5513.283764743242
 21
1045.244356152146
 31
0.0
  0
LINE
  5
215C2
330
747D
100
AcDbEntity
  8
細線
 48
50.0
100
AcDbLine
 10
5209.415120418114
 20
1075.244356152146
 30
0.0
 11
5217.453596191049
 21
1045.244356152146
 31
0.0
  0
LINE
  5
215C3
330
747D
100
AcDbEntity
  8
細線
 48
50.0
100
AcDbLine
 10
5308.025176602177
 20
1075.244356152146
 30
0.0
 11
5316.063652375113
 21
1045.244356152146
 31
0.0
  0
LINE
  5
215C4
330
747D
100
AcDbEntity
  8
細線
 48
50.0
100
AcDbLine
 10
5595.816869381426
 20
1045.244356152146
 30
0.0
 11
5638.688740170407
 21
1205.244356152145
 31
0.0
  0
LINE
  5
215C5
330
747D
100
AcDbEntity
  8
細線
 48
50.0
100
AcDbLine
 10
5299.986700829244
 20
1045.244356152146
 30
0.0
 11
5342.858571618224
 21
1205.244356152146
 31
0.0
  0
LINE
  5
215C6
330
747D
100
AcDbEntity
  8
細線
 48
50.0
100
AcDbLine
 10
5398.596757013303
 20
1045.244356152145
 30
0.0
 11
5441.468627802283
 21
1205.244356152145
 31
0.0
  0
LINE
  5
215C7
330
747D
100
AcDbEntity
  8
細線
 48
50.0
100
AcDbLine
 10
5201.376644645175
 20
1045.244356152145
 30
0.0
 11
5244.248515434151
 21
1205.244356152145
 31
0.0
  0
LINE
  5
215C8
330
747D
100
AcDbEntity
  8
部品1
 48
50.0
100
AcDbLine
 10
5140.728263827353
 20
1045.244356152146
 30
0.0
 11
5140.728263827353
 21
1205.244356152146
 31
0.0
  0
LINE
  5
215C9
330
747D
100
AcDbEntity
  8
細線
 48
50.0
100
AcDbLine
 10
5497.206813197369
 20
1045.244356152146
 30
0.0
 11
5540.078683986346
 21
1205.244356152146
 31
0.0
  0
LINE
  5
215CA
330
747D
100
AcDbEntity
  8
細線
 48
50.0
100
AcDbLine
 10
5694.426925565487
 20
1045.244356152145
 30
0.0
 11
5737.298796354465
 21
1205.244356152145
 31
0.0
  0
LINE
  5
215CB
330
747D
100
AcDbEntity
  8
部品1
 48
50.0
100
AcDbLine
 10
5900.728263827353
 20
1045.244356152146
 30
0.0
 11
5140.728263827353
 21
1045.244356152146
 31
0.0
  0
LINE
  5
215CC
330
747D
100
AcDbEntity
  8
部品1
 48
50.0
100
AcDbLine
 10
5900.728263827353
 20
1205.244356152146
 30
0.0
 11
5140.728263827353
 21
1205.244356152146
 31
0.0
  0
LEADER
  5
215CD
330
747D
100
AcDbEntity
  8
寸法
 48
50.0
100
AcDbLeader
  3
INABA_S40G
 71
     0
 74
     0
 40
100.0
 41
540.3409090909091
 76
     2
 10
5613.159725093819
 20
1334.318693135238
 30
0.0
 10
5917.901333653913
 20
907.280170641618
 30
0.0
213
0.0
223
-1.277828345336728
233
0.0
1001
ACAD
1000
DSTYLE
1002
{
1070
   174
1070
     0
1070
   272
1070
     1
1070
   279
1070
     1
1070
   288
1070
     0
1070
   341
1005
0
1002
}
  0
DIMENSION
  5
215CE
330
747D
100
AcDbEntity
  8
寸法
 48
50.0
100
AcDbDimension
  2
*D42
 10
5800.728263827349
 20
746.2922496962128
 30
0.0
 11
5520.728263827351
 21
746.2922496962128
 31
0.0
 70
   160
  1
300
 71
     5
 42
559.999999999999
  3
INABA_S40G
100
AcDbAlignedDimension
 13
5240.72826382735
 23
1045.244356152146
 33
0.0
 14
5800.728263827349
 24
1045.244356152146
 34
0.0
100
AcDbRotatedDimension
1001
ACAD
1000
DSTYLE
1002
{
1070
   174
1070
     0
1070
   272
1070
     1
1070
   279
1070
     1
1070
   288
1070
     0
1070
   341
1005
0
1002
}
  0
LEADER
  5
215CF
330
747D
100
AcDbEntity
  8
寸法
 48
50.0
100
AcDbLeader
  3
INABA_S40G
 71
     0
 74
     0
 40
100.0
 41
225.0
 76
     2
 10
5680.606954267529
 20
1355.244356152145
 30
0.0
 10
5904.887838585706
 20
1235.99801997343
 30
0.0
1001
ACAD
1000
DSTYLE
1002
{
1070
   174
1070
     0
1070
   272
1070
     1
1070
   279
1070
     1
1070
   288
1070
     0
1070
   341
1005
0
1002
}
  0
LINE
  5
215D0
330
747D
100
AcDbEntity
  8
細線
 48
50.0
100
AcDbLine
 10
5653.633277980758
 20
1345.244356152145
 30
0.0
 11
5800.728263827349
 21
1492.339341998728
 31
0.0
  0
LINE
  5
215D1
330
747D
100
AcDbEntity
  8
細線
 48
50.0
100
AcDbLine
 10
5720.985198888786
 20
1345.244356152145
 30
0.0
 11
5800.728263827349
 21
1424.98742109071
 31
0.0
  0
LINE
  5
215D2
330
747D
100
AcDbEntity
  8
細線
 48
50.0
100
AcDbLine
 10
5687.309238434782
 20
1345.244356152145
 30
0.0
 11
5800.728263827349
 21
1458.663381544719
 31
0.0
  0
LINE
  5
215D3
330
747D
100
AcDbEntity
  8
部品1
 48
50.0
100
AcDbLine
 10
5640.728263827352
 20
1505.244356152145
 30
0.0
 11
5800.728263827349
 21
1505.244356152145
 31
0.0
  0
LINE
  5
215D4
330
747D
100
AcDbEntity
  8
部品1
 48
50.0
100
AcDbLine
 10
5550.728263827357
 20
1355.244356152145
 30
0.0
 11
5550.72826382735
 21
2010.562392894952
 31
0.0
  0
LINE
  5
215D5
330
747D
100
AcDbEntity
  8
部品1
 48
50.0
100
AcDbLine
 10
5530.728263827356
 20
1355.244356152145
 30
0.0
 11
5530.728263827342
 21
2010.562392894952
 31
0.0
  0
LINE
  5
215D6
330
747D
100
AcDbEntity
  8
部品1
 48
50.0
100
AcDbLine
 10
5400.72826382735
 20
1505.244356152145
 30
0.0
 11
5400.72826382735
 21
2185.244356152147
 31
0.0
  0
LINE
  5
215D7
330
747D
100
AcDbEntity
  8
細線
 48
50.0
100
AcDbLine
 10
5400.72826382735
 20
1597.478748808868
 30
0.0
 11
5530.728263827356
 21
1727.478748808872
 31
0.0
  0
LINE
  5
215D8
330
747D
100
AcDbEntity
  8
細線
 48
50.0
100
AcDbLine
 10
5400.72826382735
 20
1631.154709262878
 30
0.0
 11
5530.728263827352
 21
1761.154709262878
 31
0.0
  0
LINE
  5
215D9
330
747D
100
AcDbEntity
  8
細線
 48
50.0
100
AcDbLine
 10
5400.72826382735
 20
1563.802788354859
 30
0.0
 11
5530.728263827356
 21
1693.80278835486
 31
0.0
  0
LINE
  5
215DA
330
747D
100
AcDbEntity
  8
部品1
 48
50.0
100
AcDbLine
 10
5640.728263827352
 20
2185.244356152147
 30
0.0
 11
5640.728263827352
 21
1505.244356152145
 31
0.0
  0
MTEXT
  5
215DB
102
{ACAD_REACTORS
330
215DC
102
}
330
747D
100
AcDbEntity
  8
寸法
 62
     7
 48
50.0
100
AcDbMText
 10
5027.059481083357
 20
1100.840989129101
 30
0.0
 40
100.0
 41
1.0
 71
     6
 72
     1
  1
D10
  7
STYLE2
 73
     1
 44
1.0
1001
ACAD
1000
MTEXTBEGIN
1070
    73
1070
     1
1070
    44
1040
1.0
1070
    74
1070
     0
1000
MTEXTEND
  0
LEADER
  5
215DC
330
747D
100
AcDbEntity
  8
寸法
 48
50.0
100
AcDbLeader
  3
INABA_S40G
 71
     0
 40
100.0
 41
225.0
 76
     2
 10
5360.606954267528
 20
1355.244356152145
 30
0.0
 10
5052.059481083357
 20
1025.840989129101
 30
0.0
1001
ACAD
1000
DSTYLE
1002
{
1070
   174
1070
     0
1070
   272
1070
     1
1070
   279
1070
     1
1070
   288
1070
     0
1070
   341
1005
0
1002
}
  0
LEADER
  5
215DD
330
747D
100
AcDbEntity
  8
寸法
 48
50.0
100
AcDbLeader
  3
INABA_S40G
 71
     0
 40
100.0
 41
222.7272727272727
 76
     2
 10
5520.728263827351
 20
1355.244356152145
 30
0.0
 10
5087.21289053015
 20
800.445798454797
 30
0.0
1001
ACAD
1000
DSTYLE
1002
{
1070
   174
1070
     0
1070
   272
1070
     1
1070
   279
1070
     1
1070
   288
1070
     0
1070
   341
1005
0
1002
}
  0
MTEXT
  5
215DE
102
{ACAD_REACTORS
330
215DD
102
}
330
747D
100
AcDbEntity
  8
寸法
 62
     7
 48
50.0
100
AcDbMText
 10
5062.21289053015
 20
875.445798454797
 30
0.0
 40
100.0
 41
1.0
 71
     6
 72
     1
  1
D13
  7
STYLE2
 73
     1
 44
1.0
1001
ACAD
1000
MTEXTBEGIN
1070
    73
1070
     1
1070
    44
1040
1.0
1070
    74
1070
     0
1000
MTEXTEND
  0
MTEXT
  5
215DF
102
{ACAD_REACTORS
330
215E0
102
}
330
747D
100
AcDbEntity
  8
寸法
 62
     7
 48
50.0
100
AcDbMText
 10
5289.165696048843
 20
1686.870109673966
 30
0.0
 40
100.0
 41
1.0
 71
     6
 72
     1
  1
\A1;D10@300
  7
STYLE2
 73
     1
 44
1.0
1001
ACAD
1000
MTEXTBEGIN
1070
    73
1070
     1
1070
    44
1040
1.0
1070
    74
1070
     0
1000
MTEXTEND
  0
LEADER
  5
215E0
330
747D
100
AcDbEntity
  8
寸法
 48
50.0
100
AcDbLeader
  3
INABA_S40G
 71
     0
 40
100.0
 41
540.3409090909091
 76
     2
 10
5530.728263827352
 20
1882.90337452355
 30
0.0
 10
5302.000468166475
 20
1606.065463847544
 30
0.0
213
-12.16522788236671
223
-5.804645826423211
233
0.0
1001
ACAD
1000
DSTYLE
1002
{
1070
   174
1070
     0
1070
   272
1070
     1
1070
   279
1070
     1
1070
   288
1070
     0
1070
   341
1005
0
1002
}
  0
LEADER
  5
215E1
330
747D
100
AcDbEntity
  8
寸法
 48
50.0
100
AcDbLeader
  3
INABA_S40G
 71
     0
 40
130.1136363636363
 41
651.1363636363636
 76
     2
 10
5500.72826382735
 20
2185.244356152147
 30
0.0
 10
5341.810263909067
 20
2360.83281297288
 30
0.0
1001
ACAD
1000
DSTYLE
1002
{
1070
   174
1070
     0
1070
   272
1070
     1
1070
   279
1070
     1
1070
   288
1070
     0
1070
   341
1005
0
1002
}
  0
MTEXT
  5
215E2
102
{ACAD_REACTORS
330
215E1
102
}
330
747D
100
AcDbEntity
  8
寸法
 62
     7
 48
50.0
100
AcDbMText
 10
5316.810263909069
 20
2450.889631154701
 30
0.0
 40
100.0
 41
1.0
 71
     6
 72
     1
  1
\A1;金コテ押エ
  7
STYLE2
 73
     1
 44
1.0
1001
ACAD
1000
MTEXTBEGIN
1070
    73
1070
     1
1070
    44
1040
1.0
1070
    74
1070
     0
1000
MTEXTEND
  0
DIMENSION
  5
215E3
330
747D
100
AcDbEntity
  8
寸法
 48
50.0
100
AcDbDimension
  2
*D37
 10
4640.083325791286
 20
1205.244356152146
 30
0.0
 11
4640.083325791286
 21
1695.244356152146
 31
0.0
 70
   160
  1
540
 71
     5
 42
980.0000000000011
  3
INABA_S40G
100
AcDbAlignedDimension
 13
5400.72826382735
 23
2185.244356152147
 33
0.0
 14
5140.728263827353
 24
1205.244356152146
 34
0.0
 50
90.0
100
AcDbRotatedDimension
1001
ACAD
1000
DSTYLE
1002
{
1070
   174
1070
     0
1070
   272
1070
     1
1070
   279
1070
     1
1070
   288
1070
     0
1070
   341
1005
0
1002
}
  0
DIMENSION
  5
215E4
330
747D
100
AcDbEntity
  8
寸法
 48
50.0
100
AcDbDimension
  2
*D38
 10
5062.702871661775
 20
1205.244356152146
 30
0.0
 11
5062.702871661775
 21
1355.244356152145
 31
0.0
 70
   160
  1
150
 71
     5
 42
299.9999999999996
  3
INABA_S40G
100
AcDbAlignedDimension
 13
5240.72826382735
 23
1505.244356152145
 33
0.0
 14
5140.728263827353
 24
1205.244356152146
 34
0.0
 50
90.0
100
AcDbRotatedDimension
1001
ACAD
1000
DSTYLE
1002
{
1070
   174
1070
     0
1070
   272
1070
     1
1070
   279
1070
     1
1070
   288
1070
     0
1070
   341
1005
0
1002
}
  0
LWPOLYLINE
  5
215E5
330
747D
100
AcDbEntity
  8
部品1
 48
50.0
100
AcDbPolyline
 90
        2
 70
     0
 43
10.0
 10
4883.053386536153
 20
1885.244356152148
 10
5400.72826382735
 20
1885.244356152148
  0
TEXT
  5
215E6
330
747D
100
AcDbEntity
  8
部品1
 48
50.0
100
AcDbText
 10
4883.053386536152
 20
1899.293096506215
 30
0.0
 40
100.0
  1
▽G.L
  7
STYLE2
100
AcDbText
  0
LEADER
  5
215E7
330
747D
100
AcDbEntity
  8
寸法
 48
50.0
100
AcDbLeader
  3
INABA_S40G
 73
     0
 75
     1
 40
132.9545454545455
 41
1129.404378023068
 76
     3
 10
7690.027405298842
 20
2272.194356152148
 30
0.0
 10
7581.99731486767
 20
2731.018824547563
 30
0.0
 10
7481.997314867669
 20
2731.018824547563
 30
0.0
1001
ACAD
1000
DSTYLE
1002
{
1070
   174
1070
     0
1070
   272
1070
     1
1070
   279
1070
     1
1070
   288
1070
     0
1070
   341
1005
0
1002
}
  0
MTEXT
  5
215E8
102
{ACAD_REACTORS
330
215E7
102
}
330
747D
100
AcDbEntity
  8
寸法
 62
     7
 48
50.0
100
AcDbMText
 10
7441.99731486767
 20
2837.496097274835
 30
0.0
 40
100.0
 41
1.0
 71
     6
 72
     1
  1
アンカープレート {\fArial|b0|i0|c0|p32;U}
  7
STYLE2
 73
     1
 44
1.0
1001
ACAD
1000
MTEXTBEGIN
1070
    73
1070
     1
1070
    44
1040
1.0
1070
    74
1070
     0
1000
MTEXTEND
  0
MTEXT
  5
215E9
102
{ACAD_REACTORS
330
215EA
102
}
330
747D
100
AcDbEntity
  8
部品1
 62
     7
 48
50.0
100
AcDbMText
 10
8052.969869190539
 20
3292.074925967207
 30
0.0
 40
100.0
 41
1.0
 71
     4
 72
     1
  1
\A1;ナット(市販品)
  7
STYLE2
 73
     1
 44
1.0
1001
ACAD
1000
MTEXTBEGIN
1070
    73
1070
     1
1070
    44
1040
1.0
1070
    74
1070
     0
1000
MTEXTEND
  0
LEADER
  5
215EA
330
747D
100
AcDbEntity
  8
寸法
 48
50.0
100
AcDbLeader
  3
INABA_S40G
 73
     0
 74
     0
 75
     1
 40
127.8409090909091
 41
850.0
 76
     3
 10
7822.527405298844
 20
2683.838457538576
 30
0.0
 10
7912.96986919054
 20
3188.154471421753
 30
0.0
 10
8012.969869190539
 20
3188.154471421753
 30
0.0
1001
ACAD
1000
DSTYLE
1002
{
1070
   174
1070
     0
1070
   272
1070
     1
1070
   279
1070
     1
1070
   288
1070
     0
1070
   341
1005
0
1002
}
  0
MTEXT
  5
215EB
102
{ACAD_REACTORS
330
215EC
102
}
330
747D
100
AcDbEntity
  8
部品1
 62
     7
 48
50.0
100
AcDbMText
 10
8092.366893259894
 20
3060.863572511222
 30
0.0
 40
100.0
 41
1.0
 71
     4
 72
     1
  1
\A1;ワッシャー(市販品)
  7
STYLE2
 73
     1
 44
1.0
1001
ACAD
1000
MTEXTBEGIN
1070
    73
1070
     1
1070
    44
1040
1.0
1070
    74
1070
     0
1000
MTEXTEND
  0
LEADER
  5
215EC
330
747D
100
AcDbEntity
  8
寸法
 48
50.0
100
AcDbLeader
  3
INABA_S40G
 73
     0
 74
     0
 75
     1
 40
127.8409090909091
 41
1133.522727272727
 76
     3
 10
7852.52740529884
 20
2521.648466707496
 30
0.0
 10
7952.366893259894
 20
2956.943117965768
 30
0.0
 10
8052.366893259893
 20
2956.943117965768
 30
0.0
1001
ACAD
1000
DSTYLE
1002
{
1070
   174
1070
     0
1070
   272
1070
     1
1070
   279
1070
     1
1070
   288
1070
     0
1070
   341
1005
0
1002
}
  0
DIMENSION
  5
215ED
330
747D
100
AcDbEntity
  8
寸法
 48
50.0
100
AcDbDimension
  2
*D39
 10
5400.72826382735
 20
2585.244356152147
 30
0.0
 11
5534.761176758846
 21
2709.829116047623
 31
0.0
 70
   160
  1
120\P170
 71
     5
 42
239.9999999999973
  3
INABA_S40G
100
AcDbAlignedDimension
 13
5640.728263827347
 23
2185.244356152147
 33
0.0
 14
5400.72826382735
 24
2185.244356152147
 34
0.0
100
AcDbRotatedDimension
1001
ACAD
1000
DSTYLE
1002
{
1070
   174
1070
     0
1070
   272
1070
     1
1070
   279
1070
     1
1070
   288
1070
     0
1070
   341
1005
0
1002
}
  0
LINE
  5
215EE
330
747D
100
AcDbEntity
  8
部品1
100
AcDbLine
 10
4281.927572275572
 20
3836.458880873202
 30
0.0
 11
4281.927572275572
 21
577.3893815185147
 31
0.0
  0
MTEXT
  5
215EF
102
{ACAD_REACTORS
330
215F0
102
}
330
747D
100
AcDbEntity
  8
寸法
 62
     7
 48
50.0
100
AcDbMText
 10
7408.69355710722
 20
3288.351437159231
 30
0.0
 40
100.0
 41
1.0
 71
     6
 72
     1
  1
\A1;φ70スリーブ
  7
STYLE2
 73
     1
 44
1.0
1001
ACAD
1000
MTEXTBEGIN
1070
    73
1070
     1
1070
    44
1040
1.0
1070
    74
1070
     0
1000
MTEXTEND
  0
LEADER
  5
215F0
330
747D
100
AcDbEntity
  8
寸法
 48
50.0
100
AcDbLeader
  3
INABA_S40G
 73
     0
 75
     1
 40
141.4772727272727
 41
760.7954545454546
 76
     3
 10
7763.448342971404
 20
2122.138947849995
 30
0.0
 10
7548.69355710722
 20
3177.612800795595
 30
0.0
 10
7448.693557107221
 20
3177.612800795595
 30
0.0
1001
ACAD
1000
DSTYLE
1002
{
1070
   174
1070
     0
1070
   272
1070
     1
1070
   279
1070
     1
1070
   288
1070
     0
1070
   341
1005
0
1002
}
  0
LINE
  5
215F1
330
747D
100
AcDbEntity
  8
部品1
100
AcDbLine
 10
11178.4022683736
 20
3836.458880873203
 30
0.0
 11
4281.927572275566
 21
3836.458880873202
 31
0.0
  0
LINE
  5
215F2
330
747D
100
AcDbEntity
  8
部品1
100
AcDbLine
 10
11178.4022683736
 20
3536.458880873202
 30
0.0
 11
4281.927572275566
 21
3536.458880873202
 31
0.0
  0
LINE
  5
215F3
330
747D
100
AcDbEntity
  8
部品1
100
AcDbLine
 10
4281.927572275566
 20
577.3893815185147
 30
0.0
 11
11178.4022683736
 21
577.3893815185147
 31
0.0
  0
LINE
  5
215F4
330
747D
100
AcDbEntity
  8
部品1
100
AcDbLine
 10
9687.891340554459
 20
1610.620711585455
 30
0.0
 11
10587.89134055446
 21
1610.620711585459
 31
0.0
  0
LINE
  5
215F5
330
747D
100
AcDbEntity
  8
部品1
100
AcDbLine
 10
9687.891340554459
 20
1770.620711585458
 30
0.0
 11
10587.89134055446
 21
1770.620711585461
 31
0.0
  0
LWPOLYLINE
  5
215F6
330
747D
100
AcDbEntity
  8
部品1
 48
50.0
100
AcDbPolyline
 90
        2
 70
     0
 43
15.0
 10
9357.127262928976
 20
1885.244356152146
 10
10858.49264184351
 20
1885.244356152146
  0
LINE
  5
215F7
330
747D
100
AcDbEntity
  8
細線
100
AcDbLine
 10
9829.186833678619
 20
1770.620711585458
 30
0.0
 11
9943.810478245309
 21
1885.244356152145
 31
0.0
  0
LINE
  5
215F8
330
747D
100
AcDbEntity
  8
部品1
100
AcDbLine
 10
9837.891340554463
 20
2185.244356152147
 30
0.0
 11
10437.89134055446
 21
2185.244356152147
 31
0.0
  0
LINE
  5
215F9
330
747D
100
AcDbEntity
  8
細線
100
AcDbLine
 10
10017.54339734365
 20
1885.244356152146
 30
0.0
 11
9837.891340554463
 21
2064.896412941336
 31
0.0
  0
LINE
  5
215FA
330
747D
100
AcDbEntity
  8
細線
100
AcDbLine
 10
10081.18300765044
 20
1885.244356152146
 30
0.0
 11
9837.891340554463
 21
2128.536023248125
 31
0.0
  0
ENDSEC
  0
SECTION
  2
OBJECTS
  0
DICTIONARY
  5
7471
330
0
100
AcDbDictionary
281
     1
  3
ACAD_COLOR
350
159B0
  3
ACAD_GROUP
350
7472
  3
ACAD_LAYOUT
350
159B1
  3
ACAD_MATERIAL
350
159AF
  3
ACAD_MLINESTYLE
350
7473
  3
ACAD_PLOTSETTINGS
350
159B2
  3
ACAD_PLOTSTYLENAME
350
159AD
  3
ACDBHEADERROUNDTRIPXREC
350
2168E
  3
AcDbVariableDictionary
350
20DBE
  3
CONTENTDICTIONARY
350
E71C
  3
DRAWINGVARIABLESDICT
350
F3B9
  0
DICTIONARY
  5
20E52
330
7467
100
AcDbDictionary
280
     1
281
     1
  3
ACAD_LAYERSTATES
360
20E53
  0
DICTIONARY
  5
159B0
102
{ACAD_REACTORS
330
7471
102
}
330
7471
100
AcDbDictionary
281
     1
  0
DICTIONARY
  5
7472
102
{ACAD_REACTORS
330
7471
102
}
330
7471
100
AcDbDictionary
281
     1
  0
DICTIONARY
  5
159B1
102
{ACAD_REACTORS
330
7471
102
}
330
7471
100
AcDbDictionary
281
     1
  3
Model
350
159B3
  3
レイアウト1
350
159B4
  0
DICTIONARY
  5
159AF
102
{ACAD_REACTORS
330
7471
102
}
330
7471
100
AcDbDictionary
281
     1
  0
DICTIONARY
  5
7473
102
{ACAD_REACTORS
330
7471
102
}
330
7471
100
AcDbDictionary
281
     1
  3
STANDARD
350
7480
  0
DICTIONARY
  5
159B2
102
{ACAD_REACTORS
330
7471
102
}
330
7471
100
AcDbDictionary
281
     1
  0
ACDBDICTIONARYWDFLT
  5
159AD
102
{ACAD_REACTORS
330
7471
102
}
330
7471
100
AcDbDictionary
281
     1
  3
Normal
350
159AE
100
AcDbDictionaryWithDefault
340
159AE
  0
DICTIONARY
  5
2168E
102
{ACAD_REACTORS
330
7471
102
}
330
7471
100
AcDbDictionary
281
     1
  3
COLORDICT
350
21690
  3
MATERIALDICT
350
2168F
  0
DICTIONARY
  5
20DBE
102
{ACAD_REACTORS
330
7471
102
}
330
7471
100
AcDbDictionary
281
     1
  3
DIMASSOC
350
20DBF
  3
PROJECTNAME
350
20DC0
  0
DICTIONARY
  5
E71C
102
{ACAD_REACTORS
330
7471
102
}
330
7471
100
AcDbDictionary
281
     1
  0
DICTIONARY
  5
F3B9
102
{ACAD_REACTORS
330
7471
102
}
330
7471
100
AcDbDictionary
281
     1
1001
DRAWINGVARIABLESXDATA
1000
POLARMODE
1000
1
  0
DICTIONARY
  5
20E53
102
{ACAD_REACTORS
330
20E52
102
}
330
20E52
100
AcDbDictionary
281
     1
  0
LAYOUT
  5
159B3
102
{ACAD_XDICTIONARY
360
21691
102
}
102
{ACAD_REACTORS
330
159B1
102
}
330
159B1
100
AcDbPlotSettings
  1

  2
none_device
  4
Letter_(8.50_x_11.00_Inches)
  6

 40
6.349999904632568
 41
6.349999904632568
 42
6.350006103515625
 43
6.350006103515625
 44
215.8999938964844
 45
279.3999938964844
 46
0.0
 47
0.0
 48
0.0
 49
0.0
140
0.0
141
0.0
142
1.0
143
1.0
 70
 11952
 72
     1
 73
     1
 74
     0
  7

 75
     0
147
1.0
148
-4149.571981164617
149
65.56433826894044
100
AcDbLayout
  1
Model
 70
     1
 71
     0
 10
0.0
 20
0.0
 11
12.0
 21
9.0
 12
0.0
 22
0.0
 32
0.0
 14
0.0
 24
0.0
 34
0.0
 15
0.0
 25
0.0
 35
0.0
146
0.0
 13
0.0
 23
0.0
 33
0.0
 16
1.0
 26
0.0
 36
0.0
 17
0.0
 27
1.0
 37
0.0
 76
     0
330
747D
  0
LAYOUT
  5
159B4
102
{ACAD_XDICTIONARY
360
21693
102
}
102
{ACAD_REACTORS
330
159B1
102
}
330
159B1
100
AcDbPlotSettings
  1

  2
自動 EPSON LP-8400FX (TATENO 上)
  4

  6

 40
0.0
 41
0.0
 42
0.0
 43
0.0
 44
0.0
 45
0.0
 46
0.0
 47
0.0
 48
0.0
 49
0.0
140
0.0
141
0.0
142
1.0
143
1.0
 70
   688
 72
     0
 73
     0
 74
     5
  7
inaba.ctb
 75
    16
147
1.0
148
0.0
149
0.0
100
AcDbLayout
  1
レイアウト1
 70
     0
 71
     1
 10
0.0
 20
0.0
 11
420.0
 21
297.0
 12
0.0
 22
0.0
 32
0.0
 14
1.000000000000000E+20
 24
1.000000000000000E+20
 34
1.000000000000000E+20
 15
-1.000000000000000E+20
 25
-1.000000000000000E+20
 35
-1.000000000000000E+20
146
0.0
 13
0.0
 23
0.0
 33
0.0
 16
1.0
 26
0.0
 36
0.0
 17
0.0
 27
1.0
 37
0.0
 76
     0
330
747A
  0
MLINESTYLE
  5
7480
102
{ACAD_REACTORS
330
7473
102
}
330
7473
100
AcDbMlineStyle
  2
STANDARD
 70
     0
  3

 62
     0
 51
90.0
 52
90.0
 71
     2
 49
0.5
 62
   256
  6
BYLAYER
 49
-0.5
 62
   256
  6
BYLAYER
  0
ACDBPLACEHOLDER
  5
159AE
102
{ACAD_REACTORS
330
159AD
102
}
330
159AD
  0
XRECORD
  5
21690
102
{ACAD_REACTORS
330
2168E
102
}
330
2168E
100
AcDbXrecord
280
     1
340
159B0
  0
XRECORD
  5
2168F
102
{ACAD_REACTORS
330
2168E
102
}
330
2168E
100
AcDbXrecord
280
     1
340
159AF
  0
DICTIONARYVAR
  5
20DBF
102
{ACAD_REACTORS
330
20DBE
102
}
330
20DBE
100
DictionaryVariables
280
     0
  1
1
  0
DICTIONARYVAR
  5
20DC0
102
{ACAD_REACTORS
330
20DBE
102
}
330
20DBE
100
DictionaryVariables
280
     0
  1

  0
DICTIONARY
  5
21691
330
159B3
100
AcDbDictionary
280
     1
281
     1
  3
ACAD_XREC_ROUNDTRIP
360
21692
  0
DICTIONARY
  5
21693
330
159B4
100
AcDbDictionary
280
     1
281
     1
  3
ACAD_XREC_ROUNDTRIP
360
21694
  0
XRECORD
  5
21692
102
{ACAD_REACTORS
330
21691
102
}
330
21691
100
AcDbXrecord
280
     1
102
SHADEPLOT
 70
     0
102
SHADEPLOTRESLEVEL
 70
     2
102
SHADEPLOTCUSTOMDPI
 70
   300
  0
XRECORD
  5
21694
102
{ACAD_REACTORS
330
21693
102
}
330
21693
100
AcDbXrecord
280
     1
102
SHADEPLOT
 70
     0
102
SHADEPLOTRESLEVEL
 70
     2
102
SHADEPLOTCUSTOMDPI
 70
   300
  0
ENDSEC
  0
EOF
