  0
SECTION
  2
HEADER
  9
$ACADVER
  1
AC1015
  9
$ACADMAINTVER
 70
    20
  9
$DWGCODEPAGE
  3
ANSI_932
  9
$INSBASE
 10
0.0
 20
0.0
 30
0.0
  9
$EXTMIN
 10
139.9999999999995
 20
-0.0000000000000909
 30
0.0
  9
$EXTMAX
 10
16307.2
 20
11409.6
 30
0.0
  9
$LIMMIN
 10
0.0
 20
0.0
  9
$LIMMAX
 10
16800.0
 20
11880.0
  9
$ORTHOMODE
 70
     0
  9
$REGENMODE
 70
     1
  9
$FILLMODE
 70
     1
  9
$QTEXTMODE
 70
     0
  9
$MIRRTEXT
 70
     1
  9
$LTSCALE
 40
20.0
  9
$ATTMODE
 70
     1
  9
$TEXTSIZE
 40
4.0
  9
$TRACEWID
 40
1.0
  9
$TEXTSTYLE
  7
STYLE1
  9
$CLAYER
  8
細線
  9
$CELTYPE
  6
BYLAYER
  9
$CECOLOR
 62
   256
  9
$CELTSCALE
 40
50.0
  9
$DISPSILH
 70
     0
  9
$DIMSCALE
 40
40.0
  9
$DIMASZ
 40
2.5
  9
$DIMEXO
 40
0.5
  9
$DIMDLI
 40
7.0
  9
$DIMRND
 40
0.0
  9
$DIMDLE
 40
0.0
  9
$DIMEXE
 40
1.5
  9
$DIMTP
 40
0.0
  9
$DIMTM
 40
0.0
  9
$DIMTXT
 40
3.0
  9
$DIMCEN
 40
0.0
  9
$DIMTSZ
 40
0.0
  9
$DIMTOL
 70
     0
  9
$DIMLIM
 70
     0
  9
$DIMTIH
 70
     0
  9
$DIMTOH
 70
     0
  9
$DIMSE1
 70
     0
  9
$DIMSE2
 70
     0
  9
$DIMTAD
 70
     3
  9
$DIMZIN
 70
     8
  9
$DIMBLK
  1

  9
$DIMASO
 70
     1
  9
$DIMSHO
 70
     1
  9
$DIMPOST
  1

  9
$DIMAPOST
  1

  9
$DIMALT
 70
     0
  9
$DIMALTD
 70
     2
  9
$DIMALTF
 40
0.0394
  9
$DIMLFAC
 40
1.0
  9
$DIMTOFL
 70
     1
  9
$DIMTVP
 40
0.0
  9
$DIMTIX
 70
     1
  9
$DIMSOXD
 70
     0
  9
$DIMSAH
 70
     1
  9
$DIMBLK1
  1
DOTSMALL
  9
$DIMBLK2
  1
DOTSMALL
  9
$DIMSTYLE
  2
INABA_S40G
  9
$DIMCLRD
 70
     0
  9
$DIMCLRE
 70
     0
  9
$DIMCLRT
 70
     7
  9
$DIMTFAC
 40
1.0
  9
$DIMGAP
 40
1.0
  9
$DIMJUST
 70
     0
  9
$DIMSD1
 70
     0
  9
$DIMSD2
 70
     0
  9
$DIMTOLJ
 70
     1
  9
$DIMTZIN
 70
     0
  9
$DIMALTZ
 70
     0
  9
$DIMALTTZ
 70
     0
  9
$DIMUPT
 70
     0
  9
$DIMDEC
 70
     1
  9
$DIMTDEC
 70
     4
  9
$DIMALTU
 70
     2
  9
$DIMALTTD
 70
     2
  9
$DIMTXSTY
  7
STYLE1
  9
$DIMAUNIT
 70
     0
  9
$DIMADEC
 70
     0
  9
$DIMALTRND
 40
0.0
  9
$DIMAZIN
 70
     0
  9
$DIMDSEP
 70
    46
  9
$DIMATFIT
 70
     3
  9
$DIMFRAC
 70
     0
  9
$DIMLDRBLK
  1

  9
$DIMLUNIT
 70
     2
  9
$DIMLWD
 70
    -2
  9
$DIMLWE
 70
    -2
  9
$DIMTMOVE
 70
     0
  9
$LUNITS
 70
     2
  9
$LUPREC
 70
     1
  9
$SKETCHINC
 40
1.0
  9
$FILLETRAD
 40
3.0
  9
$AUNITS
 70
     0
  9
$AUPREC
 70
     0
  9
$MENU
  1
acad
  9
$ELEVATION
 40
0.0
  9
$PELEVATION
 40
0.0
  9
$THICKNESS
 40
0.0
  9
$LIMCHECK
 70
     0
  9
$CHAMFERA
 40
0.0
  9
$CHAMFERB
 40
0.0
  9
$CHAMFERC
 40
0.0
  9
$CHAMFERD
 40
0.0
  9
$SKPOLY
 70
     0
  9
$TDCREATE
 40
2451368.612993866
  9
$TDUCREATE
 40
2451368.237993866
  9
$TDUPDATE
 40
2455827.671307651
  9
$TDUUPDATE
 40
2455827.296307651
  9
$TDINDWG
 40
0.8555235648
  9
$TDUSRTIMER
 40
0.8555235648
  9
$USRTIMER
 70
     1
  9
$ANGBASE
 50
0.0
  9
$ANGDIR
 70
     0
  9
$PDMODE
 70
     3
  9
$PDSIZE
 40
2.0
  9
$PLINEWID
 40
0.0
  9
$SPLFRAME
 70
     0
  9
$SPLINETYPE
 70
     6
  9
$SPLINESEGS
 70
     8
  9
$HANDSEED
  5
2637E
  9
$SURFTAB1
 70
     6
  9
$SURFTAB2
 70
     6
  9
$SURFTYPE
 70
     6
  9
$SURFU
 70
     6
  9
$SURFV
 70
     6
  9
$UCSBASE
  2

  9
$UCSNAME
  2

  9
$UCSORG
 10
0.0
 20
0.0
 30
0.0
  9
$UCSXDIR
 10
1.0
 20
0.0
 30
0.0
  9
$UCSYDIR
 10
0.0
 20
1.0
 30
0.0
  9
$UCSORTHOREF
  2

  9
$UCSORTHOVIEW
 70
     0
  9
$UCSORGTOP
 10
0.0
 20
0.0
 30
0.0
  9
$UCSORGBOTTOM
 10
0.0
 20
0.0
 30
0.0
  9
$UCSORGLEFT
 10
0.0
 20
0.0
 30
0.0
  9
$UCSORGRIGHT
 10
0.0
 20
0.0
 30
0.0
  9
$UCSORGFRONT
 10
0.0
 20
0.0
 30
0.0
  9
$UCSORGBACK
 10
0.0
 20
0.0
 30
0.0
  9
$PUCSBASE
  2

  9
$PUCSNAME
  2

  9
$PUCSORG
 10
0.0
 20
0.0
 30
0.0
  9
$PUCSXDIR
 10
1.0
 20
0.0
 30
0.0
  9
$PUCSYDIR
 10
0.0
 20
1.0
 30
0.0
  9
$PUCSORTHOREF
  2

  9
$PUCSORTHOVIEW
 70
     0
  9
$PUCSORGTOP
 10
0.0
 20
0.0
 30
0.0
  9
$PUCSORGBOTTOM
 10
0.0
 20
0.0
 30
0.0
  9
$PUCSORGLEFT
 10
0.0
 20
0.0
 30
0.0
  9
$PUCSORGRIGHT
 10
0.0
 20
0.0
 30
0.0
  9
$PUCSORGFRONT
 10
0.0
 20
0.0
 30
0.0
  9
$PUCSORGBACK
 10
0.0
 20
0.0
 30
0.0
  9
$USERI1
 70
     0
  9
$USERI2
 70
     0
  9
$USERI3
 70
     0
  9
$USERI4
 70
     0
  9
$USERI5
 70
     0
  9
$USERR1
 40
0.0
  9
$USERR2
 40
0.0
  9
$USERR3
 40
0.0
  9
$USERR4
 40
0.0
  9
$USERR5
 40
0.0
  9
$WORLDVIEW
 70
     1
  9
$SHADEDGE
 70
     3
  9
$SHADEDIF
 70
    70
  9
$TILEMODE
 70
     1
  9
$MAXACTVP
 70
    16
  9
$PINSBASE
 10
0.0
 20
0.0
 30
0.0
  9
$PLIMCHECK
 70
     0
  9
$PEXTMIN
 10
1.000000000000000E+20
 20
1.000000000000000E+20
 30
1.000000000000000E+20
  9
$PEXTMAX
 10
-1.000000000000000E+20
 20
-1.000000000000000E+20
 30
-1.000000000000000E+20
  9
$PLIMMIN
 10
0.0
 20
0.0
  9
$PLIMMAX
 10
420.0
 20
297.0
  9
$UNITMODE
 70
     0
  9
$VISRETAIN
 70
     0
  9
$PLINEGEN
 70
     0
  9
$PSLTSCALE
 70
     0
  9
$TREEDEPTH
 70
  3020
  9
$CMLSTYLE
  2
STANDARD
  9
$CMLJUST
 70
     0
  9
$CMLSCALE
 40
1.0
  9
$PROXYGRAPHICS
 70
     1
  9
$MEASUREMENT
 70
     1
  9
$CELWEIGHT
370
    -1
  9
$ENDCAPS
280
     0
  9
$JOINSTYLE
280
     0
  9
$LWDISPLAY
290
     0
  9
$INSUNITS
 70
     0
  9
$HYPERLINKBASE
  1

  9
$STYLESHEET
  1
ACA3.ctb
  9
$XEDIT
290
     1
  9
$CEPSNTYPE
380
     0
  9
$PSTYLEMODE
290
     1
  9
$FINGERPRINTGUID
  2
{5EAC461A-2277-4BF8-9AB0-99C43BB394F0}
  9
$VERSIONGUID
  2
{BDDF1B81-0D0D-468A-9D6B-C93D1F34624F}
  9
$EXTNAMES
290
     1
  9
$PSVPSCALE
 40
0.0
  9
$OLESTARTUP
290
     0
  0
ENDSEC
  0
SECTION
  2
CLASSES
  0
CLASS
  1
ACDBDICTIONARYWDFLT
  2
AcDbDictionaryWithDefault
  3
ObjectDBX Classes
 90
        0
280
     0
281
     0
  0
CLASS
  1
DICTIONARYVAR
  2
AcDbDictionaryVar
  3
ObjectDBX Classes
 90
        0
280
     0
281
     0
  0
CLASS
  1
ACDBPLACEHOLDER
  2
AcDbPlaceHolder
  3
ObjectDBX Classes
 90
        0
280
     0
281
     0
  0
CLASS
  1
LAYOUT
  2
AcDbLayout
  3
ObjectDBX Classes
 90
        0
280
     0
281
     0
  0
ENDSEC
  0
SECTION
  2
TABLES
  0
TABLE
  2
VPORT
  5
746D
330
0
100
AcDbSymbolTable
 70
     2
  0
VPORT
  5
26376
330
746D
100
AcDbSymbolTableRecord
100
AcDbViewportTableRecord
  2
*Active
 70
     0
 10
0.0
 20
0.0
 11
1.0
 21
1.0
 12
8399.999999999998
 22
6549.946086030115
 13
0.0
 23
0.0
 14
10.0
 24
10.0
 15
10.0
 25
10.0
 16
0.0
 26
0.0
 36
1.0
 17
0.0
 27
0.0
 37
0.0
 40
13195.53355943939
 41
1.522222222222222
 42
50.0
 43
0.0
 44
0.0
 50
0.0
 51
0.0
 71
     0
 72
     0
 73
     1
 74
     0
 75
     0
 76
     0
 77
     0
 78
     0
281
     0
 65
     1
110
0.0
120
0.0
130
0.0
111
1.0
121
0.0
131
0.0
112
0.0
122
1.0
132
0.0
 79
     0
146
0.0
  0
ENDTAB
  0
TABLE
  2
LTYPE
  5
746A
330
0
100
AcDbSymbolTable
 70
     5
  0
LTYPE
  5
7477
330
746A
100
AcDbSymbolTableRecord
100
AcDbLinetypeTableRecord
  2
BYBLOCK
 70
     0
  3

 72
    65
 73
     0
 40
0.0
  0
LTYPE
  5
7478
330
746A
100
AcDbSymbolTableRecord
100
AcDbLinetypeTableRecord
  2
BYLAYER
 70
     0
  3

 72
    65
 73
     0
 40
0.0
  0
LTYPE
  5
7479
330
746A
100
AcDbSymbolTableRecord
100
AcDbLinetypeTableRecord
  2
CONTINUOUS
 70
     0
  3
Solid line
 72
    65
 73
     0
 40
0.0
  0
LTYPE
  5
7816
330
746A
100
AcDbSymbolTableRecord
100
AcDbLinetypeTableRecord
  2
CENTER
 70
     0
  3
____ _ ____ _ ____ _ ____ _ ____ _ ____ _ ____ 
 72
    65
 73
     4
 40
2.0
 49
1.25
 74
     0
 49
-0.25
 74
     0
 49
0.25
 74
     0
 49
-0.25
 74
     0
  0
LTYPE
  5
781A
330
746A
100
AcDbSymbolTableRecord
100
AcDbLinetypeTableRecord
  2
HIDDEN
 70
     0
  3
__ __ __ __ __ __ __ __ __ __ __ __ __ __ __ __
 72
    65
 73
     2
 40
0.375
 49
0.25
 74
     0
 49
-0.125
 74
     0
  0
LTYPE
  5
781B
330
746A
100
AcDbSymbolTableRecord
100
AcDbLinetypeTableRecord
  2
PHANTOM
 70
     0
  3
______  __  __  ______  __  __  ______  __  __ 
 72
    65
 73
     6
 40
2.5
 49
1.25
 74
     0
 49
-0.25
 74
     0
 49
0.25
 74
     0
 49
-0.25
 74
     0
 49
0.25
 74
     0
 49
-0.25
 74
     0
  0
LTYPE
  5
12CC3
330
746A
100
AcDbSymbolTableRecord
100
AcDbLinetypeTableRecord
  2
HIDDENX2
 70
     0
  3
Hidden (2x) ____ ____ ____ ____ ____ ____ ____
 72
    65
 73
     2
 40
19.05
 49
12.7
 74
     0
 49
-6.349999999999999
 74
     0
  0
ENDTAB
  0
TABLE
  2
LAYER
  5
7467
102
{ACAD_XDICTIONARY
360
1758F
102
}
330
0
100
AcDbSymbolTable
 70
    12
  0
LAYER
  5
7474
330
7467
100
AcDbSymbolTableRecord
100
AcDbLayerTableRecord
  2
0
 70
     0
 62
     7
  6
CONTINUOUS
370
    -3
390
173D0
  0
LAYER
  5
DEB2
330
7467
100
AcDbSymbolTableRecord
100
AcDbLayerTableRecord
  2
センター
 70
     0
 62
     3
  6
CENTER
370
    -3
390
173D0
  0
LAYER
  5
DEB3
330
7467
100
AcDbSymbolTableRecord
100
AcDbLayerTableRecord
  2
寸法
 70
     0
 62
     4
  6
CONTINUOUS
370
    -3
390
173D0
  0
LAYER
  5
DEB4
330
7467
100
AcDbSymbolTableRecord
100
AcDbLayerTableRecord
  2
部品1
 70
     0
 62
     7
  6
CONTINUOUS
370
    -3
390
173D0
  0
LAYER
  5
DEB5
330
7467
100
AcDbSymbolTableRecord
100
AcDbLayerTableRecord
  2
補助
 70
     0
 62
    -1
  6
CONTINUOUS
370
    -3
390
173D0
  0
LAYER
  5
DEB6
330
7467
100
AcDbSymbolTableRecord
100
AcDbLayerTableRecord
  2
文字
 70
     0
 62
     7
  6
CONTINUOUS
370
    -3
390
173D0
  0
LAYER
  5
F255
330
7467
100
AcDbSymbolTableRecord
100
AcDbLayerTableRecord
  2
DEFPOINTS
 70
     0
 62
     7
  6
CONTINUOUS
290
     0
370
    -3
390
173D0
  0
LAYER
  5
10B54
330
7467
100
AcDbSymbolTableRecord
100
AcDbLayerTableRecord
  2
仕様書枠
 70
     0
 62
   230
  6
CONTINUOUS
370
    -3
390
173D0
  0
LAYER
  5
11729
330
7467
100
AcDbSymbolTableRecord
100
AcDbLayerTableRecord
  2
Ｇ．Ｌ
 70
     0
 62
    30
  6
CONTINUOUS
370
    -3
390
173D0
  0
LAYER
  5
1173F
330
7467
100
AcDbSymbolTableRecord
100
AcDbLayerTableRecord
  2
細線
 70
     0
 62
     5
  6
CONTINUOUS
370
    -3
390
173D0
  0
LAYER
  5
12CC4
330
7467
100
AcDbSymbolTableRecord
100
AcDbLayerTableRecord
  2
想像線
 70
     0
 62
     6
  6
PHANTOM
370
    -3
390
173D0
  0
LAYER
  5
142E2
330
7467
100
AcDbSymbolTableRecord
100
AcDbLayerTableRecord
  2
破線
 70
     0
 62
     2
  6
HIDDEN
370
    -3
390
173D0
  0
ENDTAB
  0
TABLE
  2
STYLE
  5
7468
330
0
100
AcDbSymbolTable
 70
     7
  0
STYLE
  5
7475
330
7468
100
AcDbSymbolTableRecord
100
AcDbTextStyleTableRecord
  2
STANDARD
 70
     0
 40
0.0
 41
1.0
 50
0.0
 71
     0
 42
4.0
  3
txt
  4
C:\AutoCAD LT\bigfont.shx
  0
STYLE
  5
763C
330
7468
100
AcDbSymbolTableRecord
100
AcDbTextStyleTableRecord
  2
MSMINCHO
 70
     0
 40
0.0
 41
1.0
 50
0.0
 71
     0
 42
1.199999999999999
  3
C:\AutoCAD LT\msminch2.TTF
  4

  0
STYLE
  5
F706
330
7468
100
AcDbSymbolTableRecord
100
AcDbTextStyleTableRecord
  2
STYLE1
 70
     0
 40
0.0
 41
1.0
 50
0.0
 71
     0
 42
4.0
  3
isocp.shx
  4
bigfont.shx
  0
STYLE
  5
103BF
330
7468
100
AcDbSymbolTableRecord
100
AcDbTextStyleTableRecord
  2
STYLE2
 70
     0
 40
0.0
 41
1.0
 50
0.0
 71
     0
 42
100.0
  3
MS PGothic.ttf
  4

1001
ACAD
1000
MS PGothic
1071
    32818
  0
STYLE
  5
10BAA
330
7468
100
AcDbSymbolTableRecord
100
AcDbTextStyleTableRecord
  2
STYLE3
 70
     0
 40
0.0
 41
1.0
 50
0.0
 71
     0
 42
100.0
  3

  4

1001
ACAD
1000
DFPGothic-EB
1071
    32818
  0
STYLE
  5
11A15
330
7468
100
AcDbSymbolTableRecord
100
AcDbTextStyleTableRecord
  2
MSGOTHIC
 70
     0
 40
0.0
 41
1.0
 50
0.0
 71
     0
 42
3.5
  3
msgothi2.ttf
  4

  0
STYLE
  5
13E96
330
7468
100
AcDbSymbolTableRecord
100
AcDbTextStyleTableRecord
  2
MSPゴシック
 70
     0
 40
0.0
 41
1.0
 50
0.0
 71
     0
 42
4.0
  3
MS PGothic.ttf
  4

1001
ACAD
1000
MS PGothic
1071
    32818
  0
ENDTAB
  0
TABLE
  2
VIEW
  5
746B
330
0
100
AcDbSymbolTable
 70
     0
  0
ENDTAB
  0
TABLE
  2
UCS
  5
746C
330
0
100
AcDbSymbolTable
 70
     0
  0
ENDTAB
  0
TABLE
  2
APPID
  5
746E
330
0
100
AcDbSymbolTable
 70
     6
  0
APPID
  5
7476
330
746E
100
AcDbSymbolTableRecord
100
AcDbRegAppTableRecord
  2
ACAD
 70
     0
  0
APPID
  5
DEA9
330
746E
100
AcDbSymbolTableRecord
100
AcDbRegAppTableRecord
  2
CONTENTBLOCKICON
 70
     0
  0
APPID
  5
DEAA
330
746E
100
AcDbSymbolTableRecord
100
AcDbRegAppTableRecord
  2
CONTENTBLOCKDESCRIPTION
 70
     0
  0
APPID
  5
E71D
330
746E
100
AcDbSymbolTableRecord
100
AcDbRegAppTableRecord
  2
CONTENTTABDATA
 70
     0
  0
APPID
  5
E71E
330
746E
100
AcDbSymbolTableRecord
100
AcDbRegAppTableRecord
  2
CONTENTCURRENTTAB
 70
     0
  0
APPID
  5
F3BA
330
746E
100
AcDbSymbolTableRecord
100
AcDbRegAppTableRecord
  2
DRAWINGVARIABLESXDATA
 70
     0
  0
ENDTAB
  0
TABLE
  2
DIMSTYLE
  5
746F
330
0
100
AcDbSymbolTable
 70
     6
100
AcDbDimStyleTable
 71
     1
340
F71F
  0
DIMSTYLE
105
7484
330
746F
100
AcDbSymbolTableRecord
100
AcDbDimStyleTableRecord
  2
JIS
 70
     0
 41
2.5
 42
1.0
 43
7.0
 44
1.0
 73
     0
 74
     0
 77
     1
 78
     8
140
2.5
141
0.0
143
0.0394
147
0.0
172
     1
174
     1
175
     1
340
7475
  0
DIMSTYLE
105
F236
330
746F
100
AcDbSymbolTableRecord
100
AcDbDimStyleTableRecord
  2
INABA_S40
 70
     0
 40
40.0
 41
2.5
 42
0.5
 43
7.0
 44
1.5
 73
     0
 74
     0
 77
     3
 78
     8
140
3.0
141
0.0
143
0.0394
147
1.0
172
     1
173
     1
174
     1
175
     1
178
     7
289
     0
340
7475
341
DEAC
343
DEAC
344
DEAC
  0
DIMSTYLE
105
F71F
102
{ACAD_REACTORS
330
241FE
330
241CC
330
241CB
330
241CA
330
241C8
330
241C6
330
241C4
330
241C3
330
241C2
330
241C1
330
24211
330
2420D
330
241D9
330
241D5
330
241D4
330
241C7
330
241D2
330
24BBB
330
24BBC
330
25034
330
25035
330
25036
330
2503A
330
25097
330
254FD
330
25500
330
25501
330
25506
330
261B4
330
261B5
330
261BD
330
261C4
330
261C7
330
26227
102
}
330
746F
100
AcDbSymbolTableRecord
100
AcDbDimStyleTableRecord
  2
INABA_S40G
 70
     0
 40
40.0
 41
2.5
 42
0.5
 43
7.0
 44
1.5
 73
     0
 74
     0
 77
     3
 78
     8
140
3.0
141
0.0
143
0.0394
147
1.0
172
     1
173
     1
174
     1
178
     7
271
     1
340
F706
341
F770
343
F770
344
F770
  0
DIMSTYLE
105
142E3
330
746F
100
AcDbSymbolTableRecord
100
AcDbDimStyleTableRecord
  2
INABA_S1
 70
     0
 40
0.0
 41
2.5
 42
0.5
 43
7.0
 44
1.5
 73
     0
 74
     0
 77
     3
 78
     8
140
3.0
141
0.0
143
0.0394
146
0.5
147
0.5
172
     1
173
     1
176
   256
177
   256
178
     7
271
     2
272
     2
284
     8
288
     1
340
7475
341
DEAC
343
DEAC
344
DEAC
  0
DIMSTYLE
105
14463
330
746F
100
AcDbSymbolTableRecord
100
AcDbDimStyleTableRecord
  2
INABA_S30G
 70
     0
 40
30.0
 41
2.5
 42
0.5
 43
7.0
 44
1.5
 73
     0
 74
     0
 77
     3
 78
     8
140
3.0
141
0.0
143
0.0394
147
1.0
172
     1
173
     1
174
     1
175
     1
178
     7
271
     1
340
F706
341
F770
343
F770
344
F770
  0
DIMSTYLE
105
1758E
330
746F
100
AcDbSymbolTableRecord
100
AcDbDimStyleTableRecord
  2
INABA_S50G
 70
     0
 41
125.0
 42
25.0
 43
7.0
 44
75.0
 73
     0
 74
     0
 77
     3
 78
     8
140
150.0
141
0.0
143
0.0394
147
25.0
172
     1
173
     1
174
     1
175
     1
178
     7
271
     1
340
F706
341
F770
343
F770
344
F770
  0
ENDTAB
  0
TABLE
  2
BLOCK_RECORD
  5
7466
330
0
100
AcDbSymbolTable
 70
    65
  0
BLOCK_RECORD
  5
747D
330
7466
100
AcDbSymbolTableRecord
100
AcDbBlockTableRecord
  2
*MODEL_SPACE
340
173D5
  0
BLOCK_RECORD
  5
747A
330
7466
100
AcDbSymbolTableRecord
100
AcDbBlockTableRecord
  2
*PAPER_SPACE
340
173D6
  0
BLOCK_RECORD
  5
DEAC
330
7466
100
AcDbSymbolTableRecord
100
AcDbBlockTableRecord
  2
_OPEN
340
0
  0
BLOCK_RECORD
  5
F770
330
7466
100
AcDbSymbolTableRecord
100
AcDbBlockTableRecord
  2
_DOTSMALL
340
0
102
{BLKREFS
331
18C65
331
18C66
331
18C59
331
18C5A
331
18C4D
331
18C4E
331
18C41
331
18C42
331
18C35
331
18C36
331
18C29
331
18C2A
331
18C1D
331
18C1E
331
18C0F
331
18C10
331
18C03
331
18C04
331
18BF5
331
18BF6
331
18BE7
331
18BE8
331
18BD9
331
18BDA
331
18BCD
331
18BCE
331
248B5
331
248B6
331
248C9
331
248CA
331
248D2
331
248D3
331
248DC
331
248DD
331
248EF
331
248F0
331
24933
331
24934
331
24950
331
24951
331
24959
331
2495A
331
24962
331
24963
331
24977
331
24978
331
24980
331
24981
331
24995
331
24996
331
249A8
331
249A9
331
249B1
331
249B2
331
252E8
331
252E9
331
2531A
331
2531B
331
25330
331
25331
331
257B6
331
257B7
331
257C1
331
257C2
331
257D7
331
257D8
331
257ED
331
257EE
331
25BB1
331
25BB2
331
25BCF
331
25BD0
331
25BD9
331
25BDA
331
25C01
331
25C02
331
25C0B
331
25C0C
331
25C15
331
25C16
331
25FD9
331
25FDA
331
25FE2
331
25FE3
331
25FEB
331
25FEC
331
25FF9
331
25FFA
331
26001
331
26002
331
2600B
331
2600C
331
2601E
331
2601F
331
2605E
331
2605F
331
26053
331
26054
331
26042
331
26043
331
26036
331
26037
331
2602A
331
2602B
331
2606B
331
2606C
331
26331
331
26332
331
26340
331
26341
331
26349
331
2634A
331
26352
331
26353
331
2635B
331
2635C
331
26364
331
26365
102
}
  0
BLOCK_RECORD
  5
164B4
330
7466
100
AcDbSymbolTableRecord
100
AcDbBlockTableRecord
  2
_DOT
340
0
102
{BLKREFS
331
18C73
331
18C74
102
}
  0
BLOCK_RECORD
  5
18BC8
330
7466
100
AcDbSymbolTableRecord
100
AcDbBlockTableRecord
  2
*D3
340
0
  0
BLOCK_RECORD
  5
18BD4
330
7466
100
AcDbSymbolTableRecord
100
AcDbBlockTableRecord
  2
*D4
340
0
  0
BLOCK_RECORD
  5
18BE0
330
7466
100
AcDbSymbolTableRecord
100
AcDbBlockTableRecord
  2
*D5
340
0
  0
BLOCK_RECORD
  5
18BEE
330
7466
100
AcDbSymbolTableRecord
100
AcDbBlockTableRecord
  2
*D6
340
0
  0
BLOCK_RECORD
  5
18BFC
330
7466
100
AcDbSymbolTableRecord
100
AcDbBlockTableRecord
  2
*D7
340
0
  0
BLOCK_RECORD
  5
18C0A
330
7466
100
AcDbSymbolTableRecord
100
AcDbBlockTableRecord
  2
*D8
340
0
  0
BLOCK_RECORD
  5
18C16
330
7466
100
AcDbSymbolTableRecord
100
AcDbBlockTableRecord
  2
*D9
340
0
  0
BLOCK_RECORD
  5
18C24
330
7466
100
AcDbSymbolTableRecord
100
AcDbBlockTableRecord
  2
*D10
340
0
  0
BLOCK_RECORD
  5
18C30
330
7466
100
AcDbSymbolTableRecord
100
AcDbBlockTableRecord
  2
*D11
340
0
  0
BLOCK_RECORD
  5
18C3C
330
7466
100
AcDbSymbolTableRecord
100
AcDbBlockTableRecord
  2
*D12
340
0
  0
BLOCK_RECORD
  5
18C48
330
7466
100
AcDbSymbolTableRecord
100
AcDbBlockTableRecord
  2
*D13
340
0
  0
BLOCK_RECORD
  5
18C54
330
7466
100
AcDbSymbolTableRecord
100
AcDbBlockTableRecord
  2
*D14
340
0
  0
BLOCK_RECORD
  5
18C60
330
7466
100
AcDbSymbolTableRecord
100
AcDbBlockTableRecord
  2
*D15
340
0
  0
BLOCK_RECORD
  5
18C6C
330
7466
100
AcDbSymbolTableRecord
100
AcDbBlockTableRecord
  2
*D16
340
0
  0
BLOCK_RECORD
  5
18C7A
330
7466
100
AcDbSymbolTableRecord
100
AcDbBlockTableRecord
  2
A$C3B1A506B
340
0
  0
BLOCK_RECORD
  5
1C4CA
330
7466
100
AcDbSymbolTableRecord
100
AcDbBlockTableRecord
  2
_NONE
340
0
  0
BLOCK_RECORD
  5
24228
330
7466
100
AcDbSymbolTableRecord
100
AcDbBlockTableRecord
  2
*D19
340
0
  0
BLOCK_RECORD
  5
24234
330
7466
100
AcDbSymbolTableRecord
100
AcDbBlockTableRecord
  2
*D20
340
0
  0
BLOCK_RECORD
  5
24240
330
7466
100
AcDbSymbolTableRecord
100
AcDbBlockTableRecord
  2
*D21
340
0
  0
BLOCK_RECORD
  5
2424D
330
7466
100
AcDbSymbolTableRecord
100
AcDbBlockTableRecord
  2
*D22
340
0
  0
BLOCK_RECORD
  5
24267
330
7466
100
AcDbSymbolTableRecord
100
AcDbBlockTableRecord
  2
*D23
340
0
  0
BLOCK_RECORD
  5
24273
330
7466
100
AcDbSymbolTableRecord
100
AcDbBlockTableRecord
  2
*D24
340
0
  0
BLOCK_RECORD
  5
24280
330
7466
100
AcDbSymbolTableRecord
100
AcDbBlockTableRecord
  2
*D25
340
0
  0
BLOCK_RECORD
  5
2429A
330
7466
100
AcDbSymbolTableRecord
100
AcDbBlockTableRecord
  2
*D26
340
0
  0
BLOCK_RECORD
  5
242A5
330
7466
100
AcDbSymbolTableRecord
100
AcDbBlockTableRecord
  2
*D27
340
0
  0
BLOCK_RECORD
  5
242B0
330
7466
100
AcDbSymbolTableRecord
100
AcDbBlockTableRecord
  2
*D28
340
0
  0
BLOCK_RECORD
  5
242C8
330
7466
100
AcDbSymbolTableRecord
100
AcDbBlockTableRecord
  2
*D29
340
0
  0
BLOCK_RECORD
  5
242D3
330
7466
100
AcDbSymbolTableRecord
100
AcDbBlockTableRecord
  2
*D30
340
0
  0
BLOCK_RECORD
  5
242E0
330
7466
100
AcDbSymbolTableRecord
100
AcDbBlockTableRecord
  2
*D31
340
0
  0
BLOCK_RECORD
  5
242EC
330
7466
100
AcDbSymbolTableRecord
100
AcDbBlockTableRecord
  2
*D32
340
0
  0
BLOCK_RECORD
  5
24340
330
7466
100
AcDbSymbolTableRecord
100
AcDbBlockTableRecord
  2
*D33
340
0
  0
BLOCK_RECORD
  5
2434D
330
7466
100
AcDbSymbolTableRecord
100
AcDbBlockTableRecord
  2
*D34
340
0
  0
BLOCK_RECORD
  5
24359
330
7466
100
AcDbSymbolTableRecord
100
AcDbBlockTableRecord
  2
*D35
340
0
  0
BLOCK_RECORD
  5
24D0A
330
7466
100
AcDbSymbolTableRecord
100
AcDbBlockTableRecord
  2
*D36
340
0
  0
BLOCK_RECORD
  5
24D17
330
7466
100
AcDbSymbolTableRecord
100
AcDbBlockTableRecord
  2
*D37
340
0
  0
BLOCK_RECORD
  5
2509D
330
7466
100
AcDbSymbolTableRecord
100
AcDbBlockTableRecord
  2
*D38
340
0
  0
BLOCK_RECORD
  5
250AA
330
7466
100
AcDbSymbolTableRecord
100
AcDbBlockTableRecord
  2
*D39
340
0
  0
BLOCK_RECORD
  5
250B7
330
7466
100
AcDbSymbolTableRecord
100
AcDbBlockTableRecord
  2
*D40
340
0
  0
BLOCK_RECORD
  5
250C3
330
7466
100
AcDbSymbolTableRecord
100
AcDbBlockTableRecord
  2
*D41
340
0
  0
BLOCK_RECORD
  5
251CE
330
7466
100
AcDbSymbolTableRecord
100
AcDbBlockTableRecord
  2
*D42
340
0
  0
BLOCK_RECORD
  5
25616
330
7466
100
AcDbSymbolTableRecord
100
AcDbBlockTableRecord
  2
*D43
340
0
  0
BLOCK_RECORD
  5
25624
330
7466
100
AcDbSymbolTableRecord
100
AcDbBlockTableRecord
  2
*D44
340
0
  0
BLOCK_RECORD
  5
25632
330
7466
100
AcDbSymbolTableRecord
100
AcDbBlockTableRecord
  2
*D45
340
0
  0
BLOCK_RECORD
  5
25640
330
7466
100
AcDbSymbolTableRecord
100
AcDbBlockTableRecord
  2
*D46
340
0
  0
BLOCK_RECORD
  5
262E1
330
7466
100
AcDbSymbolTableRecord
100
AcDbBlockTableRecord
  2
*D59
340
0
  0
BLOCK_RECORD
  5
262ED
330
7466
100
AcDbSymbolTableRecord
100
AcDbBlockTableRecord
  2
*D60
340
0
  0
BLOCK_RECORD
  5
262FE
330
7466
100
AcDbSymbolTableRecord
100
AcDbBlockTableRecord
  2
*D61
340
0
  0
BLOCK_RECORD
  5
2630A
330
7466
100
AcDbSymbolTableRecord
100
AcDbBlockTableRecord
  2
*D62
340
0
  0
BLOCK_RECORD
  5
26316
330
7466
100
AcDbSymbolTableRecord
100
AcDbBlockTableRecord
  2
*D63
340
0
  0
BLOCK_RECORD
  5
26322
330
7466
100
AcDbSymbolTableRecord
100
AcDbBlockTableRecord
  2
*D64
340
0
  0
ENDTAB
  0
ENDSEC
  0
SECTION
  2
BLOCKS
  0
BLOCK
  5
7489
330
747D
100
AcDbEntity
  8
0
100
AcDbBlockBegin
  2
*MODEL_SPACE
 70
     0
 10
0.0
 20
0.0
 30
0.0
  3
*MODEL_SPACE
  1

  0
ENDBLK
  5
748A
330
747D
100
AcDbEntity
  8
0
100
AcDbBlockEnd
  0
BLOCK
  5
7487
330
747A
100
AcDbEntity
 67
     1
  8
0
100
AcDbBlockBegin
  2
*PAPER_SPACE
 70
     0
 10
0.0
 20
0.0
 30
0.0
  3
*PAPER_SPACE
  1

  0
ENDBLK
  5
7488
330
747A
100
AcDbEntity
 67
     1
  8
0
100
AcDbBlockEnd
  0
BLOCK
  5
DEAD
330
DEAC
100
AcDbEntity
  8
0
100
AcDbBlockBegin
  2
_OPEN
 70
     0
 10
0.0
 20
0.0
 30
0.0
  3
_OPEN
  1

  0
LINE
  5
DEAE
330
DEAC
100
AcDbEntity
  8
0
  6
ByBlock
 62
     0
100
AcDbLine
 10
-1.0
 20
0.1666666666666666
 30
0.0
 11
0.0
 21
0.0
 31
0.0
  0
LINE
  5
DEAF
330
DEAC
100
AcDbEntity
  8
0
  6
ByBlock
 62
     0
100
AcDbLine
 10
0.0
 20
0.0
 30
0.0
 11
-1.0
 21
-0.1666666666666666
 31
0.0
  0
LINE
  5
DEB0
330
DEAC
100
AcDbEntity
  8
0
  6
ByBlock
 62
     0
100
AcDbLine
 10
0.0
 20
0.0
 30
0.0
 11
-1.0
 21
0.0
 31
0.0
  0
ENDBLK
  5
DEB1
330
DEAC
100
AcDbEntity
  8
0
100
AcDbBlockEnd
  0
BLOCK
  5
F771
330
F770
100
AcDbEntity
  8
0
 48
50.0
100
AcDbBlockBegin
  2
_DOTSMALL
 70
     0
 10
0.0
 20
0.0
 30
0.0
  3
_DOTSMALL
  1

  0
LWPOLYLINE
  5
F772
330
F770
100
AcDbEntity
  8
0
  6
ByBlock
 62
     0
 48
50.0
100
AcDbPolyline
 90
        2
 70
     1
 43
0.5
 10
-0.0625
 20
0.0
 42
1.0
 10
0.0625
 20
0.0
 42
1.0
  0
ENDBLK
  5
F776
330
F770
100
AcDbEntity
  8
0
 48
50.0
100
AcDbBlockEnd
  0
BLOCK
  5
164BA
330
164B4
100
AcDbEntity
  8
0
 48
50.0
100
AcDbBlockBegin
  2
_DOT
 70
     0
 10
0.0
 20
0.0
 30
0.0
  3
_DOT
  1

  0
LWPOLYLINE
  5
164B5
330
164B4
100
AcDbEntity
  8
0
  6
ByBlock
 62
     0
 48
50.0
100
AcDbPolyline
 90
        2
 70
     1
 43
0.5
 10
-0.25
 20
0.0
 42
1.0
 10
0.25
 20
0.0
 42
1.0
  0
LINE
  5
164B9
330
164B4
100
AcDbEntity
  8
0
  6
ByBlock
 62
     0
 48
50.0
100
AcDbLine
 10
-0.5
 20
0.0
 30
0.0
 11
-1.0
 21
0.0
 31
0.0
  0
ENDBLK
  5
164BB
330
164B4
100
AcDbEntity
  8
0
 48
50.0
100
AcDbBlockEnd
  0
BLOCK
  5
18BC9
330
18BC8
100
AcDbEntity
  8
0
 48
50.0
100
AcDbBlockBegin
  2
*D3
 70
     1
 10
0.0
 20
0.0
 30
0.0
  3
*D3
  1

  0
LINE
  5
18BCA
330
18BC8
100
AcDbEntity
  8
寸法
 62
     0
 48
50.0
370
    -2
100
AcDbLine
 10
7649.896575106999
 20
9636.123139034717
 30
0.0
 11
8702.429862581047
 21
9636.123139034717
 31
0.0
  0
LINE
  5
18BCB
330
18BC8
100
AcDbEntity
  8
寸法
 62
     0
 48
50.0
370
    -2
100
AcDbLine
 10
7649.896575106973
 20
7846.123139034709
 30
0.0
 11
8702.429862581047
 21
7846.123139034709
 31
0.0
  0
LINE
  5
18BCC
330
18BC8
100
AcDbEntity
  8
寸法
 62
     0
 48
50.0
370
    -2
100
AcDbLine
 10
8642.429862581046
 20
9636.123139034717
 30
0.0
 11
8642.429862581046
 21
7846.123139034709
 31
0.0
  0
INSERT
  5
18BCD
330
18BC8
100
AcDbEntity
  8
寸法
 62
     0
 48
50.0
370
    -2
100
AcDbBlockReference
  2
_DOTSMALL
 10
8642.429862581046
 20
9636.123139034717
 30
0.0
 41
100.0
 42
100.0
 43
100.0
 50
90.0
  0
INSERT
  5
18BCE
330
18BC8
100
AcDbEntity
  8
寸法
 62
     0
 48
50.0
370
    -2
100
AcDbBlockReference
  2
_DOTSMALL
 10
8642.429862581046
 20
7846.123139034709
 30
0.0
 41
100.0
 42
100.0
 43
100.0
 50
270.0
  0
MTEXT
  5
18BCF
330
18BC8
100
AcDbEntity
  8
寸法
 62
     7
 48
50.0
100
AcDbMText
 10
8542.429862581045
 20
8741.123139034712
 30
0.0
 40
120.0
 41
0.0
 71
     5
 72
     1
  1
\A1;1790
  7
STYLE1
 11
0.0000000000000001
 21
1.0
 31
0.0
 73
     1
 44
1.0
1001
ACAD
1000
MTEXTBEGIN
1070
    73
1070
     1
1070
    44
1040
1.0
1070
    74
1070
     0
1000
MTEXTEND
  0
POINT
  5
18BD0
330
18BC8
100
AcDbEntity
  8
DEFPOINTS
 62
     0
 48
50.0
100
AcDbPoint
 10
7629.896575106998
 20
9636.123139034717
 30
0.0
  0
POINT
  5
18BD1
330
18BC8
100
AcDbEntity
  8
DEFPOINTS
 62
     0
 48
50.0
100
AcDbPoint
 10
7629.896575106974
 20
7846.123139034709
 30
0.0
  0
POINT
  5
18BD2
330
18BC8
100
AcDbEntity
  8
DEFPOINTS
 62
     0
 48
50.0
100
AcDbPoint
 10
8642.429862581046
 20
7846.123139034709
 30
0.0
  0
ENDBLK
  5
18BD3
330
18BC8
100
AcDbEntity
  8
0
 48
50.0
100
AcDbBlockEnd
  0
BLOCK
  5
18BD5
330
18BD4
100
AcDbEntity
  8
0
 48
50.0
100
AcDbBlockBegin
  2
*D4
 70
     1
 10
0.0
 20
0.0
 30
0.0
  3
*D4
  1

  0
LINE
  5
18BD6
330
18BD4
100
AcDbEntity
  8
寸法
 62
     0
 48
50.0
370
    -2
100
AcDbLine
 10
4214.896575106998
 20
9656.123139034622
 30
0.0
 11
4214.896575106998
 21
10211.93135865972
 31
0.0
  0
LINE
  5
18BD7
330
18BD4
100
AcDbEntity
  8
寸法
 62
     0
 48
50.0
370
    -2
100
AcDbLine
 10
7574.896575106999
 20
9656.123139034718
 30
0.0
 11
7574.896575106999
 21
10211.93135865972
 31
0.0
  0
LINE
  5
18BD8
330
18BD4
100
AcDbEntity
  8
寸法
 62
     0
 48
50.0
370
    -2
100
AcDbLine
 10
4214.896575106998
 20
10151.93135865972
 30
0.0
 11
7574.896575106999
 21
10151.93135865972
 31
0.0
  0
INSERT
  5
18BD9
330
18BD4
100
AcDbEntity
  8
寸法
 62
     0
 48
50.0
370
    -2
100
AcDbBlockReference
  2
_DOTSMALL
 10
4214.896575106998
 20
10151.93135865972
 30
0.0
 41
100.0
 42
100.0
 43
100.0
 50
180.0
  0
INSERT
  5
18BDA
330
18BD4
100
AcDbEntity
  8
寸法
 62
     0
 48
50.0
370
    -2
100
AcDbBlockReference
  2
_DOTSMALL
 10
7574.896575106999
 20
10151.93135865972
 30
0.0
 41
100.0
 42
100.0
 43
100.0
  0
MTEXT
  5
18BDB
330
18BD4
100
AcDbEntity
  8
寸法
 62
     7
 48
50.0
100
AcDbMText
 10
5894.896575106997
 20
10251.94316968334
 30
0.0
 40
120.0
 41
0.0
 71
     5
 72
     1
  1
\A1;8X420=3360
  7
STYLE1
 73
     1
 44
1.0
1001
ACAD
1000
MTEXTBEGIN
1070
    73
1070
     1
1070
    44
1040
1.0
1070
    74
1070
     0
1000
MTEXTEND
  0
POINT
  5
18BDC
330
18BD4
100
AcDbEntity
  8
DEFPOINTS
 62
     0
 48
50.0
100
AcDbPoint
 10
4214.896575106998
 20
9636.123139034623
 30
0.0
  0
POINT
  5
18BDD
330
18BD4
100
AcDbEntity
  8
DEFPOINTS
 62
     0
 48
50.0
100
AcDbPoint
 10
7574.896575106999
 20
9636.123139034717
 30
0.0
  0
POINT
  5
18BDE
330
18BD4
100
AcDbEntity
  8
DEFPOINTS
 62
     0
 48
50.0
100
AcDbPoint
 10
7574.896575106999
 20
10151.93135865972
 30
0.0
  0
ENDBLK
  5
18BDF
330
18BD4
100
AcDbEntity
  8
0
 48
50.0
100
AcDbBlockEnd
  0
BLOCK
  5
18BE1
330
18BE0
100
AcDbEntity
  8
0
 48
50.0
100
AcDbBlockBegin
  2
*D5
 70
     1
 10
0.0
 20
0.0
 30
0.0
  3
*D5
  1

  0
LINE
  5
18BE2
330
18BE0
100
AcDbEntity
  8
寸法
 62
     0
 48
50.0
370
    -2
100
AcDbLine
 10
7574.896575106999
 20
9656.123139034718
 30
0.0
 11
7574.896575106999
 21
10211.9313586597
 31
0.0
  0
LINE
  5
18BE3
330
18BE0
100
AcDbEntity
  8
寸法
 62
     0
 48
50.0
370
    -2
100
AcDbLine
 10
7629.896575106998
 20
9656.123139034718
 30
0.0
 11
7629.896575106998
 21
10211.9313586597
 31
0.0
  0
LINE
  5
18BE4
330
18BE0
100
AcDbEntity
  8
寸法
 62
     0
 48
50.0
370
    -2
100
AcDbLine
 10
7574.896575106999
 20
10151.9313586597
 30
0.0
 11
7474.896575106999
 21
10151.9313586597
 31
0.0
  0
LINE
  5
18BE5
330
18BE0
100
AcDbEntity
  8
寸法
 62
     0
 48
50.0
370
    -2
100
AcDbLine
 10
7629.896575106998
 20
10151.9313586597
 30
0.0
 11
8046.867137855477
 21
10151.9313586597
 31
0.0
  0
LINE
  5
18BE6
330
18BE0
100
AcDbEntity
  8
寸法
 62
     0
 48
50.0
370
    -2
100
AcDbLine
 10
7574.896575106999
 20
10151.9313586597
 30
0.0
 11
7629.896575106998
 21
10151.9313586597
 31
0.0
  0
INSERT
  5
18BE7
330
18BE0
100
AcDbEntity
  8
寸法
 62
     0
 48
50.0
370
    -2
100
AcDbBlockReference
  2
_DOTSMALL
 10
7574.896575106999
 20
10151.9313586597
 30
0.0
 41
100.0
 42
100.0
 43
100.0
  0
INSERT
  5
18BE8
330
18BE0
100
AcDbEntity
  8
寸法
 62
     0
 48
50.0
370
    -2
100
AcDbBlockReference
  2
_DOTSMALL
 10
7629.896575106998
 20
10151.9313586597
 30
0.0
 41
100.0
 42
100.0
 43
100.0
 50
180.0
  0
MTEXT
  5
18BE9
330
18BE0
100
AcDbEntity
  8
寸法
 62
     7
 48
50.0
100
AcDbMText
 10
7938.381856481237
 20
10251.9313586597
 30
0.0
 40
120.0
 41
0.0
 71
     5
 72
     1
  1
\A1;55
  7
STYLE1
 73
     1
 44
1.0
1001
ACAD
1000
MTEXTBEGIN
1070
    73
1070
     1
1070
    44
1040
1.0
1070
    74
1070
     0
1000
MTEXTEND
  0
POINT
  5
18BEA
330
18BE0
100
AcDbEntity
  8
DEFPOINTS
 62
     0
 48
50.0
100
AcDbPoint
 10
7574.896575106999
 20
9636.123139034717
 30
0.0
  0
POINT
  5
18BEB
330
18BE0
100
AcDbEntity
  8
DEFPOINTS
 62
     0
 48
50.0
100
AcDbPoint
 10
7629.896575106998
 20
9636.123139034717
 30
0.0
  0
POINT
  5
18BEC
330
18BE0
100
AcDbEntity
  8
DEFPOINTS
 62
     0
 48
50.0
100
AcDbPoint
 10
7629.896575106998
 20
10151.9313586597
 30
0.0
  0
ENDBLK
  5
18BED
330
18BE0
100
AcDbEntity
  8
0
 48
50.0
100
AcDbBlockEnd
  0
BLOCK
  5
18BEF
330
18BEE
100
AcDbEntity
  8
0
 48
50.0
100
AcDbBlockBegin
  2
*D6
 70
     1
 10
0.0
 20
0.0
 30
0.0
  3
*D6
  1

  0
LINE
  5
18BF0
330
18BEE
100
AcDbEntity
  8
寸法
 62
     0
 48
50.0
370
    -2
100
AcDbLine
 10
7649.896575106999
 20
9636.123139034717
 30
0.0
 11
8337.32292084141
 21
9636.123139034717
 31
0.0
  0
LINE
  5
18BF1
330
18BEE
100
AcDbEntity
  8
寸法
 62
     0
 48
50.0
370
    -2
100
AcDbLine
 10
7649.896575106999
 20
9581.123139034721
 30
0.0
 11
8337.32292084141
 21
9581.123139034721
 31
0.0
  0
LINE
  5
18BF2
330
18BEE
100
AcDbEntity
  8
寸法
 62
     0
 48
50.0
370
    -2
100
AcDbLine
 10
8277.322920841411
 20
9581.123139034721
 30
0.0
 11
8277.322920841411
 21
9481.123139034719
 31
0.0
  0
LINE
  5
18BF3
330
18BEE
100
AcDbEntity
  8
寸法
 62
     0
 48
50.0
370
    -2
100
AcDbLine
 10
8277.322920841411
 20
9636.123139034717
 30
0.0
 11
8277.322920841411
 21
10053.09370178319
 31
0.0
  0
LINE
  5
18BF4
330
18BEE
100
AcDbEntity
  8
寸法
 62
     0
 48
50.0
370
    -2
100
AcDbLine
 10
8277.322920841411
 20
9581.123139034721
 30
0.0
 11
8277.322920841411
 21
9636.123139034717
 31
0.0
  0
INSERT
  5
18BF5
330
18BEE
100
AcDbEntity
  8
寸法
 62
     0
 48
50.0
370
    -2
100
AcDbBlockReference
  2
_DOTSMALL
 10
8277.322920841411
 20
9581.123139034721
 30
0.0
 41
100.0
 42
100.0
 43
100.0
 50
90.0
  0
INSERT
  5
18BF6
330
18BEE
100
AcDbEntity
  8
寸法
 62
     0
 48
50.0
370
    -2
100
AcDbBlockReference
  2
_DOTSMALL
 10
8277.322920841411
 20
9636.123139034717
 30
0.0
 41
100.0
 42
100.0
 43
100.0
 50
270.0
  0
MTEXT
  5
18BF7
330
18BEE
100
AcDbEntity
  8
寸法
 62
     7
 48
50.0
100
AcDbMText
 10
8177.32292084141
 20
9944.608420408957
 30
0.0
 40
120.0
 41
0.0
 71
     5
 72
     1
  1
\A1;55
  7
STYLE1
 11
0.0000000000000001
 21
1.0
 31
0.0
 73
     1
 44
1.0
1001
ACAD
1000
MTEXTBEGIN
1070
    73
1070
     1
1070
    44
1040
1.0
1070
    74
1070
     0
1000
MTEXTEND
  0
POINT
  5
18BF8
330
18BEE
100
AcDbEntity
  8
DEFPOINTS
 62
     0
 48
50.0
100
AcDbPoint
 10
7629.896575106998
 20
9636.123139034717
 30
0.0
  0
POINT
  5
18BF9
330
18BEE
100
AcDbEntity
  8
DEFPOINTS
 62
     0
 48
50.0
100
AcDbPoint
 10
7629.896575106998
 20
9581.123139034721
 30
0.0
  0
POINT
  5
18BFA
330
18BEE
100
AcDbEntity
  8
DEFPOINTS
 62
     0
 48
50.0
100
AcDbPoint
 10
8277.322920841411
 20
9581.123139034721
 30
0.0
  0
ENDBLK
  5
18BFB
330
18BEE
100
AcDbEntity
  8
0
 48
50.0
100
AcDbBlockEnd
  0
BLOCK
  5
18BFD
330
18BFC
100
AcDbEntity
  8
0
 48
50.0
100
AcDbBlockBegin
  2
*D7
 70
     1
 10
0.0
 20
0.0
 30
0.0
  3
*D7
  1

  0
LINE
  5
18BFE
330
18BFC
100
AcDbEntity
  8
寸法
 62
     0
 48
50.0
370
    -2
100
AcDbLine
 10
4159.896575106963
 20
9656.123139034622
 30
0.0
 11
4159.896575106963
 21
10211.9313586596
 31
0.0
  0
LINE
  5
18BFF
330
18BFC
100
AcDbEntity
  8
寸法
 62
     0
 48
50.0
370
    -2
100
AcDbLine
 10
4214.896575106998
 20
9656.123139034622
 30
0.0
 11
4214.896575106998
 21
10211.9313586596
 31
0.0
  0
LINE
  5
18C00
330
18BFC
100
AcDbEntity
  8
寸法
 62
     0
 48
50.0
370
    -2
100
AcDbLine
 10
4214.896575106998
 20
10151.9313586596
 30
0.0
 11
4314.896575106998
 21
10151.9313586596
 31
0.0
  0
LINE
  5
18C01
330
18BFC
100
AcDbEntity
  8
寸法
 62
     0
 48
50.0
370
    -2
100
AcDbLine
 10
4159.896575106963
 20
10151.9313586596
 30
0.0
 11
3742.926012358486
 21
10151.9313586596
 31
0.0
  0
LINE
  5
18C02
330
18BFC
100
AcDbEntity
  8
寸法
 62
     0
 48
50.0
370
    -2
100
AcDbLine
 10
4214.896575106998
 20
10151.9313586596
 30
0.0
 11
4159.896575106963
 21
10151.9313586596
 31
0.0
  0
INSERT
  5
18C03
330
18BFC
100
AcDbEntity
  8
寸法
 62
     0
 48
50.0
370
    -2
100
AcDbBlockReference
  2
_DOTSMALL
 10
4214.896575106998
 20
10151.9313586596
 30
0.0
 41
100.0
 42
100.0
 43
100.0
 50
180.0
  0
INSERT
  5
18C04
330
18BFC
100
AcDbEntity
  8
寸法
 62
     0
 48
50.0
370
    -2
100
AcDbBlockReference
  2
_DOTSMALL
 10
4159.896575106963
 20
10151.9313586596
 30
0.0
 41
100.0
 42
100.0
 43
100.0
  0
MTEXT
  5
18C05
330
18BFC
100
AcDbEntity
  8
寸法
 62
     7
 48
50.0
100
AcDbMText
 10
3851.411293732725
 20
10251.9313586596
 30
0.0
 40
120.0
 41
0.0
 71
     5
 72
     1
  1
\A1;55
  7
STYLE1
 73
     1
 44
1.0
1001
ACAD
1000
MTEXTBEGIN
1070
    73
1070
     1
1070
    44
1040
1.0
1070
    74
1070
     0
1000
MTEXTEND
  0
POINT
  5
18C06
330
18BFC
100
AcDbEntity
  8
DEFPOINTS
 62
     0
 48
50.0
100
AcDbPoint
 10
4159.896575106963
 20
9636.123139034623
 30
0.0
  0
POINT
  5
18C07
330
18BFC
100
AcDbEntity
  8
DEFPOINTS
 62
     0
 48
50.0
100
AcDbPoint
 10
4214.896575106998
 20
9636.123139034623
 30
0.0
  0
POINT
  5
18C08
330
18BFC
100
AcDbEntity
  8
DEFPOINTS
 62
     0
 48
50.0
100
AcDbPoint
 10
4214.896575106998
 20
10151.9313586596
 30
0.0
  0
ENDBLK
  5
18C09
330
18BFC
100
AcDbEntity
  8
0
 48
50.0
100
AcDbBlockEnd
  0
BLOCK
  5
18C0B
330
18C0A
100
AcDbEntity
  8
0
 48
50.0
100
AcDbBlockBegin
  2
*D8
 70
     1
 10
0.0
 20
0.0
 30
0.0
  3
*D8
  1

  0
LINE
  5
18C0C
330
18C0A
100
AcDbEntity
  8
寸法
 62
     0
 48
50.0
370
    -2
100
AcDbLine
 10
4159.896575106992
 20
7826.123139034546
 30
0.0
 11
4159.896575106992
 21
6804.372203245664
 31
0.0
  0
LINE
  5
18C0D
330
18C0A
100
AcDbEntity
  8
寸法
 62
     0
 48
50.0
370
    -2
100
AcDbLine
 10
7629.896575106974
 20
7826.123139034674
 30
0.0
 11
7629.896575106974
 21
6804.372203245664
 31
0.0
  0
LINE
  5
18C0E
330
18C0A
100
AcDbEntity
  8
寸法
 62
     0
 48
50.0
370
    -2
100
AcDbLine
 10
4159.896575106992
 20
6864.372203245665
 30
0.0
 11
7629.896575106974
 21
6864.372203245665
 31
0.0
  0
INSERT
  5
18C0F
330
18C0A
100
AcDbEntity
  8
寸法
 62
     0
 48
50.0
370
    -2
100
AcDbBlockReference
  2
_DOTSMALL
 10
4159.896575106992
 20
6864.372203245665
 30
0.0
 41
100.0
 42
100.0
 43
100.0
 50
180.0
  0
INSERT
  5
18C10
330
18C0A
100
AcDbEntity
  8
寸法
 62
     0
 48
50.0
370
    -2
100
AcDbBlockReference
  2
_DOTSMALL
 10
7629.896575106974
 20
6864.372203245665
 30
0.0
 41
100.0
 42
100.0
 43
100.0
  0
MTEXT
  5
18C11
330
18C0A
100
AcDbEntity
  8
寸法
 62
     7
 48
50.0
100
AcDbMText
 10
5911.12376113973
 20
6964.372203245665
 30
0.0
 40
120.0
 41
0.0
 71
     5
 72
     1
  1
\A1;3470
  7
STYLE1
 73
     1
 44
1.0
1001
ACAD
1000
MTEXTBEGIN
1070
    73
1070
     1
1070
    44
1040
1.0
1070
    74
1070
     0
1000
MTEXTEND
  0
POINT
  5
18C12
330
18C0A
100
AcDbEntity
  8
DEFPOINTS
 62
     0
 48
50.0
100
AcDbPoint
 10
4159.896575106992
 20
7846.123139034546
 30
0.0
  0
POINT
  5
18C13
330
18C0A
100
AcDbEntity
  8
DEFPOINTS
 62
     0
 48
50.0
100
AcDbPoint
 10
7629.896575106974
 20
7846.123139034673
 30
0.0
  0
POINT
  5
18C14
330
18C0A
100
AcDbEntity
  8
DEFPOINTS
 62
     0
 48
50.0
100
AcDbPoint
 10
7629.896575106974
 20
6864.372203245665
 30
0.0
  0
ENDBLK
  5
18C15
330
18C0A
100
AcDbEntity
  8
0
 48
50.0
100
AcDbBlockEnd
  0
BLOCK
  5
18C17
330
18C16
100
AcDbEntity
  8
0
 48
50.0
100
AcDbBlockBegin
  2
*D9
 70
     1
 10
0.0
 20
0.0
 30
0.0
  3
*D9
  1

  0
LINE
  5
18C18
330
18C16
100
AcDbEntity
  8
寸法
 62
     0
 48
50.0
370
    -2
100
AcDbLine
 10
7649.896575106973
 20
7901.123139034706
 30
0.0
 11
8337.322920841385
 21
7901.123139034706
 31
0.0
  0
LINE
  5
18C19
330
18C16
100
AcDbEntity
  8
寸法
 62
     0
 48
50.0
370
    -2
100
AcDbLine
 10
7649.896575106973
 20
7846.123139034709
 30
0.0
 11
8337.322920841385
 21
7846.123139034709
 31
0.0
  0
LINE
  5
18C1A
330
18C16
100
AcDbEntity
  8
寸法
 62
     0
 48
50.0
370
    -2
100
AcDbLine
 10
8277.322920841385
 20
7901.123139034706
 30
0.0
 11
8277.322920841385
 21
8001.123139034707
 31
0.0
  0
LINE
  5
18C1B
330
18C16
100
AcDbEntity
  8
寸法
 62
     0
 48
50.0
370
    -2
100
AcDbLine
 10
8277.322920841385
 20
7846.123139034709
 30
0.0
 11
8277.322920841385
 21
7429.152576286229
 31
0.0
  0
LINE
  5
18C1C
330
18C16
100
AcDbEntity
  8
寸法
 62
     0
 48
50.0
370
    -2
100
AcDbLine
 10
8277.322920841385
 20
7901.123139034706
 30
0.0
 11
8277.322920841385
 21
7846.123139034709
 31
0.0
  0
INSERT
  5
18C1D
330
18C16
100
AcDbEntity
  8
寸法
 62
     0
 48
50.0
370
    -2
100
AcDbBlockReference
  2
_DOTSMALL
 10
8277.322920841385
 20
7901.123139034706
 30
0.0
 41
100.0
 42
100.0
 43
100.0
 50
270.0
  0
INSERT
  5
18C1E
330
18C16
100
AcDbEntity
  8
寸法
 62
     0
 48
50.0
370
    -2
100
AcDbBlockReference
  2
_DOTSMALL
 10
8277.322920841385
 20
7846.123139034709
 30
0.0
 41
100.0
 42
100.0
 43
100.0
 50
90.0
  0
MTEXT
  5
18C1F
330
18C16
100
AcDbEntity
  8
寸法
 62
     7
 48
50.0
100
AcDbMText
 10
8177.322920841383
 20
7537.637857660469
 30
0.0
 40
120.0
 41
0.0
 71
     5
 72
     1
  1
\A1;55
  7
STYLE1
 11
0.0000000000000001
 21
1.0
 31
0.0
 73
     1
 44
1.0
1001
ACAD
1000
MTEXTBEGIN
1070
    73
1070
     1
1070
    44
1040
1.0
1070
    74
1070
     0
1000
MTEXTEND
  0
POINT
  5
18C20
330
18C16
100
AcDbEntity
  8
DEFPOINTS
 62
     0
 48
50.0
100
AcDbPoint
 10
7629.896575106974
 20
7901.123139034706
 30
0.0
  0
POINT
  5
18C21
330
18C16
100
AcDbEntity
  8
DEFPOINTS
 62
     0
 48
50.0
100
AcDbPoint
 10
7629.896575106974
 20
7846.123139034709
 30
0.0
  0
POINT
  5
18C22
330
18C16
100
AcDbEntity
  8
DEFPOINTS
 62
     0
 48
50.0
100
AcDbPoint
 10
8277.322920841385
 20
7846.123139034709
 30
0.0
  0
ENDBLK
  5
18C23
330
18C16
100
AcDbEntity
  8
0
 48
50.0
100
AcDbBlockEnd
  0
BLOCK
  5
18C25
330
18C24
100
AcDbEntity
  8
0
 48
50.0
100
AcDbBlockBegin
  2
*D10
 70
     1
 10
0.0
 20
0.0
 30
0.0
  3
*D10
  1

  0
LINE
  5
18C26
330
18C24
100
AcDbEntity
  8
寸法
 62
     0
 48
50.0
370
    -2
100
AcDbLine
 10
6533.037591258376
 20
9136.123139034728
 30
0.0
 11
6465.083950562664
 21
8882.516699399049
 31
0.0
  0
LINE
  5
18C27
330
18C24
100
AcDbEntity
  8
寸法
 62
     0
 48
50.0
370
    -2
100
AcDbLine
 10
7596.037591258388
 20
9136.123139034721
 30
0.0
 11
7528.083950562677
 21
8882.516699399049
 31
0.0
  0
LINE
  5
18C28
330
18C24
100
AcDbEntity
  8
寸法
 62
     0
 48
50.0
370
    -2
100
AcDbLine
 10
6481.160902108531
 20
8942.51669939905
 30
0.0
 11
7544.160902108544
 21
8942.51669939905
 31
0.0
  0
INSERT
  5
18C29
330
18C24
100
AcDbEntity
  8
寸法
 62
     0
 48
50.0
370
    -2
100
AcDbBlockReference
  2
_DOTSMALL
 10
6481.160902108531
 20
8942.51669939905
 30
0.0
 41
100.0
 42
100.0
 43
100.0
 50
180.0
  0
INSERT
  5
18C2A
330
18C24
100
AcDbEntity
  8
寸法
 62
     0
 48
50.0
370
    -2
100
AcDbBlockReference
  2
_DOTSMALL
 10
7544.160902108544
 20
8942.51669939905
 30
0.0
 41
100.0
 42
100.0
 43
100.0
  0
MTEXT
  5
18C2B
330
18C24
100
AcDbEntity
  8
寸法
 62
     7
 48
50.0
100
AcDbMText
 10
7061.28653022935
 20
9042.516699399049
 30
0.0
 40
120.0
 41
0.0
 71
     5
 72
     1
  1
\A1;1063
  7
STYLE1
 73
     1
 44
1.0
1001
ACAD
1000
MTEXTBEGIN
1070
    73
1070
     1
1070
    44
1040
1.0
1070
    74
1070
     0
1000
MTEXTEND
  0
POINT
  5
18C2C
330
18C24
100
AcDbEntity
  8
DEFPOINTS
 62
     0
 48
50.0
100
AcDbPoint
 10
6538.396575106998
 20
9156.123139034727
 30
0.0
  0
POINT
  5
18C2D
330
18C24
100
AcDbEntity
  8
DEFPOINTS
 62
     0
 48
50.0
100
AcDbPoint
 10
7601.39657510701
 20
9156.12313903472
 30
0.0
  0
POINT
  5
18C2E
330
18C24
100
AcDbEntity
  8
DEFPOINTS
 62
     0
 48
50.0
100
AcDbPoint
 10
7544.160902108544
 20
8942.51669939905
 30
0.0
  0
ENDBLK
  5
18C2F
330
18C24
100
AcDbEntity
  8
0
 48
50.0
100
AcDbBlockEnd
  0
BLOCK
  5
18C31
330
18C30
100
AcDbEntity
  8
0
 48
50.0
100
AcDbBlockBegin
  2
*D11
 70
     1
 10
0.0
 20
0.0
 30
0.0
  3
*D11
  1

  0
LINE
  5
18C32
330
18C30
100
AcDbEntity
  8
寸法
 62
     0
 48
50.0
370
    -2
100
AcDbLine
 10
7621.396575106999
 20
9600.764155186094
 30
0.0
 11
8016.754300969024
 21
9494.828371819961
 31
0.0
  0
LINE
  5
18C33
330
18C30
100
AcDbEntity
  8
寸法
 62
     0
 48
50.0
370
    -2
100
AcDbLine
 10
7621.396575106999
 20
9150.764155186099
 30
0.0
 11
8016.754300969024
 21
9044.828371819964
 31
0.0
  0
LINE
  5
18C34
330
18C30
100
AcDbEntity
  8
寸法
 62
     0
 48
50.0
370
    -2
100
AcDbLine
 10
7956.754300969024
 20
9510.905323365827
 30
0.0
 11
7956.754300969024
 21
9060.90532336583
 31
0.0
  0
INSERT
  5
18C35
330
18C30
100
AcDbEntity
  8
寸法
 62
     0
 48
50.0
370
    -2
100
AcDbBlockReference
  2
_DOTSMALL
 10
7956.754300969024
 20
9510.905323365827
 30
0.0
 41
100.0
 42
100.0
 43
100.0
 50
90.0
  0
INSERT
  5
18C36
330
18C30
100
AcDbEntity
  8
寸法
 62
     0
 48
50.0
370
    -2
100
AcDbBlockReference
  2
_DOTSMALL
 10
7956.754300969024
 20
9060.90532336583
 30
0.0
 41
100.0
 42
100.0
 43
100.0
 50
270.0
  0
MTEXT
  5
18C37
330
18C30
100
AcDbEntity
  8
寸法
 62
     7
 48
50.0
100
AcDbMText
 10
7856.754300969022
 20
9285.905323365829
 30
0.0
 40
120.0
 41
0.0
 71
     5
 72
     1
  1
\A1;450
  7
STYLE1
 11
0.0000000000000001
 21
1.0
 31
0.0
 73
     1
 44
1.0
1001
ACAD
1000
MTEXTBEGIN
1070
    73
1070
     1
1070
    44
1040
1.0
1070
    74
1070
     0
1000
MTEXTEND
  0
POINT
  5
18C38
330
18C30
100
AcDbEntity
  8
DEFPOINTS
 62
     0
 48
50.0
100
AcDbPoint
 10
7601.396575106999
 20
9606.123139034718
 30
0.0
  0
POINT
  5
18C39
330
18C30
100
AcDbEntity
  8
DEFPOINTS
 62
     0
 48
50.0
100
AcDbPoint
 10
7601.396575106999
 20
9156.12313903472
 30
0.0
  0
POINT
  5
18C3A
330
18C30
100
AcDbEntity
  8
DEFPOINTS
 62
     0
 48
50.0
100
AcDbPoint
 10
7956.754300969024
 20
9060.90532336583
 30
0.0
  0
ENDBLK
  5
18C3B
330
18C30
100
AcDbEntity
  8
0
 48
50.0
100
AcDbBlockEnd
  0
BLOCK
  5
18C3D
330
18C3C
100
AcDbEntity
  8
0
 48
50.0
100
AcDbBlockBegin
  2
*D12
 70
     1
 10
0.0
 20
0.0
 30
0.0
  3
*D12
  1

  0
LINE
  5
18C3E
330
18C3C
100
AcDbEntity
  8
寸法
 62
     0
 48
50.0
370
    -2
100
AcDbLine
 10
7649.896575106999
 20
9581.123139034721
 30
0.0
 11
8337.32292084141
 21
9581.123139034721
 31
0.0
  0
LINE
  5
18C3F
330
18C3C
100
AcDbEntity
  8
寸法
 62
     0
 48
50.0
370
    -2
100
AcDbLine
 10
7649.896575106973
 20
7901.123139034706
 30
0.0
 11
8337.32292084141
 21
7901.123139034706
 31
0.0
  0
LINE
  5
18C40
330
18C3C
100
AcDbEntity
  8
寸法
 62
     0
 48
50.0
370
    -2
100
AcDbLine
 10
8277.322920841411
 20
9581.123139034721
 30
0.0
 11
8277.322920841411
 21
7901.123139034706
 31
0.0
  0
INSERT
  5
18C41
330
18C3C
100
AcDbEntity
  8
寸法
 62
     0
 48
50.0
370
    -2
100
AcDbBlockReference
  2
_DOTSMALL
 10
8277.322920841411
 20
9581.123139034721
 30
0.0
 41
100.0
 42
100.0
 43
100.0
 50
90.0
  0
INSERT
  5
18C42
330
18C3C
100
AcDbEntity
  8
寸法
 62
     0
 48
50.0
370
    -2
100
AcDbBlockReference
  2
_DOTSMALL
 10
8277.322920841411
 20
7901.123139034706
 30
0.0
 41
100.0
 42
100.0
 43
100.0
 50
270.0
  0
MTEXT
  5
18C43
330
18C3C
100
AcDbEntity
  8
寸法
 62
     7
 48
50.0
100
AcDbMText
 10
8177.311109817788
 20
8741.123139034712
 30
0.0
 40
120.0
 41
0.0
 71
     5
 72
     1
  1
\A1;4X420=1680
  7
STYLE1
 11
0.0000000000000001
 21
1.0
 31
0.0
 73
     1
 44
1.0
1001
ACAD
1000
MTEXTBEGIN
1070
    73
1070
     1
1070
    44
1040
1.0
1070
    74
1070
     0
1000
MTEXTEND
  0
POINT
  5
18C44
330
18C3C
100
AcDbEntity
  8
DEFPOINTS
 62
     0
 48
50.0
100
AcDbPoint
 10
7629.896575106998
 20
9581.123139034721
 30
0.0
  0
POINT
  5
18C45
330
18C3C
100
AcDbEntity
  8
DEFPOINTS
 62
     0
 48
50.0
100
AcDbPoint
 10
7629.896575106974
 20
7901.123139034706
 30
0.0
  0
POINT
  5
18C46
330
18C3C
100
AcDbEntity
  8
DEFPOINTS
 62
     0
 48
50.0
100
AcDbPoint
 10
8277.322920841411
 20
7901.123139034706
 30
0.0
  0
ENDBLK
  5
18C47
330
18C3C
100
AcDbEntity
  8
0
 48
50.0
100
AcDbBlockEnd
  0
BLOCK
  5
18C49
330
18C48
100
AcDbEntity
  8
0
 48
50.0
100
AcDbBlockBegin
  2
*D13
 70
     1
 10
0.0
 20
0.0
 30
0.0
  3
*D13
  1

  0
LINE
  5
18C4A
330
18C48
100
AcDbEntity
  8
寸法
 62
     0
 48
50.0
370
    -2
100
AcDbLine
 10
4183.037591258377
 20
9136.123139034619
 30
0.0
 11
4115.083950562663
 21
8882.516699398941
 31
0.0
  0
LINE
  5
18C4B
330
18C48
100
AcDbEntity
  8
寸法
 62
     0
 48
50.0
370
    -2
100
AcDbLine
 10
5246.037591258307
 20
9136.123139034671
 30
0.0
 11
5178.08395056258
 21
8882.516699398941
 31
0.0
  0
LINE
  5
18C4C
330
18C48
100
AcDbEntity
  8
寸法
 62
     0
 48
50.0
370
    -2
100
AcDbLine
 10
4131.160902108532
 20
8942.516699398941
 30
0.0
 11
5194.160902108448
 21
8942.516699398941
 31
0.0
  0
INSERT
  5
18C4D
330
18C48
100
AcDbEntity
  8
寸法
 62
     0
 48
50.0
370
    -2
100
AcDbBlockReference
  2
_DOTSMALL
 10
4131.160902108532
 20
8942.516699398941
 30
0.0
 41
100.0
 42
100.0
 43
100.0
 50
180.0
  0
INSERT
  5
18C4E
330
18C48
100
AcDbEntity
  8
寸法
 62
     0
 48
50.0
370
    -2
100
AcDbBlockReference
  2
_DOTSMALL
 10
5194.160902108448
 20
8942.516699398941
 30
0.0
 41
100.0
 42
100.0
 43
100.0
  0
MTEXT
  5
18C4F
330
18C48
100
AcDbEntity
  8
寸法
 62
     7
 48
50.0
100
AcDbMText
 10
4658.986452655306
 20
9042.516699398941
 30
0.0
 40
120.0
 41
0.0
 71
     5
 72
     1
  1
\A1;1063
  7
STYLE1
 73
     1
 44
1.0
1001
ACAD
1000
MTEXTBEGIN
1070
    73
1070
     1
1070
    44
1040
1.0
1070
    74
1070
     0
1000
MTEXTEND
  0
POINT
  5
18C50
330
18C48
100
AcDbEntity
  8
DEFPOINTS
 62
     0
 48
50.0
100
AcDbPoint
 10
4188.396575106999
 20
9156.123139034617
 30
0.0
  0
POINT
  5
18C51
330
18C48
100
AcDbEntity
  8
DEFPOINTS
 62
     0
 48
50.0
100
AcDbPoint
 10
5251.396575106929
 20
9156.123139034672
 30
0.0
  0
POINT
  5
18C52
330
18C48
100
AcDbEntity
  8
DEFPOINTS
 62
     0
 48
50.0
100
AcDbPoint
 10
5194.160902108448
 20
8942.516699398941
 30
0.0
  0
ENDBLK
  5
18C53
330
18C48
100
AcDbEntity
  8
0
 48
50.0
100
AcDbBlockEnd
  0
BLOCK
  5
18C55
330
18C54
100
AcDbEntity
  8
0
 48
50.0
100
AcDbBlockBegin
  2
*D14
 70
     1
 10
0.0
 20
0.0
 30
0.0
  3
*D14
  1

  0
LINE
  5
18C56
330
18C54
100
AcDbEntity
  8
寸法
 62
     0
 48
50.0
370
    -2
100
AcDbLine
 10
5274.037591258307
 20
9136.123139034669
 30
0.0
 11
5206.08395056258
 21
8882.516699398941
 31
0.0
  0
LINE
  5
18C57
330
18C54
100
AcDbEntity
  8
寸法
 62
     0
 48
50.0
370
    -2
100
AcDbLine
 10
6505.037591258377
 20
9136.123139034662
 30
0.0
 11
6437.083950562653
 21
8882.516699398941
 31
0.0
  0
LINE
  5
18C58
330
18C54
100
AcDbEntity
  8
寸法
 62
     0
 48
50.0
370
    -2
100
AcDbLine
 10
5222.160902108448
 20
8942.516699398941
 30
0.0
 11
6453.16090210852
 21
8942.516699398941
 31
0.0
  0
INSERT
  5
18C59
330
18C54
100
AcDbEntity
  8
寸法
 62
     0
 48
50.0
370
    -2
100
AcDbBlockReference
  2
_DOTSMALL
 10
5222.160902108448
 20
8942.516699398941
 30
0.0
 41
100.0
 42
100.0
 43
100.0
 50
180.0
  0
INSERT
  5
18C5A
330
18C54
100
AcDbEntity
  8
寸法
 62
     0
 48
50.0
370
    -2
100
AcDbBlockReference
  2
_DOTSMALL
 10
6453.16090210852
 20
8942.516699398941
 30
0.0
 41
100.0
 42
100.0
 43
100.0
  0
MTEXT
  5
18C5B
330
18C54
100
AcDbEntity
  8
寸法
 62
     7
 48
50.0
100
AcDbMText
 10
6081.244808320626
 20
9042.528510422561
 30
0.0
 40
120.0
 41
0.0
 71
     5
 72
     1
  1
\A1;1231
  7
STYLE1
 73
     1
 44
1.0
1001
ACAD
1000
MTEXTBEGIN
1070
    73
1070
     1
1070
    44
1040
1.0
1070
    74
1070
     0
1000
MTEXTEND
  0
POINT
  5
18C5C
330
18C54
100
AcDbEntity
  8
DEFPOINTS
 62
     0
 48
50.0
100
AcDbPoint
 10
5279.396575106929
 20
9156.123139034669
 30
0.0
  0
POINT
  5
18C5D
330
18C54
100
AcDbEntity
  8
DEFPOINTS
 62
     0
 48
50.0
100
AcDbPoint
 10
6510.396575106999
 20
9156.123139034662
 30
0.0
  0
POINT
  5
18C5E
330
18C54
100
AcDbEntity
  8
DEFPOINTS
 62
     0
 48
50.0
100
AcDbPoint
 10
6453.16090210852
 20
8942.516699398941
 30
0.0
  0
ENDBLK
  5
18C5F
330
18C54
100
AcDbEntity
  8
0
 48
50.0
100
AcDbBlockEnd
  0
BLOCK
  5
18C61
330
18C60
100
AcDbEntity
  8
0
 48
50.0
100
AcDbBlockBegin
  2
*D15
 70
     1
 10
0.0
 20
0.0
 30
0.0
  3
*D15
  1

  0
LINE
  5
18C62
330
18C60
100
AcDbEntity
  8
寸法
 62
     0
 48
50.0
370
    -2
100
AcDbLine
 10
5065.896575106966
 20
7749.123139034579
 30
0.0
 11
5065.896575106966
 21
7099.952920982538
 31
0.0
  0
LINE
  5
18C63
330
18C60
100
AcDbEntity
  8
寸法
 62
     0
 48
50.0
370
    -2
100
AcDbLine
 10
6331.896575106966
 20
7749.123139034579
 30
0.0
 11
6331.896575106966
 21
7099.952920982538
 31
0.0
  0
LINE
  5
18C64
330
18C60
100
AcDbEntity
  8
寸法
 62
     0
 48
50.0
370
    -2
100
AcDbLine
 10
5065.896575106966
 20
7159.952920982537
 30
0.0
 11
6331.896575106966
 21
7159.952920982537
 31
0.0
  0
INSERT
  5
18C65
330
18C60
100
AcDbEntity
  8
寸法
 62
     0
 48
50.0
370
    -2
100
AcDbBlockReference
  2
_DOTSMALL
 10
5065.896575106966
 20
7159.952920982537
 30
0.0
 41
100.0
 42
100.0
 43
100.0
 50
180.0
  0
INSERT
  5
18C66
330
18C60
100
AcDbEntity
  8
寸法
 62
     0
 48
50.0
370
    -2
100
AcDbBlockReference
  2
_DOTSMALL
 10
6331.896575106966
 20
7159.952920982537
 30
0.0
 41
100.0
 42
100.0
 43
100.0
  0
MTEXT
  5
18C67
330
18C60
100
AcDbEntity
  8
寸法
 62
     7
 48
50.0
100
AcDbMText
 10
5711.986008735934
 20
7359.964732006159
 30
0.0
 40
120.0
 41
0.0
 71
     5
 72
     1
  1
\A1;有効開口部間口\P1266
  7
STYLE1
 73
     1
 44
1.0
1001
ACAD
1000
MTEXTBEGIN
1070
    73
1070
     1
1070
    44
1040
1.0
1070
    74
1070
     0
1000
MTEXTEND
  0
POINT
  5
18C68
330
18C60
100
AcDbEntity
  8
DEFPOINTS
 62
     0
 48
50.0
100
AcDbPoint
 10
5065.896575106966
 20
7769.123139034579
 30
0.0
  0
POINT
  5
18C69
330
18C60
100
AcDbEntity
  8
DEFPOINTS
 62
     0
 48
50.0
100
AcDbPoint
 10
6331.896575106966
 20
7769.123139034579
 30
0.0
  0
POINT
  5
18C6A
330
18C60
100
AcDbEntity
  8
DEFPOINTS
 62
     0
 48
50.0
100
AcDbPoint
 10
6331.896575106966
 20
7159.952920982537
 30
0.0
  0
ENDBLK
  5
18C6B
330
18C60
100
AcDbEntity
  8
0
 48
50.0
100
AcDbBlockEnd
  0
BLOCK
  5
18C6D
330
18C6C
100
AcDbEntity
  8
0
 48
50.0
100
AcDbBlockBegin
  2
*D16
 70
     1
 10
0.0
 20
0.0
 30
0.0
  3
*D16
  1

  0
LINE
  5
18C6E
330
18C6C
100
AcDbEntity
  8
寸法
 62
     0
 48
50.0
370
    -2
100
AcDbLine
 10
7200.896575106966
 20
7846.123139034578
 30
0.0
 11
7457.192158500191
 21
7846.123139034578
 31
0.0
  0
LINE
  5
18C6F
330
18C6C
100
AcDbEntity
  8
寸法
 62
     0
 48
50.0
370
    -2
100
AcDbLine
 10
7199.896575106966
 20
7769.123139034579
 30
0.0
 11
7457.192158500191
 21
7769.123139034579
 31
0.0
  0
LINE
  5
18C70
330
18C6C
100
AcDbEntity
  8
寸法
 62
     0
 48
50.0
370
    -2
100
AcDbLine
 10
7417.192158500192
 20
7866.123139034579
 30
0.0
 11
7417.192158500192
 21
7886.123139034578
 31
0.0
  0
LINE
  5
18C71
330
18C6C
100
AcDbEntity
  8
寸法
 62
     0
 48
50.0
370
    -2
100
AcDbLine
 10
7417.192158500192
 20
7749.123139034579
 30
0.0
 11
7417.192158500192
 21
7533.123139034573
 31
0.0
  0
LINE
  5
18C72
330
18C6C
100
AcDbEntity
  8
寸法
 62
     0
 48
50.0
370
    -2
100
AcDbLine
 10
7417.192158500192
 20
7846.123139034578
 30
0.0
 11
7417.192158500192
 21
7769.123139034579
 31
0.0
  0
INSERT
  5
18C73
330
18C6C
100
AcDbEntity
  8
寸法
 62
     0
 48
50.0
370
    -2
100
AcDbBlockReference
  2
_DOT
 10
7417.192158500192
 20
7846.123139034578
 30
0.0
 41
20.0
 42
20.0
 43
20.0
 50
270.0
  0
INSERT
  5
18C74
330
18C6C
100
AcDbEntity
  8
寸法
 62
     0
 48
50.0
370
    -2
100
AcDbBlockReference
  2
_DOT
 10
7417.192158500192
 20
7769.123139034579
 30
0.0
 41
20.0
 42
20.0
 43
20.0
 50
90.0
  0
MTEXT
  5
18C75
330
18C6C
100
AcDbEntity
  8
寸法
 62
     7
 48
50.0
100
AcDbMText
 10
7325.192158500191
 20
7631.123139034575
 30
0.0
 40
120.0
 41
0.0
 71
     5
 72
     1
  1
\A1;77
  7
STYLE1
 11
0.0000000000000001
 21
1.0
 31
0.0
 73
     1
 44
1.0
1001
ACAD
1000
MTEXTBEGIN
1070
    73
1070
     1
1070
    44
1040
1.0
1070
    74
1070
     0
1000
MTEXTEND
  0
POINT
  5
18C76
330
18C6C
100
AcDbEntity
  8
DEFPOINTS
 62
     0
 48
50.0
100
AcDbPoint
 10
7180.896575106967
 20
7846.123139034578
 30
0.0
  0
POINT
  5
18C77
330
18C6C
100
AcDbEntity
  8
DEFPOINTS
 62
     0
 48
50.0
100
AcDbPoint
 10
7179.896575106965
 20
7769.123139034579
 30
0.0
  0
POINT
  5
18C78
330
18C6C
100
AcDbEntity
  8
DEFPOINTS
 62
     0
 48
50.0
100
AcDbPoint
 10
7417.192158500192
 20
7769.123139034579
 30
0.0
  0
ENDBLK
  5
18C79
330
18C6C
100
AcDbEntity
  8
0
 48
50.0
100
AcDbBlockEnd
  0
BLOCK
  5
18DA0
330
18C7A
100
AcDbEntity
  8
0
 48
50.0
100
AcDbBlockBegin
  2
A$C3B1A506B
 70
     0
 10
0.0
 20
0.0
 30
0.0
  3
A$C3B1A506B
  1

  0
MTEXT
  5
18C7B
330
18C7A
100
AcDbEntity
  8
寸法
 62
     7
 48
50.0
100
AcDbMText
 10
3342.250386887194
 20
2778.329429134012
 30
0.0
 40
96.0
 41
0.0
 71
     5
 72
     1
  1
棚 2段
  7
STYLE1
 73
     1
 44
1.0
1001
ACAD
1000
MTEXTBEGIN
1070
    73
1070
     1
1070
    44
1040
1.0
1070
    74
1070
     0
1000
MTEXTEND
  0
MTEXT
  5
18C7C
330
18C7A
100
AcDbEntity
  8
寸法
 62
     7
 48
50.0
100
AcDbMText
 10
2167.25038688716
 20
2778.329429133986
 30
0.0
 40
96.0
 41
0.0
 71
     5
 72
     1
  1
棚 2段
  7
STYLE1
 73
     1
 44
1.0
1001
ACAD
1000
MTEXTBEGIN
1070
    73
1070
     1
1070
    44
1040
1.0
1070
    74
1070
     0
1000
MTEXTEND
  0
MTEXT
  5
18C7D
330
18C7A
100
AcDbEntity
  8
寸法
 62
     7
 48
50.0
100
AcDbMText
 10
992.2503868871608
 20
2778.329429133935
 30
0.0
 40
96.0
 41
0.0
 71
     5
 72
     1
  1
棚 2段
  7
STYLE1
 73
     1
 44
1.0
1001
ACAD
1000
MTEXTBEGIN
1070
    73
1070
     1
1070
    44
1040
1.0
1070
    74
1070
     0
1000
MTEXTEND
  0
LINE
  5
18C7E
330
18C7A
100
AcDbEntity
  8
細線
 48
50.0
100
AcDbLine
 10
2771.970589276527
 20
1368.994384123192
 30
0.0
 11
3398.970589276523
 21
1368.994384123192
 31
0.0
  0
LINE
  5
18C7F
330
18C7A
100
AcDbEntity
  8
細線
 48
50.0
100
AcDbLine
 10
2117.970593930113
 20
1335.285615569113
 30
0.0
 11
3398.970589276523
 21
1335.285615569113
 31
0.0
  0
LINE
  5
18C80
330
18C7A
100
AcDbEntity
  8
細線
 48
50.0
100
AcDbLine
 10
2076.970593930115
 20
1364.690523565368
 30
0.0
 11
1322.970589276523
 21
1364.690523565367
 31
0.0
  0
LINE
  5
18C81
330
18C7A
100
AcDbEntity
  8
細線
100
AcDbLine
 10
3170.720579860066
 20
1388.494284088199
 30
0.0
 11
3173.052119381877
 21
1393.494286728162
 31
0.0
  0
LINE
  5
18C82
330
18C7A
100
AcDbEntity
  8
細線
100
AcDbLine
 10
3240.720589276525
 20
1388.494269174465
 30
0.0
 11
3238.389042800336
 21
1393.494286728144
 31
0.0
  0
LINE
  5
18C83
330
18C7A
100
AcDbEntity
  8
細線
100
AcDbLine
 10
3238.389042800336
 20
1393.494286728144
 30
0.0
 11
3173.052119381862
 21
1393.494286728133
 31
0.0
  0
LINE
  5
18C84
330
18C7A
100
AcDbEntity
  8
細線
100
AcDbLine
 10
3098.389042800336
 20
1393.494286728144
 30
0.0
 11
3033.052119381862
 21
1393.494286728133
 31
0.0
  0
LINE
  5
18C85
330
18C7A
100
AcDbEntity
  8
細線
100
AcDbLine
 10
3100.720589276523
 20
1388.494269174465
 30
0.0
 11
3098.389042800336
 21
1393.494286728144
 31
0.0
  0
LINE
  5
18C86
330
18C7A
100
AcDbEntity
  8
細線
100
AcDbLine
 10
3030.720579860066
 20
1388.494284088199
 30
0.0
 11
3033.052119381875
 21
1393.494286728162
 31
0.0
  0
LINE
  5
18C87
330
18C7A
100
AcDbEntity
  8
細線
100
AcDbLine
 10
2890.720589276525
 20
1388.494269174465
 30
0.0
 11
2893.052128798336
 21
1393.494271814428
 31
0.0
  0
LINE
  5
18C88
330
18C7A
100
AcDbEntity
  8
細線
100
AcDbLine
 10
2960.720598692984
 20
1388.494254260731
 30
0.0
 11
2958.389052216793
 21
1393.49427181441
 31
0.0
  0
LINE
  5
18C89
330
18C7A
100
AcDbEntity
  8
細線
100
AcDbLine
 10
2958.389052216795
 20
1393.49427181441
 30
0.0
 11
2893.052128798321
 21
1393.494271814399
 31
0.0
  0
LINE
  5
18C8A
330
18C7A
100
AcDbEntity
  8
細線
100
AcDbLine
 10
2667.139038146739
 20
1359.494298590735
 30
0.0
 11
2601.802114728263
 21
1359.494298590724
 31
0.0
  0
LINE
  5
18C8B
330
18C7A
100
AcDbEntity
  8
細線
100
AcDbLine
 10
2669.470584622926
 20
1354.494281037055
 30
0.0
 11
2667.139038146737
 21
1359.494298590735
 31
0.0
  0
LINE
  5
18C8C
330
18C7A
100
AcDbEntity
  8
細線
100
AcDbLine
 10
2599.470575206469
 20
1354.49429595079
 30
0.0
 11
2601.802114728278
 21
1359.494298590752
 31
0.0
  0
LINE
  5
18C8D
330
18C7A
100
AcDbEntity
  8
細線
 48
50.0
100
AcDbLine
 10
2440.853968524536
 20
1372.765132327548
 30
0.0
 11
2446.609486107205
 21
1354.494281037057
 31
0.0
  0
LINE
  5
18C8E
330
18C7A
100
AcDbEntity
  8
細線
 48
50.0
100
AcDbLine
 10
2429.925520044106
 20
1372.765132327546
 30
0.0
 11
2440.853968524536
 21
1372.765132327548
 31
0.0
  0
ARC
  5
18C8F
330
18C7A
100
AcDbEntity
  8
細線
 48
50.0
100
AcDbCircle
 10
2424.471163986787
 20
1374.265132327546
 30
0.0
 40
5.0
100
AcDbArc
 50
204.6243183520723
 51
335.3756816479278
  0
ARC
  5
18C90
330
18C7A
100
AcDbEntity
  8
細線
 48
50.0
100
AcDbCircle
 10
2429.925520044106
 20
1371.765132327546
 30
0.0
 40
1.0
100
AcDbArc
 50
90.0
 51
155.3756816479277
  0
ARC
  5
18C91
330
18C7A
100
AcDbEntity
  8
細線
 48
50.0
100
AcDbCircle
 10
2419.016807929469
 20
1371.765132327546
 30
0.0
 40
1.0
100
AcDbArc
 50
24.62431835207225
 51
90.0
  0
LINE
  5
18C92
330
18C7A
100
AcDbEntity
  8
細線
 48
50.0
100
AcDbLine
 10
2408.088359449037
 20
1372.765132327548
 30
0.0
 11
2419.016807929469
 21
1372.765132327546
 31
0.0
  0
LINE
  5
18C93
330
18C7A
100
AcDbEntity
  8
細線
 48
50.0
100
AcDbLine
 10
2402.33284186637
 20
1354.494281037054
 30
0.0
 11
2408.088359449037
 21
1372.765132327548
 31
0.0
  0
LINE
  5
18C94
330
18C7A
100
AcDbEntity
  8
細線
100
AcDbLine
 10
2458.070304175992
 20
1354.494278397076
 30
0.0
 11
2460.401843697802
 21
1359.494281037039
 31
0.0
  0
LINE
  5
18C95
330
18C7A
100
AcDbEntity
  8
細線
100
AcDbLine
 10
2528.070313592451
 20
1354.494263483342
 30
0.0
 11
2525.738767116262
 21
1359.494281037021
 31
0.0
  0
LINE
  5
18C96
330
18C7A
100
AcDbEntity
  8
細線
100
AcDbLine
 10
2525.738767116262
 20
1359.494281037021
 30
0.0
 11
2460.40184369779
 21
1359.49428103701
 31
0.0
  0
LINE
  5
18C97
330
18C7A
100
AcDbEntity
  8
細線
100
AcDbLine
 10
2387.139046332155
 20
1359.494281037021
 30
0.0
 11
2321.80212291368
 21
1359.49428103701
 31
0.0
  0
LINE
  5
18C98
330
18C7A
100
AcDbEntity
  8
細線
100
AcDbLine
 10
2389.470592808342
 20
1354.494263483342
 30
0.0
 11
2387.139046332153
 21
1359.494281037021
 31
0.0
  0
LINE
  5
18C99
330
18C7A
100
AcDbEntity
  8
細線
100
AcDbLine
 10
2319.470584622926
 20
1354.494281037054
 30
0.0
 11
2321.802122913694
 21
1359.494281037039
 31
0.0
  0
LINE
  5
18C9A
330
18C7A
100
AcDbEntity
  8
細線
100
AcDbLine
 10
2179.47061994182
 20
1354.494289224422
 30
0.0
 11
2181.802158232587
 21
1359.494289224407
 31
0.0
  0
LINE
  5
18C9B
330
18C7A
100
AcDbEntity
  8
細線
100
AcDbLine
 10
2249.470628127236
 20
1354.49427167071
 30
0.0
 11
2247.139081651047
 21
1359.494289224389
 31
0.0
  0
LINE
  5
18C9C
330
18C7A
100
AcDbEntity
  8
細線
100
AcDbLine
 10
2247.139081651047
 20
1359.494289224389
 30
0.0
 11
2181.802158232573
 21
1359.494289224378
 31
0.0
  0
LINE
  5
18C9D
330
18C7A
100
AcDbEntity
  8
細線
100
AcDbLine
 10
1807.970585744697
 20
1320.494460905133
 30
0.0
 11
1810.302124035464
 21
1325.494460905118
 31
0.0
  0
LINE
  5
18C9E
330
18C7A
100
AcDbEntity
  8
細線
100
AcDbLine
 10
1877.970593930113
 20
1320.494443351421
 30
0.0
 11
1875.639047453926
 21
1325.4944609051
 31
0.0
  0
LINE
  5
18C9F
330
18C7A
100
AcDbEntity
  8
細線
100
AcDbLine
 10
1875.639047453926
 20
1325.4944609051
 30
0.0
 11
1810.302124035452
 21
1325.494460905089
 31
0.0
  0
LINE
  5
18CA0
330
18C7A
100
AcDbEntity
  8
細線
100
AcDbLine
 10
2015.639047453926
 20
1325.4944609051
 30
0.0
 11
1950.302124035452
 21
1325.494460905089
 31
0.0
  0
LINE
  5
18CA1
330
18C7A
100
AcDbEntity
  8
細線
100
AcDbLine
 10
2017.970593930113
 20
1320.494443351421
 30
0.0
 11
2015.639047453924
 21
1325.4944609051
 31
0.0
  0
LINE
  5
18CA2
330
18C7A
100
AcDbEntity
  8
細線
100
AcDbLine
 10
1947.970585744697
 20
1320.494460905133
 30
0.0
 11
1950.302124035465
 21
1325.494460905118
 31
0.0
  0
LINE
  5
18CA3
330
18C7A
100
AcDbEntity
  8
細線
100
AcDbLine
 10
1735.639047453926
 20
1325.494460905098
 30
0.0
 11
1670.302124035454
 21
1325.494460905087
 31
0.0
  0
LINE
  5
18CA4
330
18C7A
100
AcDbEntity
  8
細線
100
AcDbLine
 10
1737.970593930113
 20
1320.494443351419
 30
0.0
 11
1735.639047453926
 21
1325.494460905098
 31
0.0
  0
LINE
  5
18CA5
330
18C7A
100
AcDbEntity
  8
細線
100
AcDbLine
 10
1667.970585744697
 20
1320.494460905131
 30
0.0
 11
1670.302124035465
 21
1325.494460905116
 31
0.0
  0
LINE
  5
18CA6
330
18C7A
100
AcDbEntity
  8
細線
100
AcDbLine
 10
1527.970593930113
 20
1320.494460905133
 30
0.0
 11
1530.302132220881
 21
1325.494460905118
 31
0.0
  0
LINE
  5
18CA7
330
18C7A
100
AcDbEntity
  8
細線
100
AcDbLine
 10
1597.970602115529
 20
1320.494443351421
 30
0.0
 11
1595.639055639342
 21
1325.4944609051
 31
0.0
  0
LINE
  5
18CA8
330
18C7A
100
AcDbEntity
  8
細線
100
AcDbLine
 10
1595.639055639342
 20
1325.4944609051
 30
0.0
 11
1530.302132220869
 21
1325.494460905089
 31
0.0
  0
ARC
  5
18CA9
330
18C7A
100
AcDbEntity
  8
部品1
 48
0.01
100
AcDbCircle
 10
1483.470482677778
 20
1319.493338720063
 30
0.0
 40
0.5
100
AcDbArc
 50
270.0
 51
0.0
  0
LINE
  5
18CAA
330
18C7A
100
AcDbEntity
  8
部品1
 48
0.01
100
AcDbLine
 10
1483.970482677778
 20
1320.493338720063
 30
0.0
 11
1483.970482677778
 21
1319.493338720063
 31
0.0
  0
LINE
  5
18CAB
330
18C7A
100
AcDbEntity
  8
部品1
 48
0.01
100
AcDbLine
 10
1483.970482677778
 20
1320.493338720063
 30
0.0
 11
1483.970482677778
 21
1319.493338720063
 31
0.0
  0
LINE
  5
18CAC
330
18C7A
100
AcDbEntity
  8
部品1
 48
0.01
100
AcDbLine
 10
1483.470482677778
 20
1318.993338720063
 30
0.0
 11
1476.857977247713
 21
1318.993338720062
 31
0.0
  0
ARC
  5
18CAD
330
18C7A
100
AcDbEntity
  8
部品1
100
AcDbCircle
 10
1476.926326800494
 20
1319.993338720062
 30
0.0
 40
1.0
100
AcDbArc
 50
160.5287793655865
 51
270.0
  0
ARC
  5
18CAE
330
18C7A
100
AcDbEntity
  8
部品1
100
AcDbCircle
 10
1451.470482677778
 20
1328.993338720062
 30
0.0
 40
26.0
100
AcDbArc
 50
340.5287793655865
 51
0.0
  0
LINE
  5
18CAF
330
18C7A
100
AcDbEntity
  8
部品1
100
AcDbLine
 10
1477.470482677778
 20
1328.993338720062
 30
0.0
 11
1477.470482677778
 21
1333.993338720061
 31
0.0
  0
ARC
  5
18CB0
330
18C7A
100
AcDbEntity
  8
部品1
 48
0.01
100
AcDbCircle
 10
1475.470482677778
 20
1333.993338720061
 30
0.0
 40
2.0
100
AcDbArc
 50
0.0
 51
90.0
  0
ARC
  5
18CB1
330
18C7A
100
AcDbEntity
  8
部品1
100
AcDbCircle
 10
1473.862091052968
 20
1332.993338720062
 30
0.0
 40
3.0
100
AcDbArc
 50
90.0
 51
141.6069559808035
  0
LINE
  5
18CB2
330
18C7A
100
AcDbEntity
  8
部品1
 48
0.01
100
AcDbLine
 10
1475.470482677778
 20
1335.993338720062
 30
0.0
 11
1473.862091052968
 21
1335.993338720062
 31
0.0
  0
ARC
  5
18CB3
330
18C7A
100
AcDbEntity
  8
部品1
100
AcDbCircle
 10
1455.399768463507
 20
1332.293338720065
 30
0.0
 40
3.0
100
AcDbArc
 50
254.0576313943215
 51
270.0
  0
ARC
  5
18CB4
330
18C7A
100
AcDbEntity
  8
部品1
100
AcDbCircle
 10
1462.541196892049
 20
1332.293338720065
 30
0.0
 40
3.0
100
AcDbArc
 50
270.0
 51
285.9423686056786
  0
LINE
  5
18CB5
330
18C7A
100
AcDbEntity
  8
部品1
100
AcDbLine
 10
1462.541196892049
 20
1329.293338720064
 30
0.0
 11
1455.399768463507
 21
1329.293338720064
 31
0.0
  0
ARC
  5
18CB6
330
18C7A
100
AcDbEntity
  8
部品1
100
AcDbCircle
 10
1458.970482677778
 20
1344.793338720065
 30
0.0
 40
16.0
100
AcDbArc
 50
285.9423686056786
 51
321.6069559808035
  0
LINE
  5
18CB7
330
18C7A
100
AcDbEntity
  8
部品1
 48
0.01
100
AcDbLine
 10
1442.470482677778
 20
1335.993338720062
 30
0.0
 11
1444.078874302588
 21
1335.993338720062
 31
0.0
  0
ARC
  5
18CB8
330
18C7A
100
AcDbEntity
  8
部品1
100
AcDbCircle
 10
1444.078874302588
 20
1332.993338720062
 30
0.0
 40
3.0
100
AcDbArc
 50
38.39304401919648
 51
90.0
  0
ARC
  5
18CB9
330
18C7A
100
AcDbEntity
  8
部品1
100
AcDbCircle
 10
1458.970482677778
 20
1344.793338720065
 30
0.0
 40
16.0
100
AcDbArc
 50
218.3930440191965
 51
254.0576313943215
  0
LINE
  5
18CBA
330
18C7A
100
AcDbEntity
  8
部品1
100
AcDbLine
 10
1440.470482677778
 20
1328.993338720062
 30
0.0
 11
1440.470482677778
 21
1333.993338720061
 31
0.0
  0
ARC
  5
18CBB
330
18C7A
100
AcDbEntity
  8
部品1
 48
0.01
100
AcDbCircle
 10
1442.470482677778
 20
1333.993338720061
 30
0.0
 40
2.0
100
AcDbArc
 50
90.0
 51
180.0
  0
ARC
  5
18CBC
330
18C7A
100
AcDbEntity
  8
部品1
100
AcDbCircle
 10
1466.470482677778
 20
1328.993338720062
 30
0.0
 40
26.0
100
AcDbArc
 50
180.0
 51
199.4712206344134
  0
ARC
  5
18CBD
330
18C7A
100
AcDbEntity
  8
部品1
 48
0.01
100
AcDbCircle
 10
1434.470482677778
 20
1319.493338720063
 30
0.0
 40
0.5
100
AcDbArc
 50
180.0
 51
270.0
  0
LINE
  5
18CBE
330
18C7A
100
AcDbEntity
  8
部品1
 48
0.01
100
AcDbLine
 10
1434.470482677778
 20
1318.993338720063
 30
0.0
 11
1441.014638555061
 21
1318.993338720062
 31
0.0
  0
LINE
  5
18CBF
330
18C7A
100
AcDbEntity
  8
部品1
 48
0.01
100
AcDbLine
 10
1433.970482677778
 20
1320.493338720063
 30
0.0
 11
1433.970482677778
 21
1319.493338720063
 31
0.0
  0
ARC
  5
18CC0
330
18C7A
100
AcDbEntity
  8
部品1
100
AcDbCircle
 10
1441.014638555061
 20
1319.993338720062
 30
0.0
 40
1.0
100
AcDbArc
 50
270.0
 51
19.47122063441346
  0
LINE
  5
18CC1
330
18C7A
100
AcDbEntity
  8
細線
100
AcDbLine
 10
1479.470482677785
 20
1338.493338720065
 30
0.0
 11
1438.470482677785
 21
1338.493338720058
 31
0.0
  0
LINE
  5
18CC2
330
18C7A
100
AcDbEntity
  8
細線
100
AcDbLine
 10
1438.470482677785
 20
1338.493338720058
 30
0.0
 11
1438.470482677785
 21
1320.49333872004
 31
0.0
  0
LINE
  5
18CC3
330
18C7A
100
AcDbEntity
  8
細線
100
AcDbLine
 10
1479.470482677785
 20
1338.493338720065
 30
0.0
 11
1479.470482677785
 21
1320.49333872004
 31
0.0
  0
LINE
  5
18CC4
330
18C7A
100
AcDbEntity
  8
細線
100
AcDbLine
 10
1322.970589276523
 20
1324.494269174465
 30
0.0
 11
1322.970589276523
 21
1320.494269174513
 31
0.0
  0
LINE
  5
18CC5
330
18C7A
100
AcDbEntity
  8
寸法
 48
50.0
100
AcDbLine
 10
1746.17359555837
 20
1170.531020743327
 30
0.0
 11
1694.767587648266
 21
1170.531020743327
 31
0.0
  0
LINE
  5
18CC6
330
18C7A
100
AcDbEntity
  8
寸法
 48
50.0
100
AcDbLine
 10
1694.767587648266
 20
1170.531020743327
 30
0.0
 11
1694.767587648266
 21
1201.841179395494
 31
0.0
  0
LINE
  5
18CC7
330
18C7A
100
AcDbEntity
  8
寸法
 48
50.0
100
AcDbLine
 10
1694.767587648266
 20
1201.841179395494
 30
0.0
 11
1665.006255656843
 21
1201.841179395494
 31
0.0
  0
LINE
  5
18CC8
330
18C7A
100
AcDbEntity
  8
寸法
 48
50.0
100
AcDbLine
 10
1665.006255656843
 20
1201.841179395494
 30
0.0
 11
1720.470591603318
 21
1239.420630324105
 31
0.0
  0
LINE
  5
18CC9
330
18C7A
100
AcDbEntity
  8
寸法
 48
50.0
100
AcDbLine
 10
1775.934927549793
 20
1201.841179395494
 30
0.0
 11
1720.470591603318
 21
1239.420630324105
 31
0.0
  0
LINE
  5
18CCA
330
18C7A
100
AcDbEntity
  8
寸法
 48
50.0
100
AcDbLine
 10
1746.17359555837
 20
1201.841179395494
 30
0.0
 11
1775.934927549793
 21
1201.841179395494
 31
0.0
  0
LINE
  5
18CCB
330
18C7A
100
AcDbEntity
  8
寸法
 48
50.0
100
AcDbLine
 10
1746.17359555837
 20
1170.531020743327
 30
0.0
 11
1746.17359555837
 21
1201.841179395494
 31
0.0
  0
LINE
  5
18CCC
330
18C7A
100
AcDbEntity
  8
寸法
 48
50.0
100
AcDbLine
 10
1694.767587648266
 20
1170.531020743327
 30
0.0
 11
1746.17359555837
 21
1170.531020743327
 31
0.0
  0
LINE
  5
18CCD
330
18C7A
100
AcDbEntity
  8
寸法
 48
50.0
100
AcDbLine
 10
2025.339129835225
 20
1227.676611498152
 30
0.0
 11
2025.339129835225
 21
1174.01297691636
 31
0.0
  0
LINE
  5
18CCE
330
18C7A
100
AcDbEntity
  8
寸法
 48
50.0
100
AcDbLine
 10
2114.623348430647
 20
1203.752977228664
 30
0.0
 11
2025.339129835225
 21
1227.676611498152
 31
0.0
  0
LINE
  5
18CCF
330
18C7A
100
AcDbEntity
  8
寸法
 48
50.0
100
AcDbLine
 10
1895.471408254923
 20
1203.752977228664
 30
0.0
 11
2114.623348430647
 21
1203.752977228664
 31
0.0
  0
DIMENSION
  5
18CD0
330
18C7A
100
AcDbEntity
  8
寸法
 48
50.0
100
AcDbDimension
  2
*D15
 10
2588.970589276523
 20
706.3240511224249
 30
0.0
 11
1969.060022905491
 21
706.3240511224249
 31
0.0
 12
-3742.925985830444
 22
-6453.628869860112
 32
0.0
 70
   128
  1
有効開口部間口\P<>
 71
     5
 42
1266.0
  3
INABA_S40G
100
AcDbAlignedDimension
 13
1322.970589276523
 23
1315.494269174465
 33
0.0
 14
2588.970589276523
 24
1315.494269174465
 34
0.0
100
AcDbRotatedDimension
1001
ACAD
1000
DSTYLE
1002
{
1070
   341
1005
0
1002
}
  0
LINE
  5
18CD1
330
18C7A
100
AcDbEntity
  8
部品1
100
AcDbLine
 10
3409.970589276524
 20
1392.494269174465
 30
0.0
 11
3437.970589276523
 21
1392.494269174465
 31
0.0
  0
DIMENSION
  5
18CD2
330
18C7A
100
AcDbEntity
  8
寸法
100
AcDbDimension
  2
*D16
 10
3674.266172669749
 20
1315.494269174465
 30
0.0
 11
3674.266172669748
 21
1177.494269174462
 31
0.0
 12
-3742.925985830444
 22
-6453.628869860112
 32
0.0
 70
   128
 71
     5
 42
77.0
  3
INABA_S40
100
AcDbAlignedDimension
 13
3437.970589276523
 23
1392.494269174465
 33
0.0
 14
3436.970589276523
 24
1315.494269174465
 34
0.0
 50
90.0
100
AcDbRotatedDimension
1001
ACAD
1000
DSTYLE
1002
{
1070
    41
1040
0.5
1070
    44
1040
1.0
1070
   147
1040
0.8
1070
   271
1070
     2
1070
   272
1070
     2
1070
   289
1070
     3
1070
   340
1005
F706
1070
   343
1005
164B4
1070
   344
1005
164B4
1002
}
  0
LINE
  5
18CD3
330
18C7A
100
AcDbEntity
  8
部品1
100
AcDbLine
 10
3437.970589276523
 20
1315.494269174465
 30
0.0
 11
3437.970589276523
 21
1392.494269174465
 31
0.0
  0
LINE
  5
18CD4
330
18C7A
100
AcDbEntity
  8
部品1
100
AcDbLine
 10
3398.970589276523
 20
1388.494269174465
 30
0.0
 11
3409.970589276524
 21
1388.494269174465
 31
0.0
  0
LINE
  5
18CD5
330
18C7A
100
AcDbEntity
  8
部品1
100
AcDbLine
 10
3407.970589276523
 20
1324.494269174465
 30
0.0
 11
3407.970589276523
 21
1315.494269174465
 31
0.0
  0
LINE
  5
18CD6
330
18C7A
100
AcDbEntity
  8
部品1
100
AcDbLine
 10
3398.970589276523
 20
1324.494269174465
 30
0.0
 11
3407.970589276523
 21
1324.494269174465
 31
0.0
  0
LINE
  5
18CD7
330
18C7A
100
AcDbEntity
  8
部品1
100
AcDbLine
 10
3398.970589276523
 20
1388.494269174465
 30
0.0
 11
3398.970589276523
 21
1324.494269174465
 31
0.0
  0
LINE
  5
18CD8
330
18C7A
100
AcDbEntity
  8
部品1
100
AcDbLine
 10
3409.970589276524
 20
1419.494269174465
 30
0.0
 11
3409.970589276524
 21
1388.494269174465
 31
0.0
  0
LINE
  5
18CD9
330
18C7A
100
AcDbEntity
  8
部品1
100
AcDbLine
 10
1322.970589276523
 20
1388.494269174465
 30
0.0
 11
1311.970589276523
 21
1388.494269174465
 31
0.0
  0
LINE
  5
18CDA
330
18C7A
100
AcDbEntity
  8
部品1
100
AcDbLine
 10
1283.970589276523
 20
1392.494269174465
 30
0.0
 11
1311.970589276523
 21
1392.494269174465
 31
0.0
  0
LINE
  5
18CDB
330
18C7A
100
AcDbEntity
  8
部品1
100
AcDbLine
 10
1313.970589276523
 20
1324.494269174465
 30
0.0
 11
1313.970589276523
 21
1315.494269174465
 31
0.0
  0
LINE
  5
18CDC
330
18C7A
100
AcDbEntity
  8
部品1
100
AcDbLine
 10
1322.970589276523
 20
1324.494269174465
 30
0.0
 11
1313.970589276523
 21
1324.494269174465
 31
0.0
  0
LINE
  5
18CDD
330
18C7A
100
AcDbEntity
  8
部品1
100
AcDbLine
 10
1313.970589276523
 20
1315.494269174465
 30
0.0
 11
1283.970589276523
 21
1315.494269174465
 31
0.0
  0
LINE
  5
18CDE
330
18C7A
100
AcDbEntity
  8
部品1
100
AcDbLine
 10
1283.970589276523
 20
1315.494269174465
 30
0.0
 11
1283.970589276523
 21
1392.494269174465
 31
0.0
  0
LINE
  5
18CDF
330
18C7A
100
AcDbEntity
  8
部品1
100
AcDbLine
 10
1322.970589276523
 20
1388.494269174465
 30
0.0
 11
1322.970589276523
 21
1324.494269174465
 31
0.0
  0
LINE
  5
18CE0
330
18C7A
100
AcDbEntity
  8
部品1
100
AcDbLine
 10
1311.970589276523
 20
1419.494269174462
 30
0.0
 11
1311.970589276523
 21
1388.494269174465
 31
0.0
  0
LINE
  5
18CE1
330
18C7A
100
AcDbEntity
  8
部品1
100
AcDbLine
 10
1311.970589276523
 20
1419.494269174462
 30
0.0
 11
3409.970589276524
 21
1419.494269174465
 31
0.0
  0
LINE
  5
18CE2
330
18C7A
100
AcDbEntity
  8
部品1
100
AcDbLine
 10
3407.970589276523
 20
1315.494269174465
 30
0.0
 11
3437.970589276523
 21
1315.494269174465
 31
0.0
  0
LINE
  5
18CE3
330
18C7A
100
AcDbEntity
  8
部品1
100
AcDbLine
 10
1313.970589276523
 20
1315.494269174465
 30
0.0
 11
3410.970589276523
 21
1315.494269174465
 31
0.0
  0
LINE
  5
18CE4
330
18C7A
100
AcDbEntity
  8
細線
  6
Continuous
 62
     5
100
AcDbLine
 10
2689.970589276527
 20
1354.494269174462
 30
0.0
 11
2689.970589276527
 21
1354.494269174462
 31
0.0
  0
LINE
  5
18CE5
330
18C7A
100
AcDbEntity
  8
細線
  6
Continuous
 62
     5
100
AcDbLine
 10
2682.470589276527
 20
1354.494269174462
 30
0.0
 11
2682.470589276527
 21
1354.494269174462
 31
0.0
  0
LINE
  5
18CE6
330
18C7A
100
AcDbEntity
  8
細線
  6
Continuous
 62
     5
100
AcDbLine
 10
2676.470589276527
 20
1354.494269174462
 30
0.0
 11
2676.470589276527
 21
1354.494269174462
 31
0.0
  0
LINE
  5
18CE7
330
18C7A
100
AcDbEntity
  8
細線
  6
Continuous
 62
     5
100
AcDbLine
 10
2743.970589276527
 20
1373.494269174462
 30
0.0
 11
2743.970589276527
 21
1373.494269174462
 31
0.0
  0
LINE
  5
18CE8
330
18C7A
100
AcDbEntity
  8
細線
 48
50.0
100
AcDbLine
 10
1336.970593930116
 20
1341.094443351418
 30
0.0
 11
1336.970593930113
 21
1349.490593759059
 31
0.0
  0
LINE
  5
18CE9
330
18C7A
100
AcDbEntity
  8
細線
 48
50.0
100
AcDbLine
 10
1336.970593930113
 20
1349.490593759059
 30
0.0
 11
1322.970589276523
 21
1349.490593759057
 31
0.0
  0
LINE
  5
18CEA
330
18C7A
100
AcDbEntity
  8
細線
 48
50.0
100
AcDbLine
 10
2087.970593930113
 20
1337.644443351419
 30
0.0
 11
2087.970593930113
 21
1342.494443351421
 31
0.0
  0
LINE
  5
18CEB
330
18C7A
100
AcDbEntity
  8
細線
 48
50.0
100
AcDbLine
 10
2087.970593930113
 20
1342.494443351421
 30
0.0
 11
2102.970593930113
 21
1342.494443351421
 31
0.0
  0
LINE
  5
18CEC
330
18C7A
100
AcDbEntity
  8
細線
 48
50.0
100
AcDbLine
 10
2102.970593930113
 20
1342.494443351421
 30
0.0
 11
2102.970593930115
 21
1349.494443351419
 31
0.0
  0
LINE
  5
18CED
330
18C7A
100
AcDbEntity
  8
細線
 48
50.0
100
AcDbLine
 10
2102.970593930115
 20
1349.494443351419
 30
0.0
 11
2117.970593930113
 21
1349.494443351419
 31
0.0
  0
LINE
  5
18CEE
330
18C7A
100
AcDbEntity
  8
細線
 48
50.0
100
AcDbLine
 10
2117.970593930113
 20
1349.494443351419
 30
0.0
 11
2117.970593930113
 21
1320.494443351421
 31
0.0
  0
LINE
  5
18CEF
330
18C7A
100
AcDbEntity
  8
細線
 48
50.0
100
AcDbLine
 10
1313.970589276523
 20
1320.491777694889
 30
0.0
 11
1527.970593930113
 21
1320.494460905133
 31
0.0
  0
LINE
  5
18CF0
330
18C7A
100
AcDbEntity
  8
細線
 48
50.0
100
AcDbLine
 10
2017.970593930113
 20
1320.494443351421
 30
0.0
 11
2117.970593930113
 21
1320.494443351421
 31
0.0
  0
LINE
  5
18CF1
330
18C7A
100
AcDbEntity
  8
細線
 48
50.0
100
AcDbLine
 10
1737.970593930113
 20
1320.494443351419
 30
0.0
 11
1807.970593930113
 21
1320.494443351423
 31
0.0
  0
LINE
  5
18CF2
330
18C7A
100
AcDbEntity
  8
細線
 48
50.0
100
AcDbLine
 10
1750.832558942642
 20
1320.494443351419
 30
0.0
 11
1756.588076525309
 21
1338.765294641913
 31
0.0
  0
LINE
  5
18CF3
330
18C7A
100
AcDbEntity
  8
細線
 48
50.0
100
AcDbLine
 10
1756.588076525309
 20
1338.765294641913
 30
0.0
 11
1767.516525005743
 21
1338.765294641911
 31
0.0
  0
ARC
  5
18CF4
330
18C7A
100
AcDbEntity
  8
細線
 48
50.0
100
AcDbCircle
 10
1767.516525005743
 20
1337.765294641911
 30
0.0
 40
1.0
100
AcDbArc
 50
24.62431835207225
 51
90.0
  0
ARC
  5
18CF5
330
18C7A
100
AcDbEntity
  8
細線
 48
50.0
100
AcDbCircle
 10
1778.425237120377
 20
1337.765294641911
 30
0.0
 40
1.0
100
AcDbArc
 50
90.0
 51
155.3756816479277
  0
ARC
  5
18CF6
330
18C7A
100
AcDbEntity
  8
細線
 48
50.0
100
AcDbCircle
 10
1772.970881063058
 20
1340.265294641911
 30
0.0
 40
5.0
100
AcDbArc
 50
204.6243183520723
 51
335.3756816479278
  0
LINE
  5
18CF7
330
18C7A
100
AcDbEntity
  8
細線
 48
50.0
100
AcDbLine
 10
1778.425237120377
 20
1338.765294641911
 30
0.0
 11
1789.35368560081
 21
1338.765294641913
 31
0.0
  0
LINE
  5
18CF8
330
18C7A
100
AcDbEntity
  8
細線
 48
50.0
100
AcDbLine
 10
1789.35368560081
 20
1338.765294641913
 30
0.0
 11
1795.109203183478
 21
1320.494443351423
 31
0.0
  0
LINE
  5
18CF9
330
18C7A
100
AcDbEntity
  8
細線
 48
50.0
100
AcDbLine
 10
2087.970593930113
 20
1341.094443351419
 30
0.0
 11
1336.970593930116
 21
1341.094443351418
 31
0.0
  0
LINE
  5
18CFA
330
18C7A
100
AcDbEntity
  8
細線
 48
50.0
100
AcDbLine
 10
1947.970593930113
 20
1320.494443351421
 30
0.0
 11
1877.970593930113
 21
1320.494443351421
 31
0.0
  0
LINE
  5
18CFB
330
18C7A
100
AcDbEntity
  8
細線
100
AcDbLine
 10
1667.970593930113
 20
1320.494443351421
 30
0.0
 11
1597.970602115529
 21
1320.494443351421
 31
0.0
  0
LINE
  5
18CFC
330
18C7A
100
AcDbEntity
  8
細線
 48
50.0
100
AcDbLine
 10
2741.970584622936
 20
1375.094487209288
 30
0.0
 11
2106.970593930113
 21
1375.094487209284
 31
0.0
  0
LINE
  5
18CFD
330
18C7A
100
AcDbEntity
  8
細線
 48
50.0
100
AcDbLine
 10
2106.970593930113
 20
1371.990637616925
 30
0.0
 11
2106.970593930113
 21
1376.490637616925
 31
0.0
  0
LINE
  5
18CFE
330
18C7A
100
AcDbEntity
  8
細線
 48
50.0
100
AcDbLine
 10
2106.970593930113
 20
1376.490637616925
 30
0.0
 11
2091.970593930113
 21
1376.490637616925
 31
0.0
  0
LINE
  5
18CFF
330
18C7A
100
AcDbEntity
  8
細線
 48
50.0
100
AcDbLine
 10
2091.970593930113
 20
1376.490637616925
 30
0.0
 11
2091.970593930113
 21
1383.490637616927
 31
0.0
  0
LINE
  5
18D00
330
18C7A
100
AcDbEntity
  8
細線
 48
50.0
100
AcDbLine
 10
2091.970593930113
 20
1383.490637616927
 30
0.0
 11
2076.970593930115
 21
1383.490637616924
 31
0.0
  0
LINE
  5
18D01
330
18C7A
100
AcDbEntity
  8
細線
 48
50.0
100
AcDbLine
 10
2076.970593930115
 20
1383.490637616924
 30
0.0
 11
2076.970593930115
 21
1345.890409513813
 31
0.0
  0
LINE
  5
18D02
330
18C7A
100
AcDbEntity
  8
細線
 48
50.0
100
AcDbLine
 10
2076.970593930115
 20
1345.890409513813
 30
0.0
 11
2096.970601231289
 21
1345.890451063353
 31
0.0
  0
LINE
  5
18D03
330
18C7A
100
AcDbEntity
  8
細線
 48
50.0
100
AcDbLine
 10
2096.970556362348
 20
1354.493912699161
 30
0.0
 11
2096.970601231289
 21
1345.890451063353
 31
0.0
  0
LINE
  5
18D04
330
18C7A
100
AcDbEntity
  8
細線
 48
50.0
100
AcDbLine
 10
2741.970584622936
 20
1371.644487209287
 30
0.0
 11
2741.970584622936
 21
1376.494487209284
 31
0.0
  0
LINE
  5
18D05
330
18C7A
100
AcDbEntity
  8
細線
 48
50.0
100
AcDbLine
 10
2741.970584622936
 20
1376.494487209284
 30
0.0
 11
2756.970584622934
 21
1376.494487209285
 31
0.0
  0
LINE
  5
18D06
330
18C7A
100
AcDbEntity
  8
細線
 48
50.0
100
AcDbLine
 10
2756.970584622934
 20
1376.494487209285
 30
0.0
 11
2756.970596256909
 21
1383.494487209331
 31
0.0
  0
LINE
  5
18D07
330
18C7A
100
AcDbEntity
  8
細線
 48
50.0
100
AcDbLine
 10
2756.970596256909
 20
1383.494487209331
 30
0.0
 11
2771.970594427439
 21
1383.494487209329
 31
0.0
  0
LINE
  5
18D08
330
18C7A
100
AcDbEntity
  8
細線
 48
50.0
100
AcDbLine
 10
2771.970594427439
 20
1383.494487209329
 30
0.0
 11
2771.970584125617
 21
1354.494281037055
 31
0.0
  0
LINE
  5
18D09
330
18C7A
100
AcDbEntity
  8
細線
 48
50.0
100
AcDbLine
 10
2458.070304175992
 20
1354.494278397076
 30
0.0
 11
2389.470863838818
 21
1354.494283787084
 31
0.0
  0
LINE
  5
18D0A
330
18C7A
100
AcDbEntity
  8
細線
 48
50.0
100
AcDbLine
 10
2096.970556362348
 20
1354.493912699161
 30
0.0
 11
2108.203245717057
 21
1354.494095652309
 31
0.0
  0
ARC
  5
18D0B
330
18C7A
100
AcDbEntity
  8
細線
 48
50.0
100
AcDbCircle
 10
2114.785538024393
 20
1353.294259565922
 30
0.0
 40
1.8
100
AcDbArc
 50
270.0006665777295
 51
345.000555481349
  0
LINE
  5
18D0C
330
18C7A
100
AcDbEntity
  8
細線
 48
50.0
100
AcDbLine
 10
2116.771971470473
 20
1353.753100023201
 30
0.0
 11
2116.524209028273
 21
1352.828402141094
 31
0.0
  0
LINE
  5
18D0D
330
18C7A
100
AcDbEntity
  8
細線
 48
50.0
100
AcDbLine
 10
2114.785558965548
 20
1351.494259566043
 30
0.0
 11
2111.155631546781
 21
1351.494217335563
 31
0.0
  0
ARC
  5
18D0E
330
18C7A
100
AcDbEntity
  8
細線
 48
50.0
100
AcDbCircle
 10
2111.155610605627
 20
1353.29421733544
 30
0.0
 40
1.8
100
AcDbArc
 50
195.0010443049965
 51
270.0006665777295
  0
LINE
  5
18D0F
330
18C7A
100
AcDbEntity
  8
細線
 48
50.0
100
AcDbLine
 10
2109.169183113368
 20
1353.752932303007
 30
0.0
 11
2109.416952609882
 21
1352.828311364425
 31
0.0
  0
ARC
  5
18D10
330
18C7A
100
AcDbEntity
  8
細線
 48
50.0
100
AcDbCircle
 10
2108.203262004622
 20
1353.494095652444
 30
0.0
 40
1.0
100
AcDbArc
 50
15.00104430499651
 51
90.00093320877969
  0
LINE
  5
18D11
330
18C7A
100
AcDbEntity
  8
細線
 48
50.0
100
AcDbLine
 10
2117.737892825577
 20
1354.494290342714
 30
0.0
 11
2118.679652976481
 21
1354.494296916564
 31
0.0
  0
ARC
  5
18D12
330
18C7A
100
AcDbEntity
  8
細線
 48
50.0
100
AcDbCircle
 10
2117.737899805961
 20
1353.49429034274
 30
0.0
 40
1.0
100
AcDbArc
 50
90.0003999466794
 51
165.000555481349
  0
LINE
  5
18D13
330
18C7A
100
AcDbEntity
  8
細線
 48
50.0
100
AcDbLine
 10
2669.470584622926
 20
1354.494281037055
 30
0.0
 11
2771.970584125617
 21
1354.494281037055
 31
0.0
  0
LINE
  5
18D14
330
18C7A
100
AcDbEntity
  8
細線
 48
50.0
100
AcDbLine
 10
2179.47061994182
 20
1354.494289224422
 30
0.0
 11
2118.370558714898
 21
1354.494296916564
 31
0.0
  0
LINE
  5
18D15
330
18C7A
100
AcDbEntity
  8
細線
 48
50.0
100
AcDbLine
 10
2599.470584622926
 20
1354.494281037057
 30
0.0
 11
2529.470584622926
 21
1354.494281037055
 31
0.0
  0
LINE
  5
18D16
330
18C7A
100
AcDbEntity
  8
細線
 48
50.0
100
AcDbLine
 10
2319.470584622926
 20
1354.494281037054
 30
0.0
 11
2249.470567335051
 21
1354.494281037057
 31
0.0
  0
ARC
  5
18D17
330
18C7A
100
AcDbEntity
  8
細線
 48
50.0
100
AcDbCircle
 10
2756.170589276533
 20
1387.694269174466
 30
0.0
 40
0.8
100
AcDbArc
 50
359.9997333689499
 51
89.99986668437072
  0
ARC
  5
18D18
330
18C7A
100
AcDbEntity
  8
細線
 48
50.0
100
AcDbCircle
 10
2763.770596101631
 20
1387.694280343081
 30
0.0
 40
0.8
100
AcDbArc
 50
90.00014387753465
 51
179.9997333689498
  0
LINE
  5
18D19
330
18C7A
100
AcDbEntity
  8
細線
 48
50.0
100
AcDbLine
 10
2756.170591137969
 20
1388.494269174465
 30
0.0
 11
2750.970589276525
 21
1388.494269174465
 31
0.0
  0
ARC
  5
18D1A
330
18C7A
100
AcDbEntity
  8
細線
 48
50.0
100
AcDbCircle
 10
2757.670589276524
 20
1386.194269174464
 30
0.0
 40
0.7
100
AcDbArc
 50
180.0
 51
270.0
  0
ARC
  5
18D1B
330
18C7A
100
AcDbEntity
  8
細線
 48
50.0
100
AcDbCircle
 10
2762.270589276524
 20
1386.194269174464
 30
0.0
 40
0.7
100
AcDbArc
 50
270.0
 51
0.0
  0
LINE
  5
18D1C
330
18C7A
100
AcDbEntity
  8
細線
 48
50.0
100
AcDbLine
 10
2762.970589276525
 20
1386.194269174464
 30
0.0
 11
2762.970596101639
 21
1387.694284065954
 31
0.0
  0
LINE
  5
18D1D
330
18C7A
100
AcDbEntity
  8
細線
 48
50.0
100
AcDbLine
 10
2757.670589276524
 20
1385.494269174465
 30
0.0
 11
2762.270589276524
 21
1385.494269174465
 31
0.0
  0
LINE
  5
18D1E
330
18C7A
100
AcDbEntity
  8
細線
 48
50.0
100
AcDbLine
 10
2756.970589276525
 20
1387.694269174466
 30
0.0
 11
2756.970589276525
 21
1386.194269174464
 31
0.0
  0
LINE
  5
18D1F
330
18C7A
100
AcDbEntity
  8
細線
 48
50.0
100
AcDbLine
 10
3382.570589276527
 20
1418.494269174465
 30
0.0
 11
2745.970589276525
 21
1418.494269174463
 31
0.0
  0
LINE
  5
18D20
330
18C7A
100
AcDbEntity
  8
細線
 48
50.0
100
AcDbLine
 10
3408.470589276525
 20
1413.494269174467
 30
0.0
 11
3392.570589276527
 21
1413.494269174465
 31
0.0
  0
LINE
  5
18D21
330
18C7A
100
AcDbEntity
  8
細線
 48
50.0
100
AcDbLine
 10
3392.570589276526
 20
1413.494269174465
 30
0.0
 11
3382.570589276527
 21
1418.494269174465
 31
0.0
  0
LINE
  5
18D22
330
18C7A
100
AcDbEntity
  8
細線
100
AcDbLine
 10
2993.470589276525
 20
1388.494269174465
 30
0.0
 11
2993.470589276525
 21
1417.794269174464
 31
0.0
  0
LINE
  5
18D23
330
18C7A
100
AcDbEntity
  8
細線
100
AcDbLine
 10
2993.470589276525
 20
1417.794269174464
 30
0.0
 11
3013.470589276525
 21
1417.794269174464
 31
0.0
  0
LINE
  5
18D24
330
18C7A
100
AcDbEntity
  8
細線
100
AcDbLine
 10
3013.470589276525
 20
1388.494269174465
 30
0.0
 11
3013.470589276525
 21
1417.794269174464
 31
0.0
  0
LINE
  5
18D25
330
18C7A
100
AcDbEntity
  8
細線
100
AcDbLine
 10
3170.720589276524
 20
1388.494269174465
 30
0.0
 11
3100.720589276523
 21
1388.494269174465
 31
0.0
  0
LINE
  5
18D26
330
18C7A
100
AcDbEntity
  8
細線
 48
50.0
100
AcDbLine
 10
2890.720589276525
 20
1388.494269174465
 30
0.0
 11
2763.766368849365
 21
1388.494269174465
 31
0.0
  0
LINE
  5
18D27
330
18C7A
100
AcDbEntity
  8
細線
100
AcDbLine
 10
3030.720589276525
 20
1388.494269174465
 30
0.0
 11
2960.720589276525
 21
1388.494269174465
 31
0.0
  0
LINE
  5
18D28
330
18C7A
100
AcDbEntity
  8
細線
 48
50.0
100
AcDbLine
 10
2750.970589276525
 20
1380.494269174465
 30
0.0
 11
2750.970589276525
 21
1388.494269174465
 31
0.0
  0
LINE
  5
18D29
330
18C7A
100
AcDbEntity
  8
細線
 48
50.0
100
AcDbLine
 10
2730.970589276524
 20
1380.494269174467
 30
0.0
 11
2750.970589276525
 21
1380.494269174465
 31
0.0
  0
LINE
  5
18D2A
330
18C7A
100
AcDbEntity
  8
細線
 48
50.0
100
AcDbLine
 10
2745.970589276525
 20
1418.494269174465
 30
0.0
 11
2745.970589276525
 21
1413.494269174465
 31
0.0
  0
LINE
  5
18D2B
330
18C7A
100
AcDbEntity
  8
細線
 48
50.0
100
AcDbLine
 10
2730.970589276525
 20
1418.494269174463
 30
0.0
 11
2745.970589276525
 21
1418.494269174465
 31
0.0
  0
LINE
  5
18D2C
330
18C7A
100
AcDbEntity
  8
細線
 48
50.0
100
AcDbLine
 10
2730.970589276524
 20
1380.494269174467
 30
0.0
 11
2730.970589276525
 21
1418.494269174463
 31
0.0
  0
LINE
  5
18D2D
330
18C7A
100
AcDbEntity
  8
細線
100
AcDbLine
 10
3398.970589276523
 20
1388.494269174465
 30
0.0
 11
3240.720589276525
 21
1388.494269174465
 31
0.0
  0
LINE
  5
18D2E
330
18C7A
100
AcDbEntity
  8
細線
 48
50.0
100
AcDbLine
 10
3408.470589276525
 20
1413.494269174467
 30
0.0
 11
3408.470589276524
 21
1388.494269174465
 31
0.0
  0
TEXT
  5
18D2F
330
18C7A
100
AcDbEntity
  8
部品1
100
AcDbText
 10
1860.154865991392
 20
46.99880823813145
 30
0.0
 40
135.0
  1
平面図
  7
STYLE2
100
AcDbText
  0
LWPOLYLINE
  5
18D30
330
18C7A
100
AcDbEntity
  8
部品1
100
AcDbPolyline
 90
        4
 70
     1
 43
0.0
 10
1770.23525616235
 20
239.8923374566548
 10
1770.23525616235
 20
0.0000159111223184
 10
2533.705922390791
 20
0.0000159111223184
 10
2533.705922390791
 20
239.8923374566548
  0
LINE
  5
18D31
330
18C7A
100
AcDbEntity
  8
部品1
100
AcDbLine
 10
1534.470589276487
 20
3154.494269174626
 30
0.0
 11
2769.470589276552
 21
3154.494269174626
 31
0.0
  0
LINE
  5
18D32
330
18C7A
100
AcDbEntity
  8
部品1
 48
50.0
100
AcDbLine
 10
1311.970589276523
 20
1420.494269174462
 30
0.0
 11
3411.970589276523
 21
1420.494269174465
 31
0.0
  0
LINE
  5
18D33
330
18C7A
100
AcDbEntity
  8
部品1
 48
50.0
100
AcDbLine
 10
471.9705892765232
 20
1392.494269174465
 30
0.0
 11
1311.970589276523
 21
1392.494269174465
 31
0.0
  0
DIMENSION
  5
18D34
330
18C7A
100
AcDbEntity
  8
寸法
100
AcDbDimension
  2
*D14
 10
2710.234916278077
 20
2488.887829538828
 30
0.0
 11
2338.318822490183
 21
2488.887829538828
 31
0.0
 12
-3742.925985830444
 22
-6453.628869860112
 32
0.0
 70
   128
 71
     5
 42
1231.00000000007
  3
INABA_S40G
100
AcDbAlignedDimension
 13
1536.470589276486
 23
2702.494269174557
 33
0.0
 14
2767.470589276556
 24
2702.494269174549
 34
0.0
100
AcDbRotatedDimension
1001
ACAD
1000
DSTYLE
1002
{
1002
}
  0
LINE
  5
18D35
330
18C7A
100
AcDbEntity
  8
部品1
100
AcDbLine
 10
1536.470589276487
 20
2702.494269174557
 30
0.0
 11
2767.470589276554
 21
2702.494269174615
 31
0.0
  0
LINE
  5
18D36
330
18C7A
100
AcDbEntity
  8
部品1
100
AcDbLine
 10
1536.470589276487
 20
3152.494269174557
 30
0.0
 11
2767.470589276556
 21
3152.494269174615
 31
0.0
  0
LINE
  5
18D37
330
18C7A
100
AcDbEntity
  8
細線
 48
50.0
100
AcDbLine
 10
1508.470589276487
 20
3152.494269174558
 30
0.0
 11
445.4705892765559
 21
2702.494269174509
 31
0.0
  0
LINE
  5
18D38
330
18C7A
100
AcDbEntity
  8
細線
 48
50.0
100
AcDbLine
 10
1508.470589276487
 20
2702.494269174558
 30
0.0
 11
445.4705892765542
 21
3152.494269174509
 31
0.0
  0
LINE
  5
18D39
330
18C7A
100
AcDbEntity
  8
部品1
100
AcDbLine
 10
1556.970589276487
 20
3172.494269174611
 30
0.0
 11
1556.970589276487
 21
3154.494269174611
 31
0.0
  0
LINE
  5
18D3A
330
18C7A
100
AcDbEntity
  8
部品1
100
AcDbLine
 10
1556.970589276487
 20
3172.494269174611
 30
0.0
 11
1550.970589276487
 21
3172.494269174611
 31
0.0
  0
LINE
  5
18D3B
330
18C7A
100
AcDbEntity
  8
部品1
100
AcDbLine
 10
1534.470589276487
 20
3146.494269174608
 30
0.0
 11
1509.470589276487
 21
3146.494269174611
 31
0.0
  0
LINE
  5
18D3C
330
18C7A
100
AcDbEntity
  8
部品1
100
AcDbLine
 10
1486.970589276487
 20
3172.494269174611
 30
0.0
 11
1486.970589276487
 21
3154.494269174611
 31
0.0
  0
LINE
  5
18D3D
330
18C7A
100
AcDbEntity
  8
部品1
100
AcDbLine
 10
1492.970589276487
 20
3172.494269174611
 30
0.0
 11
1486.970589276487
 21
3172.494269174611
 31
0.0
  0
LINE
  5
18D3E
330
18C7A
100
AcDbEntity
  8
部品1
100
AcDbLine
 10
1534.470589276487
 20
2702.494269174615
 30
0.0
 11
1509.470589276487
 21
2702.494269174615
 31
0.0
  0
LINE
  5
18D3F
330
18C7A
100
AcDbEntity
  8
部品1
 48
50.0
100
AcDbLine
 10
1536.470589276487
 20
3152.494269174611
 30
0.0
 11
1536.470589276487
 21
2702.494269174615
 31
0.0
  0
LINE
  5
18D40
330
18C7A
100
AcDbEntity
  8
部品1
 48
50.0
100
AcDbLine
 10
1508.470589276487
 20
3152.494269174607
 30
0.0
 11
1508.470589276487
 21
2702.494269174615
 31
0.0
  0
LINE
  5
18D41
330
18C7A
100
AcDbEntity
  8
部品1
 48
50.0
100
AcDbLine
 10
1534.470589276487
 20
3154.494269174618
 30
0.0
 11
1534.470589276487
 21
2702.494269174615
 31
0.0
  0
LINE
  5
18D42
330
18C7A
100
AcDbEntity
  8
部品1
 48
50.0
100
AcDbLine
 10
1509.470589276487
 20
3154.494269174615
 30
0.0
 11
1509.470589276487
 21
2702.494269174615
 31
0.0
  0
LINE
  5
18D43
330
18C7A
100
AcDbEntity
  8
部品1
100
AcDbLine
 10
3411.970589276556
 20
1392.494269174582
 30
0.0
 11
3411.970589276556
 21
1420.494269174596
 31
0.0
  0
LINE
  5
18D44
330
18C7A
100
AcDbEntity
  8
部品1
100
AcDbLine
 10
1311.970589276523
 20
1392.494269174596
 30
0.0
 11
1311.970589276523
 21
1420.494269174596
 31
0.0
  0
LINE
  5
18D45
330
18C7A
100
AcDbEntity
  8
部品1
100
AcDbLine
 10
891.9705892765232
 20
1392.494269174596
 30
0.0
 11
891.9705892765232
 21
1420.494269174596
 31
0.0
  0
LINE
  5
18D46
330
18C7A
100
AcDbEntity
  8
部品1
100
AcDbLine
 10
3411.97058927652
 20
3182.494269174477
 30
0.0
 11
3411.970589276523
 21
3154.494269174477
 31
0.0
  0
LINE
  5
18D47
330
18C7A
100
AcDbEntity
  8
部品1
100
AcDbLine
 10
2571.97058927652
 20
3182.494269174477
 30
0.0
 11
2571.970589276523
 21
3154.494269174477
 31
0.0
  0
LINE
  5
18D48
330
18C7A
100
AcDbEntity
  8
部品1
100
AcDbLine
 10
2991.97058927652
 20
3182.494269174477
 30
0.0
 11
2991.970589276523
 21
3154.494269174477
 31
0.0
  0
LINE
  5
18D49
330
18C7A
100
AcDbEntity
  8
部品1
100
AcDbLine
 10
2151.970589276519
 20
3182.494269174477
 30
0.0
 11
2151.970589276523
 21
3154.494269174477
 31
0.0
  0
LINE
  5
18D4A
330
18C7A
100
AcDbEntity
  8
部品1
100
AcDbLine
 10
1731.970589276519
 20
3182.494269174477
 30
0.0
 11
1731.970589276523
 21
3154.494269174477
 31
0.0
  0
LINE
  5
18D4B
330
18C7A
100
AcDbEntity
  8
部品1
100
AcDbLine
 10
1311.970589276519
 20
3182.494269174477
 30
0.0
 11
1311.970589276523
 21
3154.494269174477
 31
0.0
  0
LINE
  5
18D4C
330
18C7A
100
AcDbEntity
  8
部品1
100
AcDbLine
 10
891.9705892765195
 20
3182.494269174477
 30
0.0
 11
891.9705892765232
 21
3154.494269174477
 31
0.0
  0
LINE
  5
18D4D
330
18C7A
100
AcDbEntity
  8
部品1
100
AcDbLine
 10
471.9705892765232
 20
1392.494269174596
 30
0.0
 11
471.9705892765232
 21
1420.494269174596
 31
0.0
  0
LINE
  5
18D4E
330
18C7A
100
AcDbEntity
  8
部品1
100
AcDbLine
 10
444.9705892765305
 20
1420.494269174558
 30
0.0
 11
3858.970589276556
 21
1420.494269174596
 31
0.0
  0
LINE
  5
18D4F
330
18C7A
100
AcDbEntity
  8
部品1
100
AcDbLine
 10
3831.970589276556
 20
1392.494269174596
 30
0.0
 11
3831.970589276556
 21
1420.494269174596
 31
0.0
  0
LINE
  5
18D50
330
18C7A
100
AcDbEntity
  8
部品1
100
AcDbLine
 10
3858.970589276556
 20
1447.494269174593
 30
0.0
 11
3886.970589276556
 21
1447.494269174593
 31
0.0
  0
LINE
  5
18D51
330
18C7A
100
AcDbEntity
  8
部品1
100
AcDbLine
 10
3858.970589276556
 20
1867.494269174607
 30
0.0
 11
3886.970589276556
 21
1867.494269174607
 31
0.0
  0
LINE
  5
18D52
330
18C7A
100
AcDbEntity
  8
部品1
100
AcDbLine
 10
444.9705892765305
 20
1867.49426917448
 30
0.0
 11
416.9705892765305
 21
1867.49426917448
 31
0.0
  0
LINE
  5
18D53
330
18C7A
100
AcDbEntity
  8
部品1
100
AcDbLine
 10
3830.470589276541
 20
1867.49426917458
 30
0.0
 11
473.4705892765396
 21
1867.49426917448
 31
0.0
  0
LINE
  5
18D54
330
18C7A
100
AcDbEntity
  8
部品1
100
AcDbLine
 10
3830.470589276541
 20
2287.49426917458
 30
0.0
 11
473.4705892765396
 21
2287.49426917448
 31
0.0
  0
LINE
  5
18D55
330
18C7A
100
AcDbEntity
  8
部品1
100
AcDbLine
 10
444.9705892765305
 20
2287.49426917448
 30
0.0
 11
416.9705892765305
 21
2287.49426917448
 31
0.0
  0
LINE
  5
18D56
330
18C7A
100
AcDbEntity
  8
部品1
100
AcDbLine
 10
3858.970589276556
 20
2287.494269174608
 30
0.0
 11
3886.970589276556
 21
2287.494269174608
 31
0.0
  0
LINE
  5
18D57
330
18C7A
100
AcDbEntity
  8
部品1
 48
50.0
100
AcDbLine
 10
2151.970589276551
 20
2702.494269174586
 30
0.0
 11
2151.970589276581
 21
1448.994269174494
 31
0.0
  0
LINE
  5
18D58
330
18C7A
100
AcDbEntity
  8
破線
 48
10.0
100
AcDbLine
 10
2959.470589276535
 20
1472.494269174522
 30
0.0
 11
2176.970589276532
 21
1472.494269174505
 31
0.0
  0
LINE
  5
18D59
330
18C7A
100
AcDbEntity
  8
破線
 48
10.0
100
AcDbLine
 10
3009.47058927653
 20
1448.994269174509
 30
0.0
 11
3009.47058927653
 21
2702.494269174615
 31
0.0
  0
LINE
  5
18D5A
330
18C7A
100
AcDbEntity
  8
破線
 48
10.0
100
AcDbLine
 10
2959.470589276535
 20
1448.994269174505
 30
0.0
 11
2959.470589276531
 21
2702.494269174615
 31
0.0
  0
LINE
  5
18D5B
330
18C7A
100
AcDbEntity
  8
破線
 48
10.0
100
AcDbLine
 10
1344.47058927653
 20
1448.994269174509
 30
0.0
 11
1344.47058927653
 21
2702.494269174615
 31
0.0
  0
LINE
  5
18D5C
330
18C7A
100
AcDbEntity
  8
破線
 48
10.0
100
AcDbLine
 10
1294.470589276534
 20
1448.994269174505
 30
0.0
 11
1294.47058927653
 21
2702.494269174615
 31
0.0
  0
DIMENSION
  5
18D5D
330
18C7A
100
AcDbEntity
  8
寸法
100
AcDbDimension
  2
*D13
 10
1451.234916278005
 20
2488.887829538828
 30
0.0
 11
916.0604668248634
 21
2488.887829538828
 31
0.0
 12
-3742.925985830444
 22
-6453.628869860112
 32
0.0
 70
   128
 71
     5
 42
1062.99999999993
  3
INABA_S40G
100
AcDbAlignedDimension
 13
445.4705892765559
 23
2702.494269174505
 33
0.0
 14
1508.470589276486
 24
2702.494269174558
 34
0.0
100
AcDbRotatedDimension
1001
ACAD
1000
DSTYLE
1002
{
1002
}
  0
LINE
  5
18D5E
330
18C7A
100
AcDbEntity
  8
破線
 48
10.0
100
AcDbLine
 10
1294.470589276534
 20
1472.494269174469
 30
0.0
 11
496.9705892765414
 21
1472.494269174476
 31
0.0
  0
LINE
  5
18D5F
330
18C7A
100
AcDbEntity
  8
部品1
100
AcDbLine
 10
3831.970589276556
 20
3182.494269174604
 30
0.0
 11
3831.970589276556
 21
3154.494269174604
 31
0.0
  0
LINE
  5
18D60
330
18C7A
100
AcDbEntity
  8
部品1
100
AcDbLine
 10
3831.970589276556
 20
3182.494269174626
 30
0.0
 11
3831.970589276556
 21
3154.494269174626
 31
0.0
  0
LINE
  5
18D61
330
18C7A
100
AcDbEntity
  8
部品1
100
AcDbLine
 10
3858.970589276556
 20
3127.494269174607
 30
0.0
 11
3886.970589276556
 21
3127.494269174607
 31
0.0
  0
LINE
  5
18D62
330
18C7A
100
AcDbEntity
  8
部品1
100
AcDbLine
 10
3858.970589276556
 20
2707.494269174608
 30
0.0
 11
3886.970589276556
 21
2707.494269174608
 31
0.0
  0
LINE
  5
18D63
330
18C7A
100
AcDbEntity
  8
部品1
100
AcDbLine
 10
3858.470589276556
 20
3152.494269174604
 30
0.0
 11
3858.470589276556
 21
2702.494269174608
 31
0.0
  0
LINE
  5
18D64
330
18C7A
100
AcDbEntity
  8
部品1
100
AcDbLine
 10
3886.970589276533
 20
1447.494269174593
 30
0.0
 11
3886.970589276531
 21
1392.494269174596
 31
0.0
  0
LINE
  5
18D65
330
18C7A
100
AcDbEntity
  8
部品1
 48
50.0
100
AcDbLine
 10
3830.470589276556
 20
1448.994269174596
 30
0.0
 11
3858.970589276554
 21
1420.494269174596
 31
0.0
  0
LINE
  5
18D66
330
18C7A
100
AcDbEntity
  8
部品1
100
AcDbLine
 10
3886.970589276531
 20
1392.494269174596
 30
0.0
 11
3835.970589276531
 21
1392.494269174596
 31
0.0
  0
LINE
  5
18D67
330
18C7A
100
AcDbEntity
  8
部品1
100
AcDbLine
 10
3858.970589276533
 20
1447.494269174593
 30
0.0
 11
3886.970589276531
 21
1447.494269174593
 31
0.0
  0
LINE
  5
18D68
330
18C7A
100
AcDbEntity
  8
部品1
100
AcDbLine
 10
3886.970589276556
 20
3182.494269174604
 30
0.0
 11
3886.970589276531
 21
1392.494269174596
 31
0.0
  0
DIMENSION
  5
18D69
330
18C7A
100
AcDbEntity
  8
寸法
100
AcDbDimension
  2
*D12
 10
4534.396935010967
 20
1447.494269174593
 30
0.0
 11
4534.396935010965
 21
2287.4942691746
 31
0.0
 12
-3742.925985830444
 22
-6453.628869860112
 32
0.0
 70
   128
  1
4X420=<>
 71
     5
 42
1680.000000000014
  3
INABA_S40G
100
AcDbAlignedDimension
 13
3886.970589276556
 23
3127.494269174607
 33
0.0
 14
3886.970589276531
 24
1447.494269174593
 34
0.0
 50
90.0
100
AcDbRotatedDimension
1001
ACAD
1000
DSTYLE
1002
{
1002
}
  0
LINE
  5
18D6A
330
18C7A
100
AcDbEntity
  8
部品1
100
AcDbLine
 10
3858.970589276556
 20
3154.494269174604
 30
0.0
 11
3858.970589276534
 21
1420.494269174596
 31
0.0
  0
DIMENSION
  5
18D6B
330
18C7A
100
AcDbEntity
  8
寸法
100
AcDbDimension
  2
*D11
 10
4213.82831513858
 20
2607.276453505718
 30
0.0
 11
4113.828315138579
 21
2832.276453505718
 31
0.0
 12
-3742.925985830444
 22
-6453.628869860112
 32
0.0
 71
     5
 42
449.9999999999963
  3
INABA_S40G
100
AcDbAlignedDimension
 13
3858.470589276556
 23
3152.494269174604
 33
0.0
 14
3858.470589276556
 24
2702.494269174608
 34
0.0
 50
90.0
100
AcDbRotatedDimension
1001
ACAD
1000
DSTYLE
1002
{
1002
}
  0
LINE
  5
18D6C
330
18C7A
100
AcDbEntity
  8
部品1
100
AcDbLine
 10
3830.470589276547
 20
2702.494269174608
 30
0.0
 11
3830.470589276556
 21
1448.994269174596
 31
0.0
  0
LINE
  5
18D6D
330
18C7A
100
AcDbEntity
  8
破線
 48
10.0
100
AcDbLine
 10
3806.970589276549
 20
2702.494269174608
 30
0.0
 11
3806.970589276558
 21
1472.494269174593
 31
0.0
  0
LINE
  5
18D6E
330
18C7A
100
AcDbEntity
  8
部品1
100
AcDbLine
 10
2769.470589276556
 20
3146.494269174608
 30
0.0
 11
2794.470589276556
 21
3146.494269174611
 31
0.0
  0
LINE
  5
18D6F
330
18C7A
100
AcDbEntity
  8
部品1
100
AcDbLine
 10
2810.970589276556
 20
3172.494269174611
 30
0.0
 11
2816.970589276556
 21
3172.494269174611
 31
0.0
  0
LINE
  5
18D70
330
18C7A
100
AcDbEntity
  8
部品1
100
AcDbLine
 10
2816.970589276556
 20
3172.494269174611
 30
0.0
 11
2816.970589276556
 21
3154.494269174611
 31
0.0
  0
LINE
  5
18D71
330
18C7A
100
AcDbEntity
  8
部品1
100
AcDbLine
 10
2746.970589276556
 20
3172.494269174611
 30
0.0
 11
2752.970589276556
 21
3172.494269174611
 31
0.0
  0
LINE
  5
18D72
330
18C7A
100
AcDbEntity
  8
部品1
100
AcDbLine
 10
2746.970589276556
 20
3172.494269174611
 30
0.0
 11
2746.970589276556
 21
3154.494269174611
 31
0.0
  0
LINE
  5
18D73
330
18C7A
100
AcDbEntity
  8
部品1
100
AcDbLine
 10
2769.470589276556
 20
2702.494269174615
 30
0.0
 11
2794.470589276556
 21
2702.494269174615
 31
0.0
  0
LINE
  5
18D74
330
18C7A
100
AcDbEntity
  8
部品1
 48
50.0
100
AcDbLine
 10
2794.470589276556
 20
3154.494269174615
 30
0.0
 11
2794.470589276556
 21
2702.494269174615
 31
0.0
  0
LINE
  5
18D75
330
18C7A
100
AcDbEntity
  8
部品1
 48
50.0
100
AcDbLine
 10
2769.470589276554
 20
3154.494269174618
 30
0.0
 11
2769.470589276556
 21
2702.494269174615
 31
0.0
  0
LINE
  5
18D76
330
18C7A
100
AcDbEntity
  8
部品1
 48
50.0
100
AcDbLine
 10
2795.470589276556
 20
3152.494269174607
 30
0.0
 11
2795.470589276556
 21
2702.494269174615
 31
0.0
  0
LINE
  5
18D77
330
18C7A
100
AcDbEntity
  8
部品1
 48
50.0
100
AcDbLine
 10
2767.470589276556
 20
3152.494269174611
 30
0.0
 11
2767.470589276556
 21
2702.494269174615
 31
0.0
  0
LINE
  5
18D78
330
18C7A
100
AcDbEntity
  8
破線
 48
10.0
100
AcDbLine
 10
2176.97058927653
 20
1448.994269174509
 30
0.0
 11
2176.97058927653
 21
2702.494269174588
 31
0.0
  0
LINE
  5
18D79
330
18C7A
100
AcDbEntity
  8
破線
 48
10.0
100
AcDbLine
 10
2126.970589276534
 20
1448.994269174505
 30
0.0
 11
2126.970589276531
 21
2702.494269174586
 31
0.0
  0
LINE
  5
18D7A
330
18C7A
100
AcDbEntity
  8
部品1
100
AcDbLine
 10
2794.470589276556
 20
3154.494269174622
 30
0.0
 11
3858.970589276556
 21
3154.494269174604
 31
0.0
  0
LINE
  5
18D7B
330
18C7A
100
AcDbEntity
  8
細線
 48
50.0
100
AcDbLine
 10
3858.470589276556
 20
2702.494269174608
 30
0.0
 11
2795.470589276556
 21
3152.494269174607
 31
0.0
  0
LINE
  5
18D7C
330
18C7A
100
AcDbEntity
  8
部品1
100
AcDbLine
 10
2795.470589276555
 20
2702.494269174615
 30
0.0
 11
3858.470589276556
 21
2702.494269174608
 31
0.0
  0
LINE
  5
18D7D
330
18C7A
100
AcDbEntity
  8
部品1
100
AcDbLine
 10
2795.470589276556
 20
3152.494269174611
 30
0.0
 11
3858.470589276556
 21
3152.494269174604
 31
0.0
  0
LINE
  5
18D7E
330
18C7A
100
AcDbEntity
  8
細線
 48
50.0
100
AcDbLine
 10
3858.470589276556
 20
3152.494269174604
 30
0.0
 11
2795.470589276555
 21
2702.494269174615
 31
0.0
  0
DIMENSION
  5
18D7F
330
18C7A
100
AcDbEntity
  8
寸法
100
AcDbDimension
  2
*D10
 10
3801.234916278101
 20
2488.887829538937
 30
0.0
 11
3318.360544398907
 21
2488.887829538937
 31
0.0
 12
-3742.925985830444
 22
-6453.628869860112
 32
0.0
 70
   128
 71
     5
 42
1063.000000000012
  3
INABA_S40G
100
AcDbAlignedDimension
 13
2795.470589276555
 23
2702.494269174615
 33
0.0
 14
3858.470589276567
 24
2702.494269174608
 34
0.0
100
AcDbRotatedDimension
1001
ACAD
1000
DSTYLE
1002
{
1002
}
  0
LINE
  5
18D80
330
18C7A
100
AcDbEntity
  8
破線
 48
10.0
100
AcDbLine
 10
3806.970589276556
 20
1472.494269174594
 30
0.0
 11
3009.47058927653
 21
1472.494269174523
 31
0.0
  0
DIMENSION
  5
18D81
330
18C7A
100
AcDbEntity
  8
寸法
100
AcDbDimension
  2
*D9
 10
4534.396935010941
 20
1392.494269174596
 30
0.0
 11
4534.39693501094
 21
1084.008987800356
 31
0.0
 12
-3742.925985830444
 22
-6453.628869860112
 32
0.0
 70
   128
 71
     5
 42
54.99999999999636
  3
INABA_S40G
100
AcDbAlignedDimension
 13
3886.970589276531
 23
1447.494269174593
 33
0.0
 14
3886.970589276531
 24
1392.494269174596
 34
0.0
 50
90.0
100
AcDbRotatedDimension
1001
ACAD
1000
DSTYLE
1002
{
1002
}
  0
LINE
  5
18D82
330
18C7A
100
AcDbEntity
  8
部品1
100
AcDbLine
 10
471.9705892765196
 20
3182.494269174477
 30
0.0
 11
471.9705892765232
 21
3154.494269174477
 31
0.0
  0
LINE
  5
18D83
330
18C7A
100
AcDbEntity
  8
部品1
100
AcDbLine
 10
471.9705892765559
 20
3182.494269174509
 30
0.0
 11
471.9705892765559
 21
3154.494269174509
 31
0.0
  0
LINE
  5
18D84
330
18C7A
100
AcDbEntity
  8
部品1
100
AcDbLine
 10
444.9705892765232
 20
3127.49426917448
 30
0.0
 11
416.9705892765232
 21
3127.49426917448
 31
0.0
  0
LINE
  5
18D85
330
18C7A
100
AcDbEntity
  8
部品1
100
AcDbLine
 10
444.9705892765305
 20
2707.49426917448
 30
0.0
 11
416.9705892765305
 21
2707.49426917448
 31
0.0
  0
LINE
  5
18D86
330
18C7A
100
AcDbEntity
  8
部品1
 48
50.0
100
AcDbLine
 10
445.4705892765542
 20
3152.494269174506
 30
0.0
 11
445.4705892765559
 21
2702.494269174505
 31
0.0
  0
LINE
  5
18D87
330
18C7A
100
AcDbEntity
  8
部品1
 48
50.0
100
AcDbLine
 10
473.470589276545
 20
1448.994269174573
 30
0.0
 11
444.970589276545
 21
1420.494269174574
 31
0.0
  0
LINE
  5
18D88
330
18C7A
100
AcDbEntity
  8
部品1
100
AcDbLine
 10
471.9705892765232
 20
1392.494269174465
 30
0.0
 11
416.9705892765486
 21
1392.494269174465
 31
0.0
  0
LINE
  5
18D89
330
18C7A
100
AcDbEntity
  8
部品1
100
AcDbLine
 10
444.9705892765305
 20
1447.494269174429
 30
0.0
 11
416.9705892765469
 21
1447.494269174429
 31
0.0
  0
LINE
  5
18D8A
330
18C7A
100
AcDbEntity
  8
部品1
100
AcDbLine
 10
444.9705892765305
 20
1447.494269174465
 30
0.0
 11
416.9705892765469
 21
1447.494269174465
 31
0.0
  0
LINE
  5
18D8B
330
18C7A
100
AcDbEntity
  8
部品1
100
AcDbLine
 10
444.9705892765469
 20
1447.49426917448
 30
0.0
 11
416.9705892765469
 21
1447.49426917448
 31
0.0
  0
LINE
  5
18D8C
330
18C7A
100
AcDbEntity
  8
部品1
100
AcDbLine
 10
416.9705892765469
 20
1447.494269174429
 30
0.0
 11
416.9705892765486
 21
1392.494269174433
 31
0.0
  0
LINE
  5
18D8D
330
18C7A
100
AcDbEntity
  8
部品1
100
AcDbLine
 10
416.9705892765196
 20
3182.494269174477
 30
0.0
 11
416.9705892765486
 21
1392.494269174465
 31
0.0
  0
LINE
  5
18D8E
330
18C7A
100
AcDbEntity
  8
部品1
100
AcDbLine
 10
444.9705892765305
 20
1420.494269174556
 30
0.0
 11
444.9705892765559
 21
3154.494269174509
 31
0.0
  0
LINE
  5
18D8F
330
18C7A
100
AcDbEntity
  8
部品1
100
AcDbLine
 10
473.4705892765323
 20
2702.494269174608
 30
0.0
 11
473.470589276545
 21
1448.994269174571
 31
0.0
  0
LINE
  5
18D90
330
18C7A
100
AcDbEntity
  8
破線
 48
10.0
100
AcDbLine
 10
496.9705892765305
 20
2702.494269174608
 30
0.0
 11
496.9705892765451
 21
1472.494269174476
 31
0.0
  0
DIMENSION
  5
18D91
330
18C7A
100
AcDbEntity
  8
寸法
100
AcDbDimension
  2
*D8
 10
3886.970589276531
 20
410.7433333855515
 30
0.0
 11
2168.197775309287
 21
410.7433333855515
 31
0.0
 12
-3742.925985830444
 22
-6453.628869860112
 32
0.0
 70
   128
 71
     5
 42
3469.999999999982
  3
INABA_S40G
100
AcDbAlignedDimension
 13
416.9705892765486
 23
1392.494269174433
 33
0.0
 14
3886.970589276531
 24
1392.49426917456
 34
0.0
100
AcDbRotatedDimension
1001
ACAD
1000
DSTYLE
1002
{
1070
   341
1005
0
1002
}
  0
LINE
  5
18D92
330
18C7A
100
AcDbEntity
  8
部品1
100
AcDbLine
 10
444.9705892765559
 20
3154.494269174624
 30
0.0
 11
1509.470589276487
 21
3154.494269174626
 31
0.0
  0
LINE
  5
18D93
330
18C7A
100
AcDbEntity
  8
部品1
100
AcDbLine
 10
3886.970589276531
 20
1392.494269174596
 30
0.0
 11
3411.970589276556
 21
1392.494269174582
 31
0.0
  0
LINE
  5
18D94
330
18C7A
100
AcDbEntity
  8
部品1
100
AcDbLine
 10
416.9705892765559
 20
3182.494269174509
 30
0.0
 11
3886.970589276556
 21
3182.494269174604
 31
0.0
  0
LINE
  5
18D95
330
18C7A
100
AcDbEntity
  8
部品1
100
AcDbLine
 10
445.4705892765559
 20
2702.494269174509
 30
0.0
 11
1508.470589276487
 21
2702.494269174558
 31
0.0
  0
LINE
  5
18D96
330
18C7A
100
AcDbEntity
  8
細線
 48
50.0
100
AcDbLine
 10
2767.470589276556
 20
3152.494269174611
 30
0.0
 11
1536.470589276487
 21
2702.494269174558
 31
0.0
  0
LINE
  5
18D97
330
18C7A
100
AcDbEntity
  8
部品1
100
AcDbLine
 10
445.4705892765542
 20
3152.494269174509
 30
0.0
 11
1508.470589276485
 21
3152.494269174558
 31
0.0
  0
LINE
  5
18D98
330
18C7A
100
AcDbEntity
  8
細線
 48
50.0
100
AcDbLine
 10
2767.470589276554
 20
2702.494269174615
 30
0.0
 11
1536.470589276485
 21
3152.494269174558
 31
0.0
  0
LINE
  5
18D99
330
18C7A
100
AcDbEntity
  8
破線
 48
10.0
100
AcDbLine
 10
2126.970589276534
 20
1472.494269174502
 30
0.0
 11
1344.47058927653
 21
1472.494269174473
 31
0.0
  0
LINE
  5
18D9A
330
18C7A
100
AcDbEntity
  8
部品1
100
AcDbLine
 10
3830.470589276556
 20
1448.994269174596
 30
0.0
 11
473.4705892764487
 21
1448.994269174476
 31
0.0
  0
DIMENSION
  5
18D9B
330
18C7A
100
AcDbEntity
  8
寸法
100
AcDbDimension
  2
*D7
 10
471.970589276555
 20
3698.302488799491
 30
0.0
 11
108.4853079022819
 21
3698.302488799491
 31
0.0
 12
-3742.925985830444
 22
-6453.628869860112
 32
0.0
 70
   128
 71
     5
 42
55.00000000003456
  3
INABA_S40G
100
AcDbAlignedDimension
 13
416.9705892765205
 23
3182.494269174509
 33
0.0
 14
471.970589276555
 24
3182.494269174509
 34
0.0
100
AcDbRotatedDimension
1001
ACAD
1000
DSTYLE
1002
{
1002
}
  0
DIMENSION
  5
18D9C
330
18C7A
100
AcDbEntity
  8
寸法
100
AcDbDimension
  2
*D6
 10
4534.396935010967
 20
3127.494269174607
 30
0.0
 11
4534.396935010965
 21
3490.979550548844
 31
0.0
 12
-3742.925985830444
 22
-6453.628869860112
 32
0.0
 70
   128
 71
     5
 42
54.99999999999636
  3
INABA_S40G
100
AcDbAlignedDimension
 13
3886.970589276556
 23
3182.494269174604
 33
0.0
 14
3886.970589276556
 24
3127.494269174607
 34
0.0
 50
90.0
100
AcDbRotatedDimension
1001
ACAD
1000
DSTYLE
1002
{
1002
}
  0
DIMENSION
  5
18D9D
330
18C7A
100
AcDbEntity
  8
寸法
100
AcDbDimension
  2
*D5
 10
3886.970589276556
 20
3698.302488799589
 30
0.0
 11
4195.455870650794
 21
3698.302488799589
 31
0.0
 12
-3742.925985830444
 22
-6453.628869860112
 32
0.0
 70
   128
 71
     5
 42
55.0
  3
INABA_S40G
100
AcDbAlignedDimension
 13
3831.970589276556
 23
3182.494269174604
 33
0.0
 14
3886.970589276556
 24
3182.494269174604
 34
0.0
100
AcDbRotatedDimension
1001
ACAD
1000
DSTYLE
1002
{
1002
}
  0
DIMENSION
  5
18D9E
330
18C7A
100
AcDbEntity
  8
寸法
100
AcDbDimension
  2
*D4
 10
3831.970589276556
 20
3698.302488799607
 30
0.0
 11
2151.970589276555
 21
3698.302488799607
 31
0.0
 12
-3742.925985830444
 22
-6453.628869860112
 32
0.0
 70
   128
  1
8X420=<>
 71
     5
 42
3360.000000000001
  3
INABA_S40G
100
AcDbAlignedDimension
 13
471.970589276555
 23
3182.494269174509
 33
0.0
 14
3831.970589276556
 24
3182.494269174604
 34
0.0
100
AcDbRotatedDimension
1001
ACAD
1000
DSTYLE
1002
{
1002
}
  0
DIMENSION
  5
18D9F
330
18C7A
100
AcDbEntity
  8
寸法
100
AcDbDimension
  2
*D3
 10
4899.503876750603
 20
1392.494269174596
 30
0.0
 11
4899.503876750601
 21
2287.4942691746
 31
0.0
 12
-3742.925985830444
 22
-6453.628869860112
 32
0.0
 70
   128
 71
     5
 42
1790.000000000007
  3
INABA_S40G
100
AcDbAlignedDimension
 13
3886.970589276556
 23
3182.494269174604
 33
0.0
 14
3886.970589276531
 24
1392.494269174596
 34
0.0
 50
90.0
100
AcDbRotatedDimension
1001
ACAD
1000
DSTYLE
1002
{
1002
}
  0
ENDBLK
  5
18DA1
330
18C7A
100
AcDbEntity
  8
0
 48
50.0
100
AcDbBlockEnd
  0
BLOCK
  5
1C4CB
330
1C4CA
100
AcDbEntity
  8
0
 48
50.0
100
AcDbBlockBegin
  2
_NONE
 70
     0
 10
0.0
 20
0.0
 30
0.0
  3
_NONE
  1

  0
CIRCLE
  5
1C4CC
330
1C4CA
100
AcDbEntity
  8
0
  6
ByBlock
 62
     0
 48
50.0
100
AcDbCircle
 10
0.0
 20
0.0
 30
0.0
 40
0.25
  0
ENDBLK
  5
1C4CD
330
1C4CA
100
AcDbEntity
  8
0
 48
50.0
100
AcDbBlockEnd
  0
BLOCK
  5
24232
330
24228
100
AcDbEntity
  8
0
 48
50.0
100
AcDbBlockBegin
  2
*D19
 70
     1
 10
0.0
 20
0.0
 30
0.0
  3
*D19
  1

  0
LINE
  5
249AE
330
24228
100
AcDbEntity
  8
寸法
 62
     0
 48
50.0
370
    -2
100
AcDbLine
 10
8950.599999999999
 20
6976.907777930207
 30
0.0
 11
8950.599999999999
 21
8343.817543578534
 31
0.0
  0
LINE
  5
249AF
330
24228
100
AcDbEntity
  8
寸法
 62
     0
 48
50.0
370
    -2
100
AcDbLine
 10
8223.600000000001
 20
6976.907777930207
 30
0.0
 11
8223.600000000001
 21
8343.817543578534
 31
0.0
  0
LINE
  5
249B0
330
24228
100
AcDbEntity
  8
寸法
 62
     0
 48
50.0
370
    -2
100
AcDbLine
 10
8950.599999999999
 20
8283.817543578534
 30
0.0
 11
8223.600000000001
 21
8283.817543578534
 31
0.0
  0
INSERT
  5
249B1
330
24228
100
AcDbEntity
  8
寸法
 62
     0
 48
50.0
370
    -2
100
AcDbBlockReference
  2
_DOTSMALL
 10
8950.599999999999
 20
8283.817543578534
 30
0.0
 41
100.0
 42
100.0
 43
100.0
  0
INSERT
  5
249B2
330
24228
100
AcDbEntity
  8
寸法
 62
     0
 48
50.0
370
    -2
100
AcDbBlockReference
  2
_DOTSMALL
 10
8223.600000000001
 20
8283.817543578534
 30
0.0
 41
100.0
 42
100.0
 43
100.0
 50
180.0
  0
MTEXT
  5
249B3
330
24228
100
AcDbEntity
  8
寸法
 62
     7
 48
50.0
100
AcDbMText
 10
8587.100000000001
 20
8383.829354602156
 30
0.0
 40
120.0
 41
0.0
 71
     5
 72
     1
  1
\A1;727
  7
STYLE1
 73
     1
 44
1.0
1001
ACAD
1000
MTEXTBEGIN
1070
    73
1070
     1
1070
    44
1040
1.0
1070
    74
1070
     0
1000
MTEXTEND
  0
POINT
  5
249B4
330
24228
100
AcDbEntity
  8
DEFPOINTS
 62
     0
 48
50.0
100
AcDbPoint
 10
8950.599999999999
 20
6956.907777930206
 30
0.0
  0
POINT
  5
249B5
330
24228
100
AcDbEntity
  8
DEFPOINTS
 62
     0
 48
50.0
100
AcDbPoint
 10
8223.600000000001
 20
6956.907777930206
 30
0.0
  0
POINT
  5
249B6
330
24228
100
AcDbEntity
  8
DEFPOINTS
 62
     0
 48
50.0
100
AcDbPoint
 10
8223.600000000001
 20
8283.817543578534
 30
0.0
  0
ENDBLK
  5
24233
330
24228
100
AcDbEntity
  8
0
 48
50.0
100
AcDbBlockEnd
  0
BLOCK
  5
2423E
330
24234
100
AcDbEntity
  8
0
 48
50.0
100
AcDbBlockBegin
  2
*D20
 70
     1
 10
0.0
 20
0.0
 30
0.0
  3
*D20
  1

  0
LINE
  5
249A5
330
24234
100
AcDbEntity
  8
寸法
 62
     0
 48
50.0
370
    -2
100
AcDbLine
 10
8223.600000000001
 20
6976.907777930207
 30
0.0
 11
8223.600000000001
 21
8343.817543578534
 31
0.0
  0
LINE
  5
249A6
330
24234
100
AcDbEntity
  8
寸法
 62
     0
 48
50.0
370
    -2
100
AcDbLine
 10
7496.6
 20
6976.907777930207
 30
0.0
 11
7496.6
 21
8343.817543578534
 31
0.0
  0
LINE
  5
249A7
330
24234
100
AcDbEntity
  8
寸法
 62
     0
 48
50.0
370
    -2
100
AcDbLine
 10
8223.600000000001
 20
8283.817543578534
 30
0.0
 11
7496.6
 21
8283.817543578534
 31
0.0
  0
INSERT
  5
249A8
330
24234
100
AcDbEntity
  8
寸法
 62
     0
 48
50.0
370
    -2
100
AcDbBlockReference
  2
_DOTSMALL
 10
8223.600000000001
 20
8283.817543578534
 30
0.0
 41
100.0
 42
100.0
 43
100.0
  0
INSERT
  5
249A9
330
24234
100
AcDbEntity
  8
寸法
 62
     0
 48
50.0
370
    -2
100
AcDbBlockReference
  2
_DOTSMALL
 10
7496.6
 20
8283.817543578534
 30
0.0
 41
100.0
 42
100.0
 43
100.0
 50
180.0
  0
MTEXT
  5
249AA
330
24234
100
AcDbEntity
  8
寸法
 62
     7
 48
50.0
100
AcDbMText
 10
7860.1
 20
8383.829354602156
 30
0.0
 40
120.0
 41
0.0
 71
     5
 72
     1
  1
\A1;727
  7
STYLE1
 73
     1
 44
1.0
1001
ACAD
1000
MTEXTBEGIN
1070
    73
1070
     1
1070
    44
1040
1.0
1070
    74
1070
     0
1000
MTEXTEND
  0
POINT
  5
249AB
330
24234
100
AcDbEntity
  8
DEFPOINTS
 62
     0
 48
50.0
100
AcDbPoint
 10
8223.600000000001
 20
6956.907777930206
 30
0.0
  0
POINT
  5
249AC
330
24234
100
AcDbEntity
  8
DEFPOINTS
 62
     0
 48
50.0
100
AcDbPoint
 10
7496.6
 20
6956.907777930206
 30
0.0
  0
POINT
  5
249AD
330
24234
100
AcDbEntity
  8
DEFPOINTS
 62
     0
 48
50.0
100
AcDbPoint
 10
7496.6
 20
8283.817543578534
 30
0.0
  0
ENDBLK
  5
2423F
330
24234
100
AcDbEntity
  8
0
 48
50.0
100
AcDbBlockEnd
  0
BLOCK
  5
2424B
330
24240
100
AcDbEntity
  8
0
 48
50.0
100
AcDbBlockBegin
  2
*D21
 70
     1
 10
0.0
 20
0.0
 30
0.0
  3
*D21
  1

  0
LINE
  5
25BD5
330
24240
100
AcDbEntity
  8
寸法
 62
     0
 48
50.0
370
    -2
100
AcDbLine
 10
6943.6
 20
7636.907777930204
 30
0.0
 11
7200.307249876098
 21
7636.907777930204
 31
0.0
  0
LINE
  5
25BD6
330
24240
100
AcDbEntity
  8
寸法
 62
     0
 48
50.0
370
    -2
100
AcDbLine
 10
6943.600000000002
 20
7756.907777930205
 30
0.0
 11
7200.307249876098
 21
7756.907777930205
 31
0.0
  0
LINE
  5
25BD7
330
24240
100
AcDbEntity
  8
寸法
 62
     0
 48
50.0
370
    -2
100
AcDbLine
 10
7140.307249876099
 20
7636.907777930204
 30
0.0
 11
7140.307249876099
 21
7756.907777930205
 31
0.0
  0
LINE
  5
25BD8
330
24240
100
AcDbEntity
  8
寸法
 62
     0
 48
50.0
370
    -2
100
AcDbLine
 10
7140.307249876099
 20
7756.907777930205
 30
0.0
 11
7140.307249876099
 21
8151.03856529758
 31
0.0
  0
INSERT
  5
25BD9
330
24240
100
AcDbEntity
  8
寸法
 62
     0
 48
50.0
370
    -2
100
AcDbBlockReference
  2
_DOTSMALL
 10
7140.307249876099
 20
7636.907777930204
 30
0.0
 41
100.0
 42
100.0
 43
100.0
 50
270.0
  0
INSERT
  5
25BDA
330
24240
100
AcDbEntity
  8
寸法
 62
     0
 48
50.0
370
    -2
100
AcDbBlockReference
  2
_DOTSMALL
 10
7140.307249876099
 20
7756.907777930205
 30
0.0
 41
100.0
 42
100.0
 43
100.0
 50
90.0
  0
MTEXT
  5
25BDB
330
24240
100
AcDbEntity
  8
寸法
 62
     7
 48
50.0
100
AcDbMText
 10
7040.295438852476
 20
8014.991321203094
 30
0.0
 40
120.0
 41
0.0
 71
     5
 72
     1
  1
\A1;120
  7
STYLE1
 11
0.0000000000000001
 21
1.0
 31
0.0
 73
     1
 44
1.0
1001
ACAD
1000
MTEXTBEGIN
1070
    73
1070
     1
1070
    44
1040
1.0
1070
    74
1070
     0
1000
MTEXTEND
  0
POINT
  5
25BDC
330
24240
100
AcDbEntity
  8
DEFPOINTS
 62
     0
 48
50.0
100
AcDbPoint
 10
6923.6
 20
7636.907777930204
 30
0.0
  0
POINT
  5
25BDD
330
24240
100
AcDbEntity
  8
DEFPOINTS
 62
     0
 48
50.0
100
AcDbPoint
 10
6923.600000000002
 20
7756.907777930205
 30
0.0
  0
POINT
  5
25BDE
330
24240
100
AcDbEntity
  8
DEFPOINTS
 62
     0
 48
50.0
100
AcDbPoint
 10
7140.307249876099
 20
7756.907777930205
 30
0.0
  0
ENDBLK
  5
2424C
330
24240
100
AcDbEntity
  8
0
 48
50.0
100
AcDbBlockEnd
  0
BLOCK
  5
24258
330
2424D
100
AcDbEntity
  8
0
 48
50.0
100
AcDbBlockBegin
  2
*D22
 70
     1
 10
0.0
 20
0.0
 30
0.0
  3
*D22
  1

  0
LINE
  5
24991
330
2424D
100
AcDbEntity
  8
寸法
 62
     0
 48
50.0
370
    -2
100
AcDbLine
 10
9753.6
 20
7776.907777930206
 30
0.0
 11
9753.6
 21
8562.667404472289
 31
0.0
  0
LINE
  5
24992
330
2424D
100
AcDbEntity
  8
寸法
 62
     0
 48
50.0
370
    -2
100
AcDbLine
 10
9630.600000000001
 20
7703.907777930206
 30
0.0
 11
9630.600000000001
 21
8562.667404472289
 31
0.0
  0
LINE
  5
24993
330
2424D
100
AcDbEntity
  8
寸法
 62
     0
 48
50.0
370
    -2
100
AcDbLine
 10
9630.600000000001
 20
8502.667404472289
 30
0.0
 11
9753.6
 21
8502.667404472289
 31
0.0
  0
LINE
  5
24994
330
2424D
100
AcDbEntity
  8
寸法
 62
     0
 48
50.0
370
    -2
100
AcDbLine
 10
9753.6
 20
8502.667404472289
 30
0.0
 11
10165.19188309203
 21
8502.667404472289
 31
0.0
  0
INSERT
  5
24995
330
2424D
100
AcDbEntity
  8
寸法
 62
     0
 48
50.0
370
    -2
100
AcDbBlockReference
  2
_DOTSMALL
 10
9630.600000000001
 20
8502.667404472289
 30
0.0
 41
100.0
 42
100.0
 43
100.0
 50
180.0
  0
INSERT
  5
24996
330
2424D
100
AcDbEntity
  8
寸法
 62
     0
 48
50.0
370
    -2
100
AcDbBlockReference
  2
_DOTSMALL
 10
9753.6
 20
8502.667404472289
 30
0.0
 41
100.0
 42
100.0
 43
100.0
  0
MTEXT
  5
24997
330
2424D
100
AcDbEntity
  8
寸法
 62
     7
 48
50.0
100
AcDbMText
 10
10026.7066017178
 20
8602.679215495911
 30
0.0
 40
120.0
 41
0.0
 71
     5
 72
     1
  1
\A1;123
  7
STYLE1
 73
     1
 44
1.0
1001
ACAD
1000
MTEXTBEGIN
1070
    73
1070
     1
1070
    44
1040
1.0
1070
    74
1070
     0
1000
MTEXTEND
  0
POINT
  5
24998
330
2424D
100
AcDbEntity
  8
DEFPOINTS
 62
     0
 48
50.0
100
AcDbPoint
 10
9753.6
 20
7756.907777930206
 30
0.0
  0
POINT
  5
24999
330
2424D
100
AcDbEntity
  8
DEFPOINTS
 62
     0
 48
50.0
100
AcDbPoint
 10
9630.600000000001
 20
7683.907777930206
 30
0.0
  0
POINT
  5
2499A
330
2424D
100
AcDbEntity
  8
DEFPOINTS
 62
     0
 48
50.0
100
AcDbPoint
 10
9630.600000000001
 20
8502.667404472289
 30
0.0
  0
ENDBLK
  5
24259
330
2424D
100
AcDbEntity
  8
0
 48
50.0
100
AcDbBlockEnd
  0
BLOCK
  5
24271
330
24267
100
AcDbEntity
  8
0
 48
50.0
100
AcDbBlockBegin
  2
*D23
 70
     1
 10
0.0
 20
0.0
 30
0.0
  3
*D23
  1

  0
LINE
  5
2497D
330
24267
100
AcDbEntity
  8
寸法
 62
     0
 48
50.0
370
    -2
100
AcDbLine
 10
9753.6
 20
7776.907777930206
 30
0.0
 11
9753.6
 21
8343.817543578534
 31
0.0
  0
LINE
  5
2497E
330
24267
100
AcDbEntity
  8
寸法
 62
     0
 48
50.0
370
    -2
100
AcDbLine
 10
8950.599999999999
 20
6976.907777930207
 30
0.0
 11
8950.599999999999
 21
8343.817543578534
 31
0.0
  0
LINE
  5
2497F
330
24267
100
AcDbEntity
  8
寸法
 62
     0
 48
50.0
370
    -2
100
AcDbLine
 10
9753.6
 20
8283.817543578534
 30
0.0
 11
8950.599999999999
 21
8283.817543578534
 31
0.0
  0
INSERT
  5
24980
330
24267
100
AcDbEntity
  8
寸法
 62
     0
 48
50.0
370
    -2
100
AcDbBlockReference
  2
_DOTSMALL
 10
9753.6
 20
8283.817543578534
 30
0.0
 41
100.0
 42
100.0
 43
100.0
  0
INSERT
  5
24981
330
24267
100
AcDbEntity
  8
寸法
 62
     0
 48
50.0
370
    -2
100
AcDbBlockReference
  2
_DOTSMALL
 10
8950.599999999999
 20
8283.817543578534
 30
0.0
 41
100.0
 42
100.0
 43
100.0
 50
180.0
  0
MTEXT
  5
24982
330
24267
100
AcDbEntity
  8
寸法
 62
     7
 48
50.0
100
AcDbMText
 10
9324.518522006279
 20
8383.817543578535
 30
0.0
 40
120.0
 41
0.0
 71
     5
 72
     1
  1
\A1;803
  7
STYLE1
 73
     1
 44
1.0
1001
ACAD
1000
MTEXTBEGIN
1070
    73
1070
     1
1070
    44
1040
1.0
1070
    74
1070
     0
1000
MTEXTEND
  0
POINT
  5
24983
330
24267
100
AcDbEntity
  8
DEFPOINTS
 62
     0
 48
50.0
100
AcDbPoint
 10
9753.6
 20
7756.907777930206
 30
0.0
  0
POINT
  5
24984
330
24267
100
AcDbEntity
  8
DEFPOINTS
 62
     0
 48
50.0
100
AcDbPoint
 10
8950.599999999999
 20
6956.907777930206
 30
0.0
  0
POINT
  5
24985
330
24267
100
AcDbEntity
  8
DEFPOINTS
 62
     0
 48
50.0
100
AcDbPoint
 10
8950.599999999999
 20
8283.817543578534
 30
0.0
  0
ENDBLK
  5
24272
330
24267
100
AcDbEntity
  8
0
 48
50.0
100
AcDbBlockEnd
  0
BLOCK
  5
2427E
330
24273
100
AcDbEntity
  8
0
 48
50.0
100
AcDbBlockBegin
  2
*D24
 70
     1
 10
0.0
 20
0.0
 30
0.0
  3
*D24
  1

  0
LINE
  5
248D8
330
24273
100
AcDbEntity
  8
寸法
 62
     0
 48
50.0
370
    -2
100
AcDbLine
 10
6673.6
 20
7756.907777930206
 30
0.0
 11
5529.647002158784
 21
7756.907777930208
 31
0.0
  0
LINE
  5
248D9
330
24273
100
AcDbEntity
  8
寸法
 62
     0
 48
50.0
370
    -2
100
AcDbLine
 10
6746.6
 20
7633.907777930206
 30
0.0
 11
5529.647002158784
 21
7633.907777930208
 31
0.0
  0
LINE
  5
248DA
330
24273
100
AcDbEntity
  8
寸法
 62
     0
 48
50.0
370
    -2
100
AcDbLine
 10
5589.647002158784
 20
7633.907777930208
 30
0.0
 11
5589.647002158784
 21
7756.907777930208
 31
0.0
  0
LINE
  5
248DB
330
24273
100
AcDbEntity
  8
寸法
 62
     0
 48
50.0
370
    -2
100
AcDbLine
 10
5589.647002158784
 20
7756.907777930208
 30
0.0
 11
5589.647002158784
 21
8208.499661022241
 31
0.0
  0
INSERT
  5
248DC
330
24273
100
AcDbEntity
  8
寸法
 62
     0
 48
50.0
370
    -2
100
AcDbBlockReference
  2
_DOTSMALL
 10
5589.647002158784
 20
7633.907777930208
 30
0.0
 41
100.0
 42
100.0
 43
100.0
 50
270.0
  0
INSERT
  5
248DD
330
24273
100
AcDbEntity
  8
寸法
 62
     0
 48
50.0
370
    -2
100
AcDbBlockReference
  2
_DOTSMALL
 10
5589.647002158784
 20
7756.907777930208
 30
0.0
 41
100.0
 42
100.0
 43
100.0
 50
90.0
  0
MTEXT
  5
248DE
330
24273
100
AcDbEntity
  8
寸法
 62
     7
 48
50.0
100
AcDbMText
 10
5489.635191135161
 20
8070.014379648005
 30
0.0
 40
120.0
 41
0.0
 71
     5
 72
     1
  1
\A1;123
  7
STYLE1
 11
0.0000000000000001
 21
1.0
 31
0.0
 73
     1
 44
1.0
1001
ACAD
1000
MTEXTBEGIN
1070
    73
1070
     1
1070
    44
1040
1.0
1070
    74
1070
     0
1000
MTEXTEND
  0
POINT
  5
248DF
330
24273
100
AcDbEntity
  8
DEFPOINTS
 62
     0
 48
50.0
100
AcDbPoint
 10
6693.6
 20
7756.907777930206
 30
0.0
  0
POINT
  5
248E0
330
24273
100
AcDbEntity
  8
DEFPOINTS
 62
     0
 48
50.0
100
AcDbPoint
 10
6766.600000000001
 20
7633.907777930206
 30
0.0
  0
POINT
  5
248E1
330
24273
100
AcDbEntity
  8
DEFPOINTS
 62
     0
 48
50.0
100
AcDbPoint
 10
5589.647002158784
 20
7633.907777930208
 30
0.0
  0
ENDBLK
  5
2427F
330
24273
100
AcDbEntity
  8
0
 48
50.0
100
AcDbBlockEnd
  0
BLOCK
  5
2428B
330
24280
100
AcDbEntity
  8
0
 48
50.0
100
AcDbBlockBegin
  2
*D25
 70
     1
 10
0.0
 20
0.0
 30
0.0
  3
*D25
  1

  0
LINE
  5
24973
330
24280
100
AcDbEntity
  8
寸法
 62
     0
 48
50.0
370
    -2
100
AcDbLine
 10
6816.600000000001
 20
7703.907777930206
 30
0.0
 11
6816.600000000001
 21
8562.667404472289
 31
0.0
  0
LINE
  5
24974
330
24280
100
AcDbEntity
  8
寸法
 62
     0
 48
50.0
370
    -2
100
AcDbLine
 10
6693.6
 20
7776.907777930206
 30
0.0
 11
6693.6
 21
8562.667404472289
 31
0.0
  0
LINE
  5
24975
330
24280
100
AcDbEntity
  8
寸法
 62
     0
 48
50.0
370
    -2
100
AcDbLine
 10
6816.600000000001
 20
8502.667404472289
 30
0.0
 11
6693.6
 21
8502.667404472289
 31
0.0
  0
LINE
  5
24976
330
24280
100
AcDbEntity
  8
寸法
 62
     0
 48
50.0
370
    -2
100
AcDbLine
 10
6693.6
 20
8502.667404472289
 30
0.0
 11
6282.008116907963
 21
8502.667404472289
 31
0.0
  0
INSERT
  5
24977
330
24280
100
AcDbEntity
  8
寸法
 62
     0
 48
50.0
370
    -2
100
AcDbBlockReference
  2
_DOTSMALL
 10
6816.600000000001
 20
8502.667404472289
 30
0.0
 41
100.0
 42
100.0
 43
100.0
  0
INSERT
  5
24978
330
24280
100
AcDbEntity
  8
寸法
 62
     0
 48
50.0
370
    -2
100
AcDbBlockReference
  2
_DOTSMALL
 10
6693.6
 20
8502.667404472289
 30
0.0
 41
100.0
 42
100.0
 43
100.0
 50
180.0
  0
MTEXT
  5
24979
330
24280
100
AcDbEntity
  8
寸法
 62
     7
 48
50.0
100
AcDbMText
 10
6420.493398282203
 20
8602.679215495911
 30
0.0
 40
120.0
 41
0.0
 71
     5
 72
     1
  1
\A1;123
  7
STYLE1
 73
     1
 44
1.0
1001
ACAD
1000
MTEXTBEGIN
1070
    73
1070
     1
1070
    44
1040
1.0
1070
    74
1070
     0
1000
MTEXTEND
  0
POINT
  5
2497A
330
24280
100
AcDbEntity
  8
DEFPOINTS
 62
     0
 48
50.0
100
AcDbPoint
 10
6816.600000000001
 20
7683.907777930206
 30
0.0
  0
POINT
  5
2497B
330
24280
100
AcDbEntity
  8
DEFPOINTS
 62
     0
 48
50.0
100
AcDbPoint
 10
6693.6
 20
7756.907777930206
 30
0.0
  0
POINT
  5
2497C
330
24280
100
AcDbEntity
  8
DEFPOINTS
 62
     0
 48
50.0
100
AcDbPoint
 10
6693.6
 20
8502.667404472289
 30
0.0
  0
ENDBLK
  5
2428C
330
24280
100
AcDbEntity
  8
0
 48
50.0
100
AcDbBlockEnd
  0
BLOCK
  5
242A3
330
2429A
100
AcDbEntity
  8
0
 48
50.0
100
AcDbBlockBegin
  2
*D26
 70
     1
 10
0.0
 20
0.0
 30
0.0
  3
*D26
  1

  0
LINE
  5
2495F
330
2429A
100
AcDbEntity
  8
寸法
 62
     0
 48
50.0
370
    -2
100
AcDbLine
 10
9630.600000000001
 20
7703.907777930206
 30
0.0
 11
9630.600000000001
 21
8562.667404472289
 31
0.0
  0
LINE
  5
24960
330
2429A
100
AcDbEntity
  8
寸法
 62
     0
 48
50.0
370
    -2
100
AcDbLine
 10
6816.600000000001
 20
7703.907777930206
 30
0.0
 11
6816.600000000001
 21
8562.667404472289
 31
0.0
  0
LINE
  5
24961
330
2429A
100
AcDbEntity
  8
寸法
 62
     0
 48
50.0
370
    -2
100
AcDbLine
 10
9630.600000000001
 20
8502.667404472289
 30
0.0
 11
6816.600000000001
 21
8502.667404472289
 31
0.0
  0
INSERT
  5
24962
330
2429A
100
AcDbEntity
  8
寸法
 62
     0
 48
50.0
370
    -2
100
AcDbBlockReference
  2
_DOTSMALL
 10
9630.600000000001
 20
8502.667404472289
 30
0.0
 41
100.0
 42
100.0
 43
100.0
  0
INSERT
  5
24963
330
2429A
100
AcDbEntity
  8
寸法
 62
     0
 48
50.0
370
    -2
100
AcDbBlockReference
  2
_DOTSMALL
 10
6816.600000000001
 20
8502.667404472289
 30
0.0
 41
100.0
 42
100.0
 43
100.0
 50
180.0
  0
MTEXT
  5
24964
330
2429A
100
AcDbEntity
  8
寸法
 62
     7
 48
50.0
100
AcDbMText
 10
8223.600000000001
 20
8602.679215495911
 30
0.0
 40
120.0
 41
0.0
 71
     5
 72
     1
  1
\A1;2814
  7
STYLE1
 73
     1
 44
1.0
1001
ACAD
1000
MTEXTBEGIN
1070
    73
1070
     1
1070
    44
1040
1.0
1070
    74
1070
     0
1000
MTEXTEND
  0
POINT
  5
24965
330
2429A
100
AcDbEntity
  8
DEFPOINTS
 62
     0
 48
50.0
100
AcDbPoint
 10
9630.600000000001
 20
7683.907777930206
 30
0.0
  0
POINT
  5
24966
330
2429A
100
AcDbEntity
  8
DEFPOINTS
 62
     0
 48
50.0
100
AcDbPoint
 10
6816.600000000001
 20
7683.907777930206
 30
0.0
  0
POINT
  5
24967
330
2429A
100
AcDbEntity
  8
DEFPOINTS
 62
     0
 48
50.0
100
AcDbPoint
 10
6816.600000000001
 20
8502.667404472289
 30
0.0
  0
ENDBLK
  5
242A4
330
2429A
100
AcDbEntity
  8
0
 48
50.0
100
AcDbBlockEnd
  0
BLOCK
  5
242AE
330
242A5
100
AcDbEntity
  8
0
 48
50.0
100
AcDbBlockBegin
  2
*D27
 70
     1
 10
0.0
 20
0.0
 30
0.0
  3
*D27
  1

  0
LINE
  5
24956
330
242A5
100
AcDbEntity
  8
寸法
 62
     0
 48
50.0
370
    -2
100
AcDbLine
 10
6693.6
 20
7776.907777930206
 30
0.0
 11
6693.6
 21
8775.128099989126
 31
0.0
  0
LINE
  5
24957
330
242A5
100
AcDbEntity
  8
寸法
 62
     0
 48
50.0
370
    -2
100
AcDbLine
 10
9753.6
 20
7776.907777930206
 30
0.0
 11
9753.6
 21
8775.128099989126
 31
0.0
  0
LINE
  5
24958
330
242A5
100
AcDbEntity
  8
寸法
 62
     0
 48
50.0
370
    -2
100
AcDbLine
 10
6693.6
 20
8715.128099989126
 30
0.0
 11
9753.6
 21
8715.128099989126
 31
0.0
  0
INSERT
  5
24959
330
242A5
100
AcDbEntity
  8
寸法
 62
     0
 48
50.0
370
    -2
100
AcDbBlockReference
  2
_DOTSMALL
 10
6693.6
 20
8715.128099989126
 30
0.0
 41
100.0
 42
100.0
 43
100.0
 50
180.0
  0
INSERT
  5
2495A
330
242A5
100
AcDbEntity
  8
寸法
 62
     0
 48
50.0
370
    -2
100
AcDbBlockReference
  2
_DOTSMALL
 10
9753.6
 20
8715.128099989126
 30
0.0
 41
100.0
 42
100.0
 43
100.0
  0
MTEXT
  5
2495B
330
242A5
100
AcDbEntity
  8
寸法
 62
     7
 48
50.0
100
AcDbMText
 10
8223.600000000001
 20
8815.128099989125
 30
0.0
 40
120.0
 41
0.0
 71
     5
 72
     1
  1
\A1;3060
  7
STYLE1
 73
     1
 44
1.0
1001
ACAD
1000
MTEXTBEGIN
1070
    73
1070
     1
1070
    44
1040
1.0
1070
    74
1070
     0
1000
MTEXTEND
  0
POINT
  5
2495C
330
242A5
100
AcDbEntity
  8
DEFPOINTS
 62
     0
 48
50.0
100
AcDbPoint
 10
6693.6
 20
7756.907777930206
 30
0.0
  0
POINT
  5
2495D
330
242A5
100
AcDbEntity
  8
DEFPOINTS
 62
     0
 48
50.0
100
AcDbPoint
 10
9753.6
 20
7756.907777930206
 30
0.0
  0
POINT
  5
2495E
330
242A5
100
AcDbEntity
  8
DEFPOINTS
 62
     0
 48
50.0
100
AcDbPoint
 10
9753.6
 20
8715.128099989126
 30
0.0
  0
ENDBLK
  5
242AF
330
242A5
100
AcDbEntity
  8
0
 48
50.0
100
AcDbBlockEnd
  0
BLOCK
  5
242B9
330
242B0
100
AcDbEntity
  8
0
 48
50.0
100
AcDbBlockBegin
  2
*D28
 70
     1
 10
0.0
 20
0.0
 30
0.0
  3
*D28
  1

  0
LINE
  5
2494D
330
242B0
100
AcDbEntity
  8
寸法
 62
     0
 48
50.0
370
    -2
100
AcDbLine
 10
7496.6
 20
6976.907777930207
 30
0.0
 11
7496.6
 21
8343.817543578534
 31
0.0
  0
LINE
  5
2494E
330
242B0
100
AcDbEntity
  8
寸法
 62
     0
 48
50.0
370
    -2
100
AcDbLine
 10
6693.6
 20
7776.907777930206
 30
0.0
 11
6693.6
 21
8343.817543578534
 31
0.0
  0
LINE
  5
2494F
330
242B0
100
AcDbEntity
  8
寸法
 62
     0
 48
50.0
370
    -2
100
AcDbLine
 10
7496.6
 20
8283.817543578534
 30
0.0
 11
6693.6
 21
8283.817543578534
 31
0.0
  0
INSERT
  5
24950
330
242B0
100
AcDbEntity
  8
寸法
 62
     0
 48
50.0
370
    -2
100
AcDbBlockReference
  2
_DOTSMALL
 10
7496.6
 20
8283.817543578534
 30
0.0
 41
100.0
 42
100.0
 43
100.0
  0
INSERT
  5
24951
330
242B0
100
AcDbEntity
  8
寸法
 62
     0
 48
50.0
370
    -2
100
AcDbBlockReference
  2
_DOTSMALL
 10
6693.6
 20
8283.817543578534
 30
0.0
 41
100.0
 42
100.0
 43
100.0
 50
180.0
  0
MTEXT
  5
24952
330
242B0
100
AcDbEntity
  8
寸法
 62
     7
 48
50.0
100
AcDbMText
 10
7095.100000000001
 20
8383.817543578535
 30
0.0
 40
120.0
 41
0.0
 71
     5
 72
     1
  1
\A1;803
  7
STYLE1
 73
     1
 44
1.0
1001
ACAD
1000
MTEXTBEGIN
1070
    73
1070
     1
1070
    44
1040
1.0
1070
    74
1070
     0
1000
MTEXTEND
  0
POINT
  5
24953
330
242B0
100
AcDbEntity
  8
DEFPOINTS
 62
     0
 48
50.0
100
AcDbPoint
 10
7496.6
 20
6956.907777930206
 30
0.0
  0
POINT
  5
24954
330
242B0
100
AcDbEntity
  8
DEFPOINTS
 62
     0
 48
50.0
100
AcDbPoint
 10
6693.6
 20
7756.907777930206
 30
0.0
  0
POINT
  5
24955
330
242B0
100
AcDbEntity
  8
DEFPOINTS
 62
     0
 48
50.0
100
AcDbPoint
 10
6693.6
 20
8283.817543578534
 30
0.0
  0
ENDBLK
  5
242BA
330
242B0
100
AcDbEntity
  8
0
 48
50.0
100
AcDbBlockEnd
  0
BLOCK
  5
242D1
330
242C8
100
AcDbEntity
  8
0
 48
50.0
100
AcDbBlockBegin
  2
*D29
 70
     1
 10
0.0
 20
0.0
 30
0.0
  3
*D29
  1

  0
LINE
  5
25317
330
242C8
100
AcDbEntity
  8
寸法
 62
     0
 48
50.0
370
    -2
100
AcDbLine
 10
7146.600000000001
 20
5861.907777930195
 30
0.0
 11
7146.600000000001
 21
5269.687091109516
 31
0.0
  0
LINE
  5
25318
330
242C8
100
AcDbEntity
  8
寸法
 62
     0
 48
50.0
370
    -2
100
AcDbLine
 10
6693.6
 20
5936.907777930206
 30
0.0
 11
6693.6
 21
5269.687091109516
 31
0.0
  0
LINE
  5
25319
330
242C8
100
AcDbEntity
  8
寸法
 62
     0
 48
50.0
370
    -2
100
AcDbLine
 10
7146.600000000001
 20
5329.687091109516
 30
0.0
 11
6693.6
 21
5329.687091109516
 31
0.0
  0
INSERT
  5
2531A
330
242C8
100
AcDbEntity
  8
寸法
 62
     0
 48
50.0
370
    -2
100
AcDbBlockReference
  2
_DOTSMALL
 10
7146.600000000001
 20
5329.687091109516
 30
0.0
 41
100.0
 42
100.0
 43
100.0
  0
INSERT
  5
2531B
330
242C8
100
AcDbEntity
  8
寸法
 62
     0
 48
50.0
370
    -2
100
AcDbBlockReference
  2
_DOTSMALL
 10
6693.6
 20
5329.687091109516
 30
0.0
 41
100.0
 42
100.0
 43
100.0
 50
180.0
  0
MTEXT
  5
2531C
330
242C8
100
AcDbEntity
  8
寸法
 62
     7
 48
50.0
100
AcDbMText
 10
6920.100000000001
 20
5429.687091109515
 30
0.0
 40
120.0
 41
0.0
 71
     5
 72
     1
  1
\A1;453
  7
STYLE1
 73
     1
 44
1.0
1001
ACAD
1000
MTEXTBEGIN
1070
    73
1070
     1
1070
    44
1040
1.0
1070
    74
1070
     0
1000
MTEXTEND
  0
POINT
  5
2531D
330
242C8
100
AcDbEntity
  8
DEFPOINTS
 62
     0
 48
50.0
100
AcDbPoint
 10
7146.600000000001
 20
5881.907777930194
 30
0.0
  0
POINT
  5
2531E
330
242C8
100
AcDbEntity
  8
DEFPOINTS
 62
     0
 48
50.0
100
AcDbPoint
 10
6693.6
 20
5956.907777930206
 30
0.0
  0
POINT
  5
2531F
330
242C8
100
AcDbEntity
  8
DEFPOINTS
 62
     0
 48
50.0
100
AcDbPoint
 10
6693.6
 20
5329.687091109516
 30
0.0
  0
ENDBLK
  5
242D2
330
242C8
100
AcDbEntity
  8
0
 48
50.0
100
AcDbBlockEnd
  0
BLOCK
  5
242DE
330
242D3
100
AcDbEntity
  8
0
 48
50.0
100
AcDbBlockBegin
  2
*D30
 70
     1
 10
0.0
 20
0.0
 30
0.0
  3
*D30
  1

  0
LINE
  5
2492F
330
242D3
100
AcDbEntity
  8
寸法
 62
     0
 48
50.0
370
    -2
100
AcDbLine
 10
6746.600000000007
 20
6079.907777930208
 30
0.0
 11
5529.647002158784
 21
6079.907777930209
 31
0.0
  0
LINE
  5
24930
330
242D3
100
AcDbEntity
  8
寸法
 62
     0
 48
50.0
370
    -2
100
AcDbLine
 10
6673.6
 20
5956.907777930206
 30
0.0
 11
5529.647002158784
 21
5956.907777930207
 31
0.0
  0
LINE
  5
24931
330
242D3
100
AcDbEntity
  8
寸法
 62
     0
 48
50.0
370
    -2
100
AcDbLine
 10
5589.647002158784
 20
6079.907777930209
 30
0.0
 11
5589.647002158784
 21
5956.907777930207
 31
0.0
  0
LINE
  5
24932
330
242D3
100
AcDbEntity
  8
寸法
 62
     0
 48
50.0
370
    -2
100
AcDbLine
 10
5589.647002158784
 20
5956.907777930207
 30
0.0
 11
5589.647002158784
 21
5545.315894838168
 31
0.0
  0
INSERT
  5
24933
330
242D3
100
AcDbEntity
  8
寸法
 62
     0
 48
50.0
370
    -2
100
AcDbBlockReference
  2
_DOTSMALL
 10
5589.647002158784
 20
6079.907777930209
 30
0.0
 41
100.0
 42
100.0
 43
100.0
 50
90.0
  0
INSERT
  5
24934
330
242D3
100
AcDbEntity
  8
寸法
 62
     0
 48
50.0
370
    -2
100
AcDbBlockReference
  2
_DOTSMALL
 10
5589.647002158784
 20
5956.907777930207
 30
0.0
 41
100.0
 42
100.0
 43
100.0
 50
270.0
  0
MTEXT
  5
24935
330
242D3
100
AcDbEntity
  8
寸法
 62
     7
 48
50.0
100
AcDbMText
 10
5489.635191135161
 20
5683.801176212408
 30
0.0
 40
120.0
 41
0.0
 71
     5
 72
     1
  1
\A1;123
  7
STYLE1
 11
0.0000000000000001
 21
1.0
 31
0.0
 73
     1
 44
1.0
1001
ACAD
1000
MTEXTBEGIN
1070
    73
1070
     1
1070
    44
1040
1.0
1070
    74
1070
     0
1000
MTEXTEND
  0
POINT
  5
24936
330
242D3
100
AcDbEntity
  8
DEFPOINTS
 62
     0
 48
50.0
100
AcDbPoint
 10
6766.600000000008
 20
6079.907777930208
 30
0.0
  0
POINT
  5
24937
330
242D3
100
AcDbEntity
  8
DEFPOINTS
 62
     0
 48
50.0
100
AcDbPoint
 10
6693.6
 20
5956.907777930206
 30
0.0
  0
POINT
  5
24938
330
242D3
100
AcDbEntity
  8
DEFPOINTS
 62
     0
 48
50.0
100
AcDbPoint
 10
5589.647002158784
 20
5956.907777930207
 30
0.0
  0
ENDBLK
  5
242DF
330
242D3
100
AcDbEntity
  8
0
 48
50.0
100
AcDbBlockEnd
  0
BLOCK
  5
242EA
330
242E0
100
AcDbEntity
  8
0
 48
50.0
100
AcDbBlockBegin
  2
*D31
 70
     1
 10
0.0
 20
0.0
 30
0.0
  3
*D31
  1

  0
LINE
  5
248CF
330
242E0
100
AcDbEntity
  8
寸法
 62
     0
 48
50.0
370
    -2
100
AcDbLine
 10
6746.6
 20
7633.907777930206
 30
0.0
 11
5529.647002158785
 21
7633.907777930208
 31
0.0
  0
LINE
  5
248D0
330
242E0
100
AcDbEntity
  8
寸法
 62
     0
 48
50.0
370
    -2
100
AcDbLine
 10
6746.600000000007
 20
6079.907777930208
 30
0.0
 11
5529.647002158784
 21
6079.907777930209
 31
0.0
  0
LINE
  5
248D1
330
242E0
100
AcDbEntity
  8
寸法
 62
     0
 48
50.0
370
    -2
100
AcDbLine
 10
5589.647002158784
 20
7633.907777930208
 30
0.0
 11
5589.647002158784
 21
6079.907777930209
 31
0.0
  0
INSERT
  5
248D2
330
242E0
100
AcDbEntity
  8
寸法
 62
     0
 48
50.0
370
    -2
100
AcDbBlockReference
  2
_DOTSMALL
 10
5589.647002158784
 20
7633.907777930208
 30
0.0
 41
100.0
 42
100.0
 43
100.0
 50
90.0
  0
INSERT
  5
248D3
330
242E0
100
AcDbEntity
  8
寸法
 62
     0
 48
50.0
370
    -2
100
AcDbBlockReference
  2
_DOTSMALL
 10
5589.647002158784
 20
6079.907777930209
 30
0.0
 41
100.0
 42
100.0
 43
100.0
 50
270.0
  0
MTEXT
  5
248D4
330
242E0
100
AcDbEntity
  8
寸法
 62
     7
 48
50.0
100
AcDbMText
 10
5489.647002158783
 20
6856.907777930207
 30
0.0
 40
120.0
 41
0.0
 71
     5
 72
     1
  1
\A1;1554
  7
STYLE1
 11
0.0000000000000001
 21
1.0
 31
0.0
 73
     1
 44
1.0
1001
ACAD
1000
MTEXTBEGIN
1070
    73
1070
     1
1070
    44
1040
1.0
1070
    74
1070
     0
1000
MTEXTEND
  0
POINT
  5
248D5
330
242E0
100
AcDbEntity
  8
DEFPOINTS
 62
     0
 48
50.0
100
AcDbPoint
 10
6766.600000000001
 20
7633.907777930206
 30
0.0
  0
POINT
  5
248D6
330
242E0
100
AcDbEntity
  8
DEFPOINTS
 62
     0
 48
50.0
100
AcDbPoint
 10
6766.600000000008
 20
6079.907777930208
 30
0.0
  0
POINT
  5
248D7
330
242E0
100
AcDbEntity
  8
DEFPOINTS
 62
     0
 48
50.0
100
AcDbPoint
 10
5589.647002158784
 20
6079.907777930209
 30
0.0
  0
ENDBLK
  5
242EB
330
242E0
100
AcDbEntity
  8
0
 48
50.0
100
AcDbBlockEnd
  0
BLOCK
  5
242F5
330
242EC
100
AcDbEntity
  8
0
 48
50.0
100
AcDbBlockBegin
  2
*D32
 70
     1
 10
0.0
 20
0.0
 30
0.0
  3
*D32
  1

  0
LINE
  5
248C6
330
242EC
100
AcDbEntity
  8
寸法
 62
     0
 48
50.0
370
    -2
100
AcDbLine
 10
6673.6
 20
5956.907777930206
 30
0.0
 11
5277.703905439385
 21
5956.907777930207
 31
0.0
  0
LINE
  5
248C7
330
242EC
100
AcDbEntity
  8
寸法
 62
     0
 48
50.0
370
    -2
100
AcDbLine
 10
6673.6
 20
7756.907777930206
 30
0.0
 11
5277.703905439387
 21
7756.907777930208
 31
0.0
  0
LINE
  5
248C8
330
242EC
100
AcDbEntity
  8
寸法
 62
     0
 48
50.0
370
    -2
100
AcDbLine
 10
5337.703905439385
 20
5956.907777930207
 30
0.0
 11
5337.703905439386
 21
7756.907777930208
 31
0.0
  0
INSERT
  5
248C9
330
242EC
100
AcDbEntity
  8
寸法
 62
     0
 48
50.0
370
    -2
100
AcDbBlockReference
  2
_DOTSMALL
 10
5337.703905439385
 20
5956.907777930207
 30
0.0
 41
100.0
 42
100.0
 43
100.0
 50
270.0
  0
INSERT
  5
248CA
330
242EC
100
AcDbEntity
  8
寸法
 62
     0
 48
50.0
370
    -2
100
AcDbBlockReference
  2
_DOTSMALL
 10
5337.703905439386
 20
7756.907777930208
 30
0.0
 41
100.0
 42
100.0
 43
100.0
 50
90.0
  0
MTEXT
  5
248CB
330
242EC
100
AcDbEntity
  8
寸法
 62
     7
 48
50.0
100
AcDbMText
 10
5237.703905439385
 20
6856.907777930207
 30
0.0
 40
120.0
 41
0.0
 71
     5
 72
     1
  1
\A1;1800
  7
STYLE1
 11
0.0000000000000001
 21
1.0
 31
0.0
 73
     1
 44
1.0
1001
ACAD
1000
MTEXTBEGIN
1070
    73
1070
     1
1070
    44
1040
1.0
1070
    74
1070
     0
1000
MTEXTEND
  0
POINT
  5
248CC
330
242EC
100
AcDbEntity
  8
DEFPOINTS
 62
     0
 48
50.0
100
AcDbPoint
 10
6693.6
 20
5956.907777930206
 30
0.0
  0
POINT
  5
248CD
330
242EC
100
AcDbEntity
  8
DEFPOINTS
 62
     0
 48
50.0
100
AcDbPoint
 10
6693.6
 20
7756.907777930206
 30
0.0
  0
POINT
  5
248CE
330
242EC
100
AcDbEntity
  8
DEFPOINTS
 62
     0
 48
50.0
100
AcDbPoint
 10
5337.703905439386
 20
7756.907777930208
 30
0.0
  0
ENDBLK
  5
242F6
330
242EC
100
AcDbEntity
  8
0
 48
50.0
100
AcDbBlockEnd
  0
BLOCK
  5
2434B
330
24340
100
AcDbEntity
  8
0
 48
50.0
100
AcDbBlockBegin
  2
*D33
 70
     1
 10
0.0
 20
0.0
 30
0.0
  3
*D33
  1

  0
LINE
  5
25BCB
330
24340
100
AcDbEntity
  8
寸法
 62
     0
 48
50.0
370
    -2
100
AcDbLine
 10
6943.6
 20
7636.907777930206
 30
0.0
 11
7200.3072498761
 21
7636.907777930206
 31
0.0
  0
LINE
  5
25BCC
330
24340
100
AcDbEntity
  8
寸法
 62
     0
 48
50.0
370
    -2
100
AcDbLine
 10
6943.6
 20
7526.907777930202
 30
0.0
 11
7200.3072498761
 21
7526.907777930202
 31
0.0
  0
LINE
  5
25BCD
330
24340
100
AcDbEntity
  8
寸法
 62
     0
 48
50.0
370
    -2
100
AcDbLine
 10
7140.307249876099
 20
7636.907777930206
 30
0.0
 11
7140.307249876099
 21
7526.907777930202
 31
0.0
  0
LINE
  5
25BCE
330
24340
100
AcDbEntity
  8
寸法
 62
     0
 48
50.0
370
    -2
100
AcDbLine
 10
7140.307249876099
 20
7526.907777930202
 30
0.0
 11
7140.307249876099
 21
7042.801478717604
 31
0.0
  0
INSERT
  5
25BCF
330
24340
100
AcDbEntity
  8
寸法
 62
     0
 48
50.0
370
    -2
100
AcDbBlockReference
  2
_DOTSMALL
 10
7140.307249876099
 20
7636.907777930206
 30
0.0
 41
100.0
 42
100.0
 43
100.0
 50
90.0
  0
INSERT
  5
25BD0
330
24340
100
AcDbEntity
  8
寸法
 62
     0
 48
50.0
370
    -2
100
AcDbBlockReference
  2
_DOTSMALL
 10
7140.307249876099
 20
7526.907777930202
 30
0.0
 41
100.0
 42
100.0
 43
100.0
 50
270.0
  0
MTEXT
  5
25BD1
330
24340
100
AcDbEntity
  8
寸法
 62
     7
 48
50.0
100
AcDbMText
 10
7040.307249876097
 20
7166.848722812094
 30
0.0
 40
120.0
 41
0.0
 71
     5
 72
     1
  1
\A1;110
  7
STYLE1
 11
0.0000000000000001
 21
1.0
 31
0.0
 73
     1
 44
1.0
1001
ACAD
1000
MTEXTBEGIN
1070
    73
1070
     1
1070
    44
1040
1.0
1070
    74
1070
     0
1000
MTEXTEND
  0
POINT
  5
25BD2
330
24340
100
AcDbEntity
  8
DEFPOINTS
 62
     0
 48
50.0
100
AcDbPoint
 10
6923.6
 20
7636.907777930206
 30
0.0
  0
POINT
  5
25BD3
330
24340
100
AcDbEntity
  8
DEFPOINTS
 62
     0
 48
50.0
100
AcDbPoint
 10
6923.6
 20
7526.907777930202
 30
0.0
  0
POINT
  5
25BD4
330
24340
100
AcDbEntity
  8
DEFPOINTS
 62
     0
 48
50.0
100
AcDbPoint
 10
7140.307249876099
 20
7526.907777930202
 30
0.0
  0
ENDBLK
  5
2434C
330
24340
100
AcDbEntity
  8
0
 48
50.0
100
AcDbBlockEnd
  0
BLOCK
  5
24357
330
2434D
100
AcDbEntity
  8
0
 48
50.0
100
AcDbBlockBegin
  2
*D34
 70
     1
 10
0.0
 20
0.0
 30
0.0
  3
*D34
  1

  0
LINE
  5
248EC
330
2434D
100
AcDbEntity
  8
寸法
 62
     0
 48
50.0
370
    -2
100
AcDbLine
 10
6673.6
 20
5956.907777930207
 30
0.0
 11
5845.222303205811
 21
5956.907777930208
 31
0.0
  0
LINE
  5
248ED
330
2434D
100
AcDbEntity
  8
寸法
 62
     0
 48
50.0
370
    -2
100
AcDbLine
 10
7376.6
 20
6856.907777930207
 30
0.0
 11
5845.222303205812
 21
6856.907777930207
 31
0.0
  0
LINE
  5
248EE
330
2434D
100
AcDbEntity
  8
寸法
 62
     0
 48
50.0
370
    -2
100
AcDbLine
 10
5905.22230320581
 20
5956.907777930208
 30
0.0
 11
5905.222303205812
 21
6856.907777930207
 31
0.0
  0
INSERT
  5
248EF
330
2434D
100
AcDbEntity
  8
寸法
 62
     0
 48
50.0
370
    -2
100
AcDbBlockReference
  2
_DOTSMALL
 10
5905.22230320581
 20
5956.907777930208
 30
0.0
 41
100.0
 42
100.0
 43
100.0
 50
270.0
  0
INSERT
  5
248F0
330
2434D
100
AcDbEntity
  8
寸法
 62
     0
 48
50.0
370
    -2
100
AcDbBlockReference
  2
_DOTSMALL
 10
5905.222303205812
 20
6856.907777930207
 30
0.0
 41
100.0
 42
100.0
 43
100.0
 50
90.0
  0
MTEXT
  5
248F1
330
2434D
100
AcDbEntity
  8
寸法
 62
     7
 48
50.0
100
AcDbMText
 10
5805.22230320581
 20
6406.907777930207
 30
0.0
 40
120.0
 41
0.0
 71
     5
 72
     1
  1
\A1;900
  7
STYLE1
 11
0.0000000000000001
 21
1.0
 31
0.0
 73
     1
 44
1.0
1001
ACAD
1000
MTEXTBEGIN
1070
    73
1070
     1
1070
    44
1040
1.0
1070
    74
1070
     0
1000
MTEXTEND
  0
POINT
  5
248F2
330
2434D
100
AcDbEntity
  8
DEFPOINTS
 62
     0
 48
50.0
100
AcDbPoint
 10
6693.6
 20
5956.907777930207
 30
0.0
  0
POINT
  5
248F3
330
2434D
100
AcDbEntity
  8
DEFPOINTS
 62
     0
 48
50.0
100
AcDbPoint
 10
7396.600000000001
 20
6856.907777930207
 30
0.0
  0
POINT
  5
248F4
330
2434D
100
AcDbEntity
  8
DEFPOINTS
 62
     0
 48
50.0
100
AcDbPoint
 10
5905.222303205812
 20
6856.907777930207
 30
0.0
  0
ENDBLK
  5
24358
330
2434D
100
AcDbEntity
  8
0
 48
50.0
100
AcDbBlockEnd
  0
BLOCK
  5
24362
330
24359
100
AcDbEntity
  8
0
 48
50.0
100
AcDbBlockBegin
  2
*D35
 70
     1
 10
0.0
 20
0.0
 30
0.0
  3
*D35
  1

  0
LINE
  5
248B2
330
24359
100
AcDbEntity
  8
寸法
 62
     0
 48
50.0
370
    -2
100
AcDbLine
 10
7376.6
 20
6856.907777930207
 30
0.0
 11
5845.222303205812
 21
6856.907777930207
 31
0.0
  0
LINE
  5
248B3
330
24359
100
AcDbEntity
  8
寸法
 62
     0
 48
50.0
370
    -2
100
AcDbLine
 10
6673.6
 20
7756.907777930205
 30
0.0
 11
5845.222303205812
 21
7756.907777930206
 31
0.0
  0
LINE
  5
248B4
330
24359
100
AcDbEntity
  8
寸法
 62
     0
 48
50.0
370
    -2
100
AcDbLine
 10
5905.222303205812
 20
6856.907777930207
 30
0.0
 11
5905.222303205812
 21
7756.907777930206
 31
0.0
  0
INSERT
  5
248B5
330
24359
100
AcDbEntity
  8
寸法
 62
     0
 48
50.0
370
    -2
100
AcDbBlockReference
  2
_DOTSMALL
 10
5905.222303205812
 20
6856.907777930207
 30
0.0
 41
100.0
 42
100.0
 43
100.0
 50
270.0
  0
INSERT
  5
248B6
330
24359
100
AcDbEntity
  8
寸法
 62
     0
 48
50.0
370
    -2
100
AcDbBlockReference
  2
_DOTSMALL
 10
5905.222303205812
 20
7756.907777930206
 30
0.0
 41
100.0
 42
100.0
 43
100.0
 50
90.0
  0
MTEXT
  5
248B7
330
24359
100
AcDbEntity
  8
寸法
 62
     7
 48
50.0
100
AcDbMText
 10
5805.22230320581
 20
7306.907777930208
 30
0.0
 40
120.0
 41
0.0
 71
     5
 72
     1
  1
\A1;900
  7
STYLE1
 11
0.0000000000000001
 21
1.0
 31
0.0
 73
     1
 44
1.0
1001
ACAD
1000
MTEXTBEGIN
1070
    73
1070
     1
1070
    44
1040
1.0
1070
    74
1070
     0
1000
MTEXTEND
  0
POINT
  5
248B8
330
24359
100
AcDbEntity
  8
DEFPOINTS
 62
     0
 48
50.0
100
AcDbPoint
 10
7396.600000000001
 20
6856.907777930207
 30
0.0
  0
POINT
  5
248B9
330
24359
100
AcDbEntity
  8
DEFPOINTS
 62
     0
 48
50.0
100
AcDbPoint
 10
6693.6
 20
7756.907777930205
 30
0.0
  0
POINT
  5
248BA
330
24359
100
AcDbEntity
  8
DEFPOINTS
 62
     0
 48
50.0
100
AcDbPoint
 10
5905.222303205812
 20
7756.907777930206
 30
0.0
  0
ENDBLK
  5
24363
330
24359
100
AcDbEntity
  8
0
 48
50.0
100
AcDbBlockEnd
  0
BLOCK
  5
24D15
330
24D0A
100
AcDbEntity
  8
0
 48
50.0
100
AcDbBlockBegin
  2
*D36
 70
     1
 10
0.0
 20
0.0
 30
0.0
  3
*D36
  1

  0
LINE
  5
2601A
330
24D0A
100
AcDbEntity
  8
寸法
 62
     0
 48
50.0
370
    -2
100
AcDbLine
 10
9633.600000000001
 20
7506.907777930206
 30
0.0
 11
9633.600000000001
 21
7239.199110429833
 31
0.0
  0
LINE
  5
2601B
330
24D0A
100
AcDbEntity
  8
寸法
 62
     0
 48
50.0
370
    -2
100
AcDbLine
 10
9523.6
 20
7506.907777930205
 30
0.0
 11
9523.6
 21
7239.199110429833
 31
0.0
  0
LINE
  5
2601C
330
24D0A
100
AcDbEntity
  8
寸法
 62
     0
 48
50.0
370
    -2
100
AcDbLine
 10
9633.600000000001
 20
7299.199110429832
 30
0.0
 11
9523.6
 21
7299.199110429832
 31
0.0
  0
LINE
  5
2601D
330
24D0A
100
AcDbEntity
  8
寸法
 62
     0
 48
50.0
370
    -2
100
AcDbLine
 10
9523.6
 20
7299.199110429832
 30
0.0
 11
9129.493700787401
 21
7299.199110429832
 31
0.0
  0
INSERT
  5
2601E
330
24D0A
100
AcDbEntity
  8
寸法
 62
     0
 48
50.0
370
    -2
100
AcDbBlockReference
  2
_DOTSMALL
 10
9633.600000000001
 20
7299.199110429832
 30
0.0
 41
100.0
 42
100.0
 43
100.0
  0
INSERT
  5
2601F
330
24D0A
100
AcDbEntity
  8
寸法
 62
     0
 48
50.0
370
    -2
100
AcDbBlockReference
  2
_DOTSMALL
 10
9523.6
 20
7299.199110429832
 30
0.0
 41
100.0
 42
100.0
 43
100.0
 50
180.0
  0
MTEXT
  5
26020
330
24D0A
100
AcDbEntity
  8
寸法
 62
     7
 48
50.0
100
AcDbMText
 10
9253.540944881889
 20
7399.199110429832
 30
0.0
 40
120.0
 41
0.0
 71
     5
 72
     1
  1
\A1;110
  7
STYLE1
 73
     1
 44
1.0
1001
ACAD
1000
MTEXTBEGIN
1070
    73
1070
     1
1070
    44
1040
1.0
1070
    74
1070
     0
1000
MTEXTEND
  0
POINT
  5
26021
330
24D0A
100
AcDbEntity
  8
DEFPOINTS
 62
     0
 48
50.0
100
AcDbPoint
 10
9633.600000000001
 20
7526.907777930206
 30
0.0
  0
POINT
  5
26022
330
24D0A
100
AcDbEntity
  8
DEFPOINTS
 62
     0
 48
50.0
100
AcDbPoint
 10
9523.6
 20
7526.907777930204
 30
0.0
  0
POINT
  5
26023
330
24D0A
100
AcDbEntity
  8
DEFPOINTS
 62
     0
 48
50.0
100
AcDbPoint
 10
9523.6
 20
7299.199110429832
 30
0.0
  0
ENDBLK
  5
24D16
330
24D0A
100
AcDbEntity
  8
0
 48
50.0
100
AcDbBlockEnd
  0
BLOCK
  5
24D22
330
24D17
100
AcDbEntity
  8
0
 48
50.0
100
AcDbBlockBegin
  2
*D37
 70
     1
 10
0.0
 20
0.0
 30
0.0
  3
*D37
  1

  0
LINE
  5
25BAD
330
24D17
100
AcDbEntity
  8
寸法
 62
     0
 48
50.0
370
    -2
100
AcDbLine
 10
9753.6
 20
7506.907777930206
 30
0.0
 11
9753.6
 21
7239.199110429833
 31
0.0
  0
LINE
  5
25BAE
330
24D17
100
AcDbEntity
  8
寸法
 62
     0
 48
50.0
370
    -2
100
AcDbLine
 10
9633.599999999999
 20
7506.907777930206
 30
0.0
 11
9633.599999999999
 21
7239.199110429833
 31
0.0
  0
LINE
  5
25BAF
330
24D17
100
AcDbEntity
  8
寸法
 62
     0
 48
50.0
370
    -2
100
AcDbLine
 10
9633.599999999999
 20
7299.199110429832
 30
0.0
 11
9753.6
 21
7299.199110429832
 31
0.0
  0
LINE
  5
25BB0
330
24D17
100
AcDbEntity
  8
寸法
 62
     0
 48
50.0
370
    -2
100
AcDbLine
 10
9753.6
 20
7299.199110429832
 30
0.0
 11
10159.7062992126
 21
7299.199110429832
 31
0.0
  0
INSERT
  5
25BB1
330
24D17
100
AcDbEntity
  8
寸法
 62
     0
 48
50.0
370
    -2
100
AcDbBlockReference
  2
_DOTSMALL
 10
9633.599999999999
 20
7299.199110429832
 30
0.0
 41
100.0
 42
100.0
 43
100.0
 50
180.0
  0
INSERT
  5
25BB2
330
24D17
100
AcDbEntity
  8
寸法
 62
     0
 48
50.0
370
    -2
100
AcDbBlockReference
  2
_DOTSMALL
 10
9753.6
 20
7299.199110429832
 30
0.0
 41
100.0
 42
100.0
 43
100.0
  0
MTEXT
  5
25BB3
330
24D17
100
AcDbEntity
  8
寸法
 62
     7
 48
50.0
100
AcDbMText
 10
10023.65905511811
 20
7399.210921453454
 30
0.0
 40
120.0
 41
0.0
 71
     5
 72
     1
  1
\A1;120
  7
STYLE1
 73
     1
 44
1.0
1001
ACAD
1000
MTEXTBEGIN
1070
    73
1070
     1
1070
    44
1040
1.0
1070
    74
1070
     0
1000
MTEXTEND
  0
POINT
  5
25BB4
330
24D17
100
AcDbEntity
  8
DEFPOINTS
 62
     0
 48
50.0
100
AcDbPoint
 10
9753.6
 20
7526.907777930206
 30
0.0
  0
POINT
  5
25BB5
330
24D17
100
AcDbEntity
  8
DEFPOINTS
 62
     0
 48
50.0
100
AcDbPoint
 10
9633.599999999999
 20
7526.907777930206
 30
0.0
  0
POINT
  5
25BB6
330
24D17
100
AcDbEntity
  8
DEFPOINTS
 62
     0
 48
50.0
100
AcDbPoint
 10
9633.599999999999
 20
7299.199110429832
 30
0.0
  0
ENDBLK
  5
24D23
330
24D17
100
AcDbEntity
  8
0
 48
50.0
100
AcDbBlockEnd
  0
BLOCK
  5
250A8
330
2509D
100
AcDbEntity
  8
0
 48
50.0
100
AcDbBlockBegin
  2
*D38
 70
     1
 10
0.0
 20
0.0
 30
0.0
  3
*D38
  1

  0
LINE
  5
25C07
330
2509D
100
AcDbEntity
  8
寸法
 62
     0
 48
50.0
370
    -2
100
AcDbLine
 10
7022.197085004766
 20
6076.907777930213
 30
0.0
 11
6982.197085004765
 21
6076.907777930213
 31
0.0
  0
LINE
  5
25C08
330
2509D
100
AcDbEntity
  8
寸法
 62
     0
 48
50.0
370
    -2
100
AcDbLine
 10
6943.6
 20
5956.907777930224
 30
0.0
 11
7102.197085004765
 21
5956.907777930224
 31
0.0
  0
LINE
  5
25C09
330
2509D
100
AcDbEntity
  8
寸法
 62
     0
 48
50.0
370
    -2
100
AcDbLine
 10
7042.197085004764
 20
6076.907777930213
 30
0.0
 11
7042.197085004764
 21
5956.907777930224
 31
0.0
  0
LINE
  5
25C0A
330
2509D
100
AcDbEntity
  8
寸法
 62
     0
 48
50.0
370
    -2
100
AcDbLine
 10
7042.197085004764
 20
5956.907777930224
 30
0.0
 11
7042.197085004764
 21
5550.801478717624
 31
0.0
  0
INSERT
  5
25C0B
330
2509D
100
AcDbEntity
  8
寸法
 62
     0
 48
50.0
370
    -2
100
AcDbBlockReference
  2
_DOTSMALL
 10
7042.197085004764
 20
6076.907777930213
 30
0.0
 41
100.0
 42
100.0
 43
100.0
 50
90.0
  0
INSERT
  5
25C0C
330
2509D
100
AcDbEntity
  8
寸法
 62
     0
 48
50.0
370
    -2
100
AcDbBlockReference
  2
_DOTSMALL
 10
7042.197085004764
 20
5956.907777930224
 30
0.0
 41
100.0
 42
100.0
 43
100.0
 50
270.0
  0
MTEXT
  5
25C0D
330
2509D
100
AcDbEntity
  8
寸法
 62
     7
 48
50.0
100
AcDbMText
 10
6942.185273981142
 20
5686.848722812114
 30
0.0
 40
120.0
 41
0.0
 71
     5
 72
     1
  1
\A1;120
  7
STYLE1
 11
0.0000000000000001
 21
1.0
 31
0.0
 73
     1
 44
1.0
1001
ACAD
1000
MTEXTBEGIN
1070
    73
1070
     1
1070
    44
1040
1.0
1070
    74
1070
     0
1000
MTEXTEND
  0
POINT
  5
25C0E
330
2509D
100
AcDbEntity
  8
DEFPOINTS
 62
     0
 48
50.0
100
AcDbPoint
 10
7042.197085004764
 20
6076.907777930213
 30
0.0
  0
POINT
  5
25C0F
330
2509D
100
AcDbEntity
  8
DEFPOINTS
 62
     0
 48
50.0
100
AcDbPoint
 10
6923.6
 20
5956.907777930224
 30
0.0
  0
POINT
  5
25C10
330
2509D
100
AcDbEntity
  8
DEFPOINTS
 62
     0
 48
50.0
100
AcDbPoint
 10
7042.197085004764
 20
5956.907777930224
 30
0.0
  0
ENDBLK
  5
250A9
330
2509D
100
AcDbEntity
  8
0
 48
50.0
100
AcDbBlockEnd
  0
BLOCK
  5
250B5
330
250AA
100
AcDbEntity
  8
0
 48
50.0
100
AcDbBlockBegin
  2
*D39
 70
     1
 10
0.0
 20
0.0
 30
0.0
  3
*D39
  1

  0
LINE
  5
25BFD
330
250AA
100
AcDbEntity
  8
寸法
 62
     0
 48
50.0
370
    -2
100
AcDbLine
 10
7022.197085004766
 20
6076.90777793021
 30
0.0
 11
6982.197085004765
 21
6076.90777793021
 31
0.0
  0
LINE
  5
25BFE
330
250AA
100
AcDbEntity
  8
寸法
 62
     0
 48
50.0
370
    -2
100
AcDbLine
 10
6943.6
 20
6186.907777930228
 30
0.0
 11
7102.197085004765
 21
6186.907777930228
 31
0.0
  0
LINE
  5
25BFF
330
250AA
100
AcDbEntity
  8
寸法
 62
     0
 48
50.0
370
    -2
100
AcDbLine
 10
7042.197085004764
 20
6076.90777793021
 30
0.0
 11
7042.197085004765
 21
6186.907777930228
 31
0.0
  0
LINE
  5
25C00
330
250AA
100
AcDbEntity
  8
寸法
 62
     0
 48
50.0
370
    -2
100
AcDbLine
 10
7042.197085004765
 20
6186.907777930228
 30
0.0
 11
7042.197085004765
 21
6547.002266119204
 31
0.0
  0
INSERT
  5
25C01
330
250AA
100
AcDbEntity
  8
寸法
 62
     0
 48
50.0
370
    -2
100
AcDbBlockReference
  2
_DOTSMALL
 10
7042.197085004764
 20
6076.90777793021
 30
0.0
 41
100.0
 42
100.0
 43
100.0
 50
270.0
  0
INSERT
  5
25C02
330
250AA
100
AcDbEntity
  8
寸法
 62
     0
 48
50.0
370
    -2
100
AcDbBlockReference
  2
_DOTSMALL
 10
7042.197085004765
 20
6186.907777930228
 30
0.0
 41
100.0
 42
100.0
 43
100.0
 50
90.0
  0
MTEXT
  5
25C03
330
250AA
100
AcDbEntity
  8
寸法
 62
     7
 48
50.0
100
AcDbMText
 10
6942.197085004764
 20
6422.955022024719
 30
0.0
 40
120.0
 41
0.0
 71
     5
 72
     1
  1
\A1;110
  7
STYLE1
 11
0.0000000000000001
 21
1.0
 31
0.0
 73
     1
 44
1.0
1001
ACAD
1000
MTEXTBEGIN
1070
    73
1070
     1
1070
    44
1040
1.0
1070
    74
1070
     0
1000
MTEXTEND
  0
POINT
  5
25C04
330
250AA
100
AcDbEntity
  8
DEFPOINTS
 62
     0
 48
50.0
100
AcDbPoint
 10
7042.197085004764
 20
6076.90777793021
 30
0.0
  0
POINT
  5
25C05
330
250AA
100
AcDbEntity
  8
DEFPOINTS
 62
     0
 48
50.0
100
AcDbPoint
 10
6923.6
 20
6186.907777930228
 30
0.0
  0
POINT
  5
25C06
330
250AA
100
AcDbEntity
  8
DEFPOINTS
 62
     0
 48
50.0
100
AcDbPoint
 10
7042.197085004765
 20
6186.907777930228
 30
0.0
  0
ENDBLK
  5
250B6
330
250AA
100
AcDbEntity
  8
0
 48
50.0
100
AcDbBlockEnd
  0
BLOCK
  5
250C1
330
250B7
100
AcDbEntity
  8
0
 48
50.0
100
AcDbBlockBegin
  2
*D40
 70
     1
 10
0.0
 20
0.0
 30
0.0
  3
*D40
  1

  0
LINE
  5
252E5
330
250B7
100
AcDbEntity
  8
寸法
 62
     0
 48
50.0
370
    -2
100
AcDbLine
 10
9301.600000000002
 20
5861.907777930226
 30
0.0
 11
9301.600000000002
 21
5269.687091109516
 31
0.0
  0
LINE
  5
252E6
330
250B7
100
AcDbEntity
  8
寸法
 62
     0
 48
50.0
370
    -2
100
AcDbLine
 10
7146.600000000001
 20
5861.907777930258
 30
0.0
 11
7146.600000000001
 21
5269.687091109516
 31
0.0
  0
LINE
  5
252E7
330
250B7
100
AcDbEntity
  8
寸法
 62
     0
 48
50.0
370
    -2
100
AcDbLine
 10
9301.600000000002
 20
5329.687091109516
 30
0.0
 11
7146.600000000001
 21
5329.687091109516
 31
0.0
  0
INSERT
  5
252E8
330
250B7
100
AcDbEntity
  8
寸法
 62
     0
 48
50.0
370
    -2
100
AcDbBlockReference
  2
_DOTSMALL
 10
9301.600000000002
 20
5329.687091109516
 30
0.0
 41
100.0
 42
100.0
 43
100.0
  0
INSERT
  5
252E9
330
250B7
100
AcDbEntity
  8
寸法
 62
     0
 48
50.0
370
    -2
100
AcDbBlockReference
  2
_DOTSMALL
 10
7146.600000000001
 20
5329.687091109516
 30
0.0
 41
100.0
 42
100.0
 43
100.0
 50
180.0
  0
MTEXT
  5
252EA
330
250B7
100
AcDbEntity
  8
寸法
 62
     7
 48
50.0
100
AcDbMText
 10
8224.100000000003
 20
5429.698902133138
 30
0.0
 40
120.0
 41
0.0
 71
     5
 72
     1
  1
\A1;扉の幅 2155
  7
STYLE1
 73
     1
 44
1.0
1001
ACAD
1000
MTEXTBEGIN
1070
    73
1070
     1
1070
    44
1040
1.0
1070
    74
1070
     0
1000
MTEXTEND
  0
POINT
  5
252EB
330
250B7
100
AcDbEntity
  8
DEFPOINTS
 62
     0
 48
50.0
100
AcDbPoint
 10
9301.600000000002
 20
5881.907777930226
 30
0.0
  0
POINT
  5
252EC
330
250B7
100
AcDbEntity
  8
DEFPOINTS
 62
     0
 48
50.0
100
AcDbPoint
 10
7146.600000000001
 20
5881.907777930258
 30
0.0
  0
POINT
  5
252ED
330
250B7
100
AcDbEntity
  8
DEFPOINTS
 62
     0
 48
50.0
100
AcDbPoint
 10
7146.600000000001
 20
5329.687091109516
 30
0.0
  0
ENDBLK
  5
250C2
330
250B7
100
AcDbEntity
  8
0
 48
50.0
100
AcDbBlockEnd
  0
BLOCK
  5
250CE
330
250C3
100
AcDbEntity
  8
0
 48
50.0
100
AcDbBlockBegin
  2
*D41
 70
     1
 10
0.0
 20
0.0
 30
0.0
  3
*D41
  1

  0
LINE
  5
25C11
330
250C3
100
AcDbEntity
  8
寸法
 62
     0
 48
50.0
370
    -2
100
AcDbLine
 10
7166.599999999964
 20
5881.907777930252
 30
0.0
 11
7475.743526793876
 21
5881.907777930252
 31
0.0
  0
LINE
  5
25C12
330
250C3
100
AcDbEntity
  8
寸法
 62
     0
 48
50.0
370
    -2
100
AcDbLine
 10
7062.197085004765
 20
6076.90777793021
 30
0.0
 11
7475.743526793876
 21
6076.90777793021
 31
0.0
  0
LINE
  5
25C13
330
250C3
100
AcDbEntity
  8
寸法
 62
     0
 48
50.0
370
    -2
100
AcDbLine
 10
7415.743526793875
 20
6076.90777793021
 30
0.0
 11
7415.743526793875
 21
5881.907777930252
 31
0.0
  0
LINE
  5
25C14
330
250C3
100
AcDbEntity
  8
寸法
 62
     0
 48
50.0
370
    -2
100
AcDbLine
 10
7415.743526793875
 20
5881.907777930252
 30
0.0
 11
7415.743526793875
 21
5504.517895522462
 31
0.0
  0
INSERT
  5
25C15
330
250C3
100
AcDbEntity
  8
寸法
 62
     0
 48
50.0
370
    -2
100
AcDbBlockReference
  2
_DOTSMALL
 10
7415.743526793875
 20
6076.90777793021
 30
0.0
 41
100.0
 42
100.0
 43
100.0
 50
90.0
  0
INSERT
  5
25C16
330
250C3
100
AcDbEntity
  8
寸法
 62
     0
 48
50.0
370
    -2
100
AcDbBlockReference
  2
_DOTSMALL
 10
7415.743526793875
 20
5881.907777930252
 30
0.0
 41
100.0
 42
100.0
 43
100.0
 50
270.0
  0
MTEXT
  5
25C17
330
250C3
100
AcDbEntity
  8
寸法
 62
     7
 48
50.0
100
AcDbMText
 10
7315.743526793875
 20
5643.212836726359
 30
0.0
 40
120.0
 41
0.0
 71
     5
 72
     1
  1
\A1;195
  7
STYLE1
 11
0.0000000000000001
 21
1.0
 31
0.0
 73
     1
 44
1.0
1001
ACAD
1000
MTEXTBEGIN
1070
    73
1070
     1
1070
    44
1040
1.0
1070
    74
1070
     0
1000
MTEXTEND
  0
POINT
  5
25C18
330
250C3
100
AcDbEntity
  8
DEFPOINTS
 62
     0
 48
50.0
100
AcDbPoint
 10
7146.599999999963
 20
5881.907777930252
 30
0.0
  0
POINT
  5
25C19
330
250C3
100
AcDbEntity
  8
DEFPOINTS
 62
     0
 48
50.0
100
AcDbPoint
 10
7042.197085004764
 20
6076.90777793021
 30
0.0
  0
POINT
  5
25C1A
330
250C3
100
AcDbEntity
  8
DEFPOINTS
 62
     0
 48
50.0
100
AcDbPoint
 10
7415.743526793875
 20
6076.90777793021
 30
0.0
  0
ENDBLK
  5
250CF
330
250C3
100
AcDbEntity
  8
0
 48
50.0
100
AcDbBlockEnd
  0
BLOCK
  5
251DA
330
251CE
100
AcDbEntity
  8
0
 48
50.0
100
AcDbBlockBegin
  2
*D42
 70
     1
 10
0.0
 20
0.0
 30
0.0
  3
*D42
  1

  0
LINE
  5
2532B
330
251CE
100
AcDbEntity
  8
寸法
 62
     0
 48
50.0
370
    -2
100
AcDbLine
 10
7126.599999999964
 20
5881.907777930252
 30
0.0
 11
6139.642875057093
 21
5881.907777930253
 31
0.0
  0
LINE
  5
2532C
330
251CE
100
AcDbEntity
  8
寸法
 62
     0
 48
50.0
370
    -2
100
AcDbLine
 10
6673.6
 20
5956.907777930222
 30
0.0
 11
6139.642875057093
 21
5956.907777930223
 31
0.0
  0
LINE
  5
2532D
330
251CE
100
AcDbEntity
  8
寸法
 62
     0
 48
50.0
370
    -2
100
AcDbLine
 10
6199.642875057094
 20
5956.907777930222
 30
0.0
 11
6199.642875057094
 21
6056.907777930223
 31
0.0
  0
LINE
  5
2532E
330
251CE
100
AcDbEntity
  8
寸法
 62
     0
 48
50.0
370
    -2
100
AcDbLine
 10
6199.642875057094
 20
5881.907777930252
 30
0.0
 11
6199.642875057094
 21
5014.937215181774
 31
0.0
  0
LINE
  5
2532F
330
251CE
100
AcDbEntity
  8
寸法
 62
     0
 48
50.0
370
    -2
100
AcDbLine
 10
6199.642875057094
 20
5956.907777930222
 30
0.0
 11
6199.642875057094
 21
5881.907777930252
 31
0.0
  0
INSERT
  5
25330
330
251CE
100
AcDbEntity
  8
寸法
 62
     0
 48
50.0
370
    -2
100
AcDbBlockReference
  2
_DOTSMALL
 10
6199.642875057094
 20
5956.907777930222
 30
0.0
 41
100.0
 42
100.0
 43
100.0
 50
270.0
  0
INSERT
  5
25331
330
251CE
100
AcDbEntity
  8
寸法
 62
     0
 48
50.0
370
    -2
100
AcDbBlockReference
  2
_DOTSMALL
 10
6199.642875057094
 20
5881.907777930252
 30
0.0
 41
100.0
 42
100.0
 43
100.0
 50
90.0
  0
MTEXT
  5
25332
330
251CE
100
AcDbEntity
  8
寸法
 62
     7
 48
50.0
100
AcDbMText
 10
6099.642875057092
 20
5348.422496556015
 30
0.0
 40
120.0
 41
0.0
 71
     5
 72
     1
  1
\A1;扉の出75
  7
STYLE1
 11
0.0000000000000001
 21
1.0
 31
0.0
 73
     1
 44
1.0
1001
ACAD
1000
MTEXTBEGIN
1070
    73
1070
     1
1070
    44
1040
1.0
1070
    74
1070
     0
1000
MTEXTEND
  0
POINT
  5
25333
330
251CE
100
AcDbEntity
  8
DEFPOINTS
 62
     0
 48
50.0
100
AcDbPoint
 10
7146.599999999963
 20
5881.907777930252
 30
0.0
  0
POINT
  5
25334
330
251CE
100
AcDbEntity
  8
DEFPOINTS
 62
     0
 48
50.0
100
AcDbPoint
 10
6693.6
 20
5956.907777930222
 30
0.0
  0
POINT
  5
25335
330
251CE
100
AcDbEntity
  8
DEFPOINTS
 62
     0
 48
50.0
100
AcDbPoint
 10
6199.642875057094
 20
5956.907777930222
 30
0.0
  0
ENDBLK
  5
251DB
330
251CE
100
AcDbEntity
  8
0
 48
50.0
100
AcDbBlockEnd
  0
BLOCK
  5
25622
330
25616
100
AcDbEntity
  8
0
 48
50.0
100
AcDbBlockBegin
  2
*D43
 70
     1
 10
0.0
 20
0.0
 30
0.0
  3
*D43
  1

  0
LINE
  5
257E8
330
25616
100
AcDbEntity
  8
寸法
 62
     0
 48
50.0
370
    -2
100
AcDbLine
 10
5569.647002158785
 20
5911.295673787279
 30
0.0
 11
5277.703905439388
 21
5911.295673787279
 31
0.0
  0
LINE
  5
257E9
330
25616
100
AcDbEntity
  8
寸法
 62
     0
 48
50.0
370
    -2
100
AcDbLine
 10
6673.6
 20
5956.907777930206
 30
0.0
 11
5277.703905439388
 21
5956.907777930207
 31
0.0
  0
LINE
  5
257EA
330
25616
100
AcDbEntity
  8
寸法
 62
     0
 48
50.0
370
    -2
100
AcDbLine
 10
5337.703905439387
 20
5956.907777930207
 30
0.0
 11
5337.703905439387
 21
6056.907777930207
 31
0.0
  0
LINE
  5
257EB
330
25616
100
AcDbEntity
  8
寸法
 62
     0
 48
50.0
370
    -2
100
AcDbLine
 10
5337.703905439387
 20
5911.295673787279
 30
0.0
 11
5337.703905439387
 21
5578.94643138236
 31
0.0
  0
LINE
  5
257EC
330
25616
100
AcDbEntity
  8
寸法
 62
     0
 48
50.0
370
    -2
100
AcDbLine
 10
5337.703905439387
 20
5956.907777930207
 30
0.0
 11
5337.703905439387
 21
5911.295673787279
 31
0.0
  0
INSERT
  5
257ED
330
25616
100
AcDbEntity
  8
寸法
 62
     0
 48
50.0
370
    -2
100
AcDbBlockReference
  2
_DOTSMALL
 10
5337.703905439387
 20
5956.907777930207
 30
0.0
 41
100.0
 42
100.0
 43
100.0
 50
270.0
  0
INSERT
  5
257EE
330
25616
100
AcDbEntity
  8
寸法
 62
     0
 48
50.0
370
    -2
100
AcDbBlockReference
  2
_DOTSMALL
 10
5337.703905439387
 20
5911.295673787279
 30
0.0
 41
100.0
 42
100.0
 43
100.0
 50
90.0
  0
MTEXT
  5
257EF
330
25616
100
AcDbEntity
  8
寸法
 62
     7
 48
50.0
100
AcDbMText
 10
5237.703905439386
 20
5645.121052584819
 30
0.0
 40
120.0
 41
0.0
 71
     5
 72
     1
  1
\A1;a
  7
STYLE1
 11
0.0000000000000001
 21
1.0
 31
0.0
 73
     1
 44
1.0
1001
ACAD
1000
MTEXTBEGIN
1070
    73
1070
     1
1070
    44
1040
1.0
1070
    74
1070
     0
1000
MTEXTEND
  0
POINT
  5
257F0
330
25616
100
AcDbEntity
  8
DEFPOINTS
 62
     0
 48
50.0
100
AcDbPoint
 10
5589.647002158786
 20
5911.295673787279
 30
0.0
  0
POINT
  5
257F1
330
25616
100
AcDbEntity
  8
DEFPOINTS
 62
     0
 48
50.0
100
AcDbPoint
 10
6693.6
 20
5956.907777930206
 30
0.0
  0
POINT
  5
257F2
330
25616
100
AcDbEntity
  8
DEFPOINTS
 62
     0
 48
50.0
100
AcDbPoint
 10
5337.703905439387
 20
5956.907777930207
 30
0.0
  0
ENDBLK
  5
25623
330
25616
100
AcDbEntity
  8
0
 48
50.0
100
AcDbBlockEnd
  0
BLOCK
  5
25630
330
25624
100
AcDbEntity
  8
0
 48
50.0
100
AcDbBlockBegin
  2
*D44
 70
     1
 10
0.0
 20
0.0
 30
0.0
  3
*D44
  1

  0
LINE
  5
257B1
330
25624
100
AcDbEntity
  8
寸法
 62
     0
 48
50.0
370
    -2
100
AcDbLine
 10
6693.6
 20
7776.907777930206
 30
0.0
 11
6693.6
 21
8775.128099989126
 31
0.0
  0
LINE
  5
257B2
330
25624
100
AcDbEntity
  8
寸法
 62
     0
 48
50.0
370
    -2
100
AcDbLine
 10
6638.600000000012
 20
8522.66740447229
 30
0.0
 11
6638.600000000012
 21
8775.128099989126
 31
0.0
  0
LINE
  5
257B3
330
25624
100
AcDbEntity
  8
寸法
 62
     0
 48
50.0
370
    -2
100
AcDbLine
 10
6693.6
 20
8715.128099989126
 30
0.0
 11
6793.600000000001
 21
8715.128099989126
 31
0.0
  0
LINE
  5
257B4
330
25624
100
AcDbEntity
  8
寸法
 62
     0
 48
50.0
370
    -2
100
AcDbLine
 10
6638.600000000012
 20
8715.128099989126
 30
0.0
 11
6538.600000000013
 21
8715.128099989126
 31
0.0
  0
LINE
  5
257B5
330
25624
100
AcDbEntity
  8
寸法
 62
     0
 48
50.0
370
    -2
100
AcDbLine
 10
6693.6
 20
8715.128099989126
 30
0.0
 11
6638.600000000012
 21
8715.128099989126
 31
0.0
  0
INSERT
  5
257B6
330
25624
100
AcDbEntity
  8
寸法
 62
     0
 48
50.0
370
    -2
100
AcDbBlockReference
  2
_DOTSMALL
 10
6693.6
 20
8715.128099989126
 30
0.0
 41
100.0
 42
100.0
 43
100.0
 50
180.0
  0
INSERT
  5
257B7
330
25624
100
AcDbEntity
  8
寸法
 62
     0
 48
50.0
370
    -2
100
AcDbBlockReference
  2
_DOTSMALL
 10
6638.600000000012
 20
8715.128099989126
 30
0.0
 41
100.0
 42
100.0
 43
100.0
  0
MTEXT
  5
257B8
330
25624
100
AcDbEntity
  8
寸法
 62
     7
 48
50.0
100
AcDbMText
 10
6666.100000000006
 20
8815.128099989125
 30
0.0
 40
120.0
 41
0.0
 71
     5
 72
     1
  1
\A1;b
  7
STYLE1
 73
     1
 44
1.0
1001
ACAD
1000
MTEXTBEGIN
1070
    73
1070
     1
1070
    44
1040
1.0
1070
    74
1070
     0
1000
MTEXTEND
  0
POINT
  5
257B9
330
25624
100
AcDbEntity
  8
DEFPOINTS
 62
     0
 48
50.0
100
AcDbPoint
 10
6693.6
 20
7756.907777930208
 30
0.0
  0
POINT
  5
257BA
330
25624
100
AcDbEntity
  8
DEFPOINTS
 62
     0
 48
50.0
100
AcDbPoint
 10
6638.600000000012
 20
8502.667404472289
 30
0.0
  0
POINT
  5
257BB
330
25624
100
AcDbEntity
  8
DEFPOINTS
 62
     0
 48
50.0
100
AcDbPoint
 10
6638.600000000012
 20
8715.128099989126
 30
0.0
  0
ENDBLK
  5
25631
330
25624
100
AcDbEntity
  8
0
 48
50.0
100
AcDbBlockEnd
  0
BLOCK
  5
2563E
330
25632
100
AcDbEntity
  8
0
 48
50.0
100
AcDbBlockBegin
  2
*D45
 70
     1
 10
0.0
 20
0.0
 30
0.0
  3
*D45
  1

  0
LINE
  5
257BC
330
25632
100
AcDbEntity
  8
寸法
 62
     0
 48
50.0
370
    -2
100
AcDbLine
 10
9828.600000000003
 20
8522.66740447229
 30
0.0
 11
9828.600000000003
 21
8775.128099989126
 31
0.0
  0
LINE
  5
257BD
330
25632
100
AcDbEntity
  8
寸法
 62
     0
 48
50.0
370
    -2
100
AcDbLine
 10
9753.6
 20
7776.907777930206
 30
0.0
 11
9753.6
 21
8775.128099989126
 31
0.0
  0
LINE
  5
257BE
330
25632
100
AcDbEntity
  8
寸法
 62
     0
 48
50.0
370
    -2
100
AcDbLine
 10
9828.600000000003
 20
8715.128099989126
 30
0.0
 11
9928.600000000002
 21
8715.128099989126
 31
0.0
  0
LINE
  5
257BF
330
25632
100
AcDbEntity
  8
寸法
 62
     0
 48
50.0
370
    -2
100
AcDbLine
 10
9753.6
 20
8715.128099989126
 30
0.0
 11
9653.6
 21
8715.128099989126
 31
0.0
  0
LINE
  5
257C0
330
25632
100
AcDbEntity
  8
寸法
 62
     0
 48
50.0
370
    -2
100
AcDbLine
 10
9828.600000000003
 20
8715.128099989126
 30
0.0
 11
9753.6
 21
8715.128099989126
 31
0.0
  0
INSERT
  5
257C1
330
25632
100
AcDbEntity
  8
寸法
 62
     0
 48
50.0
370
    -2
100
AcDbBlockReference
  2
_DOTSMALL
 10
9828.600000000003
 20
8715.128099989126
 30
0.0
 41
100.0
 42
100.0
 43
100.0
 50
180.0
  0
INSERT
  5
257C2
330
25632
100
AcDbEntity
  8
寸法
 62
     0
 48
50.0
370
    -2
100
AcDbBlockReference
  2
_DOTSMALL
 10
9753.6
 20
8715.128099989126
 30
0.0
 41
100.0
 42
100.0
 43
100.0
  0
MTEXT
  5
257C3
330
25632
100
AcDbEntity
  8
寸法
 62
     7
 48
50.0
100
AcDbMText
 10
9791.100000000003
 20
8815.128099989125
 30
0.0
 40
120.0
 41
0.0
 71
     5
 72
     1
  1
\A1;c
  7
STYLE1
 73
     1
 44
1.0
1001
ACAD
1000
MTEXTBEGIN
1070
    73
1070
     1
1070
    44
1040
1.0
1070
    74
1070
     0
1000
MTEXTEND
  0
POINT
  5
257C4
330
25632
100
AcDbEntity
  8
DEFPOINTS
 62
     0
 48
50.0
100
AcDbPoint
 10
9828.600000000003
 20
8502.667404472289
 30
0.0
  0
POINT
  5
257C5
330
25632
100
AcDbEntity
  8
DEFPOINTS
 62
     0
 48
50.0
100
AcDbPoint
 10
9753.6
 20
7756.907777930208
 30
0.0
  0
POINT
  5
257C6
330
25632
100
AcDbEntity
  8
DEFPOINTS
 62
     0
 48
50.0
100
AcDbPoint
 10
9753.6
 20
8715.128099989126
 30
0.0
  0
ENDBLK
  5
2563F
330
25632
100
AcDbEntity
  8
0
 48
50.0
100
AcDbBlockEnd
  0
BLOCK
  5
2564C
330
25640
100
AcDbEntity
  8
0
 48
50.0
100
AcDbBlockBegin
  2
*D46
 70
     1
 10
0.0
 20
0.0
 30
0.0
  3
*D46
  1

  0
LINE
  5
257D2
330
25640
100
AcDbEntity
  8
寸法
 62
     0
 48
50.0
370
    -2
100
AcDbLine
 10
6673.6
 20
7756.907777930205
 30
0.0
 11
5277.703905439388
 21
7756.907777930206
 31
0.0
  0
LINE
  5
257D3
330
25640
100
AcDbEntity
  8
寸法
 62
     0
 48
50.0
370
    -2
100
AcDbLine
 10
5569.647002158784
 20
7802.519882073112
 30
0.0
 11
5277.703905439388
 21
7802.519882073112
 31
0.0
  0
LINE
  5
257D4
330
25640
100
AcDbEntity
  8
寸法
 62
     0
 48
50.0
370
    -2
100
AcDbLine
 10
5337.703905439387
 20
7756.907777930206
 30
0.0
 11
5337.703905439387
 21
7656.907777930206
 31
0.0
  0
LINE
  5
257D5
330
25640
100
AcDbEntity
  8
寸法
 62
     0
 48
50.0
370
    -2
100
AcDbLine
 10
5337.703905439387
 20
7802.519882073112
 30
0.0
 11
5337.703905439387
 21
8139.869124478028
 31
0.0
  0
LINE
  5
257D6
330
25640
100
AcDbEntity
  8
寸法
 62
     0
 48
50.0
370
    -2
100
AcDbLine
 10
5337.703905439387
 20
7756.907777930206
 30
0.0
 11
5337.703905439387
 21
7802.519882073112
 31
0.0
  0
INSERT
  5
257D7
330
25640
100
AcDbEntity
  8
寸法
 62
     0
 48
50.0
370
    -2
100
AcDbBlockReference
  2
_DOTSMALL
 10
5337.703905439387
 20
7756.907777930206
 30
0.0
 41
100.0
 42
100.0
 43
100.0
 50
90.0
  0
INSERT
  5
257D8
330
25640
100
AcDbEntity
  8
寸法
 62
     0
 48
50.0
370
    -2
100
AcDbBlockReference
  2
_DOTSMALL
 10
5337.703905439387
 20
7802.519882073112
 30
0.0
 41
100.0
 42
100.0
 43
100.0
 50
270.0
  0
MTEXT
  5
257D9
330
25640
100
AcDbEntity
  8
寸法
 62
     7
 48
50.0
100
AcDbMText
 10
5237.703905439386
 20
8073.694503275572
 30
0.0
 40
120.0
 41
0.0
 71
     5
 72
     1
  1
\A1;a
  7
STYLE1
 11
0.0000000000000001
 21
1.0
 31
0.0
 73
     1
 44
1.0
1001
ACAD
1000
MTEXTBEGIN
1070
    73
1070
     1
1070
    44
1040
1.0
1070
    74
1070
     0
1000
MTEXTEND
  0
POINT
  5
257DA
330
25640
100
AcDbEntity
  8
DEFPOINTS
 62
     0
 48
50.0
100
AcDbPoint
 10
6693.6
 20
7756.907777930205
 30
0.0
  0
POINT
  5
257DB
330
25640
100
AcDbEntity
  8
DEFPOINTS
 62
     0
 48
50.0
100
AcDbPoint
 10
5589.647002158784
 20
7802.519882073112
 30
0.0
  0
POINT
  5
257DC
330
25640
100
AcDbEntity
  8
DEFPOINTS
 62
     0
 48
50.0
100
AcDbPoint
 10
5337.703905439387
 20
7802.519882073112
 30
0.0
  0
ENDBLK
  5
2564D
330
25640
100
AcDbEntity
  8
0
 48
50.0
100
AcDbBlockEnd
  0
BLOCK
  5
262EB
330
262E1
100
AcDbEntity
  8
0
 48
50.0
100
AcDbBlockBegin
  2
*D59
 70
     1
 10
0.0
 20
0.0
 30
0.0
  3
*D59
  1

  0
LINE
  5
2632E
330
262E1
100
AcDbEntity
  8
寸法
 62
     0
 48
50.0
370
    -2
100
AcDbLine
 10
7999.368784779186
 20
2060.768742393759
 30
0.0
 11
8541.237384548029
 21
2060.768742393759
 31
0.0
  0
LINE
  5
2632F
330
262E1
100
AcDbEntity
  8
寸法
 62
     0
 48
50.0
370
    -2
100
AcDbLine
 10
7999.368784779186
 20
1736.768742393758
 30
0.0
 11
8541.237384548029
 21
1736.768742393758
 31
0.0
  0
LINE
  5
26330
330
262E1
100
AcDbEntity
  8
寸法
 62
     0
 48
50.0
370
    -2
100
AcDbLine
 10
8481.237384548029
 20
2060.768742393759
 30
0.0
 11
8481.237384548029
 21
1736.768742393758
 31
0.0
  0
INSERT
  5
26331
330
262E1
100
AcDbEntity
  8
寸法
 62
     0
 48
50.0
370
    -2
100
AcDbBlockReference
  2
_DOTSMALL
 10
8481.237384548029
 20
2060.768742393759
 30
0.0
 41
100.0
 42
100.0
 43
100.0
 50
90.0
  0
INSERT
  5
26332
330
262E1
100
AcDbEntity
  8
寸法
 62
     0
 48
50.0
370
    -2
100
AcDbBlockReference
  2
_DOTSMALL
 10
8481.237384548029
 20
1736.768742393758
 30
0.0
 41
100.0
 42
100.0
 43
100.0
 50
270.0
  0
MTEXT
  5
26333
330
262E1
100
AcDbEntity
  8
寸法
 62
     7
 48
50.0
100
AcDbMText
 10
8381.237384548029
 20
1898.76874239376
 30
0.0
 40
120.0
 41
0.0
 71
     5
 72
     1
  1
\A1;180
  7
STYLE1
 11
0.0000000000000001
 21
1.0
 31
0.0
 73
     1
 44
1.0
1001
ACAD
1000
MTEXTBEGIN
1070
    73
1070
     1
1070
    44
1040
1.0
1070
    74
1070
     0
1000
MTEXTEND
  0
POINT
  5
26334
330
262E1
100
AcDbEntity
  8
DEFPOINTS
 62
     0
 48
50.0
100
AcDbPoint
 10
7979.368784779186
 20
2060.768742393759
 30
0.0
  0
POINT
  5
26335
330
262E1
100
AcDbEntity
  8
DEFPOINTS
 62
     0
 48
50.0
100
AcDbPoint
 10
7979.368784779186
 20
1736.768742393758
 30
0.0
  0
POINT
  5
26336
330
262E1
100
AcDbEntity
  8
DEFPOINTS
 62
     0
 48
50.0
100
AcDbPoint
 10
8481.237384548029
 20
1736.768742393758
 30
0.0
  0
ENDBLK
  5
262EC
330
262E1
100
AcDbEntity
  8
0
 48
50.0
100
AcDbBlockEnd
  0
BLOCK
  5
262FC
330
262ED
100
AcDbEntity
  8
0
 48
50.0
100
AcDbBlockBegin
  2
*D60
 70
     1
 10
0.0
 20
0.0
 30
0.0
  3
*D60
  1

  0
LINE
  5
26337
330
262ED
100
AcDbEntity
  8
寸法
 62
     0
 48
50.0
370
    -2
100
AcDbLine
 10
7812.168784779188
 20
2113.52874239376
 30
0.0
 11
8541.237384548029
 21
2113.52874239376
 31
0.0
  0
LINE
  5
26338
330
262ED
100
AcDbEntity
  8
寸法
 62
     0
 48
50.0
370
    -2
100
AcDbLine
 10
7999.368784779186
 20
2060.768742393759
 30
0.0
 11
8541.237384548029
 21
2060.768742393759
 31
0.0
  0
LINE
  5
26339
330
262ED
100
AcDbEntity
  8
寸法
 62
     0
 48
50.0
370
    -2
100
AcDbLine
 10
8481.237384548029
 20
2113.52874239376
 30
0.0
 11
8481.237384548029
 21
2213.52874239376
 31
0.0
  0
LINE
  5
2633A
330
262ED
100
AcDbEntity
  8
寸法
 62
     0
 48
50.0
370
    -2
100
AcDbLine
 10
8481.237384548029
 20
2060.768742393759
 30
0.0
 11
8481.237384548029
 21
1960.768742393758
 31
0.0
  0
LINE
  5
2633B
330
262ED
100
AcDbEntity
  8
寸法
 62
     0
 48
50.0
370
    -2
100
AcDbLine
 10
8481.237384548029
 20
2087.148742393759
 30
0.0
 11
8757.292050667057
 21
2075.644784789545
 31
0.0
  0
LINE
  5
2633C
330
262ED
100
AcDbEntity
  8
寸法
 62
     0
 48
50.0
370
    -2
100
AcDbLine
 10
8757.292050667057
 20
2075.644784789545
 30
0.0
 11
8757.292050667057
 21
1543.62697794658
 31
0.0
  0
MTEXT
  5
2633D
330
262ED
100
AcDbEntity
  8
寸法
 62
     7
 48
50.0
100
AcDbMText
 10
8657.280239643434
 20
1809.635881368064
 30
0.0
 40
120.0
 41
0.0
 71
     5
 72
     1
  1
\A1;20～25
  7
STYLE1
 11
0.0000000000000001
 21
1.0
 31
0.0
 73
     1
 44
1.0
1001
ACAD
1000
MTEXTBEGIN
1070
    73
1070
     1
1070
    44
1040
1.0
1070
    74
1070
     0
1000
MTEXTEND
  0
LINE
  5
2633E
330
262ED
100
AcDbEntity
  8
寸法
 62
     0
 48
50.0
370
    -2
100
AcDbLine
 10
8481.237384548029
 20
2113.52874239376
 30
0.0
 11
8481.237384548029
 21
2060.768742393759
 31
0.0
  0
LINE
  5
2633F
330
262ED
100
AcDbEntity
  8
寸法
 62
     0
 48
50.0
370
    -2
100
AcDbLine
 10
8481.237384548029
 20
2113.52874239376
 30
0.0
 11
8481.237384548029
 21
2060.768742393759
 31
0.0
  0
INSERT
  5
26340
330
262ED
100
AcDbEntity
  8
寸法
 62
     0
 48
50.0
370
    -2
100
AcDbBlockReference
  2
_DOTSMALL
 10
8481.237384548029
 20
2113.52874239376
 30
0.0
 41
100.0
 42
100.0
 43
100.0
 50
270.0
  0
INSERT
  5
26341
330
262ED
100
AcDbEntity
  8
寸法
 62
     0
 48
50.0
370
    -2
100
AcDbBlockReference
  2
_DOTSMALL
 10
8481.237384548029
 20
2060.768742393759
 30
0.0
 41
100.0
 42
100.0
 43
100.0
 50
90.0
  0
POINT
  5
26342
330
262ED
100
AcDbEntity
  8
DEFPOINTS
 62
     0
 48
50.0
100
AcDbPoint
 10
7792.168784779187
 20
2113.52874239376
 30
0.0
  0
POINT
  5
26343
330
262ED
100
AcDbEntity
  8
DEFPOINTS
 62
     0
 48
50.0
100
AcDbPoint
 10
7979.368784779186
 20
2060.768742393759
 30
0.0
  0
POINT
  5
26344
330
262ED
100
AcDbEntity
  8
DEFPOINTS
 62
     0
 48
50.0
100
AcDbPoint
 10
8481.237384548029
 20
2060.768742393759
 30
0.0
  0
ENDBLK
  5
262FD
330
262ED
100
AcDbEntity
  8
0
 48
50.0
100
AcDbBlockEnd
  0
BLOCK
  5
26308
330
262FE
100
AcDbEntity
  8
0
 48
50.0
100
AcDbBlockBegin
  2
*D61
 70
     1
 10
0.0
 20
0.0
 30
0.0
  3
*D61
  1

  0
LINE
  5
26345
330
262FE
100
AcDbEntity
  8
寸法
 62
     0
 48
50.0
370
    -2
100
AcDbLine
 10
5717.329471601992
 20
1516.768742393758
 30
0.0
 11
5534.909157869532
 21
1516.768742393759
 31
0.0
  0
LINE
  5
26346
330
262FE
100
AcDbEntity
  8
寸法
 62
     0
 48
50.0
370
    -2
100
AcDbLine
 10
5637.329471601995
 20
1276.768742393759
 30
0.0
 11
5534.909157869532
 21
1276.768742393759
 31
0.0
  0
LINE
  5
26347
330
262FE
100
AcDbEntity
  8
寸法
 62
     0
 48
50.0
370
    -2
100
AcDbLine
 10
5594.909157869532
 20
1516.768742393759
 30
0.0
 11
5594.909157869532
 21
1276.768742393759
 31
0.0
  0
MTEXT
  5
26348
330
262FE
100
AcDbEntity
  8
寸法
 62
     7
 48
50.0
100
AcDbMText
 10
5494.909157869532
 20
1396.768742393759
 30
0.0
 40
120.0
 41
0.0
 71
     5
 72
     1
  1
\A1;150
  7
STYLE1
 11
0.0000000000000001
 21
1.0
 31
0.0
 73
     1
 44
1.0
1001
ACAD
1000
MTEXTBEGIN
1070
    73
1070
     1
1070
    44
1040
1.0
1070
    74
1070
     0
1000
MTEXTEND
  0
INSERT
  5
26349
330
262FE
100
AcDbEntity
  8
寸法
 62
     0
 48
50.0
370
    -2
100
AcDbBlockReference
  2
_DOTSMALL
 10
5594.909157869532
 20
1516.768742393759
 30
0.0
 41
100.0
 42
100.0
 43
100.0
 50
90.0
  0
INSERT
  5
2634A
330
262FE
100
AcDbEntity
  8
寸法
 62
     0
 48
50.0
370
    -2
100
AcDbBlockReference
  2
_DOTSMALL
 10
5594.909157869532
 20
1276.768742393759
 30
0.0
 41
100.0
 42
100.0
 43
100.0
 50
270.0
  0
POINT
  5
2634B
330
262FE
100
AcDbEntity
  8
DEFPOINTS
 62
     0
 48
50.0
100
AcDbPoint
 10
5737.329471601992
 20
1516.768742393758
 30
0.0
  0
POINT
  5
2634C
330
262FE
100
AcDbEntity
  8
DEFPOINTS
 62
     0
 48
50.0
100
AcDbPoint
 10
5657.329471601996
 20
1276.768742393759
 30
0.0
  0
POINT
  5
2634D
330
262FE
100
AcDbEntity
  8
DEFPOINTS
 62
     0
 48
50.0
100
AcDbPoint
 10
5594.909157869532
 20
1276.768742393759
 30
0.0
  0
ENDBLK
  5
26309
330
262FE
100
AcDbEntity
  8
0
 48
50.0
100
AcDbBlockEnd
  0
BLOCK
  5
26314
330
2630A
100
AcDbEntity
  8
0
 48
50.0
100
AcDbBlockBegin
  2
*D62
 70
     1
 10
0.0
 20
0.0
 30
0.0
  3
*D62
  1

  0
LINE
  5
2634E
330
2630A
100
AcDbEntity
  8
寸法
 62
     0
 48
50.0
370
    -2
100
AcDbLine
 10
5845.329471601992
 20
2060.768742393759
 30
0.0
 11
5070.292233040252
 21
2060.768742393759
 31
0.0
  0
LINE
  5
2634F
330
2630A
100
AcDbEntity
  8
寸法
 62
     0
 48
50.0
370
    -2
100
AcDbLine
 10
5637.329471601995
 20
1276.768742393759
 30
0.0
 11
5070.292233040251
 21
1276.768742393759
 31
0.0
  0
LINE
  5
26350
330
2630A
100
AcDbEntity
  8
寸法
 62
     0
 48
50.0
370
    -2
100
AcDbLine
 10
5130.292233040251
 20
2060.768742393759
 30
0.0
 11
5130.29223304025
 21
1276.768742393759
 31
0.0
  0
MTEXT
  5
26351
330
2630A
100
AcDbEntity
  8
寸法
 62
     7
 48
50.0
100
AcDbMText
 10
5030.292233040252
 20
1648.308892049759
 30
0.0
 40
120.0
 41
0.0
 71
     5
 72
     1
  1
\A1;540
  7
STYLE1
 11
0.0000000000000001
 21
1.0
 31
0.0
 73
     1
 44
1.0
1001
ACAD
1000
MTEXTBEGIN
1070
    73
1070
     1
1070
    44
1040
1.0
1070
    74
1070
     0
1000
MTEXTEND
  0
INSERT
  5
26352
330
2630A
100
AcDbEntity
  8
寸法
 62
     0
 48
50.0
370
    -2
100
AcDbBlockReference
  2
_DOTSMALL
 10
5130.292233040251
 20
2060.768742393759
 30
0.0
 41
100.0
 42
100.0
 43
100.0
 50
90.0
  0
INSERT
  5
26353
330
2630A
100
AcDbEntity
  8
寸法
 62
     0
 48
50.0
370
    -2
100
AcDbBlockReference
  2
_DOTSMALL
 10
5130.29223304025
 20
1276.768742393759
 30
0.0
 41
100.0
 42
100.0
 43
100.0
 50
270.0
  0
POINT
  5
26354
330
2630A
100
AcDbEntity
  8
DEFPOINTS
 62
     0
 48
50.0
100
AcDbPoint
 10
5865.329471601992
 20
2060.768742393759
 30
0.0
  0
POINT
  5
26355
330
2630A
100
AcDbEntity
  8
DEFPOINTS
 62
     0
 48
50.0
100
AcDbPoint
 10
5657.329471601996
 20
1276.768742393759
 30
0.0
  0
POINT
  5
26356
330
2630A
100
AcDbEntity
  8
DEFPOINTS
 62
     0
 48
50.0
100
AcDbPoint
 10
5130.29223304025
 20
1276.768742393759
 30
0.0
  0
ENDBLK
  5
26315
330
2630A
100
AcDbEntity
  8
0
 48
50.0
100
AcDbBlockEnd
  0
BLOCK
  5
26320
330
26316
100
AcDbEntity
  8
0
 48
50.0
100
AcDbBlockBegin
  2
*D63
 70
     1
 10
0.0
 20
0.0
 30
0.0
  3
*D63
  1

  0
LINE
  5
26357
330
26316
100
AcDbEntity
  8
寸法
 62
     0
 48
50.0
370
    -2
100
AcDbLine
 10
5737.329471601992
 20
1128.768742393758
 30
0.0
 11
5737.329471601992
 21
678.3391043885985
 31
0.0
  0
LINE
  5
26358
330
26316
100
AcDbEntity
  8
寸法
 62
     0
 48
50.0
370
    -2
100
AcDbLine
 10
6185.329471601992
 20
1128.768742393758
 30
0.0
 11
6185.329471601992
 21
678.3391043885985
 31
0.0
  0
LINE
  5
26359
330
26316
100
AcDbEntity
  8
寸法
 62
     0
 48
50.0
370
    -2
100
AcDbLine
 10
5737.329471601992
 20
738.3391043885985
 30
0.0
 11
6185.329471601992
 21
738.3391043885985
 31
0.0
  0
MTEXT
  5
2635A
330
26316
100
AcDbEntity
  8
寸法
 62
     7
 48
50.0
100
AcDbMText
 10
5941.232712923768
 20
838.3391043885985
 30
0.0
 40
120.0
 41
0.0
 71
     5
 72
     1
  1
\A1;300
  7
STYLE1
 73
     1
 44
1.0
1001
ACAD
1000
MTEXTBEGIN
1070
    73
1070
     1
1070
    44
1040
1.0
1070
    74
1070
     0
1000
MTEXTEND
  0
INSERT
  5
2635B
330
26316
100
AcDbEntity
  8
寸法
 62
     0
 48
50.0
370
    -2
100
AcDbBlockReference
  2
_DOTSMALL
 10
5737.329471601992
 20
738.3391043885985
 30
0.0
 41
100.0
 42
100.0
 43
100.0
 50
180.0
  0
INSERT
  5
2635C
330
26316
100
AcDbEntity
  8
寸法
 62
     0
 48
50.0
370
    -2
100
AcDbBlockReference
  2
_DOTSMALL
 10
6185.329471601992
 20
738.3391043885985
 30
0.0
 41
100.0
 42
100.0
 43
100.0
  0
POINT
  5
2635D
330
26316
100
AcDbEntity
  8
DEFPOINTS
 62
     0
 48
50.0
100
AcDbPoint
 10
5737.329471601992
 20
1148.768742393758
 30
0.0
  0
POINT
  5
2635E
330
26316
100
AcDbEntity
  8
DEFPOINTS
 62
     0
 48
50.0
100
AcDbPoint
 10
6185.329471601992
 20
1148.768742393758
 30
0.0
  0
POINT
  5
2635F
330
26316
100
AcDbEntity
  8
DEFPOINTS
 62
     0
 48
50.0
100
AcDbPoint
 10
6185.329471601992
 20
738.3391043885985
 30
0.0
  0
ENDBLK
  5
26321
330
26316
100
AcDbEntity
  8
0
 48
50.0
100
AcDbBlockEnd
  0
BLOCK
  5
2632C
330
26322
100
AcDbEntity
  8
0
 48
50.0
100
AcDbBlockBegin
  2
*D64
 70
     1
 10
0.0
 20
0.0
 30
0.0
  3
*D64
  1

  0
LINE
  5
26360
330
26322
100
AcDbEntity
  8
寸法
 62
     0
 48
50.0
370
    -2
100
AcDbLine
 10
6057.329471601992
 20
2080.768742393759
 30
0.0
 11
6057.329471601992
 21
2440.768742393759
 31
0.0
  0
LINE
  5
26361
330
26322
100
AcDbEntity
  8
寸法
 62
     0
 48
50.0
370
    -2
100
AcDbLine
 10
5865.329471601992
 20
2080.768742393759
 30
0.0
 11
5865.329471601992
 21
2440.768742393759
 31
0.0
  0
LINE
  5
26362
330
26322
100
AcDbEntity
  8
寸法
 62
     0
 48
50.0
370
    -2
100
AcDbLine
 10
6057.329471601992
 20
2380.768742393759
 30
0.0
 11
5865.329471601992
 21
2380.768742393759
 31
0.0
  0
MTEXT
  5
26363
330
26322
100
AcDbEntity
  8
寸法
 62
     7
 48
50.0
100
AcDbMText
 10
5972.555801947189
 20
2680.448361333761
 30
0.0
 40
120.0
 41
0.0
 71
     5
 72
     1
  1
\A1;120\P195
  7
STYLE1
 73
     1
 44
1.0
1001
ACAD
1000
MTEXTBEGIN
1070
    73
1070
     1
1070
    44
1040
1.0
1070
    74
1070
     0
1000
MTEXTEND
  0
INSERT
  5
26364
330
26322
100
AcDbEntity
  8
寸法
 62
     0
 48
50.0
370
    -2
100
AcDbBlockReference
  2
_DOTSMALL
 10
6057.329471601992
 20
2380.768742393759
 30
0.0
 41
100.0
 42
100.0
 43
100.0
  0
INSERT
  5
26365
330
26322
100
AcDbEntity
  8
寸法
 62
     0
 48
50.0
370
    -2
100
AcDbBlockReference
  2
_DOTSMALL
 10
5865.329471601992
 20
2380.768742393759
 30
0.0
 41
100.0
 42
100.0
 43
100.0
 50
180.0
  0
POINT
  5
26366
330
26322
100
AcDbEntity
  8
DEFPOINTS
 62
     0
 48
50.0
100
AcDbPoint
 10
6057.329471601992
 20
2060.768742393759
 30
0.0
  0
POINT
  5
26367
330
26322
100
AcDbEntity
  8
DEFPOINTS
 62
     0
 48
50.0
100
AcDbPoint
 10
5865.329471601992
 20
2060.768742393759
 30
0.0
  0
POINT
  5
26368
330
26322
100
AcDbEntity
  8
DEFPOINTS
 62
     0
 48
50.0
100
AcDbPoint
 10
5865.329471601992
 20
2380.768742393759
 30
0.0
  0
ENDBLK
  5
2632D
330
26322
100
AcDbEntity
  8
0
 48
50.0
100
AcDbBlockEnd
  0
ENDSEC
  0
SECTION
  2
ENTITIES
  0
MTEXT
  5
763F
330
747D
100
AcDbEntity
  8
0
100
AcDbMText
 10
302.846345836809
 20
280.1983726409901
 30
0.0
 40
3.5
 41
5.323721266742722
 71
     1
 72
     5
  1

  7
MSMINCHO
 73
     1
 44
1.0
1001
ACAD
1000
MTEXTBEGIN
1070
    73
1070
     1
1070
    44
1040
1.0
1070
    74
1070
     0
1000
MTEXTEND
  0
LINE
  5
10B57
330
747D
100
AcDbEntity
  8
補助
  6
PHANTOM
 62
   230
 48
50.0
100
AcDbLine
 10
139.9999999999995
 20
11409.6
 30
0.0
 11
16307.2
 21
11409.6
 31
0.0
  0
LINE
  5
10B59
330
747D
100
AcDbEntity
  8
仕様書枠
  6
Continuous
 48
50.0
100
AcDbLine
 10
13107.2
 20
1200.0
 30
0.0
 11
13107.2
 21
-0.0000000000000729
 31
0.0
  0
LINE
  5
10B5D
330
747D
100
AcDbEntity
  8
仕様書枠
 48
50.0
100
AcDbLine
 10
140.0
 20
0.0
 30
0.0
 11
16307.2
 21
-0.0000000000000909
 31
0.0
  0
LINE
  5
10B5E
330
747D
100
AcDbEntity
  8
補助
  6
PHANTOM
 62
   230
 48
50.0
100
AcDbLine
 10
16307.2
 20
11409.6
 30
0.0
 11
16307.2
 21
1200.0
 31
0.0
  0
LINE
  5
10B6C
330
747D
100
AcDbEntity
  8
仕様書枠
 48
50.0
100
AcDbLine
 10
13107.2
 20
1200.0
 30
0.0
 11
16307.2
 21
1200.0
 31
0.0
  0
TEXT
  5
10B73
330
747D
100
AcDbEntity
  8
文字
 62
     7
 48
50.0
100
AcDbText
 10
13162.9790565769
 20
895.0906074299405
 30
0.0
 40
200.0
  1
基 礎 図
  7
STYLE2
100
AcDbText
  0
LINE
  5
10B7B
330
747D
100
AcDbEntity
  8
仕様書枠
 48
50.0
100
AcDbLine
 10
13107.2
 20
800.0
 30
0.0
 11
14251.2
 21
800.0
 31
0.0
  0
LINE
  5
10B88
330
747D
100
AcDbEntity
  8
仕様書枠
  6
Continuous
 48
50.0
100
AcDbLine
 10
14251.2
 20
1200.0
 30
0.0
 11
14251.2
 21
800.0
 31
0.0
  0
LINE
  5
16462
330
747D
100
AcDbEntity
  8
仕様書枠
 48
50.0
100
AcDbLine
 10
16307.2
 20
1200.0
 30
0.0
 11
16307.2
 21
-0.0000000000000909
 31
0.0
  0
LINE
  5
1903B
330
747D
100
AcDbEntity
  8
補助
  6
PHANTOM
 62
   230
 48
50.0
100
AcDbLine
 10
140.0
 20
0.0
 30
0.0
 11
139.9999999999995
 21
11409.6
 31
0.0
  0
TEXT
  5
1C7A1
330
747D
100
AcDbEntity
  8
文字
 62
     7
 48
50.0
100
AcDbText
 10
13188.16259899338
 20
79.80631269190417
 30
0.0
 40
80.0
  1
※布基礎には換気口を設けてください。
  7
STYLE2
100
AcDbText
  0
TEXT
  5
1C7E7
330
747D
100
AcDbEntity
  8
文字
 62
     7
 48
50.0
100
AcDbText
 10
13188.16259899338
 20
246.7109242801889
 30
0.0
 40
80.0
  1
※寒冷地等は地域の実情に合わせた基礎にして下さい。
  7
STYLE2
100
AcDbText
  0
TEXT
  5
1C7E8
330
747D
100
AcDbEntity
  8
文字
 62
     7
 48
50.0
100
AcDbText
 10
14413.03930849931
 20
499.5983841039506
 30
0.0
 40
160.0
  1
ＮＸＮ－５５ＳＢ/ＨＢ
  7
STYLE2
100
AcDbText
  0
TEXT
  5
1C7E9
330
747D
100
AcDbEntity
  8
文字
 62
     7
 48
50.0
100
AcDbText
 10
14641.2525855784
 20
871.1744590657927
 30
0.0
 40
100.0
  1
～一般型・多雪地型～
  7
STYLE2
100
AcDbText
  0
TEXT
  5
1C7EC
330
747D
100
AcDbEntity
  8
文字
 62
     7
 48
50.0
100
AcDbText
 10
14524.131837222
 20
1031.557706291229
 30
0.0
 40
100.0
  1
      　    <縮尺> S=1/40
  7
STYLE2
100
AcDbText
  0
TEXT
  5
1C7ED
330
747D
100
AcDbEntity
  8
文字
 62
     7
 48
50.0
100
AcDbText
 10
13201.43669998441
 20
477.2740661031257
 30
0.0
 40
160.0
  1
機種名
  7
STYLE2
100
AcDbText
  0
LINE
  5
1C7EF
330
747D
100
AcDbEntity
  8
文字
 62
     7
 48
50.0
100
AcDbLine
 10
13187.2
 20
400.0
 30
0.0
 11
16227.2
 21
400.0
 31
0.0
  0
DIMENSION
  5
241C1
330
747D
100
AcDbEntity
  8
寸法
 48
50.0
100
AcDbDimension
  2
*D19
 10
8223.600000000001
 20
8283.817543578534
 30
0.0
 11
8587.100000000001
 21
8383.829354602156
 31
0.0
 70
    32
 71
     5
 42
727.0
  3
INABA_S40G
100
AcDbAlignedDimension
 13
8950.599999999999
 23
6956.907777930206
 33
0.0
 14
8223.600000000001
 24
6956.907777930206
 34
0.0
100
AcDbRotatedDimension
1001
ACAD
1000
DSTYLE
1002
{
1070
   174
1070
     0
1070
   272
1070
     1
1070
   341
1005
0
1002
}
  0
DIMENSION
  5
241C2
330
747D
100
AcDbEntity
  8
寸法
 48
50.0
100
AcDbDimension
  2
*D20
 10
7496.6
 20
8283.817543578534
 30
0.0
 11
7860.1
 21
8383.829354602156
 31
0.0
 70
    32
 71
     5
 42
727.0
  3
INABA_S40G
100
AcDbAlignedDimension
 13
8223.600000000001
 23
6956.907777930206
 33
0.0
 14
7496.6
 24
6956.907777930206
 34
0.0
100
AcDbRotatedDimension
1001
ACAD
1000
DSTYLE
1002
{
1070
   174
1070
     0
1070
   272
1070
     1
1070
   341
1005
0
1002
}
  0
DIMENSION
  5
241C3
330
747D
100
AcDbEntity
  8
寸法
 48
50.0
100
AcDbDimension
  2
*D21
 10
7140.307249876099
 20
7756.907777930205
 30
0.0
 11
7140.307249876098
 21
8014.991321203094
 31
0.0
 70
   160
 71
     5
 42
120.0
  3
INABA_S40G
100
AcDbAlignedDimension
 13
6923.6
 23
7636.907777930204
 33
0.0
 14
6923.600000000002
 24
7756.907777930205
 34
0.0
 50
90.0
100
AcDbRotatedDimension
1001
ACAD
1000
DSTYLE
1002
{
1070
   174
1070
     0
1070
   272
1070
     1
1070
   341
1005
0
1002
}
  0
DIMENSION
  5
241C4
330
747D
100
AcDbEntity
  8
寸法
 48
50.0
100
AcDbDimension
  2
*D22
 10
9630.600000000001
 20
8502.667404472289
 30
0.0
 11
10026.7066017178
 21
8502.667404472289
 31
0.0
 70
   160
 71
     5
 42
123.0
  3
INABA_S40G
100
AcDbAlignedDimension
 13
9753.6
 23
7756.907777930206
 33
0.0
 14
9630.600000000001
 24
7683.907777930206
 34
0.0
100
AcDbRotatedDimension
1001
ACAD
1000
DSTYLE
1002
{
1070
   174
1070
     0
1070
   272
1070
     1
1070
   341
1005
0
1002
}
  0
DIMENSION
  5
241C6
330
747D
100
AcDbEntity
  8
寸法
 48
50.0
100
AcDbDimension
  2
*D23
 10
8950.599999999999
 20
8283.817543578534
 30
0.0
 11
9324.518522006279
 21
8283.817543578534
 31
0.0
 70
   160
 71
     5
 42
803.0
  3
INABA_S40G
100
AcDbAlignedDimension
 13
9753.6
 23
7756.907777930206
 33
0.0
 14
8950.599999999999
 24
6956.907777930206
 34
0.0
100
AcDbRotatedDimension
1001
ACAD
1000
DSTYLE
1002
{
1070
   174
1070
     0
1070
   272
1070
     1
1070
   341
1005
0
1002
}
  0
DIMENSION
  5
241C7
330
747D
100
AcDbEntity
  8
寸法
 48
50.0
100
AcDbDimension
  2
*D24
 10
5589.647002158784
 20
7633.907777930208
 30
0.0
 11
5589.647002158783
 21
8070.014379648005
 31
0.0
 70
   160
 71
     5
 42
123.0
  3
INABA_S40G
100
AcDbAlignedDimension
 13
6693.6
 23
7756.907777930206
 33
0.0
 14
6766.600000000001
 24
7633.907777930206
 34
0.0
 50
90.0
100
AcDbRotatedDimension
1001
ACAD
1000
DSTYLE
1002
{
1070
   174
1070
     0
1070
   272
1070
     1
1070
   341
1005
0
1002
}
  0
DIMENSION
  5
241C8
330
747D
100
AcDbEntity
  8
寸法
 48
50.0
100
AcDbDimension
  2
*D25
 10
6693.6
 20
8502.667404472289
 30
0.0
 11
6420.493398282203
 21
8502.667404472289
 31
0.0
 70
   160
 71
     5
 42
123.0
  3
INABA_S40G
100
AcDbAlignedDimension
 13
6816.600000000001
 23
7683.907777930206
 33
0.0
 14
6693.6
 24
7756.907777930206
 34
0.0
100
AcDbRotatedDimension
1001
ACAD
1000
DSTYLE
1002
{
1070
   174
1070
     0
1070
   272
1070
     1
1070
   341
1005
0
1002
}
  0
DIMENSION
  5
241CA
330
747D
100
AcDbEntity
  8
寸法
 48
50.0
100
AcDbDimension
  2
*D26
 10
6816.600000000001
 20
8502.667404472289
 30
0.0
 11
8223.600000000001
 21
8602.679215495911
 31
0.0
 70
    32
 71
     5
 42
2814.0
  3
INABA_S40G
100
AcDbAlignedDimension
 13
9630.600000000001
 23
7683.907777930206
 33
0.0
 14
6816.600000000001
 24
7683.907777930206
 34
0.0
100
AcDbRotatedDimension
1001
ACAD
1000
DSTYLE
1002
{
1070
   174
1070
     0
1070
   272
1070
     1
1070
   341
1005
0
1002
}
  0
DIMENSION
  5
241CB
330
747D
100
AcDbEntity
  8
寸法
 48
50.0
100
AcDbDimension
  2
*D27
 10
9753.6
 20
8715.128099989126
 30
0.0
 11
8223.600000000001
 21
8815.128099989125
 31
0.0
 70
    32
 71
     5
 42
3060.0
  3
INABA_S40G
100
AcDbAlignedDimension
 13
6693.6
 23
7756.907777930206
 33
0.0
 14
9753.6
 24
7756.907777930206
 34
0.0
100
AcDbRotatedDimension
1001
ACAD
1000
DSTYLE
1002
{
1070
   174
1070
     0
1070
   272
1070
     1
1070
   341
1005
0
1002
}
  0
DIMENSION
  5
241CC
330
747D
100
AcDbEntity
  8
寸法
 48
50.0
100
AcDbDimension
  2
*D28
 10
6693.6
 20
8283.817543578534
 30
0.0
 11
7095.100000000001
 21
8383.817543578535
 31
0.0
 70
    32
 71
     5
 42
803.0
  3
INABA_S40G
100
AcDbAlignedDimension
 13
7496.6
 23
6956.907777930206
 33
0.0
 14
6693.6
 24
7756.907777930206
 34
0.0
100
AcDbRotatedDimension
1001
ACAD
1000
DSTYLE
1002
{
1070
   174
1070
     0
1070
   272
1070
     1
1070
   341
1005
0
1002
}
  0
LINE
  5
241CE
102
{ACAD_REACTORS
330
25CC2
102
}
330
747D
100
AcDbEntity
  8
部品1
 48
50.0
100
AcDbLine
 10
6813.6
 20
6756.907777930215
 30
0.0
 11
6693.6
 21
6756.907777930215
 31
0.0
  0
LINE
  5
241CF
102
{ACAD_REACTORS
330
25CC2
102
}
330
747D
100
AcDbEntity
  8
部品1
 48
50.0
100
AcDbLine
 10
6813.6
 20
6956.907777930215
 30
0.0
 11
6693.6
 21
6956.907777930215
 31
0.0
  0
LINE
  5
241D0
330
747D
100
AcDbEntity
  8
部品1
 48
50.0
100
AcDbLine
 10
6693.6
 20
5956.907777930206
 30
0.0
 11
7146.600000000001
 21
5956.907777930206
 31
0.0
  0
DIMENSION
  5
241D2
330
747D
100
AcDbEntity
  8
寸法
 48
50.0
100
AcDbDimension
  2
*D29
 10
6693.6
 20
5329.687091109516
 30
0.0
 11
6920.100000000001
 21
5429.687091109515
 31
0.0
 70
    32
 71
     5
 42
453.0
  3
INABA_S40G
100
AcDbAlignedDimension
 13
7146.600000000001
 23
5881.907777930194
 33
0.0
 14
6693.6
 24
5956.907777930206
 34
0.0
100
AcDbRotatedDimension
1001
ACAD
1000
DSTYLE
1002
{
1070
   174
1070
     0
1070
   272
1070
     1
1070
   341
1005
0
1002
}
  0
LINE
  5
241D3
330
747D
100
AcDbEntity
  8
部品1
 48
50.0
100
AcDbLine
 10
7092.928907166847
 20
7756.907777930202
 30
0.0
 11
6693.6
 21
7756.907777930206
 31
0.0
  0
DIMENSION
  5
241D4
330
747D
100
AcDbEntity
  8
寸法
 48
50.0
100
AcDbDimension
  2
*D30
 10
5589.647002158784
 20
5956.907777930207
 30
0.0
 11
5589.647002158783
 21
5683.801176212408
 31
0.0
 70
   160
 71
     5
 42
123.0000000000018
  3
INABA_S40G
100
AcDbAlignedDimension
 13
6766.600000000008
 23
6079.907777930208
 33
0.0
 14
6693.6
 24
5956.907777930206
 34
0.0
 50
90.0
100
AcDbRotatedDimension
1001
ACAD
1000
DSTYLE
1002
{
1070
   174
1070
     0
1070
   272
1070
     1
1070
   341
1005
0
1002
}
  0
DIMENSION
  5
241D5
330
747D
100
AcDbEntity
  8
寸法
 48
50.0
100
AcDbDimension
  2
*D31
 10
5589.647002158784
 20
6079.907777930209
 30
0.0
 11
5589.647002158783
 21
6856.907777930207
 31
0.0
 70
   160
 71
     5
 42
1553.999999999998
  3
INABA_S40G
100
AcDbAlignedDimension
 13
6766.600000000001
 23
7633.907777930206
 33
0.0
 14
6766.600000000008
 24
6079.907777930208
 34
0.0
 50
90.0
100
AcDbRotatedDimension
1001
ACAD
1000
DSTYLE
1002
{
1070
   174
1070
     0
1070
   272
1070
     1
1070
   341
1005
0
1002
}
  0
LINE
  5
241D6
102
{ACAD_REACTORS
330
25C6E
102
}
330
747D
100
AcDbEntity
  8
部品1
 48
50.0
100
AcDbLine
 10
9753.6
 20
7756.907777930206
 30
0.0
 11
6693.6
 21
7756.907777930206
 31
0.0
  0
DIMENSION
  5
241D9
330
747D
100
AcDbEntity
  8
寸法
 48
50.0
100
AcDbDimension
  2
*D32
 10
5337.703905439386
 20
7756.907777930208
 30
0.0
 11
5337.703905439385
 21
6856.907777930207
 31
0.0
 70
   160
 71
     5
 42
1800.0
  3
INABA_S40G
100
AcDbAlignedDimension
 13
6693.6
 23
5956.907777930206
 33
0.0
 14
6693.6
 24
7756.907777930206
 34
0.0
 50
90.0
100
AcDbRotatedDimension
1001
ACAD
1000
DSTYLE
1002
{
1070
   174
1070
     0
1070
   272
1070
     1
1070
   341
1005
0
1002
}
  0
LINE
  5
241DA
102
{ACAD_REACTORS
330
25CC2
102
}
330
747D
100
AcDbEntity
  8
部品1
 48
50.0
100
AcDbLine
 10
6693.6
 20
5956.907777930206
 30
0.0
 11
6693.6
 21
7756.907777930206
 31
0.0
  0
LINE
  5
241E4
102
{ACAD_REACTORS
330
25C98
102
}
330
747D
100
AcDbEntity
  8
部品1
 48
50.0
100
AcDbLine
 10
9301.600000000002
 20
5881.90777793021
 30
0.0
 11
7146.600000000001
 21
5881.907777930194
 31
0.0
  0
LINE
  5
241E8
330
747D
100
AcDbEntity
  8
センター
 48
2.0
100
AcDbLine
 10
8223.600000000001
 20
6906.907777930206
 30
0.0
 11
8223.600000000001
 21
6806.907777930206
 31
0.0
  0
LINE
  5
241EC
330
747D
100
AcDbEntity
  8
センター
 48
2.0
100
AcDbLine
 10
7496.6
 20
6906.907777930206
 30
0.0
 11
7496.6
 21
6806.907777930206
 31
0.0
  0
LINE
  5
241F1
330
747D
100
AcDbEntity
  8
センター
 48
2.0
100
AcDbLine
 10
6816.600000000008
 20
6129.907777930208
 30
0.0
 11
6816.600000000008
 21
6029.907777930208
 31
0.0
  0
LINE
  5
241F2
330
747D
100
AcDbEntity
  8
部品1
 48
50.0
100
AcDbLine
 10
6923.600000000002
 20
6076.907777930211
 30
0.0
 11
6923.6
 21
6186.907777930209
 31
0.0
  0
LINE
  5
241F3
330
747D
100
AcDbEntity
  8
センター
 48
2.0
100
AcDbLine
 10
6766.600000000008
 20
6079.907777930208
 30
0.0
 11
6866.600000000008
 21
6079.907777930208
 31
0.0
  0
CIRCLE
  5
241F4
330
747D
100
AcDbEntity
  8
部品1
 48
50.0
100
AcDbCircle
 10
6816.600000000008
 20
6079.907777930208
 30
0.0
 40
35.0
  0
LINE
  5
241F5
330
747D
100
AcDbEntity
  8
部品1
 48
50.0
100
AcDbLine
 10
6923.6
 20
6186.907777930209
 30
0.0
 11
6813.6
 21
6186.907777930211
 31
0.0
  0
LINE
  5
241F6
330
747D
100
AcDbEntity
  8
部品1
 48
50.0
100
AcDbLine
 10
7146.600000000001
 20
5881.907777930212
 30
0.0
 11
7146.600000000001
 21
5956.907777930195
 31
0.0
  0
LINE
  5
241F7
102
{ACAD_REACTORS
330
25C98
102
}
330
747D
100
AcDbEntity
  8
部品1
 48
50.0
100
AcDbLine
 10
8323.600000000018
 20
5881.907777930217
 30
0.0
 11
8323.60000000002
 21
6076.907777930217
 31
0.0
  0
LINE
  5
241F8
102
{ACAD_REACTORS
330
25C98
102
}
330
747D
100
AcDbEntity
  8
部品1
 48
50.0
100
AcDbLine
 10
8123.600000000017
 20
5881.907777930216
 30
0.0
 11
8123.600000000017
 21
6076.907777930215
 31
0.0
  0
LINE
  5
241FD
330
747D
100
AcDbEntity
  8
センター
 48
2.0
100
AcDbLine
 10
7446.6
 20
6856.907777930207
 30
0.0
 11
7546.600000000001
 21
6856.907777930207
 31
0.0
  0
DIMENSION
  5
241FE
330
747D
100
AcDbEntity
  8
寸法
 48
50.0
100
AcDbDimension
  2
*D33
 10
7140.307249876099
 20
7526.907777930202
 30
0.0
 11
7140.307249876098
 21
7166.848722812094
 31
0.0
 70
   160
 71
     5
 42
110.0000000000036
  3
INABA_S40G
100
AcDbAlignedDimension
 13
6923.6
 23
7636.907777930206
 33
0.0
 14
6923.6
 24
7526.907777930202
 34
0.0
 50
90.0
100
AcDbRotatedDimension
1001
ACAD
1000
DSTYLE
1002
{
1070
   174
1070
     0
1070
   272
1070
     1
1070
   341
1005
0
1002
}
  0
LINE
  5
241FF
330
747D
100
AcDbEntity
  8
センター
 48
2.0
100
AcDbLine
 10
6766.600000000001
 20
7633.907777930206
 30
0.0
 11
6866.600000000001
 21
7633.907777930206
 31
0.0
  0
LINE
  5
24200
330
747D
100
AcDbEntity
  8
センター
 48
2.0
100
AcDbLine
 10
6816.600000000001
 20
7683.907777930206
 30
0.0
 11
6816.600000000001
 21
7583.907777930206
 31
0.0
  0
CIRCLE
  5
24201
330
747D
100
AcDbEntity
  8
部品1
 48
50.0
100
AcDbCircle
 10
6816.600000000001
 20
7633.907777930206
 30
0.0
 40
35.0
  0
LINE
  5
24202
330
747D
100
AcDbEntity
  8
部品1
 48
50.0
100
AcDbLine
 10
6923.599999999999
 20
7526.907777930202
 30
0.0
 11
6813.6
 21
7526.907777930206
 31
0.0
  0
LINE
  5
24203
330
747D
100
AcDbEntity
  8
部品1
 48
50.0
100
AcDbLine
 10
6923.599999999999
 20
7526.907777930202
 30
0.0
 11
6923.600000000002
 21
7636.907777930208
 31
0.0
  0
LINE
  5
24205
330
747D
100
AcDbEntity
  8
センター
 48
2.0
100
AcDbLine
 10
8173.6
 20
6856.907777930207
 30
0.0
 11
8273.6
 21
6856.907777930207
 31
0.0
  0
LINE
  5
24206
102
{ACAD_REACTORS
330
25C6E
102
}
330
747D
100
AcDbEntity
  8
部品1
 48
50.0
100
AcDbLine
 10
8323.6
 20
7636.907777930206
 30
0.0
 11
8323.6
 21
7756.907777930206
 31
0.0
  0
LINE
  5
24207
102
{ACAD_REACTORS
330
25C6E
102
}
330
747D
100
AcDbEntity
  8
部品1
 48
50.0
100
AcDbLine
 10
8123.599999999999
 20
7636.907777930206
 30
0.0
 11
8123.600000000001
 21
7756.907777930206
 31
0.0
  0
LINE
  5
2420A
330
747D
100
AcDbEntity
  8
センター
 48
2.0
100
AcDbLine
 10
8950.599999999999
 20
6906.907777930206
 30
0.0
 11
8950.599999999999
 21
6806.907777930206
 31
0.0
  0
DIMENSION
  5
2420D
330
747D
100
AcDbEntity
  8
寸法
 48
50.0
100
AcDbDimension
  2
*D34
 10
5905.222303205812
 20
6856.907777930207
 30
0.0
 11
5805.22230320581
 21
6406.907777930207
 31
0.0
 70
    32
 71
     5
 42
899.9999999999991
  3
INABA_S40G
100
AcDbAlignedDimension
 13
6693.6
 23
5956.907777930207
 33
0.0
 14
7396.600000000001
 24
6856.907777930207
 34
0.0
 50
90.0
100
AcDbRotatedDimension
1001
ACAD
1000
DSTYLE
1002
{
1070
   174
1070
     0
1070
   272
1070
     1
1070
   341
1005
0
1002
}
  0
LINE
  5
2420F
102
{ACAD_REACTORS
330
25C44
102
}
330
747D
100
AcDbEntity
  8
部品1
 48
50.0
100
AcDbLine
 10
9753.6
 20
5956.907777930224
 30
0.0
 11
9753.6
 21
7756.907777930206
 31
0.0
  0
DIMENSION
  5
24211
330
747D
100
AcDbEntity
  8
寸法
 48
50.0
100
AcDbDimension
  2
*D35
 10
5905.222303205812
 20
7756.907777930206
 30
0.0
 11
5805.22230320581
 21
7306.907777930208
 31
0.0
 70
    32
 71
     5
 42
899.9999999999991
  3
INABA_S40G
100
AcDbAlignedDimension
 13
7396.600000000001
 23
6856.907777930207
 33
0.0
 14
6693.6
 24
7756.907777930205
 34
0.0
 50
90.0
100
AcDbRotatedDimension
1001
ACAD
1000
DSTYLE
1002
{
1070
   174
1070
     0
1070
   272
1070
     1
1070
   341
1005
0
1002
}
  0
LINE
  5
24217
330
747D
100
AcDbEntity
  8
部品1
 48
50.0
100
AcDbLine
 10
9753.6
 20
5956.907777930224
 30
0.0
 11
9301.6
 21
5956.907777930224
 31
0.0
  0
LINE
  5
24218
330
747D
100
AcDbEntity
  8
センター
 48
2.0
100
AcDbLine
 10
9580.600000000009
 20
6079.907777930208
 30
0.0
 11
9680.600000000008
 21
6079.907777930208
 31
0.0
  0
LINE
  5
24219
330
747D
100
AcDbEntity
  8
部品1
 48
50.0
100
AcDbLine
 10
9633.599999999999
 20
6186.907777930223
 30
0.0
 11
9523.6
 21
6186.907777930224
 31
0.0
  0
LINE
  5
2421A
330
747D
100
AcDbEntity
  8
部品1
 48
50.0
100
AcDbLine
 10
9301.6
 20
5881.907777930212
 30
0.0
 11
9301.6
 21
5956.907777930208
 31
0.0
  0
LINE
  5
2421B
330
747D
100
AcDbEntity
  8
部品1
 48
50.0
100
AcDbLine
 10
9523.600000000001
 20
6076.907777930223
 30
0.0
 11
9523.6
 21
6186.907777930224
 31
0.0
  0
CIRCLE
  5
2421C
330
747D
100
AcDbEntity
  8
部品1
 48
50.0
100
AcDbCircle
 10
9630.600000000008
 20
6079.907777930208
 30
0.0
 40
35.0
  0
LINE
  5
2421D
330
747D
100
AcDbEntity
  8
センター
 48
2.0
100
AcDbLine
 10
9630.600000000008
 20
6129.907777930208
 30
0.0
 11
9630.600000000008
 21
6029.907777930208
 31
0.0
  0
LINE
  5
2421E
102
{ACAD_REACTORS
330
25C44
102
}
330
747D
100
AcDbEntity
  8
部品1
 48
50.0
100
AcDbLine
 10
9753.6
 20
6756.907777930215
 30
0.0
 11
9633.600000000003
 21
6756.907777930216
 31
0.0
  0
LINE
  5
24220
330
747D
100
AcDbEntity
  8
センター
 48
2.0
100
AcDbLine
 10
8900.6
 20
6856.907777930207
 30
0.0
 11
9000.6
 21
6856.907777930207
 31
0.0
  0
LINE
  5
24222
102
{ACAD_REACTORS
330
25C44
102
}
330
747D
100
AcDbEntity
  8
部品1
 48
50.0
100
AcDbLine
 10
9753.6
 20
6956.907777930215
 30
0.0
 11
9633.600000000003
 21
6956.907777930215
 31
0.0
  0
LINE
  5
24223
330
747D
100
AcDbEntity
  8
センター
 48
2.0
100
AcDbLine
 10
9580.600000000002
 20
7633.907777930206
 30
0.0
 11
9680.600000000001
 21
7633.907777930206
 31
0.0
  0
LINE
  5
24224
330
747D
100
AcDbEntity
  8
部品1
 48
50.0
100
AcDbLine
 10
9633.599999999999
 20
7526.907777930206
 30
0.0
 11
9523.6
 21
7526.907777930204
 31
0.0
  0
LINE
  5
24225
330
747D
100
AcDbEntity
  8
部品1
 48
50.0
100
AcDbLine
 10
9523.6
 20
7526.907777930204
 30
0.0
 11
9523.600000000001
 21
7636.907777930206
 31
0.0
  0
CIRCLE
  5
24226
330
747D
100
AcDbEntity
  8
部品1
 48
50.0
100
AcDbCircle
 10
9630.600000000001
 20
7633.907777930206
 30
0.0
 40
35.0
  0
LINE
  5
24227
330
747D
100
AcDbEntity
  8
センター
 48
2.0
100
AcDbLine
 10
9630.600000000001
 20
7683.907777930206
 30
0.0
 11
9630.600000000001
 21
7583.907777930206
 31
0.0
  0
MTEXT
  5
24743
330
747D
100
AcDbEntity
  8
部品1
 62
     7
 48
50.0
100
AcDbMText
 10
8720.275362272223
 20
6514.514022644782
 30
0.0
 40
120.0
 41
0.0
 71
     6
 72
     1
  1
CB
  7
STYLE1
 73
     1
 44
1.0
1001
ACAD
1000
MTEXTBEGIN
1070
    73
1070
     1
1070
    44
1040
1.0
1070
    74
1070
     0
1000
MTEXTEND
  0
LWPOLYLINE
  5
24744
330
747D
100
AcDbEntity
  8
寸法
 48
50.0
100
AcDbPolyline
 90
        3
 70
     0
 43
0.0
 10
8855.385347728985
 20
6571.434416369618
 10
8816.722271222275
 20
6423.724325597071
 10
8552.417314292313
 20
6423.724325597071
1001
ACAD
1000
DSTYLE
1002
{
1070
   341
1005
0
1070
   343
1005
0
1070
   344
1005
0
1002
}
  0
SOLID
  5
24745
330
747D
100
AcDbEntity
  8
寸法
 48
50.0
100
AcDbTrace
 10
8835.230994149119
 20
6576.709812995037
 30
0.0
 11
8887.037727481493
 21
6692.360537848822
 31
0.0
 12
8875.53970130885
 22
6566.159019744201
 32
0.0
 13
8875.53970130885
 23
6566.159019744201
 33
0.0
1001
ACAD
1000
DSTYLE
1002
{
1070
   341
1005
0
1070
   343
1005
0
1070
   344
1005
0
1002
}
  0
LEADER
  5
24746
330
747D
100
AcDbEntity
  8
寸法
 48
50.0
100
AcDbLeader
  3
INABA_S50G
 73
     0
 74
     0
 75
     1
 40
120.0
 41
994.3492424049171
 76
     3
 10
9630.68008575701
 20
7633.921501126413
 30
0.0
 10
9804.645988304972
 20
7922.880272274156
 30
0.0
 10
9929.645988304972
 20
7922.880272274156
 30
0.0
340
24747
1001
ACAD
1000
DSTYLE
1002
{
1070
   341
1005
0
1070
    40
1040
1.0
1070
   343
1005
0
1070
   344
1005
0
1002
}
  0
MTEXT
  5
24747
102
{ACAD_REACTORS
330
24746
102
}
330
747D
100
AcDbEntity
  8
部品1
 62
     7
 48
50.0
100
AcDbMText
 10
10948.99523070989
 20
8007.880272274157
 30
0.0
 40
120.0
 41
0.0
 71
     6
 72
     1
  1
アンカーボルト
  7
STYLE1
 73
     1
 44
1.0
1001
ACAD
1000
MTEXTBEGIN
1070
    73
1070
     1
1070
    44
1040
1.0
1070
    74
1070
     0
1000
MTEXTEND
  0
LEADER
  5
24748
330
747D
100
AcDbEntity
  8
寸法
 48
50.0
100
AcDbLeader
  3
INABA_S50G
 73
     0
 74
     0
 75
     1
 40
120.0
 41
720.0000000000001
 76
     3
 10
9753.695499614996
 20
6792.518426729643
 30
0.0
 10
9910.46907400128
 20
6531.50451316181
 30
0.0
 10
10035.46907400128
 20
6531.50451316181
 30
0.0
340
24749
1001
ACAD
1000
DSTYLE
1002
{
1070
   341
1005
0
1070
    40
1040
1.0
1070
   343
1005
0
1070
   344
1005
0
1002
}
  0
MTEXT
  5
24749
102
{ACAD_REACTORS
330
24748
102
}
330
747D
100
AcDbEntity
  8
部品1
 62
     7
 48
50.0
100
AcDbMText
 10
10780.46907400128
 20
6616.50451316181
 30
0.0
 40
120.0
 41
0.0
 71
     6
 72
     1
  1
\A1;床下換気口
  7
STYLE1
 73
     1
 44
1.0
1001
ACAD
1000
MTEXTBEGIN
1070
    73
1070
     1
1070
    44
1040
1.0
1070
    74
1070
     0
1000
MTEXTEND
  0
DIMENSION
  5
24BBB
330
747D
100
AcDbEntity
  8
寸法
 48
50.0
100
AcDbDimension
  2
*D36
 10
9523.6
 20
7299.199110429832
 30
0.0
 11
9253.540944881889
 21
7299.199110429832
 31
0.0
 70
   160
 71
     5
 42
110.0
  3
INABA_S40G
100
AcDbAlignedDimension
 13
9633.600000000001
 23
7526.907777930206
 33
0.0
 14
9523.6
 24
7526.907777930204
 34
0.0
100
AcDbRotatedDimension
1001
ACAD
1000
DSTYLE
1002
{
1070
   174
1070
     0
1070
   272
1070
     1
1070
   341
1005
0
1002
}
  0
DIMENSION
  5
24BBC
330
747D
100
AcDbEntity
  8
寸法
 48
50.0
100
AcDbDimension
  2
*D37
 10
9633.599999999999
 20
7299.199110429832
 30
0.0
 11
10023.65905511811
 21
7299.199110429832
 31
0.0
 70
   160
 71
     5
 42
120.0000000000018
  3
INABA_S40G
100
AcDbAlignedDimension
 13
9753.6
 23
7526.907777930206
 33
0.0
 14
9633.599999999999
 24
7526.907777930206
 34
0.0
100
AcDbRotatedDimension
1001
ACAD
1000
DSTYLE
1002
{
1070
   174
1070
     0
1070
   272
1070
     1
1070
   341
1005
0
1002
}
  0
LINE
  5
25032
330
747D
100
AcDbEntity
  8
寸法
 48
50.0
100
AcDbLine
 10
7440.341458265277
 20
4980.961862207768
 30
0.0
 11
10191.15778665414
 21
4980.961862207768
 31
0.0
210
0.0
220
0.0
230
-1.0
1001
ACAD
1000
DSTYLE
1002
{
1070
   341
1005
0
1070
    40
1040
1.0
1070
   343
1005
0
1070
   344
1005
0
1002
}
  0
LINE
  5
25033
330
747D
100
AcDbEntity
  8
寸法
 48
50.0
100
AcDbLine
 10
7718.10383822487
 20
5881.907777930241
 30
0.0
 11
7440.341458265277
 21
4980.961862207768
 31
0.0
210
0.0
220
0.0
230
-1.0
1001
ACAD
1000
DSTYLE
1002
{
1070
   341
1005
0
1070
    40
1040
1.0
1070
   343
1005
0
1070
   344
1005
0
1002
}
  0
DIMENSION
  5
25034
330
747D
100
AcDbEntity
  8
寸法
 48
50.0
100
AcDbDimension
  2
*D38
 10
7042.197085004764
 20
5956.907777930224
 30
0.0
 11
7042.197085004764
 21
5686.848722812114
 31
0.0
 70
   160
 71
     5
 42
119.9999999999891
  3
INABA_S40G
100
AcDbAlignedDimension
 13
7042.197085004764
 23
6076.907777930213
 33
0.0
 14
6923.6
 24
5956.907777930224
 34
0.0
 50
90.0
100
AcDbRotatedDimension
1001
ACAD
1000
DSTYLE
1002
{
1070
   174
1070
     0
1070
   272
1070
     1
1070
   341
1005
0
1002
}
  0
DIMENSION
  5
25035
330
747D
100
AcDbEntity
  8
寸法
 48
50.0
100
AcDbDimension
  2
*D39
 10
7042.197085004765
 20
6186.907777930228
 30
0.0
 11
7042.197085004764
 21
6422.955022024719
 31
0.0
 70
   160
 71
     5
 42
110.0000000000182
  3
INABA_S40G
100
AcDbAlignedDimension
 13
7042.197085004764
 23
6076.90777793021
 33
0.0
 14
6923.6
 24
6186.907777930228
 34
0.0
 50
90.0
100
AcDbRotatedDimension
1001
ACAD
1000
DSTYLE
1002
{
1070
   174
1070
     0
1070
   272
1070
     1
1070
   341
1005
0
1002
}
  0
DIMENSION
  5
25036
330
747D
100
AcDbEntity
  8
寸法
 48
50.0
100
AcDbDimension
  2
*D40
 10
7146.600000000001
 20
5329.687091109516
 30
0.0
 11
8224.100000000003
 21
5429.698902133138
 31
0.0
 70
    32
  1
扉の幅 <>
 71
     5
 42
2155.000000000002
  3
INABA_S40G
100
AcDbAlignedDimension
 13
9301.600000000002
 23
5881.907777930226
 33
0.0
 14
7146.600000000001
 24
5881.907777930258
 34
0.0
100
AcDbRotatedDimension
1001
ACAD
1000
DSTYLE
1002
{
1070
   341
1005
0
1002
}
  0
TEXT
  5
25037
330
747D
100
AcDbEntity
  8
寸法
 62
     7
100
AcDbText
 10
7566.813330072307
 20
5012.172996572506
 30
0.0
 40
120.0
  1
扉位置 (2155x75)
  7
STYLE1
100
AcDbText
  0
SOLID
  5
25038
330
747D
100
AcDbEntity
  8
寸法
 48
50.0
100
AcDbTrace
 10
-7701.194632554882
 20
5756.316749025355
 30
0.0
 11
-7718.10383822487
 21
5881.907777930241
 31
0.0
 12
-7661.376418081406
 22
5768.589519994264
 32
0.0
 13
-7661.376418081406
 23
5768.589519994264
 33
0.0
210
0.0
220
0.0
230
-1.0
1001
ACAD
1000
DSTYLE
1002
{
1070
   341
1005
0
1070
    40
1040
1.0
1070
   343
1005
0
1070
   344
1005
0
1002
}
  0
TEXT
  5
25039
330
747D
100
AcDbEntity
  8
寸法
 62
     7
100
AcDbText
 10
7566.813330072307
 20
4840.569233689181
 30
0.0
 40
120.0
  1
扉の位置に合わせた基礎形状として下さい。
  7
STYLE1
100
AcDbText
  0
DIMENSION
  5
2503A
330
747D
100
AcDbEntity
  8
寸法
 48
50.0
100
AcDbDimension
  2
*D41
 10
7415.743526793875
 20
6076.90777793021
 30
0.0
 11
7415.743526793875
 21
5643.212836726359
 31
0.0
 70
   160
 71
     5
 42
194.9999999999572
  3
INABA_S40G
100
AcDbAlignedDimension
 13
7146.599999999963
 23
5881.907777930252
 33
0.0
 14
7042.197085004764
 24
6076.90777793021
 34
0.0
 50
270.0
100
AcDbRotatedDimension
1001
ACAD
1000
DSTYLE
1002
{
1070
   341
1005
0
1002
}
  0
DIMENSION
  5
25097
330
747D
100
AcDbEntity
  8
寸法
 48
50.0
100
AcDbDimension
  2
*D42
 10
6199.642875057094
 20
5956.907777930222
 30
0.0
 11
6199.642875057092
 21
5348.422496556015
 31
0.0
 70
   160
  1
扉の出<>
 71
     5
 42
74.99999999996998
  3
INABA_S40G
100
AcDbAlignedDimension
 13
7146.599999999963
 23
5881.907777930252
 33
0.0
 14
6693.6
 24
5956.907777930222
 34
0.0
 50
90.0
100
AcDbRotatedDimension
1001
ACAD
1000
DSTYLE
1002
{
1070
   174
1070
     0
1070
   272
1070
     1
1070
   341
1005
0
1002
}
  0
DIMENSION
  5
254FD
330
747D
100
AcDbEntity
  8
寸法
 48
50.0
100
AcDbDimension
  2
*D43
 10
5337.703905439387
 20
5956.907777930207
 30
0.0
 11
5337.703905439386
 21
5645.121052584819
 31
0.0
 70
   160
  1
a
 71
     5
 42
45.61210414292872
  3
INABA_S40G
100
AcDbAlignedDimension
 13
5589.647002158786
 23
5911.295673787279
 33
0.0
 14
6693.6
 24
5956.907777930206
 34
0.0
 50
90.0
100
AcDbRotatedDimension
1001
ACAD
1000
DSTYLE
1002
{
1070
   341
1005
0
1002
}
  0
LINE
  5
254FE
330
747D
100
AcDbEntity
  8
想像線
 48
10.0
100
AcDbLine
 10
6638.600000000022
 20
7802.519882073109
 30
0.0
 11
6638.600000000022
 21
7164.531102267456
 31
0.0
  0
LINE
  5
254FF
330
747D
100
AcDbEntity
  8
想像線
 48
10.0
100
AcDbLine
 10
6638.600000000022
 20
7802.519882073113
 30
0.0
 11
9828.600000000013
 21
7802.519882073109
 31
0.0
  0
DIMENSION
  5
25500
330
747D
100
AcDbEntity
  8
寸法
 48
50.0
100
AcDbDimension
  2
*D44
 10
6638.600000000012
 20
8715.128099989126
 30
0.0
 11
6666.100000000006
 21
8815.128099989125
 31
0.0
 70
    32
  1
b
 71
     5
 42
54.99999999998817
  3
INABA_S40G
100
AcDbAlignedDimension
 13
6693.6
 23
7756.907777930208
 33
0.0
 14
6638.600000000012
 24
8502.667404472289
 34
0.0
100
AcDbRotatedDimension
1001
ACAD
1000
DSTYLE
1002
{
1070
   341
1005
0
1002
}
  0
DIMENSION
  5
25501
330
747D
100
AcDbEntity
  8
寸法
 48
50.0
100
AcDbDimension
  2
*D45
 10
9753.6
 20
8715.128099989126
 30
0.0
 11
9791.100000000003
 21
8815.128099989125
 31
0.0
 70
    32
  1
c
 71
     5
 42
75.00000000000182
  3
INABA_S40G
100
AcDbAlignedDimension
 13
9828.600000000003
 23
8502.667404472289
 33
0.0
 14
9753.6
 24
7756.907777930208
 34
0.0
100
AcDbRotatedDimension
1001
ACAD
1000
DSTYLE
1002
{
1070
   341
1005
0
1002
}
  0
TEXT
  5
25502
330
747D
100
AcDbEntity
  8
部品1
 48
50.0
100
AcDbText
 10
10127.33442845753
 20
6779.710182168408
 30
0.0
 40
80.0
  1
(a=45,b=55,c=75)
  7
STYLE1
100
AcDbText
  0
TEXT
  5
25503
330
747D
100
AcDbEntity
  8
部品1
 48
50.0
100
AcDbText
 10
9968.75541970323
 20
6886.555403037163
 30
0.0
 40
80.0
  1
※a,b,cは屋根の出幅です。
  7
STYLE1
100
AcDbText
  0
MTEXT
  5
25504
102
{ACAD_REACTORS
330
25505
102
}
330
747D
100
AcDbEntity
  8
部品1
 62
     7
 48
50.0
100
AcDbMText
 10
10766.54261569183
 20
7065.866089970237
 30
0.0
 40
120.0
 41
0.0
 71
     6
 72
     1
  1
\A1;屋根の外寸
  7
STYLE1
 73
     1
 44
1.0
1001
ACAD
1000
MTEXTBEGIN
1070
    73
1070
     1
1070
    44
1040
1.0
1070
    74
1070
     0
1000
MTEXTEND
  0
LEADER
  5
25505
330
747D
100
AcDbEntity
  8
寸法
 48
50.0
100
AcDbLeader
  3
INABA_S50G
 73
     0
 74
     0
 75
     1
 40
120.0
 41
672.0
 76
     3
 10
9828.602603499795
 20
7239.755433433813
 30
0.0
 10
9944.542615691837
 20
6980.866089970238
 30
0.0
 10
10069.54261569183
 20
6980.866089970238
 30
0.0
340
25504
1001
ACAD
1000
DSTYLE
1002
{
1070
   341
1005
0
1070
    40
1040
1.0
1070
   343
1005
0
1070
   344
1005
0
1002
}
  0
DIMENSION
  5
25506
330
747D
100
AcDbEntity
  8
寸法
 48
50.0
100
AcDbDimension
  2
*D46
 10
5337.703905439387
 20
7802.519882073112
 30
0.0
 11
5337.703905439386
 21
8073.694503275572
 31
0.0
 70
   160
  1
a
 71
     5
 42
45.61210414290508
  3
INABA_S40G
100
AcDbAlignedDimension
 13
6693.6
 23
7756.907777930205
 33
0.0
 14
5589.647002158784
 24
7802.519882073112
 34
0.0
 50
90.0
100
AcDbRotatedDimension
1001
ACAD
1000
DSTYLE
1002
{
1070
   341
1005
0
1002
}
  0
LINE
  5
25507
330
747D
100
AcDbEntity
  8
想像線
 48
10.0
100
AcDbLine
 10
9828.600000000013
 20
7802.519882073109
 30
0.0
 11
9828.600000000013
 21
7164.531102267456
 31
0.0
  0
LINE
  5
25809
330
747D
100
AcDbEntity
  8
部品1
 48
50.0
100
AcDbLine
 10
7591.599999999996
 20
6661.907777930206
 30
0.0
 11
7401.599999999994
 21
6661.907777930206
 31
0.0
  0
LINE
  5
2580A
330
747D
100
AcDbEntity
  8
部品1
 48
50.0
100
AcDbLine
 10
7401.599999999994
 20
6661.907777930206
 30
0.0
 11
7401.599999999994
 21
7051.907777930207
 31
0.0
  0
LINE
  5
2580B
330
747D
100
AcDbEntity
  8
部品1
 48
50.0
100
AcDbLine
 10
7591.599999999996
 20
6661.907777930206
 30
0.0
 11
7591.599999999996
 21
7051.907777930207
 31
0.0
  0
LINE
  5
2580C
330
747D
100
AcDbEntity
  8
部品1
 48
50.0
100
AcDbLine
 10
7591.599999999996
 20
7051.907777930207
 30
0.0
 11
7401.599999999994
 21
7051.907777930207
 31
0.0
  0
LINE
  5
25812
330
747D
100
AcDbEntity
  8
部品1
 48
50.0
100
AcDbLine
 10
8318.599999999994
 20
7051.907777930207
 30
0.0
 11
8128.599999999995
 21
7051.907777930207
 31
0.0
  0
LINE
  5
25813
330
747D
100
AcDbEntity
  8
部品1
 48
50.0
100
AcDbLine
 10
8318.599999999994
 20
6661.907777930206
 30
0.0
 11
8318.599999999994
 21
7051.907777930207
 31
0.0
  0
LINE
  5
25814
330
747D
100
AcDbEntity
  8
部品1
 48
50.0
100
AcDbLine
 10
8128.599999999995
 20
6661.907777930206
 30
0.0
 11
8128.599999999995
 21
7051.907777930207
 31
0.0
  0
LINE
  5
25815
330
747D
100
AcDbEntity
  8
部品1
 48
50.0
100
AcDbLine
 10
8318.599999999994
 20
6661.907777930206
 30
0.0
 11
8128.599999999995
 21
6661.907777930206
 31
0.0
  0
LINE
  5
25816
330
747D
100
AcDbEntity
  8
部品1
 48
50.0
100
AcDbLine
 10
8855.599999999995
 20
6661.907777930206
 30
0.0
 11
8855.599999999995
 21
7051.907777930207
 31
0.0
  0
LINE
  5
25817
330
747D
100
AcDbEntity
  8
部品1
 48
50.0
100
AcDbLine
 10
9045.599999999994
 20
7051.907777930207
 30
0.0
 11
8855.599999999995
 21
7051.907777930207
 31
0.0
  0
LINE
  5
25818
330
747D
100
AcDbEntity
  8
部品1
 48
50.0
100
AcDbLine
 10
9045.599999999994
 20
6661.907777930206
 30
0.0
 11
9045.599999999994
 21
7051.907777930207
 31
0.0
  0
LINE
  5
25819
330
747D
100
AcDbEntity
  8
部品1
 48
50.0
100
AcDbLine
 10
9045.599999999994
 20
6661.907777930206
 30
0.0
 11
8855.599999999995
 21
6661.907777930206
 31
0.0
  0
LINE
  5
25BA4
102
{ACAD_REACTORS
330
25C6E
102
}
330
747D
100
AcDbEntity
  8
部品1
 48
50.0
100
AcDbLine
 10
9523.6
 20
7636.907777930204
 30
0.0
 11
6923.6
 21
7636.907777930206
 31
0.0
  0
LINE
  5
25BA6
330
747D
100
AcDbEntity
  8
部品1
 48
50.0
100
AcDbLine
 10
9523.6
 20
6076.907777930222
 30
0.0
 11
6923.6
 21
6076.90777793021
 31
0.0
  0
LINE
  5
25BA9
102
{ACAD_REACTORS
330
25CC2
102
}
330
747D
100
AcDbEntity
  8
部品1
 48
50.0
100
AcDbLine
 10
6813.6
 20
6186.907777930208
 30
0.0
 11
6813.6
 21
7526.907777930202
 31
0.0
  0
LINE
  5
25BAA
102
{ACAD_REACTORS
330
25C44
102
}
330
747D
100
AcDbEntity
  8
部品1
 48
50.0
100
AcDbLine
 10
9633.600000000001
 20
6186.907777930226
 30
0.0
 11
9633.600000000001
 21
7526.907777930206
 31
0.0
  0
LINE
  5
25BAB
102
{ACAD_REACTORS
330
25C98
102
}
330
747D
100
AcDbEntity
  8
部品1
 48
50.0
100
AcDbLine
 10
9523.6
 20
6076.907777930222
 30
0.0
 11
6923.6
 21
6076.90777793021
 31
0.0
  0
HATCH
  5
25C44
330
747D
100
AcDbEntity
  8
細線
 48
50.0
100
AcDbHatch
 10
0.0
 20
0.0
 30
0.0
210
0.0
220
0.0
230
1.0
  2
LINE
 70
     0
 71
     1
 91
        1
 92
        7
 72
     0
 73
     1
 93
        4
 10
9753.600000000004
 20
6956.907777930215
 10
9633.599999999999
 20
6956.907777930215
 10
9633.600000000001
 20
6756.907777930215
 10
9753.6
 20
6756.907777930215
 97
        4
330
24222
330
25BAA
330
2421E
330
2420F
 75
     0
 76
     1
 52
45.0
 41
10.0
 77
     0
 78
     1
 53
45.0
 43
0.0
 44
0.0
 45
-22.45064030267288
 46
22.45064030267288
 79
     0
 47
11.10317704040104
 98
        1
 10
9722.503034185763
 20
6848.510794711455
  0
HATCH
  5
25C6E
330
747D
100
AcDbEntity
  8
細線
 48
50.0
100
AcDbHatch
 10
0.0
 20
0.0
 30
0.0
210
0.0
220
0.0
230
1.0
  2
LINE
 70
     0
 71
     1
 91
        1
 92
        7
 72
     0
 73
     1
 93
        4
 10
8323.6
 20
7756.907777930205
 10
8123.599999999999
 20
7756.907777930205
 10
8123.599999999999
 20
7636.907777930206
 10
8323.6
 20
7636.907777930206
 97
        4
330
241D6
330
24207
330
25BA4
330
24206
 75
     0
 76
     1
 52
45.0
 41
10.0
 77
     0
 78
     1
 53
45.0
 43
0.0
 44
0.0
 45
-22.45064030267288
 46
22.45064030267288
 79
     0
 47
11.10317704040104
 98
        1
 10
8267.209489413319
 20
7703.455422602809
  0
HATCH
  5
25C98
330
747D
100
AcDbEntity
  8
細線
 48
50.0
100
AcDbHatch
 10
0.0
 20
0.0
 30
0.0
210
0.0
220
0.0
230
1.0
  2
LINE
 70
     0
 71
     1
 91
        1
 92
        7
 72
     0
 73
     1
 93
        4
 10
8323.600000000022
 20
6076.907777930216
 10
8123.600000000017
 20
6076.907777930216
 10
8123.600000000015
 20
5881.907777930201
 10
8323.600000000014
 20
5881.907777930202
 97
        4
330
25BAB
330
241F8
330
241E4
330
241F7
 75
     0
 76
     1
 52
45.0
 41
10.0
 77
     0
 78
     1
 53
45.0
 43
0.0
 44
0.0
 45
-22.45064030267288
 46
22.45064030267288
 79
     0
 47
11.10317704040104
 98
        1
 10
8233.8821639346
 20
5904.740758672232
  0
HATCH
  5
25CC2
330
747D
100
AcDbEntity
  8
細線
 48
50.0
100
AcDbHatch
 10
0.0
 20
0.0
 30
0.0
210
0.0
220
0.0
230
1.0
  2
LINE
 70
     0
 71
     1
 91
        1
 92
        7
 72
     0
 73
     1
 93
        4
 10
6813.6
 20
6956.907777930215
 10
6693.6
 20
6956.907777930215
 10
6693.6
 20
6756.907777930215
 10
6813.599999999998
 20
6756.907777930215
 97
        4
330
241CF
330
241DA
330
241CE
330
25BA9
 75
     0
 76
     1
 52
45.0
 41
10.0
 77
     0
 78
     1
 53
45.0
 43
0.0
 44
0.0
 45
-22.45064030267288
 46
22.45064030267288
 79
     0
 47
11.10317704040104
 98
        1
 10
6756.37035471895
 20
6915.129872098958
  0
LINE
  5
261AB
330
747D
100
AcDbEntity
  8
部品1
100
AcDbLine
 10
10865.64621817898
 20
3381.740362170603
 30
0.0
 11
4794.661032792727
 21
3381.740362170603
 31
0.0
  0
LINE
  5
261AC
330
747D
100
AcDbEntity
  8
部品1
100
AcDbLine
 10
10865.64621817898
 20
3141.740362170601
 30
0.0
 11
4794.66103279273
 21
3141.740362170602
 31
0.0
  0
LINE
  5
261AD
330
747D
100
AcDbEntity
  8
部品1
100
AcDbLine
 10
4794.661032792733
 20
417.4333925859563
 30
0.0
 11
10865.64621817898
 21
417.4333925859563
 31
0.0
  0
LEADER
  5
261AE
330
747D
100
AcDbEntity
  8
寸法
 48
50.0
100
AcDbLeader
  3
INABA_S50G
 73
     0
 74
     0
 75
     1
 40
102.2727272727273
 41
680.0000000000001
 76
     3
 10
7802.768784779186
 20
2459.644023502902
 30
0.0
 10
7837.122755892544
 20
2870.096834609443
 30
0.0
 10
7962.122755892544
 20
2870.096834609443
 30
0.0
340
261AF
1001
ACAD
1000
DSTYLE
1002
{
1070
   341
1005
0
1070
    40
1040
1.0
1070
   343
1005
0
1070
   344
1005
0
1002
}
  0
MTEXT
  5
261AF
102
{ACAD_REACTORS
330
261AE
102
}
330
747D
100
AcDbEntity
  8
部品1
 62
     7
 48
50.0
100
AcDbMText
 10
7987.122755892544
 20
2946.233198245807
 30
0.0
 40
80.0
 41
0.8
 71
     4
 72
     1
  1
\A1;ナット(市販品)
  7
STYLE2
 73
     1
 44
1.0
1001
ACAD
1000
MTEXTBEGIN
1070
    73
1070
     1
1070
    44
1040
1.0
1070
    74
1070
     0
1000
MTEXTEND
  0
LEADER
  5
261B0
330
747D
100
AcDbEntity
  8
寸法
 48
50.0
100
AcDbLeader
  3
INABA_S50G
 73
     0
 74
     0
 75
     1
 40
102.2727272727273
 41
906.8181818181818
 76
     3
 10
7826.768784779186
 20
2329.892030838038
 30
0.0
 10
7868.640375148025
 20
2685.127751844655
 30
0.0
 10
7993.640375148025
 20
2685.127751844655
 30
0.0
340
261B1
1001
ACAD
1000
DSTYLE
1002
{
1070
   341
1005
0
1070
    40
1040
1.0
1070
   343
1005
0
1070
   344
1005
0
1002
}
  0
MTEXT
  5
261B1
102
{ACAD_REACTORS
330
261B0
102
}
330
747D
100
AcDbEntity
  8
部品1
 62
     7
 48
50.0
100
AcDbMText
 10
8018.640375148025
 20
2761.264115481019
 30
0.0
 40
80.0
 41
0.8
 71
     4
 72
     1
  1
\A1;ワッシャー(市販品)
  7
STYLE2
 73
     1
 44
1.0
1001
ACAD
1000
MTEXTBEGIN
1070
    73
1070
     1
1070
    44
1040
1.0
1070
    74
1070
     0
1000
MTEXTEND
  0
LWPOLYLINE
  5
261B2
330
747D
100
AcDbEntity
  8
部品1
 48
50.0
100
AcDbPolyline
 90
        2
 70
     0
 43
8.0
 10
7979.368784779186
 20
1820.768742393759
 10
8273.07124817857
 20
1820.768742393759
  0
TEXT
  5
261B3
330
747D
100
AcDbEntity
  8
部品1
 48
50.0
100
AcDbText
 10
7983.722369063615
 20
2416.647423155959
 30
0.0
 40
80.0
  1
基礎ボルト(市販品)
  7
STYLE2
100
AcDbText
  0
DIMENSION
  5
261B4
330
747D
100
AcDbEntity
  8
寸法
 48
50.0
100
AcDbDimension
  2
*D59
 10
8481.237384548029
 20
1736.768742393758
 30
0.0
 11
8381.237384548029
 21
1898.76874239376
 31
0.0
 70
    32
  1
180
 71
     5
 42
324.0000000000009
  3
INABA_S40G
100
AcDbAlignedDimension
 13
7979.368784779186
 23
2060.768742393759
 33
0.0
 14
7979.368784779186
 24
1736.768742393758
 34
0.0
 50
90.0
100
AcDbRotatedDimension
1001
ACAD
1000
DSTYLE
1002
{
1070
   174
1070
     0
1070
   272
1070
     1
1070
   279
1070
     1
1070
   288
1070
     0
1070
   341
1005
0
1002
}
  0
DIMENSION
  5
261B5
330
747D
100
AcDbEntity
  8
寸法
 48
50.0
100
AcDbDimension
  2
*D60
 10
8481.237384548029
 20
2060.768742393759
 30
0.0
 11
8757.292050667057
 21
2035.644784789547
 31
0.0
 70
   160
  1
20～25
 71
     5
 42
52.76000000000113
  3
INABA_S40G
100
AcDbAlignedDimension
 13
7792.168784779187
 23
2113.52874239376
 33
0.0
 14
7979.368784779186
 24
2060.768742393759
 34
0.0
 50
90.0
100
AcDbRotatedDimension
1001
ACAD
1000
DSTYLE
1002
{
1070
   174
1070
     0
1070
   272
1070
     1
1070
   279
1070
     1
1070
   288
1070
     0
1070
   341
1005
0
1002
}
  0
MTEXT
  5
261B6
102
{ACAD_REACTORS
330
261B7
102
}
330
747D
100
AcDbEntity
  8
部品1
 62
     7
 48
50.0
100
AcDbMText
 10
7988.313247198504
 20
2325.152068546989
 30
0.0
 40
80.0
 41
0.8
 71
     4
 72
     1
  1
M10X160
  7
STYLE2
 73
     1
 44
1.0
1001
ACAD
1000
MTEXTBEGIN
1070
    73
1070
     1
1070
    44
1040
1.0
1070
    74
1070
     0
1000
MTEXTEND
  0
LEADER
  5
261B7
330
747D
100
AcDbEntity
  8
寸法
 48
50.0
100
AcDbLeader
  3
INABA_S50G
 73
     0
 74
     0
 75
     1
 40
80.0
 41
435.0
 76
     3
 10
7795.768784779186
 20
2109.928742393759
 30
0.0
 10
7838.313247198505
 20
2260.152068546989
 30
0.0
 10
7963.313247198505
 20
2260.152068546989
 30
0.0
340
261B6
1001
ACAD
1000
DSTYLE
1002
{
1070
   341
1005
0
1070
    40
1040
1.0
1070
   343
1005
0
1070
   344
1005
0
1002
}
  0
LINE
  5
261B8
330
747D
100
AcDbEntity
  8
部品1
100
AcDbLine
 10
4794.661032792729
 20
3381.740362170603
 30
0.0
 11
4794.66103279273
 21
417.4333925859563
 31
0.0
  0
LEADER
  5
261B9
330
747D
100
AcDbEntity
  8
寸法
 48
50.0
100
AcDbLeader
  3
INABA_S50G
 73
     0
 75
     1
 40
113.1818181818182
 41
608.6363636363635
 76
     3
 10
7755.505534917237
 20
2010.284415752038
 30
0.0
 10
7621.701706225889
 20
2861.663498108516
 30
0.0
 10
7496.701706225889
 20
2861.663498108516
 30
0.0
340
261BA
1001
ACAD
1000
DSTYLE
1002
{
1070
   341
1005
0
1070
    40
1040
1.0
1070
   343
1005
0
1070
   344
1005
0
1002
}
  0
MTEXT
  5
261BA
102
{ACAD_REACTORS
330
261B9
102
}
330
747D
100
AcDbEntity
  8
寸法
 62
     7
 48
50.0
100
AcDbMText
 10
7471.701706225889
 20
2943.254407199424
 30
0.0
 40
80.0
 41
0.8
 71
     6
 72
     1
  1
\A1;φ70スリーブ
  7
STYLE2
 73
     1
 44
1.0
1001
ACAD
1000
MTEXTBEGIN
1070
    73
1070
     1
1070
    44
1040
1.0
1070
    74
1070
     0
1000
MTEXTEND
  0
LWPOLYLINE
  5
261BB
330
747D
100
AcDbEntity
  8
部品1
 48
50.0
100
AcDbPolyline
 90
        2
 70
     0
 43
8.0
 10
5451.189569769035
 20
1820.768742393759
 10
5865.329471601992
 20
1820.768742393759
  0
TEXT
  5
261BC
330
747D
100
AcDbEntity
  8
部品1
 48
50.0
100
AcDbText
 10
5451.189569769035
 20
1832.007734677014
 30
0.0
 40
80.0
  1
▽G.L
  7
STYLE2
100
AcDbText
  0
DIMENSION
  5
261BD
330
747D
100
AcDbEntity
  8
寸法
 48
50.0
100
AcDbDimension
  2
*D61
 10
5594.909157869532
 20
1276.768742393759
 30
0.0
 11
5594.909157869532
 21
1396.768742393758
 31
0.0
 70
   160
  1
150
 71
     5
 42
240.0
  3
INABA_S40G
100
AcDbAlignedDimension
 13
5737.329471601992
 23
1516.768742393758
 33
0.0
 14
5657.329471601996
 24
1276.768742393759
 34
0.0
 50
90.0
100
AcDbRotatedDimension
1001
ACAD
1000
DSTYLE
1002
{
1070
   174
1070
     0
1070
   272
1070
     1
1070
   279
1070
     1
1070
   288
1070
     0
1070
   341
1005
0
1002
}
  0
LEADER
  5
261BE
330
747D
100
AcDbEntity
  8
寸法
 48
50.0
100
AcDbLeader
  3
INABA_S50G
 71
     0
 73
     0
 75
     1
 40
100.0
 41
225.0
 76
     3
 10
5833.232423954135
 20
1396.768742393758
 30
0.0
 10
5711.394445406797
 20
1133.246048775322
 30
0.0
 10
5586.394445406797
 20
1133.246048775322
 30
0.0
1001
ACAD
1000
DSTYLE
1002
{
1070
    40
1040
1.0
1070
   272
1070
     1
1070
   279
1070
     1
1070
   341
1005
0
1002
}
  0
LEADER
  5
261BF
330
747D
100
AcDbEntity
  8
寸法
 48
50.0
100
AcDbLeader
  3
INABA_S50G
 71
     0
 73
     0
 75
     1
 40
100.0
 41
222.7272727272727
 76
     3
 10
5961.329471601992
 20
1396.768742393758
 30
0.0
 10
5739.517172964233
 20
952.9298962358788
 30
0.0
 10
5614.517172964233
 20
952.9298962358788
 30
0.0
1001
ACAD
1000
DSTYLE
1002
{
1070
    40
1040
1.0
1070
   272
1070
     1
1070
   279
1070
     1
1070
   341
1005
0
1002
}
  0
MTEXT
  5
261C0
102
{ACAD_REACTORS
330
261C1
102
}
330
747D
100
AcDbEntity
  8
寸法
 62
     7
 48
50.0
100
AcDbMText
 10
5776.079417379187
 20
1662.069345211216
 30
0.0
 40
80.0
 41
0.8
 71
     6
 72
     1
  1
\A1;D10@300
  7
STYLE2
 73
     1
 44
1.0
1001
ACAD
1000
MTEXTBEGIN
1070
    73
1070
     1
1070
    44
1040
1.0
1070
    74
1070
     0
1000
MTEXTEND
  0
LEADER
  5
261C1
330
747D
100
AcDbEntity
  8
寸法
 48
50.0
100
AcDbLeader
  3
INABA_S50G
 71
     0
 73
     0
 75
     1
 40
100.0
 41
540.3409090909091
 76
     3
 10
5969.329471601992
 20
1818.895957090882
 30
0.0
 10
5911.347235073293
 20
1597.425628550077
 30
0.0
 10
5786.347235073293
 20
1597.425628550077
 30
0.0
213
-9.732182305893367
223
-4.643716661138569
233
0.0
1001
ACAD
1000
DSTYLE
1002
{
1070
    40
1040
1.0
1070
   272
1070
     1
1070
   279
1070
     1
1070
   341
1005
0
1002
}
  0
LEADER
  5
261C2
330
747D
100
AcDbEntity
  8
寸法
 48
50.0
100
AcDbLeader
  3
INABA_S50G
 71
     0
 73
     0
 75
     1
 40
130.1136363636363
 41
651.1363636363636
 76
     3
 10
5945.329471601992
 20
2060.768742393759
 30
0.0
 10
5832.904891437975
 20
2201.239507850347
 30
0.0
 10
5707.904891437975
 20
2201.239507850347
 30
0.0
1001
ACAD
1000
DSTYLE
1002
{
1070
    40
1040
1.0
1070
   272
1070
     1
1070
   279
1070
     1
1070
   341
1005
0
1002
}
  0
MTEXT
  5
261C3
102
{ACAD_REACTORS
330
261C2
102
}
330
747D
100
AcDbEntity
  8
寸法
 62
     7
 48
50.0
100
AcDbMText
 10
5645.230992118719
 20
2273.284962395801
 30
0.0
 40
80.0
 41
0.8
 71
     6
 72
     1
  1
\A1;金コテ押エ
  7
STYLE2
 73
     1
 44
1.0
1001
ACAD
1000
MTEXTBEGIN
1070
    73
1070
     1
1070
    44
1040
1.0
1070
    74
1070
     0
1000
MTEXTEND
  0
DIMENSION
  5
261C4
330
747D
100
AcDbEntity
  8
寸法
 48
50.0
100
AcDbDimension
  2
*D62
 10
5130.29223304025
 20
1276.768742393759
 30
0.0
 11
5130.292233040251
 21
1648.308892049759
 31
0.0
 70
   160
  1
540
 71
     5
 42
784.0
  3
INABA_S40G
100
AcDbAlignedDimension
 13
5865.329471601992
 23
2060.768742393759
 33
0.0
 14
5657.329471601996
 24
1276.768742393759
 34
0.0
 50
90.0
100
AcDbRotatedDimension
1001
ACAD
1000
DSTYLE
1002
{
1070
   174
1070
     0
1070
   272
1070
     1
1070
   279
1070
     1
1070
   288
1070
     0
1070
   341
1005
0
1002
}
  0
MTEXT
  5
261C5
102
{ACAD_REACTORS
330
261BF
102
}
330
747D
100
AcDbEntity
  8
寸法
 62
     7
 48
50.0
100
AcDbMText
 10
5594.517172964232
 20
1012.929896235879
 30
0.0
 40
80.0
 41
0.8
 71
     6
 72
     1
  1
D13
  7
STYLE2
 73
     1
 44
1.0
1001
ACAD
1000
MTEXTBEGIN
1070
    73
1070
     1
1070
    44
1040
1.0
1070
    74
1070
     0
1000
MTEXTEND
  0
MTEXT
  5
261C6
102
{ACAD_REACTORS
330
261BE
102
}
330
747D
100
AcDbEntity
  8
寸法
 62
     7
 48
50.0
100
AcDbMText
 10
5566.394445406798
 20
1193.246048775322
 30
0.0
 40
80.0
 41
0.8
 71
     6
 72
     1
  1
D10
  7
STYLE2
 73
     1
 44
1.0
1001
ACAD
1000
MTEXTBEGIN
1070
    73
1070
     1
1070
    44
1040
1.0
1070
    74
1070
     0
1000
MTEXTEND
  0
DIMENSION
  5
261C7
330
747D
100
AcDbEntity
  8
寸法
 48
50.0
100
AcDbDimension
  2
*D63
 10
6185.329471601992
 20
738.3391043885985
 30
0.0
 11
5941.232712923768
 21
738.3391043885985
 31
0.0
 70
   160
  1
300
 71
     5
 42
448.0
  3
INABA_S40G
100
AcDbAlignedDimension
 13
5737.329471601992
 23
1148.768742393758
 33
0.0
 14
6185.329471601992
 24
1148.768742393758
 34
0.0
100
AcDbRotatedDimension
1001
ACAD
1000
DSTYLE
1002
{
1070
   174
1070
     0
1070
   272
1070
     1
1070
   279
1070
     1
1070
   288
1070
     0
1070
   341
1005
0
1002
}
  0
MTEXT
  5
261C8
102
{ACAD_REACTORS
330
261C9
102
}
330
747D
100
AcDbEntity
  8
寸法
 62
     7
 48
50.0
100
AcDbMText
 10
7498.344712434247
 20
2582.570135291911
 30
0.0
 40
80.0
 41
0.8
 71
     6
 72
     1
  1
アンカープレート Ｕ
  7
STYLE2
 73
     1
 44
1.0
1001
ACAD
1000
MTEXTBEGIN
1070
    73
1070
     1
1070
    44
1040
1.0
1070
    74
1070
     0
1000
MTEXTEND
  0
LEADER
  5
261C9
330
747D
100
AcDbEntity
  8
寸法
 48
50.0
100
AcDbLeader
  3
INABA_S50G
 73
     0
 75
     1
 40
106.3636363636363
 41
920.0
 76
     3
 10
7696.768784779187
 20
2130.32874239376
 30
0.0
 10
7648.344712434248
 20
2504.388317110092
 30
0.0
 10
7523.344712434248
 20
2504.388317110092
 30
0.0
340
261C8
1001
ACAD
1000
DSTYLE
1002
{
1070
   341
1005
0
1070
    40
1040
1.0
1070
   343
1005
0
1070
   344
1005
0
1002
}
  0
LINE
  5
261CA
330
747D
100
AcDbEntity
  8
細線
 48
50.0
100
AcDbLine
 10
5985.329471601993
 20
1899.141635061589
 30
0.0
 11
6057.329471601993
 21
1971.141635061589
 31
0.0
  0
ARC
  5
261CB
330
747D
100
AcDbEntity
  8
部品1
 48
50.0
100
AcDbCircle
 10
5961.329471601993
 20
1921.023171788004
 30
0.0
 40
24.0
100
AcDbArc
 50
0.0
 51
180.0
  0
CIRCLE
  5
261CC
330
747D
100
AcDbEntity
  8
部品1
 48
50.0
100
AcDbCircle
 10
5961.329471601993
 20
1921.023171788004
 30
0.0
 40
8.0
  0
LINE
  5
261CD
330
747D
100
AcDbEntity
  8
部品1
 48
50.0
100
AcDbLine
 10
5865.329471601993
 20
1516.768742393758
 30
0.0
 11
5865.329471601993
 21
2060.768742393759
 31
0.0
  0
LINE
  5
261CE
330
747D
100
AcDbEntity
  8
部品1
 48
50.0
100
AcDbLine
 10
6057.329471601993
 20
2060.768742393759
 30
0.0
 11
6057.329471601993
 21
1516.768742393758
 31
0.0
  0
MTEXT
  5
261CF
102
{ACAD_REACTORS
330
261D4
102
}
330
747D
100
AcDbEntity
  8
寸法
 62
     7
 48
50.0
100
AcDbMText
 10
6140.215408629387
 20
1922.036303692686
 30
0.0
 40
80.0
 41
0.8
 71
     4
 72
     1
  1
D13
  7
STYLE2
 73
     1
 44
1.0
1001
ACAD
1000
MTEXTBEGIN
1070
    73
1070
     1
1070
    44
1040
1.0
1070
    74
1070
     0
1000
MTEXTEND
  0
LEADER
  5
261D0
330
747D
100
AcDbEntity
  8
寸法
 48
50.0
100
AcDbLeader
  3
INABA_S50G
 71
     0
 73
     0
 74
     0
 75
     1
 40
100.0
 41
225.0
 76
     3
 10
6089.232423954135
 20
1396.768742393758
 30
0.0
 10
6143.657131408676
 20
1301.371673450786
 30
0.0
 10
6268.657131408676
 20
1301.371673450786
 30
0.0
1001
ACAD
1000
DSTYLE
1002
{
1070
    40
1040
1.0
1070
   272
1070
     1
1070
   279
1070
     1
1070
   341
1005
0
1002
}
  0
LEADER
  5
261D1
330
747D
100
AcDbEntity
  8
寸法
 48
50.0
100
AcDbLeader
  3
INABA_S50G
 71
     0
 73
     0
 74
     0
 75
     1
 40
100.0
 41
540.3409090909091
 76
     3
 10
6035.274640615167
 20
1380.028211980233
 30
0.0
 10
6154.067927463243
 20
1038.397393985336
 30
0.0
 10
6279.067927463243
 20
1038.397393985336
 30
0.0
213
0.0
223
-1.022262676269383
233
0.0
1001
ACAD
1000
DSTYLE
1002
{
1070
    40
1040
1.0
1070
   272
1070
     1
1070
   279
1070
     1
1070
   341
1005
0
1002
}
  0
MTEXT
  5
261D2
102
{ACAD_REACTORS
330
261D0
102
}
330
747D
100
AcDbEntity
  8
寸法
 62
     7
 48
50.0
100
AcDbMText
 10
6288.657131408677
 20
1361.371673450786
 30
0.0
 40
80.0
 41
0.8
 71
     4
 72
     1
  1
D10
  7
STYLE2
 73
     1
 44
1.0
1001
ACAD
1000
MTEXTBEGIN
1070
    73
1070
     1
1070
    44
1040
1.0
1070
    74
1070
     0
1000
MTEXTEND
  0
LWPOLYLINE
  5
261D3
330
747D
100
AcDbEntity
  8
部品1
 48
50.0
100
AcDbPolyline
 90
        2
 70
     0
 43
8.0
 10
6057.329471601992
 20
1820.768742393759
 10
6471.469373434949
 20
1820.768742393759
  0
LEADER
  5
261D4
330
747D
100
AcDbEntity
  8
寸法
 48
50.0
100
AcDbLeader
  3
INABA_S50G
 71
     0
 73
     0
 74
     0
 75
     1
 40
100.0
 41
222.7272727272727
 76
     3
 10
5961.329471601992
 20
1921.023171788004
 30
0.0
 10
5995.215408629387
 20
1862.036303692686
 30
0.0
 10
6120.215408629387
 20
1862.036303692686
 30
0.0
1001
ACAD
1000
DSTYLE
1002
{
1070
    40
1040
1.0
1070
   272
1070
     1
1070
   279
1070
     1
1070
   341
1005
0
1002
}
  0
LINE
  5
261D5
330
747D
100
AcDbEntity
  8
細線
 48
50.0
100
AcDbLine
 10
5737.329471601985
 20
1435.61548815593
 30
0.0
 11
5818.482725839821
 21
1516.768742393758
 31
0.0
  0
LINE
  5
261D6
330
747D
100
AcDbEntity
  8
細線
 48
50.0
100
AcDbLine
 10
5945.195319079396
 20
1454.895957090881
 30
0.0
 11
5969.329471601998
 21
1479.03010961348
 31
0.0
  0
LINE
  5
261D7
330
747D
100
AcDbEntity
  8
細線
 48
50.0
100
AcDbLine
 10
5852.127336019066
 20
1388.768742393758
 30
0.0
 11
5969.329471601993
 21
1505.970877976684
 31
0.0
  0
LINE
  5
261D8
330
747D
100
AcDbEntity
  8
部品1
 48
50.0
100
AcDbLine
 10
5737.329471601992
 20
1276.768742393759
 30
0.0
 11
5737.329471601992
 21
1516.768742393758
 31
0.0
  0
LINE
  5
261D9
330
747D
100
AcDbEntity
  8
細線
 48
50.0
100
AcDbLine
 10
6094.594251287936
 20
1388.768742393758
 30
0.0
 11
6185.329471601993
 21
1479.503962707817
 31
0.0
  0
LINE
  5
261DA
330
747D
100
AcDbEntity
  8
細線
 48
50.0
100
AcDbLine
 10
6067.65348292472
 20
1388.768742393758
 30
0.0
 11
6185.329471601993
 21
1506.444731071025
 31
0.0
  0
LINE
  5
261DB
330
747D
100
AcDbEntity
  8
部品1
 48
50.0
100
AcDbLine
 10
6185.329471601993
 20
1516.768742393758
 30
0.0
 11
6185.329471601993
 21
1276.768742393759
 31
0.0
  0
LINE
  5
261DC
330
747D
100
AcDbEntity
  8
部品1
 48
50.0
100
AcDbLine
 10
5985.329471601998
 20
1396.768742393758
 30
0.0
 11
5985.329471601993
 21
1921.023171788004
 31
0.0
  0
LINE
  5
261DD
330
747D
100
AcDbEntity
  8
部品1
 48
50.0
100
AcDbLine
 10
5969.329471601998
 20
1396.768742393758
 30
0.0
 11
5969.329471601986
 21
1921.023171788004
 31
0.0
  0
LINE
  5
261DE
330
747D
100
AcDbEntity
  8
細線
 48
50.0
100
AcDbLine
 10
5953.329471601993
 20
1436.08934125027
 30
0.0
 11
5969.329471601998
 21
1452.08934125027
 31
0.0
  0
LINE
  5
261DF
330
747D
100
AcDbEntity
  8
細線
 48
50.0
100
AcDbLine
 10
5942.512311098006
 20
1148.768742393758
 30
0.0
 11
5976.809807729189
 21
1276.768742393759
 31
0.0
  0
LINE
  5
261E0
330
747D
100
AcDbEntity
  8
部品1
 48
50.0
100
AcDbLine
 10
6265.329471601996
 20
1148.768742393758
 30
0.0
 11
5657.329471601994
 21
1148.768742393758
 31
0.0
  0
LINE
  5
261E1
330
747D
100
AcDbEntity
  8
部品1
 48
50.0
100
AcDbLine
 10
5793.329471601992
 20
1372.768742393758
 30
0.0
 11
6129.329471601993
 21
1372.768742393758
 31
0.0
  0
LINE
  5
261E2
330
747D
100
AcDbEntity
  8
部品1
 48
50.0
100
AcDbLine
 10
5793.329471601992
 20
1388.768742393758
 30
0.0
 11
6129.329471601993
 21
1388.768742393758
 31
0.0
  0
LINE
  5
261E3
330
747D
100
AcDbEntity
  8
部品1
 48
50.0
100
AcDbLine
 10
6265.329471601996
 20
1276.768742393759
 30
0.0
 11
5657.329471601994
 21
1276.768742393759
 31
0.0
  0
CIRCLE
  5
261E4
330
747D
100
AcDbEntity
  8
部品1
 48
50.0
100
AcDbCircle
 10
5961.329471601993
 20
1396.768742393758
 30
0.0
 40
8.0
  0
LINE
  5
261E5
330
747D
100
AcDbEntity
  8
細線
 48
50.0
100
AcDbLine
 10
5955.653482924725
 20
1276.768742393759
 30
0.0
 11
6051.653482924725
 21
1372.768742393758
 31
0.0
  0
LINE
  5
261E6
330
747D
100
AcDbEntity
  8
細線
 48
50.0
100
AcDbLine
 10
5784.736221203509
 20
1148.768742393758
 30
0.0
 11
5819.033717834692
 21
1276.768742393759
 31
0.0
  0
LINE
  5
261E7
330
747D
100
AcDbEntity
  8
細線
 48
50.0
100
AcDbLine
 10
5863.624266150754
 20
1148.768742393757
 30
0.0
 11
5897.921762781937
 21
1276.768742393757
 31
0.0
  0
LINE
  5
261E8
330
747D
100
AcDbEntity
  8
細線
 48
50.0
100
AcDbLine
 10
5705.84817625625
 20
1148.768742393757
 30
0.0
 11
5740.145672887433
 21
1276.768742393757
 31
0.0
  0
LINE
  5
261E9
330
747D
100
AcDbEntity
  8
部品1
 48
50.0
100
AcDbLine
 10
5657.329471601994
 20
1148.768742393758
 30
0.0
 11
5657.329471601994
 21
1276.768742393759
 31
0.0
  0
LINE
  5
261EA
330
747D
100
AcDbEntity
  8
細線
 48
50.0
100
AcDbLine
 10
5791.167001821855
 20
1172.768742393758
 30
0.0
 11
5797.597782440202
 21
1148.768742393758
 31
0.0
  0
LINE
  5
261EB
330
747D
100
AcDbEntity
  8
細線
 48
50.0
100
AcDbLine
 10
5712.278956874604
 20
1172.768742393758
 30
0.0
 11
5718.70973749295
 21
1148.768742393758
 31
0.0
  0
LINE
  5
261EC
330
747D
100
AcDbEntity
  8
細線
 48
50.0
100
AcDbLine
 10
5948.94309171636
 20
1172.768742393758
 30
0.0
 11
5955.373872334706
 21
1148.768742393758
 31
0.0
  0
LINE
  5
261ED
330
747D
100
AcDbEntity
  8
細線
 48
50.0
100
AcDbLine
 10
5870.055046769107
 20
1172.768742393758
 30
0.0
 11
5876.485827387454
 21
1148.768742393758
 31
0.0
  0
LINE
  5
261EE
330
747D
100
AcDbEntity
  8
細線
 48
50.0
100
AcDbLine
 10
5767.068104382276
 20
1276.768742393759
 30
0.0
 11
5863.068104382276
 21
1372.768742393758
 31
0.0
  0
LINE
  5
261EF
330
747D
100
AcDbEntity
  8
細線
 48
50.0
100
AcDbLine
 10
5740.127336019066
 20
1276.768742393759
 30
0.0
 11
5836.127336019065
 21
1372.768742393758
 31
0.0
  0
LINE
  5
261F0
330
747D
100
AcDbEntity
  8
部品1
 48
50.0
100
AcDbLine
 10
5793.329471601992
 20
1388.768742393758
 30
0.0
 11
5793.329471601992
 21
1372.768742393758
 31
0.0
  0
LINE
  5
261F1
330
747D
100
AcDbEntity
  8
細線
 48
50.0
100
AcDbLine
 10
5733.714892269093
 20
1252.768742393759
 30
0.0
 11
5727.284111650745
 21
1276.768742393759
 31
0.0
  0
LINE
  5
261F2
330
747D
100
AcDbEntity
  8
細線
 48
50.0
100
AcDbLine
 10
5657.329471601993
 20
1262.108663359539
 30
0.0
 11
5661.257627940188
 21
1276.768742393759
 31
0.0
  0
LINE
  5
261F3
330
747D
100
AcDbEntity
  8
部品1
 48
50.0
100
AcDbLine
 10
5953.329471601993
 20
1454.895957090881
 30
0.0
 11
5937.329471601993
 21
1454.895957090881
 31
0.0
  0
CIRCLE
  5
261F4
330
747D
100
AcDbEntity
  8
部品1
 48
50.0
100
AcDbCircle
 10
5833.329471601992
 20
1396.768742393758
 30
0.0
 40
8.0
  0
LINE
  5
261F5
330
747D
100
AcDbEntity
  8
細線
 48
50.0
100
AcDbLine
 10
5906.008872745481
 20
1388.768742393758
 30
0.0
 11
5937.329471601993
 21
1420.08934125027
 31
0.0
  0
ARC
  5
261F6
330
747D
100
AcDbEntity
  8
部品1
 48
50.0
100
AcDbCircle
 10
5961.329471601993
 20
1396.768742393758
 30
0.0
 40
24.0
100
AcDbArc
 50
180.0
 51
199.4712206345112
  0
LINE
  5
261F7
330
747D
100
AcDbEntity
  8
細線
 48
50.0
100
AcDbLine
 10
5812.602937216343
 20
1252.768742393759
 30
0.0
 11
5806.172156597998
 21
1276.768742393759
 31
0.0
  0
LINE
  5
261F8
330
747D
100
AcDbEntity
  8
細線
 48
50.0
100
AcDbLine
 10
5891.490982163596
 20
1252.768742393759
 30
0.0
 11
5885.06020154525
 21
1276.768742393759
 31
0.0
  0
LINE
  5
261F9
330
747D
100
AcDbEntity
  8
細線
 48
50.0
100
AcDbLine
 10
5794.008872745481
 20
1276.768742393759
 30
0.0
 11
5890.008872745482
 21
1372.768742393758
 31
0.0
  0
LINE
  5
261FA
330
747D
100
AcDbEntity
  8
部品1
 48
50.0
100
AcDbLine
 10
5937.329471601993
 20
1454.895957090881
 30
0.0
 11
5937.329471601993
 21
1396.768742393758
 31
0.0
  0
LINE
  5
261FB
330
747D
100
AcDbEntity
  8
細線
 48
50.0
100
AcDbLine
 10
5879.068104382276
 20
1388.768742393758
 30
0.0
 11
5937.329471601993
 21
1447.030109613477
 31
0.0
  0
LINE
  5
261FC
330
747D
100
AcDbEntity
  8
部品1
 48
50.0
100
AcDbLine
 10
5953.329471601993
 20
1454.895957090881
 30
0.0
 11
5953.329471601993
 21
1396.768742393758
 31
0.0
  0
LINE
  5
261FD
330
747D
100
AcDbEntity
  8
部品1
 48
50.0
100
AcDbLine
 10
6265.329471601996
 20
1276.768742393759
 30
0.0
 11
6265.329471601996
 21
1148.768742393758
 31
0.0
  0
LINE
  5
261FE
330
747D
100
AcDbEntity
  8
細線
 48
50.0
100
AcDbLine
 10
6179.176445939746
 20
1148.768742393758
 30
0.0
 11
6213.473942570931
 21
1276.768742393757
 31
0.0
  0
LINE
  5
261FF
330
747D
100
AcDbEntity
  8
細線
 48
50.0
100
AcDbLine
 10
6021.400356045251
 20
1148.768742393758
 30
0.0
 11
6055.697852676439
 21
1276.768742393757
 31
0.0
  0
LINE
  5
26200
330
747D
100
AcDbEntity
  8
細線
 48
50.0
100
AcDbLine
 10
6100.288400992501
 20
1148.768742393757
 30
0.0
 11
6134.585897623686
 21
1276.768742393757
 31
0.0
  0
LINE
  5
26201
330
747D
100
AcDbEntity
  8
細線
 48
50.0
100
AcDbLine
 10
6106.71918161085
 20
1172.768742393758
 30
0.0
 11
6113.149962229198
 21
1148.768742393758
 31
0.0
  0
LINE
  5
26202
330
747D
100
AcDbEntity
  8
細線
 48
50.0
100
AcDbLine
 10
6027.831136663605
 20
1172.768742393758
 30
0.0
 11
6034.261917281952
 21
1148.768742393758
 31
0.0
  0
LINE
  5
26203
330
747D
100
AcDbEntity
  8
細線
 48
50.0
100
AcDbLine
 10
6185.607226558097
 20
1172.768742393758
 30
0.0
 11
6192.038007176446
 21
1148.768742393758
 31
0.0
  0
LINE
  5
26204
330
747D
100
AcDbEntity
  8
細線
 48
50.0
100
AcDbLine
 10
6264.495271505345
 20
1172.768742393758
 30
0.0
 11
6265.329471601993
 21
1169.655465249394
 31
0.0
  0
LINE
  5
26205
330
747D
100
AcDbEntity
  8
細線
 48
50.0
100
AcDbLine
 10
6258.064490886996
 20
1148.768742393757
 30
0.0
 11
6265.329471601993
 21
1175.882019538146
 31
0.0
  0
LINE
  5
26206
330
747D
100
AcDbEntity
  8
細線
 48
50.0
100
AcDbLine
 10
6121.53501965114
 20
1388.768742393758
 30
0.0
 11
6185.329471601993
 21
1452.56319434461
 31
0.0
  0
CIRCLE
  5
26207
330
747D
100
AcDbEntity
  8
部品1
 48
50.0
100
AcDbCircle
 10
6089.329471601993
 20
1396.768742393758
 30
0.0
 40
8.0
  0
ARC
  5
26208
330
747D
100
AcDbEntity
  8
部品1
 48
50.0
100
AcDbCircle
 10
5961.329471601993
 20
1396.768742393758
 30
0.0
 40
24.0
100
AcDbArc
 50
340.5287793654888
 51
0.0
  0
LINE
  5
26209
330
747D
100
AcDbEntity
  8
細線
 48
50.0
100
AcDbLine
 10
5970.379027110849
 20
1252.768742393759
 30
0.0
 11
5963.948246492502
 21
1276.768742393759
 31
0.0
  0
LINE
  5
2620A
330
747D
100
AcDbEntity
  8
細線
 48
50.0
100
AcDbLine
 10
6049.267072058094
 20
1252.768742393759
 30
0.0
 11
6042.836291439749
 21
1276.768742393759
 31
0.0
  0
LINE
  5
2620B
330
747D
100
AcDbEntity
  8
細線
 48
50.0
100
AcDbLine
 10
5982.594251287936
 20
1276.768742393759
 30
0.0
 11
6078.594251287936
 21
1372.768742393758
 31
0.0
  0
LINE
  5
2620C
330
747D
100
AcDbEntity
  8
細線
 48
50.0
100
AcDbLine
 10
6009.535019651139
 20
1276.768742393759
 30
0.0
 11
6105.535907496277
 21
1372.769630238898
 31
0.0
  0
LINE
  5
2620D
330
747D
100
AcDbEntity
  8
部品1
 48
50.0
100
AcDbLine
 10
6129.329471601993
 20
1388.768742393758
 30
0.0
 11
6129.329471601993
 21
1372.768742393758
 31
0.0
  0
LINE
  5
2620E
330
747D
100
AcDbEntity
  8
細線
 48
50.0
100
AcDbLine
 10
6207.043161952586
 20
1252.768742393759
 30
0.0
 11
6200.612381334239
 21
1276.768742393759
 31
0.0
  0
LINE
  5
2620F
330
747D
100
AcDbEntity
  8
細線
 48
50.0
100
AcDbLine
 10
6171.179629830386
 20
1276.768742393759
 30
0.0
 11
6185.329471601993
 21
1290.918584165365
 31
0.0
  0
LINE
  5
26210
330
747D
100
AcDbEntity
  8
細線
 48
50.0
100
AcDbLine
 10
6128.15511700534
 20
1252.768742393759
 30
0.0
 11
6121.724336386994
 21
1276.768742393759
 31
0.0
  0
LINE
  5
26211
330
747D
100
AcDbEntity
  8
細線
 48
50.0
100
AcDbLine
 10
5865.329471601993
 20
1590.556256519137
 30
0.0
 11
5969.329471601998
 21
1694.556256519139
 31
0.0
  0
LINE
  5
26212
330
747D
100
AcDbEntity
  8
細線
 48
50.0
100
AcDbLine
 10
5865.329471601993
 20
1617.497024882345
 30
0.0
 11
5969.329471601993
 21
1721.497024882345
 31
0.0
  0
LINE
  5
26213
330
747D
100
AcDbEntity
  8
細線
 48
50.0
100
AcDbLine
 10
5865.329471601993
 20
1563.615488155929
 30
0.0
 11
5969.329471601998
 21
1667.615488155929
 31
0.0
  0
LINE
  5
26214
330
747D
100
AcDbEntity
  8
細線
 48
50.0
100
AcDbLine
 10
5953.329471601993
 20
1867.141635061589
 30
0.0
 11
5969.329471601993
 21
1883.141635061589
 31
0.0
  0
LINE
  5
26215
330
747D
100
AcDbEntity
  8
細線
 48
50.0
100
AcDbLine
 10
5953.329471601993
 20
1894.082403424796
 30
0.0
 11
5969.329471601993
 21
1910.082403424796
 31
0.0
  0
LINE
  5
26216
330
747D
100
AcDbEntity
  8
部品1
 48
50.0
100
AcDbLine
 10
5737.329471601992
 20
1516.768742393758
 30
0.0
 11
5865.329471601993
 21
1516.768742393758
 31
0.0
  0
LINE
  5
26217
330
747D
100
AcDbEntity
  8
細線
 48
50.0
100
AcDbLine
 10
5737.329471601985
 20
1462.556256519134
 30
0.0
 11
5791.541957476617
 21
1516.768742393758
 31
0.0
  0
LINE
  5
26218
330
747D
100
AcDbEntity
  8
細線
 48
50.0
100
AcDbLine
 10
5737.329471601985
 20
1489.497024882345
 30
0.0
 11
5764.601189113406
 21
1516.768742393758
 31
0.0
  0
LINE
  5
26219
330
747D
100
AcDbEntity
  8
部品1
 48
50.0
100
AcDbLine
 10
5953.329471601993
 20
1862.895957090881
 30
0.0
 11
5937.329471601993
 21
1862.895957090884
 31
0.0
  0
LINE
  5
2621A
330
747D
100
AcDbEntity
  8
細線
 48
50.0
100
AcDbLine
 10
5865.329471601993
 20
1779.141635061589
 30
0.0
 11
5949.083793631286
 21
1862.895957090881
 31
0.0
  0
LINE
  5
2621B
330
747D
100
AcDbEntity
  8
細線
 48
50.0
100
AcDbLine
 10
5865.329471601993
 20
1806.082403424796
 30
0.0
 11
5937.329471601993
 21
1878.082403424796
 31
0.0
  0
LINE
  5
2621C
330
747D
100
AcDbEntity
  8
部品1
 48
50.0
100
AcDbLine
 10
5937.329471601993
 20
1862.895957090884
 30
0.0
 11
5937.329471601993
 21
1921.023171788004
 31
0.0
  0
LINE
  5
2621D
330
747D
100
AcDbEntity
  8
細線
 48
50.0
100
AcDbLine
 10
5865.329471601993
 20
1833.023171788004
 30
0.0
 11
5937.329471601993
 21
1905.023171788004
 31
0.0
  0
LINE
  5
2621E
330
747D
100
AcDbEntity
  8
部品1
 48
50.0
100
AcDbLine
 10
5953.329471601993
 20
1862.895957090881
 30
0.0
 11
5953.329471601993
 21
1921.023171788004
 31
0.0
  0
LINE
  5
2621F
330
747D
100
AcDbEntity
  8
細線
 48
50.0
100
AcDbLine
 10
5985.329471601998
 20
1683.615488155929
 30
0.0
 11
6057.329471601986
 21
1755.61548815593
 31
0.0
  0
LINE
  5
26220
330
747D
100
AcDbEntity
  8
部品1
 48
50.0
100
AcDbLine
 10
6057.329471601993
 20
1516.768742393758
 30
0.0
 11
6185.329471601993
 21
1516.768742393758
 31
0.0
  0
LINE
  5
26221
330
747D
100
AcDbEntity
  8
細線
 48
50.0
100
AcDbLine
 10
5985.329471601998
 20
1495.03010961348
 30
0.0
 11
6057.329471601986
 21
1567.030109613474
 31
0.0
  0
LINE
  5
26222
330
747D
100
AcDbEntity
  8
細線
 48
50.0
100
AcDbLine
 10
5985.329471601998
 20
1521.970877976688
 30
0.0
 11
6057.329471601986
 21
1593.970877976684
 31
0.0
  0
LINE
  5
26223
330
747D
100
AcDbEntity
  8
細線
 48
50.0
100
AcDbLine
 10
5985.329471601998
 20
1468.08934125027
 30
0.0
 11
6057.329471601986
 21
1540.08934125027
 31
0.0
  0
LINE
  5
26224
330
747D
100
AcDbEntity
  8
細線
 48
50.0
100
AcDbLine
 10
5985.329471601993
 20
1737.497024882345
 30
0.0
 11
6057.329471601993
 21
1809.497024882345
 31
0.0
  0
LINE
  5
26225
330
747D
100
AcDbEntity
  8
細線
 48
50.0
100
AcDbLine
 10
5985.329471601998
 20
1710.556256519139
 30
0.0
 11
6057.329471601986
 21
1782.556256519134
 31
0.0
  0
MTEXT
  5
26226
102
{ACAD_REACTORS
330
261D1
102
}
330
747D
100
AcDbEntity
  8
寸法
 62
     7
 48
50.0
100
AcDbMText
 10
6299.067927463243
 20
1099.419656661605
 30
0.0
 40
80.0
 41
0.8
 71
     4
 72
     1
  1
\A1;D10@300
  7
STYLE2
 73
     1
 44
1.0
1001
ACAD
1000
MTEXTBEGIN
1070
    73
1070
     1
1070
    44
1040
1.0
1070
    74
1070
     0
1000
MTEXTEND
  0
DIMENSION
  5
26227
330
747D
100
AcDbEntity
  8
寸法
 48
50.0
100
AcDbDimension
  2
*D64
 10
5865.329471601992
 20
2380.768742393759
 30
0.0
 11
5972.555801947189
 21
2480.436550310139
 31
0.0
 70
   160
  1
120\P195
 71
     5
 42
192.0
  3
INABA_S40G
100
AcDbAlignedDimension
 13
6057.329471601992
 23
2060.768742393759
 33
0.0
 14
5865.329471601992
 24
2060.768742393759
 34
0.0
100
AcDbRotatedDimension
1001
ACAD
1000
DSTYLE
1002
{
1070
   174
1070
     0
1070
   272
1070
     1
1070
   279
1070
     1
1070
   288
1070
     0
1070
   341
1005
0
1002
}
  0
LINE
  5
26228
330
747D
100
AcDbEntity
  8
部品1
 48
50.0
100
AcDbLine
 10
5865.329471601993
 20
2060.768742393759
 30
0.0
 11
6057.329471601993
 21
2060.768742393759
 31
0.0
  0
LINE
  5
26229
330
747D
100
AcDbEntity
  8
細線
 48
50.0
100
AcDbLine
 10
5865.329471601993
 20
2021.608550330457
 30
0.0
 11
5904.489663665296
 21
2060.768742393759
 31
0.0
  0
LINE
  5
2622A
330
747D
100
AcDbEntity
  8
細線
 48
50.0
100
AcDbLine
 10
5865.329471601993
 20
1994.667781967249
 30
0.0
 11
5931.430432028502
 21
2060.768742393759
 31
0.0
  0
LINE
  5
2622B
330
747D
100
AcDbEntity
  8
細線
 48
50.0
100
AcDbLine
 10
5865.329471601993
 20
2048.549318693664
 30
0.0
 11
5877.548895302087
 21
2060.768742393759
 31
0.0
  0
LINE
  5
2622C
330
747D
100
AcDbEntity
  8
細線
 48
50.0
100
AcDbLine
 10
5984.882178867979
 20
1925.63511069078
 30
0.0
 11
6057.329471601993
 21
1998.082403424796
 31
0.0
  0
LINE
  5
2622D
330
747D
100
AcDbEntity
  8
細線
 48
50.0
100
AcDbLine
 10
5973.821894104463
 20
1941.515594290475
 30
0.0
 11
6057.329471601993
 21
2025.023171788004
 31
0.0
  0
LINE
  5
2622E
330
747D
100
AcDbEntity
  8
細線
 48
50.0
100
AcDbLine
 10
7849.768784779188
 20
1901.897024882347
 30
0.0
 11
7979.368784779186
 21
2031.497024882346
 31
0.0
  0
LINE
  5
2622F
330
747D
100
AcDbEntity
  8
部品1
100
AcDbLine
 10
7979.368784779184
 20
1516.768742393758
 30
0.0
 11
7979.368784779186
 21
2060.768742393759
 31
0.0
  0
LINE
  5
26230
330
747D
100
AcDbEntity
  8
部品1
 48
50.0
100
AcDbLine
 10
7565.368784779185
 20
1516.768742393758
 30
0.0
 11
7565.368784779185
 21
2060.768742393759
 31
0.0
  0
LINE
  5
26231
330
747D
100
AcDbEntity
  8
細線
 48
50.0
100
AcDbLine
 10
7565.368784779185
 20
1833.023171788004
 30
0.0
 11
7723.768784779186
 21
1991.423171788001
 31
0.0
  0
LINE
  5
26232
330
747D
100
AcDbEntity
  8
細線
 48
50.0
100
AcDbLine
 10
7565.368784779185
 20
1806.082403424796
 30
0.0
 11
7723.768784779186
 21
1964.482403424794
 31
0.0
  0
LINE
  5
26233
330
747D
100
AcDbEntity
  8
細線
 48
50.0
100
AcDbLine
 10
7565.368784779185
 20
1779.141635061589
 30
0.0
 11
7723.768784779181
 21
1937.541635061581
 31
0.0
  0
TEXT
  5
26234
330
747D
100
AcDbEntity
  8
部品1
 48
50.0
100
AcDbText
 10
7151.228882946231
 20
1832.007734677014
 30
0.0
 40
80.0
  1
▽G.L
  7
STYLE2
100
AcDbText
  0
LINE
  5
26235
330
747D
100
AcDbEntity
  8
部品1
100
AcDbLine
 10
7795.768784779186
 20
1835.768742393758
 30
0.0
 11
7795.768784779181
 21
2109.928742393759
 31
0.0
  0
LINE
  5
26236
330
747D
100
AcDbEntity
  8
部品1
100
AcDbLine
 10
7777.768784779185
 20
1835.768742393758
 30
0.0
 11
7777.768784779182
 21
2109.928742393759
 31
0.0
  0
LINE
  5
26237
330
747D
100
AcDbEntity
  8
細線
 48
50.0
100
AcDbLine
 10
7849.768784779188
 20
1848.015488155917
 30
0.0
 11
7979.368784779186
 21
1977.615488155908
 31
0.0
  0
LINE
  5
26238
330
747D
100
AcDbEntity
  8
細線
 48
50.0
100
AcDbLine
 10
7849.768784779188
 20
1874.95625651913
 30
0.0
 11
7979.368784779186
 21
2004.556256519127
 31
0.0
  0
LINE
  5
26239
330
747D
100
AcDbEntity
  8
部品1
100
AcDbLine
 10
7849.768784779186
 20
1736.768742393758
 30
0.0
 11
7849.768784779186
 21
2060.768742393759
 31
0.0
  0
LINE
  5
2623A
330
747D
100
AcDbEntity
  8
部品1
100
AcDbLine
 10
7723.76878477918
 20
1736.768742393758
 30
0.0
 11
7723.768784779186
 21
2060.768742393759
 31
0.0
  0
LINE
  5
2623B
330
747D
100
AcDbEntity
  8
細線
 48
50.0
100
AcDbLine
 10
7565.368784779185
 20
1590.556256519137
 30
0.0
 11
7723.768784779179
 21
1748.956256519125
 31
0.0
  0
LINE
  5
2623C
330
747D
100
AcDbEntity
  8
細線
 48
50.0
100
AcDbLine
 10
7565.368784779185
 20
1563.615488155929
 30
0.0
 11
7738.522039017022
 21
1736.768742393756
 31
0.0
  0
LINE
  5
2623D
330
747D
100
AcDbEntity
  8
細線
 48
50.0
100
AcDbLine
 10
7565.368784779185
 20
1617.497024882345
 30
0.0
 11
7723.768784779179
 21
1775.89702488234
 31
0.0
  0
LINE
  5
2623E
330
747D
100
AcDbEntity
  8
細線
 48
50.0
100
AcDbLine
 10
7494.048185922675
 20
1276.768742393759
 30
0.0
 11
7979.368784779186
 21
1762.089341250266
 31
0.0
  0
LINE
  5
2623F
330
747D
100
AcDbEntity
  8
細線
 48
50.0
100
AcDbLine
 10
7467.10741755947
 20
1276.768742393759
 30
0.0
 11
7979.368784779189
 21
1789.030109613473
 31
0.0
  0
LINE
  5
26240
330
747D
100
AcDbEntity
  8
細線
 48
50.0
100
AcDbLine
 10
7440.16664919626
 20
1276.768742393759
 30
0.0
 11
7979.368784779184
 21
1815.970877976684
 31
0.0
  0
LINE
  5
26241
330
747D
100
AcDbEntity
  8
部品1
 48
50.0
100
AcDbLine
 10
8187.368784779188
 20
1276.768742393759
 30
0.0
 11
7357.368784779189
 21
1276.768742393759
 31
0.0
  0
LINE
  5
26242
330
747D
100
AcDbEntity
  8
部品1
 48
50.0
100
AcDbLine
 10
8187.368784779188
 20
1148.768742393758
 30
0.0
 11
7357.368784779189
 21
1148.768742393758
 31
0.0
  0
LINE
  5
26243
330
747D
100
AcDbEntity
  8
細線
 48
50.0
100
AcDbLine
 10
7437.368784779181
 20
1435.61548815593
 30
0.0
 11
7518.522039017014
 21
1516.768742393758
 31
0.0
  0
LINE
  5
26244
330
747D
100
AcDbEntity
  8
部品1
 48
50.0
100
AcDbLine
 10
7437.368784779185
 20
1276.768742393759
 30
0.0
 11
7437.368784779185
 21
1516.768742393758
 31
0.0
  0
LINE
  5
26245
330
747D
100
AcDbEntity
  8
細線
 48
50.0
100
AcDbLine
 10
7484.775534380704
 20
1148.768742393758
 30
0.0
 11
7519.073031011885
 21
1276.768742393759
 31
0.0
  0
LINE
  5
26246
330
747D
100
AcDbEntity
  8
部品1
 48
50.0
100
AcDbLine
 10
7357.368784779189
 20
1148.768742393758
 30
0.0
 11
7357.368784779189
 21
1276.768742393759
 31
0.0
  0
LINE
  5
26247
330
747D
100
AcDbEntity
  8
細線
 48
50.0
100
AcDbLine
 10
7405.887489433443
 20
1148.768742393757
 30
0.0
 11
7440.184986064629
 21
1276.768742393757
 31
0.0
  0
LINE
  5
26248
330
747D
100
AcDbEntity
  8
細線
 48
50.0
100
AcDbLine
 10
7563.66357932795
 20
1148.768742393757
 30
0.0
 11
7597.961075959131
 21
1276.768742393757
 31
0.0
  0
LINE
  5
26249
330
747D
100
AcDbEntity
  8
細線
 48
50.0
100
AcDbLine
 10
7412.318270051797
 20
1172.768742393758
 30
0.0
 11
7418.749050670143
 21
1148.768742393758
 31
0.0
  0
LINE
  5
2624A
330
747D
100
AcDbEntity
  8
細線
 48
50.0
100
AcDbLine
 10
7570.094359946303
 20
1172.768742393758
 30
0.0
 11
7576.525140564648
 21
1148.768742393758
 31
0.0
  0
LINE
  5
2624B
330
747D
100
AcDbEntity
  8
細線
 48
50.0
100
AcDbLine
 10
7491.20631499905
 20
1172.768742393758
 30
0.0
 11
7497.637095617396
 21
1148.768742393758
 31
0.0
  0
LINE
  5
2624C
330
747D
100
AcDbEntity
  8
細線
 48
50.0
100
AcDbLine
 10
7357.368784779186
 20
1262.108663359539
 30
0.0
 11
7361.296941117382
 21
1276.768742393759
 31
0.0
  0
LINE
  5
2624D
330
747D
100
AcDbEntity
  8
細線
 48
50.0
100
AcDbLine
 10
7433.754205446287
 20
1252.768742393759
 30
0.0
 11
7427.323424827941
 21
1276.768742393759
 31
0.0
  0
LINE
  5
2624E
330
747D
100
AcDbEntity
  8
細線
 48
50.0
100
AcDbLine
 10
7591.530295340792
 20
1252.768742393759
 30
0.0
 11
7585.099514722443
 21
1276.768742393759
 31
0.0
  0
LINE
  5
2624F
330
747D
100
AcDbEntity
  8
細線
 48
50.0
100
AcDbLine
 10
7512.642250393539
 20
1252.768742393759
 30
0.0
 11
7506.211469775194
 21
1276.768742393759
 31
0.0
  0
LWPOLYLINE
  5
26250
330
747D
100
AcDbEntity
  8
部品1
 48
50.0
100
AcDbPolyline
 90
        2
 70
     0
 43
8.0
 10
7151.228882946231
 20
1820.768742393759
 10
7565.368784779185
 20
1820.768742393759
  0
LINE
  5
26251
330
747D
100
AcDbEntity
  8
細線
 48
50.0
100
AcDbLine
 10
7437.368784779181
 20
1462.556256519134
 30
0.0
 11
7491.58127065381
 21
1516.768742393758
 31
0.0
  0
LINE
  5
26252
330
747D
100
AcDbEntity
  8
部品1
 48
50.0
100
AcDbLine
 10
7437.368784779185
 20
1516.768742393758
 30
0.0
 11
7565.368784779185
 21
1516.768742393758
 31
0.0
  0
LINE
  5
26253
330
747D
100
AcDbEntity
  8
細線
 48
50.0
100
AcDbLine
 10
7437.368784779181
 20
1489.497024882345
 30
0.0
 11
7464.640502290601
 21
1516.768742393758
 31
0.0
  0
LINE
  5
26254
330
747D
100
AcDbEntity
  8
細線
 48
50.0
100
AcDbLine
 10
7682.633564465129
 20
1276.768742393759
 30
0.0
 11
7979.368784779186
 21
1573.503962707811
 31
0.0
  0
LINE
  5
26255
330
747D
100
AcDbEntity
  8
細線
 48
50.0
100
AcDbLine
 10
7709.574332828335
 20
1276.768742393759
 30
0.0
 11
7979.368784779186
 21
1546.563194344616
 31
0.0
  0
LINE
  5
26256
330
747D
100
AcDbEntity
  8
細線
 48
50.0
100
AcDbLine
 10
7655.692796101921
 20
1276.768742393759
 30
0.0
 11
7979.368784779184
 21
1600.444731071025
 31
0.0
  0
LINE
  5
26257
330
747D
100
AcDbEntity
  8
細線
 48
50.0
100
AcDbLine
 10
7871.21894300758
 20
1276.768742393759
 30
0.0
 11
8107.368784779184
 21
1512.918584165367
 31
0.0
  0
LINE
  5
26258
330
747D
100
AcDbEntity
  8
細線
 48
50.0
100
AcDbLine
 10
7898.159711370791
 20
1276.768742393759
 30
0.0
 11
8107.368784779184
 21
1485.977815802152
 31
0.0
  0
LINE
  5
26259
330
747D
100
AcDbEntity
  8
部品1
 48
50.0
100
AcDbLine
 10
8107.368784779184
 20
1516.768742393758
 30
0.0
 11
8107.368784779184
 21
1276.768742393759
 31
0.0
  0
LINE
  5
2625A
330
747D
100
AcDbEntity
  8
細線
 48
50.0
100
AcDbLine
 10
7925.100479733996
 20
1276.768742393759
 30
0.0
 11
8107.368784779184
 21
1459.037047438954
 31
0.0
  0
LINE
  5
2625B
330
747D
100
AcDbEntity
  8
細線
 48
50.0
100
AcDbLine
 10
7800.327714169696
 20
1148.768742393757
 30
0.0
 11
7834.625210800878
 21
1276.768742393757
 31
0.0
  0
LINE
  5
2625C
330
747D
100
AcDbEntity
  8
細線
 48
50.0
100
AcDbLine
 10
7642.551624275203
 20
1148.768742393758
 30
0.0
 11
7676.849120906384
 21
1276.768742393759
 31
0.0
  0
LINE
  5
2625D
330
747D
100
AcDbEntity
  8
細線
 48
50.0
100
AcDbLine
 10
7721.439669222447
 20
1148.768742393758
 30
0.0
 11
7755.737165853632
 21
1276.768742393757
 31
0.0
  0
LINE
  5
2625E
330
747D
100
AcDbEntity
  8
細線
 48
50.0
100
AcDbLine
 10
7879.215759116938
 20
1148.768742393758
 30
0.0
 11
7913.513255748124
 21
1276.768742393757
 31
0.0
  0
LINE
  5
2625F
330
747D
100
AcDbEntity
  8
細線
 48
50.0
100
AcDbLine
 10
7727.8704498408
 20
1172.768742393758
 30
0.0
 11
7734.301230459147
 21
1148.768742393758
 31
0.0
  0
LINE
  5
26260
330
747D
100
AcDbEntity
  8
細線
 48
50.0
100
AcDbLine
 10
7648.982404893553
 20
1172.768742393758
 30
0.0
 11
7655.413185511901
 21
1148.768742393758
 31
0.0
  0
LINE
  5
26261
330
747D
100
AcDbEntity
  8
細線
 48
50.0
100
AcDbLine
 10
7885.646539735292
 20
1172.768742393758
 30
0.0
 11
7892.077320353637
 21
1148.768742393758
 31
0.0
  0
LINE
  5
26262
330
747D
100
AcDbEntity
  8
細線
 48
50.0
100
AcDbLine
 10
7806.758494788046
 20
1172.768742393758
 30
0.0
 11
7813.189275406393
 21
1148.768742393758
 31
0.0
  0
LINE
  5
26263
330
747D
100
AcDbEntity
  8
細線
 48
50.0
100
AcDbLine
 10
7749.30638523529
 20
1252.768742393759
 30
0.0
 11
7742.875604616942
 21
1276.768742393759
 31
0.0
  0
LINE
  5
26264
330
747D
100
AcDbEntity
  8
細線
 48
50.0
100
AcDbLine
 10
7670.418340288043
 20
1252.768742393759
 30
0.0
 11
7663.987559669696
 21
1276.768742393759
 31
0.0
  0
LINE
  5
26265
330
747D
100
AcDbEntity
  8
細線
 48
50.0
100
AcDbLine
 10
7828.194430182534
 20
1252.768742393759
 30
0.0
 11
7821.763649564189
 21
1276.768742393759
 31
0.0
  0
LINE
  5
26266
330
747D
100
AcDbEntity
  8
細線
 48
50.0
100
AcDbLine
 10
7907.08247512978
 20
1252.768742393759
 30
0.0
 11
7900.651694511434
 21
1276.768742393759
 31
0.0
  0
LINE
  5
26267
330
747D
100
AcDbEntity
  8
部品1
 48
50.0
100
AcDbLine
 10
8187.368784779188
 20
1276.768742393759
 30
0.0
 11
8187.368784779188
 21
1148.768742393758
 31
0.0
  0
LINE
  5
26268
330
747D
100
AcDbEntity
  8
細線
 48
50.0
100
AcDbLine
 10
8115.879893958682
 20
1148.768742393757
 30
0.0
 11
8150.177390589865
 21
1276.768742393756
 31
0.0
  0
LINE
  5
26269
330
747D
100
AcDbEntity
  8
細線
 48
50.0
100
AcDbLine
 10
7958.103804064187
 20
1148.768742393757
 30
0.0
 11
7992.401300695362
 21
1276.768742393759
 31
0.0
  0
LINE
  5
2626A
330
747D
100
AcDbEntity
  8
細線
 48
50.0
100
AcDbLine
 10
8036.991849011435
 20
1148.768742393756
 30
0.0
 11
8071.289345642622
 21
1276.768742393756
 31
0.0
  0
LINE
  5
2626B
330
747D
100
AcDbEntity
  8
細線
 48
50.0
100
AcDbLine
 10
7964.534584682536
 20
1172.768742393758
 30
0.0
 11
7970.965365300894
 21
1148.768742393758
 31
0.0
  0
LINE
  5
2626C
330
747D
100
AcDbEntity
  8
細線
 48
50.0
100
AcDbLine
 10
8043.422629629786
 20
1172.768742393757
 30
0.0
 11
8049.853410248131
 21
1148.768742393757
 31
0.0
  0
LINE
  5
2626D
330
747D
100
AcDbEntity
  8
細線
 48
50.0
100
AcDbLine
 10
8122.310674577031
 20
1172.768742393757
 30
0.0
 11
8128.741455195379
 21
1148.768742393757
 31
0.0
  0
LINE
  5
2626E
330
747D
100
AcDbEntity
  8
細線
 48
50.0
100
AcDbLine
 10
7985.970520077019
 20
1252.768742393759
 30
0.0
 11
7979.539739458672
 21
1276.768742393759
 31
0.0
  0
LINE
  5
2626F
330
747D
100
AcDbEntity
  8
細線
 48
50.0
100
AcDbLine
 10
8064.858565024275
 20
1252.768742393757
 30
0.0
 11
8058.427784405928
 21
1276.768742393757
 31
0.0
  0
LINE
  5
26270
330
747D
100
AcDbEntity
  8
細線
 48
50.0
100
AcDbLine
 10
8143.74660997152
 20
1252.768742393757
 30
0.0
 11
8137.315829353175
 21
1276.768742393757
 31
0.0
  0
LINE
  5
26271
330
747D
100
AcDbEntity
  8
部品1
100
AcDbLine
 10
7849.768784779186
 20
1736.768742393756
 30
0.0
 11
7723.76878477918
 21
1736.768742393756
 31
0.0
  0
LINE
  5
26272
330
747D
100
AcDbEntity
  8
部品1
100
AcDbLine
 10
7831.768784779185
 20
1817.768742393759
 30
0.0
 11
7831.768784779185
 21
1835.768742393758
 31
0.0
  0
ARC
  5
26273
330
747D
100
AcDbEntity
  8
部品1
100
AcDbCircle
 10
7795.768784779186
 20
1835.768742393758
 30
0.0
 40
18.0
100
AcDbArc
 50
180.0
 51
270.0
  0
LINE
  5
26274
330
747D
100
AcDbEntity
  8
部品1
100
AcDbLine
 10
7795.768784779186
 20
1817.768742393759
 30
0.0
 11
7831.768784779185
 21
1817.768742393759
 31
0.0
  0
LINE
  5
26275
330
747D
100
AcDbEntity
  8
部品1
100
AcDbLine
 10
7795.768784779186
 20
1835.768742393758
 30
0.0
 11
7831.768784779185
 21
1835.768742393758
 31
0.0
  0
LINE
  5
26276
330
747D
100
AcDbEntity
  8
部品1
 48
50.0
100
AcDbLine
 10
7979.368784779186
 20
1516.768742393758
 30
0.0
 11
8107.368784779184
 21
1516.768742393758
 31
0.0
  0
LINE
  5
26277
330
747D
100
AcDbEntity
  8
部品1
100
AcDbLine
 10
7585.168784779188
 20
2150.768742393759
 30
0.0
 11
7622.968784779186
 21
2150.768742393759
 31
0.0
  0
LINE
  5
26278
330
747D
100
AcDbEntity
  8
細線
 48
50.0
100
AcDbLine
 10
7565.368784779185
 20
2021.608550330457
 30
0.0
 11
7604.528976842492
 21
2060.768742393759
 31
0.0
  0
LINE
  5
26279
330
747D
100
AcDbEntity
  8
細線
 48
50.0
100
AcDbLine
 10
7565.368784779185
 20
1994.667781967249
 30
0.0
 11
7631.469745205698
 21
2060.768742393759
 31
0.0
  0
LINE
  5
2627A
330
747D
100
AcDbEntity
  8
部品1
 48
50.0
100
AcDbLine
 10
7565.368784779185
 20
2060.768742393759
 30
0.0
 11
7979.368784779189
 21
2060.768742393759
 31
0.0
  0
TEXT
  5
2627B
330
747D
100
AcDbEntity
  8
部品1
 48
50.0
100
AcDbText
 10
7138.922688199695
 20
2391.329263494235
 30
0.0
 40
80.0
  1
※(別売)
  7
STYLE2
100
AcDbText
  0
LINE
  5
2627C
330
747D
100
AcDbEntity
  8
部品1
100
AcDbLine
 10
7582.468784779186
 20
2139.968742393759
 30
0.0
 11
7582.468784779186
 21
2148.068742393759
 31
0.0
  0
ARC
  5
2627D
330
747D
100
AcDbEntity
  8
部品1
100
AcDbCircle
 10
7585.168784779188
 20
2148.068742393759
 30
0.0
 40
2.7
100
AcDbArc
 50
90.0
 51
180.0
  0
ARC
  5
2627E
330
747D
100
AcDbEntity
  8
部品1
100
AcDbCircle
 10
7574.368784779186
 20
2135.160646096467
 30
0.0
 40
2.7
100
AcDbArc
 50
104.0362434679067
 51
180.0
  0
LINE
  5
2627F
330
747D
100
AcDbEntity
  8
部品1
100
AcDbLine
 10
7573.713938591587
 20
2137.780030846859
 30
0.0
 11
7582.468784779186
 21
2139.968742393759
 31
0.0
  0
ARC
  5
26280
330
747D
100
AcDbEntity
  8
部品1
100
AcDbCircle
 10
7574.368784779186
 20
2073.028742393759
 30
0.0
 40
2.7
100
AcDbArc
 50
180.0
 51
270.0
  0
LINE
  5
26281
330
747D
100
AcDbEntity
  8
細線
 48
50.0
100
AcDbLine
 10
7565.368784779185
 20
2048.549318693664
 30
0.0
 11
7577.588208479281
 21
2060.768742393759
 31
0.0
  0
LINE
  5
26282
330
747D
100
AcDbEntity
  8
部品1
100
AcDbLine
 10
7574.368784779186
 20
2070.328742393759
 30
0.0
 11
7586.068784779183
 21
2070.328742393759
 31
0.0
  0
LINE
  5
26283
330
747D
100
AcDbEntity
  8
部品1
100
AcDbLine
 10
7571.668784779188
 20
2073.028742393759
 30
0.0
 11
7571.668784779188
 21
2135.160646096467
 31
0.0
  0
LINE
  5
26284
330
747D
100
AcDbEntity
  8
部品1
100
AcDbLine
 10
7730.328784779179
 20
2070.328742393759
 30
0.0
 11
7931.66878477918
 21
2070.328742393759
 31
0.0
  0
LINE
  5
26285
330
747D
100
AcDbEntity
  8
部品1
100
AcDbLine
 10
7622.968784779186
 20
2150.768742393759
 30
0.0
 11
7622.968784779186
 21
2158.868742393759
 31
0.0
  0
LINE
  5
26286
330
747D
100
AcDbEntity
  8
部品1
100
AcDbLine
 10
7673.368784779187
 20
2169.668742393756
 30
0.0
 11
7673.368784779187
 21
2118.368742393759
 31
0.0
  0
LINE
  5
26287
330
747D
100
AcDbEntity
  8
部品1
100
AcDbLine
 10
7696.768784779187
 20
2130.328742393759
 30
0.0
 11
7724.928784779186
 21
2130.328742393759
 31
0.0
  0
ARC
  5
26288
330
747D
100
AcDbEntity
  8
部品1
100
AcDbCircle
 10
7696.768784779187
 20
2127.628742393759
 30
0.0
 40
2.7
100
AcDbArc
 50
90.0
 51
180.0
  0
ARC
  5
26289
330
747D
100
AcDbEntity
  8
部品1
100
AcDbCircle
 10
7724.928784779186
 20
2127.628742393759
 30
0.0
 40
2.7
100
AcDbArc
 50
0.0
 51
90.0
  0
LINE
  5
2628A
330
747D
100
AcDbEntity
  8
部品1
100
AcDbLine
 10
7715.668784779187
 20
2115.668742393758
 30
0.0
 11
7715.668784779187
 21
2073.028742393759
 31
0.0
  0
LINE
  5
2628B
330
747D
100
AcDbEntity
  8
部品1
100
AcDbLine
 10
7701.268784779187
 20
2070.328742393759
 30
0.0
 11
7712.968784779187
 21
2070.328742393759
 31
0.0
  0
ARC
  5
2628C
330
747D
100
AcDbEntity
  8
部品1
100
AcDbCircle
 10
7730.328784779179
 20
2073.028742393759
 30
0.0
 40
2.7
100
AcDbArc
 50
180.0
 51
270.0
  0
ARC
  5
2628D
330
747D
100
AcDbEntity
  8
部品1
100
AcDbCircle
 10
7712.968784779187
 20
2073.028742393759
 30
0.0
 40
2.7
100
AcDbArc
 50
270.0
 51
0.0
  0
LINE
  5
2628E
330
747D
100
AcDbEntity
  8
部品1
100
AcDbLine
 10
7673.368784779187
 20
2118.368742393759
 30
0.0
 11
7712.968784779187
 21
2118.368742393759
 31
0.0
  0
ARC
  5
2628F
330
747D
100
AcDbEntity
  8
部品1
100
AcDbCircle
 10
7712.968784779187
 20
2115.668742393758
 30
0.0
 40
2.7
100
AcDbArc
 50
0.0
 51
90.0
  0
LINE
  5
26290
330
747D
100
AcDbEntity
  8
部品1
100
AcDbLine
 10
7727.628784779186
 20
2127.628742393759
 30
0.0
 11
7727.628784779184
 21
2073.028742393759
 31
0.0
  0
LINE
  5
26291
330
747D
100
AcDbEntity
  8
部品1
100
AcDbLine
 10
7694.068784779185
 20
2127.628742393759
 30
0.0
 11
7694.068784779185
 21
2110.528742393759
 31
0.0
  0
LINE
  5
26292
330
747D
100
AcDbEntity
  8
細線
100
AcDbLine
 10
7792.168784779187
 20
2070.328742393759
 30
0.0
 11
7792.168784779187
 21
2113.528742393759
 31
0.0
  0
LINE
  5
26293
330
747D
100
AcDbEntity
  8
細線
100
AcDbLine
 10
7781.368784779188
 20
2070.328742393759
 30
0.0
 11
7781.368784779187
 21
2113.528742393759
 31
0.0
  0
LINE
  5
26294
330
747D
100
AcDbEntity
  8
部品1
100
AcDbLine
 10
7777.768784779185
 20
2109.928742393759
 30
0.0
 11
7795.768784779186
 21
2109.928742393759
 31
0.0
  0
LINE
  5
26295
330
747D
100
AcDbEntity
  8
部品1
100
AcDbLine
 10
7781.368784779187
 20
2113.528742393759
 30
0.0
 11
7792.168784779187
 21
2113.528742393759
 31
0.0
  0
ELLIPSE
  5
26296
330
747D
100
AcDbEntity
  8
部品1
 48
50.0
100
AcDbEllipse
 10
7786.768784779185
 20
2329.892030838031
 30
0.0
 11
40.0
 21
0.0
 31
0.0
210
0.0
220
0.0
230
1.0
 40
0.4
 41
0.0
 42
6.283185307179586
  0
ELLIPSE
  5
26297
330
747D
100
AcDbEntity
  8
部品1
 48
50.0
100
AcDbEllipse
 10
7786.768784779185
 20
2320.292030838032
 30
0.0
 11
40.0
 21
0.0
 31
0.0
210
0.0
220
0.0
230
1.0
 40
0.4
 41
3.141592653589793
 42
6.283185307179586
  0
LINE
  5
26298
330
747D
100
AcDbEntity
  8
部品1
 48
50.0
100
AcDbLine
 10
7746.768784779186
 20
2329.892030838031
 30
0.0
 11
7746.768784779186
 21
2320.292030838031
 31
0.0
  0
ARC
  5
26299
330
747D
100
AcDbEntity
  8
部品1
100
AcDbCircle
 10
7670.668784779187
 20
2169.668742393756
 30
0.0
 40
2.7
100
AcDbArc
 50
0.0
 51
90.0
  0
ARC
  5
2629A
330
747D
100
AcDbEntity
  8
部品1
100
AcDbCircle
 10
7628.368784779187
 20
2169.668742393758
 30
0.0
 40
2.7
100
AcDbArc
 50
90.0
 51
180.0
  0
LINE
  5
2629B
330
747D
100
AcDbEntity
  8
部品1
100
AcDbLine
 10
7625.668784779188
 20
2161.568742393759
 30
0.0
 11
7625.668784779188
 21
2161.568742393759
 31
0.0
  0
LINE
  5
2629C
330
747D
100
AcDbEntity
  8
部品1
100
AcDbLine
 10
7625.668784779188
 20
2161.568742393759
 30
0.0
 11
7625.668784779188
 21
2169.668742393758
 31
0.0
  0
LINE
  5
2629D
330
747D
100
AcDbEntity
  8
部品1
100
AcDbLine
 10
7628.368784779187
 20
2172.368742393759
 30
0.0
 11
7670.668784779187
 21
2172.368742393755
 31
0.0
  0
ARC
  5
2629E
330
747D
100
AcDbEntity
  8
部品1
100
AcDbCircle
 10
7625.668784779188
 20
2158.868742393759
 30
0.0
 40
2.7
100
AcDbArc
 50
90.0
 51
180.0
  0
ELLIPSE
  5
2629F
330
747D
100
AcDbEntity
  8
部品1
 48
50.0
100
AcDbEllipse
 10
7786.768784779185
 20
2329.892030838031
 30
0.0
 11
18.4
 21
0.0
 31
0.0
210
0.0
220
0.0
230
1.0
 40
0.3478260869565217
 41
0.0
 42
6.283185307179586
  0
LINE
  5
262A0
330
747D
100
AcDbEntity
  8
部品1
 48
50.0
100
AcDbLine
 10
7826.768784779186
 20
2320.292030838031
 30
0.0
 11
7826.768784779186
 21
2329.892030838031
 31
0.0
  0
LINE
  5
262A1
330
747D
100
AcDbEntity
  8
部品1
 48
50.0
100
AcDbLine
 10
7754.768784779186
 20
2451.644023502901
 30
0.0
 11
7770.768784779185
 21
2443.644023502902
 31
0.0
  0
LINE
  5
262A2
330
747D
100
AcDbEntity
  8
部品1
 48
50.0
100
AcDbLine
 10
7754.768784779186
 20
2419.644023502901
 30
0.0
 11
7770.768784779185
 21
2411.644023502902
 31
0.0
  0
LINE
  5
262A3
330
747D
100
AcDbEntity
  8
部品1
 48
50.0
100
AcDbLine
 10
7754.768784779186
 20
2451.644023502901
 30
0.0
 11
7770.768784779185
 21
2459.644023502902
 31
0.0
  0
LINE
  5
262A4
330
747D
100
AcDbEntity
  8
部品1
 48
50.0
100
AcDbLine
 10
7754.768784779186
 20
2419.644023502901
 30
0.0
 11
7754.768784779186
 21
2451.644023502901
 31
0.0
  0
LINE
  5
262A5
330
747D
100
AcDbEntity
  8
部品1
 48
50.0
100
AcDbLine
 10
7770.768784779185
 20
2459.644023502902
 30
0.0
 11
7802.768784779186
 21
2459.644023502902
 31
0.0
  0
ELLIPSE
  5
262A6
330
747D
100
AcDbEntity
  8
細線
 48
50.0
100
AcDbEllipse
 10
7786.768784779185
 20
2451.644023502901
 30
0.0
 11
14.76670786606846
 21
0.0
 31
0.0
210
0.0
220
0.0
230
1.0
 40
0.2071254069489396
 41
0.0
 42
6.283185307179586
  0
LINE
  5
262A7
330
747D
100
AcDbEntity
  8
部品1
 48
50.0
100
AcDbLine
 10
7770.768784779185
 20
2411.644023502902
 30
0.0
 11
7802.768784779186
 21
2411.644023502902
 31
0.0
  0
LINE
  5
262A8
330
747D
100
AcDbEntity
  8
部品1
 48
50.0
100
AcDbLine
 10
7802.768784779186
 20
2411.644023502902
 30
0.0
 11
7818.768784779186
 21
2419.644023502901
 31
0.0
  0
LINE
  5
262A9
330
747D
100
AcDbEntity
  8
部品1
 48
50.0
100
AcDbLine
 10
7770.768784779185
 20
2443.644023502902
 30
0.0
 11
7802.768784779186
 21
2443.644023502902
 31
0.0
  0
LINE
  5
262AA
330
747D
100
AcDbEntity
  8
部品1
 48
50.0
100
AcDbLine
 10
7802.768784779186
 20
2443.644023502902
 30
0.0
 11
7818.768784779186
 21
2451.644023502901
 31
0.0
  0
LINE
  5
262AB
330
747D
100
AcDbEntity
  8
細線
 48
50.0
100
AcDbLine
 10
7802.768784779186
 20
2411.644023502902
 30
0.0
 11
7802.768784779186
 21
2443.644023502902
 31
0.0
  0
LINE
  5
262AC
330
747D
100
AcDbEntity
  8
部品1
 48
50.0
100
AcDbLine
 10
7818.768784779186
 20
2419.644023502901
 30
0.0
 11
7818.768784779186
 21
2451.644023502901
 31
0.0
  0
LINE
  5
262AD
330
747D
100
AcDbEntity
  8
細線
 48
50.0
100
AcDbLine
 10
7770.768784779185
 20
2411.644023502902
 30
0.0
 11
7770.768784779185
 21
2443.644023502902
 31
0.0
  0
LINE
  5
262AE
330
747D
100
AcDbEntity
  8
部品1
 48
50.0
100
AcDbLine
 10
7802.768784779186
 20
2459.644023502902
 30
0.0
 11
7818.768784779186
 21
2451.644023502901
 31
0.0
  0
TEXT
  5
262AF
330
747D
100
AcDbEntity
  8
部品1
100
AcDbText
 10
7487.541033971116
 20
3202.188430219176
 30
0.0
 40
120.0
  1
基礎詳細
  7
STYLE2
100
AcDbText
  0
LINE
  5
262B0
330
747D
100
AcDbEntity
  8
部品1
100
AcDbLine
 10
10865.64621817897
 20
417.4333925859563
 30
0.0
 11
10865.64621817898
 21
3381.740362170603
 31
0.0
  0
LINE
  5
262B1
330
747D
100
AcDbEntity
  8
細線
100
AcDbLine
 10
9873.53805075873
 20
1820.768742393758
 30
0.0
 11
9678.904717081943
 21
2015.402076070542
 31
0.0
  0
LINE
  5
262B2
330
747D
100
AcDbEntity
  8
部品1
100
AcDbLine
 10
9678.904717081943
 20
2060.768742393759
 30
0.0
 11
10158.90471708194
 21
2060.768742393759
 31
0.0
  0
LINE
  5
262B3
330
747D
100
AcDbEntity
  8
細線
 48
50.0
100
AcDbLine
 10
9812.975601525202
 20
1601.069826740409
 30
0.0
 11
9847.273098156387
 21
1729.069826740408
 31
0.0
  0
LINE
  5
262B4
330
747D
100
AcDbEntity
  8
部品1
100
AcDbLine
 10
9558.904717081942
 20
1601.069826740405
 30
0.0
 11
10278.90471708194
 21
1601.069826740409
 31
0.0
  0
LINE
  5
262B5
330
747D
100
AcDbEntity
  8
部品1
100
AcDbLine
 10
9558.904717081942
 20
1729.069826740408
 30
0.0
 11
10278.90471708194
 21
1729.069826740411
 31
0.0
  0
LINE
  5
262B6
330
747D
100
AcDbEntity
  8
細線
100
AcDbLine
 10
9739.823362575187
 20
1729.069826740408
 30
0.0
 11
9831.522278228533
 21
1820.768742393758
 31
0.0
  0
LWPOLYLINE
  5
262B7
330
747D
100
AcDbEntity
  8
部品1
 48
50.0
100
AcDbPolyline
 90
        2
 70
     0
 43
12.0
 10
9294.293454981554
 20
1820.768742393758
 10
10495.38575811318
 20
1820.768742393758
  0
LINE
  5
262B8
330
747D
100
AcDbEntity
  8
細線
100
AcDbLine
 10
9822.626362513297
 20
1820.768742393758
 30
0.0
 11
9678.904717081943
 21
1964.490387825112
 31
0.0
  0
TEXT
  5
262B9
330
747D
100
AcDbEntity
  8
部品1
 48
50.0
100
AcDbText
 10
8914.78663032344
 20
1553.96900175645
 30
0.0
 40
80.0
  1
ボルトの出
 50
90.0
  7
STYLE2
100
AcDbText
  0
LINE
  5
262BA
330
747D
100
AcDbEntity
  8
部品1
100
AcDbLine
 10
9678.904717081943
 20
1820.768742393758
 30
0.0
 11
9678.904717081943
 21
2060.768742393759
 31
0.0
  0
LINE
  5
262BB
330
747D
100
AcDbEntity
  8
細線
 48
50.0
100
AcDbLine
 10
9655.199511630705
 20
1601.069826740407
 30
0.0
 11
9689.497008261886
 21
1729.069826740408
 31
0.0
  0
LINE
  5
262BC
330
747D
100
AcDbEntity
  8
細線
 48
50.0
100
AcDbLine
 10
9734.087556577954
 20
1601.069826740409
 30
0.0
 11
9768.385053209138
 21
1729.069826740408
 31
0.0
  0
LINE
  5
262BD
330
747D
100
AcDbEntity
  8
細線
 48
50.0
100
AcDbLine
 10
9576.311466683455
 20
1601.069826740409
 30
0.0
 11
9610.608963314641
 21
1729.069826740408
 31
0.0
  0
LINE
  5
262BE
330
747D
100
AcDbEntity
  8
部品1
100
AcDbLine
 10
9558.904717081942
 20
1601.069826740405
 30
0.0
 11
9558.904717081942
 21
1820.768742393758
 31
0.0
  0
LINE
  5
262BF
330
747D
100
AcDbEntity
  8
細線
 48
50.0
100
AcDbLine
 10
9661.630292249055
 20
1625.069826740408
 30
0.0
 11
9668.061072867404
 21
1601.069826740409
 31
0.0
  0
LINE
  5
262C0
330
747D
100
AcDbEntity
  8
細線
 48
50.0
100
AcDbLine
 10
9582.742247301805
 20
1625.069826740408
 30
0.0
 11
9589.173027920152
 21
1601.069826740409
 31
0.0
  0
LINE
  5
262C1
330
747D
100
AcDbEntity
  8
細線
 48
50.0
100
AcDbLine
 10
9740.518337196306
 20
1625.069826740408
 30
0.0
 11
9746.949117814653
 21
1601.069826740409
 31
0.0
  0
LINE
  5
262C2
330
747D
100
AcDbEntity
  8
細線
 48
50.0
100
AcDbLine
 10
9819.406382143553
 20
1625.069826740408
 30
0.0
 11
9825.837162761901
 21
1601.069826740409
 31
0.0
  0
LINE
  5
262C3
330
747D
100
AcDbEntity
  8
細線
 48
50.0
100
AcDbLine
 10
9604.178182696294
 20
1705.069826740408
 30
0.0
 11
9597.747402077946
 21
1729.069826740408
 31
0.0
  0
LINE
  5
262C4
330
747D
100
AcDbEntity
  8
細線
 48
50.0
100
AcDbLine
 10
9761.954272590797
 20
1705.069826740408
 30
0.0
 11
9755.52349197245
 21
1729.069826740408
 31
0.0
  0
LINE
  5
262C5
330
747D
100
AcDbEntity
  8
細線
 48
50.0
100
AcDbLine
 10
9683.066227643543
 20
1705.069826740408
 30
0.0
 11
9676.635447025198
 21
1729.069826740408
 31
0.0
  0
LINE
  5
262C6
330
747D
100
AcDbEntity
  8
細線
100
AcDbLine
 10
9671.941111581274
 20
1729.069826740408
 30
0.0
 11
9763.640027234622
 21
1820.768742393758
 31
0.0
  0
LINE
  5
262C7
330
747D
100
AcDbEntity
  8
細線
100
AcDbLine
 10
9705.882237078229
 20
1729.069826740408
 30
0.0
 11
9797.581152731574
 21
1820.768742393758
 31
0.0
  0
LINE
  5
262C8
330
747D
100
AcDbEntity
  8
細線
100
AcDbLine
 10
10094.15536648893
 20
1820.768742393758
 30
0.0
 11
9854.155366488932
 21
2060.768742393759
 31
0.0
  0
LINE
  5
262C9
330
747D
100
AcDbEntity
  8
細線
100
AcDbLine
 10
10145.06705473436
 20
1820.768742393761
 30
0.0
 11
9905.067054734367
 21
2060.768742393759
 31
0.0
  0
LINE
  5
262CA
330
747D
100
AcDbEntity
  8
部品1
100
AcDbLine
 10
10158.90471708194
 20
2060.768742393759
 30
0.0
 11
10158.90471708194
 21
1820.768742393758
 31
0.0
  0
LINE
  5
262CB
330
747D
100
AcDbEntity
  8
細線
 48
50.0
100
AcDbLine
 10
10128.52778131419
 20
1601.069826740406
 30
0.0
 11
10162.82527794537
 21
1729.069826740406
 31
0.0
  0
LINE
  5
262CC
330
747D
100
AcDbEntity
  8
細線
100
AcDbLine
 10
10099.82336257518
 20
1729.069826740411
 30
0.0
 11
10191.52227822853
 21
1820.768742393758
 31
0.0
  0
LINE
  5
262CD
330
747D
100
AcDbEntity
  8
細線
 48
50.0
100
AcDbLine
 10
10049.63973636694
 20
1601.069826740407
 30
0.0
 11
10083.93723299811
 21
1729.069826740408
 31
0.0
  0
LINE
  5
262CE
330
747D
100
AcDbEntity
  8
細線
 48
50.0
100
AcDbLine
 10
9891.863646472451
 20
1601.069826740407
 30
0.0
 11
9926.161143103634
 21
1729.069826740408
 31
0.0
  0
LINE
  5
262CF
330
747D
100
AcDbEntity
  8
細線
 48
50.0
100
AcDbLine
 10
9970.751691419692
 20
1601.069826740409
 30
0.0
 11
10005.04918805088
 21
1729.069826740408
 31
0.0
  0
LINE
  5
262D0
330
747D
100
AcDbEntity
  8
細線
 48
50.0
100
AcDbLine
 10
9977.182472038046
 20
1625.069826740408
 30
0.0
 11
9983.613252656393
 21
1601.069826740409
 31
0.0
  0
LINE
  5
262D1
330
747D
100
AcDbEntity
  8
細線
 48
50.0
100
AcDbLine
 10
9898.294427090801
 20
1625.069826740408
 30
0.0
 11
9904.725207709148
 21
1601.069826740409
 31
0.0
  0
LINE
  5
262D2
330
747D
100
AcDbEntity
  8
細線
 48
50.0
100
AcDbLine
 10
10056.07051698529
 20
1625.069826740408
 30
0.0
 11
10062.50129760365
 21
1601.069826740409
 31
0.0
  0
LINE
  5
262D3
330
747D
100
AcDbEntity
  8
細線
 48
50.0
100
AcDbLine
 10
10134.95856193254
 20
1625.069826740408
 30
0.0
 11
10141.38934255089
 21
1601.069826740407
 31
0.0
  0
LINE
  5
262D4
330
747D
100
AcDbEntity
  8
細線
 48
50.0
100
AcDbLine
 10
9998.618407432537
 20
1705.069826740408
 30
0.0
 11
9992.187626814191
 21
1729.069826740408
 31
0.0
  0
LINE
  5
262D5
330
747D
100
AcDbEntity
  8
細線
 48
50.0
100
AcDbLine
 10
9919.730362485291
 20
1705.069826740408
 30
0.0
 11
9913.299581866944
 21
1729.069826740408
 31
0.0
  0
LINE
  5
262D6
330
747D
100
AcDbEntity
  8
細線
 48
50.0
100
AcDbLine
 10
9840.842317538042
 20
1705.069826740408
 30
0.0
 11
9834.411536919695
 21
1729.069826740408
 31
0.0
  0
LINE
  5
262D7
330
747D
100
AcDbEntity
  8
細線
100
AcDbLine
 10
10065.88223707823
 20
1729.069826740411
 30
0.0
 11
10157.58115273157
 21
1820.768742393758
 31
0.0
  0
LINE
  5
262D8
330
747D
100
AcDbEntity
  8
細線
 48
50.0
100
AcDbLine
 10
10077.50645237977
 20
1705.069826740408
 30
0.0
 11
10071.07567176143
 21
1729.069826740408
 31
0.0
  0
LINE
  5
262D9
330
747D
100
AcDbEntity
  8
細線
100
AcDbLine
 10
10031.94111158127
 20
1729.069826740411
 30
0.0
 11
10123.64002723462
 21
1820.768742393758
 31
0.0
  0
LINE
  5
262DA
330
747D
100
AcDbEntity
  8
細線
 48
50.0
100
AcDbLine
 10
10156.39449732703
 20
1705.069826740407
 30
0.0
 11
10149.96371670868
 21
1729.069826740408
 31
0.0
  0
LINE
  5
262DB
330
747D
100
AcDbEntity
  8
細線
 48
50.0
100
AcDbLine
 10
10207.41582626143
 20
1601.069826740407
 30
0.0
 11
10241.71332289262
 21
1729.069826740406
 31
0.0
  0
LINE
  5
262DC
330
747D
100
AcDbEntity
  8
部品1
100
AcDbLine
 10
10278.90471708194
 20
1820.768742393758
 30
0.0
 11
10278.90471708194
 21
1601.069826740409
 31
0.0
  0
LINE
  5
262DD
330
747D
100
AcDbEntity
  8
細線
 48
50.0
100
AcDbLine
 10
10213.84660687978
 20
1625.069826740408
 30
0.0
 11
10220.27738749813
 21
1601.069826740407
 31
0.0
  0
LINE
  5
262DE
330
747D
100
AcDbEntity
  8
細線
 48
50.0
100
AcDbLine
 10
10235.28254227427
 20
1705.069826740407
 30
0.0
 11
10228.85176165593
 21
1729.069826740408
 31
0.0
  0
LEADER
  5
262DF
330
747D
100
AcDbEntity
  8
寸法
 48
50.0
100
AcDbLeader
  3
INABA_S50G
 73
     0
 74
     0
 75
     1
 40
120.0
 41
185.591883092037
 76
     3
 10
10089.62912869787
 20
2060.768742393759
 30
0.0
 10
10122.76733533151
 20
2232.915063074896
 30
0.0
 10
10247.76733533151
 20
2232.915063074896
 30
0.0
340
262E0
1001
ACAD
1000
DSTYLE
1002
{
1070
    40
1040
1.0
1002
}
  0
MTEXT
  5
262E0
102
{ACAD_REACTORS
330
262DF
102
}
330
747D
100
AcDbEntity
  8
寸法
 62
     7
 48
50.0
100
AcDbMText
 10
10272.76733533151
 20
2317.915063074897
 30
0.0
 40
120.0
 41
0.8
 71
     4
 72
     1
  1
\A1;C.B
  7
STYLE1
 73
     1
 44
1.0
1001
ACAD
1000
MTEXTBEGIN
1070
    73
1070
     1
1070
    44
1040
1.0
1070
    74
1070
     0
1000
MTEXTEND
  0
ENDSEC
  0
SECTION
  2
OBJECTS
  0
DICTIONARY
  5
7471
330
0
100
AcDbDictionary
281
     1
  3
ACAD_COLOR
350
173D2
  3
ACAD_GROUP
350
7472
  3
ACAD_LAYOUT
350
173D3
  3
ACAD_MATERIAL
350
173D1
  3
ACAD_MLINESTYLE
350
7473
  3
ACAD_PLOTSETTINGS
350
173D4
  3
ACAD_PLOTSTYLENAME
350
173CF
  3
ACDBHEADERROUNDTRIPXREC
350
26377
  3
AcDbVariableDictionary
350
26373
  3
CONTENTDICTIONARY
350
E71C
  3
DRAWINGVARIABLESDICT
350
F3B9
  0
DICTIONARY
  5
1758F
330
7467
100
AcDbDictionary
280
     1
281
     1
  3
ACAD_LAYERSTATES
360
17590
  0
DICTIONARY
  5
173D2
102
{ACAD_REACTORS
330
7471
102
}
330
7471
100
AcDbDictionary
281
     1
  0
DICTIONARY
  5
7472
102
{ACAD_REACTORS
330
7471
102
}
330
7471
100
AcDbDictionary
281
     1
  3
*A1
350
1D2A9
  0
DICTIONARY
  5
173D3
102
{ACAD_REACTORS
330
7471
102
}
330
7471
100
AcDbDictionary
281
     1
  3
Model
350
173D5
  3
レイアウト1
350
173D6
  0
DICTIONARY
  5
173D1
102
{ACAD_REACTORS
330
7471
102
}
330
7471
100
AcDbDictionary
281
     1
  0
DICTIONARY
  5
7473
102
{ACAD_REACTORS
330
7471
102
}
330
7471
100
AcDbDictionary
281
     1
  3
STANDARD
350
7480
  0
DICTIONARY
  5
173D4
102
{ACAD_REACTORS
330
7471
102
}
330
7471
100
AcDbDictionary
281
     1
  0
ACDBDICTIONARYWDFLT
  5
173CF
102
{ACAD_REACTORS
330
7471
102
}
330
7471
100
AcDbDictionary
281
     1
  3
Normal
350
173D0
100
AcDbDictionaryWithDefault
340
173D0
  0
DICTIONARY
  5
26377
102
{ACAD_REACTORS
330
7471
102
}
330
7471
100
AcDbDictionary
281
     1
  3
COLORDICT
350
26379
  3
MATERIALDICT
350
26378
  0
DICTIONARY
  5
26373
102
{ACAD_REACTORS
330
7471
102
}
330
7471
100
AcDbDictionary
281
     1
  3
DIMASSOC
350
26374
  3
PROJECTNAME
350
26375
  0
DICTIONARY
  5
E71C
102
{ACAD_REACTORS
330
7471
102
}
330
7471
100
AcDbDictionary
281
     1
  0
DICTIONARY
  5
F3B9
102
{ACAD_REACTORS
330
7471
102
}
330
7471
100
AcDbDictionary
281
     1
1001
DRAWINGVARIABLESXDATA
1000
POLARMODE
1000
1
  0
DICTIONARY
  5
17590
102
{ACAD_REACTORS
330
1758F
102
}
330
1758F
100
AcDbDictionary
281
     1
  0
GROUP
  5
1D2A9
102
{ACAD_REACTORS
330
7472
102
}
330
7472
100
AcDbGroup
300

 70
     1
 71
     1
  0
LAYOUT
  5
173D5
102
{ACAD_XDICTIONARY
360
2637A
102
}
102
{ACAD_REACTORS
330
173D3
102
}
330
173D3
100
AcDbPlotSettings
  1

  2
クセロPDFよこ.pc3
  4
A3
  6

 40
3.174999952316284
 41
3.174999952316284
 42
3.17498779296875
 43
3.17498779296875
 44
419.9466552734374
 45
296.9259948730469
 46
0.0
 47
0.0
 48
0.0
 49
0.0
140
0.0
141
0.0
142
1.0
143
40.0
 70
 11952
 72
     1
 73
     0
 74
     2
  7
ACA3.ctb
 75
    24
147
0.025
148
0.0
149
0.0
100
AcDbLayout
  1
Model
 70
     1
 71
     0
 10
0.0
 20
0.0
 11
12.0
 21
9.0
 12
0.0
 22
0.0
 32
0.0
 14
0.0
 24
0.0
 34
0.0
 15
0.0
 25
0.0
 35
0.0
146
0.0
 13
0.0
 23
0.0
 33
0.0
 16
1.0
 26
0.0
 36
0.0
 17
0.0
 27
1.0
 37
0.0
 76
     0
330
747D
  0
LAYOUT
  5
173D6
102
{ACAD_XDICTIONARY
360
2637C
102
}
102
{ACAD_REACTORS
330
173D3
102
}
330
173D3
100
AcDbPlotSettings
  1

  2
Microsoft Office Document Image Writer
  4

  6

 40
0.0
 41
0.0
 42
0.0
 43
0.0
 44
0.0
 45
0.0
 46
0.0
 47
0.0
 48
0.0
 49
0.0
140
0.0
141
0.0
142
1.0
143
1.0
 70
   688
 72
     0
 73
     0
 74
     5
  7
ACA3.ctb
 75
    16
147
1.0
148
0.0
149
0.0
100
AcDbLayout
  1
レイアウト1
 70
     0
 71
     1
 10
0.0
 20
0.0
 11
420.0
 21
297.0
 12
0.0
 22
0.0
 32
0.0
 14
1.000000000000000E+20
 24
1.000000000000000E+20
 34
1.000000000000000E+20
 15
-1.000000000000000E+20
 25
-1.000000000000000E+20
 35
-1.000000000000000E+20
146
0.0
 13
0.0
 23
0.0
 33
0.0
 16
1.0
 26
0.0
 36
0.0
 17
0.0
 27
1.0
 37
0.0
 76
     0
330
747A
  0
MLINESTYLE
  5
7480
102
{ACAD_REACTORS
330
7473
102
}
330
7473
100
AcDbMlineStyle
  2
STANDARD
 70
     0
  3

 62
     0
 51
90.0
 52
90.0
 71
     2
 49
0.5
 62
   256
  6
BYLAYER
 49
-0.5
 62
   256
  6
BYLAYER
  0
ACDBPLACEHOLDER
  5
173D0
102
{ACAD_REACTORS
330
173CF
102
}
330
173CF
  0
XRECORD
  5
26379
102
{ACAD_REACTORS
330
26377
102
}
330
26377
100
AcDbXrecord
280
     1
340
173D2
  0
XRECORD
  5
26378
102
{ACAD_REACTORS
330
26377
102
}
330
26377
100
AcDbXrecord
280
     1
340
173D1
  0
DICTIONARYVAR
  5
26374
102
{ACAD_REACTORS
330
26373
102
}
330
26373
100
DictionaryVariables
280
     0
  1
1
  0
DICTIONARYVAR
  5
26375
102
{ACAD_REACTORS
330
26373
102
}
330
26373
100
DictionaryVariables
280
     0
  1

  0
DICTIONARY
  5
2637A
330
173D5
100
AcDbDictionary
280
     1
281
     1
  3
ACAD_XREC_ROUNDTRIP
360
2637B
  0
DICTIONARY
  5
2637C
330
173D6
100
AcDbDictionary
280
     1
281
     1
  3
ACAD_XREC_ROUNDTRIP
360
2637D
  0
XRECORD
  5
2637B
102
{ACAD_REACTORS
330
2637A
102
}
330
2637A
100
AcDbXrecord
280
     1
102
SHADEPLOT
 70
     0
102
SHADEPLOTRESLEVEL
 70
     2
102
SHADEPLOTCUSTOMDPI
 70
   150
  0
XRECORD
  5
2637D
102
{ACAD_REACTORS
330
2637C
102
}
330
2637C
100
AcDbXrecord
280
     1
102
SHADEPLOT
 70
     0
102
SHADEPLOTRESLEVEL
 70
     2
102
SHADEPLOTCUSTOMDPI
 70
   300
  0
ENDSEC
  0
EOF
