  0
SECTION
  2
HEADER
  9
$ACADVER
  1
AC1015
  9
$ACADMAINTVER
 70
    20
  9
$DWGCODEPAGE
  3
ANSI_932
  9
$INSBASE
 10
0.0
 20
0.0
 30
0.0
  9
$EXTMIN
 10
139.9999999999995
 20
-0.0000000000000909
 30
0.0
  9
$EXTMAX
 10
16307.2
 20
11409.6
 30
0.0
  9
$LIMMIN
 10
0.0
 20
0.0
  9
$LIMMAX
 10
16800.0
 20
11880.0
  9
$ORTHOMODE
 70
     0
  9
$REGENMODE
 70
     1
  9
$FILLMODE
 70
     1
  9
$QTEXTMODE
 70
     0
  9
$MIRRTEXT
 70
     1
  9
$LTSCALE
 40
20.0
  9
$ATTMODE
 70
     1
  9
$TEXTSIZE
 40
4.0
  9
$TRACEWID
 40
1.0
  9
$TEXTSTYLE
  7
STYLE1
  9
$CLAYER
  8
細線
  9
$CELTYPE
  6
BYLAYER
  9
$CECOLOR
 62
   256
  9
$CELTSCALE
 40
50.0
  9
$DISPSILH
 70
     0
  9
$DIMSCALE
 40
40.0
  9
$DIMASZ
 40
2.5
  9
$DIMEXO
 40
0.5
  9
$DIMDLI
 40
7.0
  9
$DIMRND
 40
0.0
  9
$DIMDLE
 40
0.0
  9
$DIMEXE
 40
1.5
  9
$DIMTP
 40
0.0
  9
$DIMTM
 40
0.0
  9
$DIMTXT
 40
3.0
  9
$DIMCEN
 40
0.0
  9
$DIMTSZ
 40
0.0
  9
$DIMTOL
 70
     0
  9
$DIMLIM
 70
     0
  9
$DIMTIH
 70
     0
  9
$DIMTOH
 70
     0
  9
$DIMSE1
 70
     0
  9
$DIMSE2
 70
     0
  9
$DIMTAD
 70
     3
  9
$DIMZIN
 70
     8
  9
$DIMBLK
  1

  9
$DIMASO
 70
     1
  9
$DIMSHO
 70
     1
  9
$DIMPOST
  1

  9
$DIMAPOST
  1

  9
$DIMALT
 70
     0
  9
$DIMALTD
 70
     2
  9
$DIMALTF
 40
0.0394
  9
$DIMLFAC
 40
1.0
  9
$DIMTOFL
 70
     1
  9
$DIMTVP
 40
0.0
  9
$DIMTIX
 70
     1
  9
$DIMSOXD
 70
     0
  9
$DIMSAH
 70
     1
  9
$DIMBLK1
  1
DOTSMALL
  9
$DIMBLK2
  1
DOTSMALL
  9
$DIMSTYLE
  2
INABA_S40G
  9
$DIMCLRD
 70
     0
  9
$DIMCLRE
 70
     0
  9
$DIMCLRT
 70
     7
  9
$DIMTFAC
 40
1.0
  9
$DIMGAP
 40
1.0
  9
$DIMJUST
 70
     0
  9
$DIMSD1
 70
     0
  9
$DIMSD2
 70
     0
  9
$DIMTOLJ
 70
     1
  9
$DIMTZIN
 70
     0
  9
$DIMALTZ
 70
     0
  9
$DIMALTTZ
 70
     0
  9
$DIMUPT
 70
     0
  9
$DIMDEC
 70
     1
  9
$DIMTDEC
 70
     4
  9
$DIMALTU
 70
     2
  9
$DIMALTTD
 70
     2
  9
$DIMTXSTY
  7
STYLE1
  9
$DIMAUNIT
 70
     0
  9
$DIMADEC
 70
     0
  9
$DIMALTRND
 40
0.0
  9
$DIMAZIN
 70
     0
  9
$DIMDSEP
 70
    46
  9
$DIMATFIT
 70
     3
  9
$DIMFRAC
 70
     0
  9
$DIMLDRBLK
  1

  9
$DIMLUNIT
 70
     2
  9
$DIMLWD
 70
    -2
  9
$DIMLWE
 70
    -2
  9
$DIMTMOVE
 70
     0
  9
$LUNITS
 70
     2
  9
$LUPREC
 70
     1
  9
$SKETCHINC
 40
1.0
  9
$FILLETRAD
 40
3.0
  9
$AUNITS
 70
     0
  9
$AUPREC
 70
     0
  9
$MENU
  1
acad
  9
$ELEVATION
 40
0.0
  9
$PELEVATION
 40
0.0
  9
$THICKNESS
 40
0.0
  9
$LIMCHECK
 70
     0
  9
$CHAMFERA
 40
0.0
  9
$CHAMFERB
 40
0.0
  9
$CHAMFERC
 40
0.0
  9
$CHAMFERD
 40
0.0
  9
$SKPOLY
 70
     0
  9
$TDCREATE
 40
2451368.612993866
  9
$TDUCREATE
 40
2451368.237993866
  9
$TDUPDATE
 40
2455826.641110926
  9
$TDUUPDATE
 40
2455826.266110926
  9
$TDINDWG
 40
0.7696935764
  9
$TDUSRTIMER
 40
0.7696935764
  9
$USRTIMER
 70
     1
  9
$ANGBASE
 50
0.0
  9
$ANGDIR
 70
     0
  9
$PDMODE
 70
     3
  9
$PDSIZE
 40
2.0
  9
$PLINEWID
 40
0.0
  9
$SPLFRAME
 70
     0
  9
$SPLINETYPE
 70
     6
  9
$SPLINESEGS
 70
     8
  9
$HANDSEED
  5
243F1
  9
$SURFTAB1
 70
     6
  9
$SURFTAB2
 70
     6
  9
$SURFTYPE
 70
     6
  9
$SURFU
 70
     6
  9
$SURFV
 70
     6
  9
$UCSBASE
  2

  9
$UCSNAME
  2

  9
$UCSORG
 10
0.0
 20
0.0
 30
0.0
  9
$UCSXDIR
 10
1.0
 20
0.0
 30
0.0
  9
$UCSYDIR
 10
0.0
 20
1.0
 30
0.0
  9
$UCSORTHOREF
  2

  9
$UCSORTHOVIEW
 70
     0
  9
$UCSORGTOP
 10
0.0
 20
0.0
 30
0.0
  9
$UCSORGBOTTOM
 10
0.0
 20
0.0
 30
0.0
  9
$UCSORGLEFT
 10
0.0
 20
0.0
 30
0.0
  9
$UCSORGRIGHT
 10
0.0
 20
0.0
 30
0.0
  9
$UCSORGFRONT
 10
0.0
 20
0.0
 30
0.0
  9
$UCSORGBACK
 10
0.0
 20
0.0
 30
0.0
  9
$PUCSBASE
  2

  9
$PUCSNAME
  2

  9
$PUCSORG
 10
0.0
 20
0.0
 30
0.0
  9
$PUCSXDIR
 10
1.0
 20
0.0
 30
0.0
  9
$PUCSYDIR
 10
0.0
 20
1.0
 30
0.0
  9
$PUCSORTHOREF
  2

  9
$PUCSORTHOVIEW
 70
     0
  9
$PUCSORGTOP
 10
0.0
 20
0.0
 30
0.0
  9
$PUCSORGBOTTOM
 10
0.0
 20
0.0
 30
0.0
  9
$PUCSORGLEFT
 10
0.0
 20
0.0
 30
0.0
  9
$PUCSORGRIGHT
 10
0.0
 20
0.0
 30
0.0
  9
$PUCSORGFRONT
 10
0.0
 20
0.0
 30
0.0
  9
$PUCSORGBACK
 10
0.0
 20
0.0
 30
0.0
  9
$USERI1
 70
     0
  9
$USERI2
 70
     0
  9
$USERI3
 70
     0
  9
$USERI4
 70
     0
  9
$USERI5
 70
     0
  9
$USERR1
 40
0.0
  9
$USERR2
 40
0.0
  9
$USERR3
 40
0.0
  9
$USERR4
 40
0.0
  9
$USERR5
 40
0.0
  9
$WORLDVIEW
 70
     1
  9
$SHADEDGE
 70
     3
  9
$SHADEDIF
 70
    70
  9
$TILEMODE
 70
     1
  9
$MAXACTVP
 70
    16
  9
$PINSBASE
 10
0.0
 20
0.0
 30
0.0
  9
$PLIMCHECK
 70
     0
  9
$PEXTMIN
 10
1.000000000000000E+20
 20
1.000000000000000E+20
 30
1.000000000000000E+20
  9
$PEXTMAX
 10
-1.000000000000000E+20
 20
-1.000000000000000E+20
 30
-1.000000000000000E+20
  9
$PLIMMIN
 10
0.0
 20
0.0
  9
$PLIMMAX
 10
420.0
 20
297.0
  9
$UNITMODE
 70
     0
  9
$VISRETAIN
 70
     0
  9
$PLINEGEN
 70
     0
  9
$PSLTSCALE
 70
     0
  9
$TREEDEPTH
 70
  3020
  9
$CMLSTYLE
  2
STANDARD
  9
$CMLJUST
 70
     0
  9
$CMLSCALE
 40
1.0
  9
$PROXYGRAPHICS
 70
     1
  9
$MEASUREMENT
 70
     1
  9
$CELWEIGHT
370
    -1
  9
$ENDCAPS
280
     0
  9
$JOINSTYLE
280
     0
  9
$LWDISPLAY
290
     0
  9
$INSUNITS
 70
     0
  9
$HYPERLINKBASE
  1

  9
$STYLESHEET
  1

  9
$XEDIT
290
     1
  9
$CEPSNTYPE
380
     0
  9
$PSTYLEMODE
290
     1
  9
$FINGERPRINTGUID
  2
{5EAC461A-2277-4BF8-9AB0-99C43BB394F0}
  9
$VERSIONGUID
  2
{0BAF4334-6A73-4EF7-A5DB-17E5616A0021}
  9
$EXTNAMES
290
     1
  9
$PSVPSCALE
 40
0.0
  9
$OLESTARTUP
290
     0
  0
ENDSEC
  0
SECTION
  2
CLASSES
  0
CLASS
  1
ACDBDICTIONARYWDFLT
  2
AcDbDictionaryWithDefault
  3
ObjectDBX Classes
 90
        0
280
     0
281
     0
  0
CLASS
  1
DICTIONARYVAR
  2
AcDbDictionaryVar
  3
ObjectDBX Classes
 90
        0
280
     0
281
     0
  0
CLASS
  1
ACDBPLACEHOLDER
  2
AcDbPlaceHolder
  3
ObjectDBX Classes
 90
        0
280
     0
281
     0
  0
CLASS
  1
LAYOUT
  2
AcDbLayout
  3
ObjectDBX Classes
 90
        0
280
     0
281
     0
  0
ENDSEC
  0
SECTION
  2
TABLES
  0
TABLE
  2
VPORT
  5
746D
330
0
100
AcDbSymbolTable
 70
     2
  0
VPORT
  5
243E9
330
746D
100
AcDbSymbolTableRecord
100
AcDbViewportTableRecord
  2
*Active
 70
     0
 10
0.0
 20
0.0
 11
1.0
 21
1.0
 12
8223.761025238502
 22
5855.51892110829
 13
0.0
 23
0.0
 14
10.0
 24
10.0
 15
10.0
 25
10.0
 16
0.0
 26
0.0
 36
1.0
 17
0.0
 27
0.0
 37
0.0
 40
11801.05715611403
 41
1.522222222222222
 42
50.0
 43
0.0
 44
0.0
 50
0.0
 51
0.0
 71
     0
 72
     0
 73
     1
 74
     0
 75
     0
 76
     0
 77
     0
 78
     0
281
     0
 65
     1
110
0.0
120
0.0
130
0.0
111
1.0
121
0.0
131
0.0
112
0.0
122
1.0
132
0.0
 79
     0
146
0.0
  0
ENDTAB
  0
TABLE
  2
LTYPE
  5
746A
330
0
100
AcDbSymbolTable
 70
     5
  0
LTYPE
  5
7477
330
746A
100
AcDbSymbolTableRecord
100
AcDbLinetypeTableRecord
  2
BYBLOCK
 70
     0
  3

 72
    65
 73
     0
 40
0.0
  0
LTYPE
  5
7478
330
746A
100
AcDbSymbolTableRecord
100
AcDbLinetypeTableRecord
  2
BYLAYER
 70
     0
  3

 72
    65
 73
     0
 40
0.0
  0
LTYPE
  5
7479
330
746A
100
AcDbSymbolTableRecord
100
AcDbLinetypeTableRecord
  2
CONTINUOUS
 70
     0
  3
Solid line
 72
    65
 73
     0
 40
0.0
  0
LTYPE
  5
7816
330
746A
100
AcDbSymbolTableRecord
100
AcDbLinetypeTableRecord
  2
CENTER
 70
     0
  3
____ _ ____ _ ____ _ ____ _ ____ _ ____ _ ____ 
 72
    65
 73
     4
 40
2.0
 49
1.25
 74
     0
 49
-0.25
 74
     0
 49
0.25
 74
     0
 49
-0.25
 74
     0
  0
LTYPE
  5
781A
330
746A
100
AcDbSymbolTableRecord
100
AcDbLinetypeTableRecord
  2
HIDDEN
 70
     0
  3
__ __ __ __ __ __ __ __ __ __ __ __ __ __ __ __
 72
    65
 73
     2
 40
0.375
 49
0.25
 74
     0
 49
-0.125
 74
     0
  0
LTYPE
  5
781B
330
746A
100
AcDbSymbolTableRecord
100
AcDbLinetypeTableRecord
  2
PHANTOM
 70
     0
  3
______  __  __  ______  __  __  ______  __  __ 
 72
    65
 73
     6
 40
2.5
 49
1.25
 74
     0
 49
-0.25
 74
     0
 49
0.25
 74
     0
 49
-0.25
 74
     0
 49
0.25
 74
     0
 49
-0.25
 74
     0
  0
LTYPE
  5
12CC3
330
746A
100
AcDbSymbolTableRecord
100
AcDbLinetypeTableRecord
  2
HIDDENX2
 70
     0
  3
Hidden (2x) ____ ____ ____ ____ ____ ____ ____
 72
    65
 73
     2
 40
19.05
 49
12.7
 74
     0
 49
-6.349999999999999
 74
     0
  0
ENDTAB
  0
TABLE
  2
LAYER
  5
7467
102
{ACAD_XDICTIONARY
360
1758F
102
}
330
0
100
AcDbSymbolTable
 70
    12
  0
LAYER
  5
7474
330
7467
100
AcDbSymbolTableRecord
100
AcDbLayerTableRecord
  2
0
 70
     0
 62
     7
  6
CONTINUOUS
370
    -3
390
173D0
  0
LAYER
  5
DEB2
330
7467
100
AcDbSymbolTableRecord
100
AcDbLayerTableRecord
  2
センター
 70
     0
 62
     3
  6
CENTER
370
    -3
390
173D0
  0
LAYER
  5
DEB3
330
7467
100
AcDbSymbolTableRecord
100
AcDbLayerTableRecord
  2
寸法
 70
     0
 62
     4
  6
CONTINUOUS
370
    -3
390
173D0
  0
LAYER
  5
DEB4
330
7467
100
AcDbSymbolTableRecord
100
AcDbLayerTableRecord
  2
部品1
 70
     0
 62
     7
  6
CONTINUOUS
370
    -3
390
173D0
  0
LAYER
  5
DEB5
330
7467
100
AcDbSymbolTableRecord
100
AcDbLayerTableRecord
  2
補助
 70
     0
 62
    -1
  6
CONTINUOUS
370
    -3
390
173D0
  0
LAYER
  5
DEB6
330
7467
100
AcDbSymbolTableRecord
100
AcDbLayerTableRecord
  2
文字
 70
     0
 62
     7
  6
CONTINUOUS
370
    -3
390
173D0
  0
LAYER
  5
F255
330
7467
100
AcDbSymbolTableRecord
100
AcDbLayerTableRecord
  2
DEFPOINTS
 70
     0
 62
     7
  6
CONTINUOUS
290
     0
370
    -3
390
173D0
  0
LAYER
  5
10B54
330
7467
100
AcDbSymbolTableRecord
100
AcDbLayerTableRecord
  2
仕様書枠
 70
     0
 62
   230
  6
CONTINUOUS
370
    -3
390
173D0
  0
LAYER
  5
11729
330
7467
100
AcDbSymbolTableRecord
100
AcDbLayerTableRecord
  2
Ｇ．Ｌ
 70
     0
 62
    30
  6
CONTINUOUS
370
    -3
390
173D0
  0
LAYER
  5
1173F
330
7467
100
AcDbSymbolTableRecord
100
AcDbLayerTableRecord
  2
細線
 70
     0
 62
     5
  6
CONTINUOUS
370
    -3
390
173D0
  0
LAYER
  5
12CC4
330
7467
100
AcDbSymbolTableRecord
100
AcDbLayerTableRecord
  2
想像線
 70
     0
 62
     6
  6
PHANTOM
370
    -3
390
173D0
  0
LAYER
  5
142E2
330
7467
100
AcDbSymbolTableRecord
100
AcDbLayerTableRecord
  2
破線
 70
     0
 62
     2
  6
HIDDEN
370
    -3
390
173D0
  0
ENDTAB
  0
TABLE
  2
STYLE
  5
7468
330
0
100
AcDbSymbolTable
 70
     7
  0
STYLE
  5
7475
330
7468
100
AcDbSymbolTableRecord
100
AcDbTextStyleTableRecord
  2
STANDARD
 70
     0
 40
0.0
 41
1.0
 50
0.0
 71
     0
 42
4.0
  3
txt
  4
C:\AutoCAD LT\bigfont.shx
  0
STYLE
  5
763C
330
7468
100
AcDbSymbolTableRecord
100
AcDbTextStyleTableRecord
  2
MSMINCHO
 70
     0
 40
0.0
 41
1.0
 50
0.0
 71
     0
 42
1.199999999999999
  3
C:\AutoCAD LT\msminch2.TTF
  4

  0
STYLE
  5
F706
330
7468
100
AcDbSymbolTableRecord
100
AcDbTextStyleTableRecord
  2
STYLE1
 70
     0
 40
0.0
 41
1.0
 50
0.0
 71
     0
 42
4.0
  3
isocp.shx
  4
bigfont.shx
  0
STYLE
  5
103BF
330
7468
100
AcDbSymbolTableRecord
100
AcDbTextStyleTableRecord
  2
STYLE2
 70
     0
 40
0.0
 41
1.0
 50
0.0
 71
     0
 42
100.0
  3
MS PGothic.ttf
  4

1001
ACAD
1000
MS PGothic
1071
    32818
  0
STYLE
  5
10BAA
330
7468
100
AcDbSymbolTableRecord
100
AcDbTextStyleTableRecord
  2
STYLE3
 70
     0
 40
0.0
 41
1.0
 50
0.0
 71
     0
 42
100.0
  3

  4

1001
ACAD
1000
DFPGothic-EB
1071
    32818
  0
STYLE
  5
11A15
330
7468
100
AcDbSymbolTableRecord
100
AcDbTextStyleTableRecord
  2
MSGOTHIC
 70
     0
 40
0.0
 41
1.0
 50
0.0
 71
     0
 42
3.5
  3
msgothi2.ttf
  4

  0
STYLE
  5
13E96
330
7468
100
AcDbSymbolTableRecord
100
AcDbTextStyleTableRecord
  2
MSPゴシック
 70
     0
 40
0.0
 41
1.0
 50
0.0
 71
     0
 42
4.0
  3
MS PGothic.ttf
  4

1001
ACAD
1000
MS PGothic
1071
    32818
  0
ENDTAB
  0
TABLE
  2
VIEW
  5
746B
330
0
100
AcDbSymbolTable
 70
     0
  0
ENDTAB
  0
TABLE
  2
UCS
  5
746C
330
0
100
AcDbSymbolTable
 70
     0
  0
ENDTAB
  0
TABLE
  2
APPID
  5
746E
330
0
100
AcDbSymbolTable
 70
     6
  0
APPID
  5
7476
330
746E
100
AcDbSymbolTableRecord
100
AcDbRegAppTableRecord
  2
ACAD
 70
     0
  0
APPID
  5
DEA9
330
746E
100
AcDbSymbolTableRecord
100
AcDbRegAppTableRecord
  2
CONTENTBLOCKICON
 70
     0
  0
APPID
  5
DEAA
330
746E
100
AcDbSymbolTableRecord
100
AcDbRegAppTableRecord
  2
CONTENTBLOCKDESCRIPTION
 70
     0
  0
APPID
  5
E71D
330
746E
100
AcDbSymbolTableRecord
100
AcDbRegAppTableRecord
  2
CONTENTTABDATA
 70
     0
  0
APPID
  5
E71E
330
746E
100
AcDbSymbolTableRecord
100
AcDbRegAppTableRecord
  2
CONTENTCURRENTTAB
 70
     0
  0
APPID
  5
F3BA
330
746E
100
AcDbSymbolTableRecord
100
AcDbRegAppTableRecord
  2
DRAWINGVARIABLESXDATA
 70
     0
  0
ENDTAB
  0
TABLE
  2
DIMSTYLE
  5
746F
330
0
100
AcDbSymbolTable
 70
     6
100
AcDbDimStyleTable
 71
     1
340
F71F
  0
DIMSTYLE
105
7484
330
746F
100
AcDbSymbolTableRecord
100
AcDbDimStyleTableRecord
  2
JIS
 70
     0
 41
2.5
 42
1.0
 43
7.0
 44
1.0
 73
     0
 74
     0
 77
     1
 78
     8
140
2.5
141
0.0
143
0.0394
147
0.0
172
     1
174
     1
175
     1
340
7475
  0
DIMSTYLE
105
F236
330
746F
100
AcDbSymbolTableRecord
100
AcDbDimStyleTableRecord
  2
INABA_S40
 70
     0
 40
40.0
 41
2.5
 42
0.5
 43
7.0
 44
1.5
 73
     0
 74
     0
 77
     3
 78
     8
140
3.0
141
0.0
143
0.0394
147
1.0
172
     1
173
     1
174
     1
175
     1
178
     7
289
     0
340
7475
341
DEAC
343
DEAC
344
DEAC
  0
DIMSTYLE
105
F71F
102
{ACAD_REACTORS
330
22941
330
22940
330
2293B
330
22939
330
22957
330
22947
330
22946
330
22945
330
22944
330
22943
330
2293F
330
2293E
330
2293D
330
2296F
330
2296B
330
2294F
330
22988
330
2293A
330
2350A
330
23518
330
23519
330
23D4A
330
23D4B
330
23D50
330
2428E
330
2421B
330
2421C
330
24224
330
2422B
330
2422E
102
}
330
746F
100
AcDbSymbolTableRecord
100
AcDbDimStyleTableRecord
  2
INABA_S40G
 70
     0
 40
40.0
 41
2.5
 42
0.5
 43
7.0
 44
1.5
 73
     0
 74
     0
 77
     3
 78
     8
140
3.0
141
0.0
143
0.0394
147
1.0
172
     1
173
     1
174
     1
178
     7
271
     1
340
F706
341
F770
343
F770
344
F770
  0
DIMSTYLE
105
142E3
330
746F
100
AcDbSymbolTableRecord
100
AcDbDimStyleTableRecord
  2
INABA_S1
 70
     0
 40
0.0
 41
2.5
 42
0.5
 43
7.0
 44
1.5
 73
     0
 74
     0
 77
     3
 78
     8
140
3.0
141
0.0
143
0.0394
146
0.5
147
0.5
172
     1
173
     1
176
   256
177
   256
178
     7
271
     2
272
     2
284
     8
288
     1
340
7475
341
DEAC
343
DEAC
344
DEAC
  0
DIMSTYLE
105
14463
330
746F
100
AcDbSymbolTableRecord
100
AcDbDimStyleTableRecord
  2
INABA_S30G
 70
     0
 40
30.0
 41
2.5
 42
0.5
 43
7.0
 44
1.5
 73
     0
 74
     0
 77
     3
 78
     8
140
3.0
141
0.0
143
0.0394
147
1.0
172
     1
173
     1
174
     1
175
     1
178
     7
271
     1
340
F706
341
F770
343
F770
344
F770
  0
DIMSTYLE
105
1758E
330
746F
100
AcDbSymbolTableRecord
100
AcDbDimStyleTableRecord
  2
INABA_S50G
 70
     0
 41
125.0
 42
25.0
 43
7.0
 44
75.0
 73
     0
 74
     0
 77
     3
 78
     8
140
150.0
141
0.0
143
0.0394
147
25.0
172
     1
173
     1
174
     1
175
     1
178
     7
271
     1
340
F706
341
F770
343
F770
344
F770
  0
ENDTAB
  0
TABLE
  2
BLOCK_RECORD
  5
7466
330
0
100
AcDbSymbolTable
 70
    49
  0
BLOCK_RECORD
  5
747D
330
7466
100
AcDbSymbolTableRecord
100
AcDbBlockTableRecord
  2
*MODEL_SPACE
340
173D5
  0
BLOCK_RECORD
  5
747A
330
7466
100
AcDbSymbolTableRecord
100
AcDbBlockTableRecord
  2
*PAPER_SPACE
340
173D6
  0
BLOCK_RECORD
  5
DEAC
330
7466
100
AcDbSymbolTableRecord
100
AcDbBlockTableRecord
  2
_OPEN
340
0
  0
BLOCK_RECORD
  5
F770
330
7466
100
AcDbSymbolTableRecord
100
AcDbBlockTableRecord
  2
_DOTSMALL
340
0
102
{BLKREFS
331
18C65
331
18C66
331
18C59
331
18C5A
331
18C4D
331
18C4E
331
18C41
331
18C42
331
18C35
331
18C36
331
18C29
331
18C2A
331
18C1D
331
18C1E
331
18C0F
331
18C10
331
18C03
331
18C04
331
18BF5
331
18BF6
331
18BE7
331
18BE8
331
18BD9
331
18BDA
331
18BCD
331
18BCE
331
22EA8
331
22EA9
331
22EB1
331
22EB2
331
22EBA
331
22EBB
331
22EE0
331
22EE1
331
22EE9
331
22EEA
331
22EF3
331
22EF4
331
22EFD
331
22EFE
331
22F08
331
22F09
331
22F1C
331
22F1D
331
22F30
331
22F31
331
22F5E
331
22F5F
331
22F74
331
22F75
331
23769
331
2376A
331
23771
331
23772
331
2377A
331
2377B
331
23783
331
23784
331
23795
331
23796
331
2379E
331
2379F
331
23FB4
331
23FB5
331
23FBD
331
23FBE
331
24067
331
24068
331
24071
331
24072
331
2407B
331
2407C
331
24085
331
24086
331
24399
331
2439A
331
243A1
331
243A2
331
243B0
331
243B1
331
243B9
331
243BA
331
243C2
331
243C3
331
243CB
331
243CC
102
}
  0
BLOCK_RECORD
  5
164B4
330
7466
100
AcDbSymbolTableRecord
100
AcDbBlockTableRecord
  2
_DOT
340
0
102
{BLKREFS
331
18C73
331
18C74
102
}
  0
BLOCK_RECORD
  5
18BC8
330
7466
100
AcDbSymbolTableRecord
100
AcDbBlockTableRecord
  2
*D3
340
0
  0
BLOCK_RECORD
  5
18BD4
330
7466
100
AcDbSymbolTableRecord
100
AcDbBlockTableRecord
  2
*D4
340
0
  0
BLOCK_RECORD
  5
18BE0
330
7466
100
AcDbSymbolTableRecord
100
AcDbBlockTableRecord
  2
*D5
340
0
  0
BLOCK_RECORD
  5
18BEE
330
7466
100
AcDbSymbolTableRecord
100
AcDbBlockTableRecord
  2
*D6
340
0
  0
BLOCK_RECORD
  5
18BFC
330
7466
100
AcDbSymbolTableRecord
100
AcDbBlockTableRecord
  2
*D7
340
0
  0
BLOCK_RECORD
  5
18C0A
330
7466
100
AcDbSymbolTableRecord
100
AcDbBlockTableRecord
  2
*D8
340
0
  0
BLOCK_RECORD
  5
18C16
330
7466
100
AcDbSymbolTableRecord
100
AcDbBlockTableRecord
  2
*D9
340
0
  0
BLOCK_RECORD
  5
18C24
330
7466
100
AcDbSymbolTableRecord
100
AcDbBlockTableRecord
  2
*D10
340
0
  0
BLOCK_RECORD
  5
18C30
330
7466
100
AcDbSymbolTableRecord
100
AcDbBlockTableRecord
  2
*D11
340
0
  0
BLOCK_RECORD
  5
18C3C
330
7466
100
AcDbSymbolTableRecord
100
AcDbBlockTableRecord
  2
*D12
340
0
  0
BLOCK_RECORD
  5
18C48
330
7466
100
AcDbSymbolTableRecord
100
AcDbBlockTableRecord
  2
*D13
340
0
  0
BLOCK_RECORD
  5
18C54
330
7466
100
AcDbSymbolTableRecord
100
AcDbBlockTableRecord
  2
*D14
340
0
  0
BLOCK_RECORD
  5
18C60
330
7466
100
AcDbSymbolTableRecord
100
AcDbBlockTableRecord
  2
*D15
340
0
  0
BLOCK_RECORD
  5
18C6C
330
7466
100
AcDbSymbolTableRecord
100
AcDbBlockTableRecord
  2
*D16
340
0
  0
BLOCK_RECORD
  5
18C7A
330
7466
100
AcDbSymbolTableRecord
100
AcDbBlockTableRecord
  2
A$C3B1A506B
340
0
  0
BLOCK_RECORD
  5
1C4CA
330
7466
100
AcDbSymbolTableRecord
100
AcDbBlockTableRecord
  2
_NONE
340
0
  0
BLOCK_RECORD
  5
22995
330
7466
100
AcDbSymbolTableRecord
100
AcDbBlockTableRecord
  2
*D19
340
0
  0
BLOCK_RECORD
  5
229A2
330
7466
100
AcDbSymbolTableRecord
100
AcDbBlockTableRecord
  2
*D20
340
0
  0
BLOCK_RECORD
  5
229AF
330
7466
100
AcDbSymbolTableRecord
100
AcDbBlockTableRecord
  2
*D21
340
0
  0
BLOCK_RECORD
  5
229C8
330
7466
100
AcDbSymbolTableRecord
100
AcDbBlockTableRecord
  2
*D22
340
0
  0
BLOCK_RECORD
  5
229D5
330
7466
100
AcDbSymbolTableRecord
100
AcDbBlockTableRecord
  2
*D23
340
0
  0
BLOCK_RECORD
  5
229E2
330
7466
100
AcDbSymbolTableRecord
100
AcDbBlockTableRecord
  2
*D24
340
0
  0
BLOCK_RECORD
  5
229EF
330
7466
100
AcDbSymbolTableRecord
100
AcDbBlockTableRecord
  2
*D25
340
0
  0
BLOCK_RECORD
  5
229FA
330
7466
100
AcDbSymbolTableRecord
100
AcDbBlockTableRecord
  2
*D26
340
0
  0
BLOCK_RECORD
  5
22A10
330
7466
100
AcDbSymbolTableRecord
100
AcDbBlockTableRecord
  2
*D27
340
0
  0
BLOCK_RECORD
  5
22A1A
330
7466
100
AcDbSymbolTableRecord
100
AcDbBlockTableRecord
  2
*D28
340
0
  0
BLOCK_RECORD
  5
22A26
330
7466
100
AcDbSymbolTableRecord
100
AcDbBlockTableRecord
  2
*D29
340
0
  0
BLOCK_RECORD
  5
22A31
330
7466
100
AcDbSymbolTableRecord
100
AcDbBlockTableRecord
  2
*D30
340
0
  0
BLOCK_RECORD
  5
22A3D
330
7466
100
AcDbSymbolTableRecord
100
AcDbBlockTableRecord
  2
*D31
340
0
  0
BLOCK_RECORD
  5
22A57
330
7466
100
AcDbSymbolTableRecord
100
AcDbBlockTableRecord
  2
*D32
340
0
  0
BLOCK_RECORD
  5
22A63
330
7466
100
AcDbSymbolTableRecord
100
AcDbBlockTableRecord
  2
*D33
340
0
  0
BLOCK_RECORD
  5
22A7D
330
7466
100
AcDbSymbolTableRecord
100
AcDbBlockTableRecord
  2
*D34
340
0
  0
BLOCK_RECORD
  5
22A89
330
7466
100
AcDbSymbolTableRecord
100
AcDbBlockTableRecord
  2
*D35
340
0
  0
BLOCK_RECORD
  5
22A94
330
7466
100
AcDbSymbolTableRecord
100
AcDbBlockTableRecord
  2
*D36
340
0
  0
BLOCK_RECORD
  5
23586
330
7466
100
AcDbSymbolTableRecord
100
AcDbBlockTableRecord
  2
*D37
340
0
  0
BLOCK_RECORD
  5
23592
330
7466
100
AcDbSymbolTableRecord
100
AcDbBlockTableRecord
  2
*D38
340
0
  0
BLOCK_RECORD
  5
2359E
330
7466
100
AcDbSymbolTableRecord
100
AcDbBlockTableRecord
  2
*D39
340
0
  0
BLOCK_RECORD
  5
23DA8
330
7466
100
AcDbSymbolTableRecord
100
AcDbBlockTableRecord
  2
*D40
340
0
  0
BLOCK_RECORD
  5
23DB5
330
7466
100
AcDbSymbolTableRecord
100
AcDbBlockTableRecord
  2
*D41
340
0
  0
BLOCK_RECORD
  5
23DC2
330
7466
100
AcDbSymbolTableRecord
100
AcDbBlockTableRecord
  2
*D42
340
0
  0
BLOCK_RECORD
  5
24348
330
7466
100
AcDbSymbolTableRecord
100
AcDbBlockTableRecord
  2
*D43
340
0
  0
BLOCK_RECORD
  5
24354
330
7466
100
AcDbSymbolTableRecord
100
AcDbBlockTableRecord
  2
*D44
340
0
  0
BLOCK_RECORD
  5
24360
330
7466
100
AcDbSymbolTableRecord
100
AcDbBlockTableRecord
  2
*D45
340
0
  0
BLOCK_RECORD
  5
24371
330
7466
100
AcDbSymbolTableRecord
100
AcDbBlockTableRecord
  2
*D46
340
0
  0
BLOCK_RECORD
  5
2437D
330
7466
100
AcDbSymbolTableRecord
100
AcDbBlockTableRecord
  2
*D47
340
0
  0
BLOCK_RECORD
  5
24389
330
7466
100
AcDbSymbolTableRecord
100
AcDbBlockTableRecord
  2
*D48
340
0
  0
ENDTAB
  0
ENDSEC
  0
SECTION
  2
BLOCKS
  0
BLOCK
  5
7489
330
747D
100
AcDbEntity
  8
0
100
AcDbBlockBegin
  2
*MODEL_SPACE
 70
     0
 10
0.0
 20
0.0
 30
0.0
  3
*MODEL_SPACE
  1

  0
ENDBLK
  5
748A
330
747D
100
AcDbEntity
  8
0
100
AcDbBlockEnd
  0
BLOCK
  5
7487
330
747A
100
AcDbEntity
 67
     1
  8
0
100
AcDbBlockBegin
  2
*PAPER_SPACE
 70
     0
 10
0.0
 20
0.0
 30
0.0
  3
*PAPER_SPACE
  1

  0
ENDBLK
  5
7488
330
747A
100
AcDbEntity
 67
     1
  8
0
100
AcDbBlockEnd
  0
BLOCK
  5
DEAD
330
DEAC
100
AcDbEntity
  8
0
100
AcDbBlockBegin
  2
_OPEN
 70
     0
 10
0.0
 20
0.0
 30
0.0
  3
_OPEN
  1

  0
LINE
  5
DEAE
330
DEAC
100
AcDbEntity
  8
0
  6
ByBlock
 62
     0
100
AcDbLine
 10
-1.0
 20
0.1666666666666666
 30
0.0
 11
0.0
 21
0.0
 31
0.0
  0
LINE
  5
DEAF
330
DEAC
100
AcDbEntity
  8
0
  6
ByBlock
 62
     0
100
AcDbLine
 10
0.0
 20
0.0
 30
0.0
 11
-1.0
 21
-0.1666666666666666
 31
0.0
  0
LINE
  5
DEB0
330
DEAC
100
AcDbEntity
  8
0
  6
ByBlock
 62
     0
100
AcDbLine
 10
0.0
 20
0.0
 30
0.0
 11
-1.0
 21
0.0
 31
0.0
  0
ENDBLK
  5
DEB1
330
DEAC
100
AcDbEntity
  8
0
100
AcDbBlockEnd
  0
BLOCK
  5
F771
330
F770
100
AcDbEntity
  8
0
 48
50.0
100
AcDbBlockBegin
  2
_DOTSMALL
 70
     0
 10
0.0
 20
0.0
 30
0.0
  3
_DOTSMALL
  1

  0
LWPOLYLINE
  5
F772
330
F770
100
AcDbEntity
  8
0
  6
ByBlock
 62
     0
 48
50.0
100
AcDbPolyline
 90
        2
 70
     1
 43
0.5
 10
-0.0625
 20
0.0
 42
1.0
 10
0.0625
 20
0.0
 42
1.0
  0
ENDBLK
  5
F776
330
F770
100
AcDbEntity
  8
0
 48
50.0
100
AcDbBlockEnd
  0
BLOCK
  5
164BA
330
164B4
100
AcDbEntity
  8
0
 48
50.0
100
AcDbBlockBegin
  2
_DOT
 70
     0
 10
0.0
 20
0.0
 30
0.0
  3
_DOT
  1

  0
LWPOLYLINE
  5
164B5
330
164B4
100
AcDbEntity
  8
0
  6
ByBlock
 62
     0
 48
50.0
100
AcDbPolyline
 90
        2
 70
     1
 43
0.5
 10
-0.25
 20
0.0
 42
1.0
 10
0.25
 20
0.0
 42
1.0
  0
LINE
  5
164B9
330
164B4
100
AcDbEntity
  8
0
  6
ByBlock
 62
     0
 48
50.0
100
AcDbLine
 10
-0.5
 20
0.0
 30
0.0
 11
-1.0
 21
0.0
 31
0.0
  0
ENDBLK
  5
164BB
330
164B4
100
AcDbEntity
  8
0
 48
50.0
100
AcDbBlockEnd
  0
BLOCK
  5
18BC9
330
18BC8
100
AcDbEntity
  8
0
 48
50.0
100
AcDbBlockBegin
  2
*D3
 70
     1
 10
0.0
 20
0.0
 30
0.0
  3
*D3
  1

  0
LINE
  5
18BCA
330
18BC8
100
AcDbEntity
  8
寸法
 62
     0
 48
50.0
370
    -2
100
AcDbLine
 10
7649.896575106999
 20
9636.123139034717
 30
0.0
 11
8702.429862581047
 21
9636.123139034717
 31
0.0
  0
LINE
  5
18BCB
330
18BC8
100
AcDbEntity
  8
寸法
 62
     0
 48
50.0
370
    -2
100
AcDbLine
 10
7649.896575106973
 20
7846.123139034709
 30
0.0
 11
8702.429862581047
 21
7846.123139034709
 31
0.0
  0
LINE
  5
18BCC
330
18BC8
100
AcDbEntity
  8
寸法
 62
     0
 48
50.0
370
    -2
100
AcDbLine
 10
8642.429862581046
 20
9636.123139034717
 30
0.0
 11
8642.429862581046
 21
7846.123139034709
 31
0.0
  0
INSERT
  5
18BCD
330
18BC8
100
AcDbEntity
  8
寸法
 62
     0
 48
50.0
370
    -2
100
AcDbBlockReference
  2
_DOTSMALL
 10
8642.429862581046
 20
9636.123139034717
 30
0.0
 41
100.0
 42
100.0
 43
100.0
 50
90.0
  0
INSERT
  5
18BCE
330
18BC8
100
AcDbEntity
  8
寸法
 62
     0
 48
50.0
370
    -2
100
AcDbBlockReference
  2
_DOTSMALL
 10
8642.429862581046
 20
7846.123139034709
 30
0.0
 41
100.0
 42
100.0
 43
100.0
 50
270.0
  0
MTEXT
  5
18BCF
330
18BC8
100
AcDbEntity
  8
寸法
 62
     7
 48
50.0
100
AcDbMText
 10
8542.429862581045
 20
8741.123139034712
 30
0.0
 40
120.0
 41
0.0
 71
     5
 72
     1
  1
\A1;1790
  7
STYLE1
 11
0.0000000000000001
 21
1.0
 31
0.0
 73
     1
 44
1.0
1001
ACAD
1000
MTEXTBEGIN
1070
    73
1070
     1
1070
    44
1040
1.0
1070
    74
1070
     0
1000
MTEXTEND
  0
POINT
  5
18BD0
330
18BC8
100
AcDbEntity
  8
DEFPOINTS
 62
     0
 48
50.0
100
AcDbPoint
 10
7629.896575106998
 20
9636.123139034717
 30
0.0
  0
POINT
  5
18BD1
330
18BC8
100
AcDbEntity
  8
DEFPOINTS
 62
     0
 48
50.0
100
AcDbPoint
 10
7629.896575106974
 20
7846.123139034709
 30
0.0
  0
POINT
  5
18BD2
330
18BC8
100
AcDbEntity
  8
DEFPOINTS
 62
     0
 48
50.0
100
AcDbPoint
 10
8642.429862581046
 20
7846.123139034709
 30
0.0
  0
ENDBLK
  5
18BD3
330
18BC8
100
AcDbEntity
  8
0
 48
50.0
100
AcDbBlockEnd
  0
BLOCK
  5
18BD5
330
18BD4
100
AcDbEntity
  8
0
 48
50.0
100
AcDbBlockBegin
  2
*D4
 70
     1
 10
0.0
 20
0.0
 30
0.0
  3
*D4
  1

  0
LINE
  5
18BD6
330
18BD4
100
AcDbEntity
  8
寸法
 62
     0
 48
50.0
370
    -2
100
AcDbLine
 10
4214.896575106998
 20
9656.123139034622
 30
0.0
 11
4214.896575106998
 21
10211.93135865972
 31
0.0
  0
LINE
  5
18BD7
330
18BD4
100
AcDbEntity
  8
寸法
 62
     0
 48
50.0
370
    -2
100
AcDbLine
 10
7574.896575106999
 20
9656.123139034718
 30
0.0
 11
7574.896575106999
 21
10211.93135865972
 31
0.0
  0
LINE
  5
18BD8
330
18BD4
100
AcDbEntity
  8
寸法
 62
     0
 48
50.0
370
    -2
100
AcDbLine
 10
4214.896575106998
 20
10151.93135865972
 30
0.0
 11
7574.896575106999
 21
10151.93135865972
 31
0.0
  0
INSERT
  5
18BD9
330
18BD4
100
AcDbEntity
  8
寸法
 62
     0
 48
50.0
370
    -2
100
AcDbBlockReference
  2
_DOTSMALL
 10
4214.896575106998
 20
10151.93135865972
 30
0.0
 41
100.0
 42
100.0
 43
100.0
 50
180.0
  0
INSERT
  5
18BDA
330
18BD4
100
AcDbEntity
  8
寸法
 62
     0
 48
50.0
370
    -2
100
AcDbBlockReference
  2
_DOTSMALL
 10
7574.896575106999
 20
10151.93135865972
 30
0.0
 41
100.0
 42
100.0
 43
100.0
  0
MTEXT
  5
18BDB
330
18BD4
100
AcDbEntity
  8
寸法
 62
     7
 48
50.0
100
AcDbMText
 10
5894.896575106997
 20
10251.94316968334
 30
0.0
 40
120.0
 41
0.0
 71
     5
 72
     1
  1
\A1;8X420=3360
  7
STYLE1
 73
     1
 44
1.0
1001
ACAD
1000
MTEXTBEGIN
1070
    73
1070
     1
1070
    44
1040
1.0
1070
    74
1070
     0
1000
MTEXTEND
  0
POINT
  5
18BDC
330
18BD4
100
AcDbEntity
  8
DEFPOINTS
 62
     0
 48
50.0
100
AcDbPoint
 10
4214.896575106998
 20
9636.123139034623
 30
0.0
  0
POINT
  5
18BDD
330
18BD4
100
AcDbEntity
  8
DEFPOINTS
 62
     0
 48
50.0
100
AcDbPoint
 10
7574.896575106999
 20
9636.123139034717
 30
0.0
  0
POINT
  5
18BDE
330
18BD4
100
AcDbEntity
  8
DEFPOINTS
 62
     0
 48
50.0
100
AcDbPoint
 10
7574.896575106999
 20
10151.93135865972
 30
0.0
  0
ENDBLK
  5
18BDF
330
18BD4
100
AcDbEntity
  8
0
 48
50.0
100
AcDbBlockEnd
  0
BLOCK
  5
18BE1
330
18BE0
100
AcDbEntity
  8
0
 48
50.0
100
AcDbBlockBegin
  2
*D5
 70
     1
 10
0.0
 20
0.0
 30
0.0
  3
*D5
  1

  0
LINE
  5
18BE2
330
18BE0
100
AcDbEntity
  8
寸法
 62
     0
 48
50.0
370
    -2
100
AcDbLine
 10
7574.896575106999
 20
9656.123139034718
 30
0.0
 11
7574.896575106999
 21
10211.9313586597
 31
0.0
  0
LINE
  5
18BE3
330
18BE0
100
AcDbEntity
  8
寸法
 62
     0
 48
50.0
370
    -2
100
AcDbLine
 10
7629.896575106998
 20
9656.123139034718
 30
0.0
 11
7629.896575106998
 21
10211.9313586597
 31
0.0
  0
LINE
  5
18BE4
330
18BE0
100
AcDbEntity
  8
寸法
 62
     0
 48
50.0
370
    -2
100
AcDbLine
 10
7574.896575106999
 20
10151.9313586597
 30
0.0
 11
7474.896575106999
 21
10151.9313586597
 31
0.0
  0
LINE
  5
18BE5
330
18BE0
100
AcDbEntity
  8
寸法
 62
     0
 48
50.0
370
    -2
100
AcDbLine
 10
7629.896575106998
 20
10151.9313586597
 30
0.0
 11
8046.867137855477
 21
10151.9313586597
 31
0.0
  0
LINE
  5
18BE6
330
18BE0
100
AcDbEntity
  8
寸法
 62
     0
 48
50.0
370
    -2
100
AcDbLine
 10
7574.896575106999
 20
10151.9313586597
 30
0.0
 11
7629.896575106998
 21
10151.9313586597
 31
0.0
  0
INSERT
  5
18BE7
330
18BE0
100
AcDbEntity
  8
寸法
 62
     0
 48
50.0
370
    -2
100
AcDbBlockReference
  2
_DOTSMALL
 10
7574.896575106999
 20
10151.9313586597
 30
0.0
 41
100.0
 42
100.0
 43
100.0
  0
INSERT
  5
18BE8
330
18BE0
100
AcDbEntity
  8
寸法
 62
     0
 48
50.0
370
    -2
100
AcDbBlockReference
  2
_DOTSMALL
 10
7629.896575106998
 20
10151.9313586597
 30
0.0
 41
100.0
 42
100.0
 43
100.0
 50
180.0
  0
MTEXT
  5
18BE9
330
18BE0
100
AcDbEntity
  8
寸法
 62
     7
 48
50.0
100
AcDbMText
 10
7938.381856481237
 20
10251.9313586597
 30
0.0
 40
120.0
 41
0.0
 71
     5
 72
     1
  1
\A1;55
  7
STYLE1
 73
     1
 44
1.0
1001
ACAD
1000
MTEXTBEGIN
1070
    73
1070
     1
1070
    44
1040
1.0
1070
    74
1070
     0
1000
MTEXTEND
  0
POINT
  5
18BEA
330
18BE0
100
AcDbEntity
  8
DEFPOINTS
 62
     0
 48
50.0
100
AcDbPoint
 10
7574.896575106999
 20
9636.123139034717
 30
0.0
  0
POINT
  5
18BEB
330
18BE0
100
AcDbEntity
  8
DEFPOINTS
 62
     0
 48
50.0
100
AcDbPoint
 10
7629.896575106998
 20
9636.123139034717
 30
0.0
  0
POINT
  5
18BEC
330
18BE0
100
AcDbEntity
  8
DEFPOINTS
 62
     0
 48
50.0
100
AcDbPoint
 10
7629.896575106998
 20
10151.9313586597
 30
0.0
  0
ENDBLK
  5
18BED
330
18BE0
100
AcDbEntity
  8
0
 48
50.0
100
AcDbBlockEnd
  0
BLOCK
  5
18BEF
330
18BEE
100
AcDbEntity
  8
0
 48
50.0
100
AcDbBlockBegin
  2
*D6
 70
     1
 10
0.0
 20
0.0
 30
0.0
  3
*D6
  1

  0
LINE
  5
18BF0
330
18BEE
100
AcDbEntity
  8
寸法
 62
     0
 48
50.0
370
    -2
100
AcDbLine
 10
7649.896575106999
 20
9636.123139034717
 30
0.0
 11
8337.32292084141
 21
9636.123139034717
 31
0.0
  0
LINE
  5
18BF1
330
18BEE
100
AcDbEntity
  8
寸法
 62
     0
 48
50.0
370
    -2
100
AcDbLine
 10
7649.896575106999
 20
9581.123139034721
 30
0.0
 11
8337.32292084141
 21
9581.123139034721
 31
0.0
  0
LINE
  5
18BF2
330
18BEE
100
AcDbEntity
  8
寸法
 62
     0
 48
50.0
370
    -2
100
AcDbLine
 10
8277.322920841411
 20
9581.123139034721
 30
0.0
 11
8277.322920841411
 21
9481.123139034719
 31
0.0
  0
LINE
  5
18BF3
330
18BEE
100
AcDbEntity
  8
寸法
 62
     0
 48
50.0
370
    -2
100
AcDbLine
 10
8277.322920841411
 20
9636.123139034717
 30
0.0
 11
8277.322920841411
 21
10053.09370178319
 31
0.0
  0
LINE
  5
18BF4
330
18BEE
100
AcDbEntity
  8
寸法
 62
     0
 48
50.0
370
    -2
100
AcDbLine
 10
8277.322920841411
 20
9581.123139034721
 30
0.0
 11
8277.322920841411
 21
9636.123139034717
 31
0.0
  0
INSERT
  5
18BF5
330
18BEE
100
AcDbEntity
  8
寸法
 62
     0
 48
50.0
370
    -2
100
AcDbBlockReference
  2
_DOTSMALL
 10
8277.322920841411
 20
9581.123139034721
 30
0.0
 41
100.0
 42
100.0
 43
100.0
 50
90.0
  0
INSERT
  5
18BF6
330
18BEE
100
AcDbEntity
  8
寸法
 62
     0
 48
50.0
370
    -2
100
AcDbBlockReference
  2
_DOTSMALL
 10
8277.322920841411
 20
9636.123139034717
 30
0.0
 41
100.0
 42
100.0
 43
100.0
 50
270.0
  0
MTEXT
  5
18BF7
330
18BEE
100
AcDbEntity
  8
寸法
 62
     7
 48
50.0
100
AcDbMText
 10
8177.32292084141
 20
9944.608420408957
 30
0.0
 40
120.0
 41
0.0
 71
     5
 72
     1
  1
\A1;55
  7
STYLE1
 11
0.0000000000000001
 21
1.0
 31
0.0
 73
     1
 44
1.0
1001
ACAD
1000
MTEXTBEGIN
1070
    73
1070
     1
1070
    44
1040
1.0
1070
    74
1070
     0
1000
MTEXTEND
  0
POINT
  5
18BF8
330
18BEE
100
AcDbEntity
  8
DEFPOINTS
 62
     0
 48
50.0
100
AcDbPoint
 10
7629.896575106998
 20
9636.123139034717
 30
0.0
  0
POINT
  5
18BF9
330
18BEE
100
AcDbEntity
  8
DEFPOINTS
 62
     0
 48
50.0
100
AcDbPoint
 10
7629.896575106998
 20
9581.123139034721
 30
0.0
  0
POINT
  5
18BFA
330
18BEE
100
AcDbEntity
  8
DEFPOINTS
 62
     0
 48
50.0
100
AcDbPoint
 10
8277.322920841411
 20
9581.123139034721
 30
0.0
  0
ENDBLK
  5
18BFB
330
18BEE
100
AcDbEntity
  8
0
 48
50.0
100
AcDbBlockEnd
  0
BLOCK
  5
18BFD
330
18BFC
100
AcDbEntity
  8
0
 48
50.0
100
AcDbBlockBegin
  2
*D7
 70
     1
 10
0.0
 20
0.0
 30
0.0
  3
*D7
  1

  0
LINE
  5
18BFE
330
18BFC
100
AcDbEntity
  8
寸法
 62
     0
 48
50.0
370
    -2
100
AcDbLine
 10
4159.896575106963
 20
9656.123139034622
 30
0.0
 11
4159.896575106963
 21
10211.9313586596
 31
0.0
  0
LINE
  5
18BFF
330
18BFC
100
AcDbEntity
  8
寸法
 62
     0
 48
50.0
370
    -2
100
AcDbLine
 10
4214.896575106998
 20
9656.123139034622
 30
0.0
 11
4214.896575106998
 21
10211.9313586596
 31
0.0
  0
LINE
  5
18C00
330
18BFC
100
AcDbEntity
  8
寸法
 62
     0
 48
50.0
370
    -2
100
AcDbLine
 10
4214.896575106998
 20
10151.9313586596
 30
0.0
 11
4314.896575106998
 21
10151.9313586596
 31
0.0
  0
LINE
  5
18C01
330
18BFC
100
AcDbEntity
  8
寸法
 62
     0
 48
50.0
370
    -2
100
AcDbLine
 10
4159.896575106963
 20
10151.9313586596
 30
0.0
 11
3742.926012358486
 21
10151.9313586596
 31
0.0
  0
LINE
  5
18C02
330
18BFC
100
AcDbEntity
  8
寸法
 62
     0
 48
50.0
370
    -2
100
AcDbLine
 10
4214.896575106998
 20
10151.9313586596
 30
0.0
 11
4159.896575106963
 21
10151.9313586596
 31
0.0
  0
INSERT
  5
18C03
330
18BFC
100
AcDbEntity
  8
寸法
 62
     0
 48
50.0
370
    -2
100
AcDbBlockReference
  2
_DOTSMALL
 10
4214.896575106998
 20
10151.9313586596
 30
0.0
 41
100.0
 42
100.0
 43
100.0
 50
180.0
  0
INSERT
  5
18C04
330
18BFC
100
AcDbEntity
  8
寸法
 62
     0
 48
50.0
370
    -2
100
AcDbBlockReference
  2
_DOTSMALL
 10
4159.896575106963
 20
10151.9313586596
 30
0.0
 41
100.0
 42
100.0
 43
100.0
  0
MTEXT
  5
18C05
330
18BFC
100
AcDbEntity
  8
寸法
 62
     7
 48
50.0
100
AcDbMText
 10
3851.411293732725
 20
10251.9313586596
 30
0.0
 40
120.0
 41
0.0
 71
     5
 72
     1
  1
\A1;55
  7
STYLE1
 73
     1
 44
1.0
1001
ACAD
1000
MTEXTBEGIN
1070
    73
1070
     1
1070
    44
1040
1.0
1070
    74
1070
     0
1000
MTEXTEND
  0
POINT
  5
18C06
330
18BFC
100
AcDbEntity
  8
DEFPOINTS
 62
     0
 48
50.0
100
AcDbPoint
 10
4159.896575106963
 20
9636.123139034623
 30
0.0
  0
POINT
  5
18C07
330
18BFC
100
AcDbEntity
  8
DEFPOINTS
 62
     0
 48
50.0
100
AcDbPoint
 10
4214.896575106998
 20
9636.123139034623
 30
0.0
  0
POINT
  5
18C08
330
18BFC
100
AcDbEntity
  8
DEFPOINTS
 62
     0
 48
50.0
100
AcDbPoint
 10
4214.896575106998
 20
10151.9313586596
 30
0.0
  0
ENDBLK
  5
18C09
330
18BFC
100
AcDbEntity
  8
0
 48
50.0
100
AcDbBlockEnd
  0
BLOCK
  5
18C0B
330
18C0A
100
AcDbEntity
  8
0
 48
50.0
100
AcDbBlockBegin
  2
*D8
 70
     1
 10
0.0
 20
0.0
 30
0.0
  3
*D8
  1

  0
LINE
  5
18C0C
330
18C0A
100
AcDbEntity
  8
寸法
 62
     0
 48
50.0
370
    -2
100
AcDbLine
 10
4159.896575106992
 20
7826.123139034546
 30
0.0
 11
4159.896575106992
 21
6804.372203245664
 31
0.0
  0
LINE
  5
18C0D
330
18C0A
100
AcDbEntity
  8
寸法
 62
     0
 48
50.0
370
    -2
100
AcDbLine
 10
7629.896575106974
 20
7826.123139034674
 30
0.0
 11
7629.896575106974
 21
6804.372203245664
 31
0.0
  0
LINE
  5
18C0E
330
18C0A
100
AcDbEntity
  8
寸法
 62
     0
 48
50.0
370
    -2
100
AcDbLine
 10
4159.896575106992
 20
6864.372203245665
 30
0.0
 11
7629.896575106974
 21
6864.372203245665
 31
0.0
  0
INSERT
  5
18C0F
330
18C0A
100
AcDbEntity
  8
寸法
 62
     0
 48
50.0
370
    -2
100
AcDbBlockReference
  2
_DOTSMALL
 10
4159.896575106992
 20
6864.372203245665
 30
0.0
 41
100.0
 42
100.0
 43
100.0
 50
180.0
  0
INSERT
  5
18C10
330
18C0A
100
AcDbEntity
  8
寸法
 62
     0
 48
50.0
370
    -2
100
AcDbBlockReference
  2
_DOTSMALL
 10
7629.896575106974
 20
6864.372203245665
 30
0.0
 41
100.0
 42
100.0
 43
100.0
  0
MTEXT
  5
18C11
330
18C0A
100
AcDbEntity
  8
寸法
 62
     7
 48
50.0
100
AcDbMText
 10
5911.12376113973
 20
6964.372203245665
 30
0.0
 40
120.0
 41
0.0
 71
     5
 72
     1
  1
\A1;3470
  7
STYLE1
 73
     1
 44
1.0
1001
ACAD
1000
MTEXTBEGIN
1070
    73
1070
     1
1070
    44
1040
1.0
1070
    74
1070
     0
1000
MTEXTEND
  0
POINT
  5
18C12
330
18C0A
100
AcDbEntity
  8
DEFPOINTS
 62
     0
 48
50.0
100
AcDbPoint
 10
4159.896575106992
 20
7846.123139034546
 30
0.0
  0
POINT
  5
18C13
330
18C0A
100
AcDbEntity
  8
DEFPOINTS
 62
     0
 48
50.0
100
AcDbPoint
 10
7629.896575106974
 20
7846.123139034673
 30
0.0
  0
POINT
  5
18C14
330
18C0A
100
AcDbEntity
  8
DEFPOINTS
 62
     0
 48
50.0
100
AcDbPoint
 10
7629.896575106974
 20
6864.372203245665
 30
0.0
  0
ENDBLK
  5
18C15
330
18C0A
100
AcDbEntity
  8
0
 48
50.0
100
AcDbBlockEnd
  0
BLOCK
  5
18C17
330
18C16
100
AcDbEntity
  8
0
 48
50.0
100
AcDbBlockBegin
  2
*D9
 70
     1
 10
0.0
 20
0.0
 30
0.0
  3
*D9
  1

  0
LINE
  5
18C18
330
18C16
100
AcDbEntity
  8
寸法
 62
     0
 48
50.0
370
    -2
100
AcDbLine
 10
7649.896575106973
 20
7901.123139034706
 30
0.0
 11
8337.322920841385
 21
7901.123139034706
 31
0.0
  0
LINE
  5
18C19
330
18C16
100
AcDbEntity
  8
寸法
 62
     0
 48
50.0
370
    -2
100
AcDbLine
 10
7649.896575106973
 20
7846.123139034709
 30
0.0
 11
8337.322920841385
 21
7846.123139034709
 31
0.0
  0
LINE
  5
18C1A
330
18C16
100
AcDbEntity
  8
寸法
 62
     0
 48
50.0
370
    -2
100
AcDbLine
 10
8277.322920841385
 20
7901.123139034706
 30
0.0
 11
8277.322920841385
 21
8001.123139034707
 31
0.0
  0
LINE
  5
18C1B
330
18C16
100
AcDbEntity
  8
寸法
 62
     0
 48
50.0
370
    -2
100
AcDbLine
 10
8277.322920841385
 20
7846.123139034709
 30
0.0
 11
8277.322920841385
 21
7429.152576286229
 31
0.0
  0
LINE
  5
18C1C
330
18C16
100
AcDbEntity
  8
寸法
 62
     0
 48
50.0
370
    -2
100
AcDbLine
 10
8277.322920841385
 20
7901.123139034706
 30
0.0
 11
8277.322920841385
 21
7846.123139034709
 31
0.0
  0
INSERT
  5
18C1D
330
18C16
100
AcDbEntity
  8
寸法
 62
     0
 48
50.0
370
    -2
100
AcDbBlockReference
  2
_DOTSMALL
 10
8277.322920841385
 20
7901.123139034706
 30
0.0
 41
100.0
 42
100.0
 43
100.0
 50
270.0
  0
INSERT
  5
18C1E
330
18C16
100
AcDbEntity
  8
寸法
 62
     0
 48
50.0
370
    -2
100
AcDbBlockReference
  2
_DOTSMALL
 10
8277.322920841385
 20
7846.123139034709
 30
0.0
 41
100.0
 42
100.0
 43
100.0
 50
90.0
  0
MTEXT
  5
18C1F
330
18C16
100
AcDbEntity
  8
寸法
 62
     7
 48
50.0
100
AcDbMText
 10
8177.322920841383
 20
7537.637857660469
 30
0.0
 40
120.0
 41
0.0
 71
     5
 72
     1
  1
\A1;55
  7
STYLE1
 11
0.0000000000000001
 21
1.0
 31
0.0
 73
     1
 44
1.0
1001
ACAD
1000
MTEXTBEGIN
1070
    73
1070
     1
1070
    44
1040
1.0
1070
    74
1070
     0
1000
MTEXTEND
  0
POINT
  5
18C20
330
18C16
100
AcDbEntity
  8
DEFPOINTS
 62
     0
 48
50.0
100
AcDbPoint
 10
7629.896575106974
 20
7901.123139034706
 30
0.0
  0
POINT
  5
18C21
330
18C16
100
AcDbEntity
  8
DEFPOINTS
 62
     0
 48
50.0
100
AcDbPoint
 10
7629.896575106974
 20
7846.123139034709
 30
0.0
  0
POINT
  5
18C22
330
18C16
100
AcDbEntity
  8
DEFPOINTS
 62
     0
 48
50.0
100
AcDbPoint
 10
8277.322920841385
 20
7846.123139034709
 30
0.0
  0
ENDBLK
  5
18C23
330
18C16
100
AcDbEntity
  8
0
 48
50.0
100
AcDbBlockEnd
  0
BLOCK
  5
18C25
330
18C24
100
AcDbEntity
  8
0
 48
50.0
100
AcDbBlockBegin
  2
*D10
 70
     1
 10
0.0
 20
0.0
 30
0.0
  3
*D10
  1

  0
LINE
  5
18C26
330
18C24
100
AcDbEntity
  8
寸法
 62
     0
 48
50.0
370
    -2
100
AcDbLine
 10
6533.037591258376
 20
9136.123139034728
 30
0.0
 11
6465.083950562664
 21
8882.516699399049
 31
0.0
  0
LINE
  5
18C27
330
18C24
100
AcDbEntity
  8
寸法
 62
     0
 48
50.0
370
    -2
100
AcDbLine
 10
7596.037591258388
 20
9136.123139034721
 30
0.0
 11
7528.083950562677
 21
8882.516699399049
 31
0.0
  0
LINE
  5
18C28
330
18C24
100
AcDbEntity
  8
寸法
 62
     0
 48
50.0
370
    -2
100
AcDbLine
 10
6481.160902108531
 20
8942.51669939905
 30
0.0
 11
7544.160902108544
 21
8942.51669939905
 31
0.0
  0
INSERT
  5
18C29
330
18C24
100
AcDbEntity
  8
寸法
 62
     0
 48
50.0
370
    -2
100
AcDbBlockReference
  2
_DOTSMALL
 10
6481.160902108531
 20
8942.51669939905
 30
0.0
 41
100.0
 42
100.0
 43
100.0
 50
180.0
  0
INSERT
  5
18C2A
330
18C24
100
AcDbEntity
  8
寸法
 62
     0
 48
50.0
370
    -2
100
AcDbBlockReference
  2
_DOTSMALL
 10
7544.160902108544
 20
8942.51669939905
 30
0.0
 41
100.0
 42
100.0
 43
100.0
  0
MTEXT
  5
18C2B
330
18C24
100
AcDbEntity
  8
寸法
 62
     7
 48
50.0
100
AcDbMText
 10
7061.28653022935
 20
9042.516699399049
 30
0.0
 40
120.0
 41
0.0
 71
     5
 72
     1
  1
\A1;1063
  7
STYLE1
 73
     1
 44
1.0
1001
ACAD
1000
MTEXTBEGIN
1070
    73
1070
     1
1070
    44
1040
1.0
1070
    74
1070
     0
1000
MTEXTEND
  0
POINT
  5
18C2C
330
18C24
100
AcDbEntity
  8
DEFPOINTS
 62
     0
 48
50.0
100
AcDbPoint
 10
6538.396575106998
 20
9156.123139034727
 30
0.0
  0
POINT
  5
18C2D
330
18C24
100
AcDbEntity
  8
DEFPOINTS
 62
     0
 48
50.0
100
AcDbPoint
 10
7601.39657510701
 20
9156.12313903472
 30
0.0
  0
POINT
  5
18C2E
330
18C24
100
AcDbEntity
  8
DEFPOINTS
 62
     0
 48
50.0
100
AcDbPoint
 10
7544.160902108544
 20
8942.51669939905
 30
0.0
  0
ENDBLK
  5
18C2F
330
18C24
100
AcDbEntity
  8
0
 48
50.0
100
AcDbBlockEnd
  0
BLOCK
  5
18C31
330
18C30
100
AcDbEntity
  8
0
 48
50.0
100
AcDbBlockBegin
  2
*D11
 70
     1
 10
0.0
 20
0.0
 30
0.0
  3
*D11
  1

  0
LINE
  5
18C32
330
18C30
100
AcDbEntity
  8
寸法
 62
     0
 48
50.0
370
    -2
100
AcDbLine
 10
7621.396575106999
 20
9600.764155186094
 30
0.0
 11
8016.754300969024
 21
9494.828371819961
 31
0.0
  0
LINE
  5
18C33
330
18C30
100
AcDbEntity
  8
寸法
 62
     0
 48
50.0
370
    -2
100
AcDbLine
 10
7621.396575106999
 20
9150.764155186099
 30
0.0
 11
8016.754300969024
 21
9044.828371819964
 31
0.0
  0
LINE
  5
18C34
330
18C30
100
AcDbEntity
  8
寸法
 62
     0
 48
50.0
370
    -2
100
AcDbLine
 10
7956.754300969024
 20
9510.905323365827
 30
0.0
 11
7956.754300969024
 21
9060.90532336583
 31
0.0
  0
INSERT
  5
18C35
330
18C30
100
AcDbEntity
  8
寸法
 62
     0
 48
50.0
370
    -2
100
AcDbBlockReference
  2
_DOTSMALL
 10
7956.754300969024
 20
9510.905323365827
 30
0.0
 41
100.0
 42
100.0
 43
100.0
 50
90.0
  0
INSERT
  5
18C36
330
18C30
100
AcDbEntity
  8
寸法
 62
     0
 48
50.0
370
    -2
100
AcDbBlockReference
  2
_DOTSMALL
 10
7956.754300969024
 20
9060.90532336583
 30
0.0
 41
100.0
 42
100.0
 43
100.0
 50
270.0
  0
MTEXT
  5
18C37
330
18C30
100
AcDbEntity
  8
寸法
 62
     7
 48
50.0
100
AcDbMText
 10
7856.754300969022
 20
9285.905323365829
 30
0.0
 40
120.0
 41
0.0
 71
     5
 72
     1
  1
\A1;450
  7
STYLE1
 11
0.0000000000000001
 21
1.0
 31
0.0
 73
     1
 44
1.0
1001
ACAD
1000
MTEXTBEGIN
1070
    73
1070
     1
1070
    44
1040
1.0
1070
    74
1070
     0
1000
MTEXTEND
  0
POINT
  5
18C38
330
18C30
100
AcDbEntity
  8
DEFPOINTS
 62
     0
 48
50.0
100
AcDbPoint
 10
7601.396575106999
 20
9606.123139034718
 30
0.0
  0
POINT
  5
18C39
330
18C30
100
AcDbEntity
  8
DEFPOINTS
 62
     0
 48
50.0
100
AcDbPoint
 10
7601.396575106999
 20
9156.12313903472
 30
0.0
  0
POINT
  5
18C3A
330
18C30
100
AcDbEntity
  8
DEFPOINTS
 62
     0
 48
50.0
100
AcDbPoint
 10
7956.754300969024
 20
9060.90532336583
 30
0.0
  0
ENDBLK
  5
18C3B
330
18C30
100
AcDbEntity
  8
0
 48
50.0
100
AcDbBlockEnd
  0
BLOCK
  5
18C3D
330
18C3C
100
AcDbEntity
  8
0
 48
50.0
100
AcDbBlockBegin
  2
*D12
 70
     1
 10
0.0
 20
0.0
 30
0.0
  3
*D12
  1

  0
LINE
  5
18C3E
330
18C3C
100
AcDbEntity
  8
寸法
 62
     0
 48
50.0
370
    -2
100
AcDbLine
 10
7649.896575106999
 20
9581.123139034721
 30
0.0
 11
8337.32292084141
 21
9581.123139034721
 31
0.0
  0
LINE
  5
18C3F
330
18C3C
100
AcDbEntity
  8
寸法
 62
     0
 48
50.0
370
    -2
100
AcDbLine
 10
7649.896575106973
 20
7901.123139034706
 30
0.0
 11
8337.32292084141
 21
7901.123139034706
 31
0.0
  0
LINE
  5
18C40
330
18C3C
100
AcDbEntity
  8
寸法
 62
     0
 48
50.0
370
    -2
100
AcDbLine
 10
8277.322920841411
 20
9581.123139034721
 30
0.0
 11
8277.322920841411
 21
7901.123139034706
 31
0.0
  0
INSERT
  5
18C41
330
18C3C
100
AcDbEntity
  8
寸法
 62
     0
 48
50.0
370
    -2
100
AcDbBlockReference
  2
_DOTSMALL
 10
8277.322920841411
 20
9581.123139034721
 30
0.0
 41
100.0
 42
100.0
 43
100.0
 50
90.0
  0
INSERT
  5
18C42
330
18C3C
100
AcDbEntity
  8
寸法
 62
     0
 48
50.0
370
    -2
100
AcDbBlockReference
  2
_DOTSMALL
 10
8277.322920841411
 20
7901.123139034706
 30
0.0
 41
100.0
 42
100.0
 43
100.0
 50
270.0
  0
MTEXT
  5
18C43
330
18C3C
100
AcDbEntity
  8
寸法
 62
     7
 48
50.0
100
AcDbMText
 10
8177.311109817788
 20
8741.123139034712
 30
0.0
 40
120.0
 41
0.0
 71
     5
 72
     1
  1
\A1;4X420=1680
  7
STYLE1
 11
0.0000000000000001
 21
1.0
 31
0.0
 73
     1
 44
1.0
1001
ACAD
1000
MTEXTBEGIN
1070
    73
1070
     1
1070
    44
1040
1.0
1070
    74
1070
     0
1000
MTEXTEND
  0
POINT
  5
18C44
330
18C3C
100
AcDbEntity
  8
DEFPOINTS
 62
     0
 48
50.0
100
AcDbPoint
 10
7629.896575106998
 20
9581.123139034721
 30
0.0
  0
POINT
  5
18C45
330
18C3C
100
AcDbEntity
  8
DEFPOINTS
 62
     0
 48
50.0
100
AcDbPoint
 10
7629.896575106974
 20
7901.123139034706
 30
0.0
  0
POINT
  5
18C46
330
18C3C
100
AcDbEntity
  8
DEFPOINTS
 62
     0
 48
50.0
100
AcDbPoint
 10
8277.322920841411
 20
7901.123139034706
 30
0.0
  0
ENDBLK
  5
18C47
330
18C3C
100
AcDbEntity
  8
0
 48
50.0
100
AcDbBlockEnd
  0
BLOCK
  5
18C49
330
18C48
100
AcDbEntity
  8
0
 48
50.0
100
AcDbBlockBegin
  2
*D13
 70
     1
 10
0.0
 20
0.0
 30
0.0
  3
*D13
  1

  0
LINE
  5
18C4A
330
18C48
100
AcDbEntity
  8
寸法
 62
     0
 48
50.0
370
    -2
100
AcDbLine
 10
4183.037591258377
 20
9136.123139034619
 30
0.0
 11
4115.083950562663
 21
8882.516699398941
 31
0.0
  0
LINE
  5
18C4B
330
18C48
100
AcDbEntity
  8
寸法
 62
     0
 48
50.0
370
    -2
100
AcDbLine
 10
5246.037591258307
 20
9136.123139034671
 30
0.0
 11
5178.08395056258
 21
8882.516699398941
 31
0.0
  0
LINE
  5
18C4C
330
18C48
100
AcDbEntity
  8
寸法
 62
     0
 48
50.0
370
    -2
100
AcDbLine
 10
4131.160902108532
 20
8942.516699398941
 30
0.0
 11
5194.160902108448
 21
8942.516699398941
 31
0.0
  0
INSERT
  5
18C4D
330
18C48
100
AcDbEntity
  8
寸法
 62
     0
 48
50.0
370
    -2
100
AcDbBlockReference
  2
_DOTSMALL
 10
4131.160902108532
 20
8942.516699398941
 30
0.0
 41
100.0
 42
100.0
 43
100.0
 50
180.0
  0
INSERT
  5
18C4E
330
18C48
100
AcDbEntity
  8
寸法
 62
     0
 48
50.0
370
    -2
100
AcDbBlockReference
  2
_DOTSMALL
 10
5194.160902108448
 20
8942.516699398941
 30
0.0
 41
100.0
 42
100.0
 43
100.0
  0
MTEXT
  5
18C4F
330
18C48
100
AcDbEntity
  8
寸法
 62
     7
 48
50.0
100
AcDbMText
 10
4658.986452655306
 20
9042.516699398941
 30
0.0
 40
120.0
 41
0.0
 71
     5
 72
     1
  1
\A1;1063
  7
STYLE1
 73
     1
 44
1.0
1001
ACAD
1000
MTEXTBEGIN
1070
    73
1070
     1
1070
    44
1040
1.0
1070
    74
1070
     0
1000
MTEXTEND
  0
POINT
  5
18C50
330
18C48
100
AcDbEntity
  8
DEFPOINTS
 62
     0
 48
50.0
100
AcDbPoint
 10
4188.396575106999
 20
9156.123139034617
 30
0.0
  0
POINT
  5
18C51
330
18C48
100
AcDbEntity
  8
DEFPOINTS
 62
     0
 48
50.0
100
AcDbPoint
 10
5251.396575106929
 20
9156.123139034672
 30
0.0
  0
POINT
  5
18C52
330
18C48
100
AcDbEntity
  8
DEFPOINTS
 62
     0
 48
50.0
100
AcDbPoint
 10
5194.160902108448
 20
8942.516699398941
 30
0.0
  0
ENDBLK
  5
18C53
330
18C48
100
AcDbEntity
  8
0
 48
50.0
100
AcDbBlockEnd
  0
BLOCK
  5
18C55
330
18C54
100
AcDbEntity
  8
0
 48
50.0
100
AcDbBlockBegin
  2
*D14
 70
     1
 10
0.0
 20
0.0
 30
0.0
  3
*D14
  1

  0
LINE
  5
18C56
330
18C54
100
AcDbEntity
  8
寸法
 62
     0
 48
50.0
370
    -2
100
AcDbLine
 10
5274.037591258307
 20
9136.123139034669
 30
0.0
 11
5206.08395056258
 21
8882.516699398941
 31
0.0
  0
LINE
  5
18C57
330
18C54
100
AcDbEntity
  8
寸法
 62
     0
 48
50.0
370
    -2
100
AcDbLine
 10
6505.037591258377
 20
9136.123139034662
 30
0.0
 11
6437.083950562653
 21
8882.516699398941
 31
0.0
  0
LINE
  5
18C58
330
18C54
100
AcDbEntity
  8
寸法
 62
     0
 48
50.0
370
    -2
100
AcDbLine
 10
5222.160902108448
 20
8942.516699398941
 30
0.0
 11
6453.16090210852
 21
8942.516699398941
 31
0.0
  0
INSERT
  5
18C59
330
18C54
100
AcDbEntity
  8
寸法
 62
     0
 48
50.0
370
    -2
100
AcDbBlockReference
  2
_DOTSMALL
 10
5222.160902108448
 20
8942.516699398941
 30
0.0
 41
100.0
 42
100.0
 43
100.0
 50
180.0
  0
INSERT
  5
18C5A
330
18C54
100
AcDbEntity
  8
寸法
 62
     0
 48
50.0
370
    -2
100
AcDbBlockReference
  2
_DOTSMALL
 10
6453.16090210852
 20
8942.516699398941
 30
0.0
 41
100.0
 42
100.0
 43
100.0
  0
MTEXT
  5
18C5B
330
18C54
100
AcDbEntity
  8
寸法
 62
     7
 48
50.0
100
AcDbMText
 10
6081.244808320626
 20
9042.528510422561
 30
0.0
 40
120.0
 41
0.0
 71
     5
 72
     1
  1
\A1;1231
  7
STYLE1
 73
     1
 44
1.0
1001
ACAD
1000
MTEXTBEGIN
1070
    73
1070
     1
1070
    44
1040
1.0
1070
    74
1070
     0
1000
MTEXTEND
  0
POINT
  5
18C5C
330
18C54
100
AcDbEntity
  8
DEFPOINTS
 62
     0
 48
50.0
100
AcDbPoint
 10
5279.396575106929
 20
9156.123139034669
 30
0.0
  0
POINT
  5
18C5D
330
18C54
100
AcDbEntity
  8
DEFPOINTS
 62
     0
 48
50.0
100
AcDbPoint
 10
6510.396575106999
 20
9156.123139034662
 30
0.0
  0
POINT
  5
18C5E
330
18C54
100
AcDbEntity
  8
DEFPOINTS
 62
     0
 48
50.0
100
AcDbPoint
 10
6453.16090210852
 20
8942.516699398941
 30
0.0
  0
ENDBLK
  5
18C5F
330
18C54
100
AcDbEntity
  8
0
 48
50.0
100
AcDbBlockEnd
  0
BLOCK
  5
18C61
330
18C60
100
AcDbEntity
  8
0
 48
50.0
100
AcDbBlockBegin
  2
*D15
 70
     1
 10
0.0
 20
0.0
 30
0.0
  3
*D15
  1

  0
LINE
  5
18C62
330
18C60
100
AcDbEntity
  8
寸法
 62
     0
 48
50.0
370
    -2
100
AcDbLine
 10
5065.896575106966
 20
7749.123139034579
 30
0.0
 11
5065.896575106966
 21
7099.952920982538
 31
0.0
  0
LINE
  5
18C63
330
18C60
100
AcDbEntity
  8
寸法
 62
     0
 48
50.0
370
    -2
100
AcDbLine
 10
6331.896575106966
 20
7749.123139034579
 30
0.0
 11
6331.896575106966
 21
7099.952920982538
 31
0.0
  0
LINE
  5
18C64
330
18C60
100
AcDbEntity
  8
寸法
 62
     0
 48
50.0
370
    -2
100
AcDbLine
 10
5065.896575106966
 20
7159.952920982537
 30
0.0
 11
6331.896575106966
 21
7159.952920982537
 31
0.0
  0
INSERT
  5
18C65
330
18C60
100
AcDbEntity
  8
寸法
 62
     0
 48
50.0
370
    -2
100
AcDbBlockReference
  2
_DOTSMALL
 10
5065.896575106966
 20
7159.952920982537
 30
0.0
 41
100.0
 42
100.0
 43
100.0
 50
180.0
  0
INSERT
  5
18C66
330
18C60
100
AcDbEntity
  8
寸法
 62
     0
 48
50.0
370
    -2
100
AcDbBlockReference
  2
_DOTSMALL
 10
6331.896575106966
 20
7159.952920982537
 30
0.0
 41
100.0
 42
100.0
 43
100.0
  0
MTEXT
  5
18C67
330
18C60
100
AcDbEntity
  8
寸法
 62
     7
 48
50.0
100
AcDbMText
 10
5711.986008735934
 20
7359.964732006159
 30
0.0
 40
120.0
 41
0.0
 71
     5
 72
     1
  1
\A1;有効開口部間口\P1266
  7
STYLE1
 73
     1
 44
1.0
1001
ACAD
1000
MTEXTBEGIN
1070
    73
1070
     1
1070
    44
1040
1.0
1070
    74
1070
     0
1000
MTEXTEND
  0
POINT
  5
18C68
330
18C60
100
AcDbEntity
  8
DEFPOINTS
 62
     0
 48
50.0
100
AcDbPoint
 10
5065.896575106966
 20
7769.123139034579
 30
0.0
  0
POINT
  5
18C69
330
18C60
100
AcDbEntity
  8
DEFPOINTS
 62
     0
 48
50.0
100
AcDbPoint
 10
6331.896575106966
 20
7769.123139034579
 30
0.0
  0
POINT
  5
18C6A
330
18C60
100
AcDbEntity
  8
DEFPOINTS
 62
     0
 48
50.0
100
AcDbPoint
 10
6331.896575106966
 20
7159.952920982537
 30
0.0
  0
ENDBLK
  5
18C6B
330
18C60
100
AcDbEntity
  8
0
 48
50.0
100
AcDbBlockEnd
  0
BLOCK
  5
18C6D
330
18C6C
100
AcDbEntity
  8
0
 48
50.0
100
AcDbBlockBegin
  2
*D16
 70
     1
 10
0.0
 20
0.0
 30
0.0
  3
*D16
  1

  0
LINE
  5
18C6E
330
18C6C
100
AcDbEntity
  8
寸法
 62
     0
 48
50.0
370
    -2
100
AcDbLine
 10
7200.896575106966
 20
7846.123139034578
 30
0.0
 11
7457.192158500191
 21
7846.123139034578
 31
0.0
  0
LINE
  5
18C6F
330
18C6C
100
AcDbEntity
  8
寸法
 62
     0
 48
50.0
370
    -2
100
AcDbLine
 10
7199.896575106966
 20
7769.123139034579
 30
0.0
 11
7457.192158500191
 21
7769.123139034579
 31
0.0
  0
LINE
  5
18C70
330
18C6C
100
AcDbEntity
  8
寸法
 62
     0
 48
50.0
370
    -2
100
AcDbLine
 10
7417.192158500192
 20
7866.123139034579
 30
0.0
 11
7417.192158500192
 21
7886.123139034578
 31
0.0
  0
LINE
  5
18C71
330
18C6C
100
AcDbEntity
  8
寸法
 62
     0
 48
50.0
370
    -2
100
AcDbLine
 10
7417.192158500192
 20
7749.123139034579
 30
0.0
 11
7417.192158500192
 21
7533.123139034573
 31
0.0
  0
LINE
  5
18C72
330
18C6C
100
AcDbEntity
  8
寸法
 62
     0
 48
50.0
370
    -2
100
AcDbLine
 10
7417.192158500192
 20
7846.123139034578
 30
0.0
 11
7417.192158500192
 21
7769.123139034579
 31
0.0
  0
INSERT
  5
18C73
330
18C6C
100
AcDbEntity
  8
寸法
 62
     0
 48
50.0
370
    -2
100
AcDbBlockReference
  2
_DOT
 10
7417.192158500192
 20
7846.123139034578
 30
0.0
 41
20.0
 42
20.0
 43
20.0
 50
270.0
  0
INSERT
  5
18C74
330
18C6C
100
AcDbEntity
  8
寸法
 62
     0
 48
50.0
370
    -2
100
AcDbBlockReference
  2
_DOT
 10
7417.192158500192
 20
7769.123139034579
 30
0.0
 41
20.0
 42
20.0
 43
20.0
 50
90.0
  0
MTEXT
  5
18C75
330
18C6C
100
AcDbEntity
  8
寸法
 62
     7
 48
50.0
100
AcDbMText
 10
7325.192158500191
 20
7631.123139034575
 30
0.0
 40
120.0
 41
0.0
 71
     5
 72
     1
  1
\A1;77
  7
STYLE1
 11
0.0000000000000001
 21
1.0
 31
0.0
 73
     1
 44
1.0
1001
ACAD
1000
MTEXTBEGIN
1070
    73
1070
     1
1070
    44
1040
1.0
1070
    74
1070
     0
1000
MTEXTEND
  0
POINT
  5
18C76
330
18C6C
100
AcDbEntity
  8
DEFPOINTS
 62
     0
 48
50.0
100
AcDbPoint
 10
7180.896575106967
 20
7846.123139034578
 30
0.0
  0
POINT
  5
18C77
330
18C6C
100
AcDbEntity
  8
DEFPOINTS
 62
     0
 48
50.0
100
AcDbPoint
 10
7179.896575106965
 20
7769.123139034579
 30
0.0
  0
POINT
  5
18C78
330
18C6C
100
AcDbEntity
  8
DEFPOINTS
 62
     0
 48
50.0
100
AcDbPoint
 10
7417.192158500192
 20
7769.123139034579
 30
0.0
  0
ENDBLK
  5
18C79
330
18C6C
100
AcDbEntity
  8
0
 48
50.0
100
AcDbBlockEnd
  0
BLOCK
  5
18DA0
330
18C7A
100
AcDbEntity
  8
0
 48
50.0
100
AcDbBlockBegin
  2
A$C3B1A506B
 70
     0
 10
0.0
 20
0.0
 30
0.0
  3
A$C3B1A506B
  1

  0
MTEXT
  5
18C7B
330
18C7A
100
AcDbEntity
  8
寸法
 62
     7
 48
50.0
100
AcDbMText
 10
3342.250386887194
 20
2778.329429134012
 30
0.0
 40
96.0
 41
0.0
 71
     5
 72
     1
  1
棚 2段
  7
STYLE1
 73
     1
 44
1.0
1001
ACAD
1000
MTEXTBEGIN
1070
    73
1070
     1
1070
    44
1040
1.0
1070
    74
1070
     0
1000
MTEXTEND
  0
MTEXT
  5
18C7C
330
18C7A
100
AcDbEntity
  8
寸法
 62
     7
 48
50.0
100
AcDbMText
 10
2167.25038688716
 20
2778.329429133986
 30
0.0
 40
96.0
 41
0.0
 71
     5
 72
     1
  1
棚 2段
  7
STYLE1
 73
     1
 44
1.0
1001
ACAD
1000
MTEXTBEGIN
1070
    73
1070
     1
1070
    44
1040
1.0
1070
    74
1070
     0
1000
MTEXTEND
  0
MTEXT
  5
18C7D
330
18C7A
100
AcDbEntity
  8
寸法
 62
     7
 48
50.0
100
AcDbMText
 10
992.2503868871608
 20
2778.329429133935
 30
0.0
 40
96.0
 41
0.0
 71
     5
 72
     1
  1
棚 2段
  7
STYLE1
 73
     1
 44
1.0
1001
ACAD
1000
MTEXTBEGIN
1070
    73
1070
     1
1070
    44
1040
1.0
1070
    74
1070
     0
1000
MTEXTEND
  0
LINE
  5
18C7E
330
18C7A
100
AcDbEntity
  8
細線
 48
50.0
100
AcDbLine
 10
2771.970589276527
 20
1368.994384123192
 30
0.0
 11
3398.970589276523
 21
1368.994384123192
 31
0.0
  0
LINE
  5
18C7F
330
18C7A
100
AcDbEntity
  8
細線
 48
50.0
100
AcDbLine
 10
2117.970593930113
 20
1335.285615569113
 30
0.0
 11
3398.970589276523
 21
1335.285615569113
 31
0.0
  0
LINE
  5
18C80
330
18C7A
100
AcDbEntity
  8
細線
 48
50.0
100
AcDbLine
 10
2076.970593930115
 20
1364.690523565368
 30
0.0
 11
1322.970589276523
 21
1364.690523565367
 31
0.0
  0
LINE
  5
18C81
330
18C7A
100
AcDbEntity
  8
細線
100
AcDbLine
 10
3170.720579860066
 20
1388.494284088199
 30
0.0
 11
3173.052119381877
 21
1393.494286728162
 31
0.0
  0
LINE
  5
18C82
330
18C7A
100
AcDbEntity
  8
細線
100
AcDbLine
 10
3240.720589276525
 20
1388.494269174465
 30
0.0
 11
3238.389042800336
 21
1393.494286728144
 31
0.0
  0
LINE
  5
18C83
330
18C7A
100
AcDbEntity
  8
細線
100
AcDbLine
 10
3238.389042800336
 20
1393.494286728144
 30
0.0
 11
3173.052119381862
 21
1393.494286728133
 31
0.0
  0
LINE
  5
18C84
330
18C7A
100
AcDbEntity
  8
細線
100
AcDbLine
 10
3098.389042800336
 20
1393.494286728144
 30
0.0
 11
3033.052119381862
 21
1393.494286728133
 31
0.0
  0
LINE
  5
18C85
330
18C7A
100
AcDbEntity
  8
細線
100
AcDbLine
 10
3100.720589276523
 20
1388.494269174465
 30
0.0
 11
3098.389042800336
 21
1393.494286728144
 31
0.0
  0
LINE
  5
18C86
330
18C7A
100
AcDbEntity
  8
細線
100
AcDbLine
 10
3030.720579860066
 20
1388.494284088199
 30
0.0
 11
3033.052119381875
 21
1393.494286728162
 31
0.0
  0
LINE
  5
18C87
330
18C7A
100
AcDbEntity
  8
細線
100
AcDbLine
 10
2890.720589276525
 20
1388.494269174465
 30
0.0
 11
2893.052128798336
 21
1393.494271814428
 31
0.0
  0
LINE
  5
18C88
330
18C7A
100
AcDbEntity
  8
細線
100
AcDbLine
 10
2960.720598692984
 20
1388.494254260731
 30
0.0
 11
2958.389052216793
 21
1393.49427181441
 31
0.0
  0
LINE
  5
18C89
330
18C7A
100
AcDbEntity
  8
細線
100
AcDbLine
 10
2958.389052216795
 20
1393.49427181441
 30
0.0
 11
2893.052128798321
 21
1393.494271814399
 31
0.0
  0
LINE
  5
18C8A
330
18C7A
100
AcDbEntity
  8
細線
100
AcDbLine
 10
2667.139038146739
 20
1359.494298590735
 30
0.0
 11
2601.802114728263
 21
1359.494298590724
 31
0.0
  0
LINE
  5
18C8B
330
18C7A
100
AcDbEntity
  8
細線
100
AcDbLine
 10
2669.470584622926
 20
1354.494281037055
 30
0.0
 11
2667.139038146737
 21
1359.494298590735
 31
0.0
  0
LINE
  5
18C8C
330
18C7A
100
AcDbEntity
  8
細線
100
AcDbLine
 10
2599.470575206469
 20
1354.49429595079
 30
0.0
 11
2601.802114728278
 21
1359.494298590752
 31
0.0
  0
LINE
  5
18C8D
330
18C7A
100
AcDbEntity
  8
細線
 48
50.0
100
AcDbLine
 10
2440.853968524536
 20
1372.765132327548
 30
0.0
 11
2446.609486107205
 21
1354.494281037057
 31
0.0
  0
LINE
  5
18C8E
330
18C7A
100
AcDbEntity
  8
細線
 48
50.0
100
AcDbLine
 10
2429.925520044106
 20
1372.765132327546
 30
0.0
 11
2440.853968524536
 21
1372.765132327548
 31
0.0
  0
ARC
  5
18C8F
330
18C7A
100
AcDbEntity
  8
細線
 48
50.0
100
AcDbCircle
 10
2424.471163986787
 20
1374.265132327546
 30
0.0
 40
5.0
100
AcDbArc
 50
204.6243183520723
 51
335.3756816479278
  0
ARC
  5
18C90
330
18C7A
100
AcDbEntity
  8
細線
 48
50.0
100
AcDbCircle
 10
2429.925520044106
 20
1371.765132327546
 30
0.0
 40
1.0
100
AcDbArc
 50
90.0
 51
155.3756816479277
  0
ARC
  5
18C91
330
18C7A
100
AcDbEntity
  8
細線
 48
50.0
100
AcDbCircle
 10
2419.016807929469
 20
1371.765132327546
 30
0.0
 40
1.0
100
AcDbArc
 50
24.62431835207225
 51
90.0
  0
LINE
  5
18C92
330
18C7A
100
AcDbEntity
  8
細線
 48
50.0
100
AcDbLine
 10
2408.088359449037
 20
1372.765132327548
 30
0.0
 11
2419.016807929469
 21
1372.765132327546
 31
0.0
  0
LINE
  5
18C93
330
18C7A
100
AcDbEntity
  8
細線
 48
50.0
100
AcDbLine
 10
2402.33284186637
 20
1354.494281037054
 30
0.0
 11
2408.088359449037
 21
1372.765132327548
 31
0.0
  0
LINE
  5
18C94
330
18C7A
100
AcDbEntity
  8
細線
100
AcDbLine
 10
2458.070304175992
 20
1354.494278397076
 30
0.0
 11
2460.401843697802
 21
1359.494281037039
 31
0.0
  0
LINE
  5
18C95
330
18C7A
100
AcDbEntity
  8
細線
100
AcDbLine
 10
2528.070313592451
 20
1354.494263483342
 30
0.0
 11
2525.738767116262
 21
1359.494281037021
 31
0.0
  0
LINE
  5
18C96
330
18C7A
100
AcDbEntity
  8
細線
100
AcDbLine
 10
2525.738767116262
 20
1359.494281037021
 30
0.0
 11
2460.40184369779
 21
1359.49428103701
 31
0.0
  0
LINE
  5
18C97
330
18C7A
100
AcDbEntity
  8
細線
100
AcDbLine
 10
2387.139046332155
 20
1359.494281037021
 30
0.0
 11
2321.80212291368
 21
1359.49428103701
 31
0.0
  0
LINE
  5
18C98
330
18C7A
100
AcDbEntity
  8
細線
100
AcDbLine
 10
2389.470592808342
 20
1354.494263483342
 30
0.0
 11
2387.139046332153
 21
1359.494281037021
 31
0.0
  0
LINE
  5
18C99
330
18C7A
100
AcDbEntity
  8
細線
100
AcDbLine
 10
2319.470584622926
 20
1354.494281037054
 30
0.0
 11
2321.802122913694
 21
1359.494281037039
 31
0.0
  0
LINE
  5
18C9A
330
18C7A
100
AcDbEntity
  8
細線
100
AcDbLine
 10
2179.47061994182
 20
1354.494289224422
 30
0.0
 11
2181.802158232587
 21
1359.494289224407
 31
0.0
  0
LINE
  5
18C9B
330
18C7A
100
AcDbEntity
  8
細線
100
AcDbLine
 10
2249.470628127236
 20
1354.49427167071
 30
0.0
 11
2247.139081651047
 21
1359.494289224389
 31
0.0
  0
LINE
  5
18C9C
330
18C7A
100
AcDbEntity
  8
細線
100
AcDbLine
 10
2247.139081651047
 20
1359.494289224389
 30
0.0
 11
2181.802158232573
 21
1359.494289224378
 31
0.0
  0
LINE
  5
18C9D
330
18C7A
100
AcDbEntity
  8
細線
100
AcDbLine
 10
1807.970585744697
 20
1320.494460905133
 30
0.0
 11
1810.302124035464
 21
1325.494460905118
 31
0.0
  0
LINE
  5
18C9E
330
18C7A
100
AcDbEntity
  8
細線
100
AcDbLine
 10
1877.970593930113
 20
1320.494443351421
 30
0.0
 11
1875.639047453926
 21
1325.4944609051
 31
0.0
  0
LINE
  5
18C9F
330
18C7A
100
AcDbEntity
  8
細線
100
AcDbLine
 10
1875.639047453926
 20
1325.4944609051
 30
0.0
 11
1810.302124035452
 21
1325.494460905089
 31
0.0
  0
LINE
  5
18CA0
330
18C7A
100
AcDbEntity
  8
細線
100
AcDbLine
 10
2015.639047453926
 20
1325.4944609051
 30
0.0
 11
1950.302124035452
 21
1325.494460905089
 31
0.0
  0
LINE
  5
18CA1
330
18C7A
100
AcDbEntity
  8
細線
100
AcDbLine
 10
2017.970593930113
 20
1320.494443351421
 30
0.0
 11
2015.639047453924
 21
1325.4944609051
 31
0.0
  0
LINE
  5
18CA2
330
18C7A
100
AcDbEntity
  8
細線
100
AcDbLine
 10
1947.970585744697
 20
1320.494460905133
 30
0.0
 11
1950.302124035465
 21
1325.494460905118
 31
0.0
  0
LINE
  5
18CA3
330
18C7A
100
AcDbEntity
  8
細線
100
AcDbLine
 10
1735.639047453926
 20
1325.494460905098
 30
0.0
 11
1670.302124035454
 21
1325.494460905087
 31
0.0
  0
LINE
  5
18CA4
330
18C7A
100
AcDbEntity
  8
細線
100
AcDbLine
 10
1737.970593930113
 20
1320.494443351419
 30
0.0
 11
1735.639047453926
 21
1325.494460905098
 31
0.0
  0
LINE
  5
18CA5
330
18C7A
100
AcDbEntity
  8
細線
100
AcDbLine
 10
1667.970585744697
 20
1320.494460905131
 30
0.0
 11
1670.302124035465
 21
1325.494460905116
 31
0.0
  0
LINE
  5
18CA6
330
18C7A
100
AcDbEntity
  8
細線
100
AcDbLine
 10
1527.970593930113
 20
1320.494460905133
 30
0.0
 11
1530.302132220881
 21
1325.494460905118
 31
0.0
  0
LINE
  5
18CA7
330
18C7A
100
AcDbEntity
  8
細線
100
AcDbLine
 10
1597.970602115529
 20
1320.494443351421
 30
0.0
 11
1595.639055639342
 21
1325.4944609051
 31
0.0
  0
LINE
  5
18CA8
330
18C7A
100
AcDbEntity
  8
細線
100
AcDbLine
 10
1595.639055639342
 20
1325.4944609051
 30
0.0
 11
1530.302132220869
 21
1325.494460905089
 31
0.0
  0
ARC
  5
18CA9
330
18C7A
100
AcDbEntity
  8
部品1
 48
0.01
100
AcDbCircle
 10
1483.470482677778
 20
1319.493338720063
 30
0.0
 40
0.5
100
AcDbArc
 50
270.0
 51
0.0
  0
LINE
  5
18CAA
330
18C7A
100
AcDbEntity
  8
部品1
 48
0.01
100
AcDbLine
 10
1483.970482677778
 20
1320.493338720063
 30
0.0
 11
1483.970482677778
 21
1319.493338720063
 31
0.0
  0
LINE
  5
18CAB
330
18C7A
100
AcDbEntity
  8
部品1
 48
0.01
100
AcDbLine
 10
1483.970482677778
 20
1320.493338720063
 30
0.0
 11
1483.970482677778
 21
1319.493338720063
 31
0.0
  0
LINE
  5
18CAC
330
18C7A
100
AcDbEntity
  8
部品1
 48
0.01
100
AcDbLine
 10
1483.470482677778
 20
1318.993338720063
 30
0.0
 11
1476.857977247713
 21
1318.993338720062
 31
0.0
  0
ARC
  5
18CAD
330
18C7A
100
AcDbEntity
  8
部品1
100
AcDbCircle
 10
1476.926326800494
 20
1319.993338720062
 30
0.0
 40
1.0
100
AcDbArc
 50
160.5287793655865
 51
270.0
  0
ARC
  5
18CAE
330
18C7A
100
AcDbEntity
  8
部品1
100
AcDbCircle
 10
1451.470482677778
 20
1328.993338720062
 30
0.0
 40
26.0
100
AcDbArc
 50
340.5287793655865
 51
0.0
  0
LINE
  5
18CAF
330
18C7A
100
AcDbEntity
  8
部品1
100
AcDbLine
 10
1477.470482677778
 20
1328.993338720062
 30
0.0
 11
1477.470482677778
 21
1333.993338720061
 31
0.0
  0
ARC
  5
18CB0
330
18C7A
100
AcDbEntity
  8
部品1
 48
0.01
100
AcDbCircle
 10
1475.470482677778
 20
1333.993338720061
 30
0.0
 40
2.0
100
AcDbArc
 50
0.0
 51
90.0
  0
ARC
  5
18CB1
330
18C7A
100
AcDbEntity
  8
部品1
100
AcDbCircle
 10
1473.862091052968
 20
1332.993338720062
 30
0.0
 40
3.0
100
AcDbArc
 50
90.0
 51
141.6069559808035
  0
LINE
  5
18CB2
330
18C7A
100
AcDbEntity
  8
部品1
 48
0.01
100
AcDbLine
 10
1475.470482677778
 20
1335.993338720062
 30
0.0
 11
1473.862091052968
 21
1335.993338720062
 31
0.0
  0
ARC
  5
18CB3
330
18C7A
100
AcDbEntity
  8
部品1
100
AcDbCircle
 10
1455.399768463507
 20
1332.293338720065
 30
0.0
 40
3.0
100
AcDbArc
 50
254.0576313943215
 51
270.0
  0
ARC
  5
18CB4
330
18C7A
100
AcDbEntity
  8
部品1
100
AcDbCircle
 10
1462.541196892049
 20
1332.293338720065
 30
0.0
 40
3.0
100
AcDbArc
 50
270.0
 51
285.9423686056786
  0
LINE
  5
18CB5
330
18C7A
100
AcDbEntity
  8
部品1
100
AcDbLine
 10
1462.541196892049
 20
1329.293338720064
 30
0.0
 11
1455.399768463507
 21
1329.293338720064
 31
0.0
  0
ARC
  5
18CB6
330
18C7A
100
AcDbEntity
  8
部品1
100
AcDbCircle
 10
1458.970482677778
 20
1344.793338720065
 30
0.0
 40
16.0
100
AcDbArc
 50
285.9423686056786
 51
321.6069559808035
  0
LINE
  5
18CB7
330
18C7A
100
AcDbEntity
  8
部品1
 48
0.01
100
AcDbLine
 10
1442.470482677778
 20
1335.993338720062
 30
0.0
 11
1444.078874302588
 21
1335.993338720062
 31
0.0
  0
ARC
  5
18CB8
330
18C7A
100
AcDbEntity
  8
部品1
100
AcDbCircle
 10
1444.078874302588
 20
1332.993338720062
 30
0.0
 40
3.0
100
AcDbArc
 50
38.39304401919648
 51
90.0
  0
ARC
  5
18CB9
330
18C7A
100
AcDbEntity
  8
部品1
100
AcDbCircle
 10
1458.970482677778
 20
1344.793338720065
 30
0.0
 40
16.0
100
AcDbArc
 50
218.3930440191965
 51
254.0576313943215
  0
LINE
  5
18CBA
330
18C7A
100
AcDbEntity
  8
部品1
100
AcDbLine
 10
1440.470482677778
 20
1328.993338720062
 30
0.0
 11
1440.470482677778
 21
1333.993338720061
 31
0.0
  0
ARC
  5
18CBB
330
18C7A
100
AcDbEntity
  8
部品1
 48
0.01
100
AcDbCircle
 10
1442.470482677778
 20
1333.993338720061
 30
0.0
 40
2.0
100
AcDbArc
 50
90.0
 51
180.0
  0
ARC
  5
18CBC
330
18C7A
100
AcDbEntity
  8
部品1
100
AcDbCircle
 10
1466.470482677778
 20
1328.993338720062
 30
0.0
 40
26.0
100
AcDbArc
 50
180.0
 51
199.4712206344134
  0
ARC
  5
18CBD
330
18C7A
100
AcDbEntity
  8
部品1
 48
0.01
100
AcDbCircle
 10
1434.470482677778
 20
1319.493338720063
 30
0.0
 40
0.5
100
AcDbArc
 50
180.0
 51
270.0
  0
LINE
  5
18CBE
330
18C7A
100
AcDbEntity
  8
部品1
 48
0.01
100
AcDbLine
 10
1434.470482677778
 20
1318.993338720063
 30
0.0
 11
1441.014638555061
 21
1318.993338720062
 31
0.0
  0
LINE
  5
18CBF
330
18C7A
100
AcDbEntity
  8
部品1
 48
0.01
100
AcDbLine
 10
1433.970482677778
 20
1320.493338720063
 30
0.0
 11
1433.970482677778
 21
1319.493338720063
 31
0.0
  0
ARC
  5
18CC0
330
18C7A
100
AcDbEntity
  8
部品1
100
AcDbCircle
 10
1441.014638555061
 20
1319.993338720062
 30
0.0
 40
1.0
100
AcDbArc
 50
270.0
 51
19.47122063441346
  0
LINE
  5
18CC1
330
18C7A
100
AcDbEntity
  8
細線
100
AcDbLine
 10
1479.470482677785
 20
1338.493338720065
 30
0.0
 11
1438.470482677785
 21
1338.493338720058
 31
0.0
  0
LINE
  5
18CC2
330
18C7A
100
AcDbEntity
  8
細線
100
AcDbLine
 10
1438.470482677785
 20
1338.493338720058
 30
0.0
 11
1438.470482677785
 21
1320.49333872004
 31
0.0
  0
LINE
  5
18CC3
330
18C7A
100
AcDbEntity
  8
細線
100
AcDbLine
 10
1479.470482677785
 20
1338.493338720065
 30
0.0
 11
1479.470482677785
 21
1320.49333872004
 31
0.0
  0
LINE
  5
18CC4
330
18C7A
100
AcDbEntity
  8
細線
100
AcDbLine
 10
1322.970589276523
 20
1324.494269174465
 30
0.0
 11
1322.970589276523
 21
1320.494269174513
 31
0.0
  0
LINE
  5
18CC5
330
18C7A
100
AcDbEntity
  8
寸法
 48
50.0
100
AcDbLine
 10
1746.17359555837
 20
1170.531020743327
 30
0.0
 11
1694.767587648266
 21
1170.531020743327
 31
0.0
  0
LINE
  5
18CC6
330
18C7A
100
AcDbEntity
  8
寸法
 48
50.0
100
AcDbLine
 10
1694.767587648266
 20
1170.531020743327
 30
0.0
 11
1694.767587648266
 21
1201.841179395494
 31
0.0
  0
LINE
  5
18CC7
330
18C7A
100
AcDbEntity
  8
寸法
 48
50.0
100
AcDbLine
 10
1694.767587648266
 20
1201.841179395494
 30
0.0
 11
1665.006255656843
 21
1201.841179395494
 31
0.0
  0
LINE
  5
18CC8
330
18C7A
100
AcDbEntity
  8
寸法
 48
50.0
100
AcDbLine
 10
1665.006255656843
 20
1201.841179395494
 30
0.0
 11
1720.470591603318
 21
1239.420630324105
 31
0.0
  0
LINE
  5
18CC9
330
18C7A
100
AcDbEntity
  8
寸法
 48
50.0
100
AcDbLine
 10
1775.934927549793
 20
1201.841179395494
 30
0.0
 11
1720.470591603318
 21
1239.420630324105
 31
0.0
  0
LINE
  5
18CCA
330
18C7A
100
AcDbEntity
  8
寸法
 48
50.0
100
AcDbLine
 10
1746.17359555837
 20
1201.841179395494
 30
0.0
 11
1775.934927549793
 21
1201.841179395494
 31
0.0
  0
LINE
  5
18CCB
330
18C7A
100
AcDbEntity
  8
寸法
 48
50.0
100
AcDbLine
 10
1746.17359555837
 20
1170.531020743327
 30
0.0
 11
1746.17359555837
 21
1201.841179395494
 31
0.0
  0
LINE
  5
18CCC
330
18C7A
100
AcDbEntity
  8
寸法
 48
50.0
100
AcDbLine
 10
1694.767587648266
 20
1170.531020743327
 30
0.0
 11
1746.17359555837
 21
1170.531020743327
 31
0.0
  0
LINE
  5
18CCD
330
18C7A
100
AcDbEntity
  8
寸法
 48
50.0
100
AcDbLine
 10
2025.339129835225
 20
1227.676611498152
 30
0.0
 11
2025.339129835225
 21
1174.01297691636
 31
0.0
  0
LINE
  5
18CCE
330
18C7A
100
AcDbEntity
  8
寸法
 48
50.0
100
AcDbLine
 10
2114.623348430647
 20
1203.752977228664
 30
0.0
 11
2025.339129835225
 21
1227.676611498152
 31
0.0
  0
LINE
  5
18CCF
330
18C7A
100
AcDbEntity
  8
寸法
 48
50.0
100
AcDbLine
 10
1895.471408254923
 20
1203.752977228664
 30
0.0
 11
2114.623348430647
 21
1203.752977228664
 31
0.0
  0
DIMENSION
  5
18CD0
330
18C7A
100
AcDbEntity
  8
寸法
 48
50.0
100
AcDbDimension
  2
*D15
 10
2588.970589276523
 20
706.3240511224249
 30
0.0
 11
1969.060022905491
 21
706.3240511224249
 31
0.0
 12
-3742.925985830444
 22
-6453.628869860112
 32
0.0
 70
   128
  1
有効開口部間口\P<>
 71
     5
 42
1266.0
  3
INABA_S40G
100
AcDbAlignedDimension
 13
1322.970589276523
 23
1315.494269174465
 33
0.0
 14
2588.970589276523
 24
1315.494269174465
 34
0.0
100
AcDbRotatedDimension
1001
ACAD
1000
DSTYLE
1002
{
1070
   341
1005
0
1002
}
  0
LINE
  5
18CD1
330
18C7A
100
AcDbEntity
  8
部品1
100
AcDbLine
 10
3409.970589276524
 20
1392.494269174465
 30
0.0
 11
3437.970589276523
 21
1392.494269174465
 31
0.0
  0
DIMENSION
  5
18CD2
330
18C7A
100
AcDbEntity
  8
寸法
100
AcDbDimension
  2
*D16
 10
3674.266172669749
 20
1315.494269174465
 30
0.0
 11
3674.266172669748
 21
1177.494269174462
 31
0.0
 12
-3742.925985830444
 22
-6453.628869860112
 32
0.0
 70
   128
 71
     5
 42
77.0
  3
INABA_S40
100
AcDbAlignedDimension
 13
3437.970589276523
 23
1392.494269174465
 33
0.0
 14
3436.970589276523
 24
1315.494269174465
 34
0.0
 50
90.0
100
AcDbRotatedDimension
1001
ACAD
1000
DSTYLE
1002
{
1070
    41
1040
0.5
1070
    44
1040
1.0
1070
   147
1040
0.8
1070
   271
1070
     2
1070
   272
1070
     2
1070
   289
1070
     3
1070
   340
1005
F706
1070
   343
1005
164B4
1070
   344
1005
164B4
1002
}
  0
LINE
  5
18CD3
330
18C7A
100
AcDbEntity
  8
部品1
100
AcDbLine
 10
3437.970589276523
 20
1315.494269174465
 30
0.0
 11
3437.970589276523
 21
1392.494269174465
 31
0.0
  0
LINE
  5
18CD4
330
18C7A
100
AcDbEntity
  8
部品1
100
AcDbLine
 10
3398.970589276523
 20
1388.494269174465
 30
0.0
 11
3409.970589276524
 21
1388.494269174465
 31
0.0
  0
LINE
  5
18CD5
330
18C7A
100
AcDbEntity
  8
部品1
100
AcDbLine
 10
3407.970589276523
 20
1324.494269174465
 30
0.0
 11
3407.970589276523
 21
1315.494269174465
 31
0.0
  0
LINE
  5
18CD6
330
18C7A
100
AcDbEntity
  8
部品1
100
AcDbLine
 10
3398.970589276523
 20
1324.494269174465
 30
0.0
 11
3407.970589276523
 21
1324.494269174465
 31
0.0
  0
LINE
  5
18CD7
330
18C7A
100
AcDbEntity
  8
部品1
100
AcDbLine
 10
3398.970589276523
 20
1388.494269174465
 30
0.0
 11
3398.970589276523
 21
1324.494269174465
 31
0.0
  0
LINE
  5
18CD8
330
18C7A
100
AcDbEntity
  8
部品1
100
AcDbLine
 10
3409.970589276524
 20
1419.494269174465
 30
0.0
 11
3409.970589276524
 21
1388.494269174465
 31
0.0
  0
LINE
  5
18CD9
330
18C7A
100
AcDbEntity
  8
部品1
100
AcDbLine
 10
1322.970589276523
 20
1388.494269174465
 30
0.0
 11
1311.970589276523
 21
1388.494269174465
 31
0.0
  0
LINE
  5
18CDA
330
18C7A
100
AcDbEntity
  8
部品1
100
AcDbLine
 10
1283.970589276523
 20
1392.494269174465
 30
0.0
 11
1311.970589276523
 21
1392.494269174465
 31
0.0
  0
LINE
  5
18CDB
330
18C7A
100
AcDbEntity
  8
部品1
100
AcDbLine
 10
1313.970589276523
 20
1324.494269174465
 30
0.0
 11
1313.970589276523
 21
1315.494269174465
 31
0.0
  0
LINE
  5
18CDC
330
18C7A
100
AcDbEntity
  8
部品1
100
AcDbLine
 10
1322.970589276523
 20
1324.494269174465
 30
0.0
 11
1313.970589276523
 21
1324.494269174465
 31
0.0
  0
LINE
  5
18CDD
330
18C7A
100
AcDbEntity
  8
部品1
100
AcDbLine
 10
1313.970589276523
 20
1315.494269174465
 30
0.0
 11
1283.970589276523
 21
1315.494269174465
 31
0.0
  0
LINE
  5
18CDE
330
18C7A
100
AcDbEntity
  8
部品1
100
AcDbLine
 10
1283.970589276523
 20
1315.494269174465
 30
0.0
 11
1283.970589276523
 21
1392.494269174465
 31
0.0
  0
LINE
  5
18CDF
330
18C7A
100
AcDbEntity
  8
部品1
100
AcDbLine
 10
1322.970589276523
 20
1388.494269174465
 30
0.0
 11
1322.970589276523
 21
1324.494269174465
 31
0.0
  0
LINE
  5
18CE0
330
18C7A
100
AcDbEntity
  8
部品1
100
AcDbLine
 10
1311.970589276523
 20
1419.494269174462
 30
0.0
 11
1311.970589276523
 21
1388.494269174465
 31
0.0
  0
LINE
  5
18CE1
330
18C7A
100
AcDbEntity
  8
部品1
100
AcDbLine
 10
1311.970589276523
 20
1419.494269174462
 30
0.0
 11
3409.970589276524
 21
1419.494269174465
 31
0.0
  0
LINE
  5
18CE2
330
18C7A
100
AcDbEntity
  8
部品1
100
AcDbLine
 10
3407.970589276523
 20
1315.494269174465
 30
0.0
 11
3437.970589276523
 21
1315.494269174465
 31
0.0
  0
LINE
  5
18CE3
330
18C7A
100
AcDbEntity
  8
部品1
100
AcDbLine
 10
1313.970589276523
 20
1315.494269174465
 30
0.0
 11
3410.970589276523
 21
1315.494269174465
 31
0.0
  0
LINE
  5
18CE4
330
18C7A
100
AcDbEntity
  8
細線
  6
Continuous
 62
     5
100
AcDbLine
 10
2689.970589276527
 20
1354.494269174462
 30
0.0
 11
2689.970589276527
 21
1354.494269174462
 31
0.0
  0
LINE
  5
18CE5
330
18C7A
100
AcDbEntity
  8
細線
  6
Continuous
 62
     5
100
AcDbLine
 10
2682.470589276527
 20
1354.494269174462
 30
0.0
 11
2682.470589276527
 21
1354.494269174462
 31
0.0
  0
LINE
  5
18CE6
330
18C7A
100
AcDbEntity
  8
細線
  6
Continuous
 62
     5
100
AcDbLine
 10
2676.470589276527
 20
1354.494269174462
 30
0.0
 11
2676.470589276527
 21
1354.494269174462
 31
0.0
  0
LINE
  5
18CE7
330
18C7A
100
AcDbEntity
  8
細線
  6
Continuous
 62
     5
100
AcDbLine
 10
2743.970589276527
 20
1373.494269174462
 30
0.0
 11
2743.970589276527
 21
1373.494269174462
 31
0.0
  0
LINE
  5
18CE8
330
18C7A
100
AcDbEntity
  8
細線
 48
50.0
100
AcDbLine
 10
1336.970593930116
 20
1341.094443351418
 30
0.0
 11
1336.970593930113
 21
1349.490593759059
 31
0.0
  0
LINE
  5
18CE9
330
18C7A
100
AcDbEntity
  8
細線
 48
50.0
100
AcDbLine
 10
1336.970593930113
 20
1349.490593759059
 30
0.0
 11
1322.970589276523
 21
1349.490593759057
 31
0.0
  0
LINE
  5
18CEA
330
18C7A
100
AcDbEntity
  8
細線
 48
50.0
100
AcDbLine
 10
2087.970593930113
 20
1337.644443351419
 30
0.0
 11
2087.970593930113
 21
1342.494443351421
 31
0.0
  0
LINE
  5
18CEB
330
18C7A
100
AcDbEntity
  8
細線
 48
50.0
100
AcDbLine
 10
2087.970593930113
 20
1342.494443351421
 30
0.0
 11
2102.970593930113
 21
1342.494443351421
 31
0.0
  0
LINE
  5
18CEC
330
18C7A
100
AcDbEntity
  8
細線
 48
50.0
100
AcDbLine
 10
2102.970593930113
 20
1342.494443351421
 30
0.0
 11
2102.970593930115
 21
1349.494443351419
 31
0.0
  0
LINE
  5
18CED
330
18C7A
100
AcDbEntity
  8
細線
 48
50.0
100
AcDbLine
 10
2102.970593930115
 20
1349.494443351419
 30
0.0
 11
2117.970593930113
 21
1349.494443351419
 31
0.0
  0
LINE
  5
18CEE
330
18C7A
100
AcDbEntity
  8
細線
 48
50.0
100
AcDbLine
 10
2117.970593930113
 20
1349.494443351419
 30
0.0
 11
2117.970593930113
 21
1320.494443351421
 31
0.0
  0
LINE
  5
18CEF
330
18C7A
100
AcDbEntity
  8
細線
 48
50.0
100
AcDbLine
 10
1313.970589276523
 20
1320.491777694889
 30
0.0
 11
1527.970593930113
 21
1320.494460905133
 31
0.0
  0
LINE
  5
18CF0
330
18C7A
100
AcDbEntity
  8
細線
 48
50.0
100
AcDbLine
 10
2017.970593930113
 20
1320.494443351421
 30
0.0
 11
2117.970593930113
 21
1320.494443351421
 31
0.0
  0
LINE
  5
18CF1
330
18C7A
100
AcDbEntity
  8
細線
 48
50.0
100
AcDbLine
 10
1737.970593930113
 20
1320.494443351419
 30
0.0
 11
1807.970593930113
 21
1320.494443351423
 31
0.0
  0
LINE
  5
18CF2
330
18C7A
100
AcDbEntity
  8
細線
 48
50.0
100
AcDbLine
 10
1750.832558942642
 20
1320.494443351419
 30
0.0
 11
1756.588076525309
 21
1338.765294641913
 31
0.0
  0
LINE
  5
18CF3
330
18C7A
100
AcDbEntity
  8
細線
 48
50.0
100
AcDbLine
 10
1756.588076525309
 20
1338.765294641913
 30
0.0
 11
1767.516525005743
 21
1338.765294641911
 31
0.0
  0
ARC
  5
18CF4
330
18C7A
100
AcDbEntity
  8
細線
 48
50.0
100
AcDbCircle
 10
1767.516525005743
 20
1337.765294641911
 30
0.0
 40
1.0
100
AcDbArc
 50
24.62431835207225
 51
90.0
  0
ARC
  5
18CF5
330
18C7A
100
AcDbEntity
  8
細線
 48
50.0
100
AcDbCircle
 10
1778.425237120377
 20
1337.765294641911
 30
0.0
 40
1.0
100
AcDbArc
 50
90.0
 51
155.3756816479277
  0
ARC
  5
18CF6
330
18C7A
100
AcDbEntity
  8
細線
 48
50.0
100
AcDbCircle
 10
1772.970881063058
 20
1340.265294641911
 30
0.0
 40
5.0
100
AcDbArc
 50
204.6243183520723
 51
335.3756816479278
  0
LINE
  5
18CF7
330
18C7A
100
AcDbEntity
  8
細線
 48
50.0
100
AcDbLine
 10
1778.425237120377
 20
1338.765294641911
 30
0.0
 11
1789.35368560081
 21
1338.765294641913
 31
0.0
  0
LINE
  5
18CF8
330
18C7A
100
AcDbEntity
  8
細線
 48
50.0
100
AcDbLine
 10
1789.35368560081
 20
1338.765294641913
 30
0.0
 11
1795.109203183478
 21
1320.494443351423
 31
0.0
  0
LINE
  5
18CF9
330
18C7A
100
AcDbEntity
  8
細線
 48
50.0
100
AcDbLine
 10
2087.970593930113
 20
1341.094443351419
 30
0.0
 11
1336.970593930116
 21
1341.094443351418
 31
0.0
  0
LINE
  5
18CFA
330
18C7A
100
AcDbEntity
  8
細線
 48
50.0
100
AcDbLine
 10
1947.970593930113
 20
1320.494443351421
 30
0.0
 11
1877.970593930113
 21
1320.494443351421
 31
0.0
  0
LINE
  5
18CFB
330
18C7A
100
AcDbEntity
  8
細線
100
AcDbLine
 10
1667.970593930113
 20
1320.494443351421
 30
0.0
 11
1597.970602115529
 21
1320.494443351421
 31
0.0
  0
LINE
  5
18CFC
330
18C7A
100
AcDbEntity
  8
細線
 48
50.0
100
AcDbLine
 10
2741.970584622936
 20
1375.094487209288
 30
0.0
 11
2106.970593930113
 21
1375.094487209284
 31
0.0
  0
LINE
  5
18CFD
330
18C7A
100
AcDbEntity
  8
細線
 48
50.0
100
AcDbLine
 10
2106.970593930113
 20
1371.990637616925
 30
0.0
 11
2106.970593930113
 21
1376.490637616925
 31
0.0
  0
LINE
  5
18CFE
330
18C7A
100
AcDbEntity
  8
細線
 48
50.0
100
AcDbLine
 10
2106.970593930113
 20
1376.490637616925
 30
0.0
 11
2091.970593930113
 21
1376.490637616925
 31
0.0
  0
LINE
  5
18CFF
330
18C7A
100
AcDbEntity
  8
細線
 48
50.0
100
AcDbLine
 10
2091.970593930113
 20
1376.490637616925
 30
0.0
 11
2091.970593930113
 21
1383.490637616927
 31
0.0
  0
LINE
  5
18D00
330
18C7A
100
AcDbEntity
  8
細線
 48
50.0
100
AcDbLine
 10
2091.970593930113
 20
1383.490637616927
 30
0.0
 11
2076.970593930115
 21
1383.490637616924
 31
0.0
  0
LINE
  5
18D01
330
18C7A
100
AcDbEntity
  8
細線
 48
50.0
100
AcDbLine
 10
2076.970593930115
 20
1383.490637616924
 30
0.0
 11
2076.970593930115
 21
1345.890409513813
 31
0.0
  0
LINE
  5
18D02
330
18C7A
100
AcDbEntity
  8
細線
 48
50.0
100
AcDbLine
 10
2076.970593930115
 20
1345.890409513813
 30
0.0
 11
2096.970601231289
 21
1345.890451063353
 31
0.0
  0
LINE
  5
18D03
330
18C7A
100
AcDbEntity
  8
細線
 48
50.0
100
AcDbLine
 10
2096.970556362348
 20
1354.493912699161
 30
0.0
 11
2096.970601231289
 21
1345.890451063353
 31
0.0
  0
LINE
  5
18D04
330
18C7A
100
AcDbEntity
  8
細線
 48
50.0
100
AcDbLine
 10
2741.970584622936
 20
1371.644487209287
 30
0.0
 11
2741.970584622936
 21
1376.494487209284
 31
0.0
  0
LINE
  5
18D05
330
18C7A
100
AcDbEntity
  8
細線
 48
50.0
100
AcDbLine
 10
2741.970584622936
 20
1376.494487209284
 30
0.0
 11
2756.970584622934
 21
1376.494487209285
 31
0.0
  0
LINE
  5
18D06
330
18C7A
100
AcDbEntity
  8
細線
 48
50.0
100
AcDbLine
 10
2756.970584622934
 20
1376.494487209285
 30
0.0
 11
2756.970596256909
 21
1383.494487209331
 31
0.0
  0
LINE
  5
18D07
330
18C7A
100
AcDbEntity
  8
細線
 48
50.0
100
AcDbLine
 10
2756.970596256909
 20
1383.494487209331
 30
0.0
 11
2771.970594427439
 21
1383.494487209329
 31
0.0
  0
LINE
  5
18D08
330
18C7A
100
AcDbEntity
  8
細線
 48
50.0
100
AcDbLine
 10
2771.970594427439
 20
1383.494487209329
 30
0.0
 11
2771.970584125617
 21
1354.494281037055
 31
0.0
  0
LINE
  5
18D09
330
18C7A
100
AcDbEntity
  8
細線
 48
50.0
100
AcDbLine
 10
2458.070304175992
 20
1354.494278397076
 30
0.0
 11
2389.470863838818
 21
1354.494283787084
 31
0.0
  0
LINE
  5
18D0A
330
18C7A
100
AcDbEntity
  8
細線
 48
50.0
100
AcDbLine
 10
2096.970556362348
 20
1354.493912699161
 30
0.0
 11
2108.203245717057
 21
1354.494095652309
 31
0.0
  0
ARC
  5
18D0B
330
18C7A
100
AcDbEntity
  8
細線
 48
50.0
100
AcDbCircle
 10
2114.785538024393
 20
1353.294259565922
 30
0.0
 40
1.8
100
AcDbArc
 50
270.0006665777295
 51
345.000555481349
  0
LINE
  5
18D0C
330
18C7A
100
AcDbEntity
  8
細線
 48
50.0
100
AcDbLine
 10
2116.771971470473
 20
1353.753100023201
 30
0.0
 11
2116.524209028273
 21
1352.828402141094
 31
0.0
  0
LINE
  5
18D0D
330
18C7A
100
AcDbEntity
  8
細線
 48
50.0
100
AcDbLine
 10
2114.785558965548
 20
1351.494259566043
 30
0.0
 11
2111.155631546781
 21
1351.494217335563
 31
0.0
  0
ARC
  5
18D0E
330
18C7A
100
AcDbEntity
  8
細線
 48
50.0
100
AcDbCircle
 10
2111.155610605627
 20
1353.29421733544
 30
0.0
 40
1.8
100
AcDbArc
 50
195.0010443049965
 51
270.0006665777295
  0
LINE
  5
18D0F
330
18C7A
100
AcDbEntity
  8
細線
 48
50.0
100
AcDbLine
 10
2109.169183113368
 20
1353.752932303007
 30
0.0
 11
2109.416952609882
 21
1352.828311364425
 31
0.0
  0
ARC
  5
18D10
330
18C7A
100
AcDbEntity
  8
細線
 48
50.0
100
AcDbCircle
 10
2108.203262004622
 20
1353.494095652444
 30
0.0
 40
1.0
100
AcDbArc
 50
15.00104430499651
 51
90.00093320877969
  0
LINE
  5
18D11
330
18C7A
100
AcDbEntity
  8
細線
 48
50.0
100
AcDbLine
 10
2117.737892825577
 20
1354.494290342714
 30
0.0
 11
2118.679652976481
 21
1354.494296916564
 31
0.0
  0
ARC
  5
18D12
330
18C7A
100
AcDbEntity
  8
細線
 48
50.0
100
AcDbCircle
 10
2117.737899805961
 20
1353.49429034274
 30
0.0
 40
1.0
100
AcDbArc
 50
90.0003999466794
 51
165.000555481349
  0
LINE
  5
18D13
330
18C7A
100
AcDbEntity
  8
細線
 48
50.0
100
AcDbLine
 10
2669.470584622926
 20
1354.494281037055
 30
0.0
 11
2771.970584125617
 21
1354.494281037055
 31
0.0
  0
LINE
  5
18D14
330
18C7A
100
AcDbEntity
  8
細線
 48
50.0
100
AcDbLine
 10
2179.47061994182
 20
1354.494289224422
 30
0.0
 11
2118.370558714898
 21
1354.494296916564
 31
0.0
  0
LINE
  5
18D15
330
18C7A
100
AcDbEntity
  8
細線
 48
50.0
100
AcDbLine
 10
2599.470584622926
 20
1354.494281037057
 30
0.0
 11
2529.470584622926
 21
1354.494281037055
 31
0.0
  0
LINE
  5
18D16
330
18C7A
100
AcDbEntity
  8
細線
 48
50.0
100
AcDbLine
 10
2319.470584622926
 20
1354.494281037054
 30
0.0
 11
2249.470567335051
 21
1354.494281037057
 31
0.0
  0
ARC
  5
18D17
330
18C7A
100
AcDbEntity
  8
細線
 48
50.0
100
AcDbCircle
 10
2756.170589276533
 20
1387.694269174466
 30
0.0
 40
0.8
100
AcDbArc
 50
359.9997333689499
 51
89.99986668437072
  0
ARC
  5
18D18
330
18C7A
100
AcDbEntity
  8
細線
 48
50.0
100
AcDbCircle
 10
2763.770596101631
 20
1387.694280343081
 30
0.0
 40
0.8
100
AcDbArc
 50
90.00014387753465
 51
179.9997333689498
  0
LINE
  5
18D19
330
18C7A
100
AcDbEntity
  8
細線
 48
50.0
100
AcDbLine
 10
2756.170591137969
 20
1388.494269174465
 30
0.0
 11
2750.970589276525
 21
1388.494269174465
 31
0.0
  0
ARC
  5
18D1A
330
18C7A
100
AcDbEntity
  8
細線
 48
50.0
100
AcDbCircle
 10
2757.670589276524
 20
1386.194269174464
 30
0.0
 40
0.7
100
AcDbArc
 50
180.0
 51
270.0
  0
ARC
  5
18D1B
330
18C7A
100
AcDbEntity
  8
細線
 48
50.0
100
AcDbCircle
 10
2762.270589276524
 20
1386.194269174464
 30
0.0
 40
0.7
100
AcDbArc
 50
270.0
 51
0.0
  0
LINE
  5
18D1C
330
18C7A
100
AcDbEntity
  8
細線
 48
50.0
100
AcDbLine
 10
2762.970589276525
 20
1386.194269174464
 30
0.0
 11
2762.970596101639
 21
1387.694284065954
 31
0.0
  0
LINE
  5
18D1D
330
18C7A
100
AcDbEntity
  8
細線
 48
50.0
100
AcDbLine
 10
2757.670589276524
 20
1385.494269174465
 30
0.0
 11
2762.270589276524
 21
1385.494269174465
 31
0.0
  0
LINE
  5
18D1E
330
18C7A
100
AcDbEntity
  8
細線
 48
50.0
100
AcDbLine
 10
2756.970589276525
 20
1387.694269174466
 30
0.0
 11
2756.970589276525
 21
1386.194269174464
 31
0.0
  0
LINE
  5
18D1F
330
18C7A
100
AcDbEntity
  8
細線
 48
50.0
100
AcDbLine
 10
3382.570589276527
 20
1418.494269174465
 30
0.0
 11
2745.970589276525
 21
1418.494269174463
 31
0.0
  0
LINE
  5
18D20
330
18C7A
100
AcDbEntity
  8
細線
 48
50.0
100
AcDbLine
 10
3408.470589276525
 20
1413.494269174467
 30
0.0
 11
3392.570589276527
 21
1413.494269174465
 31
0.0
  0
LINE
  5
18D21
330
18C7A
100
AcDbEntity
  8
細線
 48
50.0
100
AcDbLine
 10
3392.570589276526
 20
1413.494269174465
 30
0.0
 11
3382.570589276527
 21
1418.494269174465
 31
0.0
  0
LINE
  5
18D22
330
18C7A
100
AcDbEntity
  8
細線
100
AcDbLine
 10
2993.470589276525
 20
1388.494269174465
 30
0.0
 11
2993.470589276525
 21
1417.794269174464
 31
0.0
  0
LINE
  5
18D23
330
18C7A
100
AcDbEntity
  8
細線
100
AcDbLine
 10
2993.470589276525
 20
1417.794269174464
 30
0.0
 11
3013.470589276525
 21
1417.794269174464
 31
0.0
  0
LINE
  5
18D24
330
18C7A
100
AcDbEntity
  8
細線
100
AcDbLine
 10
3013.470589276525
 20
1388.494269174465
 30
0.0
 11
3013.470589276525
 21
1417.794269174464
 31
0.0
  0
LINE
  5
18D25
330
18C7A
100
AcDbEntity
  8
細線
100
AcDbLine
 10
3170.720589276524
 20
1388.494269174465
 30
0.0
 11
3100.720589276523
 21
1388.494269174465
 31
0.0
  0
LINE
  5
18D26
330
18C7A
100
AcDbEntity
  8
細線
 48
50.0
100
AcDbLine
 10
2890.720589276525
 20
1388.494269174465
 30
0.0
 11
2763.766368849365
 21
1388.494269174465
 31
0.0
  0
LINE
  5
18D27
330
18C7A
100
AcDbEntity
  8
細線
100
AcDbLine
 10
3030.720589276525
 20
1388.494269174465
 30
0.0
 11
2960.720589276525
 21
1388.494269174465
 31
0.0
  0
LINE
  5
18D28
330
18C7A
100
AcDbEntity
  8
細線
 48
50.0
100
AcDbLine
 10
2750.970589276525
 20
1380.494269174465
 30
0.0
 11
2750.970589276525
 21
1388.494269174465
 31
0.0
  0
LINE
  5
18D29
330
18C7A
100
AcDbEntity
  8
細線
 48
50.0
100
AcDbLine
 10
2730.970589276524
 20
1380.494269174467
 30
0.0
 11
2750.970589276525
 21
1380.494269174465
 31
0.0
  0
LINE
  5
18D2A
330
18C7A
100
AcDbEntity
  8
細線
 48
50.0
100
AcDbLine
 10
2745.970589276525
 20
1418.494269174465
 30
0.0
 11
2745.970589276525
 21
1413.494269174465
 31
0.0
  0
LINE
  5
18D2B
330
18C7A
100
AcDbEntity
  8
細線
 48
50.0
100
AcDbLine
 10
2730.970589276525
 20
1418.494269174463
 30
0.0
 11
2745.970589276525
 21
1418.494269174465
 31
0.0
  0
LINE
  5
18D2C
330
18C7A
100
AcDbEntity
  8
細線
 48
50.0
100
AcDbLine
 10
2730.970589276524
 20
1380.494269174467
 30
0.0
 11
2730.970589276525
 21
1418.494269174463
 31
0.0
  0
LINE
  5
18D2D
330
18C7A
100
AcDbEntity
  8
細線
100
AcDbLine
 10
3398.970589276523
 20
1388.494269174465
 30
0.0
 11
3240.720589276525
 21
1388.494269174465
 31
0.0
  0
LINE
  5
18D2E
330
18C7A
100
AcDbEntity
  8
細線
 48
50.0
100
AcDbLine
 10
3408.470589276525
 20
1413.494269174467
 30
0.0
 11
3408.470589276524
 21
1388.494269174465
 31
0.0
  0
TEXT
  5
18D2F
330
18C7A
100
AcDbEntity
  8
部品1
100
AcDbText
 10
1860.154865991392
 20
46.99880823813145
 30
0.0
 40
135.0
  1
平面図
  7
STYLE2
100
AcDbText
  0
LWPOLYLINE
  5
18D30
330
18C7A
100
AcDbEntity
  8
部品1
100
AcDbPolyline
 90
        4
 70
     1
 43
0.0
 10
1770.23525616235
 20
239.8923374566548
 10
1770.23525616235
 20
0.0000159111223184
 10
2533.705922390791
 20
0.0000159111223184
 10
2533.705922390791
 20
239.8923374566548
  0
LINE
  5
18D31
330
18C7A
100
AcDbEntity
  8
部品1
100
AcDbLine
 10
1534.470589276487
 20
3154.494269174626
 30
0.0
 11
2769.470589276552
 21
3154.494269174626
 31
0.0
  0
LINE
  5
18D32
330
18C7A
100
AcDbEntity
  8
部品1
 48
50.0
100
AcDbLine
 10
1311.970589276523
 20
1420.494269174462
 30
0.0
 11
3411.970589276523
 21
1420.494269174465
 31
0.0
  0
LINE
  5
18D33
330
18C7A
100
AcDbEntity
  8
部品1
 48
50.0
100
AcDbLine
 10
471.9705892765232
 20
1392.494269174465
 30
0.0
 11
1311.970589276523
 21
1392.494269174465
 31
0.0
  0
DIMENSION
  5
18D34
330
18C7A
100
AcDbEntity
  8
寸法
100
AcDbDimension
  2
*D14
 10
2710.234916278077
 20
2488.887829538828
 30
0.0
 11
2338.318822490183
 21
2488.887829538828
 31
0.0
 12
-3742.925985830444
 22
-6453.628869860112
 32
0.0
 70
   128
 71
     5
 42
1231.00000000007
  3
INABA_S40G
100
AcDbAlignedDimension
 13
1536.470589276486
 23
2702.494269174557
 33
0.0
 14
2767.470589276556
 24
2702.494269174549
 34
0.0
100
AcDbRotatedDimension
1001
ACAD
1000
DSTYLE
1002
{
1002
}
  0
LINE
  5
18D35
330
18C7A
100
AcDbEntity
  8
部品1
100
AcDbLine
 10
1536.470589276487
 20
2702.494269174557
 30
0.0
 11
2767.470589276554
 21
2702.494269174615
 31
0.0
  0
LINE
  5
18D36
330
18C7A
100
AcDbEntity
  8
部品1
100
AcDbLine
 10
1536.470589276487
 20
3152.494269174557
 30
0.0
 11
2767.470589276556
 21
3152.494269174615
 31
0.0
  0
LINE
  5
18D37
330
18C7A
100
AcDbEntity
  8
細線
 48
50.0
100
AcDbLine
 10
1508.470589276487
 20
3152.494269174558
 30
0.0
 11
445.4705892765559
 21
2702.494269174509
 31
0.0
  0
LINE
  5
18D38
330
18C7A
100
AcDbEntity
  8
細線
 48
50.0
100
AcDbLine
 10
1508.470589276487
 20
2702.494269174558
 30
0.0
 11
445.4705892765542
 21
3152.494269174509
 31
0.0
  0
LINE
  5
18D39
330
18C7A
100
AcDbEntity
  8
部品1
100
AcDbLine
 10
1556.970589276487
 20
3172.494269174611
 30
0.0
 11
1556.970589276487
 21
3154.494269174611
 31
0.0
  0
LINE
  5
18D3A
330
18C7A
100
AcDbEntity
  8
部品1
100
AcDbLine
 10
1556.970589276487
 20
3172.494269174611
 30
0.0
 11
1550.970589276487
 21
3172.494269174611
 31
0.0
  0
LINE
  5
18D3B
330
18C7A
100
AcDbEntity
  8
部品1
100
AcDbLine
 10
1534.470589276487
 20
3146.494269174608
 30
0.0
 11
1509.470589276487
 21
3146.494269174611
 31
0.0
  0
LINE
  5
18D3C
330
18C7A
100
AcDbEntity
  8
部品1
100
AcDbLine
 10
1486.970589276487
 20
3172.494269174611
 30
0.0
 11
1486.970589276487
 21
3154.494269174611
 31
0.0
  0
LINE
  5
18D3D
330
18C7A
100
AcDbEntity
  8
部品1
100
AcDbLine
 10
1492.970589276487
 20
3172.494269174611
 30
0.0
 11
1486.970589276487
 21
3172.494269174611
 31
0.0
  0
LINE
  5
18D3E
330
18C7A
100
AcDbEntity
  8
部品1
100
AcDbLine
 10
1534.470589276487
 20
2702.494269174615
 30
0.0
 11
1509.470589276487
 21
2702.494269174615
 31
0.0
  0
LINE
  5
18D3F
330
18C7A
100
AcDbEntity
  8
部品1
 48
50.0
100
AcDbLine
 10
1536.470589276487
 20
3152.494269174611
 30
0.0
 11
1536.470589276487
 21
2702.494269174615
 31
0.0
  0
LINE
  5
18D40
330
18C7A
100
AcDbEntity
  8
部品1
 48
50.0
100
AcDbLine
 10
1508.470589276487
 20
3152.494269174607
 30
0.0
 11
1508.470589276487
 21
2702.494269174615
 31
0.0
  0
LINE
  5
18D41
330
18C7A
100
AcDbEntity
  8
部品1
 48
50.0
100
AcDbLine
 10
1534.470589276487
 20
3154.494269174618
 30
0.0
 11
1534.470589276487
 21
2702.494269174615
 31
0.0
  0
LINE
  5
18D42
330
18C7A
100
AcDbEntity
  8
部品1
 48
50.0
100
AcDbLine
 10
1509.470589276487
 20
3154.494269174615
 30
0.0
 11
1509.470589276487
 21
2702.494269174615
 31
0.0
  0
LINE
  5
18D43
330
18C7A
100
AcDbEntity
  8
部品1
100
AcDbLine
 10
3411.970589276556
 20
1392.494269174582
 30
0.0
 11
3411.970589276556
 21
1420.494269174596
 31
0.0
  0
LINE
  5
18D44
330
18C7A
100
AcDbEntity
  8
部品1
100
AcDbLine
 10
1311.970589276523
 20
1392.494269174596
 30
0.0
 11
1311.970589276523
 21
1420.494269174596
 31
0.0
  0
LINE
  5
18D45
330
18C7A
100
AcDbEntity
  8
部品1
100
AcDbLine
 10
891.9705892765232
 20
1392.494269174596
 30
0.0
 11
891.9705892765232
 21
1420.494269174596
 31
0.0
  0
LINE
  5
18D46
330
18C7A
100
AcDbEntity
  8
部品1
100
AcDbLine
 10
3411.97058927652
 20
3182.494269174477
 30
0.0
 11
3411.970589276523
 21
3154.494269174477
 31
0.0
  0
LINE
  5
18D47
330
18C7A
100
AcDbEntity
  8
部品1
100
AcDbLine
 10
2571.97058927652
 20
3182.494269174477
 30
0.0
 11
2571.970589276523
 21
3154.494269174477
 31
0.0
  0
LINE
  5
18D48
330
18C7A
100
AcDbEntity
  8
部品1
100
AcDbLine
 10
2991.97058927652
 20
3182.494269174477
 30
0.0
 11
2991.970589276523
 21
3154.494269174477
 31
0.0
  0
LINE
  5
18D49
330
18C7A
100
AcDbEntity
  8
部品1
100
AcDbLine
 10
2151.970589276519
 20
3182.494269174477
 30
0.0
 11
2151.970589276523
 21
3154.494269174477
 31
0.0
  0
LINE
  5
18D4A
330
18C7A
100
AcDbEntity
  8
部品1
100
AcDbLine
 10
1731.970589276519
 20
3182.494269174477
 30
0.0
 11
1731.970589276523
 21
3154.494269174477
 31
0.0
  0
LINE
  5
18D4B
330
18C7A
100
AcDbEntity
  8
部品1
100
AcDbLine
 10
1311.970589276519
 20
3182.494269174477
 30
0.0
 11
1311.970589276523
 21
3154.494269174477
 31
0.0
  0
LINE
  5
18D4C
330
18C7A
100
AcDbEntity
  8
部品1
100
AcDbLine
 10
891.9705892765195
 20
3182.494269174477
 30
0.0
 11
891.9705892765232
 21
3154.494269174477
 31
0.0
  0
LINE
  5
18D4D
330
18C7A
100
AcDbEntity
  8
部品1
100
AcDbLine
 10
471.9705892765232
 20
1392.494269174596
 30
0.0
 11
471.9705892765232
 21
1420.494269174596
 31
0.0
  0
LINE
  5
18D4E
330
18C7A
100
AcDbEntity
  8
部品1
100
AcDbLine
 10
444.9705892765305
 20
1420.494269174558
 30
0.0
 11
3858.970589276556
 21
1420.494269174596
 31
0.0
  0
LINE
  5
18D4F
330
18C7A
100
AcDbEntity
  8
部品1
100
AcDbLine
 10
3831.970589276556
 20
1392.494269174596
 30
0.0
 11
3831.970589276556
 21
1420.494269174596
 31
0.0
  0
LINE
  5
18D50
330
18C7A
100
AcDbEntity
  8
部品1
100
AcDbLine
 10
3858.970589276556
 20
1447.494269174593
 30
0.0
 11
3886.970589276556
 21
1447.494269174593
 31
0.0
  0
LINE
  5
18D51
330
18C7A
100
AcDbEntity
  8
部品1
100
AcDbLine
 10
3858.970589276556
 20
1867.494269174607
 30
0.0
 11
3886.970589276556
 21
1867.494269174607
 31
0.0
  0
LINE
  5
18D52
330
18C7A
100
AcDbEntity
  8
部品1
100
AcDbLine
 10
444.9705892765305
 20
1867.49426917448
 30
0.0
 11
416.9705892765305
 21
1867.49426917448
 31
0.0
  0
LINE
  5
18D53
330
18C7A
100
AcDbEntity
  8
部品1
100
AcDbLine
 10
3830.470589276541
 20
1867.49426917458
 30
0.0
 11
473.4705892765396
 21
1867.49426917448
 31
0.0
  0
LINE
  5
18D54
330
18C7A
100
AcDbEntity
  8
部品1
100
AcDbLine
 10
3830.470589276541
 20
2287.49426917458
 30
0.0
 11
473.4705892765396
 21
2287.49426917448
 31
0.0
  0
LINE
  5
18D55
330
18C7A
100
AcDbEntity
  8
部品1
100
AcDbLine
 10
444.9705892765305
 20
2287.49426917448
 30
0.0
 11
416.9705892765305
 21
2287.49426917448
 31
0.0
  0
LINE
  5
18D56
330
18C7A
100
AcDbEntity
  8
部品1
100
AcDbLine
 10
3858.970589276556
 20
2287.494269174608
 30
0.0
 11
3886.970589276556
 21
2287.494269174608
 31
0.0
  0
LINE
  5
18D57
330
18C7A
100
AcDbEntity
  8
部品1
 48
50.0
100
AcDbLine
 10
2151.970589276551
 20
2702.494269174586
 30
0.0
 11
2151.970589276581
 21
1448.994269174494
 31
0.0
  0
LINE
  5
18D58
330
18C7A
100
AcDbEntity
  8
破線
 48
10.0
100
AcDbLine
 10
2959.470589276535
 20
1472.494269174522
 30
0.0
 11
2176.970589276532
 21
1472.494269174505
 31
0.0
  0
LINE
  5
18D59
330
18C7A
100
AcDbEntity
  8
破線
 48
10.0
100
AcDbLine
 10
3009.47058927653
 20
1448.994269174509
 30
0.0
 11
3009.47058927653
 21
2702.494269174615
 31
0.0
  0
LINE
  5
18D5A
330
18C7A
100
AcDbEntity
  8
破線
 48
10.0
100
AcDbLine
 10
2959.470589276535
 20
1448.994269174505
 30
0.0
 11
2959.470589276531
 21
2702.494269174615
 31
0.0
  0
LINE
  5
18D5B
330
18C7A
100
AcDbEntity
  8
破線
 48
10.0
100
AcDbLine
 10
1344.47058927653
 20
1448.994269174509
 30
0.0
 11
1344.47058927653
 21
2702.494269174615
 31
0.0
  0
LINE
  5
18D5C
330
18C7A
100
AcDbEntity
  8
破線
 48
10.0
100
AcDbLine
 10
1294.470589276534
 20
1448.994269174505
 30
0.0
 11
1294.47058927653
 21
2702.494269174615
 31
0.0
  0
DIMENSION
  5
18D5D
330
18C7A
100
AcDbEntity
  8
寸法
100
AcDbDimension
  2
*D13
 10
1451.234916278005
 20
2488.887829538828
 30
0.0
 11
916.0604668248634
 21
2488.887829538828
 31
0.0
 12
-3742.925985830444
 22
-6453.628869860112
 32
0.0
 70
   128
 71
     5
 42
1062.99999999993
  3
INABA_S40G
100
AcDbAlignedDimension
 13
445.4705892765559
 23
2702.494269174505
 33
0.0
 14
1508.470589276486
 24
2702.494269174558
 34
0.0
100
AcDbRotatedDimension
1001
ACAD
1000
DSTYLE
1002
{
1002
}
  0
LINE
  5
18D5E
330
18C7A
100
AcDbEntity
  8
破線
 48
10.0
100
AcDbLine
 10
1294.470589276534
 20
1472.494269174469
 30
0.0
 11
496.9705892765414
 21
1472.494269174476
 31
0.0
  0
LINE
  5
18D5F
330
18C7A
100
AcDbEntity
  8
部品1
100
AcDbLine
 10
3831.970589276556
 20
3182.494269174604
 30
0.0
 11
3831.970589276556
 21
3154.494269174604
 31
0.0
  0
LINE
  5
18D60
330
18C7A
100
AcDbEntity
  8
部品1
100
AcDbLine
 10
3831.970589276556
 20
3182.494269174626
 30
0.0
 11
3831.970589276556
 21
3154.494269174626
 31
0.0
  0
LINE
  5
18D61
330
18C7A
100
AcDbEntity
  8
部品1
100
AcDbLine
 10
3858.970589276556
 20
3127.494269174607
 30
0.0
 11
3886.970589276556
 21
3127.494269174607
 31
0.0
  0
LINE
  5
18D62
330
18C7A
100
AcDbEntity
  8
部品1
100
AcDbLine
 10
3858.970589276556
 20
2707.494269174608
 30
0.0
 11
3886.970589276556
 21
2707.494269174608
 31
0.0
  0
LINE
  5
18D63
330
18C7A
100
AcDbEntity
  8
部品1
100
AcDbLine
 10
3858.470589276556
 20
3152.494269174604
 30
0.0
 11
3858.470589276556
 21
2702.494269174608
 31
0.0
  0
LINE
  5
18D64
330
18C7A
100
AcDbEntity
  8
部品1
100
AcDbLine
 10
3886.970589276533
 20
1447.494269174593
 30
0.0
 11
3886.970589276531
 21
1392.494269174596
 31
0.0
  0
LINE
  5
18D65
330
18C7A
100
AcDbEntity
  8
部品1
 48
50.0
100
AcDbLine
 10
3830.470589276556
 20
1448.994269174596
 30
0.0
 11
3858.970589276554
 21
1420.494269174596
 31
0.0
  0
LINE
  5
18D66
330
18C7A
100
AcDbEntity
  8
部品1
100
AcDbLine
 10
3886.970589276531
 20
1392.494269174596
 30
0.0
 11
3835.970589276531
 21
1392.494269174596
 31
0.0
  0
LINE
  5
18D67
330
18C7A
100
AcDbEntity
  8
部品1
100
AcDbLine
 10
3858.970589276533
 20
1447.494269174593
 30
0.0
 11
3886.970589276531
 21
1447.494269174593
 31
0.0
  0
LINE
  5
18D68
330
18C7A
100
AcDbEntity
  8
部品1
100
AcDbLine
 10
3886.970589276556
 20
3182.494269174604
 30
0.0
 11
3886.970589276531
 21
1392.494269174596
 31
0.0
  0
DIMENSION
  5
18D69
330
18C7A
100
AcDbEntity
  8
寸法
100
AcDbDimension
  2
*D12
 10
4534.396935010967
 20
1447.494269174593
 30
0.0
 11
4534.396935010965
 21
2287.4942691746
 31
0.0
 12
-3742.925985830444
 22
-6453.628869860112
 32
0.0
 70
   128
  1
4X420=<>
 71
     5
 42
1680.000000000014
  3
INABA_S40G
100
AcDbAlignedDimension
 13
3886.970589276556
 23
3127.494269174607
 33
0.0
 14
3886.970589276531
 24
1447.494269174593
 34
0.0
 50
90.0
100
AcDbRotatedDimension
1001
ACAD
1000
DSTYLE
1002
{
1002
}
  0
LINE
  5
18D6A
330
18C7A
100
AcDbEntity
  8
部品1
100
AcDbLine
 10
3858.970589276556
 20
3154.494269174604
 30
0.0
 11
3858.970589276534
 21
1420.494269174596
 31
0.0
  0
DIMENSION
  5
18D6B
330
18C7A
100
AcDbEntity
  8
寸法
100
AcDbDimension
  2
*D11
 10
4213.82831513858
 20
2607.276453505718
 30
0.0
 11
4113.828315138579
 21
2832.276453505718
 31
0.0
 12
-3742.925985830444
 22
-6453.628869860112
 32
0.0
 71
     5
 42
449.9999999999963
  3
INABA_S40G
100
AcDbAlignedDimension
 13
3858.470589276556
 23
3152.494269174604
 33
0.0
 14
3858.470589276556
 24
2702.494269174608
 34
0.0
 50
90.0
100
AcDbRotatedDimension
1001
ACAD
1000
DSTYLE
1002
{
1002
}
  0
LINE
  5
18D6C
330
18C7A
100
AcDbEntity
  8
部品1
100
AcDbLine
 10
3830.470589276547
 20
2702.494269174608
 30
0.0
 11
3830.470589276556
 21
1448.994269174596
 31
0.0
  0
LINE
  5
18D6D
330
18C7A
100
AcDbEntity
  8
破線
 48
10.0
100
AcDbLine
 10
3806.970589276549
 20
2702.494269174608
 30
0.0
 11
3806.970589276558
 21
1472.494269174593
 31
0.0
  0
LINE
  5
18D6E
330
18C7A
100
AcDbEntity
  8
部品1
100
AcDbLine
 10
2769.470589276556
 20
3146.494269174608
 30
0.0
 11
2794.470589276556
 21
3146.494269174611
 31
0.0
  0
LINE
  5
18D6F
330
18C7A
100
AcDbEntity
  8
部品1
100
AcDbLine
 10
2810.970589276556
 20
3172.494269174611
 30
0.0
 11
2816.970589276556
 21
3172.494269174611
 31
0.0
  0
LINE
  5
18D70
330
18C7A
100
AcDbEntity
  8
部品1
100
AcDbLine
 10
2816.970589276556
 20
3172.494269174611
 30
0.0
 11
2816.970589276556
 21
3154.494269174611
 31
0.0
  0
LINE
  5
18D71
330
18C7A
100
AcDbEntity
  8
部品1
100
AcDbLine
 10
2746.970589276556
 20
3172.494269174611
 30
0.0
 11
2752.970589276556
 21
3172.494269174611
 31
0.0
  0
LINE
  5
18D72
330
18C7A
100
AcDbEntity
  8
部品1
100
AcDbLine
 10
2746.970589276556
 20
3172.494269174611
 30
0.0
 11
2746.970589276556
 21
3154.494269174611
 31
0.0
  0
LINE
  5
18D73
330
18C7A
100
AcDbEntity
  8
部品1
100
AcDbLine
 10
2769.470589276556
 20
2702.494269174615
 30
0.0
 11
2794.470589276556
 21
2702.494269174615
 31
0.0
  0
LINE
  5
18D74
330
18C7A
100
AcDbEntity
  8
部品1
 48
50.0
100
AcDbLine
 10
2794.470589276556
 20
3154.494269174615
 30
0.0
 11
2794.470589276556
 21
2702.494269174615
 31
0.0
  0
LINE
  5
18D75
330
18C7A
100
AcDbEntity
  8
部品1
 48
50.0
100
AcDbLine
 10
2769.470589276554
 20
3154.494269174618
 30
0.0
 11
2769.470589276556
 21
2702.494269174615
 31
0.0
  0
LINE
  5
18D76
330
18C7A
100
AcDbEntity
  8
部品1
 48
50.0
100
AcDbLine
 10
2795.470589276556
 20
3152.494269174607
 30
0.0
 11
2795.470589276556
 21
2702.494269174615
 31
0.0
  0
LINE
  5
18D77
330
18C7A
100
AcDbEntity
  8
部品1
 48
50.0
100
AcDbLine
 10
2767.470589276556
 20
3152.494269174611
 30
0.0
 11
2767.470589276556
 21
2702.494269174615
 31
0.0
  0
LINE
  5
18D78
330
18C7A
100
AcDbEntity
  8
破線
 48
10.0
100
AcDbLine
 10
2176.97058927653
 20
1448.994269174509
 30
0.0
 11
2176.97058927653
 21
2702.494269174588
 31
0.0
  0
LINE
  5
18D79
330
18C7A
100
AcDbEntity
  8
破線
 48
10.0
100
AcDbLine
 10
2126.970589276534
 20
1448.994269174505
 30
0.0
 11
2126.970589276531
 21
2702.494269174586
 31
0.0
  0
LINE
  5
18D7A
330
18C7A
100
AcDbEntity
  8
部品1
100
AcDbLine
 10
2794.470589276556
 20
3154.494269174622
 30
0.0
 11
3858.970589276556
 21
3154.494269174604
 31
0.0
  0
LINE
  5
18D7B
330
18C7A
100
AcDbEntity
  8
細線
 48
50.0
100
AcDbLine
 10
3858.470589276556
 20
2702.494269174608
 30
0.0
 11
2795.470589276556
 21
3152.494269174607
 31
0.0
  0
LINE
  5
18D7C
330
18C7A
100
AcDbEntity
  8
部品1
100
AcDbLine
 10
2795.470589276555
 20
2702.494269174615
 30
0.0
 11
3858.470589276556
 21
2702.494269174608
 31
0.0
  0
LINE
  5
18D7D
330
18C7A
100
AcDbEntity
  8
部品1
100
AcDbLine
 10
2795.470589276556
 20
3152.494269174611
 30
0.0
 11
3858.470589276556
 21
3152.494269174604
 31
0.0
  0
LINE
  5
18D7E
330
18C7A
100
AcDbEntity
  8
細線
 48
50.0
100
AcDbLine
 10
3858.470589276556
 20
3152.494269174604
 30
0.0
 11
2795.470589276555
 21
2702.494269174615
 31
0.0
  0
DIMENSION
  5
18D7F
330
18C7A
100
AcDbEntity
  8
寸法
100
AcDbDimension
  2
*D10
 10
3801.234916278101
 20
2488.887829538937
 30
0.0
 11
3318.360544398907
 21
2488.887829538937
 31
0.0
 12
-3742.925985830444
 22
-6453.628869860112
 32
0.0
 70
   128
 71
     5
 42
1063.000000000012
  3
INABA_S40G
100
AcDbAlignedDimension
 13
2795.470589276555
 23
2702.494269174615
 33
0.0
 14
3858.470589276567
 24
2702.494269174608
 34
0.0
100
AcDbRotatedDimension
1001
ACAD
1000
DSTYLE
1002
{
1002
}
  0
LINE
  5
18D80
330
18C7A
100
AcDbEntity
  8
破線
 48
10.0
100
AcDbLine
 10
3806.970589276556
 20
1472.494269174594
 30
0.0
 11
3009.47058927653
 21
1472.494269174523
 31
0.0
  0
DIMENSION
  5
18D81
330
18C7A
100
AcDbEntity
  8
寸法
100
AcDbDimension
  2
*D9
 10
4534.396935010941
 20
1392.494269174596
 30
0.0
 11
4534.39693501094
 21
1084.008987800356
 31
0.0
 12
-3742.925985830444
 22
-6453.628869860112
 32
0.0
 70
   128
 71
     5
 42
54.99999999999636
  3
INABA_S40G
100
AcDbAlignedDimension
 13
3886.970589276531
 23
1447.494269174593
 33
0.0
 14
3886.970589276531
 24
1392.494269174596
 34
0.0
 50
90.0
100
AcDbRotatedDimension
1001
ACAD
1000
DSTYLE
1002
{
1002
}
  0
LINE
  5
18D82
330
18C7A
100
AcDbEntity
  8
部品1
100
AcDbLine
 10
471.9705892765196
 20
3182.494269174477
 30
0.0
 11
471.9705892765232
 21
3154.494269174477
 31
0.0
  0
LINE
  5
18D83
330
18C7A
100
AcDbEntity
  8
部品1
100
AcDbLine
 10
471.9705892765559
 20
3182.494269174509
 30
0.0
 11
471.9705892765559
 21
3154.494269174509
 31
0.0
  0
LINE
  5
18D84
330
18C7A
100
AcDbEntity
  8
部品1
100
AcDbLine
 10
444.9705892765232
 20
3127.49426917448
 30
0.0
 11
416.9705892765232
 21
3127.49426917448
 31
0.0
  0
LINE
  5
18D85
330
18C7A
100
AcDbEntity
  8
部品1
100
AcDbLine
 10
444.9705892765305
 20
2707.49426917448
 30
0.0
 11
416.9705892765305
 21
2707.49426917448
 31
0.0
  0
LINE
  5
18D86
330
18C7A
100
AcDbEntity
  8
部品1
 48
50.0
100
AcDbLine
 10
445.4705892765542
 20
3152.494269174506
 30
0.0
 11
445.4705892765559
 21
2702.494269174505
 31
0.0
  0
LINE
  5
18D87
330
18C7A
100
AcDbEntity
  8
部品1
 48
50.0
100
AcDbLine
 10
473.470589276545
 20
1448.994269174573
 30
0.0
 11
444.970589276545
 21
1420.494269174574
 31
0.0
  0
LINE
  5
18D88
330
18C7A
100
AcDbEntity
  8
部品1
100
AcDbLine
 10
471.9705892765232
 20
1392.494269174465
 30
0.0
 11
416.9705892765486
 21
1392.494269174465
 31
0.0
  0
LINE
  5
18D89
330
18C7A
100
AcDbEntity
  8
部品1
100
AcDbLine
 10
444.9705892765305
 20
1447.494269174429
 30
0.0
 11
416.9705892765469
 21
1447.494269174429
 31
0.0
  0
LINE
  5
18D8A
330
18C7A
100
AcDbEntity
  8
部品1
100
AcDbLine
 10
444.9705892765305
 20
1447.494269174465
 30
0.0
 11
416.9705892765469
 21
1447.494269174465
 31
0.0
  0
LINE
  5
18D8B
330
18C7A
100
AcDbEntity
  8
部品1
100
AcDbLine
 10
444.9705892765469
 20
1447.49426917448
 30
0.0
 11
416.9705892765469
 21
1447.49426917448
 31
0.0
  0
LINE
  5
18D8C
330
18C7A
100
AcDbEntity
  8
部品1
100
AcDbLine
 10
416.9705892765469
 20
1447.494269174429
 30
0.0
 11
416.9705892765486
 21
1392.494269174433
 31
0.0
  0
LINE
  5
18D8D
330
18C7A
100
AcDbEntity
  8
部品1
100
AcDbLine
 10
416.9705892765196
 20
3182.494269174477
 30
0.0
 11
416.9705892765486
 21
1392.494269174465
 31
0.0
  0
LINE
  5
18D8E
330
18C7A
100
AcDbEntity
  8
部品1
100
AcDbLine
 10
444.9705892765305
 20
1420.494269174556
 30
0.0
 11
444.9705892765559
 21
3154.494269174509
 31
0.0
  0
LINE
  5
18D8F
330
18C7A
100
AcDbEntity
  8
部品1
100
AcDbLine
 10
473.4705892765323
 20
2702.494269174608
 30
0.0
 11
473.470589276545
 21
1448.994269174571
 31
0.0
  0
LINE
  5
18D90
330
18C7A
100
AcDbEntity
  8
破線
 48
10.0
100
AcDbLine
 10
496.9705892765305
 20
2702.494269174608
 30
0.0
 11
496.9705892765451
 21
1472.494269174476
 31
0.0
  0
DIMENSION
  5
18D91
330
18C7A
100
AcDbEntity
  8
寸法
100
AcDbDimension
  2
*D8
 10
3886.970589276531
 20
410.7433333855515
 30
0.0
 11
2168.197775309287
 21
410.7433333855515
 31
0.0
 12
-3742.925985830444
 22
-6453.628869860112
 32
0.0
 70
   128
 71
     5
 42
3469.999999999982
  3
INABA_S40G
100
AcDbAlignedDimension
 13
416.9705892765486
 23
1392.494269174433
 33
0.0
 14
3886.970589276531
 24
1392.49426917456
 34
0.0
100
AcDbRotatedDimension
1001
ACAD
1000
DSTYLE
1002
{
1070
   341
1005
0
1002
}
  0
LINE
  5
18D92
330
18C7A
100
AcDbEntity
  8
部品1
100
AcDbLine
 10
444.9705892765559
 20
3154.494269174624
 30
0.0
 11
1509.470589276487
 21
3154.494269174626
 31
0.0
  0
LINE
  5
18D93
330
18C7A
100
AcDbEntity
  8
部品1
100
AcDbLine
 10
3886.970589276531
 20
1392.494269174596
 30
0.0
 11
3411.970589276556
 21
1392.494269174582
 31
0.0
  0
LINE
  5
18D94
330
18C7A
100
AcDbEntity
  8
部品1
100
AcDbLine
 10
416.9705892765559
 20
3182.494269174509
 30
0.0
 11
3886.970589276556
 21
3182.494269174604
 31
0.0
  0
LINE
  5
18D95
330
18C7A
100
AcDbEntity
  8
部品1
100
AcDbLine
 10
445.4705892765559
 20
2702.494269174509
 30
0.0
 11
1508.470589276487
 21
2702.494269174558
 31
0.0
  0
LINE
  5
18D96
330
18C7A
100
AcDbEntity
  8
細線
 48
50.0
100
AcDbLine
 10
2767.470589276556
 20
3152.494269174611
 30
0.0
 11
1536.470589276487
 21
2702.494269174558
 31
0.0
  0
LINE
  5
18D97
330
18C7A
100
AcDbEntity
  8
部品1
100
AcDbLine
 10
445.4705892765542
 20
3152.494269174509
 30
0.0
 11
1508.470589276485
 21
3152.494269174558
 31
0.0
  0
LINE
  5
18D98
330
18C7A
100
AcDbEntity
  8
細線
 48
50.0
100
AcDbLine
 10
2767.470589276554
 20
2702.494269174615
 30
0.0
 11
1536.470589276485
 21
3152.494269174558
 31
0.0
  0
LINE
  5
18D99
330
18C7A
100
AcDbEntity
  8
破線
 48
10.0
100
AcDbLine
 10
2126.970589276534
 20
1472.494269174502
 30
0.0
 11
1344.47058927653
 21
1472.494269174473
 31
0.0
  0
LINE
  5
18D9A
330
18C7A
100
AcDbEntity
  8
部品1
100
AcDbLine
 10
3830.470589276556
 20
1448.994269174596
 30
0.0
 11
473.4705892764487
 21
1448.994269174476
 31
0.0
  0
DIMENSION
  5
18D9B
330
18C7A
100
AcDbEntity
  8
寸法
100
AcDbDimension
  2
*D7
 10
471.970589276555
 20
3698.302488799491
 30
0.0
 11
108.4853079022819
 21
3698.302488799491
 31
0.0
 12
-3742.925985830444
 22
-6453.628869860112
 32
0.0
 70
   128
 71
     5
 42
55.00000000003456
  3
INABA_S40G
100
AcDbAlignedDimension
 13
416.9705892765205
 23
3182.494269174509
 33
0.0
 14
471.970589276555
 24
3182.494269174509
 34
0.0
100
AcDbRotatedDimension
1001
ACAD
1000
DSTYLE
1002
{
1002
}
  0
DIMENSION
  5
18D9C
330
18C7A
100
AcDbEntity
  8
寸法
100
AcDbDimension
  2
*D6
 10
4534.396935010967
 20
3127.494269174607
 30
0.0
 11
4534.396935010965
 21
3490.979550548844
 31
0.0
 12
-3742.925985830444
 22
-6453.628869860112
 32
0.0
 70
   128
 71
     5
 42
54.99999999999636
  3
INABA_S40G
100
AcDbAlignedDimension
 13
3886.970589276556
 23
3182.494269174604
 33
0.0
 14
3886.970589276556
 24
3127.494269174607
 34
0.0
 50
90.0
100
AcDbRotatedDimension
1001
ACAD
1000
DSTYLE
1002
{
1002
}
  0
DIMENSION
  5
18D9D
330
18C7A
100
AcDbEntity
  8
寸法
100
AcDbDimension
  2
*D5
 10
3886.970589276556
 20
3698.302488799589
 30
0.0
 11
4195.455870650794
 21
3698.302488799589
 31
0.0
 12
-3742.925985830444
 22
-6453.628869860112
 32
0.0
 70
   128
 71
     5
 42
55.0
  3
INABA_S40G
100
AcDbAlignedDimension
 13
3831.970589276556
 23
3182.494269174604
 33
0.0
 14
3886.970589276556
 24
3182.494269174604
 34
0.0
100
AcDbRotatedDimension
1001
ACAD
1000
DSTYLE
1002
{
1002
}
  0
DIMENSION
  5
18D9E
330
18C7A
100
AcDbEntity
  8
寸法
100
AcDbDimension
  2
*D4
 10
3831.970589276556
 20
3698.302488799607
 30
0.0
 11
2151.970589276555
 21
3698.302488799607
 31
0.0
 12
-3742.925985830444
 22
-6453.628869860112
 32
0.0
 70
   128
  1
8X420=<>
 71
     5
 42
3360.000000000001
  3
INABA_S40G
100
AcDbAlignedDimension
 13
471.970589276555
 23
3182.494269174509
 33
0.0
 14
3831.970589276556
 24
3182.494269174604
 34
0.0
100
AcDbRotatedDimension
1001
ACAD
1000
DSTYLE
1002
{
1002
}
  0
DIMENSION
  5
18D9F
330
18C7A
100
AcDbEntity
  8
寸法
100
AcDbDimension
  2
*D3
 10
4899.503876750603
 20
1392.494269174596
 30
0.0
 11
4899.503876750601
 21
2287.4942691746
 31
0.0
 12
-3742.925985830444
 22
-6453.628869860112
 32
0.0
 70
   128
 71
     5
 42
1790.000000000007
  3
INABA_S40G
100
AcDbAlignedDimension
 13
3886.970589276556
 23
3182.494269174604
 33
0.0
 14
3886.970589276531
 24
1392.494269174596
 34
0.0
 50
90.0
100
AcDbRotatedDimension
1001
ACAD
1000
DSTYLE
1002
{
1002
}
  0
ENDBLK
  5
18DA1
330
18C7A
100
AcDbEntity
  8
0
 48
50.0
100
AcDbBlockEnd
  0
BLOCK
  5
1C4CB
330
1C4CA
100
AcDbEntity
  8
0
 48
50.0
100
AcDbBlockBegin
  2
_NONE
 70
     0
 10
0.0
 20
0.0
 30
0.0
  3
_NONE
  1

  0
CIRCLE
  5
1C4CC
330
1C4CA
100
AcDbEntity
  8
0
  6
ByBlock
 62
     0
 48
50.0
100
AcDbCircle
 10
0.0
 20
0.0
 30
0.0
 40
0.25
  0
ENDBLK
  5
1C4CD
330
1C4CA
100
AcDbEntity
  8
0
 48
50.0
100
AcDbBlockEnd
  0
BLOCK
  5
229A0
330
22995
100
AcDbEntity
  8
0
 48
50.0
100
AcDbBlockBegin
  2
*D19
 70
     1
 10
0.0
 20
0.0
 30
0.0
  3
*D19
  1

  0
LINE
  5
22F2C
330
22995
100
AcDbEntity
  8
寸法
 62
     0
 48
50.0
370
    -2
100
AcDbLine
 10
9333.6
 20
7986.907777930205
 30
0.0
 11
9333.6
 21
8790.149966081996
 31
0.0
  0
LINE
  5
22F2D
330
22995
100
AcDbEntity
  8
寸法
 62
     0
 48
50.0
370
    -2
100
AcDbLine
 10
9210.600000000001
 20
7913.907777930204
 30
0.0
 11
9210.600000000001
 21
8790.149966081996
 31
0.0
  0
LINE
  5
22F2E
330
22995
100
AcDbEntity
  8
寸法
 62
     0
 48
50.0
370
    -2
100
AcDbLine
 10
9210.600000000001
 20
8730.149966081995
 30
0.0
 11
9333.6
 21
8730.149966081995
 31
0.0
  0
LINE
  5
22F2F
330
22995
100
AcDbEntity
  8
寸法
 62
     0
 48
50.0
370
    -2
100
AcDbLine
 10
9333.6
 20
8730.149966081995
 30
0.0
 11
9745.191883092036
 21
8730.149966081995
 31
0.0
  0
INSERT
  5
22F30
330
22995
100
AcDbEntity
  8
寸法
 62
     0
 48
50.0
370
    -2
100
AcDbBlockReference
  2
_DOTSMALL
 10
9210.600000000001
 20
8730.149966081995
 30
0.0
 41
100.0
 42
100.0
 43
100.0
 50
180.0
  0
INSERT
  5
22F31
330
22995
100
AcDbEntity
  8
寸法
 62
     0
 48
50.0
370
    -2
100
AcDbBlockReference
  2
_DOTSMALL
 10
9333.6
 20
8730.149966081995
 30
0.0
 41
100.0
 42
100.0
 43
100.0
  0
MTEXT
  5
22F32
330
22995
100
AcDbEntity
  8
寸法
 62
     7
 48
50.0
100
AcDbMText
 10
9606.706601717799
 20
8830.161777105617
 30
0.0
 40
120.0
 41
0.0
 71
     5
 72
     1
  1
\A1;123
  7
STYLE1
 73
     1
 44
1.0
1001
ACAD
1000
MTEXTBEGIN
1070
    73
1070
     1
1070
    44
1040
1.0
1070
    74
1070
     0
1000
MTEXTEND
  0
POINT
  5
22F33
330
22995
100
AcDbEntity
  8
DEFPOINTS
 62
     0
 48
50.0
100
AcDbPoint
 10
9333.6
 20
7966.907777930204
 30
0.0
  0
POINT
  5
22F34
330
22995
100
AcDbEntity
  8
DEFPOINTS
 62
     0
 48
50.0
100
AcDbPoint
 10
9210.600000000001
 20
7893.907777930204
 30
0.0
  0
POINT
  5
22F35
330
22995
100
AcDbEntity
  8
DEFPOINTS
 62
     0
 48
50.0
100
AcDbPoint
 10
9210.600000000001
 20
8730.149966081995
 30
0.0
  0
ENDBLK
  5
229A1
330
22995
100
AcDbEntity
  8
0
 48
50.0
100
AcDbBlockEnd
  0
BLOCK
  5
229AD
330
229A2
100
AcDbEntity
  8
0
 48
50.0
100
AcDbBlockBegin
  2
*D20
 70
     1
 10
0.0
 20
0.0
 30
0.0
  3
*D20
  1

  0
LINE
  5
2406D
330
229A2
100
AcDbEntity
  8
寸法
 62
     0
 48
50.0
370
    -2
100
AcDbLine
 10
9333.6
 20
7504.698220872943
 30
0.0
 11
9333.6
 21
7447.704956834113
 31
0.0
  0
LINE
  5
2406E
330
229A2
100
AcDbEntity
  8
寸法
 62
     0
 48
50.0
370
    -2
100
AcDbLine
 10
9213.600000000001
 20
7504.698220872943
 30
0.0
 11
9213.600000000001
 21
7447.704956834113
 31
0.0
  0
LINE
  5
2406F
330
229A2
100
AcDbEntity
  8
寸法
 62
     0
 48
50.0
370
    -2
100
AcDbLine
 10
9213.600000000001
 20
7507.704956834112
 30
0.0
 11
9333.6
 21
7507.704956834112
 31
0.0
  0
LINE
  5
24070
330
229A2
100
AcDbEntity
  8
寸法
 62
     0
 48
50.0
370
    -2
100
AcDbLine
 10
9333.6
 20
7507.704956834112
 30
0.0
 11
9739.706299212599
 21
7507.704956834112
 31
0.0
  0
INSERT
  5
24071
330
229A2
100
AcDbEntity
  8
寸法
 62
     0
 48
50.0
370
    -2
100
AcDbBlockReference
  2
_DOTSMALL
 10
9213.600000000001
 20
7507.704956834112
 30
0.0
 41
100.0
 42
100.0
 43
100.0
 50
180.0
  0
INSERT
  5
24072
330
229A2
100
AcDbEntity
  8
寸法
 62
     0
 48
50.0
370
    -2
100
AcDbBlockReference
  2
_DOTSMALL
 10
9333.6
 20
7507.704956834112
 30
0.0
 41
100.0
 42
100.0
 43
100.0
  0
MTEXT
  5
24073
330
229A2
100
AcDbEntity
  8
寸法
 62
     7
 48
50.0
100
AcDbMText
 10
9603.659055118111
 20
7607.716767857734
 30
0.0
 40
120.0
 41
0.0
 71
     5
 72
     1
  1
\A1;120
  7
STYLE1
 73
     1
 44
1.0
1001
ACAD
1000
MTEXTBEGIN
1070
    73
1070
     1
1070
    44
1040
1.0
1070
    74
1070
     0
1000
MTEXTEND
  0
POINT
  5
24074
330
229A2
100
AcDbEntity
  8
DEFPOINTS
 62
     0
 48
50.0
100
AcDbPoint
 10
9333.6
 20
7524.698220872943
 30
0.0
  0
POINT
  5
24075
330
229A2
100
AcDbEntity
  8
DEFPOINTS
 62
     0
 48
50.0
100
AcDbPoint
 10
9213.600000000001
 20
7524.698220872942
 30
0.0
  0
POINT
  5
24076
330
229A2
100
AcDbEntity
  8
DEFPOINTS
 62
     0
 48
50.0
100
AcDbPoint
 10
9213.600000000001
 20
7507.704956834112
 30
0.0
  0
ENDBLK
  5
229AE
330
229A2
100
AcDbEntity
  8
0
 48
50.0
100
AcDbBlockEnd
  0
BLOCK
  5
229BA
330
229AF
100
AcDbEntity
  8
0
 48
50.0
100
AcDbBlockBegin
  2
*D21
 70
     1
 10
0.0
 20
0.0
 30
0.0
  3
*D21
  1

  0
LINE
  5
22F17
330
229AF
100
AcDbEntity
  8
寸法
 62
     0
 48
50.0
370
    -2
100
AcDbLine
 10
9333.6
 20
7986.907777930205
 30
0.0
 11
9333.6
 21
9002.610661598835
 31
0.0
  0
LINE
  5
22F18
330
229AF
100
AcDbEntity
  8
寸法
 62
     0
 48
50.0
370
    -2
100
AcDbLine
 10
9383.599999999999
 20
8750.149966081998
 30
0.0
 11
9383.599999999999
 21
9002.610661598835
 31
0.0
  0
LINE
  5
22F19
330
229AF
100
AcDbEntity
  8
寸法
 62
     0
 48
50.0
370
    -2
100
AcDbLine
 10
9333.6
 20
8942.610661598834
 30
0.0
 11
9233.6
 21
8942.610661598834
 31
0.0
  0
LINE
  5
22F1A
330
229AF
100
AcDbEntity
  8
寸法
 62
     0
 48
50.0
370
    -2
100
AcDbLine
 10
9383.599999999999
 20
8942.610661598834
 30
0.0
 11
9715.949242404919
 21
8942.610661598834
 31
0.0
  0
LINE
  5
22F1B
330
229AF
100
AcDbEntity
  8
寸法
 62
     0
 48
50.0
370
    -2
100
AcDbLine
 10
9333.6
 20
8942.610661598834
 30
0.0
 11
9383.599999999999
 21
8942.610661598834
 31
0.0
  0
INSERT
  5
22F1C
330
229AF
100
AcDbEntity
  8
寸法
 62
     0
 48
50.0
370
    -2
100
AcDbBlockReference
  2
_DOTSMALL
 10
9333.6
 20
8942.610661598834
 30
0.0
 41
100.0
 42
100.0
 43
100.0
  0
INSERT
  5
22F1D
330
229AF
100
AcDbEntity
  8
寸法
 62
     0
 48
50.0
370
    -2
100
AcDbBlockReference
  2
_DOTSMALL
 10
9383.599999999999
 20
8942.610661598834
 30
0.0
 41
100.0
 42
100.0
 43
100.0
 50
180.0
  0
MTEXT
  5
22F1E
330
229AF
100
AcDbEntity
  8
寸法
 62
     7
 48
50.0
100
AcDbMText
 10
9649.77462120246
 20
9042.610661598834
 30
0.0
 40
120.0
 41
0.0
 71
     5
 72
     1
  1
\A1;a
  7
STYLE1
 73
     1
 44
1.0
1001
ACAD
1000
MTEXTBEGIN
1070
    73
1070
     1
1070
    44
1040
1.0
1070
    74
1070
     0
1000
MTEXTEND
  0
POINT
  5
22F1F
330
229AF
100
AcDbEntity
  8
DEFPOINTS
 62
     0
 48
50.0
100
AcDbPoint
 10
9333.6
 20
7966.907777930204
 30
0.0
  0
POINT
  5
22F20
330
229AF
100
AcDbEntity
  8
DEFPOINTS
 62
     0
 48
50.0
100
AcDbPoint
 10
9383.599999999999
 20
8730.149966082001
 30
0.0
  0
POINT
  5
22F21
330
229AF
100
AcDbEntity
  8
DEFPOINTS
 62
     0
 48
50.0
100
AcDbPoint
 10
9383.599999999999
 20
8942.610661598834
 30
0.0
  0
ENDBLK
  5
229BB
330
229AF
100
AcDbEntity
  8
0
 48
50.0
100
AcDbBlockEnd
  0
BLOCK
  5
229D3
330
229C8
100
AcDbEntity
  8
0
 48
50.0
100
AcDbBlockBegin
  2
*D22
 70
     1
 10
0.0
 20
0.0
 30
0.0
  3
*D22
  1

  0
LINE
  5
22F03
330
229C8
100
AcDbEntity
  8
寸法
 62
     0
 48
50.0
370
    -2
100
AcDbLine
 10
7063.6
 20
8750.149966081991
 30
0.0
 11
7063.6
 21
9002.610661598835
 31
0.0
  0
LINE
  5
22F04
330
229C8
100
AcDbEntity
  8
寸法
 62
     0
 48
50.0
370
    -2
100
AcDbLine
 10
7113.600000000001
 20
7986.907777930205
 30
0.0
 11
7113.600000000001
 21
9002.610661598835
 31
0.0
  0
LINE
  5
22F05
330
229C8
100
AcDbEntity
  8
寸法
 62
     0
 48
50.0
370
    -2
100
AcDbLine
 10
7113.600000000001
 20
8942.610661598834
 30
0.0
 11
7213.600000000001
 21
8942.610661598834
 31
0.0
  0
LINE
  5
22F06
330
229C8
100
AcDbEntity
  8
寸法
 62
     0
 48
50.0
370
    -2
100
AcDbLine
 10
7063.6
 20
8942.610661598834
 30
0.0
 11
6731.250757595083
 21
8942.610661598834
 31
0.0
  0
LINE
  5
22F07
330
229C8
100
AcDbEntity
  8
寸法
 62
     0
 48
50.0
370
    -2
100
AcDbLine
 10
7113.600000000001
 20
8942.610661598834
 30
0.0
 11
7063.6
 21
8942.610661598834
 31
0.0
  0
INSERT
  5
22F08
330
229C8
100
AcDbEntity
  8
寸法
 62
     0
 48
50.0
370
    -2
100
AcDbBlockReference
  2
_DOTSMALL
 10
7113.600000000001
 20
8942.610661598834
 30
0.0
 41
100.0
 42
100.0
 43
100.0
 50
180.0
  0
INSERT
  5
22F09
330
229C8
100
AcDbEntity
  8
寸法
 62
     0
 48
50.0
370
    -2
100
AcDbBlockReference
  2
_DOTSMALL
 10
7063.6
 20
8942.610661598834
 30
0.0
 41
100.0
 42
100.0
 43
100.0
  0
MTEXT
  5
22F0A
330
229C8
100
AcDbEntity
  8
寸法
 62
     7
 48
50.0
100
AcDbMText
 10
6797.425378797541
 20
9042.610661598834
 30
0.0
 40
120.0
 41
0.0
 71
     5
 72
     1
  1
\A1;a
  7
STYLE1
 73
     1
 44
1.0
1001
ACAD
1000
MTEXTBEGIN
1070
    73
1070
     1
1070
    44
1040
1.0
1070
    74
1070
     0
1000
MTEXTEND
  0
POINT
  5
22F0B
330
229C8
100
AcDbEntity
  8
DEFPOINTS
 62
     0
 48
50.0
100
AcDbPoint
 10
7063.6
 20
8730.149966081992
 30
0.0
  0
POINT
  5
22F0C
330
229C8
100
AcDbEntity
  8
DEFPOINTS
 62
     0
 48
50.0
100
AcDbPoint
 10
7113.600000000001
 20
7966.907777930204
 30
0.0
  0
POINT
  5
22F0D
330
229C8
100
AcDbEntity
  8
DEFPOINTS
 62
     0
 48
50.0
100
AcDbPoint
 10
7113.600000000001
 20
8942.610661598834
 30
0.0
  0
ENDBLK
  5
229D4
330
229C8
100
AcDbEntity
  8
0
 48
50.0
100
AcDbBlockEnd
  0
BLOCK
  5
229E0
330
229D5
100
AcDbEntity
  8
0
 48
50.0
100
AcDbBlockBegin
  2
*D23
 70
     1
 10
0.0
 20
0.0
 30
0.0
  3
*D23
  1

  0
LINE
  5
22EF9
330
229D5
100
AcDbEntity
  8
寸法
 62
     0
 48
50.0
370
    -2
100
AcDbLine
 10
7236.6
 20
7913.907777930204
 30
0.0
 11
7236.6
 21
8790.149966081996
 31
0.0
  0
LINE
  5
22EFA
330
229D5
100
AcDbEntity
  8
寸法
 62
     0
 48
50.0
370
    -2
100
AcDbLine
 10
7113.600000000001
 20
7986.907777930205
 30
0.0
 11
7113.600000000001
 21
8790.149966081996
 31
0.0
  0
LINE
  5
22EFB
330
229D5
100
AcDbEntity
  8
寸法
 62
     0
 48
50.0
370
    -2
100
AcDbLine
 10
7236.6
 20
8730.149966081995
 30
0.0
 11
7113.600000000001
 21
8730.149966081995
 31
0.0
  0
LINE
  5
22EFC
330
229D5
100
AcDbEntity
  8
寸法
 62
     0
 48
50.0
370
    -2
100
AcDbLine
 10
7113.600000000001
 20
8730.149966081995
 30
0.0
 11
6702.008116907963
 21
8730.149966081995
 31
0.0
  0
INSERT
  5
22EFD
330
229D5
100
AcDbEntity
  8
寸法
 62
     0
 48
50.0
370
    -2
100
AcDbBlockReference
  2
_DOTSMALL
 10
7236.6
 20
8730.149966081995
 30
0.0
 41
100.0
 42
100.0
 43
100.0
  0
INSERT
  5
22EFE
330
229D5
100
AcDbEntity
  8
寸法
 62
     0
 48
50.0
370
    -2
100
AcDbBlockReference
  2
_DOTSMALL
 10
7113.600000000001
 20
8730.149966081995
 30
0.0
 41
100.0
 42
100.0
 43
100.0
 50
180.0
  0
MTEXT
  5
22EFF
330
229D5
100
AcDbEntity
  8
寸法
 62
     7
 48
50.0
100
AcDbMText
 10
6840.493398282203
 20
8830.161777105617
 30
0.0
 40
120.0
 41
0.0
 71
     5
 72
     1
  1
\A1;123
  7
STYLE1
 73
     1
 44
1.0
1001
ACAD
1000
MTEXTBEGIN
1070
    73
1070
     1
1070
    44
1040
1.0
1070
    74
1070
     0
1000
MTEXTEND
  0
POINT
  5
22F00
330
229D5
100
AcDbEntity
  8
DEFPOINTS
 62
     0
 48
50.0
100
AcDbPoint
 10
7236.6
 20
7893.907777930204
 30
0.0
  0
POINT
  5
22F01
330
229D5
100
AcDbEntity
  8
DEFPOINTS
 62
     0
 48
50.0
100
AcDbPoint
 10
7113.600000000001
 20
7966.907777930204
 30
0.0
  0
POINT
  5
22F02
330
229D5
100
AcDbEntity
  8
DEFPOINTS
 62
     0
 48
50.0
100
AcDbPoint
 10
7113.600000000001
 20
8730.149966081995
 30
0.0
  0
ENDBLK
  5
229E1
330
229D5
100
AcDbEntity
  8
0
 48
50.0
100
AcDbBlockEnd
  0
BLOCK
  5
229ED
330
229E2
100
AcDbEntity
  8
0
 48
50.0
100
AcDbBlockBegin
  2
*D24
 70
     1
 10
0.0
 20
0.0
 30
0.0
  3
*D24
  1

  0
LINE
  5
22EEF
330
229E2
100
AcDbEntity
  8
寸法
 62
     0
 48
50.0
370
    -2
100
AcDbLine
 10
7093.600000000001
 20
7966.907777930204
 30
0.0
 11
6117.933661824713
 21
7966.907777930206
 31
0.0
  0
LINE
  5
22EF0
330
229E2
100
AcDbEntity
  8
寸法
 62
     0
 48
50.0
370
    -2
100
AcDbLine
 10
7166.600000000001
 20
7843.907777930205
 30
0.0
 11
6117.933661824713
 21
7843.907777930207
 31
0.0
  0
LINE
  5
22EF1
330
229E2
100
AcDbEntity
  8
寸法
 62
     0
 48
50.0
370
    -2
100
AcDbLine
 10
6177.933661824713
 20
7843.907777930205
 30
0.0
 11
6177.933661824713
 21
7966.907777930204
 31
0.0
  0
LINE
  5
22EF2
330
229E2
100
AcDbEntity
  8
寸法
 62
     0
 48
50.0
370
    -2
100
AcDbLine
 10
6177.933661824713
 20
7966.907777930204
 30
0.0
 11
6177.933661824713
 21
8418.499661022238
 31
0.0
  0
INSERT
  5
22EF3
330
229E2
100
AcDbEntity
  8
寸法
 62
     0
 48
50.0
370
    -2
100
AcDbBlockReference
  2
_DOTSMALL
 10
6177.933661824713
 20
7843.907777930205
 30
0.0
 41
100.0
 42
100.0
 43
100.0
 50
270.0
  0
INSERT
  5
22EF4
330
229E2
100
AcDbEntity
  8
寸法
 62
     0
 48
50.0
370
    -2
100
AcDbBlockReference
  2
_DOTSMALL
 10
6177.933661824713
 20
7966.907777930204
 30
0.0
 41
100.0
 42
100.0
 43
100.0
 50
90.0
  0
MTEXT
  5
22EF5
330
229E2
100
AcDbEntity
  8
寸法
 62
     7
 48
50.0
100
AcDbMText
 10
6077.92185080109
 20
8280.014379648003
 30
0.0
 40
120.0
 41
0.0
 71
     5
 72
     1
  1
\A1;123
  7
STYLE1
 11
0.0000000000000001
 21
1.0
 31
0.0
 73
     1
 44
1.0
1001
ACAD
1000
MTEXTBEGIN
1070
    73
1070
     1
1070
    44
1040
1.0
1070
    74
1070
     0
1000
MTEXTEND
  0
POINT
  5
22EF6
330
229E2
100
AcDbEntity
  8
DEFPOINTS
 62
     0
 48
50.0
100
AcDbPoint
 10
7113.600000000001
 20
7966.907777930204
 30
0.0
  0
POINT
  5
22EF7
330
229E2
100
AcDbEntity
  8
DEFPOINTS
 62
     0
 48
50.0
100
AcDbPoint
 10
7186.6
 20
7843.907777930205
 30
0.0
  0
POINT
  5
22EF8
330
229E2
100
AcDbEntity
  8
DEFPOINTS
 62
     0
 48
50.0
100
AcDbPoint
 10
6177.933661824713
 20
7843.907777930205
 30
0.0
  0
ENDBLK
  5
229EE
330
229E2
100
AcDbEntity
  8
0
 48
50.0
100
AcDbBlockEnd
  0
BLOCK
  5
229F8
330
229EF
100
AcDbEntity
  8
0
 48
50.0
100
AcDbBlockBegin
  2
*D25
 70
     1
 10
0.0
 20
0.0
 30
0.0
  3
*D25
  1

  0
LINE
  5
22EE6
330
229EF
100
AcDbEntity
  8
寸法
 62
     0
 48
50.0
370
    -2
100
AcDbLine
 10
7113.600000000001
 20
7986.907777930205
 30
0.0
 11
7113.600000000001
 21
9002.610661598835
 31
0.0
  0
LINE
  5
22EE7
330
229EF
100
AcDbEntity
  8
寸法
 62
     0
 48
50.0
370
    -2
100
AcDbLine
 10
9333.6
 20
7986.907777930205
 30
0.0
 11
9333.6
 21
9002.610661598835
 31
0.0
  0
LINE
  5
22EE8
330
229EF
100
AcDbEntity
  8
寸法
 62
     0
 48
50.0
370
    -2
100
AcDbLine
 10
7113.600000000001
 20
8942.610661598834
 30
0.0
 11
9333.6
 21
8942.610661598834
 31
0.0
  0
INSERT
  5
22EE9
330
229EF
100
AcDbEntity
  8
寸法
 62
     0
 48
50.0
370
    -2
100
AcDbBlockReference
  2
_DOTSMALL
 10
7113.600000000001
 20
8942.610661598834
 30
0.0
 41
100.0
 42
100.0
 43
100.0
 50
180.0
  0
INSERT
  5
22EEA
330
229EF
100
AcDbEntity
  8
寸法
 62
     0
 48
50.0
370
    -2
100
AcDbBlockReference
  2
_DOTSMALL
 10
9333.6
 20
8942.610661598834
 30
0.0
 41
100.0
 42
100.0
 43
100.0
  0
MTEXT
  5
22EEB
330
229EF
100
AcDbEntity
  8
寸法
 62
     7
 48
50.0
100
AcDbMText
 10
8223.600000000001
 20
9042.622472622456
 30
0.0
 40
120.0
 41
0.0
 71
     5
 72
     1
  1
\A1;2220
  7
STYLE1
 73
     1
 44
1.0
1001
ACAD
1000
MTEXTBEGIN
1070
    73
1070
     1
1070
    44
1040
1.0
1070
    74
1070
     0
1000
MTEXTEND
  0
POINT
  5
22EEC
330
229EF
100
AcDbEntity
  8
DEFPOINTS
 62
     0
 48
50.0
100
AcDbPoint
 10
7113.600000000001
 20
7966.907777930204
 30
0.0
  0
POINT
  5
22EED
330
229EF
100
AcDbEntity
  8
DEFPOINTS
 62
     0
 48
50.0
100
AcDbPoint
 10
9333.6
 20
7966.907777930204
 30
0.0
  0
POINT
  5
22EEE
330
229EF
100
AcDbEntity
  8
DEFPOINTS
 62
     0
 48
50.0
100
AcDbPoint
 10
9333.6
 20
8942.610661598834
 30
0.0
  0
ENDBLK
  5
229F9
330
229EF
100
AcDbEntity
  8
0
 48
50.0
100
AcDbBlockEnd
  0
BLOCK
  5
22A03
330
229FA
100
AcDbEntity
  8
0
 48
50.0
100
AcDbBlockBegin
  2
*D26
 70
     1
 10
0.0
 20
0.0
 30
0.0
  3
*D26
  1

  0
LINE
  5
22EDD
330
229FA
100
AcDbEntity
  8
寸法
 62
     0
 48
50.0
370
    -2
100
AcDbLine
 10
9210.600000000001
 20
7913.907777930204
 30
0.0
 11
9210.600000000001
 21
8790.149966081996
 31
0.0
  0
LINE
  5
22EDE
330
229FA
100
AcDbEntity
  8
寸法
 62
     0
 48
50.0
370
    -2
100
AcDbLine
 10
7236.6
 20
7913.907777930204
 30
0.0
 11
7236.6
 21
8790.149966081996
 31
0.0
  0
LINE
  5
22EDF
330
229FA
100
AcDbEntity
  8
寸法
 62
     0
 48
50.0
370
    -2
100
AcDbLine
 10
9210.600000000001
 20
8730.149966081995
 30
0.0
 11
7236.6
 21
8730.149966081995
 31
0.0
  0
INSERT
  5
22EE0
330
229FA
100
AcDbEntity
  8
寸法
 62
     0
 48
50.0
370
    -2
100
AcDbBlockReference
  2
_DOTSMALL
 10
9210.600000000001
 20
8730.149966081995
 30
0.0
 41
100.0
 42
100.0
 43
100.0
  0
INSERT
  5
22EE1
330
229FA
100
AcDbEntity
  8
寸法
 62
     0
 48
50.0
370
    -2
100
AcDbBlockReference
  2
_DOTSMALL
 10
7236.6
 20
8730.149966081995
 30
0.0
 41
100.0
 42
100.0
 43
100.0
 50
180.0
  0
MTEXT
  5
22EE2
330
229FA
100
AcDbEntity
  8
寸法
 62
     7
 48
50.0
100
AcDbMText
 10
8223.600000000001
 20
8830.149966081995
 30
0.0
 40
120.0
 41
0.0
 71
     5
 72
     1
  1
\A1;1974
  7
STYLE1
 73
     1
 44
1.0
1001
ACAD
1000
MTEXTBEGIN
1070
    73
1070
     1
1070
    44
1040
1.0
1070
    74
1070
     0
1000
MTEXTEND
  0
POINT
  5
22EE3
330
229FA
100
AcDbEntity
  8
DEFPOINTS
 62
     0
 48
50.0
100
AcDbPoint
 10
9210.600000000001
 20
7893.907777930204
 30
0.0
  0
POINT
  5
22EE4
330
229FA
100
AcDbEntity
  8
DEFPOINTS
 62
     0
 48
50.0
100
AcDbPoint
 10
7236.6
 20
7893.907777930204
 30
0.0
  0
POINT
  5
22EE5
330
229FA
100
AcDbEntity
  8
DEFPOINTS
 62
     0
 48
50.0
100
AcDbPoint
 10
7236.6
 20
8730.149966081995
 30
0.0
  0
ENDBLK
  5
22A04
330
229FA
100
AcDbEntity
  8
0
 48
50.0
100
AcDbBlockEnd
  0
BLOCK
  5
22A18
330
22A10
100
AcDbEntity
  8
0
 48
50.0
100
AcDbBlockBegin
  2
*D27
 70
     1
 10
0.0
 20
0.0
 30
0.0
  3
*D27
  1

  0
LINE
  5
22F59
330
22A10
100
AcDbEntity
  8
寸法
 62
     0
 48
50.0
370
    -2
100
AcDbLine
 10
6157.933661824714
 20
5671.907777930205
 30
0.0
 11
5872.440859686746
 21
5671.907777930206
 31
0.0
  0
LINE
  5
22F5A
330
22A10
100
AcDbEntity
  8
寸法
 62
     0
 48
50.0
370
    -2
100
AcDbLine
 10
7093.600000000001
 20
5746.907777930205
 30
0.0
 11
5872.440859686746
 21
5746.907777930206
 31
0.0
  0
LINE
  5
22F5B
330
22A10
100
AcDbEntity
  8
寸法
 62
     0
 48
50.0
370
    -2
100
AcDbLine
 10
5932.440859686746
 20
5671.907777930206
 30
0.0
 11
5932.440859686746
 21
5571.907777930206
 31
0.0
  0
LINE
  5
22F5C
330
22A10
100
AcDbEntity
  8
寸法
 62
     0
 48
50.0
370
    -2
100
AcDbLine
 10
5932.440859686746
 20
5746.907777930206
 30
0.0
 11
5932.440859686746
 21
5846.907777930206
 31
0.0
  0
LINE
  5
22F5D
330
22A10
100
AcDbEntity
  8
寸法
 62
     0
 48
50.0
370
    -2
100
AcDbLine
 10
5932.440859686746
 20
5671.907777930206
 30
0.0
 11
5932.440859686746
 21
5746.907777930206
 31
0.0
  0
INSERT
  5
22F5E
330
22A10
100
AcDbEntity
  8
寸法
 62
     0
 48
50.0
370
    -2
100
AcDbBlockReference
  2
_DOTSMALL
 10
5932.440859686746
 20
5671.907777930206
 30
0.0
 41
100.0
 42
100.0
 43
100.0
 50
90.0
  0
INSERT
  5
22F5F
330
22A10
100
AcDbEntity
  8
寸法
 62
     0
 48
50.0
370
    -2
100
AcDbBlockReference
  2
_DOTSMALL
 10
5932.440859686746
 20
5746.907777930206
 30
0.0
 41
100.0
 42
100.0
 43
100.0
 50
270.0
  0
MTEXT
  5
22F60
330
22A10
100
AcDbEntity
  8
寸法
 62
     7
 48
50.0
100
AcDbMText
 10
5832.440859686744
 20
5709.407777930207
 30
0.0
 40
120.0
 41
0.0
 71
     5
 72
     1
  1
\A1;c
  7
STYLE1
 11
0.0000000000000001
 21
1.0
 31
0.0
 73
     1
 44
1.0
1001
ACAD
1000
MTEXTBEGIN
1070
    73
1070
     1
1070
    44
1040
1.0
1070
    74
1070
     0
1000
MTEXTEND
  0
POINT
  5
22F61
330
22A10
100
AcDbEntity
  8
DEFPOINTS
 62
     0
 48
50.0
100
AcDbPoint
 10
6177.933661824713
 20
5671.907777930205
 30
0.0
  0
POINT
  5
22F62
330
22A10
100
AcDbEntity
  8
DEFPOINTS
 62
     0
 48
50.0
100
AcDbPoint
 10
7113.600000000001
 20
5746.907777930205
 30
0.0
  0
POINT
  5
22F63
330
22A10
100
AcDbEntity
  8
DEFPOINTS
 62
     0
 48
50.0
100
AcDbPoint
 10
5932.440859686746
 20
5746.907777930206
 30
0.0
  0
ENDBLK
  5
22A19
330
22A10
100
AcDbEntity
  8
0
 48
50.0
100
AcDbBlockEnd
  0
BLOCK
  5
22A24
330
22A1A
100
AcDbEntity
  8
0
 48
50.0
100
AcDbBlockBegin
  2
*D28
 70
     1
 10
0.0
 20
0.0
 30
0.0
  3
*D28
  1

  0
LINE
  5
22F6F
330
22A1A
100
AcDbEntity
  8
寸法
 62
     0
 48
50.0
370
    -2
100
AcDbLine
 10
7093.600000000001
 20
7966.907777930204
 30
0.0
 11
5872.440859686746
 21
7966.907777930206
 31
0.0
  0
LINE
  5
22F70
330
22A1A
100
AcDbEntity
  8
寸法
 62
     0
 48
50.0
370
    -2
100
AcDbLine
 10
6157.933661824714
 20
8021.907777930204
 30
0.0
 11
5872.440859686746
 21
8021.907777930206
 31
0.0
  0
LINE
  5
22F71
330
22A1A
100
AcDbEntity
  8
寸法
 62
     0
 48
50.0
370
    -2
100
AcDbLine
 10
5932.440859686746
 20
7966.907777930206
 30
0.0
 11
5932.440859686746
 21
7866.907777930205
 31
0.0
  0
LINE
  5
22F72
330
22A1A
100
AcDbEntity
  8
寸法
 62
     0
 48
50.0
370
    -2
100
AcDbLine
 10
5932.440859686746
 20
8021.907777930206
 30
0.0
 11
5932.440859686746
 21
8121.907777930205
 31
0.0
  0
LINE
  5
22F73
330
22A1A
100
AcDbEntity
  8
寸法
 62
     0
 48
50.0
370
    -2
100
AcDbLine
 10
5932.440859686746
 20
7966.907777930206
 30
0.0
 11
5932.440859686746
 21
8021.907777930206
 31
0.0
  0
INSERT
  5
22F74
330
22A1A
100
AcDbEntity
  8
寸法
 62
     0
 48
50.0
370
    -2
100
AcDbBlockReference
  2
_DOTSMALL
 10
5932.440859686746
 20
7966.907777930206
 30
0.0
 41
100.0
 42
100.0
 43
100.0
 50
90.0
  0
INSERT
  5
22F75
330
22A1A
100
AcDbEntity
  8
寸法
 62
     0
 48
50.0
370
    -2
100
AcDbBlockReference
  2
_DOTSMALL
 10
5932.440859686746
 20
8021.907777930206
 30
0.0
 41
100.0
 42
100.0
 43
100.0
 50
270.0
  0
MTEXT
  5
22F76
330
22A1A
100
AcDbEntity
  8
寸法
 62
     7
 48
50.0
100
AcDbMText
 10
5832.440859686744
 20
7994.407777930206
 30
0.0
 40
120.0
 41
0.0
 71
     5
 72
     1
  1
\A1;b
  7
STYLE1
 11
0.0000000000000001
 21
1.0
 31
0.0
 73
     1
 44
1.0
1001
ACAD
1000
MTEXTBEGIN
1070
    73
1070
     1
1070
    44
1040
1.0
1070
    74
1070
     0
1000
MTEXTEND
  0
POINT
  5
22F77
330
22A1A
100
AcDbEntity
  8
DEFPOINTS
 62
     0
 48
50.0
100
AcDbPoint
 10
7113.600000000001
 20
7966.907777930204
 30
0.0
  0
POINT
  5
22F78
330
22A1A
100
AcDbEntity
  8
DEFPOINTS
 62
     0
 48
50.0
100
AcDbPoint
 10
6177.933661824713
 20
8021.907777930204
 30
0.0
  0
POINT
  5
22F79
330
22A1A
100
AcDbEntity
  8
DEFPOINTS
 62
     0
 48
50.0
100
AcDbPoint
 10
5932.440859686746
 20
8021.907777930206
 30
0.0
  0
ENDBLK
  5
22A25
330
22A1A
100
AcDbEntity
  8
0
 48
50.0
100
AcDbBlockEnd
  0
BLOCK
  5
22A2F
330
22A26
100
AcDbEntity
  8
0
 48
50.0
100
AcDbBlockBegin
  2
*D29
 70
     1
 10
0.0
 20
0.0
 30
0.0
  3
*D29
  1

  0
LINE
  5
22EB7
330
22A26
100
AcDbEntity
  8
寸法
 62
     0
 48
50.0
370
    -2
100
AcDbLine
 10
7093.600000000001
 20
5746.907777930205
 30
0.0
 11
5872.440859686744
 21
5746.907777930206
 31
0.0
  0
LINE
  5
22EB8
330
22A26
100
AcDbEntity
  8
寸法
 62
     0
 48
50.0
370
    -2
100
AcDbLine
 10
7093.600000000001
 20
7966.907777930204
 30
0.0
 11
5872.440859686745
 21
7966.907777930206
 31
0.0
  0
LINE
  5
22EB9
330
22A26
100
AcDbEntity
  8
寸法
 62
     0
 48
50.0
370
    -2
100
AcDbLine
 10
5932.440859686744
 20
5746.907777930206
 30
0.0
 11
5932.440859686745
 21
7966.907777930206
 31
0.0
  0
INSERT
  5
22EBA
330
22A26
100
AcDbEntity
  8
寸法
 62
     0
 48
50.0
370
    -2
100
AcDbBlockReference
  2
_DOTSMALL
 10
5932.440859686744
 20
5746.907777930206
 30
0.0
 41
100.0
 42
100.0
 43
100.0
 50
270.0
  0
INSERT
  5
22EBB
330
22A26
100
AcDbEntity
  8
寸法
 62
     0
 48
50.0
370
    -2
100
AcDbBlockReference
  2
_DOTSMALL
 10
5932.440859686745
 20
7966.907777930206
 30
0.0
 41
100.0
 42
100.0
 43
100.0
 50
90.0
  0
MTEXT
  5
22EBC
330
22A26
100
AcDbEntity
  8
寸法
 62
     7
 48
50.0
100
AcDbMText
 10
5832.429048663122
 20
6802.186058939198
 30
0.0
 40
120.0
 41
0.0
 71
     5
 72
     1
  1
\A1;2220
  7
STYLE1
 11
0.0000000000000001
 21
1.0
 31
0.0
 73
     1
 44
1.0
1001
ACAD
1000
MTEXTBEGIN
1070
    73
1070
     1
1070
    44
1040
1.0
1070
    74
1070
     0
1000
MTEXTEND
  0
POINT
  5
22EBD
330
22A26
100
AcDbEntity
  8
DEFPOINTS
 62
     0
 48
50.0
100
AcDbPoint
 10
7113.600000000001
 20
5746.907777930205
 30
0.0
  0
POINT
  5
22EBE
330
22A26
100
AcDbEntity
  8
DEFPOINTS
 62
     0
 48
50.0
100
AcDbPoint
 10
7113.600000000001
 20
7966.907777930204
 30
0.0
  0
POINT
  5
22EBF
330
22A26
100
AcDbEntity
  8
DEFPOINTS
 62
     0
 48
50.0
100
AcDbPoint
 10
5932.440859686745
 20
7966.907777930206
 30
0.0
  0
ENDBLK
  5
22A30
330
22A26
100
AcDbEntity
  8
0
 48
50.0
100
AcDbBlockEnd
  0
BLOCK
  5
22A3B
330
22A31
100
AcDbEntity
  8
0
 48
50.0
100
AcDbBlockBegin
  2
*D30
 70
     1
 10
0.0
 20
0.0
 30
0.0
  3
*D30
  1

  0
LINE
  5
22EAE
330
22A31
100
AcDbEntity
  8
寸法
 62
     0
 48
50.0
370
    -2
100
AcDbLine
 10
7166.600000000001
 20
7843.907777930205
 30
0.0
 11
6117.933661824714
 21
7843.907777930207
 31
0.0
  0
LINE
  5
22EAF
330
22A31
100
AcDbEntity
  8
寸法
 62
     0
 48
50.0
370
    -2
100
AcDbLine
 10
7166.600000000008
 20
5869.907777930207
 30
0.0
 11
6117.933661824713
 21
5869.907777930208
 31
0.0
  0
LINE
  5
22EB0
330
22A31
100
AcDbEntity
  8
寸法
 62
     0
 48
50.0
370
    -2
100
AcDbLine
 10
6177.933661824714
 20
7843.907777930205
 30
0.0
 11
6177.933661824713
 21
5869.907777930207
 31
0.0
  0
INSERT
  5
22EB1
330
22A31
100
AcDbEntity
  8
寸法
 62
     0
 48
50.0
370
    -2
100
AcDbBlockReference
  2
_DOTSMALL
 10
6177.933661824714
 20
7843.907777930205
 30
0.0
 41
100.0
 42
100.0
 43
100.0
 50
90.0
  0
INSERT
  5
22EB2
330
22A31
100
AcDbEntity
  8
寸法
 62
     0
 48
50.0
370
    -2
100
AcDbBlockReference
  2
_DOTSMALL
 10
6177.933661824713
 20
5869.907777930207
 30
0.0
 41
100.0
 42
100.0
 43
100.0
 50
270.0
  0
MTEXT
  5
22EB3
330
22A31
100
AcDbEntity
  8
寸法
 62
     7
 48
50.0
100
AcDbMText
 10
6077.933661824713
 20
6911.629496921213
 30
0.0
 40
120.0
 41
0.0
 71
     5
 72
     1
  1
\A1;1974
  7
STYLE1
 11
0.0000000000000001
 21
1.0
 31
0.0
 73
     1
 44
1.0
1001
ACAD
1000
MTEXTBEGIN
1070
    73
1070
     1
1070
    44
1040
1.0
1070
    74
1070
     0
1000
MTEXTEND
  0
POINT
  5
22EB4
330
22A31
100
AcDbEntity
  8
DEFPOINTS
 62
     0
 48
50.0
100
AcDbPoint
 10
7186.6
 20
7843.907777930205
 30
0.0
  0
POINT
  5
22EB5
330
22A31
100
AcDbEntity
  8
DEFPOINTS
 62
     0
 48
50.0
100
AcDbPoint
 10
7186.600000000009
 20
5869.907777930207
 30
0.0
  0
POINT
  5
22EB6
330
22A31
100
AcDbEntity
  8
DEFPOINTS
 62
     0
 48
50.0
100
AcDbPoint
 10
6177.933661824713
 20
5869.907777930207
 30
0.0
  0
ENDBLK
  5
22A3C
330
22A31
100
AcDbEntity
  8
0
 48
50.0
100
AcDbBlockEnd
  0
BLOCK
  5
22A48
330
22A3D
100
AcDbEntity
  8
0
 48
50.0
100
AcDbBlockBegin
  2
*D31
 70
     1
 10
0.0
 20
0.0
 30
0.0
  3
*D31
  1

  0
LINE
  5
22EA4
330
22A3D
100
AcDbEntity
  8
寸法
 62
     0
 48
50.0
370
    -2
100
AcDbLine
 10
7166.600000000008
 20
5869.907777930207
 30
0.0
 11
6117.933661824713
 21
5869.907777930208
 31
0.0
  0
LINE
  5
22EA5
330
22A3D
100
AcDbEntity
  8
寸法
 62
     0
 48
50.0
370
    -2
100
AcDbLine
 10
7093.600000000001
 20
5746.907777930205
 30
0.0
 11
6117.933661824713
 21
5746.907777930206
 31
0.0
  0
LINE
  5
22EA6
330
22A3D
100
AcDbEntity
  8
寸法
 62
     0
 48
50.0
370
    -2
100
AcDbLine
 10
6177.933661824713
 20
5869.907777930207
 30
0.0
 11
6177.933661824713
 21
5746.907777930205
 31
0.0
  0
LINE
  5
22EA7
330
22A3D
100
AcDbEntity
  8
寸法
 62
     0
 48
50.0
370
    -2
100
AcDbLine
 10
6177.933661824713
 20
5746.907777930205
 30
0.0
 11
6177.933661824713
 21
5335.315894838166
 31
0.0
  0
INSERT
  5
22EA8
330
22A3D
100
AcDbEntity
  8
寸法
 62
     0
 48
50.0
370
    -2
100
AcDbBlockReference
  2
_DOTSMALL
 10
6177.933661824713
 20
5869.907777930207
 30
0.0
 41
100.0
 42
100.0
 43
100.0
 50
90.0
  0
INSERT
  5
22EA9
330
22A3D
100
AcDbEntity
  8
寸法
 62
     0
 48
50.0
370
    -2
100
AcDbBlockReference
  2
_DOTSMALL
 10
6177.933661824713
 20
5746.907777930205
 30
0.0
 41
100.0
 42
100.0
 43
100.0
 50
270.0
  0
MTEXT
  5
22EAA
330
22A3D
100
AcDbEntity
  8
寸法
 62
     7
 48
50.0
100
AcDbMText
 10
6077.92185080109
 20
5473.801176212408
 30
0.0
 40
120.0
 41
0.0
 71
     5
 72
     1
  1
\A1;123
  7
STYLE1
 11
0.0000000000000001
 21
1.0
 31
0.0
 73
     1
 44
1.0
1001
ACAD
1000
MTEXTBEGIN
1070
    73
1070
     1
1070
    44
1040
1.0
1070
    74
1070
     0
1000
MTEXTEND
  0
POINT
  5
22EAB
330
22A3D
100
AcDbEntity
  8
DEFPOINTS
 62
     0
 48
50.0
100
AcDbPoint
 10
7186.600000000009
 20
5869.907777930207
 30
0.0
  0
POINT
  5
22EAC
330
22A3D
100
AcDbEntity
  8
DEFPOINTS
 62
     0
 48
50.0
100
AcDbPoint
 10
7113.600000000001
 20
5746.907777930205
 30
0.0
  0
POINT
  5
22EAD
330
22A3D
100
AcDbEntity
  8
DEFPOINTS
 62
     0
 48
50.0
100
AcDbPoint
 10
6177.933661824713
 20
5746.907777930205
 30
0.0
  0
ENDBLK
  5
22A49
330
22A3D
100
AcDbEntity
  8
0
 48
50.0
100
AcDbBlockEnd
  0
BLOCK
  5
22A61
330
22A57
100
AcDbEntity
  8
0
 48
50.0
100
AcDbBlockBegin
  2
*D32
 70
     1
 10
0.0
 20
0.0
 30
0.0
  3
*D32
  1

  0
LINE
  5
2379B
330
22A57
100
AcDbEntity
  8
寸法
 62
     0
 48
50.0
370
    -2
100
AcDbLine
 10
7093.600000000001
 20
5746.907777930205
 30
0.0
 11
6445.246258412047
 21
5746.907777930205
 31
0.0
  0
LINE
  5
2379C
330
22A57
100
AcDbEntity
  8
寸法
 62
     0
 48
50.0
370
    -2
100
AcDbLine
 10
7757.6
 20
6481.907777930205
 30
0.0
 11
6445.246258412048
 21
6481.907777930205
 31
0.0
  0
LINE
  5
2379D
330
22A57
100
AcDbEntity
  8
寸法
 62
     0
 48
50.0
370
    -2
100
AcDbLine
 10
6505.246258412046
 20
5746.907777930205
 30
0.0
 11
6505.246258412047
 21
6481.907777930205
 31
0.0
  0
INSERT
  5
2379E
330
22A57
100
AcDbEntity
  8
寸法
 62
     0
 48
50.0
370
    -2
100
AcDbBlockReference
  2
_DOTSMALL
 10
6505.246258412046
 20
5746.907777930205
 30
0.0
 41
100.0
 42
100.0
 43
100.0
 50
270.0
  0
INSERT
  5
2379F
330
22A57
100
AcDbEntity
  8
寸法
 62
     0
 48
50.0
370
    -2
100
AcDbBlockReference
  2
_DOTSMALL
 10
6505.246258412047
 20
6481.907777930205
 30
0.0
 41
100.0
 42
100.0
 43
100.0
 50
90.0
  0
MTEXT
  5
237A0
330
22A57
100
AcDbEntity
  8
寸法
 62
     7
 48
50.0
100
AcDbMText
 10
6405.246258412046
 20
6118.916108629534
 30
0.0
 40
120.0
 41
0.0
 71
     5
 72
     1
  1
\A1;735
  7
STYLE1
 11
0.0000000000000001
 21
1.0
 31
0.0
 73
     1
 44
1.0
1001
ACAD
1000
MTEXTBEGIN
1070
    73
1070
     1
1070
    44
1040
1.0
1070
    74
1070
     0
1000
MTEXTEND
  0
POINT
  5
237A1
330
22A57
100
AcDbEntity
  8
DEFPOINTS
 62
     0
 48
50.0
100
AcDbPoint
 10
7113.600000000001
 20
5746.907777930205
 30
0.0
  0
POINT
  5
237A2
330
22A57
100
AcDbEntity
  8
DEFPOINTS
 62
     0
 48
50.0
100
AcDbPoint
 10
7777.600000000001
 20
6481.907777930205
 30
0.0
  0
POINT
  5
237A3
330
22A57
100
AcDbEntity
  8
DEFPOINTS
 62
     0
 48
50.0
100
AcDbPoint
 10
6505.246258412047
 20
6481.907777930205
 30
0.0
  0
ENDBLK
  5
22A62
330
22A57
100
AcDbEntity
  8
0
 48
50.0
100
AcDbBlockEnd
  0
BLOCK
  5
22A6E
330
22A63
100
AcDbEntity
  8
0
 48
50.0
100
AcDbBlockBegin
  2
*D33
 70
     1
 10
0.0
 20
0.0
 30
0.0
  3
*D33
  1

  0
LINE
  5
23FAF
330
22A63
100
AcDbEntity
  8
寸法
 62
     0
 48
50.0
370
    -2
100
AcDbLine
 10
7093.600000000001
 20
5671.907777930222
 30
0.0
 11
6789.574894940553
 21
5671.907777930222
 31
0.0
  0
LINE
  5
23FB0
330
22A63
100
AcDbEntity
  8
寸法
 62
     0
 48
50.0
370
    -2
100
AcDbLine
 10
6273.875927838535
 20
5746.907777930205
 30
0.0
 11
6909.574894940553
 21
5746.907777930205
 31
0.0
  0
LINE
  5
23FB1
330
22A63
100
AcDbEntity
  8
寸法
 62
     0
 48
50.0
370
    -2
100
AcDbLine
 10
6849.574894940552
 20
5746.907777930205
 30
0.0
 11
6849.574894940552
 21
5846.907777930205
 31
0.0
  0
LINE
  5
23FB2
330
22A63
100
AcDbEntity
  8
寸法
 62
     0
 48
50.0
370
    -2
100
AcDbLine
 10
6849.574894940552
 20
5671.907777930222
 30
0.0
 11
6849.574894940552
 21
4804.937215181727
 31
0.0
  0
LINE
  5
23FB3
330
22A63
100
AcDbEntity
  8
寸法
 62
     0
 48
50.0
370
    -2
100
AcDbLine
 10
6849.574894940552
 20
5746.907777930205
 30
0.0
 11
6849.574894940552
 21
5671.907777930222
 31
0.0
  0
INSERT
  5
23FB4
330
22A63
100
AcDbEntity
  8
寸法
 62
     0
 48
50.0
370
    -2
100
AcDbBlockReference
  2
_DOTSMALL
 10
6849.574894940552
 20
5746.907777930205
 30
0.0
 41
100.0
 42
100.0
 43
100.0
 50
270.0
  0
INSERT
  5
23FB5
330
22A63
100
AcDbEntity
  8
寸法
 62
     0
 48
50.0
370
    -2
100
AcDbBlockReference
  2
_DOTSMALL
 10
6849.574894940552
 20
5671.907777930222
 30
0.0
 41
100.0
 42
100.0
 43
100.0
 50
90.0
  0
MTEXT
  5
23FB6
330
22A63
100
AcDbEntity
  8
寸法
 62
     7
 48
50.0
100
AcDbMText
 10
6749.57489494055
 20
5138.422496555968
 30
0.0
 40
120.0
 41
0.0
 71
     5
 72
     1
  1
\A1;扉の出75
  7
STYLE1
 11
0.0000000000000001
 21
1.0
 31
0.0
 73
     1
 44
1.0
1001
ACAD
1000
MTEXTBEGIN
1070
    73
1070
     1
1070
    44
1040
1.0
1070
    74
1070
     0
1000
MTEXTEND
  0
POINT
  5
23FB7
330
22A63
100
AcDbEntity
  8
DEFPOINTS
 62
     0
 48
50.0
100
AcDbPoint
 10
7113.600000000001
 20
5671.907777930222
 30
0.0
  0
POINT
  5
23FB8
330
22A63
100
AcDbEntity
  8
DEFPOINTS
 62
     0
 48
50.0
100
AcDbPoint
 10
6253.875927838535
 20
5746.907777930205
 30
0.0
  0
POINT
  5
23FB9
330
22A63
100
AcDbEntity
  8
DEFPOINTS
 62
     0
 48
50.0
100
AcDbPoint
 10
6849.574894940552
 20
5746.907777930205
 30
0.0
  0
ENDBLK
  5
22A6F
330
22A63
100
AcDbEntity
  8
0
 48
50.0
100
AcDbBlockEnd
  0
BLOCK
  5
22A87
330
22A7D
100
AcDbEntity
  8
0
 48
50.0
100
AcDbBlockBegin
  2
*D34
 70
     1
 10
0.0
 20
0.0
 30
0.0
  3
*D34
  1

  0
LINE
  5
23792
330
22A7D
100
AcDbEntity
  8
寸法
 62
     0
 48
50.0
370
    -2
100
AcDbLine
 10
7757.6
 20
7231.907777930202
 30
0.0
 11
6445.217725433258
 21
7231.907777930202
 31
0.0
  0
LINE
  5
23793
330
22A7D
100
AcDbEntity
  8
寸法
 62
     0
 48
50.0
370
    -2
100
AcDbLine
 10
7757.6
 20
6481.907777930205
 30
0.0
 11
6445.217725433258
 21
6481.907777930205
 31
0.0
  0
LINE
  5
23794
330
22A7D
100
AcDbEntity
  8
寸法
 62
     0
 48
50.0
370
    -2
100
AcDbLine
 10
6505.217725433258
 20
7231.907777930202
 30
0.0
 11
6505.217725433258
 21
6481.907777930205
 31
0.0
  0
INSERT
  5
23795
330
22A7D
100
AcDbEntity
  8
寸法
 62
     0
 48
50.0
370
    -2
100
AcDbBlockReference
  2
_DOTSMALL
 10
6505.217725433258
 20
7231.907777930202
 30
0.0
 41
100.0
 42
100.0
 43
100.0
 50
90.0
  0
INSERT
  5
23796
330
22A7D
100
AcDbEntity
  8
寸法
 62
     0
 48
50.0
370
    -2
100
AcDbBlockReference
  2
_DOTSMALL
 10
6505.217725433258
 20
6481.907777930205
 30
0.0
 41
100.0
 42
100.0
 43
100.0
 50
270.0
  0
MTEXT
  5
23797
330
22A7D
100
AcDbEntity
  8
寸法
 62
     7
 48
50.0
100
AcDbMText
 10
6405.217725433256
 20
6856.907777930207
 30
0.0
 40
120.0
 41
0.0
 71
     5
 72
     1
  1
\A1;750
  7
STYLE1
 11
0.0000000000000001
 21
1.0
 31
0.0
 73
     1
 44
1.0
1001
ACAD
1000
MTEXTBEGIN
1070
    73
1070
     1
1070
    44
1040
1.0
1070
    74
1070
     0
1000
MTEXTEND
  0
POINT
  5
23798
330
22A7D
100
AcDbEntity
  8
DEFPOINTS
 62
     0
 48
50.0
100
AcDbPoint
 10
7777.600000000001
 20
7231.907777930202
 30
0.0
  0
POINT
  5
23799
330
22A7D
100
AcDbEntity
  8
DEFPOINTS
 62
     0
 48
50.0
100
AcDbPoint
 10
7777.600000000001
 20
6481.907777930205
 30
0.0
  0
POINT
  5
2379A
330
22A7D
100
AcDbEntity
  8
DEFPOINTS
 62
     0
 48
50.0
100
AcDbPoint
 10
6505.217725433258
 20
6481.907777930205
 30
0.0
  0
ENDBLK
  5
22A88
330
22A7D
100
AcDbEntity
  8
0
 48
50.0
100
AcDbBlockEnd
  0
BLOCK
  5
22A92
330
22A89
100
AcDbEntity
  8
0
 48
50.0
100
AcDbBlockBegin
  2
*D35
 70
     1
 10
0.0
 20
0.0
 30
0.0
  3
*D35
  1

  0
LINE
  5
23780
330
22A89
100
AcDbEntity
  8
寸法
 62
     0
 48
50.0
370
    -2
100
AcDbLine
 10
7757.6
 20
7231.907777930202
 30
0.0
 11
6445.217725433258
 21
7231.907777930202
 31
0.0
  0
LINE
  5
23781
330
22A89
100
AcDbEntity
  8
寸法
 62
     0
 48
50.0
370
    -2
100
AcDbLine
 10
7093.600000000001
 20
7966.907777930204
 30
0.0
 11
6445.217725433258
 21
7966.907777930204
 31
0.0
  0
LINE
  5
23782
330
22A89
100
AcDbEntity
  8
寸法
 62
     0
 48
50.0
370
    -2
100
AcDbLine
 10
6505.217725433258
 20
7231.907777930202
 30
0.0
 11
6505.217725433258
 21
7966.907777930204
 31
0.0
  0
INSERT
  5
23783
330
22A89
100
AcDbEntity
  8
寸法
 62
     0
 48
50.0
370
    -2
100
AcDbBlockReference
  2
_DOTSMALL
 10
6505.217725433258
 20
7231.907777930202
 30
0.0
 41
100.0
 42
100.0
 43
100.0
 50
270.0
  0
INSERT
  5
23784
330
22A89
100
AcDbEntity
  8
寸法
 62
     0
 48
50.0
370
    -2
100
AcDbBlockReference
  2
_DOTSMALL
 10
6505.217725433258
 20
7966.907777930204
 30
0.0
 41
100.0
 42
100.0
 43
100.0
 50
90.0
  0
MTEXT
  5
23785
330
22A89
100
AcDbEntity
  8
寸法
 62
     7
 48
50.0
100
AcDbMText
 10
6405.217725433257
 20
7599.407777930206
 30
0.0
 40
120.0
 41
0.0
 71
     5
 72
     1
  1
\A1;735
  7
STYLE1
 11
0.0000000000000001
 21
1.0
 31
0.0
 73
     1
 44
1.0
1001
ACAD
1000
MTEXTBEGIN
1070
    73
1070
     1
1070
    44
1040
1.0
1070
    74
1070
     0
1000
MTEXTEND
  0
POINT
  5
23786
330
22A89
100
AcDbEntity
  8
DEFPOINTS
 62
     0
 48
50.0
100
AcDbPoint
 10
7777.600000000001
 20
7231.907777930202
 30
0.0
  0
POINT
  5
23787
330
22A89
100
AcDbEntity
  8
DEFPOINTS
 62
     0
 48
50.0
100
AcDbPoint
 10
7113.600000000001
 20
7966.907777930204
 30
0.0
  0
POINT
  5
23788
330
22A89
100
AcDbEntity
  8
DEFPOINTS
 62
     0
 48
50.0
100
AcDbPoint
 10
6505.217725433258
 20
7966.907777930204
 30
0.0
  0
ENDBLK
  5
22A93
330
22A89
100
AcDbEntity
  8
0
 48
50.0
100
AcDbBlockEnd
  0
BLOCK
  5
22A9F
330
22A94
100
AcDbEntity
  8
0
 48
50.0
100
AcDbBlockBegin
  2
*D36
 70
     1
 10
0.0
 20
0.0
 30
0.0
  3
*D36
  1

  0
LINE
  5
24063
330
22A94
100
AcDbEntity
  8
寸法
 62
     0
 48
50.0
370
    -2
100
AcDbLine
 10
9213.600000000001
 20
7504.698220872943
 30
0.0
 11
9213.600000000001
 21
7447.704956834113
 31
0.0
  0
LINE
  5
24064
330
22A94
100
AcDbEntity
  8
寸法
 62
     0
 48
50.0
370
    -2
100
AcDbLine
 10
9103.6
 20
7716.907777930202
 30
0.0
 11
9103.6
 21
7447.704956834113
 31
0.0
  0
LINE
  5
24065
330
22A94
100
AcDbEntity
  8
寸法
 62
     0
 48
50.0
370
    -2
100
AcDbLine
 10
9213.600000000001
 20
7507.704956834112
 30
0.0
 11
9103.6
 21
7507.704956834112
 31
0.0
  0
LINE
  5
24066
330
22A94
100
AcDbEntity
  8
寸法
 62
     0
 48
50.0
370
    -2
100
AcDbLine
 10
9103.6
 20
7507.704956834112
 30
0.0
 11
8709.493700787401
 21
7507.704956834112
 31
0.0
  0
INSERT
  5
24067
330
22A94
100
AcDbEntity
  8
寸法
 62
     0
 48
50.0
370
    -2
100
AcDbBlockReference
  2
_DOTSMALL
 10
9213.600000000001
 20
7507.704956834112
 30
0.0
 41
100.0
 42
100.0
 43
100.0
  0
INSERT
  5
24068
330
22A94
100
AcDbEntity
  8
寸法
 62
     0
 48
50.0
370
    -2
100
AcDbBlockReference
  2
_DOTSMALL
 10
9103.6
 20
7507.704956834112
 30
0.0
 41
100.0
 42
100.0
 43
100.0
 50
180.0
  0
MTEXT
  5
24069
330
22A94
100
AcDbEntity
  8
寸法
 62
     7
 48
50.0
100
AcDbMText
 10
8833.540944881891
 20
7607.704956834112
 30
0.0
 40
120.0
 41
0.0
 71
     5
 72
     1
  1
\A1;110
  7
STYLE1
 73
     1
 44
1.0
1001
ACAD
1000
MTEXTBEGIN
1070
    73
1070
     1
1070
    44
1040
1.0
1070
    74
1070
     0
1000
MTEXTEND
  0
POINT
  5
2406A
330
22A94
100
AcDbEntity
  8
DEFPOINTS
 62
     0
 48
50.0
100
AcDbPoint
 10
9213.600000000001
 20
7524.698220872942
 30
0.0
  0
POINT
  5
2406B
330
22A94
100
AcDbEntity
  8
DEFPOINTS
 62
     0
 48
50.0
100
AcDbPoint
 10
9103.6
 20
7736.907777930203
 30
0.0
  0
POINT
  5
2406C
330
22A94
100
AcDbEntity
  8
DEFPOINTS
 62
     0
 48
50.0
100
AcDbPoint
 10
9103.6
 20
7507.704956834112
 30
0.0
  0
ENDBLK
  5
22AA0
330
22A94
100
AcDbEntity
  8
0
 48
50.0
100
AcDbBlockEnd
  0
BLOCK
  5
23590
330
23586
100
AcDbEntity
  8
0
 48
50.0
100
AcDbBlockBegin
  2
*D37
 70
     1
 10
0.0
 20
0.0
 30
0.0
  3
*D37
  1

  0
LINE
  5
23777
330
23586
100
AcDbEntity
  8
寸法
 62
     0
 48
50.0
370
    -2
100
AcDbLine
 10
7877.6
 20
7301.907777930202
 30
0.0
 11
7877.6
 21
8553.817543578531
 31
0.0
  0
LINE
  5
23778
330
23586
100
AcDbEntity
  8
寸法
 62
     0
 48
50.0
370
    -2
100
AcDbLine
 10
8569.600000000001
 20
7301.907777930202
 30
0.0
 11
8569.600000000001
 21
8553.817543578531
 31
0.0
  0
LINE
  5
23779
330
23586
100
AcDbEntity
  8
寸法
 62
     0
 48
50.0
370
    -2
100
AcDbLine
 10
7877.6
 20
8493.817543578533
 30
0.0
 11
8569.600000000001
 21
8493.817543578533
 31
0.0
  0
INSERT
  5
2377A
330
23586
100
AcDbEntity
  8
寸法
 62
     0
 48
50.0
370
    -2
100
AcDbBlockReference
  2
_DOTSMALL
 10
7877.6
 20
8493.817543578533
 30
0.0
 41
100.0
 42
100.0
 43
100.0
 50
180.0
  0
INSERT
  5
2377B
330
23586
100
AcDbEntity
  8
寸法
 62
     0
 48
50.0
370
    -2
100
AcDbBlockReference
  2
_DOTSMALL
 10
8569.600000000001
 20
8493.817543578533
 30
0.0
 41
100.0
 42
100.0
 43
100.0
  0
MTEXT
  5
2377C
330
23586
100
AcDbEntity
  8
寸法
 62
     7
 48
50.0
100
AcDbMText
 10
8223.600000000001
 20
8593.858356143334
 30
0.0
 40
120.0
 41
0.0
 71
     5
 72
     1
  1
\A1;692
  7
STYLE1
 73
     1
 44
1.0
1001
ACAD
1000
MTEXTBEGIN
1070
    73
1070
     1
1070
    44
1040
1.0
1070
    74
1070
     0
1000
MTEXTEND
  0
POINT
  5
2377D
330
23586
100
AcDbEntity
  8
DEFPOINTS
 62
     0
 48
50.0
100
AcDbPoint
 10
7877.6
 20
7281.907777930202
 30
0.0
  0
POINT
  5
2377E
330
23586
100
AcDbEntity
  8
DEFPOINTS
 62
     0
 48
50.0
100
AcDbPoint
 10
8569.600000000001
 20
7281.907777930202
 30
0.0
  0
POINT
  5
2377F
330
23586
100
AcDbEntity
  8
DEFPOINTS
 62
     0
 48
50.0
100
AcDbPoint
 10
8569.600000000001
 20
8493.817543578533
 30
0.0
  0
ENDBLK
  5
23591
330
23586
100
AcDbEntity
  8
0
 48
50.0
100
AcDbBlockEnd
  0
BLOCK
  5
2359C
330
23592
100
AcDbEntity
  8
0
 48
50.0
100
AcDbBlockBegin
  2
*D38
 70
     1
 10
0.0
 20
0.0
 30
0.0
  3
*D38
  1

  0
LINE
  5
2376E
330
23592
100
AcDbEntity
  8
寸法
 62
     0
 48
50.0
370
    -2
100
AcDbLine
 10
7877.6
 20
7301.907777930202
 30
0.0
 11
7877.6
 21
8553.817543578531
 31
0.0
  0
LINE
  5
2376F
330
23592
100
AcDbEntity
  8
寸法
 62
     0
 48
50.0
370
    -2
100
AcDbLine
 10
7113.599999999998
 20
7986.907777930205
 30
0.0
 11
7113.599999999998
 21
8553.817543578531
 31
0.0
  0
LINE
  5
23770
330
23592
100
AcDbEntity
  8
寸法
 62
     0
 48
50.0
370
    -2
100
AcDbLine
 10
7877.6
 20
8493.817543578533
 30
0.0
 11
7113.599999999998
 21
8493.817543578533
 31
0.0
  0
INSERT
  5
23771
330
23592
100
AcDbEntity
  8
寸法
 62
     0
 48
50.0
370
    -2
100
AcDbBlockReference
  2
_DOTSMALL
 10
7877.6
 20
8493.817543578533
 30
0.0
 41
100.0
 42
100.0
 43
100.0
  0
INSERT
  5
23772
330
23592
100
AcDbEntity
  8
寸法
 62
     0
 48
50.0
370
    -2
100
AcDbBlockReference
  2
_DOTSMALL
 10
7113.599999999998
 20
8493.817543578533
 30
0.0
 41
100.0
 42
100.0
 43
100.0
 50
180.0
  0
MTEXT
  5
23773
330
23592
100
AcDbEntity
  8
寸法
 62
     7
 48
50.0
100
AcDbMText
 10
7495.599999999999
 20
8593.817543578532
 30
0.0
 40
120.0
 41
0.0
 71
     5
 72
     1
  1
\A1;764
  7
STYLE1
 73
     1
 44
1.0
1001
ACAD
1000
MTEXTBEGIN
1070
    73
1070
     1
1070
    44
1040
1.0
1070
    74
1070
     0
1000
MTEXTEND
  0
POINT
  5
23774
330
23592
100
AcDbEntity
  8
DEFPOINTS
 62
     0
 48
50.0
100
AcDbPoint
 10
7877.6
 20
7281.907777930202
 30
0.0
  0
POINT
  5
23775
330
23592
100
AcDbEntity
  8
DEFPOINTS
 62
     0
 48
50.0
100
AcDbPoint
 10
7113.599999999998
 20
7966.907777930204
 30
0.0
  0
POINT
  5
23776
330
23592
100
AcDbEntity
  8
DEFPOINTS
 62
     0
 48
50.0
100
AcDbPoint
 10
7113.599999999998
 20
8493.817543578533
 30
0.0
  0
ENDBLK
  5
2359D
330
23592
100
AcDbEntity
  8
0
 48
50.0
100
AcDbBlockEnd
  0
BLOCK
  5
235A8
330
2359E
100
AcDbEntity
  8
0
 48
50.0
100
AcDbBlockBegin
  2
*D39
 70
     1
 10
0.0
 20
0.0
 30
0.0
  3
*D39
  1

  0
LINE
  5
23765
330
2359E
100
AcDbEntity
  8
寸法
 62
     0
 48
50.0
370
    -2
100
AcDbLine
 10
9333.599999999997
 20
7986.907777930205
 30
0.0
 11
9333.599999999997
 21
8553.817543578531
 31
0.0
  0
LINE
  5
23766
330
2359E
100
AcDbEntity
  8
寸法
 62
     0
 48
50.0
370
    -2
100
AcDbLine
 10
8569.600000000001
 20
7301.907777930202
 30
0.0
 11
8569.600000000001
 21
8553.817543578531
 31
0.0
  0
LINE
  5
23767
330
2359E
100
AcDbEntity
  8
寸法
 62
     0
 48
50.0
370
    -2
100
AcDbLine
 10
9333.599999999997
 20
8493.817543578533
 30
0.0
 11
8569.600000000001
 21
8493.817543578533
 31
0.0
  0
MTEXT
  5
23768
330
2359E
100
AcDbEntity
  8
寸法
 62
     7
 48
50.0
100
AcDbMText
 10
8910.370135182452
 20
8592.079508885541
 30
0.0
 40
120.0
 41
0.0
 71
     5
 72
     1
  1
\A1;764
  7
STYLE1
 73
     1
 44
1.0
1001
ACAD
1000
MTEXTBEGIN
1070
    73
1070
     1
1070
    44
1040
1.0
1070
    74
1070
     0
1000
MTEXTEND
  0
INSERT
  5
23769
330
2359E
100
AcDbEntity
  8
寸法
 62
     0
 48
50.0
370
    -2
100
AcDbBlockReference
  2
_DOTSMALL
 10
9333.599999999997
 20
8493.817543578533
 30
0.0
 41
100.0
 42
100.0
 43
100.0
  0
INSERT
  5
2376A
330
2359E
100
AcDbEntity
  8
寸法
 62
     0
 48
50.0
370
    -2
100
AcDbBlockReference
  2
_DOTSMALL
 10
8569.600000000001
 20
8493.817543578533
 30
0.0
 41
100.0
 42
100.0
 43
100.0
 50
180.0
  0
POINT
  5
2376B
330
2359E
100
AcDbEntity
  8
DEFPOINTS
 62
     0
 48
50.0
100
AcDbPoint
 10
9333.599999999997
 20
7966.907777930204
 30
0.0
  0
POINT
  5
2376C
330
2359E
100
AcDbEntity
  8
DEFPOINTS
 62
     0
 48
50.0
100
AcDbPoint
 10
8569.600000000001
 20
7281.907777930202
 30
0.0
  0
POINT
  5
2376D
330
2359E
100
AcDbEntity
  8
DEFPOINTS
 62
     0
 48
50.0
100
AcDbPoint
 10
8569.600000000001
 20
8493.817543578533
 30
0.0
  0
ENDBLK
  5
235A9
330
2359E
100
AcDbEntity
  8
0
 48
50.0
100
AcDbBlockEnd
  0
BLOCK
  5
23DB3
330
23DA8
100
AcDbEntity
  8
0
 48
50.0
100
AcDbBlockBegin
  2
*D40
 70
     1
 10
0.0
 20
0.0
 30
0.0
  3
*D40
  1

  0
LINE
  5
24081
330
23DA8
100
AcDbEntity
  8
寸法
 62
     0
 48
50.0
370
    -2
100
AcDbLine
 10
7363.600000000001
 20
5671.907777930219
 30
0.0
 11
7632.938460046266
 21
5671.907777930219
 31
0.0
  0
LINE
  5
24082
330
23DA8
100
AcDbEntity
  8
寸法
 62
     0
 48
50.0
370
    -2
100
AcDbLine
 10
7363.600000000002
 20
5866.907777930192
 30
0.0
 11
7632.938460046266
 21
5866.907777930192
 31
0.0
  0
LINE
  5
24083
330
23DA8
100
AcDbEntity
  8
寸法
 62
     0
 48
50.0
370
    -2
100
AcDbLine
 10
7572.938460046265
 20
5866.907777930192
 30
0.0
 11
7572.938460046265
 21
5671.907777930219
 31
0.0
  0
LINE
  5
24084
330
23DA8
100
AcDbEntity
  8
寸法
 62
     0
 48
50.0
370
    -2
100
AcDbLine
 10
7572.938460046265
 20
5671.907777930219
 30
0.0
 11
7572.938460046265
 21
5294.517895522429
 31
0.0
  0
INSERT
  5
24085
330
23DA8
100
AcDbEntity
  8
寸法
 62
     0
 48
50.0
370
    -2
100
AcDbBlockReference
  2
_DOTSMALL
 10
7572.938460046265
 20
5866.907777930192
 30
0.0
 41
100.0
 42
100.0
 43
100.0
 50
90.0
  0
INSERT
  5
24086
330
23DA8
100
AcDbEntity
  8
寸法
 62
     0
 48
50.0
370
    -2
100
AcDbBlockReference
  2
_DOTSMALL
 10
7572.938460046265
 20
5671.907777930219
 30
0.0
 41
100.0
 42
100.0
 43
100.0
 50
270.0
  0
MTEXT
  5
24087
330
23DA8
100
AcDbEntity
  8
寸法
 62
     7
 48
50.0
100
AcDbMText
 10
7472.938460046265
 20
5433.212836726326
 30
0.0
 40
120.0
 41
0.0
 71
     5
 72
     1
  1
\A1;195
  7
STYLE1
 11
0.0000000000000001
 21
1.0
 31
0.0
 73
     1
 44
1.0
1001
ACAD
1000
MTEXTBEGIN
1070
    73
1070
     1
1070
    44
1040
1.0
1070
    74
1070
     0
1000
MTEXTEND
  0
POINT
  5
24088
330
23DA8
100
AcDbEntity
  8
DEFPOINTS
 62
     0
 48
50.0
100
AcDbPoint
 10
7343.600000000001
 20
5671.907777930219
 30
0.0
  0
POINT
  5
24089
330
23DA8
100
AcDbEntity
  8
DEFPOINTS
 62
     0
 48
50.0
100
AcDbPoint
 10
7343.600000000002
 20
5866.907777930192
 30
0.0
  0
POINT
  5
2408A
330
23DA8
100
AcDbEntity
  8
DEFPOINTS
 62
     0
 48
50.0
100
AcDbPoint
 10
7572.938460046265
 20
5866.907777930192
 30
0.0
  0
ENDBLK
  5
23DB4
330
23DA8
100
AcDbEntity
  8
0
 48
50.0
100
AcDbBlockEnd
  0
BLOCK
  5
23DC0
330
23DB5
100
AcDbEntity
  8
0
 48
50.0
100
AcDbBlockBegin
  2
*D41
 70
     1
 10
0.0
 20
0.0
 30
0.0
  3
*D41
  1

  0
LINE
  5
24077
330
23DB5
100
AcDbEntity
  8
寸法
 62
     0
 48
50.0
370
    -2
100
AcDbLine
 10
7363.600000000001
 20
5866.907777930208
 30
0.0
 11
7632.938460046266
 21
5866.907777930208
 31
0.0
  0
LINE
  5
24078
330
23DB5
100
AcDbEntity
  8
寸法
 62
     0
 48
50.0
370
    -2
100
AcDbLine
 10
7363.600000000002
 20
5976.90777793022
 30
0.0
 11
7632.938460046266
 21
5976.90777793022
 31
0.0
  0
LINE
  5
24079
330
23DB5
100
AcDbEntity
  8
寸法
 62
     0
 48
50.0
370
    -2
100
AcDbLine
 10
7572.938460046265
 20
5866.907777930208
 30
0.0
 11
7572.938460046265
 21
5976.90777793022
 31
0.0
  0
LINE
  5
2407A
330
23DB5
100
AcDbEntity
  8
寸法
 62
     0
 48
50.0
370
    -2
100
AcDbLine
 10
7572.938460046265
 20
5976.90777793022
 30
0.0
 11
7572.938460046266
 21
6337.002266119196
 31
0.0
  0
INSERT
  5
2407B
330
23DB5
100
AcDbEntity
  8
寸法
 62
     0
 48
50.0
370
    -2
100
AcDbBlockReference
  2
_DOTSMALL
 10
7572.938460046265
 20
5866.907777930208
 30
0.0
 41
100.0
 42
100.0
 43
100.0
 50
270.0
  0
INSERT
  5
2407C
330
23DB5
100
AcDbEntity
  8
寸法
 62
     0
 48
50.0
370
    -2
100
AcDbBlockReference
  2
_DOTSMALL
 10
7572.938460046265
 20
5976.90777793022
 30
0.0
 41
100.0
 42
100.0
 43
100.0
 50
90.0
  0
MTEXT
  5
2407D
330
23DB5
100
AcDbEntity
  8
寸法
 62
     7
 48
50.0
100
AcDbMText
 10
7472.938460046265
 20
6212.95502202471
 30
0.0
 40
120.0
 41
0.0
 71
     5
 72
     1
  1
\A1;110
  7
STYLE1
 11
0.0000000000000001
 21
1.0
 31
0.0
 73
     1
 44
1.0
1001
ACAD
1000
MTEXTBEGIN
1070
    73
1070
     1
1070
    44
1040
1.0
1070
    74
1070
     0
1000
MTEXTEND
  0
POINT
  5
2407E
330
23DB5
100
AcDbEntity
  8
DEFPOINTS
 62
     0
 48
50.0
100
AcDbPoint
 10
7343.600000000001
 20
5866.907777930208
 30
0.0
  0
POINT
  5
2407F
330
23DB5
100
AcDbEntity
  8
DEFPOINTS
 62
     0
 48
50.0
100
AcDbPoint
 10
7343.600000000002
 20
5976.90777793022
 30
0.0
  0
POINT
  5
24080
330
23DB5
100
AcDbEntity
  8
DEFPOINTS
 62
     0
 48
50.0
100
AcDbPoint
 10
7572.938460046265
 20
5976.90777793022
 30
0.0
  0
ENDBLK
  5
23DC1
330
23DB5
100
AcDbEntity
  8
0
 48
50.0
100
AcDbBlockEnd
  0
BLOCK
  5
23DCC
330
23DC2
100
AcDbEntity
  8
0
 48
50.0
100
AcDbBlockBegin
  2
*D42
 70
     1
 10
0.0
 20
0.0
 30
0.0
  3
*D42
  1

  0
LINE
  5
23FBA
330
23DC2
100
AcDbEntity
  8
寸法
 62
     0
 48
50.0
370
    -2
100
AcDbLine
 10
9333.6
 20
5651.90777793024
 30
0.0
 11
9333.6
 21
4897.043474506094
 31
0.0
  0
LINE
  5
23FBB
330
23DC2
100
AcDbEntity
  8
寸法
 62
     0
 48
50.0
370
    -2
100
AcDbLine
 10
7113.600000000001
 20
5651.907777930205
 30
0.0
 11
7113.600000000001
 21
4897.043474506094
 31
0.0
  0
LINE
  5
23FBC
330
23DC2
100
AcDbEntity
  8
寸法
 62
     0
 48
50.0
370
    -2
100
AcDbLine
 10
9333.6
 20
4957.043474506095
 30
0.0
 11
7113.600000000001
 21
4957.043474506095
 31
0.0
  0
INSERT
  5
23FBD
330
23DC2
100
AcDbEntity
  8
寸法
 62
     0
 48
50.0
370
    -2
100
AcDbBlockReference
  2
_DOTSMALL
 10
9333.6
 20
4957.043474506095
 30
0.0
 41
100.0
 42
100.0
 43
100.0
  0
INSERT
  5
23FBE
330
23DC2
100
AcDbEntity
  8
寸法
 62
     0
 48
50.0
370
    -2
100
AcDbBlockReference
  2
_DOTSMALL
 10
7113.600000000001
 20
4957.043474506095
 30
0.0
 41
100.0
 42
100.0
 43
100.0
 50
180.0
  0
MTEXT
  5
23FBF
330
23DC2
100
AcDbEntity
  8
寸法
 62
     7
 48
50.0
100
AcDbMText
 10
8223.600000000001
 20
5057.055285529717
 30
0.0
 40
120.0
 41
0.0
 71
     5
 72
     1
  1
\A1;扉の幅 2220
  7
STYLE1
 73
     1
 44
1.0
1001
ACAD
1000
MTEXTBEGIN
1070
    73
1070
     1
1070
    44
1040
1.0
1070
    74
1070
     0
1000
MTEXTEND
  0
POINT
  5
23FC0
330
23DC2
100
AcDbEntity
  8
DEFPOINTS
 62
     0
 48
50.0
100
AcDbPoint
 10
9333.6
 20
5671.907777930241
 30
0.0
  0
POINT
  5
23FC1
330
23DC2
100
AcDbEntity
  8
DEFPOINTS
 62
     0
 48
50.0
100
AcDbPoint
 10
7113.600000000001
 20
5671.907777930205
 30
0.0
  0
POINT
  5
23FC2
330
23DC2
100
AcDbEntity
  8
DEFPOINTS
 62
     0
 48
50.0
100
AcDbPoint
 10
7113.600000000001
 20
4957.043474506095
 30
0.0
  0
ENDBLK
  5
23DCD
330
23DC2
100
AcDbEntity
  8
0
 48
50.0
100
AcDbBlockEnd
  0
BLOCK
  5
24352
330
24348
100
AcDbEntity
  8
0
 48
50.0
100
AcDbBlockBegin
  2
*D43
 70
     1
 10
0.0
 20
0.0
 30
0.0
  3
*D43
  1

  0
LINE
  5
24395
330
24348
100
AcDbEntity
  8
寸法
 62
     0
 48
50.0
370
    -2
100
AcDbLine
 10
6363.199413084582
 20
2162.302580942842
 30
0.0
 11
6363.199413084582
 21
2522.302580942842
 31
0.0
  0
LINE
  5
24396
330
24348
100
AcDbEntity
  8
寸法
 62
     0
 48
50.0
370
    -2
100
AcDbLine
 10
6171.199413084582
 20
2162.302580942842
 30
0.0
 11
6171.199413084582
 21
2522.302580942842
 31
0.0
  0
LINE
  5
24397
330
24348
100
AcDbEntity
  8
寸法
 62
     0
 48
50.0
370
    -2
100
AcDbLine
 10
6363.199413084582
 20
2462.302580942842
 30
0.0
 11
6171.199413084582
 21
2462.302580942842
 31
0.0
  0
MTEXT
  5
24398
330
24348
100
AcDbEntity
  8
寸法
 62
     7
 48
50.0
100
AcDbMText
 10
6278.425743429779
 20
2761.982199882844
 30
0.0
 40
120.0
 41
0.0
 71
     5
 72
     1
  1
\A1;120\P195
  7
STYLE1
 73
     1
 44
1.0
1001
ACAD
1000
MTEXTBEGIN
1070
    73
1070
     1
1070
    44
1040
1.0
1070
    74
1070
     0
1000
MTEXTEND
  0
INSERT
  5
24399
330
24348
100
AcDbEntity
  8
寸法
 62
     0
 48
50.0
370
    -2
100
AcDbBlockReference
  2
_DOTSMALL
 10
6363.199413084582
 20
2462.302580942842
 30
0.0
 41
100.0
 42
100.0
 43
100.0
  0
INSERT
  5
2439A
330
24348
100
AcDbEntity
  8
寸法
 62
     0
 48
50.0
370
    -2
100
AcDbBlockReference
  2
_DOTSMALL
 10
6171.199413084582
 20
2462.302580942842
 30
0.0
 41
100.0
 42
100.0
 43
100.0
 50
180.0
  0
POINT
  5
2439B
330
24348
100
AcDbEntity
  8
DEFPOINTS
 62
     0
 48
50.0
100
AcDbPoint
 10
6363.199413084582
 20
2142.302580942842
 30
0.0
  0
POINT
  5
2439C
330
24348
100
AcDbEntity
  8
DEFPOINTS
 62
     0
 48
50.0
100
AcDbPoint
 10
6171.199413084582
 20
2142.302580942842
 30
0.0
  0
POINT
  5
2439D
330
24348
100
AcDbEntity
  8
DEFPOINTS
 62
     0
 48
50.0
100
AcDbPoint
 10
6171.199413084582
 20
2462.302580942842
 30
0.0
  0
ENDBLK
  5
24353
330
24348
100
AcDbEntity
  8
0
 48
50.0
100
AcDbBlockEnd
  0
BLOCK
  5
2435E
330
24354
100
AcDbEntity
  8
0
 48
50.0
100
AcDbBlockBegin
  2
*D44
 70
     1
 10
0.0
 20
0.0
 30
0.0
  3
*D44
  1

  0
LINE
  5
2439E
330
24354
100
AcDbEntity
  8
寸法
 62
     0
 48
50.0
370
    -2
100
AcDbLine
 10
8305.238726261775
 20
2142.302580942842
 30
0.0
 11
8847.107326030618
 21
2142.302580942842
 31
0.0
  0
LINE
  5
2439F
330
24354
100
AcDbEntity
  8
寸法
 62
     0
 48
50.0
370
    -2
100
AcDbLine
 10
8305.238726261775
 20
1818.302580942841
 30
0.0
 11
8847.107326030618
 21
1818.302580942841
 31
0.0
  0
LINE
  5
243A0
330
24354
100
AcDbEntity
  8
寸法
 62
     0
 48
50.0
370
    -2
100
AcDbLine
 10
8787.10732603062
 20
2142.302580942842
 30
0.0
 11
8787.10732603062
 21
1818.302580942841
 31
0.0
  0
INSERT
  5
243A1
330
24354
100
AcDbEntity
  8
寸法
 62
     0
 48
50.0
370
    -2
100
AcDbBlockReference
  2
_DOTSMALL
 10
8787.10732603062
 20
2142.302580942842
 30
0.0
 41
100.0
 42
100.0
 43
100.0
 50
90.0
  0
INSERT
  5
243A2
330
24354
100
AcDbEntity
  8
寸法
 62
     0
 48
50.0
370
    -2
100
AcDbBlockReference
  2
_DOTSMALL
 10
8787.10732603062
 20
1818.302580942841
 30
0.0
 41
100.0
 42
100.0
 43
100.0
 50
270.0
  0
MTEXT
  5
243A3
330
24354
100
AcDbEntity
  8
寸法
 62
     7
 48
50.0
100
AcDbMText
 10
8687.107326030618
 20
1980.302580942842
 30
0.0
 40
120.0
 41
0.0
 71
     5
 72
     1
  1
\A1;180
  7
STYLE1
 11
0.0000000000000001
 21
1.0
 31
0.0
 73
     1
 44
1.0
1001
ACAD
1000
MTEXTBEGIN
1070
    73
1070
     1
1070
    44
1040
1.0
1070
    74
1070
     0
1000
MTEXTEND
  0
POINT
  5
243A4
330
24354
100
AcDbEntity
  8
DEFPOINTS
 62
     0
 48
50.0
100
AcDbPoint
 10
8285.238726261775
 20
2142.302580942842
 30
0.0
  0
POINT
  5
243A5
330
24354
100
AcDbEntity
  8
DEFPOINTS
 62
     0
 48
50.0
100
AcDbPoint
 10
8285.238726261775
 20
1818.302580942841
 30
0.0
  0
POINT
  5
243A6
330
24354
100
AcDbEntity
  8
DEFPOINTS
 62
     0
 48
50.0
100
AcDbPoint
 10
8787.10732603062
 20
1818.302580942841
 30
0.0
  0
ENDBLK
  5
2435F
330
24354
100
AcDbEntity
  8
0
 48
50.0
100
AcDbBlockEnd
  0
BLOCK
  5
2436F
330
24360
100
AcDbEntity
  8
0
 48
50.0
100
AcDbBlockBegin
  2
*D45
 70
     1
 10
0.0
 20
0.0
 30
0.0
  3
*D45
  1

  0
LINE
  5
243A7
330
24360
100
AcDbEntity
  8
寸法
 62
     0
 48
50.0
370
    -2
100
AcDbLine
 10
8118.038726261778
 20
2195.062580942843
 30
0.0
 11
8847.107326030618
 21
2195.062580942843
 31
0.0
  0
LINE
  5
243A8
330
24360
100
AcDbEntity
  8
寸法
 62
     0
 48
50.0
370
    -2
100
AcDbLine
 10
8305.238726261775
 20
2142.302580942842
 30
0.0
 11
8847.107326030618
 21
2142.302580942842
 31
0.0
  0
LINE
  5
243A9
330
24360
100
AcDbEntity
  8
寸法
 62
     0
 48
50.0
370
    -2
100
AcDbLine
 10
8787.10732603062
 20
2195.062580942843
 30
0.0
 11
8787.10732603062
 21
2295.062580942843
 31
0.0
  0
LINE
  5
243AA
330
24360
100
AcDbEntity
  8
寸法
 62
     0
 48
50.0
370
    -2
100
AcDbLine
 10
8787.10732603062
 20
2142.302580942842
 30
0.0
 11
8787.10732603062
 21
2042.302580942842
 31
0.0
  0
LINE
  5
243AB
330
24360
100
AcDbEntity
  8
寸法
 62
     0
 48
50.0
370
    -2
100
AcDbLine
 10
8787.10732603062
 20
2168.682580942842
 30
0.0
 11
9063.161992149646
 21
2157.178623338629
 31
0.0
  0
LINE
  5
243AC
330
24360
100
AcDbEntity
  8
寸法
 62
     0
 48
50.0
370
    -2
100
AcDbLine
 10
9063.161992149646
 20
2157.178623338629
 30
0.0
 11
9063.161992149646
 21
1625.160816495663
 31
0.0
  0
MTEXT
  5
243AD
330
24360
100
AcDbEntity
  8
寸法
 62
     7
 48
50.0
100
AcDbMText
 10
8963.150181126023
 20
1891.169719917147
 30
0.0
 40
120.0
 41
0.0
 71
     5
 72
     1
  1
\A1;20～25
  7
STYLE1
 11
0.0000000000000001
 21
1.0
 31
0.0
 73
     1
 44
1.0
1001
ACAD
1000
MTEXTBEGIN
1070
    73
1070
     1
1070
    44
1040
1.0
1070
    74
1070
     0
1000
MTEXTEND
  0
LINE
  5
243AE
330
24360
100
AcDbEntity
  8
寸法
 62
     0
 48
50.0
370
    -2
100
AcDbLine
 10
8787.10732603062
 20
2195.062580942843
 30
0.0
 11
8787.10732603062
 21
2142.302580942842
 31
0.0
  0
LINE
  5
243AF
330
24360
100
AcDbEntity
  8
寸法
 62
     0
 48
50.0
370
    -2
100
AcDbLine
 10
8787.10732603062
 20
2195.062580942843
 30
0.0
 11
8787.10732603062
 21
2142.302580942842
 31
0.0
  0
INSERT
  5
243B0
330
24360
100
AcDbEntity
  8
寸法
 62
     0
 48
50.0
370
    -2
100
AcDbBlockReference
  2
_DOTSMALL
 10
8787.10732603062
 20
2195.062580942843
 30
0.0
 41
100.0
 42
100.0
 43
100.0
 50
270.0
  0
INSERT
  5
243B1
330
24360
100
AcDbEntity
  8
寸法
 62
     0
 48
50.0
370
    -2
100
AcDbBlockReference
  2
_DOTSMALL
 10
8787.10732603062
 20
2142.302580942842
 30
0.0
 41
100.0
 42
100.0
 43
100.0
 50
90.0
  0
POINT
  5
243B2
330
24360
100
AcDbEntity
  8
DEFPOINTS
 62
     0
 48
50.0
100
AcDbPoint
 10
8098.038726261776
 20
2195.062580942843
 30
0.0
  0
POINT
  5
243B3
330
24360
100
AcDbEntity
  8
DEFPOINTS
 62
     0
 48
50.0
100
AcDbPoint
 10
8285.238726261775
 20
2142.302580942842
 30
0.0
  0
POINT
  5
243B4
330
24360
100
AcDbEntity
  8
DEFPOINTS
 62
     0
 48
50.0
100
AcDbPoint
 10
8787.10732603062
 20
2142.302580942842
 30
0.0
  0
ENDBLK
  5
24370
330
24360
100
AcDbEntity
  8
0
 48
50.0
100
AcDbBlockEnd
  0
BLOCK
  5
2437B
330
24371
100
AcDbEntity
  8
0
 48
50.0
100
AcDbBlockBegin
  2
*D46
 70
     1
 10
0.0
 20
0.0
 30
0.0
  3
*D46
  1

  0
LINE
  5
243B5
330
24371
100
AcDbEntity
  8
寸法
 62
     0
 48
50.0
370
    -2
100
AcDbLine
 10
6023.199413084581
 20
1598.302580942842
 30
0.0
 11
5840.779099352122
 21
1598.302580942842
 31
0.0
  0
LINE
  5
243B6
330
24371
100
AcDbEntity
  8
寸法
 62
     0
 48
50.0
370
    -2
100
AcDbLine
 10
5943.199413084585
 20
1358.302580942842
 30
0.0
 11
5840.779099352122
 21
1358.302580942842
 31
0.0
  0
LINE
  5
243B7
330
24371
100
AcDbEntity
  8
寸法
 62
     0
 48
50.0
370
    -2
100
AcDbLine
 10
5900.779099352122
 20
1598.302580942842
 30
0.0
 11
5900.779099352122
 21
1358.302580942842
 31
0.0
  0
MTEXT
  5
243B8
330
24371
100
AcDbEntity
  8
寸法
 62
     7
 48
50.0
100
AcDbMText
 10
5800.779099352122
 20
1478.302580942842
 30
0.0
 40
120.0
 41
0.0
 71
     5
 72
     1
  1
\A1;150
  7
STYLE1
 11
0.0000000000000001
 21
1.0
 31
0.0
 73
     1
 44
1.0
1001
ACAD
1000
MTEXTBEGIN
1070
    73
1070
     1
1070
    44
1040
1.0
1070
    74
1070
     0
1000
MTEXTEND
  0
INSERT
  5
243B9
330
24371
100
AcDbEntity
  8
寸法
 62
     0
 48
50.0
370
    -2
100
AcDbBlockReference
  2
_DOTSMALL
 10
5900.779099352122
 20
1598.302580942842
 30
0.0
 41
100.0
 42
100.0
 43
100.0
 50
90.0
  0
INSERT
  5
243BA
330
24371
100
AcDbEntity
  8
寸法
 62
     0
 48
50.0
370
    -2
100
AcDbBlockReference
  2
_DOTSMALL
 10
5900.779099352122
 20
1358.302580942842
 30
0.0
 41
100.0
 42
100.0
 43
100.0
 50
270.0
  0
POINT
  5
243BB
330
24371
100
AcDbEntity
  8
DEFPOINTS
 62
     0
 48
50.0
100
AcDbPoint
 10
6043.199413084582
 20
1598.302580942842
 30
0.0
  0
POINT
  5
243BC
330
24371
100
AcDbEntity
  8
DEFPOINTS
 62
     0
 48
50.0
100
AcDbPoint
 10
5963.199413084585
 20
1358.302580942842
 30
0.0
  0
POINT
  5
243BD
330
24371
100
AcDbEntity
  8
DEFPOINTS
 62
     0
 48
50.0
100
AcDbPoint
 10
5900.779099352122
 20
1358.302580942842
 30
0.0
  0
ENDBLK
  5
2437C
330
24371
100
AcDbEntity
  8
0
 48
50.0
100
AcDbBlockEnd
  0
BLOCK
  5
24387
330
2437D
100
AcDbEntity
  8
0
 48
50.0
100
AcDbBlockBegin
  2
*D47
 70
     1
 10
0.0
 20
0.0
 30
0.0
  3
*D47
  1

  0
LINE
  5
243BE
330
2437D
100
AcDbEntity
  8
寸法
 62
     0
 48
50.0
370
    -2
100
AcDbLine
 10
6151.199413084581
 20
2142.302580942842
 30
0.0
 11
5376.162174522841
 21
2142.302580942842
 31
0.0
  0
LINE
  5
243BF
330
2437D
100
AcDbEntity
  8
寸法
 62
     0
 48
50.0
370
    -2
100
AcDbLine
 10
5943.199413084585
 20
1358.302580942842
 30
0.0
 11
5376.16217452284
 21
1358.302580942842
 31
0.0
  0
LINE
  5
243C0
330
2437D
100
AcDbEntity
  8
寸法
 62
     0
 48
50.0
370
    -2
100
AcDbLine
 10
5436.162174522841
 20
2142.302580942842
 30
0.0
 11
5436.162174522841
 21
1358.302580942842
 31
0.0
  0
MTEXT
  5
243C1
330
2437D
100
AcDbEntity
  8
寸法
 62
     7
 48
50.0
100
AcDbMText
 10
5336.162174522841
 20
1729.842730598842
 30
0.0
 40
120.0
 41
0.0
 71
     5
 72
     1
  1
\A1;540
  7
STYLE1
 11
0.0000000000000001
 21
1.0
 31
0.0
 73
     1
 44
1.0
1001
ACAD
1000
MTEXTBEGIN
1070
    73
1070
     1
1070
    44
1040
1.0
1070
    74
1070
     0
1000
MTEXTEND
  0
INSERT
  5
243C2
330
2437D
100
AcDbEntity
  8
寸法
 62
     0
 48
50.0
370
    -2
100
AcDbBlockReference
  2
_DOTSMALL
 10
5436.162174522841
 20
2142.302580942842
 30
0.0
 41
100.0
 42
100.0
 43
100.0
 50
90.0
  0
INSERT
  5
243C3
330
2437D
100
AcDbEntity
  8
寸法
 62
     0
 48
50.0
370
    -2
100
AcDbBlockReference
  2
_DOTSMALL
 10
5436.162174522841
 20
1358.302580942842
 30
0.0
 41
100.0
 42
100.0
 43
100.0
 50
270.0
  0
POINT
  5
243C4
330
2437D
100
AcDbEntity
  8
DEFPOINTS
 62
     0
 48
50.0
100
AcDbPoint
 10
6171.199413084582
 20
2142.302580942842
 30
0.0
  0
POINT
  5
243C5
330
2437D
100
AcDbEntity
  8
DEFPOINTS
 62
     0
 48
50.0
100
AcDbPoint
 10
5963.199413084585
 20
1358.302580942842
 30
0.0
  0
POINT
  5
243C6
330
2437D
100
AcDbEntity
  8
DEFPOINTS
 62
     0
 48
50.0
100
AcDbPoint
 10
5436.162174522841
 20
1358.302580942842
 30
0.0
  0
ENDBLK
  5
24388
330
2437D
100
AcDbEntity
  8
0
 48
50.0
100
AcDbBlockEnd
  0
BLOCK
  5
24393
330
24389
100
AcDbEntity
  8
0
 48
50.0
100
AcDbBlockBegin
  2
*D48
 70
     1
 10
0.0
 20
0.0
 30
0.0
  3
*D48
  1

  0
LINE
  5
243C7
330
24389
100
AcDbEntity
  8
寸法
 62
     0
 48
50.0
370
    -2
100
AcDbLine
 10
6043.199413084582
 20
1210.302580942842
 30
0.0
 11
6043.199413084582
 21
759.8729429376817
 31
0.0
  0
LINE
  5
243C8
330
24389
100
AcDbEntity
  8
寸法
 62
     0
 48
50.0
370
    -2
100
AcDbLine
 10
6491.199413084581
 20
1210.302580942842
 30
0.0
 11
6491.199413084581
 21
759.8729429376817
 31
0.0
  0
LINE
  5
243C9
330
24389
100
AcDbEntity
  8
寸法
 62
     0
 48
50.0
370
    -2
100
AcDbLine
 10
6043.199413084582
 20
819.8729429376816
 30
0.0
 11
6491.199413084581
 21
819.8729429376816
 31
0.0
  0
MTEXT
  5
243CA
330
24389
100
AcDbEntity
  8
寸法
 62
     7
 48
50.0
100
AcDbMText
 10
6247.102654406358
 20
919.8729429376816
 30
0.0
 40
120.0
 41
0.0
 71
     5
 72
     1
  1
\A1;300
  7
STYLE1
 73
     1
 44
1.0
1001
ACAD
1000
MTEXTBEGIN
1070
    73
1070
     1
1070
    44
1040
1.0
1070
    74
1070
     0
1000
MTEXTEND
  0
INSERT
  5
243CB
330
24389
100
AcDbEntity
  8
寸法
 62
     0
 48
50.0
370
    -2
100
AcDbBlockReference
  2
_DOTSMALL
 10
6043.199413084582
 20
819.8729429376816
 30
0.0
 41
100.0
 42
100.0
 43
100.0
 50
180.0
  0
INSERT
  5
243CC
330
24389
100
AcDbEntity
  8
寸法
 62
     0
 48
50.0
370
    -2
100
AcDbBlockReference
  2
_DOTSMALL
 10
6491.199413084581
 20
819.8729429376816
 30
0.0
 41
100.0
 42
100.0
 43
100.0
  0
POINT
  5
243CD
330
24389
100
AcDbEntity
  8
DEFPOINTS
 62
     0
 48
50.0
100
AcDbPoint
 10
6043.199413084582
 20
1230.302580942842
 30
0.0
  0
POINT
  5
243CE
330
24389
100
AcDbEntity
  8
DEFPOINTS
 62
     0
 48
50.0
100
AcDbPoint
 10
6491.199413084581
 20
1230.302580942842
 30
0.0
  0
POINT
  5
243CF
330
24389
100
AcDbEntity
  8
DEFPOINTS
 62
     0
 48
50.0
100
AcDbPoint
 10
6491.199413084581
 20
819.8729429376816
 30
0.0
  0
ENDBLK
  5
24394
330
24389
100
AcDbEntity
  8
0
 48
50.0
100
AcDbBlockEnd
  0
ENDSEC
  0
SECTION
  2
ENTITIES
  0
MTEXT
  5
763F
330
747D
100
AcDbEntity
  8
0
100
AcDbMText
 10
302.846345836809
 20
280.1983726409901
 30
0.0
 40
3.5
 41
5.323721266742722
 71
     1
 72
     5
  1

  7
MSMINCHO
 73
     1
 44
1.0
1001
ACAD
1000
MTEXTBEGIN
1070
    73
1070
     1
1070
    44
1040
1.0
1070
    74
1070
     0
1000
MTEXTEND
  0
LINE
  5
10B57
330
747D
100
AcDbEntity
  8
補助
  6
PHANTOM
 62
   230
 48
50.0
100
AcDbLine
 10
139.9999999999995
 20
11409.6
 30
0.0
 11
16307.2
 21
11409.6
 31
0.0
  0
LINE
  5
10B59
330
747D
100
AcDbEntity
  8
仕様書枠
  6
Continuous
 48
50.0
100
AcDbLine
 10
13107.2
 20
1200.0
 30
0.0
 11
13107.2
 21
-0.0000000000000729
 31
0.0
  0
LINE
  5
10B5D
330
747D
100
AcDbEntity
  8
仕様書枠
 48
50.0
100
AcDbLine
 10
140.0
 20
0.0
 30
0.0
 11
16307.2
 21
-0.0000000000000909
 31
0.0
  0
LINE
  5
10B5E
330
747D
100
AcDbEntity
  8
補助
  6
PHANTOM
 62
   230
 48
50.0
100
AcDbLine
 10
16307.2
 20
11409.6
 30
0.0
 11
16307.2
 21
1200.0
 31
0.0
  0
LINE
  5
10B6C
330
747D
100
AcDbEntity
  8
仕様書枠
 48
50.0
100
AcDbLine
 10
13107.2
 20
1200.0
 30
0.0
 11
16307.2
 21
1200.0
 31
0.0
  0
TEXT
  5
10B73
330
747D
100
AcDbEntity
  8
文字
 62
     7
 48
50.0
100
AcDbText
 10
13162.9790565769
 20
895.0906074299405
 30
0.0
 40
200.0
  1
基 礎 図
  7
STYLE2
100
AcDbText
  0
LINE
  5
10B7B
330
747D
100
AcDbEntity
  8
仕様書枠
 48
50.0
100
AcDbLine
 10
13107.2
 20
800.0
 30
0.0
 11
14251.2
 21
800.0
 31
0.0
  0
LINE
  5
10B88
330
747D
100
AcDbEntity
  8
仕様書枠
  6
Continuous
 48
50.0
100
AcDbLine
 10
14251.2
 20
1200.0
 30
0.0
 11
14251.2
 21
800.0
 31
0.0
  0
LINE
  5
16462
330
747D
100
AcDbEntity
  8
仕様書枠
 48
50.0
100
AcDbLine
 10
16307.2
 20
1200.0
 30
0.0
 11
16307.2
 21
-0.0000000000000909
 31
0.0
  0
LINE
  5
1903B
330
747D
100
AcDbEntity
  8
補助
  6
PHANTOM
 62
   230
 48
50.0
100
AcDbLine
 10
140.0
 20
0.0
 30
0.0
 11
139.9999999999995
 21
11409.6
 31
0.0
  0
TEXT
  5
1C7A1
330
747D
100
AcDbEntity
  8
文字
 62
     7
 48
50.0
100
AcDbText
 10
13188.16259899338
 20
79.80631269190417
 30
0.0
 40
80.0
  1
※布基礎には換気口を設けてください。
  7
STYLE2
100
AcDbText
  0
TEXT
  5
1C7E7
330
747D
100
AcDbEntity
  8
文字
 62
     7
 48
50.0
100
AcDbText
 10
13188.16259899338
 20
246.7109242801889
 30
0.0
 40
80.0
  1
※寒冷地等は地域の実情に合わせた基礎にして下さい。
  7
STYLE2
100
AcDbText
  0
TEXT
  5
1C7E8
330
747D
100
AcDbEntity
  8
文字
 62
     7
 48
50.0
100
AcDbText
 10
14300.27647074751
 20
499.5983841039506
 30
0.0
 40
160.0
  1
ＮＸＮ－４８ＳＡ/ＨＡ
  7
STYLE2
100
AcDbText
  0
TEXT
  5
1C7E9
330
747D
100
AcDbEntity
  8
文字
 62
     7
 48
50.0
100
AcDbText
 10
14641.2525855784
 20
871.1744590657927
 30
0.0
 40
100.0
  1
～一般型・多雪地型～
  7
STYLE2
100
AcDbText
  0
TEXT
  5
1C7EC
330
747D
100
AcDbEntity
  8
文字
 62
     7
 48
50.0
100
AcDbText
 10
14524.131837222
 20
1031.557706291229
 30
0.0
 40
100.0
  1
 　    <縮尺> S=1/40
  7
STYLE2
100
AcDbText
  0
TEXT
  5
1C7ED
330
747D
100
AcDbEntity
  8
文字
 62
     7
 48
50.0
100
AcDbText
 10
13201.43669998441
 20
477.2740661031257
 30
0.0
 40
160.0
  1
機種名
  7
STYLE2
100
AcDbText
  0
LINE
  5
1C7EF
330
747D
100
AcDbEntity
  8
文字
 62
     7
 48
50.0
100
AcDbLine
 10
13187.2
 20
400.0
 30
0.0
 11
16227.2
 21
400.0
 31
0.0
  0
DIMENSION
  5
22939
330
747D
100
AcDbEntity
  8
寸法
 48
50.0
100
AcDbDimension
  2
*D19
 10
9210.600000000001
 20
8730.149966081995
 30
0.0
 11
9606.706601717799
 21
8730.149966081995
 31
0.0
 70
   160
 71
     5
 42
123.0
  3
INABA_S40G
100
AcDbAlignedDimension
 13
9333.6
 23
7966.907777930204
 33
0.0
 14
9210.600000000001
 24
7893.907777930204
 34
0.0
100
AcDbRotatedDimension
1001
ACAD
1000
DSTYLE
1002
{
1070
   174
1070
     0
1070
   272
1070
     1
1070
   341
1005
0
1002
}
  0
DIMENSION
  5
2293A
330
747D
100
AcDbEntity
  8
寸法
 48
50.0
100
AcDbDimension
  2
*D20
 10
9213.600000000001
 20
7507.704956834112
 30
0.0
 11
9603.659055118111
 21
7507.704956834112
 31
0.0
 70
   160
 71
     5
 42
120.0
  3
INABA_S40G
100
AcDbAlignedDimension
 13
9333.6
 23
7524.698220872943
 33
0.0
 14
9213.600000000001
 24
7524.698220872942
 34
0.0
100
AcDbRotatedDimension
1001
ACAD
1000
DSTYLE
1002
{
1070
   174
1070
     0
1070
   272
1070
     1
1070
   341
1005
0
1002
}
  0
DIMENSION
  5
2293B
330
747D
100
AcDbEntity
  8
寸法
 48
50.0
100
AcDbDimension
  2
*D21
 10
9383.599999999999
 20
8942.610661598834
 30
0.0
 11
9649.77462120246
 21
8942.610661598834
 31
0.0
 70
   160
  1
a
 71
     5
 42
50.0
  3
INABA_S40G
100
AcDbAlignedDimension
 13
9333.6
 23
7966.907777930204
 33
0.0
 14
9383.599999999999
 24
8730.149966082001
 34
0.0
100
AcDbRotatedDimension
1001
ACAD
1000
DSTYLE
1002
{
1070
   174
1070
     0
1070
   272
1070
     1
1070
   341
1005
0
1002
}
  0
DIMENSION
  5
2293D
330
747D
100
AcDbEntity
  8
寸法
 48
50.0
100
AcDbDimension
  2
*D22
 10
7113.600000000001
 20
8942.610661598834
 30
0.0
 11
6797.425378797541
 21
8942.610661598834
 31
0.0
 70
   160
  1
a
 71
     5
 42
50.0
  3
INABA_S40G
100
AcDbAlignedDimension
 13
7063.6
 23
8730.149966081992
 33
0.0
 14
7113.600000000001
 24
7966.907777930204
 34
0.0
100
AcDbRotatedDimension
1001
ACAD
1000
DSTYLE
1002
{
1070
   174
1070
     0
1070
   272
1070
     1
1070
   341
1005
0
1002
}
  0
DIMENSION
  5
2293E
330
747D
100
AcDbEntity
  8
寸法
 48
50.0
100
AcDbDimension
  2
*D23
 10
7113.600000000001
 20
8730.149966081995
 30
0.0
 11
6840.493398282203
 21
8730.149966081995
 31
0.0
 70
   160
 71
     5
 42
123.0
  3
INABA_S40G
100
AcDbAlignedDimension
 13
7236.6
 23
7893.907777930204
 33
0.0
 14
7113.600000000001
 24
7966.907777930204
 34
0.0
100
AcDbRotatedDimension
1001
ACAD
1000
DSTYLE
1002
{
1070
   174
1070
     0
1070
   272
1070
     1
1070
   341
1005
0
1002
}
  0
DIMENSION
  5
2293F
330
747D
100
AcDbEntity
  8
寸法
 48
50.0
100
AcDbDimension
  2
*D24
 10
6177.933661824713
 20
7843.907777930205
 30
0.0
 11
6177.933661824713
 21
8280.014379648003
 31
0.0
 70
   160
 71
     5
 42
122.9999999999991
  3
INABA_S40G
100
AcDbAlignedDimension
 13
7113.600000000001
 23
7966.907777930204
 33
0.0
 14
7186.6
 24
7843.907777930205
 34
0.0
 50
90.0
100
AcDbRotatedDimension
1001
ACAD
1000
DSTYLE
1002
{
1070
   174
1070
     0
1070
   272
1070
     1
1070
   341
1005
0
1002
}
  0
DIMENSION
  5
22940
330
747D
100
AcDbEntity
  8
寸法
 48
50.0
100
AcDbDimension
  2
*D25
 10
9333.6
 20
8942.610661598834
 30
0.0
 11
8223.600000000001
 21
9042.622472622456
 31
0.0
 70
    32
 71
     5
 42
2220.0
  3
INABA_S40G
100
AcDbAlignedDimension
 13
7113.600000000001
 23
7966.907777930204
 33
0.0
 14
9333.6
 24
7966.907777930204
 34
0.0
100
AcDbRotatedDimension
1001
ACAD
1000
DSTYLE
1002
{
1070
   174
1070
     0
1070
   272
1070
     1
1070
   341
1005
0
1002
}
  0
DIMENSION
  5
22941
330
747D
100
AcDbEntity
  8
寸法
 48
50.0
100
AcDbDimension
  2
*D26
 10
7236.6
 20
8730.149966081995
 30
0.0
 11
8223.600000000001
 21
8830.149966081995
 31
0.0
 70
    32
 71
     5
 42
1974.0
  3
INABA_S40G
100
AcDbAlignedDimension
 13
9210.600000000001
 23
7893.907777930204
 33
0.0
 14
7236.6
 24
7893.907777930204
 34
0.0
100
AcDbRotatedDimension
1001
ACAD
1000
DSTYLE
1002
{
1070
   174
1070
     0
1070
   272
1070
     1
1070
   341
1005
0
1002
}
  0
DIMENSION
  5
22943
330
747D
100
AcDbEntity
  8
寸法
 48
50.0
100
AcDbDimension
  2
*D27
 10
5932.440859686746
 20
5746.907777930206
 30
0.0
 11
5932.440859686745
 21
5709.407777930207
 31
0.0
 70
   160
  1
c
 71
     5
 42
75.0
  3
INABA_S40G
100
AcDbAlignedDimension
 13
6177.933661824713
 23
5671.907777930205
 33
0.0
 14
7113.600000000001
 24
5746.907777930205
 34
0.0
 50
90.0
100
AcDbRotatedDimension
1001
ACAD
1000
DSTYLE
1002
{
1070
   174
1070
     0
1070
   272
1070
     1
1070
   341
1005
0
1002
}
  0
DIMENSION
  5
22944
330
747D
100
AcDbEntity
  8
寸法
 48
50.0
100
AcDbDimension
  2
*D28
 10
5932.440859686746
 20
8021.907777930206
 30
0.0
 11
5932.440859686745
 21
7994.407777930206
 31
0.0
 70
   160
  1
b
 71
     5
 42
55.0
  3
INABA_S40G
100
AcDbAlignedDimension
 13
7113.600000000001
 23
7966.907777930204
 33
0.0
 14
6177.933661824713
 24
8021.907777930204
 34
0.0
 50
90.0
100
AcDbRotatedDimension
1001
ACAD
1000
DSTYLE
1002
{
1070
   174
1070
     0
1070
   272
1070
     1
1070
   341
1005
0
1002
}
  0
DIMENSION
  5
22945
330
747D
100
AcDbEntity
  8
寸法
 48
50.0
100
AcDbDimension
  2
*D29
 10
5932.440859686745
 20
7966.907777930206
 30
0.0
 11
5932.440859686743
 21
6802.186058939198
 31
0.0
 70
   160
 71
     5
 42
2219.999999999999
  3
INABA_S40G
100
AcDbAlignedDimension
 13
7113.600000000001
 23
5746.907777930205
 33
0.0
 14
7113.600000000001
 24
7966.907777930204
 34
0.0
 50
90.0
100
AcDbRotatedDimension
1001
ACAD
1000
DSTYLE
1002
{
1070
   174
1070
     0
1070
   272
1070
     1
1070
   341
1005
0
1002
}
  0
DIMENSION
  5
22946
330
747D
100
AcDbEntity
  8
寸法
 48
50.0
100
AcDbDimension
  2
*D30
 10
6177.933661824713
 20
5869.907777930207
 30
0.0
 11
6177.933661824713
 21
6911.629496921213
 31
0.0
 70
   160
 71
     5
 42
1973.999999999998
  3
INABA_S40G
100
AcDbAlignedDimension
 13
7186.6
 23
7843.907777930205
 33
0.0
 14
7186.600000000009
 24
5869.907777930207
 34
0.0
 50
90.0
100
AcDbRotatedDimension
1001
ACAD
1000
DSTYLE
1002
{
1070
   174
1070
     0
1070
   272
1070
     1
1070
   341
1005
0
1002
}
  0
DIMENSION
  5
22947
330
747D
100
AcDbEntity
  8
寸法
 48
50.0
100
AcDbDimension
  2
*D31
 10
6177.933661824713
 20
5746.907777930205
 30
0.0
 11
6177.933661824713
 21
5473.801176212408
 31
0.0
 70
   160
 71
     5
 42
123.0000000000018
  3
INABA_S40G
100
AcDbAlignedDimension
 13
7186.600000000009
 23
5869.907777930207
 33
0.0
 14
7113.600000000001
 24
5746.907777930205
 34
0.0
 50
90.0
100
AcDbRotatedDimension
1001
ACAD
1000
DSTYLE
1002
{
1070
   174
1070
     0
1070
   272
1070
     1
1070
   341
1005
0
1002
}
  0
LINE
  5
22948
330
747D
100
AcDbEntity
  8
想像線
 48
10.0
100
AcDbLine
 10
9383.599999999999
 20
8021.907777930207
 30
0.0
 11
9383.600000000006
 21
5671.907777930202
 31
0.0
  0
LINE
  5
22949
102
{ACAD_REACTORS
330
24062
102
}
330
747D
100
AcDbEntity
  8
部品1
 48
50.0
100
AcDbLine
 10
9333.6
 20
5746.907777930223
 30
0.0
 11
9333.6
 21
7966.907777930204
 31
0.0
  0
LINE
  5
2294D
102
{ACAD_REACTORS
330
2400B
102
}
330
747D
100
AcDbEntity
  8
部品1
 48
50.0
100
AcDbLine
 10
7113.600000000001
 20
5746.907777930205
 30
0.0
 11
7113.600000000001
 21
7966.907777930204
 31
0.0
  0
DIMENSION
  5
2294F
330
747D
100
AcDbEntity
  8
寸法
 48
50.0
100
AcDbDimension
  2
*D32
 10
6505.246258412047
 20
6481.907777930205
 30
0.0
 11
6505.246258412046
 21
6118.916108629534
 31
0.0
 70
   160
 71
     5
 42
735.0
  3
INABA_S40G
100
AcDbAlignedDimension
 13
7113.600000000001
 23
5746.907777930205
 33
0.0
 14
7777.600000000001
 24
6481.907777930205
 34
0.0
 50
90.0
100
AcDbRotatedDimension
1001
ACAD
1000
DSTYLE
1002
{
1070
   174
1070
     0
1070
   272
1070
     1
1070
   341
1005
0
1002
}
  0
LINE
  5
22952
102
{ACAD_REACTORS
330
24028
102
}
330
747D
100
AcDbEntity
  8
部品1
 48
50.0
100
AcDbLine
 10
9333.600000000002
 20
5671.907777930226
 30
0.0
 11
7113.600000000001
 21
5671.907777930205
 31
0.0
  0
DIMENSION
  5
22957
330
747D
100
AcDbEntity
  8
寸法
 48
50.0
100
AcDbDimension
  2
*D33
 10
6849.574894940552
 20
5746.907777930205
 30
0.0
 11
6849.574894940552
 21
5138.422496555968
 31
0.0
 70
   160
  1
扉の出<>
 71
     5
 42
74.99999999998363
  3
INABA_S40G
100
AcDbAlignedDimension
 13
7113.600000000001
 23
5671.907777930222
 33
0.0
 14
6253.875927838535
 24
5746.907777930205
 34
0.0
 50
90.0
100
AcDbRotatedDimension
1001
ACAD
1000
DSTYLE
1002
{
1070
   174
1070
     0
1070
   272
1070
     1
1070
   341
1005
0
1002
}
  0
LINE
  5
22958
330
747D
100
AcDbEntity
  8
部品1
 48
50.0
100
AcDbLine
 10
7343.600000000001
 20
5976.907777930208
 30
0.0
 11
7233.6
 21
5976.907777930207
 31
0.0
  0
LINE
  5
22959
330
747D
100
AcDbEntity
  8
部品1
 48
50.0
100
AcDbLine
 10
7113.600000000001
 20
5671.907777930222
 30
0.0
 11
7113.600000000001
 21
5746.907777930205
 31
0.0
  0
LINE
  5
2295A
330
747D
100
AcDbEntity
  8
センター
 48
2.0
100
AcDbLine
 10
7186.600000000009
 20
5869.907777930207
 30
0.0
 11
7286.600000000008
 21
5869.907777930207
 31
0.0
  0
CIRCLE
  5
2295B
330
747D
100
AcDbEntity
  8
部品1
 48
50.0
100
AcDbCircle
 10
7236.600000000009
 20
5869.907777930207
 30
0.0
 40
35.0
  0
LINE
  5
2295C
330
747D
100
AcDbEntity
  8
センター
 48
2.0
100
AcDbLine
 10
7236.600000000009
 20
5919.907777930207
 30
0.0
 11
7236.600000000009
 21
5819.907777930207
 31
0.0
  0
LINE
  5
2295E
330
747D
100
AcDbEntity
  8
部品1
 48
50.0
100
AcDbLine
 10
7343.600000000001
 20
5866.907777930208
 30
0.0
 11
7343.600000000001
 21
5976.907777930208
 31
0.0
  0
LINE
  5
22962
102
{ACAD_REACTORS
330
24028
102
}
330
747D
100
AcDbEntity
  8
部品1
 48
50.0
100
AcDbLine
 10
8123.600000000021
 20
5671.907777930215
 30
0.0
 11
8123.600000000022
 21
5866.907777930214
 31
0.0
  0
LINE
  5
22963
102
{ACAD_REACTORS
330
24028
102
}
330
747D
100
AcDbEntity
  8
部品1
 48
50.0
100
AcDbLine
 10
8323.60000000002
 20
5671.907777930216
 30
0.0
 11
8323.600000000022
 21
5866.907777930217
 31
0.0
  0
LINE
  5
22965
330
747D
100
AcDbEntity
  8
部品1
 48
50.0
100
AcDbLine
 10
9333.6
 20
5671.907777930226
 30
0.0
 11
9333.6
 21
5746.907777930223
 31
0.0
  0
LINE
  5
22966
330
747D
100
AcDbEntity
  8
部品1
 48
50.0
100
AcDbLine
 10
9213.599999999997
 20
5976.907777930222
 30
0.0
 11
9103.6
 21
5976.907777930223
 31
0.0
  0
LINE
  5
22967
330
747D
100
AcDbEntity
  8
部品1
 48
50.0
100
AcDbLine
 10
9103.6
 20
5866.907777930221
 30
0.0
 11
9103.6
 21
5976.907777930223
 31
0.0
  0
LINE
  5
22968
330
747D
100
AcDbEntity
  8
センター
 48
2.0
100
AcDbLine
 10
9160.600000000007
 20
5869.907777930207
 30
0.0
 11
9260.600000000009
 21
5869.907777930207
 31
0.0
  0
CIRCLE
  5
22969
330
747D
100
AcDbEntity
  8
部品1
 48
50.0
100
AcDbCircle
 10
9210.600000000008
 20
5869.907777930207
 30
0.0
 40
35.0
  0
LINE
  5
2296A
330
747D
100
AcDbEntity
  8
センター
 48
2.0
100
AcDbLine
 10
9210.600000000008
 20
5919.907777930207
 30
0.0
 11
9210.600000000008
 21
5819.907777930207
 31
0.0
  0
DIMENSION
  5
2296B
330
747D
100
AcDbEntity
  8
寸法
 48
50.0
100
AcDbDimension
  2
*D34
 10
6505.217725433258
 20
6481.907777930205
 30
0.0
 11
6405.217725433256
 21
6856.907777930207
 31
0.0
 70
    32
 71
     5
 42
749.9999999999972
  3
INABA_S40G
100
AcDbAlignedDimension
 13
7777.600000000001
 23
7231.907777930202
 33
0.0
 14
7777.600000000001
 24
6481.907777930205
 34
0.0
 50
90.0
100
AcDbRotatedDimension
1001
ACAD
1000
DSTYLE
1002
{
1070
   174
1070
     0
1070
   272
1070
     1
1070
   341
1005
0
1002
}
  0
LINE
  5
2296D
102
{ACAD_REACTORS
330
24045
102
}
330
747D
100
AcDbEntity
  8
部品1
 48
50.0
100
AcDbLine
 10
9333.6
 20
7966.907777930204
 30
0.0
 11
7113.600000000001
 21
7966.907777930204
 31
0.0
  0
DIMENSION
  5
2296F
330
747D
100
AcDbEntity
  8
寸法
 48
50.0
100
AcDbDimension
  2
*D35
 10
6505.217725433258
 20
7966.907777930204
 30
0.0
 11
6405.217725433257
 21
7599.407777930206
 31
0.0
 70
    32
 71
     5
 42
735.0000000000018
  3
INABA_S40G
100
AcDbAlignedDimension
 13
7777.600000000001
 23
7231.907777930202
 33
0.0
 14
7113.600000000001
 24
7966.907777930204
 34
0.0
 50
90.0
100
AcDbRotatedDimension
1001
ACAD
1000
DSTYLE
1002
{
1070
   174
1070
     0
1070
   272
1070
     1
1070
   341
1005
0
1002
}
  0
LINE
  5
22971
102
{ACAD_REACTORS
330
2400B
102
}
330
747D
100
AcDbEntity
  8
部品1
 48
50.0
100
AcDbLine
 10
7233.6
 20
6756.907777930215
 30
0.0
 11
7113.600000000001
 21
6756.907777930215
 31
0.0
  0
LINE
  5
22972
102
{ACAD_REACTORS
330
2400B
102
}
330
747D
100
AcDbEntity
  8
部品1
 48
50.0
100
AcDbLine
 10
7233.6
 20
6956.907777930213
 30
0.0
 11
7113.600000000001
 21
6956.907777930215
 31
0.0
  0
LINE
  5
22973
330
747D
100
AcDbEntity
  8
部品1
 48
50.0
100
AcDbLine
 10
7343.600000000001
 20
7736.907777930202
 30
0.0
 11
7233.6
 21
7736.907777930205
 31
0.0
  0
LINE
  5
22974
330
747D
100
AcDbEntity
  8
部品1
 48
50.0
100
AcDbLine
 10
7517.6
 20
7966.907777930201
 30
0.0
 11
7113.600000000001
 21
7966.907777930204
 31
0.0
  0
LINE
  5
22975
330
747D
100
AcDbEntity
  8
センター
 48
2.0
100
AcDbLine
 10
7236.6
 20
7893.907777930204
 30
0.0
 11
7236.6
 21
7793.907777930205
 31
0.0
  0
LINE
  5
22976
330
747D
100
AcDbEntity
  8
センター
 48
2.0
100
AcDbLine
 10
7186.6
 20
7843.907777930205
 30
0.0
 11
7286.599999999999
 21
7843.907777930205
 31
0.0
  0
CIRCLE
  5
22977
330
747D
100
AcDbEntity
  8
部品1
 48
50.0
100
AcDbCircle
 10
7236.6
 20
7843.907777930205
 30
0.0
 40
35.0
  0
LINE
  5
22978
330
747D
100
AcDbEntity
  8
部品1
 48
50.0
100
AcDbLine
 10
7343.600000000001
 20
7736.907777930202
 30
0.0
 11
7343.600000000002
 21
7846.907777930207
 31
0.0
  0
LINE
  5
22986
102
{ACAD_REACTORS
330
24062
102
}
330
747D
100
AcDbEntity
  8
部品1
 48
50.0
100
AcDbLine
 10
9333.6
 20
6756.907777930215
 30
0.0
 11
9213.600000000001
 21
6756.907777930215
 31
0.0
  0
LINE
  5
22987
102
{ACAD_REACTORS
330
24062
102
}
330
747D
100
AcDbEntity
  8
部品1
 48
50.0
100
AcDbLine
 10
9333.6
 20
6956.907777930215
 30
0.0
 11
9213.600000000001
 21
6956.907777930215
 31
0.0
  0
DIMENSION
  5
22988
330
747D
100
AcDbEntity
  8
寸法
 48
50.0
100
AcDbDimension
  2
*D36
 10
9103.6
 20
7507.704956834112
 30
0.0
 11
8833.540944881891
 21
7507.704956834112
 31
0.0
 70
   160
 71
     5
 42
110.0
  3
INABA_S40G
100
AcDbAlignedDimension
 13
9213.600000000001
 23
7524.698220872942
 33
0.0
 14
9103.6
 24
7736.907777930203
 34
0.0
100
AcDbRotatedDimension
1001
ACAD
1000
DSTYLE
1002
{
1070
   174
1070
     0
1070
   272
1070
     1
1070
   341
1005
0
1002
}
  0
LINE
  5
2298E
102
{ACAD_REACTORS
330
24045
102
}
330
747D
100
AcDbEntity
  8
部品1
 48
50.0
100
AcDbLine
 10
8123.600000000001
 20
7846.907777930204
 30
0.0
 11
8123.600000000001
 21
7966.907777930204
 31
0.0
  0
LINE
  5
2298F
102
{ACAD_REACTORS
330
24045
102
}
330
747D
100
AcDbEntity
  8
部品1
 48
50.0
100
AcDbLine
 10
8323.599999999998
 20
7846.907777930204
 30
0.0
 11
8323.6
 21
7966.907777930204
 31
0.0
  0
LINE
  5
22990
330
747D
100
AcDbEntity
  8
センター
 48
2.0
100
AcDbLine
 10
9210.600000000001
 20
7893.907777930204
 30
0.0
 11
9210.600000000001
 21
7793.907777930205
 31
0.0
  0
LINE
  5
22991
330
747D
100
AcDbEntity
  8
部品1
 48
50.0
100
AcDbLine
 10
9103.6
 20
7736.907777930203
 30
0.0
 11
9103.6
 21
7846.907777930204
 31
0.0
  0
LINE
  5
22992
330
747D
100
AcDbEntity
  8
部品1
 48
50.0
100
AcDbLine
 10
9213.599999999997
 20
7736.907777930206
 30
0.0
 11
9103.6
 21
7736.907777930203
 31
0.0
  0
LINE
  5
22993
330
747D
100
AcDbEntity
  8
センター
 48
2.0
100
AcDbLine
 10
9160.6
 20
7843.907777930205
 30
0.0
 11
9260.600000000001
 21
7843.907777930205
 31
0.0
  0
CIRCLE
  5
22994
330
747D
100
AcDbEntity
  8
部品1
 48
50.0
100
AcDbCircle
 10
9210.600000000001
 20
7843.907777930205
 30
0.0
 40
35.0
  0
MTEXT
  5
22D7D
102
{ACAD_REACTORS
330
22D7E
102
}
330
747D
100
AcDbEntity
  8
部品1
 62
     7
 48
50.0
100
AcDbMText
 10
10528.99523070988
 20
8217.880272274156
 30
0.0
 40
120.0
 41
0.0
 71
     6
 72
     1
  1
アンカーボルト
  7
STYLE1
 73
     1
 44
1.0
1001
ACAD
1000
MTEXTBEGIN
1070
    73
1070
     1
1070
    44
1040
1.0
1070
    74
1070
     0
1000
MTEXTEND
  0
LEADER
  5
22D7E
330
747D
100
AcDbEntity
  8
寸法
 48
50.0
100
AcDbLeader
  3
INABA_S50G
 73
     0
 74
     0
 75
     1
 40
120.0
 41
994.3492424049171
 76
     3
 10
9210.68008575701
 20
7843.921501126413
 30
0.0
 10
9384.645988304972
 20
8132.880272274155
 30
0.0
 10
9509.645988304972
 20
8132.880272274155
 30
0.0
340
22D7D
1001
ACAD
1000
DSTYLE
1002
{
1070
   341
1005
0
1070
    40
1040
1.0
1070
   343
1005
0
1070
   344
1005
0
1002
}
  0
MTEXT
  5
22D7F
102
{ACAD_REACTORS
330
22D80
102
}
330
747D
100
AcDbEntity
  8
部品1
 62
     7
 48
50.0
100
AcDbMText
 10
10360.46907400128
 20
6716.651411151047
 30
0.0
 40
120.0
 41
0.0
 71
     6
 72
     1
  1
\A1;床下換気口
  7
STYLE1
 73
     1
 44
1.0
1001
ACAD
1000
MTEXTBEGIN
1070
    73
1070
     1
1070
    44
1040
1.0
1070
    74
1070
     0
1000
MTEXTEND
  0
LEADER
  5
22D80
330
747D
100
AcDbEntity
  8
寸法
 48
50.0
100
AcDbLeader
  3
INABA_S50G
 73
     0
 74
     0
 75
     1
 40
120.0
 41
720.0000000000001
 76
     3
 10
9333.695499614997
 20
6892.66532471888
 30
0.0
 10
9490.46907400128
 20
6631.651411151046
 30
0.0
 10
9615.46907400128
 20
6631.651411151046
 30
0.0
340
22D7F
1001
ACAD
1000
DSTYLE
1002
{
1070
   341
1005
0
1070
    40
1040
1.0
1070
   343
1005
0
1070
   344
1005
0
1002
}
  0
TEXT
  5
22D81
330
747D
100
AcDbEntity
  8
部品1
 48
50.0
100
AcDbText
 10
9682.430138461166
 20
5515.286749861079
 30
0.0
 40
80.0
  1
(a=45,b=55,c=75)
  7
STYLE1
100
AcDbText
  0
TEXT
  5
22D82
330
747D
100
AcDbEntity
  8
部品1
 48
50.0
100
AcDbText
 10
9523.851129706864
 20
5622.131970729834
 30
0.0
 40
80.0
  1
※a,b,cは屋根の出幅です。
  7
STYLE1
100
AcDbText
  0
MTEXT
  5
22D83
102
{ACAD_REACTORS
330
22D84
102
}
330
747D
100
AcDbEntity
  8
部品1
 62
     7
 48
50.0
100
AcDbMText
 10
10321.63832569547
 20
5801.442657662909
 30
0.0
 40
120.0
 41
0.0
 71
     6
 72
     1
  1
\A1;屋根の外寸
  7
STYLE1
 73
     1
 44
1.0
1001
ACAD
1000
MTEXTBEGIN
1070
    73
1070
     1
1070
    44
1040
1.0
1070
    74
1070
     0
1000
MTEXTEND
  0
LEADER
  5
22D84
330
747D
100
AcDbEntity
  8
寸法
 48
50.0
100
AcDbLeader
  3
INABA_S50G
 73
     0
 74
     0
 75
     1
 40
120.0
 41
672.0
 76
     3
 10
9383.69831350343
 20
5975.332001126485
 30
0.0
 10
9499.638325695469
 20
5716.442657662909
 30
0.0
 10
9624.638325695471
 20
5716.442657662909
 30
0.0
340
22D83
1001
ACAD
1000
DSTYLE
1002
{
1070
   341
1005
0
1070
    40
1040
1.0
1070
   343
1005
0
1070
   344
1005
0
1002
}
  0
LWPOLYLINE
  5
23117
330
747D
100
AcDbEntity
  8
寸法
 48
50.0
100
AcDbPolyline
 90
        3
 70
     0
 43
0.0
 10
8501.36654737458
 20
6308.227462080632
 10
8462.70347086787
 20
6160.517371308085
 10
8198.398513937908
 20
6160.517371308084
1001
ACAD
1000
DSTYLE
1002
{
1070
   341
1005
0
1070
   343
1005
0
1070
   344
1005
0
1002
}
  0
SOLID
  5
23118
330
747D
100
AcDbEntity
  8
寸法
 48
50.0
100
AcDbTrace
 10
8481.212193794714
 20
6313.502858706049
 30
0.0
 11
8533.018927127088
 21
6429.153583559835
 31
0.0
 12
8521.520900954447
 22
6302.952065455214
 32
0.0
 13
8521.520900954447
 23
6302.952065455214
 33
0.0
1001
ACAD
1000
DSTYLE
1002
{
1070
   341
1005
0
1070
   343
1005
0
1070
   344
1005
0
1002
}
  0
MTEXT
  5
23119
330
747D
100
AcDbEntity
  8
部品1
 62
     7
 48
50.0
100
AcDbMText
 10
8366.256561917818
 20
6251.307068355796
 30
0.0
 40
120.0
 41
0.0
 71
     6
 72
     1
  1
CB
  7
STYLE1
 73
     1
 44
1.0
1001
ACAD
1000
MTEXTBEGIN
1070
    73
1070
     1
1070
    44
1040
1.0
1070
    74
1070
     0
1000
MTEXTEND
  0
LINE
  5
234F3
330
747D
100
AcDbEntity
  8
センター
 48
2.0
100
AcDbLine
 10
8569.600000000001
 20
6531.907777930212
 30
0.0
 11
8569.600000000001
 21
6431.907777930212
 31
0.0
  0
LINE
  5
234F4
330
747D
100
AcDbEntity
  8
部品1
 48
50.0
100
AcDbLine
 10
8669.6
 20
6381.90777793021
 30
0.0
 11
8669.6
 21
6581.907777930211
 31
0.0
  0
LINE
  5
234F5
330
747D
100
AcDbEntity
  8
部品1
 48
50.0
100
AcDbLine
 10
8469.600000000001
 20
6381.90777793021
 30
0.0
 11
8469.600000000005
 21
6581.907777930213
 31
0.0
  0
LINE
  5
234F6
330
747D
100
AcDbEntity
  8
センター
 48
2.0
100
AcDbLine
 10
8519.600000000002
 20
6481.907777930212
 30
0.0
 11
8619.600000000001
 21
6481.907777930212
 31
0.0
  0
LINE
  5
234F7
330
747D
100
AcDbEntity
  8
部品1
 48
50.0
100
AcDbLine
 10
8669.6
 20
6381.90777793021
 30
0.0
 11
8469.600000000001
 21
6381.90777793021
 31
0.0
  0
LINE
  5
234F8
330
747D
100
AcDbEntity
  8
部品1
 48
50.0
100
AcDbLine
 10
8669.6
 20
6581.907777930211
 30
0.0
 11
8469.600000000001
 21
6581.907777930211
 31
0.0
  0
LINE
  5
234F9
330
747D
100
AcDbEntity
  8
センター
 48
2.0
100
AcDbLine
 10
7827.6
 20
6481.907777930212
 30
0.0
 11
7927.599999999999
 21
6481.907777930212
 31
0.0
  0
LINE
  5
234FA
330
747D
100
AcDbEntity
  8
部品1
 48
50.0
100
AcDbLine
 10
7777.600000000001
 20
6381.90777793021
 30
0.0
 11
7777.600000000003
 21
6581.907777930213
 31
0.0
  0
LINE
  5
234FB
330
747D
100
AcDbEntity
  8
部品1
 48
50.0
100
AcDbLine
 10
7977.599999999998
 20
6381.90777793021
 30
0.0
 11
7977.599999999999
 21
6581.907777930211
 31
0.0
  0
LINE
  5
234FC
330
747D
100
AcDbEntity
  8
センター
 48
2.0
100
AcDbLine
 10
7877.6
 20
6531.907777930212
 30
0.0
 11
7877.6
 21
6431.907777930212
 31
0.0
  0
LINE
  5
234FD
330
747D
100
AcDbEntity
  8
部品1
 48
50.0
100
AcDbLine
 10
7977.599999999999
 20
6581.907777930211
 30
0.0
 11
7777.599999999999
 21
6581.907777930211
 31
0.0
  0
LINE
  5
234FE
330
747D
100
AcDbEntity
  8
部品1
 48
50.0
100
AcDbLine
 10
7977.599999999999
 20
6381.90777793021
 30
0.0
 11
7777.599999999999
 21
6381.90777793021
 31
0.0
  0
LINE
  5
234FF
330
747D
100
AcDbEntity
  8
部品1
 48
50.0
100
AcDbLine
 10
7977.599999999999
 20
7131.907777930202
 30
0.0
 11
7777.599999999999
 21
7131.907777930202
 31
0.0
  0
LINE
  5
23500
330
747D
100
AcDbEntity
  8
部品1
 48
50.0
100
AcDbLine
 10
7977.599999999999
 20
7331.907777930202
 30
0.0
 11
7777.599999999999
 21
7331.907777930202
 31
0.0
  0
DIMENSION
  5
2350A
330
747D
100
AcDbEntity
  8
寸法
 48
50.0
100
AcDbDimension
  2
*D37
 10
8569.600000000001
 20
8493.817543578533
 30
0.0
 11
8223.600000000001
 21
8593.858356143334
 31
0.0
 70
    32
 71
     5
 42
692.0000000000008
  3
INABA_S40G
100
AcDbAlignedDimension
 13
7877.6
 23
7281.907777930202
 33
0.0
 14
8569.600000000001
 24
7281.907777930202
 34
0.0
100
AcDbRotatedDimension
1001
ACAD
1000
DSTYLE
1002
{
1070
   174
1070
     0
1070
   272
1070
     1
1070
   288
1070
     0
1070
   341
1005
0
1002
}
  0
LINE
  5
2350B
330
747D
100
AcDbEntity
  8
センター
 48
2.0
100
AcDbLine
 10
7877.6
 20
7281.907777930202
 30
0.0
 11
7877.6
 21
7181.907777930202
 31
0.0
  0
LINE
  5
2350C
330
747D
100
AcDbEntity
  8
部品1
 48
50.0
100
AcDbLine
 10
7977.599999999998
 20
7131.907777930202
 30
0.0
 11
7977.599999999999
 21
7331.907777930202
 31
0.0
  0
LINE
  5
2350D
330
747D
100
AcDbEntity
  8
部品1
 48
50.0
100
AcDbLine
 10
7777.600000000001
 20
7131.907777930202
 30
0.0
 11
7777.599999999999
 21
7331.907777930202
 31
0.0
  0
LINE
  5
2350E
330
747D
100
AcDbEntity
  8
センター
 48
2.0
100
AcDbLine
 10
7827.6
 20
7231.907777930202
 30
0.0
 11
7927.599999999999
 21
7231.907777930202
 31
0.0
  0
LINE
  5
23512
330
747D
100
AcDbEntity
  8
部品1
 48
50.0
100
AcDbLine
 10
8669.6
 20
7331.907777930202
 30
0.0
 11
8469.600000000001
 21
7331.907777930202
 31
0.0
  0
LINE
  5
23513
330
747D
100
AcDbEntity
  8
部品1
 48
50.0
100
AcDbLine
 10
8669.6
 20
7131.907777930202
 30
0.0
 11
8469.600000000001
 21
7131.907777930202
 31
0.0
  0
LINE
  5
23514
330
747D
100
AcDbEntity
  8
センター
 48
2.0
100
AcDbLine
 10
8519.600000000002
 20
7231.907777930202
 30
0.0
 11
8619.600000000001
 21
7231.907777930202
 31
0.0
  0
LINE
  5
23515
330
747D
100
AcDbEntity
  8
部品1
 48
50.0
100
AcDbLine
 10
8469.600000000005
 20
7131.907777930202
 30
0.0
 11
8469.600000000005
 21
7331.907777930202
 31
0.0
  0
LINE
  5
23516
330
747D
100
AcDbEntity
  8
部品1
 48
50.0
100
AcDbLine
 10
8669.6
 20
7131.907777930202
 30
0.0
 11
8669.6
 21
7331.907777930202
 31
0.0
  0
LINE
  5
23517
330
747D
100
AcDbEntity
  8
センター
 48
2.0
100
AcDbLine
 10
8569.600000000001
 20
7281.907777930202
 30
0.0
 11
8569.600000000001
 21
7181.907777930202
 31
0.0
  0
DIMENSION
  5
23518
330
747D
100
AcDbEntity
  8
寸法
 48
50.0
100
AcDbDimension
  2
*D38
 10
7113.599999999998
 20
8493.817543578533
 30
0.0
 11
7495.599999999999
 21
8593.817543578532
 31
0.0
 70
    32
 71
     5
 42
764.0000000000009
  3
INABA_S40G
100
AcDbAlignedDimension
 13
7877.6
 23
7281.907777930202
 33
0.0
 14
7113.599999999998
 24
7966.907777930204
 34
0.0
100
AcDbRotatedDimension
1001
ACAD
1000
DSTYLE
1002
{
1070
   174
1070
     0
1070
   272
1070
     1
1070
   279
1070
     1
1070
   288
1070
     0
1070
   341
1005
0
1002
}
  0
DIMENSION
  5
23519
330
747D
100
AcDbEntity
  8
寸法
 48
50.0
100
AcDbDimension
  2
*D39
 10
8569.600000000001
 20
8493.817543578533
 30
0.0
 11
8910.370135182452
 21
8492.079508885542
 31
0.0
 70
   160
 71
     5
 42
763.9999999999964
  3
INABA_S40G
100
AcDbAlignedDimension
 13
9333.599999999997
 23
7966.907777930204
 33
0.0
 14
8569.600000000001
 24
7281.907777930202
 34
0.0
100
AcDbRotatedDimension
1001
ACAD
1000
DSTYLE
1002
{
1070
   174
1070
     0
1070
   272
1070
     1
1070
   279
1070
     1
1070
   288
1070
     0
1070
   341
1005
0
1002
}
  0
LINE
  5
23D49
330
747D
100
AcDbEntity
  8
想像線
 48
10.0
100
AcDbLine
 10
8884.139106188328
 20
8021.907777930207
 30
0.0
 11
9383.599999999999
 21
8021.907777930207
 31
0.0
  0
DIMENSION
  5
23D4A
330
747D
100
AcDbEntity
  8
寸法
 48
50.0
100
AcDbDimension
  2
*D40
 10
7572.938460046265
 20
5866.907777930192
 30
0.0
 11
7572.938460046265
 21
5433.212836726326
 31
0.0
 70
   160
 71
     5
 42
194.9999999999727
  3
INABA_S40G
100
AcDbAlignedDimension
 13
7343.600000000001
 23
5671.907777930219
 33
0.0
 14
7343.600000000002
 24
5866.907777930192
 34
0.0
 50
270.0
100
AcDbRotatedDimension
1001
ACAD
1000
DSTYLE
1002
{
1070
   341
1005
0
1002
}
  0
DIMENSION
  5
23D4B
330
747D
100
AcDbEntity
  8
寸法
 48
50.0
100
AcDbDimension
  2
*D41
 10
7572.938460046265
 20
5976.90777793022
 30
0.0
 11
7572.938460046265
 21
6212.95502202471
 31
0.0
 70
   160
 71
     5
 42
110.0000000000109
  3
INABA_S40G
100
AcDbAlignedDimension
 13
7343.600000000001
 23
5866.907777930208
 33
0.0
 14
7343.600000000002
 24
5976.90777793022
 34
0.0
 50
270.0
100
AcDbRotatedDimension
1001
ACAD
1000
DSTYLE
1002
{
1070
   341
1005
0
1002
}
  0
TEXT
  5
23D4C
330
747D
100
AcDbEntity
  8
寸法
 62
     7
100
AcDbText
 10
7196.285760402144
 20
4416.475502532011
 30
0.0
 40
120.0
  1
扉の位置に合わせた基礎形状として下さい。
  7
STYLE1
100
AcDbText
  0
LWPOLYLINE
  5
23D4D
330
747D
100
AcDbEntity
  8
寸法
 48
50.0
100
AcDbPolyline
 90
        3
 70
     0
 43
0.0
 10
-7420.680265711762
 20
5671.907777930218
 10
-7079.66980120939
 20
4565.811317867016
 10
-9893.734214141034
 20
4565.811317867016
210
0.0
220
0.0
230
-1.0
1001
ACAD
1000
DSTYLE
1002
{
1070
   341
1005
0
1070
    40
1040
1.0
1070
   343
1005
0
1070
   344
1005
0
1002
}
  0
SOLID
  5
23D4E
330
747D
100
AcDbEntity
  8
寸法
 48
50.0
100
AcDbTrace
 10
-7403.771060041775
 20
5546.316749025333
 30
0.0
 11
-7420.680265711762
 21
5671.907777930218
 31
0.0
 12
-7363.952845568298
 22
5558.589519994241
 32
0.0
 13
-7363.952845568298
 23
5558.589519994241
 33
0.0
210
0.0
220
0.0
230
-1.0
1001
ACAD
1000
DSTYLE
1002
{
1070
   341
1005
0
1070
    40
1040
1.0
1070
   343
1005
0
1070
   344
1005
0
1002
}
  0
TEXT
  5
23D4F
330
747D
100
AcDbEntity
  8
寸法
 62
     7
100
AcDbText
 10
7196.285760402144
 20
4588.079265415337
 30
0.0
 40
120.0
  1
扉位置 (2220x75)
  7
STYLE1
100
AcDbText
  0
DIMENSION
  5
23D50
330
747D
100
AcDbEntity
  8
寸法
 48
50.0
100
AcDbDimension
  2
*D42
 10
7113.600000000001
 20
4957.043474506095
 30
0.0
 11
8223.600000000001
 21
5057.055285529717
 31
0.0
 70
    32
  1
扉の幅 <>
 71
     5
 42
2220.0
  3
INABA_S40G
100
AcDbAlignedDimension
 13
9333.6
 23
5671.907777930241
 33
0.0
 14
7113.600000000001
 24
5671.907777930205
 34
0.0
100
AcDbRotatedDimension
1001
ACAD
1000
DSTYLE
1002
{
1070
   341
1005
0
1002
}
  0
LINE
  5
23FD7
330
747D
100
AcDbEntity
  8
想像線
 48
10.0
100
AcDbLine
 10
8884.139106188333
 20
5671.907777930202
 30
0.0
 11
9383.600000000006
 21
5671.907777930202
 31
0.0
  0
LINE
  5
23FEC
102
{ACAD_REACTORS
330
24062
102
}
330
747D
100
AcDbEntity
  8
部品1
 48
50.0
100
AcDbLine
 10
9213.600000000001
 20
5976.907777930225
 30
0.0
 11
9213.600000000001
 21
7736.907777930206
 31
0.0
  0
LINE
  5
23FED
102
{ACAD_REACTORS
330
24028
102
}
330
747D
100
AcDbEntity
  8
部品1
 48
50.0
100
AcDbLine
 10
9103.6
 20
5866.907777930221
 30
0.0
 11
7343.600000000001
 21
5866.907777930208
 31
0.0
  0
LINE
  5
23FEE
102
{ACAD_REACTORS
330
2400B
102
}
330
747D
100
AcDbEntity
  8
部品1
 48
50.0
100
AcDbLine
 10
7233.6
 20
5976.907777930207
 30
0.0
 11
7233.6
 21
7736.907777930202
 31
0.0
  0
LINE
  5
23FEF
102
{ACAD_REACTORS
330
24045
102
}
330
747D
100
AcDbEntity
  8
部品1
 48
50.0
100
AcDbLine
 10
9103.6
 20
7846.907777930204
 30
0.0
 11
7343.600000000001
 21
7846.907777930205
 31
0.0
  0
HATCH
  5
2400B
330
747D
100
AcDbEntity
  8
細線
 48
50.0
100
AcDbHatch
 10
0.0
 20
0.0
 30
0.0
210
0.0
220
0.0
230
1.0
  2
LINE
 70
     0
 71
     1
 91
        1
 92
        7
 72
     0
 73
     1
 93
        4
 10
7233.6
 20
6956.907777930215
 10
7113.600000000001
 20
6956.907777930215
 10
7113.600000000001
 20
6756.907777930213
 10
7233.6
 20
6756.907777930215
 97
        4
330
22972
330
2294D
330
22971
330
23FEE
 75
     0
 76
     1
 52
45.0
 41
10.0
 77
     0
 78
     1
 53
45.0
 43
0.0
 44
0.0
 45
-22.45064030267288
 46
22.45064030267288
 79
     0
 47
4.1300728266707
 98
        1
 10
7216.106907815948
 20
6828.845355710765
  0
HATCH
  5
24028
330
747D
100
AcDbEntity
  8
細線
 48
50.0
100
AcDbHatch
 10
0.0
 20
0.0
 30
0.0
210
0.0
220
0.0
230
1.0
  2
LINE
 70
     0
 71
     1
 91
        1
 92
        7
 72
     0
 73
     1
 93
        4
 10
8323.60000000002
 20
5866.907777930217
 10
8123.600000000022
 20
5866.907777930216
 10
8123.600000000021
 20
5671.907777930215
 10
8323.60000000002
 20
5671.907777930216
 97
        4
330
23FED
330
22962
330
22952
330
22963
 75
     0
 76
     1
 52
45.0
 41
10.0
 77
     0
 78
     1
 53
45.0
 43
0.0
 44
0.0
 45
-22.45064030267288
 46
22.45064030267288
 79
     0
 47
7.410698400464611
 98
        1
 10
8230.046905045915
 20
5765.066084085698
  0
HATCH
  5
24045
330
747D
100
AcDbEntity
  8
細線
 48
50.0
100
AcDbHatch
 10
0.0
 20
0.0
 30
0.0
210
0.0
220
0.0
230
1.0
  2
LINE
 70
     0
 71
     1
 91
        1
 92
        7
 72
     0
 73
     1
 93
        4
 10
8323.6
 20
7966.907777930202
 10
8123.600000000001
 20
7966.907777930202
 10
8123.600000000001
 20
7846.907777930205
 10
8323.599999999997
 20
7846.907777930205
 97
        4
330
2296D
330
2298E
330
23FEF
330
2298F
 75
     0
 76
     1
 52
45.0
 41
10.0
 77
     0
 78
     1
 53
45.0
 43
0.0
 44
0.0
 45
-22.45064030267288
 46
22.45064030267288
 79
     0
 47
7.410698400464611
 98
        1
 10
8237.805302101994
 20
7897.753743821126
  0
HATCH
  5
24062
330
747D
100
AcDbEntity
  8
細線
 48
50.0
100
AcDbHatch
 10
0.0
 20
0.0
 30
0.0
210
0.0
220
0.0
230
1.0
  2
LINE
 70
     0
 71
     1
 91
        1
 92
        7
 72
     0
 73
     1
 93
        4
 10
9333.6
 20
6956.907777930215
 10
9213.599999999997
 20
6956.907777930213
 10
9213.600000000001
 20
6756.907777930215
 10
9333.599999999998
 20
6756.907777930215
 97
        4
330
22987
330
23FEC
330
22986
330
22949
 75
     0
 76
     1
 52
45.0
 41
10.0
 77
     0
 78
     1
 53
45.0
 43
0.0
 44
0.0
 45
-22.45064030267288
 46
22.45064030267288
 79
     0
 47
7.410698400464611
 98
        1
 10
9268.372151731986
 20
6904.720172362704
  0
LINE
  5
24212
330
747D
100
AcDbEntity
  8
部品1
100
AcDbLine
 10
11171.51615966157
 20
3463.274200719687
 30
0.0
 11
5100.530974275317
 21
3463.274200719686
 31
0.0
  0
LINE
  5
24213
330
747D
100
AcDbEntity
  8
部品1
100
AcDbLine
 10
11171.51615966157
 20
3223.274200719685
 30
0.0
 11
5100.53097427532
 21
3223.274200719686
 31
0.0
  0
LINE
  5
24214
330
747D
100
AcDbEntity
  8
部品1
100
AcDbLine
 10
5100.530974275322
 20
498.9672311350395
 30
0.0
 11
11171.51615966157
 21
498.9672311350395
 31
0.0
  0
LEADER
  5
24215
330
747D
100
AcDbEntity
  8
寸法
 48
50.0
100
AcDbLeader
  3
INABA_S50G
 73
     0
 74
     0
 75
     1
 40
102.2727272727273
 41
680.0000000000001
 76
     3
 10
8108.638726261776
 20
2541.177862051985
 30
0.0
 10
8142.992697375133
 20
2951.630673158526
 30
0.0
 10
8267.992697375133
 20
2951.630673158526
 30
0.0
340
24216
1001
ACAD
1000
DSTYLE
1002
{
1070
   341
1005
0
1070
    40
1040
1.0
1070
   343
1005
0
1070
   344
1005
0
1002
}
  0
MTEXT
  5
24216
102
{ACAD_REACTORS
330
24215
102
}
330
747D
100
AcDbEntity
  8
部品1
 62
     7
 48
50.0
100
AcDbMText
 10
8292.992697375133
 20
3027.76703679489
 30
0.0
 40
80.0
 41
0.8
 71
     4
 72
     1
  1
\A1;ナット(市販品)
  7
STYLE2
 73
     1
 44
1.0
1001
ACAD
1000
MTEXTBEGIN
1070
    73
1070
     1
1070
    44
1040
1.0
1070
    74
1070
     0
1000
MTEXTEND
  0
LEADER
  5
24217
330
747D
100
AcDbEntity
  8
寸法
 48
50.0
100
AcDbLeader
  3
INABA_S50G
 73
     0
 74
     0
 75
     1
 40
102.2727272727273
 41
906.8181818181818
 76
     3
 10
8132.638726261776
 20
2411.425869387122
 30
0.0
 10
8174.510316630614
 20
2766.661590393738
 30
0.0
 10
8299.510316630614
 20
2766.661590393738
 30
0.0
340
24218
1001
ACAD
1000
DSTYLE
1002
{
1070
   341
1005
0
1070
    40
1040
1.0
1070
   343
1005
0
1070
   344
1005
0
1002
}
  0
MTEXT
  5
24218
102
{ACAD_REACTORS
330
24217
102
}
330
747D
100
AcDbEntity
  8
部品1
 62
     7
 48
50.0
100
AcDbMText
 10
8324.510316630615
 20
2842.797954030102
 30
0.0
 40
80.0
 41
0.8
 71
     4
 72
     1
  1
\A1;ワッシャー(市販品)
  7
STYLE2
 73
     1
 44
1.0
1001
ACAD
1000
MTEXTBEGIN
1070
    73
1070
     1
1070
    44
1040
1.0
1070
    74
1070
     0
1000
MTEXTEND
  0
LWPOLYLINE
  5
24219
330
747D
100
AcDbEntity
  8
部品1
 48
50.0
100
AcDbPolyline
 90
        2
 70
     0
 43
8.0
 10
8285.238726261775
 20
1902.302580942843
 10
8578.94118966116
 20
1902.302580942843
  0
TEXT
  5
2421A
330
747D
100
AcDbEntity
  8
部品1
 48
50.0
100
AcDbText
 10
8289.592310546204
 20
2498.181261705042
 30
0.0
 40
80.0
  1
基礎ボルト(市販品)
  7
STYLE2
100
AcDbText
  0
DIMENSION
  5
2421B
330
747D
100
AcDbEntity
  8
寸法
 48
50.0
100
AcDbDimension
  2
*D44
 10
8787.10732603062
 20
1818.302580942841
 30
0.0
 11
8687.107326030618
 21
1980.302580942842
 31
0.0
 70
    32
  1
180
 71
     5
 42
324.0000000000009
  3
INABA_S40G
100
AcDbAlignedDimension
 13
8285.238726261775
 23
2142.302580942842
 33
0.0
 14
8285.238726261775
 24
1818.302580942841
 34
0.0
 50
90.0
100
AcDbRotatedDimension
1001
ACAD
1000
DSTYLE
1002
{
1070
   174
1070
     0
1070
   272
1070
     1
1070
   279
1070
     1
1070
   288
1070
     0
1070
   341
1005
0
1002
}
  0
DIMENSION
  5
2421C
330
747D
100
AcDbEntity
  8
寸法
 48
50.0
100
AcDbDimension
  2
*D45
 10
8787.10732603062
 20
2142.302580942842
 30
0.0
 11
9063.161992149646
 21
2117.17862333863
 31
0.0
 70
   160
  1
20～25
 71
     5
 42
52.76000000000113
  3
INABA_S40G
100
AcDbAlignedDimension
 13
8098.038726261776
 23
2195.062580942843
 33
0.0
 14
8285.238726261775
 24
2142.302580942842
 34
0.0
 50
90.0
100
AcDbRotatedDimension
1001
ACAD
1000
DSTYLE
1002
{
1070
   174
1070
     0
1070
   272
1070
     1
1070
   279
1070
     1
1070
   288
1070
     0
1070
   341
1005
0
1002
}
  0
MTEXT
  5
2421D
102
{ACAD_REACTORS
330
2421E
102
}
330
747D
100
AcDbEntity
  8
部品1
 62
     7
 48
50.0
100
AcDbMText
 10
8294.183188681094
 20
2406.685907096072
 30
0.0
 40
80.0
 41
0.8
 71
     4
 72
     1
  1
M10X160
  7
STYLE2
 73
     1
 44
1.0
1001
ACAD
1000
MTEXTBEGIN
1070
    73
1070
     1
1070
    44
1040
1.0
1070
    74
1070
     0
1000
MTEXTEND
  0
LEADER
  5
2421E
330
747D
100
AcDbEntity
  8
寸法
 48
50.0
100
AcDbLeader
  3
INABA_S50G
 73
     0
 74
     0
 75
     1
 40
80.0
 41
435.0
 76
     3
 10
8101.638726261775
 20
2191.462580942843
 30
0.0
 10
8144.183188681095
 20
2341.685907096072
 30
0.0
 10
8269.183188681095
 20
2341.685907096072
 30
0.0
340
2421D
1001
ACAD
1000
DSTYLE
1002
{
1070
   341
1005
0
1070
    40
1040
1.0
1070
   343
1005
0
1070
   344
1005
0
1002
}
  0
LINE
  5
2421F
330
747D
100
AcDbEntity
  8
部品1
100
AcDbLine
 10
5100.530974275319
 20
3463.274200719687
 30
0.0
 11
5100.53097427532
 21
498.9672311350395
 31
0.0
  0
LEADER
  5
24220
330
747D
100
AcDbEntity
  8
寸法
 48
50.0
100
AcDbLeader
  3
INABA_S50G
 73
     0
 75
     1
 40
113.1818181818182
 41
608.6363636363635
 76
     3
 10
8061.375476399826
 20
2091.818254301121
 30
0.0
 10
7927.571647708479
 20
2943.197336657599
 30
0.0
 10
7802.571647708479
 20
2943.197336657599
 30
0.0
340
24221
1001
ACAD
1000
DSTYLE
1002
{
1070
   341
1005
0
1070
    40
1040
1.0
1070
   343
1005
0
1070
   344
1005
0
1002
}
  0
MTEXT
  5
24221
102
{ACAD_REACTORS
330
24220
102
}
330
747D
100
AcDbEntity
  8
寸法
 62
     7
 48
50.0
100
AcDbMText
 10
7777.571647708478
 20
3024.788245748508
 30
0.0
 40
80.0
 41
0.8
 71
     6
 72
     1
  1
\A1;φ70スリーブ
  7
STYLE2
 73
     1
 44
1.0
1001
ACAD
1000
MTEXTBEGIN
1070
    73
1070
     1
1070
    44
1040
1.0
1070
    74
1070
     0
1000
MTEXTEND
  0
LWPOLYLINE
  5
24222
330
747D
100
AcDbEntity
  8
部品1
 48
50.0
100
AcDbPolyline
 90
        2
 70
     0
 43
8.0
 10
5757.059511251625
 20
1902.302580942843
 10
6171.199413084582
 20
1902.302580942843
  0
TEXT
  5
24223
330
747D
100
AcDbEntity
  8
部品1
 48
50.0
100
AcDbText
 10
5757.059511251625
 20
1913.541573226097
 30
0.0
 40
80.0
  1
▽G.L
  7
STYLE2
100
AcDbText
  0
DIMENSION
  5
24224
330
747D
100
AcDbEntity
  8
寸法
 48
50.0
100
AcDbDimension
  2
*D46
 10
5900.779099352122
 20
1358.302580942842
 30
0.0
 11
5900.779099352122
 21
1478.302580942842
 31
0.0
 70
   160
  1
150
 71
     5
 42
240.0
  3
INABA_S40G
100
AcDbAlignedDimension
 13
6043.199413084582
 23
1598.302580942842
 33
0.0
 14
5963.199413084585
 24
1358.302580942842
 34
0.0
 50
90.0
100
AcDbRotatedDimension
1001
ACAD
1000
DSTYLE
1002
{
1070
   174
1070
     0
1070
   272
1070
     1
1070
   279
1070
     1
1070
   288
1070
     0
1070
   341
1005
0
1002
}
  0
LEADER
  5
24225
330
747D
100
AcDbEntity
  8
寸法
 48
50.0
100
AcDbLeader
  3
INABA_S50G
 71
     0
 73
     0
 75
     1
 40
100.0
 41
225.0
 76
     3
 10
6139.102365436724
 20
1478.302580942842
 30
0.0
 10
6017.264386889388
 20
1214.779887324406
 30
0.0
 10
5892.264386889388
 20
1214.779887324406
 30
0.0
1001
ACAD
1000
DSTYLE
1002
{
1070
    40
1040
1.0
1070
   272
1070
     1
1070
   279
1070
     1
1070
   341
1005
0
1002
}
  0
LEADER
  5
24226
330
747D
100
AcDbEntity
  8
寸法
 48
50.0
100
AcDbLeader
  3
INABA_S50G
 71
     0
 73
     0
 75
     1
 40
100.0
 41
222.7272727272727
 76
     3
 10
6267.199413084582
 20
1478.302580942842
 30
0.0
 10
6045.387114446822
 20
1034.463734784962
 30
0.0
 10
5920.387114446822
 20
1034.463734784962
 30
0.0
1001
ACAD
1000
DSTYLE
1002
{
1070
    40
1040
1.0
1070
   272
1070
     1
1070
   279
1070
     1
1070
   341
1005
0
1002
}
  0
MTEXT
  5
24227
102
{ACAD_REACTORS
330
24228
102
}
330
747D
100
AcDbEntity
  8
寸法
 62
     7
 48
50.0
100
AcDbMText
 10
6081.949358861777
 20
1743.603183760298
 30
0.0
 40
80.0
 41
0.8
 71
     6
 72
     1
  1
\A1;D10@300
  7
STYLE2
 73
     1
 44
1.0
1001
ACAD
1000
MTEXTBEGIN
1070
    73
1070
     1
1070
    44
1040
1.0
1070
    74
1070
     0
1000
MTEXTEND
  0
LEADER
  5
24228
330
747D
100
AcDbEntity
  8
寸法
 48
50.0
100
AcDbLeader
  3
INABA_S50G
 71
     0
 73
     0
 75
     1
 40
100.0
 41
540.3409090909091
 76
     3
 10
6275.199413084582
 20
1900.429795639965
 30
0.0
 10
6217.217176555884
 20
1678.95946709916
 30
0.0
 10
6092.217176555884
 20
1678.95946709916
 30
0.0
213
-9.732182305893367
223
-4.643716661138569
233
0.0
1001
ACAD
1000
DSTYLE
1002
{
1070
    40
1040
1.0
1070
   272
1070
     1
1070
   279
1070
     1
1070
   341
1005
0
1002
}
  0
LEADER
  5
24229
330
747D
100
AcDbEntity
  8
寸法
 48
50.0
100
AcDbLeader
  3
INABA_S50G
 71
     0
 73
     0
 75
     1
 40
130.1136363636363
 41
651.1363636363636
 76
     3
 10
6251.199413084581
 20
2142.302580942842
 30
0.0
 10
6138.774832920565
 20
2282.77334639943
 30
0.0
 10
6013.774832920565
 20
2282.77334639943
 30
0.0
1001
ACAD
1000
DSTYLE
1002
{
1070
    40
1040
1.0
1070
   272
1070
     1
1070
   279
1070
     1
1070
   341
1005
0
1002
}
  0
MTEXT
  5
2422A
102
{ACAD_REACTORS
330
24229
102
}
330
747D
100
AcDbEntity
  8
寸法
 62
     7
 48
50.0
100
AcDbMText
 10
5951.100933601309
 20
2354.818800944884
 30
0.0
 40
80.0
 41
0.8
 71
     6
 72
     1
  1
\A1;金コテ押エ
  7
STYLE2
 73
     1
 44
1.0
1001
ACAD
1000
MTEXTBEGIN
1070
    73
1070
     1
1070
    44
1040
1.0
1070
    74
1070
     0
1000
MTEXTEND
  0
DIMENSION
  5
2422B
330
747D
100
AcDbEntity
  8
寸法
 48
50.0
100
AcDbDimension
  2
*D47
 10
5436.162174522841
 20
1358.302580942842
 30
0.0
 11
5436.162174522841
 21
1729.842730598842
 31
0.0
 70
   160
  1
540
 71
     5
 42
784.0
  3
INABA_S40G
100
AcDbAlignedDimension
 13
6171.199413084582
 23
2142.302580942842
 33
0.0
 14
5963.199413084585
 24
1358.302580942842
 34
0.0
 50
90.0
100
AcDbRotatedDimension
1001
ACAD
1000
DSTYLE
1002
{
1070
   174
1070
     0
1070
   272
1070
     1
1070
   279
1070
     1
1070
   288
1070
     0
1070
   341
1005
0
1002
}
  0
MTEXT
  5
2422C
102
{ACAD_REACTORS
330
24226
102
}
330
747D
100
AcDbEntity
  8
寸法
 62
     7
 48
50.0
100
AcDbMText
 10
5900.387114446822
 20
1094.463734784962
 30
0.0
 40
80.0
 41
0.8
 71
     6
 72
     1
  1
D13
  7
STYLE2
 73
     1
 44
1.0
1001
ACAD
1000
MTEXTBEGIN
1070
    73
1070
     1
1070
    44
1040
1.0
1070
    74
1070
     0
1000
MTEXTEND
  0
MTEXT
  5
2422D
102
{ACAD_REACTORS
330
24225
102
}
330
747D
100
AcDbEntity
  8
寸法
 62
     7
 48
50.0
100
AcDbMText
 10
5872.264386889387
 20
1274.779887324405
 30
0.0
 40
80.0
 41
0.8
 71
     6
 72
     1
  1
D10
  7
STYLE2
 73
     1
 44
1.0
1001
ACAD
1000
MTEXTBEGIN
1070
    73
1070
     1
1070
    44
1040
1.0
1070
    74
1070
     0
1000
MTEXTEND
  0
DIMENSION
  5
2422E
330
747D
100
AcDbEntity
  8
寸法
 48
50.0
100
AcDbDimension
  2
*D48
 10
6491.199413084581
 20
819.8729429376816
 30
0.0
 11
6247.102654406358
 21
819.8729429376816
 31
0.0
 70
   160
  1
300
 71
     5
 42
448.0
  3
INABA_S40G
100
AcDbAlignedDimension
 13
6043.199413084582
 23
1230.302580942842
 33
0.0
 14
6491.199413084581
 24
1230.302580942842
 34
0.0
100
AcDbRotatedDimension
1001
ACAD
1000
DSTYLE
1002
{
1070
   174
1070
     0
1070
   272
1070
     1
1070
   279
1070
     1
1070
   288
1070
     0
1070
   341
1005
0
1002
}
  0
MTEXT
  5
2422F
102
{ACAD_REACTORS
330
24230
102
}
330
747D
100
AcDbEntity
  8
寸法
 62
     7
 48
50.0
100
AcDbMText
 10
7804.214653916837
 20
2664.103973840994
 30
0.0
 40
80.0
 41
0.8
 71
     6
 72
     1
  1
アンカープレート {\fArial|b0|i0|c0|p32;U}
  7
STYLE2
 73
     1
 44
1.0
1001
ACAD
1000
MTEXTBEGIN
1070
    73
1070
     1
1070
    44
1040
1.0
1070
    74
1070
     0
1000
MTEXTEND
  0
LEADER
  5
24230
330
747D
100
AcDbEntity
  8
寸法
 48
50.0
100
AcDbLeader
  3
INABA_S50G
 73
     0
 75
     1
 40
106.3636363636363
 41
903.5235024184547
 76
     3
 10
8002.638726261777
 20
2211.862580942844
 30
0.0
 10
7954.214653916837
 20
2585.922155659175
 30
0.0
 10
7829.214653916837
 20
2585.922155659175
 30
0.0
340
2422F
1001
ACAD
1000
DSTYLE
1002
{
1070
   341
1005
0
1070
    40
1040
1.0
1070
   343
1005
0
1070
   344
1005
0
1002
}
  0
LINE
  5
24231
330
747D
100
AcDbEntity
  8
細線
 48
50.0
100
AcDbLine
 10
6291.199413084583
 20
1980.675473610672
 30
0.0
 11
6363.199413084583
 21
2052.675473610673
 31
0.0
  0
ARC
  5
24232
330
747D
100
AcDbEntity
  8
部品1
 48
50.0
100
AcDbCircle
 10
6267.199413084583
 20
2002.557010337087
 30
0.0
 40
24.0
100
AcDbArc
 50
0.0
 51
180.0
  0
CIRCLE
  5
24233
330
747D
100
AcDbEntity
  8
部品1
 48
50.0
100
AcDbCircle
 10
6267.199413084583
 20
2002.557010337087
 30
0.0
 40
8.0
  0
LINE
  5
24234
330
747D
100
AcDbEntity
  8
部品1
 48
50.0
100
AcDbLine
 10
6171.199413084583
 20
1598.302580942842
 30
0.0
 11
6171.199413084583
 21
2142.302580942842
 31
0.0
  0
LINE
  5
24235
330
747D
100
AcDbEntity
  8
部品1
 48
50.0
100
AcDbLine
 10
6363.199413084583
 20
2142.302580942842
 30
0.0
 11
6363.199413084583
 21
1598.302580942842
 31
0.0
  0
MTEXT
  5
24236
102
{ACAD_REACTORS
330
2423B
102
}
330
747D
100
AcDbEntity
  8
寸法
 62
     7
 48
50.0
100
AcDbMText
 10
6446.085350111977
 20
2003.57014224177
 30
0.0
 40
80.0
 41
0.8
 71
     4
 72
     1
  1
D13
  7
STYLE2
 73
     1
 44
1.0
1001
ACAD
1000
MTEXTBEGIN
1070
    73
1070
     1
1070
    44
1040
1.0
1070
    74
1070
     0
1000
MTEXTEND
  0
LEADER
  5
24237
330
747D
100
AcDbEntity
  8
寸法
 48
50.0
100
AcDbLeader
  3
INABA_S50G
 71
     0
 73
     0
 74
     0
 75
     1
 40
100.0
 41
225.0
 76
     3
 10
6395.102365436724
 20
1478.302580942842
 30
0.0
 10
6449.527072891267
 20
1382.905511999869
 30
0.0
 10
6574.527072891267
 20
1382.905511999869
 30
0.0
1001
ACAD
1000
DSTYLE
1002
{
1070
    40
1040
1.0
1070
   272
1070
     1
1070
   279
1070
     1
1070
   341
1005
0
1002
}
  0
LEADER
  5
24238
330
747D
100
AcDbEntity
  8
寸法
 48
50.0
100
AcDbLeader
  3
INABA_S50G
 71
     0
 73
     0
 74
     0
 75
     1
 40
100.0
 41
540.3409090909091
 76
     3
 10
6341.144582097756
 20
1461.562050529316
 30
0.0
 10
6459.937868945833
 20
1119.931232534419
 30
0.0
 10
6584.937868945833
 20
1119.931232534419
 30
0.0
213
0.0
223
-1.022262676269383
233
0.0
1001
ACAD
1000
DSTYLE
1002
{
1070
    40
1040
1.0
1070
   272
1070
     1
1070
   279
1070
     1
1070
   341
1005
0
1002
}
  0
MTEXT
  5
24239
102
{ACAD_REACTORS
330
24237
102
}
330
747D
100
AcDbEntity
  8
寸法
 62
     7
 48
50.0
100
AcDbMText
 10
6594.527072891266
 20
1442.905511999869
 30
0.0
 40
80.0
 41
0.8
 71
     4
 72
     1
  1
D10
  7
STYLE2
 73
     1
 44
1.0
1001
ACAD
1000
MTEXTBEGIN
1070
    73
1070
     1
1070
    44
1040
1.0
1070
    74
1070
     0
1000
MTEXTEND
  0
LWPOLYLINE
  5
2423A
330
747D
100
AcDbEntity
  8
部品1
 48
50.0
100
AcDbPolyline
 90
        2
 70
     0
 43
8.0
 10
6363.199413084582
 20
1902.302580942843
 10
6777.339314917539
 20
1902.302580942843
  0
LEADER
  5
2423B
330
747D
100
AcDbEntity
  8
寸法
 48
50.0
100
AcDbLeader
  3
INABA_S50G
 71
     0
 73
     0
 74
     0
 75
     1
 40
100.0
 41
222.7272727272727
 76
     3
 10
6267.199413084582
 20
2002.557010337087
 30
0.0
 10
6301.085350111976
 20
1943.570142241769
 30
0.0
 10
6426.085350111977
 20
1943.570142241769
 30
0.0
1001
ACAD
1000
DSTYLE
1002
{
1070
    40
1040
1.0
1070
   272
1070
     1
1070
   279
1070
     1
1070
   341
1005
0
1002
}
  0
LINE
  5
2423C
330
747D
100
AcDbEntity
  8
細線
 48
50.0
100
AcDbLine
 10
6043.199413084575
 20
1517.149326705013
 30
0.0
 11
6124.35266732241
 21
1598.302580942842
 31
0.0
  0
LINE
  5
2423D
330
747D
100
AcDbEntity
  8
細線
 48
50.0
100
AcDbLine
 10
6251.065260561986
 20
1536.429795639964
 30
0.0
 11
6275.199413084588
 21
1560.563948162563
 31
0.0
  0
LINE
  5
2423E
330
747D
100
AcDbEntity
  8
細線
 48
50.0
100
AcDbLine
 10
6157.997277501655
 20
1470.302580942842
 30
0.0
 11
6275.199413084582
 21
1587.504716525767
 31
0.0
  0
LINE
  5
2423F
330
747D
100
AcDbEntity
  8
部品1
 48
50.0
100
AcDbLine
 10
6043.199413084582
 20
1358.302580942842
 30
0.0
 11
6043.199413084582
 21
1598.302580942842
 31
0.0
  0
LINE
  5
24240
330
747D
100
AcDbEntity
  8
細線
 48
50.0
100
AcDbLine
 10
6400.464192770527
 20
1470.302580942842
 30
0.0
 11
6491.199413084583
 21
1561.037801256901
 31
0.0
  0
LINE
  5
24241
330
747D
100
AcDbEntity
  8
細線
 48
50.0
100
AcDbLine
 10
6373.523424407309
 20
1470.302580942842
 30
0.0
 11
6491.199413084583
 21
1587.978569620108
 31
0.0
  0
LINE
  5
24242
330
747D
100
AcDbEntity
  8
部品1
 48
50.0
100
AcDbLine
 10
6491.199413084583
 20
1598.302580942842
 30
0.0
 11
6491.199413084583
 21
1358.302580942842
 31
0.0
  0
LINE
  5
24243
330
747D
100
AcDbEntity
  8
部品1
 48
50.0
100
AcDbLine
 10
6291.199413084587
 20
1478.302580942842
 30
0.0
 11
6291.199413084583
 21
2002.557010337087
 31
0.0
  0
LINE
  5
24244
330
747D
100
AcDbEntity
  8
部品1
 48
50.0
100
AcDbLine
 10
6275.199413084588
 20
1478.302580942842
 30
0.0
 11
6275.199413084575
 21
2002.557010337087
 31
0.0
  0
LINE
  5
24245
330
747D
100
AcDbEntity
  8
細線
 48
50.0
100
AcDbLine
 10
6259.199413084583
 20
1517.623179799353
 30
0.0
 11
6275.199413084588
 21
1533.623179799353
 31
0.0
  0
LINE
  5
24246
330
747D
100
AcDbEntity
  8
細線
 48
50.0
100
AcDbLine
 10
6248.382252580596
 20
1230.302580942842
 30
0.0
 11
6282.67974921178
 21
1358.302580942842
 31
0.0
  0
LINE
  5
24247
330
747D
100
AcDbEntity
  8
部品1
 48
50.0
100
AcDbLine
 10
6571.199413084586
 20
1230.302580942842
 30
0.0
 11
5963.199413084584
 21
1230.302580942842
 31
0.0
  0
LINE
  5
24248
330
747D
100
AcDbEntity
  8
部品1
 48
50.0
100
AcDbLine
 10
6099.199413084583
 20
1454.302580942842
 30
0.0
 11
6435.199413084582
 21
1454.302580942842
 31
0.0
  0
LINE
  5
24249
330
747D
100
AcDbEntity
  8
部品1
 48
50.0
100
AcDbLine
 10
6099.199413084583
 20
1470.302580942842
 30
0.0
 11
6435.199413084582
 21
1470.302580942842
 31
0.0
  0
LINE
  5
2424A
330
747D
100
AcDbEntity
  8
部品1
 48
50.0
100
AcDbLine
 10
6571.199413084586
 20
1358.302580942842
 30
0.0
 11
5963.199413084584
 21
1358.302580942842
 31
0.0
  0
CIRCLE
  5
2424B
330
747D
100
AcDbEntity
  8
部品1
 48
50.0
100
AcDbCircle
 10
6267.199413084583
 20
1478.302580942842
 30
0.0
 40
8.0
  0
LINE
  5
2424C
330
747D
100
AcDbEntity
  8
細線
 48
50.0
100
AcDbLine
 10
6261.523424407315
 20
1358.302580942842
 30
0.0
 11
6357.523424407315
 21
1454.302580942842
 31
0.0
  0
LINE
  5
2424D
330
747D
100
AcDbEntity
  8
細線
 48
50.0
100
AcDbLine
 10
6090.606162686098
 20
1230.302580942842
 30
0.0
 11
6124.903659317282
 21
1358.302580942842
 31
0.0
  0
LINE
  5
2424E
330
747D
100
AcDbEntity
  8
細線
 48
50.0
100
AcDbLine
 10
6169.494207633344
 20
1230.30258094284
 30
0.0
 11
6203.791704264527
 21
1358.30258094284
 31
0.0
  0
LINE
  5
2424F
330
747D
100
AcDbEntity
  8
細線
 48
50.0
100
AcDbLine
 10
6011.718117738841
 20
1230.30258094284
 30
0.0
 11
6046.015614370023
 21
1358.30258094284
 31
0.0
  0
LINE
  5
24250
330
747D
100
AcDbEntity
  8
部品1
 48
50.0
100
AcDbLine
 10
5963.199413084584
 20
1230.302580942842
 30
0.0
 11
5963.199413084584
 21
1358.302580942842
 31
0.0
  0
LINE
  5
24251
330
747D
100
AcDbEntity
  8
細線
 48
50.0
100
AcDbLine
 10
6097.036943304445
 20
1254.302580942842
 30
0.0
 11
6103.467723922793
 21
1230.302580942842
 31
0.0
  0
LINE
  5
24252
330
747D
100
AcDbEntity
  8
細線
 48
50.0
100
AcDbLine
 10
6018.148898357194
 20
1254.302580942842
 30
0.0
 11
6024.579678975539
 21
1230.302580942842
 31
0.0
  0
LINE
  5
24253
330
747D
100
AcDbEntity
  8
細線
 48
50.0
100
AcDbLine
 10
6254.813033198949
 20
1254.302580942842
 30
0.0
 11
6261.243813817295
 21
1230.302580942842
 31
0.0
  0
LINE
  5
24254
330
747D
100
AcDbEntity
  8
細線
 48
50.0
100
AcDbLine
 10
6175.924988251697
 20
1254.302580942842
 30
0.0
 11
6182.355768870043
 21
1230.302580942842
 31
0.0
  0
LINE
  5
24255
330
747D
100
AcDbEntity
  8
細線
 48
50.0
100
AcDbLine
 10
6072.938045864866
 20
1358.302580942842
 30
0.0
 11
6168.938045864866
 21
1454.302580942842
 31
0.0
  0
LINE
  5
24256
330
747D
100
AcDbEntity
  8
細線
 48
50.0
100
AcDbLine
 10
6045.997277501655
 20
1358.302580942842
 30
0.0
 11
6141.997277501655
 21
1454.302580942842
 31
0.0
  0
LINE
  5
24257
330
747D
100
AcDbEntity
  8
部品1
 48
50.0
100
AcDbLine
 10
6099.199413084583
 20
1470.302580942842
 30
0.0
 11
6099.199413084583
 21
1454.302580942842
 31
0.0
  0
LINE
  5
24258
330
747D
100
AcDbEntity
  8
細線
 48
50.0
100
AcDbLine
 10
6039.584833751683
 20
1334.302580942842
 30
0.0
 11
6033.154053133335
 21
1358.302580942842
 31
0.0
  0
LINE
  5
24259
330
747D
100
AcDbEntity
  8
細線
 48
50.0
100
AcDbLine
 10
5963.199413084582
 20
1343.642501908622
 30
0.0
 11
5967.127569422778
 21
1358.302580942842
 31
0.0
  0
LINE
  5
2425A
330
747D
100
AcDbEntity
  8
部品1
 48
50.0
100
AcDbLine
 10
6259.199413084583
 20
1536.429795639964
 30
0.0
 11
6243.199413084582
 21
1536.429795639964
 31
0.0
  0
CIRCLE
  5
2425B
330
747D
100
AcDbEntity
  8
部品1
 48
50.0
100
AcDbCircle
 10
6139.199413084583
 20
1478.302580942842
 30
0.0
 40
8.0
  0
LINE
  5
2425C
330
747D
100
AcDbEntity
  8
細線
 48
50.0
100
AcDbLine
 10
6211.878814228072
 20
1470.302580942842
 30
0.0
 11
6243.199413084582
 21
1501.623179799353
 31
0.0
  0
ARC
  5
2425D
330
747D
100
AcDbEntity
  8
部品1
 48
50.0
100
AcDbCircle
 10
6267.199413084583
 20
1478.302580942842
 30
0.0
 40
24.0
100
AcDbArc
 50
180.0
 51
199.4712206344927
  0
LINE
  5
2425E
330
747D
100
AcDbEntity
  8
細線
 48
50.0
100
AcDbLine
 10
6118.472878698934
 20
1334.302580942842
 30
0.0
 11
6112.042098080587
 21
1358.302580942842
 31
0.0
  0
LINE
  5
2425F
330
747D
100
AcDbEntity
  8
細線
 48
50.0
100
AcDbLine
 10
6197.360923646186
 20
1334.302580942842
 30
0.0
 11
6190.93014302784
 21
1358.302580942842
 31
0.0
  0
LINE
  5
24260
330
747D
100
AcDbEntity
  8
細線
 48
50.0
100
AcDbLine
 10
6099.878814228071
 20
1358.302580942842
 30
0.0
 11
6195.878814228071
 21
1454.302580942842
 31
0.0
  0
LINE
  5
24261
330
747D
100
AcDbEntity
  8
部品1
 48
50.0
100
AcDbLine
 10
6243.199413084582
 20
1536.429795639964
 30
0.0
 11
6243.199413084582
 21
1478.302580942842
 31
0.0
  0
LINE
  5
24262
330
747D
100
AcDbEntity
  8
細線
 48
50.0
100
AcDbLine
 10
6184.938045864866
 20
1470.302580942842
 30
0.0
 11
6243.199413084582
 21
1528.56394816256
 31
0.0
  0
LINE
  5
24263
330
747D
100
AcDbEntity
  8
部品1
 48
50.0
100
AcDbLine
 10
6259.199413084583
 20
1536.429795639964
 30
0.0
 11
6259.199413084583
 21
1478.302580942842
 31
0.0
  0
LINE
  5
24264
330
747D
100
AcDbEntity
  8
部品1
 48
50.0
100
AcDbLine
 10
6571.199413084586
 20
1358.302580942842
 30
0.0
 11
6571.199413084586
 21
1230.302580942842
 31
0.0
  0
LINE
  5
24265
330
747D
100
AcDbEntity
  8
細線
 48
50.0
100
AcDbLine
 10
6485.046387422336
 20
1230.302580942842
 30
0.0
 11
6519.343884053521
 21
1358.30258094284
 31
0.0
  0
LINE
  5
24266
330
747D
100
AcDbEntity
  8
細線
 48
50.0
100
AcDbLine
 10
6327.270297527842
 20
1230.302580942842
 30
0.0
 11
6361.567794159029
 21
1358.30258094284
 31
0.0
  0
LINE
  5
24267
330
747D
100
AcDbEntity
  8
細線
 48
50.0
100
AcDbLine
 10
6406.158342475091
 20
1230.30258094284
 30
0.0
 11
6440.455839106275
 21
1358.30258094284
 31
0.0
  0
LINE
  5
24268
330
747D
100
AcDbEntity
  8
細線
 48
50.0
100
AcDbLine
 10
6412.589123093439
 20
1254.302580942842
 30
0.0
 11
6419.019903711788
 21
1230.302580942842
 31
0.0
  0
LINE
  5
24269
330
747D
100
AcDbEntity
  8
細線
 48
50.0
100
AcDbLine
 10
6333.701078146194
 20
1254.302580942842
 30
0.0
 11
6340.131858764541
 21
1230.302580942842
 31
0.0
  0
LINE
  5
2426A
330
747D
100
AcDbEntity
  8
細線
 48
50.0
100
AcDbLine
 10
6491.477168040687
 20
1254.302580942842
 30
0.0
 11
6497.907948659035
 21
1230.302580942842
 31
0.0
  0
LINE
  5
2426B
330
747D
100
AcDbEntity
  8
細線
 48
50.0
100
AcDbLine
 10
6570.365212987934
 20
1254.302580942842
 30
0.0
 11
6571.199413084582
 21
1251.189303798477
 31
0.0
  0
LINE
  5
2426C
330
747D
100
AcDbEntity
  8
細線
 48
50.0
100
AcDbLine
 10
6563.934432369585
 20
1230.30258094284
 30
0.0
 11
6571.199413084582
 21
1257.41585808723
 31
0.0
  0
LINE
  5
2426D
330
747D
100
AcDbEntity
  8
細線
 48
50.0
100
AcDbLine
 10
6427.404961133729
 20
1470.302580942842
 30
0.0
 11
6491.199413084583
 21
1534.097032893693
 31
0.0
  0
CIRCLE
  5
2426E
330
747D
100
AcDbEntity
  8
部品1
 48
50.0
100
AcDbCircle
 10
6395.199413084583
 20
1478.302580942842
 30
0.0
 40
8.0
  0
ARC
  5
2426F
330
747D
100
AcDbEntity
  8
部品1
 48
50.0
100
AcDbCircle
 10
6267.199413084583
 20
1478.302580942842
 30
0.0
 40
24.0
100
AcDbArc
 50
340.5287793655072
 51
0.0
  0
LINE
  5
24270
330
747D
100
AcDbEntity
  8
細線
 48
50.0
100
AcDbLine
 10
6276.248968593439
 20
1334.302580942842
 30
0.0
 11
6269.818187975091
 21
1358.302580942842
 31
0.0
  0
LINE
  5
24271
330
747D
100
AcDbEntity
  8
細線
 48
50.0
100
AcDbLine
 10
6355.137013540684
 20
1334.302580942842
 30
0.0
 11
6348.706232922339
 21
1358.302580942842
 31
0.0
  0
LINE
  5
24272
330
747D
100
AcDbEntity
  8
細線
 48
50.0
100
AcDbLine
 10
6288.464192770526
 20
1358.302580942842
 30
0.0
 11
6384.464192770526
 21
1454.302580942842
 31
0.0
  0
LINE
  5
24273
330
747D
100
AcDbEntity
  8
細線
 48
50.0
100
AcDbLine
 10
6315.404961133729
 20
1358.302580942842
 30
0.0
 11
6411.405848978867
 21
1454.303468787981
 31
0.0
  0
LINE
  5
24274
330
747D
100
AcDbEntity
  8
部品1
 48
50.0
100
AcDbLine
 10
6435.199413084582
 20
1470.302580942842
 30
0.0
 11
6435.199413084582
 21
1454.302580942842
 31
0.0
  0
LINE
  5
24275
330
747D
100
AcDbEntity
  8
細線
 48
50.0
100
AcDbLine
 10
6512.913103435177
 20
1334.302580942842
 30
0.0
 11
6506.482322816829
 21
1358.302580942842
 31
0.0
  0
LINE
  5
24276
330
747D
100
AcDbEntity
  8
細線
 48
50.0
100
AcDbLine
 10
6477.049571312976
 20
1358.302580942842
 30
0.0
 11
6491.199413084583
 21
1372.452422714448
 31
0.0
  0
LINE
  5
24277
330
747D
100
AcDbEntity
  8
細線
 48
50.0
100
AcDbLine
 10
6434.02505848793
 20
1334.302580942842
 30
0.0
 11
6427.594277869584
 21
1358.302580942842
 31
0.0
  0
LINE
  5
24278
330
747D
100
AcDbEntity
  8
細線
 48
50.0
100
AcDbLine
 10
6171.199413084583
 20
1672.09009506822
 30
0.0
 11
6275.199413084588
 21
1776.090095068223
 31
0.0
  0
LINE
  5
24279
330
747D
100
AcDbEntity
  8
細線
 48
50.0
100
AcDbLine
 10
6171.199413084583
 20
1699.030863431428
 30
0.0
 11
6275.199413084582
 21
1803.030863431428
 31
0.0
  0
LINE
  5
2427A
330
747D
100
AcDbEntity
  8
細線
 48
50.0
100
AcDbLine
 10
6171.199413084583
 20
1645.149326705013
 30
0.0
 11
6275.199413084588
 21
1749.149326705013
 31
0.0
  0
LINE
  5
2427B
330
747D
100
AcDbEntity
  8
細線
 48
50.0
100
AcDbLine
 10
6259.199413084583
 20
1948.675473610672
 30
0.0
 11
6275.199413084582
 21
1964.675473610672
 31
0.0
  0
LINE
  5
2427C
330
747D
100
AcDbEntity
  8
細線
 48
50.0
100
AcDbLine
 10
6259.199413084583
 20
1975.616241973879
 30
0.0
 11
6275.199413084582
 21
1991.616241973879
 31
0.0
  0
LINE
  5
2427D
330
747D
100
AcDbEntity
  8
部品1
 48
50.0
100
AcDbLine
 10
6043.199413084582
 20
1598.302580942842
 30
0.0
 11
6171.199413084583
 21
1598.302580942842
 31
0.0
  0
LINE
  5
2427E
330
747D
100
AcDbEntity
  8
細線
 48
50.0
100
AcDbLine
 10
6043.199413084575
 20
1544.090095068217
 30
0.0
 11
6097.411898959207
 21
1598.302580942842
 31
0.0
  0
LINE
  5
2427F
330
747D
100
AcDbEntity
  8
細線
 48
50.0
100
AcDbLine
 10
6043.199413084575
 20
1571.030863431428
 30
0.0
 11
6070.471130595996
 21
1598.302580942842
 31
0.0
  0
LINE
  5
24280
330
747D
100
AcDbEntity
  8
部品1
 48
50.0
100
AcDbLine
 10
6259.199413084583
 20
1944.429795639964
 30
0.0
 11
6243.199413084582
 21
1944.429795639967
 31
0.0
  0
LINE
  5
24281
330
747D
100
AcDbEntity
  8
細線
 48
50.0
100
AcDbLine
 10
6171.199413084583
 20
1860.675473610672
 30
0.0
 11
6254.953735113875
 21
1944.429795639964
 31
0.0
  0
LINE
  5
24282
330
747D
100
AcDbEntity
  8
細線
 48
50.0
100
AcDbLine
 10
6171.199413084583
 20
1887.616241973879
 30
0.0
 11
6243.199413084582
 21
1959.616241973879
 31
0.0
  0
LINE
  5
24283
330
747D
100
AcDbEntity
  8
部品1
 48
50.0
100
AcDbLine
 10
6243.199413084582
 20
1944.429795639967
 30
0.0
 11
6243.199413084582
 21
2002.557010337087
 31
0.0
  0
LINE
  5
24284
330
747D
100
AcDbEntity
  8
細線
 48
50.0
100
AcDbLine
 10
6171.199413084583
 20
1914.557010337087
 30
0.0
 11
6243.199413084582
 21
1986.557010337087
 31
0.0
  0
LINE
  5
24285
330
747D
100
AcDbEntity
  8
部品1
 48
50.0
100
AcDbLine
 10
6259.199413084583
 20
1944.429795639964
 30
0.0
 11
6259.199413084583
 21
2002.557010337087
 31
0.0
  0
LINE
  5
24286
330
747D
100
AcDbEntity
  8
細線
 48
50.0
100
AcDbLine
 10
6291.199413084587
 20
1765.149326705013
 30
0.0
 11
6363.199413084576
 21
1837.149326705013
 31
0.0
  0
LINE
  5
24287
330
747D
100
AcDbEntity
  8
部品1
 48
50.0
100
AcDbLine
 10
6363.199413084583
 20
1598.302580942842
 30
0.0
 11
6491.199413084583
 21
1598.302580942842
 31
0.0
  0
LINE
  5
24288
330
747D
100
AcDbEntity
  8
細線
 48
50.0
100
AcDbLine
 10
6291.199413084587
 20
1576.563948162563
 30
0.0
 11
6363.199413084576
 21
1648.563948162557
 31
0.0
  0
LINE
  5
24289
330
747D
100
AcDbEntity
  8
細線
 48
50.0
100
AcDbLine
 10
6291.199413084587
 20
1603.504716525771
 30
0.0
 11
6363.199413084576
 21
1675.504716525767
 31
0.0
  0
LINE
  5
2428A
330
747D
100
AcDbEntity
  8
細線
 48
50.0
100
AcDbLine
 10
6291.199413084587
 20
1549.623179799353
 30
0.0
 11
6363.199413084576
 21
1621.623179799353
 31
0.0
  0
LINE
  5
2428B
330
747D
100
AcDbEntity
  8
細線
 48
50.0
100
AcDbLine
 10
6291.199413084583
 20
1819.030863431428
 30
0.0
 11
6363.199413084583
 21
1891.030863431428
 31
0.0
  0
LINE
  5
2428C
330
747D
100
AcDbEntity
  8
細線
 48
50.0
100
AcDbLine
 10
6291.199413084587
 20
1792.090095068223
 30
0.0
 11
6363.199413084576
 21
1864.090095068217
 31
0.0
  0
MTEXT
  5
2428D
102
{ACAD_REACTORS
330
24238
102
}
330
747D
100
AcDbEntity
  8
寸法
 62
     7
 48
50.0
100
AcDbMText
 10
6604.937868945832
 20
1180.953495210689
 30
0.0
 40
80.0
 41
0.8
 71
     4
 72
     1
  1
\A1;D10@300
  7
STYLE2
 73
     1
 44
1.0
1001
ACAD
1000
MTEXTBEGIN
1070
    73
1070
     1
1070
    44
1040
1.0
1070
    74
1070
     0
1000
MTEXTEND
  0
DIMENSION
  5
2428E
330
747D
100
AcDbEntity
  8
寸法
 48
50.0
100
AcDbDimension
  2
*D43
 10
6171.199413084582
 20
2462.302580942842
 30
0.0
 11
6278.425743429779
 21
2561.970388859223
 31
0.0
 70
   160
  1
120\P195
 71
     5
 42
192.0
  3
INABA_S40G
100
AcDbAlignedDimension
 13
6363.199413084582
 23
2142.302580942842
 33
0.0
 14
6171.199413084582
 24
2142.302580942842
 34
0.0
100
AcDbRotatedDimension
1001
ACAD
1000
DSTYLE
1002
{
1070
   174
1070
     0
1070
   272
1070
     1
1070
   279
1070
     1
1070
   288
1070
     0
1070
   341
1005
0
1002
}
  0
LINE
  5
2428F
330
747D
100
AcDbEntity
  8
部品1
 48
50.0
100
AcDbLine
 10
6171.199413084583
 20
2142.302580942842
 30
0.0
 11
6363.199413084583
 21
2142.302580942842
 31
0.0
  0
LINE
  5
24290
330
747D
100
AcDbEntity
  8
細線
 48
50.0
100
AcDbLine
 10
6171.199413084583
 20
2103.14238887954
 30
0.0
 11
6210.359605147886
 21
2142.302580942842
 31
0.0
  0
LINE
  5
24291
330
747D
100
AcDbEntity
  8
細線
 48
50.0
100
AcDbLine
 10
6171.199413084583
 20
2076.201620516332
 30
0.0
 11
6237.300373511091
 21
2142.302580942842
 31
0.0
  0
LINE
  5
24292
330
747D
100
AcDbEntity
  8
細線
 48
50.0
100
AcDbLine
 10
6171.199413084583
 20
2130.083157242747
 30
0.0
 11
6183.418836784677
 21
2142.302580942842
 31
0.0
  0
LINE
  5
24293
330
747D
100
AcDbEntity
  8
細線
 48
50.0
100
AcDbLine
 10
6290.752120350568
 20
2007.168949239864
 30
0.0
 11
6363.199413084583
 21
2079.61624197388
 31
0.0
  0
LINE
  5
24294
330
747D
100
AcDbEntity
  8
細線
 48
50.0
100
AcDbLine
 10
6279.691835587052
 20
2023.049432839558
 30
0.0
 11
6363.199413084583
 21
2106.557010337088
 31
0.0
  0
LINE
  5
24295
330
747D
100
AcDbEntity
  8
細線
 48
50.0
100
AcDbLine
 10
8155.638726261777
 20
1983.43086343143
 30
0.0
 11
8285.238726261775
 21
2113.030863431429
 31
0.0
  0
LINE
  5
24296
330
747D
100
AcDbEntity
  8
部品1
100
AcDbLine
 10
8285.238726261773
 20
1598.302580942842
 30
0.0
 11
8285.238726261775
 21
2142.302580942842
 31
0.0
  0
LINE
  5
24297
330
747D
100
AcDbEntity
  8
部品1
 48
50.0
100
AcDbLine
 10
7871.238726261776
 20
1598.302580942842
 30
0.0
 11
7871.238726261776
 21
2142.302580942842
 31
0.0
  0
LINE
  5
24298
330
747D
100
AcDbEntity
  8
細線
 48
50.0
100
AcDbLine
 10
7871.238726261776
 20
1914.557010337087
 30
0.0
 11
8029.638726261776
 21
2072.957010337084
 31
0.0
  0
LINE
  5
24299
330
747D
100
AcDbEntity
  8
細線
 48
50.0
100
AcDbLine
 10
7871.238726261776
 20
1887.616241973879
 30
0.0
 11
8029.638726261776
 21
2046.016241973877
 31
0.0
  0
LINE
  5
2429A
330
747D
100
AcDbEntity
  8
細線
 48
50.0
100
AcDbLine
 10
7871.238726261776
 20
1860.675473610672
 30
0.0
 11
8029.63872626177
 21
2019.075473610665
 31
0.0
  0
TEXT
  5
2429B
330
747D
100
AcDbEntity
  8
部品1
 48
50.0
100
AcDbText
 10
7457.09882442882
 20
1913.541573226097
 30
0.0
 40
80.0
  1
▽G.L
  7
STYLE2
100
AcDbText
  0
LINE
  5
2429C
330
747D
100
AcDbEntity
  8
部品1
100
AcDbLine
 10
8101.638726261775
 20
1917.302580942842
 30
0.0
 11
8101.638726261773
 21
2191.462580942843
 31
0.0
  0
LINE
  5
2429D
330
747D
100
AcDbEntity
  8
部品1
100
AcDbLine
 10
8083.638726261776
 20
1917.302580942842
 30
0.0
 11
8083.638726261773
 21
2191.462580942843
 31
0.0
  0
LINE
  5
2429E
330
747D
100
AcDbEntity
  8
細線
 48
50.0
100
AcDbLine
 10
8155.638726261777
 20
1929.549326705
 30
0.0
 11
8285.238726261775
 21
2059.149326704992
 31
0.0
  0
LINE
  5
2429F
330
747D
100
AcDbEntity
  8
細線
 48
50.0
100
AcDbLine
 10
8155.638726261777
 20
1956.490095068213
 30
0.0
 11
8285.238726261775
 21
2086.09009506821
 31
0.0
  0
LINE
  5
242A0
330
747D
100
AcDbEntity
  8
部品1
100
AcDbLine
 10
8155.638726261775
 20
1818.302580942842
 30
0.0
 11
8155.638726261775
 21
2142.302580942842
 31
0.0
  0
LINE
  5
242A1
330
747D
100
AcDbEntity
  8
部品1
100
AcDbLine
 10
8029.63872626177
 20
1818.302580942842
 30
0.0
 11
8029.638726261776
 21
2142.302580942842
 31
0.0
  0
LINE
  5
242A2
330
747D
100
AcDbEntity
  8
細線
 48
50.0
100
AcDbLine
 10
7871.238726261776
 20
1672.09009506822
 30
0.0
 11
8029.638726261769
 21
1830.490095068208
 31
0.0
  0
LINE
  5
242A3
330
747D
100
AcDbEntity
  8
細線
 48
50.0
100
AcDbLine
 10
7871.238726261776
 20
1645.149326705013
 30
0.0
 11
8044.391980499611
 21
1818.30258094284
 31
0.0
  0
LINE
  5
242A4
330
747D
100
AcDbEntity
  8
細線
 48
50.0
100
AcDbLine
 10
7871.238726261776
 20
1699.030863431428
 30
0.0
 11
8029.638726261769
 21
1857.430863431423
 31
0.0
  0
LINE
  5
242A5
330
747D
100
AcDbEntity
  8
細線
 48
50.0
100
AcDbLine
 10
7799.918127405264
 20
1358.302580942842
 30
0.0
 11
8285.238726261775
 21
1843.623179799349
 31
0.0
  0
LINE
  5
242A6
330
747D
100
AcDbEntity
  8
細線
 48
50.0
100
AcDbLine
 10
7772.977359042059
 20
1358.302580942842
 30
0.0
 11
8285.238726261779
 21
1870.563948162556
 31
0.0
  0
LINE
  5
242A7
330
747D
100
AcDbEntity
  8
細線
 48
50.0
100
AcDbLine
 10
7746.036590678851
 20
1358.302580942842
 30
0.0
 11
8285.238726261773
 21
1897.504716525767
 31
0.0
  0
LINE
  5
242A8
330
747D
100
AcDbEntity
  8
部品1
 48
50.0
100
AcDbLine
 10
8493.238726261777
 20
1358.302580942842
 30
0.0
 11
7663.238726261778
 21
1358.302580942842
 31
0.0
  0
LINE
  5
242A9
330
747D
100
AcDbEntity
  8
部品1
 48
50.0
100
AcDbLine
 10
8493.238726261777
 20
1230.302580942842
 30
0.0
 11
7663.238726261778
 21
1230.302580942842
 31
0.0
  0
LINE
  5
242AA
330
747D
100
AcDbEntity
  8
細線
 48
50.0
100
AcDbLine
 10
7743.238726261771
 20
1517.149326705013
 30
0.0
 11
7824.391980499604
 21
1598.302580942842
 31
0.0
  0
LINE
  5
242AB
330
747D
100
AcDbEntity
  8
部品1
 48
50.0
100
AcDbLine
 10
7743.238726261776
 20
1358.302580942842
 30
0.0
 11
7743.238726261776
 21
1598.302580942842
 31
0.0
  0
LINE
  5
242AC
330
747D
100
AcDbEntity
  8
細線
 48
50.0
100
AcDbLine
 10
7790.645475863293
 20
1230.302580942842
 30
0.0
 11
7824.942972494475
 21
1358.302580942842
 31
0.0
  0
LINE
  5
242AD
330
747D
100
AcDbEntity
  8
部品1
 48
50.0
100
AcDbLine
 10
7663.238726261778
 20
1230.302580942842
 30
0.0
 11
7663.238726261778
 21
1358.302580942842
 31
0.0
  0
LINE
  5
242AE
330
747D
100
AcDbEntity
  8
細線
 48
50.0
100
AcDbLine
 10
7711.757430916033
 20
1230.30258094284
 30
0.0
 11
7746.054927547219
 21
1358.30258094284
 31
0.0
  0
LINE
  5
242AF
330
747D
100
AcDbEntity
  8
細線
 48
50.0
100
AcDbLine
 10
7869.533520810539
 20
1230.30258094284
 30
0.0
 11
7903.831017441721
 21
1358.30258094284
 31
0.0
  0
LINE
  5
242B0
330
747D
100
AcDbEntity
  8
細線
 48
50.0
100
AcDbLine
 10
7718.188211534386
 20
1254.302580942842
 30
0.0
 11
7724.618992152733
 21
1230.302580942842
 31
0.0
  0
LINE
  5
242B1
330
747D
100
AcDbEntity
  8
細線
 48
50.0
100
AcDbLine
 10
7875.964301428893
 20
1254.302580942842
 30
0.0
 11
7882.395082047239
 21
1230.302580942842
 31
0.0
  0
LINE
  5
242B2
330
747D
100
AcDbEntity
  8
細線
 48
50.0
100
AcDbLine
 10
7797.07625648164
 20
1254.302580942842
 30
0.0
 11
7803.507037099986
 21
1230.302580942842
 31
0.0
  0
LINE
  5
242B3
330
747D
100
AcDbEntity
  8
細線
 48
50.0
100
AcDbLine
 10
7663.238726261775
 20
1343.642501908622
 30
0.0
 11
7667.166882599971
 21
1358.302580942842
 31
0.0
  0
LINE
  5
242B4
330
747D
100
AcDbEntity
  8
細線
 48
50.0
100
AcDbLine
 10
7739.624146928877
 20
1334.302580942842
 30
0.0
 11
7733.19336631053
 21
1358.302580942842
 31
0.0
  0
LINE
  5
242B5
330
747D
100
AcDbEntity
  8
細線
 48
50.0
100
AcDbLine
 10
7897.400236823381
 20
1334.302580942842
 30
0.0
 11
7890.969456205033
 21
1358.302580942842
 31
0.0
  0
LINE
  5
242B6
330
747D
100
AcDbEntity
  8
細線
 48
50.0
100
AcDbLine
 10
7818.512191876128
 20
1334.302580942842
 30
0.0
 11
7812.081411257783
 21
1358.302580942842
 31
0.0
  0
LWPOLYLINE
  5
242B7
330
747D
100
AcDbEntity
  8
部品1
 48
50.0
100
AcDbPolyline
 90
        2
 70
     0
 43
8.0
 10
7457.09882442882
 20
1902.302580942843
 10
7871.238726261776
 20
1902.302580942843
  0
LINE
  5
242B8
330
747D
100
AcDbEntity
  8
細線
 48
50.0
100
AcDbLine
 10
7743.238726261771
 20
1544.090095068217
 30
0.0
 11
7797.4512121364
 21
1598.302580942842
 31
0.0
  0
LINE
  5
242B9
330
747D
100
AcDbEntity
  8
部品1
 48
50.0
100
AcDbLine
 10
7743.238726261776
 20
1598.302580942842
 30
0.0
 11
7871.238726261776
 21
1598.302580942842
 31
0.0
  0
LINE
  5
242BA
330
747D
100
AcDbEntity
  8
細線
 48
50.0
100
AcDbLine
 10
7743.238726261771
 20
1571.030863431428
 30
0.0
 11
7770.51044377319
 21
1598.302580942842
 31
0.0
  0
LINE
  5
242BB
330
747D
100
AcDbEntity
  8
細線
 48
50.0
100
AcDbLine
 10
7988.50350594772
 20
1358.302580942842
 30
0.0
 11
8285.238726261775
 21
1655.037801256894
 31
0.0
  0
LINE
  5
242BC
330
747D
100
AcDbEntity
  8
細線
 48
50.0
100
AcDbLine
 10
8015.444274310924
 20
1358.302580942842
 30
0.0
 11
8285.238726261775
 21
1628.097032893699
 31
0.0
  0
LINE
  5
242BD
330
747D
100
AcDbEntity
  8
細線
 48
50.0
100
AcDbLine
 10
7961.562737584511
 20
1358.302580942842
 30
0.0
 11
8285.238726261773
 21
1681.978569620108
 31
0.0
  0
LINE
  5
242BE
330
747D
100
AcDbEntity
  8
細線
 48
50.0
100
AcDbLine
 10
8177.088884490169
 20
1358.302580942842
 30
0.0
 11
8413.238726261774
 21
1594.45242271445
 31
0.0
  0
LINE
  5
242BF
330
747D
100
AcDbEntity
  8
細線
 48
50.0
100
AcDbLine
 10
8204.02965285338
 20
1358.302580942842
 30
0.0
 11
8413.238726261774
 21
1567.511654351235
 31
0.0
  0
LINE
  5
242C0
330
747D
100
AcDbEntity
  8
部品1
 48
50.0
100
AcDbLine
 10
8413.238726261774
 20
1598.302580942842
 30
0.0
 11
8413.238726261774
 21
1358.302580942842
 31
0.0
  0
LINE
  5
242C1
330
747D
100
AcDbEntity
  8
細線
 48
50.0
100
AcDbLine
 10
8230.970421216586
 20
1358.302580942842
 30
0.0
 11
8413.238726261774
 21
1540.570885988038
 31
0.0
  0
LINE
  5
242C2
330
747D
100
AcDbEntity
  8
細線
 48
50.0
100
AcDbLine
 10
8106.197655652286
 20
1230.30258094284
 30
0.0
 11
8140.495152283468
 21
1358.30258094284
 31
0.0
  0
LINE
  5
242C3
330
747D
100
AcDbEntity
  8
細線
 48
50.0
100
AcDbLine
 10
7948.421565757792
 20
1230.302580942842
 30
0.0
 11
7982.719062388973
 21
1358.302580942842
 31
0.0
  0
LINE
  5
242C4
330
747D
100
AcDbEntity
  8
細線
 48
50.0
100
AcDbLine
 10
8027.309610705037
 20
1230.302580942842
 30
0.0
 11
8061.607107336222
 21
1358.30258094284
 31
0.0
  0
LINE
  5
242C5
330
747D
100
AcDbEntity
  8
細線
 48
50.0
100
AcDbLine
 10
8185.085700599527
 20
1230.302580942842
 30
0.0
 11
8219.383197230715
 21
1358.30258094284
 31
0.0
  0
LINE
  5
242C6
330
747D
100
AcDbEntity
  8
細線
 48
50.0
100
AcDbLine
 10
8033.740391323389
 20
1254.302580942842
 30
0.0
 11
8040.171171941736
 21
1230.302580942842
 31
0.0
  0
LINE
  5
242C7
330
747D
100
AcDbEntity
  8
細線
 48
50.0
100
AcDbLine
 10
7954.852346376142
 20
1254.302580942842
 30
0.0
 11
7961.283126994491
 21
1230.302580942842
 31
0.0
  0
LINE
  5
242C8
330
747D
100
AcDbEntity
  8
細線
 48
50.0
100
AcDbLine
 10
8191.516481217881
 20
1254.302580942842
 30
0.0
 11
8197.947261836226
 21
1230.302580942842
 31
0.0
  0
LINE
  5
242C9
330
747D
100
AcDbEntity
  8
細線
 48
50.0
100
AcDbLine
 10
8112.628436270636
 20
1254.302580942842
 30
0.0
 11
8119.059216888983
 21
1230.302580942842
 31
0.0
  0
LINE
  5
242CA
330
747D
100
AcDbEntity
  8
細線
 48
50.0
100
AcDbLine
 10
8055.17632671788
 20
1334.302580942842
 30
0.0
 11
8048.745546099532
 21
1358.302580942842
 31
0.0
  0
LINE
  5
242CB
330
747D
100
AcDbEntity
  8
細線
 48
50.0
100
AcDbLine
 10
7976.288281770632
 20
1334.302580942842
 30
0.0
 11
7969.857501152285
 21
1358.302580942842
 31
0.0
  0
LINE
  5
242CC
330
747D
100
AcDbEntity
  8
細線
 48
50.0
100
AcDbLine
 10
8134.064371665123
 20
1334.302580942842
 30
0.0
 11
8127.633591046778
 21
1358.302580942842
 31
0.0
  0
LINE
  5
242CD
330
747D
100
AcDbEntity
  8
細線
 48
50.0
100
AcDbLine
 10
8212.95241661237
 20
1334.302580942842
 30
0.0
 11
8206.521635994024
 21
1358.302580942842
 31
0.0
  0
LINE
  5
242CE
330
747D
100
AcDbEntity
  8
部品1
 48
50.0
100
AcDbLine
 10
8493.238726261777
 20
1358.302580942842
 30
0.0
 11
8493.238726261777
 21
1230.302580942842
 31
0.0
  0
LINE
  5
242CF
330
747D
100
AcDbEntity
  8
細線
 48
50.0
100
AcDbLine
 10
8421.749835441271
 20
1230.30258094284
 30
0.0
 11
8456.047332072456
 21
1358.302580942839
 31
0.0
  0
LINE
  5
242D0
330
747D
100
AcDbEntity
  8
細線
 48
50.0
100
AcDbLine
 10
8263.973745546776
 20
1230.30258094284
 30
0.0
 11
8298.271242177952
 21
1358.302580942842
 31
0.0
  0
LINE
  5
242D1
330
747D
100
AcDbEntity
  8
細線
 48
50.0
100
AcDbLine
 10
8342.861790494024
 20
1230.302580942839
 30
0.0
 11
8377.159287125211
 21
1358.302580942839
 31
0.0
  0
LINE
  5
242D2
330
747D
100
AcDbEntity
  8
細線
 48
50.0
100
AcDbLine
 10
8270.404526165126
 20
1254.302580942842
 30
0.0
 11
8276.835306783484
 21
1230.302580942842
 31
0.0
  0
LINE
  5
242D3
330
747D
100
AcDbEntity
  8
細線
 48
50.0
100
AcDbLine
 10
8349.292571112377
 20
1254.30258094284
 30
0.0
 11
8355.723351730722
 21
1230.30258094284
 31
0.0
  0
LINE
  5
242D4
330
747D
100
AcDbEntity
  8
細線
 48
50.0
100
AcDbLine
 10
8428.18061605962
 20
1254.30258094284
 30
0.0
 11
8434.61139667797
 21
1230.30258094284
 31
0.0
  0
LINE
  5
242D5
330
747D
100
AcDbEntity
  8
細線
 48
50.0
100
AcDbLine
 10
8291.840461559608
 20
1334.302580942842
 30
0.0
 11
8285.409680941262
 21
1358.302580942842
 31
0.0
  0
LINE
  5
242D6
330
747D
100
AcDbEntity
  8
細線
 48
50.0
100
AcDbLine
 10
8370.728506506864
 20
1334.30258094284
 30
0.0
 11
8364.297725888517
 21
1358.30258094284
 31
0.0
  0
LINE
  5
242D7
330
747D
100
AcDbEntity
  8
細線
 48
50.0
100
AcDbLine
 10
8449.616551454111
 20
1334.30258094284
 30
0.0
 11
8443.185770835764
 21
1358.30258094284
 31
0.0
  0
LINE
  5
242D8
330
747D
100
AcDbEntity
  8
部品1
100
AcDbLine
 10
8155.638726261775
 20
1818.30258094284
 30
0.0
 11
8029.63872626177
 21
1818.30258094284
 31
0.0
  0
LINE
  5
242D9
330
747D
100
AcDbEntity
  8
部品1
100
AcDbLine
 10
8137.638726261775
 20
1899.302580942842
 30
0.0
 11
8137.638726261775
 21
1917.302580942842
 31
0.0
  0
ARC
  5
242DA
330
747D
100
AcDbEntity
  8
部品1
100
AcDbCircle
 10
8101.638726261775
 20
1917.302580942842
 30
0.0
 40
18.0
100
AcDbArc
 50
180.0
 51
270.0
  0
LINE
  5
242DB
330
747D
100
AcDbEntity
  8
部品1
100
AcDbLine
 10
8101.638726261775
 20
1899.302580942842
 30
0.0
 11
8137.638726261775
 21
1899.302580942842
 31
0.0
  0
LINE
  5
242DC
330
747D
100
AcDbEntity
  8
部品1
100
AcDbLine
 10
8101.638726261775
 20
1917.302580942842
 30
0.0
 11
8137.638726261775
 21
1917.302580942842
 31
0.0
  0
LINE
  5
242DD
330
747D
100
AcDbEntity
  8
部品1
 48
50.0
100
AcDbLine
 10
8285.238726261775
 20
1598.302580942842
 30
0.0
 11
8413.238726261774
 21
1598.302580942842
 31
0.0
  0
LINE
  5
242DE
330
747D
100
AcDbEntity
  8
部品1
100
AcDbLine
 10
7891.038726261777
 20
2232.302580942842
 30
0.0
 11
7928.838726261776
 21
2232.302580942842
 31
0.0
  0
LINE
  5
242DF
330
747D
100
AcDbEntity
  8
細線
 48
50.0
100
AcDbLine
 10
7871.238726261776
 20
2103.14238887954
 30
0.0
 11
7910.398918325082
 21
2142.302580942842
 31
0.0
  0
LINE
  5
242E0
330
747D
100
AcDbEntity
  8
細線
 48
50.0
100
AcDbLine
 10
7871.238726261776
 20
2076.201620516332
 30
0.0
 11
7937.339686688287
 21
2142.302580942842
 31
0.0
  0
LINE
  5
242E1
330
747D
100
AcDbEntity
  8
部品1
 48
50.0
100
AcDbLine
 10
7871.238726261776
 20
2142.302580942842
 30
0.0
 11
8285.238726261779
 21
2142.302580942842
 31
0.0
  0
TEXT
  5
242E2
330
747D
100
AcDbEntity
  8
部品1
 48
50.0
100
AcDbText
 10
7444.792629682284
 20
2472.863102043318
 30
0.0
 40
80.0
  1
※(別売)
  7
STYLE2
100
AcDbText
  0
LINE
  5
242E3
330
747D
100
AcDbEntity
  8
部品1
100
AcDbLine
 10
7888.338726261776
 20
2221.502580942842
 30
0.0
 11
7888.338726261776
 21
2229.602580942842
 31
0.0
  0
ARC
  5
242E4
330
747D
100
AcDbEntity
  8
部品1
100
AcDbCircle
 10
7891.038726261777
 20
2229.602580942842
 30
0.0
 40
2.7
100
AcDbArc
 50
90.0
 51
180.0
  0
ARC
  5
242E5
330
747D
100
AcDbEntity
  8
部品1
100
AcDbCircle
 10
7880.238726261776
 20
2216.69448464555
 30
0.0
 40
2.7
100
AcDbArc
 50
104.0362434679067
 51
180.0
  0
LINE
  5
242E6
330
747D
100
AcDbEntity
  8
部品1
100
AcDbLine
 10
7879.583880074176
 20
2219.313869395942
 30
0.0
 11
7888.338726261776
 21
2221.502580942842
 31
0.0
  0
ARC
  5
242E7
330
747D
100
AcDbEntity
  8
部品1
100
AcDbCircle
 10
7880.238726261776
 20
2154.562580942842
 30
0.0
 40
2.7
100
AcDbArc
 50
180.0
 51
270.0
  0
LINE
  5
242E8
330
747D
100
AcDbEntity
  8
細線
 48
50.0
100
AcDbLine
 10
7871.238726261776
 20
2130.083157242747
 30
0.0
 11
7883.458149961871
 21
2142.302580942842
 31
0.0
  0
LINE
  5
242E9
330
747D
100
AcDbEntity
  8
部品1
100
AcDbLine
 10
7880.238726261776
 20
2151.862580942842
 30
0.0
 11
7891.938726261772
 21
2151.862580942842
 31
0.0
  0
LINE
  5
242EA
330
747D
100
AcDbEntity
  8
部品1
100
AcDbLine
 10
7877.538726261777
 20
2154.562580942842
 30
0.0
 11
7877.538726261777
 21
2216.69448464555
 31
0.0
  0
LINE
  5
242EB
330
747D
100
AcDbEntity
  8
部品1
100
AcDbLine
 10
8036.198726261771
 20
2151.862580942842
 30
0.0
 11
8237.538726261769
 21
2151.862580942842
 31
0.0
  0
LINE
  5
242EC
330
747D
100
AcDbEntity
  8
部品1
100
AcDbLine
 10
7928.838726261776
 20
2232.302580942842
 30
0.0
 11
7928.838726261776
 21
2240.402580942842
 31
0.0
  0
LINE
  5
242ED
330
747D
100
AcDbEntity
  8
部品1
100
AcDbLine
 10
7979.238726261776
 20
2251.202580942839
 30
0.0
 11
7979.238726261776
 21
2199.902580942842
 31
0.0
  0
LINE
  5
242EE
330
747D
100
AcDbEntity
  8
部品1
100
AcDbLine
 10
8002.638726261777
 20
2211.862580942842
 30
0.0
 11
8030.798726261776
 21
2211.862580942842
 31
0.0
  0
ARC
  5
242EF
330
747D
100
AcDbEntity
  8
部品1
100
AcDbCircle
 10
8002.638726261777
 20
2209.162580942843
 30
0.0
 40
2.7
100
AcDbArc
 50
90.0
 51
180.0
  0
ARC
  5
242F0
330
747D
100
AcDbEntity
  8
部品1
100
AcDbCircle
 10
8030.798726261776
 20
2209.162580942843
 30
0.0
 40
2.7
100
AcDbArc
 50
0.0
 51
90.0
  0
LINE
  5
242F1
330
747D
100
AcDbEntity
  8
部品1
100
AcDbLine
 10
8021.538726261777
 20
2197.202580942842
 30
0.0
 11
8021.538726261777
 21
2154.562580942842
 31
0.0
  0
LINE
  5
242F2
330
747D
100
AcDbEntity
  8
部品1
100
AcDbLine
 10
8007.138726261777
 20
2151.862580942842
 30
0.0
 11
8018.838726261776
 21
2151.862580942842
 31
0.0
  0
ARC
  5
242F3
330
747D
100
AcDbEntity
  8
部品1
100
AcDbCircle
 10
8036.198726261771
 20
2154.562580942842
 30
0.0
 40
2.7
100
AcDbArc
 50
180.0
 51
270.0
  0
ARC
  5
242F4
330
747D
100
AcDbEntity
  8
部品1
100
AcDbCircle
 10
8018.838726261776
 20
2154.562580942842
 30
0.0
 40
2.7
100
AcDbArc
 50
270.0
 51
0.0
  0
LINE
  5
242F5
330
747D
100
AcDbEntity
  8
部品1
100
AcDbLine
 10
7979.238726261776
 20
2199.902580942842
 30
0.0
 11
8018.838726261776
 21
2199.902580942842
 31
0.0
  0
ARC
  5
242F6
330
747D
100
AcDbEntity
  8
部品1
100
AcDbCircle
 10
8018.838726261776
 20
2197.202580942842
 30
0.0
 40
2.7
100
AcDbArc
 50
0.0
 51
90.0
  0
LINE
  5
242F7
330
747D
100
AcDbEntity
  8
部品1
100
AcDbLine
 10
8033.498726261775
 20
2209.162580942843
 30
0.0
 11
8033.498726261774
 21
2154.562580942842
 31
0.0
  0
LINE
  5
242F8
330
747D
100
AcDbEntity
  8
部品1
100
AcDbLine
 10
7999.938726261774
 20
2209.162580942843
 30
0.0
 11
7999.938726261774
 21
2192.062580942842
 31
0.0
  0
LINE
  5
242F9
330
747D
100
AcDbEntity
  8
細線
100
AcDbLine
 10
8098.038726261776
 20
2151.862580942842
 30
0.0
 11
8098.038726261776
 21
2195.062580942842
 31
0.0
  0
LINE
  5
242FA
330
747D
100
AcDbEntity
  8
細線
100
AcDbLine
 10
8087.238726261778
 20
2151.862580942842
 30
0.0
 11
8087.238726261777
 21
2195.062580942842
 31
0.0
  0
LINE
  5
242FB
330
747D
100
AcDbEntity
  8
部品1
100
AcDbLine
 10
8083.638726261776
 20
2191.462580942843
 30
0.0
 11
8101.638726261775
 21
2191.462580942843
 31
0.0
  0
LINE
  5
242FC
330
747D
100
AcDbEntity
  8
部品1
100
AcDbLine
 10
8087.238726261777
 20
2195.062580942842
 30
0.0
 11
8098.038726261776
 21
2195.062580942842
 31
0.0
  0
ELLIPSE
  5
242FD
330
747D
100
AcDbEntity
  8
部品1
 48
50.0
100
AcDbEllipse
 10
8092.638726261775
 20
2411.425869387115
 30
0.0
 11
40.0
 21
0.0
 31
0.0
210
0.0
220
0.0
230
1.0
 40
0.4
 41
0.0
 42
6.283185307179586
  0
ELLIPSE
  5
242FE
330
747D
100
AcDbEntity
  8
部品1
 48
50.0
100
AcDbEllipse
 10
8092.638726261775
 20
2401.825869387115
 30
0.0
 11
40.0
 21
0.0
 31
0.0
210
0.0
220
0.0
230
1.0
 40
0.4
 41
3.141592653589793
 42
6.283185307179586
  0
LINE
  5
242FF
330
747D
100
AcDbEntity
  8
部品1
 48
50.0
100
AcDbLine
 10
8052.638726261776
 20
2411.425869387115
 30
0.0
 11
8052.638726261776
 21
2401.825869387114
 31
0.0
  0
ARC
  5
24300
330
747D
100
AcDbEntity
  8
部品1
100
AcDbCircle
 10
7976.538726261776
 20
2251.202580942839
 30
0.0
 40
2.7
100
AcDbArc
 50
0.0
 51
90.0
  0
ARC
  5
24301
330
747D
100
AcDbEntity
  8
部品1
100
AcDbCircle
 10
7934.238726261776
 20
2251.202580942841
 30
0.0
 40
2.7
100
AcDbArc
 50
90.0
 51
180.0
  0
LINE
  5
24302
330
747D
100
AcDbEntity
  8
部品1
100
AcDbLine
 10
7931.538726261777
 20
2243.102580942842
 30
0.0
 11
7931.538726261777
 21
2243.102580942842
 31
0.0
  0
LINE
  5
24303
330
747D
100
AcDbEntity
  8
部品1
100
AcDbLine
 10
7931.538726261777
 20
2243.102580942842
 30
0.0
 11
7931.538726261777
 21
2251.202580942841
 31
0.0
  0
LINE
  5
24304
330
747D
100
AcDbEntity
  8
部品1
100
AcDbLine
 10
7934.238726261776
 20
2253.902580942842
 30
0.0
 11
7976.538726261776
 21
2253.902580942838
 31
0.0
  0
ARC
  5
24305
330
747D
100
AcDbEntity
  8
部品1
100
AcDbCircle
 10
7931.538726261777
 20
2240.402580942842
 30
0.0
 40
2.7
100
AcDbArc
 50
90.0
 51
180.0
  0
ELLIPSE
  5
24306
330
747D
100
AcDbEntity
  8
部品1
 48
50.0
100
AcDbEllipse
 10
8092.638726261775
 20
2411.425869387115
 30
0.0
 11
18.4
 21
0.0
 31
0.0
210
0.0
220
0.0
230
1.0
 40
0.3478260869565217
 41
0.0
 42
6.283185307179586
  0
LINE
  5
24307
330
747D
100
AcDbEntity
  8
部品1
 48
50.0
100
AcDbLine
 10
8132.638726261776
 20
2401.825869387114
 30
0.0
 11
8132.638726261776
 21
2411.425869387115
 31
0.0
  0
LINE
  5
24308
330
747D
100
AcDbEntity
  8
部品1
 48
50.0
100
AcDbLine
 10
8060.638726261776
 20
2533.177862051985
 30
0.0
 11
8076.638726261775
 21
2525.177862051985
 31
0.0
  0
LINE
  5
24309
330
747D
100
AcDbEntity
  8
部品1
 48
50.0
100
AcDbLine
 10
8060.638726261776
 20
2501.177862051985
 30
0.0
 11
8076.638726261775
 21
2493.177862051985
 31
0.0
  0
LINE
  5
2430A
330
747D
100
AcDbEntity
  8
部品1
 48
50.0
100
AcDbLine
 10
8060.638726261776
 20
2533.177862051985
 30
0.0
 11
8076.638726261775
 21
2541.177862051985
 31
0.0
  0
LINE
  5
2430B
330
747D
100
AcDbEntity
  8
部品1
 48
50.0
100
AcDbLine
 10
8060.638726261776
 20
2501.177862051985
 30
0.0
 11
8060.638726261776
 21
2533.177862051985
 31
0.0
  0
LINE
  5
2430C
330
747D
100
AcDbEntity
  8
部品1
 48
50.0
100
AcDbLine
 10
8076.638726261775
 20
2541.177862051985
 30
0.0
 11
8108.638726261776
 21
2541.177862051985
 31
0.0
  0
ELLIPSE
  5
2430D
330
747D
100
AcDbEntity
  8
細線
 48
50.0
100
AcDbEllipse
 10
8092.638726261775
 20
2533.177862051985
 30
0.0
 11
14.76670786606846
 21
0.0
 31
0.0
210
0.0
220
0.0
230
1.0
 40
0.2071254069489396
 41
0.0
 42
6.283185307179586
  0
LINE
  5
2430E
330
747D
100
AcDbEntity
  8
部品1
 48
50.0
100
AcDbLine
 10
8076.638726261775
 20
2493.177862051985
 30
0.0
 11
8108.638726261776
 21
2493.177862051985
 31
0.0
  0
LINE
  5
2430F
330
747D
100
AcDbEntity
  8
部品1
 48
50.0
100
AcDbLine
 10
8108.638726261776
 20
2493.177862051985
 30
0.0
 11
8124.638726261776
 21
2501.177862051985
 31
0.0
  0
LINE
  5
24310
330
747D
100
AcDbEntity
  8
部品1
 48
50.0
100
AcDbLine
 10
8076.638726261775
 20
2525.177862051985
 30
0.0
 11
8108.638726261776
 21
2525.177862051985
 31
0.0
  0
LINE
  5
24311
330
747D
100
AcDbEntity
  8
部品1
 48
50.0
100
AcDbLine
 10
8108.638726261776
 20
2525.177862051985
 30
0.0
 11
8124.638726261776
 21
2533.177862051985
 31
0.0
  0
LINE
  5
24312
330
747D
100
AcDbEntity
  8
細線
 48
50.0
100
AcDbLine
 10
8108.638726261776
 20
2493.177862051985
 30
0.0
 11
8108.638726261776
 21
2525.177862051985
 31
0.0
  0
LINE
  5
24313
330
747D
100
AcDbEntity
  8
部品1
 48
50.0
100
AcDbLine
 10
8124.638726261776
 20
2501.177862051985
 30
0.0
 11
8124.638726261776
 21
2533.177862051985
 31
0.0
  0
LINE
  5
24314
330
747D
100
AcDbEntity
  8
細線
 48
50.0
100
AcDbLine
 10
8076.638726261775
 20
2493.177862051985
 30
0.0
 11
8076.638726261775
 21
2525.177862051985
 31
0.0
  0
LINE
  5
24315
330
747D
100
AcDbEntity
  8
部品1
 48
50.0
100
AcDbLine
 10
8108.638726261776
 20
2541.177862051985
 30
0.0
 11
8124.638726261776
 21
2533.177862051985
 31
0.0
  0
TEXT
  5
24316
330
747D
100
AcDbEntity
  8
部品1
100
AcDbText
 10
7793.410975453706
 20
3283.722268768259
 30
0.0
 40
120.0
  1
基礎詳細
  7
STYLE2
100
AcDbText
  0
LINE
  5
24317
330
747D
100
AcDbEntity
  8
部品1
100
AcDbLine
 10
11171.51615966156
 20
498.9672311350395
 30
0.0
 11
11171.51615966157
 21
3463.274200719687
 31
0.0
  0
LINE
  5
24318
330
747D
100
AcDbEntity
  8
細線
100
AcDbLine
 10
10179.40799224132
 20
1902.302580942842
 30
0.0
 11
9984.774658564532
 21
2096.935914619625
 31
0.0
  0
LINE
  5
24319
330
747D
100
AcDbEntity
  8
部品1
100
AcDbLine
 10
9984.774658564532
 20
2142.302580942842
 30
0.0
 11
10464.77465856453
 21
2142.302580942842
 31
0.0
  0
LINE
  5
2431A
330
747D
100
AcDbEntity
  8
細線
 48
50.0
100
AcDbLine
 10
10118.84554300779
 20
1682.603665289492
 30
0.0
 11
10153.14303963897
 21
1810.603665289491
 31
0.0
  0
LINE
  5
2431B
330
747D
100
AcDbEntity
  8
部品1
100
AcDbLine
 10
9864.774658564535
 20
1682.603665289488
 30
0.0
 11
10584.77465856453
 21
1682.603665289492
 31
0.0
  0
LINE
  5
2431C
330
747D
100
AcDbEntity
  8
部品1
100
AcDbLine
 10
9864.774658564535
 20
1810.603665289492
 30
0.0
 11
10584.77465856453
 21
1810.603665289495
 31
0.0
  0
LINE
  5
2431D
330
747D
100
AcDbEntity
  8
細線
100
AcDbLine
 10
10045.69330405777
 20
1810.603665289492
 30
0.0
 11
10137.39221971112
 21
1902.302580942842
 31
0.0
  0
LWPOLYLINE
  5
2431E
330
747D
100
AcDbEntity
  8
部品1
 48
50.0
100
AcDbPolyline
 90
        2
 70
     0
 43
12.0
 10
9600.163396464145
 20
1902.302580942842
 10
10801.25569959577
 20
1902.302580942842
  0
LINE
  5
2431F
330
747D
100
AcDbEntity
  8
細線
100
AcDbLine
 10
10128.49630399588
 20
1902.302580942842
 30
0.0
 11
9984.774658564532
 21
2046.024226374195
 31
0.0
  0
TEXT
  5
24320
330
747D
100
AcDbEntity
  8
部品1
 48
50.0
100
AcDbText
 10
9220.65657180603
 20
1635.502840305533
 30
0.0
 40
80.0
  1
ボルトの出
 50
90.0
  7
STYLE2
100
AcDbText
  0
LINE
  5
24321
330
747D
100
AcDbEntity
  8
部品1
100
AcDbLine
 10
9984.774658564532
 20
1902.302580942842
 30
0.0
 11
9984.774658564532
 21
2142.302580942842
 31
0.0
  0
LINE
  5
24322
330
747D
100
AcDbEntity
  8
細線
 48
50.0
100
AcDbLine
 10
9961.069453113294
 20
1682.603665289491
 30
0.0
 11
9995.366949744475
 21
1810.603665289491
 31
0.0
  0
LINE
  5
24323
330
747D
100
AcDbEntity
  8
細線
 48
50.0
100
AcDbLine
 10
10039.95749806054
 20
1682.603665289492
 30
0.0
 11
10074.25499469173
 21
1810.603665289492
 31
0.0
  0
LINE
  5
24324
330
747D
100
AcDbEntity
  8
細線
 48
50.0
100
AcDbLine
 10
9882.181408166045
 20
1682.603665289492
 30
0.0
 11
9916.47890479723
 21
1810.603665289492
 31
0.0
  0
LINE
  5
24325
330
747D
100
AcDbEntity
  8
部品1
100
AcDbLine
 10
9864.774658564535
 20
1682.603665289488
 30
0.0
 11
9864.774658564535
 21
1902.302580942842
 31
0.0
  0
LINE
  5
24326
330
747D
100
AcDbEntity
  8
細線
 48
50.0
100
AcDbLine
 10
9967.500233731644
 20
1706.603665289492
 30
0.0
 11
9973.931014349993
 21
1682.603665289492
 31
0.0
  0
LINE
  5
24327
330
747D
100
AcDbEntity
  8
細線
 48
50.0
100
AcDbLine
 10
9888.612188784396
 20
1706.603665289492
 30
0.0
 11
9895.042969402741
 21
1682.603665289492
 31
0.0
  0
LINE
  5
24328
330
747D
100
AcDbEntity
  8
細線
 48
50.0
100
AcDbLine
 10
10046.38827867889
 20
1706.603665289492
 30
0.0
 11
10052.81905929724
 21
1682.603665289492
 31
0.0
  0
LINE
  5
24329
330
747D
100
AcDbEntity
  8
細線
 48
50.0
100
AcDbLine
 10
10125.27632362614
 20
1706.603665289492
 30
0.0
 11
10131.70710424449
 21
1682.603665289492
 31
0.0
  0
LINE
  5
2432A
330
747D
100
AcDbEntity
  8
細線
 48
50.0
100
AcDbLine
 10
9910.048124178885
 20
1786.603665289492
 30
0.0
 11
9903.617343560535
 21
1810.603665289492
 31
0.0
  0
LINE
  5
2432B
330
747D
100
AcDbEntity
  8
細線
 48
50.0
100
AcDbLine
 10
10067.82421407338
 20
1786.603665289492
 30
0.0
 11
10061.39343345504
 21
1810.603665289492
 31
0.0
  0
LINE
  5
2432C
330
747D
100
AcDbEntity
  8
細線
 48
50.0
100
AcDbLine
 10
9988.936169126134
 20
1786.603665289492
 30
0.0
 11
9982.505388507787
 21
1810.603665289492
 31
0.0
  0
LINE
  5
2432D
330
747D
100
AcDbEntity
  8
細線
100
AcDbLine
 10
9977.811053063863
 20
1810.603665289492
 30
0.0
 11
10069.50996871721
 21
1902.302580942842
 31
0.0
  0
LINE
  5
2432E
330
747D
100
AcDbEntity
  8
細線
100
AcDbLine
 10
10011.75217856082
 20
1810.603665289492
 30
0.0
 11
10103.45109421416
 21
1902.302580942842
 31
0.0
  0
LINE
  5
2432F
330
747D
100
AcDbEntity
  8
細線
100
AcDbLine
 10
10400.02530797152
 20
1902.302580942842
 30
0.0
 11
10160.02530797152
 21
2142.302580942842
 31
0.0
  0
LINE
  5
24330
330
747D
100
AcDbEntity
  8
細線
100
AcDbLine
 10
10450.93699621695
 20
1902.302580942843
 30
0.0
 11
10210.93699621695
 21
2142.302580942842
 31
0.0
  0
LINE
  5
24331
330
747D
100
AcDbEntity
  8
部品1
100
AcDbLine
 10
10464.77465856453
 20
2142.302580942842
 30
0.0
 11
10464.77465856453
 21
1902.302580942842
 31
0.0
  0
LINE
  5
24332
330
747D
100
AcDbEntity
  8
細線
 48
50.0
100
AcDbLine
 10
10434.39772279678
 20
1682.603665289489
 30
0.0
 11
10468.69521942796
 21
1810.603665289489
 31
0.0
  0
LINE
  5
24333
330
747D
100
AcDbEntity
  8
細線
100
AcDbLine
 10
10405.69330405777
 20
1810.603665289493
 30
0.0
 11
10497.39221971112
 21
1902.302580942842
 31
0.0
  0
LINE
  5
24334
330
747D
100
AcDbEntity
  8
細線
 48
50.0
100
AcDbLine
 10
10355.50967784953
 20
1682.603665289491
 30
0.0
 11
10389.8071744807
 21
1810.603665289492
 31
0.0
  0
LINE
  5
24335
330
747D
100
AcDbEntity
  8
細線
 48
50.0
100
AcDbLine
 10
10197.73358795504
 20
1682.603665289491
 30
0.0
 11
10232.03108458622
 21
1810.603665289491
 31
0.0
  0
LINE
  5
24336
330
747D
100
AcDbEntity
  8
細線
 48
50.0
100
AcDbLine
 10
10276.62163290228
 20
1682.603665289492
 30
0.0
 11
10310.91912953347
 21
1810.603665289491
 31
0.0
  0
LINE
  5
24337
330
747D
100
AcDbEntity
  8
細線
 48
50.0
100
AcDbLine
 10
10283.05241352063
 20
1706.603665289492
 30
0.0
 11
10289.48319413898
 21
1682.603665289492
 31
0.0
  0
LINE
  5
24338
330
747D
100
AcDbEntity
  8
細線
 48
50.0
100
AcDbLine
 10
10204.16436857339
 20
1706.603665289492
 30
0.0
 11
10210.59514919173
 21
1682.603665289492
 31
0.0
  0
LINE
  5
24339
330
747D
100
AcDbEntity
  8
細線
 48
50.0
100
AcDbLine
 10
10361.94045846788
 20
1706.603665289492
 30
0.0
 11
10368.37123908624
 21
1682.603665289492
 31
0.0
  0
LINE
  5
2433A
330
747D
100
AcDbEntity
  8
細線
 48
50.0
100
AcDbLine
 10
10440.82850341513
 20
1706.603665289491
 30
0.0
 11
10447.25928403347
 21
1682.603665289491
 31
0.0
  0
LINE
  5
2433B
330
747D
100
AcDbEntity
  8
細線
 48
50.0
100
AcDbLine
 10
10304.48834891512
 20
1786.603665289492
 30
0.0
 11
10298.05756829678
 21
1810.603665289492
 31
0.0
  0
LINE
  5
2433C
330
747D
100
AcDbEntity
  8
細線
 48
50.0
100
AcDbLine
 10
10225.60030396788
 20
1786.603665289492
 30
0.0
 11
10219.16952334953
 21
1810.603665289492
 31
0.0
  0
LINE
  5
2433D
330
747D
100
AcDbEntity
  8
細線
 48
50.0
100
AcDbLine
 10
10146.71225902063
 20
1786.603665289492
 30
0.0
 11
10140.28147840228
 21
1810.603665289492
 31
0.0
  0
LINE
  5
2433E
330
747D
100
AcDbEntity
  8
細線
100
AcDbLine
 10
10371.75217856082
 20
1810.603665289493
 30
0.0
 11
10463.45109421416
 21
1902.302580942842
 31
0.0
  0
LINE
  5
2433F
330
747D
100
AcDbEntity
  8
細線
 48
50.0
100
AcDbLine
 10
10383.37639386236
 20
1786.603665289492
 30
0.0
 11
10376.94561324401
 21
1810.603665289492
 31
0.0
  0
LINE
  5
24340
330
747D
100
AcDbEntity
  8
細線
100
AcDbLine
 10
10337.81105306386
 20
1810.603665289493
 30
0.0
 11
10429.50996871721
 21
1902.302580942842
 31
0.0
  0
LINE
  5
24341
330
747D
100
AcDbEntity
  8
細線
 48
50.0
100
AcDbLine
 10
10462.26443880962
 20
1786.603665289491
 30
0.0
 11
10455.83365819127
 21
1810.603665289491
 31
0.0
  0
LINE
  5
24342
330
747D
100
AcDbEntity
  8
細線
 48
50.0
100
AcDbLine
 10
10513.28576774402
 20
1682.603665289491
 30
0.0
 11
10547.58326437521
 21
1810.603665289489
 31
0.0
  0
LINE
  5
24343
330
747D
100
AcDbEntity
  8
部品1
100
AcDbLine
 10
10584.77465856453
 20
1902.302580942842
 30
0.0
 11
10584.77465856453
 21
1682.603665289492
 31
0.0
  0
LINE
  5
24344
330
747D
100
AcDbEntity
  8
細線
 48
50.0
100
AcDbLine
 10
10519.71654836237
 20
1706.603665289491
 30
0.0
 11
10526.14732898072
 21
1682.603665289491
 31
0.0
  0
LINE
  5
24345
330
747D
100
AcDbEntity
  8
細線
 48
50.0
100
AcDbLine
 10
10541.15248375686
 20
1786.603665289491
 30
0.0
 11
10534.72170313852
 21
1810.603665289491
 31
0.0
  0
LEADER
  5
24346
330
747D
100
AcDbEntity
  8
寸法
 48
50.0
100
AcDbLeader
  3
INABA_S50G
 73
     0
 74
     0
 75
     1
 40
120.0
 41
185.591883092037
 76
     3
 10
10395.49907018045
 20
2142.302580942842
 30
0.0
 10
10428.6372768141
 20
2314.448901623979
 30
0.0
 10
10553.6372768141
 20
2314.448901623979
 30
0.0
340
24347
1001
ACAD
1000
DSTYLE
1002
{
1070
    40
1040
1.0
1002
}
  0
MTEXT
  5
24347
102
{ACAD_REACTORS
330
24346
102
}
330
747D
100
AcDbEntity
  8
寸法
 62
     7
 48
50.0
100
AcDbMText
 10
10578.6372768141
 20
2399.44890162398
 30
0.0
 40
120.0
 41
0.8
 71
     4
 72
     1
  1
\A1;C.B
  7
STYLE1
 73
     1
 44
1.0
1001
ACAD
1000
MTEXTBEGIN
1070
    73
1070
     1
1070
    44
1040
1.0
1070
    74
1070
     0
1000
MTEXTEND
  0
ENDSEC
  0
SECTION
  2
OBJECTS
  0
DICTIONARY
  5
7471
330
0
100
AcDbDictionary
281
     1
  3
ACAD_COLOR
350
173D2
  3
ACAD_GROUP
350
7472
  3
ACAD_LAYOUT
350
173D3
  3
ACAD_MATERIAL
350
173D1
  3
ACAD_MLINESTYLE
350
7473
  3
ACAD_PLOTSETTINGS
350
173D4
  3
ACAD_PLOTSTYLENAME
350
173CF
  3
ACDBHEADERROUNDTRIPXREC
350
243EA
  3
AcDbVariableDictionary
350
243E6
  3
CONTENTDICTIONARY
350
E71C
  3
DRAWINGVARIABLESDICT
350
F3B9
  0
DICTIONARY
  5
1758F
330
7467
100
AcDbDictionary
280
     1
281
     1
  3
ACAD_LAYERSTATES
360
17590
  0
DICTIONARY
  5
173D2
102
{ACAD_REACTORS
330
7471
102
}
330
7471
100
AcDbDictionary
281
     1
  0
DICTIONARY
  5
7472
102
{ACAD_REACTORS
330
7471
102
}
330
7471
100
AcDbDictionary
281
     1
  3
*A1
350
1D2A9
  0
DICTIONARY
  5
173D3
102
{ACAD_REACTORS
330
7471
102
}
330
7471
100
AcDbDictionary
281
     1
  3
Model
350
173D5
  3
レイアウト1
350
173D6
  0
DICTIONARY
  5
173D1
102
{ACAD_REACTORS
330
7471
102
}
330
7471
100
AcDbDictionary
281
     1
  0
DICTIONARY
  5
7473
102
{ACAD_REACTORS
330
7471
102
}
330
7471
100
AcDbDictionary
281
     1
  3
STANDARD
350
7480
  0
DICTIONARY
  5
173D4
102
{ACAD_REACTORS
330
7471
102
}
330
7471
100
AcDbDictionary
281
     1
  0
ACDBDICTIONARYWDFLT
  5
173CF
102
{ACAD_REACTORS
330
7471
102
}
330
7471
100
AcDbDictionary
281
     1
  3
Normal
350
173D0
100
AcDbDictionaryWithDefault
340
173D0
  0
DICTIONARY
  5
243EA
102
{ACAD_REACTORS
330
7471
102
}
330
7471
100
AcDbDictionary
281
     1
  3
COLORDICT
350
243EC
  3
MATERIALDICT
350
243EB
  0
DICTIONARY
  5
243E6
102
{ACAD_REACTORS
330
7471
102
}
330
7471
100
AcDbDictionary
281
     1
  3
DIMASSOC
350
243E7
  3
PROJECTNAME
350
243E8
  0
DICTIONARY
  5
E71C
102
{ACAD_REACTORS
330
7471
102
}
330
7471
100
AcDbDictionary
281
     1
  0
DICTIONARY
  5
F3B9
102
{ACAD_REACTORS
330
7471
102
}
330
7471
100
AcDbDictionary
281
     1
1001
DRAWINGVARIABLESXDATA
1000
POLARMODE
1000
1
  0
DICTIONARY
  5
17590
102
{ACAD_REACTORS
330
1758F
102
}
330
1758F
100
AcDbDictionary
281
     1
  0
GROUP
  5
1D2A9
102
{ACAD_REACTORS
330
7472
102
}
330
7472
100
AcDbGroup
300

 70
     1
 71
     1
  0
LAYOUT
  5
173D5
102
{ACAD_XDICTIONARY
360
243ED
102
}
102
{ACAD_REACTORS
330
173D3
102
}
330
173D3
100
AcDbPlotSettings
  1

  2
Microsoft Office Document Image Writer
  4

  6

 40
0.0
 41
0.0
 42
0.0
 43
0.0
 44
0.0
 45
0.0
 46
0.0
 47
0.0
 48
0.0
 49
0.0
140
0.0
141
0.0
142
1.0
143
1.0
 70
  1712
 72
     0
 73
     0
 74
     0
  7

 75
     0
147
1.0
148
0.0
149
0.0
100
AcDbLayout
  1
Model
 70
     1
 71
     0
 10
0.0
 20
0.0
 11
12.0
 21
9.0
 12
0.0
 22
0.0
 32
0.0
 14
0.0
 24
0.0
 34
0.0
 15
0.0
 25
0.0
 35
0.0
146
0.0
 13
0.0
 23
0.0
 33
0.0
 16
1.0
 26
0.0
 36
0.0
 17
0.0
 27
1.0
 37
0.0
 76
     0
330
747D
  0
LAYOUT
  5
173D6
102
{ACAD_XDICTIONARY
360
243EF
102
}
102
{ACAD_REACTORS
330
173D3
102
}
330
173D3
100
AcDbPlotSettings
  1

  2
Microsoft Office Document Image Writer
  4

  6

 40
0.0
 41
0.0
 42
0.0
 43
0.0
 44
0.0
 45
0.0
 46
0.0
 47
0.0
 48
0.0
 49
0.0
140
0.0
141
0.0
142
1.0
143
1.0
 70
   688
 72
     0
 73
     0
 74
     5
  7

 75
    16
147
1.0
148
0.0
149
0.0
100
AcDbLayout
  1
レイアウト1
 70
     0
 71
     1
 10
0.0
 20
0.0
 11
420.0
 21
297.0
 12
0.0
 22
0.0
 32
0.0
 14
1.000000000000000E+20
 24
1.000000000000000E+20
 34
1.000000000000000E+20
 15
-1.000000000000000E+20
 25
-1.000000000000000E+20
 35
-1.000000000000000E+20
146
0.0
 13
0.0
 23
0.0
 33
0.0
 16
1.0
 26
0.0
 36
0.0
 17
0.0
 27
1.0
 37
0.0
 76
     0
330
747A
  0
MLINESTYLE
  5
7480
102
{ACAD_REACTORS
330
7473
102
}
330
7473
100
AcDbMlineStyle
  2
STANDARD
 70
     0
  3

 62
     0
 51
90.0
 52
90.0
 71
     2
 49
0.5
 62
   256
  6
BYLAYER
 49
-0.5
 62
   256
  6
BYLAYER
  0
ACDBPLACEHOLDER
  5
173D0
102
{ACAD_REACTORS
330
173CF
102
}
330
173CF
  0
XRECORD
  5
243EC
102
{ACAD_REACTORS
330
243EA
102
}
330
243EA
100
AcDbXrecord
280
     1
340
173D2
  0
XRECORD
  5
243EB
102
{ACAD_REACTORS
330
243EA
102
}
330
243EA
100
AcDbXrecord
280
     1
340
173D1
  0
DICTIONARYVAR
  5
243E7
102
{ACAD_REACTORS
330
243E6
102
}
330
243E6
100
DictionaryVariables
280
     0
  1
1
  0
DICTIONARYVAR
  5
243E8
102
{ACAD_REACTORS
330
243E6
102
}
330
243E6
100
DictionaryVariables
280
     0
  1

  0
DICTIONARY
  5
243ED
330
173D5
100
AcDbDictionary
280
     1
281
     1
  3
ACAD_XREC_ROUNDTRIP
360
243EE
  0
DICTIONARY
  5
243EF
330
173D6
100
AcDbDictionary
280
     1
281
     1
  3
ACAD_XREC_ROUNDTRIP
360
243F0
  0
XRECORD
  5
243EE
102
{ACAD_REACTORS
330
243ED
102
}
330
243ED
100
AcDbXrecord
280
     1
102
SHADEPLOT
 70
     0
102
SHADEPLOTRESLEVEL
 70
     2
102
SHADEPLOTCUSTOMDPI
 70
   300
  0
XRECORD
  5
243F0
102
{ACAD_REACTORS
330
243EF
102
}
330
243EF
100
AcDbXrecord
280
     1
102
SHADEPLOT
 70
     0
102
SHADEPLOTRESLEVEL
 70
     2
102
SHADEPLOTCUSTOMDPI
 70
   300
  0
ENDSEC
  0
EOF
