  0
SECTION
  2
HEADER
  9
$ACADVER
  1
AC1015
  9
$ACADMAINTVER
 70
    20
  9
$DWGCODEPAGE
  3
ANSI_932
  9
$INSBASE
 10
0.0
 20
0.0
 30
0.0
  9
$EXTMIN
 10
139.9999999999995
 20
-0.0000000000000909
 30
0.0
  9
$EXTMAX
 10
16307.2
 20
11409.6
 30
0.0
  9
$LIMMIN
 10
0.0
 20
0.0
  9
$LIMMAX
 10
16800.0
 20
11880.0
  9
$ORTHOMODE
 70
     0
  9
$REGENMODE
 70
     1
  9
$FILLMODE
 70
     1
  9
$QTEXTMODE
 70
     0
  9
$MIRRTEXT
 70
     1
  9
$LTSCALE
 40
20.0
  9
$ATTMODE
 70
     1
  9
$TEXTSIZE
 40
4.0
  9
$TRACEWID
 40
1.0
  9
$TEXTSTYLE
  7
STYLE1
  9
$CLAYER
  8
細線
  9
$CELTYPE
  6
BYLAYER
  9
$CECOLOR
 62
   256
  9
$CELTSCALE
 40
50.0
  9
$DISPSILH
 70
     0
  9
$DIMSCALE
 40
40.0
  9
$DIMASZ
 40
2.5
  9
$DIMEXO
 40
0.5
  9
$DIMDLI
 40
7.0
  9
$DIMRND
 40
0.0
  9
$DIMDLE
 40
0.0
  9
$DIMEXE
 40
1.5
  9
$DIMTP
 40
0.0
  9
$DIMTM
 40
0.0
  9
$DIMTXT
 40
3.0
  9
$DIMCEN
 40
0.0
  9
$DIMTSZ
 40
0.0
  9
$DIMTOL
 70
     0
  9
$DIMLIM
 70
     0
  9
$DIMTIH
 70
     0
  9
$DIMTOH
 70
     0
  9
$DIMSE1
 70
     0
  9
$DIMSE2
 70
     0
  9
$DIMTAD
 70
     3
  9
$DIMZIN
 70
     8
  9
$DIMBLK
  1

  9
$DIMASO
 70
     1
  9
$DIMSHO
 70
     1
  9
$DIMPOST
  1

  9
$DIMAPOST
  1

  9
$DIMALT
 70
     0
  9
$DIMALTD
 70
     2
  9
$DIMALTF
 40
0.0394
  9
$DIMLFAC
 40
1.0
  9
$DIMTOFL
 70
     1
  9
$DIMTVP
 40
0.0
  9
$DIMTIX
 70
     1
  9
$DIMSOXD
 70
     0
  9
$DIMSAH
 70
     1
  9
$DIMBLK1
  1
DOTSMALL
  9
$DIMBLK2
  1
DOTSMALL
  9
$DIMSTYLE
  2
INABA_S40G
  9
$DIMCLRD
 70
     0
  9
$DIMCLRE
 70
     0
  9
$DIMCLRT
 70
     7
  9
$DIMTFAC
 40
1.0
  9
$DIMGAP
 40
1.0
  9
$DIMJUST
 70
     0
  9
$DIMSD1
 70
     0
  9
$DIMSD2
 70
     0
  9
$DIMTOLJ
 70
     1
  9
$DIMTZIN
 70
     0
  9
$DIMALTZ
 70
     0
  9
$DIMALTTZ
 70
     0
  9
$DIMUPT
 70
     0
  9
$DIMDEC
 70
     1
  9
$DIMTDEC
 70
     4
  9
$DIMALTU
 70
     2
  9
$DIMALTTD
 70
     2
  9
$DIMTXSTY
  7
STYLE1
  9
$DIMAUNIT
 70
     0
  9
$DIMADEC
 70
     0
  9
$DIMALTRND
 40
0.0
  9
$DIMAZIN
 70
     0
  9
$DIMDSEP
 70
    46
  9
$DIMATFIT
 70
     3
  9
$DIMFRAC
 70
     0
  9
$DIMLDRBLK
  1

  9
$DIMLUNIT
 70
     2
  9
$DIMLWD
 70
    -2
  9
$DIMLWE
 70
    -2
  9
$DIMTMOVE
 70
     0
  9
$LUNITS
 70
     2
  9
$LUPREC
 70
     1
  9
$SKETCHINC
 40
1.0
  9
$FILLETRAD
 40
3.0
  9
$AUNITS
 70
     0
  9
$AUPREC
 70
     0
  9
$MENU
  1
acad
  9
$ELEVATION
 40
0.0
  9
$PELEVATION
 40
0.0
  9
$THICKNESS
 40
0.0
  9
$LIMCHECK
 70
     0
  9
$CHAMFERA
 40
0.0
  9
$CHAMFERB
 40
0.0
  9
$CHAMFERC
 40
0.0
  9
$CHAMFERD
 40
0.0
  9
$SKPOLY
 70
     0
  9
$TDCREATE
 40
2451368.612993866
  9
$TDUCREATE
 40
2451368.237993866
  9
$TDUPDATE
 40
2455827.671085023
  9
$TDUUPDATE
 40
2455827.296085023
  9
$TDINDWG
 40
0.8170526736
  9
$TDUSRTIMER
 40
0.8170526736
  9
$USRTIMER
 70
     1
  9
$ANGBASE
 50
0.0
  9
$ANGDIR
 70
     0
  9
$PDMODE
 70
     3
  9
$PDSIZE
 40
2.0
  9
$PLINEWID
 40
0.0
  9
$SPLFRAME
 70
     0
  9
$SPLINETYPE
 70
     6
  9
$SPLINESEGS
 70
     8
  9
$HANDSEED
  5
253C7
  9
$SURFTAB1
 70
     6
  9
$SURFTAB2
 70
     6
  9
$SURFTYPE
 70
     6
  9
$SURFU
 70
     6
  9
$SURFV
 70
     6
  9
$UCSBASE
  2

  9
$UCSNAME
  2

  9
$UCSORG
 10
0.0
 20
0.0
 30
0.0
  9
$UCSXDIR
 10
1.0
 20
0.0
 30
0.0
  9
$UCSYDIR
 10
0.0
 20
1.0
 30
0.0
  9
$UCSORTHOREF
  2

  9
$UCSORTHOVIEW
 70
     0
  9
$UCSORGTOP
 10
0.0
 20
0.0
 30
0.0
  9
$UCSORGBOTTOM
 10
0.0
 20
0.0
 30
0.0
  9
$UCSORGLEFT
 10
0.0
 20
0.0
 30
0.0
  9
$UCSORGRIGHT
 10
0.0
 20
0.0
 30
0.0
  9
$UCSORGFRONT
 10
0.0
 20
0.0
 30
0.0
  9
$UCSORGBACK
 10
0.0
 20
0.0
 30
0.0
  9
$PUCSBASE
  2

  9
$PUCSNAME
  2

  9
$PUCSORG
 10
0.0
 20
0.0
 30
0.0
  9
$PUCSXDIR
 10
1.0
 20
0.0
 30
0.0
  9
$PUCSYDIR
 10
0.0
 20
1.0
 30
0.0
  9
$PUCSORTHOREF
  2

  9
$PUCSORTHOVIEW
 70
     0
  9
$PUCSORGTOP
 10
0.0
 20
0.0
 30
0.0
  9
$PUCSORGBOTTOM
 10
0.0
 20
0.0
 30
0.0
  9
$PUCSORGLEFT
 10
0.0
 20
0.0
 30
0.0
  9
$PUCSORGRIGHT
 10
0.0
 20
0.0
 30
0.0
  9
$PUCSORGFRONT
 10
0.0
 20
0.0
 30
0.0
  9
$PUCSORGBACK
 10
0.0
 20
0.0
 30
0.0
  9
$USERI1
 70
     0
  9
$USERI2
 70
     0
  9
$USERI3
 70
     0
  9
$USERI4
 70
     0
  9
$USERI5
 70
     0
  9
$USERR1
 40
0.0
  9
$USERR2
 40
0.0
  9
$USERR3
 40
0.0
  9
$USERR4
 40
0.0
  9
$USERR5
 40
0.0
  9
$WORLDVIEW
 70
     1
  9
$SHADEDGE
 70
     3
  9
$SHADEDIF
 70
    70
  9
$TILEMODE
 70
     1
  9
$MAXACTVP
 70
    16
  9
$PINSBASE
 10
0.0
 20
0.0
 30
0.0
  9
$PLIMCHECK
 70
     0
  9
$PEXTMIN
 10
1.000000000000000E+20
 20
1.000000000000000E+20
 30
1.000000000000000E+20
  9
$PEXTMAX
 10
-1.000000000000000E+20
 20
-1.000000000000000E+20
 30
-1.000000000000000E+20
  9
$PLIMMIN
 10
0.0
 20
0.0
  9
$PLIMMAX
 10
420.0
 20
297.0
  9
$UNITMODE
 70
     0
  9
$VISRETAIN
 70
     0
  9
$PLINEGEN
 70
     0
  9
$PSLTSCALE
 70
     0
  9
$TREEDEPTH
 70
  3020
  9
$CMLSTYLE
  2
STANDARD
  9
$CMLJUST
 70
     0
  9
$CMLSCALE
 40
1.0
  9
$PROXYGRAPHICS
 70
     1
  9
$MEASUREMENT
 70
     1
  9
$CELWEIGHT
370
    -1
  9
$ENDCAPS
280
     0
  9
$JOINSTYLE
280
     0
  9
$LWDISPLAY
290
     0
  9
$INSUNITS
 70
     0
  9
$HYPERLINKBASE
  1

  9
$STYLESHEET
  1
ACA3.ctb
  9
$XEDIT
290
     1
  9
$CEPSNTYPE
380
     0
  9
$PSTYLEMODE
290
     1
  9
$FINGERPRINTGUID
  2
{5EAC461A-2277-4BF8-9AB0-99C43BB394F0}
  9
$VERSIONGUID
  2
{7618110E-EE32-49C1-B61F-E22AE76E9C18}
  9
$EXTNAMES
290
     1
  9
$PSVPSCALE
 40
0.0
  9
$OLESTARTUP
290
     0
  0
ENDSEC
  0
SECTION
  2
CLASSES
  0
CLASS
  1
ACDBDICTIONARYWDFLT
  2
AcDbDictionaryWithDefault
  3
ObjectDBX Classes
 90
        0
280
     0
281
     0
  0
CLASS
  1
DICTIONARYVAR
  2
AcDbDictionaryVar
  3
ObjectDBX Classes
 90
        0
280
     0
281
     0
  0
CLASS
  1
ACDBPLACEHOLDER
  2
AcDbPlaceHolder
  3
ObjectDBX Classes
 90
        0
280
     0
281
     0
  0
CLASS
  1
LAYOUT
  2
AcDbLayout
  3
ObjectDBX Classes
 90
        0
280
     0
281
     0
  0
ENDSEC
  0
SECTION
  2
TABLES
  0
TABLE
  2
VPORT
  5
746D
330
0
100
AcDbSymbolTable
 70
     2
  0
VPORT
  5
253BF
330
746D
100
AcDbSymbolTableRecord
100
AcDbViewportTableRecord
  2
*Active
 70
     0
 10
0.0
 20
0.0
 11
1.0
 21
1.0
 12
8400.0
 22
6549.78343810319
 13
0.0
 23
0.0
 14
10.0
 24
10.0
 15
10.0
 25
10.0
 16
0.0
 26
0.0
 36
1.0
 17
0.0
 27
0.0
 37
0.0
 40
13195.93622444292
 41
1.522222222222222
 42
50.0
 43
0.0
 44
0.0
 50
0.0
 51
0.0
 71
     0
 72
     0
 73
     1
 74
     0
 75
     0
 76
     0
 77
     0
 78
     0
281
     0
 65
     1
110
0.0
120
0.0
130
0.0
111
1.0
121
0.0
131
0.0
112
0.0
122
1.0
132
0.0
 79
     0
146
0.0
  0
ENDTAB
  0
TABLE
  2
LTYPE
  5
746A
330
0
100
AcDbSymbolTable
 70
     5
  0
LTYPE
  5
7477
330
746A
100
AcDbSymbolTableRecord
100
AcDbLinetypeTableRecord
  2
BYBLOCK
 70
     0
  3

 72
    65
 73
     0
 40
0.0
  0
LTYPE
  5
7478
330
746A
100
AcDbSymbolTableRecord
100
AcDbLinetypeTableRecord
  2
BYLAYER
 70
     0
  3

 72
    65
 73
     0
 40
0.0
  0
LTYPE
  5
7479
330
746A
100
AcDbSymbolTableRecord
100
AcDbLinetypeTableRecord
  2
CONTINUOUS
 70
     0
  3
Solid line
 72
    65
 73
     0
 40
0.0
  0
LTYPE
  5
7816
330
746A
100
AcDbSymbolTableRecord
100
AcDbLinetypeTableRecord
  2
CENTER
 70
     0
  3
____ _ ____ _ ____ _ ____ _ ____ _ ____ _ ____ 
 72
    65
 73
     4
 40
2.0
 49
1.25
 74
     0
 49
-0.25
 74
     0
 49
0.25
 74
     0
 49
-0.25
 74
     0
  0
LTYPE
  5
781A
330
746A
100
AcDbSymbolTableRecord
100
AcDbLinetypeTableRecord
  2
HIDDEN
 70
     0
  3
__ __ __ __ __ __ __ __ __ __ __ __ __ __ __ __
 72
    65
 73
     2
 40
0.375
 49
0.25
 74
     0
 49
-0.125
 74
     0
  0
LTYPE
  5
781B
330
746A
100
AcDbSymbolTableRecord
100
AcDbLinetypeTableRecord
  2
PHANTOM
 70
     0
  3
______  __  __  ______  __  __  ______  __  __ 
 72
    65
 73
     6
 40
2.5
 49
1.25
 74
     0
 49
-0.25
 74
     0
 49
0.25
 74
     0
 49
-0.25
 74
     0
 49
0.25
 74
     0
 49
-0.25
 74
     0
  0
LTYPE
  5
12CC3
330
746A
100
AcDbSymbolTableRecord
100
AcDbLinetypeTableRecord
  2
HIDDENX2
 70
     0
  3
Hidden (2x) ____ ____ ____ ____ ____ ____ ____
 72
    65
 73
     2
 40
19.05
 49
12.7
 74
     0
 49
-6.349999999999999
 74
     0
  0
ENDTAB
  0
TABLE
  2
LAYER
  5
7467
102
{ACAD_XDICTIONARY
360
1758F
102
}
330
0
100
AcDbSymbolTable
 70
    12
  0
LAYER
  5
7474
330
7467
100
AcDbSymbolTableRecord
100
AcDbLayerTableRecord
  2
0
 70
     0
 62
     7
  6
CONTINUOUS
370
    -3
390
173D0
  0
LAYER
  5
DEB2
330
7467
100
AcDbSymbolTableRecord
100
AcDbLayerTableRecord
  2
センター
 70
     0
 62
     3
  6
CENTER
370
    -3
390
173D0
  0
LAYER
  5
DEB3
330
7467
100
AcDbSymbolTableRecord
100
AcDbLayerTableRecord
  2
寸法
 70
     0
 62
     4
  6
CONTINUOUS
370
    -3
390
173D0
  0
LAYER
  5
DEB4
330
7467
100
AcDbSymbolTableRecord
100
AcDbLayerTableRecord
  2
部品1
 70
     0
 62
     7
  6
CONTINUOUS
370
    -3
390
173D0
  0
LAYER
  5
DEB5
330
7467
100
AcDbSymbolTableRecord
100
AcDbLayerTableRecord
  2
補助
 70
     0
 62
    -1
  6
CONTINUOUS
370
    -3
390
173D0
  0
LAYER
  5
DEB6
330
7467
100
AcDbSymbolTableRecord
100
AcDbLayerTableRecord
  2
文字
 70
     0
 62
     7
  6
CONTINUOUS
370
    -3
390
173D0
  0
LAYER
  5
F255
330
7467
100
AcDbSymbolTableRecord
100
AcDbLayerTableRecord
  2
DEFPOINTS
 70
     0
 62
     7
  6
CONTINUOUS
290
     0
370
    -3
390
173D0
  0
LAYER
  5
10B54
330
7467
100
AcDbSymbolTableRecord
100
AcDbLayerTableRecord
  2
仕様書枠
 70
     0
 62
   230
  6
CONTINUOUS
370
    -3
390
173D0
  0
LAYER
  5
11729
330
7467
100
AcDbSymbolTableRecord
100
AcDbLayerTableRecord
  2
Ｇ．Ｌ
 70
     0
 62
    30
  6
CONTINUOUS
370
    -3
390
173D0
  0
LAYER
  5
1173F
330
7467
100
AcDbSymbolTableRecord
100
AcDbLayerTableRecord
  2
細線
 70
     0
 62
     5
  6
CONTINUOUS
370
    -3
390
173D0
  0
LAYER
  5
12CC4
330
7467
100
AcDbSymbolTableRecord
100
AcDbLayerTableRecord
  2
想像線
 70
     0
 62
     6
  6
PHANTOM
370
    -3
390
173D0
  0
LAYER
  5
142E2
330
7467
100
AcDbSymbolTableRecord
100
AcDbLayerTableRecord
  2
破線
 70
     0
 62
     2
  6
HIDDEN
370
    -3
390
173D0
  0
ENDTAB
  0
TABLE
  2
STYLE
  5
7468
330
0
100
AcDbSymbolTable
 70
     7
  0
STYLE
  5
7475
330
7468
100
AcDbSymbolTableRecord
100
AcDbTextStyleTableRecord
  2
STANDARD
 70
     0
 40
0.0
 41
1.0
 50
0.0
 71
     0
 42
4.0
  3
txt
  4
C:\AutoCAD LT\bigfont.shx
  0
STYLE
  5
763C
330
7468
100
AcDbSymbolTableRecord
100
AcDbTextStyleTableRecord
  2
MSMINCHO
 70
     0
 40
0.0
 41
1.0
 50
0.0
 71
     0
 42
1.199999999999999
  3
C:\AutoCAD LT\msminch2.TTF
  4

  0
STYLE
  5
F706
330
7468
100
AcDbSymbolTableRecord
100
AcDbTextStyleTableRecord
  2
STYLE1
 70
     0
 40
0.0
 41
1.0
 50
0.0
 71
     0
 42
4.0
  3
isocp.shx
  4
bigfont.shx
  0
STYLE
  5
103BF
330
7468
100
AcDbSymbolTableRecord
100
AcDbTextStyleTableRecord
  2
STYLE2
 70
     0
 40
0.0
 41
1.0
 50
0.0
 71
     0
 42
100.0
  3
MS PGothic.ttf
  4

1001
ACAD
1000
MS PGothic
1071
    32818
  0
STYLE
  5
10BAA
330
7468
100
AcDbSymbolTableRecord
100
AcDbTextStyleTableRecord
  2
STYLE3
 70
     0
 40
0.0
 41
1.0
 50
0.0
 71
     0
 42
100.0
  3

  4

1001
ACAD
1000
DFPGothic-EB
1071
    32818
  0
STYLE
  5
11A15
330
7468
100
AcDbSymbolTableRecord
100
AcDbTextStyleTableRecord
  2
MSGOTHIC
 70
     0
 40
0.0
 41
1.0
 50
0.0
 71
     0
 42
3.5
  3
msgothi2.ttf
  4

  0
STYLE
  5
13E96
330
7468
100
AcDbSymbolTableRecord
100
AcDbTextStyleTableRecord
  2
MSPゴシック
 70
     0
 40
0.0
 41
1.0
 50
0.0
 71
     0
 42
4.0
  3
MS PGothic.ttf
  4

1001
ACAD
1000
MS PGothic
1071
    32818
  0
ENDTAB
  0
TABLE
  2
VIEW
  5
746B
330
0
100
AcDbSymbolTable
 70
     0
  0
ENDTAB
  0
TABLE
  2
UCS
  5
746C
330
0
100
AcDbSymbolTable
 70
     0
  0
ENDTAB
  0
TABLE
  2
APPID
  5
746E
330
0
100
AcDbSymbolTable
 70
     6
  0
APPID
  5
7476
330
746E
100
AcDbSymbolTableRecord
100
AcDbRegAppTableRecord
  2
ACAD
 70
     0
  0
APPID
  5
DEA9
330
746E
100
AcDbSymbolTableRecord
100
AcDbRegAppTableRecord
  2
CONTENTBLOCKICON
 70
     0
  0
APPID
  5
DEAA
330
746E
100
AcDbSymbolTableRecord
100
AcDbRegAppTableRecord
  2
CONTENTBLOCKDESCRIPTION
 70
     0
  0
APPID
  5
E71D
330
746E
100
AcDbSymbolTableRecord
100
AcDbRegAppTableRecord
  2
CONTENTTABDATA
 70
     0
  0
APPID
  5
E71E
330
746E
100
AcDbSymbolTableRecord
100
AcDbRegAppTableRecord
  2
CONTENTCURRENTTAB
 70
     0
  0
APPID
  5
F3BA
330
746E
100
AcDbSymbolTableRecord
100
AcDbRegAppTableRecord
  2
DRAWINGVARIABLESXDATA
 70
     0
  0
ENDTAB
  0
TABLE
  2
DIMSTYLE
  5
746F
330
0
100
AcDbSymbolTable
 70
     6
100
AcDbDimStyleTable
 71
     1
340
F71F
  0
DIMSTYLE
105
7484
330
746F
100
AcDbSymbolTableRecord
100
AcDbDimStyleTableRecord
  2
JIS
 70
     0
 41
2.5
 42
1.0
 43
7.0
 44
1.0
 73
     0
 74
     0
 77
     1
 78
     8
140
2.5
141
0.0
143
0.0394
147
0.0
172
     1
174
     1
175
     1
340
7475
  0
DIMSTYLE
105
F236
330
746F
100
AcDbSymbolTableRecord
100
AcDbDimStyleTableRecord
  2
INABA_S40
 70
     0
 40
40.0
 41
2.5
 42
0.5
 43
7.0
 44
1.5
 73
     0
 74
     0
 77
     3
 78
     8
140
3.0
141
0.0
143
0.0394
147
1.0
172
     1
173
     1
174
     1
175
     1
178
     7
289
     0
340
7475
341
DEAC
343
DEAC
344
DEAC
  0
DIMSTYLE
105
F71F
102
{ACAD_REACTORS
330
230E4
330
230E1
330
230E0
330
230DF
330
230DE
330
230DD
330
230FF
330
230FC
330
230FB
330
230F5
330
230E2
330
230F3
330
230F4
330
23114
330
23103
330
23137
330
23139
330
23569
330
23CD2
330
23CD8
330
2310E
330
24617
330
2461A
330
2461B
330
24620
330
251E9
330
251EA
330
251F2
330
251F9
330
251FC
330
2525C
102
}
330
746F
100
AcDbSymbolTableRecord
100
AcDbDimStyleTableRecord
  2
INABA_S40G
 70
     0
 40
40.0
 41
2.5
 42
0.5
 43
7.0
 44
1.5
 73
     0
 74
     0
 77
     3
 78
     8
140
3.0
141
0.0
143
0.0394
147
1.0
172
     1
173
     1
174
     1
178
     7
271
     1
340
F706
341
F770
343
F770
344
F770
  0
DIMSTYLE
105
142E3
330
746F
100
AcDbSymbolTableRecord
100
AcDbDimStyleTableRecord
  2
INABA_S1
 70
     0
 40
0.0
 41
2.5
 42
0.5
 43
7.0
 44
1.5
 73
     0
 74
     0
 77
     3
 78
     8
140
3.0
141
0.0
143
0.0394
146
0.5
147
0.5
172
     1
173
     1
176
   256
177
   256
178
     7
271
     2
272
     2
284
     8
288
     1
340
7475
341
DEAC
343
DEAC
344
DEAC
  0
DIMSTYLE
105
14463
330
746F
100
AcDbSymbolTableRecord
100
AcDbDimStyleTableRecord
  2
INABA_S30G
 70
     0
 40
30.0
 41
2.5
 42
0.5
 43
7.0
 44
1.5
 73
     0
 74
     0
 77
     3
 78
     8
140
3.0
141
0.0
143
0.0394
147
1.0
172
     1
173
     1
174
     1
175
     1
178
     7
271
     1
340
F706
341
F770
343
F770
344
F770
  0
DIMSTYLE
105
1758E
330
746F
100
AcDbSymbolTableRecord
100
AcDbDimStyleTableRecord
  2
INABA_S50G
 70
     0
 41
125.0
 42
25.0
 43
7.0
 44
75.0
 73
     0
 74
     0
 77
     3
 78
     8
140
150.0
141
0.0
143
0.0394
147
25.0
172
     1
173
     1
174
     1
175
     1
178
     7
271
     1
340
F706
341
F770
343
F770
344
F770
  0
ENDTAB
  0
TABLE
  2
BLOCK_RECORD
  5
7466
330
0
100
AcDbSymbolTable
 70
    50
  0
BLOCK_RECORD
  5
747D
330
7466
100
AcDbSymbolTableRecord
100
AcDbBlockTableRecord
  2
*MODEL_SPACE
340
173D5
  0
BLOCK_RECORD
  5
747A
330
7466
100
AcDbSymbolTableRecord
100
AcDbBlockTableRecord
  2
*PAPER_SPACE
340
173D6
  0
BLOCK_RECORD
  5
DEAC
330
7466
100
AcDbSymbolTableRecord
100
AcDbBlockTableRecord
  2
_OPEN
340
0
  0
BLOCK_RECORD
  5
F770
330
7466
100
AcDbSymbolTableRecord
100
AcDbBlockTableRecord
  2
_DOTSMALL
340
0
102
{BLKREFS
331
18C65
331
18C66
331
18C59
331
18C5A
331
18C4D
331
18C4E
331
18C41
331
18C42
331
18C35
331
18C36
331
18C29
331
18C2A
331
18C1D
331
18C1E
331
18C0F
331
18C10
331
18C03
331
18C04
331
18BF5
331
18BF6
331
18BE7
331
18BE8
331
18BD9
331
18BDA
331
18BCD
331
18BCE
331
235DD
331
235DE
331
235F0
331
235F1
331
2360D
331
2360E
331
23617
331
23618
331
23620
331
23621
331
2362A
331
2362B
331
2363D
331
2363E
331
2365B
331
2365C
331
23670
331
23671
331
23679
331
2367A
331
23682
331
23683
331
2368B
331
2368C
331
23694
331
23695
331
2369D
331
2369E
331
23F4D
331
23F4E
331
23FA2
331
23FA3
331
2488E
331
2488F
331
248A4
331
248A5
331
248D0
331
248D1
331
248E6
331
248E7
331
24CD4
331
24CD5
331
24CDE
331
24CDF
331
24CE8
331
24CE9
331
25053
331
25054
331
25366
331
25367
331
25375
331
25376
331
2537E
331
2537F
331
25387
331
25388
331
25390
331
25391
331
25399
331
2539A
331
253AB
331
253AC
102
}
  0
BLOCK_RECORD
  5
164B4
330
7466
100
AcDbSymbolTableRecord
100
AcDbBlockTableRecord
  2
_DOT
340
0
102
{BLKREFS
331
18C73
331
18C74
102
}
  0
BLOCK_RECORD
  5
18BC8
330
7466
100
AcDbSymbolTableRecord
100
AcDbBlockTableRecord
  2
*D3
340
0
  0
BLOCK_RECORD
  5
18BD4
330
7466
100
AcDbSymbolTableRecord
100
AcDbBlockTableRecord
  2
*D4
340
0
  0
BLOCK_RECORD
  5
18BE0
330
7466
100
AcDbSymbolTableRecord
100
AcDbBlockTableRecord
  2
*D5
340
0
  0
BLOCK_RECORD
  5
18BEE
330
7466
100
AcDbSymbolTableRecord
100
AcDbBlockTableRecord
  2
*D6
340
0
  0
BLOCK_RECORD
  5
18BFC
330
7466
100
AcDbSymbolTableRecord
100
AcDbBlockTableRecord
  2
*D7
340
0
  0
BLOCK_RECORD
  5
18C0A
330
7466
100
AcDbSymbolTableRecord
100
AcDbBlockTableRecord
  2
*D8
340
0
  0
BLOCK_RECORD
  5
18C16
330
7466
100
AcDbSymbolTableRecord
100
AcDbBlockTableRecord
  2
*D9
340
0
  0
BLOCK_RECORD
  5
18C24
330
7466
100
AcDbSymbolTableRecord
100
AcDbBlockTableRecord
  2
*D10
340
0
  0
BLOCK_RECORD
  5
18C30
330
7466
100
AcDbSymbolTableRecord
100
AcDbBlockTableRecord
  2
*D11
340
0
  0
BLOCK_RECORD
  5
18C3C
330
7466
100
AcDbSymbolTableRecord
100
AcDbBlockTableRecord
  2
*D12
340
0
  0
BLOCK_RECORD
  5
18C48
330
7466
100
AcDbSymbolTableRecord
100
AcDbBlockTableRecord
  2
*D13
340
0
  0
BLOCK_RECORD
  5
18C54
330
7466
100
AcDbSymbolTableRecord
100
AcDbBlockTableRecord
  2
*D14
340
0
  0
BLOCK_RECORD
  5
18C60
330
7466
100
AcDbSymbolTableRecord
100
AcDbBlockTableRecord
  2
*D15
340
0
  0
BLOCK_RECORD
  5
18C6C
330
7466
100
AcDbSymbolTableRecord
100
AcDbBlockTableRecord
  2
*D16
340
0
  0
BLOCK_RECORD
  5
18C7A
330
7466
100
AcDbSymbolTableRecord
100
AcDbBlockTableRecord
  2
A$C3B1A506B
340
0
  0
BLOCK_RECORD
  5
1C4CA
330
7466
100
AcDbSymbolTableRecord
100
AcDbBlockTableRecord
  2
_NONE
340
0
  0
BLOCK_RECORD
  5
2313C
330
7466
100
AcDbSymbolTableRecord
100
AcDbBlockTableRecord
  2
*D19
340
0
  0
BLOCK_RECORD
  5
23149
330
7466
100
AcDbSymbolTableRecord
100
AcDbBlockTableRecord
  2
*D20
340
0
  0
BLOCK_RECORD
  5
23156
330
7466
100
AcDbSymbolTableRecord
100
AcDbBlockTableRecord
  2
*D21
340
0
  0
BLOCK_RECORD
  5
23162
330
7466
100
AcDbSymbolTableRecord
100
AcDbBlockTableRecord
  2
*D22
340
0
  0
BLOCK_RECORD
  5
2316D
330
7466
100
AcDbSymbolTableRecord
100
AcDbBlockTableRecord
  2
*D23
340
0
  0
BLOCK_RECORD
  5
23179
330
7466
100
AcDbSymbolTableRecord
100
AcDbBlockTableRecord
  2
*D24
340
0
  0
BLOCK_RECORD
  5
23184
330
7466
100
AcDbSymbolTableRecord
100
AcDbBlockTableRecord
  2
*D25
340
0
  0
BLOCK_RECORD
  5
2318F
330
7466
100
AcDbSymbolTableRecord
100
AcDbBlockTableRecord
  2
*D26
340
0
  0
BLOCK_RECORD
  5
231A9
330
7466
100
AcDbSymbolTableRecord
100
AcDbBlockTableRecord
  2
*D27
340
0
  0
BLOCK_RECORD
  5
231CF
330
7466
100
AcDbSymbolTableRecord
100
AcDbBlockTableRecord
  2
*D28
340
0
  0
BLOCK_RECORD
  5
231DB
330
7466
100
AcDbSymbolTableRecord
100
AcDbBlockTableRecord
  2
*D29
340
0
  0
BLOCK_RECORD
  5
231E8
330
7466
100
AcDbSymbolTableRecord
100
AcDbBlockTableRecord
  2
*D30
340
0
  0
BLOCK_RECORD
  5
231F5
330
7466
100
AcDbSymbolTableRecord
100
AcDbBlockTableRecord
  2
*D31
340
0
  0
BLOCK_RECORD
  5
23201
330
7466
100
AcDbSymbolTableRecord
100
AcDbBlockTableRecord
  2
*D32
340
0
  0
BLOCK_RECORD
  5
2320E
330
7466
100
AcDbSymbolTableRecord
100
AcDbBlockTableRecord
  2
*D33
340
0
  0
BLOCK_RECORD
  5
2322F
330
7466
100
AcDbSymbolTableRecord
100
AcDbBlockTableRecord
  2
*D34
340
0
  0
BLOCK_RECORD
  5
23248
330
7466
100
AcDbSymbolTableRecord
100
AcDbBlockTableRecord
  2
*D35
340
0
  0
BLOCK_RECORD
  5
23255
330
7466
100
AcDbSymbolTableRecord
100
AcDbBlockTableRecord
  2
*D36
340
0
  0
BLOCK_RECORD
  5
2356A
330
7466
100
AcDbSymbolTableRecord
100
AcDbBlockTableRecord
  2
*D37
340
0
  0
BLOCK_RECORD
  5
23D30
330
7466
100
AcDbSymbolTableRecord
100
AcDbBlockTableRecord
  2
*D38
340
0
  0
BLOCK_RECORD
  5
23D4A
330
7466
100
AcDbSymbolTableRecord
100
AcDbBlockTableRecord
  2
*D39
340
0
  0
BLOCK_RECORD
  5
246C2
330
7466
100
AcDbSymbolTableRecord
100
AcDbBlockTableRecord
  2
*D40
340
0
  0
BLOCK_RECORD
  5
246D0
330
7466
100
AcDbSymbolTableRecord
100
AcDbBlockTableRecord
  2
*D41
340
0
  0
BLOCK_RECORD
  5
246DE
330
7466
100
AcDbSymbolTableRecord
100
AcDbBlockTableRecord
  2
*D42
340
0
  0
BLOCK_RECORD
  5
246EC
330
7466
100
AcDbSymbolTableRecord
100
AcDbBlockTableRecord
  2
*D43
340
0
  0
BLOCK_RECORD
  5
25316
330
7466
100
AcDbSymbolTableRecord
100
AcDbBlockTableRecord
  2
*D44
340
0
  0
BLOCK_RECORD
  5
25322
330
7466
100
AcDbSymbolTableRecord
100
AcDbBlockTableRecord
  2
*D45
340
0
  0
BLOCK_RECORD
  5
25333
330
7466
100
AcDbSymbolTableRecord
100
AcDbBlockTableRecord
  2
*D46
340
0
  0
BLOCK_RECORD
  5
2533F
330
7466
100
AcDbSymbolTableRecord
100
AcDbBlockTableRecord
  2
*D47
340
0
  0
BLOCK_RECORD
  5
2534B
330
7466
100
AcDbSymbolTableRecord
100
AcDbBlockTableRecord
  2
*D48
340
0
  0
BLOCK_RECORD
  5
25357
330
7466
100
AcDbSymbolTableRecord
100
AcDbBlockTableRecord
  2
*D49
340
0
  0
ENDTAB
  0
ENDSEC
  0
SECTION
  2
BLOCKS
  0
BLOCK
  5
7489
330
747D
100
AcDbEntity
  8
0
100
AcDbBlockBegin
  2
*MODEL_SPACE
 70
     0
 10
0.0
 20
0.0
 30
0.0
  3
*MODEL_SPACE
  1

  0
ENDBLK
  5
748A
330
747D
100
AcDbEntity
  8
0
100
AcDbBlockEnd
  0
BLOCK
  5
7487
330
747A
100
AcDbEntity
 67
     1
  8
0
100
AcDbBlockBegin
  2
*PAPER_SPACE
 70
     0
 10
0.0
 20
0.0
 30
0.0
  3
*PAPER_SPACE
  1

  0
ENDBLK
  5
7488
330
747A
100
AcDbEntity
 67
     1
  8
0
100
AcDbBlockEnd
  0
BLOCK
  5
DEAD
330
DEAC
100
AcDbEntity
  8
0
100
AcDbBlockBegin
  2
_OPEN
 70
     0
 10
0.0
 20
0.0
 30
0.0
  3
_OPEN
  1

  0
LINE
  5
DEAE
330
DEAC
100
AcDbEntity
  8
0
  6
ByBlock
 62
     0
100
AcDbLine
 10
-1.0
 20
0.1666666666666666
 30
0.0
 11
0.0
 21
0.0
 31
0.0
  0
LINE
  5
DEAF
330
DEAC
100
AcDbEntity
  8
0
  6
ByBlock
 62
     0
100
AcDbLine
 10
0.0
 20
0.0
 30
0.0
 11
-1.0
 21
-0.1666666666666666
 31
0.0
  0
LINE
  5
DEB0
330
DEAC
100
AcDbEntity
  8
0
  6
ByBlock
 62
     0
100
AcDbLine
 10
0.0
 20
0.0
 30
0.0
 11
-1.0
 21
0.0
 31
0.0
  0
ENDBLK
  5
DEB1
330
DEAC
100
AcDbEntity
  8
0
100
AcDbBlockEnd
  0
BLOCK
  5
F771
330
F770
100
AcDbEntity
  8
0
 48
50.0
100
AcDbBlockBegin
  2
_DOTSMALL
 70
     0
 10
0.0
 20
0.0
 30
0.0
  3
_DOTSMALL
  1

  0
LWPOLYLINE
  5
F772
330
F770
100
AcDbEntity
  8
0
  6
ByBlock
 62
     0
 48
50.0
100
AcDbPolyline
 90
        2
 70
     1
 43
0.5
 10
-0.0625
 20
0.0
 42
1.0
 10
0.0625
 20
0.0
 42
1.0
  0
ENDBLK
  5
F776
330
F770
100
AcDbEntity
  8
0
 48
50.0
100
AcDbBlockEnd
  0
BLOCK
  5
164BA
330
164B4
100
AcDbEntity
  8
0
 48
50.0
100
AcDbBlockBegin
  2
_DOT
 70
     0
 10
0.0
 20
0.0
 30
0.0
  3
_DOT
  1

  0
LWPOLYLINE
  5
164B5
330
164B4
100
AcDbEntity
  8
0
  6
ByBlock
 62
     0
 48
50.0
100
AcDbPolyline
 90
        2
 70
     1
 43
0.5
 10
-0.25
 20
0.0
 42
1.0
 10
0.25
 20
0.0
 42
1.0
  0
LINE
  5
164B9
330
164B4
100
AcDbEntity
  8
0
  6
ByBlock
 62
     0
 48
50.0
100
AcDbLine
 10
-0.5
 20
0.0
 30
0.0
 11
-1.0
 21
0.0
 31
0.0
  0
ENDBLK
  5
164BB
330
164B4
100
AcDbEntity
  8
0
 48
50.0
100
AcDbBlockEnd
  0
BLOCK
  5
18BC9
330
18BC8
100
AcDbEntity
  8
0
 48
50.0
100
AcDbBlockBegin
  2
*D3
 70
     1
 10
0.0
 20
0.0
 30
0.0
  3
*D3
  1

  0
LINE
  5
18BCA
330
18BC8
100
AcDbEntity
  8
寸法
 62
     0
 48
50.0
370
    -2
100
AcDbLine
 10
7649.896575106999
 20
9636.123139034717
 30
0.0
 11
8702.429862581047
 21
9636.123139034717
 31
0.0
  0
LINE
  5
18BCB
330
18BC8
100
AcDbEntity
  8
寸法
 62
     0
 48
50.0
370
    -2
100
AcDbLine
 10
7649.896575106973
 20
7846.123139034709
 30
0.0
 11
8702.429862581047
 21
7846.123139034709
 31
0.0
  0
LINE
  5
18BCC
330
18BC8
100
AcDbEntity
  8
寸法
 62
     0
 48
50.0
370
    -2
100
AcDbLine
 10
8642.429862581046
 20
9636.123139034717
 30
0.0
 11
8642.429862581046
 21
7846.123139034709
 31
0.0
  0
INSERT
  5
18BCD
330
18BC8
100
AcDbEntity
  8
寸法
 62
     0
 48
50.0
370
    -2
100
AcDbBlockReference
  2
_DOTSMALL
 10
8642.429862581046
 20
9636.123139034717
 30
0.0
 41
100.0
 42
100.0
 43
100.0
 50
90.0
  0
INSERT
  5
18BCE
330
18BC8
100
AcDbEntity
  8
寸法
 62
     0
 48
50.0
370
    -2
100
AcDbBlockReference
  2
_DOTSMALL
 10
8642.429862581046
 20
7846.123139034709
 30
0.0
 41
100.0
 42
100.0
 43
100.0
 50
270.0
  0
MTEXT
  5
18BCF
330
18BC8
100
AcDbEntity
  8
寸法
 62
     7
 48
50.0
100
AcDbMText
 10
8542.429862581045
 20
8741.123139034712
 30
0.0
 40
120.0
 41
0.0
 71
     5
 72
     1
  1
\A1;1790
  7
STYLE1
 11
0.0000000000000001
 21
1.0
 31
0.0
 73
     1
 44
1.0
1001
ACAD
1000
MTEXTBEGIN
1070
    73
1070
     1
1070
    44
1040
1.0
1070
    74
1070
     0
1000
MTEXTEND
  0
POINT
  5
18BD0
330
18BC8
100
AcDbEntity
  8
DEFPOINTS
 62
     0
 48
50.0
100
AcDbPoint
 10
7629.896575106998
 20
9636.123139034717
 30
0.0
  0
POINT
  5
18BD1
330
18BC8
100
AcDbEntity
  8
DEFPOINTS
 62
     0
 48
50.0
100
AcDbPoint
 10
7629.896575106974
 20
7846.123139034709
 30
0.0
  0
POINT
  5
18BD2
330
18BC8
100
AcDbEntity
  8
DEFPOINTS
 62
     0
 48
50.0
100
AcDbPoint
 10
8642.429862581046
 20
7846.123139034709
 30
0.0
  0
ENDBLK
  5
18BD3
330
18BC8
100
AcDbEntity
  8
0
 48
50.0
100
AcDbBlockEnd
  0
BLOCK
  5
18BD5
330
18BD4
100
AcDbEntity
  8
0
 48
50.0
100
AcDbBlockBegin
  2
*D4
 70
     1
 10
0.0
 20
0.0
 30
0.0
  3
*D4
  1

  0
LINE
  5
18BD6
330
18BD4
100
AcDbEntity
  8
寸法
 62
     0
 48
50.0
370
    -2
100
AcDbLine
 10
4214.896575106998
 20
9656.123139034622
 30
0.0
 11
4214.896575106998
 21
10211.93135865972
 31
0.0
  0
LINE
  5
18BD7
330
18BD4
100
AcDbEntity
  8
寸法
 62
     0
 48
50.0
370
    -2
100
AcDbLine
 10
7574.896575106999
 20
9656.123139034718
 30
0.0
 11
7574.896575106999
 21
10211.93135865972
 31
0.0
  0
LINE
  5
18BD8
330
18BD4
100
AcDbEntity
  8
寸法
 62
     0
 48
50.0
370
    -2
100
AcDbLine
 10
4214.896575106998
 20
10151.93135865972
 30
0.0
 11
7574.896575106999
 21
10151.93135865972
 31
0.0
  0
INSERT
  5
18BD9
330
18BD4
100
AcDbEntity
  8
寸法
 62
     0
 48
50.0
370
    -2
100
AcDbBlockReference
  2
_DOTSMALL
 10
4214.896575106998
 20
10151.93135865972
 30
0.0
 41
100.0
 42
100.0
 43
100.0
 50
180.0
  0
INSERT
  5
18BDA
330
18BD4
100
AcDbEntity
  8
寸法
 62
     0
 48
50.0
370
    -2
100
AcDbBlockReference
  2
_DOTSMALL
 10
7574.896575106999
 20
10151.93135865972
 30
0.0
 41
100.0
 42
100.0
 43
100.0
  0
MTEXT
  5
18BDB
330
18BD4
100
AcDbEntity
  8
寸法
 62
     7
 48
50.0
100
AcDbMText
 10
5894.896575106997
 20
10251.94316968334
 30
0.0
 40
120.0
 41
0.0
 71
     5
 72
     1
  1
\A1;8X420=3360
  7
STYLE1
 73
     1
 44
1.0
1001
ACAD
1000
MTEXTBEGIN
1070
    73
1070
     1
1070
    44
1040
1.0
1070
    74
1070
     0
1000
MTEXTEND
  0
POINT
  5
18BDC
330
18BD4
100
AcDbEntity
  8
DEFPOINTS
 62
     0
 48
50.0
100
AcDbPoint
 10
4214.896575106998
 20
9636.123139034623
 30
0.0
  0
POINT
  5
18BDD
330
18BD4
100
AcDbEntity
  8
DEFPOINTS
 62
     0
 48
50.0
100
AcDbPoint
 10
7574.896575106999
 20
9636.123139034717
 30
0.0
  0
POINT
  5
18BDE
330
18BD4
100
AcDbEntity
  8
DEFPOINTS
 62
     0
 48
50.0
100
AcDbPoint
 10
7574.896575106999
 20
10151.93135865972
 30
0.0
  0
ENDBLK
  5
18BDF
330
18BD4
100
AcDbEntity
  8
0
 48
50.0
100
AcDbBlockEnd
  0
BLOCK
  5
18BE1
330
18BE0
100
AcDbEntity
  8
0
 48
50.0
100
AcDbBlockBegin
  2
*D5
 70
     1
 10
0.0
 20
0.0
 30
0.0
  3
*D5
  1

  0
LINE
  5
18BE2
330
18BE0
100
AcDbEntity
  8
寸法
 62
     0
 48
50.0
370
    -2
100
AcDbLine
 10
7574.896575106999
 20
9656.123139034718
 30
0.0
 11
7574.896575106999
 21
10211.9313586597
 31
0.0
  0
LINE
  5
18BE3
330
18BE0
100
AcDbEntity
  8
寸法
 62
     0
 48
50.0
370
    -2
100
AcDbLine
 10
7629.896575106998
 20
9656.123139034718
 30
0.0
 11
7629.896575106998
 21
10211.9313586597
 31
0.0
  0
LINE
  5
18BE4
330
18BE0
100
AcDbEntity
  8
寸法
 62
     0
 48
50.0
370
    -2
100
AcDbLine
 10
7574.896575106999
 20
10151.9313586597
 30
0.0
 11
7474.896575106999
 21
10151.9313586597
 31
0.0
  0
LINE
  5
18BE5
330
18BE0
100
AcDbEntity
  8
寸法
 62
     0
 48
50.0
370
    -2
100
AcDbLine
 10
7629.896575106998
 20
10151.9313586597
 30
0.0
 11
8046.867137855477
 21
10151.9313586597
 31
0.0
  0
LINE
  5
18BE6
330
18BE0
100
AcDbEntity
  8
寸法
 62
     0
 48
50.0
370
    -2
100
AcDbLine
 10
7574.896575106999
 20
10151.9313586597
 30
0.0
 11
7629.896575106998
 21
10151.9313586597
 31
0.0
  0
INSERT
  5
18BE7
330
18BE0
100
AcDbEntity
  8
寸法
 62
     0
 48
50.0
370
    -2
100
AcDbBlockReference
  2
_DOTSMALL
 10
7574.896575106999
 20
10151.9313586597
 30
0.0
 41
100.0
 42
100.0
 43
100.0
  0
INSERT
  5
18BE8
330
18BE0
100
AcDbEntity
  8
寸法
 62
     0
 48
50.0
370
    -2
100
AcDbBlockReference
  2
_DOTSMALL
 10
7629.896575106998
 20
10151.9313586597
 30
0.0
 41
100.0
 42
100.0
 43
100.0
 50
180.0
  0
MTEXT
  5
18BE9
330
18BE0
100
AcDbEntity
  8
寸法
 62
     7
 48
50.0
100
AcDbMText
 10
7938.381856481237
 20
10251.9313586597
 30
0.0
 40
120.0
 41
0.0
 71
     5
 72
     1
  1
\A1;55
  7
STYLE1
 73
     1
 44
1.0
1001
ACAD
1000
MTEXTBEGIN
1070
    73
1070
     1
1070
    44
1040
1.0
1070
    74
1070
     0
1000
MTEXTEND
  0
POINT
  5
18BEA
330
18BE0
100
AcDbEntity
  8
DEFPOINTS
 62
     0
 48
50.0
100
AcDbPoint
 10
7574.896575106999
 20
9636.123139034717
 30
0.0
  0
POINT
  5
18BEB
330
18BE0
100
AcDbEntity
  8
DEFPOINTS
 62
     0
 48
50.0
100
AcDbPoint
 10
7629.896575106998
 20
9636.123139034717
 30
0.0
  0
POINT
  5
18BEC
330
18BE0
100
AcDbEntity
  8
DEFPOINTS
 62
     0
 48
50.0
100
AcDbPoint
 10
7629.896575106998
 20
10151.9313586597
 30
0.0
  0
ENDBLK
  5
18BED
330
18BE0
100
AcDbEntity
  8
0
 48
50.0
100
AcDbBlockEnd
  0
BLOCK
  5
18BEF
330
18BEE
100
AcDbEntity
  8
0
 48
50.0
100
AcDbBlockBegin
  2
*D6
 70
     1
 10
0.0
 20
0.0
 30
0.0
  3
*D6
  1

  0
LINE
  5
18BF0
330
18BEE
100
AcDbEntity
  8
寸法
 62
     0
 48
50.0
370
    -2
100
AcDbLine
 10
7649.896575106999
 20
9636.123139034717
 30
0.0
 11
8337.32292084141
 21
9636.123139034717
 31
0.0
  0
LINE
  5
18BF1
330
18BEE
100
AcDbEntity
  8
寸法
 62
     0
 48
50.0
370
    -2
100
AcDbLine
 10
7649.896575106999
 20
9581.123139034721
 30
0.0
 11
8337.32292084141
 21
9581.123139034721
 31
0.0
  0
LINE
  5
18BF2
330
18BEE
100
AcDbEntity
  8
寸法
 62
     0
 48
50.0
370
    -2
100
AcDbLine
 10
8277.322920841411
 20
9581.123139034721
 30
0.0
 11
8277.322920841411
 21
9481.123139034719
 31
0.0
  0
LINE
  5
18BF3
330
18BEE
100
AcDbEntity
  8
寸法
 62
     0
 48
50.0
370
    -2
100
AcDbLine
 10
8277.322920841411
 20
9636.123139034717
 30
0.0
 11
8277.322920841411
 21
10053.09370178319
 31
0.0
  0
LINE
  5
18BF4
330
18BEE
100
AcDbEntity
  8
寸法
 62
     0
 48
50.0
370
    -2
100
AcDbLine
 10
8277.322920841411
 20
9581.123139034721
 30
0.0
 11
8277.322920841411
 21
9636.123139034717
 31
0.0
  0
INSERT
  5
18BF5
330
18BEE
100
AcDbEntity
  8
寸法
 62
     0
 48
50.0
370
    -2
100
AcDbBlockReference
  2
_DOTSMALL
 10
8277.322920841411
 20
9581.123139034721
 30
0.0
 41
100.0
 42
100.0
 43
100.0
 50
90.0
  0
INSERT
  5
18BF6
330
18BEE
100
AcDbEntity
  8
寸法
 62
     0
 48
50.0
370
    -2
100
AcDbBlockReference
  2
_DOTSMALL
 10
8277.322920841411
 20
9636.123139034717
 30
0.0
 41
100.0
 42
100.0
 43
100.0
 50
270.0
  0
MTEXT
  5
18BF7
330
18BEE
100
AcDbEntity
  8
寸法
 62
     7
 48
50.0
100
AcDbMText
 10
8177.32292084141
 20
9944.608420408957
 30
0.0
 40
120.0
 41
0.0
 71
     5
 72
     1
  1
\A1;55
  7
STYLE1
 11
0.0000000000000001
 21
1.0
 31
0.0
 73
     1
 44
1.0
1001
ACAD
1000
MTEXTBEGIN
1070
    73
1070
     1
1070
    44
1040
1.0
1070
    74
1070
     0
1000
MTEXTEND
  0
POINT
  5
18BF8
330
18BEE
100
AcDbEntity
  8
DEFPOINTS
 62
     0
 48
50.0
100
AcDbPoint
 10
7629.896575106998
 20
9636.123139034717
 30
0.0
  0
POINT
  5
18BF9
330
18BEE
100
AcDbEntity
  8
DEFPOINTS
 62
     0
 48
50.0
100
AcDbPoint
 10
7629.896575106998
 20
9581.123139034721
 30
0.0
  0
POINT
  5
18BFA
330
18BEE
100
AcDbEntity
  8
DEFPOINTS
 62
     0
 48
50.0
100
AcDbPoint
 10
8277.322920841411
 20
9581.123139034721
 30
0.0
  0
ENDBLK
  5
18BFB
330
18BEE
100
AcDbEntity
  8
0
 48
50.0
100
AcDbBlockEnd
  0
BLOCK
  5
18BFD
330
18BFC
100
AcDbEntity
  8
0
 48
50.0
100
AcDbBlockBegin
  2
*D7
 70
     1
 10
0.0
 20
0.0
 30
0.0
  3
*D7
  1

  0
LINE
  5
18BFE
330
18BFC
100
AcDbEntity
  8
寸法
 62
     0
 48
50.0
370
    -2
100
AcDbLine
 10
4159.896575106963
 20
9656.123139034622
 30
0.0
 11
4159.896575106963
 21
10211.9313586596
 31
0.0
  0
LINE
  5
18BFF
330
18BFC
100
AcDbEntity
  8
寸法
 62
     0
 48
50.0
370
    -2
100
AcDbLine
 10
4214.896575106998
 20
9656.123139034622
 30
0.0
 11
4214.896575106998
 21
10211.9313586596
 31
0.0
  0
LINE
  5
18C00
330
18BFC
100
AcDbEntity
  8
寸法
 62
     0
 48
50.0
370
    -2
100
AcDbLine
 10
4214.896575106998
 20
10151.9313586596
 30
0.0
 11
4314.896575106998
 21
10151.9313586596
 31
0.0
  0
LINE
  5
18C01
330
18BFC
100
AcDbEntity
  8
寸法
 62
     0
 48
50.0
370
    -2
100
AcDbLine
 10
4159.896575106963
 20
10151.9313586596
 30
0.0
 11
3742.926012358486
 21
10151.9313586596
 31
0.0
  0
LINE
  5
18C02
330
18BFC
100
AcDbEntity
  8
寸法
 62
     0
 48
50.0
370
    -2
100
AcDbLine
 10
4214.896575106998
 20
10151.9313586596
 30
0.0
 11
4159.896575106963
 21
10151.9313586596
 31
0.0
  0
INSERT
  5
18C03
330
18BFC
100
AcDbEntity
  8
寸法
 62
     0
 48
50.0
370
    -2
100
AcDbBlockReference
  2
_DOTSMALL
 10
4214.896575106998
 20
10151.9313586596
 30
0.0
 41
100.0
 42
100.0
 43
100.0
 50
180.0
  0
INSERT
  5
18C04
330
18BFC
100
AcDbEntity
  8
寸法
 62
     0
 48
50.0
370
    -2
100
AcDbBlockReference
  2
_DOTSMALL
 10
4159.896575106963
 20
10151.9313586596
 30
0.0
 41
100.0
 42
100.0
 43
100.0
  0
MTEXT
  5
18C05
330
18BFC
100
AcDbEntity
  8
寸法
 62
     7
 48
50.0
100
AcDbMText
 10
3851.411293732725
 20
10251.9313586596
 30
0.0
 40
120.0
 41
0.0
 71
     5
 72
     1
  1
\A1;55
  7
STYLE1
 73
     1
 44
1.0
1001
ACAD
1000
MTEXTBEGIN
1070
    73
1070
     1
1070
    44
1040
1.0
1070
    74
1070
     0
1000
MTEXTEND
  0
POINT
  5
18C06
330
18BFC
100
AcDbEntity
  8
DEFPOINTS
 62
     0
 48
50.0
100
AcDbPoint
 10
4159.896575106963
 20
9636.123139034623
 30
0.0
  0
POINT
  5
18C07
330
18BFC
100
AcDbEntity
  8
DEFPOINTS
 62
     0
 48
50.0
100
AcDbPoint
 10
4214.896575106998
 20
9636.123139034623
 30
0.0
  0
POINT
  5
18C08
330
18BFC
100
AcDbEntity
  8
DEFPOINTS
 62
     0
 48
50.0
100
AcDbPoint
 10
4214.896575106998
 20
10151.9313586596
 30
0.0
  0
ENDBLK
  5
18C09
330
18BFC
100
AcDbEntity
  8
0
 48
50.0
100
AcDbBlockEnd
  0
BLOCK
  5
18C0B
330
18C0A
100
AcDbEntity
  8
0
 48
50.0
100
AcDbBlockBegin
  2
*D8
 70
     1
 10
0.0
 20
0.0
 30
0.0
  3
*D8
  1

  0
LINE
  5
18C0C
330
18C0A
100
AcDbEntity
  8
寸法
 62
     0
 48
50.0
370
    -2
100
AcDbLine
 10
4159.896575106992
 20
7826.123139034546
 30
0.0
 11
4159.896575106992
 21
6804.372203245664
 31
0.0
  0
LINE
  5
18C0D
330
18C0A
100
AcDbEntity
  8
寸法
 62
     0
 48
50.0
370
    -2
100
AcDbLine
 10
7629.896575106974
 20
7826.123139034674
 30
0.0
 11
7629.896575106974
 21
6804.372203245664
 31
0.0
  0
LINE
  5
18C0E
330
18C0A
100
AcDbEntity
  8
寸法
 62
     0
 48
50.0
370
    -2
100
AcDbLine
 10
4159.896575106992
 20
6864.372203245665
 30
0.0
 11
7629.896575106974
 21
6864.372203245665
 31
0.0
  0
INSERT
  5
18C0F
330
18C0A
100
AcDbEntity
  8
寸法
 62
     0
 48
50.0
370
    -2
100
AcDbBlockReference
  2
_DOTSMALL
 10
4159.896575106992
 20
6864.372203245665
 30
0.0
 41
100.0
 42
100.0
 43
100.0
 50
180.0
  0
INSERT
  5
18C10
330
18C0A
100
AcDbEntity
  8
寸法
 62
     0
 48
50.0
370
    -2
100
AcDbBlockReference
  2
_DOTSMALL
 10
7629.896575106974
 20
6864.372203245665
 30
0.0
 41
100.0
 42
100.0
 43
100.0
  0
MTEXT
  5
18C11
330
18C0A
100
AcDbEntity
  8
寸法
 62
     7
 48
50.0
100
AcDbMText
 10
5911.12376113973
 20
6964.372203245665
 30
0.0
 40
120.0
 41
0.0
 71
     5
 72
     1
  1
\A1;3470
  7
STYLE1
 73
     1
 44
1.0
1001
ACAD
1000
MTEXTBEGIN
1070
    73
1070
     1
1070
    44
1040
1.0
1070
    74
1070
     0
1000
MTEXTEND
  0
POINT
  5
18C12
330
18C0A
100
AcDbEntity
  8
DEFPOINTS
 62
     0
 48
50.0
100
AcDbPoint
 10
4159.896575106992
 20
7846.123139034546
 30
0.0
  0
POINT
  5
18C13
330
18C0A
100
AcDbEntity
  8
DEFPOINTS
 62
     0
 48
50.0
100
AcDbPoint
 10
7629.896575106974
 20
7846.123139034673
 30
0.0
  0
POINT
  5
18C14
330
18C0A
100
AcDbEntity
  8
DEFPOINTS
 62
     0
 48
50.0
100
AcDbPoint
 10
7629.896575106974
 20
6864.372203245665
 30
0.0
  0
ENDBLK
  5
18C15
330
18C0A
100
AcDbEntity
  8
0
 48
50.0
100
AcDbBlockEnd
  0
BLOCK
  5
18C17
330
18C16
100
AcDbEntity
  8
0
 48
50.0
100
AcDbBlockBegin
  2
*D9
 70
     1
 10
0.0
 20
0.0
 30
0.0
  3
*D9
  1

  0
LINE
  5
18C18
330
18C16
100
AcDbEntity
  8
寸法
 62
     0
 48
50.0
370
    -2
100
AcDbLine
 10
7649.896575106973
 20
7901.123139034706
 30
0.0
 11
8337.322920841385
 21
7901.123139034706
 31
0.0
  0
LINE
  5
18C19
330
18C16
100
AcDbEntity
  8
寸法
 62
     0
 48
50.0
370
    -2
100
AcDbLine
 10
7649.896575106973
 20
7846.123139034709
 30
0.0
 11
8337.322920841385
 21
7846.123139034709
 31
0.0
  0
LINE
  5
18C1A
330
18C16
100
AcDbEntity
  8
寸法
 62
     0
 48
50.0
370
    -2
100
AcDbLine
 10
8277.322920841385
 20
7901.123139034706
 30
0.0
 11
8277.322920841385
 21
8001.123139034707
 31
0.0
  0
LINE
  5
18C1B
330
18C16
100
AcDbEntity
  8
寸法
 62
     0
 48
50.0
370
    -2
100
AcDbLine
 10
8277.322920841385
 20
7846.123139034709
 30
0.0
 11
8277.322920841385
 21
7429.152576286229
 31
0.0
  0
LINE
  5
18C1C
330
18C16
100
AcDbEntity
  8
寸法
 62
     0
 48
50.0
370
    -2
100
AcDbLine
 10
8277.322920841385
 20
7901.123139034706
 30
0.0
 11
8277.322920841385
 21
7846.123139034709
 31
0.0
  0
INSERT
  5
18C1D
330
18C16
100
AcDbEntity
  8
寸法
 62
     0
 48
50.0
370
    -2
100
AcDbBlockReference
  2
_DOTSMALL
 10
8277.322920841385
 20
7901.123139034706
 30
0.0
 41
100.0
 42
100.0
 43
100.0
 50
270.0
  0
INSERT
  5
18C1E
330
18C16
100
AcDbEntity
  8
寸法
 62
     0
 48
50.0
370
    -2
100
AcDbBlockReference
  2
_DOTSMALL
 10
8277.322920841385
 20
7846.123139034709
 30
0.0
 41
100.0
 42
100.0
 43
100.0
 50
90.0
  0
MTEXT
  5
18C1F
330
18C16
100
AcDbEntity
  8
寸法
 62
     7
 48
50.0
100
AcDbMText
 10
8177.322920841383
 20
7537.637857660469
 30
0.0
 40
120.0
 41
0.0
 71
     5
 72
     1
  1
\A1;55
  7
STYLE1
 11
0.0000000000000001
 21
1.0
 31
0.0
 73
     1
 44
1.0
1001
ACAD
1000
MTEXTBEGIN
1070
    73
1070
     1
1070
    44
1040
1.0
1070
    74
1070
     0
1000
MTEXTEND
  0
POINT
  5
18C20
330
18C16
100
AcDbEntity
  8
DEFPOINTS
 62
     0
 48
50.0
100
AcDbPoint
 10
7629.896575106974
 20
7901.123139034706
 30
0.0
  0
POINT
  5
18C21
330
18C16
100
AcDbEntity
  8
DEFPOINTS
 62
     0
 48
50.0
100
AcDbPoint
 10
7629.896575106974
 20
7846.123139034709
 30
0.0
  0
POINT
  5
18C22
330
18C16
100
AcDbEntity
  8
DEFPOINTS
 62
     0
 48
50.0
100
AcDbPoint
 10
8277.322920841385
 20
7846.123139034709
 30
0.0
  0
ENDBLK
  5
18C23
330
18C16
100
AcDbEntity
  8
0
 48
50.0
100
AcDbBlockEnd
  0
BLOCK
  5
18C25
330
18C24
100
AcDbEntity
  8
0
 48
50.0
100
AcDbBlockBegin
  2
*D10
 70
     1
 10
0.0
 20
0.0
 30
0.0
  3
*D10
  1

  0
LINE
  5
18C26
330
18C24
100
AcDbEntity
  8
寸法
 62
     0
 48
50.0
370
    -2
100
AcDbLine
 10
6533.037591258376
 20
9136.123139034728
 30
0.0
 11
6465.083950562664
 21
8882.516699399049
 31
0.0
  0
LINE
  5
18C27
330
18C24
100
AcDbEntity
  8
寸法
 62
     0
 48
50.0
370
    -2
100
AcDbLine
 10
7596.037591258388
 20
9136.123139034721
 30
0.0
 11
7528.083950562677
 21
8882.516699399049
 31
0.0
  0
LINE
  5
18C28
330
18C24
100
AcDbEntity
  8
寸法
 62
     0
 48
50.0
370
    -2
100
AcDbLine
 10
6481.160902108531
 20
8942.51669939905
 30
0.0
 11
7544.160902108544
 21
8942.51669939905
 31
0.0
  0
INSERT
  5
18C29
330
18C24
100
AcDbEntity
  8
寸法
 62
     0
 48
50.0
370
    -2
100
AcDbBlockReference
  2
_DOTSMALL
 10
6481.160902108531
 20
8942.51669939905
 30
0.0
 41
100.0
 42
100.0
 43
100.0
 50
180.0
  0
INSERT
  5
18C2A
330
18C24
100
AcDbEntity
  8
寸法
 62
     0
 48
50.0
370
    -2
100
AcDbBlockReference
  2
_DOTSMALL
 10
7544.160902108544
 20
8942.51669939905
 30
0.0
 41
100.0
 42
100.0
 43
100.0
  0
MTEXT
  5
18C2B
330
18C24
100
AcDbEntity
  8
寸法
 62
     7
 48
50.0
100
AcDbMText
 10
7061.28653022935
 20
9042.516699399049
 30
0.0
 40
120.0
 41
0.0
 71
     5
 72
     1
  1
\A1;1063
  7
STYLE1
 73
     1
 44
1.0
1001
ACAD
1000
MTEXTBEGIN
1070
    73
1070
     1
1070
    44
1040
1.0
1070
    74
1070
     0
1000
MTEXTEND
  0
POINT
  5
18C2C
330
18C24
100
AcDbEntity
  8
DEFPOINTS
 62
     0
 48
50.0
100
AcDbPoint
 10
6538.396575106998
 20
9156.123139034727
 30
0.0
  0
POINT
  5
18C2D
330
18C24
100
AcDbEntity
  8
DEFPOINTS
 62
     0
 48
50.0
100
AcDbPoint
 10
7601.39657510701
 20
9156.12313903472
 30
0.0
  0
POINT
  5
18C2E
330
18C24
100
AcDbEntity
  8
DEFPOINTS
 62
     0
 48
50.0
100
AcDbPoint
 10
7544.160902108544
 20
8942.51669939905
 30
0.0
  0
ENDBLK
  5
18C2F
330
18C24
100
AcDbEntity
  8
0
 48
50.0
100
AcDbBlockEnd
  0
BLOCK
  5
18C31
330
18C30
100
AcDbEntity
  8
0
 48
50.0
100
AcDbBlockBegin
  2
*D11
 70
     1
 10
0.0
 20
0.0
 30
0.0
  3
*D11
  1

  0
LINE
  5
18C32
330
18C30
100
AcDbEntity
  8
寸法
 62
     0
 48
50.0
370
    -2
100
AcDbLine
 10
7621.396575106999
 20
9600.764155186094
 30
0.0
 11
8016.754300969024
 21
9494.828371819961
 31
0.0
  0
LINE
  5
18C33
330
18C30
100
AcDbEntity
  8
寸法
 62
     0
 48
50.0
370
    -2
100
AcDbLine
 10
7621.396575106999
 20
9150.764155186099
 30
0.0
 11
8016.754300969024
 21
9044.828371819964
 31
0.0
  0
LINE
  5
18C34
330
18C30
100
AcDbEntity
  8
寸法
 62
     0
 48
50.0
370
    -2
100
AcDbLine
 10
7956.754300969024
 20
9510.905323365827
 30
0.0
 11
7956.754300969024
 21
9060.90532336583
 31
0.0
  0
INSERT
  5
18C35
330
18C30
100
AcDbEntity
  8
寸法
 62
     0
 48
50.0
370
    -2
100
AcDbBlockReference
  2
_DOTSMALL
 10
7956.754300969024
 20
9510.905323365827
 30
0.0
 41
100.0
 42
100.0
 43
100.0
 50
90.0
  0
INSERT
  5
18C36
330
18C30
100
AcDbEntity
  8
寸法
 62
     0
 48
50.0
370
    -2
100
AcDbBlockReference
  2
_DOTSMALL
 10
7956.754300969024
 20
9060.90532336583
 30
0.0
 41
100.0
 42
100.0
 43
100.0
 50
270.0
  0
MTEXT
  5
18C37
330
18C30
100
AcDbEntity
  8
寸法
 62
     7
 48
50.0
100
AcDbMText
 10
7856.754300969022
 20
9285.905323365829
 30
0.0
 40
120.0
 41
0.0
 71
     5
 72
     1
  1
\A1;450
  7
STYLE1
 11
0.0000000000000001
 21
1.0
 31
0.0
 73
     1
 44
1.0
1001
ACAD
1000
MTEXTBEGIN
1070
    73
1070
     1
1070
    44
1040
1.0
1070
    74
1070
     0
1000
MTEXTEND
  0
POINT
  5
18C38
330
18C30
100
AcDbEntity
  8
DEFPOINTS
 62
     0
 48
50.0
100
AcDbPoint
 10
7601.396575106999
 20
9606.123139034718
 30
0.0
  0
POINT
  5
18C39
330
18C30
100
AcDbEntity
  8
DEFPOINTS
 62
     0
 48
50.0
100
AcDbPoint
 10
7601.396575106999
 20
9156.12313903472
 30
0.0
  0
POINT
  5
18C3A
330
18C30
100
AcDbEntity
  8
DEFPOINTS
 62
     0
 48
50.0
100
AcDbPoint
 10
7956.754300969024
 20
9060.90532336583
 30
0.0
  0
ENDBLK
  5
18C3B
330
18C30
100
AcDbEntity
  8
0
 48
50.0
100
AcDbBlockEnd
  0
BLOCK
  5
18C3D
330
18C3C
100
AcDbEntity
  8
0
 48
50.0
100
AcDbBlockBegin
  2
*D12
 70
     1
 10
0.0
 20
0.0
 30
0.0
  3
*D12
  1

  0
LINE
  5
18C3E
330
18C3C
100
AcDbEntity
  8
寸法
 62
     0
 48
50.0
370
    -2
100
AcDbLine
 10
7649.896575106999
 20
9581.123139034721
 30
0.0
 11
8337.32292084141
 21
9581.123139034721
 31
0.0
  0
LINE
  5
18C3F
330
18C3C
100
AcDbEntity
  8
寸法
 62
     0
 48
50.0
370
    -2
100
AcDbLine
 10
7649.896575106973
 20
7901.123139034706
 30
0.0
 11
8337.32292084141
 21
7901.123139034706
 31
0.0
  0
LINE
  5
18C40
330
18C3C
100
AcDbEntity
  8
寸法
 62
     0
 48
50.0
370
    -2
100
AcDbLine
 10
8277.322920841411
 20
9581.123139034721
 30
0.0
 11
8277.322920841411
 21
7901.123139034706
 31
0.0
  0
INSERT
  5
18C41
330
18C3C
100
AcDbEntity
  8
寸法
 62
     0
 48
50.0
370
    -2
100
AcDbBlockReference
  2
_DOTSMALL
 10
8277.322920841411
 20
9581.123139034721
 30
0.0
 41
100.0
 42
100.0
 43
100.0
 50
90.0
  0
INSERT
  5
18C42
330
18C3C
100
AcDbEntity
  8
寸法
 62
     0
 48
50.0
370
    -2
100
AcDbBlockReference
  2
_DOTSMALL
 10
8277.322920841411
 20
7901.123139034706
 30
0.0
 41
100.0
 42
100.0
 43
100.0
 50
270.0
  0
MTEXT
  5
18C43
330
18C3C
100
AcDbEntity
  8
寸法
 62
     7
 48
50.0
100
AcDbMText
 10
8177.311109817788
 20
8741.123139034712
 30
0.0
 40
120.0
 41
0.0
 71
     5
 72
     1
  1
\A1;4X420=1680
  7
STYLE1
 11
0.0000000000000001
 21
1.0
 31
0.0
 73
     1
 44
1.0
1001
ACAD
1000
MTEXTBEGIN
1070
    73
1070
     1
1070
    44
1040
1.0
1070
    74
1070
     0
1000
MTEXTEND
  0
POINT
  5
18C44
330
18C3C
100
AcDbEntity
  8
DEFPOINTS
 62
     0
 48
50.0
100
AcDbPoint
 10
7629.896575106998
 20
9581.123139034721
 30
0.0
  0
POINT
  5
18C45
330
18C3C
100
AcDbEntity
  8
DEFPOINTS
 62
     0
 48
50.0
100
AcDbPoint
 10
7629.896575106974
 20
7901.123139034706
 30
0.0
  0
POINT
  5
18C46
330
18C3C
100
AcDbEntity
  8
DEFPOINTS
 62
     0
 48
50.0
100
AcDbPoint
 10
8277.322920841411
 20
7901.123139034706
 30
0.0
  0
ENDBLK
  5
18C47
330
18C3C
100
AcDbEntity
  8
0
 48
50.0
100
AcDbBlockEnd
  0
BLOCK
  5
18C49
330
18C48
100
AcDbEntity
  8
0
 48
50.0
100
AcDbBlockBegin
  2
*D13
 70
     1
 10
0.0
 20
0.0
 30
0.0
  3
*D13
  1

  0
LINE
  5
18C4A
330
18C48
100
AcDbEntity
  8
寸法
 62
     0
 48
50.0
370
    -2
100
AcDbLine
 10
4183.037591258377
 20
9136.123139034619
 30
0.0
 11
4115.083950562663
 21
8882.516699398941
 31
0.0
  0
LINE
  5
18C4B
330
18C48
100
AcDbEntity
  8
寸法
 62
     0
 48
50.0
370
    -2
100
AcDbLine
 10
5246.037591258307
 20
9136.123139034671
 30
0.0
 11
5178.08395056258
 21
8882.516699398941
 31
0.0
  0
LINE
  5
18C4C
330
18C48
100
AcDbEntity
  8
寸法
 62
     0
 48
50.0
370
    -2
100
AcDbLine
 10
4131.160902108532
 20
8942.516699398941
 30
0.0
 11
5194.160902108448
 21
8942.516699398941
 31
0.0
  0
INSERT
  5
18C4D
330
18C48
100
AcDbEntity
  8
寸法
 62
     0
 48
50.0
370
    -2
100
AcDbBlockReference
  2
_DOTSMALL
 10
4131.160902108532
 20
8942.516699398941
 30
0.0
 41
100.0
 42
100.0
 43
100.0
 50
180.0
  0
INSERT
  5
18C4E
330
18C48
100
AcDbEntity
  8
寸法
 62
     0
 48
50.0
370
    -2
100
AcDbBlockReference
  2
_DOTSMALL
 10
5194.160902108448
 20
8942.516699398941
 30
0.0
 41
100.0
 42
100.0
 43
100.0
  0
MTEXT
  5
18C4F
330
18C48
100
AcDbEntity
  8
寸法
 62
     7
 48
50.0
100
AcDbMText
 10
4658.986452655306
 20
9042.516699398941
 30
0.0
 40
120.0
 41
0.0
 71
     5
 72
     1
  1
\A1;1063
  7
STYLE1
 73
     1
 44
1.0
1001
ACAD
1000
MTEXTBEGIN
1070
    73
1070
     1
1070
    44
1040
1.0
1070
    74
1070
     0
1000
MTEXTEND
  0
POINT
  5
18C50
330
18C48
100
AcDbEntity
  8
DEFPOINTS
 62
     0
 48
50.0
100
AcDbPoint
 10
4188.396575106999
 20
9156.123139034617
 30
0.0
  0
POINT
  5
18C51
330
18C48
100
AcDbEntity
  8
DEFPOINTS
 62
     0
 48
50.0
100
AcDbPoint
 10
5251.396575106929
 20
9156.123139034672
 30
0.0
  0
POINT
  5
18C52
330
18C48
100
AcDbEntity
  8
DEFPOINTS
 62
     0
 48
50.0
100
AcDbPoint
 10
5194.160902108448
 20
8942.516699398941
 30
0.0
  0
ENDBLK
  5
18C53
330
18C48
100
AcDbEntity
  8
0
 48
50.0
100
AcDbBlockEnd
  0
BLOCK
  5
18C55
330
18C54
100
AcDbEntity
  8
0
 48
50.0
100
AcDbBlockBegin
  2
*D14
 70
     1
 10
0.0
 20
0.0
 30
0.0
  3
*D14
  1

  0
LINE
  5
18C56
330
18C54
100
AcDbEntity
  8
寸法
 62
     0
 48
50.0
370
    -2
100
AcDbLine
 10
5274.037591258307
 20
9136.123139034669
 30
0.0
 11
5206.08395056258
 21
8882.516699398941
 31
0.0
  0
LINE
  5
18C57
330
18C54
100
AcDbEntity
  8
寸法
 62
     0
 48
50.0
370
    -2
100
AcDbLine
 10
6505.037591258377
 20
9136.123139034662
 30
0.0
 11
6437.083950562653
 21
8882.516699398941
 31
0.0
  0
LINE
  5
18C58
330
18C54
100
AcDbEntity
  8
寸法
 62
     0
 48
50.0
370
    -2
100
AcDbLine
 10
5222.160902108448
 20
8942.516699398941
 30
0.0
 11
6453.16090210852
 21
8942.516699398941
 31
0.0
  0
INSERT
  5
18C59
330
18C54
100
AcDbEntity
  8
寸法
 62
     0
 48
50.0
370
    -2
100
AcDbBlockReference
  2
_DOTSMALL
 10
5222.160902108448
 20
8942.516699398941
 30
0.0
 41
100.0
 42
100.0
 43
100.0
 50
180.0
  0
INSERT
  5
18C5A
330
18C54
100
AcDbEntity
  8
寸法
 62
     0
 48
50.0
370
    -2
100
AcDbBlockReference
  2
_DOTSMALL
 10
6453.16090210852
 20
8942.516699398941
 30
0.0
 41
100.0
 42
100.0
 43
100.0
  0
MTEXT
  5
18C5B
330
18C54
100
AcDbEntity
  8
寸法
 62
     7
 48
50.0
100
AcDbMText
 10
6081.244808320626
 20
9042.528510422561
 30
0.0
 40
120.0
 41
0.0
 71
     5
 72
     1
  1
\A1;1231
  7
STYLE1
 73
     1
 44
1.0
1001
ACAD
1000
MTEXTBEGIN
1070
    73
1070
     1
1070
    44
1040
1.0
1070
    74
1070
     0
1000
MTEXTEND
  0
POINT
  5
18C5C
330
18C54
100
AcDbEntity
  8
DEFPOINTS
 62
     0
 48
50.0
100
AcDbPoint
 10
5279.396575106929
 20
9156.123139034669
 30
0.0
  0
POINT
  5
18C5D
330
18C54
100
AcDbEntity
  8
DEFPOINTS
 62
     0
 48
50.0
100
AcDbPoint
 10
6510.396575106999
 20
9156.123139034662
 30
0.0
  0
POINT
  5
18C5E
330
18C54
100
AcDbEntity
  8
DEFPOINTS
 62
     0
 48
50.0
100
AcDbPoint
 10
6453.16090210852
 20
8942.516699398941
 30
0.0
  0
ENDBLK
  5
18C5F
330
18C54
100
AcDbEntity
  8
0
 48
50.0
100
AcDbBlockEnd
  0
BLOCK
  5
18C61
330
18C60
100
AcDbEntity
  8
0
 48
50.0
100
AcDbBlockBegin
  2
*D15
 70
     1
 10
0.0
 20
0.0
 30
0.0
  3
*D15
  1

  0
LINE
  5
18C62
330
18C60
100
AcDbEntity
  8
寸法
 62
     0
 48
50.0
370
    -2
100
AcDbLine
 10
5065.896575106966
 20
7749.123139034579
 30
0.0
 11
5065.896575106966
 21
7099.952920982538
 31
0.0
  0
LINE
  5
18C63
330
18C60
100
AcDbEntity
  8
寸法
 62
     0
 48
50.0
370
    -2
100
AcDbLine
 10
6331.896575106966
 20
7749.123139034579
 30
0.0
 11
6331.896575106966
 21
7099.952920982538
 31
0.0
  0
LINE
  5
18C64
330
18C60
100
AcDbEntity
  8
寸法
 62
     0
 48
50.0
370
    -2
100
AcDbLine
 10
5065.896575106966
 20
7159.952920982537
 30
0.0
 11
6331.896575106966
 21
7159.952920982537
 31
0.0
  0
INSERT
  5
18C65
330
18C60
100
AcDbEntity
  8
寸法
 62
     0
 48
50.0
370
    -2
100
AcDbBlockReference
  2
_DOTSMALL
 10
5065.896575106966
 20
7159.952920982537
 30
0.0
 41
100.0
 42
100.0
 43
100.0
 50
180.0
  0
INSERT
  5
18C66
330
18C60
100
AcDbEntity
  8
寸法
 62
     0
 48
50.0
370
    -2
100
AcDbBlockReference
  2
_DOTSMALL
 10
6331.896575106966
 20
7159.952920982537
 30
0.0
 41
100.0
 42
100.0
 43
100.0
  0
MTEXT
  5
18C67
330
18C60
100
AcDbEntity
  8
寸法
 62
     7
 48
50.0
100
AcDbMText
 10
5711.986008735934
 20
7359.964732006159
 30
0.0
 40
120.0
 41
0.0
 71
     5
 72
     1
  1
\A1;有効開口部間口\P1266
  7
STYLE1
 73
     1
 44
1.0
1001
ACAD
1000
MTEXTBEGIN
1070
    73
1070
     1
1070
    44
1040
1.0
1070
    74
1070
     0
1000
MTEXTEND
  0
POINT
  5
18C68
330
18C60
100
AcDbEntity
  8
DEFPOINTS
 62
     0
 48
50.0
100
AcDbPoint
 10
5065.896575106966
 20
7769.123139034579
 30
0.0
  0
POINT
  5
18C69
330
18C60
100
AcDbEntity
  8
DEFPOINTS
 62
     0
 48
50.0
100
AcDbPoint
 10
6331.896575106966
 20
7769.123139034579
 30
0.0
  0
POINT
  5
18C6A
330
18C60
100
AcDbEntity
  8
DEFPOINTS
 62
     0
 48
50.0
100
AcDbPoint
 10
6331.896575106966
 20
7159.952920982537
 30
0.0
  0
ENDBLK
  5
18C6B
330
18C60
100
AcDbEntity
  8
0
 48
50.0
100
AcDbBlockEnd
  0
BLOCK
  5
18C6D
330
18C6C
100
AcDbEntity
  8
0
 48
50.0
100
AcDbBlockBegin
  2
*D16
 70
     1
 10
0.0
 20
0.0
 30
0.0
  3
*D16
  1

  0
LINE
  5
18C6E
330
18C6C
100
AcDbEntity
  8
寸法
 62
     0
 48
50.0
370
    -2
100
AcDbLine
 10
7200.896575106966
 20
7846.123139034578
 30
0.0
 11
7457.192158500191
 21
7846.123139034578
 31
0.0
  0
LINE
  5
18C6F
330
18C6C
100
AcDbEntity
  8
寸法
 62
     0
 48
50.0
370
    -2
100
AcDbLine
 10
7199.896575106966
 20
7769.123139034579
 30
0.0
 11
7457.192158500191
 21
7769.123139034579
 31
0.0
  0
LINE
  5
18C70
330
18C6C
100
AcDbEntity
  8
寸法
 62
     0
 48
50.0
370
    -2
100
AcDbLine
 10
7417.192158500192
 20
7866.123139034579
 30
0.0
 11
7417.192158500192
 21
7886.123139034578
 31
0.0
  0
LINE
  5
18C71
330
18C6C
100
AcDbEntity
  8
寸法
 62
     0
 48
50.0
370
    -2
100
AcDbLine
 10
7417.192158500192
 20
7749.123139034579
 30
0.0
 11
7417.192158500192
 21
7533.123139034573
 31
0.0
  0
LINE
  5
18C72
330
18C6C
100
AcDbEntity
  8
寸法
 62
     0
 48
50.0
370
    -2
100
AcDbLine
 10
7417.192158500192
 20
7846.123139034578
 30
0.0
 11
7417.192158500192
 21
7769.123139034579
 31
0.0
  0
INSERT
  5
18C73
330
18C6C
100
AcDbEntity
  8
寸法
 62
     0
 48
50.0
370
    -2
100
AcDbBlockReference
  2
_DOT
 10
7417.192158500192
 20
7846.123139034578
 30
0.0
 41
20.0
 42
20.0
 43
20.0
 50
270.0
  0
INSERT
  5
18C74
330
18C6C
100
AcDbEntity
  8
寸法
 62
     0
 48
50.0
370
    -2
100
AcDbBlockReference
  2
_DOT
 10
7417.192158500192
 20
7769.123139034579
 30
0.0
 41
20.0
 42
20.0
 43
20.0
 50
90.0
  0
MTEXT
  5
18C75
330
18C6C
100
AcDbEntity
  8
寸法
 62
     7
 48
50.0
100
AcDbMText
 10
7325.192158500191
 20
7631.123139034575
 30
0.0
 40
120.0
 41
0.0
 71
     5
 72
     1
  1
\A1;77
  7
STYLE1
 11
0.0000000000000001
 21
1.0
 31
0.0
 73
     1
 44
1.0
1001
ACAD
1000
MTEXTBEGIN
1070
    73
1070
     1
1070
    44
1040
1.0
1070
    74
1070
     0
1000
MTEXTEND
  0
POINT
  5
18C76
330
18C6C
100
AcDbEntity
  8
DEFPOINTS
 62
     0
 48
50.0
100
AcDbPoint
 10
7180.896575106967
 20
7846.123139034578
 30
0.0
  0
POINT
  5
18C77
330
18C6C
100
AcDbEntity
  8
DEFPOINTS
 62
     0
 48
50.0
100
AcDbPoint
 10
7179.896575106965
 20
7769.123139034579
 30
0.0
  0
POINT
  5
18C78
330
18C6C
100
AcDbEntity
  8
DEFPOINTS
 62
     0
 48
50.0
100
AcDbPoint
 10
7417.192158500192
 20
7769.123139034579
 30
0.0
  0
ENDBLK
  5
18C79
330
18C6C
100
AcDbEntity
  8
0
 48
50.0
100
AcDbBlockEnd
  0
BLOCK
  5
18DA0
330
18C7A
100
AcDbEntity
  8
0
 48
50.0
100
AcDbBlockBegin
  2
A$C3B1A506B
 70
     0
 10
0.0
 20
0.0
 30
0.0
  3
A$C3B1A506B
  1

  0
MTEXT
  5
18C7B
330
18C7A
100
AcDbEntity
  8
寸法
 62
     7
 48
50.0
100
AcDbMText
 10
3342.250386887194
 20
2778.329429134012
 30
0.0
 40
96.0
 41
0.0
 71
     5
 72
     1
  1
棚 2段
  7
STYLE1
 73
     1
 44
1.0
1001
ACAD
1000
MTEXTBEGIN
1070
    73
1070
     1
1070
    44
1040
1.0
1070
    74
1070
     0
1000
MTEXTEND
  0
MTEXT
  5
18C7C
330
18C7A
100
AcDbEntity
  8
寸法
 62
     7
 48
50.0
100
AcDbMText
 10
2167.25038688716
 20
2778.329429133986
 30
0.0
 40
96.0
 41
0.0
 71
     5
 72
     1
  1
棚 2段
  7
STYLE1
 73
     1
 44
1.0
1001
ACAD
1000
MTEXTBEGIN
1070
    73
1070
     1
1070
    44
1040
1.0
1070
    74
1070
     0
1000
MTEXTEND
  0
MTEXT
  5
18C7D
330
18C7A
100
AcDbEntity
  8
寸法
 62
     7
 48
50.0
100
AcDbMText
 10
992.2503868871608
 20
2778.329429133935
 30
0.0
 40
96.0
 41
0.0
 71
     5
 72
     1
  1
棚 2段
  7
STYLE1
 73
     1
 44
1.0
1001
ACAD
1000
MTEXTBEGIN
1070
    73
1070
     1
1070
    44
1040
1.0
1070
    74
1070
     0
1000
MTEXTEND
  0
LINE
  5
18C7E
330
18C7A
100
AcDbEntity
  8
細線
 48
50.0
100
AcDbLine
 10
2771.970589276527
 20
1368.994384123192
 30
0.0
 11
3398.970589276523
 21
1368.994384123192
 31
0.0
  0
LINE
  5
18C7F
330
18C7A
100
AcDbEntity
  8
細線
 48
50.0
100
AcDbLine
 10
2117.970593930113
 20
1335.285615569113
 30
0.0
 11
3398.970589276523
 21
1335.285615569113
 31
0.0
  0
LINE
  5
18C80
330
18C7A
100
AcDbEntity
  8
細線
 48
50.0
100
AcDbLine
 10
2076.970593930115
 20
1364.690523565368
 30
0.0
 11
1322.970589276523
 21
1364.690523565367
 31
0.0
  0
LINE
  5
18C81
330
18C7A
100
AcDbEntity
  8
細線
100
AcDbLine
 10
3170.720579860066
 20
1388.494284088199
 30
0.0
 11
3173.052119381877
 21
1393.494286728162
 31
0.0
  0
LINE
  5
18C82
330
18C7A
100
AcDbEntity
  8
細線
100
AcDbLine
 10
3240.720589276525
 20
1388.494269174465
 30
0.0
 11
3238.389042800336
 21
1393.494286728144
 31
0.0
  0
LINE
  5
18C83
330
18C7A
100
AcDbEntity
  8
細線
100
AcDbLine
 10
3238.389042800336
 20
1393.494286728144
 30
0.0
 11
3173.052119381862
 21
1393.494286728133
 31
0.0
  0
LINE
  5
18C84
330
18C7A
100
AcDbEntity
  8
細線
100
AcDbLine
 10
3098.389042800336
 20
1393.494286728144
 30
0.0
 11
3033.052119381862
 21
1393.494286728133
 31
0.0
  0
LINE
  5
18C85
330
18C7A
100
AcDbEntity
  8
細線
100
AcDbLine
 10
3100.720589276523
 20
1388.494269174465
 30
0.0
 11
3098.389042800336
 21
1393.494286728144
 31
0.0
  0
LINE
  5
18C86
330
18C7A
100
AcDbEntity
  8
細線
100
AcDbLine
 10
3030.720579860066
 20
1388.494284088199
 30
0.0
 11
3033.052119381875
 21
1393.494286728162
 31
0.0
  0
LINE
  5
18C87
330
18C7A
100
AcDbEntity
  8
細線
100
AcDbLine
 10
2890.720589276525
 20
1388.494269174465
 30
0.0
 11
2893.052128798336
 21
1393.494271814428
 31
0.0
  0
LINE
  5
18C88
330
18C7A
100
AcDbEntity
  8
細線
100
AcDbLine
 10
2960.720598692984
 20
1388.494254260731
 30
0.0
 11
2958.389052216793
 21
1393.49427181441
 31
0.0
  0
LINE
  5
18C89
330
18C7A
100
AcDbEntity
  8
細線
100
AcDbLine
 10
2958.389052216795
 20
1393.49427181441
 30
0.0
 11
2893.052128798321
 21
1393.494271814399
 31
0.0
  0
LINE
  5
18C8A
330
18C7A
100
AcDbEntity
  8
細線
100
AcDbLine
 10
2667.139038146739
 20
1359.494298590735
 30
0.0
 11
2601.802114728263
 21
1359.494298590724
 31
0.0
  0
LINE
  5
18C8B
330
18C7A
100
AcDbEntity
  8
細線
100
AcDbLine
 10
2669.470584622926
 20
1354.494281037055
 30
0.0
 11
2667.139038146737
 21
1359.494298590735
 31
0.0
  0
LINE
  5
18C8C
330
18C7A
100
AcDbEntity
  8
細線
100
AcDbLine
 10
2599.470575206469
 20
1354.49429595079
 30
0.0
 11
2601.802114728278
 21
1359.494298590752
 31
0.0
  0
LINE
  5
18C8D
330
18C7A
100
AcDbEntity
  8
細線
 48
50.0
100
AcDbLine
 10
2440.853968524536
 20
1372.765132327548
 30
0.0
 11
2446.609486107205
 21
1354.494281037057
 31
0.0
  0
LINE
  5
18C8E
330
18C7A
100
AcDbEntity
  8
細線
 48
50.0
100
AcDbLine
 10
2429.925520044106
 20
1372.765132327546
 30
0.0
 11
2440.853968524536
 21
1372.765132327548
 31
0.0
  0
ARC
  5
18C8F
330
18C7A
100
AcDbEntity
  8
細線
 48
50.0
100
AcDbCircle
 10
2424.471163986787
 20
1374.265132327546
 30
0.0
 40
5.0
100
AcDbArc
 50
204.6243183520723
 51
335.3756816479278
  0
ARC
  5
18C90
330
18C7A
100
AcDbEntity
  8
細線
 48
50.0
100
AcDbCircle
 10
2429.925520044106
 20
1371.765132327546
 30
0.0
 40
1.0
100
AcDbArc
 50
90.0
 51
155.3756816479277
  0
ARC
  5
18C91
330
18C7A
100
AcDbEntity
  8
細線
 48
50.0
100
AcDbCircle
 10
2419.016807929469
 20
1371.765132327546
 30
0.0
 40
1.0
100
AcDbArc
 50
24.62431835207225
 51
90.0
  0
LINE
  5
18C92
330
18C7A
100
AcDbEntity
  8
細線
 48
50.0
100
AcDbLine
 10
2408.088359449037
 20
1372.765132327548
 30
0.0
 11
2419.016807929469
 21
1372.765132327546
 31
0.0
  0
LINE
  5
18C93
330
18C7A
100
AcDbEntity
  8
細線
 48
50.0
100
AcDbLine
 10
2402.33284186637
 20
1354.494281037054
 30
0.0
 11
2408.088359449037
 21
1372.765132327548
 31
0.0
  0
LINE
  5
18C94
330
18C7A
100
AcDbEntity
  8
細線
100
AcDbLine
 10
2458.070304175992
 20
1354.494278397076
 30
0.0
 11
2460.401843697802
 21
1359.494281037039
 31
0.0
  0
LINE
  5
18C95
330
18C7A
100
AcDbEntity
  8
細線
100
AcDbLine
 10
2528.070313592451
 20
1354.494263483342
 30
0.0
 11
2525.738767116262
 21
1359.494281037021
 31
0.0
  0
LINE
  5
18C96
330
18C7A
100
AcDbEntity
  8
細線
100
AcDbLine
 10
2525.738767116262
 20
1359.494281037021
 30
0.0
 11
2460.40184369779
 21
1359.49428103701
 31
0.0
  0
LINE
  5
18C97
330
18C7A
100
AcDbEntity
  8
細線
100
AcDbLine
 10
2387.139046332155
 20
1359.494281037021
 30
0.0
 11
2321.80212291368
 21
1359.49428103701
 31
0.0
  0
LINE
  5
18C98
330
18C7A
100
AcDbEntity
  8
細線
100
AcDbLine
 10
2389.470592808342
 20
1354.494263483342
 30
0.0
 11
2387.139046332153
 21
1359.494281037021
 31
0.0
  0
LINE
  5
18C99
330
18C7A
100
AcDbEntity
  8
細線
100
AcDbLine
 10
2319.470584622926
 20
1354.494281037054
 30
0.0
 11
2321.802122913694
 21
1359.494281037039
 31
0.0
  0
LINE
  5
18C9A
330
18C7A
100
AcDbEntity
  8
細線
100
AcDbLine
 10
2179.47061994182
 20
1354.494289224422
 30
0.0
 11
2181.802158232587
 21
1359.494289224407
 31
0.0
  0
LINE
  5
18C9B
330
18C7A
100
AcDbEntity
  8
細線
100
AcDbLine
 10
2249.470628127236
 20
1354.49427167071
 30
0.0
 11
2247.139081651047
 21
1359.494289224389
 31
0.0
  0
LINE
  5
18C9C
330
18C7A
100
AcDbEntity
  8
細線
100
AcDbLine
 10
2247.139081651047
 20
1359.494289224389
 30
0.0
 11
2181.802158232573
 21
1359.494289224378
 31
0.0
  0
LINE
  5
18C9D
330
18C7A
100
AcDbEntity
  8
細線
100
AcDbLine
 10
1807.970585744697
 20
1320.494460905133
 30
0.0
 11
1810.302124035464
 21
1325.494460905118
 31
0.0
  0
LINE
  5
18C9E
330
18C7A
100
AcDbEntity
  8
細線
100
AcDbLine
 10
1877.970593930113
 20
1320.494443351421
 30
0.0
 11
1875.639047453926
 21
1325.4944609051
 31
0.0
  0
LINE
  5
18C9F
330
18C7A
100
AcDbEntity
  8
細線
100
AcDbLine
 10
1875.639047453926
 20
1325.4944609051
 30
0.0
 11
1810.302124035452
 21
1325.494460905089
 31
0.0
  0
LINE
  5
18CA0
330
18C7A
100
AcDbEntity
  8
細線
100
AcDbLine
 10
2015.639047453926
 20
1325.4944609051
 30
0.0
 11
1950.302124035452
 21
1325.494460905089
 31
0.0
  0
LINE
  5
18CA1
330
18C7A
100
AcDbEntity
  8
細線
100
AcDbLine
 10
2017.970593930113
 20
1320.494443351421
 30
0.0
 11
2015.639047453924
 21
1325.4944609051
 31
0.0
  0
LINE
  5
18CA2
330
18C7A
100
AcDbEntity
  8
細線
100
AcDbLine
 10
1947.970585744697
 20
1320.494460905133
 30
0.0
 11
1950.302124035465
 21
1325.494460905118
 31
0.0
  0
LINE
  5
18CA3
330
18C7A
100
AcDbEntity
  8
細線
100
AcDbLine
 10
1735.639047453926
 20
1325.494460905098
 30
0.0
 11
1670.302124035454
 21
1325.494460905087
 31
0.0
  0
LINE
  5
18CA4
330
18C7A
100
AcDbEntity
  8
細線
100
AcDbLine
 10
1737.970593930113
 20
1320.494443351419
 30
0.0
 11
1735.639047453926
 21
1325.494460905098
 31
0.0
  0
LINE
  5
18CA5
330
18C7A
100
AcDbEntity
  8
細線
100
AcDbLine
 10
1667.970585744697
 20
1320.494460905131
 30
0.0
 11
1670.302124035465
 21
1325.494460905116
 31
0.0
  0
LINE
  5
18CA6
330
18C7A
100
AcDbEntity
  8
細線
100
AcDbLine
 10
1527.970593930113
 20
1320.494460905133
 30
0.0
 11
1530.302132220881
 21
1325.494460905118
 31
0.0
  0
LINE
  5
18CA7
330
18C7A
100
AcDbEntity
  8
細線
100
AcDbLine
 10
1597.970602115529
 20
1320.494443351421
 30
0.0
 11
1595.639055639342
 21
1325.4944609051
 31
0.0
  0
LINE
  5
18CA8
330
18C7A
100
AcDbEntity
  8
細線
100
AcDbLine
 10
1595.639055639342
 20
1325.4944609051
 30
0.0
 11
1530.302132220869
 21
1325.494460905089
 31
0.0
  0
ARC
  5
18CA9
330
18C7A
100
AcDbEntity
  8
部品1
 48
0.01
100
AcDbCircle
 10
1483.470482677778
 20
1319.493338720063
 30
0.0
 40
0.5
100
AcDbArc
 50
270.0
 51
0.0
  0
LINE
  5
18CAA
330
18C7A
100
AcDbEntity
  8
部品1
 48
0.01
100
AcDbLine
 10
1483.970482677778
 20
1320.493338720063
 30
0.0
 11
1483.970482677778
 21
1319.493338720063
 31
0.0
  0
LINE
  5
18CAB
330
18C7A
100
AcDbEntity
  8
部品1
 48
0.01
100
AcDbLine
 10
1483.970482677778
 20
1320.493338720063
 30
0.0
 11
1483.970482677778
 21
1319.493338720063
 31
0.0
  0
LINE
  5
18CAC
330
18C7A
100
AcDbEntity
  8
部品1
 48
0.01
100
AcDbLine
 10
1483.470482677778
 20
1318.993338720063
 30
0.0
 11
1476.857977247713
 21
1318.993338720062
 31
0.0
  0
ARC
  5
18CAD
330
18C7A
100
AcDbEntity
  8
部品1
100
AcDbCircle
 10
1476.926326800494
 20
1319.993338720062
 30
0.0
 40
1.0
100
AcDbArc
 50
160.5287793655865
 51
270.0
  0
ARC
  5
18CAE
330
18C7A
100
AcDbEntity
  8
部品1
100
AcDbCircle
 10
1451.470482677778
 20
1328.993338720062
 30
0.0
 40
26.0
100
AcDbArc
 50
340.5287793655865
 51
0.0
  0
LINE
  5
18CAF
330
18C7A
100
AcDbEntity
  8
部品1
100
AcDbLine
 10
1477.470482677778
 20
1328.993338720062
 30
0.0
 11
1477.470482677778
 21
1333.993338720061
 31
0.0
  0
ARC
  5
18CB0
330
18C7A
100
AcDbEntity
  8
部品1
 48
0.01
100
AcDbCircle
 10
1475.470482677778
 20
1333.993338720061
 30
0.0
 40
2.0
100
AcDbArc
 50
0.0
 51
90.0
  0
ARC
  5
18CB1
330
18C7A
100
AcDbEntity
  8
部品1
100
AcDbCircle
 10
1473.862091052968
 20
1332.993338720062
 30
0.0
 40
3.0
100
AcDbArc
 50
90.0
 51
141.6069559808035
  0
LINE
  5
18CB2
330
18C7A
100
AcDbEntity
  8
部品1
 48
0.01
100
AcDbLine
 10
1475.470482677778
 20
1335.993338720062
 30
0.0
 11
1473.862091052968
 21
1335.993338720062
 31
0.0
  0
ARC
  5
18CB3
330
18C7A
100
AcDbEntity
  8
部品1
100
AcDbCircle
 10
1455.399768463507
 20
1332.293338720065
 30
0.0
 40
3.0
100
AcDbArc
 50
254.0576313943215
 51
270.0
  0
ARC
  5
18CB4
330
18C7A
100
AcDbEntity
  8
部品1
100
AcDbCircle
 10
1462.541196892049
 20
1332.293338720065
 30
0.0
 40
3.0
100
AcDbArc
 50
270.0
 51
285.9423686056786
  0
LINE
  5
18CB5
330
18C7A
100
AcDbEntity
  8
部品1
100
AcDbLine
 10
1462.541196892049
 20
1329.293338720064
 30
0.0
 11
1455.399768463507
 21
1329.293338720064
 31
0.0
  0
ARC
  5
18CB6
330
18C7A
100
AcDbEntity
  8
部品1
100
AcDbCircle
 10
1458.970482677778
 20
1344.793338720065
 30
0.0
 40
16.0
100
AcDbArc
 50
285.9423686056786
 51
321.6069559808035
  0
LINE
  5
18CB7
330
18C7A
100
AcDbEntity
  8
部品1
 48
0.01
100
AcDbLine
 10
1442.470482677778
 20
1335.993338720062
 30
0.0
 11
1444.078874302588
 21
1335.993338720062
 31
0.0
  0
ARC
  5
18CB8
330
18C7A
100
AcDbEntity
  8
部品1
100
AcDbCircle
 10
1444.078874302588
 20
1332.993338720062
 30
0.0
 40
3.0
100
AcDbArc
 50
38.39304401919648
 51
90.0
  0
ARC
  5
18CB9
330
18C7A
100
AcDbEntity
  8
部品1
100
AcDbCircle
 10
1458.970482677778
 20
1344.793338720065
 30
0.0
 40
16.0
100
AcDbArc
 50
218.3930440191965
 51
254.0576313943215
  0
LINE
  5
18CBA
330
18C7A
100
AcDbEntity
  8
部品1
100
AcDbLine
 10
1440.470482677778
 20
1328.993338720062
 30
0.0
 11
1440.470482677778
 21
1333.993338720061
 31
0.0
  0
ARC
  5
18CBB
330
18C7A
100
AcDbEntity
  8
部品1
 48
0.01
100
AcDbCircle
 10
1442.470482677778
 20
1333.993338720061
 30
0.0
 40
2.0
100
AcDbArc
 50
90.0
 51
180.0
  0
ARC
  5
18CBC
330
18C7A
100
AcDbEntity
  8
部品1
100
AcDbCircle
 10
1466.470482677778
 20
1328.993338720062
 30
0.0
 40
26.0
100
AcDbArc
 50
180.0
 51
199.4712206344134
  0
ARC
  5
18CBD
330
18C7A
100
AcDbEntity
  8
部品1
 48
0.01
100
AcDbCircle
 10
1434.470482677778
 20
1319.493338720063
 30
0.0
 40
0.5
100
AcDbArc
 50
180.0
 51
270.0
  0
LINE
  5
18CBE
330
18C7A
100
AcDbEntity
  8
部品1
 48
0.01
100
AcDbLine
 10
1434.470482677778
 20
1318.993338720063
 30
0.0
 11
1441.014638555061
 21
1318.993338720062
 31
0.0
  0
LINE
  5
18CBF
330
18C7A
100
AcDbEntity
  8
部品1
 48
0.01
100
AcDbLine
 10
1433.970482677778
 20
1320.493338720063
 30
0.0
 11
1433.970482677778
 21
1319.493338720063
 31
0.0
  0
ARC
  5
18CC0
330
18C7A
100
AcDbEntity
  8
部品1
100
AcDbCircle
 10
1441.014638555061
 20
1319.993338720062
 30
0.0
 40
1.0
100
AcDbArc
 50
270.0
 51
19.47122063441346
  0
LINE
  5
18CC1
330
18C7A
100
AcDbEntity
  8
細線
100
AcDbLine
 10
1479.470482677785
 20
1338.493338720065
 30
0.0
 11
1438.470482677785
 21
1338.493338720058
 31
0.0
  0
LINE
  5
18CC2
330
18C7A
100
AcDbEntity
  8
細線
100
AcDbLine
 10
1438.470482677785
 20
1338.493338720058
 30
0.0
 11
1438.470482677785
 21
1320.49333872004
 31
0.0
  0
LINE
  5
18CC3
330
18C7A
100
AcDbEntity
  8
細線
100
AcDbLine
 10
1479.470482677785
 20
1338.493338720065
 30
0.0
 11
1479.470482677785
 21
1320.49333872004
 31
0.0
  0
LINE
  5
18CC4
330
18C7A
100
AcDbEntity
  8
細線
100
AcDbLine
 10
1322.970589276523
 20
1324.494269174465
 30
0.0
 11
1322.970589276523
 21
1320.494269174513
 31
0.0
  0
LINE
  5
18CC5
330
18C7A
100
AcDbEntity
  8
寸法
 48
50.0
100
AcDbLine
 10
1746.17359555837
 20
1170.531020743327
 30
0.0
 11
1694.767587648266
 21
1170.531020743327
 31
0.0
  0
LINE
  5
18CC6
330
18C7A
100
AcDbEntity
  8
寸法
 48
50.0
100
AcDbLine
 10
1694.767587648266
 20
1170.531020743327
 30
0.0
 11
1694.767587648266
 21
1201.841179395494
 31
0.0
  0
LINE
  5
18CC7
330
18C7A
100
AcDbEntity
  8
寸法
 48
50.0
100
AcDbLine
 10
1694.767587648266
 20
1201.841179395494
 30
0.0
 11
1665.006255656843
 21
1201.841179395494
 31
0.0
  0
LINE
  5
18CC8
330
18C7A
100
AcDbEntity
  8
寸法
 48
50.0
100
AcDbLine
 10
1665.006255656843
 20
1201.841179395494
 30
0.0
 11
1720.470591603318
 21
1239.420630324105
 31
0.0
  0
LINE
  5
18CC9
330
18C7A
100
AcDbEntity
  8
寸法
 48
50.0
100
AcDbLine
 10
1775.934927549793
 20
1201.841179395494
 30
0.0
 11
1720.470591603318
 21
1239.420630324105
 31
0.0
  0
LINE
  5
18CCA
330
18C7A
100
AcDbEntity
  8
寸法
 48
50.0
100
AcDbLine
 10
1746.17359555837
 20
1201.841179395494
 30
0.0
 11
1775.934927549793
 21
1201.841179395494
 31
0.0
  0
LINE
  5
18CCB
330
18C7A
100
AcDbEntity
  8
寸法
 48
50.0
100
AcDbLine
 10
1746.17359555837
 20
1170.531020743327
 30
0.0
 11
1746.17359555837
 21
1201.841179395494
 31
0.0
  0
LINE
  5
18CCC
330
18C7A
100
AcDbEntity
  8
寸法
 48
50.0
100
AcDbLine
 10
1694.767587648266
 20
1170.531020743327
 30
0.0
 11
1746.17359555837
 21
1170.531020743327
 31
0.0
  0
LINE
  5
18CCD
330
18C7A
100
AcDbEntity
  8
寸法
 48
50.0
100
AcDbLine
 10
2025.339129835225
 20
1227.676611498152
 30
0.0
 11
2025.339129835225
 21
1174.01297691636
 31
0.0
  0
LINE
  5
18CCE
330
18C7A
100
AcDbEntity
  8
寸法
 48
50.0
100
AcDbLine
 10
2114.623348430647
 20
1203.752977228664
 30
0.0
 11
2025.339129835225
 21
1227.676611498152
 31
0.0
  0
LINE
  5
18CCF
330
18C7A
100
AcDbEntity
  8
寸法
 48
50.0
100
AcDbLine
 10
1895.471408254923
 20
1203.752977228664
 30
0.0
 11
2114.623348430647
 21
1203.752977228664
 31
0.0
  0
DIMENSION
  5
18CD0
330
18C7A
100
AcDbEntity
  8
寸法
 48
50.0
100
AcDbDimension
  2
*D15
 10
2588.970589276523
 20
706.3240511224249
 30
0.0
 11
1969.060022905491
 21
706.3240511224249
 31
0.0
 12
-3742.925985830444
 22
-6453.628869860112
 32
0.0
 70
   128
  1
有効開口部間口\P<>
 71
     5
 42
1266.0
  3
INABA_S40G
100
AcDbAlignedDimension
 13
1322.970589276523
 23
1315.494269174465
 33
0.0
 14
2588.970589276523
 24
1315.494269174465
 34
0.0
100
AcDbRotatedDimension
1001
ACAD
1000
DSTYLE
1002
{
1070
   341
1005
0
1002
}
  0
LINE
  5
18CD1
330
18C7A
100
AcDbEntity
  8
部品1
100
AcDbLine
 10
3409.970589276524
 20
1392.494269174465
 30
0.0
 11
3437.970589276523
 21
1392.494269174465
 31
0.0
  0
DIMENSION
  5
18CD2
330
18C7A
100
AcDbEntity
  8
寸法
100
AcDbDimension
  2
*D16
 10
3674.266172669749
 20
1315.494269174465
 30
0.0
 11
3674.266172669748
 21
1177.494269174462
 31
0.0
 12
-3742.925985830444
 22
-6453.628869860112
 32
0.0
 70
   128
 71
     5
 42
77.0
  3
INABA_S40
100
AcDbAlignedDimension
 13
3437.970589276523
 23
1392.494269174465
 33
0.0
 14
3436.970589276523
 24
1315.494269174465
 34
0.0
 50
90.0
100
AcDbRotatedDimension
1001
ACAD
1000
DSTYLE
1002
{
1070
    41
1040
0.5
1070
    44
1040
1.0
1070
   147
1040
0.8
1070
   271
1070
     2
1070
   272
1070
     2
1070
   289
1070
     3
1070
   340
1005
F706
1070
   343
1005
164B4
1070
   344
1005
164B4
1002
}
  0
LINE
  5
18CD3
330
18C7A
100
AcDbEntity
  8
部品1
100
AcDbLine
 10
3437.970589276523
 20
1315.494269174465
 30
0.0
 11
3437.970589276523
 21
1392.494269174465
 31
0.0
  0
LINE
  5
18CD4
330
18C7A
100
AcDbEntity
  8
部品1
100
AcDbLine
 10
3398.970589276523
 20
1388.494269174465
 30
0.0
 11
3409.970589276524
 21
1388.494269174465
 31
0.0
  0
LINE
  5
18CD5
330
18C7A
100
AcDbEntity
  8
部品1
100
AcDbLine
 10
3407.970589276523
 20
1324.494269174465
 30
0.0
 11
3407.970589276523
 21
1315.494269174465
 31
0.0
  0
LINE
  5
18CD6
330
18C7A
100
AcDbEntity
  8
部品1
100
AcDbLine
 10
3398.970589276523
 20
1324.494269174465
 30
0.0
 11
3407.970589276523
 21
1324.494269174465
 31
0.0
  0
LINE
  5
18CD7
330
18C7A
100
AcDbEntity
  8
部品1
100
AcDbLine
 10
3398.970589276523
 20
1388.494269174465
 30
0.0
 11
3398.970589276523
 21
1324.494269174465
 31
0.0
  0
LINE
  5
18CD8
330
18C7A
100
AcDbEntity
  8
部品1
100
AcDbLine
 10
3409.970589276524
 20
1419.494269174465
 30
0.0
 11
3409.970589276524
 21
1388.494269174465
 31
0.0
  0
LINE
  5
18CD9
330
18C7A
100
AcDbEntity
  8
部品1
100
AcDbLine
 10
1322.970589276523
 20
1388.494269174465
 30
0.0
 11
1311.970589276523
 21
1388.494269174465
 31
0.0
  0
LINE
  5
18CDA
330
18C7A
100
AcDbEntity
  8
部品1
100
AcDbLine
 10
1283.970589276523
 20
1392.494269174465
 30
0.0
 11
1311.970589276523
 21
1392.494269174465
 31
0.0
  0
LINE
  5
18CDB
330
18C7A
100
AcDbEntity
  8
部品1
100
AcDbLine
 10
1313.970589276523
 20
1324.494269174465
 30
0.0
 11
1313.970589276523
 21
1315.494269174465
 31
0.0
  0
LINE
  5
18CDC
330
18C7A
100
AcDbEntity
  8
部品1
100
AcDbLine
 10
1322.970589276523
 20
1324.494269174465
 30
0.0
 11
1313.970589276523
 21
1324.494269174465
 31
0.0
  0
LINE
  5
18CDD
330
18C7A
100
AcDbEntity
  8
部品1
100
AcDbLine
 10
1313.970589276523
 20
1315.494269174465
 30
0.0
 11
1283.970589276523
 21
1315.494269174465
 31
0.0
  0
LINE
  5
18CDE
330
18C7A
100
AcDbEntity
  8
部品1
100
AcDbLine
 10
1283.970589276523
 20
1315.494269174465
 30
0.0
 11
1283.970589276523
 21
1392.494269174465
 31
0.0
  0
LINE
  5
18CDF
330
18C7A
100
AcDbEntity
  8
部品1
100
AcDbLine
 10
1322.970589276523
 20
1388.494269174465
 30
0.0
 11
1322.970589276523
 21
1324.494269174465
 31
0.0
  0
LINE
  5
18CE0
330
18C7A
100
AcDbEntity
  8
部品1
100
AcDbLine
 10
1311.970589276523
 20
1419.494269174462
 30
0.0
 11
1311.970589276523
 21
1388.494269174465
 31
0.0
  0
LINE
  5
18CE1
330
18C7A
100
AcDbEntity
  8
部品1
100
AcDbLine
 10
1311.970589276523
 20
1419.494269174462
 30
0.0
 11
3409.970589276524
 21
1419.494269174465
 31
0.0
  0
LINE
  5
18CE2
330
18C7A
100
AcDbEntity
  8
部品1
100
AcDbLine
 10
3407.970589276523
 20
1315.494269174465
 30
0.0
 11
3437.970589276523
 21
1315.494269174465
 31
0.0
  0
LINE
  5
18CE3
330
18C7A
100
AcDbEntity
  8
部品1
100
AcDbLine
 10
1313.970589276523
 20
1315.494269174465
 30
0.0
 11
3410.970589276523
 21
1315.494269174465
 31
0.0
  0
LINE
  5
18CE4
330
18C7A
100
AcDbEntity
  8
細線
  6
Continuous
 62
     5
100
AcDbLine
 10
2689.970589276527
 20
1354.494269174462
 30
0.0
 11
2689.970589276527
 21
1354.494269174462
 31
0.0
  0
LINE
  5
18CE5
330
18C7A
100
AcDbEntity
  8
細線
  6
Continuous
 62
     5
100
AcDbLine
 10
2682.470589276527
 20
1354.494269174462
 30
0.0
 11
2682.470589276527
 21
1354.494269174462
 31
0.0
  0
LINE
  5
18CE6
330
18C7A
100
AcDbEntity
  8
細線
  6
Continuous
 62
     5
100
AcDbLine
 10
2676.470589276527
 20
1354.494269174462
 30
0.0
 11
2676.470589276527
 21
1354.494269174462
 31
0.0
  0
LINE
  5
18CE7
330
18C7A
100
AcDbEntity
  8
細線
  6
Continuous
 62
     5
100
AcDbLine
 10
2743.970589276527
 20
1373.494269174462
 30
0.0
 11
2743.970589276527
 21
1373.494269174462
 31
0.0
  0
LINE
  5
18CE8
330
18C7A
100
AcDbEntity
  8
細線
 48
50.0
100
AcDbLine
 10
1336.970593930116
 20
1341.094443351418
 30
0.0
 11
1336.970593930113
 21
1349.490593759059
 31
0.0
  0
LINE
  5
18CE9
330
18C7A
100
AcDbEntity
  8
細線
 48
50.0
100
AcDbLine
 10
1336.970593930113
 20
1349.490593759059
 30
0.0
 11
1322.970589276523
 21
1349.490593759057
 31
0.0
  0
LINE
  5
18CEA
330
18C7A
100
AcDbEntity
  8
細線
 48
50.0
100
AcDbLine
 10
2087.970593930113
 20
1337.644443351419
 30
0.0
 11
2087.970593930113
 21
1342.494443351421
 31
0.0
  0
LINE
  5
18CEB
330
18C7A
100
AcDbEntity
  8
細線
 48
50.0
100
AcDbLine
 10
2087.970593930113
 20
1342.494443351421
 30
0.0
 11
2102.970593930113
 21
1342.494443351421
 31
0.0
  0
LINE
  5
18CEC
330
18C7A
100
AcDbEntity
  8
細線
 48
50.0
100
AcDbLine
 10
2102.970593930113
 20
1342.494443351421
 30
0.0
 11
2102.970593930115
 21
1349.494443351419
 31
0.0
  0
LINE
  5
18CED
330
18C7A
100
AcDbEntity
  8
細線
 48
50.0
100
AcDbLine
 10
2102.970593930115
 20
1349.494443351419
 30
0.0
 11
2117.970593930113
 21
1349.494443351419
 31
0.0
  0
LINE
  5
18CEE
330
18C7A
100
AcDbEntity
  8
細線
 48
50.0
100
AcDbLine
 10
2117.970593930113
 20
1349.494443351419
 30
0.0
 11
2117.970593930113
 21
1320.494443351421
 31
0.0
  0
LINE
  5
18CEF
330
18C7A
100
AcDbEntity
  8
細線
 48
50.0
100
AcDbLine
 10
1313.970589276523
 20
1320.491777694889
 30
0.0
 11
1527.970593930113
 21
1320.494460905133
 31
0.0
  0
LINE
  5
18CF0
330
18C7A
100
AcDbEntity
  8
細線
 48
50.0
100
AcDbLine
 10
2017.970593930113
 20
1320.494443351421
 30
0.0
 11
2117.970593930113
 21
1320.494443351421
 31
0.0
  0
LINE
  5
18CF1
330
18C7A
100
AcDbEntity
  8
細線
 48
50.0
100
AcDbLine
 10
1737.970593930113
 20
1320.494443351419
 30
0.0
 11
1807.970593930113
 21
1320.494443351423
 31
0.0
  0
LINE
  5
18CF2
330
18C7A
100
AcDbEntity
  8
細線
 48
50.0
100
AcDbLine
 10
1750.832558942642
 20
1320.494443351419
 30
0.0
 11
1756.588076525309
 21
1338.765294641913
 31
0.0
  0
LINE
  5
18CF3
330
18C7A
100
AcDbEntity
  8
細線
 48
50.0
100
AcDbLine
 10
1756.588076525309
 20
1338.765294641913
 30
0.0
 11
1767.516525005743
 21
1338.765294641911
 31
0.0
  0
ARC
  5
18CF4
330
18C7A
100
AcDbEntity
  8
細線
 48
50.0
100
AcDbCircle
 10
1767.516525005743
 20
1337.765294641911
 30
0.0
 40
1.0
100
AcDbArc
 50
24.62431835207225
 51
90.0
  0
ARC
  5
18CF5
330
18C7A
100
AcDbEntity
  8
細線
 48
50.0
100
AcDbCircle
 10
1778.425237120377
 20
1337.765294641911
 30
0.0
 40
1.0
100
AcDbArc
 50
90.0
 51
155.3756816479277
  0
ARC
  5
18CF6
330
18C7A
100
AcDbEntity
  8
細線
 48
50.0
100
AcDbCircle
 10
1772.970881063058
 20
1340.265294641911
 30
0.0
 40
5.0
100
AcDbArc
 50
204.6243183520723
 51
335.3756816479278
  0
LINE
  5
18CF7
330
18C7A
100
AcDbEntity
  8
細線
 48
50.0
100
AcDbLine
 10
1778.425237120377
 20
1338.765294641911
 30
0.0
 11
1789.35368560081
 21
1338.765294641913
 31
0.0
  0
LINE
  5
18CF8
330
18C7A
100
AcDbEntity
  8
細線
 48
50.0
100
AcDbLine
 10
1789.35368560081
 20
1338.765294641913
 30
0.0
 11
1795.109203183478
 21
1320.494443351423
 31
0.0
  0
LINE
  5
18CF9
330
18C7A
100
AcDbEntity
  8
細線
 48
50.0
100
AcDbLine
 10
2087.970593930113
 20
1341.094443351419
 30
0.0
 11
1336.970593930116
 21
1341.094443351418
 31
0.0
  0
LINE
  5
18CFA
330
18C7A
100
AcDbEntity
  8
細線
 48
50.0
100
AcDbLine
 10
1947.970593930113
 20
1320.494443351421
 30
0.0
 11
1877.970593930113
 21
1320.494443351421
 31
0.0
  0
LINE
  5
18CFB
330
18C7A
100
AcDbEntity
  8
細線
100
AcDbLine
 10
1667.970593930113
 20
1320.494443351421
 30
0.0
 11
1597.970602115529
 21
1320.494443351421
 31
0.0
  0
LINE
  5
18CFC
330
18C7A
100
AcDbEntity
  8
細線
 48
50.0
100
AcDbLine
 10
2741.970584622936
 20
1375.094487209288
 30
0.0
 11
2106.970593930113
 21
1375.094487209284
 31
0.0
  0
LINE
  5
18CFD
330
18C7A
100
AcDbEntity
  8
細線
 48
50.0
100
AcDbLine
 10
2106.970593930113
 20
1371.990637616925
 30
0.0
 11
2106.970593930113
 21
1376.490637616925
 31
0.0
  0
LINE
  5
18CFE
330
18C7A
100
AcDbEntity
  8
細線
 48
50.0
100
AcDbLine
 10
2106.970593930113
 20
1376.490637616925
 30
0.0
 11
2091.970593930113
 21
1376.490637616925
 31
0.0
  0
LINE
  5
18CFF
330
18C7A
100
AcDbEntity
  8
細線
 48
50.0
100
AcDbLine
 10
2091.970593930113
 20
1376.490637616925
 30
0.0
 11
2091.970593930113
 21
1383.490637616927
 31
0.0
  0
LINE
  5
18D00
330
18C7A
100
AcDbEntity
  8
細線
 48
50.0
100
AcDbLine
 10
2091.970593930113
 20
1383.490637616927
 30
0.0
 11
2076.970593930115
 21
1383.490637616924
 31
0.0
  0
LINE
  5
18D01
330
18C7A
100
AcDbEntity
  8
細線
 48
50.0
100
AcDbLine
 10
2076.970593930115
 20
1383.490637616924
 30
0.0
 11
2076.970593930115
 21
1345.890409513813
 31
0.0
  0
LINE
  5
18D02
330
18C7A
100
AcDbEntity
  8
細線
 48
50.0
100
AcDbLine
 10
2076.970593930115
 20
1345.890409513813
 30
0.0
 11
2096.970601231289
 21
1345.890451063353
 31
0.0
  0
LINE
  5
18D03
330
18C7A
100
AcDbEntity
  8
細線
 48
50.0
100
AcDbLine
 10
2096.970556362348
 20
1354.493912699161
 30
0.0
 11
2096.970601231289
 21
1345.890451063353
 31
0.0
  0
LINE
  5
18D04
330
18C7A
100
AcDbEntity
  8
細線
 48
50.0
100
AcDbLine
 10
2741.970584622936
 20
1371.644487209287
 30
0.0
 11
2741.970584622936
 21
1376.494487209284
 31
0.0
  0
LINE
  5
18D05
330
18C7A
100
AcDbEntity
  8
細線
 48
50.0
100
AcDbLine
 10
2741.970584622936
 20
1376.494487209284
 30
0.0
 11
2756.970584622934
 21
1376.494487209285
 31
0.0
  0
LINE
  5
18D06
330
18C7A
100
AcDbEntity
  8
細線
 48
50.0
100
AcDbLine
 10
2756.970584622934
 20
1376.494487209285
 30
0.0
 11
2756.970596256909
 21
1383.494487209331
 31
0.0
  0
LINE
  5
18D07
330
18C7A
100
AcDbEntity
  8
細線
 48
50.0
100
AcDbLine
 10
2756.970596256909
 20
1383.494487209331
 30
0.0
 11
2771.970594427439
 21
1383.494487209329
 31
0.0
  0
LINE
  5
18D08
330
18C7A
100
AcDbEntity
  8
細線
 48
50.0
100
AcDbLine
 10
2771.970594427439
 20
1383.494487209329
 30
0.0
 11
2771.970584125617
 21
1354.494281037055
 31
0.0
  0
LINE
  5
18D09
330
18C7A
100
AcDbEntity
  8
細線
 48
50.0
100
AcDbLine
 10
2458.070304175992
 20
1354.494278397076
 30
0.0
 11
2389.470863838818
 21
1354.494283787084
 31
0.0
  0
LINE
  5
18D0A
330
18C7A
100
AcDbEntity
  8
細線
 48
50.0
100
AcDbLine
 10
2096.970556362348
 20
1354.493912699161
 30
0.0
 11
2108.203245717057
 21
1354.494095652309
 31
0.0
  0
ARC
  5
18D0B
330
18C7A
100
AcDbEntity
  8
細線
 48
50.0
100
AcDbCircle
 10
2114.785538024393
 20
1353.294259565922
 30
0.0
 40
1.8
100
AcDbArc
 50
270.0006665777295
 51
345.000555481349
  0
LINE
  5
18D0C
330
18C7A
100
AcDbEntity
  8
細線
 48
50.0
100
AcDbLine
 10
2116.771971470473
 20
1353.753100023201
 30
0.0
 11
2116.524209028273
 21
1352.828402141094
 31
0.0
  0
LINE
  5
18D0D
330
18C7A
100
AcDbEntity
  8
細線
 48
50.0
100
AcDbLine
 10
2114.785558965548
 20
1351.494259566043
 30
0.0
 11
2111.155631546781
 21
1351.494217335563
 31
0.0
  0
ARC
  5
18D0E
330
18C7A
100
AcDbEntity
  8
細線
 48
50.0
100
AcDbCircle
 10
2111.155610605627
 20
1353.29421733544
 30
0.0
 40
1.8
100
AcDbArc
 50
195.0010443049965
 51
270.0006665777295
  0
LINE
  5
18D0F
330
18C7A
100
AcDbEntity
  8
細線
 48
50.0
100
AcDbLine
 10
2109.169183113368
 20
1353.752932303007
 30
0.0
 11
2109.416952609882
 21
1352.828311364425
 31
0.0
  0
ARC
  5
18D10
330
18C7A
100
AcDbEntity
  8
細線
 48
50.0
100
AcDbCircle
 10
2108.203262004622
 20
1353.494095652444
 30
0.0
 40
1.0
100
AcDbArc
 50
15.00104430499651
 51
90.00093320877969
  0
LINE
  5
18D11
330
18C7A
100
AcDbEntity
  8
細線
 48
50.0
100
AcDbLine
 10
2117.737892825577
 20
1354.494290342714
 30
0.0
 11
2118.679652976481
 21
1354.494296916564
 31
0.0
  0
ARC
  5
18D12
330
18C7A
100
AcDbEntity
  8
細線
 48
50.0
100
AcDbCircle
 10
2117.737899805961
 20
1353.49429034274
 30
0.0
 40
1.0
100
AcDbArc
 50
90.0003999466794
 51
165.000555481349
  0
LINE
  5
18D13
330
18C7A
100
AcDbEntity
  8
細線
 48
50.0
100
AcDbLine
 10
2669.470584622926
 20
1354.494281037055
 30
0.0
 11
2771.970584125617
 21
1354.494281037055
 31
0.0
  0
LINE
  5
18D14
330
18C7A
100
AcDbEntity
  8
細線
 48
50.0
100
AcDbLine
 10
2179.47061994182
 20
1354.494289224422
 30
0.0
 11
2118.370558714898
 21
1354.494296916564
 31
0.0
  0
LINE
  5
18D15
330
18C7A
100
AcDbEntity
  8
細線
 48
50.0
100
AcDbLine
 10
2599.470584622926
 20
1354.494281037057
 30
0.0
 11
2529.470584622926
 21
1354.494281037055
 31
0.0
  0
LINE
  5
18D16
330
18C7A
100
AcDbEntity
  8
細線
 48
50.0
100
AcDbLine
 10
2319.470584622926
 20
1354.494281037054
 30
0.0
 11
2249.470567335051
 21
1354.494281037057
 31
0.0
  0
ARC
  5
18D17
330
18C7A
100
AcDbEntity
  8
細線
 48
50.0
100
AcDbCircle
 10
2756.170589276533
 20
1387.694269174466
 30
0.0
 40
0.8
100
AcDbArc
 50
359.9997333689499
 51
89.99986668437072
  0
ARC
  5
18D18
330
18C7A
100
AcDbEntity
  8
細線
 48
50.0
100
AcDbCircle
 10
2763.770596101631
 20
1387.694280343081
 30
0.0
 40
0.8
100
AcDbArc
 50
90.00014387753465
 51
179.9997333689498
  0
LINE
  5
18D19
330
18C7A
100
AcDbEntity
  8
細線
 48
50.0
100
AcDbLine
 10
2756.170591137969
 20
1388.494269174465
 30
0.0
 11
2750.970589276525
 21
1388.494269174465
 31
0.0
  0
ARC
  5
18D1A
330
18C7A
100
AcDbEntity
  8
細線
 48
50.0
100
AcDbCircle
 10
2757.670589276524
 20
1386.194269174464
 30
0.0
 40
0.7
100
AcDbArc
 50
180.0
 51
270.0
  0
ARC
  5
18D1B
330
18C7A
100
AcDbEntity
  8
細線
 48
50.0
100
AcDbCircle
 10
2762.270589276524
 20
1386.194269174464
 30
0.0
 40
0.7
100
AcDbArc
 50
270.0
 51
0.0
  0
LINE
  5
18D1C
330
18C7A
100
AcDbEntity
  8
細線
 48
50.0
100
AcDbLine
 10
2762.970589276525
 20
1386.194269174464
 30
0.0
 11
2762.970596101639
 21
1387.694284065954
 31
0.0
  0
LINE
  5
18D1D
330
18C7A
100
AcDbEntity
  8
細線
 48
50.0
100
AcDbLine
 10
2757.670589276524
 20
1385.494269174465
 30
0.0
 11
2762.270589276524
 21
1385.494269174465
 31
0.0
  0
LINE
  5
18D1E
330
18C7A
100
AcDbEntity
  8
細線
 48
50.0
100
AcDbLine
 10
2756.970589276525
 20
1387.694269174466
 30
0.0
 11
2756.970589276525
 21
1386.194269174464
 31
0.0
  0
LINE
  5
18D1F
330
18C7A
100
AcDbEntity
  8
細線
 48
50.0
100
AcDbLine
 10
3382.570589276527
 20
1418.494269174465
 30
0.0
 11
2745.970589276525
 21
1418.494269174463
 31
0.0
  0
LINE
  5
18D20
330
18C7A
100
AcDbEntity
  8
細線
 48
50.0
100
AcDbLine
 10
3408.470589276525
 20
1413.494269174467
 30
0.0
 11
3392.570589276527
 21
1413.494269174465
 31
0.0
  0
LINE
  5
18D21
330
18C7A
100
AcDbEntity
  8
細線
 48
50.0
100
AcDbLine
 10
3392.570589276526
 20
1413.494269174465
 30
0.0
 11
3382.570589276527
 21
1418.494269174465
 31
0.0
  0
LINE
  5
18D22
330
18C7A
100
AcDbEntity
  8
細線
100
AcDbLine
 10
2993.470589276525
 20
1388.494269174465
 30
0.0
 11
2993.470589276525
 21
1417.794269174464
 31
0.0
  0
LINE
  5
18D23
330
18C7A
100
AcDbEntity
  8
細線
100
AcDbLine
 10
2993.470589276525
 20
1417.794269174464
 30
0.0
 11
3013.470589276525
 21
1417.794269174464
 31
0.0
  0
LINE
  5
18D24
330
18C7A
100
AcDbEntity
  8
細線
100
AcDbLine
 10
3013.470589276525
 20
1388.494269174465
 30
0.0
 11
3013.470589276525
 21
1417.794269174464
 31
0.0
  0
LINE
  5
18D25
330
18C7A
100
AcDbEntity
  8
細線
100
AcDbLine
 10
3170.720589276524
 20
1388.494269174465
 30
0.0
 11
3100.720589276523
 21
1388.494269174465
 31
0.0
  0
LINE
  5
18D26
330
18C7A
100
AcDbEntity
  8
細線
 48
50.0
100
AcDbLine
 10
2890.720589276525
 20
1388.494269174465
 30
0.0
 11
2763.766368849365
 21
1388.494269174465
 31
0.0
  0
LINE
  5
18D27
330
18C7A
100
AcDbEntity
  8
細線
100
AcDbLine
 10
3030.720589276525
 20
1388.494269174465
 30
0.0
 11
2960.720589276525
 21
1388.494269174465
 31
0.0
  0
LINE
  5
18D28
330
18C7A
100
AcDbEntity
  8
細線
 48
50.0
100
AcDbLine
 10
2750.970589276525
 20
1380.494269174465
 30
0.0
 11
2750.970589276525
 21
1388.494269174465
 31
0.0
  0
LINE
  5
18D29
330
18C7A
100
AcDbEntity
  8
細線
 48
50.0
100
AcDbLine
 10
2730.970589276524
 20
1380.494269174467
 30
0.0
 11
2750.970589276525
 21
1380.494269174465
 31
0.0
  0
LINE
  5
18D2A
330
18C7A
100
AcDbEntity
  8
細線
 48
50.0
100
AcDbLine
 10
2745.970589276525
 20
1418.494269174465
 30
0.0
 11
2745.970589276525
 21
1413.494269174465
 31
0.0
  0
LINE
  5
18D2B
330
18C7A
100
AcDbEntity
  8
細線
 48
50.0
100
AcDbLine
 10
2730.970589276525
 20
1418.494269174463
 30
0.0
 11
2745.970589276525
 21
1418.494269174465
 31
0.0
  0
LINE
  5
18D2C
330
18C7A
100
AcDbEntity
  8
細線
 48
50.0
100
AcDbLine
 10
2730.970589276524
 20
1380.494269174467
 30
0.0
 11
2730.970589276525
 21
1418.494269174463
 31
0.0
  0
LINE
  5
18D2D
330
18C7A
100
AcDbEntity
  8
細線
100
AcDbLine
 10
3398.970589276523
 20
1388.494269174465
 30
0.0
 11
3240.720589276525
 21
1388.494269174465
 31
0.0
  0
LINE
  5
18D2E
330
18C7A
100
AcDbEntity
  8
細線
 48
50.0
100
AcDbLine
 10
3408.470589276525
 20
1413.494269174467
 30
0.0
 11
3408.470589276524
 21
1388.494269174465
 31
0.0
  0
TEXT
  5
18D2F
330
18C7A
100
AcDbEntity
  8
部品1
100
AcDbText
 10
1860.154865991392
 20
46.99880823813145
 30
0.0
 40
135.0
  1
平面図
  7
STYLE2
100
AcDbText
  0
LWPOLYLINE
  5
18D30
330
18C7A
100
AcDbEntity
  8
部品1
100
AcDbPolyline
 90
        4
 70
     1
 43
0.0
 10
1770.23525616235
 20
239.8923374566548
 10
1770.23525616235
 20
0.0000159111223184
 10
2533.705922390791
 20
0.0000159111223184
 10
2533.705922390791
 20
239.8923374566548
  0
LINE
  5
18D31
330
18C7A
100
AcDbEntity
  8
部品1
100
AcDbLine
 10
1534.470589276487
 20
3154.494269174626
 30
0.0
 11
2769.470589276552
 21
3154.494269174626
 31
0.0
  0
LINE
  5
18D32
330
18C7A
100
AcDbEntity
  8
部品1
 48
50.0
100
AcDbLine
 10
1311.970589276523
 20
1420.494269174462
 30
0.0
 11
3411.970589276523
 21
1420.494269174465
 31
0.0
  0
LINE
  5
18D33
330
18C7A
100
AcDbEntity
  8
部品1
 48
50.0
100
AcDbLine
 10
471.9705892765232
 20
1392.494269174465
 30
0.0
 11
1311.970589276523
 21
1392.494269174465
 31
0.0
  0
DIMENSION
  5
18D34
330
18C7A
100
AcDbEntity
  8
寸法
100
AcDbDimension
  2
*D14
 10
2710.234916278077
 20
2488.887829538828
 30
0.0
 11
2338.318822490183
 21
2488.887829538828
 31
0.0
 12
-3742.925985830444
 22
-6453.628869860112
 32
0.0
 70
   128
 71
     5
 42
1231.00000000007
  3
INABA_S40G
100
AcDbAlignedDimension
 13
1536.470589276486
 23
2702.494269174557
 33
0.0
 14
2767.470589276556
 24
2702.494269174549
 34
0.0
100
AcDbRotatedDimension
1001
ACAD
1000
DSTYLE
1002
{
1002
}
  0
LINE
  5
18D35
330
18C7A
100
AcDbEntity
  8
部品1
100
AcDbLine
 10
1536.470589276487
 20
2702.494269174557
 30
0.0
 11
2767.470589276554
 21
2702.494269174615
 31
0.0
  0
LINE
  5
18D36
330
18C7A
100
AcDbEntity
  8
部品1
100
AcDbLine
 10
1536.470589276487
 20
3152.494269174557
 30
0.0
 11
2767.470589276556
 21
3152.494269174615
 31
0.0
  0
LINE
  5
18D37
330
18C7A
100
AcDbEntity
  8
細線
 48
50.0
100
AcDbLine
 10
1508.470589276487
 20
3152.494269174558
 30
0.0
 11
445.4705892765559
 21
2702.494269174509
 31
0.0
  0
LINE
  5
18D38
330
18C7A
100
AcDbEntity
  8
細線
 48
50.0
100
AcDbLine
 10
1508.470589276487
 20
2702.494269174558
 30
0.0
 11
445.4705892765542
 21
3152.494269174509
 31
0.0
  0
LINE
  5
18D39
330
18C7A
100
AcDbEntity
  8
部品1
100
AcDbLine
 10
1556.970589276487
 20
3172.494269174611
 30
0.0
 11
1556.970589276487
 21
3154.494269174611
 31
0.0
  0
LINE
  5
18D3A
330
18C7A
100
AcDbEntity
  8
部品1
100
AcDbLine
 10
1556.970589276487
 20
3172.494269174611
 30
0.0
 11
1550.970589276487
 21
3172.494269174611
 31
0.0
  0
LINE
  5
18D3B
330
18C7A
100
AcDbEntity
  8
部品1
100
AcDbLine
 10
1534.470589276487
 20
3146.494269174608
 30
0.0
 11
1509.470589276487
 21
3146.494269174611
 31
0.0
  0
LINE
  5
18D3C
330
18C7A
100
AcDbEntity
  8
部品1
100
AcDbLine
 10
1486.970589276487
 20
3172.494269174611
 30
0.0
 11
1486.970589276487
 21
3154.494269174611
 31
0.0
  0
LINE
  5
18D3D
330
18C7A
100
AcDbEntity
  8
部品1
100
AcDbLine
 10
1492.970589276487
 20
3172.494269174611
 30
0.0
 11
1486.970589276487
 21
3172.494269174611
 31
0.0
  0
LINE
  5
18D3E
330
18C7A
100
AcDbEntity
  8
部品1
100
AcDbLine
 10
1534.470589276487
 20
2702.494269174615
 30
0.0
 11
1509.470589276487
 21
2702.494269174615
 31
0.0
  0
LINE
  5
18D3F
330
18C7A
100
AcDbEntity
  8
部品1
 48
50.0
100
AcDbLine
 10
1536.470589276487
 20
3152.494269174611
 30
0.0
 11
1536.470589276487
 21
2702.494269174615
 31
0.0
  0
LINE
  5
18D40
330
18C7A
100
AcDbEntity
  8
部品1
 48
50.0
100
AcDbLine
 10
1508.470589276487
 20
3152.494269174607
 30
0.0
 11
1508.470589276487
 21
2702.494269174615
 31
0.0
  0
LINE
  5
18D41
330
18C7A
100
AcDbEntity
  8
部品1
 48
50.0
100
AcDbLine
 10
1534.470589276487
 20
3154.494269174618
 30
0.0
 11
1534.470589276487
 21
2702.494269174615
 31
0.0
  0
LINE
  5
18D42
330
18C7A
100
AcDbEntity
  8
部品1
 48
50.0
100
AcDbLine
 10
1509.470589276487
 20
3154.494269174615
 30
0.0
 11
1509.470589276487
 21
2702.494269174615
 31
0.0
  0
LINE
  5
18D43
330
18C7A
100
AcDbEntity
  8
部品1
100
AcDbLine
 10
3411.970589276556
 20
1392.494269174582
 30
0.0
 11
3411.970589276556
 21
1420.494269174596
 31
0.0
  0
LINE
  5
18D44
330
18C7A
100
AcDbEntity
  8
部品1
100
AcDbLine
 10
1311.970589276523
 20
1392.494269174596
 30
0.0
 11
1311.970589276523
 21
1420.494269174596
 31
0.0
  0
LINE
  5
18D45
330
18C7A
100
AcDbEntity
  8
部品1
100
AcDbLine
 10
891.9705892765232
 20
1392.494269174596
 30
0.0
 11
891.9705892765232
 21
1420.494269174596
 31
0.0
  0
LINE
  5
18D46
330
18C7A
100
AcDbEntity
  8
部品1
100
AcDbLine
 10
3411.97058927652
 20
3182.494269174477
 30
0.0
 11
3411.970589276523
 21
3154.494269174477
 31
0.0
  0
LINE
  5
18D47
330
18C7A
100
AcDbEntity
  8
部品1
100
AcDbLine
 10
2571.97058927652
 20
3182.494269174477
 30
0.0
 11
2571.970589276523
 21
3154.494269174477
 31
0.0
  0
LINE
  5
18D48
330
18C7A
100
AcDbEntity
  8
部品1
100
AcDbLine
 10
2991.97058927652
 20
3182.494269174477
 30
0.0
 11
2991.970589276523
 21
3154.494269174477
 31
0.0
  0
LINE
  5
18D49
330
18C7A
100
AcDbEntity
  8
部品1
100
AcDbLine
 10
2151.970589276519
 20
3182.494269174477
 30
0.0
 11
2151.970589276523
 21
3154.494269174477
 31
0.0
  0
LINE
  5
18D4A
330
18C7A
100
AcDbEntity
  8
部品1
100
AcDbLine
 10
1731.970589276519
 20
3182.494269174477
 30
0.0
 11
1731.970589276523
 21
3154.494269174477
 31
0.0
  0
LINE
  5
18D4B
330
18C7A
100
AcDbEntity
  8
部品1
100
AcDbLine
 10
1311.970589276519
 20
3182.494269174477
 30
0.0
 11
1311.970589276523
 21
3154.494269174477
 31
0.0
  0
LINE
  5
18D4C
330
18C7A
100
AcDbEntity
  8
部品1
100
AcDbLine
 10
891.9705892765195
 20
3182.494269174477
 30
0.0
 11
891.9705892765232
 21
3154.494269174477
 31
0.0
  0
LINE
  5
18D4D
330
18C7A
100
AcDbEntity
  8
部品1
100
AcDbLine
 10
471.9705892765232
 20
1392.494269174596
 30
0.0
 11
471.9705892765232
 21
1420.494269174596
 31
0.0
  0
LINE
  5
18D4E
330
18C7A
100
AcDbEntity
  8
部品1
100
AcDbLine
 10
444.9705892765305
 20
1420.494269174558
 30
0.0
 11
3858.970589276556
 21
1420.494269174596
 31
0.0
  0
LINE
  5
18D4F
330
18C7A
100
AcDbEntity
  8
部品1
100
AcDbLine
 10
3831.970589276556
 20
1392.494269174596
 30
0.0
 11
3831.970589276556
 21
1420.494269174596
 31
0.0
  0
LINE
  5
18D50
330
18C7A
100
AcDbEntity
  8
部品1
100
AcDbLine
 10
3858.970589276556
 20
1447.494269174593
 30
0.0
 11
3886.970589276556
 21
1447.494269174593
 31
0.0
  0
LINE
  5
18D51
330
18C7A
100
AcDbEntity
  8
部品1
100
AcDbLine
 10
3858.970589276556
 20
1867.494269174607
 30
0.0
 11
3886.970589276556
 21
1867.494269174607
 31
0.0
  0
LINE
  5
18D52
330
18C7A
100
AcDbEntity
  8
部品1
100
AcDbLine
 10
444.9705892765305
 20
1867.49426917448
 30
0.0
 11
416.9705892765305
 21
1867.49426917448
 31
0.0
  0
LINE
  5
18D53
330
18C7A
100
AcDbEntity
  8
部品1
100
AcDbLine
 10
3830.470589276541
 20
1867.49426917458
 30
0.0
 11
473.4705892765396
 21
1867.49426917448
 31
0.0
  0
LINE
  5
18D54
330
18C7A
100
AcDbEntity
  8
部品1
100
AcDbLine
 10
3830.470589276541
 20
2287.49426917458
 30
0.0
 11
473.4705892765396
 21
2287.49426917448
 31
0.0
  0
LINE
  5
18D55
330
18C7A
100
AcDbEntity
  8
部品1
100
AcDbLine
 10
444.9705892765305
 20
2287.49426917448
 30
0.0
 11
416.9705892765305
 21
2287.49426917448
 31
0.0
  0
LINE
  5
18D56
330
18C7A
100
AcDbEntity
  8
部品1
100
AcDbLine
 10
3858.970589276556
 20
2287.494269174608
 30
0.0
 11
3886.970589276556
 21
2287.494269174608
 31
0.0
  0
LINE
  5
18D57
330
18C7A
100
AcDbEntity
  8
部品1
 48
50.0
100
AcDbLine
 10
2151.970589276551
 20
2702.494269174586
 30
0.0
 11
2151.970589276581
 21
1448.994269174494
 31
0.0
  0
LINE
  5
18D58
330
18C7A
100
AcDbEntity
  8
破線
 48
10.0
100
AcDbLine
 10
2959.470589276535
 20
1472.494269174522
 30
0.0
 11
2176.970589276532
 21
1472.494269174505
 31
0.0
  0
LINE
  5
18D59
330
18C7A
100
AcDbEntity
  8
破線
 48
10.0
100
AcDbLine
 10
3009.47058927653
 20
1448.994269174509
 30
0.0
 11
3009.47058927653
 21
2702.494269174615
 31
0.0
  0
LINE
  5
18D5A
330
18C7A
100
AcDbEntity
  8
破線
 48
10.0
100
AcDbLine
 10
2959.470589276535
 20
1448.994269174505
 30
0.0
 11
2959.470589276531
 21
2702.494269174615
 31
0.0
  0
LINE
  5
18D5B
330
18C7A
100
AcDbEntity
  8
破線
 48
10.0
100
AcDbLine
 10
1344.47058927653
 20
1448.994269174509
 30
0.0
 11
1344.47058927653
 21
2702.494269174615
 31
0.0
  0
LINE
  5
18D5C
330
18C7A
100
AcDbEntity
  8
破線
 48
10.0
100
AcDbLine
 10
1294.470589276534
 20
1448.994269174505
 30
0.0
 11
1294.47058927653
 21
2702.494269174615
 31
0.0
  0
DIMENSION
  5
18D5D
330
18C7A
100
AcDbEntity
  8
寸法
100
AcDbDimension
  2
*D13
 10
1451.234916278005
 20
2488.887829538828
 30
0.0
 11
916.0604668248634
 21
2488.887829538828
 31
0.0
 12
-3742.925985830444
 22
-6453.628869860112
 32
0.0
 70
   128
 71
     5
 42
1062.99999999993
  3
INABA_S40G
100
AcDbAlignedDimension
 13
445.4705892765559
 23
2702.494269174505
 33
0.0
 14
1508.470589276486
 24
2702.494269174558
 34
0.0
100
AcDbRotatedDimension
1001
ACAD
1000
DSTYLE
1002
{
1002
}
  0
LINE
  5
18D5E
330
18C7A
100
AcDbEntity
  8
破線
 48
10.0
100
AcDbLine
 10
1294.470589276534
 20
1472.494269174469
 30
0.0
 11
496.9705892765414
 21
1472.494269174476
 31
0.0
  0
LINE
  5
18D5F
330
18C7A
100
AcDbEntity
  8
部品1
100
AcDbLine
 10
3831.970589276556
 20
3182.494269174604
 30
0.0
 11
3831.970589276556
 21
3154.494269174604
 31
0.0
  0
LINE
  5
18D60
330
18C7A
100
AcDbEntity
  8
部品1
100
AcDbLine
 10
3831.970589276556
 20
3182.494269174626
 30
0.0
 11
3831.970589276556
 21
3154.494269174626
 31
0.0
  0
LINE
  5
18D61
330
18C7A
100
AcDbEntity
  8
部品1
100
AcDbLine
 10
3858.970589276556
 20
3127.494269174607
 30
0.0
 11
3886.970589276556
 21
3127.494269174607
 31
0.0
  0
LINE
  5
18D62
330
18C7A
100
AcDbEntity
  8
部品1
100
AcDbLine
 10
3858.970589276556
 20
2707.494269174608
 30
0.0
 11
3886.970589276556
 21
2707.494269174608
 31
0.0
  0
LINE
  5
18D63
330
18C7A
100
AcDbEntity
  8
部品1
100
AcDbLine
 10
3858.470589276556
 20
3152.494269174604
 30
0.0
 11
3858.470589276556
 21
2702.494269174608
 31
0.0
  0
LINE
  5
18D64
330
18C7A
100
AcDbEntity
  8
部品1
100
AcDbLine
 10
3886.970589276533
 20
1447.494269174593
 30
0.0
 11
3886.970589276531
 21
1392.494269174596
 31
0.0
  0
LINE
  5
18D65
330
18C7A
100
AcDbEntity
  8
部品1
 48
50.0
100
AcDbLine
 10
3830.470589276556
 20
1448.994269174596
 30
0.0
 11
3858.970589276554
 21
1420.494269174596
 31
0.0
  0
LINE
  5
18D66
330
18C7A
100
AcDbEntity
  8
部品1
100
AcDbLine
 10
3886.970589276531
 20
1392.494269174596
 30
0.0
 11
3835.970589276531
 21
1392.494269174596
 31
0.0
  0
LINE
  5
18D67
330
18C7A
100
AcDbEntity
  8
部品1
100
AcDbLine
 10
3858.970589276533
 20
1447.494269174593
 30
0.0
 11
3886.970589276531
 21
1447.494269174593
 31
0.0
  0
LINE
  5
18D68
330
18C7A
100
AcDbEntity
  8
部品1
100
AcDbLine
 10
3886.970589276556
 20
3182.494269174604
 30
0.0
 11
3886.970589276531
 21
1392.494269174596
 31
0.0
  0
DIMENSION
  5
18D69
330
18C7A
100
AcDbEntity
  8
寸法
100
AcDbDimension
  2
*D12
 10
4534.396935010967
 20
1447.494269174593
 30
0.0
 11
4534.396935010965
 21
2287.4942691746
 31
0.0
 12
-3742.925985830444
 22
-6453.628869860112
 32
0.0
 70
   128
  1
4X420=<>
 71
     5
 42
1680.000000000014
  3
INABA_S40G
100
AcDbAlignedDimension
 13
3886.970589276556
 23
3127.494269174607
 33
0.0
 14
3886.970589276531
 24
1447.494269174593
 34
0.0
 50
90.0
100
AcDbRotatedDimension
1001
ACAD
1000
DSTYLE
1002
{
1002
}
  0
LINE
  5
18D6A
330
18C7A
100
AcDbEntity
  8
部品1
100
AcDbLine
 10
3858.970589276556
 20
3154.494269174604
 30
0.0
 11
3858.970589276534
 21
1420.494269174596
 31
0.0
  0
DIMENSION
  5
18D6B
330
18C7A
100
AcDbEntity
  8
寸法
100
AcDbDimension
  2
*D11
 10
4213.82831513858
 20
2607.276453505718
 30
0.0
 11
4113.828315138579
 21
2832.276453505718
 31
0.0
 12
-3742.925985830444
 22
-6453.628869860112
 32
0.0
 71
     5
 42
449.9999999999963
  3
INABA_S40G
100
AcDbAlignedDimension
 13
3858.470589276556
 23
3152.494269174604
 33
0.0
 14
3858.470589276556
 24
2702.494269174608
 34
0.0
 50
90.0
100
AcDbRotatedDimension
1001
ACAD
1000
DSTYLE
1002
{
1002
}
  0
LINE
  5
18D6C
330
18C7A
100
AcDbEntity
  8
部品1
100
AcDbLine
 10
3830.470589276547
 20
2702.494269174608
 30
0.0
 11
3830.470589276556
 21
1448.994269174596
 31
0.0
  0
LINE
  5
18D6D
330
18C7A
100
AcDbEntity
  8
破線
 48
10.0
100
AcDbLine
 10
3806.970589276549
 20
2702.494269174608
 30
0.0
 11
3806.970589276558
 21
1472.494269174593
 31
0.0
  0
LINE
  5
18D6E
330
18C7A
100
AcDbEntity
  8
部品1
100
AcDbLine
 10
2769.470589276556
 20
3146.494269174608
 30
0.0
 11
2794.470589276556
 21
3146.494269174611
 31
0.0
  0
LINE
  5
18D6F
330
18C7A
100
AcDbEntity
  8
部品1
100
AcDbLine
 10
2810.970589276556
 20
3172.494269174611
 30
0.0
 11
2816.970589276556
 21
3172.494269174611
 31
0.0
  0
LINE
  5
18D70
330
18C7A
100
AcDbEntity
  8
部品1
100
AcDbLine
 10
2816.970589276556
 20
3172.494269174611
 30
0.0
 11
2816.970589276556
 21
3154.494269174611
 31
0.0
  0
LINE
  5
18D71
330
18C7A
100
AcDbEntity
  8
部品1
100
AcDbLine
 10
2746.970589276556
 20
3172.494269174611
 30
0.0
 11
2752.970589276556
 21
3172.494269174611
 31
0.0
  0
LINE
  5
18D72
330
18C7A
100
AcDbEntity
  8
部品1
100
AcDbLine
 10
2746.970589276556
 20
3172.494269174611
 30
0.0
 11
2746.970589276556
 21
3154.494269174611
 31
0.0
  0
LINE
  5
18D73
330
18C7A
100
AcDbEntity
  8
部品1
100
AcDbLine
 10
2769.470589276556
 20
2702.494269174615
 30
0.0
 11
2794.470589276556
 21
2702.494269174615
 31
0.0
  0
LINE
  5
18D74
330
18C7A
100
AcDbEntity
  8
部品1
 48
50.0
100
AcDbLine
 10
2794.470589276556
 20
3154.494269174615
 30
0.0
 11
2794.470589276556
 21
2702.494269174615
 31
0.0
  0
LINE
  5
18D75
330
18C7A
100
AcDbEntity
  8
部品1
 48
50.0
100
AcDbLine
 10
2769.470589276554
 20
3154.494269174618
 30
0.0
 11
2769.470589276556
 21
2702.494269174615
 31
0.0
  0
LINE
  5
18D76
330
18C7A
100
AcDbEntity
  8
部品1
 48
50.0
100
AcDbLine
 10
2795.470589276556
 20
3152.494269174607
 30
0.0
 11
2795.470589276556
 21
2702.494269174615
 31
0.0
  0
LINE
  5
18D77
330
18C7A
100
AcDbEntity
  8
部品1
 48
50.0
100
AcDbLine
 10
2767.470589276556
 20
3152.494269174611
 30
0.0
 11
2767.470589276556
 21
2702.494269174615
 31
0.0
  0
LINE
  5
18D78
330
18C7A
100
AcDbEntity
  8
破線
 48
10.0
100
AcDbLine
 10
2176.97058927653
 20
1448.994269174509
 30
0.0
 11
2176.97058927653
 21
2702.494269174588
 31
0.0
  0
LINE
  5
18D79
330
18C7A
100
AcDbEntity
  8
破線
 48
10.0
100
AcDbLine
 10
2126.970589276534
 20
1448.994269174505
 30
0.0
 11
2126.970589276531
 21
2702.494269174586
 31
0.0
  0
LINE
  5
18D7A
330
18C7A
100
AcDbEntity
  8
部品1
100
AcDbLine
 10
2794.470589276556
 20
3154.494269174622
 30
0.0
 11
3858.970589276556
 21
3154.494269174604
 31
0.0
  0
LINE
  5
18D7B
330
18C7A
100
AcDbEntity
  8
細線
 48
50.0
100
AcDbLine
 10
3858.470589276556
 20
2702.494269174608
 30
0.0
 11
2795.470589276556
 21
3152.494269174607
 31
0.0
  0
LINE
  5
18D7C
330
18C7A
100
AcDbEntity
  8
部品1
100
AcDbLine
 10
2795.470589276555
 20
2702.494269174615
 30
0.0
 11
3858.470589276556
 21
2702.494269174608
 31
0.0
  0
LINE
  5
18D7D
330
18C7A
100
AcDbEntity
  8
部品1
100
AcDbLine
 10
2795.470589276556
 20
3152.494269174611
 30
0.0
 11
3858.470589276556
 21
3152.494269174604
 31
0.0
  0
LINE
  5
18D7E
330
18C7A
100
AcDbEntity
  8
細線
 48
50.0
100
AcDbLine
 10
3858.470589276556
 20
3152.494269174604
 30
0.0
 11
2795.470589276555
 21
2702.494269174615
 31
0.0
  0
DIMENSION
  5
18D7F
330
18C7A
100
AcDbEntity
  8
寸法
100
AcDbDimension
  2
*D10
 10
3801.234916278101
 20
2488.887829538937
 30
0.0
 11
3318.360544398907
 21
2488.887829538937
 31
0.0
 12
-3742.925985830444
 22
-6453.628869860112
 32
0.0
 70
   128
 71
     5
 42
1063.000000000012
  3
INABA_S40G
100
AcDbAlignedDimension
 13
2795.470589276555
 23
2702.494269174615
 33
0.0
 14
3858.470589276567
 24
2702.494269174608
 34
0.0
100
AcDbRotatedDimension
1001
ACAD
1000
DSTYLE
1002
{
1002
}
  0
LINE
  5
18D80
330
18C7A
100
AcDbEntity
  8
破線
 48
10.0
100
AcDbLine
 10
3806.970589276556
 20
1472.494269174594
 30
0.0
 11
3009.47058927653
 21
1472.494269174523
 31
0.0
  0
DIMENSION
  5
18D81
330
18C7A
100
AcDbEntity
  8
寸法
100
AcDbDimension
  2
*D9
 10
4534.396935010941
 20
1392.494269174596
 30
0.0
 11
4534.39693501094
 21
1084.008987800356
 31
0.0
 12
-3742.925985830444
 22
-6453.628869860112
 32
0.0
 70
   128
 71
     5
 42
54.99999999999636
  3
INABA_S40G
100
AcDbAlignedDimension
 13
3886.970589276531
 23
1447.494269174593
 33
0.0
 14
3886.970589276531
 24
1392.494269174596
 34
0.0
 50
90.0
100
AcDbRotatedDimension
1001
ACAD
1000
DSTYLE
1002
{
1002
}
  0
LINE
  5
18D82
330
18C7A
100
AcDbEntity
  8
部品1
100
AcDbLine
 10
471.9705892765196
 20
3182.494269174477
 30
0.0
 11
471.9705892765232
 21
3154.494269174477
 31
0.0
  0
LINE
  5
18D83
330
18C7A
100
AcDbEntity
  8
部品1
100
AcDbLine
 10
471.9705892765559
 20
3182.494269174509
 30
0.0
 11
471.9705892765559
 21
3154.494269174509
 31
0.0
  0
LINE
  5
18D84
330
18C7A
100
AcDbEntity
  8
部品1
100
AcDbLine
 10
444.9705892765232
 20
3127.49426917448
 30
0.0
 11
416.9705892765232
 21
3127.49426917448
 31
0.0
  0
LINE
  5
18D85
330
18C7A
100
AcDbEntity
  8
部品1
100
AcDbLine
 10
444.9705892765305
 20
2707.49426917448
 30
0.0
 11
416.9705892765305
 21
2707.49426917448
 31
0.0
  0
LINE
  5
18D86
330
18C7A
100
AcDbEntity
  8
部品1
 48
50.0
100
AcDbLine
 10
445.4705892765542
 20
3152.494269174506
 30
0.0
 11
445.4705892765559
 21
2702.494269174505
 31
0.0
  0
LINE
  5
18D87
330
18C7A
100
AcDbEntity
  8
部品1
 48
50.0
100
AcDbLine
 10
473.470589276545
 20
1448.994269174573
 30
0.0
 11
444.970589276545
 21
1420.494269174574
 31
0.0
  0
LINE
  5
18D88
330
18C7A
100
AcDbEntity
  8
部品1
100
AcDbLine
 10
471.9705892765232
 20
1392.494269174465
 30
0.0
 11
416.9705892765486
 21
1392.494269174465
 31
0.0
  0
LINE
  5
18D89
330
18C7A
100
AcDbEntity
  8
部品1
100
AcDbLine
 10
444.9705892765305
 20
1447.494269174429
 30
0.0
 11
416.9705892765469
 21
1447.494269174429
 31
0.0
  0
LINE
  5
18D8A
330
18C7A
100
AcDbEntity
  8
部品1
100
AcDbLine
 10
444.9705892765305
 20
1447.494269174465
 30
0.0
 11
416.9705892765469
 21
1447.494269174465
 31
0.0
  0
LINE
  5
18D8B
330
18C7A
100
AcDbEntity
  8
部品1
100
AcDbLine
 10
444.9705892765469
 20
1447.49426917448
 30
0.0
 11
416.9705892765469
 21
1447.49426917448
 31
0.0
  0
LINE
  5
18D8C
330
18C7A
100
AcDbEntity
  8
部品1
100
AcDbLine
 10
416.9705892765469
 20
1447.494269174429
 30
0.0
 11
416.9705892765486
 21
1392.494269174433
 31
0.0
  0
LINE
  5
18D8D
330
18C7A
100
AcDbEntity
  8
部品1
100
AcDbLine
 10
416.9705892765196
 20
3182.494269174477
 30
0.0
 11
416.9705892765486
 21
1392.494269174465
 31
0.0
  0
LINE
  5
18D8E
330
18C7A
100
AcDbEntity
  8
部品1
100
AcDbLine
 10
444.9705892765305
 20
1420.494269174556
 30
0.0
 11
444.9705892765559
 21
3154.494269174509
 31
0.0
  0
LINE
  5
18D8F
330
18C7A
100
AcDbEntity
  8
部品1
100
AcDbLine
 10
473.4705892765323
 20
2702.494269174608
 30
0.0
 11
473.470589276545
 21
1448.994269174571
 31
0.0
  0
LINE
  5
18D90
330
18C7A
100
AcDbEntity
  8
破線
 48
10.0
100
AcDbLine
 10
496.9705892765305
 20
2702.494269174608
 30
0.0
 11
496.9705892765451
 21
1472.494269174476
 31
0.0
  0
DIMENSION
  5
18D91
330
18C7A
100
AcDbEntity
  8
寸法
100
AcDbDimension
  2
*D8
 10
3886.970589276531
 20
410.7433333855515
 30
0.0
 11
2168.197775309287
 21
410.7433333855515
 31
0.0
 12
-3742.925985830444
 22
-6453.628869860112
 32
0.0
 70
   128
 71
     5
 42
3469.999999999982
  3
INABA_S40G
100
AcDbAlignedDimension
 13
416.9705892765486
 23
1392.494269174433
 33
0.0
 14
3886.970589276531
 24
1392.49426917456
 34
0.0
100
AcDbRotatedDimension
1001
ACAD
1000
DSTYLE
1002
{
1070
   341
1005
0
1002
}
  0
LINE
  5
18D92
330
18C7A
100
AcDbEntity
  8
部品1
100
AcDbLine
 10
444.9705892765559
 20
3154.494269174624
 30
0.0
 11
1509.470589276487
 21
3154.494269174626
 31
0.0
  0
LINE
  5
18D93
330
18C7A
100
AcDbEntity
  8
部品1
100
AcDbLine
 10
3886.970589276531
 20
1392.494269174596
 30
0.0
 11
3411.970589276556
 21
1392.494269174582
 31
0.0
  0
LINE
  5
18D94
330
18C7A
100
AcDbEntity
  8
部品1
100
AcDbLine
 10
416.9705892765559
 20
3182.494269174509
 30
0.0
 11
3886.970589276556
 21
3182.494269174604
 31
0.0
  0
LINE
  5
18D95
330
18C7A
100
AcDbEntity
  8
部品1
100
AcDbLine
 10
445.4705892765559
 20
2702.494269174509
 30
0.0
 11
1508.470589276487
 21
2702.494269174558
 31
0.0
  0
LINE
  5
18D96
330
18C7A
100
AcDbEntity
  8
細線
 48
50.0
100
AcDbLine
 10
2767.470589276556
 20
3152.494269174611
 30
0.0
 11
1536.470589276487
 21
2702.494269174558
 31
0.0
  0
LINE
  5
18D97
330
18C7A
100
AcDbEntity
  8
部品1
100
AcDbLine
 10
445.4705892765542
 20
3152.494269174509
 30
0.0
 11
1508.470589276485
 21
3152.494269174558
 31
0.0
  0
LINE
  5
18D98
330
18C7A
100
AcDbEntity
  8
細線
 48
50.0
100
AcDbLine
 10
2767.470589276554
 20
2702.494269174615
 30
0.0
 11
1536.470589276485
 21
3152.494269174558
 31
0.0
  0
LINE
  5
18D99
330
18C7A
100
AcDbEntity
  8
破線
 48
10.0
100
AcDbLine
 10
2126.970589276534
 20
1472.494269174502
 30
0.0
 11
1344.47058927653
 21
1472.494269174473
 31
0.0
  0
LINE
  5
18D9A
330
18C7A
100
AcDbEntity
  8
部品1
100
AcDbLine
 10
3830.470589276556
 20
1448.994269174596
 30
0.0
 11
473.4705892764487
 21
1448.994269174476
 31
0.0
  0
DIMENSION
  5
18D9B
330
18C7A
100
AcDbEntity
  8
寸法
100
AcDbDimension
  2
*D7
 10
471.970589276555
 20
3698.302488799491
 30
0.0
 11
108.4853079022819
 21
3698.302488799491
 31
0.0
 12
-3742.925985830444
 22
-6453.628869860112
 32
0.0
 70
   128
 71
     5
 42
55.00000000003456
  3
INABA_S40G
100
AcDbAlignedDimension
 13
416.9705892765205
 23
3182.494269174509
 33
0.0
 14
471.970589276555
 24
3182.494269174509
 34
0.0
100
AcDbRotatedDimension
1001
ACAD
1000
DSTYLE
1002
{
1002
}
  0
DIMENSION
  5
18D9C
330
18C7A
100
AcDbEntity
  8
寸法
100
AcDbDimension
  2
*D6
 10
4534.396935010967
 20
3127.494269174607
 30
0.0
 11
4534.396935010965
 21
3490.979550548844
 31
0.0
 12
-3742.925985830444
 22
-6453.628869860112
 32
0.0
 70
   128
 71
     5
 42
54.99999999999636
  3
INABA_S40G
100
AcDbAlignedDimension
 13
3886.970589276556
 23
3182.494269174604
 33
0.0
 14
3886.970589276556
 24
3127.494269174607
 34
0.0
 50
90.0
100
AcDbRotatedDimension
1001
ACAD
1000
DSTYLE
1002
{
1002
}
  0
DIMENSION
  5
18D9D
330
18C7A
100
AcDbEntity
  8
寸法
100
AcDbDimension
  2
*D5
 10
3886.970589276556
 20
3698.302488799589
 30
0.0
 11
4195.455870650794
 21
3698.302488799589
 31
0.0
 12
-3742.925985830444
 22
-6453.628869860112
 32
0.0
 70
   128
 71
     5
 42
55.0
  3
INABA_S40G
100
AcDbAlignedDimension
 13
3831.970589276556
 23
3182.494269174604
 33
0.0
 14
3886.970589276556
 24
3182.494269174604
 34
0.0
100
AcDbRotatedDimension
1001
ACAD
1000
DSTYLE
1002
{
1002
}
  0
DIMENSION
  5
18D9E
330
18C7A
100
AcDbEntity
  8
寸法
100
AcDbDimension
  2
*D4
 10
3831.970589276556
 20
3698.302488799607
 30
0.0
 11
2151.970589276555
 21
3698.302488799607
 31
0.0
 12
-3742.925985830444
 22
-6453.628869860112
 32
0.0
 70
   128
  1
8X420=<>
 71
     5
 42
3360.000000000001
  3
INABA_S40G
100
AcDbAlignedDimension
 13
471.970589276555
 23
3182.494269174509
 33
0.0
 14
3831.970589276556
 24
3182.494269174604
 34
0.0
100
AcDbRotatedDimension
1001
ACAD
1000
DSTYLE
1002
{
1002
}
  0
DIMENSION
  5
18D9F
330
18C7A
100
AcDbEntity
  8
寸法
100
AcDbDimension
  2
*D3
 10
4899.503876750603
 20
1392.494269174596
 30
0.0
 11
4899.503876750601
 21
2287.4942691746
 31
0.0
 12
-3742.925985830444
 22
-6453.628869860112
 32
0.0
 70
   128
 71
     5
 42
1790.000000000007
  3
INABA_S40G
100
AcDbAlignedDimension
 13
3886.970589276556
 23
3182.494269174604
 33
0.0
 14
3886.970589276531
 24
1392.494269174596
 34
0.0
 50
90.0
100
AcDbRotatedDimension
1001
ACAD
1000
DSTYLE
1002
{
1002
}
  0
ENDBLK
  5
18DA1
330
18C7A
100
AcDbEntity
  8
0
 48
50.0
100
AcDbBlockEnd
  0
BLOCK
  5
1C4CB
330
1C4CA
100
AcDbEntity
  8
0
 48
50.0
100
AcDbBlockBegin
  2
_NONE
 70
     0
 10
0.0
 20
0.0
 30
0.0
  3
_NONE
  1

  0
CIRCLE
  5
1C4CC
330
1C4CA
100
AcDbEntity
  8
0
  6
ByBlock
 62
     0
 48
50.0
100
AcDbCircle
 10
0.0
 20
0.0
 30
0.0
 40
0.25
  0
ENDBLK
  5
1C4CD
330
1C4CA
100
AcDbEntity
  8
0
 48
50.0
100
AcDbBlockEnd
  0
BLOCK
  5
23147
330
2313C
100
AcDbEntity
  8
0
 48
50.0
100
AcDbBlockBegin
  2
*D19
 70
     1
 10
0.0
 20
0.0
 30
0.0
  3
*D19
  1

  0
LINE
  5
2504F
330
2313C
100
AcDbEntity
  8
寸法
 62
     0
 48
50.0
370
    -2
100
AcDbLine
 10
9423.6
 20
7296.907777930208
 30
0.0
 11
9423.6
 21
7029.199110429832
 31
0.0
  0
LINE
  5
25050
330
2313C
100
AcDbEntity
  8
寸法
 62
     0
 48
50.0
370
    -2
100
AcDbLine
 10
9313.6
 20
7296.907777930204
 30
0.0
 11
9313.6
 21
7029.199110429832
 31
0.0
  0
LINE
  5
25051
330
2313C
100
AcDbEntity
  8
寸法
 62
     0
 48
50.0
370
    -2
100
AcDbLine
 10
9423.6
 20
7089.199110429831
 30
0.0
 11
9313.6
 21
7089.199110429831
 31
0.0
  0
LINE
  5
25052
330
2313C
100
AcDbEntity
  8
寸法
 62
     0
 48
50.0
370
    -2
100
AcDbLine
 10
9313.6
 20
7089.199110429831
 30
0.0
 11
8919.493700787402
 21
7089.199110429831
 31
0.0
  0
INSERT
  5
25053
330
2313C
100
AcDbEntity
  8
寸法
 62
     0
 48
50.0
370
    -2
100
AcDbBlockReference
  2
_DOTSMALL
 10
9423.6
 20
7089.199110429831
 30
0.0
 41
100.0
 42
100.0
 43
100.0
  0
INSERT
  5
25054
330
2313C
100
AcDbEntity
  8
寸法
 62
     0
 48
50.0
370
    -2
100
AcDbBlockReference
  2
_DOTSMALL
 10
9313.6
 20
7089.199110429831
 30
0.0
 41
100.0
 42
100.0
 43
100.0
 50
180.0
  0
MTEXT
  5
25055
330
2313C
100
AcDbEntity
  8
寸法
 62
     7
 48
50.0
100
AcDbMText
 10
9043.54094488189
 20
7189.199110429831
 30
0.0
 40
120.0
 41
0.0
 71
     5
 72
     1
  1
\A1;110
  7
STYLE1
 73
     1
 44
1.0
1001
ACAD
1000
MTEXTBEGIN
1070
    73
1070
     1
1070
    44
1040
1.0
1070
    74
1070
     0
1000
MTEXTEND
  0
POINT
  5
25056
330
2313C
100
AcDbEntity
  8
DEFPOINTS
 62
     0
 48
50.0
100
AcDbPoint
 10
9423.6
 20
7316.907777930208
 30
0.0
  0
POINT
  5
25057
330
2313C
100
AcDbEntity
  8
DEFPOINTS
 62
     0
 48
50.0
100
AcDbPoint
 10
9313.6
 20
7316.907777930203
 30
0.0
  0
POINT
  5
25058
330
2313C
100
AcDbEntity
  8
DEFPOINTS
 62
     0
 48
50.0
100
AcDbPoint
 10
9313.6
 20
7089.199110429831
 30
0.0
  0
ENDBLK
  5
23148
330
2313C
100
AcDbEntity
  8
0
 48
50.0
100
AcDbBlockEnd
  0
BLOCK
  5
23154
330
23149
100
AcDbEntity
  8
0
 48
50.0
100
AcDbBlockBegin
  2
*D20
 70
     1
 10
0.0
 20
0.0
 30
0.0
  3
*D20
  1

  0
LINE
  5
24CD0
330
23149
100
AcDbEntity
  8
寸法
 62
     0
 48
50.0
370
    -2
100
AcDbLine
 10
9543.600000000001
 20
7296.907777930205
 30
0.0
 11
9543.600000000001
 21
7029.199110429832
 31
0.0
  0
LINE
  5
24CD1
330
23149
100
AcDbEntity
  8
寸法
 62
     0
 48
50.0
370
    -2
100
AcDbLine
 10
9423.6
 20
7296.907777930205
 30
0.0
 11
9423.6
 21
7029.199110429832
 31
0.0
  0
LINE
  5
24CD2
330
23149
100
AcDbEntity
  8
寸法
 62
     0
 48
50.0
370
    -2
100
AcDbLine
 10
9423.6
 20
7089.199110429831
 30
0.0
 11
9543.600000000001
 21
7089.199110429831
 31
0.0
  0
LINE
  5
24CD3
330
23149
100
AcDbEntity
  8
寸法
 62
     0
 48
50.0
370
    -2
100
AcDbLine
 10
9543.600000000001
 20
7089.199110429831
 30
0.0
 11
9949.7062992126
 21
7089.199110429831
 31
0.0
  0
INSERT
  5
24CD4
330
23149
100
AcDbEntity
  8
寸法
 62
     0
 48
50.0
370
    -2
100
AcDbBlockReference
  2
_DOTSMALL
 10
9423.6
 20
7089.199110429831
 30
0.0
 41
100.0
 42
100.0
 43
100.0
 50
180.0
  0
INSERT
  5
24CD5
330
23149
100
AcDbEntity
  8
寸法
 62
     0
 48
50.0
370
    -2
100
AcDbBlockReference
  2
_DOTSMALL
 10
9543.600000000001
 20
7089.199110429831
 30
0.0
 41
100.0
 42
100.0
 43
100.0
  0
MTEXT
  5
24CD6
330
23149
100
AcDbEntity
  8
寸法
 62
     7
 48
50.0
100
AcDbMText
 10
9813.659055118112
 20
7189.210921453453
 30
0.0
 40
120.0
 41
0.0
 71
     5
 72
     1
  1
\A1;120
  7
STYLE1
 73
     1
 44
1.0
1001
ACAD
1000
MTEXTBEGIN
1070
    73
1070
     1
1070
    44
1040
1.0
1070
    74
1070
     0
1000
MTEXTEND
  0
POINT
  5
24CD7
330
23149
100
AcDbEntity
  8
DEFPOINTS
 62
     0
 48
50.0
100
AcDbPoint
 10
9543.600000000001
 20
7316.907777930206
 30
0.0
  0
POINT
  5
24CD8
330
23149
100
AcDbEntity
  8
DEFPOINTS
 62
     0
 48
50.0
100
AcDbPoint
 10
9423.6
 20
7316.907777930206
 30
0.0
  0
POINT
  5
24CD9
330
23149
100
AcDbEntity
  8
DEFPOINTS
 62
     0
 48
50.0
100
AcDbPoint
 10
9423.6
 20
7089.199110429831
 30
0.0
  0
ENDBLK
  5
23155
330
23149
100
AcDbEntity
  8
0
 48
50.0
100
AcDbBlockEnd
  0
BLOCK
  5
23160
330
23156
100
AcDbEntity
  8
0
 48
50.0
100
AcDbBlockBegin
  2
*D21
 70
     1
 10
0.0
 20
0.0
 30
0.0
  3
*D21
  1

  0
LINE
  5
2369A
330
23156
100
AcDbEntity
  8
寸法
 62
     0
 48
50.0
370
    -2
100
AcDbLine
 10
9543.600000000001
 20
7566.907777930206
 30
0.0
 11
9543.600000000001
 21
8133.817543578533
 31
0.0
  0
LINE
  5
2369B
330
23156
100
AcDbEntity
  8
寸法
 62
     0
 48
50.0
370
    -2
100
AcDbLine
 10
8638.600000000002
 20
7076.907777930205
 30
0.0
 11
8638.600000000002
 21
8133.817543578533
 31
0.0
  0
LINE
  5
2369C
330
23156
100
AcDbEntity
  8
寸法
 62
     0
 48
50.0
370
    -2
100
AcDbLine
 10
9543.600000000001
 20
8073.817543578533
 30
0.0
 11
8638.600000000002
 21
8073.817543578533
 31
0.0
  0
INSERT
  5
2369D
330
23156
100
AcDbEntity
  8
寸法
 62
     0
 48
50.0
370
    -2
100
AcDbBlockReference
  2
_DOTSMALL
 10
9543.600000000001
 20
8073.817543578533
 30
0.0
 41
100.0
 42
100.0
 43
100.0
  0
INSERT
  5
2369E
330
23156
100
AcDbEntity
  8
寸法
 62
     0
 48
50.0
370
    -2
100
AcDbBlockReference
  2
_DOTSMALL
 10
8638.600000000002
 20
8073.817543578533
 30
0.0
 41
100.0
 42
100.0
 43
100.0
 50
180.0
  0
MTEXT
  5
2369F
330
23156
100
AcDbEntity
  8
寸法
 62
     7
 48
50.0
100
AcDbMText
 10
9114.51852200628
 20
8173.817543578534
 30
0.0
 40
120.0
 41
0.0
 71
     5
 72
     1
  1
\A1;905
  7
STYLE1
 73
     1
 44
1.0
1001
ACAD
1000
MTEXTBEGIN
1070
    73
1070
     1
1070
    44
1040
1.0
1070
    74
1070
     0
1000
MTEXTEND
  0
POINT
  5
236A0
330
23156
100
AcDbEntity
  8
DEFPOINTS
 62
     0
 48
50.0
100
AcDbPoint
 10
9543.600000000001
 20
7546.907777930205
 30
0.0
  0
POINT
  5
236A1
330
23156
100
AcDbEntity
  8
DEFPOINTS
 62
     0
 48
50.0
100
AcDbPoint
 10
8638.600000000002
 20
7056.907777930205
 30
0.0
  0
POINT
  5
236A2
330
23156
100
AcDbEntity
  8
DEFPOINTS
 62
     0
 48
50.0
100
AcDbPoint
 10
8638.600000000002
 20
8073.817543578533
 30
0.0
  0
ENDBLK
  5
23161
330
23156
100
AcDbEntity
  8
0
 48
50.0
100
AcDbBlockEnd
  0
BLOCK
  5
2316B
330
23162
100
AcDbEntity
  8
0
 48
50.0
100
AcDbBlockBegin
  2
*D22
 70
     1
 10
0.0
 20
0.0
 30
0.0
  3
*D22
  1

  0
LINE
  5
23691
330
23162
100
AcDbEntity
  8
寸法
 62
     0
 48
50.0
370
    -2
100
AcDbLine
 10
7808.6
 20
7076.907777930205
 30
0.0
 11
7808.6
 21
8133.817543578533
 31
0.0
  0
LINE
  5
23692
330
23162
100
AcDbEntity
  8
寸法
 62
     0
 48
50.0
370
    -2
100
AcDbLine
 10
6903.6
 20
7566.907777930206
 30
0.0
 11
6903.6
 21
8133.817543578533
 31
0.0
  0
LINE
  5
23693
330
23162
100
AcDbEntity
  8
寸法
 62
     0
 48
50.0
370
    -2
100
AcDbLine
 10
7808.6
 20
8073.817543578533
 30
0.0
 11
6903.6
 21
8073.817543578533
 31
0.0
  0
INSERT
  5
23694
330
23162
100
AcDbEntity
  8
寸法
 62
     0
 48
50.0
370
    -2
100
AcDbBlockReference
  2
_DOTSMALL
 10
7808.6
 20
8073.817543578533
 30
0.0
 41
100.0
 42
100.0
 43
100.0
  0
INSERT
  5
23695
330
23162
100
AcDbEntity
  8
寸法
 62
     0
 48
50.0
370
    -2
100
AcDbBlockReference
  2
_DOTSMALL
 10
6903.6
 20
8073.817543578533
 30
0.0
 41
100.0
 42
100.0
 43
100.0
 50
180.0
  0
MTEXT
  5
23696
330
23162
100
AcDbEntity
  8
寸法
 62
     7
 48
50.0
100
AcDbMText
 10
7356.100000000001
 20
8173.817543578534
 30
0.0
 40
120.0
 41
0.0
 71
     5
 72
     1
  1
\A1;905
  7
STYLE1
 73
     1
 44
1.0
1001
ACAD
1000
MTEXTBEGIN
1070
    73
1070
     1
1070
    44
1040
1.0
1070
    74
1070
     0
1000
MTEXTEND
  0
POINT
  5
23697
330
23162
100
AcDbEntity
  8
DEFPOINTS
 62
     0
 48
50.0
100
AcDbPoint
 10
7808.6
 20
7056.907777930205
 30
0.0
  0
POINT
  5
23698
330
23162
100
AcDbEntity
  8
DEFPOINTS
 62
     0
 48
50.0
100
AcDbPoint
 10
6903.6
 20
7546.907777930205
 30
0.0
  0
POINT
  5
23699
330
23162
100
AcDbEntity
  8
DEFPOINTS
 62
     0
 48
50.0
100
AcDbPoint
 10
6903.6
 20
8073.817543578533
 30
0.0
  0
ENDBLK
  5
2316C
330
23162
100
AcDbEntity
  8
0
 48
50.0
100
AcDbBlockEnd
  0
BLOCK
  5
23177
330
2316D
100
AcDbEntity
  8
0
 48
50.0
100
AcDbBlockBegin
  2
*D23
 70
     1
 10
0.0
 20
0.0
 30
0.0
  3
*D23
  1

  0
LINE
  5
23688
330
2316D
100
AcDbEntity
  8
寸法
 62
     0
 48
50.0
370
    -2
100
AcDbLine
 10
8638.600000000002
 20
7076.907777930205
 30
0.0
 11
8638.600000000002
 21
8133.817543578533
 31
0.0
  0
LINE
  5
23689
330
2316D
100
AcDbEntity
  8
寸法
 62
     0
 48
50.0
370
    -2
100
AcDbLine
 10
7808.6
 20
7076.907777930205
 30
0.0
 11
7808.6
 21
8133.817543578533
 31
0.0
  0
LINE
  5
2368A
330
2316D
100
AcDbEntity
  8
寸法
 62
     0
 48
50.0
370
    -2
100
AcDbLine
 10
8638.600000000002
 20
8073.817543578533
 30
0.0
 11
7808.6
 21
8073.817543578533
 31
0.0
  0
INSERT
  5
2368B
330
2316D
100
AcDbEntity
  8
寸法
 62
     0
 48
50.0
370
    -2
100
AcDbBlockReference
  2
_DOTSMALL
 10
8638.600000000002
 20
8073.817543578533
 30
0.0
 41
100.0
 42
100.0
 43
100.0
  0
INSERT
  5
2368C
330
2316D
100
AcDbEntity
  8
寸法
 62
     0
 48
50.0
370
    -2
100
AcDbBlockReference
  2
_DOTSMALL
 10
7808.6
 20
8073.817543578533
 30
0.0
 41
100.0
 42
100.0
 43
100.0
 50
180.0
  0
MTEXT
  5
2368D
330
2316D
100
AcDbEntity
  8
寸法
 62
     7
 48
50.0
100
AcDbMText
 10
8223.600000000001
 20
8173.817543578534
 30
0.0
 40
120.0
 41
0.0
 71
     5
 72
     1
  1
\A1;830
  7
STYLE1
 73
     1
 44
1.0
1001
ACAD
1000
MTEXTBEGIN
1070
    73
1070
     1
1070
    44
1040
1.0
1070
    74
1070
     0
1000
MTEXTEND
  0
POINT
  5
2368E
330
2316D
100
AcDbEntity
  8
DEFPOINTS
 62
     0
 48
50.0
100
AcDbPoint
 10
8638.600000000002
 20
7056.907777930205
 30
0.0
  0
POINT
  5
2368F
330
2316D
100
AcDbEntity
  8
DEFPOINTS
 62
     0
 48
50.0
100
AcDbPoint
 10
7808.6
 20
7056.907777930205
 30
0.0
  0
POINT
  5
23690
330
2316D
100
AcDbEntity
  8
DEFPOINTS
 62
     0
 48
50.0
100
AcDbPoint
 10
7808.6
 20
8073.817543578533
 30
0.0
  0
ENDBLK
  5
23178
330
2316D
100
AcDbEntity
  8
0
 48
50.0
100
AcDbBlockEnd
  0
BLOCK
  5
23182
330
23179
100
AcDbEntity
  8
0
 48
50.0
100
AcDbBlockBegin
  2
*D24
 70
     1
 10
0.0
 20
0.0
 30
0.0
  3
*D24
  1

  0
LINE
  5
2367F
330
23179
100
AcDbEntity
  8
寸法
 62
     0
 48
50.0
370
    -2
100
AcDbLine
 10
9420.6
 20
7493.907777930205
 30
0.0
 11
9420.6
 21
8352.66740447229
 31
0.0
  0
LINE
  5
23680
330
23179
100
AcDbEntity
  8
寸法
 62
     0
 48
50.0
370
    -2
100
AcDbLine
 10
7026.600000000001
 20
7493.907777930205
 30
0.0
 11
7026.600000000001
 21
8352.66740447229
 31
0.0
  0
LINE
  5
23681
330
23179
100
AcDbEntity
  8
寸法
 62
     0
 48
50.0
370
    -2
100
AcDbLine
 10
9420.6
 20
8292.66740447229
 30
0.0
 11
7026.600000000001
 21
8292.66740447229
 31
0.0
  0
INSERT
  5
23682
330
23179
100
AcDbEntity
  8
寸法
 62
     0
 48
50.0
370
    -2
100
AcDbBlockReference
  2
_DOTSMALL
 10
9420.6
 20
8292.66740447229
 30
0.0
 41
100.0
 42
100.0
 43
100.0
  0
INSERT
  5
23683
330
23179
100
AcDbEntity
  8
寸法
 62
     0
 48
50.0
370
    -2
100
AcDbBlockReference
  2
_DOTSMALL
 10
7026.600000000001
 20
8292.66740447229
 30
0.0
 41
100.0
 42
100.0
 43
100.0
 50
180.0
  0
MTEXT
  5
23684
330
23179
100
AcDbEntity
  8
寸法
 62
     7
 48
50.0
100
AcDbMText
 10
8223.600000000001
 20
8392.679215495912
 30
0.0
 40
120.0
 41
0.0
 71
     5
 72
     1
  1
\A1;2394
  7
STYLE1
 73
     1
 44
1.0
1001
ACAD
1000
MTEXTBEGIN
1070
    73
1070
     1
1070
    44
1040
1.0
1070
    74
1070
     0
1000
MTEXTEND
  0
POINT
  5
23685
330
23179
100
AcDbEntity
  8
DEFPOINTS
 62
     0
 48
50.0
100
AcDbPoint
 10
9420.6
 20
7473.907777930205
 30
0.0
  0
POINT
  5
23686
330
23179
100
AcDbEntity
  8
DEFPOINTS
 62
     0
 48
50.0
100
AcDbPoint
 10
7026.600000000001
 20
7473.907777930205
 30
0.0
  0
POINT
  5
23687
330
23179
100
AcDbEntity
  8
DEFPOINTS
 62
     0
 48
50.0
100
AcDbPoint
 10
7026.600000000001
 20
8292.66740447229
 30
0.0
  0
ENDBLK
  5
23183
330
23179
100
AcDbEntity
  8
0
 48
50.0
100
AcDbBlockEnd
  0
BLOCK
  5
2318D
330
23184
100
AcDbEntity
  8
0
 48
50.0
100
AcDbBlockBegin
  2
*D25
 70
     1
 10
0.0
 20
0.0
 30
0.0
  3
*D25
  1

  0
LINE
  5
23676
330
23184
100
AcDbEntity
  8
寸法
 62
     0
 48
50.0
370
    -2
100
AcDbLine
 10
6903.6
 20
7566.907777930206
 30
0.0
 11
6903.6
 21
8565.128099989124
 31
0.0
  0
LINE
  5
23677
330
23184
100
AcDbEntity
  8
寸法
 62
     0
 48
50.0
370
    -2
100
AcDbLine
 10
9543.600000000001
 20
7566.907777930206
 30
0.0
 11
9543.600000000001
 21
8565.128099989124
 31
0.0
  0
LINE
  5
23678
330
23184
100
AcDbEntity
  8
寸法
 62
     0
 48
50.0
370
    -2
100
AcDbLine
 10
6903.6
 20
8505.128099989125
 30
0.0
 11
9543.600000000001
 21
8505.128099989125
 31
0.0
  0
INSERT
  5
23679
330
23184
100
AcDbEntity
  8
寸法
 62
     0
 48
50.0
370
    -2
100
AcDbBlockReference
  2
_DOTSMALL
 10
6903.6
 20
8505.128099989125
 30
0.0
 41
100.0
 42
100.0
 43
100.0
 50
180.0
  0
INSERT
  5
2367A
330
23184
100
AcDbEntity
  8
寸法
 62
     0
 48
50.0
370
    -2
100
AcDbBlockReference
  2
_DOTSMALL
 10
9543.600000000001
 20
8505.128099989125
 30
0.0
 41
100.0
 42
100.0
 43
100.0
  0
MTEXT
  5
2367B
330
23184
100
AcDbEntity
  8
寸法
 62
     7
 48
50.0
100
AcDbMText
 10
8223.600000000001
 20
8605.139911012747
 30
0.0
 40
120.0
 41
0.0
 71
     5
 72
     1
  1
\A1;2640
  7
STYLE1
 73
     1
 44
1.0
1001
ACAD
1000
MTEXTBEGIN
1070
    73
1070
     1
1070
    44
1040
1.0
1070
    74
1070
     0
1000
MTEXTEND
  0
POINT
  5
2367C
330
23184
100
AcDbEntity
  8
DEFPOINTS
 62
     0
 48
50.0
100
AcDbPoint
 10
6903.6
 20
7546.907777930205
 30
0.0
  0
POINT
  5
2367D
330
23184
100
AcDbEntity
  8
DEFPOINTS
 62
     0
 48
50.0
100
AcDbPoint
 10
9543.600000000001
 20
7546.907777930205
 30
0.0
  0
POINT
  5
2367E
330
23184
100
AcDbEntity
  8
DEFPOINTS
 62
     0
 48
50.0
100
AcDbPoint
 10
9543.600000000001
 20
8505.128099989125
 30
0.0
  0
ENDBLK
  5
2318E
330
23184
100
AcDbEntity
  8
0
 48
50.0
100
AcDbBlockEnd
  0
BLOCK
  5
2319A
330
2318F
100
AcDbEntity
  8
0
 48
50.0
100
AcDbBlockBegin
  2
*D26
 70
     1
 10
0.0
 20
0.0
 30
0.0
  3
*D26
  1

  0
LINE
  5
2366C
330
2318F
100
AcDbEntity
  8
寸法
 62
     0
 48
50.0
370
    -2
100
AcDbLine
 10
7026.600000000001
 20
7493.907777930205
 30
0.0
 11
7026.600000000001
 21
8352.66740447229
 31
0.0
  0
LINE
  5
2366D
330
2318F
100
AcDbEntity
  8
寸法
 62
     0
 48
50.0
370
    -2
100
AcDbLine
 10
6903.6
 20
7566.907777930206
 30
0.0
 11
6903.6
 21
8352.66740447229
 31
0.0
  0
LINE
  5
2366E
330
2318F
100
AcDbEntity
  8
寸法
 62
     0
 48
50.0
370
    -2
100
AcDbLine
 10
7026.600000000001
 20
8292.66740447229
 30
0.0
 11
6903.6
 21
8292.66740447229
 31
0.0
  0
LINE
  5
2366F
330
2318F
100
AcDbEntity
  8
寸法
 62
     0
 48
50.0
370
    -2
100
AcDbLine
 10
6903.6
 20
8292.66740447229
 30
0.0
 11
6492.008116907964
 21
8292.66740447229
 31
0.0
  0
INSERT
  5
23670
330
2318F
100
AcDbEntity
  8
寸法
 62
     0
 48
50.0
370
    -2
100
AcDbBlockReference
  2
_DOTSMALL
 10
7026.600000000001
 20
8292.66740447229
 30
0.0
 41
100.0
 42
100.0
 43
100.0
  0
INSERT
  5
23671
330
2318F
100
AcDbEntity
  8
寸法
 62
     0
 48
50.0
370
    -2
100
AcDbBlockReference
  2
_DOTSMALL
 10
6903.6
 20
8292.66740447229
 30
0.0
 41
100.0
 42
100.0
 43
100.0
 50
180.0
  0
MTEXT
  5
23672
330
2318F
100
AcDbEntity
  8
寸法
 62
     7
 48
50.0
100
AcDbMText
 10
6630.493398282202
 20
8392.679215495912
 30
0.0
 40
120.0
 41
0.0
 71
     5
 72
     1
  1
\A1;123
  7
STYLE1
 73
     1
 44
1.0
1001
ACAD
1000
MTEXTBEGIN
1070
    73
1070
     1
1070
    44
1040
1.0
1070
    74
1070
     0
1000
MTEXTEND
  0
POINT
  5
23673
330
2318F
100
AcDbEntity
  8
DEFPOINTS
 62
     0
 48
50.0
100
AcDbPoint
 10
7026.600000000001
 20
7473.907777930205
 30
0.0
  0
POINT
  5
23674
330
2318F
100
AcDbEntity
  8
DEFPOINTS
 62
     0
 48
50.0
100
AcDbPoint
 10
6903.6
 20
7546.907777930205
 30
0.0
  0
POINT
  5
23675
330
2318F
100
AcDbEntity
  8
DEFPOINTS
 62
     0
 48
50.0
100
AcDbPoint
 10
6903.6
 20
8292.66740447229
 30
0.0
  0
ENDBLK
  5
2319B
330
2318F
100
AcDbEntity
  8
0
 48
50.0
100
AcDbBlockEnd
  0
BLOCK
  5
231B4
330
231A9
100
AcDbEntity
  8
0
 48
50.0
100
AcDbBlockBegin
  2
*D27
 70
     1
 10
0.0
 20
0.0
 30
0.0
  3
*D27
  1

  0
LINE
  5
23657
330
231A9
100
AcDbEntity
  8
寸法
 62
     0
 48
50.0
370
    -2
100
AcDbLine
 10
9543.600000000001
 20
7566.907777930206
 30
0.0
 11
9543.600000000001
 21
8352.66740447229
 31
0.0
  0
LINE
  5
23658
330
231A9
100
AcDbEntity
  8
寸法
 62
     0
 48
50.0
370
    -2
100
AcDbLine
 10
9420.6
 20
7493.907777930205
 30
0.0
 11
9420.6
 21
8352.66740447229
 31
0.0
  0
LINE
  5
23659
330
231A9
100
AcDbEntity
  8
寸法
 62
     0
 48
50.0
370
    -2
100
AcDbLine
 10
9420.6
 20
8292.66740447229
 30
0.0
 11
9543.600000000001
 21
8292.66740447229
 31
0.0
  0
LINE
  5
2365A
330
231A9
100
AcDbEntity
  8
寸法
 62
     0
 48
50.0
370
    -2
100
AcDbLine
 10
9543.600000000001
 20
8292.66740447229
 30
0.0
 11
9955.191883092037
 21
8292.66740447229
 31
0.0
  0
INSERT
  5
2365B
330
231A9
100
AcDbEntity
  8
寸法
 62
     0
 48
50.0
370
    -2
100
AcDbBlockReference
  2
_DOTSMALL
 10
9420.6
 20
8292.66740447229
 30
0.0
 41
100.0
 42
100.0
 43
100.0
 50
180.0
  0
INSERT
  5
2365C
330
231A9
100
AcDbEntity
  8
寸法
 62
     0
 48
50.0
370
    -2
100
AcDbBlockReference
  2
_DOTSMALL
 10
9543.600000000001
 20
8292.66740447229
 30
0.0
 41
100.0
 42
100.0
 43
100.0
  0
MTEXT
  5
2365D
330
231A9
100
AcDbEntity
  8
寸法
 62
     7
 48
50.0
100
AcDbMText
 10
9816.706601717799
 20
8392.679215495912
 30
0.0
 40
120.0
 41
0.0
 71
     5
 72
     1
  1
\A1;123
  7
STYLE1
 73
     1
 44
1.0
1001
ACAD
1000
MTEXTBEGIN
1070
    73
1070
     1
1070
    44
1040
1.0
1070
    74
1070
     0
1000
MTEXTEND
  0
POINT
  5
2365E
330
231A9
100
AcDbEntity
  8
DEFPOINTS
 62
     0
 48
50.0
100
AcDbPoint
 10
9543.600000000001
 20
7546.907777930205
 30
0.0
  0
POINT
  5
2365F
330
231A9
100
AcDbEntity
  8
DEFPOINTS
 62
     0
 48
50.0
100
AcDbPoint
 10
9420.6
 20
7473.907777930205
 30
0.0
  0
POINT
  5
23660
330
231A9
100
AcDbEntity
  8
DEFPOINTS
 62
     0
 48
50.0
100
AcDbPoint
 10
9420.6
 20
8292.66740447229
 30
0.0
  0
ENDBLK
  5
231B5
330
231A9
100
AcDbEntity
  8
0
 48
50.0
100
AcDbBlockEnd
  0
BLOCK
  5
231D9
330
231CF
100
AcDbEntity
  8
0
 48
50.0
100
AcDbBlockBegin
  2
*D28
 70
     1
 10
0.0
 20
0.0
 30
0.0
  3
*D28
  1

  0
LINE
  5
2363A
330
231CF
100
AcDbEntity
  8
寸法
 62
     0
 48
50.0
370
    -2
100
AcDbLine
 10
7356.6
 20
6071.907777930223
 30
0.0
 11
7356.6
 21
5402.748662820256
 31
0.0
  0
LINE
  5
2363B
330
231CF
100
AcDbEntity
  8
寸法
 62
     0
 48
50.0
370
    -2
100
AcDbLine
 10
6903.6
 20
6146.907777930206
 30
0.0
 11
6903.6
 21
5402.748662820256
 31
0.0
  0
LINE
  5
2363C
330
231CF
100
AcDbEntity
  8
寸法
 62
     0
 48
50.0
370
    -2
100
AcDbLine
 10
7356.6
 20
5462.748662820256
 30
0.0
 11
6903.6
 21
5462.748662820256
 31
0.0
  0
INSERT
  5
2363D
330
231CF
100
AcDbEntity
  8
寸法
 62
     0
 48
50.0
370
    -2
100
AcDbBlockReference
  2
_DOTSMALL
 10
7356.6
 20
5462.748662820256
 30
0.0
 41
100.0
 42
100.0
 43
100.0
  0
INSERT
  5
2363E
330
231CF
100
AcDbEntity
  8
寸法
 62
     0
 48
50.0
370
    -2
100
AcDbBlockReference
  2
_DOTSMALL
 10
6903.6
 20
5462.748662820256
 30
0.0
 41
100.0
 42
100.0
 43
100.0
 50
180.0
  0
MTEXT
  5
2363F
330
231CF
100
AcDbEntity
  8
寸法
 62
     7
 48
50.0
100
AcDbMText
 10
7130.1
 20
5562.748662820256
 30
0.0
 40
120.0
 41
0.0
 71
     5
 72
     1
  1
\A1;453
  7
STYLE1
 73
     1
 44
1.0
1001
ACAD
1000
MTEXTBEGIN
1070
    73
1070
     1
1070
    44
1040
1.0
1070
    74
1070
     0
1000
MTEXTEND
  0
POINT
  5
23640
330
231CF
100
AcDbEntity
  8
DEFPOINTS
 62
     0
 48
50.0
100
AcDbPoint
 10
7356.6
 20
6091.907777930224
 30
0.0
  0
POINT
  5
23641
330
231CF
100
AcDbEntity
  8
DEFPOINTS
 62
     0
 48
50.0
100
AcDbPoint
 10
6903.6
 20
6166.907777930205
 30
0.0
  0
POINT
  5
23642
330
231CF
100
AcDbEntity
  8
DEFPOINTS
 62
     0
 48
50.0
100
AcDbPoint
 10
6903.6
 20
5462.748662820256
 30
0.0
  0
ENDBLK
  5
231DA
330
231CF
100
AcDbEntity
  8
0
 48
50.0
100
AcDbBlockEnd
  0
BLOCK
  5
231E6
330
231DB
100
AcDbEntity
  8
0
 48
50.0
100
AcDbBlockBegin
  2
*D29
 70
     1
 10
0.0
 20
0.0
 30
0.0
  3
*D29
  1

  0
LINE
  5
24CE4
330
231DB
100
AcDbEntity
  8
寸法
 62
     0
 48
50.0
370
    -2
100
AcDbLine
 10
7153.6
 20
6286.907777930211
 30
0.0
 11
7301.399787227139
 21
6286.907777930211
 31
0.0
  0
LINE
  5
24CE5
330
231DB
100
AcDbEntity
  8
寸法
 62
     0
 48
50.0
370
    -2
100
AcDbLine
 10
7153.6
 20
6166.907777930207
 30
0.0
 11
7301.399787227139
 21
6166.907777930207
 31
0.0
  0
LINE
  5
24CE6
330
231DB
100
AcDbEntity
  8
寸法
 62
     0
 48
50.0
370
    -2
100
AcDbLine
 10
7241.399787227139
 20
6286.907777930211
 30
0.0
 11
7241.399787227139
 21
6166.907777930207
 31
0.0
  0
LINE
  5
24CE7
330
231DB
100
AcDbEntity
  8
寸法
 62
     0
 48
50.0
370
    -2
100
AcDbLine
 10
7241.399787227139
 20
6166.907777930207
 30
0.0
 11
7241.399787227138
 21
5752.77699056283
 31
0.0
  0
INSERT
  5
24CE8
330
231DB
100
AcDbEntity
  8
寸法
 62
     0
 48
50.0
370
    -2
100
AcDbBlockReference
  2
_DOTSMALL
 10
7241.399787227139
 20
6286.907777930211
 30
0.0
 41
100.0
 42
100.0
 43
100.0
 50
90.0
  0
INSERT
  5
24CE9
330
231DB
100
AcDbEntity
  8
寸法
 62
     0
 48
50.0
370
    -2
100
AcDbBlockReference
  2
_DOTSMALL
 10
7241.399787227139
 20
6166.907777930207
 30
0.0
 41
100.0
 42
100.0
 43
100.0
 50
270.0
  0
MTEXT
  5
24CEA
330
231DB
100
AcDbEntity
  8
寸法
 62
     7
 48
50.0
100
AcDbMText
 10
7141.387976203517
 20
5888.82423465732
 30
0.0
 40
120.0
 41
0.0
 71
     5
 72
     1
  1
\A1;120
  7
STYLE1
 11
0.0000000000000001
 21
1.0
 31
0.0
 73
     1
 44
1.0
1001
ACAD
1000
MTEXTBEGIN
1070
    73
1070
     1
1070
    44
1040
1.0
1070
    74
1070
     0
1000
MTEXTEND
  0
POINT
  5
24CEB
330
231DB
100
AcDbEntity
  8
DEFPOINTS
 62
     0
 48
50.0
100
AcDbPoint
 10
7133.6
 20
6286.907777930211
 30
0.0
  0
POINT
  5
24CEC
330
231DB
100
AcDbEntity
  8
DEFPOINTS
 62
     0
 48
50.0
100
AcDbPoint
 10
7133.6
 20
6166.907777930207
 30
0.0
  0
POINT
  5
24CED
330
231DB
100
AcDbEntity
  8
DEFPOINTS
 62
     0
 48
50.0
100
AcDbPoint
 10
7241.399787227139
 20
6166.907777930207
 30
0.0
  0
ENDBLK
  5
231E7
330
231DB
100
AcDbEntity
  8
0
 48
50.0
100
AcDbBlockEnd
  0
BLOCK
  5
231F3
330
231E8
100
AcDbEntity
  8
0
 48
50.0
100
AcDbBlockBegin
  2
*D30
 70
     1
 10
0.0
 20
0.0
 30
0.0
  3
*D30
  1

  0
LINE
  5
23626
330
231E8
100
AcDbEntity
  8
寸法
 62
     0
 48
50.0
370
    -2
100
AcDbLine
 10
6956.600000000007
 20
6289.907777930206
 30
0.0
 11
6113.685081831714
 21
6289.907777930208
 31
0.0
  0
LINE
  5
23627
330
231E8
100
AcDbEntity
  8
寸法
 62
     0
 48
50.0
370
    -2
100
AcDbLine
 10
6883.6
 20
6166.907777930205
 30
0.0
 11
6113.685081831714
 21
6166.907777930206
 31
0.0
  0
LINE
  5
23628
330
231E8
100
AcDbEntity
  8
寸法
 62
     0
 48
50.0
370
    -2
100
AcDbLine
 10
6173.685081831714
 20
6289.907777930206
 30
0.0
 11
6173.685081831714
 21
6166.907777930205
 31
0.0
  0
LINE
  5
23629
330
231E8
100
AcDbEntity
  8
寸法
 62
     0
 48
50.0
370
    -2
100
AcDbLine
 10
6173.685081831714
 20
6166.907777930205
 30
0.0
 11
6173.685081831713
 21
5732.891547713372
 31
0.0
  0
INSERT
  5
2362A
330
231E8
100
AcDbEntity
  8
寸法
 62
     0
 48
50.0
370
    -2
100
AcDbBlockReference
  2
_DOTSMALL
 10
6173.685081831714
 20
6289.907777930206
 30
0.0
 41
100.0
 42
100.0
 43
100.0
 50
90.0
  0
INSERT
  5
2362B
330
231E8
100
AcDbEntity
  8
寸法
 62
     0
 48
50.0
370
    -2
100
AcDbBlockReference
  2
_DOTSMALL
 10
6173.685081831714
 20
6166.907777930205
 30
0.0
 41
100.0
 42
100.0
 43
100.0
 50
270.0
  0
MTEXT
  5
2362C
330
231E8
100
AcDbEntity
  8
寸法
 62
     7
 48
50.0
100
AcDbMText
 10
6073.67327080809
 20
5871.376829087613
 30
0.0
 40
120.0
 41
0.0
 71
     5
 72
     1
  1
\A1;123
  7
STYLE1
 11
0.0000000000000001
 21
1.0
 31
0.0
 73
     1
 44
1.0
1001
ACAD
1000
MTEXTBEGIN
1070
    73
1070
     1
1070
    44
1040
1.0
1070
    74
1070
     0
1000
MTEXTEND
  0
POINT
  5
2362D
330
231E8
100
AcDbEntity
  8
DEFPOINTS
 62
     0
 48
50.0
100
AcDbPoint
 10
6976.600000000008
 20
6289.907777930206
 30
0.0
  0
POINT
  5
2362E
330
231E8
100
AcDbEntity
  8
DEFPOINTS
 62
     0
 48
50.0
100
AcDbPoint
 10
6903.6
 20
6166.907777930205
 30
0.0
  0
POINT
  5
2362F
330
231E8
100
AcDbEntity
  8
DEFPOINTS
 62
     0
 48
50.0
100
AcDbPoint
 10
6173.685081831714
 20
6166.907777930205
 30
0.0
  0
ENDBLK
  5
231F4
330
231E8
100
AcDbEntity
  8
0
 48
50.0
100
AcDbBlockEnd
  0
BLOCK
  5
231FF
330
231F5
100
AcDbEntity
  8
0
 48
50.0
100
AcDbBlockBegin
  2
*D31
 70
     1
 10
0.0
 20
0.0
 30
0.0
  3
*D31
  1

  0
LINE
  5
2361D
330
231F5
100
AcDbEntity
  8
寸法
 62
     0
 48
50.0
370
    -2
100
AcDbLine
 10
6956.6
 20
7423.907777930205
 30
0.0
 11
6113.685081831714
 21
7423.907777930207
 31
0.0
  0
LINE
  5
2361E
330
231F5
100
AcDbEntity
  8
寸法
 62
     0
 48
50.0
370
    -2
100
AcDbLine
 10
6956.600000000007
 20
6289.907777930206
 30
0.0
 11
6113.685081831714
 21
6289.907777930208
 31
0.0
  0
LINE
  5
2361F
330
231F5
100
AcDbEntity
  8
寸法
 62
     0
 48
50.0
370
    -2
100
AcDbLine
 10
6173.685081831714
 20
7423.907777930205
 30
0.0
 11
6173.685081831714
 21
6289.907777930206
 31
0.0
  0
INSERT
  5
23620
330
231F5
100
AcDbEntity
  8
寸法
 62
     0
 48
50.0
370
    -2
100
AcDbBlockReference
  2
_DOTSMALL
 10
6173.685081831714
 20
7423.907777930205
 30
0.0
 41
100.0
 42
100.0
 43
100.0
 50
90.0
  0
INSERT
  5
23621
330
231F5
100
AcDbEntity
  8
寸法
 62
     0
 48
50.0
370
    -2
100
AcDbBlockReference
  2
_DOTSMALL
 10
6173.685081831714
 20
6289.907777930206
 30
0.0
 41
100.0
 42
100.0
 43
100.0
 50
270.0
  0
MTEXT
  5
23622
330
231F5
100
AcDbEntity
  8
寸法
 62
     7
 48
50.0
100
AcDbMText
 10
6073.685081831712
 20
6856.907777930205
 30
0.0
 40
120.0
 41
0.0
 71
     5
 72
     1
  1
\A1;1134
  7
STYLE1
 11
0.0000000000000001
 21
1.0
 31
0.0
 73
     1
 44
1.0
1001
ACAD
1000
MTEXTBEGIN
1070
    73
1070
     1
1070
    44
1040
1.0
1070
    74
1070
     0
1000
MTEXTEND
  0
POINT
  5
23623
330
231F5
100
AcDbEntity
  8
DEFPOINTS
 62
     0
 48
50.0
100
AcDbPoint
 10
6976.600000000001
 20
7423.907777930205
 30
0.0
  0
POINT
  5
23624
330
231F5
100
AcDbEntity
  8
DEFPOINTS
 62
     0
 48
50.0
100
AcDbPoint
 10
6976.600000000008
 20
6289.907777930206
 30
0.0
  0
POINT
  5
23625
330
231F5
100
AcDbEntity
  8
DEFPOINTS
 62
     0
 48
50.0
100
AcDbPoint
 10
6173.685081831714
 20
6289.907777930206
 30
0.0
  0
ENDBLK
  5
23200
330
231F5
100
AcDbEntity
  8
0
 48
50.0
100
AcDbBlockEnd
  0
BLOCK
  5
2320C
330
23201
100
AcDbEntity
  8
0
 48
50.0
100
AcDbBlockBegin
  2
*D32
 70
     1
 10
0.0
 20
0.0
 30
0.0
  3
*D32
  1

  0
LINE
  5
23613
330
23201
100
AcDbEntity
  8
寸法
 62
     0
 48
50.0
370
    -2
100
AcDbLine
 10
6883.6
 20
7546.907777930205
 30
0.0
 11
6113.685081831714
 21
7546.907777930207
 31
0.0
  0
LINE
  5
23614
330
23201
100
AcDbEntity
  8
寸法
 62
     0
 48
50.0
370
    -2
100
AcDbLine
 10
6956.6
 20
7423.907777930205
 30
0.0
 11
6113.685081831714
 21
7423.907777930207
 31
0.0
  0
LINE
  5
23615
330
23201
100
AcDbEntity
  8
寸法
 62
     0
 48
50.0
370
    -2
100
AcDbLine
 10
6173.685081831713
 20
7423.907777930205
 30
0.0
 11
6173.685081831713
 21
7546.907777930205
 31
0.0
  0
LINE
  5
23616
330
23201
100
AcDbEntity
  8
寸法
 62
     0
 48
50.0
370
    -2
100
AcDbLine
 10
6173.685081831713
 20
7546.907777930205
 30
0.0
 11
6173.685081831713
 21
7998.499661022241
 31
0.0
  0
INSERT
  5
23617
330
23201
100
AcDbEntity
  8
寸法
 62
     0
 48
50.0
370
    -2
100
AcDbBlockReference
  2
_DOTSMALL
 10
6173.685081831713
 20
7423.907777930205
 30
0.0
 41
100.0
 42
100.0
 43
100.0
 50
270.0
  0
INSERT
  5
23618
330
23201
100
AcDbEntity
  8
寸法
 62
     0
 48
50.0
370
    -2
100
AcDbBlockReference
  2
_DOTSMALL
 10
6173.685081831713
 20
7546.907777930205
 30
0.0
 41
100.0
 42
100.0
 43
100.0
 50
90.0
  0
MTEXT
  5
23619
330
23201
100
AcDbEntity
  8
寸法
 62
     7
 48
50.0
100
AcDbMText
 10
6073.67327080809
 20
7860.014379648004
 30
0.0
 40
120.0
 41
0.0
 71
     5
 72
     1
  1
\A1;123
  7
STYLE1
 11
0.0000000000000001
 21
1.0
 31
0.0
 73
     1
 44
1.0
1001
ACAD
1000
MTEXTBEGIN
1070
    73
1070
     1
1070
    44
1040
1.0
1070
    74
1070
     0
1000
MTEXTEND
  0
POINT
  5
2361A
330
23201
100
AcDbEntity
  8
DEFPOINTS
 62
     0
 48
50.0
100
AcDbPoint
 10
6903.6
 20
7546.907777930205
 30
0.0
  0
POINT
  5
2361B
330
23201
100
AcDbEntity
  8
DEFPOINTS
 62
     0
 48
50.0
100
AcDbPoint
 10
6976.600000000001
 20
7423.907777930205
 30
0.0
  0
POINT
  5
2361C
330
23201
100
AcDbEntity
  8
DEFPOINTS
 62
     0
 48
50.0
100
AcDbPoint
 10
6173.685081831713
 20
7423.907777930205
 30
0.0
  0
ENDBLK
  5
2320D
330
23201
100
AcDbEntity
  8
0
 48
50.0
100
AcDbBlockEnd
  0
BLOCK
  5
23217
330
2320E
100
AcDbEntity
  8
0
 48
50.0
100
AcDbBlockBegin
  2
*D33
 70
     1
 10
0.0
 20
0.0
 30
0.0
  3
*D33
  1

  0
LINE
  5
2360A
330
2320E
100
AcDbEntity
  8
寸法
 62
     0
 48
50.0
370
    -2
100
AcDbLine
 10
6883.6
 20
6166.907777930205
 30
0.0
 11
5861.741985112316
 21
6166.907777930206
 31
0.0
  0
LINE
  5
2360B
330
2320E
100
AcDbEntity
  8
寸法
 62
     0
 48
50.0
370
    -2
100
AcDbLine
 10
6883.6
 20
7546.907777930205
 30
0.0
 11
5861.741985112316
 21
7546.907777930207
 31
0.0
  0
LINE
  5
2360C
330
2320E
100
AcDbEntity
  8
寸法
 62
     0
 48
50.0
370
    -2
100
AcDbLine
 10
5921.741985112316
 20
6166.907777930206
 30
0.0
 11
5921.741985112316
 21
7546.907777930207
 31
0.0
  0
INSERT
  5
2360D
330
2320E
100
AcDbEntity
  8
寸法
 62
     0
 48
50.0
370
    -2
100
AcDbBlockReference
  2
_DOTSMALL
 10
5921.741985112316
 20
6166.907777930206
 30
0.0
 41
100.0
 42
100.0
 43
100.0
 50
270.0
  0
INSERT
  5
2360E
330
2320E
100
AcDbEntity
  8
寸法
 62
     0
 48
50.0
370
    -2
100
AcDbBlockReference
  2
_DOTSMALL
 10
5921.741985112316
 20
7546.907777930207
 30
0.0
 41
100.0
 42
100.0
 43
100.0
 50
90.0
  0
MTEXT
  5
2360F
330
2320E
100
AcDbEntity
  8
寸法
 62
     7
 48
50.0
100
AcDbMText
 10
5821.741985112314
 20
6856.907777930205
 30
0.0
 40
120.0
 41
0.0
 71
     5
 72
     1
  1
\A1;1380
  7
STYLE1
 11
0.0000000000000001
 21
1.0
 31
0.0
 73
     1
 44
1.0
1001
ACAD
1000
MTEXTBEGIN
1070
    73
1070
     1
1070
    44
1040
1.0
1070
    74
1070
     0
1000
MTEXTEND
  0
POINT
  5
23610
330
2320E
100
AcDbEntity
  8
DEFPOINTS
 62
     0
 48
50.0
100
AcDbPoint
 10
6903.6
 20
6166.907777930205
 30
0.0
  0
POINT
  5
23611
330
2320E
100
AcDbEntity
  8
DEFPOINTS
 62
     0
 48
50.0
100
AcDbPoint
 10
6903.6
 20
7546.907777930205
 30
0.0
  0
POINT
  5
23612
330
2320E
100
AcDbEntity
  8
DEFPOINTS
 62
     0
 48
50.0
100
AcDbPoint
 10
5921.741985112316
 20
7546.907777930207
 30
0.0
  0
ENDBLK
  5
23218
330
2320E
100
AcDbEntity
  8
0
 48
50.0
100
AcDbBlockEnd
  0
BLOCK
  5
23239
330
2322F
100
AcDbEntity
  8
0
 48
50.0
100
AcDbBlockBegin
  2
*D34
 70
     1
 10
0.0
 20
0.0
 30
0.0
  3
*D34
  1

  0
LINE
  5
235ED
330
2322F
100
AcDbEntity
  8
寸法
 62
     0
 48
50.0
370
    -2
100
AcDbLine
 10
7688.600000000002
 20
6856.907777930205
 30
0.0
 11
6322.573365309615
 21
6856.907777930205
 31
0.0
  0
LINE
  5
235EE
330
2322F
100
AcDbEntity
  8
寸法
 62
     0
 48
50.0
370
    -2
100
AcDbLine
 10
6883.6
 20
7546.907777930205
 30
0.0
 11
6322.573365309615
 21
7546.907777930205
 31
0.0
  0
LINE
  5
235EF
330
2322F
100
AcDbEntity
  8
寸法
 62
     0
 48
50.0
370
    -2
100
AcDbLine
 10
6382.573365309616
 20
6856.907777930205
 30
0.0
 11
6382.573365309616
 21
7546.907777930205
 31
0.0
  0
INSERT
  5
235F0
330
2322F
100
AcDbEntity
  8
寸法
 62
     0
 48
50.0
370
    -2
100
AcDbBlockReference
  2
_DOTSMALL
 10
6382.573365309616
 20
6856.907777930205
 30
0.0
 41
100.0
 42
100.0
 43
100.0
 50
270.0
  0
INSERT
  5
235F1
330
2322F
100
AcDbEntity
  8
寸法
 62
     0
 48
50.0
370
    -2
100
AcDbBlockReference
  2
_DOTSMALL
 10
6382.573365309616
 20
7546.907777930205
 30
0.0
 41
100.0
 42
100.0
 43
100.0
 50
90.0
  0
MTEXT
  5
235F2
330
2322F
100
AcDbEntity
  8
寸法
 62
     7
 48
50.0
100
AcDbMText
 10
6282.573365309614
 20
7201.907777930205
 30
0.0
 40
120.0
 41
0.0
 71
     5
 72
     1
  1
\A1;690
  7
STYLE1
 11
0.0000000000000001
 21
1.0
 31
0.0
 73
     1
 44
1.0
1001
ACAD
1000
MTEXTBEGIN
1070
    73
1070
     1
1070
    44
1040
1.0
1070
    74
1070
     0
1000
MTEXTEND
  0
POINT
  5
235F3
330
2322F
100
AcDbEntity
  8
DEFPOINTS
 62
     0
 48
50.0
100
AcDbPoint
 10
7708.600000000003
 20
6856.907777930205
 30
0.0
  0
POINT
  5
235F4
330
2322F
100
AcDbEntity
  8
DEFPOINTS
 62
     0
 48
50.0
100
AcDbPoint
 10
6903.6
 20
7546.907777930205
 30
0.0
  0
POINT
  5
235F5
330
2322F
100
AcDbEntity
  8
DEFPOINTS
 62
     0
 48
50.0
100
AcDbPoint
 10
6382.573365309616
 20
7546.907777930205
 30
0.0
  0
ENDBLK
  5
2323A
330
2322F
100
AcDbEntity
  8
0
 48
50.0
100
AcDbBlockEnd
  0
BLOCK
  5
23253
330
23248
100
AcDbEntity
  8
0
 48
50.0
100
AcDbBlockBegin
  2
*D35
 70
     1
 10
0.0
 20
0.0
 30
0.0
  3
*D35
  1

  0
LINE
  5
24CDA
330
23248
100
AcDbEntity
  8
寸法
 62
     0
 48
50.0
370
    -2
100
AcDbLine
 10
7153.6
 20
6286.907777930209
 30
0.0
 11
7301.399787227139
 21
6286.907777930209
 31
0.0
  0
LINE
  5
24CDB
330
23248
100
AcDbEntity
  8
寸法
 62
     0
 48
50.0
370
    -2
100
AcDbLine
 10
7153.6
 20
6396.907777930209
 30
0.0
 11
7301.399787227139
 21
6396.907777930209
 31
0.0
  0
LINE
  5
24CDC
330
23248
100
AcDbEntity
  8
寸法
 62
     0
 48
50.0
370
    -2
100
AcDbLine
 10
7241.399787227139
 20
6286.907777930209
 30
0.0
 11
7241.399787227139
 21
6396.907777930209
 31
0.0
  0
LINE
  5
24CDD
330
23248
100
AcDbEntity
  8
寸法
 62
     0
 48
50.0
370
    -2
100
AcDbLine
 10
7241.399787227139
 20
6396.907777930209
 30
0.0
 11
7241.399787227139
 21
6791.014077142808
 31
0.0
  0
INSERT
  5
24CDE
330
23248
100
AcDbEntity
  8
寸法
 62
     0
 48
50.0
370
    -2
100
AcDbBlockReference
  2
_DOTSMALL
 10
7241.399787227139
 20
6286.907777930209
 30
0.0
 41
100.0
 42
100.0
 43
100.0
 50
270.0
  0
INSERT
  5
24CDF
330
23248
100
AcDbEntity
  8
寸法
 62
     0
 48
50.0
370
    -2
100
AcDbBlockReference
  2
_DOTSMALL
 10
7241.399787227139
 20
6396.907777930209
 30
0.0
 41
100.0
 42
100.0
 43
100.0
 50
90.0
  0
MTEXT
  5
24CE0
330
23248
100
AcDbEntity
  8
寸法
 62
     7
 48
50.0
100
AcDbMText
 10
7141.399787227138
 20
6666.96683304832
 30
0.0
 40
120.0
 41
0.0
 71
     5
 72
     1
  1
\A1;110
  7
STYLE1
 11
0.0000000000000001
 21
1.0
 31
0.0
 73
     1
 44
1.0
1001
ACAD
1000
MTEXTBEGIN
1070
    73
1070
     1
1070
    44
1040
1.0
1070
    74
1070
     0
1000
MTEXTEND
  0
POINT
  5
24CE1
330
23248
100
AcDbEntity
  8
DEFPOINTS
 62
     0
 48
50.0
100
AcDbPoint
 10
7133.6
 20
6286.907777930209
 30
0.0
  0
POINT
  5
24CE2
330
23248
100
AcDbEntity
  8
DEFPOINTS
 62
     0
 48
50.0
100
AcDbPoint
 10
7133.6
 20
6396.907777930209
 30
0.0
  0
POINT
  5
24CE3
330
23248
100
AcDbEntity
  8
DEFPOINTS
 62
     0
 48
50.0
100
AcDbPoint
 10
7241.399787227139
 20
6396.907777930209
 30
0.0
  0
ENDBLK
  5
23254
330
23248
100
AcDbEntity
  8
0
 48
50.0
100
AcDbBlockEnd
  0
BLOCK
  5
2325F
330
23255
100
AcDbEntity
  8
0
 48
50.0
100
AcDbBlockBegin
  2
*D36
 70
     1
 10
0.0
 20
0.0
 30
0.0
  3
*D36
  1

  0
LINE
  5
235DA
330
23255
100
AcDbEntity
  8
寸法
 62
     0
 48
50.0
370
    -2
100
AcDbLine
 10
6883.6
 20
6166.907777930214
 30
0.0
 11
6322.573365309614
 21
6166.907777930214
 31
0.0
  0
LINE
  5
235DB
330
23255
100
AcDbEntity
  8
寸法
 62
     0
 48
50.0
370
    -2
100
AcDbLine
 10
7688.600000000002
 20
6856.907777930205
 30
0.0
 11
6322.573365309614
 21
6856.907777930205
 31
0.0
  0
LINE
  5
235DC
330
23255
100
AcDbEntity
  8
寸法
 62
     0
 48
50.0
370
    -2
100
AcDbLine
 10
6382.573365309614
 20
6166.907777930214
 30
0.0
 11
6382.573365309614
 21
6856.907777930205
 31
0.0
  0
INSERT
  5
235DD
330
23255
100
AcDbEntity
  8
寸法
 62
     0
 48
50.0
370
    -2
100
AcDbBlockReference
  2
_DOTSMALL
 10
6382.573365309614
 20
6166.907777930214
 30
0.0
 41
100.0
 42
100.0
 43
100.0
 50
270.0
  0
INSERT
  5
235DE
330
23255
100
AcDbEntity
  8
寸法
 62
     0
 48
50.0
370
    -2
100
AcDbBlockReference
  2
_DOTSMALL
 10
6382.573365309614
 20
6856.907777930205
 30
0.0
 41
100.0
 42
100.0
 43
100.0
 50
90.0
  0
MTEXT
  5
235DF
330
23255
100
AcDbEntity
  8
寸法
 62
     7
 48
50.0
100
AcDbMText
 10
6282.573365309612
 20
6508.672654918164
 30
0.0
 40
120.0
 41
0.0
 71
     5
 72
     1
  1
\A1;690
  7
STYLE1
 11
0.0000000000000001
 21
1.0
 31
0.0
 73
     1
 44
1.0
1001
ACAD
1000
MTEXTBEGIN
1070
    73
1070
     1
1070
    44
1040
1.0
1070
    74
1070
     0
1000
MTEXTEND
  0
POINT
  5
235E0
330
23255
100
AcDbEntity
  8
DEFPOINTS
 62
     0
 48
50.0
100
AcDbPoint
 10
6903.6
 20
6166.907777930214
 30
0.0
  0
POINT
  5
235E1
330
23255
100
AcDbEntity
  8
DEFPOINTS
 62
     0
 48
50.0
100
AcDbPoint
 10
7708.600000000003
 20
6856.907777930205
 30
0.0
  0
POINT
  5
235E2
330
23255
100
AcDbEntity
  8
DEFPOINTS
 62
     0
 48
50.0
100
AcDbPoint
 10
6382.573365309614
 20
6856.907777930205
 30
0.0
  0
ENDBLK
  5
23260
330
23255
100
AcDbEntity
  8
0
 48
50.0
100
AcDbBlockEnd
  0
BLOCK
  5
23576
330
2356A
100
AcDbEntity
  8
0
 48
50.0
100
AcDbBlockBegin
  2
*D37
 70
     1
 10
0.0
 20
0.0
 30
0.0
  3
*D37
  1

  0
LINE
  5
23F9D
330
2356A
100
AcDbEntity
  8
寸法
 62
     0
 48
50.0
370
    -2
100
AcDbLine
 10
7336.6
 20
6091.907777930207
 30
0.0
 11
6547.363161110138
 21
6091.907777930207
 31
0.0
  0
LINE
  5
23F9E
330
2356A
100
AcDbEntity
  8
寸法
 62
     0
 48
50.0
370
    -2
100
AcDbLine
 10
6883.6
 20
6166.907777930227
 30
0.0
 11
6547.36316111014
 21
6166.907777930227
 31
0.0
  0
LINE
  5
23F9F
330
2356A
100
AcDbEntity
  8
寸法
 62
     0
 48
50.0
370
    -2
100
AcDbLine
 10
6607.363161110139
 20
6166.907777930227
 30
0.0
 11
6607.363161110139
 21
6266.907777930227
 31
0.0
  0
LINE
  5
23FA0
330
2356A
100
AcDbEntity
  8
寸法
 62
     0
 48
50.0
370
    -2
100
AcDbLine
 10
6607.363161110137
 20
6091.907777930207
 30
0.0
 11
6607.363161110137
 21
5224.937215181729
 31
0.0
  0
LINE
  5
23FA1
330
2356A
100
AcDbEntity
  8
寸法
 62
     0
 48
50.0
370
    -2
100
AcDbLine
 10
6607.363161110139
 20
6166.907777930227
 30
0.0
 11
6607.363161110137
 21
6091.907777930207
 31
0.0
  0
INSERT
  5
23FA2
330
2356A
100
AcDbEntity
  8
寸法
 62
     0
 48
50.0
370
    -2
100
AcDbBlockReference
  2
_DOTSMALL
 10
6607.363161110139
 20
6166.907777930227
 30
0.0
 41
100.0
 42
100.0
 43
100.0
 50
270.0
  0
INSERT
  5
23FA3
330
2356A
100
AcDbEntity
  8
寸法
 62
     0
 48
50.0
370
    -2
100
AcDbBlockReference
  2
_DOTSMALL
 10
6607.363161110137
 20
6091.907777930207
 30
0.0
 41
100.0
 42
100.0
 43
100.0
 50
90.0
  0
MTEXT
  5
23FA4
330
2356A
100
AcDbEntity
  8
寸法
 62
     7
 48
50.0
100
AcDbMText
 10
6507.363161110138
 20
5558.422496555969
 30
0.0
 40
120.0
 41
0.0
 71
     5
 72
     1
  1
\A1;扉の出75
  7
STYLE1
 11
0.0000000000000001
 21
1.0
 31
0.0
 73
     1
 44
1.0
1001
ACAD
1000
MTEXTBEGIN
1070
    73
1070
     1
1070
    44
1040
1.0
1070
    74
1070
     0
1000
MTEXTEND
  0
POINT
  5
23FA5
330
2356A
100
AcDbEntity
  8
DEFPOINTS
 62
     0
 48
50.0
100
AcDbPoint
 10
7356.6
 20
6091.907777930207
 30
0.0
  0
POINT
  5
23FA6
330
2356A
100
AcDbEntity
  8
DEFPOINTS
 62
     0
 48
50.0
100
AcDbPoint
 10
6903.6
 20
6166.907777930227
 30
0.0
  0
POINT
  5
23FA7
330
2356A
100
AcDbEntity
  8
DEFPOINTS
 62
     0
 48
50.0
100
AcDbPoint
 10
6607.363161110139
 20
6166.907777930227
 30
0.0
  0
ENDBLK
  5
23577
330
2356A
100
AcDbEntity
  8
0
 48
50.0
100
AcDbBlockEnd
  0
BLOCK
  5
23D3B
330
23D30
100
AcDbEntity
  8
0
 48
50.0
100
AcDbBlockBegin
  2
*D38
 70
     1
 10
0.0
 20
0.0
 30
0.0
  3
*D38
  1

  0
LINE
  5
253A7
330
23D30
100
AcDbEntity
  8
寸法
 62
     0
 48
50.0
370
    -2
100
AcDbLine
 10
7376.6
 20
6091.907777930224
 30
0.0
 11
7685.743526793912
 21
6091.907777930224
 31
0.0
  0
LINE
  5
253A8
330
23D30
100
AcDbEntity
  8
寸法
 62
     0
 48
50.0
370
    -2
100
AcDbLine
 10
7376.6
 20
6286.90777793021
 30
0.0
 11
7685.743526793912
 21
6286.90777793021
 31
0.0
  0
LINE
  5
253A9
330
23D30
100
AcDbEntity
  8
寸法
 62
     0
 48
50.0
370
    -2
100
AcDbLine
 10
7625.743526793913
 20
6286.90777793021
 30
0.0
 11
7625.743526793911
 21
6091.907777930224
 31
0.0
  0
LINE
  5
253AA
330
23D30
100
AcDbEntity
  8
寸法
 62
     0
 48
50.0
370
    -2
100
AcDbLine
 10
7625.743526793911
 20
6091.907777930224
 30
0.0
 11
7625.743526793911
 21
5714.517895522433
 31
0.0
  0
INSERT
  5
253AB
330
23D30
100
AcDbEntity
  8
寸法
 62
     0
 48
50.0
370
    -2
100
AcDbBlockReference
  2
_DOTSMALL
 10
7625.743526793913
 20
6286.90777793021
 30
0.0
 41
100.0
 42
100.0
 43
100.0
 50
90.0
  0
INSERT
  5
253AC
330
23D30
100
AcDbEntity
  8
寸法
 62
     0
 48
50.0
370
    -2
100
AcDbBlockReference
  2
_DOTSMALL
 10
7625.743526793911
 20
6091.907777930224
 30
0.0
 41
100.0
 42
100.0
 43
100.0
 50
270.0
  0
MTEXT
  5
253AD
330
23D30
100
AcDbEntity
  8
寸法
 62
     7
 48
50.0
100
AcDbMText
 10
7525.743526793911
 20
5853.21283672633
 30
0.0
 40
120.0
 41
0.0
 71
     5
 72
     1
  1
\A1;195
  7
STYLE1
 11
0.0000000000000001
 21
1.0
 31
0.0
 73
     1
 44
1.0
1001
ACAD
1000
MTEXTBEGIN
1070
    73
1070
     1
1070
    44
1040
1.0
1070
    74
1070
     0
1000
MTEXTEND
  0
POINT
  5
253AE
330
23D30
100
AcDbEntity
  8
DEFPOINTS
 62
     0
 48
50.0
100
AcDbPoint
 10
7356.6
 20
6091.907777930224
 30
0.0
  0
POINT
  5
253AF
330
23D30
100
AcDbEntity
  8
DEFPOINTS
 62
     0
 48
50.0
100
AcDbPoint
 10
7356.6
 20
6286.90777793021
 30
0.0
  0
POINT
  5
253B0
330
23D30
100
AcDbEntity
  8
DEFPOINTS
 62
     0
 48
50.0
100
AcDbPoint
 10
7625.743526793913
 20
6286.90777793021
 30
0.0
  0
ENDBLK
  5
23D3C
330
23D30
100
AcDbEntity
  8
0
 48
50.0
100
AcDbBlockEnd
  0
BLOCK
  5
23D54
330
23D4A
100
AcDbEntity
  8
0
 48
50.0
100
AcDbBlockBegin
  2
*D39
 70
     1
 10
0.0
 20
0.0
 30
0.0
  3
*D39
  1

  0
LINE
  5
23F4A
330
23D4A
100
AcDbEntity
  8
寸法
 62
     0
 48
50.0
370
    -2
100
AcDbLine
 10
9543.600000000001
 20
6071.907777930227
 30
0.0
 11
9543.600000000001
 21
5402.748662820256
 31
0.0
  0
LINE
  5
23F4B
330
23D4A
100
AcDbEntity
  8
寸法
 62
     0
 48
50.0
370
    -2
100
AcDbLine
 10
7356.6
 20
6071.907777930223
 30
0.0
 11
7356.6
 21
5402.748662820256
 31
0.0
  0
LINE
  5
23F4C
330
23D4A
100
AcDbEntity
  8
寸法
 62
     0
 48
50.0
370
    -2
100
AcDbLine
 10
9543.600000000001
 20
5462.748662820256
 30
0.0
 11
7356.6
 21
5462.748662820256
 31
0.0
  0
INSERT
  5
23F4D
330
23D4A
100
AcDbEntity
  8
寸法
 62
     0
 48
50.0
370
    -2
100
AcDbBlockReference
  2
_DOTSMALL
 10
9543.600000000001
 20
5462.748662820256
 30
0.0
 41
100.0
 42
100.0
 43
100.0
  0
INSERT
  5
23F4E
330
23D4A
100
AcDbEntity
  8
寸法
 62
     0
 48
50.0
370
    -2
100
AcDbBlockReference
  2
_DOTSMALL
 10
7356.6
 20
5462.748662820256
 30
0.0
 41
100.0
 42
100.0
 43
100.0
 50
180.0
  0
MTEXT
  5
23F4F
330
23D4A
100
AcDbEntity
  8
寸法
 62
     7
 48
50.0
100
AcDbMText
 10
8450.1
 20
5562.760473843877
 30
0.0
 40
120.0
 41
0.0
 71
     5
 72
     1
  1
\A1;扉の幅 2187
  7
STYLE1
 73
     1
 44
1.0
1001
ACAD
1000
MTEXTBEGIN
1070
    73
1070
     1
1070
    44
1040
1.0
1070
    74
1070
     0
1000
MTEXTEND
  0
POINT
  5
23F50
330
23D4A
100
AcDbEntity
  8
DEFPOINTS
 62
     0
 48
50.0
100
AcDbPoint
 10
9543.600000000001
 20
6091.907777930227
 30
0.0
  0
POINT
  5
23F51
330
23D4A
100
AcDbEntity
  8
DEFPOINTS
 62
     0
 48
50.0
100
AcDbPoint
 10
7356.6
 20
6091.907777930224
 30
0.0
  0
POINT
  5
23F52
330
23D4A
100
AcDbEntity
  8
DEFPOINTS
 62
     0
 48
50.0
100
AcDbPoint
 10
7356.6
 20
5462.748662820256
 30
0.0
  0
ENDBLK
  5
23D55
330
23D4A
100
AcDbEntity
  8
0
 48
50.0
100
AcDbBlockEnd
  0
BLOCK
  5
246CE
330
246C2
100
AcDbEntity
  8
0
 48
50.0
100
AcDbBlockBegin
  2
*D40
 70
     1
 10
0.0
 20
0.0
 30
0.0
  3
*D40
  1

  0
LINE
  5
248E1
330
246C2
100
AcDbEntity
  8
寸法
 62
     0
 48
50.0
370
    -2
100
AcDbLine
 10
6153.685081831714
 20
6121.295673787297
 30
0.0
 11
5861.741985112316
 21
6121.295673787298
 31
0.0
  0
LINE
  5
248E2
330
246C2
100
AcDbEntity
  8
寸法
 62
     0
 48
50.0
370
    -2
100
AcDbLine
 10
6883.6
 20
6166.907777930227
 30
0.0
 11
5861.741985112317
 21
6166.907777930227
 31
0.0
  0
LINE
  5
248E3
330
246C2
100
AcDbEntity
  8
寸法
 62
     0
 48
50.0
370
    -2
100
AcDbLine
 10
5921.741985112316
 20
6166.907777930227
 30
0.0
 11
5921.741985112316
 21
6266.907777930228
 31
0.0
  0
LINE
  5
248E4
330
246C2
100
AcDbEntity
  8
寸法
 62
     0
 48
50.0
370
    -2
100
AcDbLine
 10
5921.741985112316
 20
6121.295673787298
 30
0.0
 11
5921.741985112316
 21
5788.946431382379
 31
0.0
  0
LINE
  5
248E5
330
246C2
100
AcDbEntity
  8
寸法
 62
     0
 48
50.0
370
    -2
100
AcDbLine
 10
5921.741985112316
 20
6166.907777930227
 30
0.0
 11
5921.741985112316
 21
6121.295673787298
 31
0.0
  0
INSERT
  5
248E6
330
246C2
100
AcDbEntity
  8
寸法
 62
     0
 48
50.0
370
    -2
100
AcDbBlockReference
  2
_DOTSMALL
 10
5921.741985112316
 20
6166.907777930227
 30
0.0
 41
100.0
 42
100.0
 43
100.0
 50
270.0
  0
INSERT
  5
248E7
330
246C2
100
AcDbEntity
  8
寸法
 62
     0
 48
50.0
370
    -2
100
AcDbBlockReference
  2
_DOTSMALL
 10
5921.741985112316
 20
6121.295673787298
 30
0.0
 41
100.0
 42
100.0
 43
100.0
 50
90.0
  0
MTEXT
  5
248E8
330
246C2
100
AcDbEntity
  8
寸法
 62
     7
 48
50.0
100
AcDbMText
 10
5821.741985112315
 20
5855.121052584838
 30
0.0
 40
120.0
 41
0.0
 71
     5
 72
     1
  1
\A1;a
  7
STYLE1
 11
0.0000000000000001
 21
1.0
 31
0.0
 73
     1
 44
1.0
1001
ACAD
1000
MTEXTBEGIN
1070
    73
1070
     1
1070
    44
1040
1.0
1070
    74
1070
     0
1000
MTEXTEND
  0
POINT
  5
248E9
330
246C2
100
AcDbEntity
  8
DEFPOINTS
 62
     0
 48
50.0
100
AcDbPoint
 10
6173.685081831714
 20
6121.295673787297
 30
0.0
  0
POINT
  5
248EA
330
246C2
100
AcDbEntity
  8
DEFPOINTS
 62
     0
 48
50.0
100
AcDbPoint
 10
6903.6
 20
6166.907777930227
 30
0.0
  0
POINT
  5
248EB
330
246C2
100
AcDbEntity
  8
DEFPOINTS
 62
     0
 48
50.0
100
AcDbPoint
 10
5921.741985112316
 20
6166.907777930227
 30
0.0
  0
ENDBLK
  5
246CF
330
246C2
100
AcDbEntity
  8
0
 48
50.0
100
AcDbBlockEnd
  0
BLOCK
  5
246DC
330
246D0
100
AcDbEntity
  8
0
 48
50.0
100
AcDbBlockBegin
  2
*D41
 70
     1
 10
0.0
 20
0.0
 30
0.0
  3
*D41
  1

  0
LINE
  5
2489F
330
246D0
100
AcDbEntity
  8
寸法
 62
     0
 48
50.0
370
    -2
100
AcDbLine
 10
6903.6
 20
7566.907777930206
 30
0.0
 11
6903.6
 21
8565.128099989124
 31
0.0
  0
LINE
  5
248A0
330
246D0
100
AcDbEntity
  8
寸法
 62
     0
 48
50.0
370
    -2
100
AcDbLine
 10
6848.600000000011
 20
8312.667404472287
 30
0.0
 11
6848.600000000011
 21
8565.128099989124
 31
0.0
  0
LINE
  5
248A1
330
246D0
100
AcDbEntity
  8
寸法
 62
     0
 48
50.0
370
    -2
100
AcDbLine
 10
6903.6
 20
8505.128099989125
 30
0.0
 11
7003.6
 21
8505.128099989125
 31
0.0
  0
LINE
  5
248A2
330
246D0
100
AcDbEntity
  8
寸法
 62
     0
 48
50.0
370
    -2
100
AcDbLine
 10
6848.600000000011
 20
8505.128099989125
 30
0.0
 11
6748.600000000012
 21
8505.128099989125
 31
0.0
  0
LINE
  5
248A3
330
246D0
100
AcDbEntity
  8
寸法
 62
     0
 48
50.0
370
    -2
100
AcDbLine
 10
6903.6
 20
8505.128099989125
 30
0.0
 11
6848.600000000011
 21
8505.128099989125
 31
0.0
  0
INSERT
  5
248A4
330
246D0
100
AcDbEntity
  8
寸法
 62
     0
 48
50.0
370
    -2
100
AcDbBlockReference
  2
_DOTSMALL
 10
6903.6
 20
8505.128099989125
 30
0.0
 41
100.0
 42
100.0
 43
100.0
 50
180.0
  0
INSERT
  5
248A5
330
246D0
100
AcDbEntity
  8
寸法
 62
     0
 48
50.0
370
    -2
100
AcDbBlockReference
  2
_DOTSMALL
 10
6848.600000000011
 20
8505.128099989125
 30
0.0
 41
100.0
 42
100.0
 43
100.0
  0
MTEXT
  5
248A6
330
246D0
100
AcDbEntity
  8
寸法
 62
     7
 48
50.0
100
AcDbMText
 10
6876.100000000007
 20
8605.128099989125
 30
0.0
 40
120.0
 41
0.0
 71
     5
 72
     1
  1
\A1;b
  7
STYLE1
 73
     1
 44
1.0
1001
ACAD
1000
MTEXTBEGIN
1070
    73
1070
     1
1070
    44
1040
1.0
1070
    74
1070
     0
1000
MTEXTEND
  0
POINT
  5
248A7
330
246D0
100
AcDbEntity
  8
DEFPOINTS
 62
     0
 48
50.0
100
AcDbPoint
 10
6903.6
 20
7546.907777930205
 30
0.0
  0
POINT
  5
248A8
330
246D0
100
AcDbEntity
  8
DEFPOINTS
 62
     0
 48
50.0
100
AcDbPoint
 10
6848.600000000011
 20
8292.667404472288
 30
0.0
  0
POINT
  5
248A9
330
246D0
100
AcDbEntity
  8
DEFPOINTS
 62
     0
 48
50.0
100
AcDbPoint
 10
6848.600000000011
 20
8505.128099989125
 30
0.0
  0
ENDBLK
  5
246DD
330
246D0
100
AcDbEntity
  8
0
 48
50.0
100
AcDbBlockEnd
  0
BLOCK
  5
246EA
330
246DE
100
AcDbEntity
  8
0
 48
50.0
100
AcDbBlockBegin
  2
*D42
 70
     1
 10
0.0
 20
0.0
 30
0.0
  3
*D42
  1

  0
LINE
  5
24889
330
246DE
100
AcDbEntity
  8
寸法
 62
     0
 48
50.0
370
    -2
100
AcDbLine
 10
9618.600000000002
 20
8312.667404472287
 30
0.0
 11
9618.600000000002
 21
8565.128099989124
 31
0.0
  0
LINE
  5
2488A
330
246DE
100
AcDbEntity
  8
寸法
 62
     0
 48
50.0
370
    -2
100
AcDbLine
 10
9543.600000000001
 20
7566.907777930206
 30
0.0
 11
9543.600000000001
 21
8565.128099989124
 31
0.0
  0
LINE
  5
2488B
330
246DE
100
AcDbEntity
  8
寸法
 62
     0
 48
50.0
370
    -2
100
AcDbLine
 10
9618.600000000002
 20
8505.128099989125
 30
0.0
 11
9718.600000000002
 21
8505.128099989125
 31
0.0
  0
LINE
  5
2488C
330
246DE
100
AcDbEntity
  8
寸法
 62
     0
 48
50.0
370
    -2
100
AcDbLine
 10
9543.600000000001
 20
8505.128099989125
 30
0.0
 11
9443.600000000001
 21
8505.128099989125
 31
0.0
  0
LINE
  5
2488D
330
246DE
100
AcDbEntity
  8
寸法
 62
     0
 48
50.0
370
    -2
100
AcDbLine
 10
9618.600000000002
 20
8505.128099989125
 30
0.0
 11
9543.600000000001
 21
8505.128099989125
 31
0.0
  0
INSERT
  5
2488E
330
246DE
100
AcDbEntity
  8
寸法
 62
     0
 48
50.0
370
    -2
100
AcDbBlockReference
  2
_DOTSMALL
 10
9618.600000000002
 20
8505.128099989125
 30
0.0
 41
100.0
 42
100.0
 43
100.0
 50
180.0
  0
INSERT
  5
2488F
330
246DE
100
AcDbEntity
  8
寸法
 62
     0
 48
50.0
370
    -2
100
AcDbBlockReference
  2
_DOTSMALL
 10
9543.600000000001
 20
8505.128099989125
 30
0.0
 41
100.0
 42
100.0
 43
100.0
  0
MTEXT
  5
24890
330
246DE
100
AcDbEntity
  8
寸法
 62
     7
 48
50.0
100
AcDbMText
 10
9581.100000000002
 20
8605.128099989125
 30
0.0
 40
120.0
 41
0.0
 71
     5
 72
     1
  1
\A1;c
  7
STYLE1
 73
     1
 44
1.0
1001
ACAD
1000
MTEXTBEGIN
1070
    73
1070
     1
1070
    44
1040
1.0
1070
    74
1070
     0
1000
MTEXTEND
  0
POINT
  5
24891
330
246DE
100
AcDbEntity
  8
DEFPOINTS
 62
     0
 48
50.0
100
AcDbPoint
 10
9618.600000000002
 20
8292.667404472288
 30
0.0
  0
POINT
  5
24892
330
246DE
100
AcDbEntity
  8
DEFPOINTS
 62
     0
 48
50.0
100
AcDbPoint
 10
9543.600000000001
 20
7546.907777930205
 30
0.0
  0
POINT
  5
24893
330
246DE
100
AcDbEntity
  8
DEFPOINTS
 62
     0
 48
50.0
100
AcDbPoint
 10
9543.600000000001
 20
8505.128099989125
 30
0.0
  0
ENDBLK
  5
246EB
330
246DE
100
AcDbEntity
  8
0
 48
50.0
100
AcDbBlockEnd
  0
BLOCK
  5
246F8
330
246EC
100
AcDbEntity
  8
0
 48
50.0
100
AcDbBlockBegin
  2
*D43
 70
     1
 10
0.0
 20
0.0
 30
0.0
  3
*D43
  1

  0
LINE
  5
248CB
330
246EC
100
AcDbEntity
  8
寸法
 62
     0
 48
50.0
370
    -2
100
AcDbLine
 10
6883.6
 20
7546.907777930205
 30
0.0
 11
5861.741985112316
 21
7546.907777930207
 31
0.0
  0
LINE
  5
248CC
330
246EC
100
AcDbEntity
  8
寸法
 62
     0
 48
50.0
370
    -2
100
AcDbLine
 10
6153.685081831714
 20
7592.519882073109
 30
0.0
 11
5861.741985112316
 21
7592.519882073109
 31
0.0
  0
LINE
  5
248CD
330
246EC
100
AcDbEntity
  8
寸法
 62
     0
 48
50.0
370
    -2
100
AcDbLine
 10
5921.741985112316
 20
7546.907777930207
 30
0.0
 11
5921.741985112316
 21
7446.907777930206
 31
0.0
  0
LINE
  5
248CE
330
246EC
100
AcDbEntity
  8
寸法
 62
     0
 48
50.0
370
    -2
100
AcDbLine
 10
5921.741985112316
 20
7592.519882073109
 30
0.0
 11
5921.741985112316
 21
7929.869124478024
 31
0.0
  0
LINE
  5
248CF
330
246EC
100
AcDbEntity
  8
寸法
 62
     0
 48
50.0
370
    -2
100
AcDbLine
 10
5921.741985112316
 20
7546.907777930207
 30
0.0
 11
5921.741985112316
 21
7592.519882073109
 31
0.0
  0
INSERT
  5
248D0
330
246EC
100
AcDbEntity
  8
寸法
 62
     0
 48
50.0
370
    -2
100
AcDbBlockReference
  2
_DOTSMALL
 10
5921.741985112316
 20
7546.907777930207
 30
0.0
 41
100.0
 42
100.0
 43
100.0
 50
90.0
  0
INSERT
  5
248D1
330
246EC
100
AcDbEntity
  8
寸法
 62
     0
 48
50.0
370
    -2
100
AcDbBlockReference
  2
_DOTSMALL
 10
5921.741985112316
 20
7592.519882073109
 30
0.0
 41
100.0
 42
100.0
 43
100.0
 50
270.0
  0
MTEXT
  5
248D2
330
246EC
100
AcDbEntity
  8
寸法
 62
     7
 48
50.0
100
AcDbMText
 10
5821.741985112315
 20
7863.694503275567
 30
0.0
 40
120.0
 41
0.0
 71
     5
 72
     1
  1
\A1;a
  7
STYLE1
 11
0.0000000000000001
 21
1.0
 31
0.0
 73
     1
 44
1.0
1001
ACAD
1000
MTEXTBEGIN
1070
    73
1070
     1
1070
    44
1040
1.0
1070
    74
1070
     0
1000
MTEXTEND
  0
POINT
  5
248D3
330
246EC
100
AcDbEntity
  8
DEFPOINTS
 62
     0
 48
50.0
100
AcDbPoint
 10
6903.6
 20
7546.907777930205
 30
0.0
  0
POINT
  5
248D4
330
246EC
100
AcDbEntity
  8
DEFPOINTS
 62
     0
 48
50.0
100
AcDbPoint
 10
6173.685081831713
 20
7592.519882073109
 30
0.0
  0
POINT
  5
248D5
330
246EC
100
AcDbEntity
  8
DEFPOINTS
 62
     0
 48
50.0
100
AcDbPoint
 10
5921.741985112316
 20
7592.519882073109
 30
0.0
  0
ENDBLK
  5
246F9
330
246EC
100
AcDbEntity
  8
0
 48
50.0
100
AcDbBlockEnd
  0
BLOCK
  5
25320
330
25316
100
AcDbEntity
  8
0
 48
50.0
100
AcDbBlockBegin
  2
*D44
 70
     1
 10
0.0
 20
0.0
 30
0.0
  3
*D44
  1

  0
LINE
  5
25363
330
25316
100
AcDbEntity
  8
寸法
 62
     0
 48
50.0
370
    -2
100
AcDbLine
 10
8316.692593189157
 20
2054.809370235786
 30
0.0
 11
8858.561192958001
 21
2054.809370235786
 31
0.0
  0
LINE
  5
25364
330
25316
100
AcDbEntity
  8
寸法
 62
     0
 48
50.0
370
    -2
100
AcDbLine
 10
8316.692593189157
 20
1730.809370235785
 30
0.0
 11
8858.561192958001
 21
1730.809370235784
 31
0.0
  0
LINE
  5
25365
330
25316
100
AcDbEntity
  8
寸法
 62
     0
 48
50.0
370
    -2
100
AcDbLine
 10
8798.561192958002
 20
2054.809370235786
 30
0.0
 11
8798.561192958002
 21
1730.809370235784
 31
0.0
  0
INSERT
  5
25366
330
25316
100
AcDbEntity
  8
寸法
 62
     0
 48
50.0
370
    -2
100
AcDbBlockReference
  2
_DOTSMALL
 10
8798.561192958002
 20
2054.809370235786
 30
0.0
 41
100.0
 42
100.0
 43
100.0
 50
90.0
  0
INSERT
  5
25367
330
25316
100
AcDbEntity
  8
寸法
 62
     0
 48
50.0
370
    -2
100
AcDbBlockReference
  2
_DOTSMALL
 10
8798.561192958002
 20
1730.809370235784
 30
0.0
 41
100.0
 42
100.0
 43
100.0
 50
270.0
  0
MTEXT
  5
25368
330
25316
100
AcDbEntity
  8
寸法
 62
     7
 48
50.0
100
AcDbMText
 10
8698.561192958001
 20
1892.809370235786
 30
0.0
 40
120.0
 41
0.0
 71
     5
 72
     1
  1
\A1;180
  7
STYLE1
 11
0.0000000000000001
 21
1.0
 31
0.0
 73
     1
 44
1.0
1001
ACAD
1000
MTEXTBEGIN
1070
    73
1070
     1
1070
    44
1040
1.0
1070
    74
1070
     0
1000
MTEXTEND
  0
POINT
  5
25369
330
25316
100
AcDbEntity
  8
DEFPOINTS
 62
     0
 48
50.0
100
AcDbPoint
 10
8296.692593189158
 20
2054.809370235786
 30
0.0
  0
POINT
  5
2536A
330
25316
100
AcDbEntity
  8
DEFPOINTS
 62
     0
 48
50.0
100
AcDbPoint
 10
8296.692593189158
 20
1730.809370235785
 30
0.0
  0
POINT
  5
2536B
330
25316
100
AcDbEntity
  8
DEFPOINTS
 62
     0
 48
50.0
100
AcDbPoint
 10
8798.561192958002
 20
1730.809370235784
 30
0.0
  0
ENDBLK
  5
25321
330
25316
100
AcDbEntity
  8
0
 48
50.0
100
AcDbBlockEnd
  0
BLOCK
  5
25331
330
25322
100
AcDbEntity
  8
0
 48
50.0
100
AcDbBlockBegin
  2
*D45
 70
     1
 10
0.0
 20
0.0
 30
0.0
  3
*D45
  1

  0
LINE
  5
2536C
330
25322
100
AcDbEntity
  8
寸法
 62
     0
 48
50.0
370
    -2
100
AcDbLine
 10
8129.49259318916
 20
2107.569370235787
 30
0.0
 11
8858.561192958001
 21
2107.569370235787
 31
0.0
  0
LINE
  5
2536D
330
25322
100
AcDbEntity
  8
寸法
 62
     0
 48
50.0
370
    -2
100
AcDbLine
 10
8316.692593189157
 20
2054.809370235786
 30
0.0
 11
8858.561192958001
 21
2054.809370235786
 31
0.0
  0
LINE
  5
2536E
330
25322
100
AcDbEntity
  8
寸法
 62
     0
 48
50.0
370
    -2
100
AcDbLine
 10
8798.561192958002
 20
2107.569370235787
 30
0.0
 11
8798.561192958002
 21
2207.569370235787
 31
0.0
  0
LINE
  5
2536F
330
25322
100
AcDbEntity
  8
寸法
 62
     0
 48
50.0
370
    -2
100
AcDbLine
 10
8798.561192958002
 20
2054.809370235786
 30
0.0
 11
8798.561192958002
 21
1954.809370235785
 31
0.0
  0
LINE
  5
25370
330
25322
100
AcDbEntity
  8
寸法
 62
     0
 48
50.0
370
    -2
100
AcDbLine
 10
8798.561192958002
 20
2081.189370235786
 30
0.0
 11
9074.615859077027
 21
2069.685412631573
 31
0.0
  0
LINE
  5
25371
330
25322
100
AcDbEntity
  8
寸法
 62
     0
 48
50.0
370
    -2
100
AcDbLine
 10
9074.615859077027
 20
2069.685412631573
 30
0.0
 11
9074.615859077027
 21
1537.667605788607
 31
0.0
  0
MTEXT
  5
25372
330
25322
100
AcDbEntity
  8
寸法
 62
     7
 48
50.0
100
AcDbMText
 10
8974.604048053405
 20
1803.676509210091
 30
0.0
 40
120.0
 41
0.0
 71
     5
 72
     1
  1
\A1;20～25
  7
STYLE1
 11
0.0000000000000001
 21
1.0
 31
0.0
 73
     1
 44
1.0
1001
ACAD
1000
MTEXTBEGIN
1070
    73
1070
     1
1070
    44
1040
1.0
1070
    74
1070
     0
1000
MTEXTEND
  0
LINE
  5
25373
330
25322
100
AcDbEntity
  8
寸法
 62
     0
 48
50.0
370
    -2
100
AcDbLine
 10
8798.561192958002
 20
2107.569370235787
 30
0.0
 11
8798.561192958002
 21
2054.809370235786
 31
0.0
  0
LINE
  5
25374
330
25322
100
AcDbEntity
  8
寸法
 62
     0
 48
50.0
370
    -2
100
AcDbLine
 10
8798.561192958002
 20
2107.569370235787
 30
0.0
 11
8798.561192958002
 21
2054.809370235786
 31
0.0
  0
INSERT
  5
25375
330
25322
100
AcDbEntity
  8
寸法
 62
     0
 48
50.0
370
    -2
100
AcDbBlockReference
  2
_DOTSMALL
 10
8798.561192958002
 20
2107.569370235787
 30
0.0
 41
100.0
 42
100.0
 43
100.0
 50
270.0
  0
INSERT
  5
25376
330
25322
100
AcDbEntity
  8
寸法
 62
     0
 48
50.0
370
    -2
100
AcDbBlockReference
  2
_DOTSMALL
 10
8798.561192958002
 20
2054.809370235786
 30
0.0
 41
100.0
 42
100.0
 43
100.0
 50
90.0
  0
POINT
  5
25377
330
25322
100
AcDbEntity
  8
DEFPOINTS
 62
     0
 48
50.0
100
AcDbPoint
 10
8109.492593189159
 20
2107.569370235787
 30
0.0
  0
POINT
  5
25378
330
25322
100
AcDbEntity
  8
DEFPOINTS
 62
     0
 48
50.0
100
AcDbPoint
 10
8296.692593189158
 20
2054.809370235786
 30
0.0
  0
POINT
  5
25379
330
25322
100
AcDbEntity
  8
DEFPOINTS
 62
     0
 48
50.0
100
AcDbPoint
 10
8798.561192958002
 20
2054.809370235786
 30
0.0
  0
ENDBLK
  5
25332
330
25322
100
AcDbEntity
  8
0
 48
50.0
100
AcDbBlockEnd
  0
BLOCK
  5
2533D
330
25333
100
AcDbEntity
  8
0
 48
50.0
100
AcDbBlockBegin
  2
*D46
 70
     1
 10
0.0
 20
0.0
 30
0.0
  3
*D46
  1

  0
LINE
  5
2537A
330
25333
100
AcDbEntity
  8
寸法
 62
     0
 48
50.0
370
    -2
100
AcDbLine
 10
6034.653280011964
 20
1510.809370235785
 30
0.0
 11
5852.232966279505
 21
1510.809370235785
 31
0.0
  0
LINE
  5
2537B
330
25333
100
AcDbEntity
  8
寸法
 62
     0
 48
50.0
370
    -2
100
AcDbLine
 10
5954.653280011967
 20
1270.809370235785
 30
0.0
 11
5852.232966279505
 21
1270.809370235785
 31
0.0
  0
LINE
  5
2537C
330
25333
100
AcDbEntity
  8
寸法
 62
     0
 48
50.0
370
    -2
100
AcDbLine
 10
5912.232966279504
 20
1510.809370235785
 30
0.0
 11
5912.232966279504
 21
1270.809370235785
 31
0.0
  0
MTEXT
  5
2537D
330
25333
100
AcDbEntity
  8
寸法
 62
     7
 48
50.0
100
AcDbMText
 10
5812.232966279505
 20
1390.809370235785
 30
0.0
 40
120.0
 41
0.0
 71
     5
 72
     1
  1
\A1;150
  7
STYLE1
 11
0.0000000000000001
 21
1.0
 31
0.0
 73
     1
 44
1.0
1001
ACAD
1000
MTEXTBEGIN
1070
    73
1070
     1
1070
    44
1040
1.0
1070
    74
1070
     0
1000
MTEXTEND
  0
INSERT
  5
2537E
330
25333
100
AcDbEntity
  8
寸法
 62
     0
 48
50.0
370
    -2
100
AcDbBlockReference
  2
_DOTSMALL
 10
5912.232966279504
 20
1510.809370235785
 30
0.0
 41
100.0
 42
100.0
 43
100.0
 50
90.0
  0
INSERT
  5
2537F
330
25333
100
AcDbEntity
  8
寸法
 62
     0
 48
50.0
370
    -2
100
AcDbBlockReference
  2
_DOTSMALL
 10
5912.232966279504
 20
1270.809370235785
 30
0.0
 41
100.0
 42
100.0
 43
100.0
 50
270.0
  0
POINT
  5
25380
330
25333
100
AcDbEntity
  8
DEFPOINTS
 62
     0
 48
50.0
100
AcDbPoint
 10
6054.653280011964
 20
1510.809370235785
 30
0.0
  0
POINT
  5
25381
330
25333
100
AcDbEntity
  8
DEFPOINTS
 62
     0
 48
50.0
100
AcDbPoint
 10
5974.653280011967
 20
1270.809370235785
 30
0.0
  0
POINT
  5
25382
330
25333
100
AcDbEntity
  8
DEFPOINTS
 62
     0
 48
50.0
100
AcDbPoint
 10
5912.232966279504
 20
1270.809370235785
 30
0.0
  0
ENDBLK
  5
2533E
330
25333
100
AcDbEntity
  8
0
 48
50.0
100
AcDbBlockEnd
  0
BLOCK
  5
25349
330
2533F
100
AcDbEntity
  8
0
 48
50.0
100
AcDbBlockBegin
  2
*D47
 70
     1
 10
0.0
 20
0.0
 30
0.0
  3
*D47
  1

  0
LINE
  5
25383
330
2533F
100
AcDbEntity
  8
寸法
 62
     0
 48
50.0
370
    -2
100
AcDbLine
 10
6162.653280011964
 20
2054.809370235786
 30
0.0
 11
5387.616041450224
 21
2054.809370235786
 31
0.0
  0
LINE
  5
25384
330
2533F
100
AcDbEntity
  8
寸法
 62
     0
 48
50.0
370
    -2
100
AcDbLine
 10
5954.653280011967
 20
1270.809370235785
 30
0.0
 11
5387.616041450223
 21
1270.809370235786
 31
0.0
  0
LINE
  5
25385
330
2533F
100
AcDbEntity
  8
寸法
 62
     0
 48
50.0
370
    -2
100
AcDbLine
 10
5447.616041450224
 20
2054.809370235786
 30
0.0
 11
5447.616041450223
 21
1270.809370235786
 31
0.0
  0
MTEXT
  5
25386
330
2533F
100
AcDbEntity
  8
寸法
 62
     7
 48
50.0
100
AcDbMText
 10
5347.616041450224
 20
1642.349519891786
 30
0.0
 40
120.0
 41
0.0
 71
     5
 72
     1
  1
\A1;540
  7
STYLE1
 11
0.0000000000000001
 21
1.0
 31
0.0
 73
     1
 44
1.0
1001
ACAD
1000
MTEXTBEGIN
1070
    73
1070
     1
1070
    44
1040
1.0
1070
    74
1070
     0
1000
MTEXTEND
  0
INSERT
  5
25387
330
2533F
100
AcDbEntity
  8
寸法
 62
     0
 48
50.0
370
    -2
100
AcDbBlockReference
  2
_DOTSMALL
 10
5447.616041450224
 20
2054.809370235786
 30
0.0
 41
100.0
 42
100.0
 43
100.0
 50
90.0
  0
INSERT
  5
25388
330
2533F
100
AcDbEntity
  8
寸法
 62
     0
 48
50.0
370
    -2
100
AcDbBlockReference
  2
_DOTSMALL
 10
5447.616041450223
 20
1270.809370235786
 30
0.0
 41
100.0
 42
100.0
 43
100.0
 50
270.0
  0
POINT
  5
25389
330
2533F
100
AcDbEntity
  8
DEFPOINTS
 62
     0
 48
50.0
100
AcDbPoint
 10
6182.653280011964
 20
2054.809370235786
 30
0.0
  0
POINT
  5
2538A
330
2533F
100
AcDbEntity
  8
DEFPOINTS
 62
     0
 48
50.0
100
AcDbPoint
 10
5974.653280011967
 20
1270.809370235785
 30
0.0
  0
POINT
  5
2538B
330
2533F
100
AcDbEntity
  8
DEFPOINTS
 62
     0
 48
50.0
100
AcDbPoint
 10
5447.616041450223
 20
1270.809370235786
 30
0.0
  0
ENDBLK
  5
2534A
330
2533F
100
AcDbEntity
  8
0
 48
50.0
100
AcDbBlockEnd
  0
BLOCK
  5
25355
330
2534B
100
AcDbEntity
  8
0
 48
50.0
100
AcDbBlockBegin
  2
*D48
 70
     1
 10
0.0
 20
0.0
 30
0.0
  3
*D48
  1

  0
LINE
  5
2538C
330
2534B
100
AcDbEntity
  8
寸法
 62
     0
 48
50.0
370
    -2
100
AcDbLine
 10
6054.653280011964
 20
1122.809370235785
 30
0.0
 11
6054.653280011964
 21
672.3797322306254
 31
0.0
  0
LINE
  5
2538D
330
2534B
100
AcDbEntity
  8
寸法
 62
     0
 48
50.0
370
    -2
100
AcDbLine
 10
6502.653280011964
 20
1122.809370235785
 30
0.0
 11
6502.653280011964
 21
672.3797322306254
 31
0.0
  0
LINE
  5
2538E
330
2534B
100
AcDbEntity
  8
寸法
 62
     0
 48
50.0
370
    -2
100
AcDbLine
 10
6054.653280011964
 20
732.3797322306254
 30
0.0
 11
6502.653280011964
 21
732.3797322306254
 31
0.0
  0
MTEXT
  5
2538F
330
2534B
100
AcDbEntity
  8
寸法
 62
     7
 48
50.0
100
AcDbMText
 10
6258.556521333741
 20
832.3797322306255
 30
0.0
 40
120.0
 41
0.0
 71
     5
 72
     1
  1
\A1;300
  7
STYLE1
 73
     1
 44
1.0
1001
ACAD
1000
MTEXTBEGIN
1070
    73
1070
     1
1070
    44
1040
1.0
1070
    74
1070
     0
1000
MTEXTEND
  0
INSERT
  5
25390
330
2534B
100
AcDbEntity
  8
寸法
 62
     0
 48
50.0
370
    -2
100
AcDbBlockReference
  2
_DOTSMALL
 10
6054.653280011964
 20
732.3797322306254
 30
0.0
 41
100.0
 42
100.0
 43
100.0
 50
180.0
  0
INSERT
  5
25391
330
2534B
100
AcDbEntity
  8
寸法
 62
     0
 48
50.0
370
    -2
100
AcDbBlockReference
  2
_DOTSMALL
 10
6502.653280011964
 20
732.3797322306254
 30
0.0
 41
100.0
 42
100.0
 43
100.0
  0
POINT
  5
25392
330
2534B
100
AcDbEntity
  8
DEFPOINTS
 62
     0
 48
50.0
100
AcDbPoint
 10
6054.653280011964
 20
1142.809370235785
 30
0.0
  0
POINT
  5
25393
330
2534B
100
AcDbEntity
  8
DEFPOINTS
 62
     0
 48
50.0
100
AcDbPoint
 10
6502.653280011964
 20
1142.809370235785
 30
0.0
  0
POINT
  5
25394
330
2534B
100
AcDbEntity
  8
DEFPOINTS
 62
     0
 48
50.0
100
AcDbPoint
 10
6502.653280011964
 20
732.3797322306254
 30
0.0
  0
ENDBLK
  5
25356
330
2534B
100
AcDbEntity
  8
0
 48
50.0
100
AcDbBlockEnd
  0
BLOCK
  5
25361
330
25357
100
AcDbEntity
  8
0
 48
50.0
100
AcDbBlockBegin
  2
*D49
 70
     1
 10
0.0
 20
0.0
 30
0.0
  3
*D49
  1

  0
LINE
  5
25395
330
25357
100
AcDbEntity
  8
寸法
 62
     0
 48
50.0
370
    -2
100
AcDbLine
 10
6374.653280011964
 20
2074.809370235786
 30
0.0
 11
6374.653280011964
 21
2434.809370235786
 31
0.0
  0
LINE
  5
25396
330
25357
100
AcDbEntity
  8
寸法
 62
     0
 48
50.0
370
    -2
100
AcDbLine
 10
6182.653280011964
 20
2074.809370235786
 30
0.0
 11
6182.653280011964
 21
2434.809370235786
 31
0.0
  0
LINE
  5
25397
330
25357
100
AcDbEntity
  8
寸法
 62
     0
 48
50.0
370
    -2
100
AcDbLine
 10
6374.653280011964
 20
2374.809370235785
 30
0.0
 11
6182.653280011964
 21
2374.809370235785
 31
0.0
  0
MTEXT
  5
25398
330
25357
100
AcDbEntity
  8
寸法
 62
     7
 48
50.0
100
AcDbMText
 10
6289.879610357161
 20
2674.488989175788
 30
0.0
 40
120.0
 41
0.0
 71
     5
 72
     1
  1
\A1;120\P195
  7
STYLE1
 73
     1
 44
1.0
1001
ACAD
1000
MTEXTBEGIN
1070
    73
1070
     1
1070
    44
1040
1.0
1070
    74
1070
     0
1000
MTEXTEND
  0
INSERT
  5
25399
330
25357
100
AcDbEntity
  8
寸法
 62
     0
 48
50.0
370
    -2
100
AcDbBlockReference
  2
_DOTSMALL
 10
6374.653280011964
 20
2374.809370235785
 30
0.0
 41
100.0
 42
100.0
 43
100.0
  0
INSERT
  5
2539A
330
25357
100
AcDbEntity
  8
寸法
 62
     0
 48
50.0
370
    -2
100
AcDbBlockReference
  2
_DOTSMALL
 10
6182.653280011964
 20
2374.809370235785
 30
0.0
 41
100.0
 42
100.0
 43
100.0
 50
180.0
  0
POINT
  5
2539B
330
25357
100
AcDbEntity
  8
DEFPOINTS
 62
     0
 48
50.0
100
AcDbPoint
 10
6374.653280011964
 20
2054.809370235786
 30
0.0
  0
POINT
  5
2539C
330
25357
100
AcDbEntity
  8
DEFPOINTS
 62
     0
 48
50.0
100
AcDbPoint
 10
6182.653280011964
 20
2054.809370235786
 30
0.0
  0
POINT
  5
2539D
330
25357
100
AcDbEntity
  8
DEFPOINTS
 62
     0
 48
50.0
100
AcDbPoint
 10
6182.653280011964
 20
2374.809370235785
 30
0.0
  0
ENDBLK
  5
25362
330
25357
100
AcDbEntity
  8
0
 48
50.0
100
AcDbBlockEnd
  0
ENDSEC
  0
SECTION
  2
ENTITIES
  0
MTEXT
  5
763F
330
747D
100
AcDbEntity
  8
0
100
AcDbMText
 10
302.846345836809
 20
280.1983726409901
 30
0.0
 40
3.5
 41
5.323721266742722
 71
     1
 72
     5
  1

  7
MSMINCHO
 73
     1
 44
1.0
1001
ACAD
1000
MTEXTBEGIN
1070
    73
1070
     1
1070
    44
1040
1.0
1070
    74
1070
     0
1000
MTEXTEND
  0
LINE
  5
10B57
330
747D
100
AcDbEntity
  8
補助
  6
PHANTOM
 62
   230
 48
50.0
100
AcDbLine
 10
139.9999999999995
 20
11409.6
 30
0.0
 11
16307.2
 21
11409.6
 31
0.0
  0
LINE
  5
10B59
330
747D
100
AcDbEntity
  8
仕様書枠
  6
Continuous
 48
50.0
100
AcDbLine
 10
13107.2
 20
1200.0
 30
0.0
 11
13107.2
 21
-0.0000000000000729
 31
0.0
  0
LINE
  5
10B5D
330
747D
100
AcDbEntity
  8
仕様書枠
 48
50.0
100
AcDbLine
 10
140.0
 20
0.0
 30
0.0
 11
16307.2
 21
-0.0000000000000909
 31
0.0
  0
LINE
  5
10B5E
330
747D
100
AcDbEntity
  8
補助
  6
PHANTOM
 62
   230
 48
50.0
100
AcDbLine
 10
16307.2
 20
11409.6
 30
0.0
 11
16307.2
 21
1200.0
 31
0.0
  0
LINE
  5
10B6C
330
747D
100
AcDbEntity
  8
仕様書枠
 48
50.0
100
AcDbLine
 10
13107.2
 20
1200.0
 30
0.0
 11
16307.2
 21
1200.0
 31
0.0
  0
TEXT
  5
10B73
330
747D
100
AcDbEntity
  8
文字
 62
     7
 48
50.0
100
AcDbText
 10
13162.9790565769
 20
895.0906074299405
 30
0.0
 40
200.0
  1
基 礎 図
  7
STYLE2
100
AcDbText
  0
LINE
  5
10B7B
330
747D
100
AcDbEntity
  8
仕様書枠
 48
50.0
100
AcDbLine
 10
13107.2
 20
800.0
 30
0.0
 11
14251.2
 21
800.0
 31
0.0
  0
LINE
  5
10B88
330
747D
100
AcDbEntity
  8
仕様書枠
  6
Continuous
 48
50.0
100
AcDbLine
 10
14251.2
 20
1200.0
 30
0.0
 11
14251.2
 21
800.0
 31
0.0
  0
LINE
  5
16462
330
747D
100
AcDbEntity
  8
仕様書枠
 48
50.0
100
AcDbLine
 10
16307.2
 20
1200.0
 30
0.0
 11
16307.2
 21
-0.0000000000000909
 31
0.0
  0
LINE
  5
1903B
330
747D
100
AcDbEntity
  8
補助
  6
PHANTOM
 62
   230
 48
50.0
100
AcDbLine
 10
140.0
 20
0.0
 30
0.0
 11
139.9999999999995
 21
11409.6
 31
0.0
  0
TEXT
  5
1C7A1
330
747D
100
AcDbEntity
  8
文字
 62
     7
 48
50.0
100
AcDbText
 10
13188.16259899338
 20
79.80631269190417
 30
0.0
 40
80.0
  1
※布基礎には換気口を設けてください。
  7
STYLE2
100
AcDbText
  0
TEXT
  5
1C7E7
330
747D
100
AcDbEntity
  8
文字
 62
     7
 48
50.0
100
AcDbText
 10
13188.16259899338
 20
246.7109242801889
 30
0.0
 40
80.0
  1
※寒冷地等は地域の実情に合わせた基礎にして下さい。
  7
STYLE2
100
AcDbText
  0
TEXT
  5
1C7E8
330
747D
100
AcDbEntity
  8
文字
 62
     7
 48
50.0
100
AcDbText
 10
14391.45084723718
 20
499.5983841039506
 30
0.0
 40
160.0
  1
ＮＸＮ－３６ＳＢ/ＨＢ
  7
STYLE2
100
AcDbText
  0
TEXT
  5
1C7E9
330
747D
100
AcDbEntity
  8
文字
 62
     7
 48
50.0
100
AcDbText
 10
14641.2525855784
 20
871.1744590657927
 30
0.0
 40
100.0
  1
～一般型・多雪地型～
  7
STYLE2
100
AcDbText
  0
TEXT
  5
1C7EC
330
747D
100
AcDbEntity
  8
文字
 62
     7
 48
50.0
100
AcDbText
 10
14524.131837222
 20
1031.557706291229
 30
0.0
 40
100.0
  1
      　    <縮尺> S=1/40
  7
STYLE2
100
AcDbText
  0
TEXT
  5
1C7ED
330
747D
100
AcDbEntity
  8
文字
 62
     7
 48
50.0
100
AcDbText
 10
13201.43669998441
 20
477.2740661031257
 30
0.0
 40
160.0
  1
機種名
  7
STYLE2
100
AcDbText
  0
LINE
  5
1C7EF
330
747D
100
AcDbEntity
  8
文字
 62
     7
 48
50.0
100
AcDbLine
 10
13187.2
 20
400.0
 30
0.0
 11
16227.2
 21
400.0
 31
0.0
  0
DIMENSION
  5
230DD
330
747D
100
AcDbEntity
  8
寸法
 48
50.0
100
AcDbDimension
  2
*D21
 10
8638.600000000002
 20
8073.817543578533
 30
0.0
 11
9114.51852200628
 21
8073.817543578533
 31
0.0
 70
   160
 71
     5
 42
905.0
  3
INABA_S40G
100
AcDbAlignedDimension
 13
9543.600000000001
 23
7546.907777930205
 33
0.0
 14
8638.600000000002
 24
7056.907777930205
 34
0.0
100
AcDbRotatedDimension
1001
ACAD
1000
DSTYLE
1002
{
1070
   174
1070
     0
1070
   272
1070
     1
1070
   341
1005
0
1002
}
  0
DIMENSION
  5
230DE
330
747D
100
AcDbEntity
  8
寸法
 48
50.0
100
AcDbDimension
  2
*D22
 10
6903.6
 20
8073.817543578533
 30
0.0
 11
7356.100000000001
 21
8173.817543578534
 31
0.0
 70
    32
 71
     5
 42
905.0
  3
INABA_S40G
100
AcDbAlignedDimension
 13
7808.6
 23
7056.907777930205
 33
0.0
 14
6903.6
 24
7546.907777930205
 34
0.0
100
AcDbRotatedDimension
1001
ACAD
1000
DSTYLE
1002
{
1070
   174
1070
     0
1070
   272
1070
     1
1070
   341
1005
0
1002
}
  0
DIMENSION
  5
230DF
330
747D
100
AcDbEntity
  8
寸法
 48
50.0
100
AcDbDimension
  2
*D23
 10
7808.6
 20
8073.817543578533
 30
0.0
 11
8223.600000000001
 21
8173.817543578534
 31
0.0
 70
    32
 71
     5
 42
830.0
  3
INABA_S40G
100
AcDbAlignedDimension
 13
8638.600000000002
 23
7056.907777930205
 33
0.0
 14
7808.6
 24
7056.907777930205
 34
0.0
100
AcDbRotatedDimension
1001
ACAD
1000
DSTYLE
1002
{
1070
   174
1070
     0
1070
   272
1070
     1
1070
   341
1005
0
1002
}
  0
DIMENSION
  5
230E0
330
747D
100
AcDbEntity
  8
寸法
 48
50.0
100
AcDbDimension
  2
*D24
 10
7026.600000000001
 20
8292.66740447229
 30
0.0
 11
8223.600000000001
 21
8392.679215495912
 31
0.0
 70
    32
 71
     5
 42
2394.0
  3
INABA_S40G
100
AcDbAlignedDimension
 13
9420.6
 23
7473.907777930205
 33
0.0
 14
7026.600000000001
 24
7473.907777930205
 34
0.0
100
AcDbRotatedDimension
1001
ACAD
1000
DSTYLE
1002
{
1070
   174
1070
     0
1070
   272
1070
     1
1070
   341
1005
0
1002
}
  0
DIMENSION
  5
230E1
330
747D
100
AcDbEntity
  8
寸法
 48
50.0
100
AcDbDimension
  2
*D25
 10
9543.600000000001
 20
8505.128099989125
 30
0.0
 11
8223.600000000001
 21
8605.139911012747
 31
0.0
 70
    32
 71
     5
 42
2640.0
  3
INABA_S40G
100
AcDbAlignedDimension
 13
6903.6
 23
7546.907777930205
 33
0.0
 14
9543.600000000001
 24
7546.907777930205
 34
0.0
100
AcDbRotatedDimension
1001
ACAD
1000
DSTYLE
1002
{
1070
   174
1070
     0
1070
   272
1070
     1
1070
   341
1005
0
1002
}
  0
DIMENSION
  5
230E2
330
747D
100
AcDbEntity
  8
寸法
 48
50.0
100
AcDbDimension
  2
*D26
 10
6903.6
 20
8292.66740447229
 30
0.0
 11
6630.493398282202
 21
8292.66740447229
 31
0.0
 70
   160
 71
     5
 42
123.0
  3
INABA_S40G
100
AcDbAlignedDimension
 13
7026.600000000001
 23
7473.907777930205
 33
0.0
 14
6903.6
 24
7546.907777930205
 34
0.0
100
AcDbRotatedDimension
1001
ACAD
1000
DSTYLE
1002
{
1070
   174
1070
     0
1070
   272
1070
     1
1070
   341
1005
0
1002
}
  0
DIMENSION
  5
230E4
330
747D
100
AcDbEntity
  8
寸法
 48
50.0
100
AcDbDimension
  2
*D27
 10
9420.6
 20
8292.66740447229
 30
0.0
 11
9816.706601717799
 21
8292.66740447229
 31
0.0
 70
   160
 71
     5
 42
123.0
  3
INABA_S40G
100
AcDbAlignedDimension
 13
9543.600000000001
 23
7546.907777930205
 33
0.0
 14
9420.6
 24
7473.907777930205
 34
0.0
100
AcDbRotatedDimension
1001
ACAD
1000
DSTYLE
1002
{
1070
   174
1070
     0
1070
   272
1070
     1
1070
   341
1005
0
1002
}
  0
LINE
  5
230E9
102
{ACAD_REACTORS
330
24CBB
102
}
330
747D
100
AcDbEntity
  8
部品1
 48
50.0
100
AcDbLine
 10
9543.600000000003
 20
6091.907777930225
 30
0.0
 11
7356.6
 21
6091.907777930207
 31
0.0
  0
LINE
  5
230EA
330
747D
100
AcDbEntity
  8
部品1
 48
50.0
100
AcDbLine
 10
8738.600000000001
 20
7056.907777930205
 30
0.0
 11
8538.6
 21
7056.907777930205
 31
0.0
  0
LINE
  5
230EB
330
747D
100
AcDbEntity
  8
部品1
 48
50.0
100
AcDbLine
 10
8738.600000000001
 20
6656.907777930204
 30
0.0
 11
8538.6
 21
6656.907777930204
 31
0.0
  0
LINE
  5
230EE
102
{ACAD_REACTORS
330
24C7F
102
}
330
747D
100
AcDbEntity
  8
部品1
 48
50.0
100
AcDbLine
 10
9543.600000000001
 20
7546.907777930205
 30
0.0
 11
6903.6
 21
7546.907777930205
 31
0.0
  0
DIMENSION
  5
230F3
330
747D
100
AcDbEntity
  8
寸法
 48
50.0
100
AcDbDimension
  2
*D28
 10
6903.6
 20
5462.748662820256
 30
0.0
 11
7130.1
 21
5562.748662820256
 31
0.0
 70
    32
 71
     5
 42
453.0
  3
INABA_S40G
100
AcDbAlignedDimension
 13
7356.6
 23
6091.907777930224
 33
0.0
 14
6903.6
 24
6166.907777930205
 34
0.0
100
AcDbRotatedDimension
1001
ACAD
1000
DSTYLE
1002
{
1070
   174
1070
     0
1070
   272
1070
     1
1070
   341
1005
0
1002
}
  0
DIMENSION
  5
230F4
330
747D
100
AcDbEntity
  8
寸法
 48
50.0
100
AcDbDimension
  2
*D29
 10
7241.399787227139
 20
6166.907777930207
 30
0.0
 11
7241.399787227138
 21
5888.82423465732
 31
0.0
 70
   160
 71
     5
 42
120.0000000000036
  3
INABA_S40G
100
AcDbAlignedDimension
 13
7133.6
 23
6286.907777930211
 33
0.0
 14
7133.6
 24
6166.907777930207
 34
0.0
 50
90.0
100
AcDbRotatedDimension
1001
ACAD
1000
DSTYLE
1002
{
1070
   174
1070
     0
1070
   272
1070
     1
1070
   341
1005
0
1002
}
  0
DIMENSION
  5
230F5
330
747D
100
AcDbEntity
  8
寸法
 48
50.0
100
AcDbDimension
  2
*D30
 10
6173.685081831714
 20
6166.907777930205
 30
0.0
 11
6173.685081831713
 21
5871.376829087613
 31
0.0
 70
   160
 71
     5
 42
123.0000000000018
  3
INABA_S40G
100
AcDbAlignedDimension
 13
6976.600000000008
 23
6289.907777930206
 33
0.0
 14
6903.6
 24
6166.907777930205
 34
0.0
 50
90.0
100
AcDbRotatedDimension
1001
ACAD
1000
DSTYLE
1002
{
1070
   174
1070
     0
1070
   272
1070
     1
1070
   341
1005
0
1002
}
  0
LINE
  5
230F7
102
{ACAD_REACTORS
330
24C9D
102
}
330
747D
100
AcDbEntity
  8
部品1
 48
50.0
100
AcDbLine
 10
7023.6
 20
6756.907777930215
 30
0.0
 11
6903.6
 21
6756.907777930215
 31
0.0
  0
LINE
  5
230F8
102
{ACAD_REACTORS
330
24C9D
102
}
330
747D
100
AcDbEntity
  8
部品1
 48
50.0
100
AcDbLine
 10
7023.6
 20
6956.907777930215
 30
0.0
 11
6903.6
 21
6956.907777930215
 31
0.0
  0
LINE
  5
230F9
330
747D
100
AcDbEntity
  8
部品1
 48
50.0
100
AcDbLine
 10
6903.6
 20
6166.907777930205
 30
0.0
 11
7356.6
 21
6166.907777930205
 31
0.0
  0
LINE
  5
230FA
330
747D
100
AcDbEntity
  8
部品1
 48
50.0
100
AcDbLine
 10
7511.201798938049
 20
7546.907777930201
 30
0.0
 11
6903.6
 21
7546.907777930205
 31
0.0
  0
DIMENSION
  5
230FB
330
747D
100
AcDbEntity
  8
寸法
 48
50.0
100
AcDbDimension
  2
*D31
 10
6173.685081831714
 20
6289.907777930206
 30
0.0
 11
6173.685081831713
 21
6856.907777930205
 31
0.0
 70
   160
 71
     5
 42
1133.999999999998
  3
INABA_S40G
100
AcDbAlignedDimension
 13
6976.600000000001
 23
7423.907777930205
 33
0.0
 14
6976.600000000008
 24
6289.907777930206
 34
0.0
 50
90.0
100
AcDbRotatedDimension
1001
ACAD
1000
DSTYLE
1002
{
1070
   174
1070
     0
1070
   272
1070
     1
1070
   341
1005
0
1002
}
  0
DIMENSION
  5
230FC
330
747D
100
AcDbEntity
  8
寸法
 48
50.0
100
AcDbDimension
  2
*D32
 10
6173.685081831713
 20
7423.907777930205
 30
0.0
 11
6173.685081831713
 21
7860.014379648004
 31
0.0
 70
   160
 71
     5
 42
123.0
  3
INABA_S40G
100
AcDbAlignedDimension
 13
6903.6
 23
7546.907777930205
 33
0.0
 14
6976.600000000001
 24
7423.907777930205
 34
0.0
 50
90.0
100
AcDbRotatedDimension
1001
ACAD
1000
DSTYLE
1002
{
1070
   174
1070
     0
1070
   272
1070
     1
1070
   341
1005
0
1002
}
  0
LINE
  5
230FD
102
{ACAD_REACTORS
330
24C9D
102
}
330
747D
100
AcDbEntity
  8
部品1
 48
50.0
100
AcDbLine
 10
6903.6
 20
6166.907777930205
 30
0.0
 11
6903.6
 21
7546.907777930205
 31
0.0
  0
DIMENSION
  5
230FF
330
747D
100
AcDbEntity
  8
寸法
 48
50.0
100
AcDbDimension
  2
*D33
 10
5921.741985112316
 20
7546.907777930207
 30
0.0
 11
5921.741985112314
 21
6856.907777930205
 31
0.0
 70
   160
 71
     5
 42
1380.0
  3
INABA_S40G
100
AcDbAlignedDimension
 13
6903.6
 23
6166.907777930205
 33
0.0
 14
6903.6
 24
7546.907777930205
 34
0.0
 50
90.0
100
AcDbRotatedDimension
1001
ACAD
1000
DSTYLE
1002
{
1070
   174
1070
     0
1070
   272
1070
     1
1070
   341
1005
0
1002
}
  0
LINE
  5
23102
330
747D
100
AcDbEntity
  8
部品1
 48
50.0
100
AcDbLine
 10
8538.6
 20
6656.907777930205
 30
0.0
 11
8538.6
 21
7056.907777930205
 31
0.0
  0
DIMENSION
  5
23103
330
747D
100
AcDbEntity
  8
寸法
 48
50.0
100
AcDbDimension
  2
*D34
 10
6382.573365309616
 20
7546.907777930205
 30
0.0
 11
6382.573365309614
 21
7201.907777930205
 31
0.0
 70
   160
 71
     5
 42
690.0
  3
INABA_S40G
100
AcDbAlignedDimension
 13
7708.600000000003
 23
6856.907777930205
 33
0.0
 14
6903.6
 24
7546.907777930205
 34
0.0
 50
90.0
100
AcDbRotatedDimension
1001
ACAD
1000
DSTYLE
1002
{
1070
   174
1070
     0
1070
   272
1070
     1
1070
   341
1005
0
1002
}
  0
LINE
  5
23104
330
747D
100
AcDbEntity
  8
部品1
 48
50.0
100
AcDbLine
 10
7708.6
 20
6656.907777930205
 30
0.0
 11
7708.6
 21
7056.907777930205
 31
0.0
  0
LINE
  5
23105
330
747D
100
AcDbEntity
  8
部品1
 48
50.0
100
AcDbLine
 10
7908.599999999999
 20
6656.907777930204
 30
0.0
 11
7908.599999999999
 21
7056.907777930205
 31
0.0
  0
LINE
  5
23109
330
747D
100
AcDbEntity
  8
センター
 48
2.0
100
AcDbLine
 10
7758.6
 20
6856.907777930205
 30
0.0
 11
7858.6
 21
6856.907777930205
 31
0.0
  0
LINE
  5
2310A
330
747D
100
AcDbEntity
  8
部品1
 48
50.0
100
AcDbLine
 10
7908.599999999999
 20
6656.907777930204
 30
0.0
 11
7708.6
 21
6656.907777930204
 31
0.0
  0
LINE
  5
2310D
330
747D
100
AcDbEntity
  8
部品1
 48
50.0
100
AcDbLine
 10
7133.6
 20
6286.907777930209
 30
0.0
 11
7133.6
 21
6396.907777930209
 31
0.0
  0
DIMENSION
  5
2310E
330
747D
100
AcDbEntity
  8
寸法
 48
50.0
100
AcDbDimension
  2
*D35
 10
7241.399787227139
 20
6396.907777930209
 30
0.0
 11
7241.399787227138
 21
6666.96683304832
 31
0.0
 70
   160
 71
     5
 42
110.0
  3
INABA_S40G
100
AcDbAlignedDimension
 13
7133.6
 23
6286.907777930209
 33
0.0
 14
7133.6
 24
6396.907777930209
 34
0.0
 50
90.0
100
AcDbRotatedDimension
1001
ACAD
1000
DSTYLE
1002
{
1070
   174
1070
     0
1070
   272
1070
     1
1070
   341
1005
0
1002
}
  0
LINE
  5
2310F
330
747D
100
AcDbEntity
  8
センター
 48
2.0
100
AcDbLine
 10
7026.600000000008
 20
6339.907777930207
 30
0.0
 11
7026.600000000008
 21
6239.907777930207
 31
0.0
  0
LINE
  5
23110
330
747D
100
AcDbEntity
  8
センター
 48
2.0
100
AcDbLine
 10
6976.600000000008
 20
6289.907777930206
 30
0.0
 11
7076.600000000007
 21
6289.907777930206
 31
0.0
  0
CIRCLE
  5
23111
330
747D
100
AcDbEntity
  8
部品1
 48
50.0
100
AcDbCircle
 10
7026.600000000008
 20
6289.907777930206
 30
0.0
 40
35.0
  0
LINE
  5
23112
330
747D
100
AcDbEntity
  8
部品1
 48
50.0
100
AcDbLine
 10
7356.6
 20
6091.907777930224
 30
0.0
 11
7356.6
 21
6166.907777930207
 31
0.0
  0
LINE
  5
23113
330
747D
100
AcDbEntity
  8
部品1
 48
50.0
100
AcDbLine
 10
7133.6
 20
6396.907777930209
 30
0.0
 11
7023.599999999999
 21
6396.907777930208
 31
0.0
  0
DIMENSION
  5
23114
330
747D
100
AcDbEntity
  8
寸法
 48
50.0
100
AcDbDimension
  2
*D36
 10
6382.573365309614
 20
6856.907777930205
 30
0.0
 11
6382.573365309612
 21
6508.672654918164
 31
0.0
 70
   160
 71
     5
 42
689.9999999999908
  3
INABA_S40G
100
AcDbAlignedDimension
 13
6903.6
 23
6166.907777930214
 33
0.0
 14
7708.600000000003
 24
6856.907777930205
 34
0.0
 50
90.0
100
AcDbRotatedDimension
1001
ACAD
1000
DSTYLE
1002
{
1070
   174
1070
     0
1070
   272
1070
     1
1070
   341
1005
0
1002
}
  0
LINE
  5
23116
102
{ACAD_REACTORS
330
24CBB
102
}
330
747D
100
AcDbEntity
  8
部品1
 48
50.0
100
AcDbLine
 10
8123.600000000017
 20
6091.907777930214
 30
0.0
 11
8123.600000000017
 21
6286.907777930213
 31
0.0
  0
LINE
  5
23117
102
{ACAD_REACTORS
330
24CBB
102
}
330
747D
100
AcDbEntity
  8
部品1
 48
50.0
100
AcDbLine
 10
8323.600000000018
 20
6091.907777930217
 30
0.0
 11
8323.600000000018
 21
6286.907777930215
 31
0.0
  0
LINE
  5
23119
330
747D
100
AcDbEntity
  8
センター
 48
2.0
100
AcDbLine
 10
7808.6
 20
6906.907777930205
 30
0.0
 11
7808.6
 21
6806.907777930205
 31
0.0
  0
LINE
  5
2311A
330
747D
100
AcDbEntity
  8
部品1
 48
50.0
100
AcDbLine
 10
7908.599999999999
 20
7056.907777930205
 30
0.0
 11
7708.6
 21
7056.907777930205
 31
0.0
  0
LINE
  5
2311C
330
747D
100
AcDbEntity
  8
センター
 48
2.0
100
AcDbLine
 10
6976.600000000001
 20
7423.907777930205
 30
0.0
 11
7076.6
 21
7423.907777930205
 31
0.0
  0
LINE
  5
2311D
330
747D
100
AcDbEntity
  8
部品1
 48
50.0
100
AcDbLine
 10
7133.6
 20
7316.907777930201
 30
0.0
 11
7023.599999999999
 21
7316.907777930204
 31
0.0
  0
LINE
  5
2311E
330
747D
100
AcDbEntity
  8
センター
 48
2.0
100
AcDbLine
 10
7026.600000000001
 20
7473.907777930205
 30
0.0
 11
7026.600000000001
 21
7373.907777930205
 31
0.0
  0
CIRCLE
  5
2311F
330
747D
100
AcDbEntity
  8
部品1
 48
50.0
100
AcDbCircle
 10
7026.600000000001
 20
7423.907777930205
 30
0.0
 40
35.0
  0
LINE
  5
23120
330
747D
100
AcDbEntity
  8
部品1
 48
50.0
100
AcDbLine
 10
7133.6
 20
7316.907777930201
 30
0.0
 11
7133.6
 21
7426.907777930207
 31
0.0
  0
LINE
  5
23121
102
{ACAD_REACTORS
330
24C7F
102
}
330
747D
100
AcDbEntity
  8
部品1
 48
50.0
100
AcDbLine
 10
8323.599999999998
 20
7426.907777930203
 30
0.0
 11
8323.6
 21
7546.907777930205
 31
0.0
  0
LINE
  5
23122
102
{ACAD_REACTORS
330
24C7F
102
}
330
747D
100
AcDbEntity
  8
部品1
 48
50.0
100
AcDbLine
 10
8123.599999999999
 20
7426.907777930203
 30
0.0
 11
8123.600000000001
 21
7546.907777930205
 31
0.0
  0
LINE
  5
23126
330
747D
100
AcDbEntity
  8
部品1
 48
50.0
100
AcDbLine
 10
8738.600000000001
 20
6656.907777930204
 30
0.0
 11
8738.600000000001
 21
7056.907777930205
 31
0.0
  0
LINE
  5
23128
102
{ACAD_REACTORS
330
24C61
102
}
330
747D
100
AcDbEntity
  8
部品1
 48
50.0
100
AcDbLine
 10
9543.600000000001
 20
6166.907777930223
 30
0.0
 11
9543.600000000001
 21
7546.907777930205
 31
0.0
  0
LINE
  5
2312B
330
747D
100
AcDbEntity
  8
センター
 48
2.0
100
AcDbLine
 10
9370.600000000008
 20
6289.907777930206
 30
0.0
 11
9470.600000000008
 21
6289.907777930206
 31
0.0
  0
CIRCLE
  5
2312C
330
747D
100
AcDbEntity
  8
部品1
 48
50.0
100
AcDbCircle
 10
9420.600000000007
 20
6289.907777930206
 30
0.0
 40
35.0
  0
LINE
  5
2312D
330
747D
100
AcDbEntity
  8
部品1
 48
50.0
100
AcDbLine
 10
9423.6
 20
6396.907777930223
 30
0.0
 11
9313.6
 21
6396.907777930223
 31
0.0
  0
LINE
  5
2312E
330
747D
100
AcDbEntity
  8
部品1
 48
50.0
100
AcDbLine
 10
9313.6
 20
6286.90777793022
 30
0.0
 11
9313.6
 21
6396.907777930223
 31
0.0
  0
LINE
  5
2312F
330
747D
100
AcDbEntity
  8
センター
 48
2.0
100
AcDbLine
 10
8588.600000000001
 20
6856.907777930205
 30
0.0
 11
8688.6
 21
6856.907777930205
 31
0.0
  0
LINE
  5
23130
330
747D
100
AcDbEntity
  8
センター
 48
2.0
100
AcDbLine
 10
8638.600000000002
 20
6906.907777930205
 30
0.0
 11
8638.600000000002
 21
6806.907777930205
 31
0.0
  0
LINE
  5
23131
330
747D
100
AcDbEntity
  8
部品1
 48
50.0
100
AcDbLine
 10
9543.600000000001
 20
6091.907777930227
 30
0.0
 11
9543.600000000001
 21
6166.907777930223
 31
0.0
  0
LINE
  5
23132
330
747D
100
AcDbEntity
  8
センター
 48
2.0
100
AcDbLine
 10
9420.600000000007
 20
6339.907777930207
 30
0.0
 11
9420.600000000007
 21
6239.907777930207
 31
0.0
  0
LINE
  5
23133
102
{ACAD_REACTORS
330
24C61
102
}
330
747D
100
AcDbEntity
  8
部品1
 48
50.0
100
AcDbLine
 10
9543.600000000001
 20
6756.907777930215
 30
0.0
 11
9423.600000000002
 21
6756.907777930215
 31
0.0
  0
LINE
  5
23134
330
747D
100
AcDbEntity
  8
センター
 48
2.0
100
AcDbLine
 10
9370.600000000001
 20
7423.907777930205
 30
0.0
 11
9470.600000000001
 21
7423.907777930205
 31
0.0
  0
LINE
  5
23135
330
747D
100
AcDbEntity
  8
部品1
 48
50.0
100
AcDbLine
 10
9423.6
 20
7316.907777930208
 30
0.0
 11
9313.6
 21
7316.907777930203
 31
0.0
  0
CIRCLE
  5
23136
330
747D
100
AcDbEntity
  8
部品1
 48
50.0
100
AcDbCircle
 10
9420.6
 20
7423.907777930205
 30
0.0
 40
35.0
  0
DIMENSION
  5
23137
330
747D
100
AcDbEntity
  8
寸法
 48
50.0
100
AcDbDimension
  2
*D19
 10
9313.6
 20
7089.199110429831
 30
0.0
 11
9043.54094488189
 21
7089.199110429831
 31
0.0
 70
   160
 71
     5
 42
110.0
  3
INABA_S40G
100
AcDbAlignedDimension
 13
9423.6
 23
7316.907777930208
 33
0.0
 14
9313.6
 24
7316.907777930203
 34
0.0
100
AcDbRotatedDimension
1001
ACAD
1000
DSTYLE
1002
{
1070
   174
1070
     0
1070
   272
1070
     1
1070
   341
1005
0
1002
}
  0
LINE
  5
23138
330
747D
100
AcDbEntity
  8
部品1
 48
50.0
100
AcDbLine
 10
9313.6
 20
7316.907777930203
 30
0.0
 11
9313.6
 21
7426.907777930203
 31
0.0
  0
DIMENSION
  5
23139
330
747D
100
AcDbEntity
  8
寸法
 48
50.0
100
AcDbDimension
  2
*D20
 10
9423.6
 20
7089.199110429831
 30
0.0
 11
9813.659055118112
 21
7089.199110429831
 31
0.0
 70
   160
 71
     5
 42
120.0
  3
INABA_S40G
100
AcDbAlignedDimension
 13
9543.600000000001
 23
7316.907777930206
 33
0.0
 14
9423.6
 24
7316.907777930206
 34
0.0
100
AcDbRotatedDimension
1001
ACAD
1000
DSTYLE
1002
{
1070
   174
1070
     0
1070
   272
1070
     1
1070
   341
1005
0
1002
}
  0
LINE
  5
2313A
102
{ACAD_REACTORS
330
24C61
102
}
330
747D
100
AcDbEntity
  8
部品1
 48
50.0
100
AcDbLine
 10
9543.600000000001
 20
6956.907777930215
 30
0.0
 11
9423.600000000002
 21
6956.907777930215
 31
0.0
  0
LINE
  5
2313B
330
747D
100
AcDbEntity
  8
センター
 48
2.0
100
AcDbLine
 10
9420.6
 20
7473.907777930205
 30
0.0
 11
9420.6
 21
7373.907777930205
 31
0.0
  0
LEADER
  5
23561
330
747D
100
AcDbEntity
  8
寸法
 48
50.0
100
AcDbLeader
  3
INABA_S50G
 73
     0
 74
     0
 75
     1
 40
120.0
 41
994.3492424049171
 76
     3
 10
9420.680085757009
 20
7423.921501126412
 30
0.0
 10
9594.645988304973
 20
7712.880272274155
 30
0.0
 10
9719.645988304973
 20
7712.880272274155
 30
0.0
340
23562
1001
ACAD
1000
DSTYLE
1002
{
1070
   341
1005
0
1070
    40
1040
1.0
1070
   343
1005
0
1070
   344
1005
0
1002
}
  0
MTEXT
  5
23562
102
{ACAD_REACTORS
330
23561
102
}
330
747D
100
AcDbEntity
  8
部品1
 62
     7
 48
50.0
100
AcDbMText
 10
10738.99523070989
 20
7797.880272274156
 30
0.0
 40
120.0
 41
0.0
 71
     6
 72
     1
  1
アンカーボルト
  7
STYLE1
 73
     1
 44
1.0
1001
ACAD
1000
MTEXTBEGIN
1070
    73
1070
     1
1070
    44
1040
1.0
1070
    74
1070
     0
1000
MTEXTEND
  0
DIMENSION
  5
23569
330
747D
100
AcDbEntity
  8
寸法
 48
50.0
100
AcDbDimension
  2
*D37
 10
6607.363161110139
 20
6166.907777930227
 30
0.0
 11
6607.363161110137
 21
5558.422496555969
 31
0.0
 70
   160
  1
扉の出<>
 71
     5
 42
75.00000000002001
  3
INABA_S40G
100
AcDbAlignedDimension
 13
7356.6
 23
6091.907777930207
 33
0.0
 14
6903.6
 24
6166.907777930227
 34
0.0
 50
90.0
100
AcDbRotatedDimension
1001
ACAD
1000
DSTYLE
1002
{
1070
   174
1070
     0
1070
   272
1070
     1
1070
   341
1005
0
1002
}
  0
MTEXT
  5
238A7
330
747D
100
AcDbEntity
  8
部品1
 62
     7
 48
50.0
100
AcDbMText
 10
8436.1912284328
 20
6526.307068355788
 30
0.0
 40
120.0
 41
0.0
 71
     6
 72
     1
  1
CB
  7
STYLE1
 73
     1
 44
1.0
1001
ACAD
1000
MTEXTBEGIN
1070
    73
1070
     1
1070
    44
1040
1.0
1070
    74
1070
     0
1000
MTEXTEND
  0
SOLID
  5
238A8
330
747D
100
AcDbEntity
  8
寸法
 48
50.0
100
AcDbTrace
 10
8551.146860309694
 20
6588.502858706043
 30
0.0
 11
8602.953593642068
 21
6704.153583559829
 31
0.0
 12
8591.455567469427
 22
6577.952065455209
 32
0.0
 13
8591.455567469427
 23
6577.952065455209
 33
0.0
1001
ACAD
1000
DSTYLE
1002
{
1070
   341
1005
0
1070
   343
1005
0
1070
   344
1005
0
1002
}
  0
LWPOLYLINE
  5
238A9
330
747D
100
AcDbEntity
  8
寸法
 48
50.0
100
AcDbPolyline
 90
        3
 70
     0
 43
0.0
 10
8571.30121388956
 20
6583.227462080626
 10
8532.638137382852
 20
6435.517371308079
 10
8268.333180452888
 20
6435.517371308077
1001
ACAD
1000
DSTYLE
1002
{
1070
   341
1005
0
1070
   343
1005
0
1070
   344
1005
0
1002
}
  0
DIMENSION
  5
23CD2
330
747D
100
AcDbEntity
  8
寸法
 48
50.0
100
AcDbDimension
  2
*D38
 10
7625.743526793913
 20
6286.90777793021
 30
0.0
 11
7625.743526793911
 21
5853.21283672633
 31
0.0
 70
   160
 71
     5
 42
194.9999999999863
  3
INABA_S40G
100
AcDbAlignedDimension
 13
7356.6
 23
6091.907777930224
 33
0.0
 14
7356.6
 24
6286.90777793021
 34
0.0
 50
270.0
100
AcDbRotatedDimension
1001
ACAD
1000
DSTYLE
1002
{
1070
   341
1005
0
1002
}
  0
TEXT
  5
23CD4
330
747D
100
AcDbEntity
  8
寸法
 62
     7
100
AcDbText
 10
7703.709332915251
 20
4836.475502532
 30
0.0
 40
120.0
  1
扉の位置に合わせた基礎形状として下さい。
  7
STYLE1
100
AcDbText
  0
LWPOLYLINE
  5
23CD5
330
747D
100
AcDbEntity
  8
寸法
 48
50.0
100
AcDbPolyline
 90
        3
 70
     0
 43
0.0
 10
-7928.10383822487
 20
6091.907777930207
 10
-7587.093373722497
 20
4985.811317867004
 10
-10401.15778665414
 20
4985.811317867004
210
0.0
220
0.0
230
-1.0
1001
ACAD
1000
DSTYLE
1002
{
1070
   341
1005
0
1070
    40
1040
1.0
1070
   343
1005
0
1070
   344
1005
0
1002
}
  0
SOLID
  5
23CD6
330
747D
100
AcDbEntity
  8
寸法
 48
50.0
100
AcDbTrace
 10
-7911.194632554883
 20
5966.31674902532
 30
0.0
 11
-7928.10383822487
 21
6091.907777930207
 31
0.0
 12
-7871.376418081405
 22
5978.58951999423
 32
0.0
 13
-7871.376418081405
 23
5978.58951999423
 33
0.0
210
0.0
220
0.0
230
-1.0
1001
ACAD
1000
DSTYLE
1002
{
1070
   341
1005
0
1070
    40
1040
1.0
1070
   343
1005
0
1070
   344
1005
0
1002
}
  0
TEXT
  5
23CD7
330
747D
100
AcDbEntity
  8
寸法
 62
     7
100
AcDbText
 10
7703.709332915251
 20
5008.079265415325
 30
0.0
 40
120.0
  1
扉位置 (2187x75)
  7
STYLE1
100
AcDbText
  0
DIMENSION
  5
23CD8
330
747D
100
AcDbEntity
  8
寸法
 48
50.0
100
AcDbDimension
  2
*D39
 10
7356.6
 20
5462.748662820256
 30
0.0
 11
8450.1
 21
5562.760473843877
 31
0.0
 70
    32
  1
扉の幅 <>
 71
     5
 42
2187.0
  3
INABA_S40G
100
AcDbAlignedDimension
 13
9543.600000000001
 23
6091.907777930227
 33
0.0
 14
7356.6
 24
6091.907777930224
 34
0.0
100
AcDbRotatedDimension
1001
ACAD
1000
DSTYLE
1002
{
1070
   341
1005
0
1002
}
  0
DIMENSION
  5
24617
330
747D
100
AcDbEntity
  8
寸法
 48
50.0
100
AcDbDimension
  2
*D40
 10
5921.741985112316
 20
6166.907777930227
 30
0.0
 11
5921.741985112316
 21
5855.121052584838
 31
0.0
 70
   160
  1
a
 71
     5
 42
45.61210414292964
  3
INABA_S40G
100
AcDbAlignedDimension
 13
6173.685081831714
 23
6121.295673787297
 33
0.0
 14
6903.6
 24
6166.907777930227
 34
0.0
 50
90.0
100
AcDbRotatedDimension
1001
ACAD
1000
DSTYLE
1002
{
1070
   341
1005
0
1002
}
  0
LINE
  5
24618
330
747D
100
AcDbEntity
  8
想像線
 48
10.0
100
AcDbLine
 10
6848.600000000025
 20
7592.519882073109
 30
0.0
 11
6848.600000000025
 21
6954.531102267456
 31
0.0
  0
LINE
  5
24619
330
747D
100
AcDbEntity
  8
想像線
 48
10.0
100
AcDbLine
 10
6848.600000000023
 20
7592.519882073112
 30
0.0
 11
9618.600000000014
 21
7592.519882073109
 31
0.0
  0
DIMENSION
  5
2461A
330
747D
100
AcDbEntity
  8
寸法
 48
50.0
100
AcDbDimension
  2
*D41
 10
6848.600000000011
 20
8505.128099989125
 30
0.0
 11
6876.100000000007
 21
8605.128099989125
 31
0.0
 70
    32
  1
b
 71
     5
 42
54.99999999998817
  3
INABA_S40G
100
AcDbAlignedDimension
 13
6903.6
 23
7546.907777930205
 33
0.0
 14
6848.600000000011
 24
8292.667404472288
 34
0.0
100
AcDbRotatedDimension
1001
ACAD
1000
DSTYLE
1002
{
1070
   341
1005
0
1002
}
  0
DIMENSION
  5
2461B
330
747D
100
AcDbEntity
  8
寸法
 48
50.0
100
AcDbDimension
  2
*D42
 10
9543.600000000001
 20
8505.128099989125
 30
0.0
 11
9581.100000000002
 21
8605.128099989125
 31
0.0
 70
    32
  1
c
 71
     5
 42
75.00000000000182
  3
INABA_S40G
100
AcDbAlignedDimension
 13
9618.600000000002
 23
8292.667404472288
 33
0.0
 14
9543.600000000001
 24
7546.907777930205
 34
0.0
100
AcDbRotatedDimension
1001
ACAD
1000
DSTYLE
1002
{
1070
   341
1005
0
1002
}
  0
TEXT
  5
2461C
330
747D
100
AcDbEntity
  8
部品1
 48
50.0
100
AcDbText
 10
9917.334428457532
 20
6569.710182168407
 30
0.0
 40
80.0
  1
(a=45,b=55,c=75)
  7
STYLE1
100
AcDbText
  0
TEXT
  5
2461D
330
747D
100
AcDbEntity
  8
部品1
 48
50.0
100
AcDbText
 10
9758.755419703231
 20
6676.555403037162
 30
0.0
 40
80.0
  1
※a,b,cは屋根の出幅です。
  7
STYLE1
100
AcDbText
  0
MTEXT
  5
2461E
102
{ACAD_REACTORS
330
2461F
102
}
330
747D
100
AcDbEntity
  8
部品1
 62
     7
 48
50.0
100
AcDbMText
 10
10556.54261569183
 20
6855.866089970236
 30
0.0
 40
120.0
 41
0.0
 71
     6
 72
     1
  1
\A1;屋根の外寸
  7
STYLE1
 73
     1
 44
1.0
1001
ACAD
1000
MTEXTBEGIN
1070
    73
1070
     1
1070
    44
1040
1.0
1070
    74
1070
     0
1000
MTEXTEND
  0
LEADER
  5
2461F
330
747D
100
AcDbEntity
  8
寸法
 48
50.0
100
AcDbLeader
  3
INABA_S50G
 73
     0
 74
     0
 75
     1
 40
120.0
 41
672.0
 76
     3
 10
9618.602603499796
 20
7029.755433433812
 30
0.0
 10
9734.542615691836
 20
6770.866089970237
 30
0.0
 10
9859.542615691836
 20
6770.866089970237
 30
0.0
340
2461E
1001
ACAD
1000
DSTYLE
1002
{
1070
   341
1005
0
1070
    40
1040
1.0
1070
   343
1005
0
1070
   344
1005
0
1002
}
  0
DIMENSION
  5
24620
330
747D
100
AcDbEntity
  8
寸法
 48
50.0
100
AcDbDimension
  2
*D43
 10
5921.741985112316
 20
7592.519882073109
 30
0.0
 11
5921.741985112316
 21
7863.694503275567
 31
0.0
 70
   160
  1
a
 71
     5
 42
45.61210414290326
  3
INABA_S40G
100
AcDbAlignedDimension
 13
6903.6
 23
7546.907777930205
 33
0.0
 14
6173.685081831713
 24
7592.519882073109
 34
0.0
 50
90.0
100
AcDbRotatedDimension
1001
ACAD
1000
DSTYLE
1002
{
1070
   341
1005
0
1002
}
  0
LINE
  5
24621
330
747D
100
AcDbEntity
  8
想像線
 48
10.0
100
AcDbLine
 10
9618.600000000014
 20
7592.519882073109
 30
0.0
 11
9618.600000000014
 21
6954.531102267456
 31
0.0
  0
LEADER
  5
2463D
330
747D
100
AcDbEntity
  8
寸法
 48
50.0
100
AcDbLeader
  3
INABA_S50G
 73
     0
 74
     0
 75
     1
 40
120.0
 41
720.0000000000001
 76
     3
 10
8174.232862736095
 20
6087.778896505235
 30
0.0
 10
8331.006437122379
 20
5826.764982937402
 30
0.0
 10
8456.006437122379
 20
5826.764982937402
 30
0.0
340
2463E
1001
ACAD
1000
DSTYLE
1002
{
1070
   341
1005
0
1070
    40
1040
1.0
1070
   343
1005
0
1070
   344
1005
0
1002
}
  0
MTEXT
  5
2463E
102
{ACAD_REACTORS
330
2463D
102
}
330
747D
100
AcDbEntity
  8
部品1
 62
     7
 48
50.0
100
AcDbMText
 10
9201.006437122378
 20
5911.764982937402
 30
0.0
 40
120.0
 41
0.0
 71
     6
 72
     1
  1
\A1;床下換気口
  7
STYLE1
 73
     1
 44
1.0
1001
ACAD
1000
MTEXTBEGIN
1070
    73
1070
     1
1070
    44
1040
1.0
1070
    74
1070
     0
1000
MTEXTEND
  0
LINE
  5
24C45
102
{ACAD_REACTORS
330
24C7F
102
}
330
747D
100
AcDbEntity
  8
部品1
 48
50.0
100
AcDbLine
 10
9313.6
 20
7426.907777930203
 30
0.0
 11
7133.6
 21
7426.907777930205
 31
0.0
  0
LINE
  5
24C46
102
{ACAD_REACTORS
330
24C9D
102
}
330
747D
100
AcDbEntity
  8
部品1
 48
50.0
100
AcDbLine
 10
7023.6
 20
6396.907777930207
 30
0.0
 11
7023.6
 21
7316.907777930201
 31
0.0
  0
LINE
  5
24C47
102
{ACAD_REACTORS
330
24CBB
102
}
330
747D
100
AcDbEntity
  8
部品1
 48
50.0
100
AcDbLine
 10
9313.6
 20
6286.907777930221
 30
0.0
 11
7133.6
 21
6286.907777930209
 31
0.0
  0
LINE
  5
24C48
102
{ACAD_REACTORS
330
24C61
102
}
330
747D
100
AcDbEntity
  8
部品1
 48
50.0
100
AcDbLine
 10
9423.6
 20
6396.907777930225
 30
0.0
 11
9423.6
 21
7316.907777930206
 31
0.0
  0
HATCH
  5
24C61
330
747D
100
AcDbEntity
  8
細線
 48
50.0
100
AcDbHatch
 10
0.0
 20
0.0
 30
0.0
210
0.0
220
0.0
230
1.0
  2
LINE
 70
     0
 71
     1
 91
        1
 92
        7
 72
     0
 73
     1
 93
        4
 10
9543.600000000001
 20
6956.907777930215
 10
9423.599999999998
 20
6956.907777930215
 10
9423.600000000002
 20
6756.907777930215
 10
9543.600000000001
 20
6756.907777930215
 97
        4
330
2313A
330
24C48
330
23133
330
23128
 75
     0
 76
     1
 52
45.0
 41
10.0
 77
     0
 78
     1
 53
45.0
 43
0.0
 44
0.0
 45
-22.45064030267288
 46
22.45064030267288
 79
     0
 47
2.196890763102855
 98
        1
 10
9471.883731834532
 20
6822.29240261544
  0
HATCH
  5
24C7F
330
747D
100
AcDbEntity
  8
細線
 48
50.0
100
AcDbHatch
 10
0.0
 20
0.0
 30
0.0
210
0.0
220
0.0
230
1.0
  2
LINE
 70
     0
 71
     1
 91
        1
 92
        7
 72
     0
 73
     1
 93
        4
 10
8323.6
 20
7546.907777930205
 10
8123.600000000001
 20
7546.907777930204
 10
8123.600000000001
 20
7426.907777930207
 10
8323.6
 20
7426.907777930207
 97
        4
330
230EE
330
23122
330
24C45
330
23121
 75
     0
 76
     1
 52
45.0
 41
10.0
 77
     0
 78
     1
 53
45.0
 43
0.0
 44
0.0
 45
-22.45064030267288
 46
22.45064030267288
 79
     0
 47
5.61957054683631
 98
        1
 10
8228.591286238021
 20
7485.856578177733
  0
HATCH
  5
24C9D
330
747D
100
AcDbEntity
  8
細線
 48
50.0
100
AcDbHatch
 10
0.0
 20
0.0
 30
0.0
210
0.0
220
0.0
230
1.0
  2
LINE
 70
     0
 71
     1
 91
        1
 92
        7
 72
     0
 73
     1
 93
        4
 10
7023.599999999999
 20
6956.907777930213
 10
6903.6
 20
6956.907777930215
 10
6903.6
 20
6756.907777930215
 10
7023.600000000001
 20
6756.907777930215
 97
        4
330
230F8
330
230FD
330
230F7
330
24C46
 75
     0
 76
     1
 52
45.0
 41
10.0
 77
     0
 78
     1
 53
45.0
 43
0.0
 44
0.0
 45
-22.45064030267288
 46
22.45064030267288
 79
     0
 47
5.61957054683631
 98
        1
 10
6980.379877513624
 20
6873.323376777775
  0
HATCH
  5
24CBB
330
747D
100
AcDbEntity
  8
細線
 48
50.0
100
AcDbHatch
 10
0.0
 20
0.0
 30
0.0
210
0.0
220
0.0
230
1.0
  2
LINE
 70
     0
 71
     1
 91
        1
 92
        7
 72
     0
 73
     1
 93
        4
 10
8323.600000000018
 20
6286.907777930215
 10
8123.600000000017
 20
6286.907777930212
 10
8123.600000000017
 20
6091.907777930213
 10
8323.600000000018
 20
6091.907777930214
 97
        4
330
24C47
330
23116
330
230E9
330
23117
 75
     0
 76
     1
 52
45.0
 41
10.0
 77
     0
 78
     1
 53
45.0
 43
0.0
 44
0.0
 45
-22.45064030267288
 46
22.45064030267288
 79
     0
 47
6.310540261727943
 98
        1
 10
8195.825621062395
 20
6188.32821046704
  0
LINE
  5
251E0
330
747D
100
AcDbEntity
  8
部品1
100
AcDbLine
 10
11182.97002658895
 20
3375.780990012631
 30
0.0
 11
5111.9848412027
 21
3375.78099001263
 31
0.0
  0
LINE
  5
251E1
330
747D
100
AcDbEntity
  8
部品1
100
AcDbLine
 10
11182.97002658895
 20
3135.780990012628
 30
0.0
 11
5111.984841202703
 21
3135.780990012629
 31
0.0
  0
LINE
  5
251E2
330
747D
100
AcDbEntity
  8
部品1
100
AcDbLine
 10
5111.984841202705
 20
411.4740204279833
 30
0.0
 11
11182.97002658895
 21
411.4740204279833
 31
0.0
  0
LEADER
  5
251E3
330
747D
100
AcDbEntity
  8
寸法
 48
50.0
100
AcDbLeader
  3
INABA_S50G
 73
     0
 74
     0
 75
     1
 40
102.2727272727273
 41
680.0000000000001
 76
     3
 10
8120.092593189157
 20
2453.684651344929
 30
0.0
 10
8154.446564302515
 20
2864.13746245147
 30
0.0
 10
8279.446564302515
 20
2864.13746245147
 30
0.0
340
251E4
1001
ACAD
1000
DSTYLE
1002
{
1070
   341
1005
0
1070
    40
1040
1.0
1070
   343
1005
0
1070
   344
1005
0
1002
}
  0
MTEXT
  5
251E4
102
{ACAD_REACTORS
330
251E3
102
}
330
747D
100
AcDbEntity
  8
部品1
 62
     7
 48
50.0
100
AcDbMText
 10
8304.446564302516
 20
2940.273826087834
 30
0.0
 40
80.0
 41
0.8
 71
     4
 72
     1
  1
\A1;ナット(市販品)
  7
STYLE2
 73
     1
 44
1.0
1001
ACAD
1000
MTEXTBEGIN
1070
    73
1070
     1
1070
    44
1040
1.0
1070
    74
1070
     0
1000
MTEXTEND
  0
LEADER
  5
251E5
330
747D
100
AcDbEntity
  8
寸法
 48
50.0
100
AcDbLeader
  3
INABA_S50G
 73
     0
 74
     0
 75
     1
 40
102.2727272727273
 41
906.8181818181818
 76
     3
 10
8144.092593189158
 20
2323.932658680066
 30
0.0
 10
8185.964183557997
 20
2679.168379686682
 30
0.0
 10
8310.964183557997
 20
2679.168379686682
 30
0.0
340
251E6
1001
ACAD
1000
DSTYLE
1002
{
1070
   341
1005
0
1070
    40
1040
1.0
1070
   343
1005
0
1070
   344
1005
0
1002
}
  0
MTEXT
  5
251E6
102
{ACAD_REACTORS
330
251E5
102
}
330
747D
100
AcDbEntity
  8
部品1
 62
     7
 48
50.0
100
AcDbMText
 10
8335.964183557996
 20
2755.304743323046
 30
0.0
 40
80.0
 41
0.8
 71
     4
 72
     1
  1
\A1;ワッシャー(市販品)
  7
STYLE2
 73
     1
 44
1.0
1001
ACAD
1000
MTEXTBEGIN
1070
    73
1070
     1
1070
    44
1040
1.0
1070
    74
1070
     0
1000
MTEXTEND
  0
LWPOLYLINE
  5
251E7
330
747D
100
AcDbEntity
  8
部品1
 48
50.0
100
AcDbPolyline
 90
        2
 70
     0
 43
8.0
 10
8296.692593189158
 20
1814.809370235786
 10
8590.395056588542
 20
1814.809370235786
  0
TEXT
  5
251E8
330
747D
100
AcDbEntity
  8
部品1
 48
50.0
100
AcDbText
 10
8301.046177473587
 20
2410.688050997986
 30
0.0
 40
80.0
  1
基礎ボルト(市販品)
  7
STYLE2
100
AcDbText
  0
DIMENSION
  5
251E9
330
747D
100
AcDbEntity
  8
寸法
 48
50.0
100
AcDbDimension
  2
*D44
 10
8798.561192958002
 20
1730.809370235784
 30
0.0
 11
8698.561192958001
 21
1892.809370235786
 31
0.0
 70
    32
  1
180
 71
     5
 42
324.0000000000009
  3
INABA_S40G
100
AcDbAlignedDimension
 13
8296.692593189158
 23
2054.809370235786
 33
0.0
 14
8296.692593189158
 24
1730.809370235785
 34
0.0
 50
90.0
100
AcDbRotatedDimension
1001
ACAD
1000
DSTYLE
1002
{
1070
   174
1070
     0
1070
   272
1070
     1
1070
   279
1070
     1
1070
   288
1070
     0
1070
   341
1005
0
1002
}
  0
DIMENSION
  5
251EA
330
747D
100
AcDbEntity
  8
寸法
 48
50.0
100
AcDbDimension
  2
*D45
 10
8798.561192958002
 20
2054.809370235786
 30
0.0
 11
9074.615859077027
 21
2029.685412631574
 31
0.0
 70
   160
  1
20～25
 71
     5
 42
52.76000000000113
  3
INABA_S40G
100
AcDbAlignedDimension
 13
8109.492593189159
 23
2107.569370235787
 33
0.0
 14
8296.692593189158
 24
2054.809370235786
 34
0.0
 50
90.0
100
AcDbRotatedDimension
1001
ACAD
1000
DSTYLE
1002
{
1070
   174
1070
     0
1070
   272
1070
     1
1070
   279
1070
     1
1070
   288
1070
     0
1070
   341
1005
0
1002
}
  0
MTEXT
  5
251EB
102
{ACAD_REACTORS
330
251EC
102
}
330
747D
100
AcDbEntity
  8
部品1
 62
     7
 48
50.0
100
AcDbMText
 10
8305.637055608476
 20
2319.192696389015
 30
0.0
 40
80.0
 41
0.8
 71
     4
 72
     1
  1
M10X160
  7
STYLE2
 73
     1
 44
1.0
1001
ACAD
1000
MTEXTBEGIN
1070
    73
1070
     1
1070
    44
1040
1.0
1070
    74
1070
     0
1000
MTEXTEND
  0
LEADER
  5
251EC
330
747D
100
AcDbEntity
  8
寸法
 48
50.0
100
AcDbLeader
  3
INABA_S50G
 73
     0
 74
     0
 75
     1
 40
80.0
 41
435.0
 76
     3
 10
8113.092593189158
 20
2103.969370235786
 30
0.0
 10
8155.637055608478
 20
2254.192696389015
 30
0.0
 10
8280.637055608478
 20
2254.192696389015
 30
0.0
340
251EB
1001
ACAD
1000
DSTYLE
1002
{
1070
   341
1005
0
1070
    40
1040
1.0
1070
   343
1005
0
1070
   344
1005
0
1002
}
  0
LINE
  5
251ED
330
747D
100
AcDbEntity
  8
部品1
100
AcDbLine
 10
5111.984841202701
 20
3375.780990012631
 30
0.0
 11
5111.984841202703
 21
411.4740204279833
 31
0.0
  0
LEADER
  5
251EE
330
747D
100
AcDbEntity
  8
寸法
 48
50.0
100
AcDbLeader
  3
INABA_S50G
 73
     0
 75
     1
 40
113.1818181818182
 41
608.6363636363635
 76
     3
 10
8072.829343327208
 20
2004.325043594064
 30
0.0
 10
7939.025514635861
 20
2855.704125950542
 30
0.0
 10
7814.025514635861
 20
2855.704125950542
 30
0.0
340
251EF
1001
ACAD
1000
DSTYLE
1002
{
1070
   341
1005
0
1070
    40
1040
1.0
1070
   343
1005
0
1070
   344
1005
0
1002
}
  0
MTEXT
  5
251EF
102
{ACAD_REACTORS
330
251EE
102
}
330
747D
100
AcDbEntity
  8
寸法
 62
     7
 48
50.0
100
AcDbMText
 10
7789.025514635861
 20
2937.295035041451
 30
0.0
 40
80.0
 41
0.8
 71
     6
 72
     1
  1
\A1;φ70スリーブ
  7
STYLE2
 73
     1
 44
1.0
1001
ACAD
1000
MTEXTBEGIN
1070
    73
1070
     1
1070
    44
1040
1.0
1070
    74
1070
     0
1000
MTEXTEND
  0
LWPOLYLINE
  5
251F0
330
747D
100
AcDbEntity
  8
部品1
 48
50.0
100
AcDbPolyline
 90
        2
 70
     0
 43
8.0
 10
5768.513378179007
 20
1814.809370235786
 10
6182.653280011964
 20
1814.809370235786
  0
TEXT
  5
251F1
330
747D
100
AcDbEntity
  8
部品1
 48
50.0
100
AcDbText
 10
5768.513378179007
 20
1826.048362519041
 30
0.0
 40
80.0
  1
▽G.L
  7
STYLE2
100
AcDbText
  0
DIMENSION
  5
251F2
330
747D
100
AcDbEntity
  8
寸法
 48
50.0
100
AcDbDimension
  2
*D46
 10
5912.232966279504
 20
1270.809370235785
 30
0.0
 11
5912.232966279504
 21
1390.809370235785
 31
0.0
 70
   160
  1
150
 71
     5
 42
240.0
  3
INABA_S40G
100
AcDbAlignedDimension
 13
6054.653280011964
 23
1510.809370235785
 33
0.0
 14
5974.653280011967
 24
1270.809370235785
 34
0.0
 50
90.0
100
AcDbRotatedDimension
1001
ACAD
1000
DSTYLE
1002
{
1070
   174
1070
     0
1070
   272
1070
     1
1070
   279
1070
     1
1070
   288
1070
     0
1070
   341
1005
0
1002
}
  0
LEADER
  5
251F3
330
747D
100
AcDbEntity
  8
寸法
 48
50.0
100
AcDbLeader
  3
INABA_S50G
 71
     0
 73
     0
 75
     1
 40
100.0
 41
225.0
 76
     3
 10
6150.556232364107
 20
1390.809370235785
 30
0.0
 10
6028.718253816769
 20
1127.286676617349
 30
0.0
 10
5903.718253816769
 20
1127.286676617349
 30
0.0
1001
ACAD
1000
DSTYLE
1002
{
1070
    40
1040
1.0
1070
   272
1070
     1
1070
   279
1070
     1
1070
   341
1005
0
1002
}
  0
LEADER
  5
251F4
330
747D
100
AcDbEntity
  8
寸法
 48
50.0
100
AcDbLeader
  3
INABA_S50G
 71
     0
 73
     0
 75
     1
 40
100.0
 41
222.7272727272727
 76
     3
 10
6278.653280011964
 20
1390.809370235785
 30
0.0
 10
6056.840981374205
 20
946.9705240779058
 30
0.0
 10
5931.840981374205
 20
946.9705240779058
 30
0.0
1001
ACAD
1000
DSTYLE
1002
{
1070
    40
1040
1.0
1070
   272
1070
     1
1070
   279
1070
     1
1070
   341
1005
0
1002
}
  0
MTEXT
  5
251F5
102
{ACAD_REACTORS
330
251F6
102
}
330
747D
100
AcDbEntity
  8
寸法
 62
     7
 48
50.0
100
AcDbMText
 10
6093.40322578916
 20
1656.109973053242
 30
0.0
 40
80.0
 41
0.8
 71
     6
 72
     1
  1
\A1;D10@300
  7
STYLE2
 73
     1
 44
1.0
1001
ACAD
1000
MTEXTBEGIN
1070
    73
1070
     1
1070
    44
1040
1.0
1070
    74
1070
     0
1000
MTEXTEND
  0
LEADER
  5
251F6
330
747D
100
AcDbEntity
  8
寸法
 48
50.0
100
AcDbLeader
  3
INABA_S50G
 71
     0
 73
     0
 75
     1
 40
100.0
 41
540.3409090909091
 76
     3
 10
6286.653280011964
 20
1812.936584932909
 30
0.0
 10
6228.671043483266
 20
1591.466256392104
 30
0.0
 10
6103.671043483266
 20
1591.466256392104
 30
0.0
213
-9.732182305893367
223
-4.643716661138569
233
0.0
1001
ACAD
1000
DSTYLE
1002
{
1070
    40
1040
1.0
1070
   272
1070
     1
1070
   279
1070
     1
1070
   341
1005
0
1002
}
  0
LEADER
  5
251F7
330
747D
100
AcDbEntity
  8
寸法
 48
50.0
100
AcDbLeader
  3
INABA_S50G
 71
     0
 73
     0
 75
     1
 40
130.1136363636363
 41
651.1363636363636
 76
     3
 10
6262.653280011964
 20
2054.809370235786
 30
0.0
 10
6150.228699847947
 20
2195.280135692374
 30
0.0
 10
6025.228699847947
 20
2195.280135692374
 30
0.0
1001
ACAD
1000
DSTYLE
1002
{
1070
    40
1040
1.0
1070
   272
1070
     1
1070
   279
1070
     1
1070
   341
1005
0
1002
}
  0
MTEXT
  5
251F8
102
{ACAD_REACTORS
330
251F7
102
}
330
747D
100
AcDbEntity
  8
寸法
 62
     7
 48
50.0
100
AcDbMText
 10
5962.554800528691
 20
2267.325590237828
 30
0.0
 40
80.0
 41
0.8
 71
     6
 72
     1
  1
\A1;金コテ押エ
  7
STYLE2
 73
     1
 44
1.0
1001
ACAD
1000
MTEXTBEGIN
1070
    73
1070
     1
1070
    44
1040
1.0
1070
    74
1070
     0
1000
MTEXTEND
  0
DIMENSION
  5
251F9
330
747D
100
AcDbEntity
  8
寸法
 48
50.0
100
AcDbDimension
  2
*D47
 10
5447.616041450223
 20
1270.809370235786
 30
0.0
 11
5447.616041450224
 21
1642.349519891786
 31
0.0
 70
   160
  1
540
 71
     5
 42
784.0
  3
INABA_S40G
100
AcDbAlignedDimension
 13
6182.653280011964
 23
2054.809370235786
 33
0.0
 14
5974.653280011967
 24
1270.809370235785
 34
0.0
 50
90.0
100
AcDbRotatedDimension
1001
ACAD
1000
DSTYLE
1002
{
1070
   174
1070
     0
1070
   272
1070
     1
1070
   279
1070
     1
1070
   288
1070
     0
1070
   341
1005
0
1002
}
  0
MTEXT
  5
251FA
102
{ACAD_REACTORS
330
251F4
102
}
330
747D
100
AcDbEntity
  8
寸法
 62
     7
 48
50.0
100
AcDbMText
 10
5911.840981374204
 20
1006.970524077906
 30
0.0
 40
80.0
 41
0.8
 71
     6
 72
     1
  1
D13
  7
STYLE2
 73
     1
 44
1.0
1001
ACAD
1000
MTEXTBEGIN
1070
    73
1070
     1
1070
    44
1040
1.0
1070
    74
1070
     0
1000
MTEXTEND
  0
MTEXT
  5
251FB
102
{ACAD_REACTORS
330
251F3
102
}
330
747D
100
AcDbEntity
  8
寸法
 62
     7
 48
50.0
100
AcDbMText
 10
5883.71825381677
 20
1187.286676617349
 30
0.0
 40
80.0
 41
0.8
 71
     6
 72
     1
  1
D10
  7
STYLE2
 73
     1
 44
1.0
1001
ACAD
1000
MTEXTBEGIN
1070
    73
1070
     1
1070
    44
1040
1.0
1070
    74
1070
     0
1000
MTEXTEND
  0
DIMENSION
  5
251FC
330
747D
100
AcDbEntity
  8
寸法
 48
50.0
100
AcDbDimension
  2
*D48
 10
6502.653280011964
 20
732.3797322306254
 30
0.0
 11
6258.556521333741
 21
732.3797322306254
 31
0.0
 70
   160
  1
300
 71
     5
 42
448.0
  3
INABA_S40G
100
AcDbAlignedDimension
 13
6054.653280011964
 23
1142.809370235785
 33
0.0
 14
6502.653280011964
 24
1142.809370235785
 34
0.0
100
AcDbRotatedDimension
1001
ACAD
1000
DSTYLE
1002
{
1070
   174
1070
     0
1070
   272
1070
     1
1070
   279
1070
     1
1070
   288
1070
     0
1070
   341
1005
0
1002
}
  0
MTEXT
  5
251FD
102
{ACAD_REACTORS
330
251FE
102
}
330
747D
100
AcDbEntity
  8
寸法
 62
     7
 48
50.0
100
AcDbMText
 10
7815.668520844219
 20
2576.610763133937
 30
0.0
 40
80.0
 41
0.8
 71
     6
 72
     1
  1
アンカープレート Ｕ
  7
STYLE2
 73
     1
 44
1.0
1001
ACAD
1000
MTEXTBEGIN
1070
    73
1070
     1
1070
    44
1040
1.0
1070
    74
1070
     0
1000
MTEXTEND
  0
LEADER
  5
251FE
330
747D
100
AcDbEntity
  8
寸法
 48
50.0
100
AcDbLeader
  3
INABA_S50G
 73
     0
 75
     1
 40
106.3636363636363
 41
920.0
 76
     3
 10
8014.092593189159
 20
2124.369370235787
 30
0.0
 10
7965.66852084422
 20
2498.428944952119
 30
0.0
 10
7840.66852084422
 20
2498.428944952119
 30
0.0
340
251FD
1001
ACAD
1000
DSTYLE
1002
{
1070
   341
1005
0
1070
    40
1040
1.0
1070
   343
1005
0
1070
   344
1005
0
1002
}
  0
LINE
  5
251FF
330
747D
100
AcDbEntity
  8
細線
 48
50.0
100
AcDbLine
 10
6302.653280011965
 20
1893.182262903616
 30
0.0
 11
6374.653280011965
 21
1965.182262903616
 31
0.0
  0
ARC
  5
25200
330
747D
100
AcDbEntity
  8
部品1
 48
50.0
100
AcDbCircle
 10
6278.653280011965
 20
1915.063799630031
 30
0.0
 40
24.0
100
AcDbArc
 50
0.0
 51
180.0
  0
CIRCLE
  5
25201
330
747D
100
AcDbEntity
  8
部品1
 48
50.0
100
AcDbCircle
 10
6278.653280011965
 20
1915.063799630031
 30
0.0
 40
8.0
  0
LINE
  5
25202
330
747D
100
AcDbEntity
  8
部品1
 48
50.0
100
AcDbLine
 10
6182.653280011965
 20
1510.809370235785
 30
0.0
 11
6182.653280011965
 21
2054.809370235786
 31
0.0
  0
LINE
  5
25203
330
747D
100
AcDbEntity
  8
部品1
 48
50.0
100
AcDbLine
 10
6374.653280011965
 20
2054.809370235786
 30
0.0
 11
6374.653280011965
 21
1510.809370235785
 31
0.0
  0
MTEXT
  5
25204
102
{ACAD_REACTORS
330
25209
102
}
330
747D
100
AcDbEntity
  8
寸法
 62
     7
 48
50.0
100
AcDbMText
 10
6457.539217039358
 20
1916.076931534713
 30
0.0
 40
80.0
 41
0.8
 71
     4
 72
     1
  1
D13
  7
STYLE2
 73
     1
 44
1.0
1001
ACAD
1000
MTEXTBEGIN
1070
    73
1070
     1
1070
    44
1040
1.0
1070
    74
1070
     0
1000
MTEXTEND
  0
LEADER
  5
25205
330
747D
100
AcDbEntity
  8
寸法
 48
50.0
100
AcDbLeader
  3
INABA_S50G
 71
     0
 73
     0
 74
     0
 75
     1
 40
100.0
 41
225.0
 76
     3
 10
6406.556232364107
 20
1390.809370235785
 30
0.0
 10
6460.980939818648
 20
1295.412301292813
 30
0.0
 10
6585.980939818648
 20
1295.412301292813
 30
0.0
1001
ACAD
1000
DSTYLE
1002
{
1070
    40
1040
1.0
1070
   272
1070
     1
1070
   279
1070
     1
1070
   341
1005
0
1002
}
  0
LEADER
  5
25206
330
747D
100
AcDbEntity
  8
寸法
 48
50.0
100
AcDbLeader
  3
INABA_S50G
 71
     0
 73
     0
 74
     0
 75
     1
 40
100.0
 41
540.3409090909091
 76
     3
 10
6352.598449025139
 20
1374.06883982226
 30
0.0
 10
6471.391735873215
 20
1032.438021827362
 30
0.0
 10
6596.391735873215
 20
1032.438021827362
 30
0.0
213
0.0
223
-1.022262676269383
233
0.0
1001
ACAD
1000
DSTYLE
1002
{
1070
    40
1040
1.0
1070
   272
1070
     1
1070
   279
1070
     1
1070
   341
1005
0
1002
}
  0
MTEXT
  5
25207
102
{ACAD_REACTORS
330
25205
102
}
330
747D
100
AcDbEntity
  8
寸法
 62
     7
 48
50.0
100
AcDbMText
 10
6605.980939818649
 20
1355.412301292813
 30
0.0
 40
80.0
 41
0.8
 71
     4
 72
     1
  1
D10
  7
STYLE2
 73
     1
 44
1.0
1001
ACAD
1000
MTEXTBEGIN
1070
    73
1070
     1
1070
    44
1040
1.0
1070
    74
1070
     0
1000
MTEXTEND
  0
LWPOLYLINE
  5
25208
330
747D
100
AcDbEntity
  8
部品1
 48
50.0
100
AcDbPolyline
 90
        2
 70
     0
 43
8.0
 10
6374.653280011964
 20
1814.809370235786
 10
6788.793181844922
 20
1814.809370235786
  0
LEADER
  5
25209
330
747D
100
AcDbEntity
  8
寸法
 48
50.0
100
AcDbLeader
  3
INABA_S50G
 71
     0
 73
     0
 74
     0
 75
     1
 40
100.0
 41
222.7272727272727
 76
     3
 10
6278.653280011964
 20
1915.063799630031
 30
0.0
 10
6312.539217039359
 20
1856.076931534713
 30
0.0
 10
6437.539217039359
 20
1856.076931534713
 30
0.0
1001
ACAD
1000
DSTYLE
1002
{
1070
    40
1040
1.0
1070
   272
1070
     1
1070
   279
1070
     1
1070
   341
1005
0
1002
}
  0
LINE
  5
2520A
330
747D
100
AcDbEntity
  8
細線
 48
50.0
100
AcDbLine
 10
6054.653280011958
 20
1429.656115997956
 30
0.0
 11
6135.806534249793
 21
1510.809370235785
 31
0.0
  0
LINE
  5
2520B
330
747D
100
AcDbEntity
  8
細線
 48
50.0
100
AcDbLine
 10
6262.519127489369
 20
1448.936584932908
 30
0.0
 11
6286.653280011971
 21
1473.070737455507
 31
0.0
  0
LINE
  5
2520C
330
747D
100
AcDbEntity
  8
細線
 48
50.0
100
AcDbLine
 10
6169.451144429038
 20
1382.809370235785
 30
0.0
 11
6286.653280011964
 21
1500.011505818711
 31
0.0
  0
LINE
  5
2520D
330
747D
100
AcDbEntity
  8
部品1
 48
50.0
100
AcDbLine
 10
6054.653280011965
 20
1270.809370235785
 30
0.0
 11
6054.653280011965
 21
1510.809370235785
 31
0.0
  0
LINE
  5
2520E
330
747D
100
AcDbEntity
  8
細線
 48
50.0
100
AcDbLine
 10
6411.918059697909
 20
1382.809370235785
 30
0.0
 11
6502.653280011966
 21
1473.544590549844
 31
0.0
  0
LINE
  5
2520F
330
747D
100
AcDbEntity
  8
細線
 48
50.0
100
AcDbLine
 10
6384.977291334692
 20
1382.809370235785
 30
0.0
 11
6502.653280011966
 21
1500.485358913052
 31
0.0
  0
LINE
  5
25210
330
747D
100
AcDbEntity
  8
部品1
 48
50.0
100
AcDbLine
 10
6502.653280011966
 20
1510.809370235785
 30
0.0
 11
6502.653280011966
 21
1270.809370235785
 31
0.0
  0
LINE
  5
25211
330
747D
100
AcDbEntity
  8
部品1
 48
50.0
100
AcDbLine
 10
6302.65328001197
 20
1390.809370235785
 30
0.0
 11
6302.653280011965
 21
1915.063799630031
 31
0.0
  0
LINE
  5
25212
330
747D
100
AcDbEntity
  8
部品1
 48
50.0
100
AcDbLine
 10
6286.653280011971
 20
1390.809370235785
 30
0.0
 11
6286.653280011957
 21
1915.063799630031
 31
0.0
  0
LINE
  5
25213
330
747D
100
AcDbEntity
  8
細線
 48
50.0
100
AcDbLine
 10
6270.653280011965
 20
1430.129969092297
 30
0.0
 11
6286.653280011971
 21
1446.129969092297
 31
0.0
  0
LINE
  5
25214
330
747D
100
AcDbEntity
  8
細線
 48
50.0
100
AcDbLine
 10
6259.836119507979
 20
1142.809370235785
 30
0.0
 11
6294.133616139162
 21
1270.809370235785
 31
0.0
  0
LINE
  5
25215
330
747D
100
AcDbEntity
  8
部品1
 48
50.0
100
AcDbLine
 10
6582.653280011967
 20
1142.809370235785
 30
0.0
 11
5974.653280011967
 21
1142.809370235785
 31
0.0
  0
LINE
  5
25216
330
747D
100
AcDbEntity
  8
部品1
 48
50.0
100
AcDbLine
 10
6110.653280011965
 20
1366.809370235785
 30
0.0
 11
6446.653280011965
 21
1366.809370235785
 31
0.0
  0
LINE
  5
25217
330
747D
100
AcDbEntity
  8
部品1
 48
50.0
100
AcDbLine
 10
6110.653280011965
 20
1382.809370235785
 30
0.0
 11
6446.653280011965
 21
1382.809370235785
 31
0.0
  0
LINE
  5
25218
330
747D
100
AcDbEntity
  8
部品1
 48
50.0
100
AcDbLine
 10
6582.653280011967
 20
1270.809370235785
 30
0.0
 11
5974.653280011967
 21
1270.809370235785
 31
0.0
  0
CIRCLE
  5
25219
330
747D
100
AcDbEntity
  8
部品1
 48
50.0
100
AcDbCircle
 10
6278.653280011965
 20
1390.809370235785
 30
0.0
 40
8.0
  0
LINE
  5
2521A
330
747D
100
AcDbEntity
  8
細線
 48
50.0
100
AcDbLine
 10
6272.977291334697
 20
1270.809370235785
 30
0.0
 11
6368.977291334697
 21
1366.809370235785
 31
0.0
  0
LINE
  5
2521B
330
747D
100
AcDbEntity
  8
細線
 48
50.0
100
AcDbLine
 10
6102.060029613481
 20
1142.809370235785
 30
0.0
 11
6136.357526244664
 21
1270.809370235785
 31
0.0
  0
LINE
  5
2521C
330
747D
100
AcDbEntity
  8
細線
 48
50.0
100
AcDbLine
 10
6180.948074560726
 20
1142.809370235783
 30
0.0
 11
6215.24557119191
 21
1270.809370235784
 31
0.0
  0
LINE
  5
2521D
330
747D
100
AcDbEntity
  8
細線
 48
50.0
100
AcDbLine
 10
6023.171984666223
 20
1142.809370235783
 30
0.0
 11
6057.469481297406
 21
1270.809370235784
 31
0.0
  0
LINE
  5
2521E
330
747D
100
AcDbEntity
  8
部品1
 48
50.0
100
AcDbLine
 10
5974.653280011967
 20
1142.809370235785
 30
0.0
 11
5974.653280011967
 21
1270.809370235785
 31
0.0
  0
LINE
  5
2521F
330
747D
100
AcDbEntity
  8
細線
 48
50.0
100
AcDbLine
 10
6108.490810231827
 20
1166.809370235785
 30
0.0
 11
6114.921590850174
 21
1142.809370235785
 31
0.0
  0
LINE
  5
25220
330
747D
100
AcDbEntity
  8
細線
 48
50.0
100
AcDbLine
 10
6029.602765284575
 20
1166.809370235785
 30
0.0
 11
6036.033545902922
 21
1142.809370235785
 31
0.0
  0
LINE
  5
25221
330
747D
100
AcDbEntity
  8
細線
 48
50.0
100
AcDbLine
 10
6266.266900126332
 20
1166.809370235785
 30
0.0
 11
6272.697680744678
 21
1142.809370235785
 31
0.0
  0
LINE
  5
25222
330
747D
100
AcDbEntity
  8
細線
 48
50.0
100
AcDbLine
 10
6187.37885517908
 20
1166.809370235785
 30
0.0
 11
6193.809635797425
 21
1142.809370235785
 31
0.0
  0
LINE
  5
25223
330
747D
100
AcDbEntity
  8
細線
 48
50.0
100
AcDbLine
 10
6084.391912792249
 20
1270.809370235785
 30
0.0
 11
6180.391912792249
 21
1366.809370235785
 31
0.0
  0
LINE
  5
25224
330
747D
100
AcDbEntity
  8
細線
 48
50.0
100
AcDbLine
 10
6057.451144429037
 20
1270.809370235785
 30
0.0
 11
6153.451144429038
 21
1366.809370235785
 31
0.0
  0
LINE
  5
25225
330
747D
100
AcDbEntity
  8
部品1
 48
50.0
100
AcDbLine
 10
6110.653280011965
 20
1382.809370235785
 30
0.0
 11
6110.653280011965
 21
1366.809370235785
 31
0.0
  0
LINE
  5
25226
330
747D
100
AcDbEntity
  8
細線
 48
50.0
100
AcDbLine
 10
6051.038700679065
 20
1246.809370235785
 30
0.0
 11
6044.607920060717
 21
1270.809370235785
 31
0.0
  0
LINE
  5
25227
330
747D
100
AcDbEntity
  8
細線
 48
50.0
100
AcDbLine
 10
5974.653280011965
 20
1256.149291201565
 30
0.0
 11
5978.581436350161
 21
1270.809370235785
 31
0.0
  0
LINE
  5
25228
330
747D
100
AcDbEntity
  8
部品1
 48
50.0
100
AcDbLine
 10
6270.653280011965
 20
1448.936584932908
 30
0.0
 11
6254.653280011964
 21
1448.936584932908
 31
0.0
  0
CIRCLE
  5
25229
330
747D
100
AcDbEntity
  8
部品1
 48
50.0
100
AcDbCircle
 10
6150.653280011965
 20
1390.809370235785
 30
0.0
 40
8.0
  0
LINE
  5
2522A
330
747D
100
AcDbEntity
  8
細線
 48
50.0
100
AcDbLine
 10
6223.332681155453
 20
1382.809370235785
 30
0.0
 11
6254.653280011964
 21
1414.129969092297
 31
0.0
  0
ARC
  5
2522B
330
747D
100
AcDbEntity
  8
部品1
 48
50.0
100
AcDbCircle
 10
6278.653280011965
 20
1390.809370235785
 30
0.0
 40
24.0
100
AcDbArc
 50
180.0
 51
199.4712206345112
  0
LINE
  5
2522C
330
747D
100
AcDbEntity
  8
細線
 48
50.0
100
AcDbLine
 10
6129.926745626316
 20
1246.809370235785
 30
0.0
 11
6123.49596500797
 21
1270.809370235785
 31
0.0
  0
LINE
  5
2522D
330
747D
100
AcDbEntity
  8
細線
 48
50.0
100
AcDbLine
 10
6208.814790573569
 20
1246.809370235785
 30
0.0
 11
6202.384009955222
 21
1270.809370235785
 31
0.0
  0
LINE
  5
2522E
330
747D
100
AcDbEntity
  8
細線
 48
50.0
100
AcDbLine
 10
6111.332681155453
 20
1270.809370235785
 30
0.0
 11
6207.332681155453
 21
1366.809370235785
 31
0.0
  0
LINE
  5
2522F
330
747D
100
AcDbEntity
  8
部品1
 48
50.0
100
AcDbLine
 10
6254.653280011964
 20
1448.936584932908
 30
0.0
 11
6254.653280011964
 21
1390.809370235785
 31
0.0
  0
LINE
  5
25230
330
747D
100
AcDbEntity
  8
細線
 48
50.0
100
AcDbLine
 10
6196.391912792248
 20
1382.809370235785
 30
0.0
 11
6254.653280011964
 21
1441.070737455504
 31
0.0
  0
LINE
  5
25231
330
747D
100
AcDbEntity
  8
部品1
 48
50.0
100
AcDbLine
 10
6270.653280011965
 20
1448.936584932908
 30
0.0
 11
6270.653280011965
 21
1390.809370235785
 31
0.0
  0
LINE
  5
25232
330
747D
100
AcDbEntity
  8
部品1
 48
50.0
100
AcDbLine
 10
6582.653280011967
 20
1270.809370235785
 30
0.0
 11
6582.653280011967
 21
1142.809370235785
 31
0.0
  0
LINE
  5
25233
330
747D
100
AcDbEntity
  8
細線
 48
50.0
100
AcDbLine
 10
6496.500254349719
 20
1142.809370235785
 30
0.0
 11
6530.797750980903
 21
1270.809370235784
 31
0.0
  0
LINE
  5
25234
330
747D
100
AcDbEntity
  8
細線
 48
50.0
100
AcDbLine
 10
6338.724164455224
 20
1142.809370235785
 30
0.0
 11
6373.021661086411
 21
1270.809370235784
 31
0.0
  0
LINE
  5
25235
330
747D
100
AcDbEntity
  8
細線
 48
50.0
100
AcDbLine
 10
6417.612209402474
 20
1142.809370235783
 30
0.0
 11
6451.909706033657
 21
1270.809370235784
 31
0.0
  0
LINE
  5
25236
330
747D
100
AcDbEntity
  8
細線
 48
50.0
100
AcDbLine
 10
6424.042990020822
 20
1166.809370235785
 30
0.0
 11
6430.473770639171
 21
1142.809370235785
 31
0.0
  0
LINE
  5
25237
330
747D
100
AcDbEntity
  8
細線
 48
50.0
100
AcDbLine
 10
6345.154945073577
 20
1166.809370235785
 30
0.0
 11
6351.585725691923
 21
1142.809370235785
 31
0.0
  0
LINE
  5
25238
330
747D
100
AcDbEntity
  8
細線
 48
50.0
100
AcDbLine
 10
6502.93103496807
 20
1166.809370235785
 30
0.0
 11
6509.361815586418
 21
1142.809370235785
 31
0.0
  0
LINE
  5
25239
330
747D
100
AcDbEntity
  8
細線
 48
50.0
100
AcDbLine
 10
6581.819079915317
 20
1166.809370235785
 30
0.0
 11
6582.653280011965
 21
1163.696093091421
 31
0.0
  0
LINE
  5
2523A
330
747D
100
AcDbEntity
  8
細線
 48
50.0
100
AcDbLine
 10
6575.388299296967
 20
1142.809370235783
 30
0.0
 11
6582.653280011965
 21
1169.922647380174
 31
0.0
  0
LINE
  5
2523B
330
747D
100
AcDbEntity
  8
細線
 48
50.0
100
AcDbLine
 10
6438.858828061111
 20
1382.809370235785
 30
0.0
 11
6502.653280011966
 21
1446.603822186636
 31
0.0
  0
CIRCLE
  5
2523C
330
747D
100
AcDbEntity
  8
部品1
 48
50.0
100
AcDbCircle
 10
6406.653280011965
 20
1390.809370235785
 30
0.0
 40
8.0
  0
ARC
  5
2523D
330
747D
100
AcDbEntity
  8
部品1
 48
50.0
100
AcDbCircle
 10
6278.653280011965
 20
1390.809370235785
 30
0.0
 40
24.0
100
AcDbArc
 50
340.5287793654888
 51
0.0
  0
LINE
  5
2523E
330
747D
100
AcDbEntity
  8
細線
 48
50.0
100
AcDbLine
 10
6287.702835520821
 20
1246.809370235785
 30
0.0
 11
6281.272054902474
 21
1270.809370235785
 31
0.0
  0
LINE
  5
2523F
330
747D
100
AcDbEntity
  8
細線
 48
50.0
100
AcDbLine
 10
6366.590880468066
 20
1246.809370235785
 30
0.0
 11
6360.16009984972
 21
1270.809370235785
 31
0.0
  0
LINE
  5
25240
330
747D
100
AcDbEntity
  8
細線
 48
50.0
100
AcDbLine
 10
6299.918059697908
 20
1270.809370235785
 30
0.0
 11
6395.918059697908
 21
1366.809370235785
 31
0.0
  0
LINE
  5
25241
330
747D
100
AcDbEntity
  8
細線
 48
50.0
100
AcDbLine
 10
6326.858828061112
 20
1270.809370235785
 30
0.0
 11
6422.859715906248
 21
1366.810258080924
 31
0.0
  0
LINE
  5
25242
330
747D
100
AcDbEntity
  8
部品1
 48
50.0
100
AcDbLine
 10
6446.653280011965
 20
1382.809370235785
 30
0.0
 11
6446.653280011965
 21
1366.809370235785
 31
0.0
  0
LINE
  5
25243
330
747D
100
AcDbEntity
  8
細線
 48
50.0
100
AcDbLine
 10
6524.36697036256
 20
1246.809370235785
 30
0.0
 11
6517.936189744212
 21
1270.809370235785
 31
0.0
  0
LINE
  5
25244
330
747D
100
AcDbEntity
  8
細線
 48
50.0
100
AcDbLine
 10
6488.503438240359
 20
1270.809370235785
 30
0.0
 11
6502.653280011966
 21
1284.959212007392
 31
0.0
  0
LINE
  5
25245
330
747D
100
AcDbEntity
  8
細線
 48
50.0
100
AcDbLine
 10
6445.478925415312
 20
1246.809370235785
 30
0.0
 11
6439.048144796966
 21
1270.809370235785
 31
0.0
  0
LINE
  5
25246
330
747D
100
AcDbEntity
  8
細線
 48
50.0
100
AcDbLine
 10
6182.653280011965
 20
1584.596884361164
 30
0.0
 11
6286.653280011971
 21
1688.596884361166
 31
0.0
  0
LINE
  5
25247
330
747D
100
AcDbEntity
  8
細線
 48
50.0
100
AcDbLine
 10
6182.653280011965
 20
1611.537652724371
 30
0.0
 11
6286.653280011964
 21
1715.537652724371
 31
0.0
  0
LINE
  5
25248
330
747D
100
AcDbEntity
  8
細線
 48
50.0
100
AcDbLine
 10
6182.653280011965
 20
1557.656115997956
 30
0.0
 11
6286.653280011971
 21
1661.656115997956
 31
0.0
  0
LINE
  5
25249
330
747D
100
AcDbEntity
  8
細線
 48
50.0
100
AcDbLine
 10
6270.653280011965
 20
1861.182262903616
 30
0.0
 11
6286.653280011964
 21
1877.182262903616
 31
0.0
  0
LINE
  5
2524A
330
747D
100
AcDbEntity
  8
細線
 48
50.0
100
AcDbLine
 10
6270.653280011965
 20
1888.123031266823
 30
0.0
 11
6286.653280011964
 21
1904.123031266823
 31
0.0
  0
LINE
  5
2524B
330
747D
100
AcDbEntity
  8
部品1
 48
50.0
100
AcDbLine
 10
6054.653280011965
 20
1510.809370235785
 30
0.0
 11
6182.653280011965
 21
1510.809370235785
 31
0.0
  0
LINE
  5
2524C
330
747D
100
AcDbEntity
  8
細線
 48
50.0
100
AcDbLine
 10
6054.653280011958
 20
1456.596884361161
 30
0.0
 11
6108.86576588659
 21
1510.809370235785
 31
0.0
  0
LINE
  5
2524D
330
747D
100
AcDbEntity
  8
細線
 48
50.0
100
AcDbLine
 10
6054.653280011958
 20
1483.537652724371
 30
0.0
 11
6081.924997523379
 21
1510.809370235785
 31
0.0
  0
LINE
  5
2524E
330
747D
100
AcDbEntity
  8
部品1
 48
50.0
100
AcDbLine
 10
6270.653280011965
 20
1856.936584932908
 30
0.0
 11
6254.653280011964
 21
1856.936584932912
 31
0.0
  0
LINE
  5
2524F
330
747D
100
AcDbEntity
  8
細線
 48
50.0
100
AcDbLine
 10
6182.653280011965
 20
1773.182262903616
 30
0.0
 11
6266.407602041258
 21
1856.936584932908
 31
0.0
  0
LINE
  5
25250
330
747D
100
AcDbEntity
  8
細線
 48
50.0
100
AcDbLine
 10
6182.653280011965
 20
1800.123031266823
 30
0.0
 11
6254.653280011964
 21
1872.123031266823
 31
0.0
  0
LINE
  5
25251
330
747D
100
AcDbEntity
  8
部品1
 48
50.0
100
AcDbLine
 10
6254.653280011964
 20
1856.936584932912
 30
0.0
 11
6254.653280011964
 21
1915.063799630031
 31
0.0
  0
LINE
  5
25252
330
747D
100
AcDbEntity
  8
細線
 48
50.0
100
AcDbLine
 10
6182.653280011965
 20
1827.063799630031
 30
0.0
 11
6254.653280011964
 21
1899.063799630031
 31
0.0
  0
LINE
  5
25253
330
747D
100
AcDbEntity
  8
部品1
 48
50.0
100
AcDbLine
 10
6270.653280011965
 20
1856.936584932908
 30
0.0
 11
6270.653280011965
 21
1915.063799630031
 31
0.0
  0
LINE
  5
25254
330
747D
100
AcDbEntity
  8
細線
 48
50.0
100
AcDbLine
 10
6302.65328001197
 20
1677.656115997956
 30
0.0
 11
6374.653280011957
 21
1749.656115997956
 31
0.0
  0
LINE
  5
25255
330
747D
100
AcDbEntity
  8
部品1
 48
50.0
100
AcDbLine
 10
6374.653280011965
 20
1510.809370235785
 30
0.0
 11
6502.653280011966
 21
1510.809370235785
 31
0.0
  0
LINE
  5
25256
330
747D
100
AcDbEntity
  8
細線
 48
50.0
100
AcDbLine
 10
6302.65328001197
 20
1489.070737455507
 30
0.0
 11
6374.653280011957
 21
1561.070737455501
 31
0.0
  0
LINE
  5
25257
330
747D
100
AcDbEntity
  8
細線
 48
50.0
100
AcDbLine
 10
6302.65328001197
 20
1516.011505818715
 30
0.0
 11
6374.653280011957
 21
1588.011505818711
 31
0.0
  0
LINE
  5
25258
330
747D
100
AcDbEntity
  8
細線
 48
50.0
100
AcDbLine
 10
6302.65328001197
 20
1462.129969092297
 30
0.0
 11
6374.653280011957
 21
1534.129969092297
 31
0.0
  0
LINE
  5
25259
330
747D
100
AcDbEntity
  8
細線
 48
50.0
100
AcDbLine
 10
6302.653280011965
 20
1731.537652724371
 30
0.0
 11
6374.653280011965
 21
1803.537652724372
 31
0.0
  0
LINE
  5
2525A
330
747D
100
AcDbEntity
  8
細線
 48
50.0
100
AcDbLine
 10
6302.65328001197
 20
1704.596884361166
 30
0.0
 11
6374.653280011957
 21
1776.596884361161
 31
0.0
  0
MTEXT
  5
2525B
102
{ACAD_REACTORS
330
25206
102
}
330
747D
100
AcDbEntity
  8
寸法
 62
     7
 48
50.0
100
AcDbMText
 10
6616.391735873214
 20
1093.460284503632
 30
0.0
 40
80.0
 41
0.8
 71
     4
 72
     1
  1
\A1;D10@300
  7
STYLE2
 73
     1
 44
1.0
1001
ACAD
1000
MTEXTBEGIN
1070
    73
1070
     1
1070
    44
1040
1.0
1070
    74
1070
     0
1000
MTEXTEND
  0
DIMENSION
  5
2525C
330
747D
100
AcDbEntity
  8
寸法
 48
50.0
100
AcDbDimension
  2
*D49
 10
6182.653280011964
 20
2374.809370235785
 30
0.0
 11
6289.879610357161
 21
2474.477178152166
 31
0.0
 70
   160
  1
120\P195
 71
     5
 42
192.0
  3
INABA_S40G
100
AcDbAlignedDimension
 13
6374.653280011964
 23
2054.809370235786
 33
0.0
 14
6182.653280011964
 24
2054.809370235786
 34
0.0
100
AcDbRotatedDimension
1001
ACAD
1000
DSTYLE
1002
{
1070
   174
1070
     0
1070
   272
1070
     1
1070
   279
1070
     1
1070
   288
1070
     0
1070
   341
1005
0
1002
}
  0
LINE
  5
2525D
330
747D
100
AcDbEntity
  8
部品1
 48
50.0
100
AcDbLine
 10
6182.653280011965
 20
2054.809370235786
 30
0.0
 11
6374.653280011965
 21
2054.809370235786
 31
0.0
  0
LINE
  5
2525E
330
747D
100
AcDbEntity
  8
細線
 48
50.0
100
AcDbLine
 10
6182.653280011965
 20
2015.649178172484
 30
0.0
 11
6221.813472075268
 21
2054.809370235786
 31
0.0
  0
LINE
  5
2525F
330
747D
100
AcDbEntity
  8
細線
 48
50.0
100
AcDbLine
 10
6182.653280011965
 20
1988.708409809276
 30
0.0
 11
6248.754240438474
 21
2054.809370235786
 31
0.0
  0
LINE
  5
25260
330
747D
100
AcDbEntity
  8
細線
 48
50.0
100
AcDbLine
 10
6182.653280011965
 20
2042.589946535691
 30
0.0
 11
6194.87270371206
 21
2054.809370235786
 31
0.0
  0
LINE
  5
25261
330
747D
100
AcDbEntity
  8
細線
 48
50.0
100
AcDbLine
 10
6302.20598727795
 20
1919.675738532807
 30
0.0
 11
6374.653280011965
 21
1992.123031266823
 31
0.0
  0
LINE
  5
25262
330
747D
100
AcDbEntity
  8
細線
 48
50.0
100
AcDbLine
 10
6291.145702514434
 20
1935.556222132501
 30
0.0
 11
6374.653280011965
 21
2019.063799630031
 31
0.0
  0
LINE
  5
25263
330
747D
100
AcDbEntity
  8
細線
 48
50.0
100
AcDbLine
 10
8167.09259318916
 20
1895.937652724374
 30
0.0
 11
8296.692593189158
 21
2025.537652724373
 31
0.0
  0
LINE
  5
25264
330
747D
100
AcDbEntity
  8
部品1
100
AcDbLine
 10
8296.692593189156
 20
1510.809370235785
 30
0.0
 11
8296.692593189158
 21
2054.809370235786
 31
0.0
  0
LINE
  5
25265
330
747D
100
AcDbEntity
  8
部品1
 48
50.0
100
AcDbLine
 10
7882.692593189158
 20
1510.809370235785
 30
0.0
 11
7882.692593189158
 21
2054.809370235786
 31
0.0
  0
LINE
  5
25266
330
747D
100
AcDbEntity
  8
細線
 48
50.0
100
AcDbLine
 10
7882.692593189158
 20
1827.063799630031
 30
0.0
 11
8041.092593189159
 21
1985.463799630028
 31
0.0
  0
LINE
  5
25267
330
747D
100
AcDbEntity
  8
細線
 48
50.0
100
AcDbLine
 10
7882.692593189158
 20
1800.123031266823
 30
0.0
 11
8041.092593189159
 21
1958.523031266821
 31
0.0
  0
LINE
  5
25268
330
747D
100
AcDbEntity
  8
細線
 48
50.0
100
AcDbLine
 10
7882.692593189158
 20
1773.182262903616
 30
0.0
 11
8041.092593189153
 21
1931.582262903608
 31
0.0
  0
TEXT
  5
25269
330
747D
100
AcDbEntity
  8
部品1
 48
50.0
100
AcDbText
 10
7468.552691356203
 20
1826.048362519041
 30
0.0
 40
80.0
  1
▽G.L
  7
STYLE2
100
AcDbText
  0
LINE
  5
2526A
330
747D
100
AcDbEntity
  8
部品1
100
AcDbLine
 10
8113.092593189158
 20
1829.809370235786
 30
0.0
 11
8113.092593189154
 21
2103.969370235786
 31
0.0
  0
LINE
  5
2526B
330
747D
100
AcDbEntity
  8
部品1
100
AcDbLine
 10
8095.092593189157
 20
1829.809370235786
 30
0.0
 11
8095.092593189155
 21
2103.969370235786
 31
0.0
  0
LINE
  5
2526C
330
747D
100
AcDbEntity
  8
細線
 48
50.0
100
AcDbLine
 10
8167.09259318916
 20
1842.056115997944
 30
0.0
 11
8296.692593189158
 21
1971.656115997935
 31
0.0
  0
LINE
  5
2526D
330
747D
100
AcDbEntity
  8
細線
 48
50.0
100
AcDbLine
 10
8167.09259318916
 20
1868.996884361157
 30
0.0
 11
8296.692593189158
 21
1998.596884361154
 31
0.0
  0
LINE
  5
2526E
330
747D
100
AcDbEntity
  8
部品1
100
AcDbLine
 10
8167.092593189158
 20
1730.809370235785
 30
0.0
 11
8167.092593189158
 21
2054.809370235786
 31
0.0
  0
LINE
  5
2526F
330
747D
100
AcDbEntity
  8
部品1
100
AcDbLine
 10
8041.092593189153
 20
1730.809370235785
 30
0.0
 11
8041.092593189159
 21
2054.809370235786
 31
0.0
  0
LINE
  5
25270
330
747D
100
AcDbEntity
  8
細線
 48
50.0
100
AcDbLine
 10
7882.692593189158
 20
1584.596884361164
 30
0.0
 11
8041.092593189151
 21
1742.996884361152
 31
0.0
  0
LINE
  5
25271
330
747D
100
AcDbEntity
  8
細線
 48
50.0
100
AcDbLine
 10
7882.692593189158
 20
1557.656115997956
 30
0.0
 11
8055.845847426994
 21
1730.809370235784
 31
0.0
  0
LINE
  5
25272
330
747D
100
AcDbEntity
  8
細線
 48
50.0
100
AcDbLine
 10
7882.692593189158
 20
1611.537652724371
 30
0.0
 11
8041.092593189151
 21
1769.937652724367
 31
0.0
  0
LINE
  5
25273
330
747D
100
AcDbEntity
  8
細線
 48
50.0
100
AcDbLine
 10
7811.371994332647
 20
1270.809370235785
 30
0.0
 11
8296.692593189158
 21
1756.129969092293
 31
0.0
  0
LINE
  5
25274
330
747D
100
AcDbEntity
  8
細線
 48
50.0
100
AcDbLine
 10
7784.431225969441
 20
1270.809370235785
 30
0.0
 11
8296.692593189161
 21
1783.070737455499
 31
0.0
  0
LINE
  5
25275
330
747D
100
AcDbEntity
  8
細線
 48
50.0
100
AcDbLine
 10
7757.490457606232
 20
1270.809370235785
 30
0.0
 11
8296.692593189156
 21
1810.011505818711
 31
0.0
  0
LINE
  5
25276
330
747D
100
AcDbEntity
  8
部品1
 48
50.0
100
AcDbLine
 10
8504.69259318916
 20
1270.809370235785
 30
0.0
 11
7674.69259318916
 21
1270.809370235785
 31
0.0
  0
LINE
  5
25277
330
747D
100
AcDbEntity
  8
部品1
 48
50.0
100
AcDbLine
 10
8504.69259318916
 20
1142.809370235785
 30
0.0
 11
7674.69259318916
 21
1142.809370235785
 31
0.0
  0
LINE
  5
25278
330
747D
100
AcDbEntity
  8
細線
 48
50.0
100
AcDbLine
 10
7754.692593189154
 20
1429.656115997956
 30
0.0
 11
7835.845847426987
 21
1510.809370235785
 31
0.0
  0
LINE
  5
25279
330
747D
100
AcDbEntity
  8
部品1
 48
50.0
100
AcDbLine
 10
7754.692593189158
 20
1270.809370235785
 30
0.0
 11
7754.692593189158
 21
1510.809370235785
 31
0.0
  0
LINE
  5
2527A
330
747D
100
AcDbEntity
  8
細線
 48
50.0
100
AcDbLine
 10
7802.099342790675
 20
1142.809370235785
 30
0.0
 11
7836.396839421857
 21
1270.809370235785
 31
0.0
  0
LINE
  5
2527B
330
747D
100
AcDbEntity
  8
部品1
 48
50.0
100
AcDbLine
 10
7674.69259318916
 20
1142.809370235785
 30
0.0
 11
7674.69259318916
 21
1270.809370235785
 31
0.0
  0
LINE
  5
2527C
330
747D
100
AcDbEntity
  8
細線
 48
50.0
100
AcDbLine
 10
7723.211297843416
 20
1142.809370235783
 30
0.0
 11
7757.508794474602
 21
1270.809370235784
 31
0.0
  0
LINE
  5
2527D
330
747D
100
AcDbEntity
  8
細線
 48
50.0
100
AcDbLine
 10
7880.987387737921
 20
1142.809370235783
 30
0.0
 11
7915.284884369103
 21
1270.809370235784
 31
0.0
  0
LINE
  5
2527E
330
747D
100
AcDbEntity
  8
細線
 48
50.0
100
AcDbLine
 10
7729.642078461769
 20
1166.809370235785
 30
0.0
 11
7736.072859080116
 21
1142.809370235785
 31
0.0
  0
LINE
  5
2527F
330
747D
100
AcDbEntity
  8
細線
 48
50.0
100
AcDbLine
 10
7887.418168356275
 20
1166.809370235785
 30
0.0
 11
7893.84894897462
 21
1142.809370235785
 31
0.0
  0
LINE
  5
25280
330
747D
100
AcDbEntity
  8
細線
 48
50.0
100
AcDbLine
 10
7808.530123409022
 20
1166.809370235785
 30
0.0
 11
7814.960904027369
 21
1142.809370235785
 31
0.0
  0
LINE
  5
25281
330
747D
100
AcDbEntity
  8
細線
 48
50.0
100
AcDbLine
 10
7674.692593189158
 20
1256.149291201565
 30
0.0
 11
7678.620749527354
 21
1270.809370235785
 31
0.0
  0
LINE
  5
25282
330
747D
100
AcDbEntity
  8
細線
 48
50.0
100
AcDbLine
 10
7751.078013856259
 20
1246.809370235785
 30
0.0
 11
7744.647233237913
 21
1270.809370235785
 31
0.0
  0
LINE
  5
25283
330
747D
100
AcDbEntity
  8
細線
 48
50.0
100
AcDbLine
 10
7908.854103750764
 20
1246.809370235785
 30
0.0
 11
7902.423323132416
 21
1270.809370235785
 31
0.0
  0
LINE
  5
25284
330
747D
100
AcDbEntity
  8
細線
 48
50.0
100
AcDbLine
 10
7829.966058803511
 20
1246.809370235785
 30
0.0
 11
7823.535278185166
 21
1270.809370235785
 31
0.0
  0
LWPOLYLINE
  5
25285
330
747D
100
AcDbEntity
  8
部品1
 48
50.0
100
AcDbPolyline
 90
        2
 70
     0
 43
8.0
 10
7468.552691356203
 20
1814.809370235786
 10
7882.692593189158
 20
1814.809370235786
  0
LINE
  5
25286
330
747D
100
AcDbEntity
  8
細線
 48
50.0
100
AcDbLine
 10
7754.692593189154
 20
1456.596884361161
 30
0.0
 11
7808.905079063783
 21
1510.809370235785
 31
0.0
  0
LINE
  5
25287
330
747D
100
AcDbEntity
  8
部品1
 48
50.0
100
AcDbLine
 10
7754.692593189158
 20
1510.809370235785
 30
0.0
 11
7882.692593189158
 21
1510.809370235785
 31
0.0
  0
LINE
  5
25288
330
747D
100
AcDbEntity
  8
細線
 48
50.0
100
AcDbLine
 10
7754.692593189154
 20
1483.537652724371
 30
0.0
 11
7781.964310700572
 21
1510.809370235785
 31
0.0
  0
LINE
  5
25289
330
747D
100
AcDbEntity
  8
細線
 48
50.0
100
AcDbLine
 10
7999.957372875101
 20
1270.809370235785
 30
0.0
 11
8296.692593189158
 21
1567.544590549838
 31
0.0
  0
LINE
  5
2528A
330
747D
100
AcDbEntity
  8
細線
 48
50.0
100
AcDbLine
 10
8026.898141238307
 20
1270.809370235785
 30
0.0
 11
8296.692593189158
 21
1540.603822186643
 31
0.0
  0
LINE
  5
2528B
330
747D
100
AcDbEntity
  8
細線
 48
50.0
100
AcDbLine
 10
7973.016604511894
 20
1270.809370235785
 30
0.0
 11
8296.692593189156
 21
1594.485358913052
 31
0.0
  0
LINE
  5
2528C
330
747D
100
AcDbEntity
  8
細線
 48
50.0
100
AcDbLine
 10
8188.542751417552
 20
1270.809370235785
 30
0.0
 11
8424.692593189156
 21
1506.959212007394
 31
0.0
  0
LINE
  5
2528D
330
747D
100
AcDbEntity
  8
細線
 48
50.0
100
AcDbLine
 10
8215.483519780763
 20
1270.809370235785
 30
0.0
 11
8424.692593189156
 21
1480.018443644179
 31
0.0
  0
LINE
  5
2528E
330
747D
100
AcDbEntity
  8
部品1
 48
50.0
100
AcDbLine
 10
8424.692593189156
 20
1510.809370235785
 30
0.0
 11
8424.692593189156
 21
1270.809370235785
 31
0.0
  0
LINE
  5
2528F
330
747D
100
AcDbEntity
  8
細線
 48
50.0
100
AcDbLine
 10
8242.424288143968
 20
1270.809370235785
 30
0.0
 11
8424.692593189156
 21
1453.077675280981
 31
0.0
  0
LINE
  5
25290
330
747D
100
AcDbEntity
  8
細線
 48
50.0
100
AcDbLine
 10
8117.651522579668
 20
1142.809370235783
 30
0.0
 11
8151.949019210849
 21
1270.809370235784
 31
0.0
  0
LINE
  5
25291
330
747D
100
AcDbEntity
  8
細線
 48
50.0
100
AcDbLine
 10
7959.875432685175
 20
1142.809370235785
 30
0.0
 11
7994.172929316356
 21
1270.809370235785
 31
0.0
  0
LINE
  5
25292
330
747D
100
AcDbEntity
  8
細線
 48
50.0
100
AcDbLine
 10
8038.76347763242
 20
1142.809370235785
 30
0.0
 11
8073.060974263604
 21
1270.809370235784
 31
0.0
  0
LINE
  5
25293
330
747D
100
AcDbEntity
  8
細線
 48
50.0
100
AcDbLine
 10
8196.53956752691
 20
1142.809370235785
 30
0.0
 11
8230.837064158096
 21
1270.809370235784
 31
0.0
  0
LINE
  5
25294
330
747D
100
AcDbEntity
  8
細線
 48
50.0
100
AcDbLine
 10
8045.194258250772
 20
1166.809370235785
 30
0.0
 11
8051.625038869119
 21
1142.809370235785
 31
0.0
  0
LINE
  5
25295
330
747D
100
AcDbEntity
  8
細線
 48
50.0
100
AcDbLine
 10
7966.306213303525
 20
1166.809370235785
 30
0.0
 11
7972.736993921873
 21
1142.809370235785
 31
0.0
  0
LINE
  5
25296
330
747D
100
AcDbEntity
  8
細線
 48
50.0
100
AcDbLine
 10
8202.970348145264
 20
1166.809370235785
 30
0.0
 11
8209.401128763609
 21
1142.809370235785
 31
0.0
  0
LINE
  5
25297
330
747D
100
AcDbEntity
  8
細線
 48
50.0
100
AcDbLine
 10
8124.082303198019
 20
1166.809370235785
 30
0.0
 11
8130.513083816365
 21
1142.809370235785
 31
0.0
  0
LINE
  5
25298
330
747D
100
AcDbEntity
  8
細線
 48
50.0
100
AcDbLine
 10
8066.630193645263
 20
1246.809370235785
 30
0.0
 11
8060.199413026914
 21
1270.809370235785
 31
0.0
  0
LINE
  5
25299
330
747D
100
AcDbEntity
  8
細線
 48
50.0
100
AcDbLine
 10
7987.742148698015
 20
1246.809370235785
 30
0.0
 11
7981.311368079667
 21
1270.809370235785
 31
0.0
  0
LINE
  5
2529A
330
747D
100
AcDbEntity
  8
細線
 48
50.0
100
AcDbLine
 10
8145.518238592506
 20
1246.809370235785
 30
0.0
 11
8139.087457974161
 21
1270.809370235785
 31
0.0
  0
LINE
  5
2529B
330
747D
100
AcDbEntity
  8
細線
 48
50.0
100
AcDbLine
 10
8224.406283539753
 20
1246.809370235785
 30
0.0
 11
8217.975502921406
 21
1270.809370235785
 31
0.0
  0
LINE
  5
2529C
330
747D
100
AcDbEntity
  8
部品1
 48
50.0
100
AcDbLine
 10
8504.69259318916
 20
1270.809370235785
 30
0.0
 11
8504.69259318916
 21
1142.809370235785
 31
0.0
  0
LINE
  5
2529D
330
747D
100
AcDbEntity
  8
細線
 48
50.0
100
AcDbLine
 10
8433.203702368654
 20
1142.809370235783
 30
0.0
 11
8467.501198999839
 21
1270.809370235783
 31
0.0
  0
LINE
  5
2529E
330
747D
100
AcDbEntity
  8
細線
 48
50.0
100
AcDbLine
 10
8275.427612474159
 20
1142.809370235783
 30
0.0
 11
8309.725109105334
 21
1270.809370235785
 31
0.0
  0
LINE
  5
2529F
330
747D
100
AcDbEntity
  8
細線
 48
50.0
100
AcDbLine
 10
8354.315657421407
 20
1142.809370235783
 30
0.0
 11
8388.613154052594
 21
1270.809370235783
 31
0.0
  0
LINE
  5
252A0
330
747D
100
AcDbEntity
  8
細線
 48
50.0
100
AcDbLine
 10
8281.858393092509
 20
1166.809370235785
 30
0.0
 11
8288.289173710866
 21
1142.809370235785
 31
0.0
  0
LINE
  5
252A1
330
747D
100
AcDbEntity
  8
細線
 48
50.0
100
AcDbLine
 10
8360.746438039758
 20
1166.809370235784
 30
0.0
 11
8367.177218658104
 21
1142.809370235783
 31
0.0
  0
LINE
  5
252A2
330
747D
100
AcDbEntity
  8
細線
 48
50.0
100
AcDbLine
 10
8439.634482987003
 20
1166.809370235784
 30
0.0
 11
8446.065263605353
 21
1142.809370235783
 31
0.0
  0
LINE
  5
252A3
330
747D
100
AcDbEntity
  8
細線
 48
50.0
100
AcDbLine
 10
8303.294328486991
 20
1246.809370235785
 30
0.0
 11
8296.863547868644
 21
1270.809370235785
 31
0.0
  0
LINE
  5
252A4
330
747D
100
AcDbEntity
  8
細線
 48
50.0
100
AcDbLine
 10
8382.182373434247
 20
1246.809370235784
 30
0.0
 11
8375.7515928159
 21
1270.809370235784
 31
0.0
  0
LINE
  5
252A5
330
747D
100
AcDbEntity
  8
細線
 48
50.0
100
AcDbLine
 10
8461.070418381494
 20
1246.809370235784
 30
0.0
 11
8454.639637763147
 21
1270.809370235784
 31
0.0
  0
LINE
  5
252A6
330
747D
100
AcDbEntity
  8
部品1
100
AcDbLine
 10
8167.092593189158
 20
1730.809370235784
 30
0.0
 11
8041.092593189153
 21
1730.809370235784
 31
0.0
  0
LINE
  5
252A7
330
747D
100
AcDbEntity
  8
部品1
100
AcDbLine
 10
8149.092593189157
 20
1811.809370235786
 30
0.0
 11
8149.092593189157
 21
1829.809370235786
 31
0.0
  0
ARC
  5
252A8
330
747D
100
AcDbEntity
  8
部品1
100
AcDbCircle
 10
8113.092593189158
 20
1829.809370235786
 30
0.0
 40
18.0
100
AcDbArc
 50
180.0
 51
270.0
  0
LINE
  5
252A9
330
747D
100
AcDbEntity
  8
部品1
100
AcDbLine
 10
8113.092593189158
 20
1811.809370235786
 30
0.0
 11
8149.092593189157
 21
1811.809370235786
 31
0.0
  0
LINE
  5
252AA
330
747D
100
AcDbEntity
  8
部品1
100
AcDbLine
 10
8113.092593189158
 20
1829.809370235786
 30
0.0
 11
8149.092593189157
 21
1829.809370235786
 31
0.0
  0
LINE
  5
252AB
330
747D
100
AcDbEntity
  8
部品1
 48
50.0
100
AcDbLine
 10
8296.692593189158
 20
1510.809370235785
 30
0.0
 11
8424.692593189156
 21
1510.809370235785
 31
0.0
  0
LINE
  5
252AC
330
747D
100
AcDbEntity
  8
部品1
100
AcDbLine
 10
7902.49259318916
 20
2144.809370235785
 30
0.0
 11
7940.292593189159
 21
2144.809370235785
 31
0.0
  0
LINE
  5
252AD
330
747D
100
AcDbEntity
  8
細線
 48
50.0
100
AcDbLine
 10
7882.692593189158
 20
2015.649178172484
 30
0.0
 11
7921.852785252465
 21
2054.809370235786
 31
0.0
  0
LINE
  5
252AE
330
747D
100
AcDbEntity
  8
細線
 48
50.0
100
AcDbLine
 10
7882.692593189158
 20
1988.708409809276
 30
0.0
 11
7948.793553615669
 21
2054.809370235786
 31
0.0
  0
LINE
  5
252AF
330
747D
100
AcDbEntity
  8
部品1
 48
50.0
100
AcDbLine
 10
7882.692593189158
 20
2054.809370235786
 30
0.0
 11
8296.692593189161
 21
2054.809370235786
 31
0.0
  0
TEXT
  5
252B0
330
747D
100
AcDbEntity
  8
部品1
 48
50.0
100
AcDbText
 10
7456.246496609667
 20
2385.369891336261
 30
0.0
 40
80.0
  1
※(別売)
  7
STYLE2
100
AcDbText
  0
LINE
  5
252B1
330
747D
100
AcDbEntity
  8
部品1
100
AcDbLine
 10
7899.792593189158
 20
2134.009370235785
 30
0.0
 11
7899.792593189158
 21
2142.109370235786
 31
0.0
  0
ARC
  5
252B2
330
747D
100
AcDbEntity
  8
部品1
100
AcDbCircle
 10
7902.49259318916
 20
2142.109370235786
 30
0.0
 40
2.7
100
AcDbArc
 50
90.0
 51
180.0
  0
ARC
  5
252B3
330
747D
100
AcDbEntity
  8
部品1
100
AcDbCircle
 10
7891.692593189159
 20
2129.201273938494
 30
0.0
 40
2.7
100
AcDbArc
 50
104.0362434679067
 51
180.0
  0
LINE
  5
252B4
330
747D
100
AcDbEntity
  8
部品1
100
AcDbLine
 10
7891.037747001559
 20
2131.820658688885
 30
0.0
 11
7899.792593189158
 21
2134.009370235785
 31
0.0
  0
ARC
  5
252B5
330
747D
100
AcDbEntity
  8
部品1
100
AcDbCircle
 10
7891.692593189159
 20
2067.069370235786
 30
0.0
 40
2.7
100
AcDbArc
 50
180.0
 51
270.0
  0
LINE
  5
252B6
330
747D
100
AcDbEntity
  8
細線
 48
50.0
100
AcDbLine
 10
7882.692593189158
 20
2042.589946535691
 30
0.0
 11
7894.912016889254
 21
2054.809370235786
 31
0.0
  0
LINE
  5
252B7
330
747D
100
AcDbEntity
  8
部品1
100
AcDbLine
 10
7891.692593189159
 20
2064.369370235786
 30
0.0
 11
7903.392593189153
 21
2064.369370235786
 31
0.0
  0
LINE
  5
252B8
330
747D
100
AcDbEntity
  8
部品1
100
AcDbLine
 10
7888.99259318916
 20
2067.069370235786
 30
0.0
 11
7888.99259318916
 21
2129.201273938494
 31
0.0
  0
LINE
  5
252B9
330
747D
100
AcDbEntity
  8
部品1
100
AcDbLine
 10
8047.652593189152
 20
2064.369370235786
 30
0.0
 11
8248.992593189152
 21
2064.369370235786
 31
0.0
  0
LINE
  5
252BA
330
747D
100
AcDbEntity
  8
部品1
100
AcDbLine
 10
7940.292593189159
 20
2144.809370235785
 30
0.0
 11
7940.292593189159
 21
2152.909370235786
 31
0.0
  0
LINE
  5
252BB
330
747D
100
AcDbEntity
  8
部品1
100
AcDbLine
 10
7990.692593189158
 20
2163.709370235782
 30
0.0
 11
7990.692593189158
 21
2112.409370235786
 31
0.0
  0
LINE
  5
252BC
330
747D
100
AcDbEntity
  8
部品1
100
AcDbLine
 10
8014.092593189159
 20
2124.369370235786
 30
0.0
 11
8042.252593189159
 21
2124.369370235786
 31
0.0
  0
ARC
  5
252BD
330
747D
100
AcDbEntity
  8
部品1
100
AcDbCircle
 10
8014.092593189159
 20
2121.669370235786
 30
0.0
 40
2.7
100
AcDbArc
 50
90.0
 51
180.0
  0
ARC
  5
252BE
330
747D
100
AcDbEntity
  8
部品1
100
AcDbCircle
 10
8042.252593189159
 20
2121.669370235786
 30
0.0
 40
2.7
100
AcDbArc
 50
0.0
 51
90.0
  0
LINE
  5
252BF
330
747D
100
AcDbEntity
  8
部品1
100
AcDbLine
 10
8032.99259318916
 20
2109.709370235785
 30
0.0
 11
8032.99259318916
 21
2067.069370235786
 31
0.0
  0
LINE
  5
252C0
330
747D
100
AcDbEntity
  8
部品1
100
AcDbLine
 10
8018.592593189158
 20
2064.369370235786
 30
0.0
 11
8030.292593189159
 21
2064.369370235786
 31
0.0
  0
ARC
  5
252C1
330
747D
100
AcDbEntity
  8
部品1
100
AcDbCircle
 10
8047.652593189152
 20
2067.069370235786
 30
0.0
 40
2.7
100
AcDbArc
 50
180.0
 51
270.0
  0
ARC
  5
252C2
330
747D
100
AcDbEntity
  8
部品1
100
AcDbCircle
 10
8030.292593189159
 20
2067.069370235786
 30
0.0
 40
2.7
100
AcDbArc
 50
270.0
 51
0.0
  0
LINE
  5
252C3
330
747D
100
AcDbEntity
  8
部品1
100
AcDbLine
 10
7990.692593189158
 20
2112.409370235786
 30
0.0
 11
8030.292593189159
 21
2112.409370235786
 31
0.0
  0
ARC
  5
252C4
330
747D
100
AcDbEntity
  8
部品1
100
AcDbCircle
 10
8030.292593189159
 20
2109.709370235785
 30
0.0
 40
2.7
100
AcDbArc
 50
0.0
 51
90.0
  0
LINE
  5
252C5
330
747D
100
AcDbEntity
  8
部品1
100
AcDbLine
 10
8044.952593189158
 20
2121.669370235786
 30
0.0
 11
8044.952593189156
 21
2067.069370235786
 31
0.0
  0
LINE
  5
252C6
330
747D
100
AcDbEntity
  8
部品1
100
AcDbLine
 10
8011.392593189157
 20
2121.669370235786
 30
0.0
 11
8011.392593189157
 21
2104.569370235786
 31
0.0
  0
LINE
  5
252C7
330
747D
100
AcDbEntity
  8
細線
100
AcDbLine
 10
8109.492593189159
 20
2064.369370235786
 30
0.0
 11
8109.492593189159
 21
2107.569370235786
 31
0.0
  0
LINE
  5
252C8
330
747D
100
AcDbEntity
  8
細線
100
AcDbLine
 10
8098.692593189161
 20
2064.369370235786
 30
0.0
 11
8098.692593189159
 21
2107.569370235786
 31
0.0
  0
LINE
  5
252C9
330
747D
100
AcDbEntity
  8
部品1
100
AcDbLine
 10
8095.092593189157
 20
2103.969370235786
 30
0.0
 11
8113.092593189158
 21
2103.969370235786
 31
0.0
  0
LINE
  5
252CA
330
747D
100
AcDbEntity
  8
部品1
100
AcDbLine
 10
8098.692593189159
 20
2107.569370235786
 30
0.0
 11
8109.492593189159
 21
2107.569370235786
 31
0.0
  0
ELLIPSE
  5
252CB
330
747D
100
AcDbEntity
  8
部品1
 48
50.0
100
AcDbEllipse
 10
8104.092593189157
 20
2323.932658680058
 30
0.0
 11
40.0
 21
0.0
 31
0.0
210
0.0
220
0.0
230
1.0
 40
0.4
 41
0.0
 42
6.283185307179586
  0
ELLIPSE
  5
252CC
330
747D
100
AcDbEntity
  8
部品1
 48
50.0
100
AcDbEllipse
 10
8104.092593189157
 20
2314.332658680059
 30
0.0
 11
40.0
 21
0.0
 31
0.0
210
0.0
220
0.0
230
1.0
 40
0.4
 41
3.141592653589793
 42
6.283185307179586
  0
LINE
  5
252CD
330
747D
100
AcDbEntity
  8
部品1
 48
50.0
100
AcDbLine
 10
8064.092593189158
 20
2323.932658680058
 30
0.0
 11
8064.092593189158
 21
2314.332658680058
 31
0.0
  0
ARC
  5
252CE
330
747D
100
AcDbEntity
  8
部品1
100
AcDbCircle
 10
7987.992593189159
 20
2163.709370235782
 30
0.0
 40
2.7
100
AcDbArc
 50
0.0
 51
90.0
  0
ARC
  5
252CF
330
747D
100
AcDbEntity
  8
部品1
100
AcDbCircle
 10
7945.692593189159
 20
2163.709370235785
 30
0.0
 40
2.7
100
AcDbArc
 50
90.0
 51
180.0
  0
LINE
  5
252D0
330
747D
100
AcDbEntity
  8
部品1
100
AcDbLine
 10
7942.992593189159
 20
2155.609370235786
 30
0.0
 11
7942.992593189159
 21
2155.609370235786
 31
0.0
  0
LINE
  5
252D1
330
747D
100
AcDbEntity
  8
部品1
100
AcDbLine
 10
7942.992593189159
 20
2155.609370235786
 30
0.0
 11
7942.992593189159
 21
2163.709370235785
 31
0.0
  0
LINE
  5
252D2
330
747D
100
AcDbEntity
  8
部品1
100
AcDbLine
 10
7945.692593189159
 20
2166.409370235786
 30
0.0
 11
7987.992593189159
 21
2166.409370235783
 31
0.0
  0
ARC
  5
252D3
330
747D
100
AcDbEntity
  8
部品1
100
AcDbCircle
 10
7942.992593189159
 20
2152.909370235786
 30
0.0
 40
2.7
100
AcDbArc
 50
90.0
 51
180.0
  0
ELLIPSE
  5
252D4
330
747D
100
AcDbEntity
  8
部品1
 48
50.0
100
AcDbEllipse
 10
8104.092593189157
 20
2323.932658680058
 30
0.0
 11
18.4
 21
0.0
 31
0.0
210
0.0
220
0.0
230
1.0
 40
0.3478260869565217
 41
0.0
 42
6.283185307179586
  0
LINE
  5
252D5
330
747D
100
AcDbEntity
  8
部品1
 48
50.0
100
AcDbLine
 10
8144.092593189158
 20
2314.332658680058
 30
0.0
 11
8144.092593189158
 21
2323.932658680058
 31
0.0
  0
LINE
  5
252D6
330
747D
100
AcDbEntity
  8
部品1
 48
50.0
100
AcDbLine
 10
8072.092593189159
 20
2445.684651344928
 30
0.0
 11
8088.092593189157
 21
2437.684651344929
 31
0.0
  0
LINE
  5
252D7
330
747D
100
AcDbEntity
  8
部品1
 48
50.0
100
AcDbLine
 10
8072.092593189159
 20
2413.684651344928
 30
0.0
 11
8088.092593189157
 21
2405.684651344929
 31
0.0
  0
LINE
  5
252D8
330
747D
100
AcDbEntity
  8
部品1
 48
50.0
100
AcDbLine
 10
8072.092593189159
 20
2445.684651344928
 30
0.0
 11
8088.092593189157
 21
2453.684651344929
 31
0.0
  0
LINE
  5
252D9
330
747D
100
AcDbEntity
  8
部品1
 48
50.0
100
AcDbLine
 10
8072.092593189159
 20
2413.684651344928
 30
0.0
 11
8072.092593189159
 21
2445.684651344928
 31
0.0
  0
LINE
  5
252DA
330
747D
100
AcDbEntity
  8
部品1
 48
50.0
100
AcDbLine
 10
8088.092593189157
 20
2453.684651344929
 30
0.0
 11
8120.092593189157
 21
2453.684651344929
 31
0.0
  0
ELLIPSE
  5
252DB
330
747D
100
AcDbEntity
  8
細線
 48
50.0
100
AcDbEllipse
 10
8104.092593189157
 20
2445.684651344928
 30
0.0
 11
14.76670786606846
 21
0.0
 31
0.0
210
0.0
220
0.0
230
1.0
 40
0.2071254069489396
 41
0.0
 42
6.283185307179586
  0
LINE
  5
252DC
330
747D
100
AcDbEntity
  8
部品1
 48
50.0
100
AcDbLine
 10
8088.092593189157
 20
2405.684651344929
 30
0.0
 11
8120.092593189157
 21
2405.684651344929
 31
0.0
  0
LINE
  5
252DD
330
747D
100
AcDbEntity
  8
部品1
 48
50.0
100
AcDbLine
 10
8120.092593189157
 20
2405.684651344929
 30
0.0
 11
8136.092593189159
 21
2413.684651344928
 31
0.0
  0
LINE
  5
252DE
330
747D
100
AcDbEntity
  8
部品1
 48
50.0
100
AcDbLine
 10
8088.092593189157
 20
2437.684651344929
 30
0.0
 11
8120.092593189157
 21
2437.684651344929
 31
0.0
  0
LINE
  5
252DF
330
747D
100
AcDbEntity
  8
部品1
 48
50.0
100
AcDbLine
 10
8120.092593189157
 20
2437.684651344929
 30
0.0
 11
8136.092593189159
 21
2445.684651344928
 31
0.0
  0
LINE
  5
252E0
330
747D
100
AcDbEntity
  8
細線
 48
50.0
100
AcDbLine
 10
8120.092593189157
 20
2405.684651344929
 30
0.0
 11
8120.092593189157
 21
2437.684651344929
 31
0.0
  0
LINE
  5
252E1
330
747D
100
AcDbEntity
  8
部品1
 48
50.0
100
AcDbLine
 10
8136.092593189159
 20
2413.684651344928
 30
0.0
 11
8136.092593189159
 21
2445.684651344928
 31
0.0
  0
LINE
  5
252E2
330
747D
100
AcDbEntity
  8
細線
 48
50.0
100
AcDbLine
 10
8088.092593189157
 20
2405.684651344929
 30
0.0
 11
8088.092593189157
 21
2437.684651344929
 31
0.0
  0
LINE
  5
252E3
330
747D
100
AcDbEntity
  8
部品1
 48
50.0
100
AcDbLine
 10
8120.092593189157
 20
2453.684651344929
 30
0.0
 11
8136.092593189159
 21
2445.684651344928
 31
0.0
  0
TEXT
  5
252E4
330
747D
100
AcDbEntity
  8
部品1
100
AcDbText
 10
7804.864842381089
 20
3196.229058061203
 30
0.0
 40
120.0
  1
基礎詳細
  7
STYLE2
100
AcDbText
  0
LINE
  5
252E5
330
747D
100
AcDbEntity
  8
部品1
100
AcDbLine
 10
11182.97002658894
 20
411.4740204279833
 30
0.0
 11
11182.97002658895
 21
3375.780990012631
 31
0.0
  0
LINE
  5
252E6
330
747D
100
AcDbEntity
  8
細線
100
AcDbLine
 10
10190.8618591687
 20
1814.809370235785
 30
0.0
 11
9996.228525491915
 21
2009.442703912569
 31
0.0
  0
LINE
  5
252E7
330
747D
100
AcDbEntity
  8
部品1
100
AcDbLine
 10
9996.228525491915
 20
2054.809370235786
 30
0.0
 11
10476.22852549191
 21
2054.809370235786
 31
0.0
  0
LINE
  5
252E8
330
747D
100
AcDbEntity
  8
細線
 48
50.0
100
AcDbLine
 10
10130.29940993517
 20
1595.110454582435
 30
0.0
 11
10164.59690656636
 21
1723.110454582435
 31
0.0
  0
LINE
  5
252E9
330
747D
100
AcDbEntity
  8
部品1
100
AcDbLine
 10
9876.228525491915
 20
1595.110454582432
 30
0.0
 11
10596.22852549191
 21
1595.110454582435
 31
0.0
  0
LINE
  5
252EA
330
747D
100
AcDbEntity
  8
部品1
100
AcDbLine
 10
9876.228525491915
 20
1723.110454582435
 30
0.0
 11
10596.22852549191
 21
1723.110454582438
 31
0.0
  0
LINE
  5
252EB
330
747D
100
AcDbEntity
  8
細線
100
AcDbLine
 10
10057.14717098516
 20
1723.110454582435
 30
0.0
 11
10148.8460866385
 21
1814.809370235785
 31
0.0
  0
LWPOLYLINE
  5
252EC
330
747D
100
AcDbEntity
  8
部品1
 48
50.0
100
AcDbPolyline
 90
        2
 70
     0
 43
12.0
 10
9611.617263391527
 20
1814.809370235785
 10
10812.70956652315
 20
1814.809370235785
  0
LINE
  5
252ED
330
747D
100
AcDbEntity
  8
細線
100
AcDbLine
 10
10139.95017092327
 20
1814.809370235785
 30
0.0
 11
9996.228525491915
 21
1958.531015667139
 31
0.0
  0
TEXT
  5
252EE
330
747D
100
AcDbEntity
  8
部品1
 48
50.0
100
AcDbText
 10
9232.110438733412
 20
1548.009629598477
 30
0.0
 40
80.0
  1
ボルトの出
 50
90.0
  7
STYLE2
100
AcDbText
  0
LINE
  5
252EF
330
747D
100
AcDbEntity
  8
部品1
100
AcDbLine
 10
9996.228525491915
 20
1814.809370235785
 30
0.0
 11
9996.228525491915
 21
2054.809370235786
 31
0.0
  0
LINE
  5
252F0
330
747D
100
AcDbEntity
  8
細線
 48
50.0
100
AcDbLine
 10
9972.523320040677
 20
1595.110454582435
 30
0.0
 11
10006.82081667185
 21
1723.110454582435
 31
0.0
  0
LINE
  5
252F1
330
747D
100
AcDbEntity
  8
細線
 48
50.0
100
AcDbLine
 10
10051.41136498792
 20
1595.110454582435
 30
0.0
 11
10085.70886161911
 21
1723.110454582435
 31
0.0
  0
LINE
  5
252F2
330
747D
100
AcDbEntity
  8
細線
 48
50.0
100
AcDbLine
 10
9893.635275093428
 20
1595.110454582435
 30
0.0
 11
9927.932771724613
 21
1723.110454582435
 31
0.0
  0
LINE
  5
252F3
330
747D
100
AcDbEntity
  8
部品1
100
AcDbLine
 10
9876.228525491915
 20
1595.110454582432
 30
0.0
 11
9876.228525491915
 21
1814.809370235785
 31
0.0
  0
LINE
  5
252F4
330
747D
100
AcDbEntity
  8
細線
 48
50.0
100
AcDbLine
 10
9978.954100659027
 20
1619.110454582435
 30
0.0
 11
9985.384881277376
 21
1595.110454582435
 31
0.0
  0
LINE
  5
252F5
330
747D
100
AcDbEntity
  8
細線
 48
50.0
100
AcDbLine
 10
9900.066055711777
 20
1619.110454582435
 30
0.0
 11
9906.496836330124
 21
1595.110454582435
 31
0.0
  0
LINE
  5
252F6
330
747D
100
AcDbEntity
  8
細線
 48
50.0
100
AcDbLine
 10
10057.84214560628
 20
1619.110454582435
 30
0.0
 11
10064.27292622462
 21
1595.110454582435
 31
0.0
  0
LINE
  5
252F7
330
747D
100
AcDbEntity
  8
細線
 48
50.0
100
AcDbLine
 10
10136.73019055352
 20
1619.110454582435
 30
0.0
 11
10143.16097117187
 21
1595.110454582435
 31
0.0
  0
LINE
  5
252F8
330
747D
100
AcDbEntity
  8
細線
 48
50.0
100
AcDbLine
 10
9921.501991106268
 20
1699.110454582435
 30
0.0
 11
9915.071210487917
 21
1723.110454582435
 31
0.0
  0
LINE
  5
252F9
330
747D
100
AcDbEntity
  8
細線
 48
50.0
100
AcDbLine
 10
10079.27808100077
 20
1699.110454582435
 30
0.0
 11
10072.84730038242
 21
1723.110454582435
 31
0.0
  0
LINE
  5
252FA
330
747D
100
AcDbEntity
  8
細線
 48
50.0
100
AcDbLine
 10
10000.39003605351
 20
1699.110454582435
 30
0.0
 11
9993.95925543517
 21
1723.110454582435
 31
0.0
  0
LINE
  5
252FB
330
747D
100
AcDbEntity
  8
細線
100
AcDbLine
 10
9989.264919991246
 20
1723.110454582435
 30
0.0
 11
10080.96383564459
 21
1814.809370235785
 31
0.0
  0
LINE
  5
252FC
330
747D
100
AcDbEntity
  8
細線
100
AcDbLine
 10
10023.2060454882
 20
1723.110454582435
 30
0.0
 11
10114.90496114154
 21
1814.809370235785
 31
0.0
  0
LINE
  5
252FD
330
747D
100
AcDbEntity
  8
細線
100
AcDbLine
 10
10411.4791748989
 20
1814.809370235785
 30
0.0
 11
10171.4791748989
 21
2054.809370235786
 31
0.0
  0
LINE
  5
252FE
330
747D
100
AcDbEntity
  8
細線
100
AcDbLine
 10
10462.39086314433
 20
1814.809370235787
 30
0.0
 11
10222.39086314433
 21
2054.809370235786
 31
0.0
  0
LINE
  5
252FF
330
747D
100
AcDbEntity
  8
部品1
100
AcDbLine
 10
10476.22852549191
 20
2054.809370235786
 30
0.0
 11
10476.22852549191
 21
1814.809370235785
 31
0.0
  0
LINE
  5
25300
330
747D
100
AcDbEntity
  8
細線
 48
50.0
100
AcDbLine
 10
10445.85158972416
 20
1595.110454582433
 30
0.0
 11
10480.14908635535
 21
1723.110454582433
 31
0.0
  0
LINE
  5
25301
330
747D
100
AcDbEntity
  8
細線
100
AcDbLine
 10
10417.14717098515
 20
1723.110454582437
 30
0.0
 11
10508.8460866385
 21
1814.809370235785
 31
0.0
  0
LINE
  5
25302
330
747D
100
AcDbEntity
  8
細線
 48
50.0
100
AcDbLine
 10
10366.96354477691
 20
1595.110454582435
 30
0.0
 11
10401.26104140809
 21
1723.110454582435
 31
0.0
  0
LINE
  5
25303
330
747D
100
AcDbEntity
  8
細線
 48
50.0
100
AcDbLine
 10
10209.18745488242
 20
1595.110454582435
 30
0.0
 11
10243.4849515136
 21
1723.110454582435
 31
0.0
  0
LINE
  5
25304
330
747D
100
AcDbEntity
  8
細線
 48
50.0
100
AcDbLine
 10
10288.07549982966
 20
1595.110454582435
 30
0.0
 11
10322.37299646085
 21
1723.110454582435
 31
0.0
  0
LINE
  5
25305
330
747D
100
AcDbEntity
  8
細線
 48
50.0
100
AcDbLine
 10
10294.50628044802
 20
1619.110454582435
 30
0.0
 11
10300.93706106636
 21
1595.110454582435
 31
0.0
  0
LINE
  5
25306
330
747D
100
AcDbEntity
  8
細線
 48
50.0
100
AcDbLine
 10
10215.61823550077
 20
1619.110454582435
 30
0.0
 11
10222.04901611912
 21
1595.110454582435
 31
0.0
  0
LINE
  5
25307
330
747D
100
AcDbEntity
  8
細線
 48
50.0
100
AcDbLine
 10
10373.39432539526
 20
1619.110454582435
 30
0.0
 11
10379.82510601362
 21
1595.110454582435
 31
0.0
  0
LINE
  5
25308
330
747D
100
AcDbEntity
  8
細線
 48
50.0
100
AcDbLine
 10
10452.28237034251
 20
1619.110454582434
 30
0.0
 11
10458.71315096086
 21
1595.110454582435
 31
0.0
  0
LINE
  5
25309
330
747D
100
AcDbEntity
  8
細線
 48
50.0
100
AcDbLine
 10
10315.94221584251
 20
1699.110454582435
 30
0.0
 11
10309.51143522416
 21
1723.110454582435
 31
0.0
  0
LINE
  5
2530A
330
747D
100
AcDbEntity
  8
細線
 48
50.0
100
AcDbLine
 10
10237.05417089526
 20
1699.110454582435
 30
0.0
 11
10230.62339027691
 21
1723.110454582435
 31
0.0
  0
LINE
  5
2530B
330
747D
100
AcDbEntity
  8
細線
 48
50.0
100
AcDbLine
 10
10158.16612594801
 20
1699.110454582435
 30
0.0
 11
10151.73534532967
 21
1723.110454582435
 31
0.0
  0
LINE
  5
2530C
330
747D
100
AcDbEntity
  8
細線
100
AcDbLine
 10
10383.2060454882
 20
1723.110454582437
 30
0.0
 11
10474.90496114154
 21
1814.809370235785
 31
0.0
  0
LINE
  5
2530D
330
747D
100
AcDbEntity
  8
細線
 48
50.0
100
AcDbLine
 10
10394.83026078974
 20
1699.110454582435
 30
0.0
 11
10388.3994801714
 21
1723.110454582435
 31
0.0
  0
LINE
  5
2530E
330
747D
100
AcDbEntity
  8
細線
100
AcDbLine
 10
10349.26491999125
 20
1723.110454582437
 30
0.0
 11
10440.96383564459
 21
1814.809370235785
 31
0.0
  0
LINE
  5
2530F
330
747D
100
AcDbEntity
  8
細線
 48
50.0
100
AcDbLine
 10
10473.718305737
 20
1699.110454582434
 30
0.0
 11
10467.28752511865
 21
1723.110454582435
 31
0.0
  0
LINE
  5
25310
330
747D
100
AcDbEntity
  8
細線
 48
50.0
100
AcDbLine
 10
10524.73963467141
 20
1595.110454582435
 30
0.0
 11
10559.03713130259
 21
1723.110454582433
 31
0.0
  0
LINE
  5
25311
330
747D
100
AcDbEntity
  8
部品1
100
AcDbLine
 10
10596.22852549191
 20
1814.809370235785
 30
0.0
 11
10596.22852549192
 21
1595.110454582435
 31
0.0
  0
LINE
  5
25312
330
747D
100
AcDbEntity
  8
細線
 48
50.0
100
AcDbLine
 10
10531.17041528976
 20
1619.110454582434
 30
0.0
 11
10537.60119590811
 21
1595.110454582435
 31
0.0
  0
LINE
  5
25313
330
747D
100
AcDbEntity
  8
細線
 48
50.0
100
AcDbLine
 10
10552.60635068425
 20
1699.110454582434
 30
0.0
 11
10546.1755700659
 21
1723.110454582435
 31
0.0
  0
LEADER
  5
25314
330
747D
100
AcDbEntity
  8
寸法
 48
50.0
100
AcDbLeader
  3
INABA_S50G
 73
     0
 74
     0
 75
     1
 40
120.0
 41
185.591883092037
 76
     3
 10
10406.95293710784
 20
2054.809370235786
 30
0.0
 10
10440.09114374148
 20
2226.955690916923
 30
0.0
 10
10565.09114374148
 20
2226.955690916923
 30
0.0
340
25315
1001
ACAD
1000
DSTYLE
1002
{
1070
    40
1040
1.0
1002
}
  0
MTEXT
  5
25315
102
{ACAD_REACTORS
330
25314
102
}
330
747D
100
AcDbEntity
  8
寸法
 62
     7
 48
50.0
100
AcDbMText
 10
10590.09114374148
 20
2311.955690916923
 30
0.0
 40
120.0
 41
0.8
 71
     4
 72
     1
  1
\A1;C.B
  7
STYLE1
 73
     1
 44
1.0
1001
ACAD
1000
MTEXTBEGIN
1070
    73
1070
     1
1070
    44
1040
1.0
1070
    74
1070
     0
1000
MTEXTEND
  0
ENDSEC
  0
SECTION
  2
OBJECTS
  0
DICTIONARY
  5
7471
330
0
100
AcDbDictionary
281
     1
  3
ACAD_COLOR
350
173D2
  3
ACAD_GROUP
350
7472
  3
ACAD_LAYOUT
350
173D3
  3
ACAD_MATERIAL
350
173D1
  3
ACAD_MLINESTYLE
350
7473
  3
ACAD_PLOTSETTINGS
350
173D4
  3
ACAD_PLOTSTYLENAME
350
173CF
  3
ACDBHEADERROUNDTRIPXREC
350
253C0
  3
AcDbVariableDictionary
350
253BC
  3
CONTENTDICTIONARY
350
E71C
  3
DRAWINGVARIABLESDICT
350
F3B9
  0
DICTIONARY
  5
1758F
330
7467
100
AcDbDictionary
280
     1
281
     1
  3
ACAD_LAYERSTATES
360
17590
  0
DICTIONARY
  5
173D2
102
{ACAD_REACTORS
330
7471
102
}
330
7471
100
AcDbDictionary
281
     1
  0
DICTIONARY
  5
7472
102
{ACAD_REACTORS
330
7471
102
}
330
7471
100
AcDbDictionary
281
     1
  3
*A1
350
1D2A9
  0
DICTIONARY
  5
173D3
102
{ACAD_REACTORS
330
7471
102
}
330
7471
100
AcDbDictionary
281
     1
  3
Model
350
173D5
  3
レイアウト1
350
173D6
  0
DICTIONARY
  5
173D1
102
{ACAD_REACTORS
330
7471
102
}
330
7471
100
AcDbDictionary
281
     1
  0
DICTIONARY
  5
7473
102
{ACAD_REACTORS
330
7471
102
}
330
7471
100
AcDbDictionary
281
     1
  3
STANDARD
350
7480
  0
DICTIONARY
  5
173D4
102
{ACAD_REACTORS
330
7471
102
}
330
7471
100
AcDbDictionary
281
     1
  0
ACDBDICTIONARYWDFLT
  5
173CF
102
{ACAD_REACTORS
330
7471
102
}
330
7471
100
AcDbDictionary
281
     1
  3
Normal
350
173D0
100
AcDbDictionaryWithDefault
340
173D0
  0
DICTIONARY
  5
253C0
102
{ACAD_REACTORS
330
7471
102
}
330
7471
100
AcDbDictionary
281
     1
  3
COLORDICT
350
253C2
  3
MATERIALDICT
350
253C1
  0
DICTIONARY
  5
253BC
102
{ACAD_REACTORS
330
7471
102
}
330
7471
100
AcDbDictionary
281
     1
  3
DIMASSOC
350
253BD
  3
PROJECTNAME
350
253BE
  0
DICTIONARY
  5
E71C
102
{ACAD_REACTORS
330
7471
102
}
330
7471
100
AcDbDictionary
281
     1
  0
DICTIONARY
  5
F3B9
102
{ACAD_REACTORS
330
7471
102
}
330
7471
100
AcDbDictionary
281
     1
1001
DRAWINGVARIABLESXDATA
1000
POLARMODE
1000
1
  0
DICTIONARY
  5
17590
102
{ACAD_REACTORS
330
1758F
102
}
330
1758F
100
AcDbDictionary
281
     1
  0
GROUP
  5
1D2A9
102
{ACAD_REACTORS
330
7472
102
}
330
7472
100
AcDbGroup
300

 70
     1
 71
     1
  0
LAYOUT
  5
173D5
102
{ACAD_XDICTIONARY
360
253C3
102
}
102
{ACAD_REACTORS
330
173D3
102
}
330
173D3
100
AcDbPlotSettings
  1

  2
クセロPDFよこ.pc3
  4
A3
  6

 40
3.174999952316284
 41
3.174999952316284
 42
3.17498779296875
 43
3.17498779296875
 44
419.9466552734374
 45
296.9259948730469
 46
0.0
 47
0.0
 48
0.0
 49
0.0
140
0.0
141
0.0
142
1.0
143
40.0
 70
 11952
 72
     1
 73
     0
 74
     2
  7
ACA3.ctb
 75
    24
147
0.025
148
0.0
149
0.0
100
AcDbLayout
  1
Model
 70
     1
 71
     0
 10
0.0
 20
0.0
 11
12.0
 21
9.0
 12
0.0
 22
0.0
 32
0.0
 14
0.0
 24
0.0
 34
0.0
 15
0.0
 25
0.0
 35
0.0
146
0.0
 13
0.0
 23
0.0
 33
0.0
 16
1.0
 26
0.0
 36
0.0
 17
0.0
 27
1.0
 37
0.0
 76
     0
330
747D
  0
LAYOUT
  5
173D6
102
{ACAD_XDICTIONARY
360
253C5
102
}
102
{ACAD_REACTORS
330
173D3
102
}
330
173D3
100
AcDbPlotSettings
  1

  2
Microsoft Office Document Image Writer
  4

  6

 40
0.0
 41
0.0
 42
0.0
 43
0.0
 44
0.0
 45
0.0
 46
0.0
 47
0.0
 48
0.0
 49
0.0
140
0.0
141
0.0
142
1.0
143
1.0
 70
   688
 72
     0
 73
     0
 74
     5
  7
ACA3.ctb
 75
    16
147
1.0
148
0.0
149
0.0
100
AcDbLayout
  1
レイアウト1
 70
     0
 71
     1
 10
0.0
 20
0.0
 11
420.0
 21
297.0
 12
0.0
 22
0.0
 32
0.0
 14
1.000000000000000E+20
 24
1.000000000000000E+20
 34
1.000000000000000E+20
 15
-1.000000000000000E+20
 25
-1.000000000000000E+20
 35
-1.000000000000000E+20
146
0.0
 13
0.0
 23
0.0
 33
0.0
 16
1.0
 26
0.0
 36
0.0
 17
0.0
 27
1.0
 37
0.0
 76
     0
330
747A
  0
MLINESTYLE
  5
7480
102
{ACAD_REACTORS
330
7473
102
}
330
7473
100
AcDbMlineStyle
  2
STANDARD
 70
     0
  3

 62
     0
 51
90.0
 52
90.0
 71
     2
 49
0.5
 62
   256
  6
BYLAYER
 49
-0.5
 62
   256
  6
BYLAYER
  0
ACDBPLACEHOLDER
  5
173D0
102
{ACAD_REACTORS
330
173CF
102
}
330
173CF
  0
XRECORD
  5
253C2
102
{ACAD_REACTORS
330
253C0
102
}
330
253C0
100
AcDbXrecord
280
     1
340
173D2
  0
XRECORD
  5
253C1
102
{ACAD_REACTORS
330
253C0
102
}
330
253C0
100
AcDbXrecord
280
     1
340
173D1
  0
DICTIONARYVAR
  5
253BD
102
{ACAD_REACTORS
330
253BC
102
}
330
253BC
100
DictionaryVariables
280
     0
  1
1
  0
DICTIONARYVAR
  5
253BE
102
{ACAD_REACTORS
330
253BC
102
}
330
253BC
100
DictionaryVariables
280
     0
  1

  0
DICTIONARY
  5
253C3
330
173D5
100
AcDbDictionary
280
     1
281
     1
  3
ACAD_XREC_ROUNDTRIP
360
253C4
  0
DICTIONARY
  5
253C5
330
173D6
100
AcDbDictionary
280
     1
281
     1
  3
ACAD_XREC_ROUNDTRIP
360
253C6
  0
XRECORD
  5
253C4
102
{ACAD_REACTORS
330
253C3
102
}
330
253C3
100
AcDbXrecord
280
     1
102
SHADEPLOT
 70
     0
102
SHADEPLOTRESLEVEL
 70
     2
102
SHADEPLOTCUSTOMDPI
 70
   150
  0
XRECORD
  5
253C6
102
{ACAD_REACTORS
330
253C5
102
}
330
253C5
100
AcDbXrecord
280
     1
102
SHADEPLOT
 70
     0
102
SHADEPLOTRESLEVEL
 70
     2
102
SHADEPLOTCUSTOMDPI
 70
   300
  0
ENDSEC
  0
EOF
